  0
SECTION
  2
HEADER
  9
$ACADVER
  1
AC1027
  9
$ACADMAINTVER
 70
    55
  9
$DWGCODEPAGE
  3
ANSI_932
  9
$LASTSAVEDBY
  1
marketing
  9
$REQUIREDVERSIONS
160
                 0
  9
$INSBASE
 10
0.0
 20
0.0
 30
0.0
  9
$EXTMIN
 10
-0.1102284562630302
 20
-0.121759839963488
 30
-0.0000000000112498
  9
$EXTMAX
 10
630.0275666239577
 20
891.1328166503608
 30
0.0000000000002956
  9
$LIMMIN
 10
-1176.0
 20
-798.0
  9
$LIMMAX
 10
594.0
 20
1078.0
  9
$ORTHOMODE
 70
     1
  9
$REGENMODE
 70
     1
  9
$FILLMODE
 70
     1
  9
$QTEXTMODE
 70
     0
  9
$MIRRTEXT
 70
     1
  9
$LTSCALE
 40
10.0
  9
$ATTMODE
 70
     1
  9
$TEXTSIZE
 40
0.2
  9
$TRACEWID
 40
0.05
  9
$TEXTSTYLE
  7
blockfont
  9
$CLAYER
  8
30
  9
$CELTYPE
  6
BYLAYER
  9
$CECOLOR
 62
   256
  9
$CELTSCALE
 40
1.0
  9
$DISPSILH
 70
     0
  9
$DIMSCALE
 40
1.0
  9
$DIMASZ
 40
2.0
  9
$DIMEXO
 40
3.0
  9
$DIMDLI
 40
0.5
  9
$DIMRND
 40
0.0
  9
$DIMDLE
 40
0.0
  9
$DIMEXE
 40
0.5
  9
$DIMTP
 40
0.0
  9
$DIMTM
 40
0.0
  9
$DIMTXT
 40
7.0
  9
$DIMCEN
 40
0.09
  9
$DIMTSZ
 40
0.0
  9
$DIMTOL
 70
     0
  9
$DIMLIM
 70
     0
  9
$DIMTIH
 70
     1
  9
$DIMTOH
 70
     1
  9
$DIMSE1
 70
     0
  9
$DIMSE2
 70
     0
  9
$DIMTAD
 70
     3
  9
$DIMZIN
 70
    12
  9
$DIMBLK
  1
OPEN
  9
$DIMASO
 70
     1
  9
$DIMSHO
 70
     1
  9
$DIMPOST
  1

  9
$DIMAPOST
  1

  9
$DIMALT
 70
     0
  9
$DIMALTD
 70
     2
  9
$DIMALTF
 40
25.4
  9
$DIMLFAC
 40
1.0
  9
$DIMTOFL
 70
     1
  9
$DIMTVP
 40
0.0
  9
$DIMTIX
 70
     0
  9
$DIMSOXD
 70
     0
  9
$DIMSAH
 70
     0
  9
$DIMBLK1
  1

  9
$DIMBLK2
  1

  9
$DIMSTYLE
  2
STANDARD1
  9
$DIMCLRD
 70
     0
  9
$DIMCLRE
 70
     0
  9
$DIMCLRT
 70
     0
  9
$DIMTFAC
 40
1.0
  9
$DIMGAP
 40
2.0
  9
$DIMJUST
 70
     0
  9
$DIMSD1
 70
     0
  9
$DIMSD2
 70
     0
  9
$DIMTOLJ
 70
     1
  9
$DIMTZIN
 70
     0
  9
$DIMALTZ
 70
     0
  9
$DIMALTTZ
 70
     0
  9
$DIMUPT
 70
     0
  9
$DIMDEC
 70
     8
  9
$DIMTDEC
 70
     8
  9
$DIMALTU
 70
     2
  9
$DIMALTTD
 70
     2
  9
$DIMTXSTY
  7
STANDARD
  9
$DIMAUNIT
 70
     0
  9
$DIMADEC
 70
     0
  9
$DIMALTRND
 40
0.0
  9
$DIMAZIN
 70
     0
  9
$DIMDSEP
 70
    46
  9
$DIMATFIT
 70
     2
  9
$DIMFRAC
 70
     0
  9
$DIMLDRBLK
  1
OPEN
  9
$DIMLUNIT
 70
     2
  9
$DIMLWD
 70
    -2
  9
$DIMLWE
 70
    -2
  9
$DIMTMOVE
 70
     0
  9
$DIMFXL
 40
1.0
  9
$DIMFXLON
 70
     0
  9
$DIMJOGANG
 40
0.7853981633974483
  9
$DIMTFILL
 70
     0
  9
$DIMTFILLCLR
 70
     0
  9
$DIMARCSYM
 70
     0
  9
$DIMLTYPE
  6

  9
$DIMLTEX1
  6

  9
$DIMLTEX2
  6

  9
$DIMTXTDIRECTION
 70
     0
  9
$LUNITS
 70
     2
  9
$LUPREC
 70
     8
  9
$SKETCHINC
 40
0.1
  9
$FILLETRAD
 40
0.0
  9
$AUNITS
 70
     0
  9
$AUPREC
 70
     0
  9
$MENU
  1
.
  9
$ELEVATION
 40
0.0
  9
$PELEVATION
 40
0.0
  9
$THICKNESS
 40
0.0
  9
$LIMCHECK
 70
     0
  9
$CHAMFERA
 40
0.0
  9
$CHAMFERB
 40
0.0
  9
$CHAMFERC
 40
0.0
  9
$CHAMFERD
 40
0.0
  9
$SKPOLY
 70
     0
  9
$TDCREATE
 40
2452286.555658658
  9
$TDUCREATE
 40
2452286.180658658
  9
$TDUPDATE
 40
2459243.606535717
  9
$TDUUPDATE
 40
2459243.231535717
  9
$TDINDWG
 40
2.4769621065
  9
$TDUSRTIMER
 40
2.4769580324
  9
$USRTIMER
 70
     1
  9
$ANGBASE
 50
0.0
  9
$ANGDIR
 70
     0
  9
$PDMODE
 70
     0
  9
$PDSIZE
 40
0.0
  9
$PLINEWID
 40
0.0
  9
$SPLFRAME
 70
     0
  9
$SPLINETYPE
 70
     6
  9
$SPLINESEGS
 70
     8
  9
$HANDSEED
  5
3AC32
  9
$SURFTAB1
 70
     6
  9
$SURFTAB2
 70
     6
  9
$SURFTYPE
 70
     6
  9
$SURFU
 70
     6
  9
$SURFV
 70
     6
  9
$UCSBASE
  2

  9
$UCSNAME
  2

  9
$UCSORG
 10
0.0
 20
0.0
 30
0.0
  9
$UCSXDIR
 10
1.0
 20
0.0
 30
0.0
  9
$UCSYDIR
 10
0.0
 20
1.0
 30
0.0
  9
$UCSORTHOREF
  2

  9
$UCSORTHOVIEW
 70
     0
  9
$UCSORGTOP
 10
0.0
 20
0.0
 30
0.0
  9
$UCSORGBOTTOM
 10
0.0
 20
0.0
 30
0.0
  9
$UCSORGLEFT
 10
0.0
 20
0.0
 30
0.0
  9
$UCSORGRIGHT
 10
0.0
 20
0.0
 30
0.0
  9
$UCSORGFRONT
 10
0.0
 20
0.0
 30
0.0
  9
$UCSORGBACK
 10
0.0
 20
0.0
 30
0.0
  9
$PUCSBASE
  2

  9
$PUCSNAME
  2

  9
$PUCSORG
 10
0.0
 20
0.0
 30
0.0
  9
$PUCSXDIR
 10
1.0
 20
0.0
 30
0.0
  9
$PUCSYDIR
 10
0.0
 20
1.0
 30
0.0
  9
$PUCSORTHOREF
  2

  9
$PUCSORTHOVIEW
 70
     0
  9
$PUCSORGTOP
 10
0.0
 20
0.0
 30
0.0
  9
$PUCSORGBOTTOM
 10
0.0
 20
0.0
 30
0.0
  9
$PUCSORGLEFT
 10
0.0
 20
0.0
 30
0.0
  9
$PUCSORGRIGHT
 10
0.0
 20
0.0
 30
0.0
  9
$PUCSORGFRONT
 10
0.0
 20
0.0
 30
0.0
  9
$PUCSORGBACK
 10
0.0
 20
0.0
 30
0.0
  9
$USERI1
 70
     0
  9
$USERI2
 70
     0
  9
$USERI3
 70
     0
  9
$USERI4
 70
     0
  9
$USERI5
 70
     0
  9
$USERR1
 40
0.0
  9
$USERR2
 40
0.0
  9
$USERR3
 40
0.0
  9
$USERR4
 40
0.0
  9
$USERR5
 40
0.0
  9
$WORLDVIEW
 70
     1
  9
$SHADEDGE
 70
     3
  9
$SHADEDIF
 70
    70
  9
$TILEMODE
 70
     1
  9
$MAXACTVP
 70
    48
  9
$PINSBASE
 10
0.0
 20
0.0
 30
0.0
  9
$PLIMCHECK
 70
     0
  9
$PEXTMIN
 10
0.0
 20
0.0
 30
0.0
  9
$PEXTMAX
 10
0.0
 20
0.0
 30
0.0
  9
$PLIMMIN
 10
-0.2500002402958907
 20
-0.2499999962453767
  9
$PLIMMAX
 10
10.74999951940822
 20
8.249999763458731
  9
$UNITMODE
 70
     0
  9
$VISRETAIN
 70
     1
  9
$PLINEGEN
 70
     0
  9
$PSLTSCALE
 70
     1
  9
$TREEDEPTH
 70
  3020
  9
$CMLSTYLE
  2
STANDARD
  9
$CMLJUST
 70
     0
  9
$CMLSCALE
 40
1.0
  9
$PROXYGRAPHICS
 70
     1
  9
$MEASUREMENT
 70
     0
  9
$CELWEIGHT
370
    -1
  9
$ENDCAPS
280
     0
  9
$JOINSTYLE
280
     0
  9
$LWDISPLAY
290
     0
  9
$INSUNITS
 70
     0
  9
$HYPERLINKBASE
  1

  9
$STYLESHEET
  1
MONOCHROME.CTB
  9
$XEDIT
290
     1
  9
$CEPSNTYPE
380
     0
  9
$PSTYLEMODE
290
     1
  9
$FINGERPRINTGUID
  2

  9
$VERSIONGUID
  2
{39DEFCB6-664B-48F9-AF30-59706DC2F8A7}
  9
$EXTNAMES
290
     1
  9
$PSVPSCALE
 40
0.0
  9
$OLESTARTUP
290
     0
  9
$SORTENTS
280
   127
  9
$INDEXCTL
280
     0
  9
$HIDETEXT
280
     0
  9
$XCLIPFRAME
280
     2
  9
$HALOGAP
280
     0
  9
$OBSCOLOR
 70
   257
  9
$OBSLTYPE
280
     0
  9
$INTERSECTIONDISPLAY
280
     0
  9
$INTERSECTIONCOLOR
 70
   257
  9
$DIMASSOC
280
     1
  9
$PROJECTNAME
  1

  9
$CAMERADISPLAY
290
     0
  9
$LENSLENGTH
 40
50.0
  9
$CAMERAHEIGHT
 40
0.0
  9
$STEPSPERSEC
 40
2.0
  9
$STEPSIZE
 40
6.0
  9
$3DDWFPREC
 40
2.0
  9
$PSOLWIDTH
 40
0.25
  9
$PSOLHEIGHT
 40
4.0
  9
$LOFTANG1
 40
1.570796326794896
  9
$LOFTANG2
 40
1.570796326794896
  9
$LOFTMAG1
 40
0.0
  9
$LOFTMAG2
 40
0.0
  9
$LOFTPARAM
 70
     7
  9
$LOFTNORMALS
280
     1
  9
$LATITUDE
 40
37.795
  9
$LONGITUDE
 40
-122.394
  9
$NORTHDIRECTION
 40
0.0
  9
$TIMEZONE
 70
 -8000
  9
$LIGHTGLYPHDISPLAY
280
     1
  9
$TILEMODELIGHTSYNCH
280
     1
  9
$CMATERIAL
347
E4BC
  9
$SOLIDHIST
280
     1
  9
$SHOWHIST
280
     1
  9
$DWFFRAME
280
     2
  9
$DGNFRAME
280
     0
  9
$REALWORLDSCALE
290
     1
  9
$INTERFERECOLOR
 62
     1
  9
$INTERFEREOBJVS
345
E4DE
  9
$INTERFEREVPVS
346
E4DB
  9
$CSHADOW
280
     0
  9
$SHADOWPLANELOCATION
 40
0.0
  0
ENDSEC
  0
SECTION
  2
CLASSES
  0
CLASS
  1
ACDBDICTIONARYWDFLT
  2
AcDbDictionaryWithDefault
  3
ObjectDBX Classes
 90
        0
 91
        1
280
     0
281
     0
  0
CLASS
  1
DICTIONARYVAR
  2
AcDbDictionaryVar
  3
ObjectDBX Classes
 90
        0
 91
       12
280
     0
281
     0
  0
CLASS
  1
MATERIAL
  2
AcDbMaterial
  3
ObjectDBX Classes
 90
     1153
 91
        3
280
     0
281
     0
  0
CLASS
  1
VISUALSTYLE
  2
AcDbVisualStyle
  3
ObjectDBX Classes
 90
     4095
 91
       26
280
     0
281
     0
  0
CLASS
  1
TABLESTYLE
  2
AcDbTableStyle
  3
ObjectDBX Classes
 90
     4095
 91
        1
280
     0
281
     0
  0
CLASS
  1
SCALE
  2
AcDbScale
  3
ObjectDBX Classes
 90
     1153
 91
       33
280
     0
281
     0
  0
CLASS
  1
MLEADERSTYLE
  2
AcDbMLeaderStyle
  3
ACDB_MLEADERSTYLE_CLASS
 90
     4095
 91
        1
280
     0
281
     0
  0
CLASS
  1
CELLSTYLEMAP
  2
AcDbCellStyleMap
  3
ObjectDBX Classes
 90
     1152
 91
        2
280
     0
281
     0
  0
CLASS
  1
AEC_REFEDIT_STATUS_TRACKER
  2
AecDbRefEditStatusTracker
  3
AecArchBase60|Product Desc: Autodesk Architectural Desktop 2007 |Company: Autodesk,Inc. |WEB Address: www.autodesk.com
 90
      129
 91
        0
280
     0
281
     0
  0
CLASS
  1
NPOCOLLECTION
  2
AcDbImpNonPersistentObjectsCollection
  3
ObjectDBX Classes
 90
     1153
 91
        0
280
     0
281
     0
  0
CLASS
  1
SORTENTSTABLE
  2
AcDbSortentsTable
  3
ObjectDBX Classes
 90
        0
 91
        2
280
     0
281
     0
  0
CLASS
  1
ACDBSECTIONVIEWSTYLE
  2
AcDbSectionViewStyle
  3
ObjectDBX Classes
 90
     1025
 91
        1
280
     0
281
     0
  0
CLASS
  1
ACDBDETAILVIEWSTYLE
  2
AcDbDetailViewStyle
  3
ObjectDBX Classes
 90
     1025
 91
        1
280
     0
281
     0
  0
ENDSEC
  0
SECTION
  2
TABLES
  0
TABLE
  2
VPORT
  5
8
330
0
100
AcDbSymbolTable
 70
     1
  0
VPORT
  5
12C00
330
8
100
AcDbSymbolTableRecord
100
AcDbViewportTableRecord
  2
*Active
 70
     0
 10
0.0
 20
0.0
 11
1.0
 21
1.0
 12
314.9586690838473
 22
445.5055284051987
 13
0.0
 23
0.0
 14
1.0
 24
1.0
 15
10.0
 25
10.0
 16
0.0
 26
0.0
 36
1.0
 17
0.0
 27
0.0
 37
0.0
 40
899.3568908220545
 41
2.880121396054628
 42
50.0
 43
0.0
 44
0.0
 50
0.0
 51
0.0
 71
     0
 72
   100
 73
     1
 74
     1
 75
     0
 76
     0
 77
     0
 78
     1
281
     0
 65
     1
110
0.0
120
0.0
130
0.0
111
1.0
121
0.0
131
0.0
112
0.0
122
1.0
132
0.0
 79
     0
146
0.0
348
E4DA
 60
     3
 61
     5
292
     1
282
     1
141
0.0
142
0.0
 63
   250
421
  3355443
1001
ACAD_NAV_VCDISPLAY
1070
     3
  0
ENDTAB
  0
TABLE
  2
LTYPE
  5
5
330
0
100
AcDbSymbolTable
 70
     7
  0
LTYPE
  5
13
330
5
100
AcDbSymbolTableRecord
100
AcDbLinetypeTableRecord
  2
BYBLOCK
 70
     0
  3

 72
    65
 73
     0
 40
0.0
  0
LTYPE
  5
14
330
5
100
AcDbSymbolTableRecord
100
AcDbLinetypeTableRecord
  2
BYLAYER
 70
     0
  3

 72
    65
 73
     0
 40
0.0
  0
LTYPE
  5
15
330
5
100
AcDbSymbolTableRecord
100
AcDbLinetypeTableRecord
  2
CONTINUOUS
 70
     0
  3
Solid line
 72
    65
 73
     0
 40
0.0
  0
LTYPE
  5
22
330
5
100
AcDbSymbolTableRecord
100
AcDbLinetypeTableRecord
  2
CONTINOUS
 70
     0
  3
Solid line
 72
    65
 73
     0
 40
0.0
  0
LTYPE
  5
24
330
5
100
AcDbSymbolTableRecord
100
AcDbLinetypeTableRecord
  2
DASHDOT
 70
     0
  3
__ . __ . __ . __ . __ . __ . __ . __ . __ . __
 72
    65
 73
     4
 40
1.0
 49
0.5
 74
     0
 49
-0.25
 74
     0
 49
0.0
 74
     0
 49
-0.25
 74
     0
  0
LTYPE
  5
4C47
330
5
100
AcDbSymbolTableRecord
100
AcDbLinetypeTableRecord
  2
DIVIDE
 70
     0
  3
Divide ____ . . ____ . . ____ . . ____ . . ____
 72
    65
 73
     6
 40
1.25
 49
0.5
 74
     0
 49
-0.25
 74
     0
 49
0.0
 74
     0
 49
-0.25
 74
     0
 49
0.0
 74
     0
 49
-0.25
 74
     0
  0
LTYPE
  5
685F
330
5
100
AcDbSymbolTableRecord
100
AcDbLinetypeTableRecord
  2
PHANTOM
 70
     0
  3
Phantom ______  __  __  ______  __  __  ______
 72
    65
 73
     6
 40
2.5
 49
1.25
 74
     0
 49
-0.25
 74
     0
 49
0.25
 74
     0
 49
-0.25
 74
     0
 49
0.25
 74
     0
 49
-0.25
 74
     0
  0
LTYPE
  5
1F2BD
330
5
100
AcDbSymbolTableRecord
100
AcDbLinetypeTableRecord
  2
SLD-実線
 70
     0
  3
SolidWorks Line Style
 72
    65
 73
     0
 40
0.0
  0
LTYPE
  5
399AC
330
5
100
AcDbSymbolTableRecord
100
AcDbLinetypeTableRecord
  2
DASHED
 70
     0
  3
__ __ __ __ __ __ __ __ __ __ __ __ __ __ __
 72
    65
 73
     2
 40
0.75
 49
0.5
 74
     0
 49
-0.25
 74
     0
  0
ENDTAB
  0
TABLE
  2
LAYER
  5
2
102
{ACAD_XDICTIONARY
360
12DA0
102
}
330
0
100
AcDbSymbolTable
 70
    17
  0
LAYER
  5
10
102
{ACAD_XDICTIONARY
360
E512
102
}
330
2
100
AcDbSymbolTableRecord
100
AcDbLayerTableRecord
  2
0
 70
     0
 62
     7
  6
CONTINOUS
370
    -3
390
F
347
E4CC
348
0
  0
LAYER
  5
2F
102
{ACAD_XDICTIONARY
360
E514
102
}
330
2
100
AcDbSymbolTableRecord
100
AcDbLayerTableRecord
  2
10
 70
     0
 62
     4
  6
CONTINOUS
370
    -3
390
F
347
E4CC
348
0
  0
LAYER
  5
35
102
{ACAD_XDICTIONARY
360
E518
102
}
330
2
100
AcDbSymbolTableRecord
100
AcDbLayerTableRecord
  2
16
 70
     0
 62
     6
  6
DASHDOT
370
    -3
390
F
347
E4CC
348
0
  0
LAYER
  5
3D
102
{ACAD_XDICTIONARY
360
E51C
102
}
330
2
100
AcDbSymbolTableRecord
100
AcDbLayerTableRecord
  2
24
 70
     0
 62
     7
  6
CONTINOUS
370
    -3
390
F
347
E4CC
348
0
  0
LAYER
  5
3A2
102
{ACAD_XDICTIONARY
360
E51E
102
}
330
2
100
AcDbSymbolTableRecord
100
AcDbLayerTableRecord
  2
30
 70
     0
 62
     9
  6
CONTINUOUS
370
    -3
390
F
347
E4CC
348
0
  0
LAYER
  5
3A4
330
2
100
AcDbSymbolTableRecord
100
AcDbLayerTableRecord
  2
DEFPOINTS
 70
     0
 62
     7
  6
CONTINUOUS
290
     0
370
    -3
390
F
347
E4CC
348
0
  0
LAYER
  5
3BBA
102
{ACAD_XDICTIONARY
360
E520
102
}
330
2
100
AcDbSymbolTableRecord
100
AcDbLayerTableRecord
  2
18
 70
     0
 62
     5
  6
DIVIDE
370
    -3
390
F
347
E4CC
348
0
  0
LAYER
  5
67A8
102
{ACAD_XDICTIONARY
360
E522
102
}
330
2
100
AcDbSymbolTableRecord
100
AcDbLayerTableRecord
  2
11
 70
     0
 62
     1
  6
CONTINOUS
370
    -3
390
F
347
E4CC
348
0
  0
LAYER
  5
7837
102
{ACAD_XDICTIONARY
360
E524
102
}
330
2
100
AcDbSymbolTableRecord
100
AcDbLayerTableRecord
  2
17
 70
     0
 62
     2
  6
DASHDOT
370
    -3
390
F
347
E4CC
348
0
  0
LAYER
  5
7BC8
102
{ACAD_XDICTIONARY
360
E526
102
}
330
2
100
AcDbSymbolTableRecord
100
AcDbLayerTableRecord
  2
1
 70
     0
 62
     7
  6
CONTINUOUS
370
    -3
390
F
347
E4CC
348
0
  0
LAYER
  5
C4FE
102
{ACAD_XDICTIONARY
360
E52A
102
}
330
2
100
AcDbSymbolTableRecord
100
AcDbLayerTableRecord
  2
2
 70
     0
 62
     7
  6
CONTINUOUS
370
    -3
390
F
347
E4CC
348
0
  0
LAYER
  5
C501
102
{ACAD_XDICTIONARY
360
E530
102
}
330
2
100
AcDbSymbolTableRecord
100
AcDbLayerTableRecord
  2
5
 70
     0
 62
     7
  6
CONTINUOUS
370
    -3
390
F
347
E4CC
348
0
  0
LAYER
  5
E473
102
{ACAD_XDICTIONARY
360
E534
102
}
330
2
100
AcDbSymbolTableRecord
100
AcDbLayerTableRecord
  2
130
 70
     0
 62
     4
  6
CONTINUOUS
370
    -3
390
F
347
E4CC
348
0
  0
LAYER
  5
1106A
102
{ACAD_XDICTIONARY
360
1106B
102
}
330
2
100
AcDbSymbolTableRecord
100
AcDbLayerTableRecord
  2
131
 70
     0
 62
     4
  6
PHANTOM
370
    -3
390
F
347
E4CC
348
0
  0
LAYER
  5
38289
102
{ACAD_XDICTIONARY
360
3828A
102
}
330
2
100
AcDbSymbolTableRecord
100
AcDbLayerTableRecord
  2
240
 70
     0
 62
     7
  6
CONTINUOUS
370
    -3
390
F
347
E4CC
348
0
  0
LAYER
  5
399AD
102
{ACAD_XDICTIONARY
360
399AE
102
}
330
2
100
AcDbSymbolTableRecord
100
AcDbLayerTableRecord
  2
12
 70
     0
 62
     3
  6
CONTINOUS
370
    -3
390
F
347
E4CC
348
0
  0
LAYER
  5
3AC0D
330
2
100
AcDbSymbolTableRecord
100
AcDbLayerTableRecord
  2
19
 70
     0
 62
     7
  6
CONTINOUS
370
    -3
390
F
347
E4CC
348
0
1001
AcAecLayerStandard
1000

1000

1001
AcCmTransparency
1071
        0
  0
ENDTAB
  0
TABLE
  2
STYLE
  5
3
330
0
100
AcDbSymbolTable
 70
     3
  0
STYLE
  5
11
330
3
100
AcDbSymbolTableRecord
100
AcDbTextStyleTableRecord
  2
STANDARD
 70
     0
 40
0.0
 41
1.0
 50
0.0
 71
     0
 42
2.0
  3
txt.shx
  4
bigfont.shx
  0
STYLE
  5
C503
330
3
100
AcDbSymbolTableRecord
100
AcDbTextStyleTableRecord
  2
blockfont
 70
     0
 40
0.0
 41
1.0
 50
0.0
 71
     0
 42
0.2
  3
simplex.shx
  4
bigfont
  0
STYLE
  5
3828B
330
3
100
AcDbSymbolTableRecord
100
AcDbTextStyleTableRecord
  2
SLDTEXTSTYLE0
 70
     0
 40
0.0
 41
1.0
 50
0.0
 71
     0
 42
3.0
  3
MS UI Gothic.ttf
  4

1001
ACAD
1000
MS UI Gothic
1071
      306
  0
ENDTAB
  0
TABLE
  2
VIEW
  5
6
330
0
100
AcDbSymbolTable
 70
     3
  0
VIEW
  5
230C
330
6
100
AcDbSymbolTableRecord
100
AcDbViewTableRecord
  2
OLE1
 70
     0
 40
148.912488
 10
429.497628
 20
2.560627
 41
103.145806
 11
0.0
 21
0.0
 31
1.0
 12
0.0
 22
0.0
 32
0.0
 42
50.0
 43
0.0
 44
0.0
 50
0.0
 71
     0
281
     0
 72
     0
 73
     0
348
E4DA
  0
VIEW
  5
230E
330
6
100
AcDbSymbolTableRecord
100
AcDbViewTableRecord
  2
OLE2
 70
     0
 40
170.778692
 10
322.66497
 20
-5.978304
 41
102.467215
 11
0.0
 21
0.0
 31
1.0
 12
0.0
 22
0.0
 32
0.0
 42
50.0
 43
0.0
 44
0.0
 50
0.0
 71
     0
281
     0
 72
     0
 73
     0
348
E4DA
  0
VIEW
  5
23AA
330
6
100
AcDbSymbolTableRecord
100
AcDbViewTableRecord
  2
OLE3
 70
     0
 40
591.7897389999998
 10
84.79698199999999
 20
-46.09335999999998
 41
388.792096
 11
0.0
 21
0.0
 31
1.0
 12
0.0
 22
0.0
 32
0.0
 42
50.0
 43
0.0
 44
0.0
 50
0.0
 71
     0
281
     0
 72
     0
 73
     0
348
E4DA
  0
ENDTAB
  0
TABLE
  2
UCS
  5
7
330
0
100
AcDbSymbolTable
 70
     0
  0
ENDTAB
  0
TABLE
  2
APPID
  5
9
330
0
100
AcDbSymbolTable
 70
    11
  0
APPID
  5
12
330
9
100
AcDbSymbolTableRecord
100
AcDbRegAppTableRecord
  2
ACAD
 70
     0
  0
APPID
  5
ECD
330
9
100
AcDbSymbolTableRecord
100
AcDbRegAppTableRecord
  2
CONTENTBLOCKICON
 70
     0
  0
APPID
  5
E582
330
9
100
AcDbSymbolTableRecord
100
AcDbRegAppTableRecord
  2
DCO15
 70
     0
  0
APPID
  5
F8B0
330
9
100
AcDbSymbolTableRecord
100
AcDbRegAppTableRecord
  2
ACAD_MLEADERVER
 70
     0
  0
APPID
  5
F8D5
330
9
100
AcDbSymbolTableRecord
100
AcDbRegAppTableRecord
  2
ACAD_PSEXT
 70
     0
  0
APPID
  5
F997
330
9
100
AcDbSymbolTableRecord
100
AcDbRegAppTableRecord
  2
ACAD_EXEMPT_FROM_CAD_STANDARDS
 70
     0
  0
APPID
  5
1F2D1
330
9
100
AcDbSymbolTableRecord
100
AcDbRegAppTableRecord
  2
ACAD_DSTYLE_DIMJAG
 70
     0
  0
APPID
  5
1F2D2
330
9
100
AcDbSymbolTableRecord
100
AcDbRegAppTableRecord
  2
ACAD_DSTYLE_DIMTALN
 70
     0
  0
APPID
  5
3AB8A
330
9
100
AcDbSymbolTableRecord
100
AcDbRegAppTableRecord
  2
ACAD_NAV_VCDISPLAY
 70
     0
  0
APPID
  5
3AC0E
330
9
100
AcDbSymbolTableRecord
100
AcDbRegAppTableRecord
  2
AcAecLayerStandard
 70
     0
  0
APPID
  5
3AC0F
330
9
100
AcDbSymbolTableRecord
100
AcDbRegAppTableRecord
  2
AcCmTransparency
 70
     0
  0
ENDTAB
  0
TABLE
  2
DIMSTYLE
  5
A
330
0
100
AcDbSymbolTable
 70
     2
100
AcDbDimStyleTable
 71
     2
340
C24A
340
175
  0
DIMSTYLE
105
175
102
{ACAD_REACTORS
330
39BC3
330
39BE4
330
39C07
330
39C08
330
39C04
330
39BC8
330
39BC5
330
39BC7
330
39B10
330
39BF5
330
39BE9
330
39BC4
330
39BEA
330
394BF
330
394D8
330
394D9
330
394DC
330
394DD
330
394DE
102
}
330
A
100
AcDbSymbolTableRecord
100
AcDbDimStyleTableRecord
  2
STANDARD
 70
     0
 41
3.0
 42
1.0
 43
0.5
 44
0.5
 69
     1
 73
     0
 74
     0
 77
     1
 78
    12
140
7.0
147
3.0
271
     1
272
     1
340
11
341
3B2
342
3B2
1001
ACAD_DSTYLE_DIMJAG
1070
   388
1040
1.5
1001
ACAD_DSTYLE_DIMTALN
1070
   392
1070
     0
  0
DIMSTYLE
105
C24A
102
{ACAD_REACTORS
330
39B30
330
39B31
330
39BC9
330
39BE3
330
39BF7
330
39C01
330
39BF6
330
39BFE
330
39B11
330
39C0A
330
39B16
330
39B15
330
39B14
330
39B13
330
39B12
330
394B1
330
394B2
330
394B3
330
394B4
330
394B5
330
394BB
330
394BD
330
394C0
330
394E6
330
394E7
330
394E8
102
}
330
A
100
AcDbSymbolTableRecord
100
AcDbDimStyleTableRecord
  2
STANDARD1
 70
     0
 41
2.0
 42
3.0
 43
0.5
 44
0.5
 77
     3
 78
    12
140
7.0
147
2.0
172
     1
271
     8
272
     8
289
     2
340
11
341
3B2
342
3B2
1001
ACAD_DSTYLE_DIMJAG
1070
   388
1040
1.5
1001
ACAD_DSTYLE_DIMTALN
1070
   392
1070
     0
  0
ENDTAB
  0
TABLE
  2
BLOCK_RECORD
  5
1
330
0
100
AcDbSymbolTable
 70
    47
  0
BLOCK_RECORD
  5
1E
102
{ACAD_XDICTIONARY
360
178
102
}
330
1
100
AcDbSymbolTableRecord
100
AcDbBlockTableRecord
  2
*MODEL_SPACE
340
904E
 70
     0
280
     1
281
     0
  0
BLOCK_RECORD
  5
1A
102
{ACAD_XDICTIONARY
360
17A
102
}
330
1
100
AcDbSymbolTableRecord
100
AcDbBlockTableRecord
  2
*PAPER_SPACE
340
904F
 70
     0
280
     1
281
     0
  0
BLOCK_RECORD
  5
3B2
330
1
100
AcDbSymbolTableRecord
100
AcDbBlockTableRecord
  2
_OPEN
340
0
102
{BLKREFS
331
3AB82
331
3AB83
331
3ABA3
331
3ABA4
331
3ABAC
331
3ABAD
331
3ABBE
331
3ABBF
331
3ABC7
331
3ABC8
331
3ABE2
331
3ABE3
331
3AAF4
331
3AAF5
331
3AAFE
331
3AAFF
331
3AC13
331
3AC14
331
3AB23
331
3AB24
331
3AB2C
331
3AB2D
331
39FE2
331
39FE3
331
39FF4
331
39FF5
331
3A098
331
3A099
331
3A0A2
331
3A0A3
331
3A0AB
331
3A0AC
331
3A0B4
331
3A0B5
331
3A153
331
3A154
331
3AB79
331
3AB7A
331
393DB
331
393DC
331
393E7
331
393E8
331
393F3
331
393F4
331
393FF
331
39400
331
3940B
331
3940C
331
3941A
331
3941B
331
39428
331
39429
331
39434
331
39435
331
39440
331
39441
331
3944C
331
3944D
331
39458
331
39459
331
39464
331
39465
331
39470
331
39471
331
3947C
331
3947D
331
39489
331
3948A
331
39497
331
39498
331
394A5
331
394A6
331
39F24
331
39F25
331
39FC2
331
39FC9
331
3A18B
331
3A18C
331
3A167
331
3A168
331
3A170
331
3A171
331
3A179
331
3A17A
331
3A182
331
3A183
331
3AB70
331
3AB71
102
}
 70
     0
280
     1
281
     0
  0
BLOCK_RECORD
  5
393D6
330
1
100
AcDbSymbolTableRecord
100
AcDbBlockTableRecord
  2
*D1
340
0
 70
     0
280
     1
281
     0
  0
BLOCK_RECORD
  5
393E2
330
1
100
AcDbSymbolTableRecord
100
AcDbBlockTableRecord
  2
*D2
340
0
 70
     0
280
     1
281
     0
  0
BLOCK_RECORD
  5
393EE
330
1
100
AcDbSymbolTableRecord
100
AcDbBlockTableRecord
  2
*D3
340
0
 70
     0
280
     1
281
     0
  0
BLOCK_RECORD
  5
393FA
330
1
100
AcDbSymbolTableRecord
100
AcDbBlockTableRecord
  2
*D4
340
0
 70
     0
280
     1
281
     0
  0
BLOCK_RECORD
  5
39406
330
1
100
AcDbSymbolTableRecord
100
AcDbBlockTableRecord
  2
*D5
340
0
 70
     0
280
     1
281
     0
  0
BLOCK_RECORD
  5
39412
330
1
100
AcDbSymbolTableRecord
100
AcDbBlockTableRecord
  2
*D6
340
0
 70
     0
280
     1
281
     0
  0
BLOCK_RECORD
  5
39421
330
1
100
AcDbSymbolTableRecord
100
AcDbBlockTableRecord
  2
*D7
340
0
 70
     0
280
     1
281
     0
  0
BLOCK_RECORD
  5
3942F
330
1
100
AcDbSymbolTableRecord
100
AcDbBlockTableRecord
  2
*D8
340
0
 70
     0
280
     1
281
     0
  0
BLOCK_RECORD
  5
3943B
330
1
100
AcDbSymbolTableRecord
100
AcDbBlockTableRecord
  2
*D9
340
0
 70
     0
280
     1
281
     0
  0
BLOCK_RECORD
  5
39447
330
1
100
AcDbSymbolTableRecord
100
AcDbBlockTableRecord
  2
*D10
340
0
 70
     0
280
     1
281
     0
  0
BLOCK_RECORD
  5
39453
330
1
100
AcDbSymbolTableRecord
100
AcDbBlockTableRecord
  2
*D11
340
0
 70
     0
280
     1
281
     0
  0
BLOCK_RECORD
  5
3945F
330
1
100
AcDbSymbolTableRecord
100
AcDbBlockTableRecord
  2
*D12
340
0
 70
     0
280
     1
281
     0
  0
BLOCK_RECORD
  5
3946B
330
1
100
AcDbSymbolTableRecord
100
AcDbBlockTableRecord
  2
*D13
340
0
 70
     0
280
     1
281
     0
  0
BLOCK_RECORD
  5
39477
330
1
100
AcDbSymbolTableRecord
100
AcDbBlockTableRecord
  2
*D14
340
0
 70
     0
280
     1
281
     0
  0
BLOCK_RECORD
  5
39483
330
1
100
AcDbSymbolTableRecord
100
AcDbBlockTableRecord
  2
*D15
340
0
 70
     0
280
     1
281
     0
  0
BLOCK_RECORD
  5
39490
330
1
100
AcDbSymbolTableRecord
100
AcDbBlockTableRecord
  2
*D16
340
0
 70
     0
280
     1
281
     0
  0
BLOCK_RECORD
  5
3949E
330
1
100
AcDbSymbolTableRecord
100
AcDbBlockTableRecord
  2
*D17
340
0
 70
     0
280
     1
281
     0
  0
BLOCK_RECORD
  5
394AC
102
{ACAD_XDICTIONARY
360
394E9
102
}
330
1
100
AcDbSymbolTableRecord
100
AcDbBlockTableRecord
  2
A$C3C2E0B6F
340
0
 70
     0
280
     1
281
     0
  0
BLOCK_RECORD
  5
39C23
330
1
100
AcDbSymbolTableRecord
100
AcDbBlockTableRecord
  2
*D19
340
0
 70
     0
280
     1
281
     0
  0
BLOCK_RECORD
  5
39C2F
330
1
100
AcDbSymbolTableRecord
100
AcDbBlockTableRecord
  2
*D20
340
0
 70
     0
280
     1
281
     0
  0
BLOCK_RECORD
  5
39C3D
330
1
100
AcDbSymbolTableRecord
100
AcDbBlockTableRecord
  2
*D21
340
0
 70
     0
280
     1
281
     0
  0
BLOCK_RECORD
  5
39C49
330
1
100
AcDbSymbolTableRecord
100
AcDbBlockTableRecord
  2
*D22
340
0
 70
     0
280
     1
281
     0
  0
BLOCK_RECORD
  5
39C55
330
1
100
AcDbSymbolTableRecord
100
AcDbBlockTableRecord
  2
*D23
340
0
 70
     0
280
     1
281
     0
  0
BLOCK_RECORD
  5
39C61
330
1
100
AcDbSymbolTableRecord
100
AcDbBlockTableRecord
  2
*D24
340
0
 70
     0
280
     1
281
     0
  0
BLOCK_RECORD
  5
39C6D
330
1
100
AcDbSymbolTableRecord
100
AcDbBlockTableRecord
  2
*D25
340
0
 70
     0
280
     1
281
     0
  0
BLOCK_RECORD
  5
39C79
330
1
100
AcDbSymbolTableRecord
100
AcDbBlockTableRecord
  2
*D26
340
0
 70
     0
280
     1
281
     0
  0
BLOCK_RECORD
  5
39C85
330
1
100
AcDbSymbolTableRecord
100
AcDbBlockTableRecord
  2
*D27
340
0
 70
     0
280
     1
281
     0
  0
BLOCK_RECORD
  5
39C91
330
1
100
AcDbSymbolTableRecord
100
AcDbBlockTableRecord
  2
*D28
340
0
 70
     0
280
     1
281
     0
  0
BLOCK_RECORD
  5
39C9D
330
1
100
AcDbSymbolTableRecord
100
AcDbBlockTableRecord
  2
*D29
340
0
 70
     0
280
     1
281
     0
  0
BLOCK_RECORD
  5
39CA9
330
1
100
AcDbSymbolTableRecord
100
AcDbBlockTableRecord
  2
*D30
340
0
 70
     0
280
     1
281
     0
  0
BLOCK_RECORD
  5
39CC1
330
1
100
AcDbSymbolTableRecord
100
AcDbBlockTableRecord
  2
*D31
340
0
 70
     0
280
     1
281
     0
  0
BLOCK_RECORD
  5
39CCD
330
1
100
AcDbSymbolTableRecord
100
AcDbBlockTableRecord
  2
*D32
340
0
 70
     0
280
     1
281
     0
  0
BLOCK_RECORD
  5
39CD9
330
1
100
AcDbSymbolTableRecord
100
AcDbBlockTableRecord
  2
*D33
340
0
 70
     0
280
     1
281
     0
  0
BLOCK_RECORD
  5
39CE5
330
1
100
AcDbSymbolTableRecord
100
AcDbBlockTableRecord
  2
*D34
340
0
 70
     0
280
     1
281
     0
  0
BLOCK_RECORD
  5
39CF1
330
1
100
AcDbSymbolTableRecord
100
AcDbBlockTableRecord
  2
*D35
340
0
 70
     0
280
     1
281
     0
  0
BLOCK_RECORD
  5
39CFD
330
1
100
AcDbSymbolTableRecord
100
AcDbBlockTableRecord
  2
*D36
340
0
 70
     0
280
     1
281
     0
  0
BLOCK_RECORD
  5
39D09
330
1
100
AcDbSymbolTableRecord
100
AcDbBlockTableRecord
  2
*D37
340
0
 70
     0
280
     1
281
     0
  0
BLOCK_RECORD
  5
39D15
330
1
100
AcDbSymbolTableRecord
100
AcDbBlockTableRecord
  2
*D38
340
0
 70
     0
280
     1
281
     0
  0
BLOCK_RECORD
  5
39D21
330
1
100
AcDbSymbolTableRecord
100
AcDbBlockTableRecord
  2
*D39
340
0
 70
     0
280
     1
281
     0
  0
BLOCK_RECORD
  5
39D2B
330
1
100
AcDbSymbolTableRecord
100
AcDbBlockTableRecord
  2
*D40
340
0
 70
     0
280
     1
281
     0
  0
BLOCK_RECORD
  5
39D37
330
1
100
AcDbSymbolTableRecord
100
AcDbBlockTableRecord
  2
*D41
340
0
 70
     0
280
     1
281
     0
  0
BLOCK_RECORD
  5
39D41
330
1
100
AcDbSymbolTableRecord
100
AcDbBlockTableRecord
  2
*D42
340
0
 70
     0
280
     1
281
     0
  0
BLOCK_RECORD
  5
39D4D
330
1
100
AcDbSymbolTableRecord
100
AcDbBlockTableRecord
  2
*D43
340
0
 70
     0
280
     1
281
     0
  0
BLOCK_RECORD
  5
39D59
330
1
100
AcDbSymbolTableRecord
100
AcDbBlockTableRecord
  2
*D44
340
0
 70
     0
280
     1
281
     0
  0
BLOCK_RECORD
  5
39D65
330
1
100
AcDbSymbolTableRecord
100
AcDbBlockTableRecord
  2
*D45
340
0
 70
     0
280
     1
281
     0
  0
BLOCK_RECORD
  5
39D71
330
1
100
AcDbSymbolTableRecord
100
AcDbBlockTableRecord
  2
*D46
340
0
 70
     0
280
     1
281
     0
  0
ENDTAB
  0
ENDSEC
  0
SECTION
  2
BLOCKS
  0
BLOCK
  5
1F
330
1E
100
AcDbEntity
  8
0
100
AcDbBlockBegin
  2
*MODEL_SPACE
 70
     0
 10
0.0
 20
0.0
 30
0.0
  3
*MODEL_SPACE
  1

  0
ENDBLK
  5
20
330
1E
100
AcDbEntity
  8
0
100
AcDbBlockEnd
  0
BLOCK
  5
1B
330
1A
100
AcDbEntity
 67
     1
  8
0
100
AcDbBlockBegin
  2
*PAPER_SPACE
 70
     0
 10
0.0
 20
0.0
 30
0.0
  3
*PAPER_SPACE
  1

  0
ENDBLK
  5
1C
330
1A
100
AcDbEntity
 67
     1
  8
0
100
AcDbBlockEnd
  0
BLOCK
  5
3B6
330
3B2
100
AcDbEntity
  8
0
100
AcDbBlockBegin
  2
_OPEN
 70
     0
 10
0.0
 20
0.0
 30
0.0
  3
_OPEN
  1

  0
LINE
  5
3B3
330
3B2
100
AcDbEntity
  8
30
  6
Continuous
 62
     0
100
AcDbLine
 10
-1.0
 20
0.166667
 30
0.0
 11
0.0
 21
0.0
 31
0.0
  0
LINE
  5
3B4
330
3B2
100
AcDbEntity
  8
30
  6
Continuous
 62
     0
100
AcDbLine
 10
-1.0
 20
-0.166667
 30
0.0
 11
0.0
 21
0.0
 31
0.0
  0
LINE
  5
3B5
330
3B2
100
AcDbEntity
  8
30
  6
Continuous
 62
     0
100
AcDbLine
 10
0.0
 20
0.0
 30
0.0
 11
-1.0
 21
0.0
 31
0.0
  0
ENDBLK
  5
3B7
330
3B2
100
AcDbEntity
  8
0
100
AcDbBlockEnd
  0
BLOCK
  5
393D7
330
393D6
100
AcDbEntity
  8
0
100
AcDbBlockBegin
  2
*D1
 70
     1
 10
0.0
 20
0.0
 30
0.0
  3
*D1
  1

  0
LINE
  5
393D8
330
393D6
100
AcDbEntity
  8
30
 62
     0
370
    -2
100
AcDbLine
 10
400.3714363970438
 20
378.073147510981
 30
0.0
 11
400.3714363970438
 21
336.8234042003659
 31
0.0
  0
LINE
  5
393D9
330
393D6
100
AcDbEntity
  8
30
 62
     0
370
    -2
100
AcDbLine
 10
460.3714363970438
 20
339.3234042003659
 30
0.0
 11
460.3714363970438
 21
336.8234042003659
 31
0.0
  0
LINE
  5
393DA
330
393D6
100
AcDbEntity
  8
30
 62
     0
370
    -2
100
AcDbLine
 10
402.3714363970438
 20
337.3234042003659
 30
0.0
 11
458.3714363970438
 21
337.3234042003659
 31
0.0
  0
INSERT
  5
393DB
330
393D6
100
AcDbEntity
  8
30
 62
     0
370
    -2
100
AcDbBlockReference
  2
_OPEN
 10
400.3714363970438
 20
337.3234042003659
 30
0.0
 41
2.0
 42
2.0
 43
2.0
 50
180.0
  0
INSERT
  5
393DC
330
393D6
100
AcDbEntity
  8
30
 62
     0
370
    -2
100
AcDbBlockReference
  2
_OPEN
 10
460.3714363970438
 20
337.3234042003659
 30
0.0
 41
2.0
 42
2.0
 43
2.0
  0
MTEXT
  5
393DD
330
393D6
100
AcDbEntity
  8
30
 62
     0
100
AcDbMText
 10
430.3714363970438
 20
342.8234042003659
 30
0.0
 40
7.0
 41
0.0
 46
0.0
 71
     5
 72
     1
  1
\A1;60
 73
     1
 44
1.0
  0
POINT
  5
393DE
330
393D6
100
AcDbEntity
  8
DEFPOINTS
 62
     0
100
AcDbPoint
 10
400.3714363970438
 20
381.073147510981
 30
0.0
  0
POINT
  5
393DF
330
393D6
100
AcDbEntity
  8
DEFPOINTS
 62
     0
100
AcDbPoint
 10
460.3714363970438
 20
342.3234042003659
 30
0.0
  0
POINT
  5
393E0
330
393D6
100
AcDbEntity
  8
DEFPOINTS
 62
     0
100
AcDbPoint
 10
460.3714363970438
 20
337.3234042003659
 30
0.0
  0
ENDBLK
  5
393E1
330
393D6
100
AcDbEntity
  8
0
100
AcDbBlockEnd
  0
BLOCK
  5
393E3
330
393E2
100
AcDbEntity
  8
0
100
AcDbBlockBegin
  2
*D2
 70
     1
 10
0.0
 20
0.0
 30
0.0
  3
*D2
  1

  0
LINE
  5
393E4
330
393E2
100
AcDbEntity
  8
30
 62
     0
370
    -2
100
AcDbLine
 10
388.3714363970439
 20
421.8234042003659
 30
0.0
 11
388.3714363970439
 21
314.3897007940808
 31
0.0
  0
LINE
  5
393E5
330
393E2
100
AcDbEntity
  8
30
 62
     0
370
    -2
100
AcDbLine
 10
460.3714363970438
 20
339.3234042003659
 30
0.0
 11
460.3714363970438
 21
314.3897007940808
 31
0.0
  0
LINE
  5
393E6
330
393E2
100
AcDbEntity
  8
30
 62
     0
370
    -2
100
AcDbLine
 10
390.3714363970438
 20
314.8897007940808
 30
0.0
 11
458.3714363970438
 21
314.8897007940808
 31
0.0
  0
INSERT
  5
393E7
330
393E2
100
AcDbEntity
  8
30
 62
     0
370
    -2
100
AcDbBlockReference
  2
_OPEN
 10
388.3714363970439
 20
314.8897007940808
 30
0.0
 41
2.0
 42
2.0
 43
2.0
 50
180.0
  0
INSERT
  5
393E8
330
393E2
100
AcDbEntity
  8
30
 62
     0
370
    -2
100
AcDbBlockReference
  2
_OPEN
 10
460.3714363970438
 20
314.8897007940808
 30
0.0
 41
2.0
 42
2.0
 43
2.0
  0
MTEXT
  5
393E9
330
393E2
100
AcDbEntity
  8
30
 62
     0
100
AcDbMText
 10
424.3714363970438
 20
320.3897007940808
 30
0.0
 40
7.0
 41
0.0
 46
0.0
 71
     5
 72
     1
  1
\A1;72
 73
     1
 44
1.0
  0
POINT
  5
393EA
330
393E2
100
AcDbEntity
  8
DEFPOINTS
 62
     0
100
AcDbPoint
 10
388.3714363970439
 20
424.8234042003658
 30
0.0
  0
POINT
  5
393EB
330
393E2
100
AcDbEntity
  8
DEFPOINTS
 62
     0
100
AcDbPoint
 10
460.3714363970438
 20
342.3234042003659
 30
0.0
  0
POINT
  5
393EC
330
393E2
100
AcDbEntity
  8
DEFPOINTS
 62
     0
100
AcDbPoint
 10
460.3714363970438
 20
314.8897007940808
 30
0.0
  0
ENDBLK
  5
393ED
330
393E2
100
AcDbEntity
  8
0
100
AcDbBlockEnd
  0
BLOCK
  5
393EF
330
393EE
100
AcDbEntity
  8
0
100
AcDbBlockBegin
  2
*D3
 70
     1
 10
0.0
 20
0.0
 30
0.0
  3
*D3
  1

  0
LINE
  5
393F0
330
393EE
100
AcDbEntity
  8
30
 62
     0
370
    -2
100
AcDbLine
 10
392.3714363970439
 20
395.8234042003659
 30
0.0
 11
392.3714363970439
 21
326.0121712463418
 31
0.0
  0
LINE
  5
393F1
330
393EE
100
AcDbEntity
  8
30
 62
     0
370
    -2
100
AcDbLine
 10
460.3714363970438
 20
339.3234042003659
 30
0.0
 11
460.3714363970438
 21
326.0121712463418
 31
0.0
  0
LINE
  5
393F2
330
393EE
100
AcDbEntity
  8
30
 62
     0
370
    -2
100
AcDbLine
 10
394.3714363970439
 20
326.5121712463419
 30
0.0
 11
458.3714363970438
 21
326.5121712463419
 31
0.0
  0
INSERT
  5
393F3
330
393EE
100
AcDbEntity
  8
30
 62
     0
370
    -2
100
AcDbBlockReference
  2
_OPEN
 10
392.3714363970439
 20
326.5121712463419
 30
0.0
 41
2.0
 42
2.0
 43
2.0
 50
180.0
  0
INSERT
  5
393F4
330
393EE
100
AcDbEntity
  8
30
 62
     0
370
    -2
100
AcDbBlockReference
  2
_OPEN
 10
460.3714363970438
 20
326.5121712463419
 30
0.0
 41
2.0
 42
2.0
 43
2.0
  0
MTEXT
  5
393F5
330
393EE
100
AcDbEntity
  8
30
 62
     0
100
AcDbMText
 10
426.3714363970438
 20
332.0121712463418
 30
0.0
 40
7.0
 41
0.0
 46
0.0
 71
     5
 72
     1
  1
\A1;68
 73
     1
 44
1.0
  0
POINT
  5
393F6
330
393EE
100
AcDbEntity
  8
DEFPOINTS
 62
     0
100
AcDbPoint
 10
392.3714363970439
 20
398.8234042003659
 30
0.0
  0
POINT
  5
393F7
330
393EE
100
AcDbEntity
  8
DEFPOINTS
 62
     0
100
AcDbPoint
 10
460.3714363970438
 20
342.3234042003659
 30
0.0
  0
POINT
  5
393F8
330
393EE
100
AcDbEntity
  8
DEFPOINTS
 62
     0
100
AcDbPoint
 10
460.3714363970438
 20
326.5121712463419
 30
0.0
  0
ENDBLK
  5
393F9
330
393EE
100
AcDbEntity
  8
0
100
AcDbBlockEnd
  0
BLOCK
  5
393FB
330
393FA
100
AcDbEntity
  8
0
100
AcDbBlockBegin
  2
*D4
 70
     1
 10
0.0
 20
0.0
 30
0.0
  3
*D4
  1

  0
LINE
  5
393FC
330
393FA
100
AcDbEntity
  8
30
 62
     0
370
    -2
100
AcDbLine
 10
365.3714363970439
 20
446.8234042003659
 30
0.0
 11
365.3714363970439
 21
304.3897007940808
 31
0.0
  0
LINE
  5
393FD
330
393FA
100
AcDbEntity
  8
30
 62
     0
370
    -2
100
AcDbLine
 10
460.3714363970438
 20
339.3234042003659
 30
0.0
 11
460.3714363970438
 21
304.3897007940808
 31
0.0
  0
LINE
  5
393FE
330
393FA
100
AcDbEntity
  8
30
 62
     0
370
    -2
100
AcDbLine
 10
367.3714363970439
 20
304.8897007940808
 30
0.0
 11
458.3714363970438
 21
304.8897007940808
 31
0.0
  0
INSERT
  5
393FF
330
393FA
100
AcDbEntity
  8
30
 62
     0
370
    -2
100
AcDbBlockReference
  2
_OPEN
 10
365.3714363970439
 20
304.8897007940808
 30
0.0
 41
2.0
 42
2.0
 43
2.0
 50
180.0
  0
INSERT
  5
39400
330
393FA
100
AcDbEntity
  8
30
 62
     0
370
    -2
100
AcDbBlockReference
  2
_OPEN
 10
460.3714363970438
 20
304.8897007940808
 30
0.0
 41
2.0
 42
2.0
 43
2.0
  0
MTEXT
  5
39401
330
393FA
100
AcDbEntity
  8
30
 62
     0
100
AcDbMText
 10
412.8714363970438
 20
310.3897007940808
 30
0.0
 40
7.0
 41
0.0
 46
0.0
 71
     5
 72
     1
  1
\A1;95
 73
     1
 44
1.0
  0
POINT
  5
39402
330
393FA
100
AcDbEntity
  8
DEFPOINTS
 62
     0
100
AcDbPoint
 10
365.3714363970439
 20
449.8234042003658
 30
0.0
  0
POINT
  5
39403
330
393FA
100
AcDbEntity
  8
DEFPOINTS
 62
     0
100
AcDbPoint
 10
460.3714363970438
 20
342.3234042003659
 30
0.0
  0
POINT
  5
39404
330
393FA
100
AcDbEntity
  8
DEFPOINTS
 62
     0
100
AcDbPoint
 10
460.3714363970438
 20
304.8897007940808
 30
0.0
  0
ENDBLK
  5
39405
330
393FA
100
AcDbEntity
  8
0
100
AcDbBlockEnd
  0
BLOCK
  5
39407
330
39406
100
AcDbEntity
  8
0
100
AcDbBlockBegin
  2
*D5
 70
     1
 10
0.0
 20
0.0
 30
0.0
  3
*D5
  1

  0
LINE
  5
39408
330
39406
100
AcDbEntity
  8
30
 62
     0
370
    -2
100
AcDbLine
 10
460.3714363970438
 20
364.3234042003659
 30
0.0
 11
460.3714363970438
 21
326.0121712463418
 31
0.0
  0
LINE
  5
39409
330
39406
100
AcDbEntity
  8
30
 62
     0
370
    -2
100
AcDbLine
 10
567.3714363970438
 20
374.8234042003659
 30
0.0
 11
567.3714363970438
 21
326.0121712463418
 31
0.0
  0
LINE
  5
3940A
330
39406
100
AcDbEntity
  8
30
 62
     0
370
    -2
100
AcDbLine
 10
462.3714363970438
 20
326.5121712463419
 30
0.0
 11
565.3714363970437
 21
326.5121712463419
 31
0.0
  0
INSERT
  5
3940B
330
39406
100
AcDbEntity
  8
30
 62
     0
370
    -2
100
AcDbBlockReference
  2
_OPEN
 10
460.3714363970438
 20
326.5121712463419
 30
0.0
 41
2.0
 42
2.0
 43
2.0
 50
180.0
  0
INSERT
  5
3940C
330
39406
100
AcDbEntity
  8
30
 62
     0
370
    -2
100
AcDbBlockReference
  2
_OPEN
 10
567.3714363970438
 20
326.5121712463419
 30
0.0
 41
2.0
 42
2.0
 43
2.0
  0
MTEXT
  5
3940D
330
39406
100
AcDbEntity
  8
30
 62
     0
100
AcDbMText
 10
513.8714363970438
 20
332.0121712463418
 30
0.0
 40
7.0
 41
0.0
 46
0.0
 71
     5
 72
     1
  1
\A1;107
 73
     1
 44
1.0
  0
POINT
  5
3940E
330
39406
100
AcDbEntity
  8
DEFPOINTS
 62
     0
100
AcDbPoint
 10
460.3714363970438
 20
367.3234042003659
 30
0.0
  0
POINT
  5
3940F
330
39406
100
AcDbEntity
  8
DEFPOINTS
 62
     0
100
AcDbPoint
 10
567.3714363970438
 20
377.8234042003659
 30
0.0
  0
POINT
  5
39410
330
39406
100
AcDbEntity
  8
DEFPOINTS
 62
     0
100
AcDbPoint
 10
567.3714363970438
 20
326.5121712463419
 30
0.0
  0
ENDBLK
  5
39411
330
39406
100
AcDbEntity
  8
0
100
AcDbBlockEnd
  0
BLOCK
  5
39413
330
39412
100
AcDbEntity
  8
0
100
AcDbBlockBegin
  2
*D6
 70
     1
 10
0.0
 20
0.0
 30
0.0
  3
*D6
  1

  0
LINE
  5
39414
330
39412
100
AcDbEntity
  8
30
 62
     0
370
    -2
100
AcDbLine
 10
570.3930366986464
 20
518.8187755643077
 30
0.0
 11
580.8930366986466
 21
518.8187755643077
 31
0.0
  0
LINE
  5
39415
330
39412
100
AcDbEntity
  8
30
 62
     0
370
    -2
100
AcDbLine
 10
570.3930366986464
 20
524.818775564308
 30
0.0
 11
580.8930366986466
 21
524.818775564308
 31
0.0
  0
LINE
  5
39416
330
39412
100
AcDbEntity
  8
30
 62
     0
370
    -2
100
AcDbLine
 10
580.3930366986466
 20
516.818775564308
 30
0.0
 11
580.3930366986466
 21
514.8187755643077
 31
0.0
  0
LINE
  5
39417
330
39412
100
AcDbEntity
  8
30
 62
     0
370
    -2
100
AcDbLine
 10
580.3930366986466
 20
526.8187755643078
 30
0.0
 11
580.3930366986466
 21
528.818775564308
 31
0.0
  0
LINE
  5
39418
330
39412
100
AcDbEntity
  8
30
 62
     0
370
    -2
100
AcDbLine
 10
580.3930366986466
 20
528.818775564308
 30
0.0
 11
587.0597033653132
 21
528.818775564308
 31
0.0
  0
LINE
  5
39419
330
39412
100
AcDbEntity
  8
30
 62
     0
370
    -2
100
AcDbLine
 10
580.3930366986466
 20
518.8187755643077
 30
0.0
 11
580.3930366986466
 21
524.818775564308
 31
0.0
  0
INSERT
  5
3941A
330
39412
100
AcDbEntity
  8
30
 62
     0
370
    -2
100
AcDbBlockReference
  2
_OPEN
 10
580.3930366986466
 20
518.8187755643077
 30
0.0
 41
2.0
 42
2.0
 43
2.0
 50
90.0
  0
INSERT
  5
3941B
330
39412
100
AcDbEntity
  8
30
 62
     0
370
    -2
100
AcDbBlockReference
  2
_OPEN
 10
580.3930366986466
 20
524.818775564308
 30
0.0
 41
2.0
 42
2.0
 43
2.0
 50
270.0
  0
MTEXT
  5
3941C
330
39412
100
AcDbEntity
  8
30
 62
     0
100
AcDbMText
 10
584.7263700319797
 20
534.318775564308
 30
0.0
 40
7.0
 41
0.0
 46
0.0
 71
     5
 72
     1
  1
\A1;6
 73
     1
 44
1.0
  0
POINT
  5
3941D
330
39412
100
AcDbEntity
  8
DEFPOINTS
 62
     0
100
AcDbPoint
 10
567.3930366986466
 20
518.8187755643077
 30
0.0
  0
POINT
  5
3941E
330
39412
100
AcDbEntity
  8
DEFPOINTS
 62
     0
100
AcDbPoint
 10
567.3930366986466
 20
524.818775564308
 30
0.0
  0
POINT
  5
3941F
330
39412
100
AcDbEntity
  8
DEFPOINTS
 62
     0
100
AcDbPoint
 10
580.3930366986466
 20
524.818775564308
 30
0.0
  0
ENDBLK
  5
39420
330
39412
100
AcDbEntity
  8
0
100
AcDbBlockEnd
  0
BLOCK
  5
39422
330
39421
100
AcDbEntity
  8
0
100
AcDbBlockBegin
  2
*D7
 70
     1
 10
0.0
 20
0.0
 30
0.0
  3
*D7
  1

  0
LINE
  5
39423
330
39421
100
AcDbEntity
  8
30
 62
     0
370
    -2
100
AcDbLine
 10
510.8569333373962
 20
373.2280542975766
 30
0.0
 11
500.7063129439599
 21
373.2280542975766
 31
0.0
  0
LINE
  5
39424
330
39421
100
AcDbEntity
  8
30
 62
     0
370
    -2
100
AcDbLine
 10
510.8544333373966
 20
382.2280542975769
 30
0.0
 11
500.7063129439599
 21
382.2280542975769
 31
0.0
  0
LINE
  5
39425
330
39421
100
AcDbEntity
  8
30
 62
     0
370
    -2
100
AcDbLine
 10
501.2063129439598
 20
375.2280542975766
 30
0.0
 11
501.2063129439598
 21
380.2280542975769
 31
0.0
  0
LINE
  5
39426
330
39421
100
AcDbEntity
  8
30
 62
     0
370
    -2
100
AcDbLine
 10
501.2063129439598
 20
382.2280542975769
 30
0.0
 11
501.2063129439598
 21
398.998383635047
 31
0.0
  0
LINE
  5
39427
330
39421
100
AcDbEntity
  8
30
 62
     0
370
    -2
100
AcDbLine
 10
501.2063129439598
 20
398.998383635047
 30
0.0
 11
507.8729796106268
 21
398.998383635047
 31
0.0
  0
INSERT
  5
39428
330
39421
100
AcDbEntity
  8
30
 62
     0
370
    -2
100
AcDbBlockReference
  2
_OPEN
 10
501.2063129439598
 20
373.2280542975766
 30
0.0
 41
2.0
 42
2.0
 43
2.0
 50
270.0
  0
INSERT
  5
39429
330
39421
100
AcDbEntity
  8
30
 62
     0
370
    -2
100
AcDbBlockReference
  2
_OPEN
 10
501.2063129439598
 20
382.2280542975769
 30
0.0
 41
2.0
 42
2.0
 43
2.0
 50
90.0
  0
MTEXT
  5
3942A
330
39421
100
AcDbEntity
  8
30
 62
     0
100
AcDbMText
 10
505.5396462772931
 20
404.4983836350468
 30
0.0
 40
7.0
 41
0.0
 46
0.0
 71
     5
 72
     1
  1
\A1;9
 73
     1
 44
1.0
  0
POINT
  5
3942B
330
39421
100
AcDbEntity
  8
DEFPOINTS
 62
     0
100
AcDbPoint
 10
513.8569333373963
 20
373.2280542975766
 30
0.0
  0
POINT
  5
3942C
330
39421
100
AcDbEntity
  8
DEFPOINTS
 62
     0
100
AcDbPoint
 10
513.8544333373967
 20
382.2280542975769
 30
0.0
  0
POINT
  5
3942D
330
39421
100
AcDbEntity
  8
DEFPOINTS
 62
     0
100
AcDbPoint
 10
501.2063129439598
 20
382.2280542975769
 30
0.0
  0
ENDBLK
  5
3942E
330
39421
100
AcDbEntity
  8
0
100
AcDbBlockEnd
  0
BLOCK
  5
39430
330
3942F
100
AcDbEntity
  8
0
100
AcDbBlockBegin
  2
*D8
 70
     1
 10
0.0
 20
0.0
 30
0.0
  3
*D8
  1

  0
LINE
  5
39431
330
3942F
100
AcDbEntity
  8
30
 62
     0
370
    -2
100
AcDbLine
 10
566.7135447743352
 20
367.7280542975767
 30
0.0
 11
585.3930366986466
 21
367.7280542975767
 31
0.0
  0
LINE
  5
39432
330
3942F
100
AcDbEntity
  8
30
 62
     0
370
    -2
100
AcDbLine
 10
566.7135447743352
 20
387.728054297577
 30
0.0
 11
585.3930366986466
 21
387.728054297577
 31
0.0
  0
LINE
  5
39433
330
3942F
100
AcDbEntity
  8
30
 62
     0
370
    -2
100
AcDbLine
 10
580.3930366986466
 20
370.7280542975766
 30
0.0
 11
580.3930366986466
 21
384.728054297577
 31
0.0
  0
INSERT
  5
39434
330
3942F
100
AcDbEntity
  8
30
 62
     0
370
    -2
100
AcDbBlockReference
  2
_OPEN
 10
580.3930366986466
 20
367.7280542975767
 30
0.0
 41
3.0
 42
3.0
 43
3.0
 50
270.0
  0
INSERT
  5
39435
330
3942F
100
AcDbEntity
  8
30
 62
     0
370
    -2
100
AcDbBlockReference
  2
_OPEN
 10
580.3930366986466
 20
387.728054297577
 30
0.0
 41
3.0
 42
3.0
 43
3.0
 50
90.0
  0
MTEXT
  5
39436
330
3942F
100
AcDbEntity
  8
30
 62
     0
100
AcDbMText
 10
574.8930366986463
 20
377.7280542975769
 30
0.0
 40
7.0
 41
0.0
 46
0.0
 71
     5
 72
     1
  1
\A1;20
 11
0.0000000000000001
 21
1.0
 31
0.0
 73
     1
 44
1.0
 90
        3
 63
     9
421
 13158600
 45
1.25
441
        0
  0
POINT
  5
39437
330
3942F
100
AcDbEntity
  8
DEFPOINTS
 62
     0
100
AcDbPoint
 10
564.7135447743352
 20
367.7280542975767
 30
0.0
  0
POINT
  5
39438
330
3942F
100
AcDbEntity
  8
DEFPOINTS
 62
     0
100
AcDbPoint
 10
564.7135447743352
 20
387.728054297577
 30
0.0
  0
POINT
  5
39439
330
3942F
100
AcDbEntity
  8
DEFPOINTS
 62
     0
100
AcDbPoint
 10
580.3930366986466
 20
387.728054297577
 30
0.0
  0
ENDBLK
  5
3943A
330
3942F
100
AcDbEntity
  8
0
100
AcDbBlockEnd
  0
BLOCK
  5
3943C
330
3943B
100
AcDbEntity
  8
0
100
AcDbBlockBegin
  2
*D9
 70
     1
 10
0.0
 20
0.0
 30
0.0
  3
*D9
  1

  0
LINE
  5
3943D
330
3943B
100
AcDbEntity
  8
30
 62
     0
370
    -2
100
AcDbLine
 10
551.3930366986466
 20
361.7280542975769
 30
0.0
 11
551.3930366986466
 21
356.7280542975769
 31
0.0
  0
LINE
  5
3943E
330
3943B
100
AcDbEntity
  8
30
 62
     0
370
    -2
100
AcDbLine
 10
567.3930366986466
 20
374.7280542975769
 30
0.0
 11
567.3930366986466
 21
356.7280542975769
 31
0.0
  0
LINE
  5
3943F
330
3943B
100
AcDbEntity
  8
30
 62
     0
370
    -2
100
AcDbLine
 10
553.3930366986465
 20
357.2280542975769
 30
0.0
 11
565.3930366986466
 21
357.2280542975769
 31
0.0
  0
INSERT
  5
39440
330
3943B
100
AcDbEntity
  8
30
 62
     0
370
    -2
100
AcDbBlockReference
  2
_OPEN
 10
551.3930366986466
 20
357.2280542975769
 30
0.0
 41
2.0
 42
2.0
 43
2.0
 50
180.0
  0
INSERT
  5
39441
330
3943B
100
AcDbEntity
  8
30
 62
     0
370
    -2
100
AcDbBlockReference
  2
_OPEN
 10
567.3930366986466
 20
357.2280542975769
 30
0.0
 41
2.0
 42
2.0
 43
2.0
  0
MTEXT
  5
39442
330
3943B
100
AcDbEntity
  8
30
 62
     0
100
AcDbMText
 10
559.3930366986466
 20
362.7280542975769
 30
0.0
 40
7.0
 41
0.0
 46
0.0
 71
     5
 72
     1
  1
\A1;16
 73
     1
 44
1.0
  0
POINT
  5
39443
330
3943B
100
AcDbEntity
  8
DEFPOINTS
 62
     0
100
AcDbPoint
 10
551.3930366986466
 20
364.7280542975769
 30
0.0
  0
POINT
  5
39444
330
3943B
100
AcDbEntity
  8
DEFPOINTS
 62
     0
100
AcDbPoint
 10
567.3930366986466
 20
377.7280542975769
 30
0.0
  0
POINT
  5
39445
330
3943B
100
AcDbEntity
  8
DEFPOINTS
 62
     0
100
AcDbPoint
 10
567.3930366986466
 20
357.2280542975769
 30
0.0
  0
ENDBLK
  5
39446
330
3943B
100
AcDbEntity
  8
0
100
AcDbBlockEnd
  0
BLOCK
  5
39448
330
39447
100
AcDbEntity
  8
0
100
AcDbBlockBegin
  2
*D10
 70
     1
 10
0.0
 20
0.0
 30
0.0
  3
*D10
  1

  0
LINE
  5
39449
330
39447
100
AcDbEntity
  8
30
 62
     0
370
    -2
100
AcDbLine
 10
582.3714363970437
 20
377.8234042003659
 30
0.0
 11
595.3714363970438
 21
377.8234042003659
 31
0.0
  0
LINE
  5
3944A
330
39447
100
AcDbEntity
  8
30
 62
     0
370
    -2
100
AcDbLine
 10
582.3714363970437
 20
521.8234042003656
 30
0.0
 11
595.3714363970438
 21
521.8234042003656
 31
0.0
  0
LINE
  5
3944B
330
39447
100
AcDbEntity
  8
30
 62
     0
370
    -2
100
AcDbLine
 10
590.3714363970437
 20
380.8234042003659
 30
0.0
 11
590.3714363970437
 21
518.8234042003656
 31
0.0
  0
INSERT
  5
3944C
330
39447
100
AcDbEntity
  8
30
 62
     0
370
    -2
100
AcDbBlockReference
  2
_OPEN
 10
590.3714363970437
 20
377.8234042003659
 30
0.0
 41
3.0
 42
3.0
 43
3.0
 50
270.0
  0
INSERT
  5
3944D
330
39447
100
AcDbEntity
  8
30
 62
     0
370
    -2
100
AcDbBlockReference
  2
_OPEN
 10
590.3714363970437
 20
521.8234042003656
 30
0.0
 41
3.0
 42
3.0
 43
3.0
 50
90.0
  0
MTEXT
  5
3944E
330
39447
100
AcDbEntity
  8
30
 62
     0
100
AcDbMText
 10
584.8714363970437
 20
449.8234042003658
 30
0.0
 40
7.0
 41
0.0
 46
0.0
 71
     5
 72
     1
  1
\A1;144
 11
0.0000000000000001
 21
1.0
 31
0.0
 73
     1
 44
1.0
 90
        3
 63
     9
421
 13158600
 45
1.25
441
        0
  0
POINT
  5
3944F
330
39447
100
AcDbEntity
  8
DEFPOINTS
 62
     0
100
AcDbPoint
 10
580.3714363970438
 20
377.8234042003659
 30
0.0
  0
POINT
  5
39450
330
39447
100
AcDbEntity
  8
DEFPOINTS
 62
     0
100
AcDbPoint
 10
580.3714363970438
 20
521.8234042003656
 30
0.0
  0
POINT
  5
39451
330
39447
100
AcDbEntity
  8
DEFPOINTS
 62
     0
100
AcDbPoint
 10
590.3714363970437
 20
521.8234042003656
 30
0.0
  0
ENDBLK
  5
39452
330
39447
100
AcDbEntity
  8
0
100
AcDbBlockEnd
  0
BLOCK
  5
39454
330
39453
100
AcDbEntity
  8
0
100
AcDbBlockBegin
  2
*D11
 70
     1
 10
0.0
 20
0.0
 30
0.0
  3
*D11
  1

  0
LINE
  5
39455
330
39453
100
AcDbEntity
  8
30
 62
     0
370
    -2
100
AcDbLine
 10
460.3714363970438
 20
340.3234042003659
 30
0.0
 11
460.3714363970438
 21
332.3234042003659
 31
0.0
  0
LINE
  5
39456
330
39453
100
AcDbEntity
  8
30
 62
     0
370
    -2
100
AcDbLine
 10
532.3714363970435
 20
365.2280542975769
 30
0.0
 11
532.3714363970435
 21
332.3234042003659
 31
0.0
  0
LINE
  5
39457
330
39453
100
AcDbEntity
  8
30
 62
     0
370
    -2
100
AcDbLine
 10
463.3714363970439
 20
337.3234042003659
 30
0.0
 11
529.3714363970438
 21
337.3234042003659
 31
0.0
  0
INSERT
  5
39458
330
39453
100
AcDbEntity
  8
30
 62
     0
370
    -2
100
AcDbBlockReference
  2
_OPEN
 10
460.3714363970438
 20
337.3234042003659
 30
0.0
 41
3.0
 42
3.0
 43
3.0
 50
180.0
  0
INSERT
  5
39459
330
39453
100
AcDbEntity
  8
30
 62
     0
370
    -2
100
AcDbBlockReference
  2
_OPEN
 10
532.3714363970435
 20
337.3234042003659
 30
0.0
 41
3.0
 42
3.0
 43
3.0
  0
MTEXT
  5
3945A
330
39453
100
AcDbEntity
  8
30
 62
     0
100
AcDbMText
 10
490.628348358854
 20
342.8234042003659
 30
0.0
 40
7.0
 41
0.0
 46
0.0
 71
     5
 72
     1
  1
\A1;72
 73
     1
 44
1.0
 90
        3
 63
     9
421
 13158600
 45
1.25
441
        0
  0
POINT
  5
3945B
330
39453
100
AcDbEntity
  8
DEFPOINTS
 62
     0
100
AcDbPoint
 10
460.3714363970438
 20
342.3234042003659
 30
0.0
  0
POINT
  5
3945C
330
39453
100
AcDbEntity
  8
DEFPOINTS
 62
     0
100
AcDbPoint
 10
532.3714363970435
 20
367.2280542975769
 30
0.0
  0
POINT
  5
3945D
330
39453
100
AcDbEntity
  8
DEFPOINTS
 62
     0
100
AcDbPoint
 10
532.3714363970435
 20
337.3234042003659
 30
0.0
  0
ENDBLK
  5
3945E
330
39453
100
AcDbEntity
  8
0
100
AcDbBlockEnd
  0
BLOCK
  5
39460
330
3945F
100
AcDbEntity
  8
0
100
AcDbBlockBegin
  2
*D12
 70
     1
 10
0.0
 20
0.0
 30
0.0
  3
*D12
  1

  0
LINE
  5
39461
330
3945F
100
AcDbEntity
  8
30
 62
     0
370
    -2
100
AcDbLine
 10
379.8714363970437
 20
472.3234042003658
 30
0.0
 11
350.0788984467636
 21
472.3234042003658
 31
0.0
  0
LINE
  5
39462
330
3945F
100
AcDbEntity
  8
30
 62
     0
370
    -2
100
AcDbLine
 10
379.8714363970437
 20
427.3234042003656
 30
0.0
 11
350.0788984467636
 21
427.3234042003656
 31
0.0
  0
LINE
  5
39463
330
3945F
100
AcDbEntity
  8
30
 62
     0
370
    -2
100
AcDbLine
 10
355.0788984467636
 20
469.3234042003656
 30
0.0
 11
355.0788984467636
 21
430.3234042003658
 31
0.0
  0
INSERT
  5
39464
330
3945F
100
AcDbEntity
  8
30
 62
     0
370
    -2
100
AcDbBlockReference
  2
_OPEN
 10
355.0788984467636
 20
472.3234042003658
 30
0.0
 41
3.0
 42
3.0
 43
3.0
 50
90.0
  0
INSERT
  5
39465
330
3945F
100
AcDbEntity
  8
30
 62
     0
370
    -2
100
AcDbBlockReference
  2
_OPEN
 10
355.0788984467636
 20
427.3234042003656
 30
0.0
 41
3.0
 42
3.0
 43
3.0
 50
270.0
  0
MTEXT
  5
39466
330
3945F
100
AcDbEntity
  8
30
 62
     0
100
AcDbMText
 10
349.5788984467635
 20
452.3234042003656
 30
0.0
 40
7.0
 41
0.0
 46
0.0
 71
     5
 72
     1
  1
\A1;45
 11
0.0000000000000001
 21
1.0
 31
0.0
 73
     1
 44
1.0
 90
        3
 63
     9
421
 13158600
 45
1.25
441
        0
  0
POINT
  5
39467
330
3945F
100
AcDbEntity
  8
DEFPOINTS
 62
     0
100
AcDbPoint
 10
381.8714363970437
 20
472.3234042003658
 30
0.0
  0
POINT
  5
39468
330
3945F
100
AcDbEntity
  8
DEFPOINTS
 62
     0
100
AcDbPoint
 10
381.8714363970437
 20
427.3234042003656
 30
0.0
  0
POINT
  5
39469
330
3945F
100
AcDbEntity
  8
DEFPOINTS
 62
     0
100
AcDbPoint
 10
355.0788984467636
 20
427.3234042003656
 30
0.0
  0
ENDBLK
  5
3946A
330
3945F
100
AcDbEntity
  8
0
100
AcDbBlockEnd
  0
BLOCK
  5
3946C
330
3946B
100
AcDbEntity
  8
0
100
AcDbBlockBegin
  2
*D13
 70
     1
 10
0.0
 20
0.0
 30
0.0
  3
*D13
  1

  0
LINE
  5
3946D
330
3946B
100
AcDbEntity
  8
30
 62
     0
370
    -2
100
AcDbLine
 10
386.3714363970439
 20
474.8234042003657
 30
0.0
 11
336.9174877808047
 21
474.8234042003658
 31
0.0
  0
LINE
  5
3946E
330
3946B
100
AcDbEntity
  8
30
 62
     0
370
    -2
100
AcDbLine
 10
386.3714363970439
 20
424.8234042003657
 30
0.0
 11
336.9174877808047
 21
424.8234042003658
 31
0.0
  0
LINE
  5
3946F
330
3946B
100
AcDbEntity
  8
30
 62
     0
370
    -2
100
AcDbLine
 10
341.9174877808047
 20
471.8234042003658
 30
0.0
 11
341.9174877808047
 21
427.8234042003658
 31
0.0
  0
INSERT
  5
39470
330
3946B
100
AcDbEntity
  8
30
 62
     0
370
    -2
100
AcDbBlockReference
  2
_OPEN
 10
341.9174877808047
 20
474.8234042003658
 30
0.0
 41
3.0
 42
3.0
 43
3.0
 50
90.0
  0
INSERT
  5
39471
330
3946B
100
AcDbEntity
  8
30
 62
     0
370
    -2
100
AcDbBlockReference
  2
_OPEN
 10
341.9174877808047
 20
424.8234042003658
 30
0.0
 41
3.0
 42
3.0
 43
3.0
 50
270.0
  0
MTEXT
  5
39472
330
3946B
100
AcDbEntity
  8
30
 62
     0
100
AcDbMText
 10
336.4174877808046
 20
449.8234042003658
 30
0.0
 40
7.0
 41
0.0
 46
0.0
 71
     5
 72
     1
  1
\A1;50
 11
0.0000000000000001
 21
1.0
 31
0.0
 73
     1
 44
1.0
 90
        3
 63
     9
421
 13158600
 45
1.25
441
        0
  0
POINT
  5
39473
330
3946B
100
AcDbEntity
  8
DEFPOINTS
 62
     0
100
AcDbPoint
 10
388.3714363970439
 20
474.8234042003657
 30
0.0
  0
POINT
  5
39474
330
3946B
100
AcDbEntity
  8
DEFPOINTS
 62
     0
100
AcDbPoint
 10
388.3714363970439
 20
424.8234042003657
 30
0.0
  0
POINT
  5
39475
330
3946B
100
AcDbEntity
  8
DEFPOINTS
 62
     0
100
AcDbPoint
 10
341.9174877808047
 20
424.8234042003658
 30
0.0
  0
ENDBLK
  5
39476
330
3946B
100
AcDbEntity
  8
0
100
AcDbBlockEnd
  0
BLOCK
  5
39478
330
39477
100
AcDbEntity
  8
0
100
AcDbBlockBegin
  2
*D14
 70
     1
 10
0.0
 20
0.0
 30
0.0
  3
*D14
  1

  0
LINE
  5
39479
330
39477
100
AcDbEntity
  8
30
 62
     0
370
    -2
100
AcDbLine
 10
390.3714363970438
 20
500.8234042003655
 30
0.0
 11
321.0633262442097
 21
500.8234042003656
 31
0.0
  0
LINE
  5
3947A
330
39477
100
AcDbEntity
  8
30
 62
     0
370
    -2
100
AcDbLine
 10
390.3714363970438
 20
398.8234042003658
 30
0.0
 11
321.0633262442097
 21
398.8234042003658
 31
0.0
  0
LINE
  5
3947B
330
39477
100
AcDbEntity
  8
30
 62
     0
370
    -2
100
AcDbLine
 10
326.0633262442098
 20
497.8234042003656
 30
0.0
 11
326.0633262442098
 21
401.8234042003657
 31
0.0
  0
INSERT
  5
3947C
330
39477
100
AcDbEntity
  8
30
 62
     0
370
    -2
100
AcDbBlockReference
  2
_OPEN
 10
326.0633262442098
 20
500.8234042003656
 30
0.0
 41
3.0
 42
3.0
 43
3.0
 50
90.0
  0
INSERT
  5
3947D
330
39477
100
AcDbEntity
  8
30
 62
     0
370
    -2
100
AcDbBlockReference
  2
_OPEN
 10
326.0633262442098
 20
398.8234042003658
 30
0.0
 41
3.0
 42
3.0
 43
3.0
 50
270.0
  0
MTEXT
  5
3947E
330
39477
100
AcDbEntity
  8
30
 62
     0
100
AcDbMText
 10
320.5633262442096
 20
449.8234042003657
 30
0.0
 40
7.0
 41
0.0
 46
0.0
 71
     5
 72
     1
  1
\A1;102
 11
0.0000000000000001
 21
1.0
 31
0.0
 73
     1
 44
1.0
 90
        3
 63
     9
421
 13158600
 45
1.25
441
        0
  0
POINT
  5
3947F
330
39477
100
AcDbEntity
  8
DEFPOINTS
 62
     0
100
AcDbPoint
 10
392.3714363970439
 20
500.8234042003655
 30
0.0
  0
POINT
  5
39480
330
39477
100
AcDbEntity
  8
DEFPOINTS
 62
     0
100
AcDbPoint
 10
392.3714363970439
 20
398.8234042003658
 30
0.0
  0
POINT
  5
39481
330
39477
100
AcDbEntity
  8
DEFPOINTS
 62
     0
100
AcDbPoint
 10
326.0633262442098
 20
398.8234042003658
 30
0.0
  0
ENDBLK
  5
39482
330
39477
100
AcDbEntity
  8
0
100
AcDbBlockEnd
  0
BLOCK
  5
39484
330
39483
100
AcDbEntity
  8
0
100
AcDbBlockBegin
  2
*D15
 70
     1
 10
0.0
 20
0.0
 30
0.0
  3
*D15
  1

  0
LINE
  5
39485
330
39483
100
AcDbEntity
  8
30
 62
     0
370
    -2
100
AcDbLine
 10
532.3714363970435
 20
361.2280542975769
 30
0.0
 11
532.3714363970435
 21
354.0071025102943
 31
0.0
  0
LINE
  5
39486
330
39483
100
AcDbEntity
  8
30
 62
     0
370
    -2
100
AcDbLine
 10
519.3714363970435
 20
361.2280542975769
 30
0.0
 11
519.3714363970435
 21
354.0071025102943
 31
0.0
  0
LINE
  5
39487
330
39483
100
AcDbEntity
  8
30
 62
     0
370
    -2
100
AcDbLine
 10
530.3714363970438
 20
354.5071025102943
 30
0.0
 11
521.3714363970438
 21
354.5071025102943
 31
0.0
  0
LINE
  5
39488
330
39483
100
AcDbEntity
  8
30
 62
     0
370
    -2
100
AcDbLine
 10
519.3714363970435
 20
354.5071025102943
 30
0.0
 11
493.3594238592544
 21
354.5071025102943
 31
0.0
  0
INSERT
  5
39489
330
39483
100
AcDbEntity
  8
30
 62
     0
370
    -2
100
AcDbBlockReference
  2
_OPEN
 10
532.3714363970435
 20
354.5071025102943
 30
0.0
 41
2.0
 42
2.0
 43
2.0
  0
INSERT
  5
3948A
330
39483
100
AcDbEntity
  8
30
 62
     0
370
    -2
100
AcDbBlockReference
  2
_OPEN
 10
519.3714363970435
 20
354.5071025102943
 30
0.0
 41
2.0
 42
2.0
 43
2.0
 50
180.0
  0
MTEXT
  5
3948B
330
39483
100
AcDbEntity
  8
30
 62
     0
100
AcDbMText
 10
500.0260905259207
 20
360.0071025102943
 30
0.0
 40
7.0
 41
0.0
 46
0.0
 71
     5
 72
     1
  1
\A1;13
 73
     1
 44
1.0
  0
POINT
  5
3948C
330
39483
100
AcDbEntity
  8
DEFPOINTS
 62
     0
100
AcDbPoint
 10
532.3714363970435
 20
364.2280542975769
 30
0.0
  0
POINT
  5
3948D
330
39483
100
AcDbEntity
  8
DEFPOINTS
 62
     0
100
AcDbPoint
 10
519.3714363970435
 20
364.2280542975769
 30
0.0
  0
POINT
  5
3948E
330
39483
100
AcDbEntity
  8
DEFPOINTS
 62
     0
100
AcDbPoint
 10
519.3714363970435
 20
354.5071025102943
 30
0.0
  0
ENDBLK
  5
3948F
330
39483
100
AcDbEntity
  8
0
100
AcDbBlockEnd
  0
BLOCK
  5
39491
330
39490
100
AcDbEntity
  8
0
100
AcDbBlockBegin
  2
*D16
 70
     1
 10
0.0
 20
0.0
 30
0.0
  3
*D16
  1

  0
LINE
  5
39492
330
39490
100
AcDbEntity
  8
30
 62
     0
370
    -2
100
AcDbLine
 10
519.3714363970435
 20
361.7200313284101
 30
0.0
 11
519.3714363970435
 21
344.3169675900835
 31
0.0
  0
LINE
  5
39493
330
39490
100
AcDbEntity
  8
30
 62
     0
370
    -2
100
AcDbLine
 10
513.3714363970438
 20
361.7200313284101
 30
0.0
 11
513.3714363970438
 21
344.3169675900835
 31
0.0
  0
LINE
  5
39494
330
39490
100
AcDbEntity
  8
30
 62
     0
370
    -2
100
AcDbLine
 10
521.3714363970438
 20
344.8169675900836
 30
0.0
 11
523.3714363970435
 21
344.8169675900836
 31
0.0
  0
LINE
  5
39495
330
39490
100
AcDbEntity
  8
30
 62
     0
370
    -2
100
AcDbLine
 10
511.3714363970438
 20
344.8169675900836
 30
0.0
 11
500.7047697303772
 21
344.8169675900836
 31
0.0
  0
LINE
  5
39496
330
39490
100
AcDbEntity
  8
30
 62
     0
370
    -2
100
AcDbLine
 10
519.3714363970435
 20
344.8169675900836
 30
0.0
 11
513.3714363970438
 21
344.8169675900836
 31
0.0
  0
INSERT
  5
39497
330
39490
100
AcDbEntity
  8
30
 62
     0
370
    -2
100
AcDbBlockReference
  2
_OPEN
 10
519.3714363970435
 20
344.8169675900836
 30
0.0
 41
2.0
 42
2.0
 43
2.0
 50
180.0
  0
INSERT
  5
39498
330
39490
100
AcDbEntity
  8
30
 62
     0
370
    -2
100
AcDbBlockReference
  2
_OPEN
 10
513.3714363970438
 20
344.8169675900836
 30
0.0
 41
2.0
 42
2.0
 43
2.0
  0
MTEXT
  5
39499
330
39490
100
AcDbEntity
  8
30
 62
     0
100
AcDbMText
 10
505.0381030637105
 20
350.3169675900835
 30
0.0
 40
7.0
 41
0.0
 46
0.0
 71
     5
 72
     1
  1
\A1;6
 73
     1
 44
1.0
  0
POINT
  5
3949A
330
39490
100
AcDbEntity
  8
DEFPOINTS
 62
     0
100
AcDbPoint
 10
519.3714363970435
 20
364.7200313284101
 30
0.0
  0
POINT
  5
3949B
330
39490
100
AcDbEntity
  8
DEFPOINTS
 62
     0
100
AcDbPoint
 10
513.3714363970438
 20
364.7200313284101
 30
0.0
  0
POINT
  5
3949C
330
39490
100
AcDbEntity
  8
DEFPOINTS
 62
     0
100
AcDbPoint
 10
513.3714363970438
 20
344.8169675900836
 30
0.0
  0
ENDBLK
  5
3949D
330
39490
100
AcDbEntity
  8
0
100
AcDbBlockEnd
  0
BLOCK
  5
3949F
330
3949E
100
AcDbEntity
  8
0
100
AcDbBlockBegin
  2
*D17
 70
     1
 10
0.0
 20
0.0
 30
0.0
  3
*D17
  1

  0
LINE
  5
394A0
330
3949E
100
AcDbEntity
  8
30
 62
     0
370
    -2
100
AcDbLine
 10
388.3714363970439
 20
421.8234042003659
 30
0.0
 11
388.3714363970439
 21
314.1474857738885
 31
0.0
  0
LINE
  5
394A1
330
3949E
100
AcDbEntity
  8
30
 62
     0
370
    -2
100
AcDbLine
 10
381.8714363970439
 20
421.8234042003659
 30
0.0
 11
381.8714363970439
 21
314.1474857738885
 31
0.0
  0
LINE
  5
394A2
330
3949E
100
AcDbEntity
  8
30
 62
     0
370
    -2
100
AcDbLine
 10
390.3714363970438
 20
314.6474857738886
 30
0.0
 11
392.3714363970439
 21
314.6474857738886
 31
0.0
  0
LINE
  5
394A3
330
3949E
100
AcDbEntity
  8
30
 62
     0
370
    -2
100
AcDbLine
 10
379.8714363970439
 20
314.6474857738886
 30
0.0
 11
342.0526538604281
 21
314.6474857738886
 31
0.0
  0
LINE
  5
394A4
330
3949E
100
AcDbEntity
  8
30
 62
     0
370
    -2
100
AcDbLine
 10
388.3714363970439
 20
314.6474857738886
 30
0.0
 11
381.8714363970439
 21
314.6474857738886
 31
0.0
  0
INSERT
  5
394A5
330
3949E
100
AcDbEntity
  8
30
 62
     0
370
    -2
100
AcDbBlockReference
  2
_OPEN
 10
388.3714363970439
 20
314.6474857738886
 30
0.0
 41
2.0
 42
2.0
 43
2.0
 50
180.0
  0
INSERT
  5
394A6
330
3949E
100
AcDbEntity
  8
30
 62
     0
370
    -2
100
AcDbBlockReference
  2
_OPEN
 10
381.8714363970439
 20
314.6474857738886
 30
0.0
 41
2.0
 42
2.0
 43
2.0
  0
MTEXT
  5
394A7
330
3949E
100
AcDbEntity
  8
30
 62
     0
100
AcDbMText
 10
351.0526538604282
 20
320.1474857738885
 30
0.0
 40
7.0
 41
0.0
 46
0.0
 71
     5
 72
     1
  1
\A1;6.5
 73
     1
 44
1.0
  0
POINT
  5
394A8
330
3949E
100
AcDbEntity
  8
DEFPOINTS
 62
     0
100
AcDbPoint
 10
388.3714363970439
 20
424.8234042003658
 30
0.0
  0
POINT
  5
394A9
330
3949E
100
AcDbEntity
  8
DEFPOINTS
 62
     0
100
AcDbPoint
 10
381.8714363970439
 20
424.8234042003658
 30
0.0
  0
POINT
  5
394AA
330
3949E
100
AcDbEntity
  8
DEFPOINTS
 62
     0
100
AcDbPoint
 10
381.8714363970439
 20
314.6474857738886
 30
0.0
  0
ENDBLK
  5
394AB
330
3949E
100
AcDbEntity
  8
0
100
AcDbBlockEnd
  0
BLOCK
  5
394EB
330
394AC
100
AcDbEntity
  8
0
100
AcDbBlockBegin
  2
A$C3C2E0B6F
 70
     0
 10
0.0
 20
0.0
 30
0.0
  3
A$C3C2E0B6F
  1

  0
LINE
  5
394AD
330
394AC
100
AcDbEntity
  8
130
100
AcDbLine
 10
-229.6285636029558
 20
513.4207484878725
 30
0.0
 11
-229.6285636029558
 21
500.8234042003655
 31
0.0
  0
LINE
  5
394AE
330
394AC
100
AcDbEntity
  8
130
100
AcDbLine
 10
-237.6285636029559
 20
500.8234042003655
 30
0.0
 11
-229.6285636029558
 21
500.8234042003655
 31
0.0
  0
LINE
  5
394AF
330
394AC
100
AcDbEntity
  8
16
100
AcDbLine
 10
-266.6285636029559
 20
449.8234042003658
 30
0.0
 11
-161.4285636029556
 21
449.8234042003658
 31
0.0
  0
ARC
  5
394B0
330
394AC
100
AcDbEntity
  8
30
100
AcDbCircle
 10
-112.6930356508107
 20
442.4470083064417
 30
0.0
 40
151.9985443848637
100
AcDbArc
 50
172.9712057697295
 51
178.3500916190563
  0
DIMENSION
  5
394B1
330
394AC
100
AcDbEntity
  8
30
100
AcDbDimension
280
     0
  2
*D1
 10
-169.6285636029558
 20
337.3234042003659
 30
0.0
 11
-199.6285636029558
 21
342.8234042003659
 31
0.0
 12
-629.9999999999998
 22
0.0
 32
0.0
 71
     5
 42
60.0
 73
     0
 74
     0
 75
     0
  3
STANDARD1
100
AcDbAlignedDimension
 13
-229.6285636029558
 23
381.073147510981
 33
0.0
 14
-169.6285636029558
 24
342.3234042003659
 34
0.0
100
AcDbRotatedDimension
  0
DIMENSION
  5
394B2
330
394AC
100
AcDbEntity
  8
30
100
AcDbDimension
280
     0
  2
*D2
 10
-169.6285636029558
 20
314.8897007940808
 30
0.0
 11
-205.6285636029559
 21
320.3897007940808
 31
0.0
 12
-629.9999999999998
 22
0.0
 32
0.0
 71
     5
 42
72.0
 73
     0
 74
     0
 75
     0
  3
STANDARD1
100
AcDbAlignedDimension
 13
-241.6285636029559
 23
424.8234042003658
 33
0.0
 14
-169.6285636029558
 24
342.3234042003659
 34
0.0
100
AcDbRotatedDimension
  0
DIMENSION
  5
394B3
330
394AC
100
AcDbEntity
  8
30
100
AcDbDimension
280
     0
  2
*D3
 10
-169.6285636029558
 20
326.5121712463419
 30
0.0
 11
-203.6285636029559
 21
332.0121712463418
 31
0.0
 12
-629.9999999999998
 22
0.0
 32
0.0
 71
     5
 42
68.0
 73
     0
 74
     0
 75
     0
  3
STANDARD1
100
AcDbAlignedDimension
 13
-237.6285636029559
 23
398.8234042003659
 33
0.0
 14
-169.6285636029558
 24
342.3234042003659
 34
0.0
100
AcDbRotatedDimension
  0
DIMENSION
  5
394B4
330
394AC
100
AcDbEntity
  8
30
100
AcDbDimension
280
     0
  2
*D4
 10
-169.6285636029558
 20
304.8897007940808
 30
0.0
 11
-217.1285636029558
 21
310.3897007940808
 31
0.0
 12
-629.9999999999998
 22
0.0
 32
0.0
 71
     5
 42
95.0
 73
     0
 74
     0
 75
     0
  3
STANDARD1
100
AcDbAlignedDimension
 13
-264.6285636029559
 23
449.8234042003658
 33
0.0
 14
-169.6285636029558
 24
342.3234042003659
 34
0.0
100
AcDbRotatedDimension
  0
DIMENSION
  5
394B5
330
394AC
100
AcDbEntity
  8
30
100
AcDbDimension
280
     0
  2
*D5
 10
-62.62856360295586
 20
326.5121712463419
 30
0.0
 11
-116.1285636029558
 21
332.0121712463418
 31
0.0
 12
-629.9999999999998
 22
0.0
 32
0.0
 71
     5
 42
107.0
 73
     0
 74
     0
 75
     0
  3
STANDARD1
100
AcDbAlignedDimension
 13
-169.6285636029558
 23
367.3234042003659
 33
0.0
 14
-62.62856360295586
 24
377.8234042003659
 34
0.0
100
AcDbRotatedDimension
  0
LINE
  5
394B6
330
394AC
100
AcDbEntity
  8
24
100
AcDbLine
 10
-169.6285636029558
 20
367.7218827828332
 30
0.0
 11
-100.3097097557028
 21
367.7218827828332
 31
0.0
  0
LWPOLYLINE
  5
394B7
330
394AC
100
AcDbEntity
  8
24
100
AcDbPolyline
 90
        2
 70
     0
 43
0.0
 10
97.62856535129699
 20
382.7311399920684
 42
0.0678333867575107
 10
95.5828949698971
 20
387.7342258123207
210
0.0
220
0.0
230
-1.0
  0
ARC
  5
394B8
330
394AC
100
AcDbEntity
  8
24
100
AcDbCircle
 10
-117.6409066324431
 20
377.7280542975769
 30
0.0
 40
20.01234302948724
100
AcDbArc
 50
329.9999999999997
 51
30.00000000000034
  0
LWPOLYLINE
  5
394B9
330
394AC
100
AcDbEntity
  8
24
100
AcDbPolyline
 90
        2
 70
     0
 43
0.0
 10
-98.26404054659995
 20
382.7311400549486
 10
-97.628563602956
 20
382.7311400549486
  0
LINE
  5
394BA
330
394AC
100
AcDbEntity
  8
24
100
AcDbLine
 10
-169.6285636029558
 20
387.7342258123205
 30
0.0
 11
-100.3097097557028
 21
387.7342258123205
 31
0.0
  0
DIMENSION
  5
394BB
330
394AC
100
AcDbEntity
  8
30
100
AcDbDimension
280
     0
  2
*D6
 10
-49.60696330135316
 20
524.818775564308
 30
0.0
 11
-45.27362996801993
 21
534.318775564308
 31
0.0
 12
-629.9999999999998
 22
0.0
 32
0.0
 71
     0
 72
     0
 41
0.0
 42
6.0
 73
     0
 74
     0
 75
     0
  3
STANDARD1
100
AcDbAlignedDimension
 13
-62.60696330135317
 23
518.8187755643077
 33
0.0
 14
-62.60696330135317
 24
524.818775564308
 34
0.0
 50
90.0
100
AcDbRotatedDimension
  0
LINE
  5
394BC
330
394AC
100
AcDbEntity
  8
17
100
AcDbLine
 10
-179.6069633013531
 20
521.8169241098848
 30
0.0
 11
-57.60696330135329
 21
521.8169241098848
 31
0.0
  0
DIMENSION
  5
394BD
330
394AC
100
AcDbEntity
  8
30
100
AcDbDimension
280
     0
  2
*D7
 10
-128.7936870560397
 20
382.2280542975769
 30
0.0
 11
-124.4603537227065
 21
398.9983836350472
 31
0.0
 12
-629.9999999999998
 22
0.0
 32
0.0
 70
   128
 71
     0
 72
     0
 41
0.0
 42
9.000000000000227
 73
     0
 74
     0
 75
     0
  3
STANDARD1
100
AcDbAlignedDimension
 13
-116.1430666626035
 23
373.2280542975766
 33
0.0
 14
-116.145566662603
 24
382.2280542975769
 34
0.0
 50
90.0
100
AcDbRotatedDimension
  0
LINE
  5
394BE
330
394AC
100
AcDbEntity
  8
17
100
AcDbLine
 10
-179.6069633013531
 20
377.7280542975769
 30
0.0
 11
-57.56255580135348
 21
377.7280542975769
 31
0.0
  0
DIMENSION
  5
394BF
330
394AC
100
AcDbEntity
  8
30
100
AcDbDimension
280
     0
  2
*D8
 10
-49.60696330135316
 20
387.728054297577
 30
0.0
 11
-55.10696330135329
 21
377.7280542975769
 31
0.0
 12
-629.9999999999998
 22
0.0
 32
0.0
 71
     0
 72
     0
 41
0.0
 42
20.00000000000034
 73
     0
 74
     0
 75
     0
  3
STANDARD
100
AcDbAlignedDimension
 13
-65.28645522566455
 23
367.7280542975767
 33
0.0
 14
-65.28645522566444
 24
387.728054297577
 34
0.0
 50
90.0
100
AcDbRotatedDimension
  0
DIMENSION
  5
394C0
330
394AC
100
AcDbEntity
  8
30
100
AcDbDimension
280
     0
  2
*D9
 10
-62.60696330135317
 20
357.2280542975769
 30
0.0
 11
-70.60696330135319
 21
362.7280542975769
 31
0.0
 12
-629.9999999999998
 22
0.0
 32
0.0
 71
     5
 42
16.0
 73
     0
 74
     0
 75
     0
  3
STANDARD1
100
AcDbAlignedDimension
 13
-78.60696330135318
 23
364.7280542975769
 33
0.0
 14
-62.60696330135317
 24
377.7280542975769
 34
0.0
100
AcDbRotatedDimension
  0
LINE
  5
394C1
330
394AC
100
AcDbEntity
  8
1
  6
Continuous
 62
     2
100
AcDbLine
 10
-169.6285636029558
 20
532.3234042003658
 30
0.0
 11
-169.6285636029558
 21
367.2215742070961
 31
0.0
  0
ARC
  5
394C2
330
394AC
100
AcDbEntity
  8
24
100
AcDbCircle
 10
116.2751492731385
 20
377.7280542975769
 30
0.0
 40
20.01234302948724
210
0.0
220
0.0
230
-1.0
100
AcDbArc
 50
329.9999999999997
 51
345.5224879999992
  0
ARC
  5
394C3
330
394AC
100
AcDbEntity
  8
24
100
AcDbCircle
 10
-110.6365865721225
 20
377.7280542975769
 30
0.0
 40
4.50277718163463
100
AcDbArc
 50
270.0
 51
90.0
  0
CIRCLE
  5
394C4
330
394AC
100
AcDbEntity
  8
24
100
AcDbCircle
 10
-78.6168377249428
 20
377.7280542975769
 30
0.0
 40
4.50277718163463
  0
LWPOLYLINE
  5
394C5
330
394AC
100
AcDbEntity
  8
24
100
AcDbPolyline
 90
        2
 70
     0
 43
0.0
 10
-65.28810887805615
 20
367.7218827828331
 42
0.2679491924311281
 10
-65.28810887805615
 20
387.7342258123207
  0
LWPOLYLINE
  5
394C6
330
394AC
100
AcDbEntity
  8
24
100
AcDbPolyline
 90
        2
 70
     0
 43
0.0
 10
95.5828949698971
 20
367.7218827828331
 42
0.0678333867574932
 10
97.62856535129664
 20
372.7249686030841
210
0.0
220
0.0
230
-1.0
  0
ARC
  5
394C7
330
394AC
100
AcDbEntity
  8
24
100
AcDbCircle
 10
116.2751492731385
 20
377.7280542975769
 30
0.0
 40
20.01234302948724
210
0.0
220
0.0
230
-1.0
100
AcDbArc
 50
14.47751199999786
 51
30.00000000000034
  0
ARC
  5
394C8
330
394AC
100
AcDbEntity
  8
24
100
AcDbCircle
 10
-116.6402894809689
 20
377.7280542975769
 30
0.0
 40
4.50277718163463
100
AcDbArc
 50
90.0
 51
270.0
  0
LINE
  5
394C9
330
394AC
100
AcDbEntity
  8
24
100
AcDbLine
 10
-140.1103576344622
 20
387.7342258123205
 30
0.0
 11
-140.1103576344622
 21
367.7218827828332
 31
0.0
  0
LWPOLYLINE
  5
394CA
330
394AC
100
AcDbEntity
  8
24
100
AcDbPolyline
 90
        2
 70
     0
 43
0.0
 10
-95.58289439385305
 20
367.7218827828332
 10
-65.28810945410009
 20
367.7218827828332
  0
LWPOLYLINE
  5
394CB
330
394AC
100
AcDbEntity
  8
24
100
AcDbPolyline
 90
        2
 70
     0
 43
0.0
 10
-95.58289439385305
 20
387.7342258123205
 10
-65.28810945410009
 20
387.7342258123205
  0
LINE
  5
394CC
330
394AC
100
AcDbEntity
  8
24
100
AcDbLine
 10
-110.6365865721225
 20
382.2308314792115
 30
0.0
 11
-116.6402894809689
 21
382.2308314792115
 31
0.0
  0
LINE
  5
394CD
330
394AC
100
AcDbEntity
  8
24
100
AcDbLine
 10
-140.1103576344622
 20
382.7311400549486
 30
0.0
 11
-135.6520153589819
 21
382.7311400549486
 31
0.0
  0
LINE
  5
394CE
330
394AC
100
AcDbEntity
  8
24
100
AcDbLine
 10
-116.6402894809689
 20
373.2252771159423
 30
0.0
 11
-110.6365865721225
 21
373.2252771159423
 31
0.0
  0
LINE
  5
394CF
330
394AC
100
AcDbEntity
  8
17
100
AcDbLine
 10
-78.6168377249428
 20
390.7360772667436
 30
0.0
 11
-78.6168377249428
 21
364.7200313284101
 31
0.0
  0
LWPOLYLINE
  5
394D0
330
394AC
100
AcDbEntity
  8
24
100
AcDbPolyline
 90
        2
 70
     0
 43
0.0
 10
-98.26404054659995
 20
372.7249685402052
 10
-97.628563602956
 20
372.7249685402052
  0
LINE
  5
394D1
330
394AC
100
AcDbEntity
  8
24
100
AcDbLine
 10
-140.1103576344622
 20
372.7249685402052
 30
0.0
 11
-135.6520153589819
 21
372.7249685402052
 31
0.0
  0
LINE
  5
394D2
330
394AC
100
AcDbEntity
  8
17
100
AcDbLine
 10
-78.6168377249428
 20
534.8249470790516
 30
0.0
 11
-78.6168377249428
 21
508.8089011407181
 31
0.0
  0
LWPOLYLINE
  5
394D3
330
394AC
100
AcDbEntity
  8
24
100
AcDbPolyline
 90
        8
 70
     0
 43
0.0
 10
-103.5878316056481
 20
526.8200098672568
 10
-96.77541740726589
 20
526.8200098672568
 10
-96.77541740726589
 20
524.818775564308
 10
-62.60696330135317
 20
524.818775564308
 10
-62.60696330135317
 20
518.8150726554619
 10
-96.77541740726589
 20
518.8150726554619
 10
-96.77541740726589
 20
516.8138383525132
 10
-103.5878316056481
 20
516.8138383525132
  0
LWPOLYLINE
  5
394D4
330
394AC
100
AcDbEntity
  8
24
100
AcDbPolyline
 90
        3
 70
     0
 43
0.0
 10
-169.6285636029558
 20
531.8230956246285
 10
-103.5878316056481
 20
531.8230956246285
 10
-103.5878316056481
 20
524.818775564308
  0
LWPOLYLINE
  5
394D5
330
394AC
100
AcDbEntity
  8
24
100
AcDbPolyline
 90
        3
 70
     0
 43
0.0
 10
-169.6285636029558
 20
511.8107525951412
 10
-103.5878316056481
 20
511.8107525951412
 10
-103.5878316056481
 20
518.8150726554619
  0
LWPOLYLINE
  5
394D6
330
394AC
100
AcDbEntity
  8
24
100
AcDbPolyline
 90
        8
 70
     0
 43
0.0
 10
-140.1103576344622
 20
516.8138383525132
 10
-134.7988691632915
 20
516.8138383525132
 10
-134.7988691632915
 20
518.8150726554619
 10
-97.62856360295586
 20
518.8150726554619
 10
-97.62856360295586
 20
524.818775564308
 10
-134.7988691632915
 20
524.818775564308
 10
-134.7988691632915
 20
526.8200098672568
 10
-140.1103576344622
 20
526.8200098672568
  0
LWPOLYLINE
  5
394D7
330
394AC
100
AcDbEntity
  8
24
100
AcDbPolyline
 90
        2
 70
     0
 43
0.0
 10
-140.1103576344622
 20
531.8230956246285
 10
-140.1103576344622
 20
511.8107525951412
  0
DIMENSION
  5
394D8
330
394AC
100
AcDbEntity
  8
30
100
AcDbDimension
280
     0
  2
*D10
 10
-39.62856360295587
 20
521.8234042003656
 30
0.0
 11
-45.12856360295598
 21
449.8234042003658
 31
0.0
 12
-629.9999999999998
 22
0.0
 32
0.0
 71
     0
 72
     0
 41
0.0
 42
143.9999999999999
 73
     0
 74
     0
 75
     0
  3
STANDARD
100
AcDbAlignedDimension
 13
-49.62856360295585
 23
377.8234042003659
 33
0.0
 14
-49.62856360295585
 24
521.8234042003656
 34
0.0
 50
90.0
100
AcDbRotatedDimension
  0
DIMENSION
  5
394D9
330
394AC
100
AcDbEntity
  8
30
100
AcDbDimension
280
     0
  2
*D11
 10
-97.62856360295586
 20
337.3234042003659
 30
0.0
 11
-139.3716516411457
 21
337.3234042003659
 31
0.0
 12
-629.9999999999998
 22
0.0
 32
0.0
 70
   128
 71
     5
 42
72.0
 73
     0
 74
     0
 75
     0
  3
STANDARD
100
AcDbAlignedDimension
 13
-169.6285636029558
 23
342.3234042003659
 33
0.0
 14
-97.62856360295586
 24
367.2280542975769
 34
0.0
100
AcDbRotatedDimension
  0
LWPOLYLINE
  5
394DA
330
394AC
100
AcDbEntity
  8
130
100
AcDbPolyline
 90
        4
 70
     0
 43
0.0
 10
-241.6285636029559
 20
427.3234042003656
 10
-248.1285636029561
 20
427.3234042003656
 10
-248.1285636029561
 20
472.3234042003658
 10
-241.6285636029559
 20
472.3234042003658
  0
LWPOLYLINE
  5
394DB
330
394AC
100
AcDbEntity
  8
130
100
AcDbPolyline
 90
        4
 70
     0
 43
0.0
 10
-237.6285636029559
 20
424.8234042003657
 10
-241.6285636029559
 20
424.8234042003657
 10
-241.6285636029559
 20
474.8234042003657
 10
-237.6285636029559
 20
474.8234042003657
  0
DIMENSION
  5
394DC
330
394AC
100
AcDbEntity
  8
30
100
AcDbDimension
280
     0
  2
*D12
 10
-274.9211015532362
 20
427.3234042003656
 30
0.0
 11
-274.9211015532363
 21
452.3234042003656
 31
0.0
 12
-629.9999999999998
 22
0.0
 32
0.0
 70
   128
 71
     5
 42
45.0
 73
     0
 74
     0
 75
     0
  3
STANDARD
100
AcDbAlignedDimension
 13
-248.1285636029561
 23
472.3234042003658
 33
0.0
 14
-248.1285636029561
 24
427.3234042003656
 34
0.0
 50
90.0
100
AcDbRotatedDimension
  0
DIMENSION
  5
394DD
330
394AC
100
AcDbEntity
  8
30
100
AcDbDimension
280
     0
  2
*D13
 10
-288.0825122191951
 20
424.8234042003658
 30
0.0
 11
-288.0825122191952
 21
449.8234042003658
 31
0.0
 12
-629.9999999999998
 22
0.0
 32
0.0
 70
   128
 71
     5
 42
50.0
 73
     0
 74
     0
 75
     0
  3
STANDARD
100
AcDbAlignedDimension
 13
-241.6285636029559
 23
474.8234042003657
 33
0.0
 14
-241.6285636029559
 24
424.8234042003657
 34
0.0
 50
90.0
100
AcDbRotatedDimension
  0
DIMENSION
  5
394DE
330
394AC
100
AcDbEntity
  8
30
100
AcDbDimension
280
     0
  2
*D14
 10
-303.93667375579
 20
398.8234042003658
 30
0.0
 11
-309.4366737557901
 21
449.8234042003657
 31
0.0
 12
-629.9999999999998
 22
0.0
 32
0.0
 71
     5
 42
101.9999999999998
 73
     0
 74
     0
 75
     0
  3
STANDARD
100
AcDbAlignedDimension
 13
-237.6285636029559
 23
500.8234042003655
 33
0.0
 14
-237.6285636029559
 24
398.8234042003658
 34
0.0
 50
90.0
100
AcDbRotatedDimension
  0
LWPOLYLINE
  5
394DF
330
394AC
100
AcDbEntity
  8
130
100
AcDbPolyline
 90
       26
 70
     1
 43
0.0
 10
-237.6285636029559
 20
500.8234042003655
 10
-237.6285636029559
 20
398.8234042003659
 10
-229.6285636029558
 20
398.8234042003659
 10
-229.6285636029558
 20
386.2260599128592
 10
-227.6157171627558
 20
371.9039135649659
 10
-227.2516259155559
 20
369.3132572843658
 10
-227.0955670968829
 20
368.7720382901983
 10
-226.794884954452
 20
368.2951871909835
 10
-226.3701729303022
 20
367.922158507242
 10
-225.8615038264411
 20
367.6794862939769
 10
-225.3059924742922
 20
367.5919123962458
 10
-222.9233266017559
 20
367.5503232553659
 10
-216.423326467656
 20
367.4368620887658
 10
-169.6285636029558
 20
367.3234042003659
 10
-169.6285636029558
 20
532.3234042003658
 10
-216.423326467656
 20
532.2099463119658
 10
-222.9233266017559
 20
532.0964851453659
 10
-225.3059924742922
 20
532.0548960044857
 10
-225.8615038264411
 20
531.9673221067549
 10
-226.3701729303022
 20
531.7246498934896
 10
-226.794884954452
 20
531.3516212097481
 10
-227.0955670968829
 20
530.8747701105335
 10
-227.2516259155559
 20
530.3335511163659
 10
-227.6157171627558
 20
527.7428948357658
 10
-229.6285636029558
 20
513.4207484878725
 10
-229.6285636029558
 20
500.8234042003659
  0
LINE
  5
394E0
330
394AC
100
AcDbEntity
  8
17
100
AcDbLine
 10
-114.0650111243908
 20
534.8249470790515
 30
0.0
 11
-114.0650111243908
 21
508.8089011407181
 31
0.0
  0
LINE
  5
394E1
330
394AC
100
AcDbEntity
  8
17
100
AcDbLine
 10
-116.6285636029558
 20
390.7360772667436
 30
0.0
 11
-116.6285636029558
 21
364.7200313284101
 31
0.0
  0
LWPOLYLINE
  5
394E2
330
394AC
100
AcDbEntity
  8
130
100
AcDbPolyline
 90
       53
 70
     0
 43
0.0
 10
-248.1285636029561
 20
461.4860392003659
 10
-260.3792396686266
 20
465.8261166213729
 42
0.4244748162090625
 10
-262.8299639996234
 20
464.3184209534533
 10
-263.5492775902335
 20
461.0467868812466
 42
0.4248673327981316
 10
-261.957544323217
 20
458.6475753754911
 10
-261.5582660518547
 20
458.5748176957396
 10
-261.1684765145337
 20
458.5048116778515
 10
-260.7879882598755
 20
458.4374673822896
 10
-260.4166138365114
 20
458.3726948695201
 10
-260.0541657930727
 20
458.310404200008
 10
-259.7004566781906
 20
458.2505054342191
 10
-259.3552990404965
 20
458.1929086326186
 10
-259.0185054286217
 20
458.1375238556723
 10
-258.6898883911974
 20
458.0842611638452
 10
-258.369260476855
 20
458.0330306176032
 10
-258.0564342342257
 20
457.9837422774113
 10
-257.7512222119408
 20
457.9363062037355
 10
-257.4534369586316
 20
457.8906324570407
 10
-257.1628910229295
 20
457.8466310977931
 10
-256.8793969534657
 20
457.8042121864576
 10
-256.6027672988716
 20
457.7632857834997
 10
-256.3328146077783
 20
457.7237619493848
 10
-256.0693514288173
 20
457.6855507445784
 10
-255.8121903106197
 20
457.6485622295468
 10
-255.5611438018169
 20
457.6127064647543
 10
-255.3160244510402
 20
457.5778935106669
 10
-255.0766448069209
 20
457.54403342775
 10
-254.8428174180902
 20
457.5110362764688
 10
-254.6143548331796
 20
457.4788121172892
 10
-254.3910696008202
 20
457.4472710106767
 10
-254.1727742696433
 20
457.416323017096
 10
-253.9592813882803
 20
457.3858781970137
 10
-253.7504035053625
 20
457.3558466108943
 10
-253.545953169521
 20
457.3261383192037
 10
-253.3457429293873
 20
457.2966633824073
 10
-253.1495853335926
 20
457.2673318609706
 10
-252.9572929307683
 20
457.238053815359
 10
-252.7686782695455
 20
457.2087393060381
 10
-252.5835538985557
 20
457.1792983934732
 10
-252.4017361143065
 20
457.1496457474601
 10
-252.2230865850834
 20
457.1197518383315
 10
-251.8748601143769
 20
457.0592711079441
 10
-251.538012849522
 20
456.9979212991866
 10
-251.2116836971562
 20
456.935768177423
 10
-250.8950115639174
 20
456.8728775080177
 10
-250.5871353564433
 20
456.8093150563343
 10
-250.2871939813717
 20
456.7451465877372
 10
-249.9943263453403
 20
456.6804378675903
 10
-249.7076713549869
 20
456.6152546612578
 10
-249.4263679169494
 20
456.5496627341037
 10
-249.1495549378653
 20
456.4837278514922
 10
-248.6059559831087
 20
456.3510922813528
 10
-248.0699857438195
 20
456.2178740737523
  0
LEADER
  5
394E3
330
394AC
100
AcDbEntity
  8
30
100
AcDbLeader
  3
STANDARD1
 76
     3
 10
-78.6168377249428
 20
382.2308314792115
 30
0.0
 10
-73.74999347126709
 20
404.904853926298
 30
0.0
 10
-60.24066933060636
 20
404.904853926298
 30
0.0
211
-1.0
221
0.0
231
0.0
1001
ACAD
1000
DSTYLE
1002
{
1070
   147
1040
2.0
1070
    77
1070
     0
1002
}
  0
MTEXT
  5
394E4
330
394AC
100
AcDbEntity
  8
30
  6
Continuous
100
AcDbMText
 10
-70.74999347126709
 20
413.2079259536443
 30
0.0
 40
7.0
 41
30.0
 46
0.0
 71
     1
 72
     5
  1
%%C9
  7
blockfont
 73
     1
 44
1.0
  0
LINE
  5
394E5
330
394AC
100
AcDbEntity
  8
17
100
AcDbLine
 10
-110.6285636029558
 20
390.2441002359104
 30
0.0
 11
-110.6285636029558
 21
364.2280542975769
 31
0.0
  0
DIMENSION
  5
394E6
330
394AC
100
AcDbEntity
  8
30
100
AcDbDimension
280
     0
  2
*D15
 10
-110.6285636029558
 20
354.5071025102943
 30
0.0
 11
-129.9739094740787
 21
354.5071025102943
 31
0.0
 12
-629.9999999999998
 22
0.0
 32
0.0
 70
   128
 71
     5
 42
13.0
 73
     0
 74
     0
 75
     0
  3
STANDARD1
100
AcDbAlignedDimension
 13
-97.62856360295586
 23
364.2280542975769
 33
0.0
 14
-110.6285636029558
 24
364.2280542975769
 34
0.0
100
AcDbRotatedDimension
  0
DIMENSION
  5
394E7
330
394AC
100
AcDbEntity
  8
30
100
AcDbDimension
280
     0
  2
*D16
 10
-116.6285636029558
 20
344.8169675900836
 30
0.0
 11
-124.9618969362892
 21
350.3169675900835
 31
0.0
 12
-629.9999999999998
 22
0.0
 32
0.0
 71
     5
 42
6.0
 73
     0
 74
     0
 75
     0
  3
STANDARD1
100
AcDbAlignedDimension
 13
-110.6285636029558
 23
364.7200313284101
 33
0.0
 14
-116.6285636029558
 24
364.7200313284101
 34
0.0
100
AcDbRotatedDimension
  0
DIMENSION
  5
394E8
330
394AC
100
AcDbEntity
  8
30
100
AcDbDimension
280
     0
  2
*D17
 10
-248.1285636029558
 20
314.6474857738886
 30
0.0
 11
-278.9473461395717
 21
314.6474857738886
 31
0.0
 12
-629.9999999999998
 22
0.0
 32
0.0
 70
   128
 71
     5
 42
6.5
 73
     0
 74
     0
 75
     0
  3
STANDARD1
100
AcDbAlignedDimension
 13
-241.6285636029559
 23
424.8234042003658
 33
0.0
 14
-248.1285636029558
 24
424.8234042003658
 34
0.0
100
AcDbRotatedDimension
  0
ENDBLK
  5
394EC
330
394AC
100
AcDbEntity
  8
0
100
AcDbBlockEnd
  0
BLOCK
  5
39C24
330
39C23
100
AcDbEntity
  8
0
100
AcDbBlockBegin
  2
*D19
 70
     1
 10
0.0
 20
0.0
 30
0.0
  3
*D19
  1

  0
LINE
  5
3A095
330
39C23
100
AcDbEntity
  8
30
 62
     0
440
 16777216
370
    -2
100
AcDbLine
 10
507.3610702044971
 20
547.3769900213397
 30
0.0
 11
507.3610702044971
 21
527.8769900213399
 31
0.0
  0
LINE
  5
3A096
330
39C23
100
AcDbEntity
  8
30
 62
     0
440
 16777216
370
    -2
100
AcDbLine
 10
532.3610702044971
 20
547.3769900213397
 30
0.0
 11
532.3610702044971
 21
527.8769900213399
 31
0.0
  0
LINE
  5
3A097
330
39C23
100
AcDbEntity
  8
30
 62
     0
440
 16777216
370
    -2
100
AcDbLine
 10
510.3610702044973
 20
528.3769900213399
 30
0.0
 11
529.3610702044973
 21
528.3769900213399
 31
0.0
  0
INSERT
  5
3A098
330
39C23
100
AcDbEntity
  8
30
 62
     0
440
 16777216
370
    -2
100
AcDbBlockReference
  2
_OPEN
 10
507.3610702044971
 20
528.3769900213399
 30
0.0
 41
3.0
 42
3.0
 43
3.0
 50
180.0
  0
INSERT
  5
3A099
330
39C23
100
AcDbEntity
  8
30
 62
     0
440
 16777216
370
    -2
100
AcDbBlockReference
  2
_OPEN
 10
532.3610702044971
 20
528.3769900213399
 30
0.0
 41
3.0
 42
3.0
 43
3.0
  0
MTEXT
  5
3A09A
330
39C23
100
AcDbEntity
  8
30
 62
     0
440
 16777216
100
AcDbMText
 10
519.8610702044971
 20
534.8769900213397
 30
0.0
 40
7.0
 41
0.0
 46
0.0
 71
     5
 72
     1
  1
\A1;25
 73
     1
 44
1.0
 90
        3
 63
     9
421
 13158600
 45
1.25
441
        0
  0
POINT
  5
3A09B
330
39C23
100
AcDbEntity
  8
DEFPOINTS
 62
     0
440
 16777216
100
AcDbPoint
 10
507.3610702044971
 20
548.3769900213399
 30
0.0
  0
POINT
  5
3A09C
330
39C23
100
AcDbEntity
  8
DEFPOINTS
 62
     0
440
 16777216
100
AcDbPoint
 10
532.3610702044971
 20
548.3769900213399
 30
0.0
  0
POINT
  5
3A09D
330
39C23
100
AcDbEntity
  8
DEFPOINTS
 62
     0
440
 16777216
100
AcDbPoint
 10
532.3610702044971
 20
528.3769900213399
 30
0.0
  0
ENDBLK
  5
39C25
330
39C23
100
AcDbEntity
  8
0
100
AcDbBlockEnd
  0
BLOCK
  5
39C30
330
39C2F
100
AcDbEntity
  8
0
100
AcDbBlockBegin
  2
*D20
 70
     1
 10
0.0
 20
0.0
 30
0.0
  3
*D20
  1

  0
LINE
  5
3A14E
330
39C2F
100
AcDbEntity
  8
30
 62
     0
440
 16777216
370
    -2
100
AcDbLine
 10
474.3610702044973
 20
432.6269900213397
 30
0.0
 11
474.3610702044973
 21
401.350371727082
 31
0.0
  0
LINE
  5
3A14F
330
39C2F
100
AcDbEntity
  8
30
 62
     0
440
 16777216
370
    -2
100
AcDbLine
 10
467.3610702044974
 20
415.3769900213397
 30
0.0
 11
467.3610702044974
 21
401.350371727082
 31
0.0
  0
LINE
  5
3A150
330
39C2F
100
AcDbEntity
  8
30
 62
     0
440
 16777216
370
    -2
100
AcDbLine
 10
465.3610702044971
 20
401.850371727082
 30
0.0
 11
463.3610702044974
 21
401.850371727082
 31
0.0
  0
LINE
  5
3A151
330
39C2F
100
AcDbEntity
  8
30
 62
     0
440
 16777216
370
    -2
100
AcDbLine
 10
476.3610702044974
 20
401.850371727082
 30
0.0
 11
490.0277368711638
 21
401.850371727082
 31
0.0
  0
LINE
  5
3A152
330
39C2F
100
AcDbEntity
  8
30
 62
     0
440
 16777216
370
    -2
100
AcDbLine
 10
467.3610702044974
 20
401.850371727082
 30
0.0
 11
474.3610702044973
 21
401.850371727082
 31
0.0
  0
INSERT
  5
3A153
330
39C2F
100
AcDbEntity
  8
30
 62
     0
440
 16777216
370
    -2
100
AcDbBlockReference
  2
_OPEN
 10
467.3610702044974
 20
401.850371727082
 30
0.0
 41
2.0
 42
2.0
 43
2.0
  0
INSERT
  5
3A154
330
39C2F
100
AcDbEntity
  8
30
 62
     0
440
 16777216
370
    -2
100
AcDbBlockReference
  2
_OPEN
 10
474.3610702044973
 20
401.850371727082
 30
0.0
 41
2.0
 42
2.0
 43
2.0
 50
180.0
  0
MTEXT
  5
3A155
330
39C2F
100
AcDbEntity
  8
30
 62
     0
440
 16777216
100
AcDbMText
 10
485.6944035378306
 20
407.3503717270821
 30
0.0
 40
7.0
 41
0.0
 46
0.0
 71
     5
 72
     1
  1
\A1;7
 73
     1
 44
1.0
  0
POINT
  5
3A156
330
39C2F
100
AcDbEntity
  8
DEFPOINTS
 62
     0
440
 16777216
100
AcDbPoint
 10
474.3610702044973
 20
435.6269900213398
 30
0.0
  0
POINT
  5
3A157
330
39C2F
100
AcDbEntity
  8
DEFPOINTS
 62
     0
440
 16777216
100
AcDbPoint
 10
467.3610702044974
 20
418.3769900213397
 30
0.0
  0
POINT
  5
3A158
330
39C2F
100
AcDbEntity
  8
DEFPOINTS
 62
     0
440
 16777216
100
AcDbPoint
 10
467.3610702044974
 20
401.850371727082
 30
0.0
  0
ENDBLK
  5
39C31
330
39C2F
100
AcDbEntity
  8
0
100
AcDbBlockEnd
  0
BLOCK
  5
39C3E
330
39C3D
100
AcDbEntity
  8
0
100
AcDbBlockBegin
  2
*D21
 70
     1
 10
0.0
 20
0.0
 30
0.0
  3
*D21
  1

  0
LINE
  5
3A188
330
39C3D
100
AcDbEntity
  8
30
 62
     0
440
 16777216
370
    -2
100
AcDbLine
 10
467.3610702044974
 20
415.3769900213397
 30
0.0
 11
467.3610702044974
 21
401.350371727082
 31
0.0
  0
LINE
  5
3A189
330
39C3D
100
AcDbEntity
  8
30
 62
     0
440
 16777216
370
    -2
100
AcDbLine
 10
421.3610702044971
 20
430.6269900213398
 30
0.0
 11
421.3610702044971
 21
401.350371727082
 31
0.0
  0
LINE
  5
3A18A
330
39C3D
100
AcDbEntity
  8
30
 62
     0
440
 16777216
370
    -2
100
AcDbLine
 10
465.3610702044971
 20
401.850371727082
 30
0.0
 11
423.3610702044971
 21
401.850371727082
 31
0.0
  0
INSERT
  5
3A18B
330
39C3D
100
AcDbEntity
  8
30
 62
     0
440
 16777216
370
    -2
100
AcDbBlockReference
  2
_OPEN
 10
467.3610702044974
 20
401.850371727082
 30
0.0
 41
2.0
 42
2.0
 43
2.0
  0
INSERT
  5
3A18C
330
39C3D
100
AcDbEntity
  8
30
 62
     0
440
 16777216
370
    -2
100
AcDbBlockReference
  2
_OPEN
 10
421.3610702044971
 20
401.850371727082
 30
0.0
 41
2.0
 42
2.0
 43
2.0
 50
180.0
  0
MTEXT
  5
3A18D
330
39C3D
100
AcDbEntity
  8
30
 62
     0
440
 16777216
100
AcDbMText
 10
444.3610702044971
 20
407.3503717270821
 30
0.0
 40
7.0
 41
0.0
 46
0.0
 71
     5
 72
     1
  1
\A1;46
 73
     1
 44
1.0
  0
POINT
  5
3A18E
330
39C3D
100
AcDbEntity
  8
DEFPOINTS
 62
     0
440
 16777216
100
AcDbPoint
 10
467.3610702044974
 20
418.3769900213397
 30
0.0
  0
POINT
  5
3A18F
330
39C3D
100
AcDbEntity
  8
DEFPOINTS
 62
     0
440
 16777216
100
AcDbPoint
 10
421.3610702044971
 20
433.6269900213397
 30
0.0
  0
POINT
  5
3A190
330
39C3D
100
AcDbEntity
  8
DEFPOINTS
 62
     0
440
 16777216
100
AcDbPoint
 10
421.3610702044971
 20
401.850371727082
 30
0.0
  0
ENDBLK
  5
39C3F
330
39C3D
100
AcDbEntity
  8
0
100
AcDbBlockEnd
  0
BLOCK
  5
39C4A
330
39C49
100
AcDbEntity
  8
0
100
AcDbBlockBegin
  2
*D22
 70
     1
 10
0.0
 20
0.0
 30
0.0
  3
*D22
  1

  0
LINE
  5
3A17F
330
39C49
100
AcDbEntity
  8
30
 62
     0
440
 16777216
370
    -2
100
AcDbLine
 10
467.3610702044974
 20
415.3769900213397
 30
0.0
 11
467.3610702044974
 21
387.5847446778927
 31
0.0
  0
LINE
  5
3A180
330
39C49
100
AcDbEntity
  8
30
 62
     0
440
 16777216
370
    -2
100
AcDbLine
 10
407.3610702044971
 20
415.3769900213397
 30
0.0
 11
407.3610702044971
 21
387.5847446778927
 31
0.0
  0
LINE
  5
3A181
330
39C49
100
AcDbEntity
  8
30
 62
     0
440
 16777216
370
    -2
100
AcDbLine
 10
465.3610702044971
 20
388.0847446778927
 30
0.0
 11
409.3610702044974
 21
388.0847446778927
 31
0.0
  0
INSERT
  5
3A182
330
39C49
100
AcDbEntity
  8
30
 62
     0
440
 16777216
370
    -2
100
AcDbBlockReference
  2
_OPEN
 10
467.3610702044974
 20
388.0847446778927
 30
0.0
 41
2.0
 42
2.0
 43
2.0
  0
INSERT
  5
3A183
330
39C49
100
AcDbEntity
  8
30
 62
     0
440
 16777216
370
    -2
100
AcDbBlockReference
  2
_OPEN
 10
407.3610702044971
 20
388.0847446778927
 30
0.0
 41
2.0
 42
2.0
 43
2.0
 50
180.0
  0
MTEXT
  5
3A184
330
39C49
100
AcDbEntity
  8
30
 62
     0
440
 16777216
100
AcDbMText
 10
437.3610702044973
 20
393.5847446778927
 30
0.0
 40
7.0
 41
0.0
 46
0.0
 71
     5
 72
     1
  1
\A1;60
 73
     1
 44
1.0
  0
POINT
  5
3A185
330
39C49
100
AcDbEntity
  8
DEFPOINTS
 62
     0
440
 16777216
100
AcDbPoint
 10
467.3610702044974
 20
418.3769900213397
 30
0.0
  0
POINT
  5
3A186
330
39C49
100
AcDbEntity
  8
DEFPOINTS
 62
     0
440
 16777216
100
AcDbPoint
 10
407.3610702044971
 20
418.3769900213397
 30
0.0
  0
POINT
  5
3A187
330
39C49
100
AcDbEntity
  8
DEFPOINTS
 62
     0
440
 16777216
100
AcDbPoint
 10
407.3610702044971
 20
388.0847446778927
 30
0.0
  0
ENDBLK
  5
39C4B
330
39C49
100
AcDbEntity
  8
0
100
AcDbBlockEnd
  0
BLOCK
  5
39C56
330
39C55
100
AcDbEntity
  8
0
100
AcDbBlockBegin
  2
*D23
 70
     1
 10
0.0
 20
0.0
 30
0.0
  3
*D23
  1

  0
LINE
  5
3A176
330
39C55
100
AcDbEntity
  8
30
 62
     0
440
 16777216
370
    -2
100
AcDbLine
 10
467.3610702044974
 20
415.3769900213397
 30
0.0
 11
467.3610702044974
 21
372.3620393221556
 31
0.0
  0
LINE
  5
3A177
330
39C55
100
AcDbEntity
  8
30
 62
     0
440
 16777216
370
    -2
100
AcDbLine
 10
399.3610702044973
 20
446.8769900213398
 30
0.0
 11
399.3610702044973
 21
372.3620393221556
 31
0.0
  0
LINE
  5
3A178
330
39C55
100
AcDbEntity
  8
30
 62
     0
440
 16777216
370
    -2
100
AcDbLine
 10
465.3610702044971
 20
372.8620393221556
 30
0.0
 11
401.3610702044974
 21
372.8620393221556
 31
0.0
  0
INSERT
  5
3A179
330
39C55
100
AcDbEntity
  8
30
 62
     0
440
 16777216
370
    -2
100
AcDbBlockReference
  2
_OPEN
 10
467.3610702044974
 20
372.8620393221556
 30
0.0
 41
2.0
 42
2.0
 43
2.0
  0
INSERT
  5
3A17A
330
39C55
100
AcDbEntity
  8
30
 62
     0
440
 16777216
370
    -2
100
AcDbBlockReference
  2
_OPEN
 10
399.3610702044973
 20
372.8620393221556
 30
0.0
 41
2.0
 42
2.0
 43
2.0
 50
180.0
  0
MTEXT
  5
3A17B
330
39C55
100
AcDbEntity
  8
30
 62
     0
440
 16777216
100
AcDbMText
 10
433.3610702044973
 20
378.3620393221556
 30
0.0
 40
7.0
 41
0.0
 46
0.0
 71
     5
 72
     1
  1
\A1;68
 73
     1
 44
1.0
  0
POINT
  5
3A17C
330
39C55
100
AcDbEntity
  8
DEFPOINTS
 62
     0
440
 16777216
100
AcDbPoint
 10
467.3610702044974
 20
418.3769900213397
 30
0.0
  0
POINT
  5
3A17D
330
39C55
100
AcDbEntity
  8
DEFPOINTS
 62
     0
440
 16777216
100
AcDbPoint
 10
399.3610702044973
 20
449.8769900213398
 30
0.0
  0
POINT
  5
3A17E
330
39C55
100
AcDbEntity
  8
DEFPOINTS
 62
     0
440
 16777216
100
AcDbPoint
 10
399.3610702044973
 20
372.8620393221556
 30
0.0
  0
ENDBLK
  5
39C57
330
39C55
100
AcDbEntity
  8
0
100
AcDbBlockEnd
  0
BLOCK
  5
39C62
330
39C61
100
AcDbEntity
  8
0
100
AcDbBlockBegin
  2
*D24
 70
     1
 10
0.0
 20
0.0
 30
0.0
  3
*D24
  1

  0
LINE
  5
3A16D
330
39C61
100
AcDbEntity
  8
30
 62
     0
440
 16777216
370
    -2
100
AcDbLine
 10
467.3610702044974
 20
415.3769900213397
 30
0.0
 11
467.3610702044974
 21
358.7425276799733
 31
0.0
  0
LINE
  5
3A16E
330
39C61
100
AcDbEntity
  8
30
 62
     0
440
 16777216
370
    -2
100
AcDbLine
 10
395.3610702044974
 20
472.8769900213397
 30
0.0
 11
395.3610702044974
 21
358.7425276799733
 31
0.0
  0
LINE
  5
3A16F
330
39C61
100
AcDbEntity
  8
30
 62
     0
440
 16777216
370
    -2
100
AcDbLine
 10
465.3610702044971
 20
359.2425276799733
 30
0.0
 11
397.3610702044974
 21
359.2425276799733
 31
0.0
  0
INSERT
  5
3A170
330
39C61
100
AcDbEntity
  8
30
 62
     0
440
 16777216
370
    -2
100
AcDbBlockReference
  2
_OPEN
 10
467.3610702044974
 20
359.2425276799733
 30
0.0
 41
2.0
 42
2.0
 43
2.0
  0
INSERT
  5
3A171
330
39C61
100
AcDbEntity
  8
30
 62
     0
440
 16777216
370
    -2
100
AcDbBlockReference
  2
_OPEN
 10
395.3610702044974
 20
359.2425276799733
 30
0.0
 41
2.0
 42
2.0
 43
2.0
 50
180.0
  0
MTEXT
  5
3A172
330
39C61
100
AcDbEntity
  8
30
 62
     0
440
 16777216
100
AcDbMText
 10
431.3610702044972
 20
364.7425276799733
 30
0.0
 40
7.0
 41
0.0
 46
0.0
 71
     5
 72
     1
  1
\A1;72
 73
     1
 44
1.0
  0
POINT
  5
3A173
330
39C61
100
AcDbEntity
  8
DEFPOINTS
 62
     0
440
 16777216
100
AcDbPoint
 10
467.3610702044974
 20
418.3769900213397
 30
0.0
  0
POINT
  5
3A174
330
39C61
100
AcDbEntity
  8
DEFPOINTS
 62
     0
440
 16777216
100
AcDbPoint
 10
395.3610702044974
 20
475.8769900213398
 30
0.0
  0
POINT
  5
3A175
330
39C61
100
AcDbEntity
  8
DEFPOINTS
 62
     0
440
 16777216
100
AcDbPoint
 10
395.3610702044974
 20
359.2425276799733
 30
0.0
  0
ENDBLK
  5
39C63
330
39C61
100
AcDbEntity
  8
0
100
AcDbBlockEnd
  0
BLOCK
  5
39C6E
330
39C6D
100
AcDbEntity
  8
0
100
AcDbBlockBegin
  2
*D25
 70
     1
 10
0.0
 20
0.0
 30
0.0
  3
*D25
  1

  0
LINE
  5
3A164
330
39C6D
100
AcDbEntity
  8
30
 62
     0
440
 16777216
370
    -2
100
AcDbLine
 10
467.3610702044974
 20
415.3769900213397
 30
0.0
 11
467.3610702044974
 21
346.4803313834001
 31
0.0
  0
LINE
  5
3A165
330
39C6D
100
AcDbEntity
  8
30
 62
     0
440
 16777216
370
    -2
100
AcDbLine
 10
372.3610702044969
 20
497.8769900213397
 30
0.0
 11
372.3610702044969
 21
346.4803313834001
 31
0.0
  0
LINE
  5
3A166
330
39C6D
100
AcDbEntity
  8
30
 62
     0
440
 16777216
370
    -2
100
AcDbLine
 10
465.3610702044971
 20
346.9803313834002
 30
0.0
 11
374.3610702044969
 21
346.9803313834002
 31
0.0
  0
INSERT
  5
3A167
330
39C6D
100
AcDbEntity
  8
30
 62
     0
440
 16777216
370
    -2
100
AcDbBlockReference
  2
_OPEN
 10
467.3610702044974
 20
346.9803313834002
 30
0.0
 41
2.0
 42
2.0
 43
2.0
  0
INSERT
  5
3A168
330
39C6D
100
AcDbEntity
  8
30
 62
     0
440
 16777216
370
    -2
100
AcDbBlockReference
  2
_OPEN
 10
372.3610702044969
 20
346.9803313834002
 30
0.0
 41
2.0
 42
2.0
 43
2.0
 50
180.0
  0
MTEXT
  5
3A169
330
39C6D
100
AcDbEntity
  8
30
 62
     0
440
 16777216
100
AcDbMText
 10
419.8610702044971
 20
352.4803313834001
 30
0.0
 40
7.0
 41
0.0
 46
0.0
 71
     5
 72
     1
  1
\A1;95
 73
     1
 44
1.0
  0
POINT
  5
3A16A
330
39C6D
100
AcDbEntity
  8
DEFPOINTS
 62
     0
440
 16777216
100
AcDbPoint
 10
467.3610702044974
 20
418.3769900213397
 30
0.0
  0
POINT
  5
3A16B
330
39C6D
100
AcDbEntity
  8
DEFPOINTS
 62
     0
440
 16777216
100
AcDbPoint
 10
372.3610702044969
 20
500.8769900213398
 30
0.0
  0
POINT
  5
3A16C
330
39C6D
100
AcDbEntity
  8
DEFPOINTS
 62
     0
440
 16777216
100
AcDbPoint
 10
372.3610702044969
 20
346.9803313834002
 30
0.0
  0
ENDBLK
  5
39C6F
330
39C6D
100
AcDbEntity
  8
0
100
AcDbBlockEnd
  0
BLOCK
  5
39C7A
330
39C79
100
AcDbEntity
  8
0
100
AcDbBlockBegin
  2
*D26
 70
     1
 10
0.0
 20
0.0
 30
0.0
  3
*D26
  1

  0
LINE
  5
3AB6D
330
39C79
100
AcDbEntity
  8
30
 62
     0
440
 16777216
370
    -2
100
AcDbLine
 10
175.9796877639411
 20
786.8716897103633
 30
0.0
 11
175.9796877639411
 21
844.5067750369247
 31
0.0
  0
LINE
  5
3AB6E
330
39C79
100
AcDbEntity
  8
30
 62
     0
440
 16777216
370
    -2
100
AcDbLine
 10
140.9796877639411
 20
829.0328139247357
 30
0.0
 11
140.9796877639411
 21
844.5067750369247
 31
0.0
  0
LINE
  5
3AB6F
330
39C79
100
AcDbEntity
  8
30
 62
     0
440
 16777216
370
    -2
100
AcDbLine
 10
173.9796877639411
 20
844.0067750369248
 30
0.0
 11
142.9796877639411
 21
844.0067750369248
 31
0.0
  0
INSERT
  5
3AB70
330
39C79
100
AcDbEntity
  8
30
 62
     0
440
 16777216
370
    -2
100
AcDbBlockReference
  2
_OPEN
 10
175.9796877639411
 20
844.0067750369248
 30
0.0
 41
2.0
 42
2.0
 43
2.0
  0
INSERT
  5
3AB71
330
39C79
100
AcDbEntity
  8
30
 62
     0
440
 16777216
370
    -2
100
AcDbBlockReference
  2
_OPEN
 10
140.9796877639411
 20
844.0067750369248
 30
0.0
 41
2.0
 42
2.0
 43
2.0
 50
180.0
  0
MTEXT
  5
3AB72
330
39C79
100
AcDbEntity
  8
30
 62
     0
440
 16777216
100
AcDbMText
 10
158.479687763941
 20
849.5067750369248
 30
0.0
 40
7.0
 41
0.0
 46
0.0
 71
     5
 72
     1
  1
\A1;35
 73
     1
 44
1.0
  0
POINT
  5
3AB73
330
39C79
100
AcDbEntity
  8
DEFPOINTS
 62
     0
440
 16777216
100
AcDbPoint
 10
175.9796877639411
 20
783.8716897103632
 30
0.0
  0
POINT
  5
3AB74
330
39C79
100
AcDbEntity
  8
DEFPOINTS
 62
     0
440
 16777216
100
AcDbPoint
 10
140.9796877639411
 20
826.0328139247357
 30
0.0
  0
POINT
  5
3AB75
330
39C79
100
AcDbEntity
  8
DEFPOINTS
 62
     0
440
 16777216
100
AcDbPoint
 10
140.9796877639411
 20
844.0067750369248
 30
0.0
  0
ENDBLK
  5
39C7B
330
39C79
100
AcDbEntity
  8
0
100
AcDbBlockEnd
  0
BLOCK
  5
39C86
330
39C85
100
AcDbEntity
  8
0
100
AcDbBlockBegin
  2
*D27
 70
     1
 10
0.0
 20
0.0
 30
0.0
  3
*D27
  1

  0
LINE
  5
3AB7F
330
39C85
100
AcDbEntity
  8
30
 62
     0
440
 16777216
370
    -2
100
AcDbLine
 10
140.9796877639411
 20
782.3531392712143
 30
0.0
 11
140.9796877639411
 21
844.5067750369247
 31
0.0
  0
LINE
  5
3AB80
330
39C85
100
AcDbEntity
  8
30
 62
     0
440
 16777216
370
    -2
100
AcDbLine
 10
105.9796877639409
 20
834.0328139247358
 30
0.0
 11
105.9796877639409
 21
844.5067750369247
 31
0.0
  0
LINE
  5
3AB81
330
39C85
100
AcDbEntity
  8
30
 62
     0
440
 16777216
370
    -2
100
AcDbLine
 10
138.9796877639411
 20
844.0067750369248
 30
0.0
 11
107.9796877639409
 21
844.0067750369248
 31
0.0
  0
INSERT
  5
3AB82
330
39C85
100
AcDbEntity
  8
30
 62
     0
440
 16777216
370
    -2
100
AcDbBlockReference
  2
_OPEN
 10
140.9796877639411
 20
844.0067750369248
 30
0.0
 41
2.0
 42
2.0
 43
2.0
  0
INSERT
  5
3AB83
330
39C85
100
AcDbEntity
  8
30
 62
     0
440
 16777216
370
    -2
100
AcDbBlockReference
  2
_OPEN
 10
105.9796877639409
 20
844.0067750369248
 30
0.0
 41
2.0
 42
2.0
 43
2.0
 50
180.0
  0
MTEXT
  5
3AB84
330
39C85
100
AcDbEntity
  8
30
 62
     0
440
 16777216
100
AcDbMText
 10
123.479687763941
 20
849.5067750369248
 30
0.0
 40
7.0
 41
0.0
 46
0.0
 71
     5
 72
     1
  1
\A1;35
 73
     1
 44
1.0
  0
POINT
  5
3AB85
330
39C85
100
AcDbEntity
  8
DEFPOINTS
 62
     0
440
 16777216
100
AcDbPoint
 10
140.9796877639411
 20
779.3531392712143
 30
0.0
  0
POINT
  5
3AB86
330
39C85
100
AcDbEntity
  8
DEFPOINTS
 62
     0
440
 16777216
100
AcDbPoint
 10
105.9796877639409
 20
831.032813924736
 30
0.0
  0
POINT
  5
3AB87
330
39C85
100
AcDbEntity
  8
DEFPOINTS
 62
     0
440
 16777216
100
AcDbPoint
 10
105.9796877639409
 20
844.0067750369248
 30
0.0
  0
ENDBLK
  5
39C87
330
39C85
100
AcDbEntity
  8
0
100
AcDbBlockEnd
  0
BLOCK
  5
39C92
330
39C91
100
AcDbEntity
  8
0
100
AcDbBlockBegin
  2
*D28
 70
     1
 10
0.0
 20
0.0
 30
0.0
  3
*D28
  1

  0
LINE
  5
39F21
330
39C91
100
AcDbEntity
  8
30
 62
     0
440
 16777216
370
    -2
100
AcDbLine
 10
194.4796877639411
 20
583.3769900213396
 30
0.0
 11
216.510330545507
 21
583.3769900213396
 31
0.0
  0
LINE
  5
39F22
330
39C91
100
AcDbEntity
  8
30
 62
     0
440
 16777216
370
    -2
100
AcDbLine
 10
194.4796877639411
 20
418.3769900213397
 30
0.0
 11
216.5103305455069
 21
418.3769900213397
 31
0.0
  0
LINE
  5
39F23
330
39C91
100
AcDbEntity
  8
30
 62
     0
440
 16777216
370
    -2
100
AcDbLine
 10
216.010330545507
 20
580.3769900213397
 30
0.0
 11
216.0103305455069
 21
421.3769900213398
 31
0.0
  0
INSERT
  5
39F24
330
39C91
100
AcDbEntity
  8
30
 62
     0
440
 16777216
370
    -2
100
AcDbBlockReference
  2
_OPEN
 10
216.010330545507
 20
583.3769900213396
 30
0.0
 41
3.0
 42
3.0
 43
3.0
 50
90.0
  0
INSERT
  5
39F25
330
39C91
100
AcDbEntity
  8
30
 62
     0
440
 16777216
370
    -2
100
AcDbBlockReference
  2
_OPEN
 10
216.0103305455069
 20
418.3769900213397
 30
0.0
 41
3.0
 42
3.0
 43
3.0
 50
270.0
  0
MTEXT
  5
39F26
330
39C91
100
AcDbEntity
  8
30
 62
     0
440
 16777216
100
AcDbMText
 10
209.5103305455069
 20
500.8769900213398
 30
0.0
 40
7.0
 41
0.0
 46
0.0
 71
     5
 72
     1
  1
\A1;165
 11
0.0000000000000001
 21
1.0
 31
0.0
 73
     1
 44
1.0
 90
        3
 63
     9
421
 13158600
 45
1.25
441
        0
  0
POINT
  5
39F27
330
39C91
100
AcDbEntity
  8
DEFPOINTS
 62
     0
440
 16777216
100
AcDbPoint
 10
193.4796877639411
 20
583.3769900213396
 30
0.0
  0
POINT
  5
39F28
330
39C91
100
AcDbEntity
  8
DEFPOINTS
 62
     0
440
 16777216
100
AcDbPoint
 10
193.4796877639411
 20
418.3769900213397
 30
0.0
  0
POINT
  5
39F29
330
39C91
100
AcDbEntity
  8
DEFPOINTS
 62
     0
440
 16777216
100
AcDbPoint
 10
216.0103305455069
 20
418.3769900213397
 30
0.0
  0
ENDBLK
  5
39C93
330
39C91
100
AcDbEntity
  8
0
100
AcDbBlockEnd
  0
BLOCK
  5
39C9E
330
39C9D
100
AcDbEntity
  8
0
100
AcDbBlockBegin
  2
*D29
 70
     1
 10
0.0
 20
0.0
 30
0.0
  3
*D29
  1

  0
LINE
  5
3A0B1
330
39C9D
100
AcDbEntity
  8
30
 62
     0
440
 16777216
370
    -2
100
AcDbLine
 10
160.9796877639408
 20
684.3769900213397
 30
0.0
 11
216.5103305455069
 21
684.3769900213397
 31
0.0
  0
LINE
  5
3A0B2
330
39C9D
100
AcDbEntity
  8
30
 62
     0
440
 16777216
370
    -2
100
AcDbLine
 10
194.4796877639411
 20
583.3769900213396
 30
0.0
 11
216.5103305455069
 21
583.3769900213396
 31
0.0
  0
LINE
  5
3A0B3
330
39C9D
100
AcDbEntity
  8
30
 62
     0
440
 16777216
370
    -2
100
AcDbLine
 10
216.0103305455069
 20
681.3769900213396
 30
0.0
 11
216.0103305455069
 21
586.3769900213396
 31
0.0
  0
INSERT
  5
3A0B4
330
39C9D
100
AcDbEntity
  8
30
 62
     0
440
 16777216
370
    -2
100
AcDbBlockReference
  2
_OPEN
 10
216.0103305455069
 20
684.3769900213397
 30
0.0
 41
3.0
 42
3.0
 43
3.0
 50
90.0
  0
INSERT
  5
3A0B5
330
39C9D
100
AcDbEntity
  8
30
 62
     0
440
 16777216
370
    -2
100
AcDbBlockReference
  2
_OPEN
 10
216.0103305455069
 20
583.3769900213396
 30
0.0
 41
3.0
 42
3.0
 43
3.0
 50
270.0
  0
MTEXT
  5
3A0B6
330
39C9D
100
AcDbEntity
  8
30
 62
     0
440
 16777216
100
AcDbMText
 10
209.5103305455068
 20
633.8769900213397
 30
0.0
 40
7.0
 41
0.0
 46
0.0
 71
     5
 72
     1
  1
\A1;101
 11
0.0000000000000001
 21
1.0
 31
0.0
 73
     1
 44
1.0
 90
        3
 63
     9
421
 13158600
 45
1.25
441
        0
  0
POINT
  5
3A0B7
330
39C9D
100
AcDbEntity
  8
DEFPOINTS
 62
     0
440
 16777216
100
AcDbPoint
 10
159.9796877639408
 20
684.3769900213397
 30
0.0
  0
POINT
  5
3A0B8
330
39C9D
100
AcDbEntity
  8
DEFPOINTS
 62
     0
440
 16777216
100
AcDbPoint
 10
193.4796877639411
 20
583.3769900213396
 30
0.0
  0
POINT
  5
3A0B9
330
39C9D
100
AcDbEntity
  8
DEFPOINTS
 62
     0
440
 16777216
100
AcDbPoint
 10
216.0103305455069
 20
583.3769900213396
 30
0.0
  0
ENDBLK
  5
39C9F
330
39C9D
100
AcDbEntity
  8
0
100
AcDbBlockEnd
  0
BLOCK
  5
39CAA
330
39CA9
100
AcDbEntity
  8
0
100
AcDbBlockBegin
  2
*D30
 70
     1
 10
0.0
 20
0.0
 30
0.0
  3
*D30
  1

  0
LINE
  5
3ABA9
330
39CA9
100
AcDbEntity
  8
30
 62
     0
440
 16777216
370
    -2
100
AcDbLine
 10
70.97968776394131
 20
419.9561218437666
 30
0.0
 11
70.97968776394131
 21
381.7917107420009
 31
0.0
  0
LINE
  5
3ABAA
330
39CA9
100
AcDbEntity
  8
30
 62
     0
440
 16777216
370
    -2
100
AcDbLine
 10
175.979687763941
 20
419.9561218437666
 30
0.0
 11
175.979687763941
 21
381.7917107420009
 31
0.0
  0
LINE
  5
3ABAB
330
39CA9
100
AcDbEntity
  8
30
 62
     0
440
 16777216
370
    -2
100
AcDbLine
 10
73.97968776394131
 20
382.2917107420009
 30
0.0
 11
172.979687763941
 21
382.2917107420009
 31
0.0
  0
INSERT
  5
3ABAC
330
39CA9
100
AcDbEntity
  8
30
 62
     0
440
 16777216
370
    -2
100
AcDbBlockReference
  2
_OPEN
 10
70.97968776394131
 20
382.2917107420009
 30
0.0
 41
3.0
 42
3.0
 43
3.0
 50
180.0
  0
INSERT
  5
3ABAD
330
39CA9
100
AcDbEntity
  8
30
 62
     0
440
 16777216
370
    -2
100
AcDbBlockReference
  2
_OPEN
 10
175.979687763941
 20
382.2917107420009
 30
0.0
 41
3.0
 42
3.0
 43
3.0
  0
MTEXT
  5
3ABAE
330
39CA9
100
AcDbEntity
  8
30
 62
     0
440
 16777216
100
AcDbMText
 10
123.4796877639411
 20
388.7917107420009
 30
0.0
 40
7.0
 41
0.0
 46
0.0
 71
     5
 72
     1
  1
\A1;105
 73
     1
 44
1.0
 90
        3
 63
     9
421
 13158600
 45
1.25
441
        0
  0
POINT
  5
3ABAF
330
39CA9
100
AcDbEntity
  8
DEFPOINTS
 62
     0
440
 16777216
100
AcDbPoint
 10
70.97968776394131
 20
420.9561218437666
 30
0.0
  0
POINT
  5
3ABB0
330
39CA9
100
AcDbEntity
  8
DEFPOINTS
 62
     0
440
 16777216
100
AcDbPoint
 10
175.979687763941
 20
420.9561218437666
 30
0.0
  0
POINT
  5
3ABB1
330
39CA9
100
AcDbEntity
  8
DEFPOINTS
 62
     0
440
 16777216
100
AcDbPoint
 10
175.979687763941
 20
382.2917107420009
 30
0.0
  0
ENDBLK
  5
39CAB
330
39CA9
100
AcDbEntity
  8
0
100
AcDbBlockEnd
  0
BLOCK
  5
39CC2
330
39CC1
100
AcDbEntity
  8
0
100
AcDbBlockBegin
  2
*D31
 70
     1
 10
0.0
 20
0.0
 30
0.0
  3
*D31
  1

  0
LINE
  5
3ABA0
330
39CC1
100
AcDbEntity
  8
30
 62
     0
440
 16777216
370
    -2
100
AcDbLine
 10
53.47968776394111
 20
414.4561218437667
 30
0.0
 11
53.47968776394111
 21
358.8051269390198
 31
0.0
  0
LINE
  5
3ABA1
330
39CC1
100
AcDbEntity
  8
30
 62
     0
440
 16777216
370
    -2
100
AcDbLine
 10
193.4796877639411
 20
414.4561218437667
 30
0.0
 11
193.4796877639411
 21
358.8051269390198
 31
0.0
  0
LINE
  5
3ABA2
330
39CC1
100
AcDbEntity
  8
30
 62
     0
440
 16777216
370
    -2
100
AcDbLine
 10
56.47968776394111
 20
359.3051269390198
 30
0.0
 11
190.4796877639411
 21
359.3051269390198
 31
0.0
  0
INSERT
  5
3ABA3
330
39CC1
100
AcDbEntity
  8
30
 62
     0
440
 16777216
370
    -2
100
AcDbBlockReference
  2
_OPEN
 10
53.47968776394111
 20
359.3051269390198
 30
0.0
 41
3.0
 42
3.0
 43
3.0
 50
180.0
  0
INSERT
  5
3ABA4
330
39CC1
100
AcDbEntity
  8
30
 62
     0
440
 16777216
370
    -2
100
AcDbBlockReference
  2
_OPEN
 10
193.4796877639411
 20
359.3051269390198
 30
0.0
 41
3.0
 42
3.0
 43
3.0
  0
MTEXT
  5
3ABA5
330
39CC1
100
AcDbEntity
  8
30
 62
     0
440
 16777216
100
AcDbMText
 10
123.4796877639411
 20
365.8051269390198
 30
0.0
 40
7.0
 41
0.0
 46
0.0
 71
     5
 72
     1
  1
\A1;140
 73
     1
 44
1.0
 90
        3
 63
     9
421
 13158600
 45
1.25
441
        0
  0
POINT
  5
3ABA6
330
39CC1
100
AcDbEntity
  8
DEFPOINTS
 62
     0
440
 16777216
100
AcDbPoint
 10
53.47968776394111
 20
415.4561218437668
 30
0.0
  0
POINT
  5
3ABA7
330
39CC1
100
AcDbEntity
  8
DEFPOINTS
 62
     0
440
 16777216
100
AcDbPoint
 10
193.4796877639411
 20
415.4561218437668
 30
0.0
  0
POINT
  5
3ABA8
330
39CC1
100
AcDbEntity
  8
DEFPOINTS
 62
     0
440
 16777216
100
AcDbPoint
 10
193.4796877639411
 20
359.3051269390198
 30
0.0
  0
ENDBLK
  5
39CC3
330
39CC1
100
AcDbEntity
  8
0
100
AcDbBlockEnd
  0
BLOCK
  5
39CCE
330
39CCD
100
AcDbEntity
  8
0
100
AcDbBlockBegin
  2
*D32
 70
     1
 10
0.0
 20
0.0
 30
0.0
  3
*D32
  1

  0
LINE
  5
3AAF1
330
39CCD
100
AcDbEntity
  8
30
 62
     0
440
 16777216
370
    -2
100
AcDbLine
 10
56.9796877639417
 20
526.8769900213396
 30
0.0
 11
56.9796877639417
 21
534.6269900213399
 31
0.0
  0
LINE
  5
3AAF2
330
39CCD
100
AcDbEntity
  8
30
 62
     0
440
 16777216
370
    -2
100
AcDbLine
 10
154.9796877639411
 20
526.8769900213396
 30
0.0
 11
154.9796877639411
 21
534.6269900213399
 31
0.0
  0
LINE
  5
3AAF3
330
39CCD
100
AcDbEntity
  8
30
 62
     0
440
 16777216
370
    -2
100
AcDbLine
 10
59.9796877639417
 20
534.1269900213399
 30
0.0
 11
151.9796877639412
 21
534.1269900213399
 31
0.0
  0
INSERT
  5
3AAF4
330
39CCD
100
AcDbEntity
  8
30
 62
     0
440
 16777216
370
    -2
100
AcDbBlockReference
  2
_OPEN
 10
56.9796877639417
 20
534.1269900213399
 30
0.0
 41
3.0
 42
3.0
 43
3.0
 50
180.0
  0
INSERT
  5
3AAF5
330
39CCD
100
AcDbEntity
  8
30
 62
     0
440
 16777216
370
    -2
100
AcDbBlockReference
  2
_OPEN
 10
154.9796877639411
 20
534.1269900213399
 30
0.0
 41
3.0
 42
3.0
 43
3.0
  0
MTEXT
  5
3AAF6
330
39CCD
100
AcDbEntity
  8
30
 62
     0
440
 16777216
100
AcDbMText
 10
120.4998386476436
 20
540.6269900213398
 30
0.0
 40
7.0
 41
0.0
 46
0.0
 71
     5
 72
     1
  1
\A1;98
 73
     1
 44
1.0
 90
        3
 63
     9
421
 13158600
 45
1.25
441
        0
  0
POINT
  5
3AAF7
330
39CCD
100
AcDbEntity
  8
DEFPOINTS
 62
     0
440
 16777216
100
AcDbPoint
 10
56.9796877639417
 20
525.8769900213398
 30
0.0
  0
POINT
  5
3AAF8
330
39CCD
100
AcDbEntity
  8
DEFPOINTS
 62
     0
440
 16777216
100
AcDbPoint
 10
154.9796877639411
 20
525.8769900213398
 30
0.0
  0
POINT
  5
3AAF9
330
39CCD
100
AcDbEntity
  8
DEFPOINTS
 62
     0
440
 16777216
100
AcDbPoint
 10
154.9796877639411
 20
534.1269900213399
 30
0.0
  0
ENDBLK
  5
39CCF
330
39CCD
100
AcDbEntity
  8
0
100
AcDbBlockEnd
  0
BLOCK
  5
39CDA
330
39CD9
100
AcDbEntity
  8
0
100
AcDbBlockBegin
  2
*D33
 70
     1
 10
0.0
 20
0.0
 30
0.0
  3
*D33
  1

  0
LINE
  5
3AB76
330
39CD9
100
AcDbEntity
  8
30
 62
     0
440
 16777216
370
    -2
100
AcDbLine
 10
105.979687763941
 20
787.8758100162672
 30
0.0
 11
105.979687763941
 21
844.5067750369247
 31
0.0
  0
LINE
  5
3AB77
330
39CD9
100
AcDbEntity
  8
30
 62
     0
440
 16777216
370
    -2
100
AcDbLine
 10
70.97968776394115
 20
784.6124133579665
 30
0.0
 11
70.97968776394115
 21
844.5067750369247
 31
0.0
  0
LINE
  5
3AB78
330
39CD9
100
AcDbEntity
  8
30
 62
     0
440
 16777216
370
    -2
100
AcDbLine
 10
103.979687763941
 20
844.0067750369248
 30
0.0
 11
72.97968776394116
 21
844.0067750369248
 31
0.0
  0
INSERT
  5
3AB79
330
39CD9
100
AcDbEntity
  8
30
 62
     0
440
 16777216
370
    -2
100
AcDbBlockReference
  2
_OPEN
 10
105.979687763941
 20
844.0067750369248
 30
0.0
 41
2.0
 42
2.0
 43
2.0
  0
INSERT
  5
3AB7A
330
39CD9
100
AcDbEntity
  8
30
 62
     0
440
 16777216
370
    -2
100
AcDbBlockReference
  2
_OPEN
 10
70.97968776394115
 20
844.0067750369248
 30
0.0
 41
2.0
 42
2.0
 43
2.0
 50
180.0
  0
MTEXT
  5
3AB7B
330
39CD9
100
AcDbEntity
  8
30
 62
     0
440
 16777216
100
AcDbMText
 10
88.47968776394109
 20
849.5067750369248
 30
0.0
 40
7.0
 41
0.0
 46
0.0
 71
     5
 72
     1
  1
\A1;35
 73
     1
 44
1.0
  0
POINT
  5
3AB7C
330
39CD9
100
AcDbEntity
  8
DEFPOINTS
 62
     0
440
 16777216
100
AcDbPoint
 10
105.979687763941
 20
784.8758100162672
 30
0.0
  0
POINT
  5
3AB7D
330
39CD9
100
AcDbEntity
  8
DEFPOINTS
 62
     0
440
 16777216
100
AcDbPoint
 10
70.97968776394115
 20
781.6124133579663
 30
0.0
  0
POINT
  5
3AB7E
330
39CD9
100
AcDbEntity
  8
DEFPOINTS
 62
     0
440
 16777216
100
AcDbPoint
 10
70.97968776394115
 20
844.0067750369248
 30
0.0
  0
ENDBLK
  5
39CDB
330
39CD9
100
AcDbEntity
  8
0
100
AcDbBlockEnd
  0
BLOCK
  5
39CE6
330
39CE5
100
AcDbEntity
  8
0
100
AcDbBlockBegin
  2
*D34
 70
     1
 10
0.0
 20
0.0
 30
0.0
  3
*D34
  1

  0
LINE
  5
3ABDF
330
39CE5
100
AcDbEntity
  8
30
 62
     0
440
 16777216
370
    -2
100
AcDbLine
 10
88.47968776394171
 20
123.0207853397595
 30
0.0
 11
88.47968776394171
 21
72.25673693791576
 31
0.0
  0
LINE
  5
3ABE0
330
39CE5
100
AcDbEntity
  8
30
 62
     0
440
 16777216
370
    -2
100
AcDbLine
 10
123.4796877639417
 20
123.0207853397595
 30
0.0
 11
123.4796877639417
 21
72.25673693791576
 31
0.0
  0
LINE
  5
3ABE1
330
39CE5
100
AcDbEntity
  8
30
 62
     0
440
 16777216
370
    -2
100
AcDbLine
 10
90.47968776394172
 20
72.75673693791579
 30
0.0
 11
121.4796877639417
 21
72.75673693791579
 31
0.0
  0
INSERT
  5
3ABE2
330
39CE5
100
AcDbEntity
  8
30
 62
     0
440
 16777216
370
    -2
100
AcDbBlockReference
  2
_OPEN
 10
88.47968776394171
 20
72.75673693791579
 30
0.0
 41
2.0
 42
2.0
 43
2.0
 50
180.0
  0
INSERT
  5
3ABE3
330
39CE5
100
AcDbEntity
  8
30
 62
     0
440
 16777216
370
    -2
100
AcDbBlockReference
  2
_OPEN
 10
123.4796877639417
 20
72.75673693791579
 30
0.0
 41
2.0
 42
2.0
 43
2.0
  0
MTEXT
  5
3ABE4
330
39CE5
100
AcDbEntity
  8
30
 62
     0
440
 16777216
100
AcDbMText
 10
105.9796877639417
 20
78.25673693791578
 30
0.0
 40
7.0
 41
0.0
 46
0.0
 71
     5
 72
     1
  1
\A1;35
 73
     1
 44
1.0
  0
POINT
  5
3ABE5
330
39CE5
100
AcDbEntity
  8
DEFPOINTS
 62
     0
440
 16777216
100
AcDbPoint
 10
88.47968776394171
 20
126.0207853397595
 30
0.0
  0
POINT
  5
3ABE6
330
39CE5
100
AcDbEntity
  8
DEFPOINTS
 62
     0
440
 16777216
100
AcDbPoint
 10
123.4796877639417
 20
126.0207853397595
 30
0.0
  0
POINT
  5
3ABE7
330
39CE5
100
AcDbEntity
  8
DEFPOINTS
 62
     0
440
 16777216
100
AcDbPoint
 10
123.4796877639417
 20
72.75673693791579
 30
0.0
  0
ENDBLK
  5
39CE7
330
39CE5
100
AcDbEntity
  8
0
100
AcDbBlockEnd
  0
BLOCK
  5
39CF2
330
39CF1
100
AcDbEntity
  8
0
100
AcDbBlockBegin
  2
*D35
 70
     1
 10
0.0
 20
0.0
 30
0.0
  3
*D35
  1

  0
LINE
  5
3AC10
330
39CF1
100
AcDbEntity
  8
30
 62
     0
440
 16777216
370
    -2
100
AcDbLine
 10
124.4796877639417
 20
252.0207853397585
 30
0.0
 11
222.4423249047704
 21
252.0207853397585
 31
0.0
  0
LINE
  5
3AC11
330
39CF1
100
AcDbEntity
  8
30
 62
     0
440
 16777216
370
    -2
100
AcDbLine
 10
124.4796877639417
 20
126.0207853397595
 30
0.0
 11
222.4423249047704
 21
126.0207853397595
 31
0.0
  0
LINE
  5
3AC12
330
39CF1
100
AcDbEntity
  8
30
 62
     0
440
 16777216
370
    -2
100
AcDbLine
 10
221.9423249047705
 20
249.0207853397585
 30
0.0
 11
221.9423249047704
 21
129.0207853397594
 31
0.0
  0
INSERT
  5
3AC13
330
39CF1
100
AcDbEntity
  8
30
 62
     0
440
 16777216
370
    -2
100
AcDbBlockReference
  2
_OPEN
 10
221.9423249047705
 20
252.0207853397585
 30
0.0
 41
3.0
 42
3.0
 43
3.0
 50
90.0
  0
INSERT
  5
3AC14
330
39CF1
100
AcDbEntity
  8
30
 62
     0
440
 16777216
370
    -2
100
AcDbBlockReference
  2
_OPEN
 10
221.9423249047704
 20
126.0207853397595
 30
0.0
 41
3.0
 42
3.0
 43
3.0
 50
270.0
  0
MTEXT
  5
3AC15
330
39CF1
100
AcDbEntity
  8
30
 62
     0
440
 16777216
100
AcDbMText
 10
215.4423249047704
 20
189.020785339759
 30
0.0
 40
7.0
 41
0.0
 46
0.0
 71
     5
 72
     1
  1
\A1;126
 11
0.0000000000000001
 21
1.0
 31
0.0
 73
     1
 44
1.0
 90
        3
 63
     9
421
 13158600
 45
1.25
441
        0
  0
POINT
  5
3AC16
330
39CF1
100
AcDbEntity
  8
DEFPOINTS
 62
     0
440
 16777216
100
AcDbPoint
 10
123.4796877639417
 20
252.0207853397585
 30
0.0
  0
POINT
  5
3AC17
330
39CF1
100
AcDbEntity
  8
DEFPOINTS
 62
     0
440
 16777216
100
AcDbPoint
 10
123.4796877639417
 20
126.0207853397595
 30
0.0
  0
POINT
  5
3AC18
330
39CF1
100
AcDbEntity
  8
DEFPOINTS
 62
     0
440
 16777216
100
AcDbPoint
 10
221.9423249047704
 20
126.0207853397595
 30
0.0
  0
ENDBLK
  5
39CF3
330
39CF1
100
AcDbEntity
  8
0
100
AcDbBlockEnd
  0
BLOCK
  5
39CFE
330
39CFD
100
AcDbEntity
  8
0
100
AcDbBlockBegin
  2
*D36
 70
     1
 10
0.0
 20
0.0
 30
0.0
  3
*D36
  1

  0
LINE
  5
3A0A8
330
39CFD
100
AcDbEntity
  8
30
 62
     0
440
 16777216
370
    -2
100
AcDbLine
 10
443.3610702044968
 20
584.3769900213397
 30
0.0
 11
443.3610702044968
 21
593.8769900213399
 31
0.0
  0
LINE
  5
3A0A9
330
39CFD
100
AcDbEntity
  8
30
 62
     0
440
 16777216
370
    -2
100
AcDbLine
 10
467.3610702044974
 20
584.3769900213397
 30
0.0
 11
467.3610702044974
 21
593.8769900213399
 31
0.0
  0
LINE
  5
3A0AA
330
39CFD
100
AcDbEntity
  8
30
 62
     0
440
 16777216
370
    -2
100
AcDbLine
 10
446.3610702044968
 20
593.3769900213397
 30
0.0
 11
464.3610702044973
 21
593.3769900213397
 31
0.0
  0
INSERT
  5
3A0AB
330
39CFD
100
AcDbEntity
  8
30
 62
     0
440
 16777216
370
    -2
100
AcDbBlockReference
  2
_OPEN
 10
443.3610702044968
 20
593.3769900213397
 30
0.0
 41
3.0
 42
3.0
 43
3.0
 50
180.0
  0
INSERT
  5
3A0AC
330
39CFD
100
AcDbEntity
  8
30
 62
     0
440
 16777216
370
    -2
100
AcDbBlockReference
  2
_OPEN
 10
467.3610702044974
 20
593.3769900213397
 30
0.0
 41
3.0
 42
3.0
 43
3.0
  0
MTEXT
  5
3A0AD
330
39CFD
100
AcDbEntity
  8
30
 62
     0
440
 16777216
100
AcDbMText
 10
455.3610702044968
 20
599.8769900213399
 30
0.0
 40
7.0
 41
0.0
 46
0.0
 71
     5
 72
     1
  1
\A1;24
 73
     1
 44
1.0
 90
        3
 63
     9
421
 13158600
 45
1.25
441
        0
  0
POINT
  5
3A0AE
330
39CFD
100
AcDbEntity
  8
DEFPOINTS
 62
     0
440
 16777216
100
AcDbPoint
 10
443.3610702044968
 20
583.3769900213399
 30
0.0
  0
POINT
  5
3A0AF
330
39CFD
100
AcDbEntity
  8
DEFPOINTS
 62
     0
440
 16777216
100
AcDbPoint
 10
467.3610702044974
 20
583.3769900213399
 30
0.0
  0
POINT
  5
3A0B0
330
39CFD
100
AcDbEntity
  8
DEFPOINTS
 62
     0
440
 16777216
100
AcDbPoint
 10
467.3610702044974
 20
593.3769900213397
 30
0.0
  0
ENDBLK
  5
39CFF
330
39CFD
100
AcDbEntity
  8
0
100
AcDbBlockEnd
  0
BLOCK
  5
39D0A
330
39D09
100
AcDbEntity
  8
0
100
AcDbBlockBegin
  2
*D37
 70
     1
 10
0.0
 20
0.0
 30
0.0
  3
*D37
  1

  0
LINE
  5
3AB29
330
39D09
100
AcDbEntity
  8
30
 62
     0
440
 16777216
370
    -2
100
AcDbLine
 10
394.3610702044974
 20
525.8769900213398
 30
0.0
 11
356.7126594140928
 21
525.8769900213398
 31
0.0
  0
LINE
  5
3AB2A
330
39D09
100
AcDbEntity
  8
30
 62
     0
440
 16777216
370
    -2
100
AcDbLine
 10
394.3610702044974
 20
475.8769900213398
 30
0.0
 11
356.7126594140928
 21
475.8769900213398
 31
0.0
  0
LINE
  5
3AB2B
330
39D09
100
AcDbEntity
  8
30
 62
     0
440
 16777216
370
    -2
100
AcDbLine
 10
357.2126594140927
 20
522.8769900213396
 30
0.0
 11
357.2126594140927
 21
478.8769900213398
 31
0.0
  0
INSERT
  5
3AB2C
330
39D09
100
AcDbEntity
  8
30
 62
     0
440
 16777216
370
    -2
100
AcDbBlockReference
  2
_OPEN
 10
357.2126594140927
 20
525.8769900213398
 30
0.0
 41
3.0
 42
3.0
 43
3.0
 50
90.0
  0
INSERT
  5
3AB2D
330
39D09
100
AcDbEntity
  8
30
 62
     0
440
 16777216
370
    -2
100
AcDbBlockReference
  2
_OPEN
 10
357.2126594140927
 20
475.8769900213398
 30
0.0
 41
3.0
 42
3.0
 43
3.0
 50
270.0
  0
MTEXT
  5
3AB2E
330
39D09
100
AcDbEntity
  8
30
 62
     0
440
 16777216
100
AcDbMText
 10
350.7126594140927
 20
500.8769900213398
 30
0.0
 40
7.0
 41
0.0
 46
0.0
 71
     5
 72
     1
  1
\A1;50
 11
0.0000000000000001
 21
1.0
 31
0.0
 73
     1
 44
1.0
 90
        3
 63
     9
421
 13158600
 45
1.25
441
        0
  0
POINT
  5
3AB2F
330
39D09
100
AcDbEntity
  8
DEFPOINTS
 62
     0
440
 16777216
100
AcDbPoint
 10
395.3610702044974
 20
525.8769900213398
 30
0.0
  0
POINT
  5
3AB30
330
39D09
100
AcDbEntity
  8
DEFPOINTS
 62
     0
440
 16777216
100
AcDbPoint
 10
395.3610702044974
 20
475.8769900213398
 30
0.0
  0
POINT
  5
3AB31
330
39D09
100
AcDbEntity
  8
DEFPOINTS
 62
     0
440
 16777216
100
AcDbPoint
 10
357.2126594140927
 20
475.8769900213398
 30
0.0
  0
ENDBLK
  5
39D0B
330
39D09
100
AcDbEntity
  8
0
100
AcDbBlockEnd
  0
BLOCK
  5
39D16
330
39D15
100
AcDbEntity
  8
0
100
AcDbBlockBegin
  2
*D38
 70
     1
 10
0.0
 20
0.0
 30
0.0
  3
*D38
  1

  0
LINE
  5
3A09E
330
39D15
100
AcDbEntity
  8
30
 62
     0
440
 16777216
370
    -2
100
AcDbLine
 10
527.1110702044973
 20
559.37699002134
 30
0.0
 11
547.8610702044973
 21
559.37699002134
 31
0.0
  0
LINE
  5
3A09F
330
39D15
100
AcDbEntity
  8
30
 62
     0
440
 16777216
370
    -2
100
AcDbLine
 10
533.3610702044973
 20
548.3769900213399
 30
0.0
 11
547.8610702044973
 21
548.3769900213399
 31
0.0
  0
LINE
  5
3A0A0
330
39D15
100
AcDbEntity
  8
30
 62
     0
440
 16777216
370
    -2
100
AcDbLine
 10
547.3610702044973
 20
562.37699002134
 30
0.0
 11
547.3610702044973
 21
565.37699002134
 31
0.0
  0
LINE
  5
3A0A1
330
39D15
100
AcDbEntity
  8
30
 62
     0
440
 16777216
370
    -2
100
AcDbLine
 10
547.3610702044973
 20
545.3769900213399
 30
0.0
 11
547.3610702044973
 21
529.3769900213399
 31
0.0
  0
INSERT
  5
3A0A2
330
39D15
100
AcDbEntity
  8
30
 62
     0
440
 16777216
370
    -2
100
AcDbBlockReference
  2
_OPEN
 10
547.3610702044973
 20
559.37699002134
 30
0.0
 41
3.0
 42
3.0
 43
3.0
 50
270.0
  0
INSERT
  5
3A0A3
330
39D15
100
AcDbEntity
  8
30
 62
     0
440
 16777216
370
    -2
100
AcDbBlockReference
  2
_OPEN
 10
547.3610702044973
 20
548.3769900213399
 30
0.0
 41
3.0
 42
3.0
 43
3.0
 50
90.0
  0
MTEXT
  5
3A0A4
330
39D15
100
AcDbEntity
  8
30
 62
     0
440
 16777216
100
AcDbMText
 10
540.8610702044971
 20
535.87699002134
 30
0.0
 40
7.0
 41
0.0
 46
0.0
 71
     5
 72
     1
  1
\A1;11
 11
0.0000000000000001
 21
1.0
 31
0.0
 73
     1
 44
1.0
 90
        3
 63
     9
421
 13158600
 45
1.25
441
        0
  0
POINT
  5
3A0A5
330
39D15
100
AcDbEntity
  8
DEFPOINTS
 62
     0
440
 16777216
100
AcDbPoint
 10
526.1110702044971
 20
559.37699002134
 30
0.0
  0
POINT
  5
3A0A6
330
39D15
100
AcDbEntity
  8
DEFPOINTS
 62
     0
440
 16777216
100
AcDbPoint
 10
532.3610702044971
 20
548.3769900213399
 30
0.0
  0
POINT
  5
3A0A7
330
39D15
100
AcDbEntity
  8
DEFPOINTS
 62
     0
440
 16777216
100
AcDbPoint
 10
547.3610702044973
 20
548.3769900213399
 30
0.0
  0
ENDBLK
  5
39D17
330
39D15
100
AcDbEntity
  8
0
100
AcDbBlockEnd
  0
BLOCK
  5
39D22
330
39D21
100
AcDbEntity
  8
0
100
AcDbBlockBegin
  2
*D39
 70
     1
 10
0.0
 20
0.0
 30
0.0
  3
*D39
  1

  0
LINE
  5
39FBF
330
39D21
100
AcDbEntity
  8
30
  6
Continuous
 62
     0
440
 16777216
370
    -2
100
AcDbLine
 10
358.1554441633763
 20
218.3380096316096
 30
0.0
 11
362.8856918156788
 21
225.4737387092153
 31
0.0
  0
LINE
  5
39FC0
330
39D21
100
AcDbEntity
  8
30
  6
Continuous
 62
     0
440
 16777216
370
    -2
100
AcDbLine
 10
362.8856918156788
 20
225.4737387092153
 30
0.0
 11
374.2190251490122
 21
225.4737387092153
 31
0.0
  0
LINE
  5
39FC1
330
39D21
100
AcDbEntity
  8
30
  6
Continuous
 62
     0
440
 16777216
370
    -2
100
AcDbLine
 10
356.4978763695217
 20
215.8375158786126
 30
0.0
 11
357.0503989674733
 21
216.6710137962783
 31
0.0
  0
INSERT
  5
39FC2
330
39D21
100
AcDbEntity
  8
30
  6
Continuous
 62
     0
440
 16777216
370
    -2
100
AcDbBlockReference
  2
_OPEN
 10
357.0503989674733
 20
216.6710137962783
 30
0.0
 41
2.0
 42
2.0
 43
2.0
 50
236.4597535582355
  0
MTEXT
  5
39FC3
330
39D21
100
AcDbEntity
  8
30
  6
Continuous
 62
     0
440
 16777216
100
AcDbMText
 10
369.5523584823456
 20
230.9737387092152
 30
0.0
 40
7.0
 41
0.0
 46
0.0
 71
     5
 72
     1
  1
\A1;R1
 73
     1
 44
1.0
  0
POINT
  5
39FC4
330
39D21
100
AcDbEntity
  8
DEFPOINTS
  6
Continuous
 62
     0
440
 16777216
100
AcDbPoint
 10
357.0503989674733
 20
216.6710137962783
 30
0.0
  0
POINT
  5
39FC5
330
39D21
100
AcDbEntity
  8
DEFPOINTS
  6
Continuous
 62
     0
440
 16777216
100
AcDbPoint
 10
356.4978763695217
 20
215.8375158786126
 30
0.0
  0
ENDBLK
  5
39D23
330
39D21
100
AcDbEntity
  8
0
100
AcDbBlockEnd
  0
BLOCK
  5
39D2C
330
39D2B
100
AcDbEntity
  8
0
100
AcDbBlockBegin
  2
*D40
 70
     1
 10
0.0
 20
0.0
 30
0.0
  3
*D40
  1

  0
LINE
  5
3ABBB
330
39D2B
100
AcDbEntity
  8
30
 62
     0
440
 16777216
370
    -2
100
AcDbLine
 10
255.8337302862376
 20
161.0207853397584
 30
0.0
 11
255.8337302862376
 21
70.1371697512327
 31
0.0
  0
LINE
  5
3ABBC
330
39D2B
100
AcDbEntity
  8
30
 62
     0
440
 16777216
370
    -2
100
AcDbLine
 10
355.8337302862377
 20
161.0207853397584
 30
0.0
 11
355.8337302862377
 21
70.1371697512327
 31
0.0
  0
LINE
  5
3ABBD
330
39D2B
100
AcDbEntity
  8
30
 62
     0
440
 16777216
370
    -2
100
AcDbLine
 10
257.8337302862376
 20
70.6371697512327
 30
0.0
 11
353.8337302862377
 21
70.6371697512327
 31
0.0
  0
INSERT
  5
3ABBE
330
39D2B
100
AcDbEntity
  8
30
 62
     0
440
 16777216
370
    -2
100
AcDbBlockReference
  2
_OPEN
 10
255.8337302862376
 20
70.6371697512327
 30
0.0
 41
2.0
 42
2.0
 43
2.0
 50
180.0
  0
INSERT
  5
3ABBF
330
39D2B
100
AcDbEntity
  8
30
 62
     0
440
 16777216
370
    -2
100
AcDbBlockReference
  2
_OPEN
 10
355.8337302862377
 20
70.6371697512327
 30
0.0
 41
2.0
 42
2.0
 43
2.0
  0
MTEXT
  5
3ABC0
330
39D2B
100
AcDbEntity
  8
30
 62
     0
440
 16777216
100
AcDbMText
 10
305.8337302862377
 20
76.13716975123271
 30
0.0
 40
7.0
 41
0.0
 46
0.0
 71
     5
 72
     1
  1
\A1;100
 73
     1
 44
1.0
  0
POINT
  5
3ABC1
330
39D2B
100
AcDbEntity
  8
DEFPOINTS
 62
     0
440
 16777216
100
AcDbPoint
 10
255.8337302862376
 20
164.0207853397584
 30
0.0
  0
POINT
  5
3ABC2
330
39D2B
100
AcDbEntity
  8
DEFPOINTS
 62
     0
440
 16777216
100
AcDbPoint
 10
355.8337302862377
 20
164.0207853397584
 30
0.0
  0
POINT
  5
3ABC3
330
39D2B
100
AcDbEntity
  8
DEFPOINTS
 62
     0
440
 16777216
100
AcDbPoint
 10
355.8337302862377
 20
70.6371697512327
 30
0.0
  0
ENDBLK
  5
39D2D
330
39D2B
100
AcDbEntity
  8
0
100
AcDbBlockEnd
  0
BLOCK
  5
39D38
330
39D37
100
AcDbEntity
  8
0
100
AcDbBlockBegin
  2
*D41
 70
     1
 10
0.0
 20
0.0
 30
0.0
  3
*D41
  1

  0
LINE
  5
39FC6
330
39D37
100
AcDbEntity
  8
30
  6
Continuous
 62
     0
440
 16777216
370
    -2
100
AcDbLine
 10
509.9906987633808
 20
214.1068391453263
 30
0.0
 11
517.6987991254913
 21
221.5648339606582
 31
0.0
  0
LINE
  5
39FC7
330
39D37
100
AcDbEntity
  8
30
  6
Continuous
 62
     0
440
 16777216
370
    -2
100
AcDbLine
 10
517.6987991254913
 20
221.5648339606582
 30
0.0
 11
529.0321324588246
 21
221.5648339606582
 31
0.0
  0
LINE
  5
39FC8
330
39D37
100
AcDbEntity
  8
30
  6
Continuous
 62
     0
440
 16777216
370
    -2
100
AcDbLine
 10
507.8346886705577
 20
212.0207853397586
 30
0.0
 11
508.5533587015047
 21
212.7161366082872
 31
0.0
  0
INSERT
  5
39FC9
330
39D37
100
AcDbEntity
  8
30
  6
Continuous
 62
     0
440
 16777216
370
    -2
100
AcDbBlockReference
  2
_OPEN
 10
508.5533587015047
 20
212.7161366082872
 30
0.0
 41
2.0
 42
2.0
 43
2.0
 50
224.0552153824892
  0
MTEXT
  5
39FCA
330
39D37
100
AcDbEntity
  8
30
  6
Continuous
 62
     0
440
 16777216
100
AcDbMText
 10
519.6987991254911
 20
230.5648339606582
 30
0.0
 40
7.0
 41
0.0
 46
0.0
 71
     1
 72
     1
  1
\A1;R1
 73
     1
 44
1.0
  0
POINT
  5
39FCB
330
39D37
100
AcDbEntity
  8
DEFPOINTS
  6
Continuous
 62
     0
440
 16777216
100
AcDbPoint
 10
508.5533587015047
 20
212.7161366082872
 30
0.0
  0
POINT
  5
39FCC
330
39D37
100
AcDbEntity
  8
DEFPOINTS
  6
Continuous
 62
     0
440
 16777216
100
AcDbPoint
 10
507.8346886705577
 20
212.0207853397586
 30
0.0
  0
ENDBLK
  5
39D39
330
39D37
100
AcDbEntity
  8
0
100
AcDbBlockEnd
  0
BLOCK
  5
39D42
330
39D41
100
AcDbEntity
  8
0
100
AcDbBlockBegin
  2
*D42
 70
     1
 10
0.0
 20
0.0
 30
0.0
  3
*D42
  1

  0
LINE
  5
3ABC4
330
39D41
100
AcDbEntity
  8
30
 62
     0
440
 16777216
370
    -2
100
AcDbLine
 10
508.8346886705576
 20
163.0207853397585
 30
0.0
 11
508.8346886705576
 21
68.86542819451029
 31
0.0
  0
LINE
  5
3ABC5
330
39D41
100
AcDbEntity
  8
30
 62
     0
440
 16777216
370
    -2
100
AcDbLine
 10
484.8346886705576
 20
163.0207853397585
 30
0.0
 11
484.8346886705576
 21
68.86542819451029
 31
0.0
  0
LINE
  5
3ABC6
330
39D41
100
AcDbEntity
  8
30
 62
     0
440
 16777216
370
    -2
100
AcDbLine
 10
506.8346886705576
 20
69.36542819451029
 30
0.0
 11
486.8346886705576
 21
69.36542819451029
 31
0.0
  0
INSERT
  5
3ABC7
330
39D41
100
AcDbEntity
  8
30
 62
     0
440
 16777216
370
    -2
100
AcDbBlockReference
  2
_OPEN
 10
508.8346886705576
 20
69.36542819451029
 30
0.0
 41
2.0
 42
2.0
 43
2.0
  0
INSERT
  5
3ABC8
330
39D41
100
AcDbEntity
  8
30
 62
     0
440
 16777216
370
    -2
100
AcDbBlockReference
  2
_OPEN
 10
484.8346886705576
 20
69.36542819451029
 30
0.0
 41
2.0
 42
2.0
 43
2.0
 50
180.0
  0
MTEXT
  5
3ABC9
330
39D41
100
AcDbEntity
  8
30
 62
     0
440
 16777216
100
AcDbMText
 10
496.8346886705576
 20
78.3654281945103
 30
0.0
 40
7.0
 41
0.0
 46
0.0
 71
     2
 72
     1
  1
\A1;24
 73
     1
 44
1.0
  0
POINT
  5
3ABCA
330
39D41
100
AcDbEntity
  8
DEFPOINTS
 62
     0
440
 16777216
100
AcDbPoint
 10
508.8346886705576
 20
166.0207853397585
 30
0.0
  0
POINT
  5
3ABCB
330
39D41
100
AcDbEntity
  8
DEFPOINTS
 62
     0
440
 16777216
100
AcDbPoint
 10
484.8346886705576
 20
166.0207853397585
 30
0.0
  0
POINT
  5
3ABCC
330
39D41
100
AcDbEntity
  8
DEFPOINTS
 62
     0
440
 16777216
100
AcDbPoint
 10
484.8346886705576
 20
69.36542819451029
 30
0.0
  0
ENDBLK
  5
39D43
330
39D41
100
AcDbEntity
  8
0
100
AcDbBlockEnd
  0
BLOCK
  5
39D4E
330
39D4D
100
AcDbEntity
  8
0
100
AcDbBlockBegin
  2
*D43
 70
     1
 10
0.0
 20
0.0
 30
0.0
  3
*D43
  1

  0
LINE
  5
3AAFA
330
39D4D
100
AcDbEntity
  8
30
 62
     0
440
 16777216
370
    -2
100
AcDbLine
 10
94.97968776394159
 20
474.8769900213398
 30
0.0
 11
94.97968776394159
 21
459.0961178654238
 31
0.0
  0
LINE
  5
3AAFB
330
39D4D
100
AcDbEntity
  8
30
 62
     0
440
 16777216
370
    -2
100
AcDbLine
 10
116.9796877639411
 20
474.8769900213398
 30
0.0
 11
116.9796877639411
 21
459.0961178654238
 31
0.0
  0
LINE
  5
3AAFC
330
39D4D
100
AcDbEntity
  8
30
 62
     0
440
 16777216
370
    -2
100
AcDbLine
 10
97.9796877639416
 20
459.5961178654238
 30
0.0
 11
113.9796877639411
 21
459.5961178654238
 31
0.0
  0
LINE
  5
3AAFD
330
39D4D
100
AcDbEntity
  8
30
 62
     0
440
 16777216
370
    -2
100
AcDbLine
 10
116.9796877639411
 20
459.5961178654238
 30
0.0
 11
137.6463544306078
 21
459.5961178654238
 31
0.0
  0
INSERT
  5
3AAFE
330
39D4D
100
AcDbEntity
  8
30
 62
     0
440
 16777216
370
    -2
100
AcDbBlockReference
  2
_OPEN
 10
94.97968776394159
 20
459.5961178654238
 30
0.0
 41
3.0
 42
3.0
 43
3.0
 50
180.0
  0
INSERT
  5
3AAFF
330
39D4D
100
AcDbEntity
  8
30
 62
     0
440
 16777216
370
    -2
100
AcDbBlockReference
  2
_OPEN
 10
116.9796877639411
 20
459.5961178654238
 30
0.0
 41
3.0
 42
3.0
 43
3.0
  0
MTEXT
  5
3AB00
330
39D4D
100
AcDbEntity
  8
30
 62
     0
440
 16777216
100
AcDbMText
 10
128.8130210972744
 20
466.0961178654238
 30
0.0
 40
7.0
 41
0.0
 46
0.0
 71
     5
 72
     1
  1
\A1;22
 73
     1
 44
1.0
 90
        3
 63
     9
421
 13158600
 45
1.25
441
        0
  0
POINT
  5
3AB01
330
39D4D
100
AcDbEntity
  8
DEFPOINTS
 62
     0
440
 16777216
100
AcDbPoint
 10
94.97968776394159
 20
475.8769900213398
 30
0.0
  0
POINT
  5
3AB02
330
39D4D
100
AcDbEntity
  8
DEFPOINTS
 62
     0
440
 16777216
100
AcDbPoint
 10
116.9796877639411
 20
475.8769900213398
 30
0.0
  0
POINT
  5
3AB03
330
39D4D
100
AcDbEntity
  8
DEFPOINTS
 62
     0
440
 16777216
100
AcDbPoint
 10
116.9796877639411
 20
459.5961178654238
 30
0.0
  0
ENDBLK
  5
39D4F
330
39D4D
100
AcDbEntity
  8
0
100
AcDbBlockEnd
  0
BLOCK
  5
39D5A
330
39D59
100
AcDbEntity
  8
0
100
AcDbBlockBegin
  2
*D44
 70
     1
 10
0.0
 20
0.0
 30
0.0
  3
*D44
  1

  0
LINE
  5
39FDF
330
39D59
100
AcDbEntity
  8
30
 62
     0
440
 16777216
370
    -2
100
AcDbLine
 10
360.1824502669383
 20
215.0207853397585
 30
0.0
 11
416.7268442820653
 21
215.0207853397585
 31
0.0
  0
LINE
  5
39FE0
330
39D59
100
AcDbEntity
  8
30
 62
     0
440
 16777216
370
    -2
100
AcDbLine
 10
359.5991545718443
 20
163.0207853397584
 30
0.0
 11
416.7268442820653
 21
163.0207853397584
 31
0.0
  0
LINE
  5
39FE1
330
39D59
100
AcDbEntity
  8
30
 62
     0
440
 16777216
370
    -2
100
AcDbLine
 10
416.2268442820654
 20
212.0207853397584
 30
0.0
 11
416.2268442820654
 21
166.0207853397584
 31
0.0
  0
INSERT
  5
39FE2
330
39D59
100
AcDbEntity
  8
30
 62
     0
440
 16777216
370
    -2
100
AcDbBlockReference
  2
_OPEN
 10
416.2268442820654
 20
215.0207853397585
 30
0.0
 41
3.0
 42
3.0
 43
3.0
 50
90.0
  0
INSERT
  5
39FE3
330
39D59
100
AcDbEntity
  8
30
 62
     0
440
 16777216
370
    -2
100
AcDbBlockReference
  2
_OPEN
 10
416.2268442820654
 20
163.0207853397584
 30
0.0
 41
3.0
 42
3.0
 43
3.0
 50
270.0
  0
MTEXT
  5
39FE4
330
39D59
100
AcDbEntity
  8
30
 62
     0
440
 16777216
100
AcDbMText
 10
409.7268442820651
 20
189.0207853397585
 30
0.0
 40
7.0
 41
0.0
 46
0.0
 71
     5
 72
     1
  1
\A1;52
 11
0.0000000000000001
 21
1.0
 31
0.0
 73
     1
 44
1.0
 90
        3
 63
     9
421
 13158600
 45
1.25
441
        0
  0
POINT
  5
39FE5
330
39D59
100
AcDbEntity
  8
DEFPOINTS
 62
     0
440
 16777216
100
AcDbPoint
 10
359.1824502669383
 20
215.0207853397585
 30
0.0
  0
POINT
  5
39FE6
330
39D59
100
AcDbEntity
  8
DEFPOINTS
 62
     0
440
 16777216
100
AcDbPoint
 10
358.5991545718443
 20
163.0207853397584
 30
0.0
  0
POINT
  5
39FE7
330
39D59
100
AcDbEntity
  8
DEFPOINTS
 62
     0
440
 16777216
100
AcDbPoint
 10
416.2268442820654
 20
163.0207853397584
 30
0.0
  0
ENDBLK
  5
39D5B
330
39D59
100
AcDbEntity
  8
0
100
AcDbBlockEnd
  0
BLOCK
  5
39D66
330
39D65
100
AcDbEntity
  8
0
100
AcDbBlockBegin
  2
*D45
 70
     1
 10
0.0
 20
0.0
 30
0.0
  3
*D45
  1

  0
LINE
  5
39FF1
330
39D65
100
AcDbEntity
  8
30
 62
     0
440
 16777216
370
    -2
100
AcDbLine
 10
512.0312400130736
 20
213.0207853397586
 30
0.0
 11
606.7034609541772
 21
213.0207853397586
 31
0.0
  0
LINE
  5
39FF2
330
39D65
100
AcDbEntity
  8
30
 62
     0
440
 16777216
370
    -2
100
AcDbLine
 10
513.7943035337906
 20
165.0207853397586
 30
0.0
 11
606.7034609541772
 21
165.0207853397586
 31
0.0
  0
LINE
  5
39FF3
330
39D65
100
AcDbEntity
  8
30
 62
     0
440
 16777216
370
    -2
100
AcDbLine
 10
606.2034609541772
 20
210.0207853397586
 30
0.0
 11
606.2034609541772
 21
168.0207853397586
 31
0.0
  0
INSERT
  5
39FF4
330
39D65
100
AcDbEntity
  8
30
 62
     0
440
 16777216
370
    -2
100
AcDbBlockReference
  2
_OPEN
 10
606.2034609541772
 20
213.0207853397586
 30
0.0
 41
3.0
 42
3.0
 43
3.0
 50
90.0
  0
INSERT
  5
39FF5
330
39D65
100
AcDbEntity
  8
30
 62
     0
440
 16777216
370
    -2
100
AcDbBlockReference
  2
_OPEN
 10
606.2034609541772
 20
165.0207853397586
 30
0.0
 41
3.0
 42
3.0
 43
3.0
 50
270.0
  0
MTEXT
  5
39FF6
330
39D65
100
AcDbEntity
  8
30
 62
     0
440
 16777216
100
AcDbMText
 10
596.2034609541772
 20
189.0207853397586
 30
0.0
 40
7.0
 41
0.0
 46
0.0
 71
     2
 72
     1
  1
\A1;48
 11
0.0000000000000001
 21
1.0
 31
0.0
 73
     1
 44
1.0
 90
        3
 63
     9
421
 13158600
 45
1.25
441
        0
  0
POINT
  5
39FF7
330
39D65
100
AcDbEntity
  8
DEFPOINTS
 62
     0
440
 16777216
100
AcDbPoint
 10
511.0312400130736
 20
213.0207853397586
 30
0.0
  0
POINT
  5
39FF8
330
39D65
100
AcDbEntity
  8
DEFPOINTS
 62
     0
440
 16777216
100
AcDbPoint
 10
512.7943035337906
 20
165.0207853397586
 30
0.0
  0
POINT
  5
39FF9
330
39D65
100
AcDbEntity
  8
DEFPOINTS
 62
     0
440
 16777216
100
AcDbPoint
 10
606.2034609541772
 20
165.0207853397586
 30
0.0
  0
ENDBLK
  5
39D67
330
39D65
100
AcDbEntity
  8
0
100
AcDbBlockEnd
  0
BLOCK
  5
39D72
330
39D71
100
AcDbEntity
  8
0
100
AcDbBlockBegin
  2
*D46
 70
     1
 10
0.0
 20
0.0
 30
0.0
  3
*D46
  1

  0
LINE
  5
3AB1E
330
39D71
100
AcDbEntity
  8
30
 62
     0
440
 16777216
370
    -2
100
AcDbLine
 10
388.8610702044971
 20
475.1407088103216
 30
0.0
 11
388.8610702044971
 21
358.7425276799733
 31
0.0
  0
LINE
  5
3AB1F
330
39D71
100
AcDbEntity
  8
30
 62
     0
440
 16777216
370
    -2
100
AcDbLine
 10
395.3610702044974
 20
475.3769900213398
 30
0.0
 11
395.3610702044974
 21
358.7425276799733
 31
0.0
  0
LINE
  5
3AB20
330
39D71
100
AcDbEntity
  8
30
 62
     0
440
 16777216
370
    -2
100
AcDbLine
 10
397.3610702044974
 20
359.2425276799733
 30
0.0
 11
399.3610702044973
 21
359.2425276799733
 31
0.0
  0
LINE
  5
3AB21
330
39D71
100
AcDbEntity
  8
30
 62
     0
440
 16777216
370
    -2
100
AcDbLine
 10
386.8610702044971
 20
359.2425276799733
 30
0.0
 11
350.2299199893505
 21
359.2425276799733
 31
0.0
  0
LINE
  5
3AB22
330
39D71
100
AcDbEntity
  8
30
 62
     0
440
 16777216
370
    -2
100
AcDbLine
 10
395.3610702044974
 20
359.2425276799733
 30
0.0
 11
388.8610702044971
 21
359.2425276799733
 31
0.0
  0
INSERT
  5
3AB23
330
39D71
100
AcDbEntity
  8
30
 62
     0
440
 16777216
370
    -2
100
AcDbBlockReference
  2
_OPEN
 10
395.3610702044974
 20
359.2425276799733
 30
0.0
 41
2.0
 42
2.0
 43
2.0
 50
180.0
  0
INSERT
  5
3AB24
330
39D71
100
AcDbEntity
  8
30
 62
     0
440
 16777216
370
    -2
100
AcDbBlockReference
  2
_OPEN
 10
388.8610702044971
 20
359.2425276799733
 30
0.0
 41
2.0
 42
2.0
 43
2.0
  0
MTEXT
  5
3AB25
330
39D71
100
AcDbEntity
  8
30
 62
     0
440
 16777216
100
AcDbMText
 10
359.2299199893505
 20
364.7425276799733
 30
0.0
 40
7.0
 41
0.0
 46
0.0
 71
     5
 72
     1
  1
\A1;6.5
 73
     1
 44
1.0
  0
POINT
  5
3AB26
330
39D71
100
AcDbEntity
  8
DEFPOINTS
 62
     0
440
 16777216
100
AcDbPoint
 10
388.8610702044971
 20
478.1407088103216
 30
0.0
  0
POINT
  5
3AB27
330
39D71
100
AcDbEntity
  8
DEFPOINTS
 62
     0
440
 16777216
100
AcDbPoint
 10
395.3610702044974
 20
478.3769900213398
 30
0.0
  0
POINT
  5
3AB28
330
39D71
100
AcDbEntity
  8
DEFPOINTS
 62
     0
440
 16777216
100
AcDbPoint
 10
395.3610702044974
 20
359.2425276799733
 30
0.0
  0
ENDBLK
  5
39D73
330
39D71
100
AcDbEntity
  8
0
100
AcDbBlockEnd
  0
ENDSEC
  0
SECTION
  2
ENTITIES
  0
MTEXT
  5
39AED
330
1E
100
AcDbEntity
  8
19
  6
Continuous
 62
     7
100
AcDbMText
 10
376.1357976054505
 20
733.6995556242189
 30
0.0
 40
9.0
 41
0.0
 46
0.0
 71
     7
 72
     5
  1
PS250-PF 4P FC\PPS250-NE 4P FC\PPS250-PE 4P FC
  7
blockfont
 73
     1
 44
1.0
  0
LINE
  5
39AEE
330
1E
100
AcDbEntity
  8
24
  6
DASHED
100
AcDbLine
 10
441.3610702044969
 20
580.5769900213397
 30
0.0
 11
441.3610702044969
 21
565.1769900213395
 31
0.0
  0
LINE
  5
39AEF
330
1E
100
AcDbEntity
  8
24
  6
DASHED
100
AcDbLine
 10
447.3610702044974
 20
583.3769900213399
 30
0.0
 11
447.3610702044974
 21
562.3769900213393
 31
0.0
  0
LINE
  5
39AF0
330
1E
100
AcDbEntity
  8
24
  6
DASHED
100
AcDbLine
 10
443.3610702044968
 20
583.3769900213399
 30
0.0
 11
443.3610702044968
 21
562.3769900213393
 31
0.0
  0
LINE
  5
39AF1
330
1E
100
AcDbEntity
  8
17
100
AcDbLine
 10
402.3610702044972
 20
437.8769900213397
 30
0.0
 11
477.3610702044972
 21
437.8769900213397
 31
0.0
  0
LWPOLYLINE
  5
39AF2
330
1E
100
AcDbEntity
  8
130
100
AcDbPolyline
 90
        4
 70
     0
 43
0.0
 10
395.3610702044974
 20
478.3769900213398
 10
388.8610702044971
 20
478.3769900213398
 10
388.8610702044971
 20
523.3769900213399
 10
395.3610702044974
 20
523.3769900213399
  0
LWPOLYLINE
  5
39AF3
330
1E
100
AcDbEntity
  8
130
100
AcDbPolyline
 90
        4
 70
     0
 43
0.0
 10
399.3610702044973
 20
475.8769900213398
 10
395.3610702044974
 20
475.8769900213398
 10
395.3610702044974
 20
525.8769900213398
 10
399.3610702044973
 20
525.8769900213398
  0
LINE
  5
39AF4
330
1E
100
AcDbEntity
  8
12
100
AcDbLine
 10
421.3610702044971
 20
440.1269900213399
 30
0.0
 11
474.3610702044973
 21
440.1269900213399
 31
0.0
  0
LINE
  5
39AF5
330
1E
100
AcDbEntity
  8
12
100
AcDbLine
 10
421.3610702044971
 20
435.6269900213398
 30
0.0
 11
474.3610702044973
 21
435.6269900213398
 31
0.0
  0
LINE
  5
39AF6
330
1E
100
AcDbEntity
  8
12
100
AcDbLine
 10
421.3610702044971
 20
442.1269900213397
 30
0.0
 11
421.3610702044971
 21
440.1269900213399
 31
0.0
  0
LINE
  5
39AF7
330
1E
100
AcDbEntity
  8
12
100
AcDbLine
 10
421.3610702044971
 20
435.6269900213398
 30
0.0
 11
421.3610702044971
 21
433.6269900213397
 31
0.0
  0
LINE
  5
39AF8
330
1E
100
AcDbEntity
  8
12
100
AcDbLine
 10
421.3610702044971
 20
442.1269900213397
 30
0.0
 11
421.3610702044971
 21
433.6269900213397
 31
0.0
  0
LINE
  5
39AF9
330
1E
100
AcDbEntity
  8
12
100
AcDbLine
 10
416.3610702044971
 20
442.1269900213397
 30
0.0
 11
416.3610702044971
 21
433.6269900213397
 31
0.0
  0
LINE
  5
39AFA
330
1E
100
AcDbEntity
  8
12
100
AcDbLine
 10
407.3610702044971
 20
442.1269900213397
 30
0.0
 11
421.3610702044971
 21
442.1269900213397
 31
0.0
  0
LINE
  5
39AFB
330
1E
100
AcDbEntity
  8
12
100
AcDbLine
 10
407.3610702044971
 20
433.6269900213397
 30
0.0
 11
421.3610702044971
 21
433.6269900213397
 31
0.0
  0
LINE
  5
39AFC
330
1E
100
AcDbEntity
  8
12
100
AcDbLine
 10
474.3610702044973
 20
440.1269900213399
 30
0.0
 11
474.3610702044973
 21
435.6269900213398
 31
0.0
  0
LINE
  5
39AFD
330
1E
100
AcDbEntity
  8
17
100
AcDbLine
 10
428.3610702044968
 20
572.8769900213399
 30
0.0
 11
452.3610702044972
 21
572.8769900213399
 31
0.0
  0
LINE
  5
39AFE
330
1E
100
AcDbEntity
  8
24
  6
DASHED
100
AcDbLine
 10
433.3610702044969
 20
579.3769900213397
 30
0.0
 11
441.3610702044969
 21
579.3769900213397
 31
0.0
  0
LINE
  5
39AFF
330
1E
100
AcDbEntity
  8
24
  6
DASHED
100
AcDbLine
 10
441.3610702044969
 20
565.1769900213395
 30
0.0
 11
443.3610702044968
 21
565.1769900213395
 31
0.0
  0
LINE
  5
39B00
330
1E
100
AcDbEntity
  8
24
  6
DASHED
100
AcDbLine
 10
443.3610702044968
 20
562.3769900213393
 30
0.0
 11
447.3610702044974
 21
562.3769900213393
 31
0.0
  0
LINE
  5
39B01
330
1E
100
AcDbEntity
  8
24
  6
DASHED
100
AcDbLine
 10
433.3610702044969
 20
566.3769900213396
 30
0.0
 11
441.3610702044969
 21
566.3769900213396
 31
0.0
  0
LINE
  5
39B02
330
1E
100
AcDbEntity
  8
24
  6
DASHED
100
AcDbLine
 10
433.3610702044969
 20
579.3769900213397
 30
0.0
 11
433.3610702044969
 21
566.3769900213396
 31
0.0
  0
LINE
  5
39B03
330
1E
100
AcDbEntity
  8
24
  6
DASHED
100
AcDbLine
 10
441.3610702044969
 20
580.5769900213397
 30
0.0
 11
443.3610702044968
 21
580.5769900213397
 31
0.0
  0
ARC
  5
39B04
330
1E
100
AcDbEntity
  8
30
100
AcDbCircle
 10
455.1017173423955
 20
498.6194597102182
 30
0.0
 40
82.74397833097701
100
AcDbArc
 50
170.9264953962752
 51
180.514127448724
  0
ARC
  5
39B05
330
1E
100
AcDbEntity
  8
24
100
AcDbCircle
 10
523.3486527044973
 20
585.37290752134
 30
0.0
 40
7.5
100
AcDbArc
 50
238.8948889999934
 51
294.2039970000056
  0
LINE
  5
39B06
330
1E
100
AcDbEntity
  8
24
100
AcDbLine
 10
526.4235527044974
 20
578.5322200213397
 30
0.0
 11
532.3610702044971
 21
580.5268925213397
 31
0.0
  0
LINE
  5
39B07
330
1E
100
AcDbEntity
  8
24
100
AcDbLine
 10
507.3610702044971
 20
580.3769900213397
 30
0.0
 11
507.3610702044971
 21
548.3769900213399
 31
0.0
  0
LINE
  5
39B08
330
1E
100
AcDbEntity
  8
24
100
AcDbLine
 10
532.3610702044971
 20
580.5268925213397
 30
0.0
 11
532.3610702044971
 21
548.3769900213399
 31
0.0
  0
LINE
  5
39B09
330
1E
100
AcDbEntity
  8
17
100
AcDbLine
 10
513.6110702044971
 20
559.37699002134
 30
0.0
 11
526.1110702044971
 21
559.37699002134
 31
0.0
  0
LINE
  5
39B0A
330
1E
100
AcDbEntity
  8
24
100
AcDbLine
 10
507.3610702044971
 20
548.3769900213399
 30
0.0
 11
532.3610702044971
 21
548.3769900213399
 31
0.0
  0
LINE
  5
39B0B
330
1E
100
AcDbEntity
  8
17
100
AcDbLine
 10
519.8610702044971
 20
565.62699002134
 30
0.0
 11
519.8610702044971
 21
553.1269900213398
 31
0.0
  0
CIRCLE
  5
39B0C
330
1E
100
AcDbEntity
  8
12
100
AcDbCircle
 10
519.8610702044971
 20
559.37699002134
 30
0.0
 40
4.5
  0
ARC
  5
39B0D
330
1E
100
AcDbEntity
  8
24
100
AcDbCircle
 10
511.4860702044975
 20
573.5224750213401
 30
0.0
 40
8.0
100
AcDbArc
 50
58.96076000000164
 51
121.0392399999983
  0
LINE
  5
39B0E
330
1E
100
AcDbEntity
  8
24
100
AcDbLine
 10
515.6189477044972
 20
580.3722425213396
 30
0.0
 11
519.4740802044971
 21
578.9512500213398
 31
0.0
  0
MTEXT
  5
39B0F
330
1E
100
AcDbEntity
  8
30
100
AcDbMText
 10
519.8610702044971
 20
525.3769900213399
 30
0.0
 40
7.0
 41
0.0
 46
0.0
 71
     2
 72
     5
  1
(max.)\Pmax.t7
  7
blockfont
 73
     1
 44
1.0
  0
DIMENSION
  5
39B10
330
1E
100
AcDbEntity
  8
30
100
AcDbDimension
280
     0
  2
*D19
 10
532.3610702044971
 20
528.3769900213399
 30
0.0
 11
519.8610702044971
 21
534.8769900213397
 31
0.0
 70
    32
 71
     5
 42
24.99999999999995
 73
     0
 74
     0
 75
     0
  3
STANDARD
100
AcDbAlignedDimension
 13
507.3610702044971
 23
548.3769900213399
 33
0.0
 14
532.3610702044971
 24
548.3769900213399
 34
0.0
100
AcDbRotatedDimension
  0
DIMENSION
  5
39B11
330
1E
100
AcDbEntity
  8
30
100
AcDbDimension
280
     0
  2
*D20
 10
467.3610702044974
 20
401.850371727082
 30
0.0
 11
485.6944035378306
 21
401.850371727082
 31
0.0
 70
   160
 71
     5
 42
7.0
 73
     0
 74
     0
 75
     0
  3
STANDARD1
100
AcDbAlignedDimension
 13
474.3610702044973
 23
435.6269900213398
 33
0.0
 14
467.3610702044974
 24
418.3769900213397
 34
0.0
100
AcDbRotatedDimension
  0
DIMENSION
  5
39B12
330
1E
100
AcDbEntity
  8
30
100
AcDbDimension
280
     0
  2
*D21
 10
421.3610702044971
 20
401.850371727082
 30
0.0
 11
444.3610702044971
 21
407.3503717270821
 31
0.0
 70
    32
 71
     5
 42
46.00000000000021
 73
     0
 74
     0
 75
     0
  3
STANDARD1
100
AcDbAlignedDimension
 13
467.3610702044974
 23
418.3769900213397
 33
0.0
 14
421.3610702044971
 24
433.6269900213397
 34
0.0
100
AcDbRotatedDimension
  0
DIMENSION
  5
39B13
330
1E
100
AcDbEntity
  8
30
100
AcDbDimension
280
     0
  2
*D22
 10
407.3610702044971
 20
388.0847446778927
 30
0.0
 11
437.3610702044973
 21
393.5847446778927
 31
0.0
 70
    32
 71
     5
 42
60.0
 73
     0
 74
     0
 75
     0
  3
STANDARD1
100
AcDbAlignedDimension
 13
467.3610702044974
 23
418.3769900213397
 33
0.0
 14
407.3610702044971
 24
418.3769900213397
 34
0.0
100
AcDbRotatedDimension
  0
DIMENSION
  5
39B14
330
1E
100
AcDbEntity
  8
30
100
AcDbDimension
280
     0
  2
*D23
 10
399.3610702044973
 20
372.8620393221556
 30
0.0
 11
433.3610702044973
 21
378.3620393221556
 31
0.0
 70
    32
 71
     5
 42
68.0
 73
     0
 74
     0
 75
     0
  3
STANDARD1
100
AcDbAlignedDimension
 13
467.3610702044974
 23
418.3769900213397
 33
0.0
 14
399.3610702044973
 24
449.8769900213398
 34
0.0
100
AcDbRotatedDimension
  0
DIMENSION
  5
39B15
330
1E
100
AcDbEntity
  8
30
100
AcDbDimension
280
     0
  2
*D24
 10
395.3610702044974
 20
359.2425276799733
 30
0.0
 11
431.3610702044972
 21
364.7425276799733
 31
0.0
 70
    32
 71
     5
 42
72.0
 73
     0
 74
     0
 75
     0
  3
STANDARD1
100
AcDbAlignedDimension
 13
467.3610702044974
 23
418.3769900213397
 33
0.0
 14
395.3610702044974
 24
475.8769900213398
 34
0.0
100
AcDbRotatedDimension
  0
DIMENSION
  5
39B16
330
1E
100
AcDbEntity
  8
30
100
AcDbDimension
280
     0
  2
*D25
 10
372.3610702044969
 20
346.9803313834002
 30
0.0
 11
419.8610702044971
 21
352.4803313834001
 31
0.0
 70
    32
 71
     5
 42
95.00000000000046
 73
     0
 74
     0
 75
     0
  3
STANDARD1
100
AcDbAlignedDimension
 13
467.3610702044974
 23
418.3769900213397
 33
0.0
 14
372.3610702044969
 24
500.8769900213398
 34
0.0
100
AcDbRotatedDimension
  0
LWPOLYLINE
  5
39B17
330
1E
100
AcDbEntity
  8
130
100
AcDbPolyline
 90
        4
 70
     1
 43
0.0
 10
53.479687763941
 20
826.0328139247357
 10
193.479687763941
 20
826.0328139247357
 10
193.479687763941
 20
766.0328139247361
 10
53.479687763941
 20
766.0328139247361
  0
LINE
  5
39B18
330
1E
100
AcDbEntity
  8
24
100
AcDbLine
 10
170.979687763941
 20
792.0328139247357
 30
0.0
 11
180.979687763941
 21
792.0328139247357
 31
0.0
  0
LINE
  5
39B19
330
1E
100
AcDbEntity
  8
24
100
AcDbLine
 10
165.479687763941
 20
802.0328139247355
 30
0.0
 11
186.4796877639412
 21
802.0328139247355
 31
0.0
  0
LINE
  5
39B1A
330
1E
100
AcDbEntity
  8
24
100
AcDbLine
 10
165.479687763941
 20
806.032813924736
 30
0.0
 11
186.4796877639412
 21
806.032813924736
 31
0.0
  0
LINE
  5
39B1B
330
1E
100
AcDbEntity
  8
24
100
AcDbLine
 10
168.2796877639411
 20
800.0328139247356
 30
0.0
 11
183.6796877639413
 21
800.0328139247356
 31
0.0
  0
LINE
  5
39B1C
330
1E
100
AcDbEntity
  8
24
100
AcDbLine
 10
180.979687763941
 20
792.0328139247357
 30
0.0
 11
180.979687763941
 21
800.0328139247356
 31
0.0
  0
LINE
  5
39B1D
330
1E
100
AcDbEntity
  8
24
100
AcDbLine
 10
183.6796877639413
 20
800.0328139247356
 30
0.0
 11
183.6796877639413
 21
802.0328139247355
 31
0.0
  0
LINE
  5
39B1E
330
1E
100
AcDbEntity
  8
24
100
AcDbLine
 10
168.2796877639411
 20
800.0328139247356
 30
0.0
 11
168.2796877639411
 21
802.0328139247355
 31
0.0
  0
LINE
  5
39B1F
330
1E
100
AcDbEntity
  8
24
100
AcDbLine
 10
170.979687763941
 20
792.0328139247357
 30
0.0
 11
170.979687763941
 21
800.0328139247356
 31
0.0
  0
LINE
  5
39B20
330
1E
100
AcDbEntity
  8
24
100
AcDbLine
 10
145.979687763941
 20
792.0328139247357
 30
0.0
 11
145.979687763941
 21
800.0328139247356
 31
0.0
  0
LINE
  5
39B21
330
1E
100
AcDbEntity
  8
24
100
AcDbLine
 10
135.979687763941
 20
792.0328139247357
 30
0.0
 11
135.979687763941
 21
800.0328139247356
 31
0.0
  0
LINE
  5
39B22
330
1E
100
AcDbEntity
  8
24
100
AcDbLine
 10
135.979687763941
 20
792.0328139247357
 30
0.0
 11
145.979687763941
 21
792.0328139247357
 31
0.0
  0
LINE
  5
39B23
330
1E
100
AcDbEntity
  8
24
100
AcDbLine
 10
133.2796877639412
 20
800.0328139247356
 30
0.0
 11
148.6796877639411
 21
800.0328139247356
 31
0.0
  0
LINE
  5
39B24
330
1E
100
AcDbEntity
  8
24
100
AcDbLine
 10
130.479687763941
 20
806.0328139247362
 30
0.0
 11
151.4796877639412
 21
806.0328139247362
 31
0.0
  0
LINE
  5
39B25
330
1E
100
AcDbEntity
  8
24
100
AcDbLine
 10
130.479687763941
 20
802.0328139247357
 30
0.0
 11
151.4796877639412
 21
802.0328139247357
 31
0.0
  0
LINE
  5
39B26
330
1E
100
AcDbEntity
  8
24
100
AcDbLine
 10
133.2796877639412
 20
800.0328139247356
 30
0.0
 11
133.2796877639412
 21
802.0328139247357
 31
0.0
  0
LINE
  5
39B27
330
1E
100
AcDbEntity
  8
24
100
AcDbLine
 10
148.6796877639411
 20
800.0328139247356
 30
0.0
 11
148.6796877639411
 21
802.0328139247357
 31
0.0
  0
LINE
  5
39B28
330
1E
100
AcDbEntity
  8
24
100
AcDbLine
 10
100.979687763941
 20
792.0328139247357
 30
0.0
 11
100.979687763941
 21
800.0328139247356
 31
0.0
  0
LINE
  5
39B29
330
1E
100
AcDbEntity
  8
24
100
AcDbLine
 10
110.979687763941
 20
792.0328139247357
 30
0.0
 11
110.979687763941
 21
800.0328139247356
 31
0.0
  0
LINE
  5
39B2A
330
1E
100
AcDbEntity
  8
24
100
AcDbLine
 10
100.979687763941
 20
792.0328139247357
 30
0.0
 11
110.979687763941
 21
792.0328139247357
 31
0.0
  0
LINE
  5
39B2B
330
1E
100
AcDbEntity
  8
24
100
AcDbLine
 10
95.479687763941
 20
802.0328139247357
 30
0.0
 11
116.4796877639413
 21
802.0328139247357
 31
0.0
  0
LINE
  5
39B2C
330
1E
100
AcDbEntity
  8
24
100
AcDbLine
 10
95.479687763941
 20
806.0328139247362
 30
0.0
 11
116.4796877639413
 21
806.0328139247362
 31
0.0
  0
LINE
  5
39B2D
330
1E
100
AcDbEntity
  8
24
100
AcDbLine
 10
98.27968776394122
 20
800.0328139247356
 30
0.0
 11
113.6796877639413
 21
800.0328139247356
 31
0.0
  0
LINE
  5
39B2E
330
1E
100
AcDbEntity
  8
24
100
AcDbLine
 10
98.27968776394122
 20
800.0328139247356
 30
0.0
 11
98.27968776394122
 21
802.0328139247357
 31
0.0
  0
LINE
  5
39B2F
330
1E
100
AcDbEntity
  8
24
100
AcDbLine
 10
113.6796877639413
 20
800.0328139247356
 30
0.0
 11
113.6796877639413
 21
802.0328139247357
 31
0.0
  0
DIMENSION
  5
39B30
330
1E
100
AcDbEntity
  8
30
100
AcDbDimension
280
     0
  2
*D26
 10
140.9796877639411
 20
844.0067750369248
 30
0.0
 11
158.479687763941
 21
849.5067750369248
 31
0.0
 70
    32
 71
     5
 42
35.0
 73
     0
 74
     0
 75
     0
  3
STANDARD1
100
AcDbAlignedDimension
 13
175.9796877639411
 23
783.8716897103632
 33
0.0
 14
140.9796877639411
 24
826.0328139247357
 34
0.0
100
AcDbRotatedDimension
  0
DIMENSION
  5
39B31
330
1E
100
AcDbEntity
  8
30
100
AcDbDimension
280
     0
  2
*D27
 10
105.9796877639409
 20
844.0067750369248
 30
0.0
 11
123.479687763941
 21
849.5067750369248
 31
0.0
 70
    32
 71
     5
 42
35.00000000000019
 73
     0
 74
     0
 75
     0
  3
STANDARD1
100
AcDbAlignedDimension
 13
140.9796877639411
 23
779.3531392712143
 33
0.0
 14
105.9796877639409
 24
831.032813924736
 34
0.0
100
AcDbRotatedDimension
  0
LINE
  5
39B32
330
1E
100
AcDbEntity
  8
130
100
AcDbLine
 10
193.4796877639411
 20
583.3769900213399
 30
0.0
 11
193.4796877639411
 21
418.3769900213397
 31
0.0
  0
LWPOLYLINE
  5
39B35
330
1E
100
AcDbEntity
  8
17
100
AcDbPolyline
 90
        2
 70
     0
 43
0.0
 10
88.47968776394131
 20
569.3769900213396
 10
88.47968776394131
 20
558.3769900213393
  0
CIRCLE
  5
39B36
330
1E
100
AcDbEntity
  8
24
100
AcDbCircle
 10
88.47968776394131
 20
563.8769900213397
 30
0.0
 40
4.0
  0
LINE
  5
39B37
330
1E
100
AcDbEntity
  8
130
100
AcDbLine
 10
53.47968776394111
 20
583.3769900213399
 30
0.0
 11
53.47968776394111
 21
418.3769900213397
 31
0.0
  0
LINE
  5
39B38
330
1E
100
AcDbEntity
  8
16
 48
2.0
100
AcDbLine
 10
105.979687763941
 20
593.3769900213397
 30
0.0
 11
105.979687763941
 21
408.3769900213398
 31
0.0
  0
LINE
  5
39B39
330
1E
100
AcDbEntity
  8
130
100
AcDbLine
 10
53.47968776394111
 20
449.8769900213398
 30
0.0
 11
193.4796877639411
 21
449.8769900213398
 31
0.0
  0
LINE
  5
39B3A
330
1E
100
AcDbEntity
  8
130
100
AcDbLine
 10
53.47968776394111
 20
551.8769900213396
 30
0.0
 11
193.4796877639411
 21
551.8769900213396
 31
0.0
  0
LINE
  5
39B3B
330
1E
100
AcDbEntity
  8
130
100
AcDbLine
 10
53.47968776394111
 20
418.3769900213397
 30
0.0
 11
193.4796877639411
 21
418.3769900213397
 31
0.0
  0
LINE
  5
39B3C
330
1E
100
AcDbEntity
  8
16
 48
2.0
100
AcDbLine
 10
48.47968776394131
 20
500.8769900213398
 30
0.0
 11
198.4796877639411
 21
500.8769900213398
 31
0.0
  0
CIRCLE
  5
39B3D
330
1E
100
AcDbEntity
  8
10
  6
Continuous
100
AcDbCircle
 10
175.979687763941
 20
537.6269900213399
 30
0.0
 40
8.0
  0
LWPOLYLINE
  5
39B3E
330
1E
100
AcDbEntity
  8
130
100
AcDbPolyline
 90
        2
 70
     0
 43
0.0
 10
112.979687763941
 20
507.7177800213394
 10
98.97968776394101
 20
507.7177800213394
  0
LWPOLYLINE
  5
39B3F
330
1E
100
AcDbEntity
  8
130
100
AcDbPolyline
 90
        2
 70
     0
 43
0.0
 10
112.979687763941
 20
516.1169475213398
 10
98.97968776394101
 20
516.1169475213398
  0
LWPOLYLINE
  5
39B40
330
1E
100
AcDbEntity
  8
130
100
AcDbPolyline
 90
        2
 70
     0
 43
0.0
 10
94.97968776394101
 20
525.8769900213398
 10
94.97968776394101
 20
475.8769900213398
  0
LWPOLYLINE
  5
39B41
330
1E
100
AcDbEntity
  8
130
100
AcDbPolyline
 90
        2
 70
     0
 43
0.0
 10
116.9796877639411
 20
525.8769900213398
 10
116.9796877639411
 20
475.8769900213398
  0
LWPOLYLINE
  5
39B42
330
1E
100
AcDbEntity
  8
130
100
AcDbPolyline
 90
        4
 70
     1
 43
0.0
 10
98.97968776394101
 20
521.0318600213395
 10
98.97968776394101
 20
482.3769900213398
 10
112.979687763941
 20
482.3769900213398
 10
112.979687763941
 20
521.0318600213395
  0
LWPOLYLINE
  5
39B43
330
1E
100
AcDbEntity
  8
130
100
AcDbPolyline
 90
        4
 70
     1
 43
0.0
 10
154.9796877639411
 20
525.8769900213398
 10
154.9796877639411
 20
475.8769900213398
 10
56.97968776394131
 20
475.8769900213398
 10
56.97968776394131
 20
525.8769900213398
  0
LINE
  5
39B44
330
1E
100
AcDbEntity
  8
10
  6
Continuous
100
AcDbLine
 10
172.4796877639412
 20
537.9302925213395
 30
0.0
 11
173.479687763941
 21
538.9302925213391
 31
0.0
  0
LINE
  5
39B45
330
1E
100
AcDbEntity
  8
10
  6
Continuous
100
AcDbLine
 10
175.8015752639412
 20
537.0095400213397
 30
0.0
 11
176.5196102639412
 21
537.7275725213397
 31
0.0
  0
LINE
  5
39B46
330
1E
100
AcDbEntity
  8
10
  6
Continuous
100
AcDbLine
 10
178.479687763941
 20
540.7483100213397
 30
0.0
 11
179.479687763941
 21
541.7483100213392
 31
0.0
  0
LINE
  5
39B47
330
1E
100
AcDbEntity
  8
10
  6
Continuous
100
AcDbLine
 10
172.4796877639412
 20
539.3445050213398
 30
0.0
 11
174.1903152639409
 21
541.0551325213398
 31
0.0
  0
LINE
  5
39B48
330
1E
100
AcDbEntity
  8
10
  6
Continuous
100
AcDbLine
 10
178.479687763941
 20
542.1625250213399
 30
0.0
 11
178.9441552639413
 21
542.6269900213399
 31
0.0
  0
LINE
  5
39B49
330
1E
100
AcDbEntity
  8
10
  6
Continuous
100
AcDbLine
 10
176.3839002639409
 20
536.1776475213395
 30
0.0
 11
177.1019327639412
 21
536.8956825213397
 31
0.0
  0
LINE
  5
39B4A
330
1E
100
AcDbEntity
  8
10
  6
Continuous
100
AcDbLine
 10
172.4796877639412
 20
538.63739752134
 30
0.0
 11
173.479687763941
 21
539.6373975213398
 31
0.0
  0
LINE
  5
39B4B
330
1E
100
AcDbEntity
  8
10
  6
Continuous
100
AcDbLine
 10
178.479687763941
 20
541.4554175213397
 30
0.0
 11
179.479687763941
 21
542.4554175213398
 31
0.0
  0
LINE
  5
39B4C
330
1E
100
AcDbEntity
  8
10
  6
Continuous
100
AcDbLine
 10
178.479687763941
 20
541.8089700213393
 30
0.0
 11
179.2977077639412
 21
542.6269900213399
 31
0.0
  0
LINE
  5
39B4D
330
1E
100
AcDbEntity
  8
10
  6
Continuous
100
AcDbLine
 10
172.4796877639412
 20
539.6980575213397
 30
0.0
 11
174.0447352639413
 21
541.2631050213397
 31
0.0
  0
LINE
  5
39B4E
330
1E
100
AcDbEntity
  8
10
  6
Continuous
100
AcDbLine
 10
178.479687763941
 20
539.3340975213398
 30
0.0
 11
179.479687763941
 21
540.3340975213397
 31
0.0
  0
LINE
  5
39B4F
330
1E
100
AcDbEntity
  8
10
  6
Continuous
100
AcDbLine
 10
172.4796877639412
 20
541.4658250213399
 30
0.0
 11
173.3168302639413
 21
542.3029675213397
 31
0.0
  0
LINE
  5
39B50
330
1E
100
AcDbEntity
  8
10
  6
Continuous
100
AcDbLine
 10
178.479687763941
 20
542.5160775213397
 30
0.0
 11
178.5906002639413
 21
542.6269900213399
 31
0.0
  0
LINE
  5
39B51
330
1E
100
AcDbEntity
  8
10
  6
Continuous
100
AcDbLine
 10
172.4796877639412
 20
541.1122725213397
 30
0.0
 11
173.4624127639412
 21
542.0949950213395
 31
0.0
  0
LINE
  5
39B52
330
1E
100
AcDbEntity
  8
10
  6
Continuous
100
AcDbLine
 10
178.479687763941
 20
542.6269900213399
 30
0.0
 11
179.479687763941
 21
542.6269900213399
 31
0.0
  0
LINE
  5
39B53
330
1E
100
AcDbEntity
  8
10
  6
Continuous
100
AcDbLine
 10
178.479687763941
 20
540.0412050213397
 30
0.0
 11
179.479687763941
 21
541.0412050213396
 31
0.0
  0
LINE
  5
39B54
330
1E
100
AcDbEntity
  8
10
  6
Continuous
100
AcDbLine
 10
178.479687763941
 20
537.5663300213398
 30
0.0
 11
179.479687763941
 21
538.5663300213398
 31
0.0
  0
LINE
  5
39B55
330
1E
100
AcDbEntity
  8
10
  6
Continuous
100
AcDbLine
 10
174.3457677639412
 20
539.0892650213397
 30
0.0
 11
175.0638002639411
 21
539.8072975213393
 31
0.0
  0
LINE
  5
39B56
330
1E
100
AcDbEntity
  8
10
  6
Continuous
100
AcDbLine
 10
172.4796877639412
 20
537.5767375213394
 30
0.0
 11
173.479687763941
 21
538.5767375213396
 31
0.0
  0
LINE
  5
39B57
330
1E
100
AcDbEntity
  8
10
  6
Continuous
100
AcDbLine
 10
174.782510263941
 20
538.4653475213394
 30
0.0
 11
175.5005427639409
 21
539.1833800213397
 31
0.0
  0
LINE
  5
39B58
330
1E
100
AcDbEntity
  8
10
  6
Continuous
100
AcDbLine
 10
175.2192527639409
 20
537.8414300213396
 30
0.0
 11
175.9372852639413
 21
538.5594625213398
 31
0.0
  0
LINE
  5
39B59
330
1E
100
AcDbEntity
  8
10
  6
Continuous
100
AcDbLine
 10
174.9280927639413
 20
538.2573750213398
 30
0.0
 11
175.646125263941
 21
538.9754075213395
 31
0.0
  0
LINE
  5
39B5A
330
1E
100
AcDbEntity
  8
10
  6
Continuous
100
AcDbLine
 10
174.4913502639412
 20
538.8812925213398
 30
0.0
 11
175.209382763941
 21
539.59932502134
 31
0.0
  0
LINE
  5
39B5B
330
1E
100
AcDbEntity
  8
10
  6
Continuous
100
AcDbLine
 10
178.479687763941
 20
540.3947575213398
 30
0.0
 11
179.479687763941
 21
541.3947575213398
 31
0.0
  0
LINE
  5
39B5C
330
1E
100
AcDbEntity
  8
10
  6
Continuous
100
AcDbLine
 10
172.4796877639412
 20
541.8193775213397
 30
0.0
 11
173.1712502639412
 21
542.5109400213398
 31
0.0
  0
LINE
  5
39B5D
330
1E
100
AcDbEntity
  8
10
  6
Continuous
100
AcDbLine
 10
174.0546077639412
 20
539.50521002134
 30
0.0
 11
174.7726402639412
 21
540.2232425213399
 31
0.0
  0
LINE
  5
39B5E
330
1E
100
AcDbEntity
  8
10
  6
Continuous
100
AcDbLine
 10
174.6369302639409
 20
538.6733200213399
 30
0.0
 11
175.3549627639412
 21
539.3913525213398
 31
0.0
  0
LINE
  5
39B5F
330
1E
100
AcDbEntity
  8
10
  6
Continuous
100
AcDbLine
 10
178.479687763941
 20
538.6269900213399
 30
0.0
 11
179.479687763941
 21
539.6269900213399
 31
0.0
  0
LINE
  5
39B60
330
1E
100
AcDbEntity
  8
10
  6
Continuous
100
AcDbLine
 10
175.5104152639413
 20
537.4254850213397
 30
0.0
 11
176.2284477639411
 21
538.1435175213397
 31
0.0
  0
LINE
  5
39B61
330
1E
100
AcDbEntity
  8
10
  6
Continuous
100
AcDbLine
 10
178.479687763941
 20
539.6876500213399
 30
0.0
 11
179.479687763941
 21
540.6876500213398
 31
0.0
  0
LINE
  5
39B62
330
1E
100
AcDbEntity
  8
10
  6
Continuous
100
AcDbLine
 10
178.479687763941
 20
536.1521175213395
 30
0.0
 11
179.479687763941
 21
537.1521175213397
 31
0.0
  0
LINE
  5
39B63
330
1E
100
AcDbEntity
  8
10
  6
Continuous
100
AcDbLine
 10
172.4796877639412
 20
542.6269900213399
 30
0.0
 11
173.090015263941
 21
542.6269900213399
 31
0.0
  0
LINE
  5
39B64
330
1E
100
AcDbEntity
  8
10
  6
Continuous
100
AcDbLine
 10
175.6559952639412
 20
537.2175125213398
 30
0.0
 11
176.3740277639413
 21
537.9355450213396
 31
0.0
  0
LINE
  5
39B65
330
1E
100
AcDbEntity
  8
10
  6
Continuous
100
AcDbLine
 10
175.0736727639412
 20
538.0494025213395
 30
0.0
 11
175.7917052639412
 21
538.7674350213399
 31
0.0
  0
LINE
  5
39B66
330
1E
100
AcDbEntity
  8
10
  6
Continuous
100
AcDbLine
 10
178.479687763941
 20
538.2734375213398
 30
0.0
 11
179.479687763941
 21
539.2734375213398
 31
0.0
  0
LINE
  5
39B67
330
1E
100
AcDbEntity
  8
10
  6
Continuous
100
AcDbLine
 10
172.4796877639412
 20
540.7587175213399
 30
0.0
 11
173.6079927639409
 21
541.88702252134
 31
0.0
  0
LINE
  5
39B68
330
1E
100
AcDbEntity
  8
10
  6
Continuous
100
AcDbLine
 10
172.4796877639412
 20
540.4051650213395
 30
0.0
 11
173.7535727639409
 21
541.6790500213399
 31
0.0
  0
LINE
  5
39B69
330
1E
100
AcDbEntity
  8
10
  6
Continuous
100
AcDbLine
 10
176.238317763941
 20
536.3856200213397
 30
0.0
 11
176.956352763941
 21
537.1036550213394
 31
0.0
  0
LINE
  5
39B6A
330
1E
100
AcDbEntity
  8
10
  6
Continuous
100
AcDbLine
 10
178.479687763941
 20
536.5056700213398
 30
0.0
 11
179.479687763941
 21
537.5056700213393
 31
0.0
  0
LINE
  5
39B6B
330
1E
100
AcDbEntity
  8
10
  6
Continuous
100
AcDbLine
 10
178.479687763941
 20
538.9805450213398
 30
0.0
 11
179.479687763941
 21
539.9805450213398
 31
0.0
  0
LINE
  5
39B6C
330
1E
100
AcDbEntity
  8
10
  6
Continuous
100
AcDbLine
 10
175.3648352639412
 20
537.6334575213393
 30
0.0
 11
176.0828677639409
 21
538.3514900213397
 31
0.0
  0
LINE
  5
39B6D
330
1E
100
AcDbEntity
  8
10
  6
Continuous
100
AcDbLine
 10
172.4796877639412
 20
536.5160775213397
 30
0.0
 11
173.479687763941
 21
537.5160775213397
 31
0.0
  0
LINE
  5
39B6E
330
1E
100
AcDbEntity
  8
10
  6
Continuous
100
AcDbLine
 10
173.7634452639409
 20
539.9211550213398
 30
0.0
 11
174.4814777639409
 21
540.6391875213397
 31
0.0
  0
LINE
  5
39B6F
330
1E
100
AcDbEntity
  8
10
  6
Continuous
100
AcDbLine
 10
172.4796877639412
 20
542.5264850213393
 30
0.0
 11
172.5801927639412
 21
542.6269900213399
 31
0.0
  0
LINE
  5
39B70
330
1E
100
AcDbEntity
  8
10
  6
Continuous
100
AcDbLine
 10
172.4796877639412
 20
537.22318502134
 30
0.0
 11
173.479687763941
 21
538.2231850213399
 31
0.0
  0
LINE
  5
39B71
330
1E
100
AcDbEntity
  8
10
  6
Continuous
100
AcDbLine
 10
176.092737763941
 20
536.5935950213397
 30
0.0
 11
176.8107702639412
 21
537.3116275213398
 31
0.0
  0
LINE
  5
39B72
330
1E
100
AcDbEntity
  8
10
  6
Continuous
100
AcDbLine
 10
172.4796877639412
 20
538.2838450213396
 30
0.0
 11
173.479687763941
 21
539.2838450213397
 31
0.0
  0
LINE
  5
39B73
330
1E
100
AcDbEntity
  8
10
  6
Continuous
100
AcDbLine
 10
172.4796877639412
 20
536.8696300213398
 30
0.0
 11
173.479687763941
 21
537.8696300213398
 31
0.0
  0
LINE
  5
39B74
330
1E
100
AcDbEntity
  8
10
  6
Continuous
100
AcDbLine
 10
174.2001877639413
 20
539.2972375213397
 30
0.0
 11
174.9182202639412
 21
540.0152700213396
 31
0.0
  0
LINE
  5
39B75
330
1E
100
AcDbEntity
  8
10
  6
Continuous
100
AcDbLine
 10
172.4796877639412
 20
542.1729325213398
 30
0.0
 11
172.9337477639413
 21
542.6269900213399
 31
0.0
  0
LINE
  5
39B76
330
1E
100
AcDbEntity
  8
10
  6
Continuous
100
AcDbLine
 10
175.9471577639413
 20
536.8015675213394
 30
0.0
 11
176.665190263941
 21
537.5196000213398
 31
0.0
  0
LINE
  5
39B77
330
1E
100
AcDbEntity
  8
10
  6
Continuous
100
AcDbLine
 10
172.4796877639412
 20
536.1625250213399
 30
0.0
 11
173.479687763941
 21
537.1625250213399
 31
0.0
  0
LINE
  5
39B78
330
1E
100
AcDbEntity
  8
10
  6
Continuous
100
AcDbLine
 10
173.9090252639411
 20
539.7131825213398
 30
0.0
 11
174.6270577639413
 21
540.4312150213391
 31
0.0
  0
LINE
  5
39B79
330
1E
100
AcDbEntity
  8
10
  6
Continuous
100
AcDbLine
 10
178.479687763941
 20
537.2127775213393
 30
0.0
 11
179.479687763941
 21
538.2127775213398
 31
0.0
  0
LINE
  5
39B7A
330
1E
100
AcDbEntity
  8
10
  6
Continuous
100
AcDbLine
 10
178.479687763941
 20
541.1018650213397
 30
0.0
 11
179.479687763941
 21
542.1018650213397
 31
0.0
  0
LINE
  5
39B7B
330
1E
100
AcDbEntity
  8
10
  6
Continuous
100
AcDbLine
 10
172.4796877639412
 20
540.0516125213393
 30
0.0
 11
173.8991552639413
 21
541.4710775213399
 31
0.0
  0
LINE
  5
39B7C
330
1E
100
AcDbEntity
  8
10
  6
Continuous
100
AcDbLine
 10
172.4796877639412
 20
538.9909525213395
 30
0.0
 11
173.479687763941
 21
539.9909525213397
 31
0.0
  0
LINE
  5
39B7D
330
1E
100
AcDbEntity
  8
10
  6
Continuous
100
AcDbLine
 10
178.479687763941
 20
537.9198825213399
 30
0.0
 11
179.479687763941
 21
538.9198825213399
 31
0.0
  0
LINE
  5
39B7E
330
1E
100
AcDbEntity
  8
10
  6
Continuous
100
AcDbLine
 10
178.479687763941
 20
536.8592225213396
 30
0.0
 11
179.479687763941
 21
537.8592225213396
 31
0.0
  0
LINE
  5
39B7F
330
1E
100
AcDbEntity
  8
10
  6
Continuous
100
AcDbLine
 10
173.617865263941
 20
540.1291275213399
 30
0.0
 11
174.3358977639411
 21
540.8471600213395
 31
0.0
  0
LINE
  5
39B80
330
1E
100
AcDbEntity
  8
10
  6
Continuous
100
AcDbLine
 10
179.479687763941
 20
532.6269900213397
 30
0.0
 11
178.8693602639409
 21
532.6269900213397
 31
0.0
  0
LINE
  5
39B81
330
1E
100
AcDbEntity
  8
10
  6
Continuous
100
AcDbLine
 10
177.985287763941
 20
533.8899500213399
 30
0.0
 11
179.479687763941
 21
535.3843500213395
 31
0.0
  0
LINE
  5
39B82
330
1E
100
AcDbEntity
  8
10
  6
Continuous
100
AcDbLine
 10
178.5676127639409
 20
533.0580600213395
 30
0.0
 11
179.479687763941
 21
533.9701375213397
 31
0.0
  0
LINE
  5
39B83
330
1E
100
AcDbEntity
  8
10
  6
Continuous
100
AcDbLine
 10
172.4796877639412
 20
533.6876500213397
 30
0.0
 11
173.479687763941
 21
534.6876500213397
 31
0.0
  0
LINE
  5
39B84
330
1E
100
AcDbEntity
  8
10
  6
Continuous
100
AcDbLine
 10
172.4796877639412
 20
533.3340975213396
 30
0.0
 11
173.479687763941
 21
534.3340975213398
 31
0.0
  0
LINE
  5
39B85
330
1E
100
AcDbEntity
  8
10
  6
Continuous
100
AcDbLine
 10
176.9662227639412
 20
535.3457575213393
 30
0.0
 11
177.6842552639409
 21
536.0637900213396
 31
0.0
  0
LINE
  5
39B86
330
1E
100
AcDbEntity
  8
10
  6
Continuous
100
AcDbLine
 10
172.833242763941
 20
532.6269900213397
 30
0.0
 11
173.479687763941
 21
533.2734375213398
 31
0.0
  0
LINE
  5
39B87
330
1E
100
AcDbEntity
  8
10
  6
Continuous
100
AcDbLine
 10
178.713192763941
 20
532.8500875213399
 30
0.0
 11
179.479687763941
 21
533.61658252134
 31
0.0
  0
LINE
  5
39B88
330
1E
100
AcDbEntity
  8
10
  6
Continuous
100
AcDbLine
 10
178.479687763941
 20
535.0914575213399
 30
0.0
 11
179.479687763941
 21
536.0914575213397
 31
0.0
  0
LINE
  5
39B89
330
1E
100
AcDbEntity
  8
10
  6
Continuous
100
AcDbLine
 10
177.2573852639412
 20
534.9298125213398
 30
0.0
 11
177.975417763941
 21
535.6478450213396
 31
0.0
  0
LINE
  5
39B8A
330
1E
100
AcDbEntity
  8
10
  6
Continuous
100
AcDbLine
 10
172.4796877639412
 20
534.7483100213395
 30
0.0
 11
173.479687763941
 21
535.7483100213397
 31
0.0
  0
LINE
  5
39B8B
330
1E
100
AcDbEntity
  8
10
  6
Continuous
100
AcDbLine
 10
172.4796877639412
 20
534.0412050213399
 30
0.0
 11
173.479687763941
 21
535.0412050213397
 31
0.0
  0
LINE
  5
39B8C
330
1E
100
AcDbEntity
  8
10
  6
Continuous
100
AcDbLine
 10
177.4029652639413
 20
534.7218400213396
 30
0.0
 11
178.1209977639412
 21
535.4398725213393
 31
0.0
  0
LINE
  5
39B8D
330
1E
100
AcDbEntity
  8
10
  6
Continuous
100
AcDbLine
 10
172.4796877639412
 20
532.6269900213397
 30
0.0
 11
173.479687763941
 21
533.6269900213393
 31
0.0
  0
LINE
  5
39B8E
330
1E
100
AcDbEntity
  8
10
  6
Continuous
100
AcDbLine
 10
173.1867952639412
 20
532.6269900213397
 30
0.0
 11
173.479687763941
 21
532.9198825213397
 31
0.0
  0
LINE
  5
39B8F
330
1E
100
AcDbEntity
  8
10
  6
Continuous
100
AcDbLine
 10
178.843650263941
 20
532.6269900213397
 30
0.0
 11
179.479687763941
 21
533.2630300213399
 31
0.0
  0
LINE
  5
39B90
330
1E
100
AcDbEntity
  8
10
  6
Continuous
100
AcDbLine
 10
177.6941277639409
 20
534.3058950213396
 30
0.0
 11
178.4121602639411
 21
535.0239275213398
 31
0.0
  0
LINE
  5
39B91
330
1E
100
AcDbEntity
  8
10
  6
Continuous
100
AcDbLine
 10
172.4796877639412
 20
535.1018650213396
 30
0.0
 11
173.479687763941
 21
536.1018650213396
 31
0.0
  0
LINE
  5
39B92
330
1E
100
AcDbEntity
  8
10
  6
Continuous
100
AcDbLine
 10
177.8397077639411
 20
534.0979225213398
 30
0.0
 11
179.479687763941
 21
535.7379025213397
 31
0.0
  0
LINE
  5
39B93
330
1E
100
AcDbEntity
  8
10
  6
Continuous
100
AcDbLine
 10
172.4796877639412
 20
534.3947575213396
 30
0.0
 11
173.479687763941
 21
535.3947575213396
 31
0.0
  0
LINE
  5
39B94
330
1E
100
AcDbEntity
  8
10
  6
Continuous
100
AcDbLine
 10
178.422030263941
 20
533.2660325213397
 30
0.0
 11
179.479687763941
 21
534.3236900213395
 31
0.0
  0
LINE
  5
39B95
330
1E
100
AcDbEntity
  8
10
  6
Continuous
100
AcDbLine
 10
177.548545263941
 20
534.5138675213395
 30
0.0
 11
178.2665777639409
 21
535.2319000213399
 31
0.0
  0
LINE
  5
39B96
330
1E
100
AcDbEntity
  8
10
  6
Continuous
100
AcDbLine
 10
179.1972027639409
 20
532.6269900213397
 30
0.0
 11
179.479687763941
 21
532.9094750213393
 31
0.0
  0
LINE
  5
39B97
330
1E
100
AcDbEntity
  8
10
  6
Continuous
100
AcDbLine
 10
172.4796877639412
 20
532.6269900213397
 30
0.0
 11
173.479687763941
 21
532.6269900213397
 31
0.0
  0
LINE
  5
39B98
330
1E
100
AcDbEntity
  8
10
  6
Continuous
100
AcDbLine
 10
178.2764502639412
 20
533.4740050213398
 30
0.0
 11
179.479687763941
 21
534.6772425213401
 31
0.0
  0
LINE
  5
39B99
330
1E
100
AcDbEntity
  8
10
  6
Continuous
100
AcDbLine
 10
177.1118027639409
 20
535.1377850213398
 30
0.0
 11
177.8298352639413
 21
535.8558175213397
 31
0.0
  0
LINE
  5
39B9A
330
1E
100
AcDbEntity
  8
10
  6
Continuous
100
AcDbLine
 10
172.4796877639412
 20
532.9805450213398
 30
0.0
 11
173.479687763941
 21
533.9805450213398
 31
0.0
  0
LINE
  5
39B9B
330
1E
100
AcDbEntity
  8
10
  6
Continuous
100
AcDbLine
 10
178.1308702639413
 20
533.6819775213398
 30
0.0
 11
179.479687763941
 21
535.0307975213397
 31
0.0
  0
LINE
  5
39B9C
330
1E
100
AcDbEntity
  8
10
  6
Continuous
100
AcDbLine
 10
173.479687763941
 20
540.3265225213397
 30
0.0
 11
178.8693602639409
 21
532.6269900213397
 31
0.0
  0
LINE
  5
39B9D
330
1E
100
AcDbEntity
  8
10
  6
Continuous
100
AcDbLine
 10
176.6750602639412
 20
535.7617025213397
 30
0.0
 11
177.3930952639412
 21
536.4797350213398
 31
0.0
  0
LINE
  5
39B9E
330
1E
100
AcDbEntity
  8
10
  6
Continuous
100
AcDbLine
 10
176.8206427639413
 20
535.5537300213397
 30
0.0
 11
177.5386752639409
 21
536.2717625213398
 31
0.0
  0
LINE
  5
39B9F
330
1E
100
AcDbEntity
  8
10
  6
Continuous
100
AcDbLine
 10
172.4796877639412
 20
532.6269900213397
 30
0.0
 11
172.4796877639412
 21
542.6269900213399
 31
0.0
  0
LINE
  5
39BA0
330
1E
100
AcDbEntity
  8
10
  6
Continuous
100
AcDbLine
 10
172.4796877639412
 20
535.4554175213397
 30
0.0
 11
173.479687763941
 21
536.4554175213397
 31
0.0
  0
LINE
  5
39BA1
330
1E
100
AcDbEntity
  8
10
  6
Continuous
100
AcDbLine
 10
178.479687763941
 20
534.9274600213398
 30
0.0
 11
178.479687763941
 21
542.6269900213399
 31
0.0
  0
LINE
  5
39BA2
330
1E
100
AcDbEntity
  8
10
  6
Continuous
100
AcDbLine
 10
176.5294802639409
 20
535.9696750213397
 30
0.0
 11
177.247512763941
 21
536.6877075213399
 31
0.0
  0
LINE
  5
39BA3
330
1E
100
AcDbEntity
  8
10
  6
Continuous
100
AcDbLine
 10
178.479687763941
 20
535.7985625213398
 30
0.0
 11
179.479687763941
 21
536.7985625213398
 31
0.0
  0
LINE
  5
39BA4
330
1E
100
AcDbEntity
  8
10
  6
Continuous
100
AcDbLine
 10
172.4796877639412
 20
535.8089700213395
 30
0.0
 11
173.479687763941
 21
536.8089700213395
 31
0.0
  0
LINE
  5
39BA5
330
1E
100
AcDbEntity
  8
10
  6
Continuous
100
AcDbLine
 10
179.479687763941
 20
532.6269900213397
 30
0.0
 11
179.479687763941
 21
542.6269900213399
 31
0.0
  0
LINE
  5
39BA6
330
1E
100
AcDbEntity
  8
10
  6
Continuous
100
AcDbLine
 10
173.090015263941
 20
542.6269900213399
 30
0.0
 11
178.479687763941
 21
534.9274600213398
 31
0.0
  0
LINE
  5
39BA7
330
1E
100
AcDbEntity
  8
10
  6
Continuous
100
AcDbLine
 10
173.479687763941
 20
540.3265225213397
 30
0.0
 11
173.479687763941
 21
532.6269900213397
 31
0.0
  0
LINE
  5
39BA8
330
1E
100
AcDbEntity
  8
10
  6
Continuous
100
AcDbLine
 10
178.479687763941
 20
535.4450100213398
 30
0.0
 11
179.479687763941
 21
536.4450100213398
 31
0.0
  0
LINE
  5
39BA9
330
1E
100
AcDbEntity
  8
130
100
AcDbLine
 10
193.4796877639411
 20
583.3769900213399
 30
0.0
 11
53.47968776394111
 21
583.3769900213399
 31
0.0
  0
LWPOLYLINE
  5
39BAA
330
1E
100
AcDbEntity
  8
17
100
AcDbPolyline
 90
        2
 70
     0
 43
0.0
 10
70.97968776394131
 20
579.8769900213397
 10
70.97968776394131
 20
565.8769900213392
  0
LWPOLYLINE
  5
39BAB
330
1E
100
AcDbEntity
  8
17
100
AcDbPolyline
 90
        2
 70
     0
 43
0.0
 10
63.97968776394131
 20
572.8769900213399
 10
77.97968776394132
 20
572.8769900213399
  0
CIRCLE
  5
39BAC
330
1E
100
AcDbEntity
  8
24
100
AcDbCircle
 10
70.97968776394131
 20
572.8769900213399
 30
0.0
 40
5.0
  0
LWPOLYLINE
  5
39BAD
330
1E
100
AcDbEntity
  8
17
100
AcDbPolyline
 90
        2
 70
     0
 43
0.0
 10
182.979687763941
 20
572.8769900213399
 10
168.9796877639412
 20
572.8769900213399
  0
LINE
  5
39BAE
330
1E
100
AcDbEntity
  8
18
100
AcDbLine
 10
89.97968776394101
 20
684.3769900213397
 30
0.0
 11
89.97968776394101
 21
583.3769900213399
 31
0.0
  0
LINE
  5
39BAF
330
1E
100
AcDbEntity
  8
18
100
AcDbLine
 10
159.9796877639412
 20
684.3769900213397
 30
0.0
 11
159.9796877639412
 21
583.3769900213399
 31
0.0
  0
LINE
  5
39BB0
330
1E
100
AcDbEntity
  8
18
100
AcDbLine
 10
86.97968776394111
 20
684.3769900213397
 30
0.0
 11
86.97968776394111
 21
583.3769900213399
 31
0.0
  0
LINE
  5
39BB1
330
1E
100
AcDbEntity
  8
18
100
AcDbLine
 10
121.9796877639413
 20
684.3769900213397
 30
0.0
 11
121.9796877639413
 21
583.3769900213399
 31
0.0
  0
LINE
  5
39BB2
330
1E
100
AcDbEntity
  8
18
100
AcDbLine
 10
156.979687763941
 20
684.3769900213397
 30
0.0
 11
156.979687763941
 21
583.3769900213399
 31
0.0
  0
LINE
  5
39BB3
330
1E
100
AcDbEntity
  8
18
100
AcDbLine
 10
124.9796877639411
 20
684.3769900213397
 30
0.0
 11
124.9796877639411
 21
583.3769900213399
 31
0.0
  0
LWPOLYLINE
  5
39BB5
330
1E
100
AcDbEntity
  8
17
100
AcDbPolyline
 90
        2
 70
     0
 43
0.0
 10
82.97968776394132
 20
563.8769900213397
 10
93.97968776394105
 20
563.8769900213397
  0
LWPOLYLINE
  5
39BB6
330
1E
100
AcDbEntity
  8
130
100
AcDbPolyline
 90
        6
 70
     0
 43
0.0
 10
82.97968776394132
 20
583.3769900213399
 10
82.97968776394132
 20
565.8769900213392
 42
-0.4142135623730951
 10
77.97968776394132
 20
560.8769900213395
 10
63.97968776394131
 20
560.8769900213395
 42
-0.4142135623730951
 10
58.97968776394131
 20
565.8769900213392
 10
58.97968776394131
 20
583.3769900213399
  0
LWPOLYLINE
  5
39BB7
330
1E
100
AcDbEntity
  8
130
100
AcDbPolyline
 90
        6
 70
     0
 43
0.0
 10
93.97968776394105
 20
583.3769900213399
 10
93.97968776394099
 20
565.8769900213392
 42
0.4142135623730951
 10
98.97968776394101
 20
560.8769900213395
 10
112.979687763941
 20
560.8769900213395
 42
0.4142135623730951
 10
117.979687763941
 20
565.8769900213392
 10
117.979687763941
 20
583.3769900213399
  0
LWPOLYLINE
  5
39BB8
330
1E
100
AcDbEntity
  8
17
100
AcDbPolyline
 90
        2
 70
     0
 43
0.0
 10
98.97968776394101
 20
572.8769900213399
 10
112.979687763941
 20
572.8769900213399
  0
CIRCLE
  5
39BB9
330
1E
100
AcDbEntity
  8
24
100
AcDbCircle
 10
105.979687763941
 20
572.8769900213399
 30
0.0
 40
5.0
  0
LWPOLYLINE
  5
39BBA
330
1E
100
AcDbEntity
  8
17
100
AcDbPolyline
 90
        2
 70
     0
 43
0.0
 10
133.9796877639409
 20
572.8769900213399
 10
147.9796877639413
 20
572.8769900213399
  0
LWPOLYLINE
  5
39BBB
330
1E
100
AcDbEntity
  8
130
100
AcDbPolyline
 90
        6
 70
     0
 43
0.0
 10
128.9796877639412
 20
583.3769900213399
 10
128.9796877639409
 20
565.8769900213392
 42
0.4142135623730951
 10
133.9796877639409
 20
560.8769900213395
 10
147.9796877639413
 20
560.8769900213395
 42
0.4142135623730951
 10
152.9796877639413
 20
565.8769900213392
 10
152.9796877639413
 20
583.3769900213399
  0
LWPOLYLINE
  5
39BBC
330
1E
100
AcDbEntity
  8
17
100
AcDbPolyline
 90
        2
 70
     0
 43
0.0
 10
140.9796877639412
 20
579.8769900213397
 10
140.9796877639412
 20
565.8769900213392
  0
CIRCLE
  5
39BBD
330
1E
100
AcDbEntity
  8
24
100
AcDbCircle
 10
140.9796877639412
 20
572.8769900213399
 30
0.0
 40
5.0
  0
LINE
  5
39BBE
330
1E
100
AcDbEntity
  8
18
100
AcDbLine
 10
121.9796877639413
 20
684.3769900213397
 30
0.0
 11
124.9796877639411
 21
684.3769900213397
 31
0.0
  0
LINE
  5
39BBF
330
1E
100
AcDbEntity
  8
18
100
AcDbLine
 10
89.97968776394101
 20
684.3769900213397
 30
0.0
 11
86.97968776394111
 21
684.3769900213397
 31
0.0
  0
LINE
  5
39BC0
330
1E
100
AcDbEntity
  8
18
100
AcDbLine
 10
156.979687763941
 20
684.3769900213397
 30
0.0
 11
159.9796877639412
 21
684.3769900213397
 31
0.0
  0
LWPOLYLINE
  5
39BC1
330
1E
100
AcDbEntity
  8
17
100
AcDbPolyline
 90
        2
 70
     0
 43
0.0
 10
175.979687763941
 20
579.8769900213397
 10
175.979687763941
 20
565.8769900213392
  0
CIRCLE
  5
39BC2
330
1E
100
AcDbEntity
  8
24
100
AcDbCircle
 10
-175.979687763941
 20
572.8769900213399
 30
0.0
 40
5.0
210
0.0
220
0.0
230
-1.0
  0
DIMENSION
  5
39BC3
330
1E
100
AcDbEntity
  8
30
100
AcDbDimension
280
     0
  2
*D28
 10
216.0103305455069
 20
418.3769900213397
 30
0.0
 11
209.5103305455069
 21
500.8769900213398
 31
0.0
 70
    32
 71
     5
 42
164.9999999999999
 73
     0
 74
     0
 75
     0
  3
STANDARD
100
AcDbAlignedDimension
 13
193.4796877639411
 23
583.3769900213396
 33
0.0
 14
193.4796877639411
 24
418.3769900213397
 34
0.0
 50
90.0
100
AcDbRotatedDimension
  0
DIMENSION
  5
39BC4
330
1E
100
AcDbEntity
  8
30
100
AcDbDimension
280
     0
  2
*D29
 10
216.0103305455069
 20
583.3769900213396
 30
0.0
 11
209.5103305455068
 21
633.8769900213397
 31
0.0
 70
    32
 71
     5
 42
100.9999999999999
 73
     0
 74
     0
 75
     0
  3
STANDARD
100
AcDbAlignedDimension
 13
159.9796877639408
 23
684.3769900213397
 33
0.0
 14
193.4796877639411
 24
583.3769900213396
 34
0.0
 50
90.0
100
AcDbRotatedDimension
  0
DIMENSION
  5
39BC5
330
1E
100
AcDbEntity
  8
30
100
AcDbDimension
280
     0
  2
*D30
 10
175.979687763941
 20
382.2917107420009
 30
0.0
 11
123.4796877639411
 21
388.7917107420009
 31
0.0
 70
    32
 71
     5
 42
104.9999999999997
 73
     0
 74
     0
 75
     0
  3
STANDARD
100
AcDbAlignedDimension
 13
70.97968776394131
 23
420.9561218437666
 33
0.0
 14
175.979687763941
 24
420.9561218437666
 34
0.0
100
AcDbRotatedDimension
  0
DIMENSION
  5
39BC7
330
1E
100
AcDbEntity
  8
30
100
AcDbDimension
280
     0
  2
*D31
 10
193.4796877639411
 20
359.3051269390198
 30
0.0
 11
123.4796877639411
 21
365.8051269390198
 31
0.0
 70
    32
 71
     5
 42
139.9999999999999
 73
     0
 74
     0
 75
     0
  3
STANDARD
100
AcDbAlignedDimension
 13
53.47968776394111
 23
415.4561218437668
 33
0.0
 14
193.4796877639411
 24
415.4561218437668
 34
0.0
100
AcDbRotatedDimension
  0
DIMENSION
  5
39BC8
330
1E
100
AcDbEntity
  8
30
100
AcDbDimension
280
     0
  2
*D32
 10
154.9796877639411
 20
534.1269900213399
 30
0.0
 11
120.4998386476436
 21
534.1269900213399
 31
0.0
 70
   160
 71
     5
 42
97.99999999999949
 73
     0
 74
     0
 75
     0
  3
STANDARD
100
AcDbAlignedDimension
 13
56.9796877639417
 23
525.8769900213398
 33
0.0
 14
154.9796877639411
 24
525.8769900213398
 34
0.0
100
AcDbRotatedDimension
  0
DIMENSION
  5
39BC9
330
1E
100
AcDbEntity
  8
30
100
AcDbDimension
280
     0
  2
*D33
 10
70.97968776394115
 20
844.0067750369248
 30
0.0
 11
88.47968776394109
 21
849.5067750369248
 31
0.0
 70
    32
 71
     5
 42
34.99999999999984
 73
     0
 74
     0
 75
     0
  3
STANDARD1
100
AcDbAlignedDimension
 13
105.979687763941
 23
784.8758100162672
 33
0.0
 14
70.97968776394115
 24
781.6124133579663
 34
0.0
100
AcDbRotatedDimension
  0
LINE
  5
39BCA
330
1E
100
AcDbEntity
  8
24
100
AcDbLine
 10
75.979687763941
 20
792.0328139247357
 30
0.0
 11
75.979687763941
 21
800.0328139247356
 31
0.0
  0
LINE
  5
39BCB
330
1E
100
AcDbEntity
  8
24
100
AcDbLine
 10
65.979687763941
 20
792.0328139247357
 30
0.0
 11
65.979687763941
 21
800.0328139247356
 31
0.0
  0
LINE
  5
39BCC
330
1E
100
AcDbEntity
  8
24
100
AcDbLine
 10
65.979687763941
 20
792.0328139247357
 30
0.0
 11
75.979687763941
 21
792.0328139247357
 31
0.0
  0
LINE
  5
39BCD
330
1E
100
AcDbEntity
  8
24
100
AcDbLine
 10
63.27968776394119
 20
800.0328139247356
 30
0.0
 11
78.6796877639413
 21
800.0328139247356
 31
0.0
  0
LINE
  5
39BCE
330
1E
100
AcDbEntity
  8
24
100
AcDbLine
 10
60.479687763941
 20
806.0328139247362
 30
0.0
 11
81.47968776394131
 21
806.0328139247362
 31
0.0
  0
LINE
  5
39BCF
330
1E
100
AcDbEntity
  8
24
100
AcDbLine
 10
60.479687763941
 20
802.0328139247357
 30
0.0
 11
81.47968776394131
 21
802.0328139247357
 31
0.0
  0
LINE
  5
39BD0
330
1E
100
AcDbEntity
  8
24
100
AcDbLine
 10
63.27968776394119
 20
800.0328139247356
 30
0.0
 11
63.27968776394119
 21
802.0328139247357
 31
0.0
  0
LINE
  5
39BD1
330
1E
100
AcDbEntity
  8
24
100
AcDbLine
 10
78.6796877639413
 20
800.0328139247356
 30
0.0
 11
78.6796877639413
 21
802.0328139247357
 31
0.0
  0
LINE
  5
39BD2
330
1E
100
AcDbEntity
  8
12
  6
DASHDOT
100
AcDbLine
 10
123.4796877639417
 20
257.5207853397585
 30
0.0
 11
123.4796877639417
 21
246.5207853397583
 31
0.0
  0
CIRCLE
  5
39BD3
330
1E
100
AcDbEntity
  8
12
100
AcDbCircle
 10
-123.4796877639417
 20
252.0207853397585
 30
0.0
 40
1.99999999999998
210
0.0
220
0.0
230
-1.0
  0
LINE
  5
39BD4
330
1E
100
AcDbEntity
  8
12
  6
DASHDOT
100
AcDbLine
 10
88.47968776394171
 20
257.5207853397585
 30
0.0
 11
88.47968776394171
 21
246.5207853397583
 31
0.0
  0
CIRCLE
  5
39BD5
330
1E
100
AcDbEntity
  8
12
100
AcDbCircle
 10
88.47968776394171
 20
252.0207853397585
 30
0.0
 40
1.99999999999998
  0
LINE
  5
39BD6
330
1E
100
AcDbEntity
  8
16
 48
2.0
100
AcDbLine
 10
105.9796877639416
 20
281.5207853397583
 30
0.0
 11
105.9796877639416
 21
96.52078533975993
 31
0.0
  0
LINE
  5
39BD7
330
1E
100
AcDbEntity
  8
16
 48
2.0
100
AcDbLine
 10
48.4796877639421
 20
189.0207853397591
 30
0.0
 11
198.4796877639407
 21
189.0207853397591
 31
0.0
  0
LINE
  5
39BD8
330
1E
100
AcDbEntity
  8
12
  6
DASHDOT
100
AcDbLine
 10
82.97968776394219
 20
126.0207853397595
 30
0.0
 11
93.97968776394185
 21
126.0207853397595
 31
0.0
  0
CIRCLE
  5
39BD9
330
1E
100
AcDbEntity
  8
12
100
AcDbCircle
 10
-88.47968776394171
 20
126.0207853397595
 30
0.0
 40
1.99999999999998
210
0.0
220
0.0
230
-1.0
  0
LINE
  5
39BDA
330
1E
100
AcDbEntity
  8
12
  6
DASHDOT
100
AcDbLine
 10
88.47968776394171
 20
120.5207853397597
 30
0.0
 11
88.47968776394171
 21
131.5207853397596
 31
0.0
  0
CIRCLE
  5
39BDB
330
1E
100
AcDbEntity
  8
12
100
AcDbCircle
 10
123.4796877639417
 20
126.0207853397595
 30
0.0
 40
1.99999999999998
  0
LINE
  5
39BDC
330
1E
100
AcDbEntity
  8
12
  6
DASHDOT
100
AcDbLine
 10
123.4796877639417
 20
120.5207853397597
 30
0.0
 11
123.4796877639417
 21
131.5207853397596
 31
0.0
  0
LINE
  5
39BDD
330
1E
100
AcDbEntity
  8
12
  6
DASHDOT
100
AcDbLine
 10
117.9796877639414
 20
126.0207853397595
 30
0.0
 11
128.9796877639415
 21
126.0207853397595
 31
0.0
  0
LINE
  5
39BDE
330
1E
100
AcDbEntity
  8
12
  6
DASHDOT
100
AcDbLine
 10
82.97968776394219
 20
252.0207853397585
 30
0.0
 11
93.97968776394185
 21
252.0207853397585
 31
0.0
  0
LINE
  5
39BDF
330
1E
100
AcDbEntity
  8
12
  6
DASHDOT
100
AcDbLine
 10
117.9796877639414
 20
252.0207853397585
 30
0.0
 11
128.9796877639415
 21
252.0207853397585
 31
0.0
  0
LWPOLYLINE
  5
39BE0
330
1E
100
AcDbEntity
  8
18
100
AcDbPolyline
 90
        4
 70
     1
 43
0.0
 10
53.47968776394202
 20
271.5207853397584
 10
193.4796877639411
 20
271.5207853397584
 10
193.4796877639411
 20
106.5207853397598
 10
53.47968776394202
 20
106.5207853397598
  0
LEADER
  5
39BE1
330
1E
100
AcDbEntity
  8
30
100
AcDbLeader
  3
STANDARD1
 76
     3
 10
124.4796877639413
 20
252.0207853397584
 30
0.0
 10
164.4796877639413
 20
286.1621427130067
 30
0.0
 10
201.5418496747113
 20
286.1621427130067
 30
0.0
211
-1.0
221
0.0
231
0.0
1001
ACAD
1000
DSTYLE
1002
{
1070
   147
1040
2.0
1070
    77
1070
     0
1002
}
  0
MTEXT
  5
39BE2
330
1E
100
AcDbEntity
  8
30
  6
Continuous
100
AcDbMText
 10
168.1028809906853
 20
296.0706381592414
 30
0.0
 40
7.0
 41
30.0
 46
0.0
 71
     1
 72
     5
  1
M4x0.7
  7
blockfont
 73
     1
 44
1.0
  0
DIMENSION
  5
39BE3
330
1E
100
AcDbEntity
  8
30
100
AcDbDimension
280
     0
  2
*D34
 10
123.4796877639417
 20
72.75673693791579
 30
0.0
 11
105.9796877639417
 21
78.25673693791578
 31
0.0
 70
    32
 71
     5
 42
35.0
 73
     0
 74
     0
 75
     0
  3
STANDARD1
100
AcDbAlignedDimension
 13
88.47968776394171
 23
126.0207853397595
 33
0.0
 14
123.4796877639417
 24
126.0207853397595
 34
0.0
100
AcDbRotatedDimension
  0
DIMENSION
  5
39BE4
330
1E
100
AcDbEntity
  8
30
100
AcDbDimension
280
     0
  2
*D35
 10
221.9423249047704
 20
126.0207853397595
 30
0.0
 11
215.4423249047704
 21
189.020785339759
 31
0.0
 70
    32
 71
     5
 42
125.999999999999
 73
     0
 74
     0
 75
     0
  3
STANDARD
100
AcDbAlignedDimension
 13
123.4796877639417
 23
252.0207853397585
 33
0.0
 14
123.4796877639417
 24
126.0207853397595
 34
0.0
 50
90.0
100
AcDbRotatedDimension
  0
LINE
  5
39BE5
330
1E
100
AcDbEntity
  8
16
 48
2.0
100
AcDbLine
 10
305.8337302862375
 20
281.5207853397584
 30
0.0
 11
305.8337302862375
 21
96.52078533975846
 31
0.0
  0
LINE
  5
39BE6
330
1E
100
AcDbEntity
  8
16
 48
2.0
100
AcDbLine
 10
243.3337302862376
 20
189.0207853397585
 30
0.0
 11
403.3337302862376
 21
189.0207853397585
 31
0.0
  0
LEADER
  5
39BE7
330
1E
100
AcDbEntity
  8
30
100
AcDbLeader
  3
STANDARD1
 76
     3
 10
433.3610702044969
 20
572.8769900213396
 30
0.0
 10
397.3610702044974
 20
588.3769900213397
 30
0.0
 10
378.7166497150765
 20
588.3769900213397
 30
0.0
1001
ACAD
1000
DSTYLE
1002
{
1070
   147
1040
2.0
1070
    77
1070
     0
1002
}
  0
MTEXT
  5
39BE8
330
1E
100
AcDbEntity
  8
30
  6
Continuous
100
AcDbMText
 10
381.4796293189999
 20
597.1723517360127
 30
0.0
 40
7.0
 41
10.0
 46
0.0
 71
     1
 72
     5
  1
M8
  7
blockfont
 73
     1
 44
1.0
  0
DIMENSION
  5
39BE9
330
1E
100
AcDbEntity
  8
30
100
AcDbDimension
280
     0
  2
*D36
 10
467.3610702044974
 20
593.3769900213397
 30
0.0
 11
455.3610702044968
 21
599.8769900213399
 31
0.0
 70
    32
 71
     5
 42
24.00000000000051
 73
     0
 74
     0
 75
     0
  3
STANDARD
100
AcDbAlignedDimension
 13
443.3610702044968
 23
583.3769900213399
 33
0.0
 14
467.3610702044974
 24
583.3769900213399
 34
0.0
100
AcDbRotatedDimension
  0
DIMENSION
  5
39BEA
330
1E
100
AcDbEntity
  8
30
100
AcDbDimension
280
     0
  2
*D37
 10
357.2126594140927
 20
475.8769900213398
 30
0.0
 11
350.7126594140927
 21
500.8769900213398
 31
0.0
 70
    32
 71
     5
 42
50.0
 73
     0
 74
     0
 75
     0
  3
STANDARD
100
AcDbAlignedDimension
 13
395.3610702044974
 23
525.8769900213398
 33
0.0
 14
395.3610702044974
 24
475.8769900213398
 34
0.0
 50
90.0
100
AcDbRotatedDimension
  0
LINE
  5
39BEB
330
1E
100
AcDbEntity
  8
16
100
AcDbLine
 10
381.9115647554627
 20
500.8769900213398
 30
0.0
 11
477.3610702044972
 21
500.8769900213398
 31
0.0
  0
LEADER
  5
39BEC
330
1E
100
AcDbEntity
  8
30
100
AcDbLeader
  3
STANDARD1
 76
     3
 10
519.8610702044971
 20
559.3769900213398
 30
0.0
 10
497.3610702044974
 20
568.3769900213397
 30
0.0
 10
485.3610702044973
 20
568.3769900213397
 30
0.0
1001
ACAD
1000
DSTYLE
1002
{
1070
   147
1040
2.0
1070
    77
1070
     0
1002
}
  0
MTEXT
  5
39BED
330
1E
100
AcDbEntity
  8
30
100
AcDbMText
 10
486.3610702044971
 20
577.3439996890662
 30
0.0
 40
7.0
 41
10.0
 46
0.0
 71
     1
 72
     5
  1
%%c9
  7
blockfont
 73
     1
 44
1.0
  0
LWPOLYLINE
  5
39BEE
330
1E
100
AcDbEntity
  8
130
100
AcDbPolyline
 90
        4
 70
     1
 43
0.0
 10
53.4796877639408
 20
766.0328139247361
 10
193.479687763941
 20
766.0328139247361
 10
193.479687763941
 20
758.032813924736
 10
53.4796877639408
 20
758.0328139247361
  0
LWPOLYLINE
  5
39BEF
330
1E
100
AcDbEntity
  8
130
100
AcDbPolyline
 90
        4
 70
     1
 43
0.0
 10
56.97968776394131
 20
758.0328139247361
 10
154.9796877639414
 20
758.032813924736
 10
154.9796877639414
 20
754.0328139247361
 10
56.97968776394131
 20
754.0328139247361
  0
LWPOLYLINE
  5
39BF0
330
1E
100
AcDbEntity
  8
130
100
AcDbPolyline
 90
        4
 70
     1
 43
0.0
 10
98.97968776394087
 20
747.532813924736
 10
112.9796877639407
 20
747.532813924736
 10
112.9796877639407
 20
747.5328139247356
 10
98.97968776394087
 20
747.5328139247356
  0
LWPOLYLINE
  5
39BF1
330
1E
100
AcDbEntity
  8
130
100
AcDbPolyline
 90
        4
 70
     1
 43
0.0
 10
94.97968776394108
 20
754.0328139247361
 10
116.979687763941
 20
754.0328139247361
 10
116.979687763941
 20
747.5328139247356
 10
94.97968776394108
 20
747.5328139247356
  0
LWPOLYLINE
  5
39BF2
330
1E
100
AcDbEntity
  8
130
100
AcDbPolyline
 90
        4
 70
     1
 43
0.0
 10
98.97968776394087
 20
747.5328139247356
 10
112.9796877639407
 20
747.5328139247356
 10
112.9796877639407
 20
747.5328139247356
 10
98.97968776394087
 20
747.5328139247356
  0
LWPOLYLINE
  5
39BF3
330
1E
100
AcDbEntity
  8
130
100
AcDbPolyline
 90
        4
 70
     1
 43
0.0
 10
98.97968776394073
 20
747.5328139247356
 10
112.9796877639405
 20
747.5328139247356
 10
112.9796877639405
 20
731.032813924736
 10
98.97968776394073
 20
731.032813924736
  0
MTEXT
  5
39BF4
330
1E
100
AcDbEntity
  8
30
100
AcDbMText
 10
549.3610702044973
 20
564.4519412713397
 30
0.0
 40
8.0
 41
0.0
 46
0.0
 71
     2
 72
     5
  1
(max.)
  7
blockfont
 11
0.0000000000000001
 21
1.0
 31
0.0
 73
     1
 44
1.0
  0
DIMENSION
  5
39BF5
330
1E
100
AcDbEntity
  8
30
100
AcDbDimension
280
     0
  2
*D38
 10
547.3610702044973
 20
548.3769900213399
 30
0.0
 11
540.8610702044971
 21
535.87699002134
 31
0.0
 70
    32
 71
     5
 42
11.00000000000011
 73
     0
 74
     0
 75
     0
  3
STANDARD
100
AcDbAlignedDimension
 13
526.1110702044971
 23
559.37699002134
 33
0.0
 14
532.3610702044971
 24
548.3769900213399
 34
0.0
 50
90.0
100
AcDbRotatedDimension
  0
DIMENSION
  5
39BF6
330
1E
100
AcDbEntity
  8
30
  6
Continuous
100
AcDbDimension
280
     0
  2
*D39
 10
356.4978763695217
 20
215.8375158786126
 30
0.0
 11
369.5523584823456
 21
225.4737387092152
 31
0.0
 70
   164
 71
     5
 42
1.000000000000055
 73
     0
 74
     0
 75
     0
  3
STANDARD1
100
AcDbRadialDimension
 15
357.0503989674733
 25
216.6710137962783
 35
0.0
 40
0.0
  0
DIMENSION
  5
39BF7
330
1E
100
AcDbEntity
  8
30
100
AcDbDimension
280
     0
  2
*D40
 10
355.8337302862377
 20
70.6371697512327
 30
0.0
 11
305.8337302862377
 21
76.13716975123271
 31
0.0
 70
    32
 71
     5
 42
100.0000000000001
 73
     0
 74
     0
 75
     0
  3
STANDARD1
100
AcDbAlignedDimension
 13
255.8337302862376
 23
164.0207853397584
 33
0.0
 14
355.8337302862377
 24
164.0207853397584
 34
0.0
100
AcDbRotatedDimension
  0
ARC
  5
39BF8
330
1E
100
AcDbEntity
  8
10
100
AcDbCircle
 10
256.6904644930427
 20
163.9462884715278
 30
0.0
 40
1.0
100
AcDbArc
 50
180.0
 51
270.0
  0
LWPOLYLINE
  5
39BF9
330
1E
100
AcDbEntity
  8
11
100
AcDbPolyline
 90
        8
 70
     0
 43
0.0
 10
256.6904644930427
 20
162.9462884715278
 10
354.9769952026774
 20
162.9462884715278
 42
0.4142135623730971
 10
355.9769952026774
 20
163.9462884715278
 10
355.9769952026774
 20
214.0952838800163
 42
0.4142135623730951
 10
354.9769952026774
 20
215.0952838800163
 10
256.6904644930427
 20
215.0952838800163
 42
0.4142135623730951
 10
255.6904644930427
 20
214.0952838800163
 10
255.6904644930427
 20
163.9462884715278
  0
LWPOLYLINE
  5
39BFA
330
1E
100
AcDbEntity
  8
18
100
AcDbPolyline
 90
        4
 70
     1
 43
0.0
 10
253.183299824418
 20
106.2843946044433
 10
393.5844466186158
 20
106.2843956549446
 10
393.5844466186158
 20
271.7571750245722
 10
253.183299824418
 20
271.7571768131825
  0
LWPOLYLINE
  5
39BFB
330
1E
100
AcDbEntity
  8
130
100
AcDbPolyline
 90
       16
 70
     1
 43
0.0
 10
399.3610702044973
 20
551.8769900213396
 10
399.3610702044973
 20
449.8769900213398
 10
407.3610702044971
 20
449.8769900213398
 10
407.3610702044971
 20
418.3769900213397
 10
467.3610702044974
 20
418.3769900213397
 10
467.3610702044974
 20
583.3769900213399
 10
413.7443423885232
 20
583.3565904337806
 10
411.3548479920756
 20
583.3352817139012
 10
410.7977455599423
 20
583.2474562495217
 10
410.2876195257041
 20
583.0040882105462
 10
409.861690993407
 20
582.6299913258996
 10
409.5601489766574
 20
582.1517734041322
 10
409.4036415378424
 20
581.6090046054372
 10
409.038505181109
 20
579.010921505115
 10
407.3610702044971
 20
567.0753481028225
 10
407.3610702044971
 20
551.8769900213396
  0
LWPOLYLINE
  5
39BFC
330
1E
100
AcDbEntity
  8
130
  6
Continuous
100
AcDbPolyline
 90
        4
 70
     1
 43
0.0
 10
0.0
 20
891.0
 10
629.9999999999998
 20
891.0
 10
629.9999999999998
 20
0.0
 10
0.0
 20
0.0
  0
LINE
  5
39BFD
330
1E
100
AcDbEntity
  8
16
 48
2.0
100
AcDbLine
 10
442.0668755571576
 20
189.0207853397585
 30
0.0
 11
592.3147277305051
 21
189.0207853397585
 31
0.0
  0
DIMENSION
  5
39BFE
330
1E
100
AcDbEntity
  8
30
  6
Continuous
100
AcDbDimension
280
     0
  2
*D41
 10
507.8346886705577
 20
212.0207853397586
 30
0.0
 11
524.3654657921579
 21
221.5648339606583
 31
0.0
 70
   164
  1
<>
 71
     5
 42
1.000000000013069
 73
     0
 74
     0
 75
     0
  3
STANDARD1
100
AcDbRadialDimension
 15
508.5533587015047
 25
212.7161366082872
 35
0.0
 40
0.0
  0
LINE
  5
39BFF
330
1E
100
AcDbEntity
  8
16
 48
2.0
100
AcDbLine
 10
496.8346886705576
 20
280.9191044162568
 30
0.0
 11
496.8346886705576
 21
94.98432209285965
 31
0.0
  0
LWPOLYLINE
  5
39C00
330
1E
100
AcDbEntity
  8
11
100
AcDbPolyline
 90
        8
 70
     1
 43
0.0
 10
484.8346886705576
 20
166.0207853397585
 42
0.4142135623730951
 10
485.8346886705578
 20
165.0207853397585
 10
507.8346886705578
 20
165.0207853397585
 42
0.4142135623730951
 10
508.8346886705576
 20
166.0207853397585
 10
508.8346886705576
 20
212.0207853397586
 42
0.4142135623730951
 10
507.8346886705578
 20
213.0207853397585
 10
485.8346886705578
 20
213.0207853397585
 42
0.4142135623730951
 10
484.8346886705576
 20
212.0207853397586
  0
DIMENSION
  5
39C01
330
1E
100
AcDbEntity
  8
30
100
AcDbDimension
280
     0
  2
*D42
 10
484.8346886705576
 20
69.36542819451029
 30
0.0
 11
496.8346886705576
 21
69.36542819451029
 31
0.0
 70
   160
  1
<>
 71
     2
 42
24.0
 73
     0
 74
     0
 75
     0
  3
STANDARD1
100
AcDbAlignedDimension
 13
508.8346886705576
 23
166.0207853397585
 33
0.0
 14
484.8346886705576
 24
166.0207853397585
 34
0.0
100
AcDbRotatedDimension
  0
LWPOLYLINE
  5
39C02
330
1E
100
AcDbEntity
  8
18
100
AcDbPolyline
 90
        4
 70
     1
 43
0.0
 10
444.1842582087383
 20
106.2843946044434
 10
584.5854050029361
 20
106.2843956549448
 10
584.5854050029361
 20
271.7571750245723
 10
444.1842582087383
 20
271.7571768131826
  0
LINE
  5
39C03
330
1E
100
AcDbEntity
  8
16
100
AcDbLine
 10
105.979687763941
 20
726.0328139247361
 30
0.0
 11
105.979687763941
 21
831.032813924736
 31
0.0
  0
DIMENSION
  5
39C04
330
1E
100
AcDbEntity
  8
30
100
AcDbDimension
280
     0
  2
*D43
 10
116.9796877639411
 20
459.5961178654238
 30
0.0
 11
128.8130210972744
 21
459.5961178654238
 31
0.0
 70
   160
 71
     5
 42
21.99999999999952
 73
     0
 74
     0
 75
     0
  3
STANDARD
100
AcDbAlignedDimension
 13
94.97968776394159
 23
475.8769900213398
 33
0.0
 14
116.9796877639411
 24
475.8769900213398
 34
0.0
100
AcDbRotatedDimension
  0
MTEXT
  5
39C05
330
1E
100
AcDbEntity
  8
240
100
AcDbMText
 10
288.2283044523617
 20
34.11543061980501
 30
0.0
 40
7.826237649998486
 41
0.0
 46
0.0
 71
     1
 72
     1
  1
[Cutout A]
  7
SLDTEXTSTYLE0
 73
     1
 44
1.0
  0
MTEXT
  5
39C06
330
1E
100
AcDbEntity
  8
240
100
AcDbMText
 10
471.3002864752159
 20
34.11543061980501
 30
0.0
 40
7.826237649998486
 41
0.0
 46
0.0
 71
     1
 72
     1
  1
[Cutout B]
  7
SLDTEXTSTYLE0
 73
     1
 44
1.0
  0
DIMENSION
  5
39C07
330
1E
100
AcDbEntity
  8
30
100
AcDbDimension
280
     0
  2
*D44
 10
416.2268442820654
 20
163.0207853397584
 30
0.0
 11
409.7268442820651
 21
189.0207853397585
 31
0.0
 70
    32
 71
     5
 42
52.0
 73
     0
 74
     0
 75
     0
  3
STANDARD
100
AcDbAlignedDimension
 13
359.1824502669383
 23
215.0207853397585
 33
0.0
 14
358.5991545718443
 24
163.0207853397584
 34
0.0
 50
90.0
100
AcDbRotatedDimension
  0
DIMENSION
  5
39C08
330
1E
100
AcDbEntity
  8
30
100
AcDbDimension
280
     0
  2
*D45
 10
606.2034609541772
 20
165.0207853397586
 30
0.0
 11
606.2034609541772
 21
189.0207853397586
 31
0.0
 70
   160
 71
     2
 42
48.0
 73
     0
 74
     0
 75
     0
  3
STANDARD
100
AcDbAlignedDimension
 13
511.0312400130736
 23
213.0207853397586
 33
0.0
 14
512.7943035337906
 24
165.0207853397586
 34
0.0
 50
90.0
100
AcDbRotatedDimension
  0
LWPOLYLINE
  5
39C09
330
1E
100
AcDbEntity
  8
130
100
AcDbPolyline
 90
       53
 70
     0
 43
0.0
 10
388.8610702044971
 20
512.53962502134
 10
376.6103941388266
 20
516.8797024423469
 42
0.4244749720642276
 10
374.1596695809653
 20
515.3720057425879
 10
373.4403562172197
 20
512.1003727022207
 42
0.4248673327981316
 10
375.0320894842363
 20
509.7011611964653
 10
375.4313677555986
 20
509.628403516714
 10
375.8211572929194
 20
509.5583974988256
 10
376.2016455475777
 20
509.4910532032637
 10
376.5730199709419
 20
509.4262806904943
 10
376.9354680143806
 20
509.3639900209821
 10
377.2891771292626
 20
509.3040912551933
 10
377.6343347669567
 20
509.2464944535928
 10
377.9711283788315
 20
509.1911096766463
 10
378.2997454162559
 20
509.1378469848193
 10
378.6203733305983
 20
509.0866164385773
 10
378.9331995732276
 20
509.0373280983853
 10
379.2384115955124
 20
508.9898920247097
 10
379.5361968488216
 20
508.9442182780151
 10
379.8267427845237
 20
508.9002169187671
 10
380.1102368539874
 20
508.8577980074317
 10
380.3868665085817
 20
508.8168716044738
 10
380.6568191996749
 20
508.7773477703589
 10
380.920282378636
 20
508.739136565553
 10
381.1774434968336
 20
508.7021480505208
 10
381.4284900056363
 20
508.6662922857285
 10
381.6736093564129
 20
508.6314793316411
 10
381.9129890005323
 20
508.5976192487241
 10
382.146816389363
 20
508.5646220974431
 10
382.3752789742737
 20
508.5323979382635
 10
382.5985642066332
 20
508.5008568316508
 10
382.81685953781
 20
508.4699088380703
 10
383.0303524191729
 20
508.4394640179878
 10
383.2392303020908
 20
508.4094324318685
 10
383.4436806379323
 20
508.3797241401778
 10
383.6438908780658
 20
508.3502492033813
 10
383.8400484738606
 20
508.3209176819448
 10
384.0323408766851
 20
508.2916396363331
 10
384.2209555379077
 20
508.2623251270121
 10
384.4060799088977
 20
508.2328842144473
 10
384.5878976931467
 20
508.2032315684343
 10
384.7665472223699
 20
508.1733376593057
 10
385.1147736930763
 20
508.1128569289183
 10
385.4516209579313
 20
508.0515071201609
 10
385.777950110297
 20
507.9893539983973
 10
386.0946222435359
 20
507.9264633289916
 10
386.4024984510099
 20
507.8629008773083
 10
386.7024398260816
 20
507.7987324087111
 10
386.9953074621129
 20
507.7340236885643
 10
387.2819624524662
 20
507.6688404822319
 10
387.5632658905038
 20
507.6032485550776
 10
387.840078869588
 20
507.5373136724662
 10
388.3836778243444
 20
507.4046781023271
 10
388.9196480636337
 20
507.2714598947268
  0
DIMENSION
  5
39C0A
330
1E
100
AcDbEntity
  8
30
100
AcDbDimension
280
     0
  2
*D46
 10
395.3610702044974
 20
359.2425276799733
 30
0.0
 11
359.2299199893505
 21
359.2425276799733
 31
0.0
 70
   160
 71
     5
 42
6.500000000000227
 73
     0
 74
     0
 75
     0
  3
STANDARD1
100
AcDbAlignedDimension
 13
388.8610702044971
 23
478.1407088103216
 33
0.0
 14
395.3610702044974
 24
478.3769900213398
 34
0.0
100
AcDbRotatedDimension
  0
LWPOLYLINE
  5
39C0D
330
1E
100
AcDbEntity
  8
130
100
AcDbPolyline
 90
        6
 70
     0
 43
0.0
 10
163.9796877639411
 20
583.3769900213401
 10
163.9796877639408
 20
565.8769900213396
 42
0.4142135623730951
 10
168.9796877639408
 20
560.8769900213396
 10
182.9796877639411
 20
560.8769900213396
 42
0.4142135623730951
 10
187.9796877639412
 20
565.8769900213396
 10
187.9796877639412
 20
583.3769900213401
  0
LWPOLYLINE
  5
39C0E
330
1E
100
AcDbEntity
  8
17
100
AcDbPolyline
 90
        2
 70
     0
 43
0.0
 10
123.4796877639413
 20
432.3769900213398
 10
123.4796877639412
 20
443.3769900213402
  0
CIRCLE
  5
39C0F
330
1E
100
AcDbEntity
  8
24
100
AcDbCircle
 10
-123.4796877639413
 20
437.8769900213398
 30
0.0
 40
4.0
210
0.0
220
0.0
230
-1.0
  0
LWPOLYLINE
  5
39C12
330
1E
100
AcDbEntity
  8
17
100
AcDbPolyline
 90
        2
 70
     0
 43
0.0
 10
70.97968776394137
 20
421.8769900213398
 10
70.97968776394137
 20
435.8769900213401
  0
LWPOLYLINE
  5
39C13
330
1E
100
AcDbEntity
  8
17
100
AcDbPolyline
 90
        2
 70
     0
 43
0.0
 10
63.97968776394137
 20
428.8769900213398
 10
77.97968776394137
 20
428.8769900213398
  0
CIRCLE
  5
39C14
330
1E
100
AcDbEntity
  8
24
100
AcDbCircle
 10
70.97968776394137
 20
428.8769900213398
 30
0.0
 40
5.0
  0
LWPOLYLINE
  5
39C15
330
1E
100
AcDbEntity
  8
17
100
AcDbPolyline
 90
        2
 70
     0
 43
0.0
 10
182.979687763941
 20
428.8769900213398
 10
168.9796877639413
 20
428.8769900213398
  0
LWPOLYLINE
  5
39C16
330
1E
100
AcDbEntity
  8
17
100
AcDbPolyline
 90
        2
 70
     0
 43
0.0
 10
117.979687763941
 20
437.8769900213398
 10
128.9796877639413
 20
437.8769900213398
  0
LWPOLYLINE
  5
39C18
330
1E
100
AcDbEntity
  8
130
100
AcDbPolyline
 90
        6
 70
     0
 43
0.0
 10
82.97968776394137
 20
418.3769900213397
 10
82.97968776394137
 20
435.8769900213401
 42
0.4142135623730951
 10
77.97968776394137
 20
440.8769900213401
 10
63.97968776394137
 20
440.8769900213401
 42
0.4142135623730951
 10
58.97968776394137
 20
435.87699002134
 10
58.97968776394137
 20
418.3769900213397
  0
LWPOLYLINE
  5
39C19
330
1E
100
AcDbEntity
  8
130
100
AcDbPolyline
 90
        6
 70
     0
 43
0.0
 10
93.97968776394106
 20
418.3769900213397
 10
93.97968776394106
 20
435.8769900213401
 42
-0.4142135623730951
 10
98.97968776394106
 20
440.8769900213401
 10
112.979687763941
 20
440.8769900213401
 42
-0.4142135623730951
 10
117.979687763941
 20
435.8769900213401
 10
117.979687763941
 20
418.3769900213397
  0
LWPOLYLINE
  5
39C1A
330
1E
100
AcDbEntity
  8
17
100
AcDbPolyline
 90
        2
 70
     0
 43
0.0
 10
98.97968776394106
 20
428.8769900213398
 10
112.979687763941
 20
428.8769900213398
  0
CIRCLE
  5
39C1B
330
1E
100
AcDbEntity
  8
24
100
AcDbCircle
 10
105.979687763941
 20
428.8769900213398
 30
0.0
 40
5.0
  0
LWPOLYLINE
  5
39C1C
330
1E
100
AcDbEntity
  8
17
100
AcDbPolyline
 90
        2
 70
     0
 43
0.0
 10
133.979687763941
 20
428.8769900213398
 10
147.9796877639413
 20
428.8769900213398
  0
LWPOLYLINE
  5
39C1D
330
1E
100
AcDbEntity
  8
130
100
AcDbPolyline
 90
        6
 70
     0
 43
0.0
 10
128.9796877639413
 20
418.3769900213397
 10
128.979687763941
 20
435.8769900213401
 42
-0.4142135623730951
 10
133.979687763941
 20
440.8769900213401
 10
147.9796877639413
 20
440.8769900213401
 42
-0.4142135623730951
 10
152.9796877639413
 20
435.8769900213401
 10
152.9796877639413
 20
418.3769900213397
  0
LWPOLYLINE
  5
39C1E
330
1E
100
AcDbEntity
  8
17
100
AcDbPolyline
 90
        2
 70
     0
 43
0.0
 10
140.9796877639413
 20
421.8769900213398
 10
140.9796877639413
 20
435.8769900213401
  0
CIRCLE
  5
39C1F
330
1E
100
AcDbEntity
  8
24
100
AcDbCircle
 10
140.9796877639413
 20
428.8769900213398
 30
0.0
 40
5.0
  0
LWPOLYLINE
  5
39C20
330
1E
100
AcDbEntity
  8
17
100
AcDbPolyline
 90
        2
 70
     0
 43
0.0
 10
175.979687763941
 20
421.8769900213398
 10
175.979687763941
 20
435.8769900213401
  0
CIRCLE
  5
39C21
330
1E
100
AcDbEntity
  8
24
100
AcDbCircle
 10
-175.979687763941
 20
428.8769900213398
 30
0.0
 40
5.0
210
0.0
220
0.0
230
-1.0
  0
LWPOLYLINE
  5
39C22
330
1E
100
AcDbEntity
  8
130
100
AcDbPolyline
 90
        6
 70
     0
 43
0.0
 10
163.9796877639412
 20
418.3769900213396
 10
163.9796877639409
 20
435.8769900213397
 42
-0.4142135623730951
 10
168.9796877639408
 20
440.8769900213398
 10
182.9796877639412
 20
440.8769900213398
 42
-0.4142135623730951
 10
187.9796877639412
 20
435.8769900213397
 10
187.9796877639412
 20
418.3769900213396
  0
VIEWPORT
  5
9AC
330
1A
100
AcDbEntity
 67
     1
  8
0
  6
Continuous
348
E4DA
100
AcDbViewport
 10
0.0
 20
0.0
 30
0.0
 40
0.0
 41
0.0
 68
     1
 69
     1
 12
0.0
 22
0.0
 13
0.0
 23
0.0
 14
10.0
 24
10.0
 15
10.0
 25
10.0
 16
0.0
 26
0.0
 36
1.0
 17
0.0
 27
0.0
 37
0.0
 42
50.0
 43
0.0
 44
0.0
 45
0.0
 50
0.0
 51
0.0
 72
   100
 90
    32800
  1

281
     0
 71
     1
 74
     0
110
0.0
120
0.0
130
0.0
111
1.0
121
0.0
131
0.0
112
0.0
122
1.0
132
0.0
 79
     0
146
0.0
170
     0
 61
     5
292
     1
282
     1
141
0.0
142
0.0
 63
   250
421
  3355443
  0
VIEWPORT
  5
E19D
330
1A
100
AcDbEntity
 67
     1
  8
30
348
E4DA
100
AcDbViewport
 10
0.0
 20
0.0
 30
0.0
 40
0.0
 41
0.0
 68
     2
 69
     2
 12
8.653370891979619
 22
137.2805829780177
 13
0.0
 23
0.0
 14
1.0
 24
1.0
 15
10.0
 25
10.0
 16
0.0
 26
0.0
 36
1.0
 17
0.0
 27
0.0
 37
0.0
 42
50.0
 43
0.0
 44
0.0
 45
689.9195596776387
 50
0.0
 51
0.0
 72
   100
 90
    37664
  1

281
     0
 71
     1
 74
     0
110
0.0
120
0.0
130
0.0
111
1.0
121
0.0
131
0.0
112
0.0
122
1.0
132
0.0
 79
     0
146
0.0
170
     0
 61
     5
292
     1
282
     1
141
0.0
142
0.0
 63
   250
421
  3355443
  0
ENDSEC
  0
SECTION
  2
OBJECTS
  0
DICTIONARY
  5
C
330
0
100
AcDbDictionary
281
     1
  3
ACAD_CIP_PREVIOUS_PRODUCT_INFO
350
3AB51
  3
ACAD_COLOR
350
E4E8
  3
ACAD_DETAILVIEWSTYLE
350
3AB4B
  3
ACAD_GROUP
350
D
  3
ACAD_LAYOUT
350
19
  3
ACAD_MATERIAL
350
E4BB
  3
ACAD_MLEADERSTYLE
350
E50D
  3
ACAD_MLINESTYLE
350
16
  3
ACAD_PLOTSETTINGS
350
18
  3
ACAD_PLOTSTYLENAME
350
E
  3
ACAD_SCALELIST
350
E4EB
  3
ACAD_SECTIONVIEWSTYLE
350
3AB49
  3
ACAD_TABLESTYLE
350
E4E9
  3
ACAD_VISUALSTYLE
350
E4D4
  3
ACADDIM
350
6D5E
  3
ACDB_RECOMPOSE_DATA
350
3AC31
  3
ACDBVARIABLEDICTIONARY
350
5697
  3
AEC_PROPERTY_SET_DEFS
350
F8DB
  3
ASE_INDEX_DICTIONARY
350
F8F6
  0
DICTIONARY
  5
12DA0
330
2
100
AcDbDictionary
280
     1
281
     1
  3
ACAD_LAYERSTATES
360
12DA1
  0
DICTIONARY
  5
E512
330
10
100
AcDbDictionary
280
     1
281
     1
  3
ADSK_XREC_LAYER_RECONCILED
360
E513
  0
DICTIONARY
  5
E514
330
2F
100
AcDbDictionary
280
     1
281
     1
  3
ADSK_XREC_LAYER_RECONCILED
360
E515
  0
DICTIONARY
  5
E518
330
35
100
AcDbDictionary
280
     1
281
     1
  3
ADSK_XREC_LAYER_RECONCILED
360
E519
  0
DICTIONARY
  5
E51C
330
3D
100
AcDbDictionary
280
     1
281
     1
  3
ADSK_XREC_LAYER_RECONCILED
360
E51D
  0
DICTIONARY
  5
E51E
330
3A2
100
AcDbDictionary
280
     1
281
     1
  3
ADSK_XREC_LAYER_RECONCILED
360
E51F
  0
DICTIONARY
  5
E520
330
3BBA
100
AcDbDictionary
280
     1
281
     1
  3
ADSK_XREC_LAYER_RECONCILED
360
E521
  0
DICTIONARY
  5
E522
330
67A8
100
AcDbDictionary
280
     1
281
     1
  3
ADSK_XREC_LAYER_RECONCILED
360
E523
  0
DICTIONARY
  5
E524
330
7837
100
AcDbDictionary
280
     1
281
     1
  3
ADSK_XREC_LAYER_RECONCILED
360
E525
  0
DICTIONARY
  5
E526
330
7BC8
100
AcDbDictionary
280
     1
281
     1
  3
ADSK_XREC_LAYER_RECONCILED
360
E527
  0
DICTIONARY
  5
E52A
330
C4FE
100
AcDbDictionary
280
     1
281
     1
  3
ADSK_XREC_LAYER_RECONCILED
360
E52B
  0
DICTIONARY
  5
E530
330
C501
100
AcDbDictionary
280
     1
281
     1
  3
ADSK_XREC_LAYER_RECONCILED
360
E531
  0
DICTIONARY
  5
E534
330
E473
100
AcDbDictionary
280
     1
281
     1
  3
ADSK_XREC_LAYER_RECONCILED
360
E535
  0
DICTIONARY
  5
1106B
330
1106A
100
AcDbDictionary
280
     1
281
     1
  0
DICTIONARY
  5
3828A
330
38289
100
AcDbDictionary
280
     1
281
     1
  0
DICTIONARY
  5
399AE
330
399AD
100
AcDbDictionary
280
     1
281
     1
  0
DICTIONARY
  5
178
330
1E
100
AcDbDictionary
280
     1
281
     1
  3
ACAD_LAYOUTSELFREF
360
9011
  3
ACAD_SORTENTS
360
37C0C
  0
DICTIONARY
  5
17A
330
1A
100
AcDbDictionary
280
     1
281
     1
  3
ACAD_LAYOUTSELFREF
360
9010
  0
DICTIONARY
  5
394E9
330
394AC
100
AcDbDictionary
280
     1
281
     1
  3
ACAD_SORTENTS
360
394EA
  0
XRECORD
  5
3AB51
102
{ACAD_REACTORS
330
C
102
}
330
C
100
AcDbXrecord
280
     1
300
ACDLT
300
2014
300
ACDLT_F_S
  0
DICTIONARY
  5
E4E8
102
{ACAD_REACTORS
330
C
102
}
330
C
100
AcDbDictionary
281
     1
  0
DICTIONARY
  5
3AB4B
102
{ACAD_REACTORS
330
C
102
}
330
C
100
AcDbDictionary
281
     1
  3
Imperial24
350
3AB4C
  0
DICTIONARY
  5
D
102
{ACAD_REACTORS
330
C
102
}
330
C
100
AcDbDictionary
281
     1
  0
DICTIONARY
  5
19
102
{ACAD_REACTORS
330
C
102
}
330
C
100
AcDbDictionary
281
     1
  3
Model
350
904E
  3
ﾚｲｱｳﾄ1
350
904F
  0
DICTIONARY
  5
E4BB
102
{ACAD_REACTORS
330
C
102
}
330
C
100
AcDbDictionary
281
     1
  3
ByBlock
350
E4C4
  3
ByLayer
350
E4BC
  3
Global
350
E4CC
  0
DICTIONARY
  5
E50D
102
{ACAD_REACTORS
330
C
102
}
330
C
100
AcDbDictionary
281
     1
  3
Standard
350
E50E
  0
DICTIONARY
  5
16
102
{ACAD_REACTORS
330
C
102
}
330
C
100
AcDbDictionary
281
     1
  3
STANDARD
350
17
  0
DICTIONARY
  5
18
102
{ACAD_REACTORS
330
C
102
}
330
C
100
AcDbDictionary
281
     1
  0
ACDBDICTIONARYWDFLT
  5
E
102
{ACAD_REACTORS
330
C
102
}
330
C
100
AcDbDictionary
281
     1
  3
Normal
350
F
100
AcDbDictionaryWithDefault
340
F
  0
DICTIONARY
  5
E4EB
102
{ACAD_REACTORS
330
C
102
}
330
C
100
AcDbDictionary
281
     1
  3
A0
350
E4EC
  3
A1
350
E4ED
  3
A2
350
E4EE
  3
A3
350
E4EF
  3
A4
350
E4F0
  3
A5
350
E4F1
  3
A6
350
E4F2
  3
A7
350
E4F3
  3
A8
350
E4F4
  3
A9
350
E4F5
  3
B0
350
E4F6
  3
B1
350
E4F7
  3
B2
350
E4F8
  3
B3
350
E4F9
  3
B4
350
E4FA
  3
B5
350
E4FB
  3
B6
350
E4FC
  3
B7
350
E4FD
  3
B8
350
E4FE
  3
B9
350
E4FF
  3
C0
350
E500
  3
C1
350
E501
  3
C2
350
E502
  3
C3
350
E503
  3
C4
350
E504
  3
C5
350
E505
  3
C6
350
E506
  3
C7
350
E507
  3
C8
350
E508
  3
C9
350
E509
  3
D0
350
E50A
  3
D1
350
E50B
  3
D2
350
E50C
  0
DICTIONARY
  5
3AB49
102
{ACAD_REACTORS
330
C
102
}
330
C
100
AcDbDictionary
281
     1
  3
Imperial24
350
3AB4A
  0
DICTIONARY
  5
E4E9
102
{ACAD_REACTORS
330
C
102
}
330
C
100
AcDbDictionary
281
     1
  3
Standard
350
E4EA
  0
DICTIONARY
  5
E4D4
102
{ACAD_REACTORS
330
C
102
}
330
C
100
AcDbDictionary
281
     1
  3
2dWireframe
350
E4DA
  3
3D Hidden
350
E4DC
  3
3dWireframe
350
E4DB
  3
Basic
350
E4D9
  3
Brighten
350
E4E0
  3
ColorChange
350
E4E4
  3
Conceptual
350
E4DD
  3
Dim
350
E4DF
  3
EdgeColorOff
350
E4E7
  3
Facepattern
350
E4E3
  3
Flat
350
E4D5
  3
FlatWithEdges
350
E4D6
  3
Gouraud
350
E4D7
  3
GouraudWithEdges
350
E4D8
  3
Hidden
350
3AB43
  3
JitterOff
350
E4E5
  3
Linepattern
350
E4E2
  3
OverhangOff
350
E4E6
  3
Realistic
350
E4DE
  3
Shaded
350
3AB48
  3
Shaded with edges
350
3AB47
  3
Shades of Gray
350
3AB44
  3
Sketchy
350
3AB45
  3
Thicken
350
E4E1
  3
Wireframe
350
3AB42
  3
X-Ray
350
3AB46
  0
XRECORD
  5
6D5E
102
{ACAD_REACTORS
330
C
102
}
330
C
100
AcDbXrecord
280
     1
 90
   990106
  3

 60
     0
 61
     0
 62
     1
 63
     3
 64
     0
 65
     0
 66
     0
 67
     3
 68
     1
 69
     0
 70
     0
 71
     0
 72
     0
 40
0.0
170
     0
340
0
  0
XRECORD
  5
3AC31
102
{ACAD_REACTORS
330
C
102
}
330
C
100
AcDbXrecord
280
     1
 90
        1
330
E4EA
330
3AB4A
330
3AB4C
  0
DICTIONARY
  5
5697
102
{ACAD_REACTORS
330
C
102
}
330
C
100
AcDbDictionary
281
     1
  3
CANNOSCALE
350
F8C1
  3
CMLEADERSTYLE
350
F8C0
  3
CTABLESTYLE
350
F8BF
  3
CVIEWDETAILSTYLE
350
3AB88
  3
CVIEWSECTIONSTYLE
350
3AB89
  3
DIMASSOC
350
5698
  3
INDEXCTL
350
F8C3
  3
LAYEREVAL
350
37FF5
  3
LAYERNOTIFY
350
37FF6
  3
LIGHTINGUNITS
350
37FF4
  3
MSLTSCALE
350
37FF3
  3
SORTENTS
350
F8C2
  0
DICTIONARY
  5
F8DB
102
{ACAD_REACTORS
330
C
102
}
330
C
100
AcDbDictionary
281
     1
  0
DICTIONARY
  5
F8F6
102
{ACAD_REACTORS
330
C
102
}
330
C
100
AcDbDictionary
281
     1
  3
ASEBlockHierarchyIndexRecord
350
F8F7
1001
DCO15
1040
1706442467.984
  0
DICTIONARY
  5
12DA1
102
{ACAD_REACTORS
330
12DA0
102
}
330
12DA0
100
AcDbDictionary
281
     1
  0
XRECORD
  5
E513
102
{ACAD_REACTORS
330
E512
102
}
330
E512
100
AcDbXrecord
280
     1
290
     1
  0
XRECORD
  5
E515
102
{ACAD_REACTORS
330
E514
102
}
330
E514
100
AcDbXrecord
280
     1
290
     1
  0
XRECORD
  5
E519
102
{ACAD_REACTORS
330
E518
102
}
330
E518
100
AcDbXrecord
280
     1
290
     1
  0
XRECORD
  5
E51D
102
{ACAD_REACTORS
330
E51C
102
}
330
E51C
100
AcDbXrecord
280
     1
290
     1
  0
XRECORD
  5
E51F
102
{ACAD_REACTORS
330
E51E
102
}
330
E51E
100
AcDbXrecord
280
     1
290
     1
  0
XRECORD
  5
E521
102
{ACAD_REACTORS
330
E520
102
}
330
E520
100
AcDbXrecord
280
     1
290
     1
  0
XRECORD
  5
E523
102
{ACAD_REACTORS
330
E522
102
}
330
E522
100
AcDbXrecord
280
     1
290
     1
  0
XRECORD
  5
E525
102
{ACAD_REACTORS
330
E524
102
}
330
E524
100
AcDbXrecord
280
     1
290
     1
  0
XRECORD
  5
E527
102
{ACAD_REACTORS
330
E526
102
}
330
E526
100
AcDbXrecord
280
     1
290
     1
  0
XRECORD
  5
E52B
102
{ACAD_REACTORS
330
E52A
102
}
330
E52A
100
AcDbXrecord
280
     1
290
     1
  0
XRECORD
  5
E531
102
{ACAD_REACTORS
330
E530
102
}
330
E530
100
AcDbXrecord
280
     1
290
     1
  0
XRECORD
  5
E535
102
{ACAD_REACTORS
330
E534
102
}
330
E534
100
AcDbXrecord
280
     1
290
     1
  0
XRECORD
  5
9011
102
{ACAD_REACTORS
330
178
102
}
330
178
100
AcDbXrecord
280
     1
340
1E
  0
SORTENTSTABLE
  5
37C0C
102
{ACAD_REACTORS
330
178
102
}
330
178
100
AcDbSortentsTable
330
1E
  0
XRECORD
  5
9010
102
{ACAD_REACTORS
330
17A
102
}
330
17A
100
AcDbXrecord
280
     1
340
1A
  0
SORTENTSTABLE
  5
394EA
102
{ACAD_REACTORS
330
394E9
102
}
330
394E9
100
AcDbSortentsTable
330
394AC
  0
ACDBDETAILVIEWSTYLE
  5
3AB4C
102
{ACAD_XDICTIONARY
360
3AB8E
102
}
102
{ACAD_REACTORS
330
3AB4B
102
}
330
3AB4B
100
AcDbModelDocViewStyle
 70
     0
  3
Imperial24
290
     0
100
AcDbDetailViewStyle
 70
     0
 71
     0
 90
        3
 71
     1
340
11
 62
   256
 40
0.24
340
0
 62
   256
 40
0.24
300

 40
0.36
280
     3
 71
     2
340
15
 90
       25
 62
   256
 71
     3
340
11
 62
   256
 40
0.24
 90
        1
 40
0.75
 90
        1
300
%<\AcVar ViewType \f "%tc1">% %<\AcVar ViewDetailId>%\PSCALE %<\AcVar ViewScale \f "%sn">%
 71
     4
340
15
 90
       25
 62
   256
340
15
 90
       25
 62
   256
280
     0
  0
LAYOUT
  5
904E
102
{ACAD_XDICTIONARY
360
13816
102
}
102
{ACAD_REACTORS
330
19
102
}
330
19
100
AcDbPlotSettings
  1

  2
Canon LBP3800 LIPSLX
  4
A4
  6
OLE1
 40
5.873749732971191
 41
5.873747825622557
 42
5.873748779296875
 43
5.873748779296875
 44
209.9733276367186
 45
296.9259948730469
 46
4.368652168726285
 47
0.8644569253958136
 48
0.0
 49
0.0
140
0.0
141
0.0
142
1.0
143
2.5
 70
 11940
 72
     1
 73
     0
 74
     1
  7
monochrome.ctb
 75
     0
147
0.4
 76
     0
 77
     2
 78
   300
148
203.0887703810449
149
220.5380198621869
100
AcDbLayout
  1
Model
 70
     1
 71
     0
 10
0.0
 20
0.0
 11
12.0
 21
9.0
 12
0.0
 22
0.0
 32
0.0
 14
0.0
 24
0.0
 34
0.0
 15
0.0
 25
0.0
 35
0.0
146
0.0
 13
0.0
 23
0.0
 33
0.0
 16
1.0
 26
0.0
 36
0.0
 17
0.0
 27
1.0
 37
0.0
 76
     0
330
1E
331
12C00
1001
ACAD_PSEXT
1000
Canon LBP3800 LIPSLX
1000
Canon LBP3800 LIPSLX
1000
IP_192.168.54.50
1000

1070
     0
  0
LAYOUT
  5
904F
102
{ACAD_REACTORS
330
19
102
}
330
19
100
AcDbPlotSettings
  1

  2
none_device
  4
Letter_(8.50_x_11.00_Inches)
  6

 40
6.349999904632567
 41
6.349999904632567
 42
6.350006103515625
 43
6.350006103515625
 44
215.8999938964844
 45
279.3999938964844
 46
0.0
 47
0.0
 48
0.0
 49
0.0
140
0.0
141
0.0
142
1.0
143
1.0
 70
   688
 72
     0
 73
     1
 74
     1
  7
monochrome.stb
 75
     0
147
1.0
 76
     0
 77
     2
 78
   300
148
0.0
149
0.0
100
AcDbLayout
  1
ﾚｲｱｳﾄ1
 70
     1
 71
     1
 10
-0.2500002402958907
 20
-0.2499999962453767
 11
10.74999951940822
 21
8.249999763458731
 12
0.0
 22
0.0
 32
0.0
 14
0.0
 24
0.0
 34
0.0
 15
0.0
 25
0.0
 35
0.0
146
0.0
 13
0.0
 23
0.0
 33
0.0
 16
1.0
 26
0.0
 36
0.0
 17
0.0
 27
1.0
 37
0.0
 76
     0
330
1A
331
9AC
1001
ACAD_PSEXT
1000
なし
1000
なし
1000
適切ではありません
1000
新しいプロッタ環境設定名を選択しない限り、レイアウトは印刷されません。
1070
     0
  0
MATERIAL
  5
E4C4
102
{ACAD_XDICTIONARY
360
E4C5
102
}
102
{ACAD_REACTORS
330
E4BB
102
}
330
E4BB
100
AcDbMaterial
  1
ByBlock
 72
     0
 43
0.0208333333333333
 43
0.0
 43
0.0
 43
0.0
 43
0.0
 43
0.0208333333333333
 43
0.0
 43
0.0
 43
0.0
 43
0.0
 43
1.0
 43
0.0
 43
0.0
 43
0.0
 43
0.0
 43
1.0
 77
     0
 47
0.0208333333333333
 47
0.0
 47
0.0
 47
0.0
 47
0.0
 47
0.0208333333333333
 47
0.0
 47
0.0
 47
0.0
 47
0.0
 47
1.0
 47
0.0
 47
0.0
 47
0.0
 47
0.0
 47
1.0
171
     0
 49
0.0208333333333333
 49
0.0
 49
0.0
 49
0.0
 49
0.0
 49
0.0208333333333333
 49
0.0
 49
0.0
 49
0.0
 49
0.0
 49
1.0
 49
0.0
 49
0.0
 49
0.0
 49
0.0
 49
1.0
175
     0
142
0.0208333333333333
142
0.0
142
0.0
142
0.0
142
0.0
142
0.0208333333333333
142
0.0
142
0.0
142
0.0
142
0.0
142
1.0
142
0.0
142
0.0
142
0.0
142
0.0
142
1.0
179
     0
144
0.0208333333333333
144
0.0
144
0.0
144
0.0
144
0.0
144
0.0208333333333333
144
0.0
144
0.0
144
0.0
144
0.0
144
1.0
144
0.0
144
0.0
144
0.0
144
0.0
144
1.0
147
0.0208333333333333
147
0.0
147
0.0
147
0.0
147
0.0
147
0.0208333333333333
147
0.0
147
0.0
147
0.0
147
0.0
147
1.0
147
0.0
147
0.0
147
0.0
147
0.0
147
1.0
  0
MATERIAL
  5
E4BC
102
{ACAD_XDICTIONARY
360
E4BD
102
}
102
{ACAD_REACTORS
330
E4BB
102
}
330
E4BB
100
AcDbMaterial
  1
ByLayer
 72
     0
 43
0.0208333333333333
 43
0.0
 43
0.0
 43
0.0
 43
0.0
 43
0.0208333333333333
 43
0.0
 43
0.0
 43
0.0
 43
0.0
 43
1.0
 43
0.0
 43
0.0
 43
0.0
 43
0.0
 43
1.0
 77
     0
 47
0.0208333333333333
 47
0.0
 47
0.0
 47
0.0
 47
0.0
 47
0.0208333333333333
 47
0.0
 47
0.0
 47
0.0
 47
0.0
 47
1.0
 47
0.0
 47
0.0
 47
0.0
 47
0.0
 47
1.0
171
     0
 49
0.0208333333333333
 49
0.0
 49
0.0
 49
0.0
 49
0.0
 49
0.0208333333333333
 49
0.0
 49
0.0
 49
0.0
 49
0.0
 49
1.0
 49
0.0
 49
0.0
 49
0.0
 49
0.0
 49
1.0
175
     0
142
0.0208333333333333
142
0.0
142
0.0
142
0.0
142
0.0
142
0.0208333333333333
142
0.0
142
0.0
142
0.0
142
0.0
142
1.0
142
0.0
142
0.0
142
0.0
142
0.0
142
1.0
179
     0
144
0.0208333333333333
144
0.0
144
0.0
144
0.0
144
0.0
144
0.0208333333333333
144
0.0
144
0.0
144
0.0
144
0.0
144
1.0
144
0.0
144
0.0
144
0.0
144
0.0
144
1.0
147
0.0208333333333333
147
0.0
147
0.0
147
0.0
147
0.0
147
0.0208333333333333
147
0.0
147
0.0
147
0.0
147
0.0
147
1.0
147
0.0
147
0.0
147
0.0
147
0.0
147
1.0
  0
MATERIAL
  5
E4CC
102
{ACAD_XDICTIONARY
360
E4CD
102
}
102
{ACAD_REACTORS
330
E4BB
102
}
330
E4BB
100
AcDbMaterial
  1
Global
 72
     0
 43
0.0208333333333333
 43
0.0
 43
0.0
 43
0.0
 43
0.0
 43
0.0208333333333333
 43
0.0
 43
0.0
 43
0.0
 43
0.0
 43
1.0
 43
0.0
 43
0.0
 43
0.0
 43
0.0
 43
1.0
 77
     0
 47
0.0208333333333333
 47
0.0
 47
0.0
 47
0.0
 47
0.0
 47
0.0208333333333333
 47
0.0
 47
0.0
 47
0.0
 47
0.0
 47
1.0
 47
0.0
 47
0.0
 47
0.0
 47
0.0
 47
1.0
171
     0
 49
0.0208333333333333
 49
0.0
 49
0.0
 49
0.0
 49
0.0
 49
0.0208333333333333
 49
0.0
 49
0.0
 49
0.0
 49
0.0
 49
1.0
 49
0.0
 49
0.0
 49
0.0
 49
0.0
 49
1.0
175
     0
142
0.0208333333333333
142
0.0
142
0.0
142
0.0
142
0.0
142
0.0208333333333333
142
0.0
142
0.0
142
0.0
142
0.0
142
1.0
142
0.0
142
0.0
142
0.0
142
0.0
142
1.0
179
     0
144
0.0208333333333333
144
0.0
144
0.0
144
0.0
144
0.0
144
0.0208333333333333
144
0.0
144
0.0
144
0.0
144
0.0
144
1.0
144
0.0
144
0.0
144
0.0
144
0.0
144
1.0
147
0.0208333333333333
147
0.0
147
0.0
147
0.0
147
0.0
147
0.0208333333333333
147
0.0
147
0.0
147
0.0
147
0.0
147
1.0
147
0.0
147
0.0
147
0.0
147
0.0
147
1.0
  0
MLEADERSTYLE
  5
E50E
102
{ACAD_REACTORS
330
E50D
102
}
330
E50D
100
AcDbMLeaderStyle
179
     2
170
     2
171
     1
172
     0
 90
        2
 40
0.0
 41
0.0
173
     1
 91
-1056964608
340
13
 92
       -2
290
     1
 42
0.09
291
     1
 43
0.36
  3
Standard
 44
0.18
300

342
11
174
     1
178
     6
175
     1
176
     0
 93
-1056964608
 45
0.18
292
     0
297
     0
 46
0.18
 94
-1056964608
 47
1.0
 49
1.0
140
1.0
293
     1
141
0.0
294
     1
177
     0
142
1.0
295
     0
296
     0
143
0.125
271
     0
272
     9
273
     9
298
     0
1001
ACAD_MLEADERVER
1070
     2
  0
MLINESTYLE
  5
17
102
{ACAD_REACTORS
330
16
102
}
330
16
100
AcDbMlineStyle
  2
STANDARD
 70
     0
  3

 62
   256
 51
90.0
 52
90.0
 71
     2
 49
0.5
 62
   256
  6
BYLAYER
 49
-0.5
 62
   256
  6
BYLAYER
  0
ACDBPLACEHOLDER
  5
F
102
{ACAD_REACTORS
330
E
102
}
330
E
  0
SCALE
  5
E4EC
102
{ACAD_REACTORS
330
E4EB
102
}
330
E4EB
100
AcDbScale
 70
     0
300
1:1
140
1.0
141
1.0
290
     1
  0
SCALE
  5
E4ED
102
{ACAD_REACTORS
330
E4EB
102
}
330
E4EB
100
AcDbScale
 70
     0
300
1:2
140
1.0
141
2.0
290
     0
  0
SCALE
  5
E4EE
102
{ACAD_REACTORS
330
E4EB
102
}
330
E4EB
100
AcDbScale
 70
     0
300
1:4
140
1.0
141
4.0
290
     0
  0
SCALE
  5
E4EF
102
{ACAD_REACTORS
330
E4EB
102
}
330
E4EB
100
AcDbScale
 70
     0
300
1:5
140
1.0
141
5.0
290
     0
  0
SCALE
  5
E4F0
102
{ACAD_REACTORS
330
E4EB
102
}
330
E4EB
100
AcDbScale
 70
     0
300
1:8
140
1.0
141
8.0
290
     0
  0
SCALE
  5
E4F1
102
{ACAD_REACTORS
330
E4EB
102
}
330
E4EB
100
AcDbScale
 70
     0
300
1:10
140
1.0
141
10.0
290
     0
  0
SCALE
  5
E4F2
102
{ACAD_REACTORS
330
E4EB
102
}
330
E4EB
100
AcDbScale
 70
     0
300
1:16
140
1.0
141
16.0
290
     0
  0
SCALE
  5
E4F3
102
{ACAD_REACTORS
330
E4EB
102
}
330
E4EB
100
AcDbScale
 70
     0
300
1:20
140
1.0
141
20.0
290
     0
  0
SCALE
  5
E4F4
102
{ACAD_REACTORS
330
E4EB
102
}
330
E4EB
100
AcDbScale
 70
     0
300
1:30
140
1.0
141
30.0
290
     0
  0
SCALE
  5
E4F5
102
{ACAD_REACTORS
330
E4EB
102
}
330
E4EB
100
AcDbScale
 70
     0
300
1:40
140
1.0
141
40.0
290
     0
  0
SCALE
  5
E4F6
102
{ACAD_REACTORS
330
E4EB
102
}
330
E4EB
100
AcDbScale
 70
     0
300
1:50
140
1.0
141
50.0
290
     0
  0
SCALE
  5
E4F7
102
{ACAD_REACTORS
330
E4EB
102
}
330
E4EB
100
AcDbScale
 70
     0
300
1:100
140
1.0
141
100.0
290
     0
  0
SCALE
  5
E4F8
102
{ACAD_REACTORS
330
E4EB
102
}
330
E4EB
100
AcDbScale
 70
     0
300
2:1
140
2.0
141
1.0
290
     0
  0
SCALE
  5
E4F9
102
{ACAD_REACTORS
330
E4EB
102
}
330
E4EB
100
AcDbScale
 70
     0
300
4:1
140
4.0
141
1.0
290
     0
  0
SCALE
  5
E4FA
102
{ACAD_REACTORS
330
E4EB
102
}
330
E4EB
100
AcDbScale
 70
     0
300
8:1
140
8.0
141
1.0
290
     0
  0
SCALE
  5
E4FB
102
{ACAD_REACTORS
330
E4EB
102
}
330
E4EB
100
AcDbScale
 70
     0
300
10:1
140
10.0
141
1.0
290
     0
  0
SCALE
  5
E4FC
102
{ACAD_REACTORS
330
E4EB
102
}
330
E4EB
100
AcDbScale
 70
     0
300
100:1
140
100.0
141
1.0
290
     0
  0
SCALE
  5
E4FD
102
{ACAD_REACTORS
330
E4EB
102
}
330
E4EB
100
AcDbScale
 70
     0
300
1/128" = 1'-0"
140
0.0078125
141
12.0
290
     0
  0
SCALE
  5
E4FE
102
{ACAD_REACTORS
330
E4EB
102
}
330
E4EB
100
AcDbScale
 70
     0
300
1/64" = 1'-0"
140
0.015625
141
12.0
290
     0
  0
SCALE
  5
E4FF
102
{ACAD_REACTORS
330
E4EB
102
}
330
E4EB
100
AcDbScale
 70
     0
300
1/32" = 1'-0"
140
0.03125
141
12.0
290
     0
  0
SCALE
  5
E500
102
{ACAD_REACTORS
330
E4EB
102
}
330
E4EB
100
AcDbScale
 70
     0
300
1/16" = 1'-0"
140
0.0625
141
12.0
290
     0
  0
SCALE
  5
E501
102
{ACAD_REACTORS
330
E4EB
102
}
330
E4EB
100
AcDbScale
 70
     0
300
3/32" = 1'-0"
140
0.09375
141
12.0
290
     0
  0
SCALE
  5
E502
102
{ACAD_REACTORS
330
E4EB
102
}
330
E4EB
100
AcDbScale
 70
     0
300
1/8" = 1'-0"
140
0.125
141
12.0
290
     0
  0
SCALE
  5
E503
102
{ACAD_REACTORS
330
E4EB
102
}
330
E4EB
100
AcDbScale
 70
     0
300
3/16" = 1'-0"
140
0.1875
141
12.0
290
     0
  0
SCALE
  5
E504
102
{ACAD_REACTORS
330
E4EB
102
}
330
E4EB
100
AcDbScale
 70
     0
300
1/4" = 1'-0"
140
0.25
141
12.0
290
     0
  0
SCALE
  5
E505
102
{ACAD_REACTORS
330
E4EB
102
}
330
E4EB
100
AcDbScale
 70
     0
300
3/8" = 1'-0"
140
0.375
141
12.0
290
     0
  0
SCALE
  5
E506
102
{ACAD_REACTORS
330
E4EB
102
}
330
E4EB
100
AcDbScale
 70
     0
300
1/2" = 1'-0"
140
0.5
141
12.0
290
     0
  0
SCALE
  5
E507
102
{ACAD_REACTORS
330
E4EB
102
}
330
E4EB
100
AcDbScale
 70
     0
300
3/4" = 1'-0"
140
0.75
141
12.0
290
     0
  0
SCALE
  5
E508
102
{ACAD_REACTORS
330
E4EB
102
}
330
E4EB
100
AcDbScale
 70
     0
300
1" = 1'-0"
140
1.0
141
12.0
290
     0
  0
SCALE
  5
E509
102
{ACAD_REACTORS
330
E4EB
102
}
330
E4EB
100
AcDbScale
 70
     0
300
1-1/2" = 1'-0"
140
1.5
141
12.0
290
     0
  0
SCALE
  5
E50A
102
{ACAD_REACTORS
330
E4EB
102
}
330
E4EB
100
AcDbScale
 70
     0
300
3" = 1'-0"
140
3.0
141
12.0
290
     0
  0
SCALE
  5
E50B
102
{ACAD_REACTORS
330
E4EB
102
}
330
E4EB
100
AcDbScale
 70
     0
300
6" = 1'-0"
140
6.0
141
12.0
290
     0
  0
SCALE
  5
E50C
102
{ACAD_REACTORS
330
E4EB
102
}
330
E4EB
100
AcDbScale
 70
     0
300
1'-0" = 1'-0"
140
12.0
141
12.0
290
     0
  0
ACDBSECTIONVIEWSTYLE
  5
3AB4A
102
{ACAD_XDICTIONARY
360
3AB8C
102
}
102
{ACAD_REACTORS
330
3AB49
102
}
330
3AB49
100
AcDbModelDocViewStyle
 70
     0
  3
Imperial24
290
     0
100
AcDbSectionViewStyle
 70
     0
 71
     0
 90
       78
 71
     1
340
11
 62
   256
 40
0.24
340
0
340
0
 62
   256
 40
0.24
300
I, O, Q, S, X, Z
 40
0.48
 90
        3
 40
0.18
 90
        1
 71
     2
340
15
 90
       25
 62
   256
340
15
 90
       50
 62
   256
 40
0.24
 40
0.0
 40
0.24
 71
     3
340
11
 62
   256
 40
0.24
 90
        1
 40
0.75
 90
        1
300
%<\AcVar ViewType \f "%tc1">% %<\AcVar ViewSectionStartId>%-%<\AcVar ViewSectionEndId>%\PSCALE %<\AcVar ViewScale \f "%sn">%
 71
     4
 62
   256
 62
   257
300
ANSI31
 40
1.0
 90
        0
290
     0
290
     0
 90
        6
 40
0.0
 40
1.570796326794896
 40
0.2617993877991494
 40
1.308996938995747
 40
-0.2617993877991494
 40
1.832595714594044
  0
TABLESTYLE
  5
E4EA
102
{ACAD_XDICTIONARY
360
F86C
102
}
102
{ACAD_REACTORS
330
E4E9
102
}
330
E4E9
100
AcDbTableStyle
280
     0
  3
Standard
 70
     0
 71
     0
 40
0.06
 41
0.06
280
     0
281
     0
  7
STANDARD
140
0.18
170
     2
 62
     0
 63
     7
283
     0
 90
      512
 91
        0
  1

274
    -2
284
     1
 64
     0
275
    -2
285
     1
 65
     0
276
    -2
286
     1
 66
     0
277
    -2
287
     1
 67
     0
278
    -2
288
     1
 68
     0
279
    -2
289
     1
 69
     0
  7
STANDARD
140
0.25
170
     5
 62
     0
 63
     7
283
     0
 90
      512
 91
        0
  1

274
    -2
284
     1
 64
     0
275
    -2
285
     1
 65
     0
276
    -2
286
     1
 66
     0
277
    -2
287
     1
 67
     0
278
    -2
288
     1
 68
     0
279
    -2
289
     1
 69
     0
  7
STANDARD
140
0.18
170
     5
 62
     0
 63
     7
283
     0
 90
      512
 91
        0
  1

274
    -2
284
     1
 64
     0
275
    -2
285
     1
 65
     0
276
    -2
286
     1
 66
     0
277
    -2
287
     1
 67
     0
278
    -2
288
     1
 68
     0
279
    -2
289
     1
 69
     0
  0
VISUALSTYLE
  5
E4DA
102
{ACAD_REACTORS
330
E4D4
102
}
330
E4D4
100
AcDbVisualStyle
  2

 70
     4
177
     3
291
     0
 70
    58
 90
        0
176
     1
 90
        2
176
     1
 90
        0
176
     1
 90
        0
176
     1
 40
0.6
176
     1
 40
30.0
176
     1
 62
     7
176
     1
 90
        1
176
     1
 90
        4
176
     1
 62
     7
176
     1
 62
   257
176
     1
 90
        1
176
     1
 90
        1
176
     1
 40
1.0
176
     1
 90
        0
176
     1
 62
   257
176
     1
 40
1.0
176
     1
 90
        1
176
     1
 90
        6
176
     1
 90
        2
176
     1
 62
     7
176
     1
 90
        5
176
     1
 90
        0
176
     1
 90
        0
176
     1
290
     0
176
     1
 90
        1
176
     1
 40
0.0
176
     1
 90
        0
176
     1
290
     1
176
     1
290
     1
176
     1
290
     0
176
     1
290
     0
176
     1
290
     0
176
     1
290
     0
176
     1
290
     0
176
     1
290
     0
176
     1
290
     0
176
     1
 90
       50
176
     1
 40
0.0
176
     1
 40
1.0
176
     1
 90
        0
176
     1
 62
    18
176
     1
 90
       50
176
     1
 90
        3
176
     1
 62
     5
420
      255
176
     1
290
     0
176
     1
 90
       50
176
     1
 90
       50
176
     1
 90
       50
176
     1
290
     0
176
     1
 90
       50
176
     1
 62
   256
176
     0
 40
1.0
176
     0
 90
        2
176
     1
  1
strokes_ogs.tif
176
     1
290
     0
176
     1
 40
1.0
176
     1
 40
1.0
176
     1
  0
VISUALSTYLE
  5
E4DC
102
{ACAD_REACTORS
330
E4D4
102
}
330
E4D4
100
AcDbVisualStyle
  2

 70
     6
177
     3
291
     0
 70
    58
 90
        1
176
     1
 90
        2
176
     1
 90
        2
176
     1
 90
        0
176
     1
 40
0.6
176
     1
 40
30.0
176
     1
 62
     7
176
     1
 90
        2
176
     1
 90
        2
176
     1
 62
     7
176
     1
 62
   257
176
     1
 90
        2
176
     1
 90
        1
176
     1
 40
179.0
176
     1
 90
        0
176
     1
 62
   257
176
     1
 40
1.0
176
     1
 90
        1
176
     1
 90
        6
176
     1
 90
        2
176
     1
 62
     7
176
     1
 90
        3
176
     1
 90
        0
176
     1
 90
        0
176
     1
290
     0
176
     1
 90
        1
176
     1
 40
0.0
176
     1
 90
        0
176
     1
290
     0
176
     1
290
     1
176
     1
290
     1
176
     1
290
     0
176
     1
290
     0
176
     1
290
     0
176
     1
290
     0
176
     1
290
     0
176
     1
290
     0
176
     1
 90
       50
176
     1
 40
0.0
176
     1
 40
1.0
176
     1
 90
        0
176
     1
 62
    18
176
     1
 90
       50
176
     1
 90
        3
176
     1
 62
     5
420
      255
176
     1
290
     0
176
     1
 90
       50
176
     1
 90
       50
176
     1
 90
       50
176
     1
290
     0
176
     1
 90
       50
176
     1
 62
   256
176
     0
 40
1.0
176
     0
 90
        2
176
     1
  1
strokes_ogs.tif
176
     1
290
     0
176
     1
 40
1.0
176
     1
 40
1.0
176
     1
  0
VISUALSTYLE
  5
E4DB
102
{ACAD_REACTORS
330
E4D4
102
}
330
E4D4
100
AcDbVisualStyle
  2

 70
     5
177
     3
291
     0
 70
    58
 90
        0
176
     1
 90
        2
176
     1
 90
        0
176
     1
 90
        0
176
     1
 40
0.6
176
     1
 40
30.0
176
     1
 62
     7
176
     1
 90
        1
176
     1
 90
        4
176
     1
 62
     7
176
     1
 62
   257
176
     1
 90
        1
176
     1
 90
        1
176
     1
 40
1.0
176
     1
 90
        0
176
     1
 62
   257
176
     1
 40
1.0
176
     1
 90
        1
176
     1
 90
        6
176
     1
 90
        2
176
     1
 62
     7
176
     1
 90
        5
176
     1
 90
        0
176
     1
 90
        0
176
     1
290
     0
176
     1
 90
        1
176
     1
 40
0.0
176
     1
 90
        0
176
     1
290
     0
176
     1
290
     1
176
     1
290
     1
176
     1
290
     0
176
     1
290
     0
176
     1
290
     0
176
     1
290
     0
176
     1
290
     0
176
     1
290
     0
176
     1
 90
       50
176
     1
 40
0.0
176
     1
 40
1.0
176
     1
 90
        0
176
     1
 62
    18
176
     1
 90
       50
176
     1
 90
        3
176
     1
 62
     5
420
      255
176
     1
290
     0
176
     1
 90
       50
176
     1
 90
       50
176
     1
 90
       50
176
     1
290
     0
176
     1
 90
       50
176
     1
 62
   256
176
     0
 40
1.0
176
     0
 90
        2
176
     1
  1
strokes_ogs.tif
176
     1
290
     0
176
     1
 40
1.0
176
     1
 40
1.0
176
     1
  0
VISUALSTYLE
  5
E4D9
102
{ACAD_REACTORS
330
E4D4
102
}
330
E4D4
100
AcDbVisualStyle
  2

 70
     7
177
     3
291
     1
 70
    58
 90
        1
176
     1
 90
        0
176
     1
 90
        1
176
     1
 90
        0
176
     1
 40
0.6
176
     1
 40
30.0
176
     1
 62
     7
176
     1
 90
        0
176
     1
 90
        4
176
     1
 62
     7
176
     1
 62
   257
176
     1
 90
        1
176
     1
 90
        1
176
     1
 40
1.0
176
     1
 90
        8
176
     1
 62
     7
176
     1
 40
1.0
176
     1
 90
        1
176
     1
 90
        6
176
     1
 90
        2
176
     1
 62
     7
176
     1
 90
        5
176
     1
 90
        0
176
     1
 90
        0
176
     1
290
     0
176
     1
 90
        1
176
     1
 40
0.0
176
     1
 90
        0
176
     1
290
     0
176
     1
290
     1
176
     1
290
     1
176
     1
290
     0
176
     1
290
     0
176
     1
290
     0
176
     1
290
     0
176
     1
290
     0
176
     1
290
     0
176
     1
 90
       50
176
     1
 40
0.0
176
     1
 40
1.0
176
     1
 90
        0
176
     1
 62
    18
176
     1
 90
       50
176
     1
 90
        3
176
     1
 62
     5
420
      255
176
     1
290
     0
176
     1
 90
       50
176
     1
 90
       50
176
     1
 90
       50
176
     1
290
     0
176
     1
 90
       50
176
     1
 62
   256
176
     0
 40
1.0
176
     0
 90
        2
176
     1
  1
strokes_ogs.tif
176
     1
290
     0
176
     1
 40
1.0
176
     1
 40
1.0
176
     1
  0
VISUALSTYLE
  5
E4E0
102
{ACAD_REACTORS
330
E4D4
102
}
330
E4D4
100
AcDbVisualStyle
  2

 70
    12
177
     3
291
     1
 70
    58
 90
        2
176
     1
 90
        2
176
     1
 90
        0
176
     1
 90
        0
176
     1
 40
0.6
176
     1
 40
30.0
176
     1
 62
     7
176
     1
 90
        1
176
     1
 90
        4
176
     1
 62
     7
176
     1
 62
   257
176
     1
 90
        1
176
     1
 90
        1
176
     1
 40
1.0
176
     1
 90
        8
176
     1
 62
     7
176
     1
 40
1.0
176
     1
 90
        1
176
     1
 90
        6
176
     1
 90
        2
176
     1
 62
     7
176
     1
 90
        5
176
     1
 90
        0
176
     1
 90
        0
176
     1
290
     0
176
     1
 90
        1
176
     1
 40
50.0
176
     1
 90
        0
176
     1
290
     0
176
     1
290
     1
176
     1
290
     1
176
     1
290
     0
176
     1
290
     0
176
     1
290
     0
176
     1
290
     0
176
     1
290
     0
176
     1
290
     0
176
     1
 90
       50
176
     1
 40
0.0
176
     1
 40
1.0
176
     1
 90
        0
176
     1
 62
    18
176
     1
 90
       50
176
     1
 90
        3
176
     1
 62
     5
420
      255
176
     1
290
     0
176
     1
 90
       50
176
     1
 90
       50
176
     1
 90
       50
176
     1
290
     0
176
     1
 90
       50
176
     1
 62
   256
176
     0
 40
1.0
176
     0
 90
        2
176
     1
  1
strokes_ogs.tif
176
     1
290
     0
176
     1
 40
1.0
176
     1
 40
1.0
176
     1
  0
VISUALSTYLE
  5
E4E4
102
{ACAD_REACTORS
330
E4D4
102
}
330
E4D4
100
AcDbVisualStyle
  2

 70
    16
177
     3
291
     1
 70
    58
 90
        2
176
     1
 90
        2
176
     1
 90
        3
176
     1
 90
        0
176
     1
 40
0.6
176
     1
 40
30.0
176
     1
 62
     8
176
     1
 90
        1
176
     1
 90
        4
176
     1
 62
     7
176
     1
 62
   257
176
     1
 90
        1
176
     1
 90
        1
176
     1
 40
1.0
176
     1
 90
        8
176
     1
 62
     8
176
     1
 40
1.0
176
     1
 90
        1
176
     1
 90
        6
176
     1
 90
        2
176
     1
 62
     7
176
     1
 90
        5
176
     1
 90
        0
176
     1
 90
        0
176
     1
290
     0
176
     1
 90
        1
176
     1
 40
0.0
176
     1
 90
        0
176
     1
290
     0
176
     1
290
     1
176
     1
290
     1
176
     1
290
     0
176
     1
290
     0
176
     1
290
     0
176
     1
290
     0
176
     1
290
     0
176
     1
290
     0
176
     1
 90
       50
176
     1
 40
0.0
176
     1
 40
1.0
176
     1
 90
        0
176
     1
 62
    18
176
     1
 90
       50
176
     1
 90
        3
176
     1
 62
     5
420
      255
176
     1
290
     0
176
     1
 90
       50
176
     1
 90
       50
176
     1
 90
       50
176
     1
290
     0
176
     1
 90
       50
176
     1
 62
   256
176
     0
 40
1.0
176
     0
 90
        2
176
     1
  1
strokes_ogs.tif
176
     1
290
     0
176
     1
 40
1.0
176
     1
 40
1.0
176
     1
  0
VISUALSTYLE
  5
E4DD
102
{ACAD_REACTORS
330
E4D4
102
}
330
E4D4
100
AcDbVisualStyle
  2

 70
     9
177
     3
291
     0
 70
    58
 90
        3
176
     1
 90
        2
176
     1
 90
        0
176
     1
 90
        0
176
     1
 40
0.6
176
     1
 40
30.0
176
     1
 62
     7
176
     1
 90
        2
176
     1
 90
        2
176
     1
 62
     7
176
     1
 62
   257
176
     1
 90
        1
176
     1
 90
        1
176
     1
 40
179.0
176
     1
 90
        8
176
     1
 62
     7
176
     1
 40
1.0
176
     1
 90
        1
176
     1
 90
        6
176
     1
 90
        2
176
     1
 62
     7
176
     1
 90
        3
176
     1
 90
        0
176
     1
 90
        0
176
     1
290
     0
176
     1
 90
        1
176
     1
 40
0.0
176
     1
 90
        0
176
     1
290
     0
176
     1
290
     1
176
     1
290
     1
176
     1
290
     0
176
     1
290
     0
176
     1
290
     0
176
     1
290
     0
176
     1
290
     0
176
     1
290
     0
176
     1
 90
       50
176
     1
 40
0.0
176
     1
 40
1.0
176
     1
 90
        0
176
     1
 62
    18
176
     1
 90
       50
176
     1
 90
        3
176
     1
 62
     5
420
      255
176
     1
290
     0
176
     1
 90
       50
176
     1
 90
       50
176
     1
 90
       50
176
     1
290
     0
176
     1
 90
       50
176
     1
 62
   256
176
     0
 40
1.0
176
     0
 90
        2
176
     1
  1
strokes_ogs.tif
176
     1
290
     0
176
     1
 40
1.0
176
     1
 40
1.0
176
     1
  0
VISUALSTYLE
  5
E4DF
102
{ACAD_REACTORS
330
E4D4
102
}
330
E4D4
100
AcDbVisualStyle
  2

 70
    11
177
     3
291
     1
 70
    58
 90
        2
176
     1
 90
        2
176
     1
 90
        0
176
     1
 90
        0
176
     1
 40
0.6
176
     1
 40
30.0
176
     1
 62
     7
176
     1
 90
        1
176
     1
 90
        4
176
     1
 62
     7
176
     1
 62
   257
176
     1
 90
        1
176
     1
 90
        1
176
     1
 40
1.0
176
     1
 90
        8
176
     1
 62
     7
176
     1
 40
1.0
176
     1
 90
        1
176
     1
 90
        6
176
     1
 90
        2
176
     1
 62
     7
176
     1
 90
        5
176
     1
 90
        0
176
     1
 90
        0
176
     1
290
     0
176
     1
 90
        1
176
     1
 40
-50.0
176
     1
 90
        0
176
     1
290
     0
176
     1
290
     1
176
     1
290
     1
176
     1
290
     0
176
     1
290
     0
176
     1
290
     0
176
     1
290
     0
176
     1
290
     0
176
     1
290
     0
176
     1
 90
       50
176
     1
 40
0.0
176
     1
 40
1.0
176
     1
 90
        0
176
     1
 62
    18
176
     1
 90
       50
176
     1
 90
        3
176
     1
 62
     5
420
      255
176
     1
290
     0
176
     1
 90
       50
176
     1
 90
       50
176
     1
 90
       50
176
     1
290
     0
176
     1
 90
       50
176
     1
 62
   256
176
     0
 40
1.0
176
     0
 90
        2
176
     1
  1
strokes_ogs.tif
176
     1
290
     0
176
     1
 40
1.0
176
     1
 40
1.0
176
     1
  0
VISUALSTYLE
  5
E4E7
102
{ACAD_REACTORS
330
E4D4
102
}
330
E4D4
100
AcDbVisualStyle
  2

 70
    22
177
     3
291
     1
 70
    58
 90
        2
176
     0
 90
        2
176
     0
 90
        0
176
     0
 90
        0
176
     0
 40
0.6
176
     0
 40
30.0
176
     0
 62
     7
176
     0
 90
        1
176
     0
 90
        4
176
     0
 62
     7
176
     0
 62
   257
176
     0
 90
        1
176
     0
 90
        1
176
     0
 40
1.0
176
     0
 90
        8
176
     2
 62
     7
176
     0
 40
1.0
176
     0
 90
        1
176
     0
 90
        6
176
     0
 90
        2
176
     0
 62
     7
176
     0
 90
        5
176
     0
 90
        0
176
     0
 90
        0
176
     0
290
     0
176
     0
 90
        1
176
     0
 40
0.0
176
     0
 90
        0
176
     0
290
     0
176
     1
290
     1
176
     1
290
     1
176
     1
290
     0
176
     1
290
     0
176
     1
290
     0
176
     1
290
     0
176
     1
290
     0
176
     1
290
     0
176
     1
 90
       50
176
     1
 40
0.0
176
     1
 40
1.0
176
     1
 90
        0
176
     1
 62
    18
176
     1
 90
       50
176
     1
 90
        3
176
     1
 62
     5
420
      255
176
     1
290
     0
176
     1
 90
       50
176
     1
 90
       50
176
     1
 90
       50
176
     1
290
     0
176
     1
 90
       50
176
     1
 62
   256
176
     0
 40
1.0
176
     0
 90
        2
176
     1
  1
strokes_ogs.tif
176
     1
290
     0
176
     1
 40
1.0
176
     1
 40
1.0
176
     1
  0
VISUALSTYLE
  5
E4E3
102
{ACAD_REACTORS
330
E4D4
102
}
330
E4D4
100
AcDbVisualStyle
  2

 70
    15
177
     3
291
     1
 70
    58
 90
        2
176
     1
 90
        2
176
     1
 90
        0
176
     1
 90
        0
176
     1
 40
0.6
176
     1
 40
30.0
176
     1
 62
     7
176
     1
 90
        1
176
     1
 90
        4
176
     1
 62
     7
176
     1
 62
   257
176
     1
 90
        1
176
     1
 90
        1
176
     1
 40
1.0
176
     1
 90
        8
176
     1
 62
     7
176
     1
 40
1.0
176
     1
 90
        1
176
     1
 90
        6
176
     1
 90
        2
176
     1
 62
     7
176
     1
 90
        5
176
     1
 90
        0
176
     1
 90
        0
176
     1
290
     0
176
     1
 90
        1
176
     1
 40
0.0
176
     1
 90
        0
176
     1
290
     0
176
     1
290
     1
176
     1
290
     1
176
     1
290
     0
176
     1
290
     0
176
     1
290
     0
176
     1
290
     0
176
     1
290
     0
176
     1
290
     0
176
     1
 90
       50
176
     1
 40
0.0
176
     1
 40
1.0
176
     1
 90
        0
176
     1
 62
    18
176
     1
 90
       50
176
     1
 90
        3
176
     1
 62
     5
420
      255
176
     1
290
     0
176
     1
 90
       50
176
     1
 90
       50
176
     1
 90
       50
176
     1
290
     0
176
     1
 90
       50
176
     1
 62
   256
176
     0
 40
1.0
176
     0
 90
        2
176
     1
  1
strokes_ogs.tif
176
     1
290
     0
176
     1
 40
1.0
176
     1
 40
1.0
176
     1
  0
VISUALSTYLE
  5
E4D5
102
{ACAD_REACTORS
330
E4D4
102
}
330
E4D4
100
AcDbVisualStyle
  2

 70
     0
177
     3
291
     1
 70
    58
 90
        2
176
     1
 90
        1
176
     1
 90
        1
176
     1
 90
        2
176
     1
 40
0.6
176
     1
 40
30.0
176
     1
 62
     7
176
     1
 90
        0
176
     1
 90
        4
176
     1
 62
     7
176
     1
 62
   257
176
     1
 90
        1
176
     1
 90
        1
176
     1
 40
1.0
176
     1
 90
        8
176
     1
 62
     7
176
     1
 40
1.0
176
     1
 90
        1
176
     1
 90
        6
176
     1
 90
        2
176
     1
 62
     7
176
     1
 90
        5
176
     1
 90
        0
176
     1
 90
        0
176
     1
290
     0
176
     1
 90
       13
176
     1
 40
0.0
176
     1
 90
        0
176
     1
290
     0
176
     1
290
     1
176
     1
290
     1
176
     1
290
     0
176
     1
290
     0
176
     1
290
     0
176
     1
290
     0
176
     1
290
     0
176
     1
290
     0
176
     1
 90
       50
176
     1
 40
0.0
176
     1
 40
1.0
176
     1
 90
        0
176
     1
 62
    18
176
     1
 90
       50
176
     1
 90
        3
176
     1
 62
     5
420
      255
176
     1
290
     0
176
     1
 90
       50
176
     1
 90
       50
176
     1
 90
       50
176
     1
290
     0
176
     1
 90
       50
176
     1
 62
   256
176
     0
 40
1.0
176
     0
 90
        2
176
     1
  1
strokes_ogs.tif
176
     1
290
     0
176
     1
 40
1.0
176
     1
 40
1.0
176
     1
  0
VISUALSTYLE
  5
E4D6
102
{ACAD_REACTORS
330
E4D4
102
}
330
E4D4
100
AcDbVisualStyle
  2

 70
     1
177
     3
291
     1
 70
    58
 90
        2
176
     1
 90
        1
176
     1
 90
        1
176
     1
 90
        2
176
     1
 40
0.6
176
     1
 40
30.0
176
     1
 62
     7
176
     1
 90
        1
176
     1
 90
        4
176
     1
 62
     7
176
     1
 62
   257
176
     1
 90
        1
176
     1
 90
        1
176
     1
 40
1.0
176
     1
 90
        0
176
     1
 62
   257
176
     1
 40
1.0
176
     1
 90
        1
176
     1
 90
        6
176
     1
 90
        2
176
     1
 62
     7
176
     1
 90
        5
176
     1
 90
        0
176
     1
 90
        0
176
     1
290
     0
176
     1
 90
       13
176
     1
 40
0.0
176
     1
 90
        0
176
     1
290
     0
176
     1
290
     1
176
     1
290
     1
176
     1
290
     0
176
     1
290
     0
176
     1
290
     0
176
     1
290
     0
176
     1
290
     0
176
     1
290
     0
176
     1
 90
       50
176
     1
 40
0.0
176
     1
 40
1.0
176
     1
 90
        0
176
     1
 62
    18
176
     1
 90
       50
176
     1
 90
        3
176
     1
 62
     5
420
      255
176
     1
290
     0
176
     1
 90
       50
176
     1
 90
       50
176
     1
 90
       50
176
     1
290
     0
176
     1
 90
       50
176
     1
 62
   256
176
     0
 40
1.0
176
     0
 90
        2
176
     1
  1
strokes_ogs.tif
176
     1
290
     0
176
     1
 40
1.0
176
     1
 40
1.0
176
     1
  0
VISUALSTYLE
  5
E4D7
102
{ACAD_REACTORS
330
E4D4
102
}
330
E4D4
100
AcDbVisualStyle
  2

 70
     2
177
     3
291
     1
 70
    58
 90
        2
176
     1
 90
        2
176
     1
 90
        1
176
     1
 90
        2
176
     1
 40
0.6
176
     1
 40
30.0
176
     1
 62
     7
176
     1
 90
        0
176
     1
 90
        4
176
     1
 62
     7
176
     1
 62
   257
176
     1
 90
        1
176
     1
 90
        1
176
     1
 40
1.0
176
     1
 90
        0
176
     1
 62
     7
176
     1
 40
1.0
176
     1
 90
        1
176
     1
 90
        6
176
     1
 90
        2
176
     1
 62
     7
176
     1
 90
        5
176
     1
 90
        0
176
     1
 90
        0
176
     1
290
     0
176
     1
 90
       13
176
     1
 40
0.0
176
     1
 90
        0
176
     1
290
     0
176
     1
290
     1
176
     1
290
     1
176
     1
290
     0
176
     1
290
     0
176
     1
290
     0
176
     1
290
     0
176
     1
290
     0
176
     1
290
     0
176
     1
 90
       50
176
     1
 40
0.0
176
     1
 40
1.0
176
     1
 90
        0
176
     1
 62
    18
176
     1
 90
       50
176
     1
 90
        3
176
     1
 62
     5
420
      255
176
     1
290
     0
176
     1
 90
       50
176
     1
 90
       50
176
     1
 90
       50
176
     1
290
     0
176
     1
 90
       50
176
     1
 62
   256
176
     0
 40
1.0
176
     0
 90
        2
176
     1
  1
strokes_ogs.tif
176
     1
290
     0
176
     1
 40
1.0
176
     1
 40
1.0
176
     1
  0
VISUALSTYLE
  5
E4D8
102
{ACAD_REACTORS
330
E4D4
102
}
330
E4D4
100
AcDbVisualStyle
  2

 70
     3
177
     3
291
     1
 70
    58
 90
        2
176
     1
 90
        2
176
     1
 90
        1
176
     1
 90
        2
176
     1
 40
0.6
176
     1
 40
30.0
176
     1
 62
     7
176
     1
 90
        1
176
     1
 90
        4
176
     1
 62
     7
176
     1
 62
   257
176
     1
 90
        1
176
     1
 90
        1
176
     1
 40
1.0
176
     1
 90
        0
176
     1
 62
   257
176
     1
 40
1.0
176
     1
 90
        1
176
     1
 90
        6
176
     1
 90
        2
176
     1
 62
     7
176
     1
 90
        5
176
     1
 90
        0
176
     1
 90
        0
176
     1
290
     0
176
     1
 90
       13
176
     1
 40
0.0
176
     1
 90
        0
176
     1
290
     0
176
     1
290
     1
176
     1
290
     1
176
     1
290
     0
176
     1
290
     0
176
     1
290
     0
176
     1
290
     0
176
     1
290
     0
176
     1
290
     0
176
     1
 90
       50
176
     1
 40
0.0
176
     1
 40
1.0
176
     1
 90
        0
176
     1
 62
    18
176
     1
 90
       50
176
     1
 90
        3
176
     1
 62
     5
420
      255
176
     1
290
     0
176
     1
 90
       50
176
     1
 90
       50
176
     1
 90
       50
176
     1
290
     0
176
     1
 90
       50
176
     1
 62
   256
176
     0
 40
1.0
176
     0
 90
        2
176
     1
  1
strokes_ogs.tif
176
     1
290
     0
176
     1
 40
1.0
176
     1
 40
1.0
176
     1
  0
VISUALSTYLE
  5
3AB43
102
{ACAD_REACTORS
330
E4D4
102
}
330
E4D4
100
AcDbVisualStyle
  2
Hidden
 70
     6
177
     3
291
     0
 70
    58
 90
        1
176
     1
 90
        2
176
     1
 90
        2
176
     1
 90
        0
176
     1
 40
0.6
176
     1
 40
30.0
176
     1
 62
     7
420
 16777215
176
     1
 90
        2
176
     1
 90
        2
176
     1
 62
     7
176
     1
 62
   257
176
     1
 90
        2
176
     1
 90
        1
176
     1
 40
40.0
176
     1
 90
        0
176
     1
 62
   257
176
     1
 40
1.0
176
     1
 90
        1
176
     1
 90
        6
176
     1
 90
        2
176
     1
 62
     7
176
     1
 90
        3
176
     1
 90
        0
176
     1
 90
        0
176
     1
290
     0
176
     1
 90
        1
176
     1
 40
0.0
176
     1
 90
        0
176
     1
290
     0
176
     1
290
     1
176
     1
290
     1
176
     1
290
     0
176
     1
290
     0
176
     1
290
     0
176
     1
290
     0
176
     1
290
     0
176
     1
290
     0
176
     1
 90
       50
176
     1
 40
0.0
176
     1
 40
1.0
176
     1
 90
        0
176
     1
 62
    18
176
     1
 90
       50
176
     1
 90
        3
176
     1
 62
     5
420
      255
176
     1
290
     0
176
     1
 90
       50
176
     1
 90
       50
176
     1
 90
       50
176
     1
290
     0
176
     1
 90
       50
176
     1
 62
   256
176
     0
 40
1.0
176
     0
 90
        2
176
     1
  1
strokes_ogs.tif
176
     1
290
     0
176
     1
 40
1.0
176
     1
 40
1.0
176
     1
  0
VISUALSTYLE
  5
E4E5
102
{ACAD_REACTORS
330
E4D4
102
}
330
E4D4
100
AcDbVisualStyle
  2

 70
    20
177
     3
291
     1
 70
    58
 90
        2
176
     0
 90
        2
176
     0
 90
        0
176
     0
 90
        0
176
     0
 40
0.6
176
     0
 40
30.0
176
     0
 62
     7
176
     0
 90
        1
176
     0
 90
        4
176
     0
 62
     7
176
     0
 62
   257
176
     0
 90
        1
176
     0
 90
        1
176
     0
 40
1.0
176
     0
 90
       10
176
     2
 62
     7
176
     0
 40
1.0
176
     0
 90
        1
176
     0
 90
        6
176
     0
 90
        2
176
     0
 62
     7
176
     0
 90
        5
176
     0
 90
        0
176
     0
 90
        0
176
     0
290
     0
176
     0
 90
        1
176
     0
 40
0.0
176
     0
 90
        0
176
     0
290
     0
176
     1
290
     1
176
     1
290
     1
176
     1
290
     0
176
     1
290
     0
176
     1
290
     0
176
     1
290
     0
176
     1
290
     0
176
     1
290
     0
176
     1
 90
       50
176
     1
 40
0.0
176
     1
 40
1.0
176
     1
 90
        0
176
     1
 62
    18
176
     1
 90
       50
176
     1
 90
        3
176
     1
 62
     5
420
      255
176
     1
290
     0
176
     1
 90
       50
176
     1
 90
       50
176
     1
 90
       50
176
     1
290
     0
176
     1
 90
       50
176
     1
 62
   256
176
     0
 40
1.0
176
     0
 90
        2
176
     1
  1
strokes_ogs.tif
176
     1
290
     0
176
     1
 40
1.0
176
     1
 40
1.0
176
     1
  0
VISUALSTYLE
  5
E4E2
102
{ACAD_REACTORS
330
E4D4
102
}
330
E4D4
100
AcDbVisualStyle
  2

 70
    14
177
     3
291
     1
 70
    58
 90
        2
176
     1
 90
        2
176
     1
 90
        0
176
     1
 90
        0
176
     1
 40
0.6
176
     1
 40
30.0
176
     1
 62
     7
176
     1
 90
        1
176
     1
 90
        4
176
     1
 62
     7
176
     1
 62
   257
176
     1
 90
        7
176
     1
 90
        7
176
     1
 40
1.0
176
     1
 90
        8
176
     1
 62
     7
176
     1
 40
1.0
176
     1
 90
        1
176
     1
 90
        6
176
     1
 90
        2
176
     1
 62
     7
176
     1
 90
        5
176
     1
 90
        0
176
     1
 90
        0
176
     1
290
     0
176
     1
 90
        1
176
     1
 40
0.0
176
     1
 90
        0
176
     1
290
     0
176
     1
290
     1
176
     1
290
     1
176
     1
290
     0
176
     1
290
     0
176
     1
290
     0
176
     1
290
     0
176
     1
290
     0
176
     1
290
     0
176
     1
 90
       50
176
     1
 40
0.0
176
     1
 40
1.0
176
     1
 90
        0
176
     1
 62
    18
176
     1
 90
       50
176
     1
 90
        3
176
     1
 62
     5
420
      255
176
     1
290
     0
176
     1
 90
       50
176
     1
 90
       50
176
     1
 90
       50
176
     1
290
     0
176
     1
 90
       50
176
     1
 62
   256
176
     0
 40
1.0
176
     0
 90
        2
176
     1
  1
strokes_ogs.tif
176
     1
290
     0
176
     1
 40
1.0
176
     1
 40
1.0
176
     1
  0
VISUALSTYLE
  5
E4E6
102
{ACAD_REACTORS
330
E4D4
102
}
330
E4D4
100
AcDbVisualStyle
  2

 70
    21
177
     3
291
     1
 70
    58
 90
        2
176
     0
 90
        2
176
     0
 90
        0
176
     0
 90
        0
176
     0
 40
0.6
176
     0
 40
30.0
176
     0
 62
     7
176
     0
 90
        1
176
     0
 90
        4
176
     0
 62
     7
176
     0
 62
   257
176
     0
 90
        1
176
     0
 90
        1
176
     0
 40
1.0
176
     0
 90
        9
176
     2
 62
     7
176
     0
 40
1.0
176
     0
 90
        1
176
     0
 90
        6
176
     0
 90
        2
176
     0
 62
     7
176
     0
 90
        5
176
     0
 90
        0
176
     0
 90
        0
176
     0
290
     0
176
     0
 90
        1
176
     0
 40
0.0
176
     0
 90
        0
176
     0
290
     0
176
     1
290
     1
176
     1
290
     1
176
     1
290
     0
176
     1
290
     0
176
     1
290
     0
176
     1
290
     0
176
     1
290
     0
176
     1
290
     0
176
     1
 90
       50
176
     1
 40
0.0
176
     1
 40
1.0
176
     1
 90
        0
176
     1
 62
    18
176
     1
 90
       50
176
     1
 90
        3
176
     1
 62
     5
420
      255
176
     1
290
     0
176
     1
 90
       50
176
     1
 90
       50
176
     1
 90
       50
176
     1
290
     0
176
     1
 90
       50
176
     1
 62
   256
176
     0
 40
1.0
176
     0
 90
        2
176
     1
  1
strokes_ogs.tif
176
     1
290
     0
176
     1
 40
1.0
176
     1
 40
1.0
176
     1
  0
VISUALSTYLE
  5
E4DE
102
{ACAD_REACTORS
330
E4D4
102
}
330
E4D4
100
AcDbVisualStyle
  2

 70
     8
177
     3
291
     0
 70
    58
 90
        2
176
     1
 90
        2
176
     1
 90
        0
176
     1
 90
        0
176
     1
 40
0.6
176
     1
 40
30.0
176
     1
 62
     7
176
     1
 90
        1
176
     1
 90
        0
176
     1
 62
     7
176
     1
 62
   257
176
     1
 90
        1
176
     1
 90
        1
176
     1
 40
1.0
176
     1
 90
        8
176
     1
 62
     8
176
     1
 40
1.0
176
     1
 90
        1
176
     1
 90
        6
176
     1
 90
        2
176
     1
 62
     7
176
     1
 90
        5
176
     1
 90
        0
176
     1
 90
        0
176
     1
290
     0
176
     1
 90
       13
176
     1
 40
0.0
176
     1
 90
        0
176
     1
290
     0
176
     1
290
     1
176
     1
290
     1
176
     1
290
     0
176
     1
290
     0
176
     1
290
     0
176
     1
290
     0
176
     1
290
     0
176
     1
290
     0
176
     1
 90
       50
176
     1
 40
0.0
176
     1
 40
1.0
176
     1
 90
        0
176
     1
 62
    18
176
     1
 90
       50
176
     1
 90
        3
176
     1
 62
     5
420
      255
176
     1
290
     0
176
     1
 90
       50
176
     1
 90
       50
176
     1
 90
       50
176
     1
290
     0
176
     1
 90
       50
176
     1
 62
   256
176
     0
 40
1.0
176
     0
 90
        2
176
     1
  1
strokes_ogs.tif
176
     1
290
     0
176
     1
 40
1.0
176
     1
 40
1.0
176
     1
  0
VISUALSTYLE
  5
3AB48
102
{ACAD_REACTORS
330
E4D4
102
}
330
E4D4
100
AcDbVisualStyle
  2
Shaded
 70
    27
177
     3
291
     0
 70
    58
 90
        2
176
     1
 90
        2
176
     1
 90
        1
176
     1
 90
        2
176
     1
 40
0.6
176
     1
 40
30.0
176
     1
 62
     7
420
 16777215
176
     1
 90
        0
176
     1
 90
        4
176
     1
 62
     7
176
     1
 62
   257
176
     1
 90
        1
176
     1
 90
        1
176
     1
 40
1.0
176
     1
 90
        8
176
     1
 62
   257
176
     1
 40
1.0
176
     1
 90
        1
176
     1
 90
        6
176
     1
 90
        2
176
     1
 62
     8
420
  7895160
176
     1
 90
        3
176
     1
 90
        0
176
     1
 90
        0
176
     1
290
     0
176
     1
 90
        5
176
     1
 40
0.0
176
     1
 90
        0
176
     1
290
     0
176
     1
290
     1
176
     1
290
     1
176
     1
290
     0
176
     1
290
     0
176
     1
290
     0
176
     1
290
     0
176
     1
290
     0
176
     1
290
     0
176
     1
 90
       50
176
     1
 40
0.0
176
     1
 40
1.0
176
     1
 90
        0
176
     1
 62
    18
176
     1
 90
       50
176
     1
 90
        3
176
     1
 62
     5
420
      255
176
     1
290
     0
176
     1
 90
       50
176
     1
 90
       50
176
     1
 90
       50
176
     1
290
     0
176
     1
 90
       50
176
     1
 62
   256
176
     0
 40
1.0
176
     0
 90
        2
176
     1
  1
strokes_ogs.tif
176
     1
290
     0
176
     1
 40
1.0
176
     1
 40
1.0
176
     1
  0
VISUALSTYLE
  5
3AB47
102
{ACAD_REACTORS
330
E4D4
102
}
330
E4D4
100
AcDbVisualStyle
  2
Shaded with edges
 70
    26
177
     3
291
     0
 70
    58
 90
        2
176
     1
 90
        2
176
     1
 90
        1
176
     1
 90
        2
176
     1
 40
0.6
176
     1
 40
30.0
176
     1
 62
     7
420
 16777215
176
     1
 90
        1
176
     1
 90
       10
176
     1
 62
     7
176
     1
 62
   257
176
     1
 90
        2
176
     1
 90
        1
176
     1
 40
1.0
176
     1
 90
        8
176
     1
 62
   257
176
     1
 40
1.0
176
     1
 90
        1
176
     1
 90
        6
176
     1
 90
        2
176
     1
 62
     7
176
     1
 90
        3
176
     1
 90
        0
176
     1
 90
        0
176
     1
290
     0
176
     1
 90
        5
176
     1
 40
0.0
176
     1
 90
        0
176
     1
290
     0
176
     1
290
     1
176
     1
290
     1
176
     1
290
     0
176
     1
290
     0
176
     1
290
     0
176
     1
290
     0
176
     1
290
     0
176
     1
290
     0
176
     1
 90
       50
176
     1
 40
0.0
176
     1
 40
1.0
176
     1
 90
        0
176
     1
 62
    18
176
     1
 90
       50
176
     1
 90
        3
176
     1
 62
     5
420
      255
176
     1
290
     0
176
     1
 90
       50
176
     1
 90
       50
176
     1
 90
       50
176
     1
290
     0
176
     1
 90
       50
176
     1
 62
   256
176
     0
 40
1.0
176
     0
 90
        2
176
     1
  1
strokes_ogs.tif
176
     1
290
     0
176
     1
 40
1.0
176
     1
 40
1.0
176
     1
  0
VISUALSTYLE
  5
3AB44
102
{ACAD_REACTORS
330
E4D4
102
}
330
E4D4
100
AcDbVisualStyle
  2
Shades of Gray
 70
    23
177
     3
291
     0
 70
    58
 90
        2
176
     1
 90
        2
176
     1
 90
        3
176
     1
 90
        0
176
     1
 40
0.6
176
     1
 40
30.0
176
     1
 62
     7
420
 16777215
176
     1
 90
        2
176
     1
 90
        2
176
     1
 62
     7
176
     1
 62
     7
176
     1
 90
        1
176
     1
 90
        1
176
     1
 40
40.0
176
     1
 90
        8
176
     1
 62
     7
176
     1
 40
1.0
176
     1
 90
        1
176
     1
 90
        6
176
     1
 90
        2
176
     1
 62
     7
176
     1
 90
        3
176
     1
 90
        0
176
     1
 90
        0
176
     1
290
     0
176
     1
 90
        1
176
     1
 40
0.0
176
     1
 90
        0
176
     1
290
     0
176
     1
290
     1
176
     1
290
     1
176
     1
290
     0
176
     1
290
     0
176
     1
290
     0
176
     1
290
     0
176
     1
290
     0
176
     1
290
     0
176
     1
 90
       50
176
     1
 40
0.0
176
     1
 40
1.0
176
     1
 90
        0
176
     1
 62
    18
176
     1
 90
       50
176
     1
 90
        3
176
     1
 62
     5
420
      255
176
     1
290
     0
176
     1
 90
       50
176
     1
 90
       50
176
     1
 90
       50
176
     1
290
     0
176
     1
 90
       50
176
     1
 62
   256
176
     0
 40
1.0
176
     0
 90
        2
176
     1
  1
strokes_ogs.tif
176
     1
290
     0
176
     1
 40
1.0
176
     1
 40
1.0
176
     1
  0
VISUALSTYLE
  5
3AB45
102
{ACAD_REACTORS
330
E4D4
102
}
330
E4D4
100
AcDbVisualStyle
  2
Sketchy
 70
    24
177
     3
291
     0
 70
    58
 90
        1
176
     1
 90
        2
176
     1
 90
        2
176
     1
 90
        0
176
     1
 40
0.6
176
     1
 40
30.0
176
     1
 62
     7
420
 16777215
176
     1
 90
        2
176
     1
 90
        2
176
     1
 62
     7
176
     1
 62
     7
176
     1
 90
        1
176
     1
 90
        1
176
     1
 40
40.0
176
     1
 90
       11
176
     1
 62
     7
176
     1
 40
1.0
176
     1
 90
        1
176
     1
 90
        6
176
     1
 90
        2
176
     1
 62
     7
176
     1
 90
        6
176
     1
 90
        0
176
     1
 90
        0
176
     1
290
     0
176
     1
 90
        1
176
     1
 40
0.0
176
     1
 90
        0
176
     1
290
     0
176
     1
290
     1
176
     1
290
     1
176
     1
290
     0
176
     1
290
     0
176
     1
290
     0
176
     1
290
     0
176
     1
290
     0
176
     1
290
     0
176
     1
 90
       50
176
     1
 40
0.0
176
     1
 40
1.0
176
     1
 90
        0
176
     1
 62
    18
176
     1
 90
       50
176
     1
 90
        3
176
     1
 62
     5
420
      255
176
     1
290
     0
176
     1
 90
       50
176
     1
 90
       50
176
     1
 90
       50
176
     1
290
     0
176
     1
 90
       50
176
     1
 62
   256
176
     0
 40
1.0
176
     0
 90
        2
176
     1
  1
strokes_ogs.tif
176
     1
290
     0
176
     1
 40
1.0
176
     1
 40
1.0
176
     1
  0
VISUALSTYLE
  5
E4E1
102
{ACAD_REACTORS
330
E4D4
102
}
330
E4D4
100
AcDbVisualStyle
  2

 70
    13
177
     3
291
     1
 70
    58
 90
        2
176
     1
 90
        2
176
     1
 90
        0
176
     1
 90
        0
176
     1
 40
0.6
176
     1
 40
30.0
176
     1
 62
     7
176
     1
 90
        1
176
     1
 90
        4
176
     1
 62
     7
176
     1
 62
   257
176
     1
 90
        1
176
     1
 90
        1
176
     1
 40
1.0
176
     1
 90
       12
176
     1
 62
     7
176
     1
 40
1.0
176
     1
 90
        1
176
     1
 90
        6
176
     1
 90
        2
176
     1
 62
     7
176
     1
 90
        5
176
     1
 90
        0
176
     1
 90
        0
176
     1
290
     0
176
     1
 90
        1
176
     1
 40
0.0
176
     1
 90
        0
176
     1
290
     0
176
     1
290
     1
176
     1
290
     1
176
     1
290
     0
176
     1
290
     0
176
     1
290
     0
176
     1
290
     0
176
     1
290
     0
176
     1
290
     0
176
     1
 90
       50
176
     1
 40
0.0
176
     1
 40
1.0
176
     1
 90
        0
176
     1
 62
    18
176
     1
 90
       50
176
     1
 90
        3
176
     1
 62
     5
420
      255
176
     1
290
     0
176
     1
 90
       50
176
     1
 90
       50
176
     1
 90
       50
176
     1
290
     0
176
     1
 90
       50
176
     1
 62
   256
176
     0
 40
1.0
176
     0
 90
        2
176
     1
  1
strokes_ogs.tif
176
     1
290
     0
176
     1
 40
1.0
176
     1
 40
1.0
176
     1
  0
VISUALSTYLE
  5
3AB42
102
{ACAD_REACTORS
330
E4D4
102
}
330
E4D4
100
AcDbVisualStyle
  2
Wireframe
 70
     5
177
     3
291
     0
 70
    58
 90
        0
176
     1
 90
        2
176
     1
 90
        0
176
     1
 90
        0
176
     1
 40
0.6
176
     1
 40
30.0
176
     1
 62
     7
420
 16777215
176
     1
 90
        1
176
     1
 90
        4
176
     1
 62
     7
176
     1
 62
   257
176
     1
 90
        1
176
     1
 90
        1
176
     1
 40
1.0
176
     1
 90
        0
176
     1
 62
   257
176
     1
 40
1.0
176
     1
 90
        1
176
     1
 90
        6
176
     1
 90
        2
176
     1
 62
     7
176
     1
 90
        3
176
     1
 90
        0
176
     1
 90
        0
176
     1
290
     0
176
     1
 90
        1
176
     1
 40
0.0
176
     1
 90
        0
176
     1
290
     0
176
     1
290
     1
176
     1
290
     1
176
     1
290
     0
176
     1
290
     0
176
     1
290
     0
176
     1
290
     0
176
     1
290
     0
176
     1
290
     0
176
     1
 90
       50
176
     1
 40
0.0
176
     1
 40
1.0
176
     1
 90
        0
176
     1
 62
    18
176
     1
 90
       50
176
     1
 90
        3
176
     1
 62
     5
420
      255
176
     1
290
     0
176
     1
 90
       50
176
     1
 90
       50
176
     1
 90
       50
176
     1
290
     0
176
     1
 90
       50
176
     1
 62
   256
176
     0
 40
1.0
176
     0
 90
        2
176
     1
  1
strokes_ogs.tif
176
     1
290
     0
176
     1
 40
1.0
176
     1
 40
1.0
176
     1
  0
VISUALSTYLE
  5
3AB46
102
{ACAD_REACTORS
330
E4D4
102
}
330
E4D4
100
AcDbVisualStyle
  2
X-Ray
 70
    25
177
     3
291
     0
 70
    58
 90
        2
176
     1
 90
        2
176
     1
 90
        1
176
     1
 90
        1
176
     1
 40
0.5
176
     1
 40
30.0
176
     1
 62
     7
420
 16777215
176
     1
 90
        1
176
     1
 90
        0
176
     1
 62
     7
176
     1
 62
   257
176
     1
 90
        1
176
     1
 90
        1
176
     1
 40
1.0
176
     1
 90
        8
176
     1
 62
     7
176
     1
 40
1.0
176
     1
 90
        1
176
     1
 90
        6
176
     1
 90
        2
176
     1
 62
     7
176
     1
 90
        3
176
     1
 90
        0
176
     1
 90
        0
176
     1
290
     0
176
     1
 90
       13
176
     1
 40
0.0
176
     1
 90
        0
176
     1
290
     0
176
     1
290
     1
176
     1
290
     1
176
     1
290
     0
176
     1
290
     0
176
     1
290
     0
176
     1
290
     0
176
     1
290
     0
176
     1
290
     0
176
     1
 90
       50
176
     1
 40
0.0
176
     1
 40
1.0
176
     1
 90
        0
176
     1
 62
    18
176
     1
 90
       50
176
     1
 90
        3
176
     1
 62
     5
420
      255
176
     1
290
     0
176
     1
 90
       50
176
     1
 90
       50
176
     1
 90
       50
176
     1
290
     0
176
     1
 90
       50
176
     1
 62
   256
176
     0
 40
1.0
176
     0
 90
        2
176
     1
  1
strokes_ogs.tif
176
     1
290
     0
176
     1
 40
1.0
176
     1
 40
1.0
176
     1
  0
DICTIONARYVAR
  5
F8C1
102
{ACAD_REACTORS
330
5697
102
}
330
5697
100
DictionaryVariables
280
     0
  1
1:1
  0
DICTIONARYVAR
  5
F8C0
102
{ACAD_REACTORS
330
5697
102
}
330
5697
100
DictionaryVariables
280
     0
  1
STANDARD
  0
DICTIONARYVAR
  5
F8BF
102
{ACAD_REACTORS
330
5697
102
}
330
5697
100
DictionaryVariables
280
     0
  1
STANDARD
  0
DICTIONARYVAR
  5
3AB88
102
{ACAD_REACTORS
330
5697
102
}
330
5697
100
DictionaryVariables
280
     0
  1
Imperial24
  0
DICTIONARYVAR
  5
3AB89
102
{ACAD_REACTORS
330
5697
102
}
330
5697
100
DictionaryVariables
280
     0
  1
Imperial24
  0
DICTIONARYVAR
  5
5698
102
{ACAD_REACTORS
330
5697
102
}
330
5697
100
DictionaryVariables
280
     0
  1
1
  0
DICTIONARYVAR
  5
F8C3
102
{ACAD_REACTORS
330
5697
102
}
330
5697
100
DictionaryVariables
280
     0
  1
0
  0
DICTIONARYVAR
  5
37FF5
102
{ACAD_REACTORS
330
5697
102
}
330
5697
100
DictionaryVariables
280
     0
  1
1
  0
DICTIONARYVAR
  5
37FF6
102
{ACAD_REACTORS
330
5697
102
}
330
5697
100
DictionaryVariables
280
     0
  1
15
  0
DICTIONARYVAR
  5
37FF4
102
{ACAD_REACTORS
330
5697
102
}
330
5697
100
DictionaryVariables
280
     0
  1
0
  0
DICTIONARYVAR
  5
37FF3
102
{ACAD_REACTORS
330
5697
102
}
330
5697
100
DictionaryVariables
280
     0
  1
0
  0
DICTIONARYVAR
  5
F8C2
102
{ACAD_REACTORS
330
5697
102
}
330
5697
100
DictionaryVariables
280
     0
  1
127
  0
XRECORD
  5
F8F7
102
{ACAD_REACTORS
330
F8F6
102
}
330
F8F6
100
AcDbXrecord
280
     1
330
0
330
0
330
0
330
0
330
0
330
0
330
0
330
0
330
0
330
0
330
0
330
0
330
0
330
0
330
0
330
0
330
0
330
0
330
0
330
0
330
0
330
0
330
0
330
0
330
0
330
0
330
0
330
0
330
0
330
0
330
0
330
0
330
0
330
0
330
0
330
0
330
0
330
0
330
0
330
0
330
0
330
0
330
0
330
0
330
0
330
0
330
0
330
0
330
0
330
0
330
0
330
0
330
0
330
0
330
0
330
0
330
0
330
0
330
0
330
0
330
0
330
0
330
0
330
0
330
0
330
0
330
0
330
0
330
0
330
0
330
0
330
0
330
0
330
0
330
0
330
0
330
0
330
0
330
0
330
0
330
0
330
0
330
0
330
0
330
0
330
0
330
0
330
0
330
0
330
0
330
0
330
0
330
0
330
0
330
0
330
0
330
0
330
0
330
0
330
0
330
0
330
0
330
0
330
0
330
0
330
0
330
0
330
0
330
0
330
0
330
0
330
0
330
0
330
0
330
0
330
0
330
0
330
0
330
0
330
0
330
0
330
0
330
0
330
0
330
0
330
0
330
0
330
0
330
0
330
0
330
0
330
0
330
0
330
0
330
0
330
0
330
0
330
0
330
0
330
0
330
0
330
0
330
0
330
0
330
0
330
0
330
0
330
0
330
0
330
0
330
0
330
0
330
0
330
0
330
0
330
0
330
0
330
0
330
0
330
0
330
0
330
0
330
0
330
0
330
0
330
0
330
0
330
0
330
0
330
0
330
0
330
0
330
0
330
0
330
0
330
0
330
0
330
0
330
0
330
0
330
0
330
0
330
0
330
0
330
0
330
0
330
0
330
0
330
0
330
0
330
0
330
0
330
0
330
0
330
0
330
0
330
0
330
0
330
0
330
0
330
0
330
0
330
0
330
0
330
0
330
0
330
0
330
0
330
0
330
0
330
0
330
0
330
0
330
0
330
0
330
0
330
0
330
0
330
0
330
0
330
0
330
0
330
0
330
0
330
0
330
0
330
0
330
0
330
0
330
0
330
0
330
0
330
0
330
0
330
0
330
0
330
0
330
0
330
0
330
0
330
0
330
0
330
0
330
0
330
0
330
0
330
0
330
0
330
0
330
0
330
0
330
0
330
0
330
0
330
0
330
0
330
0
330
0
330
0
330
0
330
0
330
0
330
0
330
0
330
0
330
0
330
0
330
0
330
0
330
0
330
0
330
0
330
0
330
0
330
0
330
0
330
0
330
0
330
0
330
0
330
0
330
0
330
0
330
0
330
0
330
0
330
0
330
0
330
0
330
0
330
0
330
0
330
0
330
0
330
0
330
0
330
0
330
0
330
0
330
0
330
0
330
0
330
0
330
0
330
0
330
0
330
0
  0
DICTIONARY
  5
3AB8E
330
3AB4C
100
AcDbDictionary
280
     1
281
     1
  3
ACAD_XREC_ROUNDTRIP
360
3AC30
  0
DICTIONARY
  5
13816
330
904E
100
AcDbDictionary
280
     1
281
     1
  0
DICTIONARY
  5
E4C5
330
E4C4
100
AcDbDictionary
280
     1
281
     1
  3
ACAD_XREC_ROUNDTRIP
360
12A19
  3
BUMPTILE
360
E4C7
  3
DIFFUSETILE
360
E4C6
  3
OPACITYTILE
360
E4CA
  3
REFLECTIONTILE
360
E4C9
  3
REFRACTIONTILE
360
E4CB
  3
SPECULARTILE
360
E4C8
  0
DICTIONARY
  5
E4BD
330
E4BC
100
AcDbDictionary
280
     1
281
     1
  3
ACAD_XREC_ROUNDTRIP
360
12A18
  3
BUMPTILE
360
E4BF
  3
DIFFUSETILE
360
E4BE
  3
OPACITYTILE
360
E4C2
  3
REFLECTIONTILE
360
E4C1
  3
REFRACTIONTILE
360
E4C3
  3
SPECULARTILE
360
E4C0
  0
DICTIONARY
  5
E4CD
330
E4CC
100
AcDbDictionary
280
     1
281
     1
  3
ACAD_XREC_ROUNDTRIP
360
12A1A
  3
BUMPTILE
360
E4CF
  3
DIFFUSETILE
360
E4CE
  3
OPACITYTILE
360
E4D2
  3
REFLECTIONTILE
360
E4D1
  3
REFRACTIONTILE
360
E4D3
  3
SPECULARTILE
360
E4D0
  0
DICTIONARY
  5
3AB8C
330
3AB4A
100
AcDbDictionary
280
     1
281
     1
  3
ACAD_XREC_ROUNDTRIP
360
3AC2F
  0
DICTIONARY
  5
F86C
330
E4EA
100
AcDbDictionary
280
     1
281
     1
  3
ACAD_ROUNDTRIP_2008_TABLESTYLE_CELLSTYLEMAP
360
3AC2E
  0
XRECORD
  5
3AC30
102
{ACAD_REACTORS
330
3AB8E
102
}
330
3AB8E
100
AcDbXrecord
280
     1
102
DISPLAYNAME
  1
Imperial24
102
FLAGS
 90
        0
  0
XRECORD
  5
12A19
102
{ACAD_REACTORS
330
E4C5
102
}
330
E4C5
100
AcDbXrecord
280
     1
102
MATERIAL
148
0.0
149
0.0
149
0.0
 93
        0
 94
      127
282
     0
 72
     0
 77
     0
171
     0
175
     0
179
     0
273
     0
  0
XRECORD
  5
E4C7
102
{ACAD_REACTORS
330
E4C5
102
}
330
E4C5
100
AcDbXrecord
280
     1
270
     1
271
     1
  0
XRECORD
  5
E4C6
102
{ACAD_REACTORS
330
E4C5
102
}
330
E4C5
100
AcDbXrecord
280
     1
270
     1
271
     1
  0
XRECORD
  5
E4CA
102
{ACAD_REACTORS
330
E4C5
102
}
330
E4C5
100
AcDbXrecord
280
     1
270
     1
271
     1
  0
XRECORD
  5
E4C9
102
{ACAD_REACTORS
330
E4C5
102
}
330
E4C5
100
AcDbXrecord
280
     1
270
     1
271
     1
  0
XRECORD
  5
E4CB
102
{ACAD_REACTORS
330
E4C5
102
}
330
E4C5
100
AcDbXrecord
280
     1
270
     1
271
     1
  0
XRECORD
  5
E4C8
102
{ACAD_REACTORS
330
E4C5
102
}
330
E4C5
100
AcDbXrecord
280
     1
270
     1
271
     1
  0
XRECORD
  5
12A18
102
{ACAD_REACTORS
330
E4BD
102
}
330
E4BD
100
AcDbXrecord
280
     1
102
MATERIAL
148
0.0
149
0.0
149
0.0
 93
        0
 94
      127
282
     0
 72
     0
 77
     0
171
     0
175
     0
179
     0
273
     0
  0
XRECORD
  5
E4BF
102
{ACAD_REACTORS
330
E4BD
102
}
330
E4BD
100
AcDbXrecord
280
     1
270
     1
271
     1
  0
XRECORD
  5
E4BE
102
{ACAD_REACTORS
330
E4BD
102
}
330
E4BD
100
AcDbXrecord
280
     1
270
     1
271
     1
  0
XRECORD
  5
E4C2
102
{ACAD_REACTORS
330
E4BD
102
}
330
E4BD
100
AcDbXrecord
280
     1
270
     1
271
     1
  0
XRECORD
  5
E4C1
102
{ACAD_REACTORS
330
E4BD
102
}
330
E4BD
100
AcDbXrecord
280
     1
270
     1
271
     1
  0
XRECORD
  5
E4C3
102
{ACAD_REACTORS
330
E4BD
102
}
330
E4BD
100
AcDbXrecord
280
     1
270
     1
271
     1
  0
XRECORD
  5
E4C0
102
{ACAD_REACTORS
330
E4BD
102
}
330
E4BD
100
AcDbXrecord
280
     1
270
     1
271
     1
  0
XRECORD
  5
12A1A
102
{ACAD_REACTORS
330
E4CD
102
}
330
E4CD
100
AcDbXrecord
280
     1
102
MATERIAL
148
0.0
149
0.0
149
0.0
 93
        0
 94
      127
282
     0
 72
     0
 77
     0
171
     0
175
     0
179
     0
273
     0
  0
XRECORD
  5
E4CF
102
{ACAD_REACTORS
330
E4CD
102
}
330
E4CD
100
AcDbXrecord
280
     1
270
     1
271
     1
  0
XRECORD
  5
E4CE
102
{ACAD_REACTORS
330
E4CD
102
}
330
E4CD
100
AcDbXrecord
280
     1
270
     1
271
     1
  0
XRECORD
  5
E4D2
102
{ACAD_REACTORS
330
E4CD
102
}
330
E4CD
100
AcDbXrecord
280
     1
270
     1
271
     1
  0
XRECORD
  5
E4D1
102
{ACAD_REACTORS
330
E4CD
102
}
330
E4CD
100
AcDbXrecord
280
     1
270
     1
271
     1
  0
XRECORD
  5
E4D3
102
{ACAD_REACTORS
330
E4CD
102
}
330
E4CD
100
AcDbXrecord
280
     1
270
     1
271
     1
  0
XRECORD
  5
E4D0
102
{ACAD_REACTORS
330
E4CD
102
}
330
E4CD
100
AcDbXrecord
280
     1
270
     1
271
     1
  0
XRECORD
  5
3AC2F
102
{ACAD_REACTORS
330
3AB8C
102
}
330
3AB8C
100
AcDbXrecord
280
     1
102
DISPLAYNAME
  1
Imperial24
102
FLAGS
 90
        0
  0
CELLSTYLEMAP
  5
3AC2E
102
{ACAD_REACTORS
330
F86C
102
}
330
F86C
100
AcDbCellStyleMap
 90
        3
300
CELLSTYLE
  1
TABLEFORMAT_BEGIN
 90
        5
170
     1
 91
        0
 92
    32768
 62
   257
 93
        1
300
CONTENTFORMAT
  1
CONTENTFORMAT_BEGIN
 90
        0
 91
        0
 92
      512
 93
        0
300

 40
0.0
140
1.0
 94
        5
 62
     0
340
11
144
0.25
309
CONTENTFORMAT_END
171
     1
301
MARGIN
  1
CELLMARGIN_BEGIN
 40
0.06
 40
0.06
 40
0.06
 40
0.06
 40
0.18
 40
0.18
309
CELLMARGIN_END
 94
        6
 95
        1
302
GRIDFORMAT
  1
GRIDFORMAT_BEGIN
 90
        0
 91
        1
 62
     0
 92
       -2
340
0
 93
        0
 40
0.045
309
GRIDFORMAT_END
 95
        2
302
GRIDFORMAT
  1
GRIDFORMAT_BEGIN
 90
        0
 91
        1
 62
     0
 92
       -2
340
0
 93
        0
 40
0.045
309
GRIDFORMAT_END
 95
        4
302
GRIDFORMAT
  1
GRIDFORMAT_BEGIN
 90
        0
 91
        1
 62
     0
 92
       -2
340
0
 93
        0
 40
0.045
309
GRIDFORMAT_END
 95
        8
302
GRIDFORMAT
  1
GRIDFORMAT_BEGIN
 90
        0
 91
        1
 62
     0
 92
       -2
340
0
 93
        0
 40
0.045
309
GRIDFORMAT_END
 95
       16
302
GRIDFORMAT
  1
GRIDFORMAT_BEGIN
 90
        0
 91
        1
 62
     0
 92
       -2
340
0
 93
        0
 40
0.045
309
GRIDFORMAT_END
 95
       32
302
GRIDFORMAT
  1
GRIDFORMAT_BEGIN
 90
        0
 91
        1
 62
     0
 92
       -2
340
0
 93
        0
 40
0.045
309
GRIDFORMAT_END
309
TABLEFORMAT_END
  1
CELLSTYLE_BEGIN
 90
        1
 91
        1
300
_TITLE
309
CELLSTYLE_END
300
CELLSTYLE
  1
TABLEFORMAT_BEGIN
 90
        5
170
     1
 91
        0
 92
        0
 62
   257
 93
        1
300
CONTENTFORMAT
  1
CONTENTFORMAT_BEGIN
 90
        0
 91
        0
 92
      512
 93
        0
300

 40
0.0
140
1.0
 94
        5
 62
     0
340
11
144
0.18
309
CONTENTFORMAT_END
171
     1
301
MARGIN
  1
CELLMARGIN_BEGIN
 40
0.06
 40
0.06
 40
0.06
 40
0.06
 40
0.18
 40
0.18
309
CELLMARGIN_END
 94
        6
 95
        1
302
GRIDFORMAT
  1
GRIDFORMAT_BEGIN
 90
        0
 91
        1
 62
     0
 92
       -2
340
0
 93
        0
 40
0.045
309
GRIDFORMAT_END
 95
        2
302
GRIDFORMAT
  1
GRIDFORMAT_BEGIN
 90
        0
 91
        1
 62
     0
 92
       -2
340
0
 93
        0
 40
0.045
309
GRIDFORMAT_END
 95
        4
302
GRIDFORMAT
  1
GRIDFORMAT_BEGIN
 90
        0
 91
        1
 62
     0
 92
       -2
340
0
 93
        0
 40
0.045
309
GRIDFORMAT_END
 95
        8
302
GRIDFORMAT
  1
GRIDFORMAT_BEGIN
 90
        0
 91
        1
 62
     0
 92
       -2
340
0
 93
        0
 40
0.045
309
GRIDFORMAT_END
 95
       16
302
GRIDFORMAT
  1
GRIDFORMAT_BEGIN
 90
        0
 91
        1
 62
     0
 92
       -2
340
0
 93
        0
 40
0.045
309
GRIDFORMAT_END
 95
       32
302
GRIDFORMAT
  1
GRIDFORMAT_BEGIN
 90
        0
 91
        1
 62
     0
 92
       -2
340
0
 93
        0
 40
0.045
309
GRIDFORMAT_END
309
TABLEFORMAT_END
  1
CELLSTYLE_BEGIN
 90
        2
 91
        1
300
_HEADER
309
CELLSTYLE_END
300
CELLSTYLE
  1
TABLEFORMAT_BEGIN
 90
        5
170
     1
 91
        0
 92
        0
 62
   257
 93
        1
300
CONTENTFORMAT
  1
CONTENTFORMAT_BEGIN
 90
        0
 91
        0
 92
      512
 93
        0
300

 40
0.0
140
1.0
 94
        2
 62
     0
340
11
144
0.18
309
CONTENTFORMAT_END
171
     1
301
MARGIN
  1
CELLMARGIN_BEGIN
 40
0.06
 40
0.06
 40
0.06
 40
0.06
 40
0.18
 40
0.18
309
CELLMARGIN_END
 94
        6
 95
        1
302
GRIDFORMAT
  1
GRIDFORMAT_BEGIN
 90
        0
 91
        1
 62
     0
 92
       -2
340
0
 93
        0
 40
0.045
309
GRIDFORMAT_END
 95
        2
302
GRIDFORMAT
  1
GRIDFORMAT_BEGIN
 90
        0
 91
        1
 62
     0
 92
       -2
340
0
 93
        0
 40
0.045
309
GRIDFORMAT_END
 95
        4
302
GRIDFORMAT
  1
GRIDFORMAT_BEGIN
 90
        0
 91
        1
 62
     0
 92
       -2
340
0
 93
        0
 40
0.045
309
GRIDFORMAT_END
 95
        8
302
GRIDFORMAT
  1
GRIDFORMAT_BEGIN
 90
        0
 91
        1
 62
     0
 92
       -2
340
0
 93
        0
 40
0.045
309
GRIDFORMAT_END
 95
       16
302
GRIDFORMAT
  1
GRIDFORMAT_BEGIN
 90
        0
 91
        1
 62
     0
 92
       -2
340
0
 93
        0
 40
0.045
309
GRIDFORMAT_END
 95
       32
302
GRIDFORMAT
  1
GRIDFORMAT_BEGIN
 90
        0
 91
        1
 62
     0
 92
       -2
340
0
 93
        0
 40
0.045
309
GRIDFORMAT_END
309
TABLEFORMAT_END
  1
CELLSTYLE_BEGIN
 90
        3
 91
        2
300
_DATA
309
CELLSTYLE_END
  0
ENDSEC
  0
SECTION
  2
ACDSDATA
 70
     2
 71
     6
  0
ACDSSCHEMA
 90
        0
  1
AcDb_Thumbnail_Schema
  2
AcDbDs::ID
280
    10
 91
        8
  2
Thumbnail_Data
280
    15
 91
        0
101
ACDSRECORD
 95
        0
 90
        1
  2
AcDbDs::TreatedAsObjectData
280
     1
291
     1
101
ACDSRECORD
 95
        0
 90
        2
  2
AcDbDs::Legacy
280
     1
291
     1
101
ACDSRECORD
  1
AcDbDs::ID
 90
        3
  2
AcDs:Indexable
280
     1
291
     1
101
ACDSRECORD
  1
AcDbDs::ID
 90
        4
  2
AcDbDs::HandleAttribute
280
     7
282
     1
  0
ACDSSCHEMA
 90
        1
  1
AcDbDs::TreatedAsObjectDataSchema
  2
AcDbDs::TreatedAsObjectData
280
     1
 91
        0
  0
ACDSSCHEMA
 90
        2
  1
AcDbDs::LegacySchema
  2
AcDbDs::Legacy
280
     1
 91
        0
  0
ACDSSCHEMA
 90
        3
  1
AcDbDs::IndexedPropertySchema
  2
AcDs:Indexable
280
     1
 91
        0
  0
ACDSSCHEMA
 90
        4
  1
AcDbDs::HandleAttributeSchema
  2
AcDbDs::HandleAttribute
280
     7
 91
        1
284
     1
  0
ACDSRECORD
 90
        0
  2
AcDbDs::ID
280
    10
320
904E
  2
Thumbnail_Data
280
    15
 94
     1813
310
89504E470D0A1A0A0000000D4948445200000100000000A90803000000F3C813C600000300504C5445000000000000FFFFFF0000000000000000000000000000000000000000000000000000330000660000990000CC0000FF0033000033330033660033990033CC0033FF0066000066330066660066990066CC0066FF0099
310
000099330099660099990099CC0099FF00CC0000CC3300CC6600CC9900CCCC00CCFF00FF0000FF3300FF6600FF9900FFCC00FFFF3300003300333300663300993300CC3300FF3333003333333333663333993333CC3333FF3366003366333366663366993366CC3366FF3399003399333399663399993399CC3399FF33CC00
310
33CC3333CC6633CC9933CCCC33CCFF33FF0033FF3333FF6633FF9933FFCC33FFFF6600006600336600666600996600CC6600FF6633006633336633666633996633CC6633FF6666006666336666666666996666CC6666FF6699006699336699666699996699CC6699FF66CC0066CC3366CC6666CC9966CCCC66CCFF66FF0066
310
FF3366FF6666FF9966FFCC66FFFF9900009900339900669900999900CC9900FF9933009933339933669933999933CC9933FF9966009966339966669966999966CC9966FF9999009999339999669999999999CC9999FF99CC0099CC3399CC6699CC9999CCCC99CCFF99FF0099FF3399FF6699FF9999FFCC99FFFFCC0000CC00
310
33CC0066CC0099CC00CCCC00FFCC3300CC3333CC3366CC3399CC33CCCC33FFCC6600CC6633CC6666CC6699CC66CCCC66FFCC9900CC9933CC9966CC9999CC99CCCC99FFCCCC00CCCC33CCCC66CCCC99CCCCCCCCCCFFCCFF00CCFF33CCFF66CCFF99CCFFCCCCFFFFFF0000FF0033FF0066FF0099FF00CCFF00FFFF3300FF3333
310
FF3366FF3399FF33CCFF33FFFF6600FF6633FF6666FF6699FF66CCFF66FFFF9900FF9933FF9966FF9999FF99CCFF99FFFFCC00FFCC33FFCC66FFCC99FFCCCCFFCCFFFFFF00FFFF33FFFF66FFFF99FFFFCCFFFFFF0000000D0D0D1A1A1A2828283535354343435050505D5D5D6B6B6B787878868686939393A1A1A1AEAEAEBB
310
BBBBC9C9C9D6D6D6E4E4E4F1F1F1FFFFFF000000000000000000000000000000000000000000000000000000000000C11FEF66000003D04944415478DAEDDD4B72A3301006E0DC806B78A3FBEFBCD12E3547D0AA4FD09BEC472F88842520E5384977FFAA01DB2850A5CF2DD003336F643CBD01000000000000000000000000
310
0000000000000000000000000000000000F00DC9BD24490290715000000000AF0760E6B4A2BA3207C07D3208509766650FC09B05888D178E8B77F54D5AD902788C00630021260A3EAD382E716517A02CD6006299531588AB04903E993B07D07A0E78BE1400D00DF09113D525AE95B403DCDA0E381BD5F8D825A300CA22A07E
310
F057DA7F2A236003A0AB005A23801001DF7D5049007FF7A00000000000F07A80252D79F5E4D0B07C80A56C00000000601B808C0398BF0A000027410000E030CDEA885C007F05E0B38F30EB2D481D165FBA9B1DA79DA194311A3B67D900693A38AD1C85F2C91D5581C873BBDDCA7D051CF2D472E32515204F8ABBBA3A018899
310
214F21C772A779E5203E02628A04E5658DEE438035026A0CB46744A993A3214D8E86F64B3E3D7796FDC26EF844EEDCA0EBDF4F015C079002A013103C3DBE966259DE0F01BA37B9EC2CFC32B80E02E67F4CCBBF2F02B07880AE0940F43E3E0754A71D808A86D05AFBB78D6380E6AFFA08D001E03B80714BD06906702700E586
310
6A8D00DEF998520494D79CC600CD1FA4376A3A43D7AA008F224011C09593A056807A8F3CBB46E1E265500540299E6F4679660DA1D452520BD09ECF8D010C7FFF3A07702A23E05A773877165C1A0C5017017524249C474002C8C9B11A80CB436215806B274A13C0B541D10240CA00B616C0D6239E0E8B1780A6E7AC03A0F9D9
310
DC5ACCC91EBC8E0095F19391925C00FA02C0C1AF8C2503AC053A05A83F36274555A0FF624F000EEF249409405D04D03100AD4F1A5003F0392A7CF604810B8F19507DAFF0566C5D11F04500CB1160BE0AFCCE41010000000000003F09F0DCC3A4E403B055003FEF07F9E921BC0680A54D5C5E6890B5B459D31C8900CD97C9DD
310
A62EABDF34CD910A50264698AC0284103C8587AE8EB90868CA620DE0A12C2380141600D8EFC40C00C500F736B5E7C7BC53B7B1E6688E807B93550062CE7DB7931600A639004D01845601FF909652B17D9F75CF59E51ECA65DD70DFEDA42402F82002785605AC00D83807983F095EBA0CB2FECB203F8C95B457018E39ACBB29
310
0C00330093EEB01980D980889D08E0DCB1A3FD9018004C006CC3E1BC1BFB36322C4E8F11D06CDE4700ED76E28383CA0218DE1E586F89E209C060124D2CC07846F0F8A6204D0093C4D30F0580B403FC85830200000000C0AF02CC9EA43FDE0E00540100C801B0FEFF0E0B490000000000000000000000000000000000000000
310
0000000000000000000000C04EFA0F3FBE0C6CF33A26930000000049454E44AE426082
  0
ENDSEC
  0
EOF
