  0
SECTION
  2
HEADER
  9
$ACADVER
  1
AC1027
  9
$ACADMAINTVER
 70
    55
  9
$DWGCODEPAGE
  3
ANSI_932
  9
$LASTSAVEDBY
  1
marketing
  9
$REQUIREDVERSIONS
160
                 0
  9
$INSBASE
 10
0.0
 20
0.0
 30
0.0
  9
$EXTMIN
 10
-0.008324336203259
 20
-0.121759839963488
 30
-0.0000000349181948
  9
$EXTMAX
 10
630.1102395843836
 20
891.1328166503608
 30
0.0000000814935747
  9
$LIMMIN
 10
-1176.0
 20
-798.0
  9
$LIMMAX
 10
594.0
 20
1078.0
  9
$ORTHOMODE
 70
     1
  9
$REGENMODE
 70
     1
  9
$FILLMODE
 70
     1
  9
$QTEXTMODE
 70
     0
  9
$MIRRTEXT
 70
     1
  9
$LTSCALE
 40
10.0
  9
$ATTMODE
 70
     1
  9
$TEXTSIZE
 40
0.2
  9
$TRACEWID
 40
0.05
  9
$TEXTSTYLE
  7
blockfont
  9
$CLAYER
  8
30
  9
$CELTYPE
  6
BYLAYER
  9
$CECOLOR
 62
   256
  9
$CELTSCALE
 40
1.0
  9
$DISPSILH
 70
     0
  9
$DIMSCALE
 40
1.0
  9
$DIMASZ
 40
2.0
  9
$DIMEXO
 40
3.0
  9
$DIMDLI
 40
0.5
  9
$DIMRND
 40
0.0
  9
$DIMDLE
 40
0.0
  9
$DIMEXE
 40
0.5
  9
$DIMTP
 40
0.0
  9
$DIMTM
 40
0.0
  9
$DIMTXT
 40
7.0
  9
$DIMCEN
 40
0.09
  9
$DIMTSZ
 40
0.0
  9
$DIMTOL
 70
     0
  9
$DIMLIM
 70
     0
  9
$DIMTIH
 70
     1
  9
$DIMTOH
 70
     1
  9
$DIMSE1
 70
     0
  9
$DIMSE2
 70
     0
  9
$DIMTAD
 70
     3
  9
$DIMZIN
 70
    12
  9
$DIMBLK
  1
OPEN
  9
$DIMASO
 70
     1
  9
$DIMSHO
 70
     1
  9
$DIMPOST
  1

  9
$DIMAPOST
  1

  9
$DIMALT
 70
     0
  9
$DIMALTD
 70
     2
  9
$DIMALTF
 40
25.4
  9
$DIMLFAC
 40
1.0
  9
$DIMTOFL
 70
     1
  9
$DIMTVP
 40
0.0
  9
$DIMTIX
 70
     0
  9
$DIMSOXD
 70
     0
  9
$DIMSAH
 70
     0
  9
$DIMBLK1
  1

  9
$DIMBLK2
  1

  9
$DIMSTYLE
  2
STANDARD1
  9
$DIMCLRD
 70
     0
  9
$DIMCLRE
 70
     0
  9
$DIMCLRT
 70
     0
  9
$DIMTFAC
 40
1.0
  9
$DIMGAP
 40
2.0
  9
$DIMJUST
 70
     0
  9
$DIMSD1
 70
     0
  9
$DIMSD2
 70
     0
  9
$DIMTOLJ
 70
     1
  9
$DIMTZIN
 70
     0
  9
$DIMALTZ
 70
     0
  9
$DIMALTTZ
 70
     0
  9
$DIMUPT
 70
     0
  9
$DIMDEC
 70
     8
  9
$DIMTDEC
 70
     8
  9
$DIMALTU
 70
     2
  9
$DIMALTTD
 70
     2
  9
$DIMTXSTY
  7
STANDARD
  9
$DIMAUNIT
 70
     0
  9
$DIMADEC
 70
     0
  9
$DIMALTRND
 40
0.0
  9
$DIMAZIN
 70
     0
  9
$DIMDSEP
 70
    46
  9
$DIMATFIT
 70
     2
  9
$DIMFRAC
 70
     0
  9
$DIMLDRBLK
  1
OPEN
  9
$DIMLUNIT
 70
     2
  9
$DIMLWD
 70
    -2
  9
$DIMLWE
 70
    -2
  9
$DIMTMOVE
 70
     0
  9
$DIMFXL
 40
1.0
  9
$DIMFXLON
 70
     0
  9
$DIMJOGANG
 40
0.7853981633974483
  9
$DIMTFILL
 70
     0
  9
$DIMTFILLCLR
 70
     0
  9
$DIMARCSYM
 70
     0
  9
$DIMLTYPE
  6

  9
$DIMLTEX1
  6

  9
$DIMLTEX2
  6

  9
$DIMTXTDIRECTION
 70
     0
  9
$LUNITS
 70
     2
  9
$LUPREC
 70
     8
  9
$SKETCHINC
 40
0.1
  9
$FILLETRAD
 40
0.0
  9
$AUNITS
 70
     0
  9
$AUPREC
 70
     0
  9
$MENU
  1
.
  9
$ELEVATION
 40
0.0
  9
$PELEVATION
 40
0.0
  9
$THICKNESS
 40
0.0
  9
$LIMCHECK
 70
     0
  9
$CHAMFERA
 40
0.0
  9
$CHAMFERB
 40
0.0
  9
$CHAMFERC
 40
0.0
  9
$CHAMFERD
 40
0.0
  9
$SKPOLY
 70
     0
  9
$TDCREATE
 40
2452286.555658658
  9
$TDUCREATE
 40
2452286.180658658
  9
$TDUPDATE
 40
2459243.582696702
  9
$TDUUPDATE
 40
2459243.207696701
  9
$TDINDWG
 40
2.4681757060
  9
$TDUSRTIMER
 40
2.4681717708
  9
$USRTIMER
 70
     1
  9
$ANGBASE
 50
0.0
  9
$ANGDIR
 70
     0
  9
$PDMODE
 70
     0
  9
$PDSIZE
 40
0.0
  9
$PLINEWID
 40
0.0
  9
$SPLFRAME
 70
     0
  9
$SPLINETYPE
 70
     6
  9
$SPLINESEGS
 70
     8
  9
$HANDSEED
  5
3AD62
  9
$SURFTAB1
 70
     6
  9
$SURFTAB2
 70
     6
  9
$SURFTYPE
 70
     6
  9
$SURFU
 70
     6
  9
$SURFV
 70
     6
  9
$UCSBASE
  2

  9
$UCSNAME
  2

  9
$UCSORG
 10
0.0
 20
0.0
 30
0.0
  9
$UCSXDIR
 10
1.0
 20
0.0
 30
0.0
  9
$UCSYDIR
 10
0.0
 20
1.0
 30
0.0
  9
$UCSORTHOREF
  2

  9
$UCSORTHOVIEW
 70
     0
  9
$UCSORGTOP
 10
0.0
 20
0.0
 30
0.0
  9
$UCSORGBOTTOM
 10
0.0
 20
0.0
 30
0.0
  9
$UCSORGLEFT
 10
0.0
 20
0.0
 30
0.0
  9
$UCSORGRIGHT
 10
0.0
 20
0.0
 30
0.0
  9
$UCSORGFRONT
 10
0.0
 20
0.0
 30
0.0
  9
$UCSORGBACK
 10
0.0
 20
0.0
 30
0.0
  9
$PUCSBASE
  2

  9
$PUCSNAME
  2

  9
$PUCSORG
 10
0.0
 20
0.0
 30
0.0
  9
$PUCSXDIR
 10
1.0
 20
0.0
 30
0.0
  9
$PUCSYDIR
 10
0.0
 20
1.0
 30
0.0
  9
$PUCSORTHOREF
  2

  9
$PUCSORTHOVIEW
 70
     0
  9
$PUCSORGTOP
 10
0.0
 20
0.0
 30
0.0
  9
$PUCSORGBOTTOM
 10
0.0
 20
0.0
 30
0.0
  9
$PUCSORGLEFT
 10
0.0
 20
0.0
 30
0.0
  9
$PUCSORGRIGHT
 10
0.0
 20
0.0
 30
0.0
  9
$PUCSORGFRONT
 10
0.0
 20
0.0
 30
0.0
  9
$PUCSORGBACK
 10
0.0
 20
0.0
 30
0.0
  9
$USERI1
 70
     0
  9
$USERI2
 70
     0
  9
$USERI3
 70
     0
  9
$USERI4
 70
     0
  9
$USERI5
 70
     0
  9
$USERR1
 40
0.0
  9
$USERR2
 40
0.0
  9
$USERR3
 40
0.0
  9
$USERR4
 40
0.0
  9
$USERR5
 40
0.0
  9
$WORLDVIEW
 70
     1
  9
$SHADEDGE
 70
     3
  9
$SHADEDIF
 70
    70
  9
$TILEMODE
 70
     1
  9
$MAXACTVP
 70
    48
  9
$PINSBASE
 10
0.0
 20
0.0
 30
0.0
  9
$PLIMCHECK
 70
     0
  9
$PEXTMIN
 10
0.0
 20
0.0
 30
0.0
  9
$PEXTMAX
 10
0.0
 20
0.0
 30
0.0
  9
$PLIMMIN
 10
-0.2500002402958907
 20
-0.2499999962453767
  9
$PLIMMAX
 10
10.74999951940822
 20
8.249999763458731
  9
$UNITMODE
 70
     0
  9
$VISRETAIN
 70
     1
  9
$PLINEGEN
 70
     0
  9
$PSLTSCALE
 70
     1
  9
$TREEDEPTH
 70
  3020
  9
$CMLSTYLE
  2
STANDARD
  9
$CMLJUST
 70
     0
  9
$CMLSCALE
 40
1.0
  9
$PROXYGRAPHICS
 70
     1
  9
$MEASUREMENT
 70
     0
  9
$CELWEIGHT
370
    -1
  9
$ENDCAPS
280
     0
  9
$JOINSTYLE
280
     0
  9
$LWDISPLAY
290
     0
  9
$INSUNITS
 70
     0
  9
$HYPERLINKBASE
  1

  9
$STYLESHEET
  1
MONOCHROME.CTB
  9
$XEDIT
290
     1
  9
$CEPSNTYPE
380
     0
  9
$PSTYLEMODE
290
     1
  9
$FINGERPRINTGUID
  2

  9
$VERSIONGUID
  2
{A8D0A532-8C6A-4F67-AAC0-821A49E7F0AF}
  9
$EXTNAMES
290
     1
  9
$PSVPSCALE
 40
0.0
  9
$OLESTARTUP
290
     0
  9
$SORTENTS
280
   127
  9
$INDEXCTL
280
     0
  9
$HIDETEXT
280
     0
  9
$XCLIPFRAME
280
     2
  9
$HALOGAP
280
     0
  9
$OBSCOLOR
 70
   257
  9
$OBSLTYPE
280
     0
  9
$INTERSECTIONDISPLAY
280
     0
  9
$INTERSECTIONCOLOR
 70
   257
  9
$DIMASSOC
280
     1
  9
$PROJECTNAME
  1

  9
$CAMERADISPLAY
290
     0
  9
$LENSLENGTH
 40
50.0
  9
$CAMERAHEIGHT
 40
0.0
  9
$STEPSPERSEC
 40
2.0
  9
$STEPSIZE
 40
6.0
  9
$3DDWFPREC
 40
2.0
  9
$PSOLWIDTH
 40
0.25
  9
$PSOLHEIGHT
 40
4.0
  9
$LOFTANG1
 40
1.570796326794896
  9
$LOFTANG2
 40
1.570796326794896
  9
$LOFTMAG1
 40
0.0
  9
$LOFTMAG2
 40
0.0
  9
$LOFTPARAM
 70
     7
  9
$LOFTNORMALS
280
     1
  9
$LATITUDE
 40
37.795
  9
$LONGITUDE
 40
-122.394
  9
$NORTHDIRECTION
 40
0.0
  9
$TIMEZONE
 70
 -8000
  9
$LIGHTGLYPHDISPLAY
280
     1
  9
$TILEMODELIGHTSYNCH
280
     1
  9
$CMATERIAL
347
E4BC
  9
$SOLIDHIST
280
     1
  9
$SHOWHIST
280
     1
  9
$DWFFRAME
280
     2
  9
$DGNFRAME
280
     0
  9
$REALWORLDSCALE
290
     1
  9
$INTERFERECOLOR
 62
     1
  9
$INTERFEREOBJVS
345
E4DE
  9
$INTERFEREVPVS
346
E4DB
  9
$CSHADOW
280
     0
  9
$SHADOWPLANELOCATION
 40
0.0
  0
ENDSEC
  0
SECTION
  2
CLASSES
  0
CLASS
  1
ACDBDICTIONARYWDFLT
  2
AcDbDictionaryWithDefault
  3
ObjectDBX Classes
 90
        0
 91
        1
280
     0
281
     0
  0
CLASS
  1
DICTIONARYVAR
  2
AcDbDictionaryVar
  3
ObjectDBX Classes
 90
        0
 91
       12
280
     0
281
     0
  0
CLASS
  1
MATERIAL
  2
AcDbMaterial
  3
ObjectDBX Classes
 90
     1153
 91
        3
280
     0
281
     0
  0
CLASS
  1
VISUALSTYLE
  2
AcDbVisualStyle
  3
ObjectDBX Classes
 90
     4095
 91
       26
280
     0
281
     0
  0
CLASS
  1
TABLESTYLE
  2
AcDbTableStyle
  3
ObjectDBX Classes
 90
     4095
 91
        1
280
     0
281
     0
  0
CLASS
  1
SCALE
  2
AcDbScale
  3
ObjectDBX Classes
 90
     1153
 91
       33
280
     0
281
     0
  0
CLASS
  1
MLEADERSTYLE
  2
AcDbMLeaderStyle
  3
ACDB_MLEADERSTYLE_CLASS
 90
     4095
 91
        1
280
     0
281
     0
  0
CLASS
  1
CELLSTYLEMAP
  2
AcDbCellStyleMap
  3
ObjectDBX Classes
 90
     1152
 91
        4
280
     0
281
     0
  0
CLASS
  1
AEC_REFEDIT_STATUS_TRACKER
  2
AecDbRefEditStatusTracker
  3
AecArchBase60|Product Desc: Autodesk Architectural Desktop 2007 |Company: Autodesk,Inc. |WEB Address: www.autodesk.com
 90
      129
 91
        0
280
     0
281
     0
  0
CLASS
  1
NPOCOLLECTION
  2
AcDbImpNonPersistentObjectsCollection
  3
ObjectDBX Classes
 90
     1153
 91
        0
280
     0
281
     0
  0
CLASS
  1
SORTENTSTABLE
  2
AcDbSortentsTable
  3
ObjectDBX Classes
 90
        0
 91
        1
280
     0
281
     0
  0
CLASS
  1
ACDBSECTIONVIEWSTYLE
  2
AcDbSectionViewStyle
  3
ObjectDBX Classes
 90
     1025
 91
        1
280
     0
281
     0
  0
CLASS
  1
ACDBDETAILVIEWSTYLE
  2
AcDbDetailViewStyle
  3
ObjectDBX Classes
 90
     1025
 91
        1
280
     0
281
     0
  0
ENDSEC
  0
SECTION
  2
TABLES
  0
TABLE
  2
VPORT
  5
8
330
0
100
AcDbSymbolTable
 70
     1
  0
VPORT
  5
12C00
330
8
100
AcDbSymbolTableRecord
100
AcDbViewportTableRecord
  2
*Active
 70
     0
 10
0.0
 20
0.0
 11
1.0
 21
1.0
 12
315.0509576240902
 22
445.5055284051987
 13
0.0
 23
0.0
 14
1.0
 24
1.0
 15
10.0
 25
10.0
 16
0.0
 26
0.0
 36
1.0
 17
0.0
 27
0.0
 37
0.0
 40
900.5005275189423
 41
2.464339908952958
 42
50.0
 43
0.0
 44
0.0
 50
0.0
 51
0.0
 71
     0
 72
   100
 73
     1
 74
     1
 75
     0
 76
     0
 77
     0
 78
     1
281
     0
 65
     1
110
0.0
120
0.0
130
0.0
111
1.0
121
0.0
131
0.0
112
0.0
122
1.0
132
0.0
 79
     0
146
0.0
348
E4DA
 60
     3
 61
     5
292
     1
282
     1
141
0.0
142
0.0
 63
   250
421
  3355443
1001
ACAD_NAV_VCDISPLAY
1070
     3
  0
ENDTAB
  0
TABLE
  2
LTYPE
  5
5
330
0
100
AcDbSymbolTable
 70
     6
  0
LTYPE
  5
13
330
5
100
AcDbSymbolTableRecord
100
AcDbLinetypeTableRecord
  2
BYBLOCK
 70
     0
  3

 72
    65
 73
     0
 40
0.0
  0
LTYPE
  5
14
330
5
100
AcDbSymbolTableRecord
100
AcDbLinetypeTableRecord
  2
BYLAYER
 70
     0
  3

 72
    65
 73
     0
 40
0.0
  0
LTYPE
  5
15
330
5
100
AcDbSymbolTableRecord
100
AcDbLinetypeTableRecord
  2
CONTINUOUS
 70
     0
  3
Solid line
 72
    65
 73
     0
 40
0.0
  0
LTYPE
  5
22
330
5
100
AcDbSymbolTableRecord
100
AcDbLinetypeTableRecord
  2
CONTINOUS
 70
     0
  3
Solid line
 72
    65
 73
     0
 40
0.0
  0
LTYPE
  5
24
330
5
100
AcDbSymbolTableRecord
100
AcDbLinetypeTableRecord
  2
DASHDOT
 70
     0
  3
__ . __ . __ . __ . __ . __ . __ . __ . __ . __
 72
    65
 73
     4
 40
1.0
 49
0.5
 74
     0
 49
-0.25
 74
     0
 49
0.0
 74
     0
 49
-0.25
 74
     0
  0
LTYPE
  5
4C47
330
5
100
AcDbSymbolTableRecord
100
AcDbLinetypeTableRecord
  2
DIVIDE
 70
     0
  3
Divide ____ . . ____ . . ____ . . ____ . . ____
 72
    65
 73
     6
 40
1.25
 49
0.5
 74
     0
 49
-0.25
 74
     0
 49
0.0
 74
     0
 49
-0.25
 74
     0
 49
0.0
 74
     0
 49
-0.25
 74
     0
  0
LTYPE
  5
399AC
330
5
100
AcDbSymbolTableRecord
100
AcDbLinetypeTableRecord
  2
DASHED
 70
     0
  3
__ __ __ __ __ __ __ __ __ __ __ __ __ __ __
 72
    65
 73
     2
 40
0.75
 49
0.5
 74
     0
 49
-0.25
 74
     0
  0
ENDTAB
  0
TABLE
  2
LAYER
  5
2
102
{ACAD_XDICTIONARY
360
12DA0
102
}
330
0
100
AcDbSymbolTable
 70
    13
  0
LAYER
  5
10
102
{ACAD_XDICTIONARY
360
E512
102
}
330
2
100
AcDbSymbolTableRecord
100
AcDbLayerTableRecord
  2
0
 70
     0
 62
     7
  6
CONTINOUS
370
    -3
390
F
347
E4CC
348
0
  0
LAYER
  5
2F
102
{ACAD_XDICTIONARY
360
E514
102
}
330
2
100
AcDbSymbolTableRecord
100
AcDbLayerTableRecord
  2
10
 70
     0
 62
     4
  6
CONTINOUS
370
    -3
390
F
347
E4CC
348
0
  0
LAYER
  5
35
102
{ACAD_XDICTIONARY
360
E518
102
}
330
2
100
AcDbSymbolTableRecord
100
AcDbLayerTableRecord
  2
16
 70
     0
 62
     6
  6
DASHDOT
370
    -3
390
F
347
E4CC
348
0
  0
LAYER
  5
3D
102
{ACAD_XDICTIONARY
360
E51C
102
}
330
2
100
AcDbSymbolTableRecord
100
AcDbLayerTableRecord
  2
24
 70
     0
 62
     7
  6
CONTINOUS
370
    -3
390
F
347
E4CC
348
0
  0
LAYER
  5
3A2
102
{ACAD_XDICTIONARY
360
E51E
102
}
330
2
100
AcDbSymbolTableRecord
100
AcDbLayerTableRecord
  2
30
 70
     0
 62
     9
  6
CONTINUOUS
370
    -3
390
F
347
E4CC
348
0
  0
LAYER
  5
3A4
330
2
100
AcDbSymbolTableRecord
100
AcDbLayerTableRecord
  2
DEFPOINTS
 70
     0
 62
     7
  6
CONTINUOUS
290
     0
370
    -3
390
F
347
E4CC
348
0
  0
LAYER
  5
3BBA
102
{ACAD_XDICTIONARY
360
E520
102
}
330
2
100
AcDbSymbolTableRecord
100
AcDbLayerTableRecord
  2
18
 70
     0
 62
     5
  6
DIVIDE
370
    -3
390
F
347
E4CC
348
0
  0
LAYER
  5
7837
102
{ACAD_XDICTIONARY
360
E524
102
}
330
2
100
AcDbSymbolTableRecord
100
AcDbLayerTableRecord
  2
17
 70
     0
 62
     2
  6
DASHDOT
370
    -3
390
F
347
E4CC
348
0
  0
LAYER
  5
C501
102
{ACAD_XDICTIONARY
360
E530
102
}
330
2
100
AcDbSymbolTableRecord
100
AcDbLayerTableRecord
  2
5
 70
     0
 62
     7
  6
CONTINUOUS
370
    -3
390
F
347
E4CC
348
0
  0
LAYER
  5
E473
102
{ACAD_XDICTIONARY
360
E534
102
}
330
2
100
AcDbSymbolTableRecord
100
AcDbLayerTableRecord
  2
130
 70
     0
 62
     4
  6
CONTINUOUS
370
    -3
390
F
347
E4CC
348
0
  0
LAYER
  5
38289
102
{ACAD_XDICTIONARY
360
3828A
102
}
330
2
100
AcDbSymbolTableRecord
100
AcDbLayerTableRecord
  2
240
 70
     0
 62
     7
  6
CONTINUOUS
370
    -3
390
F
347
E4CC
348
0
  0
LAYER
  5
399AD
102
{ACAD_XDICTIONARY
360
399AE
102
}
330
2
100
AcDbSymbolTableRecord
100
AcDbLayerTableRecord
  2
12
 70
     0
 62
     3
  6
CONTINOUS
370
    -3
390
F
347
E4CC
348
0
  0
LAYER
  5
3AD45
330
2
100
AcDbSymbolTableRecord
100
AcDbLayerTableRecord
  2
11
 70
     0
 62
     1
  6
CONTINOUS
370
    -3
390
F
347
E4CC
348
0
1001
AcAecLayerStandard
1000

1000

1001
AcCmTransparency
1071
        0
  0
ENDTAB
  0
TABLE
  2
STYLE
  5
3
330
0
100
AcDbSymbolTable
 70
     2
  0
STYLE
  5
11
330
3
100
AcDbSymbolTableRecord
100
AcDbTextStyleTableRecord
  2
STANDARD
 70
     0
 40
0.0
 41
1.0
 50
0.0
 71
     0
 42
2.0
  3
txt.shx
  4
bigfont.shx
  0
STYLE
  5
C503
330
3
100
AcDbSymbolTableRecord
100
AcDbTextStyleTableRecord
  2
blockfont
 70
     0
 40
0.0
 41
1.0
 50
0.0
 71
     0
 42
0.2
  3
simplex.shx
  4
bigfont
  0
ENDTAB
  0
TABLE
  2
VIEW
  5
6
330
0
100
AcDbSymbolTable
 70
     5
  0
VIEW
  5
230C
330
6
100
AcDbSymbolTableRecord
100
AcDbViewTableRecord
  2
OLE1
 70
     0
 40
148.912488
 10
429.497628
 20
2.560627
 41
103.145806
 11
0.0
 21
0.0
 31
1.0
 12
0.0
 22
0.0
 32
0.0
 42
50.0
 43
0.0
 44
0.0
 50
0.0
 71
     0
281
     0
 72
     0
 73
     0
348
E4DA
  0
VIEW
  5
230E
330
6
100
AcDbSymbolTableRecord
100
AcDbViewTableRecord
  2
OLE2
 70
     0
 40
170.778692
 10
322.66497
 20
-5.978304
 41
102.467215
 11
0.0
 21
0.0
 31
1.0
 12
0.0
 22
0.0
 32
0.0
 42
50.0
 43
0.0
 44
0.0
 50
0.0
 71
     0
281
     0
 72
     0
 73
     0
348
E4DA
  0
VIEW
  5
23AA
330
6
100
AcDbSymbolTableRecord
100
AcDbViewTableRecord
  2
OLE3
 70
     0
 40
591.7897389999998
 10
84.79698199999999
 20
-46.09335999999998
 41
388.792096
 11
0.0
 21
0.0
 31
1.0
 12
0.0
 22
0.0
 32
0.0
 42
50.0
 43
0.0
 44
0.0
 50
0.0
 71
     0
281
     0
 72
     0
 73
     0
348
E4DA
  0
ENDTAB
  0
TABLE
  2
UCS
  5
7
330
0
100
AcDbSymbolTable
 70
     0
  0
ENDTAB
  0
TABLE
  2
APPID
  5
9
330
0
100
AcDbSymbolTable
 70
    11
  0
APPID
  5
12
330
9
100
AcDbSymbolTableRecord
100
AcDbRegAppTableRecord
  2
ACAD
 70
     0
  0
APPID
  5
ECD
330
9
100
AcDbSymbolTableRecord
100
AcDbRegAppTableRecord
  2
CONTENTBLOCKICON
 70
     0
  0
APPID
  5
E582
330
9
100
AcDbSymbolTableRecord
100
AcDbRegAppTableRecord
  2
DCO15
 70
     0
  0
APPID
  5
F8B0
330
9
100
AcDbSymbolTableRecord
100
AcDbRegAppTableRecord
  2
ACAD_MLEADERVER
 70
     0
  0
APPID
  5
F8D5
330
9
100
AcDbSymbolTableRecord
100
AcDbRegAppTableRecord
  2
ACAD_PSEXT
 70
     0
  0
APPID
  5
F997
330
9
100
AcDbSymbolTableRecord
100
AcDbRegAppTableRecord
  2
ACAD_EXEMPT_FROM_CAD_STANDARDS
 70
     0
  0
APPID
  5
1F2D1
330
9
100
AcDbSymbolTableRecord
100
AcDbRegAppTableRecord
  2
ACAD_DSTYLE_DIMJAG
 70
     0
  0
APPID
  5
1F2D2
330
9
100
AcDbSymbolTableRecord
100
AcDbRegAppTableRecord
  2
ACAD_DSTYLE_DIMTALN
 70
     0
  0
APPID
  5
3ACA9
330
9
100
AcDbSymbolTableRecord
100
AcDbRegAppTableRecord
  2
ACAD_NAV_VCDISPLAY
 70
     0
  0
APPID
  5
3AD46
330
9
100
AcDbSymbolTableRecord
100
AcDbRegAppTableRecord
  2
AcAecLayerStandard
 70
     0
  0
APPID
  5
3AD47
330
9
100
AcDbSymbolTableRecord
100
AcDbRegAppTableRecord
  2
AcCmTransparency
 70
     0
  0
ENDTAB
  0
TABLE
  2
DIMSTYLE
  5
A
330
0
100
AcDbSymbolTable
 70
     3
100
AcDbDimStyleTable
 71
     2
340
175
340
C24A
  0
DIMSTYLE
105
175
102
{ACAD_REACTORS
330
3A466
330
3A46A
330
3A465
330
3A45A
330
3A45B
330
3A802
330
3A80B
330
3A80C
330
3A811
330
3A999
330
3A99A
330
3A9EC
330
3A9ED
330
3A45E
330
3A445
330
3A475
102
}
330
A
100
AcDbSymbolTableRecord
100
AcDbDimStyleTableRecord
  2
STANDARD
 70
     0
 41
3.0
 42
1.0
 43
0.5
 44
0.5
 69
     1
 73
     0
 74
     0
 77
     1
 78
    12
140
7.0
147
3.0
271
     1
272
     1
340
11
341
3B2
342
3B2
1001
ACAD_DSTYLE_DIMJAG
1070
   388
1040
1.5
1001
ACAD_DSTYLE_DIMTALN
1070
   392
1070
     0
  0
DIMSTYLE
105
C24A
102
{ACAD_REACTORS
330
3A41C
330
3A446
330
3A803
330
3A804
330
3A805
330
3A806
330
3A807
330
3A808
330
3A814
330
3A47C
330
3A46B
102
}
330
A
100
AcDbSymbolTableRecord
100
AcDbDimStyleTableRecord
  2
STANDARD1
 70
     0
 41
2.0
 42
3.0
 43
0.5
 44
0.5
 77
     3
 78
    12
140
7.0
147
2.0
172
     1
271
     8
272
     8
289
     2
340
11
341
3B2
342
3B2
1001
ACAD_DSTYLE_DIMJAG
1070
   388
1040
1.5
1001
ACAD_DSTYLE_DIMTALN
1070
   392
1070
     0
  0
ENDTAB
  0
TABLE
  2
BLOCK_RECORD
  5
1
330
0
100
AcDbSymbolTable
 70
    29
  0
BLOCK_RECORD
  5
1E
102
{ACAD_XDICTIONARY
360
178
102
}
330
1
100
AcDbSymbolTableRecord
100
AcDbBlockTableRecord
  2
*MODEL_SPACE
340
904E
 70
     0
280
     1
281
     0
  0
BLOCK_RECORD
  5
1A
102
{ACAD_XDICTIONARY
360
17A
102
}
330
1
100
AcDbSymbolTableRecord
100
AcDbBlockTableRecord
  2
*PAPER_SPACE
340
904F
 70
     0
280
     1
281
     0
  0
BLOCK_RECORD
  5
3B2
330
1
100
AcDbSymbolTableRecord
100
AcDbBlockTableRecord
  2
_OPEN
340
0
102
{BLKREFS
331
3AADA
331
3AADB
331
3AAF5
331
3AAF6
331
3AAFE
331
3AAFF
331
3AB07
331
3AB17
331
3AB1E
331
3AB1F
331
3AB29
331
3AB2A
331
3AB32
331
3AB33
331
3AB3B
331
3AB3C
331
3AB44
331
3AB45
331
3AB4D
331
3AB4E
331
3AB56
331
3AB57
331
3AB5F
331
3AB60
331
3AB68
331
3AB69
331
3AB72
331
3AB73
331
3ABA1
331
3ABA2
331
3ABAA
331
3ABAB
331
3ABB3
331
3ABB4
331
3AC09
331
3AC0A
331
3AC14
331
3AC15
331
3AC45
331
3AC46
331
3AC4F
331
3AC50
331
3AD2D
331
3AD2E
331
3ACC1
331
3ACC2
331
3ACCA
331
3ACCB
331
3ACD3
331
3ACD4
331
3ACDC
331
3ACDD
102
}
 70
     0
280
     1
281
     0
  0
BLOCK_RECORD
  5
3A4C5
330
1
100
AcDbSymbolTableRecord
100
AcDbBlockTableRecord
  2
*D1
340
0
 70
     0
280
     1
281
     0
  0
BLOCK_RECORD
  5
3A4F5
330
1
100
AcDbSymbolTableRecord
100
AcDbBlockTableRecord
  2
*D2
340
0
 70
     0
280
     1
281
     0
  0
BLOCK_RECORD
  5
3A501
330
1
100
AcDbSymbolTableRecord
100
AcDbBlockTableRecord
  2
*D3
340
0
 70
     0
280
     1
281
     0
  0
BLOCK_RECORD
  5
3A50D
330
1
100
AcDbSymbolTableRecord
100
AcDbBlockTableRecord
  2
*D4
340
0
 70
     0
280
     1
281
     0
  0
BLOCK_RECORD
  5
3A519
330
1
100
AcDbSymbolTableRecord
100
AcDbBlockTableRecord
  2
*D5
340
0
 70
     0
280
     1
281
     0
  0
BLOCK_RECORD
  5
3A525
330
1
100
AcDbSymbolTableRecord
100
AcDbBlockTableRecord
  2
*D6
340
0
 70
     0
280
     1
281
     0
  0
BLOCK_RECORD
  5
3A532
330
1
100
AcDbSymbolTableRecord
100
AcDbBlockTableRecord
  2
*D7
340
0
 70
     0
280
     1
281
     0
  0
BLOCK_RECORD
  5
3A53E
330
1
100
AcDbSymbolTableRecord
100
AcDbBlockTableRecord
  2
*D8
340
0
 70
     0
280
     1
281
     0
  0
BLOCK_RECORD
  5
3A54A
330
1
100
AcDbSymbolTableRecord
100
AcDbBlockTableRecord
  2
*D9
340
0
 70
     0
280
     1
281
     0
  0
BLOCK_RECORD
  5
3A556
330
1
100
AcDbSymbolTableRecord
100
AcDbBlockTableRecord
  2
*D10
340
0
 70
     0
280
     1
281
     0
  0
BLOCK_RECORD
  5
3A560
330
1
100
AcDbSymbolTableRecord
100
AcDbBlockTableRecord
  2
*D11
340
0
 70
     0
280
     1
281
     0
  0
BLOCK_RECORD
  5
3A578
330
1
100
AcDbSymbolTableRecord
100
AcDbBlockTableRecord
  2
*D12
340
0
 70
     0
280
     1
281
     0
  0
BLOCK_RECORD
  5
3A817
330
1
100
AcDbSymbolTableRecord
100
AcDbBlockTableRecord
  2
*D13
340
0
 70
     0
280
     1
281
     0
  0
BLOCK_RECORD
  5
3A823
330
1
100
AcDbSymbolTableRecord
100
AcDbBlockTableRecord
  2
*D14
340
0
 70
     0
280
     1
281
     0
  0
BLOCK_RECORD
  5
3A831
330
1
100
AcDbSymbolTableRecord
100
AcDbBlockTableRecord
  2
*D15
340
0
 70
     0
280
     1
281
     0
  0
BLOCK_RECORD
  5
3A83D
330
1
100
AcDbSymbolTableRecord
100
AcDbBlockTableRecord
  2
*D16
340
0
 70
     0
280
     1
281
     0
  0
BLOCK_RECORD
  5
3A849
330
1
100
AcDbSymbolTableRecord
100
AcDbBlockTableRecord
  2
*D17
340
0
 70
     0
280
     1
281
     0
  0
BLOCK_RECORD
  5
3A855
330
1
100
AcDbSymbolTableRecord
100
AcDbBlockTableRecord
  2
*D18
340
0
 70
     0
280
     1
281
     0
  0
BLOCK_RECORD
  5
3A861
330
1
100
AcDbSymbolTableRecord
100
AcDbBlockTableRecord
  2
*D19
340
0
 70
     0
280
     1
281
     0
  0
BLOCK_RECORD
  5
3A86D
330
1
100
AcDbSymbolTableRecord
100
AcDbBlockTableRecord
  2
*D20
340
0
 70
     0
280
     1
281
     0
  0
BLOCK_RECORD
  5
3A879
330
1
100
AcDbSymbolTableRecord
100
AcDbBlockTableRecord
  2
*D21
340
0
 70
     0
280
     1
281
     0
  0
BLOCK_RECORD
  5
3A885
330
1
100
AcDbSymbolTableRecord
100
AcDbBlockTableRecord
  2
*D22
340
0
 70
     0
280
     1
281
     0
  0
BLOCK_RECORD
  5
3A892
330
1
100
AcDbSymbolTableRecord
100
AcDbBlockTableRecord
  2
*D23
340
0
 70
     0
280
     1
281
     0
  0
BLOCK_RECORD
  5
3A9A7
330
1
100
AcDbSymbolTableRecord
100
AcDbBlockTableRecord
  2
*D24
340
0
 70
     0
280
     1
281
     0
  0
BLOCK_RECORD
  5
3A9B3
330
1
100
AcDbSymbolTableRecord
100
AcDbBlockTableRecord
  2
*D25
340
0
 70
     0
280
     1
281
     0
  0
BLOCK_RECORD
  5
3A9EE
330
1
100
AcDbSymbolTableRecord
100
AcDbBlockTableRecord
  2
*D26
340
0
 70
     0
280
     1
281
     0
  0
BLOCK_RECORD
  5
3A9FA
330
1
100
AcDbSymbolTableRecord
100
AcDbBlockTableRecord
  2
*D27
340
0
 70
     0
280
     1
281
     0
  0
ENDTAB
  0
ENDSEC
  0
SECTION
  2
BLOCKS
  0
BLOCK
  5
1F
330
1E
100
AcDbEntity
  8
0
100
AcDbBlockBegin
  2
*MODEL_SPACE
 70
     0
 10
0.0
 20
0.0
 30
0.0
  3
*MODEL_SPACE
  1

  0
ENDBLK
  5
20
330
1E
100
AcDbEntity
  8
0
100
AcDbBlockEnd
  0
BLOCK
  5
1B
330
1A
100
AcDbEntity
 67
     1
  8
0
100
AcDbBlockBegin
  2
*PAPER_SPACE
 70
     0
 10
0.0
 20
0.0
 30
0.0
  3
*PAPER_SPACE
  1

  0
ENDBLK
  5
1C
330
1A
100
AcDbEntity
 67
     1
  8
0
100
AcDbBlockEnd
  0
BLOCK
  5
3B6
330
3B2
100
AcDbEntity
  8
0
100
AcDbBlockBegin
  2
_OPEN
 70
     0
 10
0.0
 20
0.0
 30
0.0
  3
_OPEN
  1

  0
LINE
  5
3B3
330
3B2
100
AcDbEntity
  8
30
  6
Continuous
 62
     0
100
AcDbLine
 10
-1.0
 20
0.166667
 30
0.0
 11
0.0
 21
0.0
 31
0.0
  0
LINE
  5
3B4
330
3B2
100
AcDbEntity
  8
30
  6
Continuous
 62
     0
100
AcDbLine
 10
-1.0
 20
-0.166667
 30
0.0
 11
0.0
 21
0.0
 31
0.0
  0
LINE
  5
3B5
330
3B2
100
AcDbEntity
  8
30
  6
Continuous
 62
     0
100
AcDbLine
 10
0.0
 20
0.0
 30
0.0
 11
-1.0
 21
0.0
 31
0.0
  0
ENDBLK
  5
3B7
330
3B2
100
AcDbEntity
  8
0
100
AcDbBlockEnd
  0
BLOCK
  5
3A4C6
330
3A4C5
100
AcDbEntity
  8
0
100
AcDbBlockBegin
  2
*D1
 70
     1
 10
0.0
 20
0.0
 30
0.0
  3
*D1
  1

  0
LINE
  5
3ACC7
330
3A4C5
100
AcDbEntity
  8
30
 62
     0
440
 16777216
370
    -2
100
AcDbLine
 10
160.9796877639411
 20
786.0586700863084
 30
0.0
 11
160.9796877639411
 21
845.4301550248827
 31
0.0
  0
LINE
  5
3ACC8
330
3A4C5
100
AcDbEntity
  8
30
 62
     0
440
 16777216
370
    -2
100
AcDbLine
 10
125.9796877639409
 20
814.1460295305938
 30
0.0
 11
125.9796877639409
 21
845.4301550248827
 31
0.0
  0
LINE
  5
3ACC9
330
3A4C5
100
AcDbEntity
  8
30
 62
     0
440
 16777216
370
    -2
100
AcDbLine
 10
158.9796877639411
 20
844.9301550248828
 30
0.0
 11
127.9796877639409
 21
844.9301550248828
 31
0.0
  0
INSERT
  5
3ACCA
330
3A4C5
100
AcDbEntity
  8
30
 62
     0
440
 16777216
370
    -2
100
AcDbBlockReference
  2
_OPEN
 10
160.9796877639411
 20
844.9301550248828
 30
0.0
 41
2.0
 42
2.0
 43
2.0
  0
INSERT
  5
3ACCB
330
3A4C5
100
AcDbEntity
  8
30
 62
     0
440
 16777216
370
    -2
100
AcDbBlockReference
  2
_OPEN
 10
125.9796877639409
 20
844.9301550248828
 30
0.0
 41
2.0
 42
2.0
 43
2.0
 50
180.0
  0
MTEXT
  5
3ACCC
330
3A4C5
100
AcDbEntity
  8
30
 62
     0
440
 16777216
100
AcDbMText
 10
143.479687763941
 20
850.4301550248827
 30
0.0
 40
7.0
 41
0.0
 46
0.0
 71
     5
 72
     1
  1
\A1;35
 73
     1
 44
1.0
  0
POINT
  5
3ACCD
330
3A4C5
100
AcDbEntity
  8
DEFPOINTS
 62
     0
440
 16777216
100
AcDbPoint
 10
160.9796877639411
 20
783.0586700863086
 30
0.0
  0
POINT
  5
3ACCE
330
3A4C5
100
AcDbEntity
  8
DEFPOINTS
 62
     0
440
 16777216
100
AcDbPoint
 10
125.9796877639409
 20
811.1460295305937
 30
0.0
  0
POINT
  5
3ACCF
330
3A4C5
100
AcDbEntity
  8
DEFPOINTS
 62
     0
440
 16777216
100
AcDbPoint
 10
125.9796877639409
 20
844.9301550248828
 30
0.0
  0
ENDBLK
  5
3A4C7
330
3A4C5
100
AcDbEntity
  8
0
100
AcDbBlockEnd
  0
BLOCK
  5
3A4F6
330
3A4F5
100
AcDbEntity
  8
0
100
AcDbBlockBegin
  2
*D2
 70
     1
 10
0.0
 20
0.0
 30
0.0
  3
*D2
  1

  0
LINE
  5
3AC42
330
3A4F5
100
AcDbEntity
  8
30
 62
     0
440
 16777216
370
    -2
100
AcDbLine
 10
76.97968776394157
 20
501.2471281819744
 30
0.0
 11
76.97968776394157
 21
509.8848421128193
 31
0.0
  0
LINE
  5
3AC43
330
3A4F5
100
AcDbEntity
  8
30
 62
     0
440
 16777216
370
    -2
100
AcDbLine
 10
174.979687763941
 20
501.2471281819744
 30
0.0
 11
174.979687763941
 21
509.8848421128193
 31
0.0
  0
LINE
  5
3AC44
330
3A4F5
100
AcDbEntity
  8
30
 62
     0
440
 16777216
370
    -2
100
AcDbLine
 10
79.97968776394157
 20
509.3848421128193
 30
0.0
 11
171.979687763941
 21
509.3848421128193
 31
0.0
  0
INSERT
  5
3AC45
330
3A4F5
100
AcDbEntity
  8
30
 62
     0
440
 16777216
370
    -2
100
AcDbBlockReference
  2
_OPEN
 10
76.97968776394157
 20
509.3848421128193
 30
0.0
 41
3.0
 42
3.0
 43
3.0
 50
180.0
  0
INSERT
  5
3AC46
330
3A4F5
100
AcDbEntity
  8
30
 62
     0
440
 16777216
370
    -2
100
AcDbBlockReference
  2
_OPEN
 10
174.979687763941
 20
509.3848421128193
 30
0.0
 41
3.0
 42
3.0
 43
3.0
  0
MTEXT
  5
3AC47
330
3A4F5
100
AcDbEntity
  8
30
 62
     0
440
 16777216
100
AcDbMText
 10
135.3363384397862
 20
515.8848421128196
 30
0.0
 40
7.0
 41
0.0
 46
0.0
 71
     5
 72
     1
  1
\A1;98
 73
     1
 44
1.0
 90
        3
 63
     9
421
 13158600
 45
1.25
441
        0
  0
POINT
  5
3AC48
330
3A4F5
100
AcDbEntity
  8
DEFPOINTS
 62
     0
440
 16777216
100
AcDbPoint
 10
76.97968776394157
 20
500.2471281819744
 30
0.0
  0
POINT
  5
3AC49
330
3A4F5
100
AcDbEntity
  8
DEFPOINTS
 62
     0
440
 16777216
100
AcDbPoint
 10
174.979687763941
 20
500.2471281819744
 30
0.0
  0
POINT
  5
3AC4A
330
3A4F5
100
AcDbEntity
  8
DEFPOINTS
 62
     0
440
 16777216
100
AcDbPoint
 10
174.979687763941
 20
509.3848421128193
 30
0.0
  0
ENDBLK
  5
3A4F7
330
3A4F5
100
AcDbEntity
  8
0
100
AcDbBlockEnd
  0
BLOCK
  5
3A502
330
3A501
100
AcDbEntity
  8
0
100
AcDbBlockBegin
  2
*D3
 70
     1
 10
0.0
 20
0.0
 30
0.0
  3
*D3
  1

  0
LINE
  5
3ACBE
330
3A501
100
AcDbEntity
  8
30
 62
     0
440
 16777216
370
    -2
100
AcDbLine
 10
125.979687763941
 20
786.240784762062
 30
0.0
 11
125.979687763941
 21
845.4301550248827
 31
0.0
  0
LINE
  5
3ACBF
330
3A501
100
AcDbEntity
  8
30
 62
     0
440
 16777216
370
    -2
100
AcDbLine
 10
90.97968776394111
 20
787.5155939676765
 30
0.0
 11
90.97968776394111
 21
845.4301550248827
 31
0.0
  0
LINE
  5
3ACC0
330
3A501
100
AcDbEntity
  8
30
 62
     0
440
 16777216
370
    -2
100
AcDbLine
 10
123.979687763941
 20
844.9301550248828
 30
0.0
 11
92.97968776394112
 21
844.9301550248828
 31
0.0
  0
INSERT
  5
3ACC1
330
3A501
100
AcDbEntity
  8
30
 62
     0
440
 16777216
370
    -2
100
AcDbBlockReference
  2
_OPEN
 10
125.979687763941
 20
844.9301550248828
 30
0.0
 41
2.0
 42
2.0
 43
2.0
  0
INSERT
  5
3ACC2
330
3A501
100
AcDbEntity
  8
30
 62
     0
440
 16777216
370
    -2
100
AcDbBlockReference
  2
_OPEN
 10
90.97968776394111
 20
844.9301550248828
 30
0.0
 41
2.0
 42
2.0
 43
2.0
 50
180.0
  0
MTEXT
  5
3ACC3
330
3A501
100
AcDbEntity
  8
30
 62
     0
440
 16777216
100
AcDbMText
 10
108.479687763941
 20
850.4301550248827
 30
0.0
 40
7.0
 41
0.0
 46
0.0
 71
     5
 72
     1
  1
\A1;35
 73
     1
 44
1.0
  0
POINT
  5
3ACC4
330
3A501
100
AcDbEntity
  8
DEFPOINTS
 62
     0
440
 16777216
100
AcDbPoint
 10
125.979687763941
 20
783.240784762062
 30
0.0
  0
POINT
  5
3ACC5
330
3A501
100
AcDbEntity
  8
DEFPOINTS
 62
     0
440
 16777216
100
AcDbPoint
 10
90.97968776394111
 20
784.5155939676765
 30
0.0
  0
POINT
  5
3ACC6
330
3A501
100
AcDbEntity
  8
DEFPOINTS
 62
     0
440
 16777216
100
AcDbPoint
 10
90.97968776394111
 20
844.9301550248828
 30
0.0
  0
ENDBLK
  5
3A503
330
3A501
100
AcDbEntity
  8
0
100
AcDbBlockEnd
  0
BLOCK
  5
3A50E
330
3A50D
100
AcDbEntity
  8
0
100
AcDbBlockBegin
  2
*D4
 70
     1
 10
0.0
 20
0.0
 30
0.0
  3
*D4
  1

  0
LINE
  5
3ACD0
330
3A50D
100
AcDbEntity
  8
30
 62
     0
440
 16777216
370
    -2
100
AcDbLine
 10
108.3292596083358
 20
245.5207853385028
 30
0.0
 11
108.3292596083358
 21
73.80637865628614
 31
0.0
  0
LINE
  5
3ACD1
330
3A50D
100
AcDbEntity
  8
30
 62
     0
440
 16777216
370
    -2
100
AcDbLine
 10
143.3292596083362
 20
119.5207853385029
 30
0.0
 11
143.3292596083362
 21
73.80637865628614
 31
0.0
  0
LINE
  5
3ACD2
330
3A50D
100
AcDbEntity
  8
30
 62
     0
440
 16777216
370
    -2
100
AcDbLine
 10
111.3292596083358
 20
74.30637865628614
 30
0.0
 11
140.3292596083361
 21
74.30637865628614
 31
0.0
  0
INSERT
  5
3ACD3
330
3A50D
100
AcDbEntity
  8
30
 62
     0
440
 16777216
370
    -2
100
AcDbBlockReference
  2
_OPEN
 10
108.3292596083358
 20
74.30637865628614
 30
0.0
 41
3.0
 42
3.0
 43
3.0
 50
180.0
  0
INSERT
  5
3ACD4
330
3A50D
100
AcDbEntity
  8
30
 62
     0
440
 16777216
370
    -2
100
AcDbBlockReference
  2
_OPEN
 10
143.3292596083362
 20
74.30637865628614
 30
0.0
 41
3.0
 42
3.0
 43
3.0
  0
MTEXT
  5
3ACD5
330
3A50D
100
AcDbEntity
  8
30
 62
     0
440
 16777216
100
AcDbMText
 10
125.8292596083359
 20
80.80637865628615
 30
0.0
 40
7.0
 41
0.0
 46
0.0
 71
     5
 72
     1
  1
\A1;35
 73
     1
 44
1.0
 90
        3
 63
     9
421
 13158600
 45
1.25
441
        0
  0
POINT
  5
3ACD6
330
3A50D
100
AcDbEntity
  8
DEFPOINTS
 62
     0
440
 16777216
100
AcDbPoint
 10
108.3292596083358
 20
246.5207853385028
 30
0.0
  0
POINT
  5
3ACD7
330
3A50D
100
AcDbEntity
  8
DEFPOINTS
 62
     0
440
 16777216
100
AcDbPoint
 10
143.3292596083362
 20
120.5207853385029
 30
0.0
  0
POINT
  5
3ACD8
330
3A50D
100
AcDbEntity
  8
DEFPOINTS
 62
     0
440
 16777216
100
AcDbPoint
 10
143.3292596083362
 20
74.30637865628614
 30
0.0
  0
ENDBLK
  5
3A50F
330
3A50D
100
AcDbEntity
  8
0
100
AcDbBlockEnd
  0
BLOCK
  5
3A51A
330
3A519
100
AcDbEntity
  8
0
100
AcDbBlockBegin
  2
*D5
 70
     1
 10
0.0
 20
0.0
 30
0.0
  3
*D5
  1

  0
LINE
  5
3AAD7
330
3A519
100
AcDbEntity
  8
30
 62
     0
440
 16777216
370
    -2
100
AcDbLine
 10
114.829259608336
 20
252.0207853385029
 30
0.0
 11
199.3906031407729
 21
252.0207853385028
 31
0.0
  0
LINE
  5
3AAD8
330
3A519
100
AcDbEntity
  8
30
 62
     0
440
 16777216
370
    -2
100
AcDbLine
 10
149.8292596083356
 20
126.020785338504
 30
0.0
 11
199.3906031407729
 21
126.0207853385039
 31
0.0
  0
LINE
  5
3AAD9
330
3A519
100
AcDbEntity
  8
30
 62
     0
440
 16777216
370
    -2
100
AcDbLine
 10
198.8906031407729
 20
249.0207853385029
 30
0.0
 11
198.8906031407729
 21
129.0207853385039
 31
0.0
  0
INSERT
  5
3AADA
330
3A519
100
AcDbEntity
  8
30
 62
     0
440
 16777216
370
    -2
100
AcDbBlockReference
  2
_OPEN
 10
198.8906031407729
 20
252.0207853385028
 30
0.0
 41
3.0
 42
3.0
 43
3.0
 50
90.0
  0
INSERT
  5
3AADB
330
3A519
100
AcDbEntity
  8
30
 62
     0
440
 16777216
370
    -2
100
AcDbBlockReference
  2
_OPEN
 10
198.8906031407729
 20
126.0207853385039
 30
0.0
 41
3.0
 42
3.0
 43
3.0
 50
270.0
  0
MTEXT
  5
3AADC
330
3A519
100
AcDbEntity
  8
30
 62
     0
440
 16777216
100
AcDbMText
 10
192.3906031407728
 20
189.0207853385034
 30
0.0
 40
7.0
 41
0.0
 46
0.0
 71
     5
 72
     1
  1
\A1;126
 11
0.0000000000000001
 21
1.0
 31
0.0
 73
     1
 44
1.0
 90
        3
 63
     9
421
 13158600
 45
1.25
441
        0
  0
POINT
  5
3AADD
330
3A519
100
AcDbEntity
  8
DEFPOINTS
 62
     0
440
 16777216
100
AcDbPoint
 10
113.829259608336
 20
252.0207853385029
 30
0.0
  0
POINT
  5
3AADE
330
3A519
100
AcDbEntity
  8
DEFPOINTS
 62
     0
440
 16777216
100
AcDbPoint
 10
148.8292596083356
 20
126.020785338504
 30
0.0
  0
POINT
  5
3AADF
330
3A519
100
AcDbEntity
  8
DEFPOINTS
 62
     0
440
 16777216
100
AcDbPoint
 10
198.8906031407729
 20
126.0207853385039
 30
0.0
  0
ENDBLK
  5
3A51B
330
3A519
100
AcDbEntity
  8
0
100
AcDbBlockEnd
  0
BLOCK
  5
3A526
330
3A525
100
AcDbEntity
  8
0
100
AcDbBlockBegin
  2
*D6
 70
     1
 10
0.0
 20
0.0
 30
0.0
  3
*D6
  1

  0
LINE
  5
3AC4B
330
3A525
100
AcDbEntity
  8
30
 62
     0
440
 16777216
370
    -2
100
AcDbLine
 10
114.9796877639414
 20
449.2471281819744
 30
0.0
 11
114.9796877639414
 21
430.8012058522487
 31
0.0
  0
LINE
  5
3AC4C
330
3A525
100
AcDbEntity
  8
30
 62
     0
440
 16777216
370
    -2
100
AcDbLine
 10
136.9796877639414
 20
449.2471281819744
 30
0.0
 11
136.9796877639414
 21
430.8012058522487
 31
0.0
  0
LINE
  5
3AC4D
330
3A525
100
AcDbEntity
  8
30
 62
     0
440
 16777216
370
    -2
100
AcDbLine
 10
117.9796877639414
 20
431.3012058522486
 30
0.0
 11
133.9796877639414
 21
431.3012058522486
 31
0.0
  0
LINE
  5
3AC4E
330
3A525
100
AcDbEntity
  8
30
 62
     0
440
 16777216
370
    -2
100
AcDbLine
 10
136.9796877639414
 20
431.3012058522486
 30
0.0
 11
157.646354430608
 21
431.3012058522486
 31
0.0
  0
INSERT
  5
3AC4F
330
3A525
100
AcDbEntity
  8
30
 62
     0
440
 16777216
370
    -2
100
AcDbBlockReference
  2
_OPEN
 10
114.9796877639414
 20
431.3012058522486
 30
0.0
 41
3.0
 42
3.0
 43
3.0
 50
180.0
  0
INSERT
  5
3AC50
330
3A525
100
AcDbEntity
  8
30
 62
     0
440
 16777216
370
    -2
100
AcDbBlockReference
  2
_OPEN
 10
136.9796877639414
 20
431.3012058522486
 30
0.0
 41
3.0
 42
3.0
 43
3.0
  0
MTEXT
  5
3AC51
330
3A525
100
AcDbEntity
  8
30
 62
     0
440
 16777216
100
AcDbMText
 10
148.8130210972746
 20
437.8012058522488
 30
0.0
 40
7.0
 41
0.0
 46
0.0
 71
     5
 72
     1
  1
\A1;22
 73
     1
 44
1.0
 90
        3
 63
     9
421
 13158600
 45
1.25
441
        0
  0
POINT
  5
3AC52
330
3A525
100
AcDbEntity
  8
DEFPOINTS
 62
     0
440
 16777216
100
AcDbPoint
 10
114.9796877639414
 20
450.2471281819744
 30
0.0
  0
POINT
  5
3AC53
330
3A525
100
AcDbEntity
  8
DEFPOINTS
 62
     0
440
 16777216
100
AcDbPoint
 10
136.9796877639414
 20
450.2471281819744
 30
0.0
  0
POINT
  5
3AC54
330
3A525
100
AcDbEntity
  8
DEFPOINTS
 62
     0
440
 16777216
100
AcDbPoint
 10
136.9796877639414
 20
431.3012058522486
 30
0.0
  0
ENDBLK
  5
3A527
330
3A525
100
AcDbEntity
  8
0
100
AcDbBlockEnd
  0
BLOCK
  5
3A533
330
3A532
100
AcDbEntity
  8
0
100
AcDbBlockBegin
  2
*D7
 70
     1
 10
0.0
 20
0.0
 30
0.0
  3
*D7
  1

  0
LINE
  5
3ACD9
330
3A532
100
AcDbEntity
  8
30
 62
     0
440
 16777216
370
    -2
100
AcDbLine
 10
293.6273707298964
 20
162.5480031322741
 30
0.0
 11
293.6273707298964
 21
74.86795230575262
 31
0.0
  0
LINE
  5
3ACDA
330
3A532
100
AcDbEntity
  8
30
 62
     0
440
 16777216
370
    -2
100
AcDbLine
 10
393.6273707298964
 20
162.5480031322741
 30
0.0
 11
393.6273707298964
 21
74.86795230575262
 31
0.0
  0
LINE
  5
3ACDB
330
3A532
100
AcDbEntity
  8
30
 62
     0
440
 16777216
370
    -2
100
AcDbLine
 10
296.6273707298963
 20
75.36795230575262
 30
0.0
 11
390.6273707298964
 21
75.36795230575262
 31
0.0
  0
INSERT
  5
3ACDC
330
3A532
100
AcDbEntity
  8
30
 62
     0
440
 16777216
370
    -2
100
AcDbBlockReference
  2
_OPEN
 10
293.6273707298964
 20
75.36795230575262
 30
0.0
 41
3.0
 42
3.0
 43
3.0
 50
180.0
  0
INSERT
  5
3ACDD
330
3A532
100
AcDbEntity
  8
30
 62
     0
440
 16777216
370
    -2
100
AcDbBlockReference
  2
_OPEN
 10
393.6273707298964
 20
75.36795230575262
 30
0.0
 41
3.0
 42
3.0
 43
3.0
  0
MTEXT
  5
3ACDE
330
3A532
100
AcDbEntity
  8
30
 62
     0
440
 16777216
100
AcDbMText
 10
343.6273707298964
 20
81.86795230575262
 30
0.0
 40
7.0
 41
0.0
 46
0.0
 71
     5
 72
     1
  1
\A1;100
 73
     1
 44
1.0
 90
        3
 63
     9
421
 13158600
 45
1.25
441
        0
  0
POINT
  5
3ACDF
330
3A532
100
AcDbEntity
  8
DEFPOINTS
 62
     0
440
 16777216
100
AcDbPoint
 10
293.6273707298964
 20
163.5480031322741
 30
0.0
  0
POINT
  5
3ACE0
330
3A532
100
AcDbEntity
  8
DEFPOINTS
 62
     0
440
 16777216
100
AcDbPoint
 10
393.6273707298964
 20
163.5480031322741
 30
0.0
  0
POINT
  5
3ACE1
330
3A532
100
AcDbEntity
  8
DEFPOINTS
 62
     0
440
 16777216
100
AcDbPoint
 10
393.6273707298964
 20
75.36795230575262
 30
0.0
  0
ENDBLK
  5
3A534
330
3A532
100
AcDbEntity
  8
0
100
AcDbBlockEnd
  0
BLOCK
  5
3A53F
330
3A53E
100
AcDbEntity
  8
0
100
AcDbBlockBegin
  2
*D8
 70
     1
 10
0.0
 20
0.0
 30
0.0
  3
*D8
  1

  0
LINE
  5
3AAF2
330
3A53E
100
AcDbEntity
  8
30
 62
     0
440
 16777216
370
    -2
100
AcDbLine
 10
393.767771876028
 20
214.6225016996094
 30
0.0
 11
417.3944843963237
 21
214.6225016996094
 31
0.0
  0
LINE
  5
3AAF3
330
3A53E
100
AcDbEntity
  8
30
 62
     0
440
 16777216
370
    -2
100
AcDbLine
 10
393.3852519194935
 20
162.6225016996094
 30
0.0
 11
417.3944843963237
 21
162.6225016996094
 31
0.0
  0
LINE
  5
3AAF4
330
3A53E
100
AcDbEntity
  8
30
 62
     0
440
 16777216
370
    -2
100
AcDbLine
 10
416.8944843963235
 20
211.6225016996093
 30
0.0
 11
416.8944843963235
 21
165.6225016996094
 31
0.0
  0
INSERT
  5
3AAF5
330
3A53E
100
AcDbEntity
  8
30
 62
     0
440
 16777216
370
    -2
100
AcDbBlockReference
  2
_OPEN
 10
416.8944843963235
 20
214.6225016996094
 30
0.0
 41
3.0
 42
3.0
 43
3.0
 50
90.0
  0
INSERT
  5
3AAF6
330
3A53E
100
AcDbEntity
  8
30
 62
     0
440
 16777216
370
    -2
100
AcDbBlockReference
  2
_OPEN
 10
416.8944843963235
 20
162.6225016996094
 30
0.0
 41
3.0
 42
3.0
 43
3.0
 50
270.0
  0
MTEXT
  5
3AAF7
330
3A53E
100
AcDbEntity
  8
30
 62
     0
440
 16777216
100
AcDbMText
 10
410.3944843963238
 20
188.4478523742667
 30
0.0
 40
7.0
 41
0.0
 46
0.0
 71
     5
 72
     1
  1
\A1;52
 11
0.0000000000000001
 21
1.0
 31
0.0
 73
     1
 44
1.0
 90
        3
 63
     9
421
 13158600
 45
1.25
441
        0
  0
POINT
  5
3AAF8
330
3A53E
100
AcDbEntity
  8
DEFPOINTS
 62
     0
440
 16777216
100
AcDbPoint
 10
392.7677718760279
 20
214.6225016996094
 30
0.0
  0
POINT
  5
3AAF9
330
3A53E
100
AcDbEntity
  8
DEFPOINTS
 62
     0
440
 16777216
100
AcDbPoint
 10
392.3852519194935
 20
162.6225016996094
 30
0.0
  0
POINT
  5
3AAFA
330
3A53E
100
AcDbEntity
  8
DEFPOINTS
 62
     0
440
 16777216
100
AcDbPoint
 10
416.8944843963235
 20
162.6225016996094
 30
0.0
  0
ENDBLK
  5
3A540
330
3A53E
100
AcDbEntity
  8
0
100
AcDbBlockEnd
  0
BLOCK
  5
3A54B
330
3A54A
100
AcDbEntity
  8
0
100
AcDbBlockBegin
  2
*D9
 70
     1
 10
0.0
 20
0.0
 30
0.0
  3
*D9
  1

  0
LINE
  5
3AAFB
330
3A54A
100
AcDbEntity
  8
30
 62
     0
440
 16777216
370
    -2
100
AcDbLine
 10
523.6265713254589
 20
213.0207853385029
 30
0.0
 11
589.579874274422
 21
213.0207853385029
 31
0.0
  0
LINE
  5
3AAFC
330
3A54A
100
AcDbEntity
  8
30
 62
     0
440
 16777216
370
    -2
100
AcDbLine
 10
523.6265713254589
 20
165.0207853385029
 30
0.0
 11
589.579874274422
 21
165.0207853385028
 31
0.0
  0
LINE
  5
3AAFD
330
3A54A
100
AcDbEntity
  8
30
 62
     0
440
 16777216
370
    -2
100
AcDbLine
 10
589.079874274422
 20
210.0207853385029
 30
0.0
 11
589.079874274422
 21
168.0207853385028
 31
0.0
  0
INSERT
  5
3AAFE
330
3A54A
100
AcDbEntity
  8
30
 62
     0
440
 16777216
370
    -2
100
AcDbBlockReference
  2
_OPEN
 10
589.079874274422
 20
213.0207853385029
 30
0.0
 41
3.0
 42
3.0
 43
3.0
 50
90.0
  0
INSERT
  5
3AAFF
330
3A54A
100
AcDbEntity
  8
30
 62
     0
440
 16777216
370
    -2
100
AcDbBlockReference
  2
_OPEN
 10
589.079874274422
 20
165.0207853385028
 30
0.0
 41
3.0
 42
3.0
 43
3.0
 50
270.0
  0
MTEXT
  5
3AB00
330
3A54A
100
AcDbEntity
  8
30
 62
     0
440
 16777216
100
AcDbMText
 10
579.0798742744222
 20
189.0207853385028
 30
0.0
 40
7.0
 41
0.0
 46
0.0
 71
     2
 72
     1
  1
\A1;48
 11
0.0000000000000001
 21
1.0
 31
0.0
 73
     1
 44
1.0
 90
        3
 63
     9
421
 13158600
 45
1.25
441
        0
  0
POINT
  5
3AB01
330
3A54A
100
AcDbEntity
  8
DEFPOINTS
 62
     0
440
 16777216
100
AcDbPoint
 10
522.6265713254589
 20
213.0207853385029
 30
0.0
  0
POINT
  5
3AB02
330
3A54A
100
AcDbEntity
  8
DEFPOINTS
 62
     0
440
 16777216
100
AcDbPoint
 10
522.6265713254589
 20
165.0207853385029
 30
0.0
  0
POINT
  5
3AB03
330
3A54A
100
AcDbEntity
  8
DEFPOINTS
 62
     0
440
 16777216
100
AcDbPoint
 10
589.079874274422
 20
165.0207853385028
 30
0.0
  0
ENDBLK
  5
3A54C
330
3A54A
100
AcDbEntity
  8
0
100
AcDbBlockEnd
  0
BLOCK
  5
3A557
330
3A556
100
AcDbEntity
  8
0
100
AcDbBlockBegin
  2
*D10
 70
     1
 10
0.0
 20
0.0
 30
0.0
  3
*D10
  1

  0
LINE
  5
3AB04
330
3A556
100
AcDbEntity
  8
30
  6
Continuous
 62
     0
440
 16777216
370
    -2
100
AcDbLine
 10
524.7602437024555
 20
214.1296813026812
 30
0.0
 11
531.9906817803866
 21
221.276158824812
 31
0.0
  0
LINE
  5
3AB05
330
3A556
100
AcDbEntity
  8
30
  6
Continuous
 62
     0
440
 16777216
370
    -2
100
AcDbLine
 10
531.9906817803866
 20
221.276158824812
 30
0.0
 11
543.3240151137201
 21
221.2761588248119
 31
0.0
  0
LINE
  5
3AB06
330
3A556
100
AcDbEntity
  8
30
  6
Continuous
 62
     0
440
 16777216
370
    -2
100
AcDbLine
 10
522.6265713254598
 20
212.0207853385031
 30
0.0
 11
523.3377954511316
 21
212.723750659902
 31
0.0
  0
INSERT
  5
3AB07
330
3A556
100
AcDbEntity
  8
30
  6
Continuous
 62
     0
440
 16777216
370
    -2
100
AcDbBlockReference
  2
_OPEN
 10
523.3377954511316
 20
212.723750659902
 30
0.0
 41
2.0
 42
2.0
 43
2.0
 50
224.6653989673859
  0
MTEXT
  5
3AB08
330
3A556
100
AcDbEntity
  8
30
  6
Continuous
 62
     0
440
 16777216
100
AcDbMText
 10
533.9906817803871
 20
230.2761588248116
 30
0.0
 40
7.0
 41
0.0
 46
0.0
 71
     1
 72
     1
  1
\A1;R1
 73
     1
 44
1.0
  0
POINT
  5
3AB09
330
3A556
100
AcDbEntity
  8
DEFPOINTS
  6
Continuous
 62
     0
440
 16777216
100
AcDbPoint
 10
523.3377954511316
 20
212.723750659902
 30
0.0
  0
POINT
  5
3AB0A
330
3A556
100
AcDbEntity
  8
DEFPOINTS
  6
Continuous
 62
     0
440
 16777216
100
AcDbPoint
 10
522.6265713254598
 20
212.0207853385031
 30
0.0
  0
ENDBLK
  5
3A558
330
3A556
100
AcDbEntity
  8
0
100
AcDbBlockEnd
  0
BLOCK
  5
3A561
330
3A560
100
AcDbEntity
  8
0
100
AcDbBlockBegin
  2
*D11
 70
     1
 10
0.0
 20
0.0
 30
0.0
  3
*D11
  1

  0
LINE
  5
3AD2A
330
3A560
100
AcDbEntity
  8
30
 62
     0
440
 16777216
370
    -2
100
AcDbLine
 10
523.6265713254589
 20
165.0207853385029
 30
0.0
 11
523.6265713254589
 21
76.19491936758596
 31
0.0
  0
LINE
  5
3AD2B
330
3A560
100
AcDbEntity
  8
30
 62
     0
440
 16777216
370
    -2
100
AcDbLine
 10
499.6265713254588
 20
165.0207853385029
 30
0.0
 11
499.6265713254588
 21
76.19491936758596
 31
0.0
  0
LINE
  5
3AD2C
330
3A560
100
AcDbEntity
  8
30
 62
     0
440
 16777216
370
    -2
100
AcDbLine
 10
520.6265713254589
 20
76.69491936758595
 30
0.0
 11
502.6265713254588
 21
76.69491936758595
 31
0.0
  0
INSERT
  5
3AD2D
330
3A560
100
AcDbEntity
  8
30
 62
     0
440
 16777216
370
    -2
100
AcDbBlockReference
  2
_OPEN
 10
523.6265713254589
 20
76.69491936758595
 30
0.0
 41
3.0
 42
3.0
 43
3.0
  0
INSERT
  5
3AD2E
330
3A560
100
AcDbEntity
  8
30
 62
     0
440
 16777216
370
    -2
100
AcDbBlockReference
  2
_OPEN
 10
499.6265713254588
 20
76.69491936758595
 30
0.0
 41
3.0
 42
3.0
 43
3.0
 50
180.0
  0
MTEXT
  5
3AD2F
330
3A560
100
AcDbEntity
  8
30
 62
     0
440
 16777216
100
AcDbMText
 10
512.937001840537
 20
86.69491936758594
 30
0.0
 40
7.0
 41
0.0
 46
0.0
 71
     2
 72
     1
  1
\A1;24
 73
     1
 44
1.0
 90
        3
 63
     9
421
 13158600
 45
1.25
441
        0
  0
POINT
  5
3AD30
330
3A560
100
AcDbEntity
  8
DEFPOINTS
 62
     0
440
 16777216
100
AcDbPoint
 10
523.6265713254589
 20
166.0207853385029
 30
0.0
  0
POINT
  5
3AD31
330
3A560
100
AcDbEntity
  8
DEFPOINTS
 62
     0
440
 16777216
100
AcDbPoint
 10
499.6265713254588
 20
166.0207853385029
 30
0.0
  0
POINT
  5
3AD32
330
3A560
100
AcDbEntity
  8
DEFPOINTS
 62
     0
440
 16777216
100
AcDbPoint
 10
499.6265713254588
 20
76.69491936758595
 30
0.0
  0
ENDBLK
  5
3A562
330
3A560
100
AcDbEntity
  8
0
100
AcDbBlockEnd
  0
BLOCK
  5
3A579
330
3A578
100
AcDbEntity
  8
0
100
AcDbBlockBegin
  2
*D12
 70
     1
 10
0.0
 20
0.0
 30
0.0
  3
*D12
  1

  0
LINE
  5
3AB14
330
3A578
100
AcDbEntity
  8
30
  6
Continuous
 62
     0
440
 16777216
370
    -2
100
AcDbLine
 10
394.9034703469522
 20
215.7305584282029
 30
0.0
 11
402.1339084248856
 21
222.8770359503342
 31
0.0
  0
LINE
  5
3AB15
330
3A578
100
AcDbEntity
  8
30
  6
Continuous
 62
     0
440
 16777216
370
    -2
100
AcDbLine
 10
402.1339084248856
 20
222.8770359503342
 30
0.0
 11
413.4672417582192
 21
222.8770359503342
 31
0.0
  0
LINE
  5
3AB16
330
3A578
100
AcDbEntity
  8
30
  6
Continuous
 62
     0
440
 16777216
370
    -2
100
AcDbLine
 10
392.7697979699569
 20
213.6216624640255
 30
0.0
 11
393.4810220956281
 21
214.3246277854239
 31
0.0
  0
INSERT
  5
3AB17
330
3A578
100
AcDbEntity
  8
30
  6
Continuous
 62
     0
440
 16777216
370
    -2
100
AcDbBlockReference
  2
_OPEN
 10
393.4810220956281
 20
214.3246277854239
 30
0.0
 41
2.0
 42
2.0
 43
2.0
 50
224.6653989673788
  0
MTEXT
  5
3AB18
330
3A578
100
AcDbEntity
  8
30
  6
Continuous
 62
     0
440
 16777216
100
AcDbMText
 10
404.1339084248857
 20
231.8770359503343
 30
0.0
 40
7.0
 41
0.0
 46
0.0
 71
     1
 72
     1
  1
\A1;R1
 73
     1
 44
1.0
  0
POINT
  5
3AB19
330
3A578
100
AcDbEntity
  8
DEFPOINTS
  6
Continuous
 62
     0
440
 16777216
100
AcDbPoint
 10
393.4810220956281
 20
214.3246277854239
 30
0.0
  0
POINT
  5
3AB1A
330
3A578
100
AcDbEntity
  8
DEFPOINTS
  6
Continuous
 62
     0
440
 16777216
100
AcDbPoint
 10
392.7697979699569
 20
213.6216624640255
 30
0.0
  0
ENDBLK
  5
3A57A
330
3A578
100
AcDbEntity
  8
0
100
AcDbBlockEnd
  0
BLOCK
  5
3A818
330
3A817
100
AcDbEntity
  8
0
100
AcDbBlockBegin
  2
*D13
 70
     1
 10
0.0
 20
0.0
 30
0.0
  3
*D13
  1

  0
LINE
  5
3AB1B
330
3A817
100
AcDbEntity
  8
30
 62
     0
440
 16777216
370
    -2
100
AcDbLine
 10
507.3610702044971
 20
547.3769900213397
 30
0.0
 11
507.3610702044971
 21
527.8769900213399
 31
0.0
  0
LINE
  5
3AB1C
330
3A817
100
AcDbEntity
  8
30
 62
     0
440
 16777216
370
    -2
100
AcDbLine
 10
532.3610702044971
 20
547.3769900213397
 30
0.0
 11
532.3610702044971
 21
527.8769900213399
 31
0.0
  0
LINE
  5
3AB1D
330
3A817
100
AcDbEntity
  8
30
 62
     0
440
 16777216
370
    -2
100
AcDbLine
 10
510.3610702044973
 20
528.3769900213399
 30
0.0
 11
529.3610702044973
 21
528.3769900213399
 31
0.0
  0
INSERT
  5
3AB1E
330
3A817
100
AcDbEntity
  8
30
 62
     0
440
 16777216
370
    -2
100
AcDbBlockReference
  2
_OPEN
 10
507.3610702044971
 20
528.3769900213399
 30
0.0
 41
3.0
 42
3.0
 43
3.0
 50
180.0
  0
INSERT
  5
3AB1F
330
3A817
100
AcDbEntity
  8
30
 62
     0
440
 16777216
370
    -2
100
AcDbBlockReference
  2
_OPEN
 10
532.3610702044971
 20
528.3769900213399
 30
0.0
 41
3.0
 42
3.0
 43
3.0
  0
MTEXT
  5
3AB20
330
3A817
100
AcDbEntity
  8
30
 62
     0
440
 16777216
100
AcDbMText
 10
519.8610702044971
 20
534.8769900213397
 30
0.0
 40
7.0
 41
0.0
 46
0.0
 71
     5
 72
     1
  1
\A1;25
 73
     1
 44
1.0
 90
        3
 63
     9
421
 13158600
 45
1.25
441
        0
  0
POINT
  5
3AB21
330
3A817
100
AcDbEntity
  8
DEFPOINTS
 62
     0
440
 16777216
100
AcDbPoint
 10
507.3610702044971
 20
548.3769900213399
 30
0.0
  0
POINT
  5
3AB22
330
3A817
100
AcDbEntity
  8
DEFPOINTS
 62
     0
440
 16777216
100
AcDbPoint
 10
532.3610702044971
 20
548.3769900213399
 30
0.0
  0
POINT
  5
3AB23
330
3A817
100
AcDbEntity
  8
DEFPOINTS
 62
     0
440
 16777216
100
AcDbPoint
 10
532.3610702044971
 20
528.3769900213399
 30
0.0
  0
ENDBLK
  5
3A819
330
3A817
100
AcDbEntity
  8
0
100
AcDbBlockEnd
  0
BLOCK
  5
3A824
330
3A823
100
AcDbEntity
  8
0
100
AcDbBlockBegin
  2
*D14
 70
     1
 10
0.0
 20
0.0
 30
0.0
  3
*D14
  1

  0
LINE
  5
3AB24
330
3A823
100
AcDbEntity
  8
30
 62
     0
440
 16777216
370
    -2
100
AcDbLine
 10
474.3610702044973
 20
432.6269900213397
 30
0.0
 11
474.3610702044973
 21
401.350371727082
 31
0.0
  0
LINE
  5
3AB25
330
3A823
100
AcDbEntity
  8
30
 62
     0
440
 16777216
370
    -2
100
AcDbLine
 10
467.3610702044973
 20
415.3769900213397
 30
0.0
 11
467.3610702044973
 21
401.350371727082
 31
0.0
  0
LINE
  5
3AB26
330
3A823
100
AcDbEntity
  8
30
 62
     0
440
 16777216
370
    -2
100
AcDbLine
 10
465.3610702044971
 20
401.850371727082
 30
0.0
 11
463.3610702044973
 21
401.850371727082
 31
0.0
  0
LINE
  5
3AB27
330
3A823
100
AcDbEntity
  8
30
 62
     0
440
 16777216
370
    -2
100
AcDbLine
 10
476.3610702044973
 20
401.850371727082
 30
0.0
 11
490.0277368711638
 21
401.850371727082
 31
0.0
  0
LINE
  5
3AB28
330
3A823
100
AcDbEntity
  8
30
 62
     0
440
 16777216
370
    -2
100
AcDbLine
 10
467.3610702044973
 20
401.850371727082
 30
0.0
 11
474.3610702044973
 21
401.850371727082
 31
0.0
  0
INSERT
  5
3AB29
330
3A823
100
AcDbEntity
  8
30
 62
     0
440
 16777216
370
    -2
100
AcDbBlockReference
  2
_OPEN
 10
467.3610702044973
 20
401.850371727082
 30
0.0
 41
2.0
 42
2.0
 43
2.0
  0
INSERT
  5
3AB2A
330
3A823
100
AcDbEntity
  8
30
 62
     0
440
 16777216
370
    -2
100
AcDbBlockReference
  2
_OPEN
 10
474.3610702044973
 20
401.850371727082
 30
0.0
 41
2.0
 42
2.0
 43
2.0
 50
180.0
  0
MTEXT
  5
3AB2B
330
3A823
100
AcDbEntity
  8
30
 62
     0
440
 16777216
100
AcDbMText
 10
485.6944035378306
 20
407.3503717270821
 30
0.0
 40
7.0
 41
0.0
 46
0.0
 71
     5
 72
     1
  1
\A1;7
 73
     1
 44
1.0
  0
POINT
  5
3AB2C
330
3A823
100
AcDbEntity
  8
DEFPOINTS
 62
     0
440
 16777216
100
AcDbPoint
 10
474.3610702044973
 20
435.6269900213398
 30
0.0
  0
POINT
  5
3AB2D
330
3A823
100
AcDbEntity
  8
DEFPOINTS
 62
     0
440
 16777216
100
AcDbPoint
 10
467.3610702044973
 20
418.3769900213397
 30
0.0
  0
POINT
  5
3AB2E
330
3A823
100
AcDbEntity
  8
DEFPOINTS
 62
     0
440
 16777216
100
AcDbPoint
 10
467.3610702044973
 20
401.850371727082
 30
0.0
  0
ENDBLK
  5
3A825
330
3A823
100
AcDbEntity
  8
0
100
AcDbBlockEnd
  0
BLOCK
  5
3A832
330
3A831
100
AcDbEntity
  8
0
100
AcDbBlockBegin
  2
*D15
 70
     1
 10
0.0
 20
0.0
 30
0.0
  3
*D15
  1

  0
LINE
  5
3AB2F
330
3A831
100
AcDbEntity
  8
30
 62
     0
440
 16777216
370
    -2
100
AcDbLine
 10
467.3610702044973
 20
415.3769900213397
 30
0.0
 11
467.3610702044973
 21
401.350371727082
 31
0.0
  0
LINE
  5
3AB30
330
3A831
100
AcDbEntity
  8
30
 62
     0
440
 16777216
370
    -2
100
AcDbLine
 10
421.3610702044968
 20
430.6269900213398
 30
0.0
 11
421.3610702044968
 21
401.350371727082
 31
0.0
  0
LINE
  5
3AB31
330
3A831
100
AcDbEntity
  8
30
 62
     0
440
 16777216
370
    -2
100
AcDbLine
 10
465.3610702044971
 20
401.850371727082
 30
0.0
 11
423.3610702044971
 21
401.850371727082
 31
0.0
  0
INSERT
  5
3AB32
330
3A831
100
AcDbEntity
  8
30
 62
     0
440
 16777216
370
    -2
100
AcDbBlockReference
  2
_OPEN
 10
467.3610702044973
 20
401.850371727082
 30
0.0
 41
2.0
 42
2.0
 43
2.0
  0
INSERT
  5
3AB33
330
3A831
100
AcDbEntity
  8
30
 62
     0
440
 16777216
370
    -2
100
AcDbBlockReference
  2
_OPEN
 10
421.3610702044968
 20
401.850371727082
 30
0.0
 41
2.0
 42
2.0
 43
2.0
 50
180.0
  0
MTEXT
  5
3AB34
330
3A831
100
AcDbEntity
  8
30
 62
     0
440
 16777216
100
AcDbMText
 10
444.3610702044971
 20
407.3503717270821
 30
0.0
 40
7.0
 41
0.0
 46
0.0
 71
     5
 72
     1
  1
\A1;46
 73
     1
 44
1.0
  0
POINT
  5
3AB35
330
3A831
100
AcDbEntity
  8
DEFPOINTS
 62
     0
440
 16777216
100
AcDbPoint
 10
467.3610702044973
 20
418.3769900213397
 30
0.0
  0
POINT
  5
3AB36
330
3A831
100
AcDbEntity
  8
DEFPOINTS
 62
     0
440
 16777216
100
AcDbPoint
 10
421.3610702044968
 20
433.6269900213397
 30
0.0
  0
POINT
  5
3AB37
330
3A831
100
AcDbEntity
  8
DEFPOINTS
 62
     0
440
 16777216
100
AcDbPoint
 10
421.3610702044968
 20
401.850371727082
 30
0.0
  0
ENDBLK
  5
3A833
330
3A831
100
AcDbEntity
  8
0
100
AcDbBlockEnd
  0
BLOCK
  5
3A83E
330
3A83D
100
AcDbEntity
  8
0
100
AcDbBlockBegin
  2
*D16
 70
     1
 10
0.0
 20
0.0
 30
0.0
  3
*D16
  1

  0
LINE
  5
3AB38
330
3A83D
100
AcDbEntity
  8
30
 62
     0
440
 16777216
370
    -2
100
AcDbLine
 10
467.3610702044973
 20
415.3769900213397
 30
0.0
 11
467.3610702044973
 21
387.5847446778927
 31
0.0
  0
LINE
  5
3AB39
330
3A83D
100
AcDbEntity
  8
30
 62
     0
440
 16777216
370
    -2
100
AcDbLine
 10
407.3610702044971
 20
415.3769900213397
 30
0.0
 11
407.3610702044971
 21
387.5847446778927
 31
0.0
  0
LINE
  5
3AB3A
330
3A83D
100
AcDbEntity
  8
30
 62
     0
440
 16777216
370
    -2
100
AcDbLine
 10
465.3610702044971
 20
388.0847446778927
 30
0.0
 11
409.3610702044973
 21
388.0847446778927
 31
0.0
  0
INSERT
  5
3AB3B
330
3A83D
100
AcDbEntity
  8
30
 62
     0
440
 16777216
370
    -2
100
AcDbBlockReference
  2
_OPEN
 10
467.3610702044973
 20
388.0847446778927
 30
0.0
 41
2.0
 42
2.0
 43
2.0
  0
INSERT
  5
3AB3C
330
3A83D
100
AcDbEntity
  8
30
 62
     0
440
 16777216
370
    -2
100
AcDbBlockReference
  2
_OPEN
 10
407.3610702044971
 20
388.0847446778927
 30
0.0
 41
2.0
 42
2.0
 43
2.0
 50
180.0
  0
MTEXT
  5
3AB3D
330
3A83D
100
AcDbEntity
  8
30
 62
     0
440
 16777216
100
AcDbMText
 10
437.3610702044973
 20
393.5847446778927
 30
0.0
 40
7.0
 41
0.0
 46
0.0
 71
     5
 72
     1
  1
\A1;60
 73
     1
 44
1.0
  0
POINT
  5
3AB3E
330
3A83D
100
AcDbEntity
  8
DEFPOINTS
 62
     0
440
 16777216
100
AcDbPoint
 10
467.3610702044973
 20
418.3769900213397
 30
0.0
  0
POINT
  5
3AB3F
330
3A83D
100
AcDbEntity
  8
DEFPOINTS
 62
     0
440
 16777216
100
AcDbPoint
 10
407.3610702044971
 20
418.3769900213397
 30
0.0
  0
POINT
  5
3AB40
330
3A83D
100
AcDbEntity
  8
DEFPOINTS
 62
     0
440
 16777216
100
AcDbPoint
 10
407.3610702044971
 20
388.0847446778927
 30
0.0
  0
ENDBLK
  5
3A83F
330
3A83D
100
AcDbEntity
  8
0
100
AcDbBlockEnd
  0
BLOCK
  5
3A84A
330
3A849
100
AcDbEntity
  8
0
100
AcDbBlockBegin
  2
*D17
 70
     1
 10
0.0
 20
0.0
 30
0.0
  3
*D17
  1

  0
LINE
  5
3AB41
330
3A849
100
AcDbEntity
  8
30
 62
     0
440
 16777216
370
    -2
100
AcDbLine
 10
467.3610702044973
 20
415.3769900213397
 30
0.0
 11
467.3610702044973
 21
372.3620393221556
 31
0.0
  0
LINE
  5
3AB42
330
3A849
100
AcDbEntity
  8
30
 62
     0
440
 16777216
370
    -2
100
AcDbLine
 10
399.3610702044973
 20
446.8769900213398
 30
0.0
 11
399.3610702044973
 21
372.3620393221556
 31
0.0
  0
LINE
  5
3AB43
330
3A849
100
AcDbEntity
  8
30
 62
     0
440
 16777216
370
    -2
100
AcDbLine
 10
465.3610702044971
 20
372.8620393221556
 30
0.0
 11
401.3610702044973
 21
372.8620393221556
 31
0.0
  0
INSERT
  5
3AB44
330
3A849
100
AcDbEntity
  8
30
 62
     0
440
 16777216
370
    -2
100
AcDbBlockReference
  2
_OPEN
 10
467.3610702044973
 20
372.8620393221556
 30
0.0
 41
2.0
 42
2.0
 43
2.0
  0
INSERT
  5
3AB45
330
3A849
100
AcDbEntity
  8
30
 62
     0
440
 16777216
370
    -2
100
AcDbBlockReference
  2
_OPEN
 10
399.3610702044973
 20
372.8620393221556
 30
0.0
 41
2.0
 42
2.0
 43
2.0
 50
180.0
  0
MTEXT
  5
3AB46
330
3A849
100
AcDbEntity
  8
30
 62
     0
440
 16777216
100
AcDbMText
 10
433.3610702044973
 20
378.3620393221556
 30
0.0
 40
7.0
 41
0.0
 46
0.0
 71
     5
 72
     1
  1
\A1;68
 73
     1
 44
1.0
  0
POINT
  5
3AB47
330
3A849
100
AcDbEntity
  8
DEFPOINTS
 62
     0
440
 16777216
100
AcDbPoint
 10
467.3610702044973
 20
418.3769900213397
 30
0.0
  0
POINT
  5
3AB48
330
3A849
100
AcDbEntity
  8
DEFPOINTS
 62
     0
440
 16777216
100
AcDbPoint
 10
399.3610702044973
 20
449.8769900213398
 30
0.0
  0
POINT
  5
3AB49
330
3A849
100
AcDbEntity
  8
DEFPOINTS
 62
     0
440
 16777216
100
AcDbPoint
 10
399.3610702044973
 20
372.8620393221556
 30
0.0
  0
ENDBLK
  5
3A84B
330
3A849
100
AcDbEntity
  8
0
100
AcDbBlockEnd
  0
BLOCK
  5
3A856
330
3A855
100
AcDbEntity
  8
0
100
AcDbBlockBegin
  2
*D18
 70
     1
 10
0.0
 20
0.0
 30
0.0
  3
*D18
  1

  0
LINE
  5
3AB4A
330
3A855
100
AcDbEntity
  8
30
 62
     0
440
 16777216
370
    -2
100
AcDbLine
 10
467.3610702044973
 20
415.3769900213397
 30
0.0
 11
467.3610702044973
 21
358.7425276799733
 31
0.0
  0
LINE
  5
3AB4B
330
3A855
100
AcDbEntity
  8
30
 62
     0
440
 16777216
370
    -2
100
AcDbLine
 10
395.3610702044973
 20
472.8769900213397
 30
0.0
 11
395.3610702044973
 21
358.7425276799733
 31
0.0
  0
LINE
  5
3AB4C
330
3A855
100
AcDbEntity
  8
30
 62
     0
440
 16777216
370
    -2
100
AcDbLine
 10
465.3610702044971
 20
359.2425276799733
 30
0.0
 11
397.3610702044973
 21
359.2425276799733
 31
0.0
  0
INSERT
  5
3AB4D
330
3A855
100
AcDbEntity
  8
30
 62
     0
440
 16777216
370
    -2
100
AcDbBlockReference
  2
_OPEN
 10
467.3610702044973
 20
359.2425276799733
 30
0.0
 41
2.0
 42
2.0
 43
2.0
  0
INSERT
  5
3AB4E
330
3A855
100
AcDbEntity
  8
30
 62
     0
440
 16777216
370
    -2
100
AcDbBlockReference
  2
_OPEN
 10
395.3610702044973
 20
359.2425276799733
 30
0.0
 41
2.0
 42
2.0
 43
2.0
 50
180.0
  0
MTEXT
  5
3AB4F
330
3A855
100
AcDbEntity
  8
30
 62
     0
440
 16777216
100
AcDbMText
 10
431.3610702044972
 20
364.7425276799733
 30
0.0
 40
7.0
 41
0.0
 46
0.0
 71
     5
 72
     1
  1
\A1;72
 73
     1
 44
1.0
  0
POINT
  5
3AB50
330
3A855
100
AcDbEntity
  8
DEFPOINTS
 62
     0
440
 16777216
100
AcDbPoint
 10
467.3610702044973
 20
418.3769900213397
 30
0.0
  0
POINT
  5
3AB51
330
3A855
100
AcDbEntity
  8
DEFPOINTS
 62
     0
440
 16777216
100
AcDbPoint
 10
395.3610702044973
 20
475.8769900213398
 30
0.0
  0
POINT
  5
3AB52
330
3A855
100
AcDbEntity
  8
DEFPOINTS
 62
     0
440
 16777216
100
AcDbPoint
 10
395.3610702044973
 20
359.2425276799733
 30
0.0
  0
ENDBLK
  5
3A857
330
3A855
100
AcDbEntity
  8
0
100
AcDbBlockEnd
  0
BLOCK
  5
3A862
330
3A861
100
AcDbEntity
  8
0
100
AcDbBlockBegin
  2
*D19
 70
     1
 10
0.0
 20
0.0
 30
0.0
  3
*D19
  1

  0
LINE
  5
3AB53
330
3A861
100
AcDbEntity
  8
30
 62
     0
440
 16777216
370
    -2
100
AcDbLine
 10
467.3610702044973
 20
415.3769900213397
 30
0.0
 11
467.3610702044973
 21
346.4803313834001
 31
0.0
  0
LINE
  5
3AB54
330
3A861
100
AcDbEntity
  8
30
 62
     0
440
 16777216
370
    -2
100
AcDbLine
 10
372.3610702044969
 20
497.8769900213397
 30
0.0
 11
372.3610702044969
 21
346.4803313834001
 31
0.0
  0
LINE
  5
3AB55
330
3A861
100
AcDbEntity
  8
30
 62
     0
440
 16777216
370
    -2
100
AcDbLine
 10
465.3610702044971
 20
346.9803313834002
 30
0.0
 11
374.3610702044969
 21
346.9803313834002
 31
0.0
  0
INSERT
  5
3AB56
330
3A861
100
AcDbEntity
  8
30
 62
     0
440
 16777216
370
    -2
100
AcDbBlockReference
  2
_OPEN
 10
467.3610702044973
 20
346.9803313834002
 30
0.0
 41
2.0
 42
2.0
 43
2.0
  0
INSERT
  5
3AB57
330
3A861
100
AcDbEntity
  8
30
 62
     0
440
 16777216
370
    -2
100
AcDbBlockReference
  2
_OPEN
 10
372.3610702044969
 20
346.9803313834002
 30
0.0
 41
2.0
 42
2.0
 43
2.0
 50
180.0
  0
MTEXT
  5
3AB58
330
3A861
100
AcDbEntity
  8
30
 62
     0
440
 16777216
100
AcDbMText
 10
419.861070204497
 20
352.4803313834001
 30
0.0
 40
7.0
 41
0.0
 46
0.0
 71
     5
 72
     1
  1
\A1;95
 73
     1
 44
1.0
  0
POINT
  5
3AB59
330
3A861
100
AcDbEntity
  8
DEFPOINTS
 62
     0
440
 16777216
100
AcDbPoint
 10
467.3610702044973
 20
418.3769900213397
 30
0.0
  0
POINT
  5
3AB5A
330
3A861
100
AcDbEntity
  8
DEFPOINTS
 62
     0
440
 16777216
100
AcDbPoint
 10
372.3610702044969
 20
500.8769900213398
 30
0.0
  0
POINT
  5
3AB5B
330
3A861
100
AcDbEntity
  8
DEFPOINTS
 62
     0
440
 16777216
100
AcDbPoint
 10
372.3610702044969
 20
346.9803313834002
 30
0.0
  0
ENDBLK
  5
3A863
330
3A861
100
AcDbEntity
  8
0
100
AcDbBlockEnd
  0
BLOCK
  5
3A86E
330
3A86D
100
AcDbEntity
  8
0
100
AcDbBlockBegin
  2
*D20
 70
     1
 10
0.0
 20
0.0
 30
0.0
  3
*D20
  1

  0
LINE
  5
3AB5C
330
3A86D
100
AcDbEntity
  8
30
 62
     0
440
 16777216
370
    -2
100
AcDbLine
 10
443.3610702044968
 20
584.3769900213397
 30
0.0
 11
443.3610702044968
 21
593.8769900213399
 31
0.0
  0
LINE
  5
3AB5D
330
3A86D
100
AcDbEntity
  8
30
 62
     0
440
 16777216
370
    -2
100
AcDbLine
 10
467.3610702044973
 20
584.3769900213397
 30
0.0
 11
467.3610702044973
 21
593.8769900213399
 31
0.0
  0
LINE
  5
3AB5E
330
3A86D
100
AcDbEntity
  8
30
 62
     0
440
 16777216
370
    -2
100
AcDbLine
 10
446.3610702044968
 20
593.3769900213397
 30
0.0
 11
464.3610702044973
 21
593.3769900213397
 31
0.0
  0
INSERT
  5
3AB5F
330
3A86D
100
AcDbEntity
  8
30
 62
     0
440
 16777216
370
    -2
100
AcDbBlockReference
  2
_OPEN
 10
443.3610702044968
 20
593.3769900213397
 30
0.0
 41
3.0
 42
3.0
 43
3.0
 50
180.0
  0
INSERT
  5
3AB60
330
3A86D
100
AcDbEntity
  8
30
 62
     0
440
 16777216
370
    -2
100
AcDbBlockReference
  2
_OPEN
 10
467.3610702044973
 20
593.3769900213397
 30
0.0
 41
3.0
 42
3.0
 43
3.0
  0
MTEXT
  5
3AB61
330
3A86D
100
AcDbEntity
  8
30
 62
     0
440
 16777216
100
AcDbMText
 10
455.3610702044968
 20
599.8769900213399
 30
0.0
 40
7.0
 41
0.0
 46
0.0
 71
     5
 72
     1
  1
\A1;24
 73
     1
 44
1.0
 90
        3
 63
     9
421
 13158600
 45
1.25
441
        0
  0
POINT
  5
3AB62
330
3A86D
100
AcDbEntity
  8
DEFPOINTS
 62
     0
440
 16777216
100
AcDbPoint
 10
443.3610702044968
 20
583.3769900213399
 30
0.0
  0
POINT
  5
3AB63
330
3A86D
100
AcDbEntity
  8
DEFPOINTS
 62
     0
440
 16777216
100
AcDbPoint
 10
467.3610702044973
 20
583.3769900213399
 30
0.0
  0
POINT
  5
3AB64
330
3A86D
100
AcDbEntity
  8
DEFPOINTS
 62
     0
440
 16777216
100
AcDbPoint
 10
467.3610702044973
 20
593.3769900213397
 30
0.0
  0
ENDBLK
  5
3A86F
330
3A86D
100
AcDbEntity
  8
0
100
AcDbBlockEnd
  0
BLOCK
  5
3A87A
330
3A879
100
AcDbEntity
  8
0
100
AcDbBlockBegin
  2
*D21
 70
     1
 10
0.0
 20
0.0
 30
0.0
  3
*D21
  1

  0
LINE
  5
3AB65
330
3A879
100
AcDbEntity
  8
30
 62
     0
440
 16777216
370
    -2
100
AcDbLine
 10
394.3610702044973
 20
525.8769900213398
 30
0.0
 11
347.0958114847253
 21
525.8769900213398
 31
0.0
  0
LINE
  5
3AB66
330
3A879
100
AcDbEntity
  8
30
 62
     0
440
 16777216
370
    -2
100
AcDbLine
 10
394.3610702044973
 20
475.8769900213398
 30
0.0
 11
347.0958114847253
 21
475.8769900213398
 31
0.0
  0
LINE
  5
3AB67
330
3A879
100
AcDbEntity
  8
30
 62
     0
440
 16777216
370
    -2
100
AcDbLine
 10
347.5958114847253
 20
522.8769900213399
 30
0.0
 11
347.5958114847253
 21
478.8769900213398
 31
0.0
  0
INSERT
  5
3AB68
330
3A879
100
AcDbEntity
  8
30
 62
     0
440
 16777216
370
    -2
100
AcDbBlockReference
  2
_OPEN
 10
347.5958114847253
 20
525.8769900213398
 30
0.0
 41
3.0
 42
3.0
 43
3.0
 50
90.0
  0
INSERT
  5
3AB69
330
3A879
100
AcDbEntity
  8
30
 62
     0
440
 16777216
370
    -2
100
AcDbBlockReference
  2
_OPEN
 10
347.5958114847253
 20
475.8769900213398
 30
0.0
 41
3.0
 42
3.0
 43
3.0
 50
270.0
  0
MTEXT
  5
3AB6A
330
3A879
100
AcDbEntity
  8
30
 62
     0
440
 16777216
100
AcDbMText
 10
341.0958114847253
 20
500.87699002134
 30
0.0
 40
7.0
 41
0.0
 46
0.0
 71
     5
 72
     1
  1
\A1;50
 11
0.0000000000000001
 21
1.0
 31
0.0
 73
     1
 44
1.0
 90
        3
 63
     9
421
 13158600
 45
1.25
441
        0
  0
POINT
  5
3AB6B
330
3A879
100
AcDbEntity
  8
DEFPOINTS
 62
     0
440
 16777216
100
AcDbPoint
 10
395.3610702044973
 20
525.8769900213398
 30
0.0
  0
POINT
  5
3AB6C
330
3A879
100
AcDbEntity
  8
DEFPOINTS
 62
     0
440
 16777216
100
AcDbPoint
 10
395.3610702044973
 20
475.8769900213398
 30
0.0
  0
POINT
  5
3AB6D
330
3A879
100
AcDbEntity
  8
DEFPOINTS
 62
     0
440
 16777216
100
AcDbPoint
 10
347.5958114847253
 20
475.8769900213398
 30
0.0
  0
ENDBLK
  5
3A87B
330
3A879
100
AcDbEntity
  8
0
100
AcDbBlockEnd
  0
BLOCK
  5
3A886
330
3A885
100
AcDbEntity
  8
0
100
AcDbBlockBegin
  2
*D22
 70
     1
 10
0.0
 20
0.0
 30
0.0
  3
*D22
  1

  0
LINE
  5
3AB6E
330
3A885
100
AcDbEntity
  8
30
 62
     0
440
 16777216
370
    -2
100
AcDbLine
 10
527.1110702044973
 20
559.37699002134
 30
0.0
 11
547.8610702044973
 21
559.37699002134
 31
0.0
  0
LINE
  5
3AB6F
330
3A885
100
AcDbEntity
  8
30
 62
     0
440
 16777216
370
    -2
100
AcDbLine
 10
533.3610702044973
 20
548.3769900213399
 30
0.0
 11
547.8610702044973
 21
548.3769900213399
 31
0.0
  0
LINE
  5
3AB70
330
3A885
100
AcDbEntity
  8
30
 62
     0
440
 16777216
370
    -2
100
AcDbLine
 10
547.3610702044973
 20
562.37699002134
 30
0.0
 11
547.3610702044973
 21
565.37699002134
 31
0.0
  0
LINE
  5
3AB71
330
3A885
100
AcDbEntity
  8
30
 62
     0
440
 16777216
370
    -2
100
AcDbLine
 10
547.3610702044973
 20
545.3769900213399
 30
0.0
 11
547.3610702044973
 21
529.3769900213399
 31
0.0
  0
INSERT
  5
3AB72
330
3A885
100
AcDbEntity
  8
30
 62
     0
440
 16777216
370
    -2
100
AcDbBlockReference
  2
_OPEN
 10
547.3610702044973
 20
559.37699002134
 30
0.0
 41
3.0
 42
3.0
 43
3.0
 50
270.0
  0
INSERT
  5
3AB73
330
3A885
100
AcDbEntity
  8
30
 62
     0
440
 16777216
370
    -2
100
AcDbBlockReference
  2
_OPEN
 10
547.3610702044973
 20
548.3769900213399
 30
0.0
 41
3.0
 42
3.0
 43
3.0
 50
90.0
  0
MTEXT
  5
3AB74
330
3A885
100
AcDbEntity
  8
30
 62
     0
440
 16777216
100
AcDbMText
 10
540.8610702044971
 20
535.87699002134
 30
0.0
 40
7.0
 41
0.0
 46
0.0
 71
     5
 72
     1
  1
\A1;11
 11
0.0000000000000001
 21
1.0
 31
0.0
 73
     1
 44
1.0
 90
        3
 63
     9
421
 13158600
 45
1.25
441
        0
  0
POINT
  5
3AB75
330
3A885
100
AcDbEntity
  8
DEFPOINTS
 62
     0
440
 16777216
100
AcDbPoint
 10
526.1110702044971
 20
559.37699002134
 30
0.0
  0
POINT
  5
3AB76
330
3A885
100
AcDbEntity
  8
DEFPOINTS
 62
     0
440
 16777216
100
AcDbPoint
 10
532.3610702044971
 20
548.3769900213399
 30
0.0
  0
POINT
  5
3AB77
330
3A885
100
AcDbEntity
  8
DEFPOINTS
 62
     0
440
 16777216
100
AcDbPoint
 10
547.3610702044973
 20
548.3769900213399
 30
0.0
  0
ENDBLK
  5
3A887
330
3A885
100
AcDbEntity
  8
0
100
AcDbBlockEnd
  0
BLOCK
  5
3A893
330
3A892
100
AcDbEntity
  8
0
100
AcDbBlockBegin
  2
*D23
 70
     1
 10
0.0
 20
0.0
 30
0.0
  3
*D23
  1

  0
LINE
  5
3AC0F
330
3A892
100
AcDbEntity
  8
30
 62
     0
440
 16777216
370
    -2
100
AcDbLine
 10
388.8610702044971
 20
475.1407088103216
 30
0.0
 11
388.8610702044971
 21
358.7425276799733
 31
0.0
  0
LINE
  5
3AC10
330
3A892
100
AcDbEntity
  8
30
 62
     0
440
 16777216
370
    -2
100
AcDbLine
 10
395.3610702044973
 20
475.3769900213398
 30
0.0
 11
395.3610702044973
 21
358.7425276799733
 31
0.0
  0
LINE
  5
3AC11
330
3A892
100
AcDbEntity
  8
30
 62
     0
440
 16777216
370
    -2
100
AcDbLine
 10
397.3610702044973
 20
359.2425276799733
 30
0.0
 11
399.3610702044973
 21
359.2425276799733
 31
0.0
  0
LINE
  5
3AC12
330
3A892
100
AcDbEntity
  8
30
 62
     0
440
 16777216
370
    -2
100
AcDbLine
 10
386.8610702044971
 20
359.2425276799733
 30
0.0
 11
353.2673410989797
 21
359.2425276799733
 31
0.0
  0
LINE
  5
3AC13
330
3A892
100
AcDbEntity
  8
30
 62
     0
440
 16777216
370
    -2
100
AcDbLine
 10
395.3610702044973
 20
359.2425276799733
 30
0.0
 11
388.8610702044971
 21
359.2425276799733
 31
0.0
  0
INSERT
  5
3AC14
330
3A892
100
AcDbEntity
  8
30
 62
     0
440
 16777216
370
    -2
100
AcDbBlockReference
  2
_OPEN
 10
395.3610702044973
 20
359.2425276799733
 30
0.0
 41
2.0
 42
2.0
 43
2.0
 50
180.0
  0
INSERT
  5
3AC15
330
3A892
100
AcDbEntity
  8
30
 62
     0
440
 16777216
370
    -2
100
AcDbBlockReference
  2
_OPEN
 10
388.8610702044971
 20
359.2425276799733
 30
0.0
 41
2.0
 42
2.0
 43
2.0
  0
MTEXT
  5
3AC16
330
3A892
100
AcDbEntity
  8
30
 62
     0
440
 16777216
100
AcDbMText
 10
362.2673410989798
 20
364.7425276799733
 30
0.0
 40
7.0
 41
0.0
 46
0.0
 71
     5
 72
     1
  1
\A1;6.5
 73
     1
 44
1.0
  0
POINT
  5
3AC17
330
3A892
100
AcDbEntity
  8
DEFPOINTS
 62
     0
440
 16777216
100
AcDbPoint
 10
388.8610702044971
 20
478.1407088103216
 30
0.0
  0
POINT
  5
3AC18
330
3A892
100
AcDbEntity
  8
DEFPOINTS
 62
     0
440
 16777216
100
AcDbPoint
 10
395.3610702044973
 20
478.3769900213398
 30
0.0
  0
POINT
  5
3AC19
330
3A892
100
AcDbEntity
  8
DEFPOINTS
 62
     0
440
 16777216
100
AcDbPoint
 10
395.3610702044973
 20
359.2425276799733
 30
0.0
  0
ENDBLK
  5
3A894
330
3A892
100
AcDbEntity
  8
0
100
AcDbBlockEnd
  0
BLOCK
  5
3A9A8
330
3A9A7
100
AcDbEntity
  8
0
100
AcDbBlockBegin
  2
*D24
 70
     1
 10
0.0
 20
0.0
 30
0.0
  3
*D24
  1

  0
LINE
  5
3AC06
330
3A9A7
100
AcDbEntity
  8
30
 62
     0
440
 16777216
370
    -2
100
AcDbLine
 10
90.97968776394123
 20
395.2471281819744
 30
0.0
 11
90.97968776394123
 21
369.3262600044013
 31
0.0
  0
LINE
  5
3AC07
330
3A9A7
100
AcDbEntity
  8
30
 62
     0
440
 16777216
370
    -2
100
AcDbLine
 10
160.9796877639412
 20
392.3262600044012
 30
0.0
 11
160.9796877639412
 21
369.3262600044013
 31
0.0
  0
LINE
  5
3AC08
330
3A9A7
100
AcDbEntity
  8
30
 62
     0
440
 16777216
370
    -2
100
AcDbLine
 10
93.97968776394121
 20
369.8262600044013
 30
0.0
 11
157.9796877639412
 21
369.8262600044013
 31
0.0
  0
INSERT
  5
3AC09
330
3A9A7
100
AcDbEntity
  8
30
 62
     0
440
 16777216
370
    -2
100
AcDbBlockReference
  2
_OPEN
 10
90.97968776394123
 20
369.8262600044013
 30
0.0
 41
3.0
 42
3.0
 43
3.0
 50
180.0
  0
INSERT
  5
3AC0A
330
3A9A7
100
AcDbEntity
  8
30
 62
     0
440
 16777216
370
    -2
100
AcDbBlockReference
  2
_OPEN
 10
160.9796877639412
 20
369.8262600044013
 30
0.0
 41
3.0
 42
3.0
 43
3.0
  0
MTEXT
  5
3AC0B
330
3A9A7
100
AcDbEntity
  8
30
 62
     0
440
 16777216
100
AcDbMText
 10
125.9796877639412
 20
376.3262600044013
 30
0.0
 40
7.0
 41
0.0
 46
0.0
 71
     5
 72
     1
  1
\A1;70
 73
     1
 44
1.0
 90
        3
 63
     9
421
 13158600
 45
1.25
441
        0
  0
POINT
  5
3AC0C
330
3A9A7
100
AcDbEntity
  8
DEFPOINTS
 62
     0
440
 16777216
100
AcDbPoint
 10
90.97968776394123
 20
396.2471281819744
 30
0.0
  0
POINT
  5
3AC0D
330
3A9A7
100
AcDbEntity
  8
DEFPOINTS
 62
     0
440
 16777216
100
AcDbPoint
 10
160.9796877639412
 20
393.3262600044013
 30
0.0
  0
POINT
  5
3AC0E
330
3A9A7
100
AcDbEntity
  8
DEFPOINTS
 62
     0
440
 16777216
100
AcDbPoint
 10
160.9796877639412
 20
369.8262600044013
 30
0.0
  0
ENDBLK
  5
3A9A9
330
3A9A7
100
AcDbEntity
  8
0
100
AcDbBlockEnd
  0
BLOCK
  5
3A9B4
330
3A9B3
100
AcDbEntity
  8
0
100
AcDbBlockBegin
  2
*D25
 70
     1
 10
0.0
 20
0.0
 30
0.0
  3
*D25
  1

  0
LINE
  5
3AB9E
330
3A9B3
100
AcDbEntity
  8
30
 62
     0
440
 16777216
370
    -2
100
AcDbLine
 10
73.479687763941
 20
388.8262600044013
 30
0.0
 11
73.479687763941
 21
350.0057724334579
 31
0.0
  0
LINE
  5
3AB9F
330
3A9B3
100
AcDbEntity
  8
30
 62
     0
440
 16777216
370
    -2
100
AcDbLine
 10
178.479687763941
 20
391.7471281819744
 30
0.0
 11
178.479687763941
 21
350.0057724334579
 31
0.0
  0
LINE
  5
3ABA0
330
3A9B3
100
AcDbEntity
  8
30
 62
     0
440
 16777216
370
    -2
100
AcDbLine
 10
76.479687763941
 20
350.5057724334579
 30
0.0
 11
175.479687763941
 21
350.5057724334579
 31
0.0
  0
INSERT
  5
3ABA1
330
3A9B3
100
AcDbEntity
  8
30
 62
     0
440
 16777216
370
    -2
100
AcDbBlockReference
  2
_OPEN
 10
73.479687763941
 20
350.5057724334579
 30
0.0
 41
3.0
 42
3.0
 43
3.0
 50
180.0
  0
INSERT
  5
3ABA2
330
3A9B3
100
AcDbEntity
  8
30
 62
     0
440
 16777216
370
    -2
100
AcDbBlockReference
  2
_OPEN
 10
178.479687763941
 20
350.5057724334579
 30
0.0
 41
3.0
 42
3.0
 43
3.0
  0
MTEXT
  5
3ABA3
330
3A9B3
100
AcDbEntity
  8
30
 62
     0
440
 16777216
100
AcDbMText
 10
125.979687763941
 20
357.0057724334579
 30
0.0
 40
7.0
 41
0.0
 46
0.0
 71
     5
 72
     1
  1
\A1;105
 73
     1
 44
1.0
 90
        3
 63
     9
421
 13158600
 45
1.25
441
        0
  0
POINT
  5
3ABA4
330
3A9B3
100
AcDbEntity
  8
DEFPOINTS
 62
     0
440
 16777216
100
AcDbPoint
 10
73.479687763941
 20
389.8262600044013
 30
0.0
  0
POINT
  5
3ABA5
330
3A9B3
100
AcDbEntity
  8
DEFPOINTS
 62
     0
440
 16777216
100
AcDbPoint
 10
178.479687763941
 20
392.7471281819744
 30
0.0
  0
POINT
  5
3ABA6
330
3A9B3
100
AcDbEntity
  8
DEFPOINTS
 62
     0
440
 16777216
100
AcDbPoint
 10
178.479687763941
 20
350.5057724334579
 30
0.0
  0
ENDBLK
  5
3A9B5
330
3A9B3
100
AcDbEntity
  8
0
100
AcDbBlockEnd
  0
BLOCK
  5
3A9EF
330
3A9EE
100
AcDbEntity
  8
0
100
AcDbBlockBegin
  2
*D26
 70
     1
 10
0.0
 20
0.0
 30
0.0
  3
*D26
  1

  0
LINE
  5
3ABA7
330
3A9EE
100
AcDbEntity
  8
30
 62
     0
440
 16777216
370
    -2
100
AcDbLine
 10
179.479687763941
 20
557.7471281819744
 30
0.0
 11
201.5103305455068
 21
557.7471281819744
 31
0.0
  0
LINE
  5
3ABA8
330
3A9EE
100
AcDbEntity
  8
30
 62
     0
440
 16777216
370
    -2
100
AcDbLine
 10
179.479687763941
 20
392.7471281819744
 30
0.0
 11
201.5103305455068
 21
392.7471281819744
 31
0.0
  0
LINE
  5
3ABA9
330
3A9EE
100
AcDbEntity
  8
30
 62
     0
440
 16777216
370
    -2
100
AcDbLine
 10
201.0103305455068
 20
554.7471281819744
 30
0.0
 11
201.0103305455068
 21
395.7471281819744
 31
0.0
  0
INSERT
  5
3ABAA
330
3A9EE
100
AcDbEntity
  8
30
 62
     0
440
 16777216
370
    -2
100
AcDbBlockReference
  2
_OPEN
 10
201.0103305455068
 20
557.7471281819744
 30
0.0
 41
3.0
 42
3.0
 43
3.0
 50
90.0
  0
INSERT
  5
3ABAB
330
3A9EE
100
AcDbEntity
  8
30
 62
     0
440
 16777216
370
    -2
100
AcDbBlockReference
  2
_OPEN
 10
201.0103305455068
 20
392.7471281819744
 30
0.0
 41
3.0
 42
3.0
 43
3.0
 50
270.0
  0
MTEXT
  5
3ABAC
330
3A9EE
100
AcDbEntity
  8
30
 62
     0
440
 16777216
100
AcDbMText
 10
194.5103305455067
 20
475.2471281819744
 30
0.0
 40
7.0
 41
0.0
 46
0.0
 71
     5
 72
     1
  1
\A1;165
 11
0.0000000000000001
 21
1.0
 31
0.0
 73
     1
 44
1.0
 90
        3
 63
     9
421
 13158600
 45
1.25
441
        0
  0
POINT
  5
3ABAD
330
3A9EE
100
AcDbEntity
  8
DEFPOINTS
 62
     0
440
 16777216
100
AcDbPoint
 10
178.479687763941
 20
557.7471281819744
 30
0.0
  0
POINT
  5
3ABAE
330
3A9EE
100
AcDbEntity
  8
DEFPOINTS
 62
     0
440
 16777216
100
AcDbPoint
 10
178.479687763941
 20
392.7471281819744
 30
0.0
  0
POINT
  5
3ABAF
330
3A9EE
100
AcDbEntity
  8
DEFPOINTS
 62
     0
440
 16777216
100
AcDbPoint
 10
201.0103305455068
 20
392.7471281819744
 30
0.0
  0
ENDBLK
  5
3A9F0
330
3A9EE
100
AcDbEntity
  8
0
100
AcDbBlockEnd
  0
BLOCK
  5
3A9FB
330
3A9FA
100
AcDbEntity
  8
0
100
AcDbBlockBegin
  2
*D27
 70
     1
 10
0.0
 20
0.0
 30
0.0
  3
*D27
  1

  0
LINE
  5
3ABB0
330
3A9FA
100
AcDbEntity
  8
30
 62
     0
440
 16777216
370
    -2
100
AcDbLine
 10
145.9796877639406
 20
658.747128181974
 30
0.0
 11
201.5103305455068
 21
658.747128181974
 31
0.0
  0
LINE
  5
3ABB1
330
3A9FA
100
AcDbEntity
  8
30
 62
     0
440
 16777216
370
    -2
100
AcDbLine
 10
179.479687763941
 20
557.7471281819744
 30
0.0
 11
201.5103305455068
 21
557.7471281819744
 31
0.0
  0
LINE
  5
3ABB2
330
3A9FA
100
AcDbEntity
  8
30
 62
     0
440
 16777216
370
    -2
100
AcDbLine
 10
201.0103305455068
 20
655.7471281819743
 30
0.0
 11
201.0103305455068
 21
560.7471281819742
 31
0.0
  0
INSERT
  5
3ABB3
330
3A9FA
100
AcDbEntity
  8
30
 62
     0
440
 16777216
370
    -2
100
AcDbBlockReference
  2
_OPEN
 10
201.0103305455068
 20
658.747128181974
 30
0.0
 41
3.0
 42
3.0
 43
3.0
 50
90.0
  0
INSERT
  5
3ABB4
330
3A9FA
100
AcDbEntity
  8
30
 62
     0
440
 16777216
370
    -2
100
AcDbBlockReference
  2
_OPEN
 10
201.0103305455068
 20
557.7471281819744
 30
0.0
 41
3.0
 42
3.0
 43
3.0
 50
270.0
  0
MTEXT
  5
3ABB5
330
3A9FA
100
AcDbEntity
  8
30
 62
     0
440
 16777216
100
AcDbMText
 10
194.5103305455067
 20
608.2471281819742
 30
0.0
 40
7.0
 41
0.0
 46
0.0
 71
     5
 72
     1
  1
\A1;101
 11
0.0000000000000001
 21
1.0
 31
0.0
 73
     1
 44
1.0
 90
        3
 63
     9
421
 13158600
 45
1.25
441
        0
  0
POINT
  5
3ABB6
330
3A9FA
100
AcDbEntity
  8
DEFPOINTS
 62
     0
440
 16777216
100
AcDbPoint
 10
144.9796877639406
 20
658.747128181974
 30
0.0
  0
POINT
  5
3ABB7
330
3A9FA
100
AcDbEntity
  8
DEFPOINTS
 62
     0
440
 16777216
100
AcDbPoint
 10
178.479687763941
 20
557.7471281819744
 30
0.0
  0
POINT
  5
3ABB8
330
3A9FA
100
AcDbEntity
  8
DEFPOINTS
 62
     0
440
 16777216
100
AcDbPoint
 10
201.0103305455068
 20
557.7471281819744
 30
0.0
  0
ENDBLK
  5
3A9FC
330
3A9FA
100
AcDbEntity
  8
0
100
AcDbBlockEnd
  0
ENDSEC
  0
SECTION
  2
ENTITIES
  0
MTEXT
  5
3A409
330
1E
100
AcDbEntity
  8
5
  6
Continuous
 62
     7
100
AcDbMText
 10
382.8510244471827
 20
751.2314822495599
 30
0.0
 40
9.0
 41
0.0
 46
0.0
 71
     7
 72
     5
  1
PS250-PF 3P FC\PPS250-NE 3P FC\PPS250-PE 3P FC
  7
blockfont
 73
     1
 44
1.0
  0
LWPOLYLINE
  5
3A40A
330
1E
100
AcDbEntity
  8
130
100
AcDbPolyline
 90
        4
 70
     1
 43
0.0
 10
73.479687763941
 20
826.0328139247357
 10
178.479687763941
 20
826.0328139247357
 10
178.479687763941
 20
766.0328139247361
 10
73.479687763941
 20
766.0328139247361
  0
LINE
  5
3A40B
330
1E
100
AcDbEntity
  8
24
100
AcDbLine
 10
165.979687763941
 20
792.0328139247357
 30
0.0
 11
165.979687763941
 21
800.0328139247356
 31
0.0
  0
LINE
  5
3A40C
330
1E
100
AcDbEntity
  8
24
100
AcDbLine
 10
155.979687763941
 20
792.0328139247357
 30
0.0
 11
155.979687763941
 21
800.0328139247356
 31
0.0
  0
LINE
  5
3A40D
330
1E
100
AcDbEntity
  8
24
100
AcDbLine
 10
155.979687763941
 20
792.0328139247357
 30
0.0
 11
165.979687763941
 21
792.0328139247357
 31
0.0
  0
LINE
  5
3A40E
330
1E
100
AcDbEntity
  8
24
100
AcDbLine
 10
153.2796877639412
 20
800.0328139247356
 30
0.0
 11
168.6796877639413
 21
800.0328139247356
 31
0.0
  0
LINE
  5
3A40F
330
1E
100
AcDbEntity
  8
24
100
AcDbLine
 10
150.479687763941
 20
806.0328139247362
 30
0.0
 11
171.4796877639412
 21
806.0328139247362
 31
0.0
  0
LINE
  5
3A410
330
1E
100
AcDbEntity
  8
24
100
AcDbLine
 10
150.479687763941
 20
802.0328139247357
 30
0.0
 11
171.4796877639412
 21
802.0328139247357
 31
0.0
  0
LINE
  5
3A411
330
1E
100
AcDbEntity
  8
24
100
AcDbLine
 10
153.2796877639412
 20
800.0328139247356
 30
0.0
 11
153.2796877639412
 21
802.0328139247357
 31
0.0
  0
LINE
  5
3A412
330
1E
100
AcDbEntity
  8
24
100
AcDbLine
 10
168.6796877639413
 20
800.0328139247356
 30
0.0
 11
168.6796877639413
 21
802.0328139247357
 31
0.0
  0
LINE
  5
3A413
330
1E
100
AcDbEntity
  8
24
100
AcDbLine
 10
120.979687763941
 20
792.0328139247357
 30
0.0
 11
120.979687763941
 21
800.0328139247356
 31
0.0
  0
LINE
  5
3A414
330
1E
100
AcDbEntity
  8
24
100
AcDbLine
 10
130.979687763941
 20
792.0328139247357
 30
0.0
 11
130.979687763941
 21
800.0328139247356
 31
0.0
  0
LINE
  5
3A415
330
1E
100
AcDbEntity
  8
24
100
AcDbLine
 10
120.979687763941
 20
792.0328139247357
 30
0.0
 11
130.979687763941
 21
792.0328139247357
 31
0.0
  0
LINE
  5
3A416
330
1E
100
AcDbEntity
  8
24
100
AcDbLine
 10
115.479687763941
 20
802.0328139247357
 30
0.0
 11
136.4796877639412
 21
802.0328139247357
 31
0.0
  0
LINE
  5
3A417
330
1E
100
AcDbEntity
  8
24
100
AcDbLine
 10
115.479687763941
 20
806.0328139247362
 30
0.0
 11
136.4796877639412
 21
806.0328139247362
 31
0.0
  0
LINE
  5
3A418
330
1E
100
AcDbEntity
  8
24
100
AcDbLine
 10
118.2796877639411
 20
800.0328139247356
 30
0.0
 11
133.6796877639413
 21
800.0328139247356
 31
0.0
  0
LINE
  5
3A419
330
1E
100
AcDbEntity
  8
24
100
AcDbLine
 10
118.2796877639411
 20
800.0328139247356
 30
0.0
 11
118.2796877639411
 21
802.0328139247357
 31
0.0
  0
LINE
  5
3A41A
330
1E
100
AcDbEntity
  8
24
100
AcDbLine
 10
133.6796877639413
 20
800.0328139247356
 30
0.0
 11
133.6796877639413
 21
802.0328139247357
 31
0.0
  0
LINE
  5
3A41B
330
1E
100
AcDbEntity
  8
16
100
AcDbLine
 10
125.979687763941
 20
726.0328139247361
 30
0.0
 11
125.979687763941
 21
831.4143088310402
 31
0.0
  0
DIMENSION
  5
3A41C
330
1E
100
AcDbEntity
  8
30
100
AcDbDimension
280
     0
  2
*D1
 10
125.9796877639409
 20
844.9301550248828
 30
0.0
 11
143.479687763941
 21
850.4301550248827
 31
0.0
 70
    32
 71
     5
 42
35.00000000000019
 73
     0
 74
     0
 75
     0
  3
STANDARD1
100
AcDbAlignedDimension
 13
160.9796877639411
 23
783.0586700863086
 33
0.0
 14
125.9796877639409
 24
811.1460295305937
 34
0.0
100
AcDbRotatedDimension
  0
LINE
  5
3A41D
330
1E
100
AcDbEntity
  8
10
100
AcDbLine
 10
178.479687763941
 20
557.7471281819744
 30
0.0
 11
178.479687763941
 21
392.7471281819744
 31
0.0
  0
LWPOLYLINE
  5
3A420
330
1E
100
AcDbEntity
  8
12
  6
DASHDOT
100
AcDbPolyline
 90
        2
 70
     0
 43
0.0
 10
108.4796877639412
 20
543.7471281819743
 10
108.4796877639412
 20
532.7471281819738
  0
CIRCLE
  5
3A421
330
1E
100
AcDbEntity
  8
12
100
AcDbCircle
 10
108.4796877639412
 20
538.247128181974
 30
0.0
 40
4.0
  0
LINE
  5
3A422
330
1E
100
AcDbEntity
  8
10
100
AcDbLine
 10
73.479687763941
 20
557.7471281819744
 30
0.0
 11
73.479687763941
 21
392.7471281819744
 31
0.0
  0
LINE
  5
3A423
330
1E
100
AcDbEntity
  8
16
100
AcDbLine
 10
125.9796877639409
 20
567.7471281819744
 30
0.0
 11
125.9796877639409
 21
382.7471281819744
 31
0.0
  0
LINE
  5
3A424
330
1E
100
AcDbEntity
  8
10
100
AcDbLine
 10
73.479687763941
 20
424.2471281819744
 30
0.0
 11
178.479687763941
 21
424.2471281819744
 31
0.0
  0
LINE
  5
3A425
330
1E
100
AcDbEntity
  8
10
100
AcDbLine
 10
73.479687763941
 20
526.2471281819743
 30
0.0
 11
178.479687763941
 21
526.2471281819743
 31
0.0
  0
LINE
  5
3A426
330
1E
100
AcDbEntity
  8
10
100
AcDbLine
 10
73.479687763941
 20
392.7471281819744
 30
0.0
 11
178.479687763941
 21
392.7471281819744
 31
0.0
  0
LINE
  5
3A427
330
1E
100
AcDbEntity
  8
16
 48
2.0
100
AcDbLine
 10
68.47968776394123
 20
475.2471281819744
 30
0.0
 11
186.8442864808985
 21
475.2471281819744
 31
0.0
  0
LWPOLYLINE
  5
3A428
330
1E
100
AcDbEntity
  8
10
100
AcDbPolyline
 90
        2
 70
     0
 43
0.0
 10
132.9796877639409
 20
482.0879181819741
 10
118.9796877639409
 20
482.0879181819741
  0
LWPOLYLINE
  5
3A429
330
1E
100
AcDbEntity
  8
10
100
AcDbPolyline
 90
        2
 70
     0
 43
0.0
 10
132.9796877639409
 20
490.4870856819743
 10
118.9796877639409
 20
490.4870856819743
  0
LWPOLYLINE
  5
3A42A
330
1E
100
AcDbEntity
  8
10
100
AcDbPolyline
 90
        2
 70
     0
 43
0.0
 10
114.9796877639409
 20
500.2471281819744
 10
114.9796877639409
 20
450.2471281819744
  0
LWPOLYLINE
  5
3A42B
330
1E
100
AcDbEntity
  8
10
100
AcDbPolyline
 90
        2
 70
     0
 43
0.0
 10
136.979687763941
 20
500.2471281819744
 10
136.979687763941
 20
450.2471281819744
  0
LWPOLYLINE
  5
3A42C
330
1E
100
AcDbEntity
  8
10
100
AcDbPolyline
 90
        4
 70
     1
 43
0.0
 10
118.9796877639409
 20
495.4019981819739
 10
118.9796877639409
 20
456.7471281819743
 10
132.9796877639409
 20
456.7471281819743
 10
132.9796877639409
 20
495.4019981819739
  0
LWPOLYLINE
  5
3A42D
330
1E
100
AcDbEntity
  8
10
100
AcDbPolyline
 90
        4
 70
     1
 43
0.0
 10
174.979687763941
 20
500.2471281819744
 10
174.979687763941
 20
450.2471281819744
 10
76.97968776394123
 20
450.2471281819744
 10
76.97968776394123
 20
500.2471281819744
  0
LINE
  5
3A42E
330
1E
100
AcDbEntity
  8
10
100
AcDbLine
 10
178.479687763941
 20
557.7471281819744
 30
0.0
 11
73.479687763941
 21
557.7471281819744
 31
0.0
  0
LWPOLYLINE
  5
3A42F
330
1E
100
AcDbEntity
  8
17
100
AcDbPolyline
 90
        2
 70
     0
 43
0.0
 10
90.97968776394123
 20
554.2471281819744
 10
90.97968776394123
 20
540.2471281819741
  0
LWPOLYLINE
  5
3A430
330
1E
100
AcDbEntity
  8
17
100
AcDbPolyline
 90
        2
 70
     0
 43
0.0
 10
83.97968776394121
 20
547.2471281819744
 10
97.97968776394123
 20
547.2471281819744
  0
CIRCLE
  5
3A431
330
1E
100
AcDbEntity
  8
24
100
AcDbCircle
 10
90.97968776394123
 20
547.2471281819744
 30
0.0
 40
5.0
  0
LINE
  5
3A432
330
1E
100
AcDbEntity
  8
18
100
AcDbLine
 10
109.9796877639409
 20
658.7471281819743
 30
0.0
 11
109.9796877639409
 21
557.7471281819744
 31
0.0
  0
LINE
  5
3A433
330
1E
100
AcDbEntity
  8
18
100
AcDbLine
 10
106.979687763941
 20
658.7471281819743
 30
0.0
 11
106.979687763941
 21
557.7471281819744
 31
0.0
  0
LINE
  5
3A434
330
1E
100
AcDbEntity
  8
18
100
AcDbLine
 10
141.9796877639412
 20
658.7471281819743
 30
0.0
 11
141.9796877639412
 21
557.7471281819744
 31
0.0
  0
LINE
  5
3A435
330
1E
100
AcDbEntity
  8
18
100
AcDbLine
 10
144.979687763941
 20
658.7471281819743
 30
0.0
 11
144.979687763941
 21
557.7471281819744
 31
0.0
  0
LWPOLYLINE
  5
3A437
330
1E
100
AcDbEntity
  8
12
  6
DASHDOT
100
AcDbPolyline
 90
        2
 70
     0
 43
0.0
 10
102.9796877639412
 20
538.247128181974
 10
113.9796877639409
 20
538.247128181974
  0
LWPOLYLINE
  5
3A438
330
1E
100
AcDbEntity
  8
10
100
AcDbPolyline
 90
        6
 70
     0
 43
0.0
 10
102.9796877639412
 20
557.7471281819744
 10
102.9796877639412
 20
540.2471281819741
 42
-0.4142135623730951
 10
97.97968776394123
 20
535.247128181974
 10
83.97968776394121
 20
535.247128181974
 42
-0.4142135623730951
 10
78.9796877639412
 20
540.2471281819741
 10
78.9796877639412
 20
557.7471281819744
  0
LWPOLYLINE
  5
3A439
330
1E
100
AcDbEntity
  8
10
100
AcDbPolyline
 90
        6
 70
     0
 43
0.0
 10
113.9796877639409
 20
557.7471281819744
 10
113.9796877639409
 20
540.2471281819741
 42
0.4142135623730951
 10
118.9796877639409
 20
535.247128181974
 10
132.9796877639409
 20
535.247128181974
 42
0.4142135623730951
 10
137.9796877639409
 20
540.2471281819741
 10
137.9796877639409
 20
557.7471281819744
  0
LWPOLYLINE
  5
3A43A
330
1E
100
AcDbEntity
  8
17
100
AcDbPolyline
 90
        2
 70
     0
 43
0.0
 10
118.9796877639409
 20
547.2471281819744
 10
132.9796877639409
 20
547.2471281819744
  0
CIRCLE
  5
3A43B
330
1E
100
AcDbEntity
  8
24
100
AcDbCircle
 10
125.9796877639409
 20
547.2471281819744
 30
0.0
 40
5.0
  0
LWPOLYLINE
  5
3A43C
330
1E
100
AcDbEntity
  8
17
100
AcDbPolyline
 90
        2
 70
     0
 43
0.0
 10
153.9796877639408
 20
547.2471281819744
 10
167.9796877639412
 20
547.2471281819744
  0
LWPOLYLINE
  5
3A43D
330
1E
100
AcDbEntity
  8
10
100
AcDbPolyline
 90
        6
 70
     0
 43
0.0
 10
148.9796877639411
 20
557.7471281819744
 10
148.9796877639407
 20
540.2471281819741
 42
0.4142135623730951
 10
153.9796877639408
 20
535.247128181974
 10
167.9796877639412
 20
535.247128181974
 42
0.4142135623730951
 10
172.9796877639412
 20
540.2471281819741
 10
172.9796877639412
 20
557.7471281819744
  0
LWPOLYLINE
  5
3A43E
330
1E
100
AcDbEntity
  8
17
100
AcDbPolyline
 90
        2
 70
     0
 43
0.0
 10
160.9796877639411
 20
554.2471281819744
 10
160.9796877639411
 20
540.2471281819741
  0
CIRCLE
  5
3A43F
330
1E
100
AcDbEntity
  8
24
100
AcDbCircle
 10
160.9796877639411
 20
547.2471281819744
 30
0.0
 40
5.0
  0
LINE
  5
3A440
330
1E
100
AcDbEntity
  8
18
100
AcDbLine
 10
141.9796877639412
 20
658.7471281819743
 30
0.0
 11
144.979687763941
 21
658.7471281819743
 31
0.0
  0
LINE
  5
3A441
330
1E
100
AcDbEntity
  8
18
100
AcDbLine
 10
109.9796877639409
 20
658.7471281819743
 30
0.0
 11
106.979687763941
 21
658.7471281819743
 31
0.0
  0
DIMENSION
  5
3A445
330
1E
100
AcDbEntity
  8
30
100
AcDbDimension
280
     0
  2
*D2
 10
174.979687763941
 20
509.3848421128193
 30
0.0
 11
135.3363384397862
 21
509.3848421128193
 31
0.0
 70
   160
 71
     5
 42
97.99999999999945
 73
     0
 74
     0
 75
     0
  3
STANDARD
100
AcDbAlignedDimension
 13
76.97968776394157
 23
500.2471281819744
 33
0.0
 14
174.979687763941
 24
500.2471281819744
 34
0.0
100
AcDbRotatedDimension
  0
DIMENSION
  5
3A446
330
1E
100
AcDbEntity
  8
30
100
AcDbDimension
280
     0
  2
*D3
 10
90.97968776394111
 20
844.9301550248828
 30
0.0
 11
108.479687763941
 21
850.4301550248827
 31
0.0
 70
    32
 71
     5
 42
34.99999999999989
 73
     0
 74
     0
 75
     0
  3
STANDARD1
100
AcDbAlignedDimension
 13
125.979687763941
 23
783.240784762062
 33
0.0
 14
90.97968776394111
 24
784.5155939676765
 34
0.0
100
AcDbRotatedDimension
  0
LINE
  5
3A447
330
1E
100
AcDbEntity
  8
24
100
AcDbLine
 10
95.979687763941
 20
792.0328139247357
 30
0.0
 11
95.979687763941
 21
800.0328139247356
 31
0.0
  0
LINE
  5
3A448
330
1E
100
AcDbEntity
  8
24
100
AcDbLine
 10
85.979687763941
 20
792.0328139247357
 30
0.0
 11
85.979687763941
 21
800.0328139247356
 31
0.0
  0
LINE
  5
3A449
330
1E
100
AcDbEntity
  8
24
100
AcDbLine
 10
85.979687763941
 20
792.0328139247357
 30
0.0
 11
95.979687763941
 21
792.0328139247357
 31
0.0
  0
LINE
  5
3A44A
330
1E
100
AcDbEntity
  8
24
100
AcDbLine
 10
83.27968776394119
 20
800.0328139247356
 30
0.0
 11
98.67968776394128
 21
800.0328139247356
 31
0.0
  0
LINE
  5
3A44B
330
1E
100
AcDbEntity
  8
24
100
AcDbLine
 10
80.479687763941
 20
806.0328139247362
 30
0.0
 11
101.4796877639413
 21
806.0328139247362
 31
0.0
  0
LINE
  5
3A44C
330
1E
100
AcDbEntity
  8
24
100
AcDbLine
 10
80.479687763941
 20
802.0328139247357
 30
0.0
 11
101.4796877639413
 21
802.0328139247357
 31
0.0
  0
LINE
  5
3A44D
330
1E
100
AcDbEntity
  8
24
100
AcDbLine
 10
83.27968776394119
 20
800.0328139247356
 30
0.0
 11
83.27968776394119
 21
802.0328139247357
 31
0.0
  0
LINE
  5
3A44E
330
1E
100
AcDbEntity
  8
24
100
AcDbLine
 10
98.67968776394128
 20
800.0328139247356
 30
0.0
 11
98.67968776394128
 21
802.0328139247357
 31
0.0
  0
LINE
  5
3A44F
330
1E
100
AcDbEntity
  8
12
100
AcDbLine
 10
108.3292596083358
 20
257.5207853385029
 30
0.0
 11
108.3292596083358
 21
246.5207853385028
 31
0.0
  0
CIRCLE
  5
3A450
330
1E
100
AcDbEntity
  8
12
100
AcDbCircle
 10
108.3292596083358
 20
252.0207853385029
 30
0.0
 40
1.99999999999998
  0
LINE
  5
3A451
330
1E
100
AcDbEntity
  8
16
 48
2.0
100
AcDbLine
 10
125.8292596083357
 20
281.5207853385028
 30
0.0
 11
125.8292596083357
 21
96.52078533850435
 31
0.0
  0
LINE
  5
3A452
330
1E
100
AcDbEntity
  8
16
 48
2.0
100
AcDbLine
 10
68.32925960833631
 20
189.0207853385036
 30
0.0
 11
183.6301159195466
 21
189.0207853410135
 31
0.0
  0
CIRCLE
  5
3A453
330
1E
100
AcDbEntity
  8
12
100
AcDbCircle
 10
143.3292596083358
 20
126.020785338504
 30
0.0
 40
1.99999999999998
  0
LINE
  5
3A454
330
1E
100
AcDbEntity
  8
12
100
AcDbLine
 10
143.3292596083358
 20
120.5207853385042
 30
0.0
 11
143.3292596083358
 21
131.5207853385041
 31
0.0
  0
LINE
  5
3A455
330
1E
100
AcDbEntity
  8
12
100
AcDbLine
 10
137.8292596083355
 20
126.020785338504
 30
0.0
 11
148.8292596083356
 21
126.020785338504
 31
0.0
  0
LINE
  5
3A456
330
1E
100
AcDbEntity
  8
12
100
AcDbLine
 10
102.8292596083364
 20
252.0207853385029
 30
0.0
 11
113.829259608336
 21
252.0207853385029
 31
0.0
  0
LWPOLYLINE
  5
3A457
330
1E
100
AcDbEntity
  8
18
100
AcDbPolyline
 90
        4
 70
     1
 43
0.0
 10
73.3292596083362
 20
271.520785338503
 10
178.6301159195469
 20
271.9935712836691
 10
178.6301159195469
 20
106.9935712836705
 10
73.3292596083362
 20
106.5207853385043
  0
LEADER
  5
3A458
330
1E
100
AcDbEntity
  8
30
100
AcDbLeader
  3
STANDARD1
 76
     3
 10
108.3292596083358
 20
252.0207853385029
 30
0.0
 10
68.3292596083362
 20
277.8234074752679
 30
0.0
 10
28.41655714436365
 20
277.8234074752679
 30
0.0
1001
ACAD
1000
DSTYLE
1002
{
1070
   147
1040
2.0
1070
    77
1070
     0
1002
}
  0
MTEXT
  5
3A459
330
1E
100
AcDbEntity
  8
30
  6
Continuous
100
AcDbMText
 10
31.16755034357686
 20
285.6320235229238
 30
0.0
 40
7.0
 41
30.0
 46
0.0
 71
     1
 72
     5
  1
M4x0.7
  7
blockfont
 73
     1
 44
1.0
  0
DIMENSION
  5
3A45A
330
1E
100
AcDbEntity
  8
30
100
AcDbDimension
280
     0
  2
*D4
 10
143.3292596083362
 20
74.30637865628614
 30
0.0
 11
125.8292596083359
 21
80.80637865628615
 31
0.0
 70
    32
 71
     5
 42
35.00000000000037
 73
     0
 74
     0
 75
     0
  3
STANDARD
100
AcDbAlignedDimension
 13
108.3292596083358
 23
246.5207853385028
 33
0.0
 14
143.3292596083362
 24
120.5207853385029
 34
0.0
100
AcDbRotatedDimension
  0
DIMENSION
  5
3A45B
330
1E
100
AcDbEntity
  8
30
100
AcDbDimension
280
     0
  2
*D5
 10
198.8906031407729
 20
126.0207853385039
 30
0.0
 11
192.3906031407728
 21
189.0207853385034
 31
0.0
 70
    32
 71
     5
 42
125.9999999999989
 73
     0
 74
     0
 75
     0
  3
STANDARD
100
AcDbAlignedDimension
 13
113.829259608336
 23
252.0207853385029
 33
0.0
 14
148.8292596083356
 24
126.020785338504
 34
0.0
 50
90.0
100
AcDbRotatedDimension
  0
LINE
  5
3A45C
330
1E
100
AcDbEntity
  8
16
 48
2.0
100
AcDbLine
 10
343.6273707298961
 20
281.0480031322741
 30
0.0
 11
343.6273707298961
 21
96.04800313227414
 31
0.0
  0
LINE
  5
3A45D
330
1E
100
AcDbEntity
  8
16
 48
2.0
100
AcDbLine
 10
449.126571763711
 20
189.2571760738181
 30
0.0
 11
574.0262850166484
 21
189.2571760738181
 31
0.0
  0
DIMENSION
  5
3A45E
330
1E
100
AcDbEntity
  8
30
100
AcDbDimension
280
     0
  2
*D6
 10
136.9796877639414
 20
431.3012058522486
 30
0.0
 11
148.8130210972746
 21
431.3012058522486
 31
0.0
 70
   160
 71
     5
 42
22.0
 73
     0
 74
     0
 75
     0
  3
STANDARD
100
AcDbAlignedDimension
 13
114.9796877639414
 23
450.2471281819744
 33
0.0
 14
136.9796877639414
 24
450.2471281819744
 34
0.0
100
AcDbRotatedDimension
  0
LWPOLYLINE
  5
3A45F
330
1E
100
AcDbEntity
  8
130
100
AcDbPolyline
 90
        4
 70
     1
 43
0.0
 10
73.47968776394075
 20
766.0328139247361
 10
178.479687763941
 20
766.0328139247361
 10
178.479687763941
 20
758.032813924736
 10
73.47968776394075
 20
758.0328139247361
  0
LWPOLYLINE
  5
3A460
330
1E
100
AcDbEntity
  8
130
100
AcDbPolyline
 90
        4
 70
     1
 43
0.0
 10
76.97968776394134
 20
758.0328139247361
 10
174.9796877639414
 20
758.032813924736
 10
174.9796877639414
 20
754.0328139247361
 10
76.97968776394134
 20
754.0328139247361
  0
LWPOLYLINE
  5
3A461
330
1E
100
AcDbEntity
  8
130
100
AcDbPolyline
 90
        4
 70
     1
 43
0.0
 10
118.9796877639409
 20
747.532813924736
 10
132.9796877639408
 20
747.532813924736
 10
132.9796877639408
 20
747.532813924736
 10
118.9796877639409
 20
747.532813924736
  0
LWPOLYLINE
  5
3A462
330
1E
100
AcDbEntity
  8
130
100
AcDbPolyline
 90
        4
 70
     1
 43
0.0
 10
114.9796877639411
 20
754.0328139247361
 10
136.979687763941
 20
754.0328139247361
 10
136.979687763941
 20
747.532813924736
 10
114.9796877639411
 20
747.532813924736
  0
LWPOLYLINE
  5
3A463
330
1E
100
AcDbEntity
  8
130
100
AcDbPolyline
 90
        4
 70
     1
 43
0.0
 10
118.9796877639409
 20
747.532813924736
 10
132.9796877639408
 20
747.532813924736
 10
132.9796877639408
 20
747.532813924736
 10
118.9796877639409
 20
747.532813924736
  0
LWPOLYLINE
  5
3A464
330
1E
100
AcDbEntity
  8
130
100
AcDbPolyline
 90
        4
 70
     1
 43
0.0
 10
118.9796877639407
 20
747.532813924736
 10
132.9796877639405
 20
747.532813924736
 10
132.9796877639405
 20
731.032813924736
 10
118.9796877639407
 20
731.032813924736
  0
DIMENSION
  5
3A465
330
1E
100
AcDbEntity
  8
30
100
AcDbDimension
280
     0
  2
*D7
 10
393.6273707298964
 20
75.36795230575262
 30
0.0
 11
343.6273707298964
 21
81.86795230575262
 31
0.0
 70
    32
 71
     5
 42
100.0
 73
     0
 74
     0
 75
     0
  3
STANDARD
100
AcDbAlignedDimension
 13
293.6273707298964
 23
163.5480031322741
 33
0.0
 14
393.6273707298964
 24
163.5480031322741
 34
0.0
100
AcDbRotatedDimension
  0
DIMENSION
  5
3A466
330
1E
100
AcDbEntity
  8
30
100
AcDbDimension
280
     0
  2
*D8
 10
416.8944843963235
 20
162.6225016996094
 30
0.0
 11
416.8944843963235
 21
188.4478523742667
 31
0.0
 70
   160
 71
     5
 42
51.99999999999993
 73
     0
 74
     0
 75
     0
  3
STANDARD
100
AcDbAlignedDimension
 13
392.7677718760279
 23
214.6225016996094
 33
0.0
 14
392.3852519194935
 24
162.6225016996094
 34
0.0
 50
90.0
100
AcDbRotatedDimension
  0
LWPOLYLINE
  5
3A467
330
1E
100
AcDbEntity
  8
11
100
AcDbPolyline
 90
        9
 70
     0
 43
0.0
 10
294.4869685625969
 20
162.4735062640434
 10
392.7696179376477
 20
162.4735062640434
 42
0.4131583201884684
 10
393.770635646336
 20
163.474601465046
 10
393.770635646336
 20
213.6178679406908
 42
0.4147301380952293
 10
392.7677718760279
 20
214.6225016996094
 10
294.4869695834881
 20
214.6225016996094
 42
0.4145552984440715
 10
293.4841049367013
 20
213.6184664083959
 10
293.4841049367013
 20
163.4751999327999
 42
0.4138719087941805
 10
294.4869695837643
 20
162.4735045649386
  0
LWPOLYLINE
  5
3A468
330
1E
100
AcDbEntity
  8
18
100
AcDbPolyline
 90
        4
 70
     1
 43
0.0
 10
290.9769402680766
 20
105.811612396959
 10
396.2778003152114
 20
105.811612396959
 10
396.2778003152114
 20
271.2843946056982
 10
290.9769402680766
 20
271.2843946056982
  0
LINE
  5
3A469
330
1E
100
AcDbEntity
  8
18
100
AcDbLine
 10
396.2778003152114
 20
271.284392817088
 30
0.0
 11
396.2778003152114
 21
105.8116134474604
 31
0.0
  0
DIMENSION
  5
3A46A
330
1E
100
AcDbEntity
  8
30
100
AcDbDimension
280
     0
  2
*D9
 10
589.079874274422
 20
165.0207853385028
 30
0.0
 11
589.079874274422
 21
189.0207853385028
 31
0.0
 70
   160
 71
     2
 42
48.0
 73
     0
 74
     0
 75
     0
  3
STANDARD
100
AcDbAlignedDimension
 13
522.6265713254589
 23
213.0207853385029
 33
0.0
 14
522.6265713254589
 24
165.0207853385029
 34
0.0
 50
90.0
100
AcDbRotatedDimension
  0
DIMENSION
  5
3A46B
330
1E
100
AcDbEntity
  8
30
  6
Continuous
100
AcDbDimension
280
     0
  2
*D10
 10
522.6265713254598
 20
212.0207853385031
 30
0.0
 11
538.6573484470535
 21
221.2761588248116
 31
0.0
 70
   164
  1
<>
 71
     5
 42
1.000000000013415
 73
     0
 74
     0
 75
     0
  3
STANDARD1
100
AcDbRadialDimension
 15
523.3377954511316
 25
212.723750659902
 35
0.0
 40
0.0
  0
LINE
  5
3A46C
330
1E
100
AcDbEntity
  8
16
 48
2.0
100
AcDbLine
 10
511.6265713254589
 20
279.6690405301347
 30
0.0
 11
511.6265713254589
 21
96.33404459292705
 31
0.0
  0
LINE
  5
3A46D
330
1E
100
AcDbEntity
  8
11
100
AcDbLine
 10
499.6265713254588
 20
212.0207853385029
 30
0.0
 11
499.6265713254588
 21
166.0207853385029
 31
0.0
  0
LINE
  5
3A46E
330
1E
100
AcDbEntity
  8
11
100
AcDbLine
 10
500.626571325459
 20
213.0207853385029
 30
0.0
 11
522.6265713254589
 21
213.0207853385029
 31
0.0
  0
LINE
  5
3A46F
330
1E
100
AcDbEntity
  8
11
100
AcDbLine
 10
523.6265713254589
 20
212.0207853385029
 30
0.0
 11
523.6265713254589
 21
166.0207853385029
 31
0.0
  0
LINE
  5
3A470
330
1E
100
AcDbEntity
  8
11
100
AcDbLine
 10
500.626571325459
 20
165.0207853385029
 30
0.0
 11
522.6265713254589
 21
165.0207853385029
 31
0.0
  0
ARC
  5
3A471
330
1E
100
AcDbEntity
  8
11
100
AcDbCircle
 10
500.626571325459
 20
212.0207853385029
 30
0.0
 40
1.0
100
AcDbArc
 50
90.0
 51
180.0
  0
ARC
  5
3A472
330
1E
100
AcDbEntity
  8
11
100
AcDbCircle
 10
500.626571325459
 20
166.0207853385029
 30
0.0
 40
1.0
100
AcDbArc
 50
180.0
 51
270.0
  0
ARC
  5
3A473
330
1E
100
AcDbEntity
  8
11
100
AcDbCircle
 10
522.6265713254589
 20
212.0207853385029
 30
0.0
 40
1.0
100
AcDbArc
 50
0.0
 51
90.0
  0
ARC
  5
3A474
330
1E
100
AcDbEntity
  8
11
100
AcDbCircle
 10
522.6265713254589
 20
166.0207853385029
 30
0.0
 40
1.0
100
AcDbArc
 50
270.0
 51
0.0
  0
DIMENSION
  5
3A475
330
1E
100
AcDbEntity
  8
30
100
AcDbDimension
280
     0
  2
*D11
 10
499.6265713254588
 20
76.69491936758595
 30
0.0
 11
512.937001840537
 21
76.69491936758595
 31
0.0
 70
   160
  1
<>
 71
     2
 42
24.00000000000011
 73
     0
 74
     0
 75
     0
  3
STANDARD
100
AcDbAlignedDimension
 13
523.6265713254589
 23
166.0207853385029
 33
0.0
 14
499.6265713254588
 24
166.0207853385029
 34
0.0
100
AcDbRotatedDimension
  0
LWPOLYLINE
  5
3A476
330
1E
100
AcDbEntity
  8
18
100
AcDbPolyline
 90
        4
 70
     1
 43
0.0
 10
459.1265713254593
 20
271.520785338503
 10
564.1265713254589
 20
271.520785338503
 10
564.1265713254589
 20
106.5207853385029
 10
459.1265713254593
 20
106.5207853385029
  0
MTEXT
  5
3A477
330
1E
100
AcDbEntity
  8
240
100
AcDbMText
 10
309.7201943421543
 20
54.68307804436046
 30
0.0
 40
7.826237649998486
 41
0.0
 46
0.0
 71
     1
 72
     1
  1
[Cutout A]
 73
     1
 44
1.0
  0
MTEXT
  5
3A478
330
1E
100
AcDbEntity
  8
240
100
AcDbMText
 10
470.984001329971
 20
54.68307804436046
 30
0.0
 40
7.826237649998486
 41
0.0
 46
0.0
 71
     1
 72
     1
  1
[Cutout B]
 73
     1
 44
1.0
  0
LWPOLYLINE
  5
3A479
330
1E
100
AcDbEntity
  8
130
  6
Continuous
100
AcDbPolyline
 90
        4
 70
     1
 43
0.0
 10
0.0
 20
891.0
 10
629.9999999999998
 20
891.0
 10
629.9999999999998
 20
0.0
 10
0.0
 20
0.0
  0
LINE
  5
3A47A
330
1E
100
AcDbEntity
  8
16
 48
2.0
100
AcDbLine
 10
281.1273707298964
 20
189.0207853410134
 30
0.0
 11
406.0270839828333
 21
189.0207853410135
 31
0.0
  0
DIMENSION
  5
3A47C
330
1E
100
AcDbEntity
  8
30
  6
Continuous
100
AcDbDimension
280
     0
  2
*D12
 10
392.7697979699569
 20
213.6216624640255
 30
0.0
 11
408.8005750915522
 21
222.8770359503343
 31
0.0
 70
   164
  1
<>
 71
     5
 42
1.000000000012732
 73
     0
 74
     0
 75
     0
  3
STANDARD1
100
AcDbRadialDimension
 15
393.4810220956281
 25
214.3246277854239
 35
0.0
 40
0.0
  0
LWPOLYLINE
  5
3A4B4
330
1E
100
AcDbEntity
  8
12
  6
DASHDOT
100
AcDbPolyline
 90
        2
 70
     0
 43
0.0
 10
143.4796877639411
 20
406.7471281819743
 10
143.4796877639411
 20
417.7471281819746
  0
CIRCLE
  5
3A4B5
330
1E
100
AcDbEntity
  8
12
100
AcDbCircle
 10
-143.4796877639411
 20
412.2471281819746
 30
0.0
 40
4.0
210
0.0
220
0.0
230
-1.0
  0
LWPOLYLINE
  5
3A4B8
330
1E
100
AcDbEntity
  8
17
100
AcDbPolyline
 90
        2
 70
     0
 43
0.0
 10
90.97968776394123
 20
396.2471281819744
 10
90.97968776394123
 20
410.2471281819746
  0
LWPOLYLINE
  5
3A4B9
330
1E
100
AcDbEntity
  8
17
100
AcDbPolyline
 90
        2
 70
     0
 43
0.0
 10
83.97968776394121
 20
403.2471281819741
 10
97.97968776394123
 20
403.2471281819741
  0
CIRCLE
  5
3A4BA
330
1E
100
AcDbEntity
  8
24
100
AcDbCircle
 10
90.97968776394123
 20
403.2471281819741
 30
0.0
 40
5.0
  0
LWPOLYLINE
  5
3A4BB
330
1E
100
AcDbEntity
  8
12
  6
DASHDOT
100
AcDbPolyline
 90
        2
 70
     0
 43
0.0
 10
137.9796877639409
 20
412.2471281819746
 10
148.9796877639411
 20
412.2471281819746
  0
LWPOLYLINE
  5
3A4BD
330
1E
100
AcDbEntity
  8
10
100
AcDbPolyline
 90
        6
 70
     0
 43
0.0
 10
102.9796877639412
 20
392.7471281819744
 10
102.9796877639412
 20
410.2471281819746
 42
0.4142135623730951
 10
97.97968776394123
 20
415.2471281819747
 10
83.97968776394121
 20
415.2471281819747
 42
0.4142135623730951
 10
78.9796877639412
 20
410.2471281819746
 10
78.9796877639412
 20
392.7471281819744
  0
LWPOLYLINE
  5
3A4BE
330
1E
100
AcDbEntity
  8
10
100
AcDbPolyline
 90
        6
 70
     0
 43
0.0
 10
113.9796877639409
 20
392.7471281819744
 10
113.9796877639409
 20
410.2471281819746
 42
-0.4142135623730951
 10
118.9796877639409
 20
415.2471281819747
 10
132.9796877639409
 20
415.2471281819747
 42
-0.4142135623730951
 10
137.9796877639409
 20
410.2471281819746
 10
137.9796877639409
 20
392.7471281819744
  0
LWPOLYLINE
  5
3A4BF
330
1E
100
AcDbEntity
  8
17
100
AcDbPolyline
 90
        2
 70
     0
 43
0.0
 10
118.9796877639409
 20
403.2471281819741
 10
132.9796877639409
 20
403.2471281819741
  0
CIRCLE
  5
3A4C0
330
1E
100
AcDbEntity
  8
24
100
AcDbCircle
 10
125.9796877639409
 20
403.2471281819741
 30
0.0
 40
5.0
  0
LWPOLYLINE
  5
3A4C1
330
1E
100
AcDbEntity
  8
17
100
AcDbPolyline
 90
        2
 70
     0
 43
0.0
 10
153.9796877639408
 20
403.2471281819741
 10
167.9796877639412
 20
403.2471281819741
  0
LWPOLYLINE
  5
3A4C2
330
1E
100
AcDbEntity
  8
10
100
AcDbPolyline
 90
        6
 70
     0
 43
0.0
 10
148.9796877639411
 20
392.7471281819744
 10
148.9796877639407
 20
410.2471281819746
 42
-0.4142135623730951
 10
153.9796877639408
 20
415.2471281819747
 10
167.9796877639412
 20
415.2471281819747
 42
-0.4142135623730951
 10
172.9796877639412
 20
410.2471281819746
 10
172.9796877639412
 20
392.7471281819744
  0
LWPOLYLINE
  5
3A4C3
330
1E
100
AcDbEntity
  8
17
100
AcDbPolyline
 90
        2
 70
     0
 43
0.0
 10
160.9796877639411
 20
396.2471281819744
 10
160.9796877639411
 20
410.2471281819746
  0
CIRCLE
  5
3A4C4
330
1E
100
AcDbEntity
  8
24
100
AcDbCircle
 10
160.9796877639411
 20
403.2471281819741
 30
0.0
 40
5.0
  0
LINE
  5
3A7E0
330
1E
100
AcDbEntity
  8
24
  6
DASHED
100
AcDbLine
 10
441.3610702044969
 20
580.5769900213397
 30
0.0
 11
441.3610702044969
 21
565.1769900213395
 31
0.0
  0
LINE
  5
3A7E1
330
1E
100
AcDbEntity
  8
24
  6
DASHED
100
AcDbLine
 10
447.3610702044973
 20
583.3769900213399
 30
0.0
 11
447.3610702044973
 21
562.3769900213393
 31
0.0
  0
LINE
  5
3A7E2
330
1E
100
AcDbEntity
  8
24
  6
DASHED
100
AcDbLine
 10
443.3610702044968
 20
583.3769900213399
 30
0.0
 11
443.3610702044968
 21
562.3769900213393
 31
0.0
  0
LINE
  5
3A7E3
330
1E
100
AcDbEntity
  8
12
  6
DASHDOT
100
AcDbLine
 10
402.3610702044972
 20
437.8769900213397
 30
0.0
 11
477.3610702044972
 21
437.8769900213397
 31
0.0
  0
LWPOLYLINE
  5
3A7E4
330
1E
100
AcDbEntity
  8
130
100
AcDbPolyline
 90
        4
 70
     0
 43
0.0
 10
395.3610702044973
 20
478.3769900213398
 10
388.8610702044971
 20
478.3769900213398
 10
388.8610702044971
 20
523.3769900213399
 10
395.3610702044973
 20
523.3769900213399
  0
LWPOLYLINE
  5
3A7E5
330
1E
100
AcDbEntity
  8
130
100
AcDbPolyline
 90
        4
 70
     0
 43
0.0
 10
399.3610702044973
 20
475.8769900213398
 10
395.3610702044973
 20
475.8769900213398
 10
395.3610702044973
 20
525.8769900213398
 10
399.3610702044973
 20
525.8769900213398
  0
LINE
  5
3A7E6
330
1E
100
AcDbEntity
  8
12
100
AcDbLine
 10
421.3610702044968
 20
440.1269900213399
 30
0.0
 11
474.3610702044973
 21
440.1269900213399
 31
0.0
  0
LINE
  5
3A7E7
330
1E
100
AcDbEntity
  8
12
100
AcDbLine
 10
421.3610702044968
 20
435.6269900213398
 30
0.0
 11
474.3610702044973
 21
435.6269900213398
 31
0.0
  0
LINE
  5
3A7E8
330
1E
100
AcDbEntity
  8
12
100
AcDbLine
 10
421.3610702044968
 20
442.1269900213397
 30
0.0
 11
421.3610702044968
 21
440.1269900213399
 31
0.0
  0
LINE
  5
3A7E9
330
1E
100
AcDbEntity
  8
12
100
AcDbLine
 10
421.3610702044968
 20
435.6269900213398
 30
0.0
 11
421.3610702044968
 21
433.6269900213397
 31
0.0
  0
LINE
  5
3A7EA
330
1E
100
AcDbEntity
  8
12
100
AcDbLine
 10
421.3610702044968
 20
442.1269900213397
 30
0.0
 11
421.3610702044968
 21
433.6269900213397
 31
0.0
  0
LINE
  5
3A7EB
330
1E
100
AcDbEntity
  8
12
100
AcDbLine
 10
416.3610702044968
 20
442.1269900213397
 30
0.0
 11
416.3610702044968
 21
433.6269900213397
 31
0.0
  0
LINE
  5
3A7EC
330
1E
100
AcDbEntity
  8
12
100
AcDbLine
 10
407.3610702044971
 20
442.1269900213397
 30
0.0
 11
421.3610702044968
 21
442.1269900213397
 31
0.0
  0
LINE
  5
3A7ED
330
1E
100
AcDbEntity
  8
12
100
AcDbLine
 10
407.3610702044971
 20
433.6269900213397
 30
0.0
 11
421.3610702044968
 21
433.6269900213397
 31
0.0
  0
LINE
  5
3A7EE
330
1E
100
AcDbEntity
  8
12
100
AcDbLine
 10
474.3610702044973
 20
440.1269900213399
 30
0.0
 11
474.3610702044973
 21
435.6269900213398
 31
0.0
  0
LINE
  5
3A7EF
330
1E
100
AcDbEntity
  8
17
100
AcDbLine
 10
428.3610702044968
 20
572.8769900213399
 30
0.0
 11
452.3610702044972
 21
572.8769900213399
 31
0.0
  0
LINE
  5
3A7F0
330
1E
100
AcDbEntity
  8
24
  6
DASHED
100
AcDbLine
 10
433.3610702044969
 20
579.3769900213397
 30
0.0
 11
441.3610702044969
 21
579.3769900213397
 31
0.0
  0
LINE
  5
3A7F1
330
1E
100
AcDbEntity
  8
24
  6
DASHED
100
AcDbLine
 10
441.3610702044969
 20
565.1769900213395
 30
0.0
 11
443.3610702044968
 21
565.1769900213395
 31
0.0
  0
LINE
  5
3A7F2
330
1E
100
AcDbEntity
  8
24
  6
DASHED
100
AcDbLine
 10
443.3610702044968
 20
562.3769900213393
 30
0.0
 11
447.3610702044973
 21
562.3769900213393
 31
0.0
  0
LINE
  5
3A7F3
330
1E
100
AcDbEntity
  8
24
  6
DASHED
100
AcDbLine
 10
433.3610702044969
 20
566.3769900213396
 30
0.0
 11
441.3610702044969
 21
566.3769900213396
 31
0.0
  0
LINE
  5
3A7F4
330
1E
100
AcDbEntity
  8
24
  6
DASHED
100
AcDbLine
 10
433.3610702044969
 20
579.3769900213397
 30
0.0
 11
433.3610702044969
 21
566.3769900213396
 31
0.0
  0
LINE
  5
3A7F5
330
1E
100
AcDbEntity
  8
24
  6
DASHED
100
AcDbLine
 10
441.3610702044969
 20
580.5769900213397
 30
0.0
 11
443.3610702044968
 21
580.5769900213397
 31
0.0
  0
ARC
  5
3A7F6
330
1E
100
AcDbEntity
  8
30
100
AcDbCircle
 10
455.1017173423955
 20
498.6194597102182
 30
0.0
 40
82.74397833097701
100
AcDbArc
 50
170.9264953962746
 51
180.514127448724
  0
ARC
  5
3A7F7
330
1E
100
AcDbEntity
  8
24
100
AcDbCircle
 10
523.3486527044973
 20
585.37290752134
 30
0.0
 40
7.5
100
AcDbArc
 50
238.8948889999937
 51
294.2039970000061
  0
LINE
  5
3A7F8
330
1E
100
AcDbEntity
  8
24
100
AcDbLine
 10
526.4235527044974
 20
578.5322200213397
 30
0.0
 11
532.3610702044971
 21
580.5268925213397
 31
0.0
  0
LINE
  5
3A7F9
330
1E
100
AcDbEntity
  8
24
100
AcDbLine
 10
507.3610702044971
 20
580.3769900213397
 30
0.0
 11
507.3610702044971
 21
548.3769900213399
 31
0.0
  0
LINE
  5
3A7FA
330
1E
100
AcDbEntity
  8
24
100
AcDbLine
 10
532.3610702044971
 20
580.5268925213397
 30
0.0
 11
532.3610702044971
 21
548.3769900213399
 31
0.0
  0
LINE
  5
3A7FB
330
1E
100
AcDbEntity
  8
17
100
AcDbLine
 10
513.6110702044971
 20
559.37699002134
 30
0.0
 11
526.1110702044971
 21
559.37699002134
 31
0.0
  0
LINE
  5
3A7FC
330
1E
100
AcDbEntity
  8
24
100
AcDbLine
 10
507.3610702044971
 20
548.3769900213399
 30
0.0
 11
532.3610702044971
 21
548.3769900213399
 31
0.0
  0
LINE
  5
3A7FD
330
1E
100
AcDbEntity
  8
17
100
AcDbLine
 10
519.8610702044971
 20
565.62699002134
 30
0.0
 11
519.8610702044971
 21
553.1269900213398
 31
0.0
  0
CIRCLE
  5
3A7FE
330
1E
100
AcDbEntity
  8
24
100
AcDbCircle
 10
519.8610702044971
 20
559.37699002134
 30
0.0
 40
4.5
  0
ARC
  5
3A7FF
330
1E
100
AcDbEntity
  8
24
100
AcDbCircle
 10
511.4860702044975
 20
573.5224750213401
 30
0.0
 40
8.0
100
AcDbArc
 50
58.96076000000206
 51
121.0392399999979
  0
LINE
  5
3A800
330
1E
100
AcDbEntity
  8
24
100
AcDbLine
 10
515.6189477044972
 20
580.3722425213396
 30
0.0
 11
519.4740802044971
 21
578.9512500213398
 31
0.0
  0
MTEXT
  5
3A801
330
1E
100
AcDbEntity
  8
30
100
AcDbMText
 10
519.8610702044971
 20
525.3769900213399
 30
0.0
 40
7.0
 41
0.0
 46
0.0
 71
     2
 72
     5
  1
(max.)\Pmax.t7
  7
blockfont
 73
     1
 44
1.0
  0
DIMENSION
  5
3A802
330
1E
100
AcDbEntity
  8
30
100
AcDbDimension
280
     0
  2
*D13
 10
532.3610702044971
 20
528.3769900213399
 30
0.0
 11
519.8610702044971
 21
534.8769900213397
 31
0.0
 70
    32
 71
     5
 42
25.0
 73
     0
 74
     0
 75
     0
  3
STANDARD
100
AcDbAlignedDimension
 13
507.3610702044971
 23
548.3769900213399
 33
0.0
 14
532.3610702044971
 24
548.3769900213399
 34
0.0
100
AcDbRotatedDimension
  0
DIMENSION
  5
3A803
330
1E
100
AcDbEntity
  8
30
100
AcDbDimension
280
     0
  2
*D14
 10
467.3610702044973
 20
401.850371727082
 30
0.0
 11
485.6944035378306
 21
401.850371727082
 31
0.0
 70
   160
 71
     5
 42
7.0
 73
     0
 74
     0
 75
     0
  3
STANDARD1
100
AcDbAlignedDimension
 13
474.3610702044973
 23
435.6269900213398
 33
0.0
 14
467.3610702044973
 24
418.3769900213397
 34
0.0
100
AcDbRotatedDimension
  0
DIMENSION
  5
3A804
330
1E
100
AcDbEntity
  8
30
100
AcDbDimension
280
     0
  2
*D15
 10
421.3610702044968
 20
401.850371727082
 30
0.0
 11
444.3610702044971
 21
407.3503717270821
 31
0.0
 70
    32
 71
     5
 42
46.00000000000021
 73
     0
 74
     0
 75
     0
  3
STANDARD1
100
AcDbAlignedDimension
 13
467.3610702044973
 23
418.3769900213397
 33
0.0
 14
421.3610702044968
 24
433.6269900213397
 34
0.0
100
AcDbRotatedDimension
  0
DIMENSION
  5
3A805
330
1E
100
AcDbEntity
  8
30
100
AcDbDimension
280
     0
  2
*D16
 10
407.3610702044971
 20
388.0847446778927
 30
0.0
 11
437.3610702044973
 21
393.5847446778927
 31
0.0
 70
    32
 71
     5
 42
60.0
 73
     0
 74
     0
 75
     0
  3
STANDARD1
100
AcDbAlignedDimension
 13
467.3610702044973
 23
418.3769900213397
 33
0.0
 14
407.3610702044971
 24
418.3769900213397
 34
0.0
100
AcDbRotatedDimension
  0
DIMENSION
  5
3A806
330
1E
100
AcDbEntity
  8
30
100
AcDbDimension
280
     0
  2
*D17
 10
399.3610702044973
 20
372.8620393221556
 30
0.0
 11
433.3610702044973
 21
378.3620393221556
 31
0.0
 70
    32
 71
     5
 42
68.0
 73
     0
 74
     0
 75
     0
  3
STANDARD1
100
AcDbAlignedDimension
 13
467.3610702044973
 23
418.3769900213397
 33
0.0
 14
399.3610702044973
 24
449.8769900213398
 34
0.0
100
AcDbRotatedDimension
  0
DIMENSION
  5
3A807
330
1E
100
AcDbEntity
  8
30
100
AcDbDimension
280
     0
  2
*D18
 10
395.3610702044973
 20
359.2425276799733
 30
0.0
 11
431.3610702044972
 21
364.7425276799733
 31
0.0
 70
    32
 71
     5
 42
72.0
 73
     0
 74
     0
 75
     0
  3
STANDARD1
100
AcDbAlignedDimension
 13
467.3610702044973
 23
418.3769900213397
 33
0.0
 14
395.3610702044973
 24
475.8769900213398
 34
0.0
100
AcDbRotatedDimension
  0
DIMENSION
  5
3A808
330
1E
100
AcDbEntity
  8
30
100
AcDbDimension
280
     0
  2
*D19
 10
372.3610702044969
 20
346.9803313834002
 30
0.0
 11
419.861070204497
 21
352.4803313834001
 31
0.0
 70
    32
 71
     5
 42
95.00000000000046
 73
     0
 74
     0
 75
     0
  3
STANDARD1
100
AcDbAlignedDimension
 13
467.3610702044973
 23
418.3769900213397
 33
0.0
 14
372.3610702044969
 24
500.8769900213398
 34
0.0
100
AcDbRotatedDimension
  0
LEADER
  5
3A809
330
1E
100
AcDbEntity
  8
30
100
AcDbLeader
  3
STANDARD1
 76
     3
 10
433.3610702044969
 20
572.8769900213396
 30
0.0
 10
397.3610702044973
 20
588.3769900213397
 30
0.0
 10
378.7166497150765
 20
588.3769900213397
 30
0.0
1001
ACAD
1000
DSTYLE
1002
{
1070
   147
1040
2.0
1070
    77
1070
     0
1002
}
  0
MTEXT
  5
3A80A
330
1E
100
AcDbEntity
  8
30
  6
Continuous
100
AcDbMText
 10
381.4796293189999
 20
597.1723517360127
 30
0.0
 40
7.0
 41
10.0
 46
0.0
 71
     1
 72
     5
  1
M8
  7
blockfont
 73
     1
 44
1.0
  0
DIMENSION
  5
3A80B
330
1E
100
AcDbEntity
  8
30
100
AcDbDimension
280
     0
  2
*D20
 10
467.3610702044973
 20
593.3769900213397
 30
0.0
 11
455.3610702044968
 21
599.8769900213399
 31
0.0
 70
    32
 71
     5
 42
24.00000000000046
 73
     0
 74
     0
 75
     0
  3
STANDARD
100
AcDbAlignedDimension
 13
443.3610702044968
 23
583.3769900213399
 33
0.0
 14
467.3610702044973
 24
583.3769900213399
 34
0.0
100
AcDbRotatedDimension
  0
DIMENSION
  5
3A80C
330
1E
100
AcDbEntity
  8
30
100
AcDbDimension
280
     0
  2
*D21
 10
347.5958114847253
 20
475.8769900213398
 30
0.0
 11
341.0958114847253
 21
500.87699002134
 31
0.0
 70
    32
 71
     5
 42
50.00000000000007
 73
     0
 74
     0
 75
     0
  3
STANDARD
100
AcDbAlignedDimension
 13
395.3610702044973
 23
525.8769900213398
 33
0.0
 14
395.3610702044973
 24
475.8769900213398
 34
0.0
 50
90.0
100
AcDbRotatedDimension
  0
LINE
  5
3A80D
330
1E
100
AcDbEntity
  8
16
100
AcDbLine
 10
381.5536338311903
 20
500.8769900213398
 30
0.0
 11
477.3610702044972
 21
500.8769900213398
 31
0.0
  0
LEADER
  5
3A80E
330
1E
100
AcDbEntity
  8
30
100
AcDbLeader
  3
STANDARD1
 76
     3
 10
519.8610702044971
 20
559.3769900213398
 30
0.0
 10
497.3610702044973
 20
568.3769900213397
 30
0.0
 10
485.3610702044973
 20
568.3769900213397
 30
0.0
1001
ACAD
1000
DSTYLE
1002
{
1070
   147
1040
2.0
1070
    77
1070
     0
1002
}
  0
MTEXT
  5
3A80F
330
1E
100
AcDbEntity
  8
30
100
AcDbMText
 10
486.3610702044971
 20
577.3439996890662
 30
0.0
 40
7.0
 41
10.0
 46
0.0
 71
     1
 72
     5
  1
%%c9
  7
blockfont
 73
     1
 44
1.0
  0
MTEXT
  5
3A810
330
1E
100
AcDbEntity
  8
30
100
AcDbMText
 10
549.3610702044973
 20
564.4519412713397
 30
0.0
 40
8.0
 41
0.0
 46
0.0
 71
     2
 72
     5
  1
(max.)
  7
blockfont
 11
0.0000000000000001
 21
1.0
 31
0.0
 73
     1
 44
1.0
  0
DIMENSION
  5
3A811
330
1E
100
AcDbEntity
  8
30
100
AcDbDimension
280
     0
  2
*D22
 10
547.3610702044973
 20
548.3769900213399
 30
0.0
 11
540.8610702044971
 21
535.87699002134
 31
0.0
 70
    32
 71
     5
 42
11.00000000000011
 73
     0
 74
     0
 75
     0
  3
STANDARD
100
AcDbAlignedDimension
 13
526.1110702044971
 23
559.37699002134
 33
0.0
 14
532.3610702044971
 24
548.3769900213399
 34
0.0
 50
90.0
100
AcDbRotatedDimension
  0
LWPOLYLINE
  5
3A812
330
1E
100
AcDbEntity
  8
130
100
AcDbPolyline
 90
       16
 70
     1
 43
0.0
 10
399.3610702044973
 20
551.8769900213396
 10
399.3610702044973
 20
449.8769900213398
 10
407.3610702044971
 20
449.8769900213398
 10
407.3610702044971
 20
418.3769900213397
 10
467.3610702044973
 20
418.3769900213397
 10
467.3610702044973
 20
583.3769900213399
 10
413.7443423885231
 20
583.3565904337806
 10
411.3548479920755
 20
583.3352817139012
 10
410.7977455599423
 20
583.2474562495217
 10
410.2876195257041
 20
583.0040882105462
 10
409.8616909934069
 20
582.6299913258996
 10
409.5601489766575
 20
582.1517734041322
 10
409.4036415378424
 20
581.6090046054372
 10
409.038505181109
 20
579.010921505115
 10
407.3610702044971
 20
567.0753481028225
 10
407.3610702044971
 20
551.8769900213396
  0
LWPOLYLINE
  5
3A813
330
1E
100
AcDbEntity
  8
130
100
AcDbPolyline
 90
       53
 70
     0
 43
0.0
 10
388.8610702044971
 20
512.53962502134
 10
376.6103941388267
 20
516.8797024423469
 42
0.4244749720642276
 10
374.1596695809653
 20
515.3720057425879
 10
373.4403562172197
 20
512.1003727022207
 42
0.4248673327981316
 10
375.0320894842363
 20
509.7011611964653
 10
375.4313677555986
 20
509.628403516714
 10
375.8211572929194
 20
509.5583974988256
 10
376.2016455475778
 20
509.4910532032637
 10
376.5730199709419
 20
509.4262806904943
 10
376.9354680143806
 20
509.3639900209821
 10
377.2891771292626
 20
509.3040912551933
 10
377.6343347669567
 20
509.2464944535928
 10
377.9711283788315
 20
509.1911096766463
 10
378.2997454162559
 20
509.1378469848193
 10
378.6203733305983
 20
509.0866164385773
 10
378.9331995732275
 20
509.0373280983853
 10
379.2384115955124
 20
508.9898920247097
 10
379.5361968488216
 20
508.9442182780151
 10
379.8267427845237
 20
508.9002169187671
 10
380.1102368539874
 20
508.8577980074317
 10
380.3868665085817
 20
508.8168716044738
 10
380.6568191996749
 20
508.7773477703589
 10
380.920282378636
 20
508.739136565553
 10
381.1774434968336
 20
508.7021480505208
 10
381.4284900056364
 20
508.6662922857285
 10
381.6736093564129
 20
508.6314793316411
 10
381.9129890005323
 20
508.5976192487241
 10
382.146816389363
 20
508.5646220974431
 10
382.3752789742737
 20
508.5323979382635
 10
382.5985642066332
 20
508.5008568316508
 10
382.81685953781
 20
508.4699088380703
 10
383.0303524191729
 20
508.4394640179878
 10
383.2392303020908
 20
508.4094324318685
 10
383.4436806379323
 20
508.3797241401778
 10
383.6438908780658
 20
508.3502492033813
 10
383.8400484738606
 20
508.3209176819448
 10
384.0323408766851
 20
508.2916396363331
 10
384.2209555379077
 20
508.2623251270121
 10
384.4060799088975
 20
508.2328842144473
 10
384.5878976931467
 20
508.2032315684343
 10
384.7665472223699
 20
508.1733376593057
 10
385.1147736930763
 20
508.1128569289183
 10
385.4516209579313
 20
508.0515071201609
 10
385.7779501102971
 20
507.9893539983973
 10
386.0946222435359
 20
507.9264633289916
 10
386.4024984510099
 20
507.8629008773083
 10
386.7024398260816
 20
507.7987324087111
 10
386.9953074621129
 20
507.7340236885643
 10
387.2819624524662
 20
507.6688404822319
 10
387.5632658905038
 20
507.6032485550776
 10
387.840078869588
 20
507.5373136724662
 10
388.3836778243444
 20
507.4046781023271
 10
388.9196480636337
 20
507.2714598947268
  0
DIMENSION
  5
3A814
330
1E
100
AcDbEntity
  8
30
100
AcDbDimension
280
     0
  2
*D23
 10
395.3610702044973
 20
359.2425276799733
 30
0.0
 11
362.2673410989798
 21
359.2425276799733
 31
0.0
 70
   160
 71
     5
 42
6.500000000000227
 73
     0
 74
     0
 75
     0
  3
STANDARD1
100
AcDbAlignedDimension
 13
388.8610702044971
 23
478.1407088103216
 33
0.0
 14
395.3610702044973
 24
478.3769900213398
 34
0.0
100
AcDbRotatedDimension
  0
DIMENSION
  5
3A999
330
1E
100
AcDbEntity
  8
30
100
AcDbDimension
280
     0
  2
*D24
 10
160.9796877639412
 20
369.8262600044013
 30
0.0
 11
125.9796877639412
 21
376.3262600044013
 31
0.0
 70
    32
 71
     5
 42
70.0
 73
     0
 74
     0
 75
     0
  3
STANDARD
100
AcDbAlignedDimension
 13
90.97968776394123
 23
396.2471281819744
 33
0.0
 14
160.9796877639412
 24
393.3262600044013
 34
0.0
100
AcDbRotatedDimension
  0
DIMENSION
  5
3A99A
330
1E
100
AcDbEntity
  8
30
100
AcDbDimension
280
     0
  2
*D25
 10
178.479687763941
 20
350.5057724334579
 30
0.0
 11
125.979687763941
 21
357.0057724334579
 31
0.0
 70
    32
 71
     5
 42
105.0
 73
     0
 74
     0
 75
     0
  3
STANDARD
100
AcDbAlignedDimension
 13
73.479687763941
 23
389.8262600044013
 33
0.0
 14
178.479687763941
 24
392.7471281819744
 34
0.0
100
AcDbRotatedDimension
  0
DIMENSION
  5
3A9EC
330
1E
100
AcDbEntity
  8
30
100
AcDbDimension
280
     0
  2
*D26
 10
201.0103305455068
 20
392.7471281819744
 30
0.0
 11
194.5103305455067
 21
475.2471281819744
 31
0.0
 70
    32
 71
     5
 42
164.9999999999999
 73
     0
 74
     0
 75
     0
  3
STANDARD
100
AcDbAlignedDimension
 13
178.479687763941
 23
557.7471281819744
 33
0.0
 14
178.479687763941
 24
392.7471281819744
 34
0.0
 50
90.0
100
AcDbRotatedDimension
  0
DIMENSION
  5
3A9ED
330
1E
100
AcDbEntity
  8
30
100
AcDbDimension
280
     0
  2
*D27
 10
201.0103305455068
 20
557.7471281819744
 30
0.0
 11
194.5103305455067
 21
608.2471281819742
 31
0.0
 70
    32
 71
     5
 42
100.9999999999998
 73
     0
 74
     0
 75
     0
  3
STANDARD
100
AcDbAlignedDimension
 13
144.9796877639406
 23
658.747128181974
 33
0.0
 14
178.479687763941
 24
557.7471281819744
 34
0.0
 50
90.0
100
AcDbRotatedDimension
  0
VIEWPORT
  5
9AC
330
1A
100
AcDbEntity
 67
     1
  8
0
  6
Continuous
348
E4DA
100
AcDbViewport
 10
0.0
 20
0.0
 30
0.0
 40
0.0
 41
0.0
 68
     1
 69
     1
 12
0.0
 22
0.0
 13
0.0
 23
0.0
 14
10.0
 24
10.0
 15
10.0
 25
10.0
 16
0.0
 26
0.0
 36
1.0
 17
0.0
 27
0.0
 37
0.0
 42
50.0
 43
0.0
 44
0.0
 45
0.0
 50
0.0
 51
0.0
 72
   100
 90
    32800
  1

281
     0
 71
     1
 74
     0
110
0.0
120
0.0
130
0.0
111
1.0
121
0.0
131
0.0
112
0.0
122
1.0
132
0.0
 79
     0
146
0.0
170
     0
 61
     5
292
     1
282
     1
141
0.0
142
0.0
 63
   250
421
  3355443
  0
VIEWPORT
  5
E19D
330
1A
100
AcDbEntity
 67
     1
  8
30
348
E4DA
100
AcDbViewport
 10
0.0
 20
0.0
 30
0.0
 40
0.0
 41
0.0
 68
     2
 69
     2
 12
8.653370891979619
 22
137.2805829780177
 13
0.0
 23
0.0
 14
1.0
 24
1.0
 15
10.0
 25
10.0
 16
0.0
 26
0.0
 36
1.0
 17
0.0
 27
0.0
 37
0.0
 42
50.0
 43
0.0
 44
0.0
 45
689.9195596776387
 50
0.0
 51
0.0
 72
   100
 90
    37664
  1

281
     0
 71
     1
 74
     0
110
0.0
120
0.0
130
0.0
111
1.0
121
0.0
131
0.0
112
0.0
122
1.0
132
0.0
 79
     0
146
0.0
170
     0
 61
     5
292
     1
282
     1
141
0.0
142
0.0
 63
   250
421
  3355443
  0
ENDSEC
  0
SECTION
  2
OBJECTS
  0
DICTIONARY
  5
C
330
0
100
AcDbDictionary
281
     1
  3
ACAD_CIP_PREVIOUS_PRODUCT_INFO
350
3AC70
  3
ACAD_COLOR
350
E4E8
  3
ACAD_DETAILVIEWSTYLE
350
3AC6B
  3
ACAD_GROUP
350
D
  3
ACAD_LAYOUT
350
19
  3
ACAD_MATERIAL
350
E4BB
  3
ACAD_MLEADERSTYLE
350
E50D
  3
ACAD_MLINESTYLE
350
16
  3
ACAD_PLOTSETTINGS
350
18
  3
ACAD_PLOTSTYLENAME
350
E
  3
ACAD_SCALELIST
350
E4EB
  3
ACAD_SECTIONVIEWSTYLE
350
3AC69
  3
ACAD_TABLESTYLE
350
E4E9
  3
ACAD_VISUALSTYLE
350
E4D4
  3
ACADDIM
350
6D5E
  3
ACDB_RECOMPOSE_DATA
350
3AD61
  3
ACDBVARIABLEDICTIONARY
350
5697
  3
AEC_PROPERTY_SET_DEFS
350
F8DB
  3
ASE_INDEX_DICTIONARY
350
F8F6
  0
DICTIONARY
  5
12DA0
330
2
100
AcDbDictionary
280
     1
281
     1
  3
ACAD_LAYERSTATES
360
12DA1
  0
DICTIONARY
  5
E512
330
10
100
AcDbDictionary
280
     1
281
     1
  3
ADSK_XREC_LAYER_RECONCILED
360
E513
  0
DICTIONARY
  5
E514
330
2F
100
AcDbDictionary
280
     1
281
     1
  3
ADSK_XREC_LAYER_RECONCILED
360
E515
  0
DICTIONARY
  5
E518
330
35
100
AcDbDictionary
280
     1
281
     1
  3
ADSK_XREC_LAYER_RECONCILED
360
E519
  0
DICTIONARY
  5
E51C
330
3D
100
AcDbDictionary
280
     1
281
     1
  3
ADSK_XREC_LAYER_RECONCILED
360
E51D
  0
DICTIONARY
  5
E51E
330
3A2
100
AcDbDictionary
280
     1
281
     1
  3
ADSK_XREC_LAYER_RECONCILED
360
E51F
  0
DICTIONARY
  5
E520
330
3BBA
100
AcDbDictionary
280
     1
281
     1
  3
ADSK_XREC_LAYER_RECONCILED
360
E521
  0
DICTIONARY
  5
E524
330
7837
100
AcDbDictionary
280
     1
281
     1
  3
ADSK_XREC_LAYER_RECONCILED
360
E525
  0
DICTIONARY
  5
E530
330
C501
100
AcDbDictionary
280
     1
281
     1
  3
ADSK_XREC_LAYER_RECONCILED
360
E531
  0
DICTIONARY
  5
E534
330
E473
100
AcDbDictionary
280
     1
281
     1
  3
ADSK_XREC_LAYER_RECONCILED
360
E535
  0
DICTIONARY
  5
3828A
330
38289
100
AcDbDictionary
280
     1
281
     1
  0
DICTIONARY
  5
399AE
330
399AD
100
AcDbDictionary
280
     1
281
     1
  0
DICTIONARY
  5
178
330
1E
100
AcDbDictionary
280
     1
281
     1
  3
ACAD_LAYOUTSELFREF
360
9011
  3
ACAD_SORTENTS
360
37C0C
  0
DICTIONARY
  5
17A
330
1A
100
AcDbDictionary
280
     1
281
     1
  3
ACAD_LAYOUTSELFREF
360
9010
  0
XRECORD
  5
3AC70
102
{ACAD_REACTORS
330
C
102
}
330
C
100
AcDbXrecord
280
     1
300
ACDLT
300
2014
300
ACDLT_F_S
  0
DICTIONARY
  5
E4E8
102
{ACAD_REACTORS
330
C
102
}
330
C
100
AcDbDictionary
281
     1
  0
DICTIONARY
  5
3AC6B
102
{ACAD_REACTORS
330
C
102
}
330
C
100
AcDbDictionary
281
     1
  3
Imperial24
350
3AC6C
  0
DICTIONARY
  5
D
102
{ACAD_REACTORS
330
C
102
}
330
C
100
AcDbDictionary
281
     1
  0
DICTIONARY
  5
19
102
{ACAD_REACTORS
330
C
102
}
330
C
100
AcDbDictionary
281
     1
  3
Model
350
904E
  3
ﾚｲｱｳﾄ1
350
904F
  0
DICTIONARY
  5
E4BB
102
{ACAD_REACTORS
330
C
102
}
330
C
100
AcDbDictionary
281
     1
  3
ByBlock
350
E4C4
  3
ByLayer
350
E4BC
  3
Global
350
E4CC
  0
DICTIONARY
  5
E50D
102
{ACAD_REACTORS
330
C
102
}
330
C
100
AcDbDictionary
281
     1
  3
Standard
350
E50E
  0
DICTIONARY
  5
16
102
{ACAD_REACTORS
330
C
102
}
330
C
100
AcDbDictionary
281
     1
  3
STANDARD
350
17
  0
DICTIONARY
  5
18
102
{ACAD_REACTORS
330
C
102
}
330
C
100
AcDbDictionary
281
     1
  0
ACDBDICTIONARYWDFLT
  5
E
102
{ACAD_REACTORS
330
C
102
}
330
C
100
AcDbDictionary
281
     1
  3
Normal
350
F
100
AcDbDictionaryWithDefault
340
F
  0
DICTIONARY
  5
E4EB
102
{ACAD_REACTORS
330
C
102
}
330
C
100
AcDbDictionary
281
     1
  3
A0
350
E4EC
  3
A1
350
E4ED
  3
A2
350
E4EE
  3
A3
350
E4EF
  3
A4
350
E4F0
  3
A5
350
E4F1
  3
A6
350
E4F2
  3
A7
350
E4F3
  3
A8
350
E4F4
  3
A9
350
E4F5
  3
B0
350
E4F6
  3
B1
350
E4F7
  3
B2
350
E4F8
  3
B3
350
E4F9
  3
B4
350
E4FA
  3
B5
350
E4FB
  3
B6
350
E4FC
  3
B7
350
E4FD
  3
B8
350
E4FE
  3
B9
350
E4FF
  3
C0
350
E500
  3
C1
350
E501
  3
C2
350
E502
  3
C3
350
E503
  3
C4
350
E504
  3
C5
350
E505
  3
C6
350
E506
  3
C7
350
E507
  3
C8
350
E508
  3
C9
350
E509
  3
D0
350
E50A
  3
D1
350
E50B
  3
D2
350
E50C
  0
DICTIONARY
  5
3AC69
102
{ACAD_REACTORS
330
C
102
}
330
C
100
AcDbDictionary
281
     1
  3
Imperial24
350
3AC6A
  0
DICTIONARY
  5
E4E9
102
{ACAD_REACTORS
330
C
102
}
330
C
100
AcDbDictionary
281
     1
  3
Standard
350
E4EA
  0
DICTIONARY
  5
E4D4
102
{ACAD_REACTORS
330
C
102
}
330
C
100
AcDbDictionary
281
     1
  3
2dWireframe
350
E4DA
  3
3D Hidden
350
E4DC
  3
3dWireframe
350
E4DB
  3
Basic
350
E4D9
  3
Brighten
350
E4E0
  3
ColorChange
350
E4E4
  3
Conceptual
350
E4DD
  3
Dim
350
E4DF
  3
EdgeColorOff
350
E4E7
  3
Facepattern
350
E4E3
  3
Flat
350
E4D5
  3
FlatWithEdges
350
E4D6
  3
Gouraud
350
E4D7
  3
GouraudWithEdges
350
E4D8
  3
Hidden
350
3AC63
  3
JitterOff
350
E4E5
  3
Linepattern
350
E4E2
  3
OverhangOff
350
E4E6
  3
Realistic
350
E4DE
  3
Shaded
350
3AC68
  3
Shaded with edges
350
3AC67
  3
Shades of Gray
350
3AC64
  3
Sketchy
350
3AC65
  3
Thicken
350
E4E1
  3
Wireframe
350
3AC62
  3
X-Ray
350
3AC66
  0
XRECORD
  5
6D5E
102
{ACAD_REACTORS
330
C
102
}
330
C
100
AcDbXrecord
280
     1
 90
   990106
  3

 60
     0
 61
     0
 62
     1
 63
     3
 64
     0
 65
     0
 66
     0
 67
     3
 68
     1
 69
     0
 70
     0
 71
     0
 72
     0
 40
0.0
170
     0
340
0
  0
XRECORD
  5
3AD61
102
{ACAD_REACTORS
330
C
102
}
330
C
100
AcDbXrecord
280
     1
 90
        1
330
E4EA
330
3AC6A
330
3AC6C
  0
DICTIONARY
  5
5697
102
{ACAD_REACTORS
330
C
102
}
330
C
100
AcDbDictionary
281
     1
  3
CANNOSCALE
350
F8C1
  3
CMLEADERSTYLE
350
F8C0
  3
CTABLESTYLE
350
F8BF
  3
CVIEWDETAILSTYLE
350
3ACA7
  3
CVIEWSECTIONSTYLE
350
3ACA8
  3
DIMASSOC
350
5698
  3
INDEXCTL
350
F8C3
  3
LAYEREVAL
350
37FF5
  3
LAYERNOTIFY
350
37FF6
  3
LIGHTINGUNITS
350
37FF4
  3
MSLTSCALE
350
37FF3
  3
SORTENTS
350
F8C2
  0
DICTIONARY
  5
F8DB
102
{ACAD_REACTORS
330
C
102
}
330
C
100
AcDbDictionary
281
     1
  0
DICTIONARY
  5
F8F6
102
{ACAD_REACTORS
330
C
102
}
330
C
100
AcDbDictionary
281
     1
  3
ASEBlockHierarchyIndexRecord
350
F8F7
1001
DCO15
1040
1706442467.984
  0
DICTIONARY
  5
12DA1
102
{ACAD_REACTORS
330
12DA0
102
}
330
12DA0
100
AcDbDictionary
281
     1
  0
XRECORD
  5
E513
102
{ACAD_REACTORS
330
E512
102
}
330
E512
100
AcDbXrecord
280
     1
290
     1
  0
XRECORD
  5
E515
102
{ACAD_REACTORS
330
E514
102
}
330
E514
100
AcDbXrecord
280
     1
290
     1
  0
XRECORD
  5
E519
102
{ACAD_REACTORS
330
E518
102
}
330
E518
100
AcDbXrecord
280
     1
290
     1
  0
XRECORD
  5
E51D
102
{ACAD_REACTORS
330
E51C
102
}
330
E51C
100
AcDbXrecord
280
     1
290
     1
  0
XRECORD
  5
E51F
102
{ACAD_REACTORS
330
E51E
102
}
330
E51E
100
AcDbXrecord
280
     1
290
     1
  0
XRECORD
  5
E521
102
{ACAD_REACTORS
330
E520
102
}
330
E520
100
AcDbXrecord
280
     1
290
     1
  0
XRECORD
  5
E525
102
{ACAD_REACTORS
330
E524
102
}
330
E524
100
AcDbXrecord
280
     1
290
     1
  0
XRECORD
  5
E531
102
{ACAD_REACTORS
330
E530
102
}
330
E530
100
AcDbXrecord
280
     1
290
     1
  0
XRECORD
  5
E535
102
{ACAD_REACTORS
330
E534
102
}
330
E534
100
AcDbXrecord
280
     1
290
     1
  0
XRECORD
  5
9011
102
{ACAD_REACTORS
330
178
102
}
330
178
100
AcDbXrecord
280
     1
340
1E
  0
SORTENTSTABLE
  5
37C0C
102
{ACAD_REACTORS
330
178
102
}
330
178
100
AcDbSortentsTable
330
1E
  0
XRECORD
  5
9010
102
{ACAD_REACTORS
330
17A
102
}
330
17A
100
AcDbXrecord
280
     1
340
1A
  0
ACDBDETAILVIEWSTYLE
  5
3AC6C
102
{ACAD_XDICTIONARY
360
3ACAD
102
}
102
{ACAD_REACTORS
330
3AC6B
102
}
330
3AC6B
100
AcDbModelDocViewStyle
 70
     0
  3
Imperial24
290
     0
100
AcDbDetailViewStyle
 70
     0
 71
     0
 90
        3
 71
     1
340
11
 62
   256
 40
0.24
340
0
 62
   256
 40
0.24
300

 40
0.36
280
     3
 71
     2
340
15
 90
       25
 62
   256
 71
     3
340
11
 62
   256
 40
0.24
 90
        1
 40
0.75
 90
        1
300
%<\AcVar ViewType \f "%tc1">% %<\AcVar ViewDetailId>%\PSCALE %<\AcVar ViewScale \f "%sn">%
 71
     4
340
15
 90
       25
 62
   256
340
15
 90
       25
 62
   256
280
     0
  0
LAYOUT
  5
904E
102
{ACAD_XDICTIONARY
360
13816
102
}
102
{ACAD_REACTORS
330
19
102
}
330
19
100
AcDbPlotSettings
  1

  2
Canon LBP3800 LIPSLX
  4
A4
  6
OLE1
 40
5.873749732971191
 41
5.873747825622557
 42
5.873748779296875
 43
5.873748779296875
 44
209.9733276367186
 45
296.9259948730469
 46
4.368652168726285
 47
0.8644569253958136
 48
0.0
 49
0.0
140
0.0
141
0.0
142
1.0
143
2.5
 70
 11940
 72
     1
 73
     0
 74
     1
  7
monochrome.ctb
 75
     0
147
0.4
 76
     0
 77
     2
 78
   300
148
203.0887703810449
149
220.5380198621869
100
AcDbLayout
  1
Model
 70
     1
 71
     0
 10
0.0
 20
0.0
 11
12.0
 21
9.0
 12
0.0
 22
0.0
 32
0.0
 14
0.0
 24
0.0
 34
0.0
 15
0.0
 25
0.0
 35
0.0
146
0.0
 13
0.0
 23
0.0
 33
0.0
 16
1.0
 26
0.0
 36
0.0
 17
0.0
 27
1.0
 37
0.0
 76
     0
330
1E
331
12C00
1001
ACAD_PSEXT
1000
Canon LBP3800 LIPSLX
1000
Canon LBP3800 LIPSLX
1000
IP_192.168.54.50
1000

1070
     0
  0
LAYOUT
  5
904F
102
{ACAD_REACTORS
330
19
102
}
330
19
100
AcDbPlotSettings
  1

  2
none_device
  4
Letter_(8.50_x_11.00_Inches)
  6

 40
6.349999904632567
 41
6.349999904632567
 42
6.350006103515625
 43
6.350006103515625
 44
215.8999938964844
 45
279.3999938964844
 46
0.0
 47
0.0
 48
0.0
 49
0.0
140
0.0
141
0.0
142
1.0
143
1.0
 70
   688
 72
     0
 73
     1
 74
     1
  7
monochrome.ctb
 75
     0
147
1.0
 76
     0
 77
     2
 78
   300
148
0.0
149
0.0
100
AcDbLayout
  1
ﾚｲｱｳﾄ1
 70
     1
 71
     1
 10
-0.2500002402958907
 20
-0.2499999962453767
 11
10.74999951940822
 21
8.249999763458731
 12
0.0
 22
0.0
 32
0.0
 14
0.0
 24
0.0
 34
0.0
 15
0.0
 25
0.0
 35
0.0
146
0.0
 13
0.0
 23
0.0
 33
0.0
 16
1.0
 26
0.0
 36
0.0
 17
0.0
 27
1.0
 37
0.0
 76
     0
330
1A
331
9AC
1001
ACAD_PSEXT
1000
なし
1000
なし
1000
適切ではありません
1000
新しいプロッタ環境設定名を選択しない限り、レイアウトは印刷されません。
1070
     0
  0
MATERIAL
  5
E4C4
102
{ACAD_XDICTIONARY
360
E4C5
102
}
102
{ACAD_REACTORS
330
E4BB
102
}
330
E4BB
100
AcDbMaterial
  1
ByBlock
 72
     0
 43
0.0208333333333333
 43
0.0
 43
0.0
 43
0.0
 43
0.0
 43
0.0208333333333333
 43
0.0
 43
0.0
 43
0.0
 43
0.0
 43
1.0
 43
0.0
 43
0.0
 43
0.0
 43
0.0
 43
1.0
 77
     0
 47
0.0208333333333333
 47
0.0
 47
0.0
 47
0.0
 47
0.0
 47
0.0208333333333333
 47
0.0
 47
0.0
 47
0.0
 47
0.0
 47
1.0
 47
0.0
 47
0.0
 47
0.0
 47
0.0
 47
1.0
171
     0
 49
0.0208333333333333
 49
0.0
 49
0.0
 49
0.0
 49
0.0
 49
0.0208333333333333
 49
0.0
 49
0.0
 49
0.0
 49
0.0
 49
1.0
 49
0.0
 49
0.0
 49
0.0
 49
0.0
 49
1.0
175
     0
142
0.0208333333333333
142
0.0
142
0.0
142
0.0
142
0.0
142
0.0208333333333333
142
0.0
142
0.0
142
0.0
142
0.0
142
1.0
142
0.0
142
0.0
142
0.0
142
0.0
142
1.0
179
     0
144
0.0208333333333333
144
0.0
144
0.0
144
0.0
144
0.0
144
0.0208333333333333
144
0.0
144
0.0
144
0.0
144
0.0
144
1.0
144
0.0
144
0.0
144
0.0
144
0.0
144
1.0
147
0.0208333333333333
147
0.0
147
0.0
147
0.0
147
0.0
147
0.0208333333333333
147
0.0
147
0.0
147
0.0
147
0.0
147
1.0
147
0.0
147
0.0
147
0.0
147
0.0
147
1.0
  0
MATERIAL
  5
E4BC
102
{ACAD_XDICTIONARY
360
E4BD
102
}
102
{ACAD_REACTORS
330
E4BB
102
}
330
E4BB
100
AcDbMaterial
  1
ByLayer
 72
     0
 43
0.0208333333333333
 43
0.0
 43
0.0
 43
0.0
 43
0.0
 43
0.0208333333333333
 43
0.0
 43
0.0
 43
0.0
 43
0.0
 43
1.0
 43
0.0
 43
0.0
 43
0.0
 43
0.0
 43
1.0
 77
     0
 47
0.0208333333333333
 47
0.0
 47
0.0
 47
0.0
 47
0.0
 47
0.0208333333333333
 47
0.0
 47
0.0
 47
0.0
 47
0.0
 47
1.0
 47
0.0
 47
0.0
 47
0.0
 47
0.0
 47
1.0
171
     0
 49
0.0208333333333333
 49
0.0
 49
0.0
 49
0.0
 49
0.0
 49
0.0208333333333333
 49
0.0
 49
0.0
 49
0.0
 49
0.0
 49
1.0
 49
0.0
 49
0.0
 49
0.0
 49
0.0
 49
1.0
175
     0
142
0.0208333333333333
142
0.0
142
0.0
142
0.0
142
0.0
142
0.0208333333333333
142
0.0
142
0.0
142
0.0
142
0.0
142
1.0
142
0.0
142
0.0
142
0.0
142
0.0
142
1.0
179
     0
144
0.0208333333333333
144
0.0
144
0.0
144
0.0
144
0.0
144
0.0208333333333333
144
0.0
144
0.0
144
0.0
144
0.0
144
1.0
144
0.0
144
0.0
144
0.0
144
0.0
144
1.0
147
0.0208333333333333
147
0.0
147
0.0
147
0.0
147
0.0
147
0.0208333333333333
147
0.0
147
0.0
147
0.0
147
0.0
147
1.0
147
0.0
147
0.0
147
0.0
147
0.0
147
1.0
  0
MATERIAL
  5
E4CC
102
{ACAD_XDICTIONARY
360
E4CD
102
}
102
{ACAD_REACTORS
330
E4BB
102
}
330
E4BB
100
AcDbMaterial
  1
Global
 72
     0
 43
0.0208333333333333
 43
0.0
 43
0.0
 43
0.0
 43
0.0
 43
0.0208333333333333
 43
0.0
 43
0.0
 43
0.0
 43
0.0
 43
1.0
 43
0.0
 43
0.0
 43
0.0
 43
0.0
 43
1.0
 77
     0
 47
0.0208333333333333
 47
0.0
 47
0.0
 47
0.0
 47
0.0
 47
0.0208333333333333
 47
0.0
 47
0.0
 47
0.0
 47
0.0
 47
1.0
 47
0.0
 47
0.0
 47
0.0
 47
0.0
 47
1.0
171
     0
 49
0.0208333333333333
 49
0.0
 49
0.0
 49
0.0
 49
0.0
 49
0.0208333333333333
 49
0.0
 49
0.0
 49
0.0
 49
0.0
 49
1.0
 49
0.0
 49
0.0
 49
0.0
 49
0.0
 49
1.0
175
     0
142
0.0208333333333333
142
0.0
142
0.0
142
0.0
142
0.0
142
0.0208333333333333
142
0.0
142
0.0
142
0.0
142
0.0
142
1.0
142
0.0
142
0.0
142
0.0
142
0.0
142
1.0
179
     0
144
0.0208333333333333
144
0.0
144
0.0
144
0.0
144
0.0
144
0.0208333333333333
144
0.0
144
0.0
144
0.0
144
0.0
144
1.0
144
0.0
144
0.0
144
0.0
144
0.0
144
1.0
147
0.0208333333333333
147
0.0
147
0.0
147
0.0
147
0.0
147
0.0208333333333333
147
0.0
147
0.0
147
0.0
147
0.0
147
1.0
147
0.0
147
0.0
147
0.0
147
0.0
147
1.0
  0
MLEADERSTYLE
  5
E50E
102
{ACAD_REACTORS
330
E50D
102
}
330
E50D
100
AcDbMLeaderStyle
179
     2
170
     2
171
     1
172
     0
 90
        2
 40
0.0
 41
0.0
173
     1
 91
-1056964608
340
13
 92
       -2
290
     1
 42
0.09
291
     1
 43
0.36
  3
Standard
 44
0.18
300

342
11
174
     1
178
     6
175
     1
176
     0
 93
-1056964608
 45
0.18
292
     0
297
     0
 46
0.18
 94
-1056964608
 47
1.0
 49
1.0
140
1.0
293
     1
141
0.0
294
     1
177
     0
142
1.0
295
     0
296
     0
143
0.125
271
     0
272
     9
273
     9
298
     0
1001
ACAD_MLEADERVER
1070
     2
  0
MLINESTYLE
  5
17
102
{ACAD_REACTORS
330
16
102
}
330
16
100
AcDbMlineStyle
  2
STANDARD
 70
     0
  3

 62
   256
 51
90.0
 52
90.0
 71
     2
 49
0.5
 62
   256
  6
BYLAYER
 49
-0.5
 62
   256
  6
BYLAYER
  0
ACDBPLACEHOLDER
  5
F
102
{ACAD_REACTORS
330
E
102
}
330
E
  0
SCALE
  5
E4EC
102
{ACAD_REACTORS
330
E4EB
102
}
330
E4EB
100
AcDbScale
 70
     0
300
1:1
140
1.0
141
1.0
290
     1
  0
SCALE
  5
E4ED
102
{ACAD_REACTORS
330
E4EB
102
}
330
E4EB
100
AcDbScale
 70
     0
300
1:2
140
1.0
141
2.0
290
     0
  0
SCALE
  5
E4EE
102
{ACAD_REACTORS
330
E4EB
102
}
330
E4EB
100
AcDbScale
 70
     0
300
1:4
140
1.0
141
4.0
290
     0
  0
SCALE
  5
E4EF
102
{ACAD_REACTORS
330
E4EB
102
}
330
E4EB
100
AcDbScale
 70
     0
300
1:5
140
1.0
141
5.0
290
     0
  0
SCALE
  5
E4F0
102
{ACAD_REACTORS
330
E4EB
102
}
330
E4EB
100
AcDbScale
 70
     0
300
1:8
140
1.0
141
8.0
290
     0
  0
SCALE
  5
E4F1
102
{ACAD_REACTORS
330
E4EB
102
}
330
E4EB
100
AcDbScale
 70
     0
300
1:10
140
1.0
141
10.0
290
     0
  0
SCALE
  5
E4F2
102
{ACAD_REACTORS
330
E4EB
102
}
330
E4EB
100
AcDbScale
 70
     0
300
1:16
140
1.0
141
16.0
290
     0
  0
SCALE
  5
E4F3
102
{ACAD_REACTORS
330
E4EB
102
}
330
E4EB
100
AcDbScale
 70
     0
300
1:20
140
1.0
141
20.0
290
     0
  0
SCALE
  5
E4F4
102
{ACAD_REACTORS
330
E4EB
102
}
330
E4EB
100
AcDbScale
 70
     0
300
1:30
140
1.0
141
30.0
290
     0
  0
SCALE
  5
E4F5
102
{ACAD_REACTORS
330
E4EB
102
}
330
E4EB
100
AcDbScale
 70
     0
300
1:40
140
1.0
141
40.0
290
     0
  0
SCALE
  5
E4F6
102
{ACAD_REACTORS
330
E4EB
102
}
330
E4EB
100
AcDbScale
 70
     0
300
1:50
140
1.0
141
50.0
290
     0
  0
SCALE
  5
E4F7
102
{ACAD_REACTORS
330
E4EB
102
}
330
E4EB
100
AcDbScale
 70
     0
300
1:100
140
1.0
141
100.0
290
     0
  0
SCALE
  5
E4F8
102
{ACAD_REACTORS
330
E4EB
102
}
330
E4EB
100
AcDbScale
 70
     0
300
2:1
140
2.0
141
1.0
290
     0
  0
SCALE
  5
E4F9
102
{ACAD_REACTORS
330
E4EB
102
}
330
E4EB
100
AcDbScale
 70
     0
300
4:1
140
4.0
141
1.0
290
     0
  0
SCALE
  5
E4FA
102
{ACAD_REACTORS
330
E4EB
102
}
330
E4EB
100
AcDbScale
 70
     0
300
8:1
140
8.0
141
1.0
290
     0
  0
SCALE
  5
E4FB
102
{ACAD_REACTORS
330
E4EB
102
}
330
E4EB
100
AcDbScale
 70
     0
300
10:1
140
10.0
141
1.0
290
     0
  0
SCALE
  5
E4FC
102
{ACAD_REACTORS
330
E4EB
102
}
330
E4EB
100
AcDbScale
 70
     0
300
100:1
140
100.0
141
1.0
290
     0
  0
SCALE
  5
E4FD
102
{ACAD_REACTORS
330
E4EB
102
}
330
E4EB
100
AcDbScale
 70
     0
300
1/128" = 1'-0"
140
0.0078125
141
12.0
290
     0
  0
SCALE
  5
E4FE
102
{ACAD_REACTORS
330
E4EB
102
}
330
E4EB
100
AcDbScale
 70
     0
300
1/64" = 1'-0"
140
0.015625
141
12.0
290
     0
  0
SCALE
  5
E4FF
102
{ACAD_REACTORS
330
E4EB
102
}
330
E4EB
100
AcDbScale
 70
     0
300
1/32" = 1'-0"
140
0.03125
141
12.0
290
     0
  0
SCALE
  5
E500
102
{ACAD_REACTORS
330
E4EB
102
}
330
E4EB
100
AcDbScale
 70
     0
300
1/16" = 1'-0"
140
0.0625
141
12.0
290
     0
  0
SCALE
  5
E501
102
{ACAD_REACTORS
330
E4EB
102
}
330
E4EB
100
AcDbScale
 70
     0
300
3/32" = 1'-0"
140
0.09375
141
12.0
290
     0
  0
SCALE
  5
E502
102
{ACAD_REACTORS
330
E4EB
102
}
330
E4EB
100
AcDbScale
 70
     0
300
1/8" = 1'-0"
140
0.125
141
12.0
290
     0
  0
SCALE
  5
E503
102
{ACAD_REACTORS
330
E4EB
102
}
330
E4EB
100
AcDbScale
 70
     0
300
3/16" = 1'-0"
140
0.1875
141
12.0
290
     0
  0
SCALE
  5
E504
102
{ACAD_REACTORS
330
E4EB
102
}
330
E4EB
100
AcDbScale
 70
     0
300
1/4" = 1'-0"
140
0.25
141
12.0
290
     0
  0
SCALE
  5
E505
102
{ACAD_REACTORS
330
E4EB
102
}
330
E4EB
100
AcDbScale
 70
     0
300
3/8" = 1'-0"
140
0.375
141
12.0
290
     0
  0
SCALE
  5
E506
102
{ACAD_REACTORS
330
E4EB
102
}
330
E4EB
100
AcDbScale
 70
     0
300
1/2" = 1'-0"
140
0.5
141
12.0
290
     0
  0
SCALE
  5
E507
102
{ACAD_REACTORS
330
E4EB
102
}
330
E4EB
100
AcDbScale
 70
     0
300
3/4" = 1'-0"
140
0.75
141
12.0
290
     0
  0
SCALE
  5
E508
102
{ACAD_REACTORS
330
E4EB
102
}
330
E4EB
100
AcDbScale
 70
     0
300
1" = 1'-0"
140
1.0
141
12.0
290
     0
  0
SCALE
  5
E509
102
{ACAD_REACTORS
330
E4EB
102
}
330
E4EB
100
AcDbScale
 70
     0
300
1-1/2" = 1'-0"
140
1.5
141
12.0
290
     0
  0
SCALE
  5
E50A
102
{ACAD_REACTORS
330
E4EB
102
}
330
E4EB
100
AcDbScale
 70
     0
300
3" = 1'-0"
140
3.0
141
12.0
290
     0
  0
SCALE
  5
E50B
102
{ACAD_REACTORS
330
E4EB
102
}
330
E4EB
100
AcDbScale
 70
     0
300
6" = 1'-0"
140
6.0
141
12.0
290
     0
  0
SCALE
  5
E50C
102
{ACAD_REACTORS
330
E4EB
102
}
330
E4EB
100
AcDbScale
 70
     0
300
1'-0" = 1'-0"
140
12.0
141
12.0
290
     0
  0
ACDBSECTIONVIEWSTYLE
  5
3AC6A
102
{ACAD_XDICTIONARY
360
3ACAB
102
}
102
{ACAD_REACTORS
330
3AC69
102
}
330
3AC69
100
AcDbModelDocViewStyle
 70
     0
  3
Imperial24
290
     0
100
AcDbSectionViewStyle
 70
     0
 71
     0
 90
       78
 71
     1
340
11
 62
   256
 40
0.24
340
0
340
0
 62
   256
 40
0.24
300
I, O, Q, S, X, Z
 40
0.48
 90
        3
 40
0.18
 90
        1
 71
     2
340
15
 90
       25
 62
   256
340
15
 90
       50
 62
   256
 40
0.24
 40
0.0
 40
0.24
 71
     3
340
11
 62
   256
 40
0.24
 90
        1
 40
0.75
 90
        1
300
%<\AcVar ViewType \f "%tc1">% %<\AcVar ViewSectionStartId>%-%<\AcVar ViewSectionEndId>%\PSCALE %<\AcVar ViewScale \f "%sn">%
 71
     4
 62
   256
 62
   257
300
ANSI31
 40
1.0
 90
        0
290
     0
290
     0
 90
        6
 40
0.0
 40
1.570796326794896
 40
0.2617993877991494
 40
1.308996938995747
 40
-0.2617993877991494
 40
1.832595714594044
  0
TABLESTYLE
  5
E4EA
102
{ACAD_XDICTIONARY
360
F86C
102
}
102
{ACAD_REACTORS
330
E4E9
102
}
330
E4E9
100
AcDbTableStyle
280
     0
  3
Standard
 70
     0
 71
     0
 40
0.06
 41
0.06
280
     0
281
     0
  7
STANDARD
140
0.18
170
     2
 62
     0
 63
     7
283
     0
 90
      512
 91
        0
  1

274
    -2
284
     1
 64
     0
275
    -2
285
     1
 65
     0
276
    -2
286
     1
 66
     0
277
    -2
287
     1
 67
     0
278
    -2
288
     1
 68
     0
279
    -2
289
     1
 69
     0
  7
STANDARD
140
0.25
170
     5
 62
     0
 63
     7
283
     0
 90
      512
 91
        0
  1

274
    -2
284
     1
 64
     0
275
    -2
285
     1
 65
     0
276
    -2
286
     1
 66
     0
277
    -2
287
     1
 67
     0
278
    -2
288
     1
 68
     0
279
    -2
289
     1
 69
     0
  7
STANDARD
140
0.18
170
     5
 62
     0
 63
     7
283
     0
 90
      512
 91
        0
  1

274
    -2
284
     1
 64
     0
275
    -2
285
     1
 65
     0
276
    -2
286
     1
 66
     0
277
    -2
287
     1
 67
     0
278
    -2
288
     1
 68
     0
279
    -2
289
     1
 69
     0
  0
VISUALSTYLE
  5
E4DA
102
{ACAD_REACTORS
330
E4D4
102
}
330
E4D4
100
AcDbVisualStyle
  2

 70
     4
177
     3
291
     0
 70
    58
 90
        0
176
     1
 90
        2
176
     1
 90
        0
176
     1
 90
        0
176
     1
 40
0.6
176
     1
 40
30.0
176
     1
 62
     7
176
     1
 90
        1
176
     1
 90
        4
176
     1
 62
     7
176
     1
 62
   257
176
     1
 90
        1
176
     1
 90
        1
176
     1
 40
1.0
176
     1
 90
        0
176
     1
 62
   257
176
     1
 40
1.0
176
     1
 90
        1
176
     1
 90
        6
176
     1
 90
        2
176
     1
 62
     7
176
     1
 90
        5
176
     1
 90
        0
176
     1
 90
        0
176
     1
290
     0
176
     1
 90
        1
176
     1
 40
0.0
176
     1
 90
        0
176
     1
290
     1
176
     1
290
     1
176
     1
290
     0
176
     1
290
     0
176
     1
290
     0
176
     1
290
     0
176
     1
290
     0
176
     1
290
     0
176
     1
290
     0
176
     1
 90
       50
176
     1
 40
0.0
176
     1
 40
1.0
176
     1
 90
        0
176
     1
 62
    18
176
     1
 90
       50
176
     1
 90
        3
176
     1
 62
     5
420
      255
176
     1
290
     0
176
     1
 90
       50
176
     1
 90
       50
176
     1
 90
       50
176
     1
290
     0
176
     1
 90
       50
176
     1
 62
   256
176
     0
 40
1.0
176
     0
 90
        2
176
     1
  1
strokes_ogs.tif
176
     1
290
     0
176
     1
 40
1.0
176
     1
 40
1.0
176
     1
  0
VISUALSTYLE
  5
E4DC
102
{ACAD_REACTORS
330
E4D4
102
}
330
E4D4
100
AcDbVisualStyle
  2

 70
     6
177
     3
291
     0
 70
    58
 90
        1
176
     1
 90
        2
176
     1
 90
        2
176
     1
 90
        0
176
     1
 40
0.6
176
     1
 40
30.0
176
     1
 62
     7
176
     1
 90
        2
176
     1
 90
        2
176
     1
 62
     7
176
     1
 62
   257
176
     1
 90
        2
176
     1
 90
        1
176
     1
 40
179.0
176
     1
 90
        0
176
     1
 62
   257
176
     1
 40
1.0
176
     1
 90
        1
176
     1
 90
        6
176
     1
 90
        2
176
     1
 62
     7
176
     1
 90
        3
176
     1
 90
        0
176
     1
 90
        0
176
     1
290
     0
176
     1
 90
        1
176
     1
 40
0.0
176
     1
 90
        0
176
     1
290
     0
176
     1
290
     1
176
     1
290
     1
176
     1
290
     0
176
     1
290
     0
176
     1
290
     0
176
     1
290
     0
176
     1
290
     0
176
     1
290
     0
176
     1
 90
       50
176
     1
 40
0.0
176
     1
 40
1.0
176
     1
 90
        0
176
     1
 62
    18
176
     1
 90
       50
176
     1
 90
        3
176
     1
 62
     5
420
      255
176
     1
290
     0
176
     1
 90
       50
176
     1
 90
       50
176
     1
 90
       50
176
     1
290
     0
176
     1
 90
       50
176
     1
 62
   256
176
     0
 40
1.0
176
     0
 90
        2
176
     1
  1
strokes_ogs.tif
176
     1
290
     0
176
     1
 40
1.0
176
     1
 40
1.0
176
     1
  0
VISUALSTYLE
  5
E4DB
102
{ACAD_REACTORS
330
E4D4
102
}
330
E4D4
100
AcDbVisualStyle
  2

 70
     5
177
     3
291
     0
 70
    58
 90
        0
176
     1
 90
        2
176
     1
 90
        0
176
     1
 90
        0
176
     1
 40
0.6
176
     1
 40
30.0
176
     1
 62
     7
176
     1
 90
        1
176
     1
 90
        4
176
     1
 62
     7
176
     1
 62
   257
176
     1
 90
        1
176
     1
 90
        1
176
     1
 40
1.0
176
     1
 90
        0
176
     1
 62
   257
176
     1
 40
1.0
176
     1
 90
        1
176
     1
 90
        6
176
     1
 90
        2
176
     1
 62
     7
176
     1
 90
        5
176
     1
 90
        0
176
     1
 90
        0
176
     1
290
     0
176
     1
 90
        1
176
     1
 40
0.0
176
     1
 90
        0
176
     1
290
     0
176
     1
290
     1
176
     1
290
     1
176
     1
290
     0
176
     1
290
     0
176
     1
290
     0
176
     1
290
     0
176
     1
290
     0
176
     1
290
     0
176
     1
 90
       50
176
     1
 40
0.0
176
     1
 40
1.0
176
     1
 90
        0
176
     1
 62
    18
176
     1
 90
       50
176
     1
 90
        3
176
     1
 62
     5
420
      255
176
     1
290
     0
176
     1
 90
       50
176
     1
 90
       50
176
     1
 90
       50
176
     1
290
     0
176
     1
 90
       50
176
     1
 62
   256
176
     0
 40
1.0
176
     0
 90
        2
176
     1
  1
strokes_ogs.tif
176
     1
290
     0
176
     1
 40
1.0
176
     1
 40
1.0
176
     1
  0
VISUALSTYLE
  5
E4D9
102
{ACAD_REACTORS
330
E4D4
102
}
330
E4D4
100
AcDbVisualStyle
  2

 70
     7
177
     3
291
     1
 70
    58
 90
        1
176
     1
 90
        0
176
     1
 90
        1
176
     1
 90
        0
176
     1
 40
0.6
176
     1
 40
30.0
176
     1
 62
     7
176
     1
 90
        0
176
     1
 90
        4
176
     1
 62
     7
176
     1
 62
   257
176
     1
 90
        1
176
     1
 90
        1
176
     1
 40
1.0
176
     1
 90
        8
176
     1
 62
     7
176
     1
 40
1.0
176
     1
 90
        1
176
     1
 90
        6
176
     1
 90
        2
176
     1
 62
     7
176
     1
 90
        5
176
     1
 90
        0
176
     1
 90
        0
176
     1
290
     0
176
     1
 90
        1
176
     1
 40
0.0
176
     1
 90
        0
176
     1
290
     0
176
     1
290
     1
176
     1
290
     1
176
     1
290
     0
176
     1
290
     0
176
     1
290
     0
176
     1
290
     0
176
     1
290
     0
176
     1
290
     0
176
     1
 90
       50
176
     1
 40
0.0
176
     1
 40
1.0
176
     1
 90
        0
176
     1
 62
    18
176
     1
 90
       50
176
     1
 90
        3
176
     1
 62
     5
420
      255
176
     1
290
     0
176
     1
 90
       50
176
     1
 90
       50
176
     1
 90
       50
176
     1
290
     0
176
     1
 90
       50
176
     1
 62
   256
176
     0
 40
1.0
176
     0
 90
        2
176
     1
  1
strokes_ogs.tif
176
     1
290
     0
176
     1
 40
1.0
176
     1
 40
1.0
176
     1
  0
VISUALSTYLE
  5
E4E0
102
{ACAD_REACTORS
330
E4D4
102
}
330
E4D4
100
AcDbVisualStyle
  2

 70
    12
177
     3
291
     1
 70
    58
 90
        2
176
     1
 90
        2
176
     1
 90
        0
176
     1
 90
        0
176
     1
 40
0.6
176
     1
 40
30.0
176
     1
 62
     7
176
     1
 90
        1
176
     1
 90
        4
176
     1
 62
     7
176
     1
 62
   257
176
     1
 90
        1
176
     1
 90
        1
176
     1
 40
1.0
176
     1
 90
        8
176
     1
 62
     7
176
     1
 40
1.0
176
     1
 90
        1
176
     1
 90
        6
176
     1
 90
        2
176
     1
 62
     7
176
     1
 90
        5
176
     1
 90
        0
176
     1
 90
        0
176
     1
290
     0
176
     1
 90
        1
176
     1
 40
50.0
176
     1
 90
        0
176
     1
290
     0
176
     1
290
     1
176
     1
290
     1
176
     1
290
     0
176
     1
290
     0
176
     1
290
     0
176
     1
290
     0
176
     1
290
     0
176
     1
290
     0
176
     1
 90
       50
176
     1
 40
0.0
176
     1
 40
1.0
176
     1
 90
        0
176
     1
 62
    18
176
     1
 90
       50
176
     1
 90
        3
176
     1
 62
     5
420
      255
176
     1
290
     0
176
     1
 90
       50
176
     1
 90
       50
176
     1
 90
       50
176
     1
290
     0
176
     1
 90
       50
176
     1
 62
   256
176
     0
 40
1.0
176
     0
 90
        2
176
     1
  1
strokes_ogs.tif
176
     1
290
     0
176
     1
 40
1.0
176
     1
 40
1.0
176
     1
  0
VISUALSTYLE
  5
E4E4
102
{ACAD_REACTORS
330
E4D4
102
}
330
E4D4
100
AcDbVisualStyle
  2

 70
    16
177
     3
291
     1
 70
    58
 90
        2
176
     1
 90
        2
176
     1
 90
        3
176
     1
 90
        0
176
     1
 40
0.6
176
     1
 40
30.0
176
     1
 62
     8
176
     1
 90
        1
176
     1
 90
        4
176
     1
 62
     7
176
     1
 62
   257
176
     1
 90
        1
176
     1
 90
        1
176
     1
 40
1.0
176
     1
 90
        8
176
     1
 62
     8
176
     1
 40
1.0
176
     1
 90
        1
176
     1
 90
        6
176
     1
 90
        2
176
     1
 62
     7
176
     1
 90
        5
176
     1
 90
        0
176
     1
 90
        0
176
     1
290
     0
176
     1
 90
        1
176
     1
 40
0.0
176
     1
 90
        0
176
     1
290
     0
176
     1
290
     1
176
     1
290
     1
176
     1
290
     0
176
     1
290
     0
176
     1
290
     0
176
     1
290
     0
176
     1
290
     0
176
     1
290
     0
176
     1
 90
       50
176
     1
 40
0.0
176
     1
 40
1.0
176
     1
 90
        0
176
     1
 62
    18
176
     1
 90
       50
176
     1
 90
        3
176
     1
 62
     5
420
      255
176
     1
290
     0
176
     1
 90
       50
176
     1
 90
       50
176
     1
 90
       50
176
     1
290
     0
176
     1
 90
       50
176
     1
 62
   256
176
     0
 40
1.0
176
     0
 90
        2
176
     1
  1
strokes_ogs.tif
176
     1
290
     0
176
     1
 40
1.0
176
     1
 40
1.0
176
     1
  0
VISUALSTYLE
  5
E4DD
102
{ACAD_REACTORS
330
E4D4
102
}
330
E4D4
100
AcDbVisualStyle
  2

 70
     9
177
     3
291
     0
 70
    58
 90
        3
176
     1
 90
        2
176
     1
 90
        0
176
     1
 90
        0
176
     1
 40
0.6
176
     1
 40
30.0
176
     1
 62
     7
176
     1
 90
        2
176
     1
 90
        2
176
     1
 62
     7
176
     1
 62
   257
176
     1
 90
        1
176
     1
 90
        1
176
     1
 40
179.0
176
     1
 90
        8
176
     1
 62
     7
176
     1
 40
1.0
176
     1
 90
        1
176
     1
 90
        6
176
     1
 90
        2
176
     1
 62
     7
176
     1
 90
        3
176
     1
 90
        0
176
     1
 90
        0
176
     1
290
     0
176
     1
 90
        1
176
     1
 40
0.0
176
     1
 90
        0
176
     1
290
     0
176
     1
290
     1
176
     1
290
     1
176
     1
290
     0
176
     1
290
     0
176
     1
290
     0
176
     1
290
     0
176
     1
290
     0
176
     1
290
     0
176
     1
 90
       50
176
     1
 40
0.0
176
     1
 40
1.0
176
     1
 90
        0
176
     1
 62
    18
176
     1
 90
       50
176
     1
 90
        3
176
     1
 62
     5
420
      255
176
     1
290
     0
176
     1
 90
       50
176
     1
 90
       50
176
     1
 90
       50
176
     1
290
     0
176
     1
 90
       50
176
     1
 62
   256
176
     0
 40
1.0
176
     0
 90
        2
176
     1
  1
strokes_ogs.tif
176
     1
290
     0
176
     1
 40
1.0
176
     1
 40
1.0
176
     1
  0
VISUALSTYLE
  5
E4DF
102
{ACAD_REACTORS
330
E4D4
102
}
330
E4D4
100
AcDbVisualStyle
  2

 70
    11
177
     3
291
     1
 70
    58
 90
        2
176
     1
 90
        2
176
     1
 90
        0
176
     1
 90
        0
176
     1
 40
0.6
176
     1
 40
30.0
176
     1
 62
     7
176
     1
 90
        1
176
     1
 90
        4
176
     1
 62
     7
176
     1
 62
   257
176
     1
 90
        1
176
     1
 90
        1
176
     1
 40
1.0
176
     1
 90
        8
176
     1
 62
     7
176
     1
 40
1.0
176
     1
 90
        1
176
     1
 90
        6
176
     1
 90
        2
176
     1
 62
     7
176
     1
 90
        5
176
     1
 90
        0
176
     1
 90
        0
176
     1
290
     0
176
     1
 90
        1
176
     1
 40
-50.0
176
     1
 90
        0
176
     1
290
     0
176
     1
290
     1
176
     1
290
     1
176
     1
290
     0
176
     1
290
     0
176
     1
290
     0
176
     1
290
     0
176
     1
290
     0
176
     1
290
     0
176
     1
 90
       50
176
     1
 40
0.0
176
     1
 40
1.0
176
     1
 90
        0
176
     1
 62
    18
176
     1
 90
       50
176
     1
 90
        3
176
     1
 62
     5
420
      255
176
     1
290
     0
176
     1
 90
       50
176
     1
 90
       50
176
     1
 90
       50
176
     1
290
     0
176
     1
 90
       50
176
     1
 62
   256
176
     0
 40
1.0
176
     0
 90
        2
176
     1
  1
strokes_ogs.tif
176
     1
290
     0
176
     1
 40
1.0
176
     1
 40
1.0
176
     1
  0
VISUALSTYLE
  5
E4E7
102
{ACAD_REACTORS
330
E4D4
102
}
330
E4D4
100
AcDbVisualStyle
  2

 70
    22
177
     3
291
     1
 70
    58
 90
        2
176
     0
 90
        2
176
     0
 90
        0
176
     0
 90
        0
176
     0
 40
0.6
176
     0
 40
30.0
176
     0
 62
     7
176
     0
 90
        1
176
     0
 90
        4
176
     0
 62
     7
176
     0
 62
   257
176
     0
 90
        1
176
     0
 90
        1
176
     0
 40
1.0
176
     0
 90
        8
176
     2
 62
     7
176
     0
 40
1.0
176
     0
 90
        1
176
     0
 90
        6
176
     0
 90
        2
176
     0
 62
     7
176
     0
 90
        5
176
     0
 90
        0
176
     0
 90
        0
176
     0
290
     0
176
     0
 90
        1
176
     0
 40
0.0
176
     0
 90
        0
176
     0
290
     0
176
     1
290
     1
176
     1
290
     1
176
     1
290
     0
176
     1
290
     0
176
     1
290
     0
176
     1
290
     0
176
     1
290
     0
176
     1
290
     0
176
     1
 90
       50
176
     1
 40
0.0
176
     1
 40
1.0
176
     1
 90
        0
176
     1
 62
    18
176
     1
 90
       50
176
     1
 90
        3
176
     1
 62
     5
420
      255
176
     1
290
     0
176
     1
 90
       50
176
     1
 90
       50
176
     1
 90
       50
176
     1
290
     0
176
     1
 90
       50
176
     1
 62
   256
176
     0
 40
1.0
176
     0
 90
        2
176
     1
  1
strokes_ogs.tif
176
     1
290
     0
176
     1
 40
1.0
176
     1
 40
1.0
176
     1
  0
VISUALSTYLE
  5
E4E3
102
{ACAD_REACTORS
330
E4D4
102
}
330
E4D4
100
AcDbVisualStyle
  2

 70
    15
177
     3
291
     1
 70
    58
 90
        2
176
     1
 90
        2
176
     1
 90
        0
176
     1
 90
        0
176
     1
 40
0.6
176
     1
 40
30.0
176
     1
 62
     7
176
     1
 90
        1
176
     1
 90
        4
176
     1
 62
     7
176
     1
 62
   257
176
     1
 90
        1
176
     1
 90
        1
176
     1
 40
1.0
176
     1
 90
        8
176
     1
 62
     7
176
     1
 40
1.0
176
     1
 90
        1
176
     1
 90
        6
176
     1
 90
        2
176
     1
 62
     7
176
     1
 90
        5
176
     1
 90
        0
176
     1
 90
        0
176
     1
290
     0
176
     1
 90
        1
176
     1
 40
0.0
176
     1
 90
        0
176
     1
290
     0
176
     1
290
     1
176
     1
290
     1
176
     1
290
     0
176
     1
290
     0
176
     1
290
     0
176
     1
290
     0
176
     1
290
     0
176
     1
290
     0
176
     1
 90
       50
176
     1
 40
0.0
176
     1
 40
1.0
176
     1
 90
        0
176
     1
 62
    18
176
     1
 90
       50
176
     1
 90
        3
176
     1
 62
     5
420
      255
176
     1
290
     0
176
     1
 90
       50
176
     1
 90
       50
176
     1
 90
       50
176
     1
290
     0
176
     1
 90
       50
176
     1
 62
   256
176
     0
 40
1.0
176
     0
 90
        2
176
     1
  1
strokes_ogs.tif
176
     1
290
     0
176
     1
 40
1.0
176
     1
 40
1.0
176
     1
  0
VISUALSTYLE
  5
E4D5
102
{ACAD_REACTORS
330
E4D4
102
}
330
E4D4
100
AcDbVisualStyle
  2

 70
     0
177
     3
291
     1
 70
    58
 90
        2
176
     1
 90
        1
176
     1
 90
        1
176
     1
 90
        2
176
     1
 40
0.6
176
     1
 40
30.0
176
     1
 62
     7
176
     1
 90
        0
176
     1
 90
        4
176
     1
 62
     7
176
     1
 62
   257
176
     1
 90
        1
176
     1
 90
        1
176
     1
 40
1.0
176
     1
 90
        8
176
     1
 62
     7
176
     1
 40
1.0
176
     1
 90
        1
176
     1
 90
        6
176
     1
 90
        2
176
     1
 62
     7
176
     1
 90
        5
176
     1
 90
        0
176
     1
 90
        0
176
     1
290
     0
176
     1
 90
       13
176
     1
 40
0.0
176
     1
 90
        0
176
     1
290
     0
176
     1
290
     1
176
     1
290
     1
176
     1
290
     0
176
     1
290
     0
176
     1
290
     0
176
     1
290
     0
176
     1
290
     0
176
     1
290
     0
176
     1
 90
       50
176
     1
 40
0.0
176
     1
 40
1.0
176
     1
 90
        0
176
     1
 62
    18
176
     1
 90
       50
176
     1
 90
        3
176
     1
 62
     5
420
      255
176
     1
290
     0
176
     1
 90
       50
176
     1
 90
       50
176
     1
 90
       50
176
     1
290
     0
176
     1
 90
       50
176
     1
 62
   256
176
     0
 40
1.0
176
     0
 90
        2
176
     1
  1
strokes_ogs.tif
176
     1
290
     0
176
     1
 40
1.0
176
     1
 40
1.0
176
     1
  0
VISUALSTYLE
  5
E4D6
102
{ACAD_REACTORS
330
E4D4
102
}
330
E4D4
100
AcDbVisualStyle
  2

 70
     1
177
     3
291
     1
 70
    58
 90
        2
176
     1
 90
        1
176
     1
 90
        1
176
     1
 90
        2
176
     1
 40
0.6
176
     1
 40
30.0
176
     1
 62
     7
176
     1
 90
        1
176
     1
 90
        4
176
     1
 62
     7
176
     1
 62
   257
176
     1
 90
        1
176
     1
 90
        1
176
     1
 40
1.0
176
     1
 90
        0
176
     1
 62
   257
176
     1
 40
1.0
176
     1
 90
        1
176
     1
 90
        6
176
     1
 90
        2
176
     1
 62
     7
176
     1
 90
        5
176
     1
 90
        0
176
     1
 90
        0
176
     1
290
     0
176
     1
 90
       13
176
     1
 40
0.0
176
     1
 90
        0
176
     1
290
     0
176
     1
290
     1
176
     1
290
     1
176
     1
290
     0
176
     1
290
     0
176
     1
290
     0
176
     1
290
     0
176
     1
290
     0
176
     1
290
     0
176
     1
 90
       50
176
     1
 40
0.0
176
     1
 40
1.0
176
     1
 90
        0
176
     1
 62
    18
176
     1
 90
       50
176
     1
 90
        3
176
     1
 62
     5
420
      255
176
     1
290
     0
176
     1
 90
       50
176
     1
 90
       50
176
     1
 90
       50
176
     1
290
     0
176
     1
 90
       50
176
     1
 62
   256
176
     0
 40
1.0
176
     0
 90
        2
176
     1
  1
strokes_ogs.tif
176
     1
290
     0
176
     1
 40
1.0
176
     1
 40
1.0
176
     1
  0
VISUALSTYLE
  5
E4D7
102
{ACAD_REACTORS
330
E4D4
102
}
330
E4D4
100
AcDbVisualStyle
  2

 70
     2
177
     3
291
     1
 70
    58
 90
        2
176
     1
 90
        2
176
     1
 90
        1
176
     1
 90
        2
176
     1
 40
0.6
176
     1
 40
30.0
176
     1
 62
     7
176
     1
 90
        0
176
     1
 90
        4
176
     1
 62
     7
176
     1
 62
   257
176
     1
 90
        1
176
     1
 90
        1
176
     1
 40
1.0
176
     1
 90
        0
176
     1
 62
     7
176
     1
 40
1.0
176
     1
 90
        1
176
     1
 90
        6
176
     1
 90
        2
176
     1
 62
     7
176
     1
 90
        5
176
     1
 90
        0
176
     1
 90
        0
176
     1
290
     0
176
     1
 90
       13
176
     1
 40
0.0
176
     1
 90
        0
176
     1
290
     0
176
     1
290
     1
176
     1
290
     1
176
     1
290
     0
176
     1
290
     0
176
     1
290
     0
176
     1
290
     0
176
     1
290
     0
176
     1
290
     0
176
     1
 90
       50
176
     1
 40
0.0
176
     1
 40
1.0
176
     1
 90
        0
176
     1
 62
    18
176
     1
 90
       50
176
     1
 90
        3
176
     1
 62
     5
420
      255
176
     1
290
     0
176
     1
 90
       50
176
     1
 90
       50
176
     1
 90
       50
176
     1
290
     0
176
     1
 90
       50
176
     1
 62
   256
176
     0
 40
1.0
176
     0
 90
        2
176
     1
  1
strokes_ogs.tif
176
     1
290
     0
176
     1
 40
1.0
176
     1
 40
1.0
176
     1
  0
VISUALSTYLE
  5
E4D8
102
{ACAD_REACTORS
330
E4D4
102
}
330
E4D4
100
AcDbVisualStyle
  2

 70
     3
177
     3
291
     1
 70
    58
 90
        2
176
     1
 90
        2
176
     1
 90
        1
176
     1
 90
        2
176
     1
 40
0.6
176
     1
 40
30.0
176
     1
 62
     7
176
     1
 90
        1
176
     1
 90
        4
176
     1
 62
     7
176
     1
 62
   257
176
     1
 90
        1
176
     1
 90
        1
176
     1
 40
1.0
176
     1
 90
        0
176
     1
 62
   257
176
     1
 40
1.0
176
     1
 90
        1
176
     1
 90
        6
176
     1
 90
        2
176
     1
 62
     7
176
     1
 90
        5
176
     1
 90
        0
176
     1
 90
        0
176
     1
290
     0
176
     1
 90
       13
176
     1
 40
0.0
176
     1
 90
        0
176
     1
290
     0
176
     1
290
     1
176
     1
290
     1
176
     1
290
     0
176
     1
290
     0
176
     1
290
     0
176
     1
290
     0
176
     1
290
     0
176
     1
290
     0
176
     1
 90
       50
176
     1
 40
0.0
176
     1
 40
1.0
176
     1
 90
        0
176
     1
 62
    18
176
     1
 90
       50
176
     1
 90
        3
176
     1
 62
     5
420
      255
176
     1
290
     0
176
     1
 90
       50
176
     1
 90
       50
176
     1
 90
       50
176
     1
290
     0
176
     1
 90
       50
176
     1
 62
   256
176
     0
 40
1.0
176
     0
 90
        2
176
     1
  1
strokes_ogs.tif
176
     1
290
     0
176
     1
 40
1.0
176
     1
 40
1.0
176
     1
  0
VISUALSTYLE
  5
3AC63
102
{ACAD_REACTORS
330
E4D4
102
}
330
E4D4
100
AcDbVisualStyle
  2
Hidden
 70
     6
177
     3
291
     0
 70
    58
 90
        1
176
     1
 90
        2
176
     1
 90
        2
176
     1
 90
        0
176
     1
 40
0.6
176
     1
 40
30.0
176
     1
 62
     7
420
 16777215
176
     1
 90
        2
176
     1
 90
        2
176
     1
 62
     7
176
     1
 62
   257
176
     1
 90
        2
176
     1
 90
        1
176
     1
 40
40.0
176
     1
 90
        0
176
     1
 62
   257
176
     1
 40
1.0
176
     1
 90
        1
176
     1
 90
        6
176
     1
 90
        2
176
     1
 62
     7
176
     1
 90
        3
176
     1
 90
        0
176
     1
 90
        0
176
     1
290
     0
176
     1
 90
        1
176
     1
 40
0.0
176
     1
 90
        0
176
     1
290
     0
176
     1
290
     1
176
     1
290
     1
176
     1
290
     0
176
     1
290
     0
176
     1
290
     0
176
     1
290
     0
176
     1
290
     0
176
     1
290
     0
176
     1
 90
       50
176
     1
 40
0.0
176
     1
 40
1.0
176
     1
 90
        0
176
     1
 62
    18
176
     1
 90
       50
176
     1
 90
        3
176
     1
 62
     5
420
      255
176
     1
290
     0
176
     1
 90
       50
176
     1
 90
       50
176
     1
 90
       50
176
     1
290
     0
176
     1
 90
       50
176
     1
 62
   256
176
     0
 40
1.0
176
     0
 90
        2
176
     1
  1
strokes_ogs.tif
176
     1
290
     0
176
     1
 40
1.0
176
     1
 40
1.0
176
     1
  0
VISUALSTYLE
  5
E4E5
102
{ACAD_REACTORS
330
E4D4
102
}
330
E4D4
100
AcDbVisualStyle
  2

 70
    20
177
     3
291
     1
 70
    58
 90
        2
176
     0
 90
        2
176
     0
 90
        0
176
     0
 90
        0
176
     0
 40
0.6
176
     0
 40
30.0
176
     0
 62
     7
176
     0
 90
        1
176
     0
 90
        4
176
     0
 62
     7
176
     0
 62
   257
176
     0
 90
        1
176
     0
 90
        1
176
     0
 40
1.0
176
     0
 90
       10
176
     2
 62
     7
176
     0
 40
1.0
176
     0
 90
        1
176
     0
 90
        6
176
     0
 90
        2
176
     0
 62
     7
176
     0
 90
        5
176
     0
 90
        0
176
     0
 90
        0
176
     0
290
     0
176
     0
 90
        1
176
     0
 40
0.0
176
     0
 90
        0
176
     0
290
     0
176
     1
290
     1
176
     1
290
     1
176
     1
290
     0
176
     1
290
     0
176
     1
290
     0
176
     1
290
     0
176
     1
290
     0
176
     1
290
     0
176
     1
 90
       50
176
     1
 40
0.0
176
     1
 40
1.0
176
     1
 90
        0
176
     1
 62
    18
176
     1
 90
       50
176
     1
 90
        3
176
     1
 62
     5
420
      255
176
     1
290
     0
176
     1
 90
       50
176
     1
 90
       50
176
     1
 90
       50
176
     1
290
     0
176
     1
 90
       50
176
     1
 62
   256
176
     0
 40
1.0
176
     0
 90
        2
176
     1
  1
strokes_ogs.tif
176
     1
290
     0
176
     1
 40
1.0
176
     1
 40
1.0
176
     1
  0
VISUALSTYLE
  5
E4E2
102
{ACAD_REACTORS
330
E4D4
102
}
330
E4D4
100
AcDbVisualStyle
  2

 70
    14
177
     3
291
     1
 70
    58
 90
        2
176
     1
 90
        2
176
     1
 90
        0
176
     1
 90
        0
176
     1
 40
0.6
176
     1
 40
30.0
176
     1
 62
     7
176
     1
 90
        1
176
     1
 90
        4
176
     1
 62
     7
176
     1
 62
   257
176
     1
 90
        7
176
     1
 90
        7
176
     1
 40
1.0
176
     1
 90
        8
176
     1
 62
     7
176
     1
 40
1.0
176
     1
 90
        1
176
     1
 90
        6
176
     1
 90
        2
176
     1
 62
     7
176
     1
 90
        5
176
     1
 90
        0
176
     1
 90
        0
176
     1
290
     0
176
     1
 90
        1
176
     1
 40
0.0
176
     1
 90
        0
176
     1
290
     0
176
     1
290
     1
176
     1
290
     1
176
     1
290
     0
176
     1
290
     0
176
     1
290
     0
176
     1
290
     0
176
     1
290
     0
176
     1
290
     0
176
     1
 90
       50
176
     1
 40
0.0
176
     1
 40
1.0
176
     1
 90
        0
176
     1
 62
    18
176
     1
 90
       50
176
     1
 90
        3
176
     1
 62
     5
420
      255
176
     1
290
     0
176
     1
 90
       50
176
     1
 90
       50
176
     1
 90
       50
176
     1
290
     0
176
     1
 90
       50
176
     1
 62
   256
176
     0
 40
1.0
176
     0
 90
        2
176
     1
  1
strokes_ogs.tif
176
     1
290
     0
176
     1
 40
1.0
176
     1
 40
1.0
176
     1
  0
VISUALSTYLE
  5
E4E6
102
{ACAD_REACTORS
330
E4D4
102
}
330
E4D4
100
AcDbVisualStyle
  2

 70
    21
177
     3
291
     1
 70
    58
 90
        2
176
     0
 90
        2
176
     0
 90
        0
176
     0
 90
        0
176
     0
 40
0.6
176
     0
 40
30.0
176
     0
 62
     7
176
     0
 90
        1
176
     0
 90
        4
176
     0
 62
     7
176
     0
 62
   257
176
     0
 90
        1
176
     0
 90
        1
176
     0
 40
1.0
176
     0
 90
        9
176
     2
 62
     7
176
     0
 40
1.0
176
     0
 90
        1
176
     0
 90
        6
176
     0
 90
        2
176
     0
 62
     7
176
     0
 90
        5
176
     0
 90
        0
176
     0
 90
        0
176
     0
290
     0
176
     0
 90
        1
176
     0
 40
0.0
176
     0
 90
        0
176
     0
290
     0
176
     1
290
     1
176
     1
290
     1
176
     1
290
     0
176
     1
290
     0
176
     1
290
     0
176
     1
290
     0
176
     1
290
     0
176
     1
290
     0
176
     1
 90
       50
176
     1
 40
0.0
176
     1
 40
1.0
176
     1
 90
        0
176
     1
 62
    18
176
     1
 90
       50
176
     1
 90
        3
176
     1
 62
     5
420
      255
176
     1
290
     0
176
     1
 90
       50
176
     1
 90
       50
176
     1
 90
       50
176
     1
290
     0
176
     1
 90
       50
176
     1
 62
   256
176
     0
 40
1.0
176
     0
 90
        2
176
     1
  1
strokes_ogs.tif
176
     1
290
     0
176
     1
 40
1.0
176
     1
 40
1.0
176
     1
  0
VISUALSTYLE
  5
E4DE
102
{ACAD_REACTORS
330
E4D4
102
}
330
E4D4
100
AcDbVisualStyle
  2

 70
     8
177
     3
291
     0
 70
    58
 90
        2
176
     1
 90
        2
176
     1
 90
        0
176
     1
 90
        0
176
     1
 40
0.6
176
     1
 40
30.0
176
     1
 62
     7
176
     1
 90
        1
176
     1
 90
        0
176
     1
 62
     7
176
     1
 62
   257
176
     1
 90
        1
176
     1
 90
        1
176
     1
 40
1.0
176
     1
 90
        8
176
     1
 62
     8
176
     1
 40
1.0
176
     1
 90
        1
176
     1
 90
        6
176
     1
 90
        2
176
     1
 62
     7
176
     1
 90
        5
176
     1
 90
        0
176
     1
 90
        0
176
     1
290
     0
176
     1
 90
       13
176
     1
 40
0.0
176
     1
 90
        0
176
     1
290
     0
176
     1
290
     1
176
     1
290
     1
176
     1
290
     0
176
     1
290
     0
176
     1
290
     0
176
     1
290
     0
176
     1
290
     0
176
     1
290
     0
176
     1
 90
       50
176
     1
 40
0.0
176
     1
 40
1.0
176
     1
 90
        0
176
     1
 62
    18
176
     1
 90
       50
176
     1
 90
        3
176
     1
 62
     5
420
      255
176
     1
290
     0
176
     1
 90
       50
176
     1
 90
       50
176
     1
 90
       50
176
     1
290
     0
176
     1
 90
       50
176
     1
 62
   256
176
     0
 40
1.0
176
     0
 90
        2
176
     1
  1
strokes_ogs.tif
176
     1
290
     0
176
     1
 40
1.0
176
     1
 40
1.0
176
     1
  0
VISUALSTYLE
  5
3AC68
102
{ACAD_REACTORS
330
E4D4
102
}
330
E4D4
100
AcDbVisualStyle
  2
Shaded
 70
    27
177
     3
291
     0
 70
    58
 90
        2
176
     1
 90
        2
176
     1
 90
        1
176
     1
 90
        2
176
     1
 40
0.6
176
     1
 40
30.0
176
     1
 62
     7
420
 16777215
176
     1
 90
        0
176
     1
 90
        4
176
     1
 62
     7
176
     1
 62
   257
176
     1
 90
        1
176
     1
 90
        1
176
     1
 40
1.0
176
     1
 90
        8
176
     1
 62
   257
176
     1
 40
1.0
176
     1
 90
        1
176
     1
 90
        6
176
     1
 90
        2
176
     1
 62
     8
420
  7895160
176
     1
 90
        3
176
     1
 90
        0
176
     1
 90
        0
176
     1
290
     0
176
     1
 90
        5
176
     1
 40
0.0
176
     1
 90
        0
176
     1
290
     0
176
     1
290
     1
176
     1
290
     1
176
     1
290
     0
176
     1
290
     0
176
     1
290
     0
176
     1
290
     0
176
     1
290
     0
176
     1
290
     0
176
     1
 90
       50
176
     1
 40
0.0
176
     1
 40
1.0
176
     1
 90
        0
176
     1
 62
    18
176
     1
 90
       50
176
     1
 90
        3
176
     1
 62
     5
420
      255
176
     1
290
     0
176
     1
 90
       50
176
     1
 90
       50
176
     1
 90
       50
176
     1
290
     0
176
     1
 90
       50
176
     1
 62
   256
176
     0
 40
1.0
176
     0
 90
        2
176
     1
  1
strokes_ogs.tif
176
     1
290
     0
176
     1
 40
1.0
176
     1
 40
1.0
176
     1
  0
VISUALSTYLE
  5
3AC67
102
{ACAD_REACTORS
330
E4D4
102
}
330
E4D4
100
AcDbVisualStyle
  2
Shaded with edges
 70
    26
177
     3
291
     0
 70
    58
 90
        2
176
     1
 90
        2
176
     1
 90
        1
176
     1
 90
        2
176
     1
 40
0.6
176
     1
 40
30.0
176
     1
 62
     7
420
 16777215
176
     1
 90
        1
176
     1
 90
       10
176
     1
 62
     7
176
     1
 62
   257
176
     1
 90
        2
176
     1
 90
        1
176
     1
 40
1.0
176
     1
 90
        8
176
     1
 62
   257
176
     1
 40
1.0
176
     1
 90
        1
176
     1
 90
        6
176
     1
 90
        2
176
     1
 62
     7
176
     1
 90
        3
176
     1
 90
        0
176
     1
 90
        0
176
     1
290
     0
176
     1
 90
        5
176
     1
 40
0.0
176
     1
 90
        0
176
     1
290
     0
176
     1
290
     1
176
     1
290
     1
176
     1
290
     0
176
     1
290
     0
176
     1
290
     0
176
     1
290
     0
176
     1
290
     0
176
     1
290
     0
176
     1
 90
       50
176
     1
 40
0.0
176
     1
 40
1.0
176
     1
 90
        0
176
     1
 62
    18
176
     1
 90
       50
176
     1
 90
        3
176
     1
 62
     5
420
      255
176
     1
290
     0
176
     1
 90
       50
176
     1
 90
       50
176
     1
 90
       50
176
     1
290
     0
176
     1
 90
       50
176
     1
 62
   256
176
     0
 40
1.0
176
     0
 90
        2
176
     1
  1
strokes_ogs.tif
176
     1
290
     0
176
     1
 40
1.0
176
     1
 40
1.0
176
     1
  0
VISUALSTYLE
  5
3AC64
102
{ACAD_REACTORS
330
E4D4
102
}
330
E4D4
100
AcDbVisualStyle
  2
Shades of Gray
 70
    23
177
     3
291
     0
 70
    58
 90
        2
176
     1
 90
        2
176
     1
 90
        3
176
     1
 90
        0
176
     1
 40
0.6
176
     1
 40
30.0
176
     1
 62
     7
420
 16777215
176
     1
 90
        2
176
     1
 90
        2
176
     1
 62
     7
176
     1
 62
     7
176
     1
 90
        1
176
     1
 90
        1
176
     1
 40
40.0
176
     1
 90
        8
176
     1
 62
     7
176
     1
 40
1.0
176
     1
 90
        1
176
     1
 90
        6
176
     1
 90
        2
176
     1
 62
     7
176
     1
 90
        3
176
     1
 90
        0
176
     1
 90
        0
176
     1
290
     0
176
     1
 90
        1
176
     1
 40
0.0
176
     1
 90
        0
176
     1
290
     0
176
     1
290
     1
176
     1
290
     1
176
     1
290
     0
176
     1
290
     0
176
     1
290
     0
176
     1
290
     0
176
     1
290
     0
176
     1
290
     0
176
     1
 90
       50
176
     1
 40
0.0
176
     1
 40
1.0
176
     1
 90
        0
176
     1
 62
    18
176
     1
 90
       50
176
     1
 90
        3
176
     1
 62
     5
420
      255
176
     1
290
     0
176
     1
 90
       50
176
     1
 90
       50
176
     1
 90
       50
176
     1
290
     0
176
     1
 90
       50
176
     1
 62
   256
176
     0
 40
1.0
176
     0
 90
        2
176
     1
  1
strokes_ogs.tif
176
     1
290
     0
176
     1
 40
1.0
176
     1
 40
1.0
176
     1
  0
VISUALSTYLE
  5
3AC65
102
{ACAD_REACTORS
330
E4D4
102
}
330
E4D4
100
AcDbVisualStyle
  2
Sketchy
 70
    24
177
     3
291
     0
 70
    58
 90
        1
176
     1
 90
        2
176
     1
 90
        2
176
     1
 90
        0
176
     1
 40
0.6
176
     1
 40
30.0
176
     1
 62
     7
420
 16777215
176
     1
 90
        2
176
     1
 90
        2
176
     1
 62
     7
176
     1
 62
     7
176
     1
 90
        1
176
     1
 90
        1
176
     1
 40
40.0
176
     1
 90
       11
176
     1
 62
     7
176
     1
 40
1.0
176
     1
 90
        1
176
     1
 90
        6
176
     1
 90
        2
176
     1
 62
     7
176
     1
 90
        6
176
     1
 90
        0
176
     1
 90
        0
176
     1
290
     0
176
     1
 90
        1
176
     1
 40
0.0
176
     1
 90
        0
176
     1
290
     0
176
     1
290
     1
176
     1
290
     1
176
     1
290
     0
176
     1
290
     0
176
     1
290
     0
176
     1
290
     0
176
     1
290
     0
176
     1
290
     0
176
     1
 90
       50
176
     1
 40
0.0
176
     1
 40
1.0
176
     1
 90
        0
176
     1
 62
    18
176
     1
 90
       50
176
     1
 90
        3
176
     1
 62
     5
420
      255
176
     1
290
     0
176
     1
 90
       50
176
     1
 90
       50
176
     1
 90
       50
176
     1
290
     0
176
     1
 90
       50
176
     1
 62
   256
176
     0
 40
1.0
176
     0
 90
        2
176
     1
  1
strokes_ogs.tif
176
     1
290
     0
176
     1
 40
1.0
176
     1
 40
1.0
176
     1
  0
VISUALSTYLE
  5
E4E1
102
{ACAD_REACTORS
330
E4D4
102
}
330
E4D4
100
AcDbVisualStyle
  2

 70
    13
177
     3
291
     1
 70
    58
 90
        2
176
     1
 90
        2
176
     1
 90
        0
176
     1
 90
        0
176
     1
 40
0.6
176
     1
 40
30.0
176
     1
 62
     7
176
     1
 90
        1
176
     1
 90
        4
176
     1
 62
     7
176
     1
 62
   257
176
     1
 90
        1
176
     1
 90
        1
176
     1
 40
1.0
176
     1
 90
       12
176
     1
 62
     7
176
     1
 40
1.0
176
     1
 90
        1
176
     1
 90
        6
176
     1
 90
        2
176
     1
 62
     7
176
     1
 90
        5
176
     1
 90
        0
176
     1
 90
        0
176
     1
290
     0
176
     1
 90
        1
176
     1
 40
0.0
176
     1
 90
        0
176
     1
290
     0
176
     1
290
     1
176
     1
290
     1
176
     1
290
     0
176
     1
290
     0
176
     1
290
     0
176
     1
290
     0
176
     1
290
     0
176
     1
290
     0
176
     1
 90
       50
176
     1
 40
0.0
176
     1
 40
1.0
176
     1
 90
        0
176
     1
 62
    18
176
     1
 90
       50
176
     1
 90
        3
176
     1
 62
     5
420
      255
176
     1
290
     0
176
     1
 90
       50
176
     1
 90
       50
176
     1
 90
       50
176
     1
290
     0
176
     1
 90
       50
176
     1
 62
   256
176
     0
 40
1.0
176
     0
 90
        2
176
     1
  1
strokes_ogs.tif
176
     1
290
     0
176
     1
 40
1.0
176
     1
 40
1.0
176
     1
  0
VISUALSTYLE
  5
3AC62
102
{ACAD_REACTORS
330
E4D4
102
}
330
E4D4
100
AcDbVisualStyle
  2
Wireframe
 70
     5
177
     3
291
     0
 70
    58
 90
        0
176
     1
 90
        2
176
     1
 90
        0
176
     1
 90
        0
176
     1
 40
0.6
176
     1
 40
30.0
176
     1
 62
     7
420
 16777215
176
     1
 90
        1
176
     1
 90
        4
176
     1
 62
     7
176
     1
 62
   257
176
     1
 90
        1
176
     1
 90
        1
176
     1
 40
1.0
176
     1
 90
        0
176
     1
 62
   257
176
     1
 40
1.0
176
     1
 90
        1
176
     1
 90
        6
176
     1
 90
        2
176
     1
 62
     7
176
     1
 90
        3
176
     1
 90
        0
176
     1
 90
        0
176
     1
290
     0
176
     1
 90
        1
176
     1
 40
0.0
176
     1
 90
        0
176
     1
290
     0
176
     1
290
     1
176
     1
290
     1
176
     1
290
     0
176
     1
290
     0
176
     1
290
     0
176
     1
290
     0
176
     1
290
     0
176
     1
290
     0
176
     1
 90
       50
176
     1
 40
0.0
176
     1
 40
1.0
176
     1
 90
        0
176
     1
 62
    18
176
     1
 90
       50
176
     1
 90
        3
176
     1
 62
     5
420
      255
176
     1
290
     0
176
     1
 90
       50
176
     1
 90
       50
176
     1
 90
       50
176
     1
290
     0
176
     1
 90
       50
176
     1
 62
   256
176
     0
 40
1.0
176
     0
 90
        2
176
     1
  1
strokes_ogs.tif
176
     1
290
     0
176
     1
 40
1.0
176
     1
 40
1.0
176
     1
  0
VISUALSTYLE
  5
3AC66
102
{ACAD_REACTORS
330
E4D4
102
}
330
E4D4
100
AcDbVisualStyle
  2
X-Ray
 70
    25
177
     3
291
     0
 70
    58
 90
        2
176
     1
 90
        2
176
     1
 90
        1
176
     1
 90
        1
176
     1
 40
0.5
176
     1
 40
30.0
176
     1
 62
     7
420
 16777215
176
     1
 90
        1
176
     1
 90
        0
176
     1
 62
     7
176
     1
 62
   257
176
     1
 90
        1
176
     1
 90
        1
176
     1
 40
1.0
176
     1
 90
        8
176
     1
 62
     7
176
     1
 40
1.0
176
     1
 90
        1
176
     1
 90
        6
176
     1
 90
        2
176
     1
 62
     7
176
     1
 90
        3
176
     1
 90
        0
176
     1
 90
        0
176
     1
290
     0
176
     1
 90
       13
176
     1
 40
0.0
176
     1
 90
        0
176
     1
290
     0
176
     1
290
     1
176
     1
290
     1
176
     1
290
     0
176
     1
290
     0
176
     1
290
     0
176
     1
290
     0
176
     1
290
     0
176
     1
290
     0
176
     1
 90
       50
176
     1
 40
0.0
176
     1
 40
1.0
176
     1
 90
        0
176
     1
 62
    18
176
     1
 90
       50
176
     1
 90
        3
176
     1
 62
     5
420
      255
176
     1
290
     0
176
     1
 90
       50
176
     1
 90
       50
176
     1
 90
       50
176
     1
290
     0
176
     1
 90
       50
176
     1
 62
   256
176
     0
 40
1.0
176
     0
 90
        2
176
     1
  1
strokes_ogs.tif
176
     1
290
     0
176
     1
 40
1.0
176
     1
 40
1.0
176
     1
  0
DICTIONARYVAR
  5
F8C1
102
{ACAD_REACTORS
330
5697
102
}
330
5697
100
DictionaryVariables
280
     0
  1
1:1
  0
DICTIONARYVAR
  5
F8C0
102
{ACAD_REACTORS
330
5697
102
}
330
5697
100
DictionaryVariables
280
     0
  1
STANDARD
  0
DICTIONARYVAR
  5
F8BF
102
{ACAD_REACTORS
330
5697
102
}
330
5697
100
DictionaryVariables
280
     0
  1
STANDARD
  0
DICTIONARYVAR
  5
3ACA7
102
{ACAD_REACTORS
330
5697
102
}
330
5697
100
DictionaryVariables
280
     0
  1
Imperial24
  0
DICTIONARYVAR
  5
3ACA8
102
{ACAD_REACTORS
330
5697
102
}
330
5697
100
DictionaryVariables
280
     0
  1
Imperial24
  0
DICTIONARYVAR
  5
5698
102
{ACAD_REACTORS
330
5697
102
}
330
5697
100
DictionaryVariables
280
     0
  1
1
  0
DICTIONARYVAR
  5
F8C3
102
{ACAD_REACTORS
330
5697
102
}
330
5697
100
DictionaryVariables
280
     0
  1
0
  0
DICTIONARYVAR
  5
37FF5
102
{ACAD_REACTORS
330
5697
102
}
330
5697
100
DictionaryVariables
280
     0
  1
1
  0
DICTIONARYVAR
  5
37FF6
102
{ACAD_REACTORS
330
5697
102
}
330
5697
100
DictionaryVariables
280
     0
  1
15
  0
DICTIONARYVAR
  5
37FF4
102
{ACAD_REACTORS
330
5697
102
}
330
5697
100
DictionaryVariables
280
     0
  1
0
  0
DICTIONARYVAR
  5
37FF3
102
{ACAD_REACTORS
330
5697
102
}
330
5697
100
DictionaryVariables
280
     0
  1
0
  0
DICTIONARYVAR
  5
F8C2
102
{ACAD_REACTORS
330
5697
102
}
330
5697
100
DictionaryVariables
280
     0
  1
127
  0
XRECORD
  5
F8F7
102
{ACAD_REACTORS
330
F8F6
102
}
330
F8F6
100
AcDbXrecord
280
     1
330
0
330
0
330
0
330
0
330
0
330
0
330
0
330
0
330
0
330
0
330
0
330
0
330
0
330
0
330
0
330
0
330
0
330
0
330
0
330
0
330
0
330
0
330
0
330
0
330
0
330
0
330
0
330
0
330
0
330
0
330
0
330
0
330
0
330
0
330
0
330
0
330
0
330
0
330
0
330
0
330
0
330
0
330
0
330
0
330
0
330
0
330
0
330
0
330
0
330
0
330
0
330
0
330
0
330
0
330
0
330
0
330
0
330
0
330
0
330
0
330
0
330
0
330
0
330
0
330
0
330
0
330
0
330
0
330
0
330
0
330
0
330
0
330
0
330
0
330
0
330
0
330
0
330
0
330
0
330
0
330
0
330
0
330
0
330
0
330
0
330
0
330
0
330
0
330
0
330
0
330
0
330
0
330
0
330
0
330
0
330
0
330
0
330
0
330
0
330
0
330
0
330
0
330
0
330
0
330
0
330
0
330
0
330
0
330
0
330
0
330
0
330
0
330
0
330
0
330
0
330
0
330
0
330
0
330
0
330
0
330
0
330
0
330
0
330
0
330
0
330
0
330
0
330
0
330
0
330
0
330
0
330
0
330
0
330
0
330
0
330
0
330
0
330
0
330
0
330
0
330
0
330
0
330
0
330
0
330
0
330
0
330
0
330
0
330
0
330
0
330
0
330
0
330
0
330
0
330
0
330
0
330
0
330
0
330
0
330
0
330
0
330
0
330
0
330
0
330
0
330
0
330
0
330
0
330
0
330
0
330
0
330
0
330
0
330
0
330
0
330
0
330
0
330
0
330
0
330
0
330
0
330
0
330
0
330
0
330
0
330
0
330
0
330
0
330
0
330
0
330
0
330
0
330
0
330
0
330
0
330
0
330
0
330
0
330
0
330
0
330
0
330
0
330
0
330
0
330
0
330
0
330
0
330
0
330
0
330
0
330
0
330
0
330
0
330
0
330
0
330
0
330
0
330
0
330
0
330
0
330
0
330
0
330
0
330
0
330
0
330
0
330
0
330
0
330
0
330
0
330
0
330
0
330
0
330
0
330
0
330
0
330
0
330
0
330
0
330
0
330
0
330
0
330
0
330
0
330
0
330
0
330
0
330
0
330
0
330
0
330
0
330
0
330
0
330
0
330
0
330
0
330
0
330
0
330
0
330
0
330
0
330
0
330
0
330
0
330
0
330
0
330
0
330
0
330
0
330
0
330
0
330
0
330
0
330
0
330
0
330
0
330
0
330
0
330
0
330
0
330
0
330
0
330
0
330
0
330
0
330
0
330
0
330
0
330
0
330
0
330
0
330
0
330
0
330
0
330
0
330
0
330
0
330
0
330
0
330
0
330
0
330
0
330
0
330
0
330
0
330
0
330
0
  0
DICTIONARY
  5
3ACAD
330
3AC6C
100
AcDbDictionary
280
     1
281
     1
  3
ACAD_XREC_ROUNDTRIP
360
3AD60
  0
DICTIONARY
  5
13816
330
904E
100
AcDbDictionary
280
     1
281
     1
  0
DICTIONARY
  5
E4C5
330
E4C4
100
AcDbDictionary
280
     1
281
     1
  3
ACAD_XREC_ROUNDTRIP
360
12A19
  3
BUMPTILE
360
E4C7
  3
DIFFUSETILE
360
E4C6
  3
OPACITYTILE
360
E4CA
  3
REFLECTIONTILE
360
E4C9
  3
REFRACTIONTILE
360
E4CB
  3
SPECULARTILE
360
E4C8
  0
DICTIONARY
  5
E4BD
330
E4BC
100
AcDbDictionary
280
     1
281
     1
  3
ACAD_XREC_ROUNDTRIP
360
12A18
  3
BUMPTILE
360
E4BF
  3
DIFFUSETILE
360
E4BE
  3
OPACITYTILE
360
E4C2
  3
REFLECTIONTILE
360
E4C1
  3
REFRACTIONTILE
360
E4C3
  3
SPECULARTILE
360
E4C0
  0
DICTIONARY
  5
E4CD
330
E4CC
100
AcDbDictionary
280
     1
281
     1
  3
ACAD_XREC_ROUNDTRIP
360
12A1A
  3
BUMPTILE
360
E4CF
  3
DIFFUSETILE
360
E4CE
  3
OPACITYTILE
360
E4D2
  3
REFLECTIONTILE
360
E4D1
  3
REFRACTIONTILE
360
E4D3
  3
SPECULARTILE
360
E4D0
  0
DICTIONARY
  5
3ACAB
330
3AC6A
100
AcDbDictionary
280
     1
281
     1
  3
ACAD_XREC_ROUNDTRIP
360
3AD5F
  0
DICTIONARY
  5
F86C
330
E4EA
100
AcDbDictionary
280
     1
281
     1
  3
ACAD_ROUNDTRIP_2008_TABLESTYLE_CELLSTYLEMAP
360
3AD5E
  0
XRECORD
  5
3AD60
102
{ACAD_REACTORS
330
3ACAD
102
}
330
3ACAD
100
AcDbXrecord
280
     1
102
DISPLAYNAME
  1
Imperial24
102
FLAGS
 90
        0
  0
XRECORD
  5
12A19
102
{ACAD_REACTORS
330
E4C5
102
}
330
E4C5
100
AcDbXrecord
280
     1
102
MATERIAL
148
0.0
149
0.0
149
0.0
 93
        0
 94
      127
282
     0
 72
     0
 77
     0
171
     0
175
     0
179
     0
273
     0
  0
XRECORD
  5
E4C7
102
{ACAD_REACTORS
330
E4C5
102
}
330
E4C5
100
AcDbXrecord
280
     1
270
     1
271
     1
  0
XRECORD
  5
E4C6
102
{ACAD_REACTORS
330
E4C5
102
}
330
E4C5
100
AcDbXrecord
280
     1
270
     1
271
     1
  0
XRECORD
  5
E4CA
102
{ACAD_REACTORS
330
E4C5
102
}
330
E4C5
100
AcDbXrecord
280
     1
270
     1
271
     1
  0
XRECORD
  5
E4C9
102
{ACAD_REACTORS
330
E4C5
102
}
330
E4C5
100
AcDbXrecord
280
     1
270
     1
271
     1
  0
XRECORD
  5
E4CB
102
{ACAD_REACTORS
330
E4C5
102
}
330
E4C5
100
AcDbXrecord
280
     1
270
     1
271
     1
  0
XRECORD
  5
E4C8
102
{ACAD_REACTORS
330
E4C5
102
}
330
E4C5
100
AcDbXrecord
280
     1
270
     1
271
     1
  0
XRECORD
  5
12A18
102
{ACAD_REACTORS
330
E4BD
102
}
330
E4BD
100
AcDbXrecord
280
     1
102
MATERIAL
148
0.0
149
0.0
149
0.0
 93
        0
 94
      127
282
     0
 72
     0
 77
     0
171
     0
175
     0
179
     0
273
     0
  0
XRECORD
  5
E4BF
102
{ACAD_REACTORS
330
E4BD
102
}
330
E4BD
100
AcDbXrecord
280
     1
270
     1
271
     1
  0
XRECORD
  5
E4BE
102
{ACAD_REACTORS
330
E4BD
102
}
330
E4BD
100
AcDbXrecord
280
     1
270
     1
271
     1
  0
XRECORD
  5
E4C2
102
{ACAD_REACTORS
330
E4BD
102
}
330
E4BD
100
AcDbXrecord
280
     1
270
     1
271
     1
  0
XRECORD
  5
E4C1
102
{ACAD_REACTORS
330
E4BD
102
}
330
E4BD
100
AcDbXrecord
280
     1
270
     1
271
     1
  0
XRECORD
  5
E4C3
102
{ACAD_REACTORS
330
E4BD
102
}
330
E4BD
100
AcDbXrecord
280
     1
270
     1
271
     1
  0
XRECORD
  5
E4C0
102
{ACAD_REACTORS
330
E4BD
102
}
330
E4BD
100
AcDbXrecord
280
     1
270
     1
271
     1
  0
XRECORD
  5
12A1A
102
{ACAD_REACTORS
330
E4CD
102
}
330
E4CD
100
AcDbXrecord
280
     1
102
MATERIAL
148
0.0
149
0.0
149
0.0
 93
        0
 94
      127
282
     0
 72
     0
 77
     0
171
     0
175
     0
179
     0
273
     0
  0
XRECORD
  5
E4CF
102
{ACAD_REACTORS
330
E4CD
102
}
330
E4CD
100
AcDbXrecord
280
     1
270
     1
271
     1
  0
XRECORD
  5
E4CE
102
{ACAD_REACTORS
330
E4CD
102
}
330
E4CD
100
AcDbXrecord
280
     1
270
     1
271
     1
  0
XRECORD
  5
E4D2
102
{ACAD_REACTORS
330
E4CD
102
}
330
E4CD
100
AcDbXrecord
280
     1
270
     1
271
     1
  0
XRECORD
  5
E4D1
102
{ACAD_REACTORS
330
E4CD
102
}
330
E4CD
100
AcDbXrecord
280
     1
270
     1
271
     1
  0
XRECORD
  5
E4D3
102
{ACAD_REACTORS
330
E4CD
102
}
330
E4CD
100
AcDbXrecord
280
     1
270
     1
271
     1
  0
XRECORD
  5
E4D0
102
{ACAD_REACTORS
330
E4CD
102
}
330
E4CD
100
AcDbXrecord
280
     1
270
     1
271
     1
  0
XRECORD
  5
3AD5F
102
{ACAD_REACTORS
330
3ACAB
102
}
330
3ACAB
100
AcDbXrecord
280
     1
102
DISPLAYNAME
  1
Imperial24
102
FLAGS
 90
        0
  0
CELLSTYLEMAP
  5
3AD5E
102
{ACAD_REACTORS
330
F86C
102
}
330
F86C
100
AcDbCellStyleMap
 90
        3
300
CELLSTYLE
  1
TABLEFORMAT_BEGIN
 90
        5
170
     1
 91
        0
 92
    32768
 62
   257
 93
        1
300
CONTENTFORMAT
  1
CONTENTFORMAT_BEGIN
 90
        0
 91
        0
 92
      512
 93
        0
300

 40
0.0
140
1.0
 94
        5
 62
     0
340
11
144
0.25
309
CONTENTFORMAT_END
171
     1
301
MARGIN
  1
CELLMARGIN_BEGIN
 40
0.06
 40
0.06
 40
0.06
 40
0.06
 40
0.18
 40
0.18
309
CELLMARGIN_END
 94
        6
 95
        1
302
GRIDFORMAT
  1
GRIDFORMAT_BEGIN
 90
        0
 91
        1
 62
     0
 92
       -2
340
0
 93
        0
 40
0.045
309
GRIDFORMAT_END
 95
        2
302
GRIDFORMAT
  1
GRIDFORMAT_BEGIN
 90
        0
 91
        1
 62
     0
 92
       -2
340
0
 93
        0
 40
0.045
309
GRIDFORMAT_END
 95
        4
302
GRIDFORMAT
  1
GRIDFORMAT_BEGIN
 90
        0
 91
        1
 62
     0
 92
       -2
340
0
 93
        0
 40
0.045
309
GRIDFORMAT_END
 95
        8
302
GRIDFORMAT
  1
GRIDFORMAT_BEGIN
 90
        0
 91
        1
 62
     0
 92
       -2
340
0
 93
        0
 40
0.045
309
GRIDFORMAT_END
 95
       16
302
GRIDFORMAT
  1
GRIDFORMAT_BEGIN
 90
        0
 91
        1
 62
     0
 92
       -2
340
0
 93
        0
 40
0.045
309
GRIDFORMAT_END
 95
       32
302
GRIDFORMAT
  1
GRIDFORMAT_BEGIN
 90
        0
 91
        1
 62
     0
 92
       -2
340
0
 93
        0
 40
0.045
309
GRIDFORMAT_END
309
TABLEFORMAT_END
  1
CELLSTYLE_BEGIN
 90
        1
 91
        1
300
_TITLE
309
CELLSTYLE_END
300
CELLSTYLE
  1
TABLEFORMAT_BEGIN
 90
        5
170
     1
 91
        0
 92
        0
 62
   257
 93
        1
300
CONTENTFORMAT
  1
CONTENTFORMAT_BEGIN
 90
        0
 91
        0
 92
      512
 93
        0
300

 40
0.0
140
1.0
 94
        5
 62
     0
340
11
144
0.18
309
CONTENTFORMAT_END
171
     1
301
MARGIN
  1
CELLMARGIN_BEGIN
 40
0.06
 40
0.06
 40
0.06
 40
0.06
 40
0.18
 40
0.18
309
CELLMARGIN_END
 94
        6
 95
        1
302
GRIDFORMAT
  1
GRIDFORMAT_BEGIN
 90
        0
 91
        1
 62
     0
 92
       -2
340
0
 93
        0
 40
0.045
309
GRIDFORMAT_END
 95
        2
302
GRIDFORMAT
  1
GRIDFORMAT_BEGIN
 90
        0
 91
        1
 62
     0
 92
       -2
340
0
 93
        0
 40
0.045
309
GRIDFORMAT_END
 95
        4
302
GRIDFORMAT
  1
GRIDFORMAT_BEGIN
 90
        0
 91
        1
 62
     0
 92
       -2
340
0
 93
        0
 40
0.045
309
GRIDFORMAT_END
 95
        8
302
GRIDFORMAT
  1
GRIDFORMAT_BEGIN
 90
        0
 91
        1
 62
     0
 92
       -2
340
0
 93
        0
 40
0.045
309
GRIDFORMAT_END
 95
       16
302
GRIDFORMAT
  1
GRIDFORMAT_BEGIN
 90
        0
 91
        1
 62
     0
 92
       -2
340
0
 93
        0
 40
0.045
309
GRIDFORMAT_END
 95
       32
302
GRIDFORMAT
  1
GRIDFORMAT_BEGIN
 90
        0
 91
        1
 62
     0
 92
       -2
340
0
 93
        0
 40
0.045
309
GRIDFORMAT_END
309
TABLEFORMAT_END
  1
CELLSTYLE_BEGIN
 90
        2
 91
        1
300
_HEADER
309
CELLSTYLE_END
300
CELLSTYLE
  1
TABLEFORMAT_BEGIN
 90
        5
170
     1
 91
        0
 92
        0
 62
   257
 93
        1
300
CONTENTFORMAT
  1
CONTENTFORMAT_BEGIN
 90
        0
 91
        0
 92
      512
 93
        0
300

 40
0.0
140
1.0
 94
        2
 62
     0
340
11
144
0.18
309
CONTENTFORMAT_END
171
     1
301
MARGIN
  1
CELLMARGIN_BEGIN
 40
0.06
 40
0.06
 40
0.06
 40
0.06
 40
0.18
 40
0.18
309
CELLMARGIN_END
 94
        6
 95
        1
302
GRIDFORMAT
  1
GRIDFORMAT_BEGIN
 90
        0
 91
        1
 62
     0
 92
       -2
340
0
 93
        0
 40
0.045
309
GRIDFORMAT_END
 95
        2
302
GRIDFORMAT
  1
GRIDFORMAT_BEGIN
 90
        0
 91
        1
 62
     0
 92
       -2
340
0
 93
        0
 40
0.045
309
GRIDFORMAT_END
 95
        4
302
GRIDFORMAT
  1
GRIDFORMAT_BEGIN
 90
        0
 91
        1
 62
     0
 92
       -2
340
0
 93
        0
 40
0.045
309
GRIDFORMAT_END
 95
        8
302
GRIDFORMAT
  1
GRIDFORMAT_BEGIN
 90
        0
 91
        1
 62
     0
 92
       -2
340
0
 93
        0
 40
0.045
309
GRIDFORMAT_END
 95
       16
302
GRIDFORMAT
  1
GRIDFORMAT_BEGIN
 90
        0
 91
        1
 62
     0
 92
       -2
340
0
 93
        0
 40
0.045
309
GRIDFORMAT_END
 95
       32
302
GRIDFORMAT
  1
GRIDFORMAT_BEGIN
 90
        0
 91
        1
 62
     0
 92
       -2
340
0
 93
        0
 40
0.045
309
GRIDFORMAT_END
309
TABLEFORMAT_END
  1
CELLSTYLE_BEGIN
 90
        3
 91
        2
300
_DATA
309
CELLSTYLE_END
  0
ENDSEC
  0
SECTION
  2
ACDSDATA
 70
     2
 71
     6
  0
ACDSSCHEMA
 90
        0
  1
AcDb_Thumbnail_Schema
  2
AcDbDs::ID
280
    10
 91
        8
  2
Thumbnail_Data
280
    15
 91
        0
101
ACDSRECORD
 95
        0
 90
        1
  2
AcDbDs::TreatedAsObjectData
280
     1
291
     1
101
ACDSRECORD
 95
        0
 90
        2
  2
AcDbDs::Legacy
280
     1
291
     1
101
ACDSRECORD
  1
AcDbDs::ID
 90
        3
  2
AcDs:Indexable
280
     1
291
     1
101
ACDSRECORD
  1
AcDbDs::ID
 90
        4
  2
AcDbDs::HandleAttribute
280
     7
282
     1
  0
ACDSSCHEMA
 90
        1
  1
AcDbDs::TreatedAsObjectDataSchema
  2
AcDbDs::TreatedAsObjectData
280
     1
 91
        0
  0
ACDSSCHEMA
 90
        2
  1
AcDbDs::LegacySchema
  2
AcDbDs::Legacy
280
     1
 91
        0
  0
ACDSSCHEMA
 90
        3
  1
AcDbDs::IndexedPropertySchema
  2
AcDs:Indexable
280
     1
 91
        0
  0
ACDSSCHEMA
 90
        4
  1
AcDbDs::HandleAttributeSchema
  2
AcDbDs::HandleAttribute
280
     7
 91
        1
284
     1
  0
ACDSRECORD
 90
        0
  2
AcDbDs::ID
280
    10
320
904E
  2
Thumbnail_Data
280
    15
 94
     1938
310
89504E470D0A1A0A0000000D4948445200000100000000670803000000D82A6C0200000300504C5445000000000000C8C8C80000000000000000000000000000000000000000000000000000330000660000990000CC0000FF0033000033330033660033990033CC0033FF0066000066330066660066990066CC0066FF0099
310
000099330099660099990099CC0099FF00CC0000CC3300CC6600CC9900CCCC00CCFF00FF0000FF3300FF6600FF9900FFCC00FFFF3300003300333300663300993300CC3300FF3333003333333333663333993333CC3333FF3366003366333366663366993366CC3366FF3399003399333399663399993399CC3399FF33CC00
310
33CC3333CC6633CC9933CCCC33CCFF33FF0033FF3333FF6633FF9933FFCC33FFFF6600006600336600666600996600CC6600FF6633006633336633666633996633CC6633FF6666006666336666666666996666CC6666FF6699006699336699666699996699CC6699FF66CC0066CC3366CC6666CC9966CCCC66CCFF66FF0066
310
FF3366FF6666FF9966FFCC66FFFF9900009900339900669900999900CC9900FF9933009933339933669933999933CC9933FF9966009966339966669966999966CC9966FF9999009999339999669999999999CC9999FF99CC0099CC3399CC6699CC9999CCCC99CCFF99FF0099FF3399FF6699FF9999FFCC99FFFFCC0000CC00
310
33CC0066CC0099CC00CCCC00FFCC3300CC3333CC3366CC3399CC33CCCC33FFCC6600CC6633CC6666CC6699CC66CCCC66FFCC9900CC9933CC9966CC9999CC99CCCC99FFCCCC00CCCC33CCCC66CCCC99CCCCCCCCCCFFCCFF00CCFF33CCFF66CCFF99CCFFCCCCFFFFFF0000FF0033FF0066FF0099FF00CCFF00FFFF3300FF3333
310
FF3366FF3399FF33CCFF33FFFF6600FF6633FF6666FF6699FF66CCFF66FFFF9900FF9933FF9966FF9999FF99CCFF99FFFFCC00FFCC33FFCC66FFCC99FFCCCCFFCCFFFFFF00FFFF33FFFF66FFFF99FFFFCCFFFFFF0000000D0D0D1A1A1A2828283535354343435050505D5D5D6B6B6B787878868686939393A1A1A1AEAEAEBB
310
BBBBC9C9C9D6D6D6E4E4E4F1F1F1FFFFFF00000000000000000000000000000000000000000000000000000000000008F1915C000002D04944415478DAED9D41B2AB201045D981DB70C2FE6799F43632620577C2FC23A06202C6FAF5FF7BF17677150F83C62A8E171A9AC873CEECBF99FF677657005F77230360007E0D0050
310
925600584D2D80262904E03DFC9654026814A013408CD145E46400940270A9F2390D2A13B3D52C2AEC03E26E8E11C06272569978303E37F8716647DE04AE026055C04A41F76CD08B7600DA156001110360000C800130007A014C6E0B8DEA0530E5230360000C806A00300067DFE99ED5D004AA77EC7B492500DE626650D609
310
FA4421C69C2D2142B78B8104807C04E0109F1940CAA900B441E1F15078B93C2BE06DD0CCB034E6537AE67CA480B5F117009111803F07D0E6C75913D9C2C865008E0C4008A10FA03CEE16C0CBAC996471B4D4A907A0202206501E7152407ED0E88C7ED901345EB00F00225E8A79E11B0AFBDA111467F70A2084FCC3093FAE2D
310
1700F4FA00B833A77F770045DD3E675E30F002A057808C14E0D815E06AF787F140881D40AEA364998F01F879D60E0073320FD6268012F51903286758012C7FE6D33E601B2B3102A853611F4F00A074859D8889828048053078AF84602E806D2A008C01946901A117401EED22D4A31180E1EAB9012000B08603FA3D0050DFAB
310
A36D026E5FFCEA0300B702F680D06055801CC0D7DCC80018000360000CC0CF02F8FB77E6F900C8E83AF9544430109A766BAF98A6B7139DA2FB03981282B93ED52380E6714FC32206006EEE8E7515014893A0B552066000A048632B4A1F5503800E008FCDD6CE2157BA7E9E6A99963EA001208F7A4C0800179AC00680430132
310
8908EA2F605A007234ACD74A0290AF15A85740B03E408B1778B40A407602EABCC09E41A07B286C003801CC976783AC0AC0D578001D8064A8496544C8350A70C7C25D01EDC9AA00A7164008810F0010FA003AEBE6015002A0BE4AF1BA7A0042057CC58DBE10C0B287A03B6C2259B6D33BECA9C70DE0750BC1CEA682D6040C80
310
013000B704A0FD7F8CDCC2FE00DDF667CE40B6E8DA0000000049454E44AE4260828264290B7C200100000000000000000000DC0CE0CF9EA7A015A0F1DBE442FFD67B02B07780BD5D3314A9F23BC3AB770D2FB7DE1C6058FB7682585501288EF150D958DD7A7B807CB3976F008A97ED7BE3003485C02102FC01100000D00DB0
310
95144780BCDA0300BB07A86701360AF07D4EE26CB9EEEDBE9E07B1D97021780698B67ECBFA955E00FA0D00D20BF0664DF008A0230B8421DF25C2E216B85002847AE2C36784F0BDBCD26704D25C06F07BF5008D11F087009ACB80DF390B104E83A62B42435911E2AD1EE4A522745A640AE7A00000000000003D00F3D3575D03
310
FC5FB7B8FE2CC09DCD61005800C8890FB31A80D98BA35446402D7111015C7B53A8AD5602406D006415E0E25E91627CB83580F5AE99A7007C02A8BEB77EFBA40E80A73B25842E47C8D7D7FA1926C7DE013EFFFF01E0937F507EC6769A13954FD9CE0FDFA6E591DC7601C4F3D69F6D7400405E015008020000000000004C007C
310
3ADD0DC05002000000E03BFD03B53157BFA7C8BCAB0000000049454E44AE426082
  0
ENDSEC
  0
EOF
