  0
SECTION
  2
HEADER
  9
$ACADVER
  1
AC1027
  9
$ACADMAINTVER
 70
    55
  9
$DWGCODEPAGE
  3
ANSI_932
  9
$LASTSAVEDBY
  1
marketing
  9
$REQUIREDVERSIONS
160
                 0
  9
$INSBASE
 10
0.0
 20
0.0
 30
0.0
  9
$EXTMIN
 10
-0.01811706852709
 20
-0.0226463351834809
 30
-0.0000000000000053
  9
$EXTMAX
 10
525.0379540109324
 20
742.5226662172492
 30
0.0000000000000099
  9
$LIMMIN
 10
0.0
 20
0.0
  9
$LIMMAX
 10
594.0
 20
420.0
  9
$ORTHOMODE
 70
     1
  9
$REGENMODE
 70
     1
  9
$FILLMODE
 70
     1
  9
$QTEXTMODE
 70
     0
  9
$MIRRTEXT
 70
     1
  9
$LTSCALE
 40
1.0
  9
$ATTMODE
 70
     1
  9
$TEXTSIZE
 40
3.0
  9
$TRACEWID
 40
1.0
  9
$TEXTSTYLE
  7
STANDARD
  9
$CLAYER
  8
10
  9
$CELTYPE
  6
ByLayer
  9
$CECOLOR
 62
   256
  9
$CELTSCALE
 40
1.0
  9
$DISPSILH
 70
     0
  9
$DIMSCALE
 40
1.0
  9
$DIMASZ
 40
2.0
  9
$DIMEXO
 40
1.0
  9
$DIMDLI
 40
0.5
  9
$DIMRND
 40
0.0
  9
$DIMDLE
 40
0.0
  9
$DIMEXE
 40
0.5
  9
$DIMTP
 40
0.0
  9
$DIMTM
 40
0.0
  9
$DIMTXT
 40
6.0
  9
$DIMCEN
 40
0.09
  9
$DIMTSZ
 40
0.0
  9
$DIMTOL
 70
     0
  9
$DIMLIM
 70
     0
  9
$DIMTIH
 70
     0
  9
$DIMTOH
 70
     0
  9
$DIMSE1
 70
     0
  9
$DIMSE2
 70
     0
  9
$DIMTAD
 70
     3
  9
$DIMZIN
 70
    12
  9
$DIMBLK
  1
OPEN
  9
$DIMASO
 70
     1
  9
$DIMSHO
 70
     1
  9
$DIMPOST
  1

  9
$DIMAPOST
  1

  9
$DIMALT
 70
     0
  9
$DIMALTD
 70
     2
  9
$DIMALTF
 40
25.4
  9
$DIMLFAC
 40
1.0
  9
$DIMTOFL
 70
     0
  9
$DIMTVP
 40
0.0
  9
$DIMTIX
 70
     0
  9
$DIMSOXD
 70
     0
  9
$DIMSAH
 70
     0
  9
$DIMBLK1
  1

  9
$DIMBLK2
  1

  9
$DIMSTYLE
  2
STANDARD
  9
$DIMCLRD
 70
     0
  9
$DIMCLRE
 70
     0
  9
$DIMCLRT
 70
     0
  9
$DIMTFAC
 40
1.0
  9
$DIMGAP
 40
2.0
  9
$DIMJUST
 70
     0
  9
$DIMSD1
 70
     0
  9
$DIMSD2
 70
     0
  9
$DIMTOLJ
 70
     1
  9
$DIMTZIN
 70
     0
  9
$DIMALTZ
 70
     0
  9
$DIMALTTZ
 70
     0
  9
$DIMUPT
 70
     0
  9
$DIMDEC
 70
     1
  9
$DIMTDEC
 70
     1
  9
$DIMALTU
 70
     2
  9
$DIMALTTD
 70
     2
  9
$DIMTXSTY
  7
STANDARD
  9
$DIMAUNIT
 70
     0
  9
$DIMADEC
 70
     0
  9
$DIMALTRND
 40
0.0
  9
$DIMAZIN
 70
     0
  9
$DIMDSEP
 70
    46
  9
$DIMATFIT
 70
     3
  9
$DIMFRAC
 70
     0
  9
$DIMLDRBLK
  1
OPEN
  9
$DIMLUNIT
 70
     2
  9
$DIMLWD
 70
    -2
  9
$DIMLWE
 70
    -2
  9
$DIMTMOVE
 70
     0
  9
$DIMFXL
 40
1.0
  9
$DIMFXLON
 70
     0
  9
$DIMJOGANG
 40
0.7853981633974483
  9
$DIMTFILL
 70
     1
  9
$DIMTFILLCLR
 70
     0
  9
$DIMARCSYM
 70
     0
  9
$DIMLTYPE
  6

  9
$DIMLTEX1
  6

  9
$DIMLTEX2
  6

  9
$DIMTXTDIRECTION
 70
     0
  9
$LUNITS
 70
     2
  9
$LUPREC
 70
     4
  9
$SKETCHINC
 40
1.0
  9
$FILLETRAD
 40
0.0
  9
$AUNITS
 70
     0
  9
$AUPREC
 70
     0
  9
$MENU
  1
.
  9
$ELEVATION
 40
0.0
  9
$PELEVATION
 40
0.0
  9
$THICKNESS
 40
0.0
  9
$LIMCHECK
 70
     0
  9
$CHAMFERA
 40
0.0
  9
$CHAMFERB
 40
0.0
  9
$CHAMFERC
 40
0.0
  9
$CHAMFERD
 40
0.0
  9
$SKPOLY
 70
     0
  9
$TDCREATE
 40
2458661.367548785
  9
$TDUCREATE
 40
2458660.992548785
  9
$TDUPDATE
 40
2459243.583558044
  9
$TDUUPDATE
 40
2459243.208558044
  9
$TDINDWG
 40
0.7217202662
  9
$TDUSRTIMER
 40
0.7217196875
  9
$USRTIMER
 70
     1
  9
$ANGBASE
 50
0.0
  9
$ANGDIR
 70
     0
  9
$PDMODE
 70
     0
  9
$PDSIZE
 40
-1.0
  9
$PLINEWID
 40
0.0
  9
$SPLFRAME
 70
     0
  9
$SPLINETYPE
 70
     6
  9
$SPLINESEGS
 70
     8
  9
$HANDSEED
  5
A45A
  9
$SURFTAB1
 70
     6
  9
$SURFTAB2
 70
     6
  9
$SURFTYPE
 70
     6
  9
$SURFU
 70
     6
  9
$SURFV
 70
     6
  9
$UCSBASE
  2

  9
$UCSNAME
  2

  9
$UCSORG
 10
0.0
 20
0.0
 30
0.0
  9
$UCSXDIR
 10
1.0
 20
0.0
 30
0.0
  9
$UCSYDIR
 10
0.0
 20
1.0
 30
0.0
  9
$UCSORTHOREF
  2

  9
$UCSORTHOVIEW
 70
     0
  9
$UCSORGTOP
 10
0.0
 20
0.0
 30
0.0
  9
$UCSORGBOTTOM
 10
0.0
 20
0.0
 30
0.0
  9
$UCSORGLEFT
 10
0.0
 20
0.0
 30
0.0
  9
$UCSORGRIGHT
 10
0.0
 20
0.0
 30
0.0
  9
$UCSORGFRONT
 10
0.0
 20
0.0
 30
0.0
  9
$UCSORGBACK
 10
0.0
 20
0.0
 30
0.0
  9
$PUCSBASE
  2

  9
$PUCSNAME
  2

  9
$PUCSORG
 10
0.0
 20
0.0
 30
0.0
  9
$PUCSXDIR
 10
1.0
 20
0.0
 30
0.0
  9
$PUCSYDIR
 10
0.0
 20
1.0
 30
0.0
  9
$PUCSORTHOREF
  2

  9
$PUCSORTHOVIEW
 70
     0
  9
$PUCSORGTOP
 10
0.0
 20
0.0
 30
0.0
  9
$PUCSORGBOTTOM
 10
0.0
 20
0.0
 30
0.0
  9
$PUCSORGLEFT
 10
0.0
 20
0.0
 30
0.0
  9
$PUCSORGRIGHT
 10
0.0
 20
0.0
 30
0.0
  9
$PUCSORGFRONT
 10
0.0
 20
0.0
 30
0.0
  9
$PUCSORGBACK
 10
0.0
 20
0.0
 30
0.0
  9
$USERI1
 70
     0
  9
$USERI2
 70
     0
  9
$USERI3
 70
     0
  9
$USERI4
 70
     0
  9
$USERI5
 70
     0
  9
$USERR1
 40
0.0
  9
$USERR2
 40
0.0
  9
$USERR3
 40
0.0
  9
$USERR4
 40
0.0
  9
$USERR5
 40
0.0
  9
$WORLDVIEW
 70
     1
  9
$SHADEDGE
 70
     3
  9
$SHADEDIF
 70
    70
  9
$TILEMODE
 70
     1
  9
$MAXACTVP
 70
    64
  9
$PINSBASE
 10
0.0
 20
0.0
 30
0.0
  9
$PLIMCHECK
 70
     0
  9
$PEXTMIN
 10
1.000000000000000E+20
 20
1.000000000000000E+20
 30
1.000000000000000E+20
  9
$PEXTMAX
 10
-1.000000000000000E+20
 20
-1.000000000000000E+20
 30
-1.000000000000000E+20
  9
$PLIMMIN
 10
0.0
 20
0.0
  9
$PLIMMAX
 10
420.0
 20
297.0
  9
$UNITMODE
 70
     0
  9
$VISRETAIN
 70
     1
  9
$PLINEGEN
 70
     0
  9
$PSLTSCALE
 70
     1
  9
$TREEDEPTH
 70
  3020
  9
$CMLSTYLE
  2
Standard
  9
$CMLJUST
 70
     0
  9
$CMLSCALE
 40
20.0
  9
$PROXYGRAPHICS
 70
     1
  9
$MEASUREMENT
 70
     1
  9
$CELWEIGHT
370
    -1
  9
$ENDCAPS
280
     0
  9
$JOINSTYLE
280
     0
  9
$LWDISPLAY
290
     1
  9
$INSUNITS
 70
     4
  9
$HYPERLINKBASE
  1

  9
$STYLESHEET
  1
MONOCHROME.CTB
  9
$XEDIT
290
     1
  9
$CEPSNTYPE
380
     0
  9
$PSTYLEMODE
290
     1
  9
$FINGERPRINTGUID
  2
{4F539629-E7AA-4B74-AABF-D3D77F167EDD}
  9
$VERSIONGUID
  2
{E5CA2E5E-9CB6-4E69-B860-40EF58AE4336}
  9
$EXTNAMES
290
     1
  9
$PSVPSCALE
 40
0.0
  9
$OLESTARTUP
290
     0
  9
$SORTENTS
280
   127
  9
$INDEXCTL
280
     0
  9
$HIDETEXT
280
     1
  9
$XCLIPFRAME
280
     0
  9
$HALOGAP
280
     0
  9
$OBSCOLOR
 70
   257
  9
$OBSLTYPE
280
     0
  9
$INTERSECTIONDISPLAY
280
     0
  9
$INTERSECTIONCOLOR
 70
   257
  9
$DIMASSOC
280
     2
  9
$PROJECTNAME
  1

  9
$CAMERADISPLAY
290
     0
  9
$LENSLENGTH
 40
50.0
  9
$CAMERAHEIGHT
 40
0.0
  9
$STEPSPERSEC
 40
2.0
  9
$STEPSIZE
 40
6.0
  9
$3DDWFPREC
 40
2.0
  9
$PSOLWIDTH
 40
5.0
  9
$PSOLHEIGHT
 40
80.0
  9
$LOFTANG1
 40
1.5707963268
  9
$LOFTANG2
 40
1.5707963268
  9
$LOFTMAG1
 40
0.0
  9
$LOFTMAG2
 40
0.0
  9
$LOFTPARAM
 70
     7
  9
$LOFTNORMALS
280
     1
  9
$LATITUDE
 40
37.795
  9
$LONGITUDE
 40
-122.394
  9
$NORTHDIRECTION
 40
0.0
  9
$TIMEZONE
 70
 -8000
  9
$LIGHTGLYPHDISPLAY
280
     1
  9
$TILEMODELIGHTSYNCH
280
     1
  9
$CMATERIAL
347
44
  9
$SOLIDHIST
280
     1
  9
$SHOWHIST
280
     1
  9
$DWFFRAME
280
     2
  9
$DGNFRAME
280
     2
  9
$REALWORLDSCALE
290
     1
  9
$INTERFERECOLOR
 62
   256
  9
$INTERFEREOBJVS
345
33
  9
$INTERFEREVPVS
346
59A0
  9
$CSHADOW
280
     0
  9
$SHADOWPLANELOCATION
 40
0.0
  0
ENDSEC
  0
SECTION
  2
CLASSES
  0
CLASS
  1
ACDBDICTIONARYWDFLT
  2
AcDbDictionaryWithDefault
  3
ObjectDBX Classes
 90
        0
 91
        1
280
     0
281
     0
  0
CLASS
  1
VISUALSTYLE
  2
AcDbVisualStyle
  3
ObjectDBX Classes
 90
     4095
 91
       26
280
     0
281
     0
  0
CLASS
  1
MATERIAL
  2
AcDbMaterial
  3
ObjectDBX Classes
 90
     1153
 91
        3
280
     0
281
     0
  0
CLASS
  1
SCALE
  2
AcDbScale
  3
ObjectDBX Classes
 90
     1153
 91
       33
280
     0
281
     0
  0
CLASS
  1
SUN
  2
AcDbSun
  3
SCENEOE
 90
     1153
 91
        1
280
     0
281
     0
  0
CLASS
  1
DICTIONARYVAR
  2
AcDbDictionaryVar
  3
ObjectDBX Classes
 90
        0
 91
        7
280
     0
281
     0
  0
CLASS
  1
TABLESTYLE
  2
AcDbTableStyle
  3
ObjectDBX Classes
 90
     4095
 91
        1
280
     0
281
     0
  0
CLASS
  1
MLEADERSTYLE
  2
AcDbMLeaderStyle
  3
ACDB_MLEADERSTYLE_CLASS
 90
     4095
 91
        1
280
     0
281
     0
  0
CLASS
  1
SORTENTSTABLE
  2
AcDbSortentsTable
  3
ObjectDBX Classes
 90
        0
 91
        1
280
     0
281
     0
  0
CLASS
  1
AEC_REFEDIT_STATUS_TRACKER
  2
AecDbRefEditStatusTracker
  3
AecArchBase70|Product Desc: Autodesk Architectural Desktop 2007 |Company: Autodesk,Inc. |WEB Address: www.autodesk.com
 90
      129
 91
        0
280
     0
281
     0
  0
CLASS
  1
NPOCOLLECTION
  2
AcDbImpNonPersistentObjectsCollection
  3
ObjectDBX Classes
 90
     1153
 91
        0
280
     0
281
     0
  0
CLASS
  1
ACDB_MTEXTOBJECTCONTEXTDATA_CLASS
  2
AcDbMTextObjectContextData
  3
ObjectDBX Classes
 90
     1153
 91
        0
280
     0
281
     0
  0
CLASS
  1
DIMASSOC
  2
AcDbDimAssoc
  3
"AcDbDimAssoc|Product Desc:     AcDim ARX App For Dimension|Company:          Autodesk, Inc.|WEB Address:      www.autodesk.com"
 90
        0
 91
        3
280
     0
281
     0
  0
CLASS
  1
CELLSTYLEMAP
  2
AcDbCellStyleMap
  3
ObjectDBX Classes
 90
     1152
 91
        2
280
     0
281
     0
  0
CLASS
  1
ACDBSECTIONVIEWSTYLE
  2
AcDbSectionViewStyle
  3
ObjectDBX Classes
 90
     1025
 91
        1
280
     0
281
     0
  0
CLASS
  1
ACDBDETAILVIEWSTYLE
  2
AcDbDetailViewStyle
  3
ObjectDBX Classes
 90
     1025
 91
        1
280
     0
281
     0
  0
ENDSEC
  0
SECTION
  2
TABLES
  0
TABLE
  2
VPORT
  5
8
330
0
100
AcDbSymbolTable
 70
     1
  0
VPORT
  5
29
330
8
100
AcDbSymbolTableRecord
100
AcDbViewportTableRecord
  2
*Active
 70
     0
 10
0.0
 20
0.0
 11
1.0
 21
1.0
 12
262.5099184712027
 22
371.2500099410329
 13
0.0
 23
0.0
 14
10.0
 24
10.0
 15
10.0
 25
10.0
 16
0.0
 26
0.0
 36
1.0
 17
0.0
 27
0.0
 37
0.0
 40
749.2957244847275
 41
2.464339908952958
 42
50.0
 43
0.0
 44
0.0
 50
0.0
 51
0.0
 71
     0
 72
  2000
 73
     1
 74
     3
 75
     0
 76
     0
 77
     0
 78
     0
281
     0
 65
     1
110
0.0
120
0.0
130
0.0
111
1.0
121
0.0
131
0.0
112
0.0
122
1.0
132
0.0
 79
     0
146
0.0
348
2F
 60
     3
 61
     5
292
     1
282
     1
141
0.0
142
0.0
 63
   250
361
69
1001
ACAD_NAV_VCDISPLAY
1070
     3
  0
ENDTAB
  0
TABLE
  2
LTYPE
  5
5
330
0
100
AcDbSymbolTable
 70
     6
  0
LTYPE
  5
14
330
5
100
AcDbSymbolTableRecord
100
AcDbLinetypeTableRecord
  2
ByBlock
 70
     0
  3

 72
    65
 73
     0
 40
0.0
  0
LTYPE
  5
15
330
5
100
AcDbSymbolTableRecord
100
AcDbLinetypeTableRecord
  2
ByLayer
 70
     0
  3

 72
    65
 73
     0
 40
0.0
  0
LTYPE
  5
16
330
5
100
AcDbSymbolTableRecord
100
AcDbLinetypeTableRecord
  2
Continuous
 70
     0
  3
Solid line
 72
    65
 73
     0
 40
0.0
  0
LTYPE
  5
6A
330
5
100
AcDbSymbolTableRecord
100
AcDbLinetypeTableRecord
  2
SLD-実線
 70
     0
  3
SolidWorks Line Style
 72
    65
 73
     0
 40
0.0
  0
LTYPE
  5
6496
330
5
100
AcDbSymbolTableRecord
100
AcDbLinetypeTableRecord
  2
CONTINOUS
 70
     0
  3
Solid line
 72
    65
 73
     0
 40
0.0
  0
LTYPE
  5
6497
330
5
100
AcDbSymbolTableRecord
100
AcDbLinetypeTableRecord
  2
DASHDOT
 70
     0
  3
__ . __ . __ . __ . __ . __ . __ . __ . __ . __
 72
    65
 73
     4
 40
1.0
 49
0.5
 74
     0
 49
-0.25
 74
     0
 49
0.0
 74
     0
 49
-0.25
 74
     0
  0
LTYPE
  5
6498
330
5
100
AcDbSymbolTableRecord
100
AcDbLinetypeTableRecord
  2
DIVIDE
 70
     0
  3
Divide ____ . . ____ . . ____ . . ____ . . ____
 72
    65
 73
     6
 40
1.25
 49
0.5
 74
     0
 49
-0.25
 74
     0
 49
0.0
 74
     0
 49
-0.25
 74
     0
 49
0.0
 74
     0
 49
-0.25
 74
     0
  0
LTYPE
  5
78D5
330
5
100
AcDbSymbolTableRecord
100
AcDbLinetypeTableRecord
  2
CENTER
 70
     0
  3
____ _ ____ _ ____ _ ____ _ ____ _ ____ _ ____
 72
    65
 73
     4
 40
0.6
 49
0.375
 74
     0
 49
-0.075
 74
     0
 49
0.075
 74
     0
 49
-0.075
 74
     0
  0
ENDTAB
  0
TABLE
  2
LAYER
  5
2
102
{ACAD_XDICTIONARY
360
5F3B
102
}
330
0
100
AcDbSymbolTable
 70
    13
  0
LAYER
  5
10
102
{ACAD_XDICTIONARY
360
59A9
102
}
330
2
100
AcDbSymbolTableRecord
100
AcDbLayerTableRecord
  2
0
 70
     0
 62
     7
  6
Continuous
370
    -3
390
F
347
46
348
0
  0
LAYER
  5
71
102
{ACAD_XDICTIONARY
360
59AB
102
}
330
2
100
AcDbSymbolTableRecord
100
AcDbLayerTableRecord
  2
SLD-0
 70
     0
 62
     9
  6
SLD-実線
370
    -3
390
F
347
46
348
0
  0
LAYER
  5
59BD
330
2
100
AcDbSymbolTableRecord
100
AcDbLayerTableRecord
  2
Defpoints
 70
     0
 62
     7
  6
Continuous
290
     0
370
    -3
390
F
347
46
348
0
  0
LAYER
  5
6499
102
{ACAD_XDICTIONARY
360
649A
102
}
330
2
100
AcDbSymbolTableRecord
100
AcDbLayerTableRecord
  2
16
 70
     0
 62
     6
  6
DASHDOT
370
    -3
390
F
347
46
348
0
  0
LAYER
  5
649B
102
{ACAD_XDICTIONARY
360
649C
102
}
330
2
100
AcDbSymbolTableRecord
100
AcDbLayerTableRecord
  2
30
 70
     0
 62
     9
  6
Continuous
370
    -3
390
F
347
46
348
0
  0
LAYER
  5
649D
102
{ACAD_XDICTIONARY
360
649E
102
}
330
2
100
AcDbSymbolTableRecord
100
AcDbLayerTableRecord
  2
18
 70
     0
 62
     5
  6
DIVIDE
370
    -3
390
F
347
46
348
0
  0
LAYER
  5
649F
102
{ACAD_XDICTIONARY
360
64A0
102
}
330
2
100
AcDbSymbolTableRecord
100
AcDbLayerTableRecord
  2
10
 70
     0
 62
     4
  6
Continuous
370
    -3
390
F
347
46
348
0
  0
LAYER
  5
64A1
102
{ACAD_XDICTIONARY
360
64A2
102
}
330
2
100
AcDbSymbolTableRecord
100
AcDbLayerTableRecord
  2
17
 70
     0
 62
     2
  6
DASHDOT
370
    -3
390
F
347
46
348
0
  0
LAYER
  5
64A3
330
2
100
AcDbSymbolTableRecord
100
AcDbLayerTableRecord
  2
22
 70
     0
 62
     3
  6
Continuous
370
    -3
390
F
347
46
348
0
  0
LAYER
  5
7307
102
{ACAD_XDICTIONARY
360
7308
102
}
330
2
100
AcDbSymbolTableRecord
100
AcDbLayerTableRecord
  2
240
 70
     0
 62
     7
  6
Continuous
370
    -3
390
F
347
46
348
0
  0
LAYER
  5
A2C0
102
{ACAD_XDICTIONARY
360
A2C1
102
}
330
2
100
AcDbSymbolTableRecord
100
AcDbLayerTableRecord
  2
12
 70
     0
 62
     3
  6
CONTINOUS
370
    -3
390
F
347
46
348
0
  0
LAYER
  5
A42E
330
2
100
AcDbSymbolTableRecord
100
AcDbLayerTableRecord
  2
19
 70
     0
 62
     7
  6
Continuous
370
    -3
390
F
347
46
348
0
1001
AcAecLayerStandard
1000

1000

1001
AcCmTransparency
1071
        0
  0
LAYER
  5
A431
330
2
100
AcDbSymbolTableRecord
100
AcDbLayerTableRecord
  2
24
 70
     0
 62
     7
  6
Continuous
370
    -3
390
F
347
46
348
0
1001
AcAecLayerStandard
1000

1000

1001
AcCmTransparency
1071
        0
  0
ENDTAB
  0
TABLE
  2
STYLE
  5
3
330
0
100
AcDbSymbolTable
 70
     3
  0
STYLE
  5
11
330
3
100
AcDbSymbolTableRecord
100
AcDbTextStyleTableRecord
  2
STANDARD
 70
     0
 40
0.0
 41
1.0
 50
0.0
 71
     0
 42
3.0
  3
MS UI Gothic.ttf
  4

1001
ACAD
1000
MS UI GOTHIC
1071
    32818
  0
STYLE
  5
203
330
3
100
AcDbSymbolTableRecord
100
AcDbTextStyleTableRecord
  2
SLDTEXTSTYLE0
 70
     0
 40
0.0
 41
1.0
 50
0.0
 71
     0
 42
3.0
  3
MS UI Gothic.ttf
  4

1001
ACAD
1000
MS UI Gothic
1071
      306
  0
STYLE
  5
64A5
330
3
100
AcDbSymbolTableRecord
100
AcDbTextStyleTableRecord
  2
blockfont
 70
     0
 40
0.0
 41
1.0
 50
0.0
 71
     0
 42
0.2
  3
simplex.shx
  4
bigfont
  0
ENDTAB
  0
TABLE
  2
VIEW
  5
6
330
0
100
AcDbSymbolTable
 70
     0
  0
ENDTAB
  0
TABLE
  2
UCS
  5
7
330
0
100
AcDbSymbolTable
 70
     0
  0
ENDTAB
  0
TABLE
  2
APPID
  5
9
330
0
100
AcDbSymbolTable
 70
    10
  0
APPID
  5
12
330
9
100
AcDbSymbolTableRecord
100
AcDbRegAppTableRecord
  2
ACAD
 70
     0
  0
APPID
  5
5C7A
330
9
100
AcDbSymbolTableRecord
100
AcDbRegAppTableRecord
  2
ACAD_DSTYLE_DIMJAG
 70
     0
  0
APPID
  5
5C7B
330
9
100
AcDbSymbolTableRecord
100
AcDbRegAppTableRecord
  2
ACAD_DSTYLE_DIMTALN
 70
     0
  0
APPID
  5
64A8
330
9
100
AcDbSymbolTableRecord
100
AcDbRegAppTableRecord
  2
ACAD_NAV_VCDISPLAY
 70
     0
  0
APPID
  5
6C84
330
9
100
AcDbSymbolTableRecord
100
AcDbRegAppTableRecord
  2
ACAD_DSTYLE_DIMRADIAL_EXTENSION
 70
     0
  0
APPID
  5
6C85
330
9
100
AcDbSymbolTableRecord
100
AcDbRegAppTableRecord
  2
AcadAnnotative
 70
     0
  0
APPID
  5
725A
330
9
100
AcDbSymbolTableRecord
100
AcDbRegAppTableRecord
  2
ACAD_EXEMPT_FROM_CAD_STANDARDS
 70
     0
  0
APPID
  5
730B
330
9
100
AcDbSymbolTableRecord
100
AcDbRegAppTableRecord
  2
ACAD_PSEXT
 70
     0
  0
APPID
  5
A42F
330
9
100
AcDbSymbolTableRecord
100
AcDbRegAppTableRecord
  2
AcAecLayerStandard
 70
     0
  0
APPID
  5
A430
330
9
100
AcDbSymbolTableRecord
100
AcDbRegAppTableRecord
  2
AcCmTransparency
 70
     0
  0
ENDTAB
  0
TABLE
  2
DIMSTYLE
  5
A
330
0
100
AcDbSymbolTable
 70
     2
100
AcDbDimStyleTable
 71
     2
340
64A6
340
64A7
  0
DIMSTYLE
105
64A6
102
{ACAD_REACTORS
330
65E8
330
65EA
330
661D
330
66D8
330
66D9
330
66DA
330
66DB
330
66DC
330
66DD
330
66DF
330
66E0
330
75C1
330
772D
330
77AC
330
79C8
330
79D6
330
79DD
330
79E0
330
79E8
330
9260
330
9284
330
9448
330
9449
330
944A
330
944B
330
944C
330
962A
330
962C
330
9735
330
79C9
330
6676
330
9BF8
330
A31A
330
A37C
330
9737
102
}
330
A
100
AcDbSymbolTableRecord
100
AcDbDimStyleTableRecord
  2
STANDARD
 70
     0
 41
2.0
 42
1.0
 43
0.5
 44
0.5
 69
     1
 73
     0
 74
     0
 77
     3
 78
    12
140
6.0
147
2.0
271
     1
272
     1
340
11
341
629D
342
629D
1001
ACAD_DSTYLE_DIMJAG
1070
   388
1040
1.5
1001
ACAD_DSTYLE_DIMTALN
1070
   392
1070
     0
  0
DIMSTYLE
105
64A7
102
{ACAD_REACTORS
330
962B
330
96B5
330
79C6
330
9B91
102
}
330
A
100
AcDbSymbolTableRecord
100
AcDbDimStyleTableRecord
  2
STANDARD1
 70
     0
 41
2.0
 42
3.0
 43
0.5
 44
0.5
 77
     3
 78
    12
140
6.0
147
2.0
172
     1
271
     8
272
     8
289
     2
340
11
341
629D
342
629D
1001
ACAD_DSTYLE_DIMJAG
1070
   388
1040
1.5
1001
ACAD_DSTYLE_DIMTALN
1070
   392
1070
     0
  0
ENDTAB
  0
TABLE
  2
BLOCK_RECORD
  5
1
330
0
100
AcDbSymbolTable
 70
    40
  0
BLOCK_RECORD
  5
1F
102
{ACAD_XDICTIONARY
360
72CC
102
}
330
1
100
AcDbSymbolTableRecord
100
AcDbBlockTableRecord
  2
*Model_Space
340
22
 70
     0
280
     1
281
     0
  0
BLOCK_RECORD
  5
1B
330
1
100
AcDbSymbolTableRecord
100
AcDbBlockTableRecord
  2
*Paper_Space
340
1E
 70
     0
280
     1
281
     0
  0
BLOCK_RECORD
  5
23
330
1
100
AcDbSymbolTableRecord
100
AcDbBlockTableRecord
  2
*Paper_Space0
340
26
 70
     0
280
     1
281
     0
  0
BLOCK_RECORD
  5
629D
330
1
100
AcDbSymbolTableRecord
100
AcDbBlockTableRecord
  2
_OPEN
340
0
102
{BLKREFS
331
A1EF
331
A181
331
A182
331
A18A
331
A18B
331
A193
331
A194
331
A3D3
331
A19C
331
A19D
331
A1A5
331
A1A6
331
A1C1
331
A1C2
331
A22E
331
A22F
331
A26B
331
A1F0
331
A279
331
A27A
331
A282
331
A283
331
A2A6
331
A2A7
331
A2AF
331
A2B0
331
A333
331
A334
331
A41E
331
A41F
331
A1F8
331
A1F9
331
A201
331
A202
331
A21C
331
A21D
331
A111
331
A112
331
A11C
331
A11D
331
A125
331
A126
331
A12E
331
A12F
331
A140
331
A141
331
A149
331
A14A
331
A153
331
A154
331
A15D
331
A15E
331
A166
331
A167
331
A16F
331
A170
331
A3DA
331
A3DB
331
A3E3
331
A3E4
331
A3EC
331
A3ED
331
A3A9
331
A3AA
331
A1CA
331
A1CB
331
A1D3
331
A1D4
331
A1DD
331
A1DE
331
A1E6
331
A1E7
102
}
 70
     0
280
     1
281
     0
  0
BLOCK_RECORD
  5
67A4
330
1
100
AcDbSymbolTableRecord
100
AcDbBlockTableRecord
  2
*D2
340
0
 70
     0
280
     1
281
     0
  0
BLOCK_RECORD
  5
67BC
330
1
100
AcDbSymbolTableRecord
100
AcDbBlockTableRecord
  2
*D3
340
0
 70
     0
280
     1
281
     0
  0
BLOCK_RECORD
  5
67EE
330
1
100
AcDbSymbolTableRecord
100
AcDbBlockTableRecord
  2
*D4
340
0
 70
     0
280
     1
281
     0
  0
BLOCK_RECORD
  5
687D
330
1
100
AcDbSymbolTableRecord
100
AcDbBlockTableRecord
  2
*D5
340
0
 70
     0
280
     1
281
     0
  0
BLOCK_RECORD
  5
68A2
330
1
100
AcDbSymbolTableRecord
100
AcDbBlockTableRecord
  2
*D6
340
0
 70
     0
280
     1
281
     0
  0
BLOCK_RECORD
  5
68AE
330
1
100
AcDbSymbolTableRecord
100
AcDbBlockTableRecord
  2
*D7
340
0
 70
     0
280
     1
281
     0
  0
BLOCK_RECORD
  5
68BA
330
1
100
AcDbSymbolTableRecord
100
AcDbBlockTableRecord
  2
*D8
340
0
 70
     0
280
     1
281
     0
  0
BLOCK_RECORD
  5
68C6
330
1
100
AcDbSymbolTableRecord
100
AcDbBlockTableRecord
  2
*D9
340
0
 70
     0
280
     1
281
     0
  0
BLOCK_RECORD
  5
68D2
330
1
100
AcDbSymbolTableRecord
100
AcDbBlockTableRecord
  2
*D10
340
0
 70
     0
280
     1
281
     0
  0
BLOCK_RECORD
  5
68DF
330
1
100
AcDbSymbolTableRecord
100
AcDbBlockTableRecord
  2
*D11
340
0
 70
     0
280
     1
281
     0
  0
BLOCK_RECORD
  5
68F9
330
1
100
AcDbSymbolTableRecord
100
AcDbBlockTableRecord
  2
*D12
340
0
 70
     0
280
     1
281
     0
  0
BLOCK_RECORD
  5
6905
330
1
100
AcDbSymbolTableRecord
100
AcDbBlockTableRecord
  2
*D13
340
0
 70
     0
280
     1
281
     0
  0
BLOCK_RECORD
  5
75C2
330
1
100
AcDbSymbolTableRecord
100
AcDbBlockTableRecord
  2
*D14
340
0
 70
     0
280
     1
281
     0
  0
BLOCK_RECORD
  5
772E
330
1
100
AcDbSymbolTableRecord
100
AcDbBlockTableRecord
  2
*D15
340
0
 70
     0
280
     1
281
     0
  0
BLOCK_RECORD
  5
77BD
330
1
100
AcDbSymbolTableRecord
100
AcDbBlockTableRecord
  2
*D16
340
0
 70
     0
280
     1
281
     0
  0
BLOCK_RECORD
  5
79ED
330
1
100
AcDbSymbolTableRecord
100
AcDbBlockTableRecord
  2
*D17
340
0
 70
     0
280
     1
281
     0
  0
BLOCK_RECORD
  5
79F9
330
1
100
AcDbSymbolTableRecord
100
AcDbBlockTableRecord
  2
*D18
340
0
 70
     0
280
     1
281
     0
  0
BLOCK_RECORD
  5
7A05
330
1
100
AcDbSymbolTableRecord
100
AcDbBlockTableRecord
  2
*D19
340
0
 70
     0
280
     1
281
     0
  0
BLOCK_RECORD
  5
7A11
330
1
100
AcDbSymbolTableRecord
100
AcDbBlockTableRecord
  2
*D20
340
0
 70
     0
280
     1
281
     0
  0
BLOCK_RECORD
  5
7A1D
330
1
100
AcDbSymbolTableRecord
100
AcDbBlockTableRecord
  2
*D21
340
0
 70
     0
280
     1
281
     0
  0
BLOCK_RECORD
  5
7A4E
330
1
100
AcDbSymbolTableRecord
100
AcDbBlockTableRecord
  2
*D22
340
0
 70
     0
280
     1
281
     0
  0
BLOCK_RECORD
  5
9261
330
1
100
AcDbSymbolTableRecord
100
AcDbBlockTableRecord
  2
*D23
340
0
 70
     0
280
     1
281
     0
  0
BLOCK_RECORD
  5
9285
330
1
100
AcDbSymbolTableRecord
100
AcDbBlockTableRecord
  2
*D24
340
0
 70
     0
280
     1
281
     0
  0
BLOCK_RECORD
  5
944F
330
1
100
AcDbSymbolTableRecord
100
AcDbBlockTableRecord
  2
*D25
340
0
 70
     0
280
     1
281
     0
  0
BLOCK_RECORD
  5
945B
330
1
100
AcDbSymbolTableRecord
100
AcDbBlockTableRecord
  2
*D26
340
0
 70
     0
280
     1
281
     0
  0
BLOCK_RECORD
  5
9468
330
1
100
AcDbSymbolTableRecord
100
AcDbBlockTableRecord
  2
*D27
340
0
 70
     0
280
     1
281
     0
  0
BLOCK_RECORD
  5
9474
330
1
100
AcDbSymbolTableRecord
100
AcDbBlockTableRecord
  2
*D28
340
0
 70
     0
280
     1
281
     0
  0
BLOCK_RECORD
  5
9480
330
1
100
AcDbSymbolTableRecord
100
AcDbBlockTableRecord
  2
*D29
340
0
 70
     0
280
     1
281
     0
  0
BLOCK_RECORD
  5
9639
330
1
100
AcDbSymbolTableRecord
100
AcDbBlockTableRecord
  2
*D30
340
0
 70
     0
280
     1
281
     0
  0
BLOCK_RECORD
  5
9645
330
1
100
AcDbSymbolTableRecord
100
AcDbBlockTableRecord
  2
*D31
340
0
 70
     0
280
     1
281
     0
  0
BLOCK_RECORD
  5
964E
330
1
100
AcDbSymbolTableRecord
100
AcDbBlockTableRecord
  2
*D32
340
0
 70
     0
280
     1
281
     0
  0
BLOCK_RECORD
  5
96CF
330
1
100
AcDbSymbolTableRecord
100
AcDbBlockTableRecord
  2
*D33
340
0
 70
     0
280
     1
281
     0
  0
BLOCK_RECORD
  5
9745
330
1
100
AcDbSymbolTableRecord
100
AcDbBlockTableRecord
  2
*D34
340
0
 70
     0
280
     1
281
     0
  0
BLOCK_RECORD
  5
9751
330
1
100
AcDbSymbolTableRecord
100
AcDbBlockTableRecord
  2
*D35
340
0
 70
     0
280
     1
281
     0
  0
BLOCK_RECORD
  5
9BF9
330
1
100
AcDbSymbolTableRecord
100
AcDbBlockTableRecord
  2
*D36
340
0
 70
     0
280
     1
281
     0
  0
BLOCK_RECORD
  5
A2B5
330
1
100
AcDbSymbolTableRecord
100
AcDbBlockTableRecord
  2
SW_CENTERMARKSYMBOL_18
340
0
102
{BLKREFS
331
A2D0
331
A2D1
102
}
 70
     0
280
     1
281
     0
  0
BLOCK_RECORD
  5
A31B
330
1
100
AcDbSymbolTableRecord
100
AcDbBlockTableRecord
  2
*D38
340
0
 70
     0
280
     1
281
     0
  0
BLOCK_RECORD
  5
A37D
330
1
100
AcDbSymbolTableRecord
100
AcDbBlockTableRecord
  2
*D39
340
0
 70
     0
280
     1
281
     0
  0
ENDTAB
  0
ENDSEC
  0
SECTION
  2
BLOCKS
  0
BLOCK
  5
20
330
1F
100
AcDbEntity
  8
0
100
AcDbBlockBegin
  2
*Model_Space
 70
     0
 10
0.0
 20
0.0
 30
0.0
  3
*Model_Space
  1
*Model_Space
  0
ENDBLK
  5
21
330
1F
100
AcDbEntity
  8
0
100
AcDbBlockEnd
  0
BLOCK
  5
1C
330
1B
100
AcDbEntity
 67
     1
  8
0
100
AcDbBlockBegin
  2
*Paper_Space
 70
     0
 10
0.0
 20
0.0
 30
0.0
  3
*Paper_Space
  1
*Paper_Space
  0
ENDBLK
  5
1D
330
1B
100
AcDbEntity
 67
     1
  8
0
100
AcDbBlockEnd
  0
BLOCK
  5
24
330
23
100
AcDbEntity
 67
     1
  8
0
100
AcDbBlockBegin
  2
*Paper_Space0
 70
     0
 10
0.0
 20
0.0
 30
0.0
  3
*Paper_Space0
  1
*Paper_Space0
  0
ENDBLK
  5
25
330
23
100
AcDbEntity
 67
     1
  8
0
100
AcDbBlockEnd
  0
BLOCK
  5
629E
330
629D
100
AcDbEntity
  8
0
100
AcDbBlockBegin
  2
_OPEN
 70
     0
 10
0.0
 20
0.0
 30
0.0
  3
_OPEN
  1

  0
LINE
  5
629F
330
629D
100
AcDbEntity
  8
30
  6
Continuous
 62
     0
100
AcDbLine
 10
-1.0
 20
0.166667
 30
0.0
 11
0.0
 21
0.0
 31
0.0
  0
LINE
  5
62A0
330
629D
100
AcDbEntity
  8
30
  6
Continuous
 62
     0
100
AcDbLine
 10
-1.0
 20
-0.166667
 30
0.0
 11
0.0
 21
0.0
 31
0.0
  0
LINE
  5
62A1
330
629D
100
AcDbEntity
  8
30
  6
Continuous
 62
     0
100
AcDbLine
 10
0.0
 20
0.0
 30
0.0
 11
-1.0
 21
0.0
 31
0.0
  0
ENDBLK
  5
62A2
330
629D
100
AcDbEntity
  8
0
100
AcDbBlockEnd
  0
BLOCK
  5
67A5
330
67A4
100
AcDbEntity
  8
0
100
AcDbBlockBegin
  2
*D2
 70
     1
 10
0.0
 20
0.0
 30
0.0
  3
*D2
  1

  0
LINE
  5
A10E
330
67A4
100
AcDbEntity
  8
30
  6
Continuous
 62
     0
440
 16777216
370
    -2
100
AcDbLine
 10
308.1105443194246
 20
407.2946805573553
 30
0.0
 11
270.5105443194248
 21
407.2946805573553
 31
0.0
  0
LINE
  5
A10F
330
67A4
100
AcDbEntity
  8
30
  6
Continuous
 62
     0
440
 16777216
370
    -2
100
AcDbLine
 10
308.1105443194246
 20
357.2946805573553
 30
0.0
 11
270.5105443194248
 21
357.2946805573553
 31
0.0
  0
LINE
  5
A110
330
67A4
100
AcDbEntity
  8
30
  6
Continuous
 62
     0
440
 16777216
370
    -2
100
AcDbLine
 10
271.0105443194249
 20
405.2946805573553
 30
0.0
 11
271.0105443194248
 21
359.2946805573553
 31
0.0
  0
INSERT
  5
A111
330
67A4
100
AcDbEntity
  8
30
  6
Continuous
 62
     0
440
 16777216
370
    -2
100
AcDbBlockReference
  2
_OPEN
 10
271.0105443194249
 20
407.2946805573553
 30
0.0
 41
2.0
 42
2.0
 43
2.0
 50
90.0
  0
INSERT
  5
A112
330
67A4
100
AcDbEntity
  8
30
  6
Continuous
 62
     0
440
 16777216
370
    -2
100
AcDbBlockReference
  2
_OPEN
 10
271.0105443194248
 20
357.2946805573553
 30
0.0
 41
2.0
 42
2.0
 43
2.0
 50
270.0
  0
MTEXT
  5
A113
330
67A4
100
AcDbEntity
  8
30
  6
Continuous
 62
     0
440
 16777216
100
AcDbMText
 10
266.0105443194248
 20
385.0671232583553
 30
0.0
 40
6.0
 41
0.0
 46
0.0
 71
     5
 72
     1
  1
\A1;50
 11
0.0000000000000001
 21
1.0
 31
0.0
 73
     1
 44
1.0
 90
        3
 63
     9
421
 13158600
 45
1.1
441
        0
  0
POINT
  5
A114
330
67A4
100
AcDbEntity
  8
Defpoints
  6
Continuous
 62
     0
440
 16777216
100
AcDbPoint
 10
309.1105443194245
 20
407.2946805573553
 30
0.0
  0
POINT
  5
A115
330
67A4
100
AcDbEntity
  8
Defpoints
  6
Continuous
 62
     0
440
 16777216
100
AcDbPoint
 10
309.1105443194245
 20
357.2946805573553
 30
0.0
  0
POINT
  5
A116
330
67A4
100
AcDbEntity
  8
Defpoints
  6
Continuous
 62
     0
440
 16777216
100
AcDbPoint
 10
271.0105443194248
 20
357.2946805573553
 30
0.0
  0
ENDBLK
  5
67A6
330
67A4
100
AcDbEntity
  8
0
100
AcDbBlockEnd
  0
BLOCK
  5
67BD
330
67BC
100
AcDbEntity
  8
0
100
AcDbBlockBegin
  2
*D3
 70
     1
 10
0.0
 20
0.0
 30
0.0
  3
*D3
  1

  0
LINE
  5
A117
330
67BC
100
AcDbEntity
  8
30
  6
Continuous
 62
     0
440
 16777216
370
    -2
100
AcDbLine
 10
483.8636754250243
 20
327.2946805573554
 30
0.0
 11
501.5105443194248
 21
327.2946805573554
 31
0.0
  0
LINE
  5
A118
330
67BC
100
AcDbEntity
  8
30
  6
Continuous
 62
     0
440
 16777216
370
    -2
100
AcDbLine
 10
483.8636754250243
 20
323.2946805573554
 30
0.0
 11
501.5105443194248
 21
323.2946805573554
 31
0.0
  0
LINE
  5
A119
330
67BC
100
AcDbEntity
  8
30
  6
Continuous
 62
     0
440
 16777216
370
    -2
100
AcDbLine
 10
501.0105443194245
 20
329.2946805573554
 30
0.0
 11
501.0105443194245
 21
331.2946805573554
 31
0.0
  0
LINE
  5
A11A
330
67BC
100
AcDbEntity
  8
30
  6
Continuous
 62
     0
440
 16777216
370
    -2
100
AcDbLine
 10
501.0105443194245
 20
321.2946805573554
 30
0.0
 11
501.0105443194245
 21
300.9026351028099
 31
0.0
  0
LINE
  5
A11B
330
67BC
100
AcDbEntity
  8
30
  6
Continuous
 62
     0
440
 16777216
370
    -2
100
AcDbLine
 10
501.0105443194245
 20
327.2946805573554
 30
0.0
 11
501.0105443194245
 21
323.2946805573554
 31
0.0
  0
INSERT
  5
A11C
330
67BC
100
AcDbEntity
  8
30
  6
Continuous
 62
     0
440
 16777216
370
    -2
100
AcDbBlockReference
  2
_OPEN
 10
501.0105443194245
 20
327.2946805573554
 30
0.0
 41
2.0
 42
2.0
 43
2.0
 50
270.0
  0
INSERT
  5
A11D
330
67BC
100
AcDbEntity
  8
30
  6
Continuous
 62
     0
440
 16777216
370
    -2
100
AcDbBlockReference
  2
_OPEN
 10
501.0105443194245
 20
323.2946805573554
 30
0.0
 41
2.0
 42
2.0
 43
2.0
 50
90.0
  0
MTEXT
  5
A11E
330
67BC
100
AcDbEntity
  8
30
  6
Continuous
 62
     0
440
 16777216
100
AcDbMText
 10
496.0105443194246
 20
304.7946805573555
 30
0.0
 40
6.0
 41
0.0
 46
0.0
 71
     5
 72
     1
  1
\A1;4
 11
0.0000000000000001
 21
1.0
 31
0.0
 73
     1
 44
1.0
 90
        3
 63
     9
421
 13158600
 45
1.1
441
        0
  0
POINT
  5
A11F
330
67BC
100
AcDbEntity
  8
Defpoints
  6
Continuous
 62
     0
440
 16777216
100
AcDbPoint
 10
482.8636754250243
 20
327.2946805573554
 30
0.0
  0
POINT
  5
A120
330
67BC
100
AcDbEntity
  8
Defpoints
  6
Continuous
 62
     0
440
 16777216
100
AcDbPoint
 10
482.8636754250243
 20
323.2946805573554
 30
0.0
  0
POINT
  5
A121
330
67BC
100
AcDbEntity
  8
Defpoints
  6
Continuous
 62
     0
440
 16777216
100
AcDbPoint
 10
501.0105443194245
 20
323.2946805573554
 30
0.0
  0
ENDBLK
  5
67BE
330
67BC
100
AcDbEntity
  8
0
100
AcDbBlockEnd
  0
BLOCK
  5
67EF
330
67EE
100
AcDbEntity
  8
0
100
AcDbBlockBegin
  2
*D4
 70
     1
 10
0.0
 20
0.0
 30
0.0
  3
*D4
  1

  0
LINE
  5
A122
330
67EE
100
AcDbEntity
  8
30
  6
Continuous
 62
     0
440
 16777216
370
    -2
100
AcDbLine
 10
490.8989932442636
 20
439.2946805573552
 30
0.0
 11
510.3989932442637
 21
439.2946805573552
 31
0.0
  0
LINE
  5
A123
330
67EE
100
AcDbEntity
  8
30
  6
Continuous
 62
     0
440
 16777216
370
    -2
100
AcDbLine
 10
490.8989932442636
 20
325.2946805573554
 30
0.0
 11
510.3989932442637
 21
325.2946805573554
 31
0.0
  0
LINE
  5
A124
330
67EE
100
AcDbEntity
  8
30
  6
Continuous
 62
     0
440
 16777216
370
    -2
100
AcDbLine
 10
509.8989932442637
 20
437.2946805573553
 30
0.0
 11
509.8989932442637
 21
327.2946805573554
 31
0.0
  0
INSERT
  5
A125
330
67EE
100
AcDbEntity
  8
30
  6
Continuous
 62
     0
440
 16777216
370
    -2
100
AcDbBlockReference
  2
_OPEN
 10
509.8989932442637
 20
439.2946805573552
 30
0.0
 41
2.0
 42
2.0
 43
2.0
 50
90.0
  0
INSERT
  5
A126
330
67EE
100
AcDbEntity
  8
30
  6
Continuous
 62
     0
440
 16777216
370
    -2
100
AcDbBlockReference
  2
_OPEN
 10
509.8989932442637
 20
325.2946805573554
 30
0.0
 41
2.0
 42
2.0
 43
2.0
 50
270.0
  0
MTEXT
  5
A127
330
67EE
100
AcDbEntity
  8
30
  6
Continuous
 62
     0
440
 16777216
100
AcDbMText
 10
504.8989932442636
 20
382.2946805573553
 30
0.0
 40
6.0
 41
0.0
 46
0.0
 71
     5
 72
     1
  1
\A1;114
 11
0.0000000000000001
 21
1.0
 31
0.0
 73
     1
 44
1.0
 90
        3
 63
     9
421
 13158600
 45
1.1
441
        0
  0
POINT
  5
A128
330
67EE
100
AcDbEntity
  8
Defpoints
  6
Continuous
 62
     0
440
 16777216
100
AcDbPoint
 10
489.8989932442637
 20
439.2946805573552
 30
0.0
  0
POINT
  5
A129
330
67EE
100
AcDbEntity
  8
Defpoints
  6
Continuous
 62
     0
440
 16777216
100
AcDbPoint
 10
489.8989932442637
 20
325.2946805573554
 30
0.0
  0
POINT
  5
A12A
330
67EE
100
AcDbEntity
  8
Defpoints
  6
Continuous
 62
     0
440
 16777216
100
AcDbPoint
 10
509.8989932442637
 20
325.2946805573554
 30
0.0
  0
ENDBLK
  5
67F0
330
67EE
100
AcDbEntity
  8
0
100
AcDbBlockEnd
  0
BLOCK
  5
687E
330
687D
100
AcDbEntity
  8
0
100
AcDbBlockBegin
  2
*D5
 70
     1
 10
0.0
 20
0.0
 30
0.0
  3
*D5
  1

  0
LINE
  5
A2AC
330
687D
100
AcDbEntity
  8
30
 62
     0
440
 16777216
370
    -2
100
AcDbLine
 10
81.19467563323745
 20
356.3865392301367
 30
0.0
 11
81.19467563323745
 21
342.6666961440742
 31
0.0
  0
LINE
  5
A2AD
330
687D
100
AcDbEntity
  8
30
 62
     0
440
 16777216
370
    -2
100
AcDbLine
 10
165.1946756332374
 20
356.3865392301367
 30
0.0
 11
165.1946756332374
 21
342.6666961440742
 31
0.0
  0
LINE
  5
A2AE
330
687D
100
AcDbEntity
  8
30
 62
     0
440
 16777216
370
    -2
100
AcDbLine
 10
83.19467563323746
 20
343.1666961440742
 30
0.0
 11
163.1946756332374
 21
343.1666961440742
 31
0.0
  0
INSERT
  5
A2AF
330
687D
100
AcDbEntity
  8
30
 62
     0
440
 16777216
370
    -2
100
AcDbBlockReference
  2
_OPEN
 10
81.19467563323745
 20
343.1666961440742
 30
0.0
 41
2.0
 42
2.0
 43
2.0
 50
180.0
  0
INSERT
  5
A2B0
330
687D
100
AcDbEntity
  8
30
 62
     0
440
 16777216
370
    -2
100
AcDbBlockReference
  2
_OPEN
 10
165.1946756332374
 20
343.1666961440742
 30
0.0
 41
2.0
 42
2.0
 43
2.0
  0
MTEXT
  5
A2B1
330
687D
100
AcDbEntity
  8
30
 62
     0
440
 16777216
100
AcDbMText
 10
123.1946756332374
 20
348.1666961440742
 30
0.0
 40
6.0
 41
0.0
 46
0.0
 71
     5
 72
     1
  1
\A1;84
 73
     1
 44
1.0
 90
        3
 63
     9
421
 13158600
 45
1.1
441
        0
  0
POINT
  5
A2B2
330
687D
100
AcDbEntity
  8
Defpoints
 62
     0
440
 16777216
100
AcDbPoint
 10
81.19467563323745
 20
357.3865392301367
 30
0.0
  0
POINT
  5
A2B3
330
687D
100
AcDbEntity
  8
Defpoints
 62
     0
440
 16777216
100
AcDbPoint
 10
165.1946756332374
 20
357.3865392301367
 30
0.0
  0
POINT
  5
A2B4
330
687D
100
AcDbEntity
  8
Defpoints
 62
     0
440
 16777216
100
AcDbPoint
 10
165.1946756332374
 20
343.1666961440742
 30
0.0
  0
ENDBLK
  5
687F
330
687D
100
AcDbEntity
  8
0
100
AcDbBlockEnd
  0
BLOCK
  5
68A3
330
68A2
100
AcDbEntity
  8
0
100
AcDbBlockBegin
  2
*D6
 70
     1
 10
0.0
 20
0.0
 30
0.0
  3
*D6
  1

  0
LINE
  5
A12B
330
68A2
100
AcDbEntity
  8
30
  6
Continuous
 62
     0
440
 16777216
370
    -2
100
AcDbLine
 10
153.162745467764
 20
652.1411216191424
 30
0.0
 11
153.162745467764
 21
717.5725690048461
 31
0.0
  0
LINE
  5
A12C
330
68A2
100
AcDbEntity
  8
30
  6
Continuous
 62
     0
440
 16777216
370
    -2
100
AcDbLine
 10
123.0288173079649
 20
702.0716410781883
 30
0.0
 11
123.0288173079649
 21
717.5725690048461
 31
0.0
  0
LINE
  5
A12D
330
68A2
100
AcDbEntity
  8
30
  6
Continuous
 62
     0
440
 16777216
370
    -2
100
AcDbLine
 10
151.162745467764
 20
717.0725690048461
 30
0.0
 11
125.0288173079649
 21
717.0725690048461
 31
0.0
  0
INSERT
  5
A12E
330
68A2
100
AcDbEntity
  8
30
  6
Continuous
 62
     0
440
 16777216
370
    -2
100
AcDbBlockReference
  2
_OPEN
 10
153.162745467764
 20
717.0725690048461
 30
0.0
 41
2.0
 42
2.0
 43
2.0
  0
INSERT
  5
A12F
330
68A2
100
AcDbEntity
  8
30
  6
Continuous
 62
     0
440
 16777216
370
    -2
100
AcDbBlockReference
  2
_OPEN
 10
123.0288173079649
 20
717.0725690048461
 30
0.0
 41
2.0
 42
2.0
 43
2.0
 50
180.0
  0
MTEXT
  5
A130
330
68A2
100
AcDbEntity
  8
30
  6
Continuous
 62
     0
440
 16777216
100
AcDbMText
 10
135.1538558069047
 20
722.0725690048461
 30
0.0
 40
6.0
 41
0.0
 46
0.0
 71
     5
 72
     1
  1
\A1;30
 73
     1
 44
1.0
 90
        3
 63
     9
421
 13158600
 45
1.1
441
        0
  0
POINT
  5
A131
330
68A2
100
AcDbEntity
  8
Defpoints
  6
Continuous
 62
     0
440
 16777216
100
AcDbPoint
 10
153.162745467764
 20
651.1411216191422
 30
0.0
  0
POINT
  5
A132
330
68A2
100
AcDbEntity
  8
Defpoints
  6
Continuous
 62
     0
440
 16777216
100
AcDbPoint
 10
123.0288173079649
 20
701.0716410781883
 30
0.0
  0
POINT
  5
A133
330
68A2
100
AcDbEntity
  8
Defpoints
  6
Continuous
 62
     0
440
 16777216
100
AcDbPoint
 10
123.0288173079649
 20
717.0725690048461
 30
0.0
  0
ENDBLK
  5
68A4
330
68A2
100
AcDbEntity
  8
0
100
AcDbBlockEnd
  0
BLOCK
  5
68AF
330
68AE
100
AcDbEntity
  8
0
100
AcDbBlockBegin
  2
*D7
 70
     1
 10
0.0
 20
0.0
 30
0.0
  3
*D7
  1

  0
LINE
  5
A41B
330
68AE
100
AcDbEntity
  8
30
  6
Continuous
 62
     0
440
 16777216
370
    -2
100
AcDbLine
 10
92.94598867246271
 20
639.3959728258262
 30
0.0
 11
92.94598867246271
 21
717.5810857901332
 31
0.0
  0
LINE
  5
A41C
330
68AE
100
AcDbEntity
  8
30
  6
Continuous
 62
     0
440
 16777216
370
    -2
100
AcDbLine
 10
123.0288175699292
 20
702.0716410781883
 30
0.0
 11
123.0288175699292
 21
717.5810857901332
 31
0.0
  0
LINE
  5
A41D
330
68AE
100
AcDbEntity
  8
30
  6
Continuous
 62
     0
440
 16777216
370
    -2
100
AcDbLine
 10
94.94598867246272
 20
717.0810857901332
 30
0.0
 11
121.0288175699292
 21
717.0810857901332
 31
0.0
  0
INSERT
  5
A41E
330
68AE
100
AcDbEntity
  8
30
  6
Continuous
 62
     0
440
 16777216
370
    -2
100
AcDbBlockReference
  2
_OPEN
 10
92.94598867246271
 20
717.0810857901332
 30
0.0
 41
2.0
 42
2.0
 43
2.0
 50
180.0
  0
INSERT
  5
A41F
330
68AE
100
AcDbEntity
  8
30
  6
Continuous
 62
     0
440
 16777216
370
    -2
100
AcDbBlockReference
  2
_OPEN
 10
123.0288175699292
 20
717.0810857901332
 30
0.0
 41
2.0
 42
2.0
 43
2.0
  0
MTEXT
  5
A420
330
68AE
100
AcDbEntity
  8
30
  6
Continuous
 62
     0
440
 16777216
100
AcDbMText
 10
110.204956416425
 20
722.0810857901332
 30
0.0
 40
6.0
 41
0.0
 46
0.0
 71
     5
 72
     1
  1
\A1;30
 73
     1
 44
1.0
 90
        3
 63
     9
421
 13158600
 45
1.1
441
        0
  0
POINT
  5
A421
330
68AE
100
AcDbEntity
  8
Defpoints
  6
Continuous
 62
     0
440
 16777216
100
AcDbPoint
 10
92.94598867246271
 20
638.3959728258262
 30
0.0
  0
POINT
  5
A422
330
68AE
100
AcDbEntity
  8
Defpoints
  6
Continuous
 62
     0
440
 16777216
100
AcDbPoint
 10
123.0288175699292
 20
701.0716410781883
 30
0.0
  0
POINT
  5
A423
330
68AE
100
AcDbEntity
  8
Defpoints
  6
Continuous
 62
     0
440
 16777216
100
AcDbPoint
 10
123.0288175699292
 20
717.0810857901332
 30
0.0
  0
ENDBLK
  5
68B0
330
68AE
100
AcDbEntity
  8
0
100
AcDbBlockEnd
  0
BLOCK
  5
68BB
330
68BA
100
AcDbEntity
  8
0
100
AcDbBlockBegin
  2
*D8
 70
     1
 10
0.0
 20
0.0
 30
0.0
  3
*D8
  1

  0
LINE
  5
A13D
330
68BA
100
AcDbEntity
  8
30
  6
Continuous
 62
     0
440
 16777216
370
    -2
100
AcDbLine
 10
82.05570491162495
 20
636.0810857901333
 30
0.0
 11
72.20495641642505
 21
636.0810857901333
 31
0.0
  0
LINE
  5
A13E
330
68BA
100
AcDbEntity
  8
30
  6
Continuous
 62
     0
440
 16777216
370
    -2
100
AcDbLine
 10
84.20495641642503
 20
599.0810857901331
 30
0.0
 11
72.20495641642505
 21
599.0810857901331
 31
0.0
  0
LINE
  5
A13F
330
68BA
100
AcDbEntity
  8
30
  6
Continuous
 62
     0
440
 16777216
370
    -2
100
AcDbLine
 10
72.70495641642504
 20
634.0810857901333
 30
0.0
 11
72.70495641642503
 21
601.0810857901333
 31
0.0
  0
INSERT
  5
A140
330
68BA
100
AcDbEntity
  8
30
  6
Continuous
 62
     0
440
 16777216
370
    -2
100
AcDbBlockReference
  2
_OPEN
 10
72.70495641642504
 20
636.0810857901333
 30
0.0
 41
2.0
 42
2.0
 43
2.0
 50
90.0
  0
INSERT
  5
A141
330
68BA
100
AcDbEntity
  8
30
  6
Continuous
 62
     0
440
 16777216
370
    -2
100
AcDbBlockReference
  2
_OPEN
 10
72.70495641642503
 20
599.0810857901331
 30
0.0
 41
2.0
 42
2.0
 43
2.0
 50
270.0
  0
MTEXT
  5
A142
330
68BA
100
AcDbEntity
  8
30
  6
Continuous
 62
     0
440
 16777216
100
AcDbMText
 10
67.70495641642495
 20
617.5810857901333
 30
0.0
 40
6.0
 41
0.0
 46
0.0
 71
     5
 72
     1
  1
\A1;37
 11
0.0000000000000001
 21
1.0
 31
0.0
 73
     1
 44
1.0
 90
        3
 63
     9
421
 13158600
 45
1.1
441
        0
  0
POINT
  5
A143
330
68BA
100
AcDbEntity
  8
Defpoints
  6
Continuous
 62
     0
440
 16777216
100
AcDbPoint
 10
83.05570491162496
 20
636.0810857901333
 30
0.0
  0
POINT
  5
A144
330
68BA
100
AcDbEntity
  8
Defpoints
  6
Continuous
 62
     0
440
 16777216
100
AcDbPoint
 10
85.20495641642503
 20
599.0810857901331
 30
0.0
  0
POINT
  5
A145
330
68BA
100
AcDbEntity
  8
Defpoints
  6
Continuous
 62
     0
440
 16777216
100
AcDbPoint
 10
72.70495641642503
 20
599.0810857901331
 30
0.0
  0
ENDBLK
  5
68BC
330
68BA
100
AcDbEntity
  8
0
100
AcDbBlockEnd
  0
BLOCK
  5
68C7
330
68C6
100
AcDbEntity
  8
0
100
AcDbBlockBegin
  2
*D9
 70
     1
 10
0.0
 20
0.0
 30
0.0
  3
*D9
  1

  0
LINE
  5
A146
330
68C6
100
AcDbEntity
  8
30
  6
Continuous
 62
     0
440
 16777216
370
    -2
100
AcDbLine
 10
96.70495641642503
 20
651.0810857901333
 30
0.0
 11
62.20495641642504
 21
651.0810857901333
 31
0.0
  0
LINE
  5
A147
330
68C6
100
AcDbEntity
  8
30
  6
Continuous
 62
     0
440
 16777216
370
    -2
100
AcDbLine
 10
84.20495641642503
 20
599.0810857901331
 30
0.0
 11
62.20495641642504
 21
599.0810857901331
 31
0.0
  0
LINE
  5
A148
330
68C6
100
AcDbEntity
  8
30
  6
Continuous
 62
     0
440
 16777216
370
    -2
100
AcDbLine
 10
62.70495641642503
 20
649.0810857901331
 30
0.0
 11
62.70495641642503
 21
601.0810857901333
 31
0.0
  0
INSERT
  5
A149
330
68C6
100
AcDbEntity
  8
30
  6
Continuous
 62
     0
440
 16777216
370
    -2
100
AcDbBlockReference
  2
_OPEN
 10
62.70495641642503
 20
651.0810857901333
 30
0.0
 41
2.0
 42
2.0
 43
2.0
 50
90.0
  0
INSERT
  5
A14A
330
68C6
100
AcDbEntity
  8
30
  6
Continuous
 62
     0
440
 16777216
370
    -2
100
AcDbBlockReference
  2
_OPEN
 10
62.70495641642503
 20
599.0810857901331
 30
0.0
 41
2.0
 42
2.0
 43
2.0
 50
270.0
  0
MTEXT
  5
A14B
330
68C6
100
AcDbEntity
  8
30
  6
Continuous
 62
     0
440
 16777216
100
AcDbMText
 10
57.70495641642494
 20
625.0810857901333
 30
0.0
 40
6.0
 41
0.0
 46
0.0
 71
     5
 72
     1
  1
\A1;52
 11
0.0000000000000001
 21
1.0
 31
0.0
 73
     1
 44
1.0
 90
        3
 63
     9
421
 13158600
 45
1.1
441
        0
  0
POINT
  5
A14C
330
68C6
100
AcDbEntity
  8
Defpoints
  6
Continuous
 62
     0
440
 16777216
100
AcDbPoint
 10
97.70495641642504
 20
651.0810857901333
 30
0.0
  0
POINT
  5
A14D
330
68C6
100
AcDbEntity
  8
Defpoints
  6
Continuous
 62
     0
440
 16777216
100
AcDbPoint
 10
85.20495641642503
 20
599.0810857901331
 30
0.0
  0
POINT
  5
A14E
330
68C6
100
AcDbEntity
  8
Defpoints
  6
Continuous
 62
     0
440
 16777216
100
AcDbPoint
 10
62.70495641642503
 20
599.0810857901331
 30
0.0
  0
ENDBLK
  5
68C8
330
68C6
100
AcDbEntity
  8
0
100
AcDbBlockEnd
  0
BLOCK
  5
68D3
330
68D2
100
AcDbEntity
  8
0
100
AcDbBlockBegin
  2
*D10
 70
     1
 10
0.0
 20
0.0
 30
0.0
  3
*D10
  1

  0
LINE
  5
A14F
330
68D2
100
AcDbEntity
  8
30
  6
Continuous
 62
     0
440
 16777216
370
    -2
100
AcDbLine
 10
140.924839602406
 20
606.1207496432817
 30
0.0
 11
216.7006987779528
 21
606.1207496432817
 31
0.0
  0
LINE
  5
A150
330
68D2
100
AcDbEntity
  8
30
  6
Continuous
 62
     0
440
 16777216
370
    -2
100
AcDbLine
 10
199.1972855906546
 20
599.0810857901331
 30
0.0
 11
216.7006987779528
 21
599.0810857901331
 31
0.0
  0
LINE
  5
A151
330
68D2
100
AcDbEntity
  8
30
  6
Continuous
 62
     0
440
 16777216
370
    -2
100
AcDbLine
 10
216.2006987779528
 20
597.0810857901333
 30
0.0
 11
216.2006987779528
 21
595.0810857901331
 31
0.0
  0
LINE
  5
A152
330
68D2
100
AcDbEntity
  8
30
  6
Continuous
 62
     0
440
 16777216
370
    -2
100
AcDbLine
 10
216.2006987779528
 20
608.1207496432817
 30
0.0
 11
216.2006987779528
 21
619.4004039719515
 31
0.0
  0
INSERT
  5
A153
330
68D2
100
AcDbEntity
  8
30
  6
Continuous
 62
     0
440
 16777216
370
    -2
100
AcDbBlockReference
  2
_OPEN
 10
216.2006987779528
 20
599.0810857901331
 30
0.0
 41
2.0
 42
2.0
 43
2.0
 50
90.0
  0
INSERT
  5
A154
330
68D2
100
AcDbEntity
  8
30
  6
Continuous
 62
     0
440
 16777216
370
    -2
100
AcDbBlockReference
  2
_OPEN
 10
216.2006987779528
 20
606.1207496432817
 30
0.0
 41
2.0
 42
2.0
 43
2.0
 50
270.0
  0
MTEXT
  5
A155
330
68D2
100
AcDbEntity
  8
30
  6
Continuous
 62
     0
440
 16777216
100
AcDbMText
 10
211.2006987779527
 20
615.7810857901332
 30
0.0
 40
6.0
 41
0.0
 46
0.0
 71
     5
 72
     1
  1
\A1;7
 11
0.0000000000000001
 21
1.0
 31
0.0
 73
     1
 44
1.0
 90
        3
 63
     9
421
 13158600
 45
1.1
441
        0
  0
POINT
  5
A156
330
68D2
100
AcDbEntity
  8
Defpoints
  6
Continuous
 62
     0
440
 16777216
100
AcDbPoint
 10
139.924839602406
 20
606.1207496432817
 30
0.0
  0
POINT
  5
A157
330
68D2
100
AcDbEntity
  8
Defpoints
  6
Continuous
 62
     0
440
 16777216
100
AcDbPoint
 10
198.1972855906546
 20
599.0810857901331
 30
0.0
  0
POINT
  5
A158
330
68D2
100
AcDbEntity
  8
Defpoints
  6
Continuous
 62
     0
440
 16777216
100
AcDbPoint
 10
216.2006987779528
 20
599.0810857901331
 30
0.0
  0
ENDBLK
  5
68D4
330
68D2
100
AcDbEntity
  8
0
100
AcDbBlockEnd
  0
BLOCK
  5
68E0
330
68DF
100
AcDbEntity
  8
0
100
AcDbBlockBegin
  2
*D11
 70
     1
 10
0.0
 20
0.0
 30
0.0
  3
*D11
  1

  0
LINE
  5
A159
330
68DF
100
AcDbEntity
  8
30
  6
Continuous
 62
     0
440
 16777216
370
    -2
100
AcDbLine
 10
148.3301105359085
 20
642.7250590044187
 30
0.0
 11
170.6692627898417
 21
642.7250590044187
 31
0.0
  0
LINE
  5
A15A
330
68DF
100
AcDbEntity
  8
30
  6
Continuous
 62
     0
440
 16777216
370
    -2
100
AcDbLine
 10
148.7402738979319
 20
630.1728456903945
 30
0.0
 11
170.6692627898417
 21
630.1728456903945
 31
0.0
  0
LINE
  5
A15B
330
68DF
100
AcDbEntity
  8
30
  6
Continuous
 62
     0
440
 16777216
370
    -2
100
AcDbLine
 10
170.1692627898417
 20
640.7250590044188
 30
0.0
 11
170.1692627898417
 21
632.1728456903945
 31
0.0
  0
LINE
  5
A15C
330
68DF
100
AcDbEntity
  8
30
  6
Continuous
 62
     0
440
 16777216
370
    -2
100
AcDbLine
 10
170.1692627898417
 20
630.1728456903945
 30
0.0
 11
170.1692627898417
 21
610.6728456903945
 31
0.0
  0
INSERT
  5
A15D
330
68DF
100
AcDbEntity
  8
30
  6
Continuous
 62
     0
440
 16777216
370
    -2
100
AcDbBlockReference
  2
_OPEN
 10
170.1692627898417
 20
642.7250590044187
 30
0.0
 41
2.0
 42
2.0
 43
2.0
 50
90.0
  0
INSERT
  5
A15E
330
68DF
100
AcDbEntity
  8
30
  6
Continuous
 62
     0
440
 16777216
370
    -2
100
AcDbBlockReference
  2
_OPEN
 10
170.1692627898417
 20
630.1728456903945
 30
0.0
 41
2.0
 42
2.0
 43
2.0
 50
270.0
  0
MTEXT
  5
A15F
330
68DF
100
AcDbEntity
  8
30
  6
Continuous
 62
     0
440
 16777216
100
AcDbMText
 10
165.1692627898416
 20
619.4228456903945
 30
0.0
 40
6.0
 41
0.0
 46
0.0
 71
     5
 72
     1
  1
\A1;12.5
 11
0.0000000000000001
 21
1.0
 31
0.0
 73
     1
 44
1.0
 90
        3
 63
     9
421
 13158600
 45
1.1
441
        0
  0
POINT
  5
A160
330
68DF
100
AcDbEntity
  8
Defpoints
  6
Continuous
 62
     0
440
 16777216
100
AcDbPoint
 10
147.3301105359086
 20
642.7250590044187
 30
0.0
  0
POINT
  5
A161
330
68DF
100
AcDbEntity
  8
Defpoints
  6
Continuous
 62
     0
440
 16777216
100
AcDbPoint
 10
147.7402738979319
 20
630.1728456903945
 30
0.0
  0
POINT
  5
A162
330
68DF
100
AcDbEntity
  8
Defpoints
  6
Continuous
 62
     0
440
 16777216
100
AcDbPoint
 10
170.1692627898417
 20
630.1728456903945
 30
0.0
  0
ENDBLK
  5
68E1
330
68DF
100
AcDbEntity
  8
0
100
AcDbBlockEnd
  0
BLOCK
  5
68FA
330
68F9
100
AcDbEntity
  8
0
100
AcDbBlockBegin
  2
*D12
 70
     1
 10
0.0
 20
0.0
 30
0.0
  3
*D12
  1

  0
LINE
  5
A163
330
68F9
100
AcDbEntity
  8
30
  6
Continuous
 62
     0
440
 16777216
370
    -2
100
AcDbLine
 10
104.9702968344251
 20
686.0810857901333
 30
0.0
 11
52.20495641642505
 21
686.0810857901333
 31
0.0
  0
LINE
  5
A164
330
68F9
100
AcDbEntity
  8
30
  6
Continuous
 62
     0
440
 16777216
370
    -2
100
AcDbLine
 10
84.20495641642503
 20
599.0810857901331
 30
0.0
 11
52.20495641642504
 21
599.0810857901331
 31
0.0
  0
LINE
  5
A165
330
68F9
100
AcDbEntity
  8
30
  6
Continuous
 62
     0
440
 16777216
370
    -2
100
AcDbLine
 10
52.70495641642503
 20
684.0810857901333
 30
0.0
 11
52.70495641642503
 21
601.0810857901333
 31
0.0
  0
INSERT
  5
A166
330
68F9
100
AcDbEntity
  8
30
  6
Continuous
 62
     0
440
 16777216
370
    -2
100
AcDbBlockReference
  2
_OPEN
 10
52.70495641642503
 20
686.0810857901333
 30
0.0
 41
2.0
 42
2.0
 43
2.0
 50
90.0
  0
INSERT
  5
A167
330
68F9
100
AcDbEntity
  8
30
  6
Continuous
 62
     0
440
 16777216
370
    -2
100
AcDbBlockReference
  2
_OPEN
 10
52.70495641642503
 20
599.0810857901331
 30
0.0
 41
2.0
 42
2.0
 43
2.0
 50
270.0
  0
MTEXT
  5
A168
330
68F9
100
AcDbEntity
  8
30
  6
Continuous
 62
     0
440
 16777216
100
AcDbMText
 10
47.70495641642494
 20
642.5810857901333
 30
0.0
 40
6.0
 41
0.0
 46
0.0
 71
     5
 72
     1
  1
\A1;87
 11
0.0000000000000001
 21
1.0
 31
0.0
 73
     1
 44
1.0
 90
        3
 63
     9
421
 13158600
 45
1.1
441
        0
  0
POINT
  5
A169
330
68F9
100
AcDbEntity
  8
Defpoints
  6
Continuous
 62
     0
440
 16777216
100
AcDbPoint
 10
105.9702968344251
 20
686.0810857901333
 30
0.0
  0
POINT
  5
A16A
330
68F9
100
AcDbEntity
  8
Defpoints
  6
Continuous
 62
     0
440
 16777216
100
AcDbPoint
 10
85.20495641642503
 20
599.0810857901331
 30
0.0
  0
POINT
  5
A16B
330
68F9
100
AcDbEntity
  8
Defpoints
  6
Continuous
 62
     0
440
 16777216
100
AcDbPoint
 10
52.70495641642503
 20
599.0810857901331
 30
0.0
  0
ENDBLK
  5
68FB
330
68F9
100
AcDbEntity
  8
0
100
AcDbBlockEnd
  0
BLOCK
  5
6906
330
6905
100
AcDbEntity
  8
0
100
AcDbBlockBegin
  2
*D13
 70
     1
 10
0.0
 20
0.0
 30
0.0
  3
*D13
  1

  0
LINE
  5
A16C
330
6905
100
AcDbEntity
  8
30
  6
Continuous
 62
     0
440
 16777216
370
    -2
100
AcDbLine
 10
121.704956416425
 20
701.0810857901332
 30
0.0
 11
42.20495641642506
 21
701.0810857901332
 31
0.0
  0
LINE
  5
A16D
330
6905
100
AcDbEntity
  8
30
  6
Continuous
 62
     0
440
 16777216
370
    -2
100
AcDbLine
 10
84.20495641642503
 20
599.0810857901331
 30
0.0
 11
42.20495641642503
 21
599.0810857901331
 31
0.0
  0
LINE
  5
A16E
330
6905
100
AcDbEntity
  8
30
  6
Continuous
 62
     0
440
 16777216
370
    -2
100
AcDbLine
 10
42.70495641642503
 20
699.0810857901331
 30
0.0
 11
42.70495641642503
 21
601.0810857901333
 31
0.0
  0
INSERT
  5
A16F
330
6905
100
AcDbEntity
  8
30
  6
Continuous
 62
     0
440
 16777216
370
    -2
100
AcDbBlockReference
  2
_OPEN
 10
42.70495641642503
 20
701.0810857901332
 30
0.0
 41
2.0
 42
2.0
 43
2.0
 50
90.0
  0
INSERT
  5
A170
330
6905
100
AcDbEntity
  8
30
  6
Continuous
 62
     0
440
 16777216
370
    -2
100
AcDbBlockReference
  2
_OPEN
 10
42.70495641642503
 20
599.0810857901331
 30
0.0
 41
2.0
 42
2.0
 43
2.0
 50
270.0
  0
MTEXT
  5
A171
330
6905
100
AcDbEntity
  8
30
  6
Continuous
 62
     0
440
 16777216
100
AcDbMText
 10
37.70495641642494
 20
650.0810857901333
 30
0.0
 40
6.0
 41
0.0
 46
0.0
 71
     5
 72
     1
  1
\A1;102
 11
0.0000000000000001
 21
1.0
 31
0.0
 73
     1
 44
1.0
 90
        3
 63
     9
421
 13158600
 45
1.1
441
        0
  0
POINT
  5
A172
330
6905
100
AcDbEntity
  8
Defpoints
  6
Continuous
 62
     0
440
 16777216
100
AcDbPoint
 10
122.704956416425
 20
701.0810857901332
 30
0.0
  0
POINT
  5
A173
330
6905
100
AcDbEntity
  8
Defpoints
  6
Continuous
 62
     0
440
 16777216
100
AcDbPoint
 10
85.20495641642503
 20
599.0810857901331
 30
0.0
  0
POINT
  5
A174
330
6905
100
AcDbEntity
  8
Defpoints
  6
Continuous
 62
     0
440
 16777216
100
AcDbPoint
 10
42.70495641642503
 20
599.0810857901331
 30
0.0
  0
ENDBLK
  5
6907
330
6905
100
AcDbEntity
  8
0
100
AcDbBlockEnd
  0
BLOCK
  5
75C3
330
75C2
100
AcDbEntity
  8
0
100
AcDbBlockBegin
  2
*D14
 70
     1
 10
0.0
 20
0.0
 30
0.0
  3
*D14
  1

  0
LINE
  5
A2A3
330
75C2
100
AcDbEntity
  8
30
 62
     0
440
 16777216
370
    -2
100
AcDbLine
 10
112.1716549249718
 20
405.3988990251956
 30
0.0
 11
112.1716549249718
 21
413.9572498724633
 31
0.0
  0
LINE
  5
A2A4
330
75C2
100
AcDbEntity
  8
30
 62
     0
440
 16777216
370
    -2
100
AcDbLine
 10
134.217958741161
 20
405.3988990251956
 30
0.0
 11
134.217958741161
 21
413.9572498724633
 31
0.0
  0
LINE
  5
A2A5
330
75C2
100
AcDbEntity
  8
30
 62
     0
440
 16777216
370
    -2
100
AcDbLine
 10
114.1716549249718
 20
413.4572498724633
 30
0.0
 11
132.217958741161
 21
413.4572498724633
 31
0.0
  0
INSERT
  5
A2A6
330
75C2
100
AcDbEntity
  8
30
 62
     0
440
 16777216
370
    -2
100
AcDbBlockReference
  2
_OPEN
 10
112.1716549249718
 20
413.4572498724633
 30
0.0
 41
2.0
 42
2.0
 43
2.0
 50
180.0
  0
INSERT
  5
A2A7
330
75C2
100
AcDbEntity
  8
30
 62
     0
440
 16777216
370
    -2
100
AcDbBlockReference
  2
_OPEN
 10
134.217958741161
 20
413.4572498724633
 30
0.0
 41
2.0
 42
2.0
 43
2.0
  0
MTEXT
  5
A2A8
330
75C2
100
AcDbEntity
  8
30
 62
     0
440
 16777216
100
AcDbMText
 10
123.1948068330664
 20
418.4572498724633
 30
0.0
 40
6.0
 41
0.0
 46
0.0
 71
     5
 72
     1
  1
\A1;22
 73
     1
 44
1.0
 90
        3
 63
     9
421
 13158600
 45
1.1
441
        0
  0
POINT
  5
A2A9
330
75C2
100
AcDbEntity
  8
Defpoints
 62
     0
440
 16777216
100
AcDbPoint
 10
112.1716549249718
 20
404.3988990251953
 30
0.0
  0
POINT
  5
A2AA
330
75C2
100
AcDbEntity
  8
Defpoints
 62
     0
440
 16777216
100
AcDbPoint
 10
134.217958741161
 20
404.3988990251953
 30
0.0
  0
POINT
  5
A2AB
330
75C2
100
AcDbEntity
  8
Defpoints
 62
     0
440
 16777216
100
AcDbPoint
 10
134.217958741161
 20
413.4572498724633
 30
0.0
  0
ENDBLK
  5
75C4
330
75C2
100
AcDbEntity
  8
0
100
AcDbBlockEnd
  0
BLOCK
  5
772F
330
772E
100
AcDbEntity
  8
0
100
AcDbBlockBegin
  2
*D15
 70
     1
 10
0.0
 20
0.0
 30
0.0
  3
*D15
  1

  0
LINE
  5
A17E
330
772E
100
AcDbEntity
  8
30
 62
     0
440
 16777216
370
    -2
100
AcDbLine
 10
123.214026662083
 20
447.3661293207372
 30
0.0
 11
60.59787052520832
 21
447.3661293207372
 31
0.0
  0
LINE
  5
A17F
330
772E
100
AcDbEntity
  8
30
 62
     0
440
 16777216
370
    -2
100
AcDbLine
 10
101.6223399769511
 20
317.36617178278
 30
0.0
 11
60.59787052520828
 21
317.36617178278
 31
0.0
  0
LINE
  5
A180
330
772E
100
AcDbEntity
  8
30
 62
     0
440
 16777216
370
    -2
100
AcDbLine
 10
61.09787052520831
 20
445.3661293207371
 30
0.0
 11
61.09787052520829
 21
319.36617178278
 31
0.0
  0
INSERT
  5
A181
330
772E
100
AcDbEntity
  8
30
 62
     0
440
 16777216
370
    -2
100
AcDbBlockReference
  2
_OPEN
 10
61.09787052520831
 20
447.3661293207372
 30
0.0
 41
2.0
 42
2.0
 43
2.0
 50
90.0
  0
INSERT
  5
A182
330
772E
100
AcDbEntity
  8
30
 62
     0
440
 16777216
370
    -2
100
AcDbBlockReference
  2
_OPEN
 10
61.09787052520829
 20
317.36617178278
 30
0.0
 41
2.0
 42
2.0
 43
2.0
 50
270.0
  0
MTEXT
  5
A183
330
772E
100
AcDbEntity
  8
30
 62
     0
440
 16777216
100
AcDbMText
 10
56.09787052520822
 20
380.6681853317227
 30
0.0
 40
6.0
 41
0.0
 46
0.0
 71
     5
 72
     1
  1
\A1;130
 11
0.0000000000000001
 21
1.0
 31
0.0
 73
     1
 44
1.0
 90
        3
 63
     9
421
 13158600
 45
1.1
441
        0
  0
POINT
  5
A184
330
772E
100
AcDbEntity
  8
Defpoints
 62
     0
440
 16777216
100
AcDbPoint
 10
124.214026662083
 20
447.3661293207372
 30
0.0
  0
POINT
  5
A185
330
772E
100
AcDbEntity
  8
Defpoints
 62
     0
440
 16777216
100
AcDbPoint
 10
102.6223399769511
 20
317.36617178278
 30
0.0
  0
POINT
  5
A186
330
772E
100
AcDbEntity
  8
Defpoints
 62
     0
440
 16777216
100
AcDbPoint
 10
61.09787052520829
 20
317.36617178278
 30
0.0
  0
ENDBLK
  5
7730
330
772E
100
AcDbEntity
  8
0
100
AcDbBlockEnd
  0
BLOCK
  5
77BE
330
77BD
100
AcDbEntity
  8
0
100
AcDbBlockBegin
  2
*D16
 70
     1
 10
0.0
 20
0.0
 30
0.0
  3
*D16
  1

  0
LINE
  5
A187
330
77BD
100
AcDbEntity
  8
30
  6
Continuous
 62
     0
440
 16777216
370
    -2
100
AcDbLine
 10
153.162745467764
 20
652.1411216191424
 30
0.0
 11
153.162745467764
 21
717.6411216191425
 31
0.0
  0
LINE
  5
A188
330
77BD
100
AcDbEntity
  8
30
  6
Continuous
 62
     0
440
 16777216
370
    -2
100
AcDbLine
 10
183.2455746270928
 20
702.1316769071975
 30
0.0
 11
183.2455746270928
 21
717.6411216191425
 31
0.0
  0
LINE
  5
A189
330
77BD
100
AcDbEntity
  8
30
  6
Continuous
 62
     0
440
 16777216
370
    -2
100
AcDbLine
 10
155.162745467764
 20
717.1411216191422
 30
0.0
 11
181.2455746270929
 21
717.1411216191422
 31
0.0
  0
INSERT
  5
A18A
330
77BD
100
AcDbEntity
  8
30
  6
Continuous
 62
     0
440
 16777216
370
    -2
100
AcDbBlockReference
  2
_OPEN
 10
153.162745467764
 20
717.1411216191422
 30
0.0
 41
2.0
 42
2.0
 43
2.0
 50
180.0
  0
INSERT
  5
A18B
330
77BD
100
AcDbEntity
  8
30
  6
Continuous
 62
     0
440
 16777216
370
    -2
100
AcDbBlockReference
  2
_OPEN
 10
183.2455746270928
 20
717.1411216191422
 30
0.0
 41
2.0
 42
2.0
 43
2.0
  0
MTEXT
  5
A18C
330
77BD
100
AcDbEntity
  8
30
  6
Continuous
 62
     0
440
 16777216
100
AcDbMText
 10
170.4217134735887
 20
722.1411216191425
 30
0.0
 40
6.0
 41
0.0
 46
0.0
 71
     5
 72
     1
  1
\A1;30
 73
     1
 44
1.0
 90
        3
 63
     9
421
 13158600
 45
1.1
441
        0
  0
POINT
  5
A18D
330
77BD
100
AcDbEntity
  8
Defpoints
  6
Continuous
 62
     0
440
 16777216
100
AcDbPoint
 10
153.162745467764
 20
651.1411216191422
 30
0.0
  0
POINT
  5
A18E
330
77BD
100
AcDbEntity
  8
Defpoints
  6
Continuous
 62
     0
440
 16777216
100
AcDbPoint
 10
183.2455746270928
 20
701.1316769071973
 30
0.0
  0
POINT
  5
A18F
330
77BD
100
AcDbEntity
  8
Defpoints
  6
Continuous
 62
     0
440
 16777216
100
AcDbPoint
 10
183.2455746270928
 20
717.1411216191422
 30
0.0
  0
ENDBLK
  5
77BF
330
77BD
100
AcDbEntity
  8
0
100
AcDbBlockEnd
  0
BLOCK
  5
79EE
330
79ED
100
AcDbEntity
  8
0
100
AcDbBlockBegin
  2
*D17
 70
     1
 10
0.0
 20
0.0
 30
0.0
  3
*D17
  1

  0
LINE
  5
A190
330
79ED
100
AcDbEntity
  8
30
 62
     0
440
 16777216
370
    -2
100
AcDbLine
 10
75.12469493735522
 20
207.6463080715022
 30
0.0
 11
36.67733101588171
 21
207.6463080715023
 31
0.0
  0
LINE
  5
A191
330
79ED
100
AcDbEntity
  8
30
 62
     0
440
 16777216
370
    -2
100
AcDbLine
 10
103.0367467781535
 20
96.60278666376644
 30
0.0
 11
36.67733101588169
 21
96.60278666376648
 31
0.0
  0
LINE
  5
A192
330
79ED
100
AcDbEntity
  8
30
 62
     0
440
 16777216
370
    -2
100
AcDbLine
 10
37.17733101588172
 20
205.6463080715023
 30
0.0
 11
37.17733101588168
 21
98.60278666376643
 31
0.0
  0
INSERT
  5
A193
330
79ED
100
AcDbEntity
  8
30
 62
     0
440
 16777216
370
    -2
100
AcDbBlockReference
  2
_OPEN
 10
37.17733101588172
 20
207.6463080715023
 30
0.0
 41
2.0
 42
2.0
 43
2.0
 50
90.0
  0
INSERT
  5
A194
330
79ED
100
AcDbEntity
  8
30
 62
     0
440
 16777216
370
    -2
100
AcDbBlockReference
  2
_OPEN
 10
37.17733101588168
 20
96.60278666376648
 30
0.0
 41
2.0
 42
2.0
 43
2.0
 50
270.0
  0
MTEXT
  5
A195
330
79ED
100
AcDbEntity
  8
30
 62
     0
440
 16777216
100
AcDbMText
 10
32.17733101588168
 20
152.1245473676343
 30
0.0
 40
6.0
 41
0.0
 46
0.0
 71
     5
 72
     1
  1
\A1;111
 11
0.0000000000000001
 21
1.0
 31
0.0
 73
     1
 44
1.0
 90
        3
 63
     9
421
 13158600
 45
1.1
441
        0
  0
POINT
  5
A196
330
79ED
100
AcDbEntity
  8
Defpoints
 62
     0
440
 16777216
100
AcDbPoint
 10
76.12469493735523
 20
207.6463080715022
 30
0.0
  0
POINT
  5
A197
330
79ED
100
AcDbEntity
  8
Defpoints
 62
     0
440
 16777216
100
AcDbPoint
 10
104.0367467781535
 20
96.60278666376644
 30
0.0
  0
POINT
  5
A198
330
79ED
100
AcDbEntity
  8
Defpoints
 62
     0
440
 16777216
100
AcDbPoint
 10
37.17733101588168
 20
96.60278666376648
 30
0.0
  0
ENDBLK
  5
79EF
330
79ED
100
AcDbEntity
  8
0
100
AcDbBlockEnd
  0
BLOCK
  5
79FA
330
79F9
100
AcDbEntity
  8
0
100
AcDbBlockBegin
  2
*D18
 70
     1
 10
0.0
 20
0.0
 30
0.0
  3
*D18
  1

  0
LINE
  5
A219
330
79F9
100
AcDbEntity
  8
30
 62
     0
440
 16777216
370
    -2
100
AcDbLine
 10
78.13719081857573
 20
202.1181923387562
 30
0.0
 11
78.13719081857572
 21
59.58394393300955
 31
0.0
  0
LINE
  5
A21A
330
79F9
100
AcDbEntity
  8
30
 62
     0
440
 16777216
370
    -2
100
AcDbLine
 10
108.1246290368826
 20
91.07467093102036
 30
0.0
 11
108.1246290368826
 21
59.58394393300955
 31
0.0
  0
LINE
  5
A21B
330
79F9
100
AcDbEntity
  8
30
 62
     0
440
 16777216
370
    -2
100
AcDbLine
 10
80.13719081857571
 20
60.08394393300955
 30
0.0
 11
106.1246290368826
 21
60.08394393300955
 31
0.0
  0
INSERT
  5
A21C
330
79F9
100
AcDbEntity
  8
30
 62
     0
440
 16777216
370
    -2
100
AcDbBlockReference
  2
_OPEN
 10
78.13719081857572
 20
60.08394393300955
 30
0.0
 41
2.0
 42
2.0
 43
2.0
 50
180.0
  0
INSERT
  5
A21D
330
79F9
100
AcDbEntity
  8
30
 62
     0
440
 16777216
370
    -2
100
AcDbBlockReference
  2
_OPEN
 10
108.1246290368826
 20
60.08394393300955
 30
0.0
 41
2.0
 42
2.0
 43
2.0
  0
MTEXT
  5
A21E
330
79F9
100
AcDbEntity
  8
30
 62
     0
440
 16777216
100
AcDbMText
 10
93.13090992772918
 20
65.08394393300955
 30
0.0
 40
6.0
 41
0.0
 46
0.0
 71
     5
 72
     1
  1
\A1;30
 73
     1
 44
1.0
 90
        3
 63
     9
421
 13158600
 45
1.1
441
        0
  0
POINT
  5
A21F
330
79F9
100
AcDbEntity
  8
Defpoints
 62
     0
440
 16777216
100
AcDbPoint
 10
78.13719081857573
 20
203.1181923387562
 30
0.0
  0
POINT
  5
A220
330
79F9
100
AcDbEntity
  8
Defpoints
 62
     0
440
 16777216
100
AcDbPoint
 10
108.1246290368826
 20
92.07467093102035
 30
0.0
  0
POINT
  5
A221
330
79F9
100
AcDbEntity
  8
Defpoints
 62
     0
440
 16777216
100
AcDbPoint
 10
108.1246290368826
 20
60.08394393300955
 30
0.0
  0
ENDBLK
  5
79FB
330
79F9
100
AcDbEntity
  8
0
100
AcDbBlockEnd
  0
BLOCK
  5
7A06
330
7A05
100
AcDbEntity
  8
0
100
AcDbBlockBegin
  2
*D19
 70
     1
 10
0.0
 20
0.0
 30
0.0
  3
*D19
  1

  0
LINE
  5
A199
330
7A05
100
AcDbEntity
  8
30
 62
     0
440
 16777216
370
    -2
100
AcDbLine
 10
49.07627948391382
 20
209.0995473676344
 30
0.0
 11
21.42820737229389
 21
209.0995473676344
 31
0.0
  0
LINE
  5
A19A
330
7A05
100
AcDbEntity
  8
30
 62
     0
440
 16777216
370
    -2
100
AcDbLine
 10
51.03230492126478
 20
95.09954537476028
 30
0.0
 11
21.42820737229387
 21
95.0995453747603
 31
0.0
  0
LINE
  5
A19B
330
7A05
100
AcDbEntity
  8
30
 62
     0
440
 16777216
370
    -2
100
AcDbLine
 10
21.92820737229389
 20
207.0995473676344
 30
0.0
 11
21.92820737229387
 21
97.09954537476029
 31
0.0
  0
INSERT
  5
A19C
330
7A05
100
AcDbEntity
  8
30
 62
     0
440
 16777216
370
    -2
100
AcDbBlockReference
  2
_OPEN
 10
21.92820737229389
 20
209.0995473676344
 30
0.0
 41
2.0
 42
2.0
 43
2.0
 50
90.0
  0
INSERT
  5
A19D
330
7A05
100
AcDbEntity
  8
30
 62
     0
440
 16777216
370
    -2
100
AcDbBlockReference
  2
_OPEN
 10
21.92820737229387
 20
95.0995453747603
 30
0.0
 41
2.0
 42
2.0
 43
2.0
 50
270.0
  0
MTEXT
  5
A19E
330
7A05
100
AcDbEntity
  8
30
 62
     0
440
 16777216
100
AcDbMText
 10
16.92820737229385
 20
152.0995463711972
 30
0.0
 40
6.0
 41
0.0
 46
0.0
 71
     5
 72
     1
  1
\A1;114
 11
0.0000000000000001
 21
1.0
 31
0.0
 73
     1
 44
1.0
 90
        3
 63
     9
421
 13158600
 45
1.1
441
        0
  0
POINT
  5
A19F
330
7A05
100
AcDbEntity
  8
Defpoints
 62
     0
440
 16777216
100
AcDbPoint
 10
50.07627948391382
 20
209.0995473676344
 30
0.0
  0
POINT
  5
A1A0
330
7A05
100
AcDbEntity
  8
Defpoints
 62
     0
440
 16777216
100
AcDbPoint
 10
52.03230492126476
 20
95.09954537476028
 30
0.0
  0
POINT
  5
A1A1
330
7A05
100
AcDbEntity
  8
Defpoints
 62
     0
440
 16777216
100
AcDbPoint
 10
21.92820737229387
 20
95.0995453747603
 30
0.0
  0
ENDBLK
  5
7A07
330
7A05
100
AcDbEntity
  8
0
100
AcDbBlockEnd
  0
BLOCK
  5
7A12
330
7A11
100
AcDbEntity
  8
0
100
AcDbBlockBegin
  2
*D20
 70
     1
 10
0.0
 20
0.0
 30
0.0
  3
*D20
  1

  0
LINE
  5
A27F
330
7A11
100
AcDbEntity
  8
30
 62
     0
440
 16777216
370
    -2
100
AcDbLine
 10
93.14598867246271
 20
55.69417068578172
 30
0.0
 11
93.14598867246271
 21
49.05207469803008
 31
0.0
  0
LINE
  5
A280
330
7A11
100
AcDbEntity
  8
30
 62
     0
440
 16777216
370
    -2
100
AcDbLine
 10
123.1309099277289
 20
82.59954537476028
 30
0.0
 11
123.1309099277289
 21
49.05207469803008
 31
0.0
  0
LINE
  5
A281
330
7A11
100
AcDbEntity
  8
30
 62
     0
440
 16777216
370
    -2
100
AcDbLine
 10
95.14598867246276
 20
49.55207469803008
 30
0.0
 11
121.1309099277289
 21
49.55207469803008
 31
0.0
  0
INSERT
  5
A282
330
7A11
100
AcDbEntity
  8
30
 62
     0
440
 16777216
370
    -2
100
AcDbBlockReference
  2
_OPEN
 10
93.14598867246271
 20
49.55207469803008
 30
0.0
 41
2.0
 42
2.0
 43
2.0
 50
180.0
  0
INSERT
  5
A283
330
7A11
100
AcDbEntity
  8
30
 62
     0
440
 16777216
370
    -2
100
AcDbBlockReference
  2
_OPEN
 10
123.1309099277289
 20
49.55207469803008
 30
0.0
 41
2.0
 42
2.0
 43
2.0
  0
MTEXT
  5
A284
330
7A11
100
AcDbEntity
  8
30
 62
     0
440
 16777216
100
AcDbMText
 10
108.1384493000958
 20
54.55207469803008
 30
0.0
 40
6.0
 41
0.0
 46
0.0
 71
     5
 72
     1
  1
\A1;30
 73
     1
 44
1.0
 90
        3
 63
     9
421
 13158600
 45
1.1
441
        0
  0
POINT
  5
A285
330
7A11
100
AcDbEntity
  8
Defpoints
 62
     0
440
 16777216
100
AcDbPoint
 10
93.14598867246271
 20
56.69417068578173
 30
0.0
  0
POINT
  5
A286
330
7A11
100
AcDbEntity
  8
Defpoints
 62
     0
440
 16777216
100
AcDbPoint
 10
123.1309099277289
 20
83.59954537476028
 30
0.0
  0
POINT
  5
A287
330
7A11
100
AcDbEntity
  8
Defpoints
 62
     0
440
 16777216
100
AcDbPoint
 10
123.1309099277289
 20
49.55207469803008
 30
0.0
  0
ENDBLK
  5
7A13
330
7A11
100
AcDbEntity
  8
0
100
AcDbBlockEnd
  0
BLOCK
  5
7A1E
330
7A1D
100
AcDbEntity
  8
0
100
AcDbBlockBegin
  2
*D21
 70
     1
 10
0.0
 20
0.0
 30
0.0
  3
*D21
  1

  0
LINE
  5
A276
330
7A1D
100
AcDbEntity
  8
30
 62
     0
440
 16777216
370
    -2
100
AcDbLine
 10
63.14598867246274
 20
94.09954537476028
 30
0.0
 11
63.14598867246274
 21
49.05207469803008
 31
0.0
  0
LINE
  5
A277
330
7A1D
100
AcDbEntity
  8
30
 62
     0
440
 16777216
370
    -2
100
AcDbLine
 10
93.1309099277289
 20
56.07954927250194
 30
0.0
 11
93.1309099277289
 21
49.05207469803008
 31
0.0
  0
LINE
  5
A278
330
7A1D
100
AcDbEntity
  8
30
 62
     0
440
 16777216
370
    -2
100
AcDbLine
 10
65.14598867246275
 20
49.55207469803008
 30
0.0
 11
91.13090992772892
 21
49.55207469803008
 31
0.0
  0
INSERT
  5
A279
330
7A1D
100
AcDbEntity
  8
30
 62
     0
440
 16777216
370
    -2
100
AcDbBlockReference
  2
_OPEN
 10
63.14598867246274
 20
49.55207469803008
 30
0.0
 41
2.0
 42
2.0
 43
2.0
 50
180.0
  0
INSERT
  5
A27A
330
7A1D
100
AcDbEntity
  8
30
 62
     0
440
 16777216
370
    -2
100
AcDbBlockReference
  2
_OPEN
 10
93.1309099277289
 20
49.55207469803008
 30
0.0
 41
2.0
 42
2.0
 43
2.0
  0
MTEXT
  5
A27B
330
7A1D
100
AcDbEntity
  8
30
 62
     0
440
 16777216
100
AcDbMText
 10
78.13844930009583
 20
54.55207469803008
 30
0.0
 40
6.0
 41
0.0
 46
0.0
 71
     5
 72
     1
  1
\A1;30
 73
     1
 44
1.0
 90
        3
 63
     9
421
 13158600
 45
1.1
441
        0
  0
POINT
  5
A27C
330
7A1D
100
AcDbEntity
  8
Defpoints
 62
     0
440
 16777216
100
AcDbPoint
 10
63.14598867246274
 20
95.09954537476028
 30
0.0
  0
POINT
  5
A27D
330
7A1D
100
AcDbEntity
  8
Defpoints
 62
     0
440
 16777216
100
AcDbPoint
 10
93.1309099277289
 20
57.07954927250193
 30
0.0
  0
POINT
  5
A27E
330
7A1D
100
AcDbEntity
  8
Defpoints
 62
     0
440
 16777216
100
AcDbPoint
 10
93.1309099277289
 20
49.55207469803008
 30
0.0
  0
ENDBLK
  5
7A1F
330
7A1D
100
AcDbEntity
  8
0
100
AcDbBlockEnd
  0
BLOCK
  5
7A4F
330
7A4E
100
AcDbEntity
  8
0
100
AcDbBlockBegin
  2
*D22
 70
     1
 10
0.0
 20
0.0
 30
0.0
  3
*D22
  1

  0
LINE
  5
A1A2
330
7A4E
100
AcDbEntity
  8
30
 62
     0
440
 16777216
370
    -2
100
AcDbLine
 10
123.1309099277289
 20
94.09954537476028
 30
0.0
 11
123.1309099277289
 21
49.05207469803008
 31
0.0
  0
LINE
  5
A1A3
330
7A4E
100
AcDbEntity
  8
30
 62
     0
440
 16777216
370
    -2
100
AcDbLine
 10
153.1308904586122
 20
82.59954537476028
 30
0.0
 11
153.1308904586122
 21
49.05207469803008
 31
0.0
  0
LINE
  5
A1A4
330
7A4E
100
AcDbEntity
  8
30
 62
     0
440
 16777216
370
    -2
100
AcDbLine
 10
125.1309099277289
 20
49.55207469803008
 30
0.0
 11
151.1308904586122
 21
49.55207469803008
 31
0.0
  0
INSERT
  5
A1A5
330
7A4E
100
AcDbEntity
  8
30
 62
     0
440
 16777216
370
    -2
100
AcDbBlockReference
  2
_OPEN
 10
123.1309099277289
 20
49.55207469803008
 30
0.0
 41
2.0
 42
2.0
 43
2.0
 50
180.0
  0
INSERT
  5
A1A6
330
7A4E
100
AcDbEntity
  8
30
 62
     0
440
 16777216
370
    -2
100
AcDbBlockReference
  2
_OPEN
 10
153.1308904586122
 20
49.55207469803008
 30
0.0
 41
2.0
 42
2.0
 43
2.0
  0
MTEXT
  5
A1A7
330
7A4E
100
AcDbEntity
  8
30
 62
     0
440
 16777216
100
AcDbMText
 10
138.1309001931705
 20
54.55207469803008
 30
0.0
 40
6.0
 41
0.0
 46
0.0
 71
     5
 72
     1
  1
\A1;30
 73
     1
 44
1.0
 90
        3
 63
     9
421
 13158600
 45
1.1
441
        0
  0
POINT
  5
A1A8
330
7A4E
100
AcDbEntity
  8
Defpoints
 62
     0
440
 16777216
100
AcDbPoint
 10
123.1309099277289
 20
95.09954537476028
 30
0.0
  0
POINT
  5
A1A9
330
7A4E
100
AcDbEntity
  8
Defpoints
 62
     0
440
 16777216
100
AcDbPoint
 10
153.1308904586122
 20
83.59954537476028
 30
0.0
  0
POINT
  5
A1AA
330
7A4E
100
AcDbEntity
  8
Defpoints
 62
     0
440
 16777216
100
AcDbPoint
 10
153.1308904586122
 20
49.55207469803008
 30
0.0
  0
ENDBLK
  5
7A50
330
7A4E
100
AcDbEntity
  8
0
100
AcDbBlockEnd
  0
BLOCK
  5
9262
330
9261
100
AcDbEntity
  8
0
100
AcDbBlockBegin
  2
*D23
 70
     1
 10
0.0
 20
0.0
 30
0.0
  3
*D23
  1

  0
LINE
  5
A1BD
330
9261
100
AcDbEntity
  8
30
  6
Continuous
 62
     0
440
 16777216
370
    -2
100
AcDbLine
 10
148.944874240119
 20
637.14119875444
 30
0.0
 11
148.944874240119
 21
657.1766608285424
 31
0.0
  0
LINE
  5
A1BE
330
9261
100
AcDbEntity
  8
30
  6
Continuous
 62
     0
440
 16777216
370
    -2
100
AcDbLine
 10
157.4828192915701
 20
637.14119875444
 30
0.0
 11
157.4828192915701
 21
657.1766608285424
 31
0.0
  0
LINE
  5
A1BF
330
9261
100
AcDbEntity
  8
30
  6
Continuous
 62
     0
440
 16777216
370
    -2
100
AcDbLine
 10
150.944874240119
 20
656.6766608285425
 30
0.0
 11
155.4828192915701
 21
656.6766608285425
 31
0.0
  0
LINE
  5
A1C0
330
9261
100
AcDbEntity
  8
30
  6
Continuous
 62
     0
440
 16777216
370
    -2
100
AcDbLine
 10
157.4828192915701
 20
656.6766608285425
 30
0.0
 11
174.4702013806506
 21
656.6766608285425
 31
0.0
  0
INSERT
  5
A1C1
330
9261
100
AcDbEntity
  8
30
  6
Continuous
 62
     0
440
 16777216
370
    -2
100
AcDbBlockReference
  2
_OPEN
 10
148.944874240119
 20
656.6766608285425
 30
0.0
 41
2.0
 42
2.0
 43
2.0
 50
180.0
  0
INSERT
  5
A1C2
330
9261
100
AcDbEntity
  8
30
  6
Continuous
 62
     0
440
 16777216
370
    -2
100
AcDbBlockReference
  2
_OPEN
 10
157.4828192915701
 20
656.6766608285425
 30
0.0
 41
2.0
 42
2.0
 43
2.0
  0
MTEXT
  5
A1C3
330
9261
100
AcDbEntity
  8
30
  6
Continuous
 62
     0
440
 16777216
100
AcDbMText
 10
167.6463377442869
 20
661.6766608285423
 30
0.0
 40
6.0
 41
0.0
 46
0.0
 71
     5
 72
     1
  1
\A1;8.5
 73
     1
 44
1.0
 90
        3
 63
     9
421
 13158600
 45
1.1
441
        0
  0
POINT
  5
A1C4
330
9261
100
AcDbEntity
  8
Defpoints
  6
Continuous
 62
     0
440
 16777216
100
AcDbPoint
 10
148.944874240119
 20
636.14119875444
 30
0.0
  0
POINT
  5
A1C5
330
9261
100
AcDbEntity
  8
Defpoints
  6
Continuous
 62
     0
440
 16777216
100
AcDbPoint
 10
157.4828192915701
 20
636.14119875444
 30
0.0
  0
POINT
  5
A1C6
330
9261
100
AcDbEntity
  8
Defpoints
  6
Continuous
 62
     0
440
 16777216
100
AcDbPoint
 10
157.4828192915701
 20
656.6766608285425
 30
0.0
  0
ENDBLK
  5
9263
330
9261
100
AcDbEntity
  8
0
100
AcDbBlockEnd
  0
BLOCK
  5
9286
330
9285
100
AcDbEntity
  8
0
100
AcDbBlockBegin
  2
*D24
 70
     1
 10
0.0
 20
0.0
 30
0.0
  3
*D24
  1

  0
LINE
  5
A1C7
330
9285
100
AcDbEntity
  8
30
  6
Continuous
 62
     0
440
 16777216
370
    -2
100
AcDbLine
 10
145.2641192137591
 20
650.0924458404107
 30
0.0
 11
145.2641192137591
 21
677.5810857901333
 31
0.0
  0
LINE
  5
A1C8
330
9285
100
AcDbEntity
  8
30
  6
Continuous
 62
     0
440
 16777216
370
    -2
100
AcDbLine
 10
161.2342079038233
 20
650.1924458404109
 30
0.0
 11
161.2342079038233
 21
677.5810857901333
 31
0.0
  0
LINE
  5
A1C9
330
9285
100
AcDbEntity
  8
30
  6
Continuous
 62
     0
440
 16777216
370
    -2
100
AcDbLine
 10
147.2641192137591
 20
677.0810857901333
 30
0.0
 11
159.2342079038233
 21
677.0810857901333
 31
0.0
  0
INSERT
  5
A1CA
330
9285
100
AcDbEntity
  8
30
  6
Continuous
 62
     0
440
 16777216
370
    -2
100
AcDbBlockReference
  2
_OPEN
 10
145.2641192137591
 20
677.0810857901333
 30
0.0
 41
2.0
 42
2.0
 43
2.0
 50
180.0
  0
INSERT
  5
A1CB
330
9285
100
AcDbEntity
  8
30
  6
Continuous
 62
     0
440
 16777216
370
    -2
100
AcDbBlockReference
  2
_OPEN
 10
161.2342079038233
 20
677.0810857901333
 30
0.0
 41
2.0
 42
2.0
 43
2.0
  0
MTEXT
  5
A1CC
330
9285
100
AcDbEntity
  8
30
  6
Continuous
 62
     0
440
 16777216
100
AcDbMText
 10
154.4788148473882
 20
682.0810857901333
 30
0.0
 40
6.0
 41
0.0
 46
0.0
 71
     5
 72
     1
  1
\A1;16
 73
     1
 44
1.0
 90
        3
 63
     9
421
 13158600
 45
1.1
441
        0
  0
POINT
  5
A1CD
330
9285
100
AcDbEntity
  8
Defpoints
  6
Continuous
 62
     0
440
 16777216
100
AcDbPoint
 10
145.2641192137591
 20
649.0924458404109
 30
0.0
  0
POINT
  5
A1CE
330
9285
100
AcDbEntity
  8
Defpoints
  6
Continuous
 62
     0
440
 16777216
100
AcDbPoint
 10
161.2342079038233
 20
649.1924458404107
 30
0.0
  0
POINT
  5
A1CF
330
9285
100
AcDbEntity
  8
Defpoints
  6
Continuous
 62
     0
440
 16777216
100
AcDbPoint
 10
161.2342079038233
 20
677.0810857901333
 30
0.0
  0
ENDBLK
  5
9287
330
9285
100
AcDbEntity
  8
0
100
AcDbBlockEnd
  0
BLOCK
  5
9450
330
944F
100
AcDbEntity
  8
0
100
AcDbBlockBegin
  2
*D25
 70
     1
 10
0.0
 20
0.0
 30
0.0
  3
*D25
  1

  0
LINE
  5
A1D0
330
944F
100
AcDbEntity
  8
30
  6
Continuous
 62
     0
440
 16777216
370
    -2
100
AcDbLine
 10
285.7921291149385
 20
384.9114088899767
 30
0.0
 11
285.7921291149385
 21
265.043151492181
 31
0.0
  0
LINE
  5
A1D1
330
944F
100
AcDbEntity
  8
30
  6
Continuous
 62
     0
440
 16777216
370
    -2
100
AcDbLine
 10
381.2921278781887
 20
319.7507754607403
 30
0.0
 11
381.2921278781887
 21
265.043151492181
 31
0.0
  0
LINE
  5
A1D2
330
944F
100
AcDbEntity
  8
30
  6
Continuous
 62
     0
440
 16777216
370
    -2
100
AcDbLine
 10
287.7921291149385
 20
265.5431514921811
 30
0.0
 11
379.2921278781887
 21
265.5431514921811
 31
0.0
  0
INSERT
  5
A1D3
330
944F
100
AcDbEntity
  8
30
  6
Continuous
 62
     0
440
 16777216
370
    -2
100
AcDbBlockReference
  2
_OPEN
 10
285.7921291149385
 20
265.5431514921811
 30
0.0
 41
2.0
 42
2.0
 43
2.0
 50
180.0
  0
INSERT
  5
A1D4
330
944F
100
AcDbEntity
  8
30
  6
Continuous
 62
     0
440
 16777216
370
    -2
100
AcDbBlockReference
  2
_OPEN
 10
381.2921278781887
 20
265.5431514921811
 30
0.0
 41
2.0
 42
2.0
 43
2.0
  0
MTEXT
  5
A1D5
330
944F
100
AcDbEntity
  8
30
  6
Continuous
 62
     0
440
 16777216
100
AcDbMText
 10
333.5421284965637
 20
270.543151492181
 30
0.0
 40
6.0
 41
0.0
 46
0.0
 71
     5
 72
     1
  1
\A1;95.5
 73
     1
 44
1.0
 90
        3
 63
     9
421
 13158600
 45
1.1
441
        0
  0
POINT
  5
A1D6
330
944F
100
AcDbEntity
  8
Defpoints
  6
Continuous
 62
     0
440
 16777216
100
AcDbPoint
 10
285.7921291149385
 20
385.9114088899767
 30
0.0
  0
POINT
  5
A1D7
330
944F
100
AcDbEntity
  8
Defpoints
  6
Continuous
 62
     0
440
 16777216
100
AcDbPoint
 10
381.2921278781887
 20
320.7507754607405
 30
0.0
  0
POINT
  5
A1D8
330
944F
100
AcDbEntity
  8
Defpoints
  6
Continuous
 62
     0
440
 16777216
100
AcDbPoint
 10
381.2921278781887
 20
265.5431514921811
 30
0.0
  0
ENDBLK
  5
9451
330
944F
100
AcDbEntity
  8
0
100
AcDbBlockEnd
  0
BLOCK
  5
945C
330
945B
100
AcDbEntity
  8
0
100
AcDbBlockBegin
  2
*D26
 70
     1
 10
0.0
 20
0.0
 30
0.0
  3
*D26
  1

  0
LINE
  5
A1D9
330
945B
100
AcDbEntity
  8
30
  6
Continuous
 62
     0
440
 16777216
370
    -2
100
AcDbLine
 10
302.7921291149382
 20
359.9114088899767
 30
0.0
 11
302.7921291149382
 21
276.4634192587379
 31
0.0
  0
LINE
  5
A1DA
330
945B
100
AcDbEntity
  8
30
  6
Continuous
 62
     0
440
 16777216
370
    -2
100
AcDbLine
 10
309.2921291149382
 20
353.8565085252878
 30
0.0
 11
309.2921291149382
 21
276.4634192587379
 31
0.0
  0
LINE
  5
A1DB
330
945B
100
AcDbEntity
  8
30
  6
Continuous
 62
     0
440
 16777216
370
    -2
100
AcDbLine
 10
311.2921291149382
 20
276.9634192587379
 30
0.0
 11
313.2921291149382
 21
276.9634192587379
 31
0.0
  0
LINE
  5
A1DC
330
945B
100
AcDbEntity
  8
30
  6
Continuous
 62
     0
440
 16777216
370
    -2
100
AcDbLine
 10
300.7921291149382
 20
276.9634192587379
 30
0.0
 11
285.2125836603928
 21
276.9634192587379
 31
0.0
  0
INSERT
  5
A1DD
330
945B
100
AcDbEntity
  8
30
  6
Continuous
 62
     0
440
 16777216
370
    -2
100
AcDbBlockReference
  2
_OPEN
 10
309.2921291149382
 20
276.9634192587379
 30
0.0
 41
2.0
 42
2.0
 43
2.0
 50
180.0
  0
INSERT
  5
A1DE
330
945B
100
AcDbEntity
  8
30
  6
Continuous
 62
     0
440
 16777216
370
    -2
100
AcDbBlockReference
  2
_OPEN
 10
302.7921291149382
 20
276.9634192587379
 30
0.0
 41
2.0
 42
2.0
 43
2.0
  0
MTEXT
  5
A1DF
330
945B
100
AcDbEntity
  8
30
  6
Continuous
 62
     0
440
 16777216
100
AcDbMText
 10
292.0023563876655
 20
281.9634192587379
 30
0.0
 40
6.0
 41
0.0
 46
0.0
 71
     5
 72
     1
  1
\A1;6.5
 73
     1
 44
1.0
 90
        3
 63
     9
421
 13158600
 45
1.1
441
        0
  0
POINT
  5
A1E0
330
945B
100
AcDbEntity
  8
Defpoints
  6
Continuous
 62
     0
440
 16777216
100
AcDbPoint
 10
302.7921291149382
 20
360.9114088899767
 30
0.0
  0
POINT
  5
A1E1
330
945B
100
AcDbEntity
  8
Defpoints
  6
Continuous
 62
     0
440
 16777216
100
AcDbPoint
 10
309.2921291149382
 20
354.8565085252878
 30
0.0
  0
POINT
  5
A1E2
330
945B
100
AcDbEntity
  8
Defpoints
  6
Continuous
 62
     0
440
 16777216
100
AcDbPoint
 10
309.2921291149382
 20
276.9634192587379
 30
0.0
  0
ENDBLK
  5
945D
330
945B
100
AcDbEntity
  8
0
100
AcDbBlockEnd
  0
BLOCK
  5
9469
330
9468
100
AcDbEntity
  8
0
100
AcDbBlockBegin
  2
*D27
 70
     1
 10
0.0
 20
0.0
 30
0.0
  3
*D27
  1

  0
LINE
  5
A1E3
330
9468
100
AcDbEntity
  8
30
  6
Continuous
 62
     0
440
 16777216
370
    -2
100
AcDbLine
 10
309.2921291149382
 20
348.7223597174827
 30
0.0
 11
309.2921291149382
 21
276.4634192587379
 31
0.0
  0
LINE
  5
A1E4
330
9468
100
AcDbEntity
  8
30
  6
Continuous
 62
     0
440
 16777216
370
    -2
100
AcDbLine
 10
381.2921278781887
 20
319.7507754607403
 30
0.0
 11
381.2921278781887
 21
276.4634192587379
 31
0.0
  0
LINE
  5
A1E5
330
9468
100
AcDbEntity
  8
30
  6
Continuous
 62
     0
440
 16777216
370
    -2
100
AcDbLine
 10
311.2921291149382
 20
276.9634192587379
 30
0.0
 11
379.2921278781887
 21
276.9634192587379
 31
0.0
  0
INSERT
  5
A1E6
330
9468
100
AcDbEntity
  8
30
  6
Continuous
 62
     0
440
 16777216
370
    -2
100
AcDbBlockReference
  2
_OPEN
 10
309.2921291149382
 20
276.9634192587379
 30
0.0
 41
2.0
 42
2.0
 43
2.0
 50
180.0
  0
INSERT
  5
A1E7
330
9468
100
AcDbEntity
  8
30
  6
Continuous
 62
     0
440
 16777216
370
    -2
100
AcDbBlockReference
  2
_OPEN
 10
381.2921278781887
 20
276.9634192587379
 30
0.0
 41
2.0
 42
2.0
 43
2.0
  0
MTEXT
  5
A1E8
330
9468
100
AcDbEntity
  8
30
  6
Continuous
 62
     0
440
 16777216
100
AcDbMText
 10
345.2921284965634
 20
281.9634192587379
 30
0.0
 40
6.0
 41
0.0
 46
0.0
 71
     5
 72
     1
  1
\A1;72
 73
     1
 44
1.0
 90
        3
 63
     9
421
 13158600
 45
1.1
441
        0
  0
POINT
  5
A1E9
330
9468
100
AcDbEntity
  8
Defpoints
  6
Continuous
 62
     0
440
 16777216
100
AcDbPoint
 10
309.2921291149382
 20
349.7223597174827
 30
0.0
  0
POINT
  5
A1EA
330
9468
100
AcDbEntity
  8
Defpoints
  6
Continuous
 62
     0
440
 16777216
100
AcDbPoint
 10
381.2921278781887
 20
320.7507754607405
 30
0.0
  0
POINT
  5
A1EB
330
9468
100
AcDbEntity
  8
Defpoints
  6
Continuous
 62
     0
440
 16777216
100
AcDbPoint
 10
381.2921278781887
 20
276.9634192587379
 30
0.0
  0
ENDBLK
  5
946A
330
9468
100
AcDbEntity
  8
0
100
AcDbBlockEnd
  0
BLOCK
  5
9475
330
9474
100
AcDbEntity
  8
0
100
AcDbBlockBegin
  2
*D28
 70
     1
 10
0.0
 20
0.0
 30
0.0
  3
*D28
  1

  0
LINE
  5
A1EC
330
9474
100
AcDbEntity
  8
30
  6
Continuous
 62
     0
440
 16777216
370
    -2
100
AcDbLine
 10
313.2921291149382
 20
323.2711775736896
 30
0.0
 11
313.2921291149382
 21
287.3178846470682
 31
0.0
  0
LINE
  5
A1ED
330
9474
100
AcDbEntity
  8
30
  6
Continuous
 62
     0
440
 16777216
370
    -2
100
AcDbLine
 10
381.2921278781887
 20
319.7507754607403
 30
0.0
 11
381.2921278781887
 21
287.3178846470682
 31
0.0
  0
LINE
  5
A1EE
330
9474
100
AcDbEntity
  8
30
  6
Continuous
 62
     0
440
 16777216
370
    -2
100
AcDbLine
 10
315.2921291149382
 20
287.8178846470682
 30
0.0
 11
379.2921278781887
 21
287.8178846470682
 31
0.0
  0
INSERT
  5
A1EF
330
9474
100
AcDbEntity
  8
30
  6
Continuous
 62
     0
440
 16777216
370
    -2
100
AcDbBlockReference
  2
_OPEN
 10
313.2921291149382
 20
287.8178846470682
 30
0.0
 41
2.0
 42
2.0
 43
2.0
 50
180.0
  0
INSERT
  5
A1F0
330
9474
100
AcDbEntity
  8
30
  6
Continuous
 62
     0
440
 16777216
370
    -2
100
AcDbBlockReference
  2
_OPEN
 10
381.2921278781887
 20
287.8178846470682
 30
0.0
 41
2.0
 42
2.0
 43
2.0
  0
MTEXT
  5
A1F1
330
9474
100
AcDbEntity
  8
30
  6
Continuous
 62
     0
440
 16777216
100
AcDbMText
 10
347.2921284965635
 20
292.8178846470682
 30
0.0
 40
6.0
 41
0.0
 46
0.0
 71
     5
 72
     1
  1
\A1;68
 73
     1
 44
1.0
 90
        3
 63
     9
421
 13158600
 45
1.1
441
        0
  0
POINT
  5
A1F2
330
9474
100
AcDbEntity
  8
Defpoints
  6
Continuous
 62
     0
440
 16777216
100
AcDbPoint
 10
313.2921291149382
 20
324.2711775736895
 30
0.0
  0
POINT
  5
A1F3
330
9474
100
AcDbEntity
  8
Defpoints
  6
Continuous
 62
     0
440
 16777216
100
AcDbPoint
 10
381.2921278781887
 20
320.7507754607405
 30
0.0
  0
POINT
  5
A1F4
330
9474
100
AcDbEntity
  8
Defpoints
  6
Continuous
 62
     0
440
 16777216
100
AcDbPoint
 10
381.2921278781887
 20
287.8178846470682
 30
0.0
  0
ENDBLK
  5
9476
330
9474
100
AcDbEntity
  8
0
100
AcDbBlockEnd
  0
BLOCK
  5
9481
330
9480
100
AcDbEntity
  8
0
100
AcDbBlockBegin
  2
*D29
 70
     1
 10
0.0
 20
0.0
 30
0.0
  3
*D29
  1

  0
LINE
  5
A1F5
330
9480
100
AcDbEntity
  8
30
  6
Continuous
 62
     0
440
 16777216
370
    -2
100
AcDbLine
 10
321.2921278781887
 20
319.7507754607403
 30
0.0
 11
321.2921278781887
 21
297.6180743723132
 31
0.0
  0
LINE
  5
A1F6
330
9480
100
AcDbEntity
  8
30
  6
Continuous
 62
     0
440
 16777216
370
    -2
100
AcDbLine
 10
381.2921278781887
 20
319.7507754607403
 30
0.0
 11
381.2921278781887
 21
297.6180743723132
 31
0.0
  0
LINE
  5
A1F7
330
9480
100
AcDbEntity
  8
30
  6
Continuous
 62
     0
440
 16777216
370
    -2
100
AcDbLine
 10
323.2921278781887
 20
298.1180743723132
 30
0.0
 11
379.2921278781887
 21
298.1180743723132
 31
0.0
  0
INSERT
  5
A1F8
330
9480
100
AcDbEntity
  8
30
  6
Continuous
 62
     0
440
 16777216
370
    -2
100
AcDbBlockReference
  2
_OPEN
 10
321.2921278781887
 20
298.1180743723132
 30
0.0
 41
2.0
 42
2.0
 43
2.0
 50
180.0
  0
INSERT
  5
A1F9
330
9480
100
AcDbEntity
  8
30
  6
Continuous
 62
     0
440
 16777216
370
    -2
100
AcDbBlockReference
  2
_OPEN
 10
381.2921278781887
 20
298.1180743723132
 30
0.0
 41
2.0
 42
2.0
 43
2.0
  0
MTEXT
  5
A1FA
330
9480
100
AcDbEntity
  8
30
  6
Continuous
 62
     0
440
 16777216
100
AcDbMText
 10
351.2921278781886
 20
303.1180743723132
 30
0.0
 40
6.0
 41
0.0
 46
0.0
 71
     5
 72
     1
  1
\A1;60
 73
     1
 44
1.0
 90
        3
 63
     9
421
 13158600
 45
1.1
441
        0
  0
POINT
  5
A1FB
330
9480
100
AcDbEntity
  8
Defpoints
  6
Continuous
 62
     0
440
 16777216
100
AcDbPoint
 10
321.2921278781887
 20
320.7507754607405
 30
0.0
  0
POINT
  5
A1FC
330
9480
100
AcDbEntity
  8
Defpoints
  6
Continuous
 62
     0
440
 16777216
100
AcDbPoint
 10
381.2921278781887
 20
320.7507754607405
 30
0.0
  0
POINT
  5
A1FD
330
9480
100
AcDbEntity
  8
Defpoints
  6
Continuous
 62
     0
440
 16777216
100
AcDbPoint
 10
381.2921278781887
 20
298.1180743723132
 30
0.0
  0
ENDBLK
  5
9482
330
9480
100
AcDbEntity
  8
0
100
AcDbBlockEnd
  0
BLOCK
  5
963A
330
9639
100
AcDbEntity
  8
0
100
AcDbBlockBegin
  2
*D30
 70
     1
 10
0.0
 20
0.0
 30
0.0
  3
*D30
  1

  0
LINE
  5
A1FE
330
9639
100
AcDbEntity
  8
30
 62
     0
440
 16777216
370
    -2
100
AcDbLine
 10
218.8095762136978
 20
126.0995475074262
 30
0.0
 11
218.8095762136978
 21
59.59949795475996
 31
0.0
  0
LINE
  5
A1FF
330
9639
100
AcDbEntity
  8
30
 62
     0
440
 16777216
370
    -2
100
AcDbLine
 10
304.8095757328141
 20
126.0995475074262
 30
0.0
 11
304.8095757328141
 21
59.59949795475996
 31
0.0
  0
LINE
  5
A200
330
9639
100
AcDbEntity
  8
30
 62
     0
440
 16777216
370
    -2
100
AcDbLine
 10
220.8095762136978
 20
60.09949795475995
 30
0.0
 11
302.8095757328141
 21
60.09949795475995
 31
0.0
  0
INSERT
  5
A201
330
9639
100
AcDbEntity
  8
30
 62
     0
440
 16777216
370
    -2
100
AcDbBlockReference
  2
_OPEN
 10
218.8095762136978
 20
60.09949795475995
 30
0.0
 41
2.0
 42
2.0
 43
2.0
 50
180.0
  0
INSERT
  5
A202
330
9639
100
AcDbEntity
  8
30
 62
     0
440
 16777216
370
    -2
100
AcDbBlockReference
  2
_OPEN
 10
304.8095757328141
 20
60.09949795475995
 30
0.0
 41
2.0
 42
2.0
 43
2.0
  0
MTEXT
  5
A203
330
9639
100
AcDbEntity
  8
30
 62
     0
440
 16777216
100
AcDbMText
 10
261.8095759732562
 20
68.09949795475995
 30
0.0
 40
6.0
 41
0.0
 46
0.0
 71
     2
 72
     1
  1
\A1;86
 73
     1
 44
1.0
 90
        3
 63
     9
421
 13158600
 45
1.1
441
        0
  0
POINT
  5
A204
330
9639
100
AcDbEntity
  8
Defpoints
 62
     0
440
 16777216
100
AcDbPoint
 10
218.8095762136978
 20
127.0995475074261
 30
0.0
  0
POINT
  5
A205
330
9639
100
AcDbEntity
  8
Defpoints
 62
     0
440
 16777216
100
AcDbPoint
 10
304.8095757328141
 20
127.0995475074261
 30
0.0
  0
POINT
  5
A206
330
9639
100
AcDbEntity
  8
Defpoints
 62
     0
440
 16777216
100
AcDbPoint
 10
304.8095757328141
 20
60.09949795475995
 30
0.0
  0
ENDBLK
  5
963B
330
9639
100
AcDbEntity
  8
0
100
AcDbBlockEnd
  0
BLOCK
  5
9646
330
9645
100
AcDbEntity
  8
0
100
AcDbBlockBegin
  2
*D31
 70
     1
 10
0.0
 20
0.0
 30
0.0
  3
*D31
  1

  0
LINE
  5
A268
330
9645
100
AcDbEntity
  8
30
 62
     0
440
 16777216
370
    -2
100
AcDbLine
 10
305.0070269140318
 20
179.8502036310056
 30
0.0
 11
308.1397027524167
 21
187.0462505590833
 31
0.0
  0
LINE
  5
A269
330
9645
100
AcDbEntity
  8
30
 62
     0
440
 16777216
370
    -2
100
AcDbLine
 10
308.1397027524167
 20
187.0462505590833
 30
0.0
 11
317.6056118433259
 21
187.0462505590833
 31
0.0
  0
LINE
  5
A26A
330
9645
100
AcDbEntity
  8
30
 62
     0
440
 16777216
370
    -2
100
AcDbLine
 10
303.8095757384056
 20
177.0995472278423
 30
0.0
 11
304.2087261287851
 21
178.0164326921273
 31
0.0
  0
INSERT
  5
A26B
330
9645
100
AcDbEntity
  8
30
 62
     0
440
 16777216
370
    -2
100
AcDbBlockReference
  2
_OPEN
 10
304.2087261287851
 20
178.0164326921273
 30
0.0
 41
2.0
 42
2.0
 43
2.0
 50
246.4749238423902
  0
MTEXT
  5
A26C
330
9645
100
AcDbEntity
  8
30
 62
     0
440
 16777216
100
AcDbMText
 10
310.139702752417
 20
195.0462505590832
 30
0.0
 40
6.0
 41
0.0
 46
0.0
 71
     1
 72
     1
  1
\A1;R1
 73
     1
 44
1.0
  0
POINT
  5
A26D
330
9645
100
AcDbEntity
  8
Defpoints
 62
     0
440
 16777216
100
AcDbPoint
 10
304.2087261287851
 20
178.0164326921273
 30
0.0
  0
POINT
  5
A26E
330
9645
100
AcDbEntity
  8
Defpoints
 62
     0
440
 16777216
100
AcDbPoint
 10
303.8095757384056
 20
177.0995472278423
 30
0.0
  0
ENDBLK
  5
9647
330
9645
100
AcDbEntity
  8
0
100
AcDbBlockEnd
  0
BLOCK
  5
964F
330
964E
100
AcDbEntity
  8
0
100
AcDbBlockBegin
  2
*D32
 70
     1
 10
0.0
 20
0.0
 30
0.0
  3
*D32
  1

  0
LINE
  5
A3E9
330
964E
100
AcDbEntity
  8
30
 62
     0
440
 16777216
370
    -2
100
AcDbLine
 10
308.6525879095498
 20
178.0995477585889
 30
0.0
 11
357.2078161182508
 21
178.0995477585888
 31
0.0
  0
LINE
  5
A3EA
330
964E
100
AcDbEntity
  8
30
 62
     0
440
 16777216
370
    -2
100
AcDbLine
 10
308.6525879093494
 20
126.099546976356
 30
0.0
 11
357.2078161182508
 21
126.099546976356
 31
0.0
  0
LINE
  5
A3EB
330
964E
100
AcDbEntity
  8
30
 62
     0
440
 16777216
370
    -2
100
AcDbLine
 10
356.7078161182508
 20
176.0995477585888
 30
0.0
 11
356.7078161182508
 21
128.099546976356
 31
0.0
  0
INSERT
  5
A3EC
330
964E
100
AcDbEntity
  8
30
 62
     0
440
 16777216
370
    -2
100
AcDbBlockReference
  2
_OPEN
 10
356.7078161182508
 20
178.0995477585888
 30
0.0
 41
2.0
 42
2.0
 43
2.0
 50
90.0
  0
INSERT
  5
A3ED
330
964E
100
AcDbEntity
  8
30
 62
     0
440
 16777216
370
    -2
100
AcDbBlockReference
  2
_OPEN
 10
356.7078161182508
 20
126.099546976356
 30
0.0
 41
2.0
 42
2.0
 43
2.0
 50
270.0
  0
MTEXT
  5
A3EE
330
964E
100
AcDbEntity
  8
30
 62
     0
440
 16777216
100
AcDbMText
 10
351.7078161182508
 20
152.0995473674724
 30
0.0
 40
6.0
 41
0.0
 46
0.0
 71
     5
 72
     1
  1
\A1;52
 11
0.0000000000000001
 21
1.0
 31
0.0
 73
     1
 44
1.0
 90
        3
 63
     9
421
 13158600
 45
1.1
441
        0
  0
POINT
  5
A3EF
330
964E
100
AcDbEntity
  8
Defpoints
 62
     0
440
 16777216
100
AcDbPoint
 10
307.6525879095498
 20
178.0995477585889
 30
0.0
  0
POINT
  5
A3F0
330
964E
100
AcDbEntity
  8
Defpoints
 62
     0
440
 16777216
100
AcDbPoint
 10
307.6525879093494
 20
126.099546976356
 30
0.0
  0
POINT
  5
A3F1
330
964E
100
AcDbEntity
  8
Defpoints
 62
     0
440
 16777216
100
AcDbPoint
 10
356.7078161182508
 20
126.099546976356
 30
0.0
  0
ENDBLK
  5
9650
330
964E
100
AcDbEntity
  8
0
100
AcDbBlockEnd
  0
BLOCK
  5
96D0
330
96CF
100
AcDbEntity
  8
0
100
AcDbBlockBegin
  2
*D33
 70
     1
 10
0.0
 20
0.0
 30
0.0
  3
*D33
  1

  0
LINE
  5
A3D0
330
96CF
100
AcDbEntity
  8
30
 62
     0
440
 16777216
370
    -2
100
AcDbLine
 10
436.9645897207304
 20
179.8685081983635
 30
0.0
 11
440.1402232917105
 21
187.4850134871526
 31
0.0
  0
LINE
  5
A3D1
330
96CF
100
AcDbEntity
  8
30
 62
     0
440
 16777216
370
    -2
100
AcDbLine
 10
440.1402232917105
 20
187.4850134871526
 30
0.0
 11
449.6061323826195
 21
187.4850134871526
 31
0.0
  0
LINE
  5
A3D2
330
96CF
100
AcDbEntity
  8
30
 62
     0
440
 16777216
370
    -2
100
AcDbLine
 10
435.8100962776989
 20
177.0995472278424
 30
0.0
 11
436.194927423934
 21
178.022534214557
 31
0.0
  0
INSERT
  5
A3D3
330
96CF
100
AcDbEntity
  8
30
 62
     0
440
 16777216
370
    -2
100
AcDbBlockReference
  2
_OPEN
 10
436.194927423934
 20
178.022534214557
 30
0.0
 41
2.0
 42
2.0
 43
2.0
 50
247.3667418492964
  0
MTEXT
  5
A3D4
330
96CF
100
AcDbEntity
  8
30
 62
     0
440
 16777216
100
AcDbMText
 10
445.8731778371651
 20
192.4850134871525
 30
0.0
 40
6.0
 41
0.0
 46
0.0
 71
     5
 72
     1
  1
\A1;R1
 73
     1
 44
1.0
  0
POINT
  5
A3D5
330
96CF
100
AcDbEntity
  8
Defpoints
 62
     0
440
 16777216
100
AcDbPoint
 10
436.194927423934
 20
178.022534214557
 30
0.0
  0
POINT
  5
A3D6
330
96CF
100
AcDbEntity
  8
Defpoints
 62
     0
440
 16777216
100
AcDbPoint
 10
435.8100962776989
 20
177.0995472278424
 30
0.0
  0
ENDBLK
  5
96D1
330
96CF
100
AcDbEntity
  8
0
100
AcDbBlockEnd
  0
BLOCK
  5
9746
330
9745
100
AcDbEntity
  8
0
100
AcDbBlockBegin
  2
*D34
 70
     1
 10
0.0
 20
0.0
 30
0.0
  3
*D34
  1

  0
LINE
  5
A3D7
330
9745
100
AcDbEntity
  8
30
 62
     0
440
 16777216
370
    -2
100
AcDbLine
 10
411.4166660315716
 20
150.8495473676344
 30
0.0
 11
411.4166660315716
 21
59.59949795475996
 31
0.0
  0
LINE
  5
A3D8
330
9745
100
AcDbEntity
  8
30
 62
     0
440
 16777216
370
    -2
100
AcDbLine
 10
435.4166660315713
 20
150.8495473676344
 30
0.0
 11
435.4166660315713
 21
59.59949795475996
 31
0.0
  0
LINE
  5
A3D9
330
9745
100
AcDbEntity
  8
30
 62
     0
440
 16777216
370
    -2
100
AcDbLine
 10
413.4166660315716
 20
60.09949795475995
 30
0.0
 11
433.4166660315713
 21
60.09949795475995
 31
0.0
  0
INSERT
  5
A3DA
330
9745
100
AcDbEntity
  8
30
 62
     0
440
 16777216
370
    -2
100
AcDbBlockReference
  2
_OPEN
 10
411.4166660315716
 20
60.09949795475995
 30
0.0
 41
2.0
 42
2.0
 43
2.0
 50
180.0
  0
INSERT
  5
A3DB
330
9745
100
AcDbEntity
  8
30
 62
     0
440
 16777216
370
    -2
100
AcDbBlockReference
  2
_OPEN
 10
435.4166660315713
 20
60.09949795475995
 30
0.0
 41
2.0
 42
2.0
 43
2.0
  0
MTEXT
  5
A3DC
330
9745
100
AcDbEntity
  8
30
 62
     0
440
 16777216
100
AcDbMText
 10
425.7140526573071
 20
68.09949795475995
 30
0.0
 40
6.0
 41
0.0
 46
0.0
 71
     2
 72
     1
  1
\A1;24
 73
     1
 44
1.0
 90
        3
 63
     9
421
 13158600
 45
1.1
441
        0
  0
POINT
  5
A3DD
330
9745
100
AcDbEntity
  8
Defpoints
 62
     0
440
 16777216
100
AcDbPoint
 10
411.4166660315716
 20
151.8495473676344
 30
0.0
  0
POINT
  5
A3DE
330
9745
100
AcDbEntity
  8
Defpoints
 62
     0
440
 16777216
100
AcDbPoint
 10
435.4166660315713
 20
151.8495473676344
 30
0.0
  0
POINT
  5
A3DF
330
9745
100
AcDbEntity
  8
Defpoints
 62
     0
440
 16777216
100
AcDbPoint
 10
435.4166660315713
 20
60.09949795475995
 30
0.0
  0
ENDBLK
  5
9747
330
9745
100
AcDbEntity
  8
0
100
AcDbBlockEnd
  0
BLOCK
  5
9752
330
9751
100
AcDbEntity
  8
0
100
AcDbBlockBegin
  2
*D35
 70
     1
 10
0.0
 20
0.0
 30
0.0
  3
*D35
  1

  0
LINE
  5
A3E0
330
9751
100
AcDbEntity
  8
30
 62
     0
440
 16777216
370
    -2
100
AcDbLine
 10
435.4166660315713
 20
175.8495473676342
 30
0.0
 11
516.0200254960021
 21
175.849547367634
 31
0.0
  0
LINE
  5
A3E1
330
9751
100
AcDbEntity
  8
30
 62
     0
440
 16777216
370
    -2
100
AcDbLine
 10
435.4166660315713
 20
127.8495473676345
 30
0.0
 11
516.0200254960021
 21
127.8495473676345
 31
0.0
  0
LINE
  5
A3E2
330
9751
100
AcDbEntity
  8
30
 62
     0
440
 16777216
370
    -2
100
AcDbLine
 10
515.5200254960021
 20
173.849547367634
 30
0.0
 11
515.5200254960021
 21
129.8495473676345
 31
0.0
  0
INSERT
  5
A3E3
330
9751
100
AcDbEntity
  8
30
 62
     0
440
 16777216
370
    -2
100
AcDbBlockReference
  2
_OPEN
 10
515.5200254960021
 20
175.849547367634
 30
0.0
 41
2.0
 42
2.0
 43
2.0
 50
90.0
  0
INSERT
  5
A3E4
330
9751
100
AcDbEntity
  8
30
 62
     0
440
 16777216
370
    -2
100
AcDbBlockReference
  2
_OPEN
 10
515.5200254960021
 20
127.8495473676345
 30
0.0
 41
2.0
 42
2.0
 43
2.0
 50
270.0
  0
MTEXT
  5
A3E5
330
9751
100
AcDbEntity
  8
30
 62
     0
440
 16777216
100
AcDbMText
 10
507.5200254960021
 20
152.9878037369322
 30
0.0
 40
6.0
 41
0.0
 46
0.0
 71
     2
 72
     1
  1
\A1;48
 11
0.0000000000000001
 21
1.0
 31
0.0
 73
     1
 44
1.0
 90
        3
 63
     9
421
 13158600
 45
1.1
441
        0
  0
POINT
  5
A3E6
330
9751
100
AcDbEntity
  8
Defpoints
 62
     0
440
 16777216
100
AcDbPoint
 10
434.4166660315713
 20
175.8495473676342
 30
0.0
  0
POINT
  5
A3E7
330
9751
100
AcDbEntity
  8
Defpoints
 62
     0
440
 16777216
100
AcDbPoint
 10
434.4166660315713
 20
127.8495473676345
 30
0.0
  0
POINT
  5
A3E8
330
9751
100
AcDbEntity
  8
Defpoints
 62
     0
440
 16777216
100
AcDbPoint
 10
515.5200254960021
 20
127.8495473676345
 30
0.0
  0
ENDBLK
  5
9753
330
9751
100
AcDbEntity
  8
0
100
AcDbBlockEnd
  0
BLOCK
  5
9BFA
330
9BF9
100
AcDbEntity
  8
0
100
AcDbBlockBegin
  2
*D36
 70
     1
 10
0.0
 20
0.0
 30
0.0
  3
*D36
  1

  0
LINE
  5
A22B
330
9BF9
100
AcDbEntity
  8
30
 62
     0
440
 16777216
370
    -2
100
AcDbLine
 10
78.23076773351147
 20
316.36617178278
 30
0.0
 11
78.23076773351147
 21
278.8653314905109
 31
0.0
  0
LINE
  5
A22C
330
9BF9
100
AcDbEntity
  8
30
 62
     0
440
 16777216
370
    -2
100
AcDbLine
 10
198.2307677335113
 20
316.36617178278
 30
0.0
 11
198.2307677335113
 21
278.8653314905109
 31
0.0
  0
LINE
  5
A22D
330
9BF9
100
AcDbEntity
  8
30
 62
     0
440
 16777216
370
    -2
100
AcDbLine
 10
80.23076773351148
 20
279.3653314905109
 30
0.0
 11
196.2307677335114
 21
279.3653314905109
 31
0.0
  0
INSERT
  5
A22E
330
9BF9
100
AcDbEntity
  8
30
 62
     0
440
 16777216
370
    -2
100
AcDbBlockReference
  2
_OPEN
 10
78.23076773351147
 20
279.3653314905109
 30
0.0
 41
2.0
 42
2.0
 43
2.0
 50
180.0
  0
INSERT
  5
A22F
330
9BF9
100
AcDbEntity
  8
30
 62
     0
440
 16777216
370
    -2
100
AcDbBlockReference
  2
_OPEN
 10
198.2307677335113
 20
279.3653314905109
 30
0.0
 41
2.0
 42
2.0
 43
2.0
  0
MTEXT
  5
A230
330
9BF9
100
AcDbEntity
  8
30
 62
     0
440
 16777216
100
AcDbMText
 10
138.2307677335115
 20
284.3653314905109
 30
0.0
 40
6.0
 41
0.0
 46
0.0
 71
     5
 72
     1
  1
\A1;120
 73
     1
 44
1.0
 90
        3
 63
     9
421
 13158600
 45
1.1
441
        0
  0
POINT
  5
A231
330
9BF9
100
AcDbEntity
  8
Defpoints
 62
     0
440
 16777216
100
AcDbPoint
 10
78.23076773351147
 20
317.36617178278
 30
0.0
  0
POINT
  5
A232
330
9BF9
100
AcDbEntity
  8
Defpoints
 62
     0
440
 16777216
100
AcDbPoint
 10
198.2307677335113
 20
317.36617178278
 30
0.0
  0
POINT
  5
A233
330
9BF9
100
AcDbEntity
  8
Defpoints
 62
     0
440
 16777216
100
AcDbPoint
 10
198.2307677335113
 20
279.3653314905109
 30
0.0
  0
ENDBLK
  5
9BFB
330
9BF9
100
AcDbEntity
  8
0
100
AcDbBlockEnd
  0
BLOCK
  5
A2B6
330
A2B5
100
AcDbEntity
  8
0
100
AcDbBlockBegin
  2
SW_CENTERMARKSYMBOL_18
 70
     0
 10
0.0
 20
0.0
 30
0.0
  3
SW_CENTERMARKSYMBOL_18
  1
SW_CENTERMARKSYMBOL_18
  0
LINE
  5
A2B7
330
A2B5
100
AcDbEntity
  8
SLD-0
 62
     0
100
AcDbLine
 10
0.0
 20
0.0
 30
0.0
 11
0.0
 21
1.0
 31
0.0
  0
LINE
  5
A2B8
330
A2B5
100
AcDbEntity
  8
SLD-0
 62
     0
100
AcDbLine
 10
0.0
 20
0.0
 30
0.0
 11
-1.0
 21
0.0
 31
0.0
  0
LINE
  5
A2B9
330
A2B5
100
AcDbEntity
  8
SLD-0
 62
     0
100
AcDbLine
 10
0.0
 20
0.0
 30
0.0
 11
0.0
 21
-1.0
 31
0.0
  0
LINE
  5
A2BA
330
A2B5
100
AcDbEntity
  8
SLD-0
 62
     0
100
AcDbLine
 10
0.0
 20
0.0
 30
0.0
 11
1.0
 21
0.0
 31
0.0
  0
LINE
  5
A2BB
330
A2B5
100
AcDbEntity
  8
SLD-0
 62
     0
100
AcDbLine
 10
0.0
 20
1.0
 30
0.0
 11
0.0
 21
1.8
 31
0.0
  0
LINE
  5
A2BC
330
A2B5
100
AcDbEntity
  8
SLD-0
 62
     0
100
AcDbLine
 10
-1.0
 20
0.0
 30
0.0
 11
-1.8
 21
0.0
 31
0.0
  0
LINE
  5
A2BD
330
A2B5
100
AcDbEntity
  8
SLD-0
 62
     0
100
AcDbLine
 10
0.0
 20
-1.0
 30
0.0
 11
0.0
 21
-1.8
 31
0.0
  0
LINE
  5
A2BE
330
A2B5
100
AcDbEntity
  8
SLD-0
 62
     0
100
AcDbLine
 10
1.0
 20
0.0
 30
0.0
 11
1.8
 21
0.0
 31
0.0
  0
ENDBLK
  5
A2BF
330
A2B5
100
AcDbEntity
  8
0
100
AcDbBlockEnd
  0
BLOCK
  5
A31C
330
A31B
100
AcDbEntity
  8
0
100
AcDbBlockBegin
  2
*D38
 70
     1
 10
0.0
 20
0.0
 30
0.0
  3
*D38
  1

  0
LINE
  5
A330
330
A31B
100
AcDbEntity
  8
30
  6
Continuous
 62
     0
440
 16777216
370
    -2
100
AcDbLine
 10
114.1437734429778
 20
686.0810857901333
 30
0.0
 11
105.7730202660368
 21
686.0810857901333
 31
0.0
  0
LINE
  5
A331
330
A31B
100
AcDbEntity
  8
30
  6
Continuous
 62
     0
440
 16777216
370
    -2
100
AcDbLine
 10
111.6131907033492
 20
663.1035607464736
 30
0.0
 11
105.7730202660368
 21
663.1035607464736
 31
0.0
  0
LINE
  5
A332
330
A31B
100
AcDbEntity
  8
30
  6
Continuous
 62
     0
440
 16777216
370
    -2
100
AcDbLine
 10
106.2730202660368
 20
684.0810857901333
 30
0.0
 11
106.2730202660368
 21
665.1035607464738
 31
0.0
  0
INSERT
  5
A333
330
A31B
100
AcDbEntity
  8
30
  6
Continuous
 62
     0
440
 16777216
370
    -2
100
AcDbBlockReference
  2
_OPEN
 10
106.2730202660368
 20
686.0810857901333
 30
0.0
 41
2.0
 42
2.0
 43
2.0
 50
90.0
  0
INSERT
  5
A334
330
A31B
100
AcDbEntity
  8
30
  6
Continuous
 62
     0
440
 16777216
370
    -2
100
AcDbBlockReference
  2
_OPEN
 10
106.2730202660368
 20
663.1035607464736
 30
0.0
 41
2.0
 42
2.0
 43
2.0
 50
270.0
  0
MTEXT
  5
A335
330
A31B
100
AcDbEntity
  8
30
  6
Continuous
 62
     0
440
 16777216
100
AcDbMText
 10
101.2730202660367
 20
674.5923232683034
 30
0.0
 40
6.0
 41
0.0
 46
0.0
 71
     5
 72
     1
  1
\A1;23
 11
0.0000000000000001
 21
1.0
 31
0.0
 73
     1
 44
1.0
 90
        3
 63
     9
421
 13158600
 45
1.1
441
        0
  0
POINT
  5
A336
330
A31B
100
AcDbEntity
  8
Defpoints
  6
Continuous
 62
     0
440
 16777216
100
AcDbPoint
 10
115.1437734429778
 20
686.0810857901333
 30
0.0
  0
POINT
  5
A337
330
A31B
100
AcDbEntity
  8
Defpoints
  6
Continuous
 62
     0
440
 16777216
100
AcDbPoint
 10
112.6131907033492
 20
663.1035607464736
 30
0.0
  0
POINT
  5
A338
330
A31B
100
AcDbEntity
  8
Defpoints
  6
Continuous
 62
     0
440
 16777216
100
AcDbPoint
 10
106.2730202660368
 20
663.1035607464736
 30
0.0
  0
ENDBLK
  5
A31D
330
A31B
100
AcDbEntity
  8
0
100
AcDbBlockEnd
  0
BLOCK
  5
A37E
330
A37D
100
AcDbEntity
  8
0
100
AcDbBlockBegin
  2
*D39
 70
     1
 10
0.0
 20
0.0
 30
0.0
  3
*D39
  1

  0
LINE
  5
A3A6
330
A37D
100
AcDbEntity
  8
30
 62
     0
440
 16777216
370
    -2
100
AcDbLine
 10
166.1972855906546
 20
526.0995473676342
 30
0.0
 11
216.7006987779528
 21
526.0995473676342
 31
0.0
  0
LINE
  5
A3A7
330
A37D
100
AcDbEntity
  8
30
 62
     0
440
 16777216
370
    -2
100
AcDbLine
 10
199.1972855906546
 20
599.0810857901331
 30
0.0
 11
216.7006987779528
 21
599.0810857901331
 31
0.0
  0
LINE
  5
A3A8
330
A37D
100
AcDbEntity
  8
30
 62
     0
440
 16777216
370
    -2
100
AcDbLine
 10
216.2006987779528
 20
528.0995473676341
 30
0.0
 11
216.2006987779528
 21
597.0810857901331
 31
0.0
  0
INSERT
  5
A3A9
330
A37D
100
AcDbEntity
  8
30
 62
     0
440
 16777216
370
    -2
100
AcDbBlockReference
  2
_OPEN
 10
216.2006987779528
 20
526.0995473676342
 30
0.0
 41
2.0
 42
2.0
 43
2.0
 50
270.0
  0
INSERT
  5
A3AA
330
A37D
100
AcDbEntity
  8
30
 62
     0
440
 16777216
370
    -2
100
AcDbBlockReference
  2
_OPEN
 10
216.2006987779528
 20
599.0810857901331
 30
0.0
 41
2.0
 42
2.0
 43
2.0
 50
90.0
  0
MTEXT
  5
A3AB
330
A37D
100
AcDbEntity
  8
30
 62
     0
440
 16777216
100
AcDbMText
 10
211.2006987779527
 20
562.5903165788836
 30
0.0
 40
6.0
 41
0.0
 46
0.0
 71
     5
 72
     1
  1
\A1;73
 11
0.0000000000000001
 21
1.0
 31
0.0
 73
     1
 44
1.0
 90
        3
 63
     9
421
 13158600
 45
1.1
441
        0
  0
POINT
  5
A3AC
330
A37D
100
AcDbEntity
  8
Defpoints
 62
     0
440
 16777216
100
AcDbPoint
 10
165.1972855906546
 20
526.0995473676342
 30
0.0
  0
POINT
  5
A3AD
330
A37D
100
AcDbEntity
  8
Defpoints
 62
     0
440
 16777216
100
AcDbPoint
 10
198.1972855906546
 20
599.0810857901331
 30
0.0
  0
POINT
  5
A3AE
330
A37D
100
AcDbEntity
  8
Defpoints
 62
     0
440
 16777216
100
AcDbPoint
 10
216.2006987779528
 20
599.0810857901331
 30
0.0
  0
ENDBLK
  5
A37F
330
A37D
100
AcDbEntity
  8
0
100
AcDbBlockEnd
  0
ENDSEC
  0
SECTION
  2
ENTITIES
  0
DIMENSION
  5
65E8
330
1F
100
AcDbEntity
  8
30
  6
Continuous
100
AcDbDimension
280
     0
  2
*D2
 10
271.0105443194248
 20
357.2946805573553
 30
0.0
 11
271.0105443194247
 21
385.0671232583553
 31
0.0
 70
   160
 71
     5
 42
50.0
 73
     0
 74
     0
 75
     0
  3
STANDARD
100
AcDbAlignedDimension
 13
309.1105443194245
 23
407.2946805573553
 33
0.0
 14
309.1105443194245
 24
357.2946805573553
 34
0.0
 50
270.0
100
AcDbRotatedDimension
1001
ACAD
1000
DSTYLE
1002
{
1070
    79
1070
     3
1002
}
  0
DIMENSION
  5
65EA
330
1F
100
AcDbEntity
  8
30
  6
Continuous
100
AcDbDimension
280
     0
  2
*D3
 10
501.0105443194245
 20
323.2946805573554
 30
0.0
 11
501.0105443194245
 21
304.7946805573555
 31
0.0
 70
   160
 71
     5
 42
4.0
 73
     0
 74
     0
 75
     0
  3
STANDARD
100
AcDbAlignedDimension
 13
482.8636754250243
 23
327.2946805573554
 33
0.0
 14
482.8636754250243
 24
323.2946805573554
 34
0.0
 50
270.0
100
AcDbRotatedDimension
1001
ACAD
1000
DSTYLE
1002
{
1070
   172
1070
     1
1070
    79
1070
     3
1002
}
  0
LWPOLYLINE
  5
65EC
330
1F
100
AcDbEntity
  8
18
100
AcDbPolyline
 90
        2
 70
     0
 43
0.001
 10
381.2921278781887
 20
295.2851083313627
 10
381.2921278781887
 20
447.6269121003327
  0
LWPOLYLINE
  5
65ED
330
1F
100
AcDbEntity
  8
18
100
AcDbPolyline
 90
        2
 70
     0
 43
0.001
 10
383.2921278781887
 20
295.2851083313627
 10
383.2921278781887
 20
447.6269121003327
  0
LINE
  5
65EE
330
1F
100
AcDbEntity
  8
10
  6
Continuous
100
AcDbLine
 10
309.2921291149382
 20
357.2946805573553
 30
0.0
 11
309.2921291149382
 21
407.2946805573553
 31
0.0
  0
LINE
  5
65EF
330
1F
100
AcDbEntity
  8
24
  6
Continuous
 62
     7
100
AcDbLine
 10
397.0105443086247
 20
317.6622383875554
 30
0.0
 11
392.0108184610244
 21
317.1098794739554
 31
0.0
  0
LINE
  5
65F0
330
1F
100
AcDbEntity
  8
24
  6
Continuous
 62
     7
100
AcDbLine
 10
392.0108184726246
 20
317.1098793699554
 30
0.0
 11
381.2921278781887
 21
316.997629401281
 31
0.0
  0
LINE
  5
65F1
330
1F
100
AcDbEntity
  8
24
  6
Continuous
 62
     7
100
AcDbLine
 10
444.1105443194242
 20
322.0946805573555
 30
0.0
 11
404.1105443194242
 21
322.0946805573555
 31
0.0
  0
LINE
  5
65F2
330
1F
100
AcDbEntity
  8
24
  6
Continuous
 62
     7
100
AcDbLine
 10
482.8636754250243
 20
323.2946805573554
 30
0.0
 11
444.1105443194242
 21
323.2946805573554
 31
0.0
  0
LINE
  5
65F3
330
1F
100
AcDbEntity
  8
17
100
AcDbLine
 10
371.0105443194247
 20
325.2946805573554
 30
0.0
 11
491.0105443194246
 21
325.2946805573554
 31
0.0
  0
LINE
  5
65F4
330
1F
100
AcDbEntity
  8
24
  6
Continuous
 62
     7
100
AcDbLine
 10
444.1105443194242
 20
327.2946805573554
 30
0.0
 11
482.8636754250243
 21
327.2946805573554
 31
0.0
  0
LINE
  5
65F5
330
1F
100
AcDbEntity
  8
24
  6
Continuous
 62
     7
100
AcDbLine
 10
404.1105443194242
 20
328.4946805573553
 30
0.0
 11
444.1105443194242
 21
328.4946805573553
 31
0.0
  0
LINE
  5
65F6
330
1F
100
AcDbEntity
  8
24
  6
Continuous
 62
     7
100
AcDbLine
 10
392.0108184726246
 20
333.4794817449554
 30
0.0
 11
381.2921278781887
 21
333.5917317134349
 31
0.0
  0
LINE
  5
65F7
330
1F
100
AcDbEntity
  8
24
  6
Continuous
 62
     7
100
AcDbLine
 10
397.0105443086247
 20
332.9271227273554
 30
0.0
 11
392.0108184610244
 21
333.4794816409555
 31
0.0
  0
LINE
  5
65F8
330
1F
100
AcDbEntity
  8
24
  6
Continuous
 62
     7
100
AcDbLine
 10
397.0105443194248
 20
317.6622382905553
 30
0.0
 11
397.0105443194248
 21
332.9271228243554
 31
0.0
  0
LINE
  5
65F9
330
1F
100
AcDbEntity
  8
24
  6
Continuous
 62
     7
100
AcDbLine
 10
397.0105443194248
 20
431.6622382905554
 30
0.0
 11
397.0105443194248
 21
446.9271228243551
 31
0.0
  0
LINE
  5
65FB
330
1F
100
AcDbEntity
  8
24
  6
Continuous
 62
     7
100
AcDbLine
 10
397.0105443086247
 20
431.6622383875553
 30
0.0
 11
392.0108184610244
 21
431.1098794739551
 31
0.0
  0
LINE
  5
65FC
330
1F
100
AcDbEntity
  8
24
  6
Continuous
 62
     7
100
AcDbLine
 10
392.0108184726246
 20
431.1098793699553
 30
0.0
 11
381.2921278781887
 21
430.9976294012809
 31
0.0
  0
LINE
  5
65FD
330
1F
100
AcDbEntity
  8
24
  6
Continuous
 62
     7
100
AcDbLine
 10
404.1105443194242
 20
436.0946805573553
 30
0.0
 11
444.1105443194242
 21
436.0946805573553
 31
0.0
  0
LINE
  5
65FF
330
1F
100
AcDbEntity
  8
24
  6
Continuous
 62
     7
100
AcDbLine
 10
444.1105443194242
 20
442.4946805573553
 30
0.0
 11
444.1105443194242
 21
436.0946805573553
 31
0.0
  0
LINE
  5
6600
330
1F
100
AcDbEntity
  8
24
  6
Continuous
 62
     7
100
AcDbLine
 10
444.1105443194242
 20
322.0946805573555
 30
0.0
 11
444.1105443194242
 21
328.4946805573553
 31
0.0
  0
LINE
  5
6602
330
1F
100
AcDbEntity
  8
24
  6
Continuous
 62
     7
100
AcDbLine
 10
444.1105443194242
 20
442.4946805573553
 30
0.0
 11
404.1105443194242
 21
442.4946805573553
 31
0.0
  0
LINE
  5
6603
330
1F
100
AcDbEntity
  8
24
  6
Continuous
 62
     7
100
AcDbLine
 10
392.0108184726246
 20
447.4794817449553
 30
0.0
 11
381.2921278781887
 21
447.6269121003327
 31
0.0
  0
LINE
  5
6604
330
1F
100
AcDbEntity
  8
24
  6
Continuous
 62
     7
100
AcDbLine
 10
397.0105443086247
 20
446.9271227273553
 30
0.0
 11
392.0108184610244
 21
447.4794816409552
 31
0.0
  0
LWPOLYLINE
  5
6605
330
1F
100
AcDbEntity
  8
30
  6
Continuous
100
AcDbPolyline
 90
        2
 70
     0
 43
0.0
 10
286.5838521716246
 20
392.0882876785233
 42
0.0941531552727129
 10
285.7921291149385
 20
384.9114088899767
  0
ARC
  5
6606
330
1F
100
AcDbEntity
  8
24
  6
Continuous
 62
     7
100
AcDbCircle
 10
404.1105443194242
 20
453.7946805573553
 30
0.0
 40
11.3
100
AcDbArc
 50
231.0505796710034
 51
270.0
  0
ARC
  5
6607
330
1F
100
AcDbEntity
  8
24
  6
Continuous
 62
     7
100
AcDbCircle
 10
404.1105443194242
 20
424.7946805573553
 30
0.0
 40
11.3
100
AcDbArc
 50
90.0
 51
128.9494266960041
  0
ARC
  5
6608
330
1F
100
AcDbEntity
  8
24
  6
Continuous
 62
     7
100
AcDbCircle
 10
404.1105443194242
 20
310.7946805573554
 30
0.0
 40
11.3
100
AcDbArc
 50
90.0
 51
128.9494279204027
  0
ARC
  5
6609
330
1F
100
AcDbEntity
  8
24
  6
Continuous
 62
     7
100
AcDbCircle
 10
404.1105443194242
 20
339.7946805573554
 30
0.0
 40
11.3
100
AcDbArc
 50
231.0505808667993
 51
270.0
  0
ARC
  5
660A
330
1F
100
AcDbEntity
  8
24
  6
Continuous
 62
     7
100
AcDbCircle
 10
470.0370534131938
 20
325.2946805573554
 30
0.0
 40
12.9816113111731
100
AcDbArc
 50
351.1374800094313
 51
8.862519990568662
  0
LWPOLYLINE
  5
660C
330
1F
100
AcDbEntity
  8
24
  6
Continuous
100
AcDbPolyline
 90
        4
 70
     1
 43
0.0
 10
379.2921278781887
 20
315.0269545623757
 10
381.2921278781887
 20
315.0269545623757
 10
381.2921278781887
 20
317.0269545623757
 10
379.2921278781887
 20
317.0269545623757
  0
LWPOLYLINE
  5
660D
330
1F
100
AcDbEntity
  8
24
  6
Continuous
100
AcDbPolyline
 90
        4
 70
     1
 43
0.0
 10
379.2921278781887
 20
449.6269121003328
 10
381.2921278781887
 20
449.6269121003328
 10
381.2921278781887
 20
447.6269121003327
 10
379.2921278781887
 20
447.6269121003327
  0
LWPOLYLINE
  5
660E
330
1F
100
AcDbEntity
  8
10
  6
Continuous
100
AcDbPolyline
 90
        4
 70
     1
 43
0.0
 10
309.2921291149382
 20
407.2946805573553
 10
313.2921291149382
 20
407.2946805573553
 10
313.2921291149382
 20
357.2946805573553
 10
309.2921291149382
 20
357.2946805573553
  0
LWPOLYLINE
  5
660F
330
1F
100
AcDbEntity
  8
10
  6
Continuous
100
AcDbPolyline
 90
       20
 70
     0
 43
0.0
 10
309.2921291149382
 20
359.7946805573553
 10
303.6554841916246
 20
359.7946805573553
 10
303.40706507709
 20
362.4417393808848
 10
303.2627734929712
 20
365.0887982044142
 10
303.1267369696839
 20
367.7358570279437
 10
303.003083037644
 20
370.382915851473
 10
302.8959392272674
 20
373.0299746750024
 10
302.8094330689696
 20
375.6770334985318
 10
302.7476920931667
 20
378.3240923220613
 10
302.7105443194246
 20
382.2946805573553
 10
302.7148438302743
 20
383.6182099691201
 10
302.7476920931667
 20
386.2652687926495
 10
302.8094330689696
 20
388.9123276161789
 10
302.8959392272674
 20
391.5593864397083
 10
303.003083037644
 20
394.2064452632377
 10
303.1267369696839
 20
396.8535040867672
 10
303.2627734929712
 20
399.5005629102966
 10
303.40706507709
 20
402.147621733826
 10
303.5554841916247
 20
404.7946805573553
 10
309.2921291149382
 20
404.7946805573553
  0
LINE
  5
6610
330
1F
100
AcDbEntity
  8
17
100
AcDbLine
 10
371.0105443194247
 20
439.2946805573552
 30
0.0
 11
491.0105443194246
 21
439.2946805573552
 31
0.0
  0
LINE
  5
6611
330
1F
100
AcDbEntity
  8
24
  6
Continuous
 62
     7
100
AcDbLine
 10
403.5105443194245
 20
322.7946805573554
 30
0.0
 11
433.2536765320245
 21
322.7946805573554
 31
0.0
  0
LINE
  5
6612
330
1F
100
AcDbEntity
  8
24
  6
Continuous
 62
     7
100
AcDbLine
 10
403.5105443194245
 20
327.7946805573554
 30
0.0
 11
433.2536765320245
 21
327.7946805573554
 31
0.0
  0
ARC
  5
6613
330
1F
100
AcDbEntity
  8
24
  6
Continuous
 62
     7
100
AcDbCircle
 10
413.4105443194246
 20
325.2946805573554
 30
0.0
 40
20.0
100
AcDbArc
 50
352.8055694888982
 51
7.194430511101937
  0
ARC
  5
6614
330
1F
100
AcDbEntity
  8
24
  6
Continuous
 62
     7
100
AcDbCircle
 10
402.8644804994241
 20
339.7772763337554
 30
0.0
 40
12.0
100
AcDbArc
 50
240.7833294700036
 51
273.0862196937968
  0
ARC
  5
6615
330
1F
100
AcDbEntity
  8
24
  6
Continuous
 62
     7
100
AcDbCircle
 10
402.8644804994241
 20
310.8120847809554
 30
0.0
 40
12.0
100
AcDbArc
 50
86.91378030620315
 51
119.2168251174987
  0
LINE
  5
6616
330
1F
100
AcDbEntity
  8
24
  6
Continuous
 62
     7
100
AcDbLine
 10
403.5105443194245
 20
436.7946805573553
 30
0.0
 11
433.2536765320246
 21
436.7946805573553
 31
0.0
  0
LINE
  5
6617
330
1F
100
AcDbEntity
  8
24
  6
Continuous
 62
     7
100
AcDbLine
 10
403.5105443194245
 20
441.7946805573553
 30
0.0
 11
433.2536765320246
 21
441.7946805573553
 31
0.0
  0
ARC
  5
6618
330
1F
100
AcDbEntity
  8
24
  6
Continuous
 62
     7
100
AcDbCircle
 10
413.4105443194248
 20
439.2946805573552
 30
0.0
 40
20.0
100
AcDbArc
 50
352.8055694888982
 51
7.194430511101937
  0
ARC
  5
6619
330
1F
100
AcDbEntity
  8
24
  6
Continuous
 62
     7
100
AcDbCircle
 10
402.8644804994241
 20
453.7772763337553
 30
0.0
 40
12.0
100
AcDbArc
 50
240.7833294700036
 51
273.0862196937968
  0
ARC
  5
661A
330
1F
100
AcDbEntity
  8
24
  6
Continuous
 62
     7
100
AcDbCircle
 10
402.8644804994241
 20
424.8120847809552
 30
0.0
 40
12.0
100
AcDbArc
 50
86.91378030620315
 51
119.2168251174987
  0
DIMENSION
  5
661D
330
1F
100
AcDbEntity
  8
30
  6
Continuous
100
AcDbDimension
280
     0
  2
*D4
 10
509.8989932442637
 20
325.2946805573554
 30
0.0
 11
504.8989932442636
 21
382.2946805573553
 31
0.0
 70
    32
 71
     5
 42
114.0
 73
     0
 74
     0
 75
     0
  3
STANDARD
100
AcDbAlignedDimension
 13
489.8989932442637
 23
439.2946805573552
 33
0.0
 14
489.8989932442637
 24
325.2946805573554
 34
0.0
 50
90.0
100
AcDbRotatedDimension
  0
MTEXT
  5
6620
330
1F
100
AcDbEntity
  8
0
  6
Continuous
 62
     7
100
AcDbMText
 10
326.3487103694694
 20
587.0387645767682
 30
0.0
 40
8.0
 41
0.0
 46
0.0
 71
     7
 72
     5
  1
PS125-NF (15-50A) 4P RC\PPS50-PF (15-50A) 4P RC\PPS125-PF (15-50A) 4P RC\PPS125-NE (15-50A) 4P RC\PPS125-PE (15-50A) 4P RC
  7
blockfont
 73
     1
 44
1.0
  0
LINE
  5
6621
330
1F
100
AcDbEntity
  8
10
100
AcDbLine
 10
168.1972855906546
 20
431.2636551379132
 30
0.0
 11
78.23551078473919
 21
431.2636551379132
 31
0.0
  0
LINE
  5
6622
330
1F
100
AcDbEntity
  8
10
100
AcDbLine
 10
168.1972855906546
 20
433.2725840386054
 30
0.0
 11
78.23076773351147
 21
433.2725840386054
 31
0.0
  0
LINE
  5
6624
330
1F
100
AcDbEntity
  8
16
 48
5.0
100
AcDbLine
 10
206.5962261710529
 20
382.2946805573553
 30
0.0
 11
71.14033933254359
 21
382.2946805573553
 31
0.0
  0
LINE
  5
6627
330
1F
100
AcDbEntity
  8
17
 48
0.5
100
AcDbLine
 10
123.1972855906546
 20
434.3193573730026
 30
0.0
 11
123.1972855906546
 21
444.3195573730027
 31
0.0
  0
LINE
  5
662A
330
1F
100
AcDbEntity
  8
17
 48
0.5
100
AcDbLine
 10
153.3312134884889
 20
434.3193573730026
 30
0.0
 11
153.3312134884889
 21
444.3195573730027
 31
0.0
  0
LINE
  5
662B
330
1F
100
AcDbEntity
  8
17
 48
0.5
100
AcDbLine
 10
148.331113488489
 20
439.3194573730027
 30
0.0
 11
158.3313134884889
 21
439.3194573730027
 31
0.0
  0
LWPOLYLINE
  5
662C
102
{ACAD_REACTORS
330
9C0F
102
}
330
1F
100
AcDbEntity
  8
10
100
AcDbPolyline
 90
        5
 70
     0
 43
0.0
 10
168.1972855906546
 20
317.36617178278
 10
168.1972855906546
 20
447.3661293207372
 10
78.23076773351147
 20
447.3661293207372
 10
78.23076773351147
 20
317.36617178278
 10
168.1972855906546
 20
317.36617178278
  0
LWPOLYLINE
  5
662D
330
1F
100
AcDbEntity
  8
10
100
AcDbPolyline
 90
        6
 70
     1
 43
0.0
 10
113.6513886482213
 20
447.3661293207372
 10
132.7562678747855
 20
447.3661293207372
 10
132.7562678747855
 20
436.259885619065
 42
-0.4144445394035128
 10
129.7539022535148
 20
433.259886551759
 10
116.6490230269506
 20
433.2702202819878
 42
-0.4139826230609387
 10
113.6513886482213
 20
436.2702193492935
  0
LWPOLYLINE
  5
662E
330
1F
100
AcDbEntity
  8
10
100
AcDbPolyline
 90
        6
 70
     1
 43
0.0
 10
143.7853165460556
 20
447.3661293207372
 10
162.8901957726199
 20
447.3661293207372
 10
162.8901957726199
 20
436.259885619065
 42
-0.3875051527158081
 10
160.1659298245315
 20
433.2725840386054
 10
146.782950924785
 20
433.2702202819878
 42
-0.4139826230609387
 10
143.7853165460556
 20
436.2702193492935
  0
LWPOLYLINE
  5
662F
330
1F
100
AcDbEntity
  8
10
100
AcDbPolyline
 90
        4
 70
     1
 43
0.0
 10
81.19467563323745
 20
407.3883422408274
 10
165.1946756332374
 20
407.3883422408274
 10
165.1946756332374
 20
357.3865392301367
 10
81.19467563323745
 20
357.3865392301367
  0
LINE
  5
6630
330
1F
100
AcDbEntity
  8
10
100
AcDbLine
 10
168.1972855906546
 20
333.6257059767973
 30
0.0
 11
78.23551078473919
 21
333.6257059767973
 31
0.0
  0
LINE
  5
6631
330
1F
100
AcDbEntity
  8
10
100
AcDbLine
 10
168.1972855906546
 20
331.6167770761055
 30
0.0
 11
78.23076773351147
 21
331.6167770761055
 31
0.0
  0
CIRCLE
  5
6632
330
1F
100
AcDbEntity
  8
22
  6
CONTINOUS
100
AcDbCircle
 10
138.2642498763688
 20
327.0766002002125
 30
0.0
 40
3.077821902690307
  0
LINE
  5
6633
330
1F
100
AcDbEntity
  8
17
 48
0.5
100
AcDbLine
 10
123.1972855906546
 20
330.5700037417081
 30
0.0
 11
123.1972855906546
 21
320.5698037417081
 31
0.0
  0
LINE
  5
6634
330
1F
100
AcDbEntity
  8
17
 48
0.5
100
AcDbLine
 10
118.1971855906546
 20
325.5699037417081
 30
0.0
 11
128.1973855906545
 21
325.5699037417081
 31
0.0
  0
LINE
  5
6635
330
1F
100
AcDbEntity
  8
22
  6
DASHDOT
 48
0.5
100
AcDbLine
 10
138.214026662083
 20
332.0766994818197
 30
0.0
 11
138.214026662083
 21
322.0764994818197
 31
0.0
  0
LINE
  5
6636
330
1F
100
AcDbEntity
  8
22
  6
DASHDOT
 48
0.5
100
AcDbLine
 10
133.213926662083
 20
327.0765994818197
 30
0.0
 11
143.214126662083
 21
327.0765994818197
 31
0.0
  0
LINE
  5
6637
330
1F
100
AcDbEntity
  8
17
 48
0.5
100
AcDbLine
 10
153.3312134884889
 20
330.5700037417081
 30
0.0
 11
153.3312134884889
 21
320.5698037417081
 31
0.0
  0
LINE
  5
6638
330
1F
100
AcDbEntity
  8
17
 48
0.5
100
AcDbLine
 10
148.331113488489
 20
325.5699037417081
 30
0.0
 11
158.3313134884889
 21
325.5699037417081
 31
0.0
  0
LWPOLYLINE
  5
6639
330
1F
100
AcDbEntity
  8
10
100
AcDbPolyline
 90
        6
 70
     1
 43
0.0
 10
113.6513886482213
 20
317.36617178278
 10
132.7562678747855
 20
317.36617178278
 10
132.7562678747855
 20
328.6294754956458
 42
0.4144445394035128
 10
129.7539022535148
 20
331.6294745629517
 10
116.6490230269506
 20
331.619140832723
 42
0.4139826230609387
 10
113.6513886482213
 20
328.6191417654171
  0
LWPOLYLINE
  5
663A
330
1F
100
AcDbEntity
  8
10
100
AcDbPolyline
 90
        6
 70
     1
 43
0.0
 10
143.7853165460556
 20
317.36617178278
 10
162.8901957726199
 20
317.36617178278
 10
162.8901957726199
 20
328.6294754956458
 42
0.3875051527157385
 10
160.165929824532
 20
331.6167770761054
 10
146.782950924785
 20
331.619140832723
 42
0.4139826230609387
 10
143.7853165460556
 20
328.6191417654171
  0
CIRCLE
  5
663B
330
1F
100
AcDbEntity
  8
24
  6
CONTINOUS
100
AcDbCircle
 10
123.1972855906546
 20
325.5699037417081
 30
0.0
 40
4.25
  0
CIRCLE
  5
663C
330
1F
100
AcDbEntity
  8
24
  6
CONTINOUS
100
AcDbCircle
 10
153.3312134884889
 20
325.5699037417081
 30
0.0
 40
4.25
  0
CIRCLE
  5
663D
330
1F
100
AcDbEntity
  8
24
  6
CONTINOUS
100
AcDbCircle
 10
153.3312134884889
 20
439.3194573730027
 30
0.0
 40
4.25
  0
LINE
  5
663F
330
1F
100
AcDbEntity
  8
16
 48
5.0
100
AcDbLine
 10
123.1946756332374
 20
302.9970284335818
 30
0.0
 11
123.1946756332374
 21
458.3026349765596
 31
0.0
  0
LINE
  5
664A
330
1F
100
AcDbEntity
  8
16
 48
5.0
100
AcDbLine
 10
262.0429436297188
 20
82.09954775905123
 30
0.0
 11
262.0429436297188
 21
233.6309176175975
 31
0.0
  0
LINE
  5
664B
330
1F
100
AcDbEntity
  8
16
 48
5.0
100
AcDbLine
 10
340.7307941290834
 20
152.0995473676344
 30
0.0
 11
212.0429439093022
 21
152.0995473676344
 31
0.0
  0
LINE
  5
6666
330
1F
100
AcDbEntity
  8
17
 48
0.5
100
AcDbLine
 10
123.1954305325253
 20
434.3193577171199
 30
0.0
 11
123.1991406487839
 21
444.3195570288853
 31
0.0
  0
LINE
  5
6667
330
1F
100
AcDbEntity
  8
22
  6
DASHDOT
 48
0.5
100
AcDbLine
 10
108.2086402626078
 20
432.8182276953578
 30
0.0
 11
108.2123503788665
 21
442.8184270071233
 31
0.0
  0
LINE
  5
6668
330
1F
100
AcDbEntity
  8
22
  6
DASHDOT
 48
0.5
100
AcDbLine
 10
113.21059497662
 20
437.8164722931112
 30
0.0
 11
103.2103956648544
 21
437.8201824093696
 31
0.0
  0
LINE
  5
6669
330
1F
100
AcDbEntity
  8
17
 48
0.5
100
AcDbLine
 10
93.09201346705437
 20
434.3305318716676
 30
0.0
 11
93.09572358331299
 21
444.3307311834331
 31
0.0
  0
LINE
  5
666A
330
1F
100
AcDbEntity
  8
17
 48
0.5
100
AcDbLine
 10
98.09396818106643
 20
439.3287764694211
 30
0.0
 11
88.0937688693009
 21
439.3324865856796
 31
0.0
  0
LWPOLYLINE
  5
666B
330
1F
100
AcDbEntity
  8
10
100
AcDbPolyline
 90
        6
 70
     1
 43
0.0
 10
102.6427408344823
 20
447.3661293207372
 10
83.53786246025993
 20
447.3623241600861
 10
83.53375178493299
 20
436.2746064068089
 42
0.4144445394035128
 10
86.53500418730322
 20
433.2734936556964
 10
99.63988634582008
 20
433.2789654199046
 42
0.4139826230609387
 10
102.6386335305174
 20
436.2778521457824
  0
CIRCLE
  5
666C
330
1F
100
AcDbEntity
  8
24
  6
CONTINOUS
100
AcDbCircle
 10
93.09386852518356
 20
439.3306315275502
 30
0.0
 40
4.25
  0
CIRCLE
  5
666D
330
1F
100
AcDbEntity
  8
24
  6
CONTINOUS
100
AcDbCircle
 10
123.2277943491389
 20
439.3194517135636
 30
0.0
 40
4.25
  0
CIRCLE
  5
666E
330
1F
100
AcDbEntity
  8
22
  6
CONTINOUS
100
AcDbCircle
 10
108.1602721101744
 20
437.818346702657
 30
0.0
 40
3.077821902690307
  0
LINE
  5
666F
330
1F
100
AcDbEntity
  8
17
 48
0.5
100
AcDbLine
 10
93.0633576928202
 20
330.5700037417081
 30
0.0
 11
93.0633576928202
 21
320.5698037417081
 31
0.0
  0
LINE
  5
6670
330
1F
100
AcDbEntity
  8
17
 48
0.5
100
AcDbLine
 10
88.06325769282024
 20
325.5699037417081
 30
0.0
 11
98.06345769282016
 21
325.5699037417081
 31
0.0
  0
LWPOLYLINE
  5
6671
330
1F
100
AcDbEntity
  8
10
100
AcDbPolyline
 90
        6
 70
     1
 43
0.0
 10
83.51746075038693
 20
317.36617178278
 10
102.6223399769511
 20
317.36617178278
 10
102.6223399769511
 20
328.6294754956458
 42
0.4144445394035128
 10
99.61997435568049
 20
331.6294745629517
 10
86.51509512911628
 20
331.619140832723
 42
0.4139826230609387
 10
83.51746075038693
 20
328.6191417654171
  0
CIRCLE
  5
6672
330
1F
100
AcDbEntity
  8
24
  6
CONTINOUS
100
AcDbCircle
 10
93.0633576928202
 20
325.5699037417081
 30
0.0
 40
4.25
  0
DIMENSION
  5
6676
330
1F
100
AcDbEntity
  8
30
100
AcDbDimension
280
     0
  2
*D5
 10
165.1946756332374
 20
343.1666961440742
 30
0.0
 11
123.1946756332374
 21
343.1666961440742
 31
0.0
 70
   160
 71
     5
 42
84.0
 73
     0
 74
     0
 75
     0
  3
STANDARD
100
AcDbAlignedDimension
 13
81.19467563323745
 23
357.3865392301367
 33
0.0
 14
165.1946756332374
 24
357.3865392301367
 34
0.0
100
AcDbRotatedDimension
  0
LWPOLYLINE
  5
6677
330
1F
100
AcDbEntity
  8
10
100
AcDbPolyline
 90
        4
 70
     1
 43
0.0
 10
115.7104055800871
 20
369.0625205098701
 10
130.6789456863878
 20
369.0625205098701
 10
130.6789456863878
 20
396.22115164938
 10
115.7104055800871
 20
396.22115164938
  0
LWPOLYLINE
  5
6678
330
1F
100
AcDbEntity
  8
10
100
AcDbPolyline
 90
        4
 70
     1
 43
0.0
 10
116.7954370789823
 20
393.4729980157139
 10
129.7954370789823
 20
393.4729980157139
 10
129.7954370789823
 20
388.4729980157139
 10
116.7954370789823
 20
388.4729980157139
  0
LINE
  5
6679
330
1F
100
AcDbEntity
  8
17
 48
0.5
100
AcDbLine
 10
118.1945756332375
 20
439.3193226705053
 30
0.0
 11
128.1947756332374
 21
439.3193226705053
 31
0.0
  0
LWPOLYLINE
  5
667A
330
1F
100
AcDbEntity
  8
10
100
AcDbPolyline
 90
        4
 70
     1
 43
0.0
 10
112.1716624220149
 20
404.3988997953026
 10
134.2179587411278
 20
404.3988997953026
 10
134.217958741161
 20
360.1904620895151
 10
112.1716549249718
 20
360.1904620895151
  0
LWPOLYLINE
  5
66AB
330
1F
100
AcDbEntity
  8
10
  6
Continuous
100
AcDbPolyline
 90
       31
 70
     0
 43
0.0
 10
321.3123028238673
 20
331.1651555649322
 10
321.3123028238673
 20
331.1651555649322
 10
321.3123028238673
 20
331.1651555649322
 10
321.3123028238673
 20
331.1651555649322
 10
321.3123028238673
 20
331.1651555649322
 42
1.09625752610414
 10
321.3123028238673
 20
331.1651555649322
 10
313.2921291149382
 20
331.1651555649322
 10
313.2921291149382
 20
331.1651555649322
 10
313.2921291149382
 20
332.1925787621808
 10
313.2921291149382
 20
333.9114088899766
 10
313.2921291149382
 20
357.2946805573553
 10
313.2921291149382
 20
433.3814358643528
 42
-0.0855072839151511
 10
313.2921291149382
 20
433.5693378975496
 10
320.5745858157047
 20
433.5308646512912
 42
0.3758822830529091
 10
321.0732227461256
 20
433.9612658193988
 10
322.1717004943108
 20
441.7773398729981
 10
322.1717004943108
 20
441.7773398729981
 10
322.1717004943108
 20
441.7773398729981
 10
322.7535125107016
 20
445.9171412515295
 10
322.7535125107016
 20
445.9171412515295
 10
322.7535125107016
 20
445.9171412515295
 42
-0.1294431367931932
 10
324.0592293144664
 20
447.6269121003327
 10
380.8545456343112
 20
447.6269121003327
 42
0.0033336821045917
 10
381.2921278781887
 20
447.6269121003327
 10
381.2921278781887
 20
317.0269545623757
 42
8.931262686279291
 10
381.2921278781887
 20
317.0269545623757
 10
324.1635462220586
 20
317.0269545623757
 42
-0.1953144770907657
 10
323.0888315942658
 20
317.9537780074633
 10
322.7535125107016
 20
318.5715948185643
 10
321.3123028238673
 20
331.1651555649322
 42
0.1261397278995533
 10
321.3123028238673
 20
331.1651555649322
  0
LWPOLYLINE
  5
66AC
330
1F
100
AcDbEntity
  8
10
100
AcDbPolyline
 90
        9
 70
     0
 43
0.0
 10
302.8011406240755
 20
395.0307123110223
 10
294.6584371817981
 20
397.170094835389
 10
290.0744436493729
 20
398.3470648052943
 10
288.5194374601113
 20
398.1118919026383
 10
287.6084080002434
 20
396.8299489172299
 10
286.8840243954292
 20
393.53525969044
 10
287.1733219727206
 20
391.9894075532297
 10
288.4862785027335
 20
391.1236722328851
 10
302.5039152762488
 20
388.6681092176409
  0
LINE
  5
66AD
330
1F
100
AcDbEntity
  8
0
  6
Continuous
 62
     7
100
AcDbLine
 10
136.1379532275742
 20
605.6185174180584
 30
0.0
 11
136.6401854527975
 21
606.1207496432817
 31
0.0
  0
LINE
  5
66AE
330
1F
100
AcDbEntity
  8
0
  6
Continuous
 62
     7
100
AcDbLine
 10
139.6535778683779
 20
606.1207496432817
 30
0.0
 11
140.155811029159
 21
605.6185174180584
 31
0.0
  0
LINE
  5
66AF
330
1F
100
AcDbEntity
  8
0
  6
Continuous
 62
     7
100
AcDbLine
 10
136.1379532275742
 20
599.0209728258262
 30
0.0
 11
136.1379532275742
 21
605.6185174180584
 31
0.0
  0
LINE
  5
66B0
330
1F
100
AcDbEntity
  8
0
  6
Continuous
 62
     7
100
AcDbLine
 10
140.155811029159
 20
605.6185174180584
 30
0.0
 11
140.155811029159
 21
599.0209728258262
 31
0.0
  0
LINE
  5
66B1
330
1F
100
AcDbEntity
  8
0
  6
Continuous
 62
     7
100
AcDbLine
 10
106.0040234588242
 20
605.6185174180584
 30
0.0
 11
106.5062566194048
 21
606.1207496432817
 31
0.0
  0
LINE
  5
66B2
330
1F
100
AcDbEntity
  8
0
  6
Continuous
 62
     7
100
AcDbLine
 10
109.519649034985
 20
606.1207496432817
 30
0.0
 11
110.0218812602082
 21
605.6185174180584
 31
0.0
  0
LINE
  5
66B3
330
1F
100
AcDbEntity
  8
0
  6
Continuous
 62
     7
100
AcDbLine
 10
106.0040234588242
 20
599.0209728258262
 30
0.0
 11
106.0040234588242
 21
605.6185174180584
 31
0.0
  0
LINE
  5
66B4
330
1F
100
AcDbEntity
  8
0
  6
Continuous
 62
     7
100
AcDbLine
 10
110.0218812602082
 20
605.6185174180584
 30
0.0
 11
110.0218812602082
 21
599.0209728258262
 31
0.0
  0
LINE
  5
66B7
330
1F
100
AcDbEntity
  8
0
  6
Continuous
 62
     7
100
AcDbLine
 10
136.1379532275742
 20
605.6185174180584
 30
0.0
 11
140.155811029159
 21
605.6185174180584
 31
0.0
  0
LINE
  5
66B8
330
1F
100
AcDbEntity
  8
0
  6
Continuous
 62
     7
100
AcDbLine
 10
136.6401854527975
 20
606.1207496432817
 30
0.0
 11
139.6535778683779
 21
606.1207496432817
 31
0.0
  0
LINE
  5
66B9
330
1F
100
AcDbEntity
  8
0
  6
Continuous
 62
     7
100
AcDbLine
 10
106.0040234588242
 20
605.6185174180584
 30
0.0
 11
110.0218812602082
 21
605.6185174180584
 31
0.0
  0
LINE
  5
66BA
330
1F
100
AcDbEntity
  8
0
  6
Continuous
 62
     7
100
AcDbLine
 10
106.5062566194048
 20
606.1207496432817
 30
0.0
 11
109.519649034985
 21
606.1207496432817
 31
0.0
  0
LINE
  5
66BB
330
1F
100
AcDbEntity
  8
0
  6
SLD-実線
370
    15
100
AcDbLine
 10
165.1972855906546
 20
526.0995473676342
 30
0.0
 11
80.96254889712794
 21
526.0995473676342
 31
0.0
  0
LINE
  5
66BC
330
1F
100
AcDbEntity
  8
0
  6
SLD-実線
370
    15
100
AcDbLine
 10
163.7494091076636
 20
530.1173976853577
 30
0.0
 11
82.41042538011891
 21
530.1173976853577
 31
0.0
  0
LINE
  5
66BD
330
1F
100
AcDbEntity
  8
24
  6
Continuous
 62
     7
100
AcDbLine
 10
100.8310327556324
 20
621.8357031327906
 30
0.0
 11
85.06094406556817
 21
621.8357031328554
 31
0.0
  0
LWPOLYLINE
  5
66D0
330
1F
100
AcDbEntity
  8
10
  6
CONTINOUS
100
AcDbPolyline
 90
        5
 70
     0
 43
0.0
 10
167.9310545353775
 20
530.1173976853577
 10
78.02881756992917
 20
530.1173976853577
 10
78.02881756992917
 20
599.0810857901331
 10
167.9310545353775
 20
599.0810857901331
 10
167.9310545353775
 20
530.1173976853577
  0
LWPOLYLINE
  5
66D1
330
1F
100
AcDbEntity
  8
10
  6
CONTINOUS
100
AcDbPolyline
 90
        4
 70
     1
 43
0.0
 10
78.02881756992917
 20
530.1173976853577
 10
167.9310545353775
 20
530.1173976853577
 10
167.9310545358374
 20
532.0938953561791
 10
78.02881756992917
 20
532.0938953561791
  0
LWPOLYLINE
  5
66D2
102
{ACAD_REACTORS
330
A393
102
}
330
1F
100
AcDbEntity
  8
10
  6
CONTINOUS
100
AcDbPolyline
 90
        4
 70
     1
 43
0.0
 10
80.96254889712794
 20
530.1173976853577
 10
165.1972855906546
 20
530.1173976853577
 10
165.1972855906546
 20
526.0995473676342
 10
80.96254889712794
 20
526.0995473676342
  0
LWPOLYLINE
  5
66D3
330
1F
100
AcDbEntity
  8
10
  6
CONTINOUS
100
AcDbPolyline
 90
        4
 70
     1
 43
0.0
 10
112.0799172438912
 20
526.0995473676342
 10
134.0799172438912
 20
526.0995473676342
 10
134.0799172438912
 20
519.7995530838343
 10
112.0799172438912
 20
519.7995530838343
  0
LWPOLYLINE
  5
66D4
330
1F
100
AcDbEntity
  8
10
  6
CONTINOUS
100
AcDbPolyline
 90
        4
 70
     1
 43
0.0
 10
116.5288175699291
 20
503.6728552198343
 10
129.5288175699291
 20
503.6728552198343
 10
129.5288175699291
 20
519.7995530838343
 10
116.5288175699291
 20
519.7995530838343
  0
LWPOLYLINE
  5
66D6
330
1F
100
AcDbEntity
  8
24
  6
Continuous
 62
     7
100
AcDbPolyline
 90
        4
 70
     0
 43
0.0
 10
84.86110081825108
 20
599.0810857901331
 10
85.12655116748497
 20
614.2888302262282
 10
100.7654256537126
 20
614.2888302262282
 10
101.0308760029466
 20
599.0810857901331
  0
DIMENSION
  5
66D8
330
1F
100
AcDbEntity
  8
30
  6
Continuous
100
AcDbDimension
280
     0
  2
*D6
 10
123.0288173079649
 20
717.0725690048461
 30
0.0
 11
135.1538558069047
 21
717.0725690048461
 31
0.0
 70
   160
  1
30
 71
     5
 42
30.13392815979911
 73
     0
 74
     0
 75
     0
  3
STANDARD
100
AcDbAlignedDimension
 13
153.162745467764
 23
651.1411216191422
 33
0.0
 14
123.0288173079649
 24
701.0716410781883
 34
0.0
100
AcDbRotatedDimension
1001
ACAD
1000
DSTYLE
1002
{
1070
    79
1070
     3
1002
}
  0
DIMENSION
  5
66D9
330
1F
100
AcDbEntity
  8
30
  6
Continuous
100
AcDbDimension
280
     0
  2
*D7
 10
123.0288175699292
 20
717.0810857901332
 30
0.0
 11
110.204956416425
 21
717.0810857901332
 31
0.0
 70
   160
  1
30
 71
     5
 42
30.0828288974665
 73
     0
 74
     0
 75
     0
  3
STANDARD
100
AcDbAlignedDimension
 13
92.94598867246271
 23
638.3959728258262
 33
0.0
 14
123.0288175699292
 24
701.0716410781883
 34
0.0
 50
180.0
100
AcDbRotatedDimension
1001
ACAD
1000
DSTYLE
1002
{
1070
    79
1070
     3
1002
}
  0
DIMENSION
  5
66DA
330
1F
100
AcDbEntity
  8
30
  6
Continuous
100
AcDbDimension
280
     0
  2
*D8
 10
72.70495641642503
 20
599.0810857901331
 30
0.0
 11
67.70495641642495
 21
617.5810857901333
 31
0.0
 70
    32
 71
     5
 42
37.0
 73
     0
 74
     0
 75
     0
  3
STANDARD
100
AcDbAlignedDimension
 13
83.05570491162496
 23
636.0810857901333
 33
0.0
 14
85.20495641642503
 24
599.0810857901331
 34
0.0
 50
90.0
100
AcDbRotatedDimension
1001
ACAD
1000
DSTYLE
1002
{
1070
    79
1070
     3
1002
}
  0
DIMENSION
  5
66DB
330
1F
100
AcDbEntity
  8
30
  6
Continuous
100
AcDbDimension
280
     0
  2
*D9
 10
62.70495641642503
 20
599.0810857901331
 30
0.0
 11
57.70495641642494
 21
625.0810857901333
 31
0.0
 70
    32
 71
     5
 42
52.0
 73
     0
 74
     0
 75
     0
  3
STANDARD
100
AcDbAlignedDimension
 13
97.70495641642504
 23
651.0810857901333
 33
0.0
 14
85.20495641642503
 24
599.0810857901331
 34
0.0
 50
90.0
100
AcDbRotatedDimension
1001
ACAD
1000
DSTYLE
1002
{
1070
    79
1070
     3
1002
}
  0
DIMENSION
  5
66DC
330
1F
100
AcDbEntity
  8
30
  6
Continuous
100
AcDbDimension
280
     0
  2
*D10
 10
216.2006987779528
 20
599.0810857901331
 30
0.0
 11
216.2006987779527
 21
615.7810857901332
 31
0.0
 70
   160
 71
     5
 42
7.039663853148567
 73
     0
 74
     0
 75
     0
  3
STANDARD
100
AcDbAlignedDimension
 13
139.924839602406
 23
606.1207496432817
 33
0.0
 14
198.1972855906546
 24
599.0810857901331
 34
0.0
 50
90.0
100
AcDbRotatedDimension
1001
ACAD
1000
DSTYLE
1002
{
1070
    79
1070
     3
1002
}
  0
DIMENSION
  5
66DD
330
1F
100
AcDbEntity
  8
30
  6
Continuous
100
AcDbDimension
280
     0
  2
*D11
 10
170.1692627898417
 20
630.1728456903945
 30
0.0
 11
165.1692627898416
 21
619.4228456903945
 31
0.0
 70
    32
  1
12.5
 71
     5
 42
12.55221331402436
 73
     0
 74
     0
 75
     0
  3
STANDARD
100
AcDbAlignedDimension
 13
147.3301105359086
 23
642.7250590044187
 33
0.0
 14
147.7402738979319
 24
630.1728456903945
 34
0.0
 50
90.0
100
AcDbRotatedDimension
  0
DIMENSION
  5
66DF
330
1F
100
AcDbEntity
  8
30
  6
Continuous
100
AcDbDimension
280
     0
  2
*D12
 10
52.70495641642503
 20
599.0810857901331
 30
0.0
 11
47.70495641642494
 21
642.5810857901333
 31
0.0
 70
    32
 71
     5
 42
87.00000000000011
 73
     0
 74
     0
 75
     0
  3
STANDARD
100
AcDbAlignedDimension
 13
105.9702968344251
 23
686.0810857901333
 33
0.0
 14
85.20495641642503
 24
599.0810857901331
 34
0.0
 50
90.0
100
AcDbRotatedDimension
  0
DIMENSION
  5
66E0
330
1F
100
AcDbEntity
  8
30
  6
Continuous
100
AcDbDimension
280
     0
  2
*D13
 10
42.70495641642503
 20
599.0810857901331
 30
0.0
 11
37.70495641642494
 21
650.0810857901333
 31
0.0
 70
    32
 71
     5
 42
102.0000000000001
 73
     0
 74
     0
 75
     0
  3
STANDARD
100
AcDbAlignedDimension
 13
122.704956416425
 23
701.0810857901332
 33
0.0
 14
85.20495641642503
 24
599.0810857901331
 34
0.0
 50
90.0
100
AcDbRotatedDimension
  0
LWPOLYLINE
  5
66ED
330
1F
100
AcDbEntity
  8
24
  6
Continuous
 62
     7
100
AcDbPolyline
 90
        4
 70
     0
 43
0.0
 10
114.9439299776818
 20
599.14119875444
 10
115.2093803269157
 20
614.348943190535
 10
130.8482548131434
 20
614.348943190535
 10
131.1137051623773
 20
599.14119875444
  0
LINE
  5
66F0
330
1F
100
AcDbEntity
  8
24
  6
Continuous
 62
     7
100
AcDbLine
 10
161.098890160454
 20
621.8958160970974
 30
0.0
 11
145.3288014703897
 21
621.8958160971622
 31
0.0
  0
LWPOLYLINE
  5
66F8
330
1F
100
AcDbEntity
  8
24
  6
Continuous
 62
     7
100
AcDbPolyline
 90
        4
 70
     0
 43
0.0
 10
145.1289582230725
 20
599.14119875444
 10
145.3944085723066
 20
614.348943190535
 10
161.0332830585342
 20
614.348943190535
 10
161.2987334077681
 20
599.14119875444
  0
ARC
  5
6710
330
1F
100
AcDbEntity
  8
10
100
AcDbCircle
 10
123.227795022733
 20
439.0194516836307
 30
0.0
 40
10.04464285714245
100
AcDbArc
 50
56.19728719519034
 51
123.8027128048096
  0
ARC
  5
6711
330
1F
100
AcDbEntity
  8
10
100
AcDbCircle
 10
153.331214162083
 20
439.0194573430696
 30
0.0
 40
10.04464285714245
100
AcDbArc
 50
56.19722916890058
 51
123.8027708310994
  0
ARC
  5
6712
330
1F
100
AcDbEntity
  8
10
100
AcDbCircle
 10
123.227795022733
 20
325.7128494198864
 30
0.0
 40
10.04464285714245
100
AcDbArc
 50
236.1972871951903
 51
303.8027128048097
  0
ARC
  5
6713
330
1F
100
AcDbEntity
  8
10
100
AcDbCircle
 10
153.331214162083
 20
325.7128437604474
 30
0.0
 40
10.04464285714245
100
AcDbArc
 50
236.1972291689006
 51
303.8027708310995
  0
ARC
  5
6715
330
1F
100
AcDbEntity
  8
10
100
AcDbCircle
 10
93.09386712489867
 20
439.0194516836307
 30
0.0
 40
10.04464285714245
100
AcDbArc
 50
56.19728719519034
 51
123.8027128048096
  0
ARC
  5
6716
330
1F
100
AcDbEntity
  8
10
100
AcDbCircle
 10
93.09386712489867
 20
325.7128494198864
 30
0.0
 40
10.04464285714245
100
AcDbArc
 50
236.1972871951903
 51
303.8027128048097
  0
MTEXT
  5
7316
330
1F
100
AcDbEntity
  8
19
100
AcDbMText
 10
239.6569946067665
 20
31.7884613915935
 30
0.0
 40
7.826237649998486
 41
0.0
 46
0.0
 71
     1
 72
     1
  1
[Cutout A]
  7
SLDTEXTSTYLE0
 73
     1
 44
1.0
  0
MTEXT
  5
7317
330
1F
100
AcDbEntity
  8
19
100
AcDbMText
 10
397.4514788486849
 20
31.7884613915935
 30
0.0
 40
7.826237649998486
 41
0.0
 46
0.0
 71
     1
 72
     1
  1
[Cutout B]
  7
SLDTEXTSTYLE0
 73
     1
 44
1.0
  0
LINE
  5
7355
330
1F
100
AcDbEntity
  8
16
 48
5.0
100
AcDbLine
 10
423.1832983751088
 20
82.09954775905123
 30
0.0
 11
423.1832983751088
 21
233.6309176175975
 31
0.0
  0
LINE
  5
7356
330
1F
100
AcDbEntity
  8
16
 48
5.0
100
AcDbLine
 10
504.0821267244509
 20
152.0995473676344
 30
0.0
 11
373.1832986546924
 21
152.0995473676344
 31
0.0
  0
LINE
  5
7581
330
1F
100
AcDbEntity
  8
17
 48
0.5
100
AcDbLine
 10
92.94598841060032
 20
624.3782345240507
 30
0.0
 11
92.94598841060032
 21
654.8792327374732
 31
0.0
  0
LINE
  5
7582
330
1F
100
AcDbEntity
  8
17
 48
0.5
100
AcDbLine
 10
153.2138458154219
 20
625.569232610236
 30
0.0
 11
153.162745467764
 21
652.1411216191424
 31
0.0
  0
LINE
  5
7585
330
1F
100
AcDbEntity
  8
17
 48
0.5
100
AcDbLine
 10
83.05570491162496
 20
636.0810857901333
 30
0.0
 11
104.5513215332439
 21
636.0810857901333
 31
0.0
  0
DIMENSION
  5
75C1
330
1F
100
AcDbEntity
  8
30
100
AcDbDimension
280
     0
  2
*D14
 10
134.217958741161
 20
413.4572498724633
 30
0.0
 11
123.1948068330664
 21
413.4572498724633
 31
0.0
 70
   160
 71
     5
 42
22.04630381618915
 73
     0
 74
     0
 75
     0
  3
STANDARD
100
AcDbAlignedDimension
 13
112.1716549249718
 23
404.3988990251953
 33
0.0
 14
134.217958741161
 24
404.3988990251953
 34
0.0
100
AcDbRotatedDimension
  0
LWPOLYLINE
  5
7729
330
1F
100
AcDbEntity
  8
10
100
AcDbPolyline
 90
        4
 70
     1
 43
0.0
 10
168.1972855906546
 20
317.36617178278
 10
198.1972855906546
 20
317.36617178278
 10
198.1972855906546
 20
447.4053465411413
 10
168.1972855906546
 20
447.4053465411413
  0
DIMENSION
  5
772D
330
1F
100
AcDbEntity
  8
30
100
AcDbDimension
280
     0
  2
*D15
 10
61.09787052520829
 20
317.36617178278
 30
0.0
 11
61.09787052520822
 21
380.6681853317227
 31
0.0
 70
   160
 71
     5
 42
129.9999575379572
 73
     0
 74
     0
 75
     0
  3
STANDARD
100
AcDbAlignedDimension
 13
124.214026662083
 23
447.3661293207372
 33
0.0
 14
102.6223399769511
 24
317.36617178278
 34
0.0
 50
90.0
100
AcDbRotatedDimension
  0
LINE
  5
7772
330
1F
100
AcDbEntity
  8
17
 48
0.5
100
AcDbLine
 10
183.1972855906546
 20
434.358574593407
 30
0.0
 11
183.1972855906546
 21
444.3587745934069
 31
0.0
  0
LINE
  5
7773
330
1F
100
AcDbEntity
  8
17
 48
0.5
100
AcDbLine
 10
178.1971855906546
 20
439.3586745934069
 30
0.0
 11
188.1973855906545
 21
439.3586745934069
 31
0.0
  0
LWPOLYLINE
  5
7774
330
1F
100
AcDbEntity
  8
10
100
AcDbPolyline
 90
        6
 70
     1
 43
0.0
 10
173.6448459773725
 20
447.4053465411413
 10
192.7497252039367
 20
447.4053465411413
 10
192.7497252039367
 20
436.2991028394691
 42
-0.4144445394035217
 10
189.747359582666
 20
433.2991037721633
 10
176.6424803561018
 20
433.3094375023919
 42
-0.4139826230609387
 10
173.6448459773725
 20
436.3094365696978
  0
LINE
  5
7775
330
1F
100
AcDbEntity
  8
17
 48
0.5
100
AcDbLine
 10
183.1907429198057
 20
330.6092209621123
 30
0.0
 11
183.1907429198057
 21
320.6090209621124
 31
0.0
  0
LINE
  5
7776
330
1F
100
AcDbEntity
  8
17
 48
0.5
100
AcDbLine
 10
178.1906429198056
 20
325.6091209621124
 30
0.0
 11
188.1908429198056
 21
325.6091209621124
 31
0.0
  0
LWPOLYLINE
  5
7777
330
1F
100
AcDbEntity
  8
10
100
AcDbPolyline
 90
        6
 70
     1
 43
0.0
 10
173.6472115986431
 20
317.3586411610481
 10
192.7520908252073
 20
317.3586411610481
 10
192.7520908252073
 20
328.621944873914
 42
0.4144445394035128
 10
189.7497252039367
 20
331.6219439412198
 10
176.6448459773725
 20
331.6116102109912
 42
0.4139826230609387
 10
173.6472115986431
 20
328.6116111436852
  0
CIRCLE
  5
7778
330
1F
100
AcDbEntity
  8
24
  6
CONTINOUS
100
AcDbCircle
 10
183.1907429198057
 20
325.6091209621124
 30
0.0
 40
4.25
  0
CIRCLE
  5
7779
330
1F
100
AcDbEntity
  8
24
  6
CONTINOUS
100
AcDbCircle
 10
183.2038282615034
 20
439.3586745934069
 30
0.0
 40
4.25
  0
ARC
  5
777A
330
1F
100
AcDbEntity
  8
10
100
AcDbCircle
 10
183.1907435933998
 20
439.0586745634739
 30
0.0
 40
10.04464285714245
100
AcDbArc
 50
56.19722916890014
 51
123.8027708310994
  0
ARC
  5
777B
330
1F
100
AcDbEntity
  8
10
100
AcDbCircle
 10
183.1907435933998
 20
325.7520609808516
 30
0.0
 40
10.04464285714245
100
AcDbArc
 50
236.1972291689002
 51
303.8027708310999
  0
LINE
  5
777C
330
1F
100
AcDbEntity
  8
10
100
AcDbLine
 10
168.1972855906546
 20
333.6257059767973
 30
0.0
 11
198.1972855906546
 21
333.6257059767973
 31
0.0
  0
LINE
  5
777D
330
1F
100
AcDbEntity
  8
10
100
AcDbLine
 10
168.1972855906546
 20
331.6167770761055
 30
0.0
 11
198.1972855906546
 21
331.6167770761055
 31
0.0
  0
LINE
  5
777E
330
1F
100
AcDbEntity
  8
10
100
AcDbLine
 10
168.1972855906546
 20
433.2725840386054
 30
0.0
 11
198.1972855906546
 21
433.2725840386054
 31
0.0
  0
LINE
  5
7780
330
1F
100
AcDbEntity
  8
10
100
AcDbLine
 10
168.1972855906546
 20
431.2636551379132
 30
0.0
 11
198.1972855906546
 21
431.2636551379132
 31
0.0
  0
LWPOLYLINE
  5
779A
102
{ACAD_REACTORS
330
A393
102
}
330
1F
100
AcDbEntity
  8
10
100
AcDbPolyline
 90
        4
 70
     1
 43
0.0
 10
167.9310545353775
 20
599.0810857901331
 10
198.1972855906546
 20
599.0810857901331
 10
198.1972855906546
 20
530.1173976853577
 10
167.9310545353775
 20
530.1173976853577
  0
LINE
  5
77AA
330
1F
100
AcDbEntity
  8
24
  6
Continuous
 62
     7
100
AcDbLine
 10
176.199453774309
 20
662.6035607464737
 30
0.0
 11
176.199453774309
 21
622.4249902158931
 31
0.0
  0
LINE
  5
77AB
330
1F
100
AcDbEntity
  8
24
  6
Continuous
 62
     7
100
AcDbLine
 10
190.3624004662512
 20
622.4249902158931
 30
0.0
 11
190.3624004662512
 21
662.6035607464737
 31
0.0
  0
DIMENSION
  5
77AC
330
1F
100
AcDbEntity
  8
30
  6
Continuous
100
AcDbDimension
280
     0
  2
*D16
 10
183.2455746270928
 20
717.1411216191422
 30
0.0
 11
170.4217134735887
 21
717.1411216191422
 31
0.0
 70
   160
  1
30
 71
     5
 42
30.08282915932887
 73
     0
 74
     0
 75
     0
  3
STANDARD
100
AcDbAlignedDimension
 13
153.162745467764
 23
651.1411216191422
 33
0.0
 14
183.2455746270928
 24
701.1316769071973
 34
0.0
 50
180.0
100
AcDbRotatedDimension
1001
ACAD
1000
DSTYLE
1002
{
1070
    79
1070
     3
1002
}
  0
LINE
  5
77B5
330
1F
100
AcDbEntity
  8
24
  6
Continuous
 62
     7
100
AcDbLine
 10
190.3624004662512
 20
662.6035607464737
 30
0.0
 11
190.3624004662512
 21
622.4249902158931
 31
0.0
  0
LINE
  5
77B8
330
1F
100
AcDbEntity
  8
24
  6
Continuous
 62
     7
100
AcDbLine
 10
176.199453774309
 20
662.6035607464737
 30
0.0
 11
176.199453774361
 21
622.4249902158931
 31
0.0
  0
LWPOLYLINE
  5
77B9
330
1F
100
AcDbEntity
  8
24
  6
Continuous
 62
     7
100
AcDbPolyline
 90
        4
 70
     0
 43
0.0
 10
175.1449398539703
 20
599.14119875444
 10
175.4103902032042
 20
614.348943190535
 10
191.0492646894319
 20
614.348943190535
 10
191.3147150386658
 20
599.14119875444
  0
LINE
  5
7887
330
1F
100
AcDbEntity
  8
17
 48
0.5
100
AcDbLine
 10
183.2455746270928
 20
672.5773416594168
 30
0.0
 11
183.2455746270928
 21
703.1396713585275
 31
0.0
  0
LINE
  5
7888
330
1F
100
AcDbEntity
  8
17
 48
0.5
100
AcDbLine
 10
173.3552911281174
 20
686.0810857901333
 30
0.0
 11
194.8509077497365
 21
686.0810857901333
 31
0.0
  0
LINE
  5
78CB
330
1F
100
AcDbEntity
  8
24
  6
Continuous
 62
     7
100
AcDbLine
 10
482.8636754250243
 20
437.2946805573553
 30
0.0
 11
444.1105443194242
 21
437.2946805573553
 31
0.0
  0
LINE
  5
78CC
330
1F
100
AcDbEntity
  8
24
  6
Continuous
 62
     7
100
AcDbLine
 10
444.1105443194242
 20
441.2946805573553
 30
0.0
 11
482.8636754250243
 21
441.2946805573553
 31
0.0
  0
ARC
  5
78CD
330
1F
100
AcDbEntity
  8
24
  6
Continuous
 62
     7
100
AcDbCircle
 10
470.0370534131938
 20
439.2946805573552
 30
0.0
 40
12.9816113111731
100
AcDbArc
 50
351.1374800094321
 51
8.862519990567859
  0
LINE
  5
78E4
330
1F
100
AcDbEntity
  8
24
  6
CENTER
 62
     0
100
AcDbLine
 10
420.2656913393043
 20
435.1693430190676
 30
0.0
 11
420.2656913393043
 21
443.2958439197633
 31
0.0
  0
LINE
  5
78E5
330
1F
100
AcDbEntity
  8
24
  6
CENTER
 62
     0
100
AcDbLine
 10
416.2656913393043
 20
434.9756449063201
 30
0.0
 11
416.2656913393043
 21
443.2958439197633
 31
0.0
  0
LINE
  5
78E6
330
1F
100
AcDbEntity
  8
24
  6
CENTER
 62
     0
100
AcDbLine
 10
470.2889026314138
 20
435.1693430190676
 30
0.0
 11
470.2889026314138
 21
443.2958439197633
 31
0.0
  0
LINE
  5
78E7
330
1F
100
AcDbEntity
  8
24
  6
CENTER
 62
     0
100
AcDbLine
 10
466.2889026314139
 20
434.9756449063201
 30
0.0
 11
466.2889026314139
 21
443.2958439197633
 31
0.0
  0
LINE
  5
78E8
330
1F
100
AcDbEntity
  8
24
  6
CENTER
 62
     0
100
AcDbLine
 10
420.2656913393043
 20
321.1693430190676
 30
0.0
 11
420.2656913393043
 21
329.2958439197635
 31
0.0
  0
LINE
  5
78E9
330
1F
100
AcDbEntity
  8
24
  6
CENTER
 62
     0
100
AcDbLine
 10
416.2656913393043
 20
320.9756449063202
 30
0.0
 11
416.2656913393043
 21
329.2958439197635
 31
0.0
  0
LINE
  5
78EA
330
1F
100
AcDbEntity
  8
24
  6
CENTER
 62
     0
100
AcDbLine
 10
470.2889026314138
 20
321.1693430190676
 30
0.0
 11
470.2889026314138
 21
329.2958439197635
 31
0.0
  0
LINE
  5
78EB
330
1F
100
AcDbEntity
  8
24
  6
CENTER
 62
     0
100
AcDbLine
 10
466.2889026314139
 20
320.9756449063202
 30
0.0
 11
466.2889026314139
 21
329.2958439197635
 31
0.0
  0
LINE
  5
79BC
330
1F
100
AcDbEntity
  8
SLD-0
 62
     0
100
AcDbLine
 10
78.13719081857573
 20
201.3572584426883
 30
0.0
 11
78.13719081857573
 21
193.1814939252301
 31
0.0
  0
LINE
  5
79C3
330
1F
100
AcDbEntity
  8
16
 48
5.0
100
AcDbLine
 10
93.14598867246264
 20
77.09954736763439
 30
0.0
 11
93.14598867246264
 21
227.0995473676344
 31
0.0
  0
LINE
  5
79C4
330
1F
100
AcDbEntity
  8
16
 48
5.0
100
AcDbLine
 10
43.35925827692654
 20
152.0995473676344
 30
0.0
 11
170.6309099277289
 21
152.0995473676344
 31
0.0
  0
LEADER
  5
79C6
330
1F
100
AcDbEntity
  8
30
100
AcDbLeader
  3
STANDARD1
 76
     3
 10
77.28668797268404
 20
209.9309499273606
 30
0.0
 10
68.43854565959225
 20
233.3841892234927
 30
0.0
 10
31.33854565959223
 20
233.3841892234927
 30
0.0
1001
ACAD
1000
DSTYLE
1002
{
1070
   147
1040
2.0
1070
    77
1070
     0
1002
}
  0
MTEXT
  5
79C7
330
1F
100
AcDbEntity
  8
30
100
AcDbMText
 10
35.17760751357879
 20
239.7309499273608
 30
0.0
 40
6.0
 41
30.0
 46
0.0
 71
     1
 72
     5
  1
M4x0.7
  7
blockfont
 73
     1
 44
1.0
  0
DIMENSION
  5
79C8
330
1F
100
AcDbEntity
  8
30
100
AcDbDimension
280
     0
  2
*D17
 10
37.17733101588168
 20
96.60278666376648
 30
0.0
 11
32.17733101588168
 21
152.1245473676343
 31
0.0
 70
    32
 71
     5
 42
111.0435214077358
 73
     0
 74
     0
 75
     0
  3
STANDARD
100
AcDbAlignedDimension
 13
76.12469493735523
 23
207.6463080715022
 33
0.0
 14
104.0367467781535
 24
96.60278666376644
 34
0.0
 50
90.0
100
AcDbRotatedDimension
  0
DIMENSION
  5
79C9
330
1F
100
AcDbEntity
  8
30
100
AcDbDimension
280
     0
  2
*D18
 10
108.1246290368826
 20
60.08394393300955
 30
0.0
 11
93.13090992772918
 21
65.08394393300955
 31
0.0
 70
    32
 71
     5
 42
29.98743821830693
 73
     0
 74
     0
 75
     0
  3
STANDARD
100
AcDbAlignedDimension
 13
78.13719081857573
 23
203.1181923387562
 33
0.0
 14
108.1246290368826
 24
92.07467093102035
 34
0.0
100
AcDbRotatedDimension
  0
CIRCLE
  5
79CA
330
1F
100
AcDbEntity
  8
22
  6
Continuous
100
AcDbCircle
 10
93.14598867246264
 20
209.0995473676344
 30
0.0
 40
9.0
  0
LINE
  5
79CB
330
1F
100
AcDbEntity
  8
17
 48
0.5
100
AcDbLine
 10
93.14598867246264
 20
197.5995473676344
 30
0.0
 11
93.14598867246264
 21
220.5995473676344
 31
0.0
  0
CIRCLE
  5
79CC
330
1F
100
AcDbEntity
  8
22
  6
Continuous
100
AcDbCircle
 10
123.1309099277289
 20
209.0995473676344
 30
0.0
 40
9.0
  0
LINE
  5
79CD
330
1F
100
AcDbEntity
  8
17
 48
0.5
100
AcDbLine
 10
123.1309099277289
 20
197.5995473676344
 30
0.0
 11
123.1309099277289
 21
220.5995473676344
 31
0.0
  0
CIRCLE
  5
79CE
330
1F
100
AcDbEntity
  8
22
  6
Continuous
100
AcDbCircle
 10
152.9888904586122
 20
209.0995473676344
 30
0.0
 40
9.0
  0
LINE
  5
79CF
330
1F
100
AcDbEntity
  8
17
 48
0.5
100
AcDbLine
 10
152.9888904586122
 20
197.5995473676344
 30
0.0
 11
152.9888904586122
 21
220.5995473676344
 31
0.0
  0
CIRCLE
  5
79D0
330
1F
100
AcDbEntity
  8
22
  6
Continuous
100
AcDbCircle
 10
93.14598867246271
 20
95.09954537476028
 30
0.0
 40
9.0
  0
LINE
  5
79D1
330
1F
100
AcDbEntity
  8
17
 48
0.5
100
AcDbLine
 10
93.14598867246271
 20
106.5995453747603
 30
0.0
 11
93.14598867246271
 21
83.59954537476028
 31
0.0
  0
CIRCLE
  5
79D2
330
1F
100
AcDbEntity
  8
22
  6
Continuous
100
AcDbCircle
 10
123.1309099277289
 20
95.09954537476028
 30
0.0
 40
9.0
  0
LINE
  5
79D3
330
1F
100
AcDbEntity
  8
17
 48
0.5
100
AcDbLine
 10
123.1309099277289
 20
106.5995453747603
 30
0.0
 11
123.1309099277289
 21
83.59954537476028
 31
0.0
  0
CIRCLE
  5
79D4
330
1F
100
AcDbEntity
  8
22
  6
Continuous
100
AcDbCircle
 10
153.1308904586122
 20
95.09954537476028
 30
0.0
 40
9.0
  0
LINE
  5
79D5
102
{ACAD_REACTORS
330
79DF
102
}
330
1F
100
AcDbEntity
  8
17
 48
0.5
100
AcDbLine
 10
153.1308904586122
 20
106.5995453747603
 30
0.0
 11
153.1308904586122
 21
83.59954537476028
 31
0.0
  0
DIMENSION
  5
79D6
330
1F
100
AcDbEntity
  8
30
100
AcDbDimension
280
     0
  2
*D19
 10
21.92820737229387
 20
95.0995453747603
 30
0.0
 11
21.92820737229386
 21
152.0995463711972
 31
0.0
 70
   160
 71
     5
 42
114.0000019928741
 73
     0
 74
     0
 75
     0
  3
STANDARD
100
AcDbAlignedDimension
 13
50.07627948391382
 23
209.0995473676344
 33
0.0
 14
52.03230492126476
 24
95.09954537476028
 34
0.0
 50
90.0
100
AcDbRotatedDimension
  0
LINE
  5
79D7
330
1F
100
AcDbEntity
  8
17
 48
0.5
100
AcDbLine
 10
104.6459886724627
 20
95.09954537476028
 30
0.0
 11
81.64598867246274
 21
95.09954537476028
 31
0.0
  0
LINE
  5
79D8
330
1F
100
AcDbEntity
  8
17
 48
0.5
100
AcDbLine
 10
134.6309099277289
 20
95.09954537476028
 30
0.0
 11
111.6309099277289
 21
95.09954537476028
 31
0.0
  0
LINE
  5
79D9
330
1F
100
AcDbEntity
  8
17
 48
0.5
100
AcDbLine
 10
164.6308904586122
 20
95.09954537476028
 30
0.0
 11
141.6888904586122
 21
95.09954537476028
 31
0.0
  0
LINE
  5
79DA
330
1F
100
AcDbEntity
  8
17
 48
0.5
100
AcDbLine
 10
164.4888904586122
 20
209.0995473676344
 30
0.0
 11
141.4888904586122
 21
209.0995473676344
 31
0.0
  0
LINE
  5
79DB
330
1F
100
AcDbEntity
  8
17
 48
0.5
100
AcDbLine
 10
134.6309099277289
 20
209.0995473676344
 30
0.0
 11
111.6309099277289
 21
209.0995473676344
 31
0.0
  0
LINE
  5
79DC
330
1F
100
AcDbEntity
  8
17
 48
0.5
100
AcDbLine
 10
104.6459886724626
 20
209.0995473676344
 30
0.0
 11
81.64598867246262
 21
209.0995473676344
 31
0.0
  0
DIMENSION
  5
79DD
102
{ACAD_XDICTIONARY
360
79DE
102
}
102
{ACAD_REACTORS
330
79DF
102
}
330
1F
100
AcDbEntity
  8
30
100
AcDbDimension
280
     0
  2
*D22
 10
153.1308904586122
 20
49.55207469803008
 30
0.0
 11
138.1309001931705
 21
54.55207469803008
 31
0.0
 70
    32
 71
     5
 42
29.99998053088331
 73
     0
 74
     0
 75
     0
  3
STANDARD
100
AcDbAlignedDimension
 13
123.1309099277289
 23
95.09954537476028
 33
0.0
 14
153.1308904586122
 24
83.59954537476028
 34
0.0
100
AcDbRotatedDimension
  0
DIMENSION
  5
79E0
330
1F
100
AcDbEntity
  8
30
100
AcDbDimension
280
     0
  2
*D20
 10
123.1309099277289
 20
49.55207469803008
 30
0.0
 11
108.1384493000958
 21
54.55207469803008
 31
0.0
 70
    32
 71
     5
 42
29.98492125526616
 73
     0
 74
     0
 75
     0
  3
STANDARD
100
AcDbAlignedDimension
 13
93.14598867246271
 23
56.69417068578173
 33
0.0
 14
123.1309099277289
 24
83.59954537476028
 34
0.0
100
AcDbRotatedDimension
  0
CIRCLE
  5
79E2
330
1F
100
AcDbEntity
  8
22
  6
Continuous
100
AcDbCircle
 10
63.14598867246264
 20
209.0995473676344
 30
0.0
 40
9.0
  0
LINE
  5
79E3
330
1F
100
AcDbEntity
  8
17
 48
0.5
100
AcDbLine
 10
63.14598867246264
 20
197.5995473676344
 30
0.0
 11
63.14598867246264
 21
220.5995473676344
 31
0.0
  0
CIRCLE
  5
79E4
330
1F
100
AcDbEntity
  8
22
  6
Continuous
100
AcDbCircle
 10
63.14598867246274
 20
95.09954537476028
 30
0.0
 40
9.0
  0
LINE
  5
79E5
330
1F
100
AcDbEntity
  8
17
 48
0.5
100
AcDbLine
 10
63.14598867246274
 20
106.5995453747603
 30
0.0
 11
63.14598867246274
 21
83.59954537476028
 31
0.0
  0
LINE
  5
79E6
330
1F
100
AcDbEntity
  8
17
 48
0.5
100
AcDbLine
 10
74.64598867246275
 20
95.09954537476028
 30
0.0
 11
51.64598867246275
 21
95.09954537476028
 31
0.0
  0
LINE
  5
79E7
330
1F
100
AcDbEntity
  8
17
 48
0.5
100
AcDbLine
 10
74.64598867246262
 20
209.0995473676344
 30
0.0
 11
51.64598867246263
 21
209.0995473676344
 31
0.0
  0
DIMENSION
  5
79E8
330
1F
100
AcDbEntity
  8
30
100
AcDbDimension
280
     0
  2
*D21
 10
93.1309099277289
 20
49.55207469803008
 30
0.0
 11
78.13844930009583
 21
54.55207469803008
 31
0.0
 70
    32
 71
     5
 42
29.98492125526616
 73
     0
 74
     0
 75
     0
  3
STANDARD
100
AcDbAlignedDimension
 13
63.14598867246274
 23
95.09954537476028
 33
0.0
 14
93.1309099277289
 24
57.07954927250193
 34
0.0
100
AcDbRotatedDimension
  0
LWPOLYLINE
  5
7A8A
330
1F
100
AcDbEntity
  8
10
  6
Continuous
100
AcDbPolyline
 90
        4
 70
     1
 43
0.0
 10
0.0
 20
742.4999999999997
 10
525.0
 20
742.4999999999997
 10
525.0
 20
0.0
 10
0.0
 20
0.0
  0
LWPOLYLINE
  5
9230
330
1F
100
AcDbEntity
  8
24
  6
Continuous
 62
     7
100
AcDbPolyline
 90
        6
 70
     0
 43
0.0
 10
87.90795713250942
 20
614.2888299686871
 42
0.1739087674231221
 10
85.06094406556817
 20
620.3065652213117
 10
85.06094432743044
 20
649.132332876104
 42
-0.2471454556482815
 10
100.8310327556324
 20
649.1323330139606
 10
100.8310327556324
 20
620.3065652213117
 42
0.1718897542815705
 10
97.98402021241599
 20
614.2888299686873
  0
LWPOLYLINE
  5
9232
330
1F
100
AcDbEntity
  8
24
  6
Continuous
 62
     7
100
AcDbPolyline
 90
        5
 70
     0
 43
0.0
 10
88.67701683529743
 20
638.3959732929022
 10
88.67701683529743
 20
634.3746867052507
 42
0.9995984643691707
 10
97.21496188674848
 20
634.3781156511652
 10
97.21496188674848
 20
638.3959728258262
 42
1.0
 10
88.67701545817693
 20
638.3959728258262
  0
LWPOLYLINE
  5
9236
330
1F
100
AcDbEntity
  8
24
  6
Continuous
 62
     7
100
AcDbPolyline
 90
        6
 70
     0
 43
0.0
 10
148.175814537331
 20
614.3489429329937
 42
0.1739087674231221
 10
145.3288014703897
 20
620.3666781856187
 10
145.328801732252
 20
649.1924458404107
 42
-0.2471454556482815
 10
161.098890160454
 20
649.1924459782674
 10
161.098890160454
 20
620.3666781856187
 42
0.1718897542815705
 10
158.2518776172376
 20
614.3489429329942
  0
LWPOLYLINE
  5
9237
330
1F
100
AcDbEntity
  8
24
  6
Continuous
 62
     7
100
AcDbPolyline
 90
        5
 70
     0
 43
0.0
 10
148.944874240119
 20
638.4560862572087
 10
148.944874240119
 20
634.4347996695577
 42
0.9995984643691707
 10
157.4828192915701
 20
634.4382286154718
 10
157.4828192915701
 20
638.4560857901329
 42
1.0
 10
148.9448728629985
 20
638.4560857901329
  0
LWPOLYLINE
  5
923B
330
1F
100
AcDbEntity
  8
24
100
AcDbPolyline
 90
        4
 70
     0
 43
0.0
 10
191.1148716509598
 20
662.6035607463037
 10
191.1148715294878
 20
699.1228883020156
 42
0.2471454556482774
 10
175.3447831012859
 20
699.1228881641591
 10
175.344783101333
 20
662.6035607464737
  0
LINE
  5
923C
330
1F
100
AcDbEntity
  8
17
 48
0.5
100
AcDbLine
 10
143.3235623164465
 20
636.14119875444
 30
0.0
 11
164.8191789380654
 21
636.14119875444
 31
0.0
  0
LWPOLYLINE
  5
923E
330
1F
100
AcDbEntity
  8
24
  6
Continuous
 62
     7
100
AcDbPolyline
 90
        5
 70
     0
 43
0.0
 10
179.0119205332969
 20
688.3959732929022
 10
179.0119205332969
 20
684.3746867052511
 42
0.9995984643691707
 10
187.5498655847479
 20
684.3781156511654
 10
187.5498655847479
 20
688.3959728258264
 42
1.0
 10
179.0119191561764
 20
688.3959728258264
  0
LWPOLYLINE
  5
924B
330
1F
100
AcDbEntity
  8
24
  6
Continuous
 62
     7
100
AcDbPolyline
 90
        6
 70
     0
 43
0.0
 10
178.2075433491038
 20
614.3489429329942
 42
0.1895052905133649
 10
174.7085043063267
 20
621.0516534695682
 10
174.7085042795148
 20
662.6035607464737
 10
191.8848443225951
 20
662.6035607464737
 10
191.8848443168514
 20
621.0516534695694
 42
0.1983297955160358
 10
188.2836064290105
 20
614.3489429329942
  0
DIMENSION
  5
9260
330
1F
100
AcDbEntity
  8
30
  6
Continuous
100
AcDbDimension
280
     0
  2
*D23
 10
157.4828192915701
 20
656.6766608285425
 30
0.0
 11
167.6463377442869
 21
656.6766608285425
 31
0.0
 70
   160
 71
     5
 42
8.537945051451059
 73
     0
 74
     0
 75
     0
  3
STANDARD
100
AcDbAlignedDimension
 13
148.944874240119
 23
636.14119875444
 33
0.0
 14
157.4828192915701
 24
636.14119875444
 34
0.0
100
AcDbRotatedDimension
  0
DIMENSION
  5
9284
330
1F
100
AcDbEntity
  8
30
  6
Continuous
100
AcDbDimension
280
     0
  2
*D24
 10
161.2342079038233
 20
677.0810857901333
 30
0.0
 11
154.4788148473882
 21
677.0810857901333
 31
0.0
 70
   160
 71
     5
 42
15.97008869006413
 73
     0
 74
     0
 75
     0
  3
STANDARD
100
AcDbAlignedDimension
 13
145.2641192137591
 23
649.0924458404109
 33
0.0
 14
161.2342079038233
 24
649.1924458404107
 34
0.0
100
AcDbRotatedDimension
  0
DIMENSION
  5
9448
330
1F
100
AcDbEntity
  8
30
  6
Continuous
100
AcDbDimension
280
     0
  2
*D25
 10
381.2921278781887
 20
265.5431514921811
 30
0.0
 11
333.5421284965637
 21
270.543151492181
 31
0.0
 70
    32
 71
     5
 42
95.49999876325022
 73
     0
 74
     0
 75
     0
  3
STANDARD
100
AcDbAlignedDimension
 13
285.7921291149385
 23
385.9114088899767
 33
0.0
 14
381.2921278781887
 24
320.7507754607405
 34
0.0
 50
180.0
100
AcDbRotatedDimension
1001
ACAD
1000
DSTYLE
1002
{
1070
    79
1070
     3
1002
}
  0
DIMENSION
  5
9449
330
1F
100
AcDbEntity
  8
30
  6
Continuous
100
AcDbDimension
280
     0
  2
*D26
 10
309.2921291149382
 20
276.9634192587379
 30
0.0
 11
292.0023563876655
 21
276.9634192587379
 31
0.0
 70
   160
 71
     5
 42
6.5
 73
     0
 74
     0
 75
     0
  3
STANDARD
100
AcDbAlignedDimension
 13
302.7921291149382
 23
360.9114088899767
 33
0.0
 14
309.2921291149382
 24
354.8565085252878
 34
0.0
 50
180.0
100
AcDbRotatedDimension
1001
ACAD
1000
DSTYLE
1002
{
1070
    79
1070
     3
1002
}
  0
DIMENSION
  5
944A
330
1F
100
AcDbEntity
  8
30
  6
Continuous
100
AcDbDimension
280
     0
  2
*D27
 10
381.2921278781887
 20
276.9634192587379
 30
0.0
 11
345.2921284965634
 21
281.9634192587379
 31
0.0
 70
    32
 71
     5
 42
71.99999876325046
 73
     0
 74
     0
 75
     0
  3
STANDARD
100
AcDbAlignedDimension
 13
309.2921291149382
 23
349.7223597174827
 33
0.0
 14
381.2921278781887
 24
320.7507754607405
 34
0.0
 50
180.0
100
AcDbRotatedDimension
1001
ACAD
1000
DSTYLE
1002
{
1070
    79
1070
     3
1002
}
  0
DIMENSION
  5
944B
330
1F
100
AcDbEntity
  8
30
  6
Continuous
100
AcDbDimension
280
     0
  2
*D28
 10
381.2921278781887
 20
287.8178846470682
 30
0.0
 11
347.2921284965635
 21
292.8178846470682
 31
0.0
 70
    32
 71
     5
 42
67.99999876325045
 73
     0
 74
     0
 75
     0
  3
STANDARD
100
AcDbAlignedDimension
 13
313.2921291149382
 23
324.2711775736895
 33
0.0
 14
381.2921278781887
 24
320.7507754607405
 34
0.0
 50
180.0
100
AcDbRotatedDimension
1001
ACAD
1000
DSTYLE
1002
{
1070
    79
1070
     3
1002
}
  0
DIMENSION
  5
944C
330
1F
100
AcDbEntity
  8
30
  6
Continuous
100
AcDbDimension
280
     0
  2
*D29
 10
381.2921278781887
 20
298.1180743723132
 30
0.0
 11
351.2921278781886
 21
303.1180743723132
 31
0.0
 70
    32
 71
     5
 42
60.0000000000001
 73
     0
 74
     0
 75
     0
  3
STANDARD
100
AcDbAlignedDimension
 13
321.2921278781887
 23
320.7507754607405
 33
0.0
 14
381.2921278781887
 24
320.7507754607405
 34
0.0
 50
180.0
100
AcDbRotatedDimension
1001
ACAD
1000
DSTYLE
1002
{
1070
    79
1070
     3
1002
}
  0
DIMENSION
  5
962A
330
1F
100
AcDbEntity
  8
30
100
AcDbDimension
280
     0
  2
*D30
 10
304.8095757328141
 20
60.09949795475995
 30
0.0
 11
261.8095759732562
 21
60.09949795475995
 31
0.0
 70
   160
  1
<>
 71
     2
 42
85.99999951911639
 73
     0
 74
     0
 75
     0
  3
STANDARD
100
AcDbAlignedDimension
 13
218.8095762136978
 23
127.0995475074261
 33
0.0
 14
304.8095757328141
 24
127.0995475074261
 34
0.0
100
AcDbRotatedDimension
  0
DIMENSION
  5
962B
330
1F
100
AcDbEntity
  8
30
100
AcDbDimension
280
     0
  2
*D31
 10
303.8095757384056
 20
177.0995472278423
 30
0.0
 11
313.8726572978715
 21
187.0462505590831
 31
0.0
 70
   164
  1
R1
 71
     5
 42
0.9999999943786972
 73
     0
 74
     0
 75
     0
  3
STANDARD1
100
AcDbRadialDimension
 15
304.2087261287851
 25
178.0164326921273
 35
0.0
 40
0.0
  0
DIMENSION
  5
962C
330
1F
100
AcDbEntity
  8
30
100
AcDbDimension
280
     0
  2
*D32
 10
356.7078161182508
 20
126.099546976356
 30
0.0
 11
351.7078161182508
 21
152.0995473674724
 31
0.0
 70
    32
 71
     5
 42
52.0000007822329
 73
     0
 74
     0
 75
     0
  3
STANDARD
100
AcDbAlignedDimension
 13
307.6525879095498
 23
178.0995477585889
 33
0.0
 14
307.6525879093494
 24
126.099546976356
 34
0.0
 50
89.99999999977854
100
AcDbRotatedDimension
  0
LWPOLYLINE
  5
967B
330
1F
100
AcDbEntity
  8
10
 62
     1
100
AcDbPolyline
 90
        8
 70
     1
 43
0.0
 10
218.8095747531976
 20
177.0995477587509
 10
218.8095747531976
 20
127.0995469765179
 42
0.4142135623730951
 10
219.8095747531976
 20
126.0995469765179
 10
303.8095771930644
 20
126.0995469765179
 42
0.4142135623730951
 10
304.8095771930643
 20
127.0995469765179
 10
304.8095771930643
 20
177.0995477587509
 42
0.4142135623730951
 10
303.8095771930644
 20
178.0995477587508
 10
219.8095747531976
 20
178.0995477587508
 42
0.4142135623730951
  0
DIMENSION
  5
96B5
330
1F
100
AcDbEntity
  8
30
100
AcDbDimension
280
     0
  2
*D33
 10
435.8100962776989
 20
177.0995472278424
 30
0.0
 11
445.8731778371651
 21
187.4850134871525
 31
0.0
 70
   164
  1
R1
 71
     5
 42
0.9999999943785836
 73
     0
 74
     0
 75
     0
  3
STANDARD1
100
AcDbRadialDimension
 15
436.194927423934
 25
178.022534214557
 35
0.0
 40
0.0
  0
DIMENSION
  5
9735
330
1F
100
AcDbEntity
  8
30
100
AcDbDimension
280
     0
  2
*D34
 10
435.4166660315713
 20
60.09949795475995
 30
0.0
 11
425.7140526573071
 21
60.09949795475995
 31
0.0
 70
   160
  1
<>
 71
     2
 42
23.99999999999971
 73
     0
 74
     0
 75
     0
  3
STANDARD
100
AcDbAlignedDimension
 13
411.4166660315716
 23
151.8495473676344
 33
0.0
 14
435.4166660315713
 24
151.8495473676344
 34
0.0
100
AcDbRotatedDimension
  0
LWPOLYLINE
  5
9736
330
1F
100
AcDbEntity
  8
10
 62
     1
100
AcDbPolyline
 90
        8
 70
     1
 43
0.0
 10
434.4166660315713
 20
175.8495473676342
 10
412.4166660315716
 20
175.849547367634
 42
0.4142135623730951
 10
411.4166660315716
 20
174.8495473676342
 10
411.4166660315718
 20
128.8495473676345
 42
0.4142135623730951
 10
412.4166660315716
 20
127.8495473676345
 10
434.4166660315713
 20
127.8495473676347
 42
0.4142135623730951
 10
435.4166660315713
 20
128.8495473676345
 10
435.4166660315711
 20
174.8495473676342
 42
0.4142135623730951
  0
DIMENSION
  5
9737
330
1F
100
AcDbEntity
  8
30
100
AcDbDimension
280
     0
  2
*D35
 10
515.5200254960021
 20
127.8495473676345
 30
0.0
 11
515.5200254960021
 21
152.9878037369322
 31
0.0
 70
   160
 71
     2
 42
47.99999999999967
 73
     0
 74
     0
 75
     0
  3
STANDARD
100
AcDbAlignedDimension
 13
434.4166660315713
 23
175.8495473676342
 33
0.0
 14
434.4166660315713
 24
127.8495473676345
 34
0.0
 50
90.0
100
AcDbRotatedDimension
  0
LINE
  5
99A5
330
1F
100
AcDbEntity
  8
18
 48
5.0
100
AcDbLine
 10
168.1309099277289
 20
217.5056619861042
 30
0.0
 11
48.13090992772891
 21
217.5056619861042
 31
0.0
  0
LINE
  5
99A6
330
1F
100
AcDbEntity
  8
18
 48
5.0
100
AcDbLine
 10
48.13090992772891
 20
217.5056619861042
 30
0.0
 11
48.13090992772891
 21
87.09954537476027
 31
0.0
  0
LINE
  5
99A7
330
1F
100
AcDbEntity
  8
18
 48
5.0
100
AcDbLine
 10
48.13090992772891
 20
87.09954537476027
 30
0.0
 11
168.1309099277289
 21
87.09954537476027
 31
0.0
  0
LINE
  5
99A8
330
1F
100
AcDbEntity
  8
18
 48
5.0
100
AcDbLine
 10
168.1309099277289
 20
87.09954537476027
 30
0.0
 11
168.1309099277289
 21
217.5056619861042
 31
0.0
  0
LINE
  5
99A9
330
1F
100
AcDbEntity
  8
18
 48
5.0
100
AcDbLine
 10
337.0429451660934
 20
217.0995446199259
 30
0.0
 11
217.0429420930936
 21
217.0995446199259
 31
0.0
  0
LINE
  5
99AA
330
1F
100
AcDbEntity
  8
18
 48
5.0
100
AcDbLine
 10
217.0429420930936
 20
217.0995446199259
 30
0.0
 11
217.0429420930936
 21
87.09955011509293
 31
0.0
  0
LINE
  5
99AB
330
1F
100
AcDbEntity
  8
18
 48
5.0
100
AcDbLine
 10
217.0429420930936
 20
87.09955011509293
 30
0.0
 11
337.0429451660934
 21
87.09955011509293
 31
0.0
  0
LINE
  5
99AC
330
1F
100
AcDbEntity
  8
18
 48
5.0
100
AcDbLine
 10
337.0429451660934
 20
87.09955011509293
 30
0.0
 11
337.0429451660934
 21
217.0995446199259
 31
0.0
  0
LINE
  5
99AD
330
1F
100
AcDbEntity
  8
18
 48
5.0
100
AcDbLine
 10
498.1832999114835
 20
87.09955011509293
 30
0.0
 11
498.1832999114835
 21
217.0995446199259
 31
0.0
  0
LINE
  5
99AE
330
1F
100
AcDbEntity
  8
18
 48
5.0
100
AcDbLine
 10
498.1832999114835
 20
217.0995446199259
 30
0.0
 11
378.1832968384838
 21
217.0995446199259
 31
0.0
  0
LINE
  5
99AF
330
1F
100
AcDbEntity
  8
18
 48
5.0
100
AcDbLine
 10
378.1832968384838
 20
217.0995446199259
 30
0.0
 11
378.1832968384838
 21
87.09955011509293
 31
0.0
  0
LINE
  5
99B0
330
1F
100
AcDbEntity
  8
18
 48
5.0
100
AcDbLine
 10
378.1832968384838
 20
87.09955011509293
 30
0.0
 11
498.1832999114835
 21
87.09955011509293
 31
0.0
  0
LEADER
  5
9B91
330
1F
100
AcDbEntity
  8
30
100
AcDbLeader
  3
STANDARD1
 76
     3
 10
158.5275575841526
 20
216.1934296948552
 30
0.0
 10
170.8247225729301
 20
231.0995473676344
 30
0.0
 10
192.0756863313843
 20
231.0995473676344
 30
0.0
211
-1.0
221
0.0
231
0.0
1001
ACAD
1000
DSTYLE
1002
{
1070
   147
1040
2.0
1070
    77
1070
     0
1002
}
  0
MTEXT
  5
9B92
330
1F
100
AcDbEntity
  8
30
100
AcDbMText
 10
174.5831571485901
 20
238.8434809170955
 30
0.0
 40
6.0
 41
30.0
 46
0.0
 71
     1
 72
     5
  1
φ18
  7
blockfont
 73
     1
 44
1.0
  0
DIMENSION
  5
9BF8
102
{ACAD_XDICTIONARY
360
9C05
102
}
102
{ACAD_REACTORS
330
9C0F
102
}
330
1F
100
AcDbEntity
  8
30
100
AcDbDimension
280
     0
  2
*D36
 10
198.2307677335113
 20
279.3653314905109
 30
0.0
 11
138.2307677335115
 21
284.3653314905109
 31
0.0
 70
    32
 71
     5
 42
120.0
 73
     0
 74
     0
 75
     0
  3
STANDARD
100
AcDbAlignedDimension
 13
78.23076773351147
 23
317.36617178278
 33
0.0
 14
198.2307677335113
 24
317.36617178278
 34
0.0
100
AcDbRotatedDimension
  0
CIRCLE
  5
A2CE
330
1F
100
AcDbEntity
  8
22
  6
Continuous
 62
     3
100
AcDbCircle
 10
108.1397077816163
 20
96.60278666376644
 30
0.0
 40
2.012495881220635
  0
CIRCLE
  5
A2CF
330
1F
100
AcDbEntity
  8
22
  6
Continuous
 62
     3
100
AcDbCircle
 10
78.20447092047356
 20
207.6463080715022
 30
0.0
 40
2.000000000000023
  0
INSERT
  5
A2D0
330
1F
100
AcDbEntity
  8
22
  6
DASHDOT
 62
     3
100
AcDbBlockReference
  2
SW_CENTERMARKSYMBOL_18
 10
78.15226956330945
 20
207.6463080715022
 30
0.0
 41
2.5
 42
2.5
 43
2.5
  0
INSERT
  5
A2D1
330
1F
100
AcDbEntity
  8
22
  6
DASHDOT
 62
     3
100
AcDbBlockReference
  2
SW_CENTERMARKSYMBOL_18
 10
108.0875064244522
 20
96.60278666376644
 30
0.0
 41
2.5
 42
2.5
 43
2.5
  0
LWPOLYLINE
  5
A303
330
1F
100
AcDbEntity
  8
24
  6
Continuous
 62
     7
100
AcDbPolyline
 90
        5
 70
     0
 43
0.0
 10
127.2977894072952
 20
688.3865285809571
 10
127.2977894072952
 20
684.3652419933057
 42
-0.9995984643691707
 10
118.7598443558441
 20
684.3686709392202
 10
118.7598443558441
 20
688.3865281138812
 42
-1.0
 10
127.2977907844157
 20
688.3865281138812
  0
LWPOLYLINE
  5
A304
330
1F
100
AcDbEntity
  8
24
  6
Continuous
 62
     7
100
AcDbPolyline
 90
        4
 70
     0
 43
0.0
 10
130.9138619151155
 20
663.1035607464736
 10
130.913861915162
 20
699.1228881641592
 42
0.2471454556482762
 10
115.1437734869602
 20
699.1228883020156
 10
115.142896212362
 20
663.1035607464736
  0
LINE
  5
A305
330
1F
100
AcDbEntity
  8
17
 48
0.5
100
AcDbLine
 10
132.9191010691053
 20
686.0810857901333
 30
0.0
 11
111.4234844474863
 21
686.0810857901333
 31
0.0
  0
LINE
  5
A306
330
1F
100
AcDbEntity
  8
24
  6
Continuous
 62
     7
100
AcDbLine
 10
114.3895478746277
 20
622.4249902158931
 30
0.0
 11
114.3895478746277
 21
621.4737639475897
 31
0.0
  0
LINE
  5
A307
330
1F
100
AcDbEntity
  8
24
  6
Continuous
 62
     7
100
AcDbLine
 10
131.565887917708
 20
621.4737639475897
 30
0.0
 11
131.565887917708
 21
622.4249902158931
 31
0.0
  0
LINE
  5
A308
330
1F
100
AcDbEntity
  8
24
  6
Continuous
 62
     7
100
AcDbLine
 10
115.8962445500964
 20
663.1035607464736
 30
0.0
 11
130.0591912420385
 21
663.1035607464736
 31
0.0
  0
LINE
  5
A309
330
1F
100
AcDbEntity
  8
24
  6
Continuous
 62
     7
100
AcDbLine
 10
114.3895478746277
 20
663.1035607464736
 30
0.0
 11
114.3895478746277
 21
622.4249902158931
 31
0.0
  0
LINE
  5
A30A
330
1F
100
AcDbEntity
  8
24
  6
Continuous
 62
     7
100
AcDbLine
 10
115.8962445500964
 20
663.1035607464736
 30
0.0
 11
114.3895478746277
 21
663.1035607464736
 31
0.0
  0
LINE
  5
A30B
330
1F
100
AcDbEntity
  8
24
  6
Continuous
 62
     7
100
AcDbLine
 10
131.565887917708
 20
663.1035607464736
 30
0.0
 11
130.0591912420385
 21
663.1035607464736
 31
0.0
  0
LINE
  5
A30C
330
1F
100
AcDbEntity
  8
24
  6
Continuous
 62
     7
100
AcDbLine
 10
131.565887917708
 20
622.4249902158931
 30
0.0
 11
131.565887917708
 21
663.1035607464736
 31
0.0
  0
LINE
  5
A30D
330
1F
100
AcDbEntity
  8
24
  6
Continuous
 62
     7
100
AcDbLine
 10
130.0591912420385
 20
622.4249902158931
 30
0.0
 11
115.8962445500964
 21
622.4249902158931
 31
0.0
  0
LINE
  5
A30E
330
1F
100
AcDbEntity
  8
24
  6
Continuous
 62
     7
100
AcDbLine
 10
114.3895478746277
 20
622.4249902158931
 30
0.0
 11
115.8962445500964
 21
622.4249902158931
 31
0.0
  0
LINE
  5
A30F
330
1F
100
AcDbEntity
  8
24
  6
Continuous
 62
     7
100
AcDbLine
 10
130.0591912420385
 20
622.4249902158931
 30
0.0
 11
131.565887917708
 21
622.4249902158931
 31
0.0
  0
LINE
  5
A310
330
1F
100
AcDbEntity
  8
24
  6
Continuous
 62
     7
100
AcDbLine
 10
130.0591912420385
 20
663.1035607464736
 30
0.0
 11
130.0591912420385
 21
622.4249902158931
 31
0.0
  0
LINE
  5
A311
330
1F
100
AcDbEntity
  8
24
  6
Continuous
 62
     7
100
AcDbLine
 10
115.8962445500964
 20
622.4249902158931
 30
0.0
 11
115.8962445500964
 21
663.1035607464736
 31
0.0
  0
ARC
  5
A312
330
1F
100
AcDbEntity
  8
24
  6
Continuous
 62
     7
100
AcDbCircle
 10
108.0735581227749
 20
613.3393999322636
 30
0.0
 40
9.968479384627967
100
AcDbArc
 50
5.812510157188596
 51
50.68406185258144
  0
ARC
  5
A313
330
1F
100
AcDbEntity
  8
24
  6
Continuous
 62
     7
100
AcDbCircle
 10
138.341197766354
 20
613.2500521806876
 30
0.0
 40
10.33294762297491
100
AcDbArc
 50
130.9727204924186
 51
173.8951502389756
  0
LINE
  5
A314
330
1F
100
AcDbEntity
  8
24
  6
Continuous
 62
     7
100
AcDbLine
 10
114.3895478746277
 20
622.4249902158931
 30
0.0
 11
131.565887917708
 21
622.4249902158931
 31
0.0
  0
LINE
  5
A315
330
1F
100
AcDbEntity
  8
24
  6
Continuous
 62
     7
100
AcDbLine
 10
115.8962445500964
 20
663.1035607464736
 30
0.0
 11
115.8962445500964
 21
622.4249902158931
 31
0.0
  0
LINE
  5
A316
330
1F
100
AcDbEntity
  8
24
  6
Continuous
 62
     7
100
AcDbLine
 10
130.0591912420385
 20
663.1035607464736
 30
0.0
 11
130.0591912419866
 21
622.4249902158931
 31
0.0
  0
LINE
  5
A317
330
1F
100
AcDbEntity
  8
24
  6
Continuous
 62
     7
100
AcDbLine
 10
131.565887917708
 20
663.1035607464736
 30
0.0
 11
131.565887890896
 21
621.0516534695682
 31
0.0
  0
LINE
  5
A318
330
1F
100
AcDbEntity
  8
24
  6
Continuous
 62
     7
100
AcDbLine
 10
114.3895478746277
 20
663.1035607464736
 30
0.0
 11
114.3895478803714
 21
621.0516534695682
 31
0.0
  0
LINE
  5
A319
330
1F
100
AcDbEntity
  8
24
  6
Continuous
 62
     7
100
AcDbLine
 10
131.565887917708
 20
663.1035607464736
 30
0.0
 11
114.3895478746277
 21
663.1035607464736
 31
0.0
  0
DIMENSION
  5
A31A
330
1F
100
AcDbEntity
  8
30
  6
Continuous
100
AcDbDimension
280
     0
  2
*D38
 10
106.2730202660368
 20
663.1035607464736
 30
0.0
 11
101.2730202660367
 21
674.5923232683034
 31
0.0
 70
    32
 71
     5
 42
22.97752504365963
 73
     0
 74
     0
 75
     0
  3
STANDARD
100
AcDbAlignedDimension
 13
115.1437734429778
 23
686.0810857901333
 33
0.0
 14
112.6131907033492
 24
663.1035607464736
 34
0.0
 50
90.0
100
AcDbRotatedDimension
1001
ACAD
1000
DSTYLE
1002
{
1070
    79
1070
     3
1002
}
  0
LINE
  5
A349
330
1F
100
AcDbEntity
  8
16
 48
0.5
100
AcDbLine
 10
123.2455746270929
 20
492.9091498983225
 30
0.0
 11
123.2455746270929
 21
703.1396713585275
 31
0.0
  0
DIMENSION
  5
A37C
102
{ACAD_XDICTIONARY
360
A389
102
}
102
{ACAD_REACTORS
330
A393
102
}
330
1F
100
AcDbEntity
  8
30
100
AcDbDimension
280
     0
  2
*D39
 10
216.2006987779528
 20
599.0810857901331
 30
0.0
 11
211.2006987779527
 21
562.5903165788836
 31
0.0
 70
    32
 71
     5
 42
72.98153842249883
 73
     0
 74
     0
 75
     0
  3
STANDARD
100
AcDbAlignedDimension
 13
165.1972855906546
 23
526.0995473676342
 33
0.0
 14
198.1972855906546
 24
599.0810857901331
 34
0.0
 50
90.0
100
AcDbRotatedDimension
  0
LINE
  5
A40A
330
1F
100
AcDbEntity
  8
16
 48
5.0
100
AcDbLine
 10
391.6848319417986
 20
382.2946805573553
 30
0.0
 11
295.3786754237517
 21
382.2946805573553
 31
0.0
  0
ENDSEC
  0
SECTION
  2
OBJECTS
  0
DICTIONARY
  5
C
330
0
100
AcDbDictionary
281
     1
  3
ACAD_CIP_PREVIOUS_PRODUCT_INFO
350
A37B
  3
ACAD_COLOR
350
59A2
  3
ACAD_DETAILVIEWSTYLE
350
599C
  3
ACAD_GROUP
350
D
  3
ACAD_LAYOUT
350
1A
  3
ACAD_MATERIAL
350
43
  3
ACAD_MLEADERSTYLE
350
599B
  3
ACAD_MLINESTYLE
350
17
  3
ACAD_PLOTSETTINGS
350
19
  3
ACAD_PLOTSTYLENAME
350
E
  3
ACAD_SCALELIST
350
47
  3
ACAD_SECTIONVIEWSTYLE
350
599D
  3
ACAD_TABLESTYLE
350
599A
  3
ACAD_VISUALSTYLE
350
2A
  3
ACDB_RECOMPOSE_DATA
350
A459
  3
AcDbVariableDictionary
350
5998
  3
AEC_PROPERTY_SET_DEFS
350
65E5
  0
SUN
  5
69
330
29
100
AcDbSun
 90
        1
290
     1
 63
     7
421
 16777215
 40
1.0
291
     1
 91
  2455826
 92
 54000000
292
     0
 70
     0
 71
   256
280
     1
  0
DICTIONARY
  5
5F3B
330
2
100
AcDbDictionary
280
     1
281
     1
  3
ACAD_LAYERSTATES
360
5F3C
  0
DICTIONARY
  5
59A9
330
10
100
AcDbDictionary
280
     1
281
     1
  3
ADSK_XREC_LAYER_RECONCILED
360
59AA
  0
DICTIONARY
  5
59AB
330
71
100
AcDbDictionary
280
     1
281
     1
  3
ADSK_XREC_LAYER_RECONCILED
360
59AC
  0
DICTIONARY
  5
649A
330
6499
100
AcDbDictionary
280
     1
281
     1
  0
DICTIONARY
  5
649C
330
649B
100
AcDbDictionary
280
     1
281
     1
  0
DICTIONARY
  5
649E
330
649D
100
AcDbDictionary
280
     1
281
     1
  0
DICTIONARY
  5
64A0
330
649F
100
AcDbDictionary
280
     1
281
     1
  0
DICTIONARY
  5
64A2
330
64A1
100
AcDbDictionary
280
     1
281
     1
  0
DICTIONARY
  5
7308
330
7307
100
AcDbDictionary
280
     1
281
     1
  0
DICTIONARY
  5
A2C1
330
A2C0
100
AcDbDictionary
280
     1
281
     1
  0
DICTIONARY
  5
72CC
330
1F
100
AcDbDictionary
280
     1
281
     1
  3
ACAD_SORTENTS
360
72CD
  0
DICTIONARY
  5
79DE
330
79DD
100
AcDbDictionary
280
     1
281
     1
  3
ACAD_DIMASSOC
360
79DF
  0
DICTIONARY
  5
9C05
330
9BF8
100
AcDbDictionary
280
     1
281
     1
  3
ACAD_DIMASSOC
360
9C0F
  0
DICTIONARY
  5
A389
330
A37C
100
AcDbDictionary
280
     1
281
     1
  3
ACAD_DIMASSOC
360
A393
  0
XRECORD
  5
A37B
102
{ACAD_REACTORS
330
C
102
}
330
C
100
AcDbXrecord
280
     1
300
ACDLT
300
2014
300
ACDLT_F_S
  0
DICTIONARY
  5
59A2
102
{ACAD_REACTORS
330
C
102
}
330
C
100
AcDbDictionary
281
     1
  0
DICTIONARY
  5
599C
102
{ACAD_REACTORS
330
C
102
}
330
C
100
AcDbDictionary
281
     1
  3
Metric50
350
A376
  0
DICTIONARY
  5
D
102
{ACAD_REACTORS
330
C
102
}
330
C
100
AcDbDictionary
281
     1
  0
DICTIONARY
  5
1A
102
{ACAD_REACTORS
330
C
102
}
330
C
100
AcDbDictionary
281
     1
  3
Layout1
350
1E
  3
Layout2
350
26
  3
Model
350
22
  0
DICTIONARY
  5
43
102
{ACAD_REACTORS
330
C
102
}
330
C
100
AcDbDictionary
281
     1
  3
ByBlock
350
45
  3
ByLayer
350
44
  3
Global
350
46
  0
DICTIONARY
  5
599B
102
{ACAD_REACTORS
330
C
102
}
330
C
100
AcDbDictionary
281
     1
  3
Standard
350
59A4
  0
DICTIONARY
  5
17
102
{ACAD_REACTORS
330
C
102
}
330
C
100
AcDbDictionary
281
     1
  3
Standard
350
18
  0
DICTIONARY
  5
19
102
{ACAD_REACTORS
330
C
102
}
330
C
100
AcDbDictionary
281
     1
  0
ACDBDICTIONARYWDFLT
  5
E
102
{ACAD_REACTORS
330
C
102
}
330
C
100
AcDbDictionary
281
     1
  3
Normal
350
F
100
AcDbDictionaryWithDefault
340
F
  0
DICTIONARY
  5
47
102
{ACAD_REACTORS
330
C
102
}
330
C
100
AcDbDictionary
281
     1
  3
A0
350
48
  3
A1
350
49
  3
A2
350
4A
  3
A3
350
4B
  3
A4
350
4C
  3
A5
350
4D
  3
A6
350
4E
  3
A7
350
4F
  3
A8
350
50
  3
A9
350
51
  3
B0
350
52
  3
B1
350
53
  3
B2
350
54
  3
B3
350
55
  3
B4
350
56
  3
B5
350
57
  3
B6
350
58
  3
B7
350
59
  3
B8
350
5A
  3
B9
350
5B
  3
C0
350
5C
  3
C1
350
5D
  3
C2
350
5E
  3
C3
350
5F
  3
C4
350
60
  3
C5
350
61
  3
C6
350
62
  3
C7
350
63
  3
C8
350
64
  3
C9
350
65
  3
D0
350
66
  3
D1
350
67
  3
D2
350
68
  0
DICTIONARY
  5
599D
102
{ACAD_REACTORS
330
C
102
}
330
C
100
AcDbDictionary
281
     1
  3
Metric50
350
A375
  0
DICTIONARY
  5
599A
102
{ACAD_REACTORS
330
C
102
}
330
C
100
AcDbDictionary
281
     1
  3
Standard
350
59A3
  0
DICTIONARY
  5
2A
102
{ACAD_REACTORS
330
C
102
}
330
C
100
AcDbDictionary
281
     1
  3
2dWireframe
350
2F
  3
3D Hidden
350
59A1
  3
3dWireframe
350
59A0
  3
Basic
350
32
  3
Brighten
350
36
  3
ColorChange
350
3A
  3
Conceptual
350
34
  3
Dim
350
35
  3
EdgeColorOff
350
3D
  3
Facepattern
350
39
  3
Flat
350
2B
  3
FlatWithEdges
350
2C
  3
Gouraud
350
2D
  3
GouraudWithEdges
350
2E
  3
Hidden
350
31
  3
JitterOff
350
3B
  3
Linepattern
350
38
  3
OverhangOff
350
3C
  3
Realistic
350
33
  3
Shaded
350
42
  3
Shaded with edges
350
41
  3
Shades of Gray
350
3E
  3
Sketchy
350
3F
  3
Thicken
350
37
  3
Wireframe
350
30
  3
X-Ray
350
40
  0
XRECORD
  5
A459
102
{ACAD_REACTORS
330
C
102
}
330
C
100
AcDbXrecord
280
     1
 90
        1
330
59A3
330
A375
330
A376
  0
DICTIONARY
  5
5998
102
{ACAD_REACTORS
330
C
102
}
330
C
100
AcDbDictionary
281
     1
  3
CANNOSCALE
350
5999
  3
CMLEADERSTYLE
350
59B4
  3
CTABLESTYLE
350
59B3
  3
CVIEWDETAILSTYLE
350
A3F2
  3
CVIEWSECTIONSTYLE
350
A3F3
  3
LAYEREVAL
350
59B5
  3
LAYERNOTIFY
350
59B6
  0
DICTIONARY
  5
65E5
102
{ACAD_REACTORS
330
C
102
}
330
C
100
AcDbDictionary
281
     1
  0
DICTIONARY
  5
5F3C
102
{ACAD_REACTORS
330
5F3B
102
}
330
5F3B
100
AcDbDictionary
281
     1
  0
XRECORD
  5
59AA
102
{ACAD_REACTORS
330
59A9
102
}
330
59A9
100
AcDbXrecord
280
     1
290
     1
  0
XRECORD
  5
59AC
102
{ACAD_REACTORS
330
59AB
102
}
330
59AB
100
AcDbXrecord
280
     1
290
     1
  0
SORTENTSTABLE
  5
72CD
102
{ACAD_REACTORS
330
72CC
102
}
330
72CC
100
AcDbSortentsTable
330
1F
331
75C1
  5
77B4
331
79DC
  5
8603
331
79C6
  5
7A7C
331
79E4
  5
8609
331
7729
  5
77B5
331
6614
  5
6614
331
666B
  5
6670
331
99A5
  5
79E0
331
66F0
  5
7774
331
6624
  5
6624
331
78E6
  5
79D7
331
66AB
  5
66B0
331
66F8
  5
7775
331
99AD
  5
77A8
331
662C
  5
662C
331
6710
  5
7777
331
65EA
  5
65EA
331
9284
  5
96B5
331
661A
  5
661A
331
944C
  5
99A5
331
962C
  5
99AA
331
79CD
  5
85F4
331
66DA
  5
66ED
331
79D5
  5
85FC
331
6634
  5
6634
331
66B1
  5
66B8
331
65F5
  5
65F5
331
65FD
  5
65FD
331
663C
  5
663C
331
66B9
  5
66C0
331
9236
  5
944B
331
7887
  5
79CF
331
6605
  5
6605
331
66D1
  5
66E1
331
923E
  5
962B
331
660D
  5
660D
331
79DD
  5
8604
331
79C7
  5
7A7D
331
79E5
  5
860A
331
77AA
  5
79C8
331
666C
  5
6671
331
7778
  5
7849
331
6615
  5
6615
331
78E7
  5
79D8
331
99A6
  5
79E1
331
7780
  5
79C6
331
662D
  5
662D
331
66AC
  5
66B1
331
99AE
  5
77A9
331
6711
  5
7778
331
79CE
  5
85F5
331
66DB
  5
66EE
331
79D6
  5
85FD
331
9735
  5
99AE
331
65F6
  5
65F6
331
6635
  5
6635
331
66B2
  5
66BA
331
66BA
  5
66CA
331
9237
  5
944C
331
663D
  5
663D
331
7888
  5
79D0
331
66D2
  5
66E2
331
7581
  5
77AF
331
6606
  5
6606
331
660E
  5
660E
331
79E6
  5
860B
331
77AB
  5
79C9
331
7779
  5
78E9
331
6616
  5
6616
331
666D
  5
6672
331
99A7
  5
79E2
331
78E8
  5
79D9
331
66AD
  5
66B2
331
99AF
  5
77AA
331
662E
  5
662E
331
6712
  5
777A
331
65EC
  5
65EC
331
79CF
  5
85F6
331
66DC
  5
66FC
331
9736
  5
99AF
331
79D7
  5
85FE
331
6636
  5
6636
331
66B3
  5
66BB
331
9230
  5
66BD
331
65F7
  5
65F7
331
65FF
  5
65FF
331
66BB
  5
66CB
331
7582
  5
77B0
331
6607
  5
6607
331
66D3
  5
66E3
331
7772
  5
77B7
331
660F
  5
660F
331
6666
  5
666B
331
6676
  5
66AB
331
79E7
  5
860C
331
77AC
  5
79CA
331
666E
  5
6673
331
777A
  5
7907
331
6617
  5
6617
331
6627
  5
6627
331
78E9
  5
79DA
331
99A8
  5
79E3
331
77B8
  5
79CC
331
779A
  5
79C7
331
662F
  5
662F
331
66AE
  5
66B3
331
99B0
  5
77AB
331
6713
  5
777B
331
65ED
  5
65ED
331
79C8
  5
7A7E
331
661D
  5
661D
331
79D0
  5
85F7
331
66DD
  5
66FE
331
9737
  5
99B0
331
65F0
  5
65F0
331
66B4
  5
66BC
331
65F8
  5
65F8
331
6637
  5
6637
331
663F
  5
663F
331
66BC
  5
66CD
331
6600
  5
6600
331
66D4
  5
66E5
331
6608
  5
6608
331
7773
  5
77B8
331
6667
  5
666C
331
79D8
  5
85FF
331
6677
  5
66AC
331
79E0
  5
8605
331
772D
  5
77B6
331
79E8
  5
860D
331
9260
  5
967B
331
6610
  5
6610
331
777B
  5
790B
331
6620
  5
6620
331
666F
  5
6674
331
99A9
  5
664B
331
77B9
  5
79CD
331
78EA
  5
79DB
331
66AF
  5
66B4
331
7A8A
  5
860F
331
65EE
  5
65EE
331
9448
  5
9734
331
79C9
  5
7A7F
331
79D1
  5
85F8
331
6630
  5
6630
331
65F1
  5
65F1
331
6638
  5
6638
331
9232
  5
66D0
331
65F9
  5
65F9
331
66BD
  5
66CE
331
6609
  5
6609
331
7774
  5
77B9
331
78CB
  5
79D1
331
79D9
  5
8600
331
79C3
  5
7A79
331
6670
  5
6675
331
6668
  5
666D
331
6611
  5
6611
331
6678
  5
66AD
331
66ED
  5
7773
331
777C
  5
79B8
331
6621
  5
6621
331
78EB
  5
79DC
331
99AA
  5
6666
331
6715
  5
777D
331
9449
  5
9735
331
65EF
  5
65EF
331
79CA
  5
7A80
331
79D2
  5
85F9
331
66DF
  5
671A
331
65F2
  5
65F2
331
6631
  5
6631
331
6639
  5
6639
331
923B
  5
944D
331
7355
  5
77AD
331
6602
  5
6602
331
924B
  5
962C
331
66D6
  5
66E8
331
7585
  5
77B2
331
660A
  5
660A
331
7775
  5
77BA
331
78CC
  5
79D2
331
967B
  5
99AB
331
79DA
  5
8601
331
79C4
  5
7A7A
331
6671
  5
6676
331
79E2
  5
8607
331
6612
  5
6612
331
6669
  5
666E
331
777D
  5
79B9
331
78E4
  5
79D4
331
6622
  5
6622
331
6679
  5
66AE
331
99AB
  5
6667
331
662A
  5
662A
331
79BC
  5
79E9
331
6716
  5
77A0
331
65E8
  5
65E8
331
6618
  5
6618
331
944A
  5
9736
331
66D8
  5
66EA
331
79CB
  5
7A8A
331
962A
  5
99A8
331
96B5
  5
99AC
331
79D3
  5
85FA
331
66E0
  5
734C
331
6632
  5
6632
331
65F3
  5
65F3
331
77B5
  5
79CB
331
65FB
  5
65FB
331
663A
  5
663A
331
66B7
  5
66BE
331
7316
  5
77A1
331
7356
  5
77AE
331
6603
  5
6603
331
664A
  5
6669
331
923C
  5
9629
331
78CD
  5
79D3
331
7776
  5
77BB
331
79DB
  5
8602
331
6672
  5
6677
331
79E3
  5
8608
331
666A
  5
666F
331
6613
  5
6613
331
78E5
  5
79D6
331
667A
  5
66AF
331
777E
  5
79BA
331
662B
  5
662B
331
99AC
  5
6668
331
944B
  5
9737
331
6619
  5
6619
331
66D9
  5
66EB
331
79CC
  5
85F3
331
962B
  5
99A9
331
79D4
  5
85FB
331
65F4
  5
65F4
331
6633
  5
6633
331
66B0
  5
66B5
331
66B8
  5
66BF
331
7317
  5
77A6
331
65FC
  5
65FC
331
663B
  5
663B
331
664B
  5
666A
331
66D0
  5
66E0
331
6604
  5
6604
331
660C
  5
660C
331
7777
  5
77BC
  0
DIMASSOC
  5
79DF
102
{ACAD_REACTORS
330
79DE
102
}
330
79DE
100
AcDbDimAssoc
330
79DD
 90
        2
 70
     0
 71
     0
  1
AcDbOsnapPointRef
 72
     1
331
79D5
 73
     2
 91
        0
 40
1.0
 10
0.0
 20
0.0
 30
2.000000000000000E+50
 75
     0
  0
DIMASSOC
  5
9C0F
102
{ACAD_REACTORS
330
9C05
102
}
330
9C05
100
AcDbDimAssoc
330
9BF8
 90
        1
 70
     0
 71
     0
  1
AcDbOsnapPointRef
 72
     1
331
662C
 73
     2
 91
        3
 40
1.0
 10
0.0
 20
0.0
 30
2.000000000000000E+50
 75
     0
  0
DIMASSOC
  5
A393
102
{ACAD_REACTORS
330
A389
102
}
330
A389
100
AcDbDimAssoc
330
A37C
 90
        3
 70
     0
 71
     0
  1
AcDbOsnapPointRef
 72
     1
331
66D2
 73
     2
 91
        2
 40
1.0
 10
0.0
 20
0.0
 30
2.000000000000000E+50
 75
     0
  1
AcDbOsnapPointRef
 72
    13
331
779A
 73
     2
 91
        2
 40
0.0
 10
0.0
 20
0.0
 30
2.000000000000000E+50
 75
     0
  0
ACDBDETAILVIEWSTYLE
  5
A376
102
{ACAD_XDICTIONARY
360
A3F7
102
}
102
{ACAD_REACTORS
330
599C
102
}
330
599C
100
AcDbModelDocViewStyle
 70
     0
  3
Metric50
290
     0
100
AcDbDetailViewStyle
 70
     0
 71
     0
 90
        3
 71
     1
340
11
 62
   256
 40
5.0
340
0
 62
   256
 40
5.0
300

 40
0.0
280
     1
 71
     2
340
16
 90
       25
 62
   256
 71
     3
340
11
 62
   256
 40
5.0
 90
        0
 40
15.0
 90
        1
300
%<\AcVar ViewDetailId>% (%<\AcVar ViewScale \f "%sn">%)
 71
     4
340
16
 90
       25
 62
   256
340
16
 90
       25
 62
   256
280
     0
  0
LAYOUT
  5
1E
102
{ACAD_REACTORS
330
1A
102
}
330
1A
100
AcDbPlotSettings
  1

  2
none_device
  4

  6

 40
0.0
 41
0.0
 42
0.0
 43
0.0
 44
0.0
 45
0.0
 46
0.0
 47
0.0
 48
0.0
 49
0.0
140
0.0
141
0.0
142
1.0
143
1.0
 70
   688
 72
     1
 73
     0
 74
     5
  7
monochrome.ctb
 75
    16
147
1.0
 76
     0
 77
     2
 78
   300
148
0.0
149
0.0
100
AcDbLayout
  1
Layout1
 70
     1
 71
     1
 10
0.0
 20
0.0
 11
420.0
 21
297.0
 12
0.0
 22
0.0
 32
0.0
 14
1.000000000000000E+20
 24
1.000000000000000E+20
 34
1.000000000000000E+20
 15
-1.000000000000000E+20
 25
-1.000000000000000E+20
 35
-1.000000000000000E+20
146
0.0
 13
0.0
 23
0.0
 33
0.0
 16
1.0
 26
0.0
 36
0.0
 17
0.0
 27
1.0
 37
0.0
 76
     0
330
1B
  0
LAYOUT
  5
26
102
{ACAD_REACTORS
330
1A
102
}
330
1A
100
AcDbPlotSettings
  1

  2
none_device
  4

  6

 40
0.0
 41
0.0
 42
0.0
 43
0.0
 44
0.0
 45
0.0
 46
0.0
 47
0.0
 48
0.0
 49
0.0
140
0.0
141
0.0
142
1.0
143
1.0
 70
   688
 72
     1
 73
     0
 74
     5
  7
monochrome.ctb
 75
    16
147
1.0
 76
     0
 77
     2
 78
   300
148
0.0
149
0.0
100
AcDbLayout
  1
Layout2
 70
     1
 71
     2
 10
0.0
 20
0.0
 11
0.0
 21
0.0
 12
0.0
 22
0.0
 32
0.0
 14
0.0
 24
0.0
 34
0.0
 15
0.0
 25
0.0
 35
0.0
146
0.0
 13
0.0
 23
0.0
 33
0.0
 16
1.0
 26
0.0
 36
0.0
 17
0.0
 27
1.0
 37
0.0
 76
     0
330
23
  0
LAYOUT
  5
22
102
{ACAD_XDICTIONARY
360
5F41
102
}
102
{ACAD_REACTORS
330
1A
102
}
330
1A
100
AcDbPlotSettings
  1

  2
none_device
  4
Letter_(8.50_x_11.00_Inches)
  6

 40
6.349999999999997
 41
6.349999999999997
 42
6.350005079999997
 43
6.350005079999997
 44
215.9
 45
279.4
 46
0.0
 47
0.0
 48
0.0
 49
0.0
140
0.0
141
0.0
142
1.0
143
1.0
 70
  1712
 72
     1
 73
     0
 74
     0
  7
monochrome.ctb
 75
     0
147
1.0
 76
     0
 77
     2
 78
   300
148
0.0
149
0.0
100
AcDbLayout
  1
Model
 70
     1
 71
     0
 10
0.0
 20
0.0
 11
594.0
 21
420.0
 12
0.0
 22
0.0
 32
0.0
 14
0.0
 24
0.0
 34
0.0
 15
594.0
 25
420.0
 35
0.0
146
0.0
 13
0.0
 23
0.0
 33
0.0
 16
1.0
 26
0.0
 36
0.0
 17
0.0
 27
1.0
 37
0.0
 76
     0
330
1F
331
29
  0
MATERIAL
  5
45
102
{ACAD_REACTORS
330
43
102
}
330
43
100
AcDbMaterial
  1
ByBlock
  0
MATERIAL
  5
44
102
{ACAD_REACTORS
330
43
102
}
330
43
100
AcDbMaterial
  1
ByLayer
  0
MATERIAL
  5
46
102
{ACAD_REACTORS
330
43
102
}
330
43
100
AcDbMaterial
  1
Global
  0
MLEADERSTYLE
  5
59A4
102
{ACAD_REACTORS
330
599B
102
}
330
599B
100
AcDbMLeaderStyle
179
     2
170
     2
171
     1
172
     0
 90
        2
 40
0.0
 41
0.0
173
     1
 91
-1056964608
340
14
 92
       -2
290
     1
 42
2.0
291
     1
 43
0.36
  3
Standard
 44
4.0
300

342
11
174
     1
178
     6
175
     1
176
     0
 93
-1056964608
 45
4.0
292
     0
297
     0
 46
4.0
 94
-1056964608
 47
1.0
 49
1.0
140
1.0
293
     1
141
0.0
294
     1
177
     0
142
1.0
295
     0
296
     0
143
0.125
271
     0
272
     9
273
     9
298
     0
  0
MLINESTYLE
  5
18
102
{ACAD_REACTORS
330
17
102
}
330
17
100
AcDbMlineStyle
  2
STANDARD
 70
     0
  3

 62
   256
 51
90.0
 52
90.0
 71
     2
 49
0.5
 62
   256
  6
BYLAYER
 49
-0.5
 62
   256
  6
BYLAYER
  0
ACDBPLACEHOLDER
  5
F
102
{ACAD_REACTORS
330
E
102
}
330
E
  0
SCALE
  5
48
102
{ACAD_REACTORS
330
47
102
}
330
47
100
AcDbScale
 70
     0
300
1:1
140
1.0
141
1.0
290
     1
  0
SCALE
  5
49
102
{ACAD_REACTORS
330
47
102
}
330
47
100
AcDbScale
 70
     0
300
1:2
140
1.0
141
2.0
290
     0
  0
SCALE
  5
4A
102
{ACAD_REACTORS
330
47
102
}
330
47
100
AcDbScale
 70
     0
300
1:4
140
1.0
141
4.0
290
     0
  0
SCALE
  5
4B
102
{ACAD_REACTORS
330
47
102
}
330
47
100
AcDbScale
 70
     0
300
1:5
140
1.0
141
5.0
290
     0
  0
SCALE
  5
4C
102
{ACAD_REACTORS
330
47
102
}
330
47
100
AcDbScale
 70
     0
300
1:8
140
1.0
141
8.0
290
     0
  0
SCALE
  5
4D
102
{ACAD_REACTORS
330
47
102
}
330
47
100
AcDbScale
 70
     0
300
1:10
140
1.0
141
10.0
290
     0
  0
SCALE
  5
4E
102
{ACAD_REACTORS
330
47
102
}
330
47
100
AcDbScale
 70
     0
300
1:16
140
1.0
141
16.0
290
     0
  0
SCALE
  5
4F
102
{ACAD_REACTORS
330
47
102
}
330
47
100
AcDbScale
 70
     0
300
1:20
140
1.0
141
20.0
290
     0
  0
SCALE
  5
50
102
{ACAD_REACTORS
330
47
102
}
330
47
100
AcDbScale
 70
     0
300
1:30
140
1.0
141
30.0
290
     0
  0
SCALE
  5
51
102
{ACAD_REACTORS
330
47
102
}
330
47
100
AcDbScale
 70
     0
300
1:40
140
1.0
141
40.0
290
     0
  0
SCALE
  5
52
102
{ACAD_REACTORS
330
47
102
}
330
47
100
AcDbScale
 70
     0
300
1:50
140
1.0
141
50.0
290
     0
  0
SCALE
  5
53
102
{ACAD_REACTORS
330
47
102
}
330
47
100
AcDbScale
 70
     0
300
1:100
140
1.0
141
100.0
290
     0
  0
SCALE
  5
54
102
{ACAD_REACTORS
330
47
102
}
330
47
100
AcDbScale
 70
     0
300
2:1
140
2.0
141
1.0
290
     0
  0
SCALE
  5
55
102
{ACAD_REACTORS
330
47
102
}
330
47
100
AcDbScale
 70
     0
300
4:1
140
4.0
141
1.0
290
     0
  0
SCALE
  5
56
102
{ACAD_REACTORS
330
47
102
}
330
47
100
AcDbScale
 70
     0
300
8:1
140
8.0
141
1.0
290
     0
  0
SCALE
  5
57
102
{ACAD_REACTORS
330
47
102
}
330
47
100
AcDbScale
 70
     0
300
10:1
140
10.0
141
1.0
290
     0
  0
SCALE
  5
58
102
{ACAD_REACTORS
330
47
102
}
330
47
100
AcDbScale
 70
     0
300
100:1
140
100.0
141
1.0
290
     0
  0
SCALE
  5
59
102
{ACAD_REACTORS
330
47
102
}
330
47
100
AcDbScale
 70
     0
300
1/128" = 1'-0"
140
0.0078125
141
12.0
290
     0
  0
SCALE
  5
5A
102
{ACAD_REACTORS
330
47
102
}
330
47
100
AcDbScale
 70
     0
300
1/64" = 1'-0"
140
0.015625
141
12.0
290
     0
  0
SCALE
  5
5B
102
{ACAD_REACTORS
330
47
102
}
330
47
100
AcDbScale
 70
     0
300
1/32" = 1'-0"
140
0.03125
141
12.0
290
     0
  0
SCALE
  5
5C
102
{ACAD_REACTORS
330
47
102
}
330
47
100
AcDbScale
 70
     0
300
1/16" = 1'-0"
140
0.0625
141
12.0
290
     0
  0
SCALE
  5
5D
102
{ACAD_REACTORS
330
47
102
}
330
47
100
AcDbScale
 70
     0
300
3/32" = 1'-0"
140
0.09375
141
12.0
290
     0
  0
SCALE
  5
5E
102
{ACAD_REACTORS
330
47
102
}
330
47
100
AcDbScale
 70
     0
300
1/8" = 1'-0"
140
0.125
141
12.0
290
     0
  0
SCALE
  5
5F
102
{ACAD_REACTORS
330
47
102
}
330
47
100
AcDbScale
 70
     0
300
3/16" = 1'-0"
140
0.1875
141
12.0
290
     0
  0
SCALE
  5
60
102
{ACAD_REACTORS
330
47
102
}
330
47
100
AcDbScale
 70
     0
300
1/4" = 1'-0"
140
0.25
141
12.0
290
     0
  0
SCALE
  5
61
102
{ACAD_REACTORS
330
47
102
}
330
47
100
AcDbScale
 70
     0
300
3/8" = 1'-0"
140
0.375
141
12.0
290
     0
  0
SCALE
  5
62
102
{ACAD_REACTORS
330
47
102
}
330
47
100
AcDbScale
 70
     0
300
1/2" = 1'-0"
140
0.5
141
12.0
290
     0
  0
SCALE
  5
63
102
{ACAD_REACTORS
330
47
102
}
330
47
100
AcDbScale
 70
     0
300
3/4" = 1'-0"
140
0.75
141
12.0
290
     0
  0
SCALE
  5
64
102
{ACAD_REACTORS
330
47
102
}
330
47
100
AcDbScale
 70
     0
300
1" = 1'-0"
140
1.0
141
12.0
290
     0
  0
SCALE
  5
65
102
{ACAD_REACTORS
330
47
102
}
330
47
100
AcDbScale
 70
     0
300
1-1/2" = 1'-0"
140
1.5
141
12.0
290
     0
  0
SCALE
  5
66
102
{ACAD_REACTORS
330
47
102
}
330
47
100
AcDbScale
 70
     0
300
3" = 1'-0"
140
3.0
141
12.0
290
     0
  0
SCALE
  5
67
102
{ACAD_REACTORS
330
47
102
}
330
47
100
AcDbScale
 70
     0
300
6" = 1'-0"
140
6.0
141
12.0
290
     0
  0
SCALE
  5
68
102
{ACAD_REACTORS
330
47
102
}
330
47
100
AcDbScale
 70
     0
300
1'-0" = 1'-0"
140
12.0
141
12.0
290
     0
  0
ACDBSECTIONVIEWSTYLE
  5
A375
102
{ACAD_XDICTIONARY
360
A3F5
102
}
102
{ACAD_REACTORS
330
599D
102
}
330
599D
100
AcDbModelDocViewStyle
 70
     0
  3
Metric50
290
     0
100
AcDbSectionViewStyle
 70
     0
 71
     0
 90
      102
 71
     1
340
11
 62
   256
 40
5.0
340
0
340
0
 62
   256
 40
5.0
300
I, O, Q, S, X, Z
 40
10.0
 90
        0
 40
2.5
 90
        0
 71
     2
340
16
 90
       25
 62
   256
340
16
 90
       50
 62
   256
 40
5.0
 40
2.5
 40
5.0
 71
     3
340
11
 62
   256
 40
5.0
 90
        0
 40
15.0
 90
        1
300
%<\AcVar ViewSectionStartId>%-%<\AcVar ViewSectionEndId>% (%<\AcVar ViewScale \f "%sn">%)
 71
     4
 62
   256
 62
   257
300
ANSI31
 40
1.0
 90
        0
290
     0
290
     0
 90
        6
 40
0.0
 40
1.570796326794896
 40
0.2617993877991494
 40
1.308996938995747
 40
-0.2617993877991494
 40
1.832595714594044
  0
TABLESTYLE
  5
59A3
102
{ACAD_XDICTIONARY
360
A370
102
}
102
{ACAD_REACTORS
330
599A
102
}
330
599A
100
AcDbTableStyle
280
     0
  3
Standard
 70
     0
 71
     0
 40
1.5
 41
1.5
280
     0
281
     0
  7
STANDARD
140
4.5
170
     2
 62
     0
 63
     7
283
     0
 90
      512
 91
        0
  1

274
    -2
284
     1
 64
     0
275
    -2
285
     1
 65
     0
276
    -2
286
     1
 66
     0
277
    -2
287
     1
 67
     0
278
    -2
288
     1
 68
     0
279
    -2
289
     1
 69
     0
  7
STANDARD
140
6.0
170
     5
 62
     0
 63
     7
283
     0
 90
      512
 91
        0
  1

274
    -2
284
     1
 64
     0
275
    -2
285
     1
 65
     0
276
    -2
286
     1
 66
     0
277
    -2
287
     1
 67
     0
278
    -2
288
     1
 68
     0
279
    -2
289
     1
 69
     0
  7
STANDARD
140
4.5
170
     5
 62
     0
 63
     7
283
     0
 90
      512
 91
        0
  1

274
    -2
284
     1
 64
     0
275
    -2
285
     1
 65
     0
276
    -2
286
     1
 66
     0
277
    -2
287
     1
 67
     0
278
    -2
288
     1
 68
     0
279
    -2
289
     1
 69
     0
  0
VISUALSTYLE
  5
2F
102
{ACAD_REACTORS
330
2A
102
}
330
2A
100
AcDbVisualStyle
  2

 70
     4
177
     3
291
     0
 70
    58
 90
        0
176
     1
 90
        2
176
     1
 90
        0
176
     1
 90
        0
176
     1
 40
0.6
176
     1
 40
30.0
176
     1
 62
     7
420
 16777215
176
     1
 90
        1
176
     1
 90
        4
176
     1
 62
     7
176
     1
 62
   257
176
     1
 90
        1
176
     1
 90
        1
176
     1
 40
1.0
176
     1
 90
        0
176
     1
 62
   257
176
     1
 40
1.0
176
     1
 90
        1
176
     1
 90
        6
176
     1
 90
        2
176
     1
 62
     7
176
     1
 90
        5
176
     1
 90
        0
176
     1
 90
        0
176
     1
290
     0
176
     1
 90
        1
176
     1
 40
0.0
176
     1
 90
        0
176
     1
290
     1
176
     1
290
     1
176
     1
290
     0
176
     1
290
     0
176
     1
290
     0
176
     1
290
     0
176
     1
290
     0
176
     1
290
     0
176
     1
290
     0
176
     1
 90
       50
176
     1
 40
0.0
176
     1
 40
1.0
176
     1
 90
        0
176
     1
 62
    18
176
     1
 90
       50
176
     1
 90
        3
176
     1
 62
     5
420
      255
176
     1
290
     0
176
     1
 90
       50
176
     1
 90
       50
176
     1
 90
       50
176
     1
290
     0
176
     1
 90
       50
176
     1
 62
   256
176
     0
 40
1.0
176
     0
 90
        2
176
     1
  1
strokes_ogs.tif
176
     1
290
     0
176
     1
 40
1.0
176
     1
 40
1.0
176
     1
  0
VISUALSTYLE
  5
59A1
102
{ACAD_REACTORS
330
2A
102
}
330
2A
100
AcDbVisualStyle
  2
3D Hidden
 70
     6
177
     3
291
     0
 70
    58
 90
        1
176
     1
 90
        2
176
     1
 90
        2
176
     1
 90
        0
176
     1
 40
0.6
176
     1
 40
30.0
176
     1
 62
     7
420
 16777215
176
     1
 90
        2
176
     1
 90
        2
176
     1
 62
     7
176
     1
 62
   257
176
     1
 90
        2
176
     1
 90
        1
176
     1
 40
179.0
176
     1
 90
        0
176
     1
 62
   257
176
     1
 40
1.0
176
     1
 90
        1
176
     1
 90
        6
176
     1
 90
        2
176
     1
 62
     7
176
     1
 90
        3
176
     1
 90
        0
176
     1
 90
        0
176
     1
290
     0
176
     1
 90
        1
176
     1
 40
0.0
176
     1
 90
        0
176
     1
290
     0
176
     1
290
     1
176
     1
290
     1
176
     1
290
     0
176
     1
290
     0
176
     1
290
     0
176
     1
290
     0
176
     1
290
     0
176
     1
290
     0
176
     1
 90
       50
176
     1
 40
0.0
176
     1
 40
1.0
176
     1
 90
        0
176
     1
 62
    18
176
     1
 90
       50
176
     1
 90
        3
176
     1
 62
     5
420
      255
176
     1
290
     0
176
     1
 90
       50
176
     1
 90
       50
176
     1
 90
       50
176
     1
290
     0
176
     1
 90
       50
176
     1
 62
   256
176
     0
 40
1.0
176
     0
 90
        2
176
     1
  1
strokes_ogs.tif
176
     1
290
     0
176
     1
 40
1.0
176
     1
 40
1.0
176
     1
  0
VISUALSTYLE
  5
59A0
102
{ACAD_REACTORS
330
2A
102
}
330
2A
100
AcDbVisualStyle
  2
3dWireframe
 70
     5
177
     3
291
     0
 70
    58
 90
        0
176
     1
 90
        2
176
     1
 90
        0
176
     1
 90
        0
176
     1
 40
0.6
176
     1
 40
30.0
176
     1
 62
     7
420
 16777215
176
     1
 90
        1
176
     1
 90
        4
176
     1
 62
     7
176
     1
 62
   257
176
     1
 90
        1
176
     1
 90
        1
176
     1
 40
1.0
176
     1
 90
        0
176
     1
 62
   257
176
     1
 40
1.0
176
     1
 90
        1
176
     1
 90
        6
176
     1
 90
        2
176
     1
 62
     7
176
     1
 90
        5
176
     1
 90
        0
176
     1
 90
        0
176
     1
290
     0
176
     1
 90
        1
176
     1
 40
0.0
176
     1
 90
        0
176
     1
290
     0
176
     1
290
     1
176
     1
290
     1
176
     1
290
     0
176
     1
290
     0
176
     1
290
     0
176
     1
290
     0
176
     1
290
     0
176
     1
290
     0
176
     1
 90
       50
176
     1
 40
0.0
176
     1
 40
1.0
176
     1
 90
        0
176
     1
 62
    18
176
     1
 90
       50
176
     1
 90
        3
176
     1
 62
     5
420
      255
176
     1
290
     0
176
     1
 90
       50
176
     1
 90
       50
176
     1
 90
       50
176
     1
290
     0
176
     1
 90
       50
176
     1
 62
   256
176
     0
 40
1.0
176
     0
 90
        2
176
     1
  1
strokes_ogs.tif
176
     1
290
     0
176
     1
 40
1.0
176
     1
 40
1.0
176
     1
  0
VISUALSTYLE
  5
32
102
{ACAD_REACTORS
330
2A
102
}
330
2A
100
AcDbVisualStyle
  2

 70
     7
177
     3
291
     1
 70
    58
 90
        1
176
     1
 90
        0
176
     1
 90
        1
176
     1
 90
        0
176
     1
 40
0.6
176
     1
 40
30.0
176
     1
 62
     7
420
 16777215
176
     1
 90
        0
176
     1
 90
        4
176
     1
 62
     7
176
     1
 62
   257
176
     1
 90
        1
176
     1
 90
        1
176
     1
 40
1.0
176
     1
 90
        8
176
     1
 62
     7
176
     1
 40
1.0
176
     1
 90
        1
176
     1
 90
        6
176
     1
 90
        2
176
     1
 62
     7
176
     1
 90
        5
176
     1
 90
        0
176
     1
 90
        0
176
     1
290
     0
176
     1
 90
        1
176
     1
 40
0.0
176
     1
 90
        0
176
     1
290
     0
176
     1
290
     1
176
     1
290
     1
176
     1
290
     0
176
     1
290
     0
176
     1
290
     0
176
     1
290
     0
176
     1
290
     0
176
     1
290
     0
176
     1
 90
       50
176
     1
 40
0.0
176
     1
 40
1.0
176
     1
 90
        0
176
     1
 62
    18
176
     1
 90
       50
176
     1
 90
        3
176
     1
 62
     5
420
      255
176
     1
290
     0
176
     1
 90
       50
176
     1
 90
       50
176
     1
 90
       50
176
     1
290
     0
176
     1
 90
       50
176
     1
 62
   256
176
     0
 40
1.0
176
     0
 90
        2
176
     1
  1
strokes_ogs.tif
176
     1
290
     0
176
     1
 40
1.0
176
     1
 40
1.0
176
     1
  0
VISUALSTYLE
  5
36
102
{ACAD_REACTORS
330
2A
102
}
330
2A
100
AcDbVisualStyle
  2

 70
    12
177
     3
291
     1
 70
    58
 90
        2
176
     1
 90
        2
176
     1
 90
        0
176
     1
 90
        0
176
     1
 40
0.6
176
     1
 40
30.0
176
     1
 62
     7
420
 16777215
176
     1
 90
        1
176
     1
 90
        4
176
     1
 62
     7
176
     1
 62
   257
176
     1
 90
        1
176
     1
 90
        1
176
     1
 40
1.0
176
     1
 90
        8
176
     1
 62
     7
176
     1
 40
1.0
176
     1
 90
        1
176
     1
 90
        6
176
     1
 90
        2
176
     1
 62
     7
176
     1
 90
        5
176
     1
 90
        0
176
     1
 90
        0
176
     1
290
     0
176
     1
 90
        1
176
     1
 40
50.0
176
     1
 90
        0
176
     1
290
     0
176
     1
290
     1
176
     1
290
     1
176
     1
290
     0
176
     1
290
     0
176
     1
290
     0
176
     1
290
     0
176
     1
290
     0
176
     1
290
     0
176
     1
 90
       50
176
     1
 40
0.0
176
     1
 40
1.0
176
     1
 90
        0
176
     1
 62
    18
176
     1
 90
       50
176
     1
 90
        3
176
     1
 62
     5
420
      255
176
     1
290
     0
176
     1
 90
       50
176
     1
 90
       50
176
     1
 90
       50
176
     1
290
     0
176
     1
 90
       50
176
     1
 62
   256
176
     0
 40
1.0
176
     0
 90
        2
176
     1
  1
strokes_ogs.tif
176
     1
290
     0
176
     1
 40
1.0
176
     1
 40
1.0
176
     1
  0
VISUALSTYLE
  5
3A
102
{ACAD_REACTORS
330
2A
102
}
330
2A
100
AcDbVisualStyle
  2

 70
    16
177
     3
291
     1
 70
    58
 90
        2
176
     1
 90
        2
176
     1
 90
        3
176
     1
 90
        0
176
     1
 40
0.6
176
     1
 40
30.0
176
     1
 62
     8
420
  8421504
176
     1
 90
        1
176
     1
 90
        4
176
     1
 62
     7
176
     1
 62
   257
176
     1
 90
        1
176
     1
 90
        1
176
     1
 40
1.0
176
     1
 90
        8
176
     1
 62
     8
420
  8421504
176
     1
 40
1.0
176
     1
 90
        1
176
     1
 90
        6
176
     1
 90
        2
176
     1
 62
     7
176
     1
 90
        5
176
     1
 90
        0
176
     1
 90
        0
176
     1
290
     0
176
     1
 90
        1
176
     1
 40
0.0
176
     1
 90
        0
176
     1
290
     0
176
     1
290
     1
176
     1
290
     1
176
     1
290
     0
176
     1
290
     0
176
     1
290
     0
176
     1
290
     0
176
     1
290
     0
176
     1
290
     0
176
     1
 90
       50
176
     1
 40
0.0
176
     1
 40
1.0
176
     1
 90
        0
176
     1
 62
    18
176
     1
 90
       50
176
     1
 90
        3
176
     1
 62
     5
420
      255
176
     1
290
     0
176
     1
 90
       50
176
     1
 90
       50
176
     1
 90
       50
176
     1
290
     0
176
     1
 90
       50
176
     1
 62
   256
176
     0
 40
1.0
176
     0
 90
        2
176
     1
  1
strokes_ogs.tif
176
     1
290
     0
176
     1
 40
1.0
176
     1
 40
1.0
176
     1
  0
VISUALSTYLE
  5
34
102
{ACAD_REACTORS
330
2A
102
}
330
2A
100
AcDbVisualStyle
  2

 70
     9
177
     3
291
     0
 70
    58
 90
        3
176
     1
 90
        2
176
     1
 90
        0
176
     1
 90
        0
176
     1
 40
0.6
176
     1
 40
30.0
176
     1
 62
     7
420
 16777215
176
     1
 90
        2
176
     1
 90
        2
176
     1
 62
     7
176
     1
 62
   257
176
     1
 90
        1
176
     1
 90
        1
176
     1
 40
179.0
176
     1
 90
        8
176
     1
 62
     7
176
     1
 40
1.0
176
     1
 90
        1
176
     1
 90
        6
176
     1
 90
        2
176
     1
 62
     7
176
     1
 90
        3
176
     1
 90
        0
176
     1
 90
        0
176
     1
290
     0
176
     1
 90
        1
176
     1
 40
0.0
176
     1
 90
        0
176
     1
290
     0
176
     1
290
     1
176
     1
290
     1
176
     1
290
     0
176
     1
290
     0
176
     1
290
     0
176
     1
290
     0
176
     1
290
     0
176
     1
290
     0
176
     1
 90
       50
176
     1
 40
0.0
176
     1
 40
1.0
176
     1
 90
        0
176
     1
 62
    18
176
     1
 90
       50
176
     1
 90
        3
176
     1
 62
     5
420
      255
176
     1
290
     0
176
     1
 90
       50
176
     1
 90
       50
176
     1
 90
       50
176
     1
290
     0
176
     1
 90
       50
176
     1
 62
   256
176
     0
 40
1.0
176
     0
 90
        2
176
     1
  1
strokes_ogs.tif
176
     1
290
     0
176
     1
 40
1.0
176
     1
 40
1.0
176
     1
  0
VISUALSTYLE
  5
35
102
{ACAD_REACTORS
330
2A
102
}
330
2A
100
AcDbVisualStyle
  2

 70
    11
177
     3
291
     1
 70
    58
 90
        2
176
     1
 90
        2
176
     1
 90
        0
176
     1
 90
        0
176
     1
 40
0.6
176
     1
 40
30.0
176
     1
 62
     7
420
 16777215
176
     1
 90
        1
176
     1
 90
        4
176
     1
 62
     7
176
     1
 62
   257
176
     1
 90
        1
176
     1
 90
        1
176
     1
 40
1.0
176
     1
 90
        8
176
     1
 62
     7
176
     1
 40
1.0
176
     1
 90
        1
176
     1
 90
        6
176
     1
 90
        2
176
     1
 62
     7
176
     1
 90
        5
176
     1
 90
        0
176
     1
 90
        0
176
     1
290
     0
176
     1
 90
        1
176
     1
 40
-50.0
176
     1
 90
        0
176
     1
290
     0
176
     1
290
     1
176
     1
290
     1
176
     1
290
     0
176
     1
290
     0
176
     1
290
     0
176
     1
290
     0
176
     1
290
     0
176
     1
290
     0
176
     1
 90
       50
176
     1
 40
0.0
176
     1
 40
1.0
176
     1
 90
        0
176
     1
 62
    18
176
     1
 90
       50
176
     1
 90
        3
176
     1
 62
     5
420
      255
176
     1
290
     0
176
     1
 90
       50
176
     1
 90
       50
176
     1
 90
       50
176
     1
290
     0
176
     1
 90
       50
176
     1
 62
   256
176
     0
 40
1.0
176
     0
 90
        2
176
     1
  1
strokes_ogs.tif
176
     1
290
     0
176
     1
 40
1.0
176
     1
 40
1.0
176
     1
  0
VISUALSTYLE
  5
3D
102
{ACAD_REACTORS
330
2A
102
}
330
2A
100
AcDbVisualStyle
  2

 70
    22
177
     3
291
     1
 70
    58
 90
        2
176
     1
 90
        2
176
     1
 90
        0
176
     1
 90
        0
176
     1
 40
0.6
176
     1
 40
30.0
176
     1
 62
     7
420
 16777215
176
     1
 90
        1
176
     1
 90
        4
176
     1
 62
     7
176
     1
 62
   257
176
     1
 90
        1
176
     1
 90
        1
176
     1
 40
1.0
176
     1
 90
        8
176
     1
 62
     7
176
     1
 40
1.0
176
     1
 90
        1
176
     1
 90
        6
176
     1
 90
        2
176
     1
 62
     7
176
     1
 90
        5
176
     1
 90
        0
176
     1
 90
        0
176
     1
290
     0
176
     1
 90
        1
176
     1
 40
0.0
176
     1
 90
        0
176
     1
290
     0
176
     1
290
     1
176
     1
290
     1
176
     1
290
     0
176
     1
290
     0
176
     1
290
     0
176
     1
290
     0
176
     1
290
     0
176
     1
290
     0
176
     1
 90
       50
176
     1
 40
0.0
176
     1
 40
1.0
176
     1
 90
        0
176
     1
 62
    18
176
     1
 90
       50
176
     1
 90
        3
176
     1
 62
     5
420
      255
176
     1
290
     0
176
     1
 90
       50
176
     1
 90
       50
176
     1
 90
       50
176
     1
290
     0
176
     1
 90
       50
176
     1
 62
   256
176
     0
 40
1.0
176
     0
 90
        2
176
     1
  1
strokes_ogs.tif
176
     1
290
     0
176
     1
 40
1.0
176
     1
 40
1.0
176
     1
  0
VISUALSTYLE
  5
39
102
{ACAD_REACTORS
330
2A
102
}
330
2A
100
AcDbVisualStyle
  2

 70
    15
177
     3
291
     1
 70
    58
 90
        2
176
     1
 90
        2
176
     1
 90
        0
176
     1
 90
        0
176
     1
 40
0.6
176
     1
 40
30.0
176
     1
 62
     7
420
 16777215
176
     1
 90
        1
176
     1
 90
        4
176
     1
 62
     7
176
     1
 62
   257
176
     1
 90
        1
176
     1
 90
        1
176
     1
 40
1.0
176
     1
 90
        8
176
     1
 62
     7
176
     1
 40
1.0
176
     1
 90
        1
176
     1
 90
        6
176
     1
 90
        2
176
     1
 62
     7
176
     1
 90
        5
176
     1
 90
        0
176
     1
 90
        0
176
     1
290
     0
176
     1
 90
        1
176
     1
 40
0.0
176
     1
 90
        0
176
     1
290
     0
176
     1
290
     1
176
     1
290
     1
176
     1
290
     0
176
     1
290
     0
176
     1
290
     0
176
     1
290
     0
176
     1
290
     0
176
     1
290
     0
176
     1
 90
       50
176
     1
 40
0.0
176
     1
 40
1.0
176
     1
 90
        0
176
     1
 62
    18
176
     1
 90
       50
176
     1
 90
        3
176
     1
 62
     5
420
      255
176
     1
290
     0
176
     1
 90
       50
176
     1
 90
       50
176
     1
 90
       50
176
     1
290
     0
176
     1
 90
       50
176
     1
 62
   256
176
     0
 40
1.0
176
     0
 90
        2
176
     1
  1
strokes_ogs.tif
176
     1
290
     0
176
     1
 40
1.0
176
     1
 40
1.0
176
     1
  0
VISUALSTYLE
  5
2B
102
{ACAD_REACTORS
330
2A
102
}
330
2A
100
AcDbVisualStyle
  2

 70
     0
177
     3
291
     1
 70
    58
 90
        2
176
     1
 90
        1
176
     1
 90
        1
176
     1
 90
        2
176
     1
 40
0.6
176
     1
 40
30.0
176
     1
 62
     7
420
 16777215
176
     1
 90
        0
176
     1
 90
        0
176
     1
 62
     7
176
     1
 62
   257
176
     1
 90
        1
176
     1
 90
        1
176
     1
 40
1.0
176
     1
 90
        8
176
     1
 62
     7
176
     1
 40
1.0
176
     1
 90
        1
176
     1
 90
        6
176
     1
 90
        2
176
     1
 62
     7
176
     1
 90
        5
176
     1
 90
        0
176
     1
 90
        0
176
     1
290
     0
176
     1
 90
       13
176
     1
 40
0.0
176
     1
 90
        0
176
     1
290
     0
176
     1
290
     1
176
     1
290
     1
176
     1
290
     0
176
     1
290
     0
176
     1
290
     0
176
     1
290
     0
176
     1
290
     0
176
     1
290
     0
176
     1
 90
       50
176
     1
 40
0.0
176
     1
 40
1.0
176
     1
 90
        0
176
     1
 62
    18
176
     1
 90
       50
176
     1
 90
        3
176
     1
 62
     5
420
      255
176
     1
290
     0
176
     1
 90
       50
176
     1
 90
       50
176
     1
 90
       50
176
     1
290
     0
176
     1
 90
       50
176
     1
 62
   256
176
     0
 40
1.0
176
     0
 90
        2
176
     1
  1
strokes_ogs.tif
176
     1
290
     0
176
     1
 40
1.0
176
     1
 40
1.0
176
     1
  0
VISUALSTYLE
  5
2C
102
{ACAD_REACTORS
330
2A
102
}
330
2A
100
AcDbVisualStyle
  2

 70
     1
177
     3
291
     1
 70
    58
 90
        2
176
     1
 90
        1
176
     1
 90
        1
176
     1
 90
        2
176
     1
 40
0.6
176
     1
 40
30.0
176
     1
 62
     7
420
 16777215
176
     1
 90
        1
176
     1
 90
        0
176
     1
 62
     7
176
     1
 62
   257
176
     1
 90
        1
176
     1
 90
        1
176
     1
 40
1.0
176
     1
 90
        0
176
     1
 62
   257
176
     1
 40
1.0
176
     1
 90
        1
176
     1
 90
        6
176
     1
 90
        2
176
     1
 62
     7
176
     1
 90
        5
176
     1
 90
        0
176
     1
 90
        0
176
     1
290
     0
176
     1
 90
       13
176
     1
 40
0.0
176
     1
 90
        0
176
     1
290
     0
176
     1
290
     1
176
     1
290
     1
176
     1
290
     0
176
     1
290
     0
176
     1
290
     0
176
     1
290
     0
176
     1
290
     0
176
     1
290
     0
176
     1
 90
       50
176
     1
 40
0.0
176
     1
 40
1.0
176
     1
 90
        0
176
     1
 62
    18
176
     1
 90
       50
176
     1
 90
        3
176
     1
 62
     5
420
      255
176
     1
290
     0
176
     1
 90
       50
176
     1
 90
       50
176
     1
 90
       50
176
     1
290
     0
176
     1
 90
       50
176
     1
 62
   256
176
     0
 40
1.0
176
     0
 90
        2
176
     1
  1
strokes_ogs.tif
176
     1
290
     0
176
     1
 40
1.0
176
     1
 40
1.0
176
     1
  0
VISUALSTYLE
  5
2D
102
{ACAD_REACTORS
330
2A
102
}
330
2A
100
AcDbVisualStyle
  2

 70
     2
177
     3
291
     1
 70
    58
 90
        2
176
     1
 90
        2
176
     1
 90
        1
176
     1
 90
        2
176
     1
 40
0.6
176
     1
 40
30.0
176
     1
 62
     7
420
 16777215
176
     1
 90
        0
176
     1
 90
        0
176
     1
 62
     7
176
     1
 62
   257
176
     1
 90
        1
176
     1
 90
        1
176
     1
 40
1.0
176
     1
 90
        0
176
     1
 62
     7
176
     1
 40
1.0
176
     1
 90
        1
176
     1
 90
        6
176
     1
 90
        2
176
     1
 62
     7
176
     1
 90
        5
176
     1
 90
        0
176
     1
 90
        0
176
     1
290
     0
176
     1
 90
       13
176
     1
 40
0.0
176
     1
 90
        0
176
     1
290
     0
176
     1
290
     1
176
     1
290
     1
176
     1
290
     0
176
     1
290
     0
176
     1
290
     0
176
     1
290
     0
176
     1
290
     0
176
     1
290
     0
176
     1
 90
       50
176
     1
 40
0.0
176
     1
 40
1.0
176
     1
 90
        0
176
     1
 62
    18
176
     1
 90
       50
176
     1
 90
        3
176
     1
 62
     5
420
      255
176
     1
290
     0
176
     1
 90
       50
176
     1
 90
       50
176
     1
 90
       50
176
     1
290
     0
176
     1
 90
       50
176
     1
 62
   256
176
     0
 40
1.0
176
     0
 90
        2
176
     1
  1
strokes_ogs.tif
176
     1
290
     0
176
     1
 40
1.0
176
     1
 40
1.0
176
     1
  0
VISUALSTYLE
  5
2E
102
{ACAD_REACTORS
330
2A
102
}
330
2A
100
AcDbVisualStyle
  2

 70
     3
177
     3
291
     1
 70
    58
 90
        2
176
     1
 90
        2
176
     1
 90
        1
176
     1
 90
        2
176
     1
 40
0.6
176
     1
 40
30.0
176
     1
 62
     7
420
 16777215
176
     1
 90
        1
176
     1
 90
        0
176
     1
 62
     7
176
     1
 62
   257
176
     1
 90
        1
176
     1
 90
        1
176
     1
 40
1.0
176
     1
 90
        0
176
     1
 62
   257
176
     1
 40
1.0
176
     1
 90
        1
176
     1
 90
        6
176
     1
 90
        2
176
     1
 62
     7
176
     1
 90
        5
176
     1
 90
        0
176
     1
 90
        0
176
     1
290
     0
176
     1
 90
       13
176
     1
 40
0.0
176
     1
 90
        0
176
     1
290
     0
176
     1
290
     1
176
     1
290
     1
176
     1
290
     0
176
     1
290
     0
176
     1
290
     0
176
     1
290
     0
176
     1
290
     0
176
     1
290
     0
176
     1
 90
       50
176
     1
 40
0.0
176
     1
 40
1.0
176
     1
 90
        0
176
     1
 62
    18
176
     1
 90
       50
176
     1
 90
        3
176
     1
 62
     5
420
      255
176
     1
290
     0
176
     1
 90
       50
176
     1
 90
       50
176
     1
 90
       50
176
     1
290
     0
176
     1
 90
       50
176
     1
 62
   256
176
     0
 40
1.0
176
     0
 90
        2
176
     1
  1
strokes_ogs.tif
176
     1
290
     0
176
     1
 40
1.0
176
     1
 40
1.0
176
     1
  0
VISUALSTYLE
  5
31
102
{ACAD_REACTORS
330
2A
102
}
330
2A
100
AcDbVisualStyle
  2

 70
     6
177
     3
291
     0
 70
    58
 90
        1
176
     1
 90
        2
176
     1
 90
        2
176
     1
 90
        0
176
     1
 40
0.6
176
     1
 40
30.0
176
     1
 62
     7
420
 16777215
176
     1
 90
        2
176
     1
 90
        2
176
     1
 62
     7
176
     1
 62
   257
176
     1
 90
        2
176
     1
 90
        1
176
     1
 40
40.0
176
     1
 90
        0
176
     1
 62
   257
176
     1
 40
1.0
176
     1
 90
        1
176
     1
 90
        6
176
     1
 90
        2
176
     1
 62
     7
176
     1
 90
        3
176
     1
 90
        0
176
     1
 90
        0
176
     1
290
     0
176
     1
 90
        1
176
     1
 40
0.0
176
     1
 90
        0
176
     1
290
     0
176
     1
290
     1
176
     1
290
     1
176
     1
290
     0
176
     1
290
     0
176
     1
290
     0
176
     1
290
     0
176
     1
290
     0
176
     1
290
     0
176
     1
 90
       50
176
     1
 40
0.0
176
     1
 40
1.0
176
     1
 90
        0
176
     1
 62
    18
176
     1
 90
       50
176
     1
 90
        3
176
     1
 62
     5
420
      255
176
     1
290
     0
176
     1
 90
       50
176
     1
 90
       50
176
     1
 90
       50
176
     1
290
     0
176
     1
 90
       50
176
     1
 62
   256
176
     0
 40
1.0
176
     0
 90
        2
176
     1
  1
strokes_ogs.tif
176
     1
290
     0
176
     1
 40
1.0
176
     1
 40
1.0
176
     1
  0
VISUALSTYLE
  5
3B
102
{ACAD_REACTORS
330
2A
102
}
330
2A
100
AcDbVisualStyle
  2

 70
    20
177
     3
291
     1
 70
    58
 90
        2
176
     1
 90
        2
176
     1
 90
        0
176
     1
 90
        0
176
     1
 40
0.6
176
     1
 40
30.0
176
     1
 62
     7
420
 16777215
176
     1
 90
        1
176
     1
 90
        4
176
     1
 62
     7
176
     1
 62
   257
176
     1
 90
        1
176
     1
 90
        1
176
     1
 40
1.0
176
     1
 90
       10
176
     1
 62
     7
176
     1
 40
1.0
176
     1
 90
        1
176
     1
 90
        6
176
     1
 90
        2
176
     1
 62
     7
176
     1
 90
        5
176
     1
 90
        0
176
     1
 90
        0
176
     1
290
     0
176
     1
 90
        1
176
     1
 40
0.0
176
     1
 90
        0
176
     1
290
     0
176
     1
290
     1
176
     1
290
     1
176
     1
290
     0
176
     1
290
     0
176
     1
290
     0
176
     1
290
     0
176
     1
290
     0
176
     1
290
     0
176
     1
 90
       50
176
     1
 40
0.0
176
     1
 40
1.0
176
     1
 90
        0
176
     1
 62
    18
176
     1
 90
       50
176
     1
 90
        3
176
     1
 62
     5
420
      255
176
     1
290
     0
176
     1
 90
       50
176
     1
 90
       50
176
     1
 90
       50
176
     1
290
     0
176
     1
 90
       50
176
     1
 62
   256
176
     0
 40
1.0
176
     0
 90
        2
176
     1
  1
strokes_ogs.tif
176
     1
290
     0
176
     1
 40
1.0
176
     1
 40
1.0
176
     1
  0
VISUALSTYLE
  5
38
102
{ACAD_REACTORS
330
2A
102
}
330
2A
100
AcDbVisualStyle
  2

 70
    14
177
     3
291
     1
 70
    58
 90
        2
176
     1
 90
        2
176
     1
 90
        0
176
     1
 90
        0
176
     1
 40
0.6
176
     1
 40
30.0
176
     1
 62
     7
420
 16777215
176
     1
 90
        1
176
     1
 90
        4
176
     1
 62
     7
176
     1
 62
   257
176
     1
 90
        7
176
     1
 90
        7
176
     1
 40
1.0
176
     1
 90
        8
176
     1
 62
     7
176
     1
 40
1.0
176
     1
 90
        1
176
     1
 90
        6
176
     1
 90
        2
176
     1
 62
     7
176
     1
 90
        5
176
     1
 90
        0
176
     1
 90
        0
176
     1
290
     0
176
     1
 90
        1
176
     1
 40
0.0
176
     1
 90
        0
176
     1
290
     0
176
     1
290
     1
176
     1
290
     1
176
     1
290
     0
176
     1
290
     0
176
     1
290
     0
176
     1
290
     0
176
     1
290
     0
176
     1
290
     0
176
     1
 90
       50
176
     1
 40
0.0
176
     1
 40
1.0
176
     1
 90
        0
176
     1
 62
    18
176
     1
 90
       50
176
     1
 90
        3
176
     1
 62
     5
420
      255
176
     1
290
     0
176
     1
 90
       50
176
     1
 90
       50
176
     1
 90
       50
176
     1
290
     0
176
     1
 90
       50
176
     1
 62
   256
176
     0
 40
1.0
176
     0
 90
        2
176
     1
  1
strokes_ogs.tif
176
     1
290
     0
176
     1
 40
1.0
176
     1
 40
1.0
176
     1
  0
VISUALSTYLE
  5
3C
102
{ACAD_REACTORS
330
2A
102
}
330
2A
100
AcDbVisualStyle
  2

 70
    21
177
     3
291
     1
 70
    58
 90
        2
176
     1
 90
        2
176
     1
 90
        0
176
     1
 90
        0
176
     1
 40
0.6
176
     1
 40
30.0
176
     1
 62
     7
420
 16777215
176
     1
 90
        1
176
     1
 90
        4
176
     1
 62
     7
176
     1
 62
   257
176
     1
 90
        1
176
     1
 90
        1
176
     1
 40
1.0
176
     1
 90
        9
176
     1
 62
     7
176
     1
 40
1.0
176
     1
 90
        1
176
     1
 90
        6
176
     1
 90
        2
176
     1
 62
     7
176
     1
 90
        5
176
     1
 90
        0
176
     1
 90
        0
176
     1
290
     0
176
     1
 90
        1
176
     1
 40
0.0
176
     1
 90
        0
176
     1
290
     0
176
     1
290
     1
176
     1
290
     1
176
     1
290
     0
176
     1
290
     0
176
     1
290
     0
176
     1
290
     0
176
     1
290
     0
176
     1
290
     0
176
     1
 90
       50
176
     1
 40
0.0
176
     1
 40
1.0
176
     1
 90
        0
176
     1
 62
    18
176
     1
 90
       50
176
     1
 90
        3
176
     1
 62
     5
420
      255
176
     1
290
     0
176
     1
 90
       50
176
     1
 90
       50
176
     1
 90
       50
176
     1
290
     0
176
     1
 90
       50
176
     1
 62
   256
176
     0
 40
1.0
176
     0
 90
        2
176
     1
  1
strokes_ogs.tif
176
     1
290
     0
176
     1
 40
1.0
176
     1
 40
1.0
176
     1
  0
VISUALSTYLE
  5
33
102
{ACAD_REACTORS
330
2A
102
}
330
2A
100
AcDbVisualStyle
  2

 70
     8
177
     3
291
     0
 70
    58
 90
        2
176
     1
 90
        3
176
     1
 90
        0
176
     1
 90
        2
176
     1
 40
0.6
176
     1
 40
30.0
176
     1
 62
     7
420
 16777215
176
     1
 90
        0
176
     1
 90
        0
176
     1
 62
     7
176
     1
 62
   257
176
     1
 90
        1
176
     1
 90
        1
176
     1
 40
1.0
176
     1
 90
        8
176
     1
 62
   257
176
     1
 40
1.0
176
     1
 90
        1
176
     1
 90
        6
176
     1
 90
        2
176
     1
 62
     7
176
     1
 90
        3
176
     1
 90
        0
176
     1
 90
        0
176
     1
290
     0
176
     1
 90
       13
176
     1
 40
0.0
176
     1
 90
        0
176
     1
290
     0
176
     1
290
     1
176
     1
290
     1
176
     1
290
     0
176
     1
290
     0
176
     1
290
     0
176
     1
290
     0
176
     1
290
     0
176
     1
290
     0
176
     1
 90
       50
176
     1
 40
0.0
176
     1
 40
1.0
176
     1
 90
        0
176
     1
 62
    18
176
     1
 90
       50
176
     1
 90
        3
176
     1
 62
     5
420
      255
176
     1
290
     0
176
     1
 90
       50
176
     1
 90
       50
176
     1
 90
       50
176
     1
290
     0
176
     1
 90
       50
176
     1
 62
   256
176
     0
 40
1.0
176
     0
 90
        2
176
     1
  1
strokes_ogs.tif
176
     1
290
     0
176
     1
 40
1.0
176
     1
 40
1.0
176
     1
  0
VISUALSTYLE
  5
42
102
{ACAD_REACTORS
330
2A
102
}
330
2A
100
AcDbVisualStyle
  2

 70
    27
177
     3
291
     0
 70
    58
 90
        2
176
     1
 90
        2
176
     1
 90
        1
176
     1
 90
        2
176
     1
 40
0.6
176
     1
 40
30.0
176
     1
 62
     7
420
 16777215
176
     1
 90
        0
176
     1
 90
        4
176
     1
 62
     7
176
     1
 62
   257
176
     1
 90
        1
176
     1
 90
        1
176
     1
 40
1.0
176
     1
 90
        8
176
     1
 62
   257
176
     1
 40
1.0
176
     1
 90
        1
176
     1
 90
        6
176
     1
 90
        2
176
     1
 62
     8
420
  7895160
176
     1
 90
        3
176
     1
 90
        0
176
     1
 90
        0
176
     1
290
     0
176
     1
 90
        5
176
     1
 40
0.0
176
     1
 90
        0
176
     1
290
     0
176
     1
290
     1
176
     1
290
     1
176
     1
290
     0
176
     1
290
     0
176
     1
290
     0
176
     1
290
     0
176
     1
290
     0
176
     1
290
     0
176
     1
 90
       50
176
     1
 40
0.0
176
     1
 40
1.0
176
     1
 90
        0
176
     1
 62
    18
176
     1
 90
       50
176
     1
 90
        3
176
     1
 62
     5
420
      255
176
     1
290
     0
176
     1
 90
       50
176
     1
 90
       50
176
     1
 90
       50
176
     1
290
     0
176
     1
 90
       50
176
     1
 62
   256
176
     0
 40
1.0
176
     0
 90
        2
176
     1
  1
strokes_ogs.tif
176
     1
290
     0
176
     1
 40
1.0
176
     1
 40
1.0
176
     1
  0
VISUALSTYLE
  5
41
102
{ACAD_REACTORS
330
2A
102
}
330
2A
100
AcDbVisualStyle
  2

 70
    26
177
     3
291
     0
 70
    58
 90
        2
176
     1
 90
        2
176
     1
 90
        1
176
     1
 90
        2
176
     1
 40
0.6
176
     1
 40
30.0
176
     1
 62
     7
420
 16777215
176
     1
 90
        1
176
     1
 90
       10
176
     1
 62
     7
176
     1
 62
   257
176
     1
 90
        2
176
     1
 90
        1
176
     1
 40
1.0
176
     1
 90
        8
176
     1
 62
   257
176
     1
 40
1.0
176
     1
 90
        1
176
     1
 90
        6
176
     1
 90
        2
176
     1
 62
     7
176
     1
 90
        3
176
     1
 90
        0
176
     1
 90
        0
176
     1
290
     0
176
     1
 90
        5
176
     1
 40
0.0
176
     1
 90
        0
176
     1
290
     0
176
     1
290
     1
176
     1
290
     1
176
     1
290
     0
176
     1
290
     0
176
     1
290
     0
176
     1
290
     0
176
     1
290
     0
176
     1
290
     0
176
     1
 90
       50
176
     1
 40
0.0
176
     1
 40
1.0
176
     1
 90
        0
176
     1
 62
    18
176
     1
 90
       50
176
     1
 90
        3
176
     1
 62
     5
420
      255
176
     1
290
     0
176
     1
 90
       50
176
     1
 90
       50
176
     1
 90
       50
176
     1
290
     0
176
     1
 90
       50
176
     1
 62
   256
176
     0
 40
1.0
176
     0
 90
        2
176
     1
  1
strokes_ogs.tif
176
     1
290
     0
176
     1
 40
1.0
176
     1
 40
1.0
176
     1
  0
VISUALSTYLE
  5
3E
102
{ACAD_REACTORS
330
2A
102
}
330
2A
100
AcDbVisualStyle
  2

 70
    23
177
     3
291
     0
 70
    58
 90
        2
176
     1
 90
        2
176
     1
 90
        3
176
     1
 90
        0
176
     1
 40
0.6
176
     1
 40
30.0
176
     1
 62
     7
420
 16777215
176
     1
 90
        2
176
     1
 90
        2
176
     1
 62
     7
176
     1
 62
     7
176
     1
 90
        1
176
     1
 90
        1
176
     1
 40
40.0
176
     1
 90
        8
176
     1
 62
     7
176
     1
 40
1.0
176
     1
 90
        1
176
     1
 90
        6
176
     1
 90
        2
176
     1
 62
     7
176
     1
 90
        3
176
     1
 90
        0
176
     1
 90
        0
176
     1
290
     0
176
     1
 90
        1
176
     1
 40
0.0
176
     1
 90
        0
176
     1
290
     0
176
     1
290
     1
176
     1
290
     1
176
     1
290
     0
176
     1
290
     0
176
     1
290
     0
176
     1
290
     0
176
     1
290
     0
176
     1
290
     0
176
     1
 90
       50
176
     1
 40
0.0
176
     1
 40
1.0
176
     1
 90
        0
176
     1
 62
    18
176
     1
 90
       50
176
     1
 90
        3
176
     1
 62
     5
420
      255
176
     1
290
     0
176
     1
 90
       50
176
     1
 90
       50
176
     1
 90
       50
176
     1
290
     0
176
     1
 90
       50
176
     1
 62
   256
176
     0
 40
1.0
176
     0
 90
        2
176
     1
  1
strokes_ogs.tif
176
     1
290
     0
176
     1
 40
1.0
176
     1
 40
1.0
176
     1
  0
VISUALSTYLE
  5
3F
102
{ACAD_REACTORS
330
2A
102
}
330
2A
100
AcDbVisualStyle
  2

 70
    24
177
     3
291
     0
 70
    58
 90
        1
176
     1
 90
        2
176
     1
 90
        2
176
     1
 90
        0
176
     1
 40
0.6
176
     1
 40
30.0
176
     1
 62
     7
420
 16777215
176
     1
 90
        2
176
     1
 90
        2
176
     1
 62
     7
176
     1
 62
     7
176
     1
 90
        1
176
     1
 90
        1
176
     1
 40
40.0
176
     1
 90
       11
176
     1
 62
     7
176
     1
 40
1.0
176
     1
 90
        1
176
     1
 90
        6
176
     1
 90
        2
176
     1
 62
     7
176
     1
 90
        6
176
     1
 90
        0
176
     1
 90
        0
176
     1
290
     0
176
     1
 90
        1
176
     1
 40
0.0
176
     1
 90
        0
176
     1
290
     0
176
     1
290
     1
176
     1
290
     1
176
     1
290
     0
176
     1
290
     0
176
     1
290
     0
176
     1
290
     0
176
     1
290
     0
176
     1
290
     0
176
     1
 90
       50
176
     1
 40
0.0
176
     1
 40
1.0
176
     1
 90
        0
176
     1
 62
    18
176
     1
 90
       50
176
     1
 90
        3
176
     1
 62
     5
420
      255
176
     1
290
     0
176
     1
 90
       50
176
     1
 90
       50
176
     1
 90
       50
176
     1
290
     0
176
     1
 90
       50
176
     1
 62
   256
176
     0
 40
1.0
176
     0
 90
        2
176
     1
  1
strokes_ogs.tif
176
     1
290
     0
176
     1
 40
1.0
176
     1
 40
1.0
176
     1
  0
VISUALSTYLE
  5
37
102
{ACAD_REACTORS
330
2A
102
}
330
2A
100
AcDbVisualStyle
  2

 70
    13
177
     3
291
     1
 70
    58
 90
        2
176
     1
 90
        2
176
     1
 90
        0
176
     1
 90
        0
176
     1
 40
0.6
176
     1
 40
30.0
176
     1
 62
     7
420
 16777215
176
     1
 90
        1
176
     1
 90
        4
176
     1
 62
     7
176
     1
 62
   257
176
     1
 90
        1
176
     1
 90
        1
176
     1
 40
1.0
176
     1
 90
       12
176
     1
 62
     7
176
     1
 40
1.0
176
     1
 90
        1
176
     1
 90
        6
176
     1
 90
        2
176
     1
 62
     7
176
     1
 90
        5
176
     1
 90
        0
176
     1
 90
        0
176
     1
290
     0
176
     1
 90
        1
176
     1
 40
0.0
176
     1
 90
        0
176
     1
290
     0
176
     1
290
     1
176
     1
290
     1
176
     1
290
     0
176
     1
290
     0
176
     1
290
     0
176
     1
290
     0
176
     1
290
     0
176
     1
290
     0
176
     1
 90
       50
176
     1
 40
0.0
176
     1
 40
1.0
176
     1
 90
        0
176
     1
 62
    18
176
     1
 90
       50
176
     1
 90
        3
176
     1
 62
     5
420
      255
176
     1
290
     0
176
     1
 90
       50
176
     1
 90
       50
176
     1
 90
       50
176
     1
290
     0
176
     1
 90
       50
176
     1
 62
   256
176
     0
 40
1.0
176
     0
 90
        2
176
     1
  1
strokes_ogs.tif
176
     1
290
     0
176
     1
 40
1.0
176
     1
 40
1.0
176
     1
  0
VISUALSTYLE
  5
30
102
{ACAD_REACTORS
330
2A
102
}
330
2A
100
AcDbVisualStyle
  2

 70
     5
177
     3
291
     0
 70
    58
 90
        0
176
     1
 90
        2
176
     1
 90
        0
176
     1
 90
        0
176
     1
 40
0.6
176
     1
 40
30.0
176
     1
 62
     7
420
 16777215
176
     1
 90
        1
176
     1
 90
        4
176
     1
 62
     7
176
     1
 62
   257
176
     1
 90
        1
176
     1
 90
        1
176
     1
 40
1.0
176
     1
 90
        0
176
     1
 62
   257
176
     1
 40
1.0
176
     1
 90
        1
176
     1
 90
        6
176
     1
 90
        2
176
     1
 62
     7
176
     1
 90
        3
176
     1
 90
        0
176
     1
 90
        0
176
     1
290
     0
176
     1
 90
        1
176
     1
 40
0.0
176
     1
 90
        0
176
     1
290
     0
176
     1
290
     1
176
     1
290
     1
176
     1
290
     0
176
     1
290
     0
176
     1
290
     0
176
     1
290
     0
176
     1
290
     0
176
     1
290
     0
176
     1
 90
       50
176
     1
 40
0.0
176
     1
 40
1.0
176
     1
 90
        0
176
     1
 62
    18
176
     1
 90
       50
176
     1
 90
        3
176
     1
 62
     5
420
      255
176
     1
290
     0
176
     1
 90
       50
176
     1
 90
       50
176
     1
 90
       50
176
     1
290
     0
176
     1
 90
       50
176
     1
 62
   256
176
     0
 40
1.0
176
     0
 90
        2
176
     1
  1
strokes_ogs.tif
176
     1
290
     0
176
     1
 40
1.0
176
     1
 40
1.0
176
     1
  0
VISUALSTYLE
  5
40
102
{ACAD_REACTORS
330
2A
102
}
330
2A
100
AcDbVisualStyle
  2

 70
    25
177
     3
291
     0
 70
    58
 90
        2
176
     1
 90
        2
176
     1
 90
        1
176
     1
 90
        1
176
     1
 40
0.5
176
     1
 40
30.0
176
     1
 62
     7
420
 16777215
176
     1
 90
        1
176
     1
 90
        0
176
     1
 62
     7
176
     1
 62
   257
176
     1
 90
        1
176
     1
 90
        1
176
     1
 40
1.0
176
     1
 90
        8
176
     1
 62
     7
176
     1
 40
1.0
176
     1
 90
        1
176
     1
 90
        6
176
     1
 90
        2
176
     1
 62
     7
176
     1
 90
        3
176
     1
 90
        0
176
     1
 90
        0
176
     1
290
     0
176
     1
 90
       13
176
     1
 40
0.0
176
     1
 90
        0
176
     1
290
     0
176
     1
290
     1
176
     1
290
     1
176
     1
290
     0
176
     1
290
     0
176
     1
290
     0
176
     1
290
     0
176
     1
290
     0
176
     1
290
     0
176
     1
 90
       50
176
     1
 40
0.0
176
     1
 40
1.0
176
     1
 90
        0
176
     1
 62
    18
176
     1
 90
       50
176
     1
 90
        3
176
     1
 62
     5
420
      255
176
     1
290
     0
176
     1
 90
       50
176
     1
 90
       50
176
     1
 90
       50
176
     1
290
     0
176
     1
 90
       50
176
     1
 62
   256
176
     0
 40
1.0
176
     0
 90
        2
176
     1
  1
strokes_ogs.tif
176
     1
290
     0
176
     1
 40
1.0
176
     1
 40
1.0
176
     1
  0
DICTIONARYVAR
  5
5999
102
{ACAD_REACTORS
330
5998
102
}
330
5998
100
DictionaryVariables
280
     0
  1
1:1
  0
DICTIONARYVAR
  5
59B4
102
{ACAD_REACTORS
330
5998
102
}
330
5998
100
DictionaryVariables
280
     0
  1
STANDARD
  0
DICTIONARYVAR
  5
59B3
102
{ACAD_REACTORS
330
5998
102
}
330
5998
100
DictionaryVariables
280
     0
  1
STANDARD
  0
DICTIONARYVAR
  5
A3F2
102
{ACAD_REACTORS
330
5998
102
}
330
5998
100
DictionaryVariables
280
     0
  1
Metric50
  0
DICTIONARYVAR
  5
A3F3
102
{ACAD_REACTORS
330
5998
102
}
330
5998
100
DictionaryVariables
280
     0
  1
Metric50
  0
DICTIONARYVAR
  5
59B5
102
{ACAD_REACTORS
330
5998
102
}
330
5998
100
DictionaryVariables
280
     0
  1
1
  0
DICTIONARYVAR
  5
59B6
102
{ACAD_REACTORS
330
5998
102
}
330
5998
100
DictionaryVariables
280
     0
  1
15
  0
DICTIONARY
  5
A3F7
330
A376
100
AcDbDictionary
280
     1
281
     1
  3
ACAD_XREC_ROUNDTRIP
360
A458
  0
DICTIONARY
  5
5F41
330
22
100
AcDbDictionary
280
     1
281
     1
  0
DICTIONARY
  5
A3F5
330
A375
100
AcDbDictionary
280
     1
281
     1
  3
ACAD_XREC_ROUNDTRIP
360
A457
  0
DICTIONARY
  5
A370
330
59A3
100
AcDbDictionary
280
     1
281
     1
  3
ACAD_ROUNDTRIP_2008_TABLESTYLE_CELLSTYLEMAP
360
A456
  0
XRECORD
  5
A458
102
{ACAD_REACTORS
330
A3F7
102
}
330
A3F7
100
AcDbXrecord
280
     1
102
DISPLAYNAME
  1
Metric50
102
FLAGS
 90
        0
  0
XRECORD
  5
A457
102
{ACAD_REACTORS
330
A3F5
102
}
330
A3F5
100
AcDbXrecord
280
     1
102
DISPLAYNAME
  1
Metric50
102
FLAGS
 90
        0
  0
CELLSTYLEMAP
  5
A456
102
{ACAD_REACTORS
330
A370
102
}
330
A370
100
AcDbCellStyleMap
 90
        3
300
CELLSTYLE
  1
TABLEFORMAT_BEGIN
 90
        5
170
     1
 91
        0
 92
    32768
 62
   257
 93
        1
300
CONTENTFORMAT
  1
CONTENTFORMAT_BEGIN
 90
        0
 91
        0
 92
      512
 93
        0
300

 40
0.0
140
1.0
 94
        5
 62
     0
340
11
144
6.0
309
CONTENTFORMAT_END
171
     1
301
MARGIN
  1
CELLMARGIN_BEGIN
 40
1.5
 40
1.5
 40
1.5
 40
1.5
 40
0.18
 40
0.18
309
CELLMARGIN_END
 94
        6
 95
        1
302
GRIDFORMAT
  1
GRIDFORMAT_BEGIN
 90
        0
 91
        1
 62
     0
 92
       -2
340
0
 93
        0
 40
1.125
309
GRIDFORMAT_END
 95
        2
302
GRIDFORMAT
  1
GRIDFORMAT_BEGIN
 90
        0
 91
        1
 62
     0
 92
       -2
340
0
 93
        0
 40
1.125
309
GRIDFORMAT_END
 95
        4
302
GRIDFORMAT
  1
GRIDFORMAT_BEGIN
 90
        0
 91
        1
 62
     0
 92
       -2
340
0
 93
        0
 40
1.125
309
GRIDFORMAT_END
 95
        8
302
GRIDFORMAT
  1
GRIDFORMAT_BEGIN
 90
        0
 91
        1
 62
     0
 92
       -2
340
0
 93
        0
 40
1.125
309
GRIDFORMAT_END
 95
       16
302
GRIDFORMAT
  1
GRIDFORMAT_BEGIN
 90
        0
 91
        1
 62
     0
 92
       -2
340
0
 93
        0
 40
1.125
309
GRIDFORMAT_END
 95
       32
302
GRIDFORMAT
  1
GRIDFORMAT_BEGIN
 90
        0
 91
        1
 62
     0
 92
       -2
340
0
 93
        0
 40
1.125
309
GRIDFORMAT_END
309
TABLEFORMAT_END
  1
CELLSTYLE_BEGIN
 90
        1
 91
        1
300
_TITLE
309
CELLSTYLE_END
300
CELLSTYLE
  1
TABLEFORMAT_BEGIN
 90
        5
170
     1
 91
        0
 92
        0
 62
   257
 93
        1
300
CONTENTFORMAT
  1
CONTENTFORMAT_BEGIN
 90
        0
 91
        0
 92
      512
 93
        0
300

 40
0.0
140
1.0
 94
        5
 62
     0
340
11
144
4.5
309
CONTENTFORMAT_END
171
     1
301
MARGIN
  1
CELLMARGIN_BEGIN
 40
1.5
 40
1.5
 40
1.5
 40
1.5
 40
0.18
 40
0.18
309
CELLMARGIN_END
 94
        6
 95
        1
302
GRIDFORMAT
  1
GRIDFORMAT_BEGIN
 90
        0
 91
        1
 62
     0
 92
       -2
340
0
 93
        0
 40
1.125
309
GRIDFORMAT_END
 95
        2
302
GRIDFORMAT
  1
GRIDFORMAT_BEGIN
 90
        0
 91
        1
 62
     0
 92
       -2
340
0
 93
        0
 40
1.125
309
GRIDFORMAT_END
 95
        4
302
GRIDFORMAT
  1
GRIDFORMAT_BEGIN
 90
        0
 91
        1
 62
     0
 92
       -2
340
0
 93
        0
 40
1.125
309
GRIDFORMAT_END
 95
        8
302
GRIDFORMAT
  1
GRIDFORMAT_BEGIN
 90
        0
 91
        1
 62
     0
 92
       -2
340
0
 93
        0
 40
1.125
309
GRIDFORMAT_END
 95
       16
302
GRIDFORMAT
  1
GRIDFORMAT_BEGIN
 90
        0
 91
        1
 62
     0
 92
       -2
340
0
 93
        0
 40
1.125
309
GRIDFORMAT_END
 95
       32
302
GRIDFORMAT
  1
GRIDFORMAT_BEGIN
 90
        0
 91
        1
 62
     0
 92
       -2
340
0
 93
        0
 40
1.125
309
GRIDFORMAT_END
309
TABLEFORMAT_END
  1
CELLSTYLE_BEGIN
 90
        2
 91
        1
300
_HEADER
309
CELLSTYLE_END
300
CELLSTYLE
  1
TABLEFORMAT_BEGIN
 90
        5
170
     1
 91
        0
 92
        0
 62
   257
 93
        1
300
CONTENTFORMAT
  1
CONTENTFORMAT_BEGIN
 90
        0
 91
        0
 92
      512
 93
        0
300

 40
0.0
140
1.0
 94
        2
 62
     0
340
11
144
4.5
309
CONTENTFORMAT_END
171
     1
301
MARGIN
  1
CELLMARGIN_BEGIN
 40
1.5
 40
1.5
 40
1.5
 40
1.5
 40
0.18
 40
0.18
309
CELLMARGIN_END
 94
        6
 95
        1
302
GRIDFORMAT
  1
GRIDFORMAT_BEGIN
 90
        0
 91
        1
 62
     0
 92
       -2
340
0
 93
        0
 40
1.125
309
GRIDFORMAT_END
 95
        2
302
GRIDFORMAT
  1
GRIDFORMAT_BEGIN
 90
        0
 91
        1
 62
     0
 92
       -2
340
0
 93
        0
 40
1.125
309
GRIDFORMAT_END
 95
        4
302
GRIDFORMAT
  1
GRIDFORMAT_BEGIN
 90
        0
 91
        1
 62
     0
 92
       -2
340
0
 93
        0
 40
1.125
309
GRIDFORMAT_END
 95
        8
302
GRIDFORMAT
  1
GRIDFORMAT_BEGIN
 90
        0
 91
        1
 62
     0
 92
       -2
340
0
 93
        0
 40
1.125
309
GRIDFORMAT_END
 95
       16
302
GRIDFORMAT
  1
GRIDFORMAT_BEGIN
 90
        0
 91
        1
 62
     0
 92
       -2
340
0
 93
        0
 40
1.125
309
GRIDFORMAT_END
 95
       32
302
GRIDFORMAT
  1
GRIDFORMAT_BEGIN
 90
        0
 91
        1
 62
     0
 92
       -2
340
0
 93
        0
 40
1.125
309
GRIDFORMAT_END
309
TABLEFORMAT_END
  1
CELLSTYLE_BEGIN
 90
        3
 91
        2
300
_DATA
309
CELLSTYLE_END
  0
ENDSEC
  0
SECTION
  2
ACDSDATA
 70
     2
 71
     6
  0
ACDSSCHEMA
 90
        0
  1
AcDb_Thumbnail_Schema
  2
AcDbDs::ID
280
    10
 91
        8
  2
Thumbnail_Data
280
    15
 91
        0
101
ACDSRECORD
 95
        0
 90
        1
  2
AcDbDs::TreatedAsObjectData
280
     1
291
     1
101
ACDSRECORD
 95
        0
 90
        2
  2
AcDbDs::Legacy
280
     1
291
     1
101
ACDSRECORD
  1
AcDbDs::ID
 90
        3
  2
AcDs:Indexable
280
     1
291
     1
101
ACDSRECORD
  1
AcDbDs::ID
 90
        4
  2
AcDbDs::HandleAttribute
280
     7
282
     1
  0
ACDSSCHEMA
 90
        1
  1
AcDbDs::TreatedAsObjectDataSchema
  2
AcDbDs::TreatedAsObjectData
280
     1
 91
        0
  0
ACDSSCHEMA
 90
        2
  1
AcDbDs::LegacySchema
  2
AcDbDs::Legacy
280
     1
 91
        0
  0
ACDSSCHEMA
 90
        3
  1
AcDbDs::IndexedPropertySchema
  2
AcDs:Indexable
280
     1
 91
        0
  0
ACDSSCHEMA
 90
        4
  1
AcDbDs::HandleAttributeSchema
  2
AcDbDs::HandleAttribute
280
     7
 91
        1
284
     1
  0
ACDSRECORD
 90
        0
  2
AcDbDs::ID
280
    10
320
22
  2
Thumbnail_Data
280
    15
 94
     1587
310
89504E470D0A1A0A0000000D4948445200000100000000A408030000004F56001800000300504C5445000000000000FFFFFF0000000000000000000000000000000000000000000000000000330000660000990000CC0000FF0033000033330033660033990033CC0033FF0066000066330066660066990066CC0066FF0099
310
000099330099660099990099CC0099FF00CC0000CC3300CC6600CC9900CCCC00CCFF00FF0000FF3300FF6600FF9900FFCC00FFFF3300003300333300663300993300CC3300FF3333003333333333663333993333CC3333FF3366003366333366663366993366CC3366FF3399003399333399663399993399CC3399FF33CC00
310
33CC3333CC6633CC9933CCCC33CCFF33FF0033FF3333FF6633FF9933FFCC33FFFF6600006600336600666600996600CC6600FF6633006633336633666633996633CC6633FF6666006666336666666666996666CC6666FF6699006699336699666699996699CC6699FF66CC0066CC3366CC6666CC9966CCCC66CCFF66FF0066
310
FF3366FF6666FF9966FFCC66FFFF9900009900339900669900999900CC9900FF9933009933339933669933999933CC9933FF9966009966339966669966999966CC9966FF9999009999339999669999999999CC9999FF99CC0099CC3399CC6699CC9999CCCC99CCFF99FF0099FF3399FF6699FF9999FFCC99FFFFCC0000CC00
310
33CC0066CC0099CC00CCCC00FFCC3300CC3333CC3366CC3399CC33CCCC33FFCC6600CC6633CC6666CC6699CC66CCCC66FFCC9900CC9933CC9966CC9999CC99CCCC99FFCCCC00CCCC33CCCC66CCCC99CCCCCCCCCCFFCCFF00CCFF33CCFF66CCFF99CCFFCCCCFFFFFF0000FF0033FF0066FF0099FF00CCFF00FFFF3300FF3333
310
FF3366FF3399FF33CCFF33FFFF6600FF6633FF6666FF6699FF66CCFF66FFFF9900FF9933FF9966FF9999FF99CCFF99FFFFCC00FFCC33FFCC66FFCC99FFCCCCFFCCFFFFFF00FFFF33FFFF66FFFF99FFFFCCFFFFFF0000000D0D0D1A1A1A2828283535354343435050505D5D5D6B6B6B787878868686939393A1A1A1AEAEAEBB
310
BBBBC9C9C9D6D6D6E4E4E4F1F1F1FFFFFF000000000000000000000000000000000000000000000000000000000000C11FEF66000002EE4944415478DAEDDC3B92E3201080E1B981AEE184FB674EB8061127E844F9D23C24905CE5A9ADDDA971F74FC91E615B417F6A302079BEB2F3F2050000000000000000000000000000
310
0000000000000000000000000000000000000000000000000000000000000000000000000000000000000000000000000000702DE12F8A2D801F3904800F0090A3F8031891A73D4BDEF7DD5F06487B380668999F9264F19B015232A038ECC96D1328275F1361CD80FD5ACC3681A4C9AF19907D02A4944A74E92D80D526A01D
310
C008D16306E47C02F8EC039648E7C1A00B80360EDCF7D0B7E00D60F9720F6B84EE01DCCC060100C03BC0B4E2E71CE0EDAAA7D935C1EFAEF7DA5D14750FF0FF0E010000007E3D40E901FBF62E648B00FDCA4848B771407B214D6B0562122087D4CB0AD076C33C1BB60AF07A2E10EE496F152004CDEE792E50EB7E00343269A3
310
C10170B406FB002DF36BF07306B801D0331F6309579FCA6300E417006215E05506B801D04B437D2940964E50FC74823285372294EC096014AF003A128C292C2341C9ED22590ABBF9A170BD43602C09CA04D05E58AE1BDA1C0768D071DA9F33208B83E9F01CE30CA037CDCC578B4D6740BEEDD79BC7AEF74E1A0518277BBA57
310
B4559D00BC2AA78953807F770800BF1A60BD45FCD88FEB07A3E90C4859923EEBCE3D62FB005B7A3CFA269BD6B5C4AD955E1FD5CD1C40BB4DF43156856BC0D3291FF591019BC53E609B9A804F80F27406581ECF515AFFD8005AEFE804A09FF2F2776B001D432C4E87257F07206A45DFB308106394388AC6FEECFBCF5ACD6DAF
310
BD480688CF4ED0741F700718EB43727C0D96F7C5D138C01540FDC1948E051F728C047D6580065C822F003A1D68007DF02FC75C4062AD589C0BD439B03681BAFED7E7C467068C59723C2A662F8D5D00F20A908D039C5B5F15B92C068A9807903948574B623F70C8E7015C7F4039D701A0099802F0FE7F843EB9000000000000
310
000000000000000000000000000000000000000000000000000000000000000000000000000000982E7F006A53602D4DEEDBB00000000049454E44AE426082
  0
ENDSEC
  0
EOF
