  0
SECTION
  2
HEADER
  9
$ACADVER
  1
AC1027
  9
$ACADMAINTVER
 70
    55
  9
$DWGCODEPAGE
  3
ANSI_932
  9
$LASTSAVEDBY
  1
marketing
  9
$REQUIREDVERSIONS
160
                 0
  9
$INSBASE
 10
0.0
 20
0.0
 30
0.0
  9
$EXTMIN
 10
-0.045311687991898
 20
-0.0566396096728568
 30
-0.000000000000013
  9
$EXTMAX
 10
525.0400583407822
 20
742.5000034579566
 30
0.0000000000000023
  9
$LIMMIN
 10
0.0
 20
0.0
  9
$LIMMAX
 10
594.0
 20
420.0
  9
$ORTHOMODE
 70
     1
  9
$REGENMODE
 70
     1
  9
$FILLMODE
 70
     1
  9
$QTEXTMODE
 70
     0
  9
$MIRRTEXT
 70
     1
  9
$LTSCALE
 40
1.0
  9
$ATTMODE
 70
     1
  9
$TEXTSIZE
 40
3.0
  9
$TRACEWID
 40
1.0
  9
$TEXTSTYLE
  7
STANDARD
  9
$CLAYER
  8
10
  9
$CELTYPE
  6
ByLayer
  9
$CECOLOR
 62
   256
  9
$CELTSCALE
 40
1.0
  9
$DISPSILH
 70
     0
  9
$DIMSCALE
 40
1.0
  9
$DIMASZ
 40
2.0
  9
$DIMEXO
 40
1.0
  9
$DIMDLI
 40
0.5
  9
$DIMRND
 40
0.0
  9
$DIMDLE
 40
0.0
  9
$DIMEXE
 40
0.5
  9
$DIMTP
 40
0.0
  9
$DIMTM
 40
0.0
  9
$DIMTXT
 40
6.0
  9
$DIMCEN
 40
0.09
  9
$DIMTSZ
 40
0.0
  9
$DIMTOL
 70
     0
  9
$DIMLIM
 70
     0
  9
$DIMTIH
 70
     0
  9
$DIMTOH
 70
     0
  9
$DIMSE1
 70
     0
  9
$DIMSE2
 70
     0
  9
$DIMTAD
 70
     3
  9
$DIMZIN
 70
    12
  9
$DIMBLK
  1
OPEN
  9
$DIMASO
 70
     1
  9
$DIMSHO
 70
     1
  9
$DIMPOST
  1

  9
$DIMAPOST
  1

  9
$DIMALT
 70
     0
  9
$DIMALTD
 70
     2
  9
$DIMALTF
 40
25.4
  9
$DIMLFAC
 40
1.0
  9
$DIMTOFL
 70
     0
  9
$DIMTVP
 40
0.0
  9
$DIMTIX
 70
     0
  9
$DIMSOXD
 70
     0
  9
$DIMSAH
 70
     0
  9
$DIMBLK1
  1

  9
$DIMBLK2
  1

  9
$DIMSTYLE
  2
STANDARD
  9
$DIMCLRD
 70
     0
  9
$DIMCLRE
 70
     0
  9
$DIMCLRT
 70
     0
  9
$DIMTFAC
 40
1.0
  9
$DIMGAP
 40
2.0
  9
$DIMJUST
 70
     0
  9
$DIMSD1
 70
     0
  9
$DIMSD2
 70
     0
  9
$DIMTOLJ
 70
     1
  9
$DIMTZIN
 70
     0
  9
$DIMALTZ
 70
     0
  9
$DIMALTTZ
 70
     0
  9
$DIMUPT
 70
     0
  9
$DIMDEC
 70
     1
  9
$DIMTDEC
 70
     1
  9
$DIMALTU
 70
     2
  9
$DIMALTTD
 70
     2
  9
$DIMTXSTY
  7
STANDARD
  9
$DIMAUNIT
 70
     0
  9
$DIMADEC
 70
     0
  9
$DIMALTRND
 40
0.0
  9
$DIMAZIN
 70
     0
  9
$DIMDSEP
 70
    46
  9
$DIMATFIT
 70
     3
  9
$DIMFRAC
 70
     0
  9
$DIMLDRBLK
  1
OPEN
  9
$DIMLUNIT
 70
     2
  9
$DIMLWD
 70
    -2
  9
$DIMLWE
 70
    -2
  9
$DIMTMOVE
 70
     0
  9
$DIMFXL
 40
1.0
  9
$DIMFXLON
 70
     0
  9
$DIMJOGANG
 40
0.7853981633974483
  9
$DIMTFILL
 70
     1
  9
$DIMTFILLCLR
 70
     0
  9
$DIMARCSYM
 70
     0
  9
$DIMLTYPE
  6

  9
$DIMLTEX1
  6

  9
$DIMLTEX2
  6

  9
$DIMTXTDIRECTION
 70
     0
  9
$LUNITS
 70
     2
  9
$LUPREC
 70
     4
  9
$SKETCHINC
 40
1.0
  9
$FILLETRAD
 40
0.0
  9
$AUNITS
 70
     0
  9
$AUPREC
 70
     0
  9
$MENU
  1
.
  9
$ELEVATION
 40
0.0
  9
$PELEVATION
 40
0.0
  9
$THICKNESS
 40
0.0
  9
$LIMCHECK
 70
     0
  9
$CHAMFERA
 40
0.0
  9
$CHAMFERB
 40
0.0
  9
$CHAMFERC
 40
0.0
  9
$CHAMFERD
 40
0.0
  9
$SKPOLY
 70
     0
  9
$TDCREATE
 40
2458661.367548785
  9
$TDUCREATE
 40
2458660.992548785
  9
$TDUPDATE
 40
2459243.602639503
  9
$TDUUPDATE
 40
2459243.227639503
  9
$TDINDWG
 40
0.7899693866
  9
$TDUSRTIMER
 40
0.7899690625
  9
$USRTIMER
 70
     1
  9
$ANGBASE
 50
0.0
  9
$ANGDIR
 70
     0
  9
$PDMODE
 70
     0
  9
$PDSIZE
 40
-1.0
  9
$PLINEWID
 40
0.0
  9
$SPLFRAME
 70
     0
  9
$SPLINETYPE
 70
     6
  9
$SPLINESEGS
 70
     8
  9
$HANDSEED
  5
8934
  9
$SURFTAB1
 70
     6
  9
$SURFTAB2
 70
     6
  9
$SURFTYPE
 70
     6
  9
$SURFU
 70
     6
  9
$SURFV
 70
     6
  9
$UCSBASE
  2

  9
$UCSNAME
  2

  9
$UCSORG
 10
0.0
 20
0.0
 30
0.0
  9
$UCSXDIR
 10
1.0
 20
0.0
 30
0.0
  9
$UCSYDIR
 10
0.0
 20
1.0
 30
0.0
  9
$UCSORTHOREF
  2

  9
$UCSORTHOVIEW
 70
     0
  9
$UCSORGTOP
 10
0.0
 20
0.0
 30
0.0
  9
$UCSORGBOTTOM
 10
0.0
 20
0.0
 30
0.0
  9
$UCSORGLEFT
 10
0.0
 20
0.0
 30
0.0
  9
$UCSORGRIGHT
 10
0.0
 20
0.0
 30
0.0
  9
$UCSORGFRONT
 10
0.0
 20
0.0
 30
0.0
  9
$UCSORGBACK
 10
0.0
 20
0.0
 30
0.0
  9
$PUCSBASE
  2

  9
$PUCSNAME
  2

  9
$PUCSORG
 10
0.0
 20
0.0
 30
0.0
  9
$PUCSXDIR
 10
1.0
 20
0.0
 30
0.0
  9
$PUCSYDIR
 10
0.0
 20
1.0
 30
0.0
  9
$PUCSORTHOREF
  2

  9
$PUCSORTHOVIEW
 70
     0
  9
$PUCSORGTOP
 10
0.0
 20
0.0
 30
0.0
  9
$PUCSORGBOTTOM
 10
0.0
 20
0.0
 30
0.0
  9
$PUCSORGLEFT
 10
0.0
 20
0.0
 30
0.0
  9
$PUCSORGRIGHT
 10
0.0
 20
0.0
 30
0.0
  9
$PUCSORGFRONT
 10
0.0
 20
0.0
 30
0.0
  9
$PUCSORGBACK
 10
0.0
 20
0.0
 30
0.0
  9
$USERI1
 70
     0
  9
$USERI2
 70
     0
  9
$USERI3
 70
     0
  9
$USERI4
 70
     0
  9
$USERI5
 70
     0
  9
$USERR1
 40
0.0
  9
$USERR2
 40
0.0
  9
$USERR3
 40
0.0
  9
$USERR4
 40
0.0
  9
$USERR5
 40
0.0
  9
$WORLDVIEW
 70
     1
  9
$SHADEDGE
 70
     3
  9
$SHADEDIF
 70
    70
  9
$TILEMODE
 70
     1
  9
$MAXACTVP
 70
    64
  9
$PINSBASE
 10
0.0
 20
0.0
 30
0.0
  9
$PLIMCHECK
 70
     0
  9
$PEXTMIN
 10
1.000000000000000E+20
 20
1.000000000000000E+20
 30
1.000000000000000E+20
  9
$PEXTMAX
 10
-1.000000000000000E+20
 20
-1.000000000000000E+20
 30
-1.000000000000000E+20
  9
$PLIMMIN
 10
0.0
 20
0.0
  9
$PLIMMAX
 10
420.0
 20
297.0
  9
$UNITMODE
 70
     0
  9
$VISRETAIN
 70
     1
  9
$PLINEGEN
 70
     0
  9
$PSLTSCALE
 70
     1
  9
$TREEDEPTH
 70
  3020
  9
$CMLSTYLE
  2
Standard
  9
$CMLJUST
 70
     0
  9
$CMLSCALE
 40
20.0
  9
$PROXYGRAPHICS
 70
     1
  9
$MEASUREMENT
 70
     1
  9
$CELWEIGHT
370
    -1
  9
$ENDCAPS
280
     0
  9
$JOINSTYLE
280
     0
  9
$LWDISPLAY
290
     1
  9
$INSUNITS
 70
     4
  9
$HYPERLINKBASE
  1

  9
$STYLESHEET
  1
MONOCHROME.CTB
  9
$XEDIT
290
     1
  9
$CEPSNTYPE
380
     0
  9
$PSTYLEMODE
290
     1
  9
$FINGERPRINTGUID
  2
{4F539629-E7AA-4B74-AABF-D3D77F167EDD}
  9
$VERSIONGUID
  2
{462C1C39-51FA-40E0-882A-4567B67076EB}
  9
$EXTNAMES
290
     1
  9
$PSVPSCALE
 40
0.0
  9
$OLESTARTUP
290
     0
  9
$SORTENTS
280
   127
  9
$INDEXCTL
280
     0
  9
$HIDETEXT
280
     1
  9
$XCLIPFRAME
280
     0
  9
$HALOGAP
280
     0
  9
$OBSCOLOR
 70
   257
  9
$OBSLTYPE
280
     0
  9
$INTERSECTIONDISPLAY
280
     0
  9
$INTERSECTIONCOLOR
 70
   257
  9
$DIMASSOC
280
     2
  9
$PROJECTNAME
  1

  9
$CAMERADISPLAY
290
     0
  9
$LENSLENGTH
 40
50.0
  9
$CAMERAHEIGHT
 40
0.0
  9
$STEPSPERSEC
 40
2.0
  9
$STEPSIZE
 40
6.0
  9
$3DDWFPREC
 40
2.0
  9
$PSOLWIDTH
 40
5.0
  9
$PSOLHEIGHT
 40
80.0
  9
$LOFTANG1
 40
1.5707963268
  9
$LOFTANG2
 40
1.5707963268
  9
$LOFTMAG1
 40
0.0
  9
$LOFTMAG2
 40
0.0
  9
$LOFTPARAM
 70
     7
  9
$LOFTNORMALS
280
     1
  9
$LATITUDE
 40
37.795
  9
$LONGITUDE
 40
-122.394
  9
$NORTHDIRECTION
 40
0.0
  9
$TIMEZONE
 70
 -8000
  9
$LIGHTGLYPHDISPLAY
280
     1
  9
$TILEMODELIGHTSYNCH
280
     1
  9
$CMATERIAL
347
44
  9
$SOLIDHIST
280
     1
  9
$SHOWHIST
280
     1
  9
$DWFFRAME
280
     2
  9
$DGNFRAME
280
     2
  9
$REALWORLDSCALE
290
     1
  9
$INTERFERECOLOR
 62
   256
  9
$INTERFEREOBJVS
345
33
  9
$INTERFEREVPVS
346
59A0
  9
$CSHADOW
280
     0
  9
$SHADOWPLANELOCATION
 40
0.0
  0
ENDSEC
  0
SECTION
  2
CLASSES
  0
CLASS
  1
ACDBDICTIONARYWDFLT
  2
AcDbDictionaryWithDefault
  3
ObjectDBX Classes
 90
        0
 91
        1
280
     0
281
     0
  0
CLASS
  1
VISUALSTYLE
  2
AcDbVisualStyle
  3
ObjectDBX Classes
 90
     4095
 91
       26
280
     0
281
     0
  0
CLASS
  1
MATERIAL
  2
AcDbMaterial
  3
ObjectDBX Classes
 90
     1153
 91
        3
280
     0
281
     0
  0
CLASS
  1
SCALE
  2
AcDbScale
  3
ObjectDBX Classes
 90
     1153
 91
       33
280
     0
281
     0
  0
CLASS
  1
SUN
  2
AcDbSun
  3
SCENEOE
 90
     1153
 91
        1
280
     0
281
     0
  0
CLASS
  1
DICTIONARYVAR
  2
AcDbDictionaryVar
  3
ObjectDBX Classes
 90
        0
 91
        7
280
     0
281
     0
  0
CLASS
  1
TABLESTYLE
  2
AcDbTableStyle
  3
ObjectDBX Classes
 90
     4095
 91
        1
280
     0
281
     0
  0
CLASS
  1
MLEADERSTYLE
  2
AcDbMLeaderStyle
  3
ACDB_MLEADERSTYLE_CLASS
 90
     4095
 91
        1
280
     0
281
     0
  0
CLASS
  1
SORTENTSTABLE
  2
AcDbSortentsTable
  3
ObjectDBX Classes
 90
        0
 91
        4
280
     0
281
     0
  0
CLASS
  1
AEC_REFEDIT_STATUS_TRACKER
  2
AecDbRefEditStatusTracker
  3
AecArchBase70|Product Desc: Autodesk Architectural Desktop 2007 |Company: Autodesk,Inc. |WEB Address: www.autodesk.com
 90
      129
 91
        0
280
     0
281
     0
  0
CLASS
  1
NPOCOLLECTION
  2
AcDbImpNonPersistentObjectsCollection
  3
ObjectDBX Classes
 90
     1153
 91
        0
280
     0
281
     0
  0
CLASS
  1
ACDB_MTEXTOBJECTCONTEXTDATA_CLASS
  2
AcDbMTextObjectContextData
  3
ObjectDBX Classes
 90
     1153
 91
        0
280
     0
281
     0
  0
CLASS
  1
DIMASSOC
  2
AcDbDimAssoc
  3
"AcDbDimAssoc|Product Desc:     AcDim ARX App For Dimension|Company:          Autodesk, Inc.|WEB Address:      www.autodesk.com"
 90
        0
 91
        2
280
     0
281
     0
  0
CLASS
  1
CELLSTYLEMAP
  2
AcDbCellStyleMap
  3
ObjectDBX Classes
 90
     1152
 91
        2
280
     0
281
     0
  0
CLASS
  1
ACDBSECTIONVIEWSTYLE
  2
AcDbSectionViewStyle
  3
ObjectDBX Classes
 90
     1025
 91
        2
280
     0
281
     0
  0
CLASS
  1
ACDBDETAILVIEWSTYLE
  2
AcDbDetailViewStyle
  3
ObjectDBX Classes
 90
     1025
 91
        2
280
     0
281
     0
  0
ENDSEC
  0
SECTION
  2
TABLES
  0
TABLE
  2
VPORT
  5
8
330
0
100
AcDbSymbolTable
 70
     1
  0
VPORT
  5
29
330
8
100
AcDbSymbolTableRecord
100
AcDbViewportTableRecord
  2
*Active
 70
     0
 10
0.0
 20
0.0
 11
1.0
 21
1.0
 12
262.4973733263951
 22
371.2216819241419
 13
0.0
 23
0.0
 14
10.0
 24
10.0
 15
10.0
 25
10.0
 16
0.0
 26
0.0
 36
1.0
 17
0.0
 27
0.0
 37
0.0
 40
749.307158004608
 41
2.880121396054628
 42
50.0
 43
0.0
 44
0.0
 50
0.0
 51
0.0
 71
     0
 72
  2000
 73
     1
 74
     3
 75
     0
 76
     0
 77
     0
 78
     0
281
     0
 65
     1
110
0.0
120
0.0
130
0.0
111
1.0
121
0.0
131
0.0
112
0.0
122
1.0
132
0.0
 79
     0
146
0.0
348
2F
 60
     3
 61
     5
292
     1
282
     1
141
0.0
142
0.0
 63
   250
361
69
1001
ACAD_NAV_VCDISPLAY
1070
     3
  0
ENDTAB
  0
TABLE
  2
LTYPE
  5
5
330
0
100
AcDbSymbolTable
 70
     6
  0
LTYPE
  5
14
330
5
100
AcDbSymbolTableRecord
100
AcDbLinetypeTableRecord
  2
ByBlock
 70
     0
  3

 72
    65
 73
     0
 40
0.0
  0
LTYPE
  5
15
330
5
100
AcDbSymbolTableRecord
100
AcDbLinetypeTableRecord
  2
ByLayer
 70
     0
  3

 72
    65
 73
     0
 40
0.0
  0
LTYPE
  5
16
330
5
100
AcDbSymbolTableRecord
100
AcDbLinetypeTableRecord
  2
Continuous
 70
     0
  3
Solid line
 72
    65
 73
     0
 40
0.0
  0
LTYPE
  5
6A
330
5
100
AcDbSymbolTableRecord
100
AcDbLinetypeTableRecord
  2
SLD-実線
 70
     0
  3
SolidWorks Line Style
 72
    65
 73
     0
 40
0.0
  0
LTYPE
  5
6496
330
5
100
AcDbSymbolTableRecord
100
AcDbLinetypeTableRecord
  2
CONTINOUS
 70
     0
  3
Solid line
 72
    65
 73
     0
 40
0.0
  0
LTYPE
  5
6497
330
5
100
AcDbSymbolTableRecord
100
AcDbLinetypeTableRecord
  2
DASHDOT
 70
     0
  3
__ . __ . __ . __ . __ . __ . __ . __ . __ . __
 72
    65
 73
     4
 40
1.0
 49
0.5
 74
     0
 49
-0.25
 74
     0
 49
0.0
 74
     0
 49
-0.25
 74
     0
  0
LTYPE
  5
6498
330
5
100
AcDbSymbolTableRecord
100
AcDbLinetypeTableRecord
  2
DIVIDE
 70
     0
  3
Divide ____ . . ____ . . ____ . . ____ . . ____
 72
    65
 73
     6
 40
1.25
 49
0.5
 74
     0
 49
-0.25
 74
     0
 49
0.0
 74
     0
 49
-0.25
 74
     0
 49
0.0
 74
     0
 49
-0.25
 74
     0
  0
LTYPE
  5
78B1
330
5
100
AcDbSymbolTableRecord
100
AcDbLinetypeTableRecord
  2
CENTER
 70
     0
  3
____ _ ____ _ ____ _ ____ _ ____ _ ____ _ ____
 72
    65
 73
     4
 40
0.6
 49
0.375
 74
     0
 49
-0.075
 74
     0
 49
0.075
 74
     0
 49
-0.075
 74
     0
  0
ENDTAB
  0
TABLE
  2
LAYER
  5
2
102
{ACAD_XDICTIONARY
360
5F3B
102
}
330
0
100
AcDbSymbolTable
 70
    13
  0
LAYER
  5
10
102
{ACAD_XDICTIONARY
360
59A9
102
}
330
2
100
AcDbSymbolTableRecord
100
AcDbLayerTableRecord
  2
0
 70
     0
 62
     7
  6
Continuous
370
    -3
390
F
347
46
348
0
  0
LAYER
  5
71
102
{ACAD_XDICTIONARY
360
59AB
102
}
330
2
100
AcDbSymbolTableRecord
100
AcDbLayerTableRecord
  2
SLD-0
 70
     0
 62
     9
  6
SLD-実線
370
    -3
390
F
347
46
348
0
  0
LAYER
  5
59BD
330
2
100
AcDbSymbolTableRecord
100
AcDbLayerTableRecord
  2
Defpoints
 70
     0
 62
     7
  6
Continuous
290
     0
370
    -3
390
F
347
46
348
0
  0
LAYER
  5
6499
102
{ACAD_XDICTIONARY
360
649A
102
}
330
2
100
AcDbSymbolTableRecord
100
AcDbLayerTableRecord
  2
16
 70
     0
 62
     6
  6
DASHDOT
370
    -3
390
F
347
46
348
0
  0
LAYER
  5
649B
102
{ACAD_XDICTIONARY
360
649C
102
}
330
2
100
AcDbSymbolTableRecord
100
AcDbLayerTableRecord
  2
30
 70
     0
 62
     9
  6
Continuous
370
    -3
390
F
347
46
348
0
  0
LAYER
  5
649D
102
{ACAD_XDICTIONARY
360
649E
102
}
330
2
100
AcDbSymbolTableRecord
100
AcDbLayerTableRecord
  2
18
 70
     0
 62
     5
  6
DIVIDE
370
    -3
390
F
347
46
348
0
  0
LAYER
  5
649F
102
{ACAD_XDICTIONARY
360
64A0
102
}
330
2
100
AcDbSymbolTableRecord
100
AcDbLayerTableRecord
  2
10
 70
     0
 62
     4
  6
Continuous
370
    -3
390
F
347
46
348
0
  0
LAYER
  5
64A1
102
{ACAD_XDICTIONARY
360
64A2
102
}
330
2
100
AcDbSymbolTableRecord
100
AcDbLayerTableRecord
  2
17
 70
     0
 62
     2
  6
DASHDOT
370
    -3
390
F
347
46
348
0
  0
LAYER
  5
64A3
330
2
100
AcDbSymbolTableRecord
100
AcDbLayerTableRecord
  2
22
 70
     0
 62
     3
  6
Continuous
370
    -3
390
F
347
46
348
0
  0
LAYER
  5
7307
102
{ACAD_XDICTIONARY
360
7308
102
}
330
2
100
AcDbSymbolTableRecord
100
AcDbLayerTableRecord
  2
240
 70
     0
 62
     7
  6
Continuous
370
    -3
390
F
347
46
348
0
  0
LAYER
  5
835F
102
{ACAD_XDICTIONARY
360
8360
102
}
330
2
100
AcDbSymbolTableRecord
100
AcDbLayerTableRecord
  2
12
 70
     0
 62
     3
  6
CONTINOUS
370
    -3
390
F
347
46
348
0
  0
LAYER
  5
8828
330
2
100
AcDbSymbolTableRecord
100
AcDbLayerTableRecord
  2
19
 70
     0
 62
     7
  6
Continuous
370
    -3
390
F
347
46
348
0
1001
AcAecLayerStandard
1000

1000

1001
AcCmTransparency
1071
        0
  0
LAYER
  5
882B
330
2
100
AcDbSymbolTableRecord
100
AcDbLayerTableRecord
  2
24
 70
     0
 62
     7
  6
Continuous
370
    -3
390
F
347
46
348
0
1001
AcAecLayerStandard
1000

1000

1001
AcCmTransparency
1071
        0
  0
ENDTAB
  0
TABLE
  2
STYLE
  5
3
330
0
100
AcDbSymbolTable
 70
     4
  0
STYLE
  5
11
330
3
100
AcDbSymbolTableRecord
100
AcDbTextStyleTableRecord
  2
STANDARD
 70
     0
 40
0.0
 41
1.0
 50
0.0
 71
     0
 42
3.0
  3
MS UI Gothic.ttf
  4

1001
ACAD
1000
MS UI GOTHIC
1071
    32818
  0
STYLE
  5
203
330
3
100
AcDbSymbolTableRecord
100
AcDbTextStyleTableRecord
  2
SLDTEXTSTYLE0
 70
     0
 40
0.0
 41
1.0
 50
0.0
 71
     0
 42
3.0
  3
MS UI Gothic.ttf
  4

1001
ACAD
1000
MS UI Gothic
1071
      306
  0
STYLE
  5
64A5
330
3
100
AcDbSymbolTableRecord
100
AcDbTextStyleTableRecord
  2
blockfont
 70
     0
 40
0.0
 41
1.0
 50
0.0
 71
     0
 42
0.2
  3
simplex.shx
  4
bigfont
  0
STYLE
  5
8856
330
3
100
AcDbSymbolTableRecord
100
AcDbTextStyleTableRecord
  2
STANDARD1
 70
     0
 40
0.0
 41
1.0
 50
0.0
 71
     0
 42
5.0
  3
MONOTXT
  4
BIGFONT
  0
ENDTAB
  0
TABLE
  2
VIEW
  5
6
330
0
100
AcDbSymbolTable
 70
     0
  0
ENDTAB
  0
TABLE
  2
UCS
  5
7
330
0
100
AcDbSymbolTable
 70
     0
  0
ENDTAB
  0
TABLE
  2
APPID
  5
9
330
0
100
AcDbSymbolTable
 70
    10
  0
APPID
  5
12
330
9
100
AcDbSymbolTableRecord
100
AcDbRegAppTableRecord
  2
ACAD
 70
     0
  0
APPID
  5
5C7A
330
9
100
AcDbSymbolTableRecord
100
AcDbRegAppTableRecord
  2
ACAD_DSTYLE_DIMJAG
 70
     0
  0
APPID
  5
5C7B
330
9
100
AcDbSymbolTableRecord
100
AcDbRegAppTableRecord
  2
ACAD_DSTYLE_DIMTALN
 70
     0
  0
APPID
  5
64A8
330
9
100
AcDbSymbolTableRecord
100
AcDbRegAppTableRecord
  2
ACAD_NAV_VCDISPLAY
 70
     0
  0
APPID
  5
6C84
330
9
100
AcDbSymbolTableRecord
100
AcDbRegAppTableRecord
  2
ACAD_DSTYLE_DIMRADIAL_EXTENSION
 70
     0
  0
APPID
  5
6C85
330
9
100
AcDbSymbolTableRecord
100
AcDbRegAppTableRecord
  2
AcadAnnotative
 70
     0
  0
APPID
  5
725A
330
9
100
AcDbSymbolTableRecord
100
AcDbRegAppTableRecord
  2
ACAD_EXEMPT_FROM_CAD_STANDARDS
 70
     0
  0
APPID
  5
730B
330
9
100
AcDbSymbolTableRecord
100
AcDbRegAppTableRecord
  2
ACAD_PSEXT
 70
     0
  0
APPID
  5
8829
330
9
100
AcDbSymbolTableRecord
100
AcDbRegAppTableRecord
  2
AcAecLayerStandard
 70
     0
  0
APPID
  5
882A
330
9
100
AcDbSymbolTableRecord
100
AcDbRegAppTableRecord
  2
AcCmTransparency
 70
     0
  0
ENDTAB
  0
TABLE
  2
DIMSTYLE
  5
A
330
0
100
AcDbSymbolTable
 70
     2
100
AcDbDimStyleTable
 71
     2
340
64A6
340
64A7
  0
DIMSTYLE
105
64A6
102
{ACAD_REACTORS
330
6717
330
6646
330
6648
330
6665
330
6676
330
667B
330
7276
330
7351
330
7353
330
7433
330
75C1
330
7672
330
76C6
330
772D
330
7C7F
330
7C80
330
7C81
330
7C82
330
7C83
330
7D8A
330
7EAC
330
7EAD
330
7EAE
330
7EAF
330
7EB0
330
7EB1
330
7EB2
330
7EB3
330
7EC4
330
7ED1
330
7ED4
330
7C48
330
7C74
330
7C47
330
83B9
330
7414
330
7A84
102
}
330
A
100
AcDbSymbolTableRecord
100
AcDbDimStyleTableRecord
  2
STANDARD
 70
     0
 41
2.0
 42
1.0
 43
0.5
 44
0.5
 69
     1
 73
     0
 74
     0
 77
     3
 78
    12
140
6.0
147
2.0
271
     1
272
     1
340
11
341
629D
342
629D
1001
ACAD_DSTYLE_DIMJAG
1070
   388
1040
1.5
1001
ACAD_DSTYLE_DIMTALN
1070
   392
1070
     0
  0
DIMSTYLE
105
64A7
102
{ACAD_REACTORS
330
7354
330
7B82
330
6663
330
7ADE
102
}
330
A
100
AcDbSymbolTableRecord
100
AcDbDimStyleTableRecord
  2
STANDARD1
 70
     0
 41
2.0
 42
3.0
 43
0.5
 44
0.5
 77
     3
 78
    12
140
6.0
147
2.0
172
     1
271
     8
272
     8
289
     2
340
11
341
629D
342
629D
1001
ACAD_DSTYLE_DIMJAG
1070
   388
1040
1.5
1001
ACAD_DSTYLE_DIMTALN
1070
   392
1070
     0
  0
ENDTAB
  0
TABLE
  2
BLOCK_RECORD
  5
1
330
0
100
AcDbSymbolTable
 70
    45
  0
BLOCK_RECORD
  5
1F
102
{ACAD_XDICTIONARY
360
72CC
102
}
330
1
100
AcDbSymbolTableRecord
100
AcDbBlockTableRecord
  2
*Model_Space
340
22
 70
     0
280
     1
281
     0
  0
BLOCK_RECORD
  5
1B
330
1
100
AcDbSymbolTableRecord
100
AcDbBlockTableRecord
  2
*Paper_Space
340
1E
 70
     0
280
     1
281
     0
  0
BLOCK_RECORD
  5
23
330
1
100
AcDbSymbolTableRecord
100
AcDbBlockTableRecord
  2
*Paper_Space0
340
26
 70
     0
280
     1
281
     0
  0
BLOCK_RECORD
  5
629D
330
1
100
AcDbSymbolTableRecord
100
AcDbBlockTableRecord
  2
_OPEN
340
0
102
{BLKREFS
331
8668
331
8670
331
8671
331
8679
331
867A
331
8682
331
8683
331
8643
331
8644
331
864C
331
864D
331
8655
331
8656
331
865E
331
865F
331
8667
331
7A7B
331
7A7C
331
859B
331
85A2
331
85B2
331
85B3
331
85CD
331
85CE
331
8770
331
8778
331
8779
331
8788
331
8789
331
879C
331
879D
331
86D0
331
86D1
331
86D9
331
86DA
331
86E2
331
86E3
331
86EB
331
86EC
331
86FD
331
86FE
331
85D6
331
85D7
331
860C
331
860D
331
8630
331
8631
331
863A
331
863B
331
8730
331
8731
331
87A5
331
87A6
331
87AE
331
87AF
331
868F
331
8690
331
86A1
331
86A2
331
86AA
331
86AB
331
86B3
331
86B4
331
8742
331
8743
331
874B
331
874C
331
8766
331
8767
331
876F
331
87EF
331
87F0
331
87F8
331
87F9
331
86BD
331
86BE
102
}
 70
     0
280
     1
281
     0
  0
BLOCK_RECORD
  5
678C
330
1
100
AcDbSymbolTableRecord
100
AcDbBlockTableRecord
  2
*D2
340
0
 70
     0
280
     1
281
     0
  0
BLOCK_RECORD
  5
6844
330
1
100
AcDbSymbolTableRecord
100
AcDbBlockTableRecord
  2
*D3
340
0
 70
     0
280
     1
281
     0
  0
BLOCK_RECORD
  5
685C
330
1
100
AcDbSymbolTableRecord
100
AcDbBlockTableRecord
  2
*D4
340
0
 70
     0
280
     1
281
     0
  0
BLOCK_RECORD
  5
6871
330
1
100
AcDbSymbolTableRecord
100
AcDbBlockTableRecord
  2
*D5
340
0
 70
     0
280
     1
281
     0
  0
BLOCK_RECORD
  5
687D
330
1
100
AcDbSymbolTableRecord
100
AcDbBlockTableRecord
  2
*D6
340
0
 70
     0
280
     1
281
     0
  0
BLOCK_RECORD
  5
6889
330
1
100
AcDbSymbolTableRecord
100
AcDbBlockTableRecord
  2
*D7
340
0
 70
     0
280
     1
281
     0
  0
BLOCK_RECORD
  5
7277
330
1
100
AcDbSymbolTableRecord
100
AcDbBlockTableRecord
  2
*D8
340
0
 70
     0
280
     1
281
     0
  0
BLOCK_RECORD
  5
7364
330
1
100
AcDbSymbolTableRecord
100
AcDbBlockTableRecord
  2
*D9
340
0
 70
     0
280
     1
281
     0
  0
BLOCK_RECORD
  5
737C
330
1
100
AcDbSymbolTableRecord
100
AcDbBlockTableRecord
  2
*D10
340
0
 70
     0
280
     1
281
     0
  0
BLOCK_RECORD
  5
7388
330
1
100
AcDbSymbolTableRecord
100
AcDbBlockTableRecord
  2
*D11
340
0
 70
     0
280
     1
281
     0
  0
BLOCK_RECORD
  5
7415
330
1
100
AcDbSymbolTableRecord
100
AcDbBlockTableRecord
  2
*D12
340
0
 70
     0
280
     1
281
     0
  0
BLOCK_RECORD
  5
7434
330
1
100
AcDbSymbolTableRecord
100
AcDbBlockTableRecord
  2
*D13
340
0
 70
     0
280
     1
281
     0
  0
BLOCK_RECORD
  5
75C2
330
1
100
AcDbSymbolTableRecord
100
AcDbBlockTableRecord
  2
*D14
340
0
 70
     0
280
     1
281
     0
  0
BLOCK_RECORD
  5
7675
330
1
100
AcDbSymbolTableRecord
100
AcDbBlockTableRecord
  2
*D15
340
0
 70
     0
280
     1
281
     0
  0
BLOCK_RECORD
  5
76C7
330
1
100
AcDbSymbolTableRecord
100
AcDbBlockTableRecord
  2
*D16
340
0
 70
     0
280
     1
281
     0
  0
BLOCK_RECORD
  5
772E
330
1
100
AcDbSymbolTableRecord
100
AcDbBlockTableRecord
  2
*D17
340
0
 70
     0
280
     1
281
     0
  0
BLOCK_RECORD
  5
7A76
330
1
100
AcDbSymbolTableRecord
100
AcDbBlockTableRecord
  2
*D18
340
0
 70
     0
280
     1
281
     0
  0
BLOCK_RECORD
  5
7A82
102
{ACAD_XDICTIONARY
360
7A85
102
}
330
1
100
AcDbSymbolTableRecord
100
AcDbBlockTableRecord
  2
A$C7E9C6D50
340
0
 70
     4
280
     1
281
     0
  0
BLOCK_RECORD
  5
7B83
330
1
100
AcDbSymbolTableRecord
100
AcDbBlockTableRecord
  2
*D20
340
0
 70
     0
280
     1
281
     0
  0
BLOCK_RECORD
  5
7C87
330
1
100
AcDbSymbolTableRecord
100
AcDbBlockTableRecord
  2
*D21
340
0
 70
     0
280
     1
281
     0
  0
BLOCK_RECORD
  5
7C93
330
1
100
AcDbSymbolTableRecord
100
AcDbBlockTableRecord
  2
*D22
340
0
 70
     0
280
     1
281
     0
  0
BLOCK_RECORD
  5
7CA1
330
1
100
AcDbSymbolTableRecord
100
AcDbBlockTableRecord
  2
*D23
340
0
 70
     0
280
     1
281
     0
  0
BLOCK_RECORD
  5
7CAD
330
1
100
AcDbSymbolTableRecord
100
AcDbBlockTableRecord
  2
*D24
340
0
 70
     0
280
     1
281
     0
  0
BLOCK_RECORD
  5
7CB9
330
1
100
AcDbSymbolTableRecord
100
AcDbBlockTableRecord
  2
*D25
340
0
 70
     0
280
     1
281
     0
  0
BLOCK_RECORD
  5
7CC6
330
1
100
AcDbSymbolTableRecord
100
AcDbBlockTableRecord
  2
*D26
340
0
 70
     0
280
     1
281
     0
  0
BLOCK_RECORD
  5
7CD2
330
1
100
AcDbSymbolTableRecord
100
AcDbBlockTableRecord
  2
*D27
340
0
 70
     0
280
     1
281
     0
  0
BLOCK_RECORD
  5
7CDE
330
1
100
AcDbSymbolTableRecord
100
AcDbBlockTableRecord
  2
*D28
340
0
 70
     0
280
     1
281
     0
  0
BLOCK_RECORD
  5
7D8B
330
1
100
AcDbSymbolTableRecord
100
AcDbBlockTableRecord
  2
*D29
340
0
 70
     0
280
     1
281
     0
  0
BLOCK_RECORD
  5
7ED5
330
1
100
AcDbSymbolTableRecord
100
AcDbBlockTableRecord
  2
*D30
340
0
 70
     0
280
     1
281
     0
  0
BLOCK_RECORD
  5
7EE1
330
1
100
AcDbSymbolTableRecord
100
AcDbBlockTableRecord
  2
*D31
340
0
 70
     0
280
     1
281
     0
  0
BLOCK_RECORD
  5
7EED
330
1
100
AcDbSymbolTableRecord
100
AcDbBlockTableRecord
  2
*D32
340
0
 70
     0
280
     1
281
     0
  0
BLOCK_RECORD
  5
7EF9
330
1
100
AcDbSymbolTableRecord
100
AcDbBlockTableRecord
  2
*D33
340
0
 70
     0
280
     1
281
     0
  0
BLOCK_RECORD
  5
7F05
330
1
100
AcDbSymbolTableRecord
100
AcDbBlockTableRecord
  2
*D34
340
0
 70
     0
280
     1
281
     0
  0
BLOCK_RECORD
  5
7F12
330
1
100
AcDbSymbolTableRecord
100
AcDbBlockTableRecord
  2
*D35
340
0
 70
     0
280
     1
281
     0
  0
BLOCK_RECORD
  5
7F1F
330
1
100
AcDbSymbolTableRecord
100
AcDbBlockTableRecord
  2
*D36
340
0
 70
     0
280
     1
281
     0
  0
BLOCK_RECORD
  5
7F2B
330
1
100
AcDbSymbolTableRecord
100
AcDbBlockTableRecord
  2
*D37
340
0
 70
     0
280
     1
281
     0
  0
BLOCK_RECORD
  5
7F37
330
1
100
AcDbSymbolTableRecord
100
AcDbBlockTableRecord
  2
*D38
340
0
 70
     0
280
     1
281
     0
  0
BLOCK_RECORD
  5
7F43
330
1
100
AcDbSymbolTableRecord
100
AcDbBlockTableRecord
  2
*D39
340
0
 70
     0
280
     1
281
     0
  0
BLOCK_RECORD
  5
7FA2
330
1
100
AcDbSymbolTableRecord
100
AcDbBlockTableRecord
  2
*D40
340
0
 70
     0
280
     1
281
     0
  0
BLOCK_RECORD
  5
806A
102
{ACAD_XDICTIONARY
360
806C
102
}
330
1
100
AcDbSymbolTableRecord
100
AcDbBlockTableRecord
  2
A$C6CB5752B
340
0
 70
     4
280
     1
281
     0
  0
BLOCK_RECORD
  5
8354
330
1
100
AcDbSymbolTableRecord
100
AcDbBlockTableRecord
  2
SW_CENTERMARKSYMBOL_18
340
0
102
{BLKREFS
331
836F
331
8370
102
}
 70
     0
280
     1
281
     0
  0
BLOCK_RECORD
  5
83BA
330
1
100
AcDbSymbolTableRecord
100
AcDbBlockTableRecord
  2
*D43
340
0
 70
     0
280
     1
281
     0
  0
ENDTAB
  0
ENDSEC
  0
SECTION
  2
BLOCKS
  0
BLOCK
  5
20
330
1F
100
AcDbEntity
  8
0
100
AcDbBlockBegin
  2
*Model_Space
 70
     0
 10
0.0
 20
0.0
 30
0.0
  3
*Model_Space
  1
*Model_Space
  0
ENDBLK
  5
21
330
1F
100
AcDbEntity
  8
0
100
AcDbBlockEnd
  0
BLOCK
  5
1C
330
1B
100
AcDbEntity
 67
     1
  8
0
100
AcDbBlockBegin
  2
*Paper_Space
 70
     0
 10
0.0
 20
0.0
 30
0.0
  3
*Paper_Space
  1
*Paper_Space
  0
ENDBLK
  5
1D
330
1B
100
AcDbEntity
 67
     1
  8
0
100
AcDbBlockEnd
  0
BLOCK
  5
24
330
23
100
AcDbEntity
 67
     1
  8
0
100
AcDbBlockBegin
  2
*Paper_Space0
 70
     0
 10
0.0
 20
0.0
 30
0.0
  3
*Paper_Space0
  1
*Paper_Space0
  0
ENDBLK
  5
25
330
23
100
AcDbEntity
 67
     1
  8
0
100
AcDbBlockEnd
  0
BLOCK
  5
629E
330
629D
100
AcDbEntity
  8
0
100
AcDbBlockBegin
  2
_OPEN
 70
     0
 10
0.0
 20
0.0
 30
0.0
  3
_OPEN
  1

  0
LINE
  5
629F
330
629D
100
AcDbEntity
  8
30
  6
Continuous
 62
     0
100
AcDbLine
 10
-1.0
 20
0.166667
 30
0.0
 11
0.0
 21
0.0
 31
0.0
  0
LINE
  5
62A0
330
629D
100
AcDbEntity
  8
30
  6
Continuous
 62
     0
100
AcDbLine
 10
-1.0
 20
-0.166667
 30
0.0
 11
0.0
 21
0.0
 31
0.0
  0
LINE
  5
62A1
330
629D
100
AcDbEntity
  8
30
  6
Continuous
 62
     0
100
AcDbLine
 10
0.0
 20
0.0
 30
0.0
 11
-1.0
 21
0.0
 31
0.0
  0
ENDBLK
  5
62A2
330
629D
100
AcDbEntity
  8
0
100
AcDbBlockEnd
  0
BLOCK
  5
678D
330
678C
100
AcDbEntity
  8
0
100
AcDbBlockBegin
  2
*D2
 70
     1
 10
0.0
 20
0.0
 30
0.0
  3
*D2
  1

  0
LINE
  5
85AF
330
678C
100
AcDbEntity
  8
30
 62
     0
440
 16777216
370
    -2
100
AcDbLine
 10
50.64598867246264
 20
209.0995473676344
 30
0.0
 11
18.59601197195256
 21
209.0995473676344
 31
0.0
  0
LINE
  5
85B0
330
678C
100
AcDbEntity
  8
30
 62
     0
440
 16777216
370
    -2
100
AcDbLine
 10
63.0345469391824
 20
95.09954537476028
 30
0.0
 11
18.59601197195253
 21
95.0995453747603
 31
0.0
  0
LINE
  5
85B1
330
678C
100
AcDbEntity
  8
30
 62
     0
440
 16777216
370
    -2
100
AcDbLine
 10
19.09601197195256
 20
207.0995473676344
 30
0.0
 11
19.09601197195253
 21
97.09954537476029
 31
0.0
  0
INSERT
  5
85B2
330
678C
100
AcDbEntity
  8
30
 62
     0
440
 16777216
370
    -2
100
AcDbBlockReference
  2
_OPEN
 10
19.09601197195256
 20
209.0995473676344
 30
0.0
 41
2.0
 42
2.0
 43
2.0
 50
90.0
  0
INSERT
  5
85B3
330
678C
100
AcDbEntity
  8
30
 62
     0
440
 16777216
370
    -2
100
AcDbBlockReference
  2
_OPEN
 10
19.09601197195253
 20
95.0995453747603
 30
0.0
 41
2.0
 42
2.0
 43
2.0
 50
270.0
  0
MTEXT
  5
85B4
330
678C
100
AcDbEntity
  8
30
 62
     0
440
 16777216
100
AcDbMText
 10
14.09601197195252
 20
152.0995463711972
 30
0.0
 40
6.0
 41
0.0
 46
0.0
 71
     5
 72
     1
  1
\A1;114
 11
0.0000000000000001
 21
1.0
 31
0.0
 73
     1
 44
1.0
 90
        3
 63
     9
421
 13158600
 45
1.1
441
        0
  0
POINT
  5
85B5
330
678C
100
AcDbEntity
  8
Defpoints
 62
     0
440
 16777216
100
AcDbPoint
 10
51.64598867246263
 20
209.0995473676344
 30
0.0
  0
POINT
  5
85B6
330
678C
100
AcDbEntity
  8
Defpoints
 62
     0
440
 16777216
100
AcDbPoint
 10
64.03454693918241
 20
95.09954537476028
 30
0.0
  0
POINT
  5
85B7
330
678C
100
AcDbEntity
  8
Defpoints
 62
     0
440
 16777216
100
AcDbPoint
 10
19.09601197195253
 20
95.0995453747603
 30
0.0
  0
ENDBLK
  5
678E
330
678C
100
AcDbEntity
  8
0
100
AcDbBlockEnd
  0
BLOCK
  5
6845
330
6844
100
AcDbEntity
  8
0
100
AcDbBlockBegin
  2
*D3
 70
     1
 10
0.0
 20
0.0
 30
0.0
  3
*D3
  1

  0
LINE
  5
872D
330
6844
100
AcDbEntity
  8
30
 62
     0
440
 16777216
370
    -2
100
AcDbLine
 10
402.7238457995625
 20
150.8495473676344
 30
0.0
 11
402.7238457995625
 21
56.01574730462811
 31
0.0
  0
LINE
  5
872E
330
6844
100
AcDbEntity
  8
30
 62
     0
440
 16777216
370
    -2
100
AcDbLine
 10
426.7238457995622
 20
150.8495473676344
 30
0.0
 11
426.7238457995622
 21
56.01574730462811
 31
0.0
  0
LINE
  5
872F
330
6844
100
AcDbEntity
  8
30
 62
     0
440
 16777216
370
    -2
100
AcDbLine
 10
404.7238457995622
 20
56.51574730462812
 30
0.0
 11
424.7238457995622
 21
56.51574730462812
 31
0.0
  0
INSERT
  5
8730
330
6844
100
AcDbEntity
  8
30
 62
     0
440
 16777216
370
    -2
100
AcDbBlockReference
  2
_OPEN
 10
402.7238457995625
 20
56.51574730462812
 30
0.0
 41
2.0
 42
2.0
 43
2.0
 50
180.0
  0
INSERT
  5
8731
330
6844
100
AcDbEntity
  8
30
 62
     0
440
 16777216
370
    -2
100
AcDbBlockReference
  2
_OPEN
 10
426.7238457995622
 20
56.51574730462812
 30
0.0
 41
2.0
 42
2.0
 43
2.0
  0
MTEXT
  5
8732
330
6844
100
AcDbEntity
  8
30
 62
     0
440
 16777216
100
AcDbMText
 10
417.0212324252981
 20
64.51574730462812
 30
0.0
 40
6.0
 41
0.0
 46
0.0
 71
     2
 72
     1
  1
\A1;24
 73
     1
 44
1.0
 90
        3
 63
     9
421
 13158600
 45
1.1
441
        0
  0
POINT
  5
8733
330
6844
100
AcDbEntity
  8
Defpoints
 62
     0
440
 16777216
100
AcDbPoint
 10
402.7238457995625
 20
151.8495473676344
 30
0.0
  0
POINT
  5
8734
330
6844
100
AcDbEntity
  8
Defpoints
 62
     0
440
 16777216
100
AcDbPoint
 10
426.7238457995622
 20
151.8495473676344
 30
0.0
  0
POINT
  5
8735
330
6844
100
AcDbEntity
  8
Defpoints
 62
     0
440
 16777216
100
AcDbPoint
 10
426.7238457995622
 20
56.51574730462812
 30
0.0
  0
ENDBLK
  5
6846
330
6844
100
AcDbEntity
  8
0
100
AcDbBlockEnd
  0
BLOCK
  5
685D
330
685C
100
AcDbEntity
  8
0
100
AcDbBlockBegin
  2
*D4
 70
     1
 10
0.0
 20
0.0
 30
0.0
  3
*D4
  1

  0
LINE
  5
87AB
330
685C
100
AcDbEntity
  8
30
 62
     0
440
 16777216
370
    -2
100
AcDbLine
 10
369.7238460511873
 20
218.0995470041759
 30
0.0
 11
369.7238460511873
 21
237.5327642726122
 31
0.0
  0
LINE
  5
87AC
330
685C
100
AcDbEntity
  8
30
 62
     0
440
 16777216
370
    -2
100
AcDbLine
 10
489.7238455479373
 20
218.0995470041759
 30
0.0
 11
489.7238455479373
 21
237.5327642726122
 31
0.0
  0
LINE
  5
87AD
330
685C
100
AcDbEntity
  8
30
 62
     0
440
 16777216
370
    -2
100
AcDbLine
 10
371.7238460511874
 20
237.0327642726122
 30
0.0
 11
487.7238455479373
 21
237.0327642726122
 31
0.0
  0
INSERT
  5
87AE
330
685C
100
AcDbEntity
  8
30
 62
     0
440
 16777216
370
    -2
100
AcDbBlockReference
  2
_OPEN
 10
369.7238460511873
 20
237.0327642726122
 30
0.0
 41
2.0
 42
2.0
 43
2.0
 50
180.0
  0
INSERT
  5
87AF
330
685C
100
AcDbEntity
  8
30
 62
     0
440
 16777216
370
    -2
100
AcDbBlockReference
  2
_OPEN
 10
489.7238455479373
 20
237.0327642726122
 30
0.0
 41
2.0
 42
2.0
 43
2.0
  0
MTEXT
  5
87B0
330
685C
100
AcDbEntity
  8
30
 62
     0
440
 16777216
100
AcDbMText
 10
429.7238457995622
 20
245.0327642726122
 30
0.0
 40
6.0
 41
0.0
 46
0.0
 71
     2
 72
     1
  1
\A1;120
 73
     1
 44
1.0
 90
        3
 63
     9
421
 13158600
 45
1.1
441
        0
  0
POINT
  5
87B1
330
685C
100
AcDbEntity
  8
Defpoints
 62
     0
440
 16777216
100
AcDbPoint
 10
369.7238460511873
 20
217.0995470041759
 30
0.0
  0
POINT
  5
87B2
330
685C
100
AcDbEntity
  8
Defpoints
 62
     0
440
 16777216
100
AcDbPoint
 10
489.7238455479373
 20
217.0995470041759
 30
0.0
  0
POINT
  5
87B3
330
685C
100
AcDbEntity
  8
Defpoints
 62
     0
440
 16777216
100
AcDbPoint
 10
489.7238455479373
 20
237.0327642726122
 30
0.0
  0
ENDBLK
  5
685E
330
685C
100
AcDbEntity
  8
0
100
AcDbBlockEnd
  0
BLOCK
  5
6872
330
6871
100
AcDbEntity
  8
0
100
AcDbBlockBegin
  2
*D5
 70
     1
 10
0.0
 20
0.0
 30
0.0
  3
*D5
  1

  0
LINE
  5
85CA
330
6871
100
AcDbEntity
  8
30
 62
     0
440
 16777216
370
    -2
100
AcDbLine
 10
75.12469493735522
 20
207.6463080715022
 30
0.0
 11
35.97565287853039
 21
207.6463080715023
 31
0.0
  0
LINE
  5
85CB
330
6871
100
AcDbEntity
  8
30
 62
     0
440
 16777216
370
    -2
100
AcDbLine
 10
105.112133155662
 20
96.60278666376644
 30
0.0
 11
35.97565287853036
 21
96.60278666376648
 31
0.0
  0
LINE
  5
85CC
330
6871
100
AcDbEntity
  8
30
 62
     0
440
 16777216
370
    -2
100
AcDbLine
 10
36.47565287853038
 20
205.6463080715023
 30
0.0
 11
36.47565287853036
 21
98.60278666376643
 31
0.0
  0
INSERT
  5
85CD
330
6871
100
AcDbEntity
  8
30
 62
     0
440
 16777216
370
    -2
100
AcDbBlockReference
  2
_OPEN
 10
36.47565287853038
 20
207.6463080715023
 30
0.0
 41
2.0
 42
2.0
 43
2.0
 50
90.0
  0
INSERT
  5
85CE
330
6871
100
AcDbEntity
  8
30
 62
     0
440
 16777216
370
    -2
100
AcDbBlockReference
  2
_OPEN
 10
36.47565287853036
 20
96.60278666376648
 30
0.0
 41
2.0
 42
2.0
 43
2.0
 50
270.0
  0
MTEXT
  5
85CF
330
6871
100
AcDbEntity
  8
30
 62
     0
440
 16777216
100
AcDbMText
 10
31.47565287853034
 20
152.1245473676343
 30
0.0
 40
6.0
 41
0.0
 46
0.0
 71
     5
 72
     1
  1
\A1;111
 11
0.0000000000000001
 21
1.0
 31
0.0
 73
     1
 44
1.0
 90
        3
 63
     9
421
 13158600
 45
1.1
441
        0
  0
POINT
  5
85D0
330
6871
100
AcDbEntity
  8
Defpoints
 62
     0
440
 16777216
100
AcDbPoint
 10
76.12469493735523
 20
207.6463080715022
 30
0.0
  0
POINT
  5
85D1
330
6871
100
AcDbEntity
  8
Defpoints
 62
     0
440
 16777216
100
AcDbPoint
 10
106.112133155662
 20
96.60278666376644
 30
0.0
  0
POINT
  5
85D2
330
6871
100
AcDbEntity
  8
Defpoints
 62
     0
440
 16777216
100
AcDbPoint
 10
36.47565287853036
 20
96.60278666376648
 30
0.0
  0
ENDBLK
  5
6873
330
6871
100
AcDbEntity
  8
0
100
AcDbBlockEnd
  0
BLOCK
  5
687E
330
687D
100
AcDbEntity
  8
0
100
AcDbBlockBegin
  2
*D6
 70
     1
 10
0.0
 20
0.0
 30
0.0
  3
*D6
  1

  0
LINE
  5
85D3
330
687D
100
AcDbEntity
  8
30
 62
     0
440
 16777216
370
    -2
100
AcDbLine
 10
81.19467563323745
 20
356.3865392301367
 30
0.0
 11
81.19467563323745
 21
292.5371299773276
 31
0.0
  0
LINE
  5
85D4
330
687D
100
AcDbEntity
  8
30
 62
     0
440
 16777216
370
    -2
100
AcDbLine
 10
165.1946756332374
 20
356.3865392301367
 30
0.0
 11
165.1946756332374
 21
292.5371299773276
 31
0.0
  0
LINE
  5
85D5
330
687D
100
AcDbEntity
  8
30
 62
     0
440
 16777216
370
    -2
100
AcDbLine
 10
83.19467563323746
 20
293.0371299773276
 30
0.0
 11
163.1946756332374
 21
293.0371299773276
 31
0.0
  0
INSERT
  5
85D6
330
687D
100
AcDbEntity
  8
30
 62
     0
440
 16777216
370
    -2
100
AcDbBlockReference
  2
_OPEN
 10
81.19467563323745
 20
293.0371299773276
 30
0.0
 41
2.0
 42
2.0
 43
2.0
 50
180.0
  0
INSERT
  5
85D7
330
687D
100
AcDbEntity
  8
30
 62
     0
440
 16777216
370
    -2
100
AcDbBlockReference
  2
_OPEN
 10
165.1946756332374
 20
293.0371299773276
 30
0.0
 41
2.0
 42
2.0
 43
2.0
  0
MTEXT
  5
85D8
330
687D
100
AcDbEntity
  8
30
 62
     0
440
 16777216
100
AcDbMText
 10
123.1946756332374
 20
298.0371299773276
 30
0.0
 40
6.0
 41
0.0
 46
0.0
 71
     5
 72
     1
  1
\A1;84
 73
     1
 44
1.0
 90
        3
 63
     9
421
 13158600
 45
1.1
441
        0
  0
POINT
  5
85D9
330
687D
100
AcDbEntity
  8
Defpoints
 62
     0
440
 16777216
100
AcDbPoint
 10
81.19467563323745
 20
357.3865392301367
 30
0.0
  0
POINT
  5
85DA
330
687D
100
AcDbEntity
  8
Defpoints
 62
     0
440
 16777216
100
AcDbPoint
 10
165.1946756332374
 20
357.3865392301367
 30
0.0
  0
POINT
  5
85DB
330
687D
100
AcDbEntity
  8
Defpoints
 62
     0
440
 16777216
100
AcDbPoint
 10
165.1946756332374
 20
293.0371299773276
 30
0.0
  0
ENDBLK
  5
687F
330
687D
100
AcDbEntity
  8
0
100
AcDbBlockEnd
  0
BLOCK
  5
688A
330
6889
100
AcDbEntity
  8
0
100
AcDbBlockBegin
  2
*D7
 70
     1
 10
0.0
 20
0.0
 30
0.0
  3
*D7
  1

  0
LINE
  5
8763
330
6889
100
AcDbEntity
  8
30
 62
     0
440
 16777216
370
    -2
100
AcDbLine
 10
78.13719081857573
 20
206.6463080715022
 30
0.0
 11
78.13719081857572
 21
68.9095589577595
 31
0.0
  0
LINE
  5
8764
330
6889
100
AcDbEntity
  8
30
 62
     0
440
 16777216
370
    -2
100
AcDbLine
 10
108.1246290368826
 20
95.60278666376644
 30
0.0
 11
108.1246290368826
 21
68.9095589577595
 31
0.0
  0
LINE
  5
8765
330
6889
100
AcDbEntity
  8
30
 62
     0
440
 16777216
370
    -2
100
AcDbLine
 10
80.13719081857571
 20
69.4095589577595
 30
0.0
 11
106.1246290368826
 21
69.4095589577595
 31
0.0
  0
INSERT
  5
8766
330
6889
100
AcDbEntity
  8
30
 62
     0
440
 16777216
370
    -2
100
AcDbBlockReference
  2
_OPEN
 10
78.13719081857572
 20
69.4095589577595
 30
0.0
 41
2.0
 42
2.0
 43
2.0
 50
180.0
  0
INSERT
  5
8767
330
6889
100
AcDbEntity
  8
30
 62
     0
440
 16777216
370
    -2
100
AcDbBlockReference
  2
_OPEN
 10
108.1246290368826
 20
69.4095589577595
 30
0.0
 41
2.0
 42
2.0
 43
2.0
  0
MTEXT
  5
8768
330
6889
100
AcDbEntity
  8
30
 62
     0
440
 16777216
100
AcDbMText
 10
93.1309099277289
 20
74.40955895775949
 30
0.0
 40
6.0
 41
0.0
 46
0.0
 71
     5
 72
     1
  1
\A1;30
 73
     1
 44
1.0
 90
        3
 63
     9
421
 13158600
 45
1.1
441
        0
  0
POINT
  5
8769
330
6889
100
AcDbEntity
  8
Defpoints
 62
     0
440
 16777216
100
AcDbPoint
 10
78.13719081857573
 20
207.6463080715022
 30
0.0
  0
POINT
  5
876A
330
6889
100
AcDbEntity
  8
Defpoints
 62
     0
440
 16777216
100
AcDbPoint
 10
108.1246290368826
 20
96.60278666376644
 30
0.0
  0
POINT
  5
876B
330
6889
100
AcDbEntity
  8
Defpoints
 62
     0
440
 16777216
100
AcDbPoint
 10
108.1246290368826
 20
69.4095589577595
 30
0.0
  0
ENDBLK
  5
688B
330
6889
100
AcDbEntity
  8
0
100
AcDbBlockEnd
  0
BLOCK
  5
7278
330
7277
100
AcDbEntity
  8
0
100
AcDbBlockBegin
  2
*D8
 70
     1
 10
0.0
 20
0.0
 30
0.0
  3
*D8
  1

  0
LINE
  5
873F
330
7277
100
AcDbEntity
  8
30
 62
     0
440
 16777216
370
    -2
100
AcDbLine
 10
123.1309099277289
 20
94.09954537476028
 30
0.0
 11
123.1309099277289
 21
56.21957254075867
 31
0.0
  0
LINE
  5
8740
330
7277
100
AcDbEntity
  8
30
 62
     0
440
 16777216
370
    -2
100
AcDbLine
 10
153.1308904586122
 20
82.59954537476028
 30
0.0
 11
153.1308904586122
 21
56.21957254075867
 31
0.0
  0
LINE
  5
8741
330
7277
100
AcDbEntity
  8
30
 62
     0
440
 16777216
370
    -2
100
AcDbLine
 10
125.1309099277289
 20
56.71957254075867
 30
0.0
 11
151.1308904586122
 21
56.71957254075867
 31
0.0
  0
INSERT
  5
8742
330
7277
100
AcDbEntity
  8
30
 62
     0
440
 16777216
370
    -2
100
AcDbBlockReference
  2
_OPEN
 10
123.1309099277289
 20
56.71957254075867
 30
0.0
 41
2.0
 42
2.0
 43
2.0
 50
180.0
  0
INSERT
  5
8743
330
7277
100
AcDbEntity
  8
30
 62
     0
440
 16777216
370
    -2
100
AcDbBlockReference
  2
_OPEN
 10
153.1308904586122
 20
56.71957254075867
 30
0.0
 41
2.0
 42
2.0
 43
2.0
  0
MTEXT
  5
8744
330
7277
100
AcDbEntity
  8
30
 62
     0
440
 16777216
100
AcDbMText
 10
138.1309001931705
 20
61.71957254075867
 30
0.0
 40
6.0
 41
0.0
 46
0.0
 71
     5
 72
     1
  1
\A1;30
 73
     1
 44
1.0
 90
        3
 63
     9
421
 13158600
 45
1.1
441
        0
  0
POINT
  5
8745
330
7277
100
AcDbEntity
  8
Defpoints
 62
     0
440
 16777216
100
AcDbPoint
 10
123.1309099277289
 20
95.09954537476028
 30
0.0
  0
POINT
  5
8746
330
7277
100
AcDbEntity
  8
Defpoints
 62
     0
440
 16777216
100
AcDbPoint
 10
153.1308904586122
 20
83.59954537476028
 30
0.0
  0
POINT
  5
8747
330
7277
100
AcDbEntity
  8
Defpoints
 62
     0
440
 16777216
100
AcDbPoint
 10
153.1308904586122
 20
56.71957254075867
 30
0.0
  0
ENDBLK
  5
7279
330
7277
100
AcDbEntity
  8
0
100
AcDbBlockEnd
  0
BLOCK
  5
7365
330
7364
100
AcDbEntity
  8
0
100
AcDbBlockBegin
  2
*D9
 70
     1
 10
0.0
 20
0.0
 30
0.0
  3
*D9
  1

  0
LINE
  5
8748
330
7364
100
AcDbEntity
  8
30
 62
     0
440
 16777216
370
    -2
100
AcDbLine
 10
209.1682530979503
 20
126.0995475074262
 30
0.0
 11
209.1682530979503
 21
56.01574730462811
 31
0.0
  0
LINE
  5
8749
330
7364
100
AcDbEntity
  8
30
 62
     0
440
 16777216
370
    -2
100
AcDbLine
 10
295.1682526170666
 20
126.0995475074262
 30
0.0
 11
295.1682526170666
 21
56.01574730462811
 31
0.0
  0
LINE
  5
874A
330
7364
100
AcDbEntity
  8
30
 62
     0
440
 16777216
370
    -2
100
AcDbLine
 10
211.1682530979503
 20
56.51574730462812
 30
0.0
 11
293.1682526170666
 21
56.51574730462812
 31
0.0
  0
INSERT
  5
874B
330
7364
100
AcDbEntity
  8
30
 62
     0
440
 16777216
370
    -2
100
AcDbBlockReference
  2
_OPEN
 10
209.1682530979503
 20
56.51574730462812
 30
0.0
 41
2.0
 42
2.0
 43
2.0
 50
180.0
  0
INSERT
  5
874C
330
7364
100
AcDbEntity
  8
30
 62
     0
440
 16777216
370
    -2
100
AcDbBlockReference
  2
_OPEN
 10
295.1682526170666
 20
56.51574730462812
 30
0.0
 41
2.0
 42
2.0
 43
2.0
  0
MTEXT
  5
874D
330
7364
100
AcDbEntity
  8
30
 62
     0
440
 16777216
100
AcDbMText
 10
252.1682528575086
 20
64.51574730462812
 30
0.0
 40
6.0
 41
0.0
 46
0.0
 71
     2
 72
     1
  1
\A1;86
 73
     1
 44
1.0
 90
        3
 63
     9
421
 13158600
 45
1.1
441
        0
  0
POINT
  5
874E
330
7364
100
AcDbEntity
  8
Defpoints
 62
     0
440
 16777216
100
AcDbPoint
 10
209.1682530979503
 20
127.0995475074261
 30
0.0
  0
POINT
  5
874F
330
7364
100
AcDbEntity
  8
Defpoints
 62
     0
440
 16777216
100
AcDbPoint
 10
295.1682526170666
 20
127.0995475074261
 30
0.0
  0
POINT
  5
8750
330
7364
100
AcDbEntity
  8
Defpoints
 62
     0
440
 16777216
100
AcDbPoint
 10
295.1682526170666
 20
56.51574730462812
 30
0.0
  0
ENDBLK
  5
7366
330
7364
100
AcDbEntity
  8
0
100
AcDbBlockEnd
  0
BLOCK
  5
737D
330
737C
100
AcDbEntity
  8
0
100
AcDbBlockBegin
  2
*D10
 70
     1
 10
0.0
 20
0.0
 30
0.0
  3
*D10
  1

  0
LINE
  5
87A2
330
737C
100
AcDbEntity
  8
30
 62
     0
440
 16777216
370
    -2
100
AcDbLine
 10
207.1682531091335
 20
218.0995470041759
 30
0.0
 11
207.1682531091335
 21
237.5327642726122
 31
0.0
  0
LINE
  5
87A3
330
737C
100
AcDbEntity
  8
30
 62
     0
440
 16777216
370
    -2
100
AcDbLine
 10
327.1682526058835
 20
218.0995470041759
 30
0.0
 11
327.1682526058835
 21
237.5327642726122
 31
0.0
  0
LINE
  5
87A4
330
737C
100
AcDbEntity
  8
30
 62
     0
440
 16777216
370
    -2
100
AcDbLine
 10
209.1682531091335
 20
237.0327642726122
 30
0.0
 11
325.1682526058835
 21
237.0327642726122
 31
0.0
  0
INSERT
  5
87A5
330
737C
100
AcDbEntity
  8
30
 62
     0
440
 16777216
370
    -2
100
AcDbBlockReference
  2
_OPEN
 10
207.1682531091335
 20
237.0327642726122
 30
0.0
 41
2.0
 42
2.0
 43
2.0
 50
180.0
  0
INSERT
  5
87A6
330
737C
100
AcDbEntity
  8
30
 62
     0
440
 16777216
370
    -2
100
AcDbBlockReference
  2
_OPEN
 10
327.1682526058835
 20
237.0327642726122
 30
0.0
 41
2.0
 42
2.0
 43
2.0
  0
MTEXT
  5
87A7
330
737C
100
AcDbEntity
  8
30
 62
     0
440
 16777216
100
AcDbMText
 10
267.1682528575085
 20
245.0327642726122
 30
0.0
 40
6.0
 41
0.0
 46
0.0
 71
     2
 72
     1
  1
\A1;120
 73
     1
 44
1.0
 90
        3
 63
     9
421
 13158600
 45
1.1
441
        0
  0
POINT
  5
87A8
330
737C
100
AcDbEntity
  8
Defpoints
 62
     0
440
 16777216
100
AcDbPoint
 10
207.1682531091335
 20
217.0995470041759
 30
0.0
  0
POINT
  5
87A9
330
737C
100
AcDbEntity
  8
Defpoints
 62
     0
440
 16777216
100
AcDbPoint
 10
327.1682526058835
 20
217.0995470041759
 30
0.0
  0
POINT
  5
87AA
330
737C
100
AcDbEntity
  8
Defpoints
 62
     0
440
 16777216
100
AcDbPoint
 10
327.1682526058835
 20
237.0327642726122
 30
0.0
  0
ENDBLK
  5
737E
330
737C
100
AcDbEntity
  8
0
100
AcDbBlockEnd
  0
BLOCK
  5
7389
330
7388
100
AcDbEntity
  8
0
100
AcDbBlockBegin
  2
*D11
 70
     1
 10
0.0
 20
0.0
 30
0.0
  3
*D11
  1

  0
LINE
  5
8598
330
7388
100
AcDbEntity
  8
30
 62
     0
440
 16777216
370
    -2
100
AcDbLine
 10
297.0433515288097
 20
181.0717682237209
 30
0.0
 11
299.8734785464971
 21
185.9736920139996
 31
0.0
  0
LINE
  5
8599
330
7388
100
AcDbEntity
  8
30
 62
     0
440
 16777216
370
    -2
100
AcDbLine
 10
299.8734785464971
 20
185.9736920139996
 30
0.0
 11
309.3393876374062
 21
185.9736920139996
 31
0.0
  0
LINE
  5
859A
330
7388
100
AcDbEntity
  8
30
 62
     0
440
 16777216
370
    -2
100
AcDbLine
 10
295.5433515324859
 20
178.4736920167361
 30
0.0
 11
296.0433515293867
 21
179.3397174158189
 31
0.0
  0
INSERT
  5
859B
330
7388
100
AcDbEntity
  8
30
 62
     0
440
 16777216
370
    -2
100
AcDbBlockReference
  2
_OPEN
 10
296.0433515293867
 20
179.3397174158189
 30
0.0
 41
2.0
 42
2.0
 43
2.0
 50
240.0000000190854
  0
MTEXT
  5
859C
330
7388
100
AcDbEntity
  8
30
 62
     0
440
 16777216
100
AcDbMText
 10
301.8734785464971
 20
193.9736920139996
 30
0.0
 40
6.0
 41
0.0
 46
0.0
 71
     1
 72
     1
  1
\A1;R1
 73
     1
 44
1.0
  0
POINT
  5
859D
330
7388
100
AcDbEntity
  8
Defpoints
 62
     0
440
 16777216
100
AcDbPoint
 10
296.0433515293867
 20
179.3397174158189
 30
0.0
  0
POINT
  5
859E
330
7388
100
AcDbEntity
  8
Defpoints
 62
     0
440
 16777216
100
AcDbPoint
 10
295.5433515324859
 20
178.4736920167361
 30
0.0
  0
ENDBLK
  5
738A
330
7388
100
AcDbEntity
  8
0
100
AcDbBlockEnd
  0
BLOCK
  5
7416
330
7415
100
AcDbEntity
  8
0
100
AcDbBlockBegin
  2
*D12
 70
     1
 10
0.0
 20
0.0
 30
0.0
  3
*D12
  1

  0
LINE
  5
87EC
330
7415
100
AcDbEntity
  8
30
 62
     0
440
 16777216
370
    -2
100
AcDbLine
 10
426.7238457995623
 20
175.8495473676342
 30
0.0
 11
510.1557066424707
 21
175.849547367634
 31
0.0
  0
LINE
  5
87ED
330
7415
100
AcDbEntity
  8
30
 62
     0
440
 16777216
370
    -2
100
AcDbLine
 10
426.7238457995623
 20
127.8495473676345
 30
0.0
 11
510.1557066424706
 21
127.8495473676345
 31
0.0
  0
LINE
  5
87EE
330
7415
100
AcDbEntity
  8
30
 62
     0
440
 16777216
370
    -2
100
AcDbLine
 10
509.6557066424707
 20
173.849547367634
 30
0.0
 11
509.6557066424707
 21
129.8495473676345
 31
0.0
  0
INSERT
  5
87EF
330
7415
100
AcDbEntity
  8
30
 62
     0
440
 16777216
370
    -2
100
AcDbBlockReference
  2
_OPEN
 10
509.6557066424707
 20
175.849547367634
 30
0.0
 41
2.0
 42
2.0
 43
2.0
 50
90.0
  0
INSERT
  5
87F0
330
7415
100
AcDbEntity
  8
30
 62
     0
440
 16777216
370
    -2
100
AcDbBlockReference
  2
_OPEN
 10
509.6557066424706
 20
127.8495473676345
 30
0.0
 41
2.0
 42
2.0
 43
2.0
 50
270.0
  0
MTEXT
  5
87F1
330
7415
100
AcDbEntity
  8
30
 62
     0
440
 16777216
100
AcDbMText
 10
501.6557066424706
 20
152.9878037369322
 30
0.0
 40
6.0
 41
0.0
 46
0.0
 71
     2
 72
     1
  1
\A1;48
 11
0.0000000000000001
 21
1.0
 31
0.0
 73
     1
 44
1.0
 90
        3
 63
     9
421
 13158600
 45
1.1
441
        0
  0
POINT
  5
87F2
330
7415
100
AcDbEntity
  8
Defpoints
 62
     0
440
 16777216
100
AcDbPoint
 10
425.7238457995622
 20
175.8495473676342
 30
0.0
  0
POINT
  5
87F3
330
7415
100
AcDbEntity
  8
Defpoints
 62
     0
440
 16777216
100
AcDbPoint
 10
425.7238457995622
 20
127.8495473676345
 30
0.0
  0
POINT
  5
87F4
330
7415
100
AcDbEntity
  8
Defpoints
 62
     0
440
 16777216
100
AcDbPoint
 10
509.6557066424706
 20
127.8495473676345
 30
0.0
  0
ENDBLK
  5
7417
330
7415
100
AcDbEntity
  8
0
100
AcDbBlockEnd
  0
BLOCK
  5
7435
330
7434
100
AcDbEntity
  8
0
100
AcDbBlockBegin
  2
*D13
 70
     1
 10
0.0
 20
0.0
 30
0.0
  3
*D13
  1

  0
LINE
  5
87F5
330
7434
100
AcDbEntity
  8
30
 62
     0
440
 16777216
370
    -2
100
AcDbLine
 10
299.0112647938022
 20
178.0995477585889
 30
0.0
 11
348.7152634128425
 21
178.0995477585888
 31
0.0
  0
LINE
  5
87F6
330
7434
100
AcDbEntity
  8
30
 62
     0
440
 16777216
370
    -2
100
AcDbLine
 10
299.0112647936018
 20
126.099546976356
 30
0.0
 11
348.7152634128424
 21
126.099546976356
 31
0.0
  0
LINE
  5
87F7
330
7434
100
AcDbEntity
  8
30
 62
     0
440
 16777216
370
    -2
100
AcDbLine
 10
348.2152634128425
 20
176.0995477585888
 30
0.0
 11
348.2152634128425
 21
128.099546976356
 31
0.0
  0
INSERT
  5
87F8
330
7434
100
AcDbEntity
  8
30
 62
     0
440
 16777216
370
    -2
100
AcDbBlockReference
  2
_OPEN
 10
348.2152634128425
 20
178.0995477585888
 30
0.0
 41
2.0
 42
2.0
 43
2.0
 50
90.0
  0
INSERT
  5
87F9
330
7434
100
AcDbEntity
  8
30
 62
     0
440
 16777216
370
    -2
100
AcDbBlockReference
  2
_OPEN
 10
348.2152634128425
 20
126.099546976356
 30
0.0
 41
2.0
 42
2.0
 43
2.0
 50
270.0
  0
MTEXT
  5
87FA
330
7434
100
AcDbEntity
  8
30
 62
     0
440
 16777216
100
AcDbMText
 10
343.2152634128424
 20
152.0995473674724
 30
0.0
 40
6.0
 41
0.0
 46
0.0
 71
     5
 72
     1
  1
\A1;52
 11
0.0000000000000001
 21
1.0
 31
0.0
 73
     1
 44
1.0
 90
        3
 63
     9
421
 13158600
 45
1.1
441
        0
  0
POINT
  5
87FB
330
7434
100
AcDbEntity
  8
Defpoints
 62
     0
440
 16777216
100
AcDbPoint
 10
298.0112647938022
 20
178.0995477585889
 30
0.0
  0
POINT
  5
87FC
330
7434
100
AcDbEntity
  8
Defpoints
 62
     0
440
 16777216
100
AcDbPoint
 10
298.0112647936018
 20
126.099546976356
 30
0.0
  0
POINT
  5
87FD
330
7434
100
AcDbEntity
  8
Defpoints
 62
     0
440
 16777216
100
AcDbPoint
 10
348.2152634128425
 20
126.099546976356
 30
0.0
  0
ENDBLK
  5
7436
330
7434
100
AcDbEntity
  8
0
100
AcDbBlockEnd
  0
BLOCK
  5
75C3
330
75C2
100
AcDbEntity
  8
0
100
AcDbBlockBegin
  2
*D14
 70
     1
 10
0.0
 20
0.0
 30
0.0
  3
*D14
  1

  0
LINE
  5
8609
330
75C2
100
AcDbEntity
  8
30
 62
     0
440
 16777216
370
    -2
100
AcDbLine
 10
112.1716549249718
 20
359.1904620895152
 30
0.0
 11
112.1716549249718
 21
344.5746097152655
 31
0.0
  0
LINE
  5
860A
330
75C2
100
AcDbEntity
  8
30
 62
     0
440
 16777216
370
    -2
100
AcDbLine
 10
134.217958741161
 20
359.1904620895152
 30
0.0
 11
134.217958741161
 21
344.5746097152655
 31
0.0
  0
LINE
  5
860B
330
75C2
100
AcDbEntity
  8
30
 62
     0
440
 16777216
370
    -2
100
AcDbLine
 10
114.1716549249718
 20
345.0746097152655
 30
0.0
 11
132.217958741161
 21
345.0746097152655
 31
0.0
  0
INSERT
  5
860C
330
75C2
100
AcDbEntity
  8
30
 62
     0
440
 16777216
370
    -2
100
AcDbBlockReference
  2
_OPEN
 10
112.1716549249718
 20
345.0746097152655
 30
0.0
 41
2.0
 42
2.0
 43
2.0
 50
180.0
  0
INSERT
  5
860D
330
75C2
100
AcDbEntity
  8
30
 62
     0
440
 16777216
370
    -2
100
AcDbBlockReference
  2
_OPEN
 10
134.217958741161
 20
345.0746097152655
 30
0.0
 41
2.0
 42
2.0
 43
2.0
  0
MTEXT
  5
860E
330
75C2
100
AcDbEntity
  8
30
 62
     0
440
 16777216
100
AcDbMText
 10
123.1948068330664
 20
350.0746097152655
 30
0.0
 40
6.0
 41
0.0
 46
0.0
 71
     5
 72
     1
  1
\A1;22
 73
     1
 44
1.0
 90
        3
 63
     9
421
 13158600
 45
1.1
441
        0
  0
POINT
  5
860F
330
75C2
100
AcDbEntity
  8
Defpoints
 62
     0
440
 16777216
100
AcDbPoint
 10
112.1716549249718
 20
360.1904620895151
 30
0.0
  0
POINT
  5
8610
330
75C2
100
AcDbEntity
  8
Defpoints
 62
     0
440
 16777216
100
AcDbPoint
 10
134.217958741161
 20
360.1904620895151
 30
0.0
  0
POINT
  5
8611
330
75C2
100
AcDbEntity
  8
Defpoints
 62
     0
440
 16777216
100
AcDbPoint
 10
134.217958741161
 20
345.0746097152655
 30
0.0
  0
ENDBLK
  5
75C4
330
75C2
100
AcDbEntity
  8
0
100
AcDbBlockEnd
  0
BLOCK
  5
7676
330
7675
100
AcDbEntity
  8
0
100
AcDbBlockBegin
  2
*D15
 70
     1
 10
0.0
 20
0.0
 30
0.0
  3
*D15
  1

  0
LINE
  5
876C
330
7675
100
AcDbEntity
  8
30
 62
     0
440
 16777216
370
    -2
100
AcDbLine
 10
93.14598867246271
 20
65.83526278004068
 30
0.0
 11
93.14598867246271
 21
56.21957254075867
 31
0.0
  0
LINE
  5
876D
330
7675
100
AcDbEntity
  8
30
 62
     0
440
 16777216
370
    -2
100
AcDbLine
 10
123.1309099277289
 20
82.59954537476028
 30
0.0
 11
123.1309099277289
 21
56.21957254075867
 31
0.0
  0
LINE
  5
876E
330
7675
100
AcDbEntity
  8
30
 62
     0
440
 16777216
370
    -2
100
AcDbLine
 10
95.14598867246276
 20
56.71957254075867
 30
0.0
 11
121.1309099277289
 21
56.71957254075867
 31
0.0
  0
INSERT
  5
876F
330
7675
100
AcDbEntity
  8
30
 62
     0
440
 16777216
370
    -2
100
AcDbBlockReference
  2
_OPEN
 10
93.14598867246271
 20
56.71957254075867
 30
0.0
 41
2.0
 42
2.0
 43
2.0
 50
180.0
  0
INSERT
  5
8770
330
7675
100
AcDbEntity
  8
30
 62
     0
440
 16777216
370
    -2
100
AcDbBlockReference
  2
_OPEN
 10
123.1309099277289
 20
56.71957254075867
 30
0.0
 41
2.0
 42
2.0
 43
2.0
  0
MTEXT
  5
8771
330
7675
100
AcDbEntity
  8
30
 62
     0
440
 16777216
100
AcDbMText
 10
108.1384493000958
 20
61.71957254075867
 30
0.0
 40
6.0
 41
0.0
 46
0.0
 71
     5
 72
     1
  1
\A1;30
 73
     1
 44
1.0
 90
        3
 63
     9
421
 13158600
 45
1.1
441
        0
  0
POINT
  5
8772
330
7675
100
AcDbEntity
  8
Defpoints
 62
     0
440
 16777216
100
AcDbPoint
 10
93.14598867246271
 20
66.8352627800407
 30
0.0
  0
POINT
  5
8773
330
7675
100
AcDbEntity
  8
Defpoints
 62
     0
440
 16777216
100
AcDbPoint
 10
123.1309099277289
 20
83.59954537476028
 30
0.0
  0
POINT
  5
8774
330
7675
100
AcDbEntity
  8
Defpoints
 62
     0
440
 16777216
100
AcDbPoint
 10
123.1309099277289
 20
56.71957254075867
 30
0.0
  0
ENDBLK
  5
7677
330
7675
100
AcDbEntity
  8
0
100
AcDbBlockEnd
  0
BLOCK
  5
76C8
330
76C7
100
AcDbEntity
  8
0
100
AcDbBlockBegin
  2
*D16
 70
     1
 10
0.0
 20
0.0
 30
0.0
  3
*D16
  1

  0
LINE
  5
8775
330
76C7
100
AcDbEntity
  8
30
 62
     0
440
 16777216
370
    -2
100
AcDbLine
 10
63.14598867246274
 20
84.01052954771968
 30
0.0
 11
63.14598867246274
 21
56.21957254075867
 31
0.0
  0
LINE
  5
8776
330
76C7
100
AcDbEntity
  8
30
 62
     0
440
 16777216
370
    -2
100
AcDbLine
 10
93.1309099277289
 20
64.6647194712791
 30
0.0
 11
93.1309099277289
 21
56.21957254075867
 31
0.0
  0
LINE
  5
8777
330
76C7
100
AcDbEntity
  8
30
 62
     0
440
 16777216
370
    -2
100
AcDbLine
 10
65.14598867246275
 20
56.71957254075867
 30
0.0
 11
91.13090992772892
 21
56.71957254075867
 31
0.0
  0
INSERT
  5
8778
330
76C7
100
AcDbEntity
  8
30
 62
     0
440
 16777216
370
    -2
100
AcDbBlockReference
  2
_OPEN
 10
63.14598867246274
 20
56.71957254075867
 30
0.0
 41
2.0
 42
2.0
 43
2.0
 50
180.0
  0
INSERT
  5
8779
330
76C7
100
AcDbEntity
  8
30
 62
     0
440
 16777216
370
    -2
100
AcDbBlockReference
  2
_OPEN
 10
93.1309099277289
 20
56.71957254075867
 30
0.0
 41
2.0
 42
2.0
 43
2.0
  0
MTEXT
  5
877A
330
76C7
100
AcDbEntity
  8
30
 62
     0
440
 16777216
100
AcDbMText
 10
78.13844930009583
 20
61.71957254075867
 30
0.0
 40
6.0
 41
0.0
 46
0.0
 71
     5
 72
     1
  1
\A1;30
 73
     1
 44
1.0
 90
        3
 63
     9
421
 13158600
 45
1.1
441
        0
  0
POINT
  5
877B
330
76C7
100
AcDbEntity
  8
Defpoints
 62
     0
440
 16777216
100
AcDbPoint
 10
63.14598867246274
 20
85.01052954771967
 30
0.0
  0
POINT
  5
877C
330
76C7
100
AcDbEntity
  8
Defpoints
 62
     0
440
 16777216
100
AcDbPoint
 10
93.1309099277289
 20
65.66471947127912
 30
0.0
  0
POINT
  5
877D
330
76C7
100
AcDbEntity
  8
Defpoints
 62
     0
440
 16777216
100
AcDbPoint
 10
93.1309099277289
 20
56.71957254075867
 30
0.0
  0
ENDBLK
  5
76C9
330
76C7
100
AcDbEntity
  8
0
100
AcDbBlockEnd
  0
BLOCK
  5
772F
330
772E
100
AcDbEntity
  8
0
100
AcDbBlockBegin
  2
*D17
 70
     1
 10
0.0
 20
0.0
 30
0.0
  3
*D17
  1

  0
LINE
  5
86FA
330
772E
100
AcDbEntity
  8
30
 62
     0
440
 16777216
370
    -2
100
AcDbLine
 10
77.23076773351147
 20
447.3661293207372
 30
0.0
 11
60.59787052520832
 21
447.3661293207372
 31
0.0
  0
LINE
  5
86FB
330
772E
100
AcDbEntity
  8
30
 62
     0
440
 16777216
370
    -2
100
AcDbLine
 10
77.22161510524552
 20
317.36617178278
 30
0.0
 11
60.59787052520828
 21
317.36617178278
 31
0.0
  0
LINE
  5
86FC
330
772E
100
AcDbEntity
  8
30
 62
     0
440
 16777216
370
    -2
100
AcDbLine
 10
61.09787052520831
 20
445.3661293207371
 30
0.0
 11
61.09787052520829
 21
319.36617178278
 31
0.0
  0
INSERT
  5
86FD
330
772E
100
AcDbEntity
  8
30
 62
     0
440
 16777216
370
    -2
100
AcDbBlockReference
  2
_OPEN
 10
61.09787052520831
 20
447.3661293207372
 30
0.0
 41
2.0
 42
2.0
 43
2.0
 50
90.0
  0
INSERT
  5
86FE
330
772E
100
AcDbEntity
  8
30
 62
     0
440
 16777216
370
    -2
100
AcDbBlockReference
  2
_OPEN
 10
61.09787052520829
 20
317.36617178278
 30
0.0
 41
2.0
 42
2.0
 43
2.0
 50
270.0
  0
MTEXT
  5
86FF
330
772E
100
AcDbEntity
  8
30
 62
     0
440
 16777216
100
AcDbMText
 10
56.09787052520822
 20
380.6681853317227
 30
0.0
 40
6.0
 41
0.0
 46
0.0
 71
     5
 72
     1
  1
\A1;130
 11
0.0000000000000001
 21
1.0
 31
0.0
 73
     1
 44
1.0
 90
        3
 63
     9
421
 13158600
 45
1.1
441
        0
  0
POINT
  5
8700
330
772E
100
AcDbEntity
  8
Defpoints
 62
     0
440
 16777216
100
AcDbPoint
 10
78.23076773351147
 20
447.3661293207372
 30
0.0
  0
POINT
  5
8701
330
772E
100
AcDbEntity
  8
Defpoints
 62
     0
440
 16777216
100
AcDbPoint
 10
78.22161510524551
 20
317.36617178278
 30
0.0
  0
POINT
  5
8702
330
772E
100
AcDbEntity
  8
Defpoints
 62
     0
440
 16777216
100
AcDbPoint
 10
61.09787052520829
 20
317.36617178278
 30
0.0
  0
ENDBLK
  5
7730
330
772E
100
AcDbEntity
  8
0
100
AcDbBlockEnd
  0
BLOCK
  5
7A77
330
7A76
100
AcDbEntity
  8
0
100
AcDbBlockBegin
  2
*D18
 70
     1
 10
0.0
 20
0.0
 30
0.0
  3
*D18
  1

  0
LINE
  5
7A78
330
7A76
100
AcDbEntity
  8
30
  6
Continuous
 62
     0
370
    -2
100
AcDbLine
 10
-525.5690984882502
 20
694.994737580365
 30
0.0
 11
-525.5690984882502
 21
722.4833775300874
 31
0.0
  0
LINE
  5
7A79
330
7A76
100
AcDbEntity
  8
30
  6
Continuous
 62
     0
370
    -2
100
AcDbLine
 10
-509.5990097981863
 20
695.0947375803647
 30
0.0
 11
-509.5990097981863
 21
722.4833775300874
 31
0.0
  0
LINE
  5
7A7A
330
7A76
100
AcDbEntity
  8
30
  6
Continuous
 62
     0
370
    -2
100
AcDbLine
 10
-523.5690984882502
 20
721.9833775300874
 30
0.0
 11
-511.5990097981863
 21
721.9833775300874
 31
0.0
  0
INSERT
  5
7A7B
330
7A76
100
AcDbEntity
  8
30
  6
Continuous
 62
     0
370
    -2
100
AcDbBlockReference
  2
_OPEN
 10
-525.5690984882502
 20
721.9833775300874
 30
0.0
 41
2.0
 42
2.0
 43
2.0
 50
180.0
  0
INSERT
  5
7A7C
330
7A76
100
AcDbEntity
  8
30
  6
Continuous
 62
     0
370
    -2
100
AcDbBlockReference
  2
_OPEN
 10
-509.5990097981863
 20
721.9833775300874
 30
0.0
 41
2.0
 42
2.0
 43
2.0
  0
MTEXT
  5
7A7D
330
7A76
100
AcDbEntity
  8
30
  6
Continuous
 62
     0
100
AcDbMText
 10
-516.3544028546213
 20
725.9833775300874
 30
0.0
 40
6.0
 41
0.0
 46
0.0
 71
     5
 72
     1
  1
\A1;16
 73
     1
 44
1.0
  0
POINT
  5
7A7E
330
7A76
100
AcDbEntity
  8
Defpoints
  6
Continuous
 62
     0
100
AcDbPoint
 10
-525.5690984882502
 20
693.994737580365
 30
0.0
  0
POINT
  5
7A7F
330
7A76
100
AcDbEntity
  8
Defpoints
  6
Continuous
 62
     0
100
AcDbPoint
 10
-509.5990097981863
 20
694.0947375803647
 30
0.0
  0
POINT
  5
7A80
330
7A76
100
AcDbEntity
  8
Defpoints
  6
Continuous
 62
     0
100
AcDbPoint
 10
-509.5990097981863
 20
721.9833775300874
 30
0.0
  0
ENDBLK
  5
7A81
330
7A76
100
AcDbEntity
  8
0
100
AcDbBlockEnd
  0
BLOCK
  5
7A87
330
7A82
100
AcDbEntity
  8
0
100
AcDbBlockBegin
  2
A$C7E9C6D50
 70
     0
 10
0.0
 20
0.0
 30
0.0
  3
A$C7E9C6D50
  1

  0
LWPOLYLINE
  5
7A83
330
7A82
100
AcDbEntity
  8
0
  6
Continuous
 62
     7
100
AcDbPolyline
 90
        6
 70
     0
 43
0.0
 10
-5.03803127808942
 20
-0.0000002575410463
 42
0.1739087674231221
 10
-7.885044345030677
 20
6.017734995083742
 10
-7.885044083168391
 20
34.84350264987575
 42
-0.2471454556482815
 10
7.885044345033632
 20
34.8435027877324
 10
7.885044345033632
 20
6.017734995083742
 42
0.1718897542815705
 10
5.038031801817169
 20
-0.0000002575408189
  0
DIMENSION
  5
7A84
330
7A82
100
AcDbEntity
  8
30
  6
Continuous
100
AcDbDimension
280
     0
  2
*D18
 10
8.020362088402862
 20
62.73214259959821
 30
0.0
 11
1.264969031967779
 21
62.73214259959821
 31
0.0
 12
517.6193718865888
 22
-659.251234930489
 32
0.0
 70
   128
 71
     5
 42
15.97008869006413
 73
     0
 74
     0
 75
     0
  3
STANDARD
100
AcDbAlignedDimension
 13
-7.949726601661267
 23
34.74350264987585
 33
0.0
 14
8.020362088402862
 24
34.84350264987586
 34
0.0
100
AcDbRotatedDimension
  0
ENDBLK
  5
7A88
330
7A82
100
AcDbEntity
  8
0
100
AcDbBlockEnd
  0
BLOCK
  5
7B84
330
7B83
100
AcDbEntity
  8
0
100
AcDbBlockBegin
  2
*D20
 70
     1
 10
0.0
 20
0.0
 30
0.0
  3
*D20
  1

  0
LINE
  5
859F
330
7B83
100
AcDbEntity
  8
30
 62
     0
440
 16777216
370
    -2
100
AcDbLine
 10
427.2262968033386
 20
178.629544276376
 30
0.0
 11
430.3703683605299
 21
185.9342364038425
 31
0.0
  0
LINE
  5
85A0
330
7B83
100
AcDbEntity
  8
30
 62
     0
440
 16777216
370
    -2
100
AcDbLine
 10
430.3703683605299
 20
185.9342364038425
 30
0.0
 11
439.836277451439
 21
185.9342364038425
 31
0.0
  0
LINE
  5
85A1
330
7B83
100
AcDbEntity
  8
30
 62
     0
440
 16777216
370
    -2
100
AcDbLine
 10
426.0402413465184
 20
175.8739549710513
 30
0.0
 11
426.4355931639769
 21
176.7924847360507
 31
0.0
  0
INSERT
  5
85A2
330
7B83
100
AcDbEntity
  8
30
 62
     0
440
 16777216
370
    -2
100
AcDbBlockReference
  2
_OPEN
 10
426.4355931639769
 20
176.7924847360507
 30
0.0
 41
2.0
 42
2.0
 43
2.0
 50
246.7120820421768
  0
MTEXT
  5
85A3
330
7B83
100
AcDbEntity
  8
30
 62
     0
440
 16777216
100
AcDbMText
 10
432.3703683605301
 20
193.9342364038425
 30
0.0
 40
6.0
 41
0.0
 46
0.0
 71
     1
 72
     1
  1
\A1;R1
 73
     1
 44
1.0
  0
POINT
  5
85A4
330
7B83
100
AcDbEntity
  8
Defpoints
 62
     0
440
 16777216
100
AcDbPoint
 10
426.4355931639769
 20
176.7924847360507
 30
0.0
  0
POINT
  5
85A5
330
7B83
100
AcDbEntity
  8
Defpoints
 62
     0
440
 16777216
100
AcDbPoint
 10
426.0402413465184
 20
175.8739549710513
 30
0.0
  0
ENDBLK
  5
7B85
330
7B83
100
AcDbEntity
  8
0
100
AcDbBlockEnd
  0
BLOCK
  5
7C88
330
7C87
100
AcDbEntity
  8
0
100
AcDbBlockBegin
  2
*D21
 70
     1
 10
0.0
 20
0.0
 30
0.0
  3
*D21
  1

  0
LINE
  5
86DF
330
7C87
100
AcDbEntity
  8
30
  6
Continuous
 62
     0
440
 16777216
370
    -2
100
AcDbLine
 10
287.1769072910568
 20
407.2946805573553
 30
0.0
 11
249.5769072910571
 21
407.2946805573553
 31
0.0
  0
LINE
  5
86E0
330
7C87
100
AcDbEntity
  8
30
  6
Continuous
 62
     0
440
 16777216
370
    -2
100
AcDbLine
 10
287.1769072910568
 20
357.2946805573553
 30
0.0
 11
249.5769072910571
 21
357.2946805573553
 31
0.0
  0
LINE
  5
86E1
330
7C87
100
AcDbEntity
  8
30
  6
Continuous
 62
     0
440
 16777216
370
    -2
100
AcDbLine
 10
250.0769072910571
 20
405.2946805573553
 30
0.0
 11
250.0769072910571
 21
359.2946805573553
 31
0.0
  0
INSERT
  5
86E2
330
7C87
100
AcDbEntity
  8
30
  6
Continuous
 62
     0
440
 16777216
370
    -2
100
AcDbBlockReference
  2
_OPEN
 10
250.0769072910571
 20
407.2946805573553
 30
0.0
 41
2.0
 42
2.0
 43
2.0
 50
90.0
  0
INSERT
  5
86E3
330
7C87
100
AcDbEntity
  8
30
  6
Continuous
 62
     0
440
 16777216
370
    -2
100
AcDbBlockReference
  2
_OPEN
 10
250.0769072910571
 20
357.2946805573553
 30
0.0
 41
2.0
 42
2.0
 43
2.0
 50
270.0
  0
MTEXT
  5
86E4
330
7C87
100
AcDbEntity
  8
30
  6
Continuous
 62
     0
440
 16777216
100
AcDbMText
 10
245.076907291057
 20
385.0671232583553
 30
0.0
 40
6.0
 41
0.0
 46
0.0
 71
     5
 72
     1
  1
\A1;50
 11
0.0000000000000001
 21
1.0
 31
0.0
 73
     1
 44
1.0
 90
        3
 63
     9
421
 13158600
 45
1.1
441
        0
  0
POINT
  5
86E5
330
7C87
100
AcDbEntity
  8
Defpoints
  6
Continuous
 62
     0
440
 16777216
100
AcDbPoint
 10
288.1769072910568
 20
407.2946805573553
 30
0.0
  0
POINT
  5
86E6
330
7C87
100
AcDbEntity
  8
Defpoints
  6
Continuous
 62
     0
440
 16777216
100
AcDbPoint
 10
288.1769072910568
 20
357.2946805573553
 30
0.0
  0
POINT
  5
86E7
330
7C87
100
AcDbEntity
  8
Defpoints
  6
Continuous
 62
     0
440
 16777216
100
AcDbPoint
 10
250.0769072910571
 20
357.2946805573553
 30
0.0
  0
ENDBLK
  5
7C89
330
7C87
100
AcDbEntity
  8
0
100
AcDbBlockEnd
  0
BLOCK
  5
7C94
330
7C93
100
AcDbEntity
  8
0
100
AcDbBlockBegin
  2
*D22
 70
     1
 10
0.0
 20
0.0
 30
0.0
  3
*D22
  1

  0
LINE
  5
86CC
330
7C93
100
AcDbEntity
  8
30
  6
Continuous
 62
     0
440
 16777216
370
    -2
100
AcDbLine
 10
463.3837197725931
 20
327.7946805573554
 30
0.0
 11
481.1185988143241
 21
327.7946805573554
 31
0.0
  0
LINE
  5
86CD
330
7C93
100
AcDbEntity
  8
30
  6
Continuous
 62
     0
440
 16777216
370
    -2
100
AcDbLine
 10
463.4717299199238
 20
322.7946805573554
 30
0.0
 11
481.1185988143241
 21
322.7946805573554
 31
0.0
  0
LINE
  5
86CE
330
7C93
100
AcDbEntity
  8
30
  6
Continuous
 62
     0
440
 16777216
370
    -2
100
AcDbLine
 10
480.6185988143242
 20
329.7946805573554
 30
0.0
 11
480.6185988143242
 21
331.7946805573554
 31
0.0
  0
LINE
  5
86CF
330
7C93
100
AcDbEntity
  8
30
  6
Continuous
 62
     0
440
 16777216
370
    -2
100
AcDbLine
 10
480.6185988143242
 20
320.7946805573554
 30
0.0
 11
480.6185988143242
 21
301.056044193719
 31
0.0
  0
INSERT
  5
86D0
330
7C93
100
AcDbEntity
  8
30
  6
Continuous
 62
     0
440
 16777216
370
    -2
100
AcDbBlockReference
  2
_OPEN
 10
480.6185988143242
 20
327.7946805573554
 30
0.0
 41
2.0
 42
2.0
 43
2.0
 50
270.0
  0
INSERT
  5
86D1
330
7C93
100
AcDbEntity
  8
30
  6
Continuous
 62
     0
440
 16777216
370
    -2
100
AcDbBlockReference
  2
_OPEN
 10
480.6185988143242
 20
322.7946805573554
 30
0.0
 41
2.0
 42
2.0
 43
2.0
 50
90.0
  0
MTEXT
  5
86D2
330
7C93
100
AcDbEntity
  8
30
  6
Continuous
 62
     0
440
 16777216
100
AcDbMText
 10
475.6185988143242
 20
304.7946805573555
 30
0.0
 40
6.0
 41
0.0
 46
0.0
 71
     5
 72
     1
  1
\A1;5
 11
0.0000000000000001
 21
1.0
 31
0.0
 73
     1
 44
1.0
 90
        3
 63
     9
421
 13158600
 45
1.1
441
        0
  0
POINT
  5
86D3
330
7C93
100
AcDbEntity
  8
Defpoints
  6
Continuous
 62
     0
440
 16777216
100
AcDbPoint
 10
462.3837197725931
 20
327.7946805573554
 30
0.0
  0
POINT
  5
86D4
330
7C93
100
AcDbEntity
  8
Defpoints
  6
Continuous
 62
     0
440
 16777216
100
AcDbPoint
 10
462.4717299199239
 20
322.7946805573554
 30
0.0
  0
POINT
  5
86D5
330
7C93
100
AcDbEntity
  8
Defpoints
  6
Continuous
 62
     0
440
 16777216
100
AcDbPoint
 10
480.6185988143242
 20
322.7946805573554
 30
0.0
  0
ENDBLK
  5
7C95
330
7C93
100
AcDbEntity
  8
0
100
AcDbBlockEnd
  0
BLOCK
  5
7CA2
330
7CA1
100
AcDbEntity
  8
0
100
AcDbBlockBegin
  2
*D23
 70
     1
 10
0.0
 20
0.0
 30
0.0
  3
*D23
  1

  0
LINE
  5
86D6
330
7CA1
100
AcDbEntity
  8
30
  6
Continuous
 62
     0
440
 16777216
370
    -2
100
AcDbLine
 10
470.5070477391632
 20
439.2946805573552
 30
0.0
 11
490.0070477391632
 21
439.2946805573552
 31
0.0
  0
LINE
  5
86D7
330
7CA1
100
AcDbEntity
  8
30
  6
Continuous
 62
     0
440
 16777216
370
    -2
100
AcDbLine
 10
470.5070477391632
 20
325.2946805573554
 30
0.0
 11
490.0070477391631
 21
325.2946805573554
 31
0.0
  0
LINE
  5
86D8
330
7CA1
100
AcDbEntity
  8
30
  6
Continuous
 62
     0
440
 16777216
370
    -2
100
AcDbLine
 10
489.5070477391632
 20
437.2946805573553
 30
0.0
 11
489.5070477391631
 21
327.2946805573554
 31
0.0
  0
INSERT
  5
86D9
330
7CA1
100
AcDbEntity
  8
30
  6
Continuous
 62
     0
440
 16777216
370
    -2
100
AcDbBlockReference
  2
_OPEN
 10
489.5070477391632
 20
439.2946805573552
 30
0.0
 41
2.0
 42
2.0
 43
2.0
 50
90.0
  0
INSERT
  5
86DA
330
7CA1
100
AcDbEntity
  8
30
  6
Continuous
 62
     0
440
 16777216
370
    -2
100
AcDbBlockReference
  2
_OPEN
 10
489.5070477391631
 20
325.2946805573554
 30
0.0
 41
2.0
 42
2.0
 43
2.0
 50
270.0
  0
MTEXT
  5
86DB
330
7CA1
100
AcDbEntity
  8
30
  6
Continuous
 62
     0
440
 16777216
100
AcDbMText
 10
484.5070477391629
 20
382.2946805573553
 30
0.0
 40
6.0
 41
0.0
 46
0.0
 71
     5
 72
     1
  1
\A1;114
 11
0.0000000000000001
 21
1.0
 31
0.0
 73
     1
 44
1.0
 90
        3
 63
     9
421
 13158600
 45
1.1
441
        0
  0
POINT
  5
86DC
330
7CA1
100
AcDbEntity
  8
Defpoints
  6
Continuous
 62
     0
440
 16777216
100
AcDbPoint
 10
469.5070477391631
 20
439.2946805573552
 30
0.0
  0
POINT
  5
86DD
330
7CA1
100
AcDbEntity
  8
Defpoints
  6
Continuous
 62
     0
440
 16777216
100
AcDbPoint
 10
469.5070477391631
 20
325.2946805573554
 30
0.0
  0
POINT
  5
86DE
330
7CA1
100
AcDbEntity
  8
Defpoints
  6
Continuous
 62
     0
440
 16777216
100
AcDbPoint
 10
489.5070477391631
 20
325.2946805573554
 30
0.0
  0
ENDBLK
  5
7CA3
330
7CA1
100
AcDbEntity
  8
0
100
AcDbBlockEnd
  0
BLOCK
  5
7CAE
330
7CAD
100
AcDbEntity
  8
0
100
AcDbBlockBegin
  2
*D24
 70
     1
 10
0.0
 20
0.0
 30
0.0
  3
*D24
  1

  0
LINE
  5
862D
330
7CAD
100
AcDbEntity
  8
30
  6
Continuous
 62
     0
440
 16777216
370
    -2
100
AcDbLine
 10
265.4001836098379
 20
384.9114088899767
 30
0.0
 11
265.4001836098379
 21
265.043151492181
 31
0.0
  0
LINE
  5
862E
330
7CAD
100
AcDbEntity
  8
30
  6
Continuous
 62
     0
440
 16777216
370
    -2
100
AcDbLine
 10
360.9001823730882
 20
319.7507754607403
 30
0.0
 11
360.9001823730882
 21
265.043151492181
 31
0.0
  0
LINE
  5
862F
330
7CAD
100
AcDbEntity
  8
30
  6
Continuous
 62
     0
440
 16777216
370
    -2
100
AcDbLine
 10
267.4001836098379
 20
265.5431514921811
 30
0.0
 11
358.9001823730882
 21
265.5431514921811
 31
0.0
  0
INSERT
  5
8630
330
7CAD
100
AcDbEntity
  8
30
  6
Continuous
 62
     0
440
 16777216
370
    -2
100
AcDbBlockReference
  2
_OPEN
 10
265.4001836098379
 20
265.5431514921811
 30
0.0
 41
2.0
 42
2.0
 43
2.0
 50
180.0
  0
INSERT
  5
8631
330
7CAD
100
AcDbEntity
  8
30
  6
Continuous
 62
     0
440
 16777216
370
    -2
100
AcDbBlockReference
  2
_OPEN
 10
360.9001823730882
 20
265.5431514921811
 30
0.0
 41
2.0
 42
2.0
 43
2.0
  0
MTEXT
  5
8632
330
7CAD
100
AcDbEntity
  8
30
  6
Continuous
 62
     0
440
 16777216
100
AcDbMText
 10
313.150182991463
 20
270.543151492181
 30
0.0
 40
6.0
 41
0.0
 46
0.0
 71
     5
 72
     1
  1
\A1;95.5
 73
     1
 44
1.0
 90
        3
 63
     9
421
 13158600
 45
1.1
441
        0
  0
POINT
  5
8633
330
7CAD
100
AcDbEntity
  8
Defpoints
  6
Continuous
 62
     0
440
 16777216
100
AcDbPoint
 10
265.4001836098379
 20
385.9114088899767
 30
0.0
  0
POINT
  5
8634
330
7CAD
100
AcDbEntity
  8
Defpoints
  6
Continuous
 62
     0
440
 16777216
100
AcDbPoint
 10
360.9001823730882
 20
320.7507754607405
 30
0.0
  0
POINT
  5
8635
330
7CAD
100
AcDbEntity
  8
Defpoints
  6
Continuous
 62
     0
440
 16777216
100
AcDbPoint
 10
360.9001823730882
 20
265.5431514921811
 30
0.0
  0
ENDBLK
  5
7CAF
330
7CAD
100
AcDbEntity
  8
0
100
AcDbBlockEnd
  0
BLOCK
  5
7CBA
330
7CB9
100
AcDbEntity
  8
0
100
AcDbBlockBegin
  2
*D25
 70
     1
 10
0.0
 20
0.0
 30
0.0
  3
*D25
  1

  0
LINE
  5
8636
330
7CB9
100
AcDbEntity
  8
30
  6
Continuous
 62
     0
440
 16777216
370
    -2
100
AcDbLine
 10
282.4001836098377
 20
359.9114088899767
 30
0.0
 11
282.4001836098377
 21
276.4634192587379
 31
0.0
  0
LINE
  5
8637
330
7CB9
100
AcDbEntity
  8
30
  6
Continuous
 62
     0
440
 16777216
370
    -2
100
AcDbLine
 10
288.9001836098377
 20
353.8565085252878
 30
0.0
 11
288.9001836098377
 21
276.4634192587379
 31
0.0
  0
LINE
  5
8638
330
7CB9
100
AcDbEntity
  8
30
  6
Continuous
 62
     0
440
 16777216
370
    -2
100
AcDbLine
 10
290.9001836098377
 20
276.9634192587379
 30
0.0
 11
292.9001836098377
 21
276.9634192587379
 31
0.0
  0
LINE
  5
8639
330
7CB9
100
AcDbEntity
  8
30
  6
Continuous
 62
     0
440
 16777216
370
    -2
100
AcDbLine
 10
280.4001836098377
 20
276.9634192587379
 30
0.0
 11
264.8206381552923
 21
276.9634192587379
 31
0.0
  0
INSERT
  5
863A
330
7CB9
100
AcDbEntity
  8
30
  6
Continuous
 62
     0
440
 16777216
370
    -2
100
AcDbBlockReference
  2
_OPEN
 10
288.9001836098377
 20
276.9634192587379
 30
0.0
 41
2.0
 42
2.0
 43
2.0
 50
180.0
  0
INSERT
  5
863B
330
7CB9
100
AcDbEntity
  8
30
  6
Continuous
 62
     0
440
 16777216
370
    -2
100
AcDbBlockReference
  2
_OPEN
 10
282.4001836098377
 20
276.9634192587379
 30
0.0
 41
2.0
 42
2.0
 43
2.0
  0
MTEXT
  5
863C
330
7CB9
100
AcDbEntity
  8
30
  6
Continuous
 62
     0
440
 16777216
100
AcDbMText
 10
271.610410882565
 20
281.9634192587379
 30
0.0
 40
6.0
 41
0.0
 46
0.0
 71
     5
 72
     1
  1
\A1;6.5
 73
     1
 44
1.0
 90
        3
 63
     9
421
 13158600
 45
1.1
441
        0
  0
POINT
  5
863D
330
7CB9
100
AcDbEntity
  8
Defpoints
  6
Continuous
 62
     0
440
 16777216
100
AcDbPoint
 10
282.4001836098377
 20
360.9114088899767
 30
0.0
  0
POINT
  5
863E
330
7CB9
100
AcDbEntity
  8
Defpoints
  6
Continuous
 62
     0
440
 16777216
100
AcDbPoint
 10
288.9001836098377
 20
354.8565085252878
 30
0.0
  0
POINT
  5
863F
330
7CB9
100
AcDbEntity
  8
Defpoints
  6
Continuous
 62
     0
440
 16777216
100
AcDbPoint
 10
288.9001836098377
 20
276.9634192587379
 30
0.0
  0
ENDBLK
  5
7CBB
330
7CB9
100
AcDbEntity
  8
0
100
AcDbBlockEnd
  0
BLOCK
  5
7CC7
330
7CC6
100
AcDbEntity
  8
0
100
AcDbBlockBegin
  2
*D26
 70
     1
 10
0.0
 20
0.0
 30
0.0
  3
*D26
  1

  0
LINE
  5
8640
330
7CC6
100
AcDbEntity
  8
30
  6
Continuous
 62
     0
440
 16777216
370
    -2
100
AcDbLine
 10
288.9001836098377
 20
348.7223597174827
 30
0.0
 11
288.9001836098377
 21
276.4634192587379
 31
0.0
  0
LINE
  5
8641
330
7CC6
100
AcDbEntity
  8
30
  6
Continuous
 62
     0
440
 16777216
370
    -2
100
AcDbLine
 10
360.9001823730882
 20
319.7507754607403
 30
0.0
 11
360.9001823730882
 21
276.4634192587379
 31
0.0
  0
LINE
  5
8642
330
7CC6
100
AcDbEntity
  8
30
  6
Continuous
 62
     0
440
 16777216
370
    -2
100
AcDbLine
 10
290.9001836098377
 20
276.9634192587379
 30
0.0
 11
358.9001823730882
 21
276.9634192587379
 31
0.0
  0
INSERT
  5
8643
330
7CC6
100
AcDbEntity
  8
30
  6
Continuous
 62
     0
440
 16777216
370
    -2
100
AcDbBlockReference
  2
_OPEN
 10
288.9001836098377
 20
276.9634192587379
 30
0.0
 41
2.0
 42
2.0
 43
2.0
 50
180.0
  0
INSERT
  5
8644
330
7CC6
100
AcDbEntity
  8
30
  6
Continuous
 62
     0
440
 16777216
370
    -2
100
AcDbBlockReference
  2
_OPEN
 10
360.9001823730882
 20
276.9634192587379
 30
0.0
 41
2.0
 42
2.0
 43
2.0
  0
MTEXT
  5
8645
330
7CC6
100
AcDbEntity
  8
30
  6
Continuous
 62
     0
440
 16777216
100
AcDbMText
 10
324.9001829914629
 20
281.9634192587379
 30
0.0
 40
6.0
 41
0.0
 46
0.0
 71
     5
 72
     1
  1
\A1;72
 73
     1
 44
1.0
 90
        3
 63
     9
421
 13158600
 45
1.1
441
        0
  0
POINT
  5
8646
330
7CC6
100
AcDbEntity
  8
Defpoints
  6
Continuous
 62
     0
440
 16777216
100
AcDbPoint
 10
288.9001836098377
 20
349.7223597174827
 30
0.0
  0
POINT
  5
8647
330
7CC6
100
AcDbEntity
  8
Defpoints
  6
Continuous
 62
     0
440
 16777216
100
AcDbPoint
 10
360.9001823730882
 20
320.7507754607405
 30
0.0
  0
POINT
  5
8648
330
7CC6
100
AcDbEntity
  8
Defpoints
  6
Continuous
 62
     0
440
 16777216
100
AcDbPoint
 10
360.9001823730882
 20
276.9634192587379
 30
0.0
  0
ENDBLK
  5
7CC8
330
7CC6
100
AcDbEntity
  8
0
100
AcDbBlockEnd
  0
BLOCK
  5
7CD3
330
7CD2
100
AcDbEntity
  8
0
100
AcDbBlockBegin
  2
*D27
 70
     1
 10
0.0
 20
0.0
 30
0.0
  3
*D27
  1

  0
LINE
  5
8649
330
7CD2
100
AcDbEntity
  8
30
  6
Continuous
 62
     0
440
 16777216
370
    -2
100
AcDbLine
 10
292.9001836098377
 20
323.2711775736896
 30
0.0
 11
292.9001836098377
 21
287.3178846470682
 31
0.0
  0
LINE
  5
864A
330
7CD2
100
AcDbEntity
  8
30
  6
Continuous
 62
     0
440
 16777216
370
    -2
100
AcDbLine
 10
360.9001823730882
 20
319.7507754607403
 30
0.0
 11
360.9001823730882
 21
287.3178846470682
 31
0.0
  0
LINE
  5
864B
330
7CD2
100
AcDbEntity
  8
30
  6
Continuous
 62
     0
440
 16777216
370
    -2
100
AcDbLine
 10
294.9001836098377
 20
287.8178846470682
 30
0.0
 11
358.9001823730882
 21
287.8178846470682
 31
0.0
  0
INSERT
  5
864C
330
7CD2
100
AcDbEntity
  8
30
  6
Continuous
 62
     0
440
 16777216
370
    -2
100
AcDbBlockReference
  2
_OPEN
 10
292.9001836098377
 20
287.8178846470682
 30
0.0
 41
2.0
 42
2.0
 43
2.0
 50
180.0
  0
INSERT
  5
864D
330
7CD2
100
AcDbEntity
  8
30
  6
Continuous
 62
     0
440
 16777216
370
    -2
100
AcDbBlockReference
  2
_OPEN
 10
360.9001823730882
 20
287.8178846470682
 30
0.0
 41
2.0
 42
2.0
 43
2.0
  0
MTEXT
  5
864E
330
7CD2
100
AcDbEntity
  8
30
  6
Continuous
 62
     0
440
 16777216
100
AcDbMText
 10
326.9001829914629
 20
292.8178846470682
 30
0.0
 40
6.0
 41
0.0
 46
0.0
 71
     5
 72
     1
  1
\A1;68
 73
     1
 44
1.0
 90
        3
 63
     9
421
 13158600
 45
1.1
441
        0
  0
POINT
  5
864F
330
7CD2
100
AcDbEntity
  8
Defpoints
  6
Continuous
 62
     0
440
 16777216
100
AcDbPoint
 10
292.9001836098377
 20
324.2711775736895
 30
0.0
  0
POINT
  5
8650
330
7CD2
100
AcDbEntity
  8
Defpoints
  6
Continuous
 62
     0
440
 16777216
100
AcDbPoint
 10
360.9001823730882
 20
320.7507754607405
 30
0.0
  0
POINT
  5
8651
330
7CD2
100
AcDbEntity
  8
Defpoints
  6
Continuous
 62
     0
440
 16777216
100
AcDbPoint
 10
360.9001823730882
 20
287.8178846470682
 30
0.0
  0
ENDBLK
  5
7CD4
330
7CD2
100
AcDbEntity
  8
0
100
AcDbBlockEnd
  0
BLOCK
  5
7CDF
330
7CDE
100
AcDbEntity
  8
0
100
AcDbBlockBegin
  2
*D28
 70
     1
 10
0.0
 20
0.0
 30
0.0
  3
*D28
  1

  0
LINE
  5
8652
330
7CDE
100
AcDbEntity
  8
30
  6
Continuous
 62
     0
440
 16777216
370
    -2
100
AcDbLine
 10
300.900182373088
 20
319.7507754607403
 30
0.0
 11
300.900182373088
 21
297.6180743723132
 31
0.0
  0
LINE
  5
8653
330
7CDE
100
AcDbEntity
  8
30
  6
Continuous
 62
     0
440
 16777216
370
    -2
100
AcDbLine
 10
360.9001823730882
 20
319.7507754607403
 30
0.0
 11
360.9001823730882
 21
297.6180743723132
 31
0.0
  0
LINE
  5
8654
330
7CDE
100
AcDbEntity
  8
30
  6
Continuous
 62
     0
440
 16777216
370
    -2
100
AcDbLine
 10
302.900182373088
 20
298.1180743723132
 30
0.0
 11
358.9001823730882
 21
298.1180743723132
 31
0.0
  0
INSERT
  5
8655
330
7CDE
100
AcDbEntity
  8
30
  6
Continuous
 62
     0
440
 16777216
370
    -2
100
AcDbBlockReference
  2
_OPEN
 10
300.900182373088
 20
298.1180743723132
 30
0.0
 41
2.0
 42
2.0
 43
2.0
 50
180.0
  0
INSERT
  5
8656
330
7CDE
100
AcDbEntity
  8
30
  6
Continuous
 62
     0
440
 16777216
370
    -2
100
AcDbBlockReference
  2
_OPEN
 10
360.9001823730882
 20
298.1180743723132
 30
0.0
 41
2.0
 42
2.0
 43
2.0
  0
MTEXT
  5
8657
330
7CDE
100
AcDbEntity
  8
30
  6
Continuous
 62
     0
440
 16777216
100
AcDbMText
 10
330.9001823730881
 20
303.1180743723132
 30
0.0
 40
6.0
 41
0.0
 46
0.0
 71
     5
 72
     1
  1
\A1;60
 73
     1
 44
1.0
 90
        3
 63
     9
421
 13158600
 45
1.1
441
        0
  0
POINT
  5
8658
330
7CDE
100
AcDbEntity
  8
Defpoints
  6
Continuous
 62
     0
440
 16777216
100
AcDbPoint
 10
300.900182373088
 20
320.7507754607405
 30
0.0
  0
POINT
  5
8659
330
7CDE
100
AcDbEntity
  8
Defpoints
  6
Continuous
 62
     0
440
 16777216
100
AcDbPoint
 10
360.9001823730882
 20
320.7507754607405
 30
0.0
  0
POINT
  5
865A
330
7CDE
100
AcDbEntity
  8
Defpoints
  6
Continuous
 62
     0
440
 16777216
100
AcDbPoint
 10
360.9001823730882
 20
298.1180743723132
 30
0.0
  0
ENDBLK
  5
7CE0
330
7CDE
100
AcDbEntity
  8
0
100
AcDbBlockEnd
  0
BLOCK
  5
7D8C
330
7D8B
100
AcDbEntity
  8
0
100
AcDbBlockBegin
  2
*D29
 70
     1
 10
0.0
 20
0.0
 30
0.0
  3
*D29
  1

  0
LINE
  5
865B
330
7D8B
100
AcDbEntity
  8
30
 62
     0
440
 16777216
370
    -2
100
AcDbLine
 10
78.22161510524551
 20
316.36617178278
 30
0.0
 11
78.22161510524551
 21
278.8653314905109
 31
0.0
  0
LINE
  5
865C
330
7D8B
100
AcDbEntity
  8
30
 62
     0
440
 16777216
370
    -2
100
AcDbLine
 10
198.2216151052455
 20
316.36617178278
 30
0.0
 11
198.2216151052455
 21
278.8653314905109
 31
0.0
  0
LINE
  5
865D
330
7D8B
100
AcDbEntity
  8
30
 62
     0
440
 16777216
370
    -2
100
AcDbLine
 10
80.22161510524552
 20
279.3653314905109
 30
0.0
 11
196.2216151052455
 21
279.3653314905109
 31
0.0
  0
INSERT
  5
865E
330
7D8B
100
AcDbEntity
  8
30
 62
     0
440
 16777216
370
    -2
100
AcDbBlockReference
  2
_OPEN
 10
78.22161510524551
 20
279.3653314905109
 30
0.0
 41
2.0
 42
2.0
 43
2.0
 50
180.0
  0
INSERT
  5
865F
330
7D8B
100
AcDbEntity
  8
30
 62
     0
440
 16777216
370
    -2
100
AcDbBlockReference
  2
_OPEN
 10
198.2216151052455
 20
279.3653314905109
 30
0.0
 41
2.0
 42
2.0
 43
2.0
  0
MTEXT
  5
8660
330
7D8B
100
AcDbEntity
  8
30
 62
     0
440
 16777216
100
AcDbMText
 10
138.2216151052455
 20
284.3653314905109
 30
0.0
 40
6.0
 41
0.0
 46
0.0
 71
     5
 72
     1
  1
\A1;120
 73
     1
 44
1.0
 90
        3
 63
     9
421
 13158600
 45
1.1
441
        0
  0
POINT
  5
8661
330
7D8B
100
AcDbEntity
  8
Defpoints
 62
     0
440
 16777216
100
AcDbPoint
 10
78.22161510524551
 20
317.36617178278
 30
0.0
  0
POINT
  5
8662
330
7D8B
100
AcDbEntity
  8
Defpoints
 62
     0
440
 16777216
100
AcDbPoint
 10
198.2216151052455
 20
317.36617178278
 30
0.0
  0
POINT
  5
8663
330
7D8B
100
AcDbEntity
  8
Defpoints
 62
     0
440
 16777216
100
AcDbPoint
 10
198.2216151052455
 20
279.3653314905109
 30
0.0
  0
ENDBLK
  5
7D8D
330
7D8B
100
AcDbEntity
  8
0
100
AcDbBlockEnd
  0
BLOCK
  5
7ED6
330
7ED5
100
AcDbEntity
  8
0
100
AcDbBlockBegin
  2
*D30
 70
     1
 10
0.0
 20
0.0
 30
0.0
  3
*D30
  1

  0
LINE
  5
8664
330
7ED5
100
AcDbEntity
  8
30
  6
Continuous
 62
     0
440
 16777216
370
    -2
100
AcDbLine
 10
153.162745467764
 20
652.1411216191424
 30
0.0
 11
153.162745467764
 21
717.5725690048461
 31
0.0
  0
LINE
  5
8665
330
7ED5
100
AcDbEntity
  8
30
  6
Continuous
 62
     0
440
 16777216
370
    -2
100
AcDbLine
 10
123.0288173079649
 20
702.0716410781883
 30
0.0
 11
123.0288173079649
 21
717.5725690048461
 31
0.0
  0
LINE
  5
8666
330
7ED5
100
AcDbEntity
  8
30
  6
Continuous
 62
     0
440
 16777216
370
    -2
100
AcDbLine
 10
151.162745467764
 20
717.0725690048461
 30
0.0
 11
125.0288173079649
 21
717.0725690048461
 31
0.0
  0
INSERT
  5
8667
330
7ED5
100
AcDbEntity
  8
30
  6
Continuous
 62
     0
440
 16777216
370
    -2
100
AcDbBlockReference
  2
_OPEN
 10
153.162745467764
 20
717.0725690048461
 30
0.0
 41
2.0
 42
2.0
 43
2.0
  0
INSERT
  5
8668
330
7ED5
100
AcDbEntity
  8
30
  6
Continuous
 62
     0
440
 16777216
370
    -2
100
AcDbBlockReference
  2
_OPEN
 10
123.0288173079649
 20
717.0725690048461
 30
0.0
 41
2.0
 42
2.0
 43
2.0
 50
180.0
  0
MTEXT
  5
8669
330
7ED5
100
AcDbEntity
  8
30
  6
Continuous
 62
     0
440
 16777216
100
AcDbMText
 10
135.1538558069047
 20
722.0725690048461
 30
0.0
 40
6.0
 41
0.0
 46
0.0
 71
     5
 72
     1
  1
\A1;30
 73
     1
 44
1.0
 90
        3
 63
     9
421
 13158600
 45
1.1
441
        0
  0
POINT
  5
866A
330
7ED5
100
AcDbEntity
  8
Defpoints
  6
Continuous
 62
     0
440
 16777216
100
AcDbPoint
 10
153.162745467764
 20
651.1411216191422
 30
0.0
  0
POINT
  5
866B
330
7ED5
100
AcDbEntity
  8
Defpoints
  6
Continuous
 62
     0
440
 16777216
100
AcDbPoint
 10
123.0288173079649
 20
701.0716410781883
 30
0.0
  0
POINT
  5
866C
330
7ED5
100
AcDbEntity
  8
Defpoints
  6
Continuous
 62
     0
440
 16777216
100
AcDbPoint
 10
123.0288173079649
 20
717.0725690048461
 30
0.0
  0
ENDBLK
  5
7ED7
330
7ED5
100
AcDbEntity
  8
0
100
AcDbBlockEnd
  0
BLOCK
  5
7EE2
330
7EE1
100
AcDbEntity
  8
0
100
AcDbBlockBegin
  2
*D31
 70
     1
 10
0.0
 20
0.0
 30
0.0
  3
*D31
  1

  0
LINE
  5
866D
330
7EE1
100
AcDbEntity
  8
30
  6
Continuous
 62
     0
440
 16777216
370
    -2
100
AcDbLine
 10
92.94598841060032
 20
652.0810857901331
 30
0.0
 11
92.94598841060032
 21
717.5810857901332
 31
0.0
  0
LINE
  5
866E
330
7EE1
100
AcDbEntity
  8
30
  6
Continuous
 62
     0
440
 16777216
370
    -2
100
AcDbLine
 10
123.0288175699292
 20
702.0716410781883
 30
0.0
 11
123.0288175699292
 21
717.5810857901332
 31
0.0
  0
LINE
  5
866F
330
7EE1
100
AcDbEntity
  8
30
  6
Continuous
 62
     0
440
 16777216
370
    -2
100
AcDbLine
 10
94.9459884106003
 20
717.0810857901332
 30
0.0
 11
121.0288175699292
 21
717.0810857901332
 31
0.0
  0
INSERT
  5
8670
330
7EE1
100
AcDbEntity
  8
30
  6
Continuous
 62
     0
440
 16777216
370
    -2
100
AcDbBlockReference
  2
_OPEN
 10
92.94598841060032
 20
717.0810857901332
 30
0.0
 41
2.0
 42
2.0
 43
2.0
 50
180.0
  0
INSERT
  5
8671
330
7EE1
100
AcDbEntity
  8
30
  6
Continuous
 62
     0
440
 16777216
370
    -2
100
AcDbBlockReference
  2
_OPEN
 10
123.0288175699292
 20
717.0810857901332
 30
0.0
 41
2.0
 42
2.0
 43
2.0
  0
MTEXT
  5
8672
330
7EE1
100
AcDbEntity
  8
30
  6
Continuous
 62
     0
440
 16777216
100
AcDbMText
 10
110.204956416425
 20
722.0810857901332
 30
0.0
 40
6.0
 41
0.0
 46
0.0
 71
     5
 72
     1
  1
\A1;30
 73
     1
 44
1.0
 90
        3
 63
     9
421
 13158600
 45
1.1
441
        0
  0
POINT
  5
8673
330
7EE1
100
AcDbEntity
  8
Defpoints
  6
Continuous
 62
     0
440
 16777216
100
AcDbPoint
 10
92.94598841060032
 20
651.0810857901331
 30
0.0
  0
POINT
  5
8674
330
7EE1
100
AcDbEntity
  8
Defpoints
  6
Continuous
 62
     0
440
 16777216
100
AcDbPoint
 10
123.0288175699292
 20
701.0716410781883
 30
0.0
  0
POINT
  5
8675
330
7EE1
100
AcDbEntity
  8
Defpoints
  6
Continuous
 62
     0
440
 16777216
100
AcDbPoint
 10
123.0288175699292
 20
717.0810857901332
 30
0.0
  0
ENDBLK
  5
7EE3
330
7EE1
100
AcDbEntity
  8
0
100
AcDbBlockEnd
  0
BLOCK
  5
7EEE
330
7EED
100
AcDbEntity
  8
0
100
AcDbBlockBegin
  2
*D32
 70
     1
 10
0.0
 20
0.0
 30
0.0
  3
*D32
  1

  0
LINE
  5
8676
330
7EED
100
AcDbEntity
  8
30
  6
Continuous
 62
     0
440
 16777216
370
    -2
100
AcDbLine
 10
82.05570491162495
 20
636.0810857901333
 30
0.0
 11
72.20495641642505
 21
636.0810857901333
 31
0.0
  0
LINE
  5
8677
330
7EED
100
AcDbEntity
  8
30
  6
Continuous
 62
     0
440
 16777216
370
    -2
100
AcDbLine
 10
84.20495641642503
 20
599.0810857901331
 30
0.0
 11
72.20495641642505
 21
599.0810857901331
 31
0.0
  0
LINE
  5
8678
330
7EED
100
AcDbEntity
  8
30
  6
Continuous
 62
     0
440
 16777216
370
    -2
100
AcDbLine
 10
72.70495641642504
 20
634.0810857901333
 30
0.0
 11
72.70495641642503
 21
601.0810857901333
 31
0.0
  0
INSERT
  5
8679
330
7EED
100
AcDbEntity
  8
30
  6
Continuous
 62
     0
440
 16777216
370
    -2
100
AcDbBlockReference
  2
_OPEN
 10
72.70495641642504
 20
636.0810857901333
 30
0.0
 41
2.0
 42
2.0
 43
2.0
 50
90.0
  0
INSERT
  5
867A
330
7EED
100
AcDbEntity
  8
30
  6
Continuous
 62
     0
440
 16777216
370
    -2
100
AcDbBlockReference
  2
_OPEN
 10
72.70495641642503
 20
599.0810857901331
 30
0.0
 41
2.0
 42
2.0
 43
2.0
 50
270.0
  0
MTEXT
  5
867B
330
7EED
100
AcDbEntity
  8
30
  6
Continuous
 62
     0
440
 16777216
100
AcDbMText
 10
67.70495641642495
 20
617.5810857901333
 30
0.0
 40
6.0
 41
0.0
 46
0.0
 71
     5
 72
     1
  1
\A1;37
 11
0.0000000000000001
 21
1.0
 31
0.0
 73
     1
 44
1.0
 90
        3
 63
     9
421
 13158600
 45
1.1
441
        0
  0
POINT
  5
867C
330
7EED
100
AcDbEntity
  8
Defpoints
  6
Continuous
 62
     0
440
 16777216
100
AcDbPoint
 10
83.05570491162496
 20
636.0810857901333
 30
0.0
  0
POINT
  5
867D
330
7EED
100
AcDbEntity
  8
Defpoints
  6
Continuous
 62
     0
440
 16777216
100
AcDbPoint
 10
85.20495641642503
 20
599.0810857901331
 30
0.0
  0
POINT
  5
867E
330
7EED
100
AcDbEntity
  8
Defpoints
  6
Continuous
 62
     0
440
 16777216
100
AcDbPoint
 10
72.70495641642503
 20
599.0810857901331
 30
0.0
  0
ENDBLK
  5
7EEF
330
7EED
100
AcDbEntity
  8
0
100
AcDbBlockEnd
  0
BLOCK
  5
7EFA
330
7EF9
100
AcDbEntity
  8
0
100
AcDbBlockBegin
  2
*D33
 70
     1
 10
0.0
 20
0.0
 30
0.0
  3
*D33
  1

  0
LINE
  5
867F
330
7EF9
100
AcDbEntity
  8
30
  6
Continuous
 62
     0
440
 16777216
370
    -2
100
AcDbLine
 10
96.70495641642503
 20
651.0810857901333
 30
0.0
 11
62.20495641642504
 21
651.0810857901333
 31
0.0
  0
LINE
  5
8680
330
7EF9
100
AcDbEntity
  8
30
  6
Continuous
 62
     0
440
 16777216
370
    -2
100
AcDbLine
 10
84.20495641642503
 20
599.0810857901331
 30
0.0
 11
62.20495641642504
 21
599.0810857901331
 31
0.0
  0
LINE
  5
8681
330
7EF9
100
AcDbEntity
  8
30
  6
Continuous
 62
     0
440
 16777216
370
    -2
100
AcDbLine
 10
62.70495641642503
 20
649.0810857901331
 30
0.0
 11
62.70495641642503
 21
601.0810857901333
 31
0.0
  0
INSERT
  5
8682
330
7EF9
100
AcDbEntity
  8
30
  6
Continuous
 62
     0
440
 16777216
370
    -2
100
AcDbBlockReference
  2
_OPEN
 10
62.70495641642503
 20
651.0810857901333
 30
0.0
 41
2.0
 42
2.0
 43
2.0
 50
90.0
  0
INSERT
  5
8683
330
7EF9
100
AcDbEntity
  8
30
  6
Continuous
 62
     0
440
 16777216
370
    -2
100
AcDbBlockReference
  2
_OPEN
 10
62.70495641642503
 20
599.0810857901331
 30
0.0
 41
2.0
 42
2.0
 43
2.0
 50
270.0
  0
MTEXT
  5
8684
330
7EF9
100
AcDbEntity
  8
30
  6
Continuous
 62
     0
440
 16777216
100
AcDbMText
 10
57.70495641642494
 20
625.0810857901333
 30
0.0
 40
6.0
 41
0.0
 46
0.0
 71
     5
 72
     1
  1
\A1;52
 11
0.0000000000000001
 21
1.0
 31
0.0
 73
     1
 44
1.0
 90
        3
 63
     9
421
 13158600
 45
1.1
441
        0
  0
POINT
  5
8685
330
7EF9
100
AcDbEntity
  8
Defpoints
  6
Continuous
 62
     0
440
 16777216
100
AcDbPoint
 10
97.70495641642504
 20
651.0810857901333
 30
0.0
  0
POINT
  5
8686
330
7EF9
100
AcDbEntity
  8
Defpoints
  6
Continuous
 62
     0
440
 16777216
100
AcDbPoint
 10
85.20495641642503
 20
599.0810857901331
 30
0.0
  0
POINT
  5
8687
330
7EF9
100
AcDbEntity
  8
Defpoints
  6
Continuous
 62
     0
440
 16777216
100
AcDbPoint
 10
62.70495641642503
 20
599.0810857901331
 30
0.0
  0
ENDBLK
  5
7EFB
330
7EF9
100
AcDbEntity
  8
0
100
AcDbBlockEnd
  0
BLOCK
  5
7F06
330
7F05
100
AcDbEntity
  8
0
100
AcDbBlockBegin
  2
*D34
 70
     1
 10
0.0
 20
0.0
 30
0.0
  3
*D34
  1

  0
LINE
  5
8688
330
7F05
100
AcDbEntity
  8
30
  6
Continuous
 62
     0
440
 16777216
370
    -2
100
AcDbLine
 10
140.924839602406
 20
606.1207496432817
 30
0.0
 11
216.7006987779528
 21
606.1207496432817
 31
0.0
  0
LINE
  5
8689
330
7F05
100
AcDbEntity
  8
30
  6
Continuous
 62
     0
440
 16777216
370
    -2
100
AcDbLine
 10
199.1972855906546
 20
599.0810857901331
 30
0.0
 11
216.7006987779528
 21
599.0810857901331
 31
0.0
  0
LINE
  5
868A
330
7F05
100
AcDbEntity
  8
30
  6
Continuous
 62
     0
440
 16777216
370
    -2
100
AcDbLine
 10
216.2006987779528
 20
608.1207496432817
 30
0.0
 11
216.2006987779528
 21
610.1207496432818
 31
0.0
  0
LINE
  5
868B
330
7F05
100
AcDbEntity
  8
30
  6
Continuous
 62
     0
440
 16777216
370
    -2
100
AcDbLine
 10
216.2006987779528
 20
597.0810857901333
 30
0.0
 11
216.2006987779528
 21
595.0810857901331
 31
0.0
  0
LINE
  5
868C
330
7F05
100
AcDbEntity
  8
30
  6
Continuous
 62
     0
440
 16777216
370
    -2
100
AcDbLine
 10
216.2006987779528
 20
619.4004039719514
 30
0.0
 11
216.2006987779528
 21
606.1207496432817
 31
0.0
  0
MTEXT
  5
868D
330
7F05
100
AcDbEntity
  8
30
  6
Continuous
 62
     0
440
 16777216
100
AcDbMText
 10
211.2006987779527
 20
615.7810857901332
 30
0.0
 40
6.0
 41
0.0
 46
0.0
 71
     5
 72
     1
  1
\A1;7
 11
0.0000000000000001
 21
1.0
 31
0.0
 73
     1
 44
1.0
 90
        3
 63
     9
421
 13158600
 45
1.1
441
        0
  0
LINE
  5
868E
330
7F05
100
AcDbEntity
  8
30
  6
Continuous
 62
     0
440
 16777216
370
    -2
100
AcDbLine
 10
216.2006987779528
 20
606.1207496432817
 30
0.0
 11
216.2006987779528
 21
599.0810857901331
 31
0.0
  0
INSERT
  5
868F
330
7F05
100
AcDbEntity
  8
30
  6
Continuous
 62
     0
440
 16777216
370
    -2
100
AcDbBlockReference
  2
_OPEN
 10
216.2006987779528
 20
606.1207496432817
 30
0.0
 41
2.0
 42
2.0
 43
2.0
 50
270.0
  0
INSERT
  5
8690
330
7F05
100
AcDbEntity
  8
30
  6
Continuous
 62
     0
440
 16777216
370
    -2
100
AcDbBlockReference
  2
_OPEN
 10
216.2006987779528
 20
599.0810857901331
 30
0.0
 41
2.0
 42
2.0
 43
2.0
 50
90.0
  0
POINT
  5
8691
330
7F05
100
AcDbEntity
  8
Defpoints
  6
Continuous
 62
     0
440
 16777216
100
AcDbPoint
 10
139.924839602406
 20
606.1207496432817
 30
0.0
  0
POINT
  5
8692
330
7F05
100
AcDbEntity
  8
Defpoints
  6
Continuous
 62
     0
440
 16777216
100
AcDbPoint
 10
198.1972855906546
 20
599.0810857901331
 30
0.0
  0
POINT
  5
8693
330
7F05
100
AcDbEntity
  8
Defpoints
  6
Continuous
 62
     0
440
 16777216
100
AcDbPoint
 10
216.2006987779528
 20
599.0810857901331
 30
0.0
  0
ENDBLK
  5
7F07
330
7F05
100
AcDbEntity
  8
0
100
AcDbBlockEnd
  0
BLOCK
  5
7F13
330
7F12
100
AcDbEntity
  8
0
100
AcDbBlockBegin
  2
*D35
 70
     1
 10
0.0
 20
0.0
 30
0.0
  3
*D35
  1

  0
LINE
  5
8798
330
7F12
100
AcDbEntity
  8
30
  6
Continuous
 62
     0
440
 16777216
370
    -2
100
AcDbLine
 10
154.2138460772843
 20
642.7250590044187
 30
0.0
 11
170.6692627898417
 21
642.7250590044187
 31
0.0
  0
LINE
  5
8799
330
7F12
100
AcDbEntity
  8
30
  6
Continuous
 62
     0
440
 16777216
370
    -2
100
AcDbLine
 10
154.2155605503797
 20
630.1692557613653
 30
0.0
 11
170.6692627898417
 21
630.1692557613653
 31
0.0
  0
LINE
  5
879A
330
7F12
100
AcDbEntity
  8
30
  6
Continuous
 62
     0
440
 16777216
370
    -2
100
AcDbLine
 10
170.1692627898417
 20
640.7250590044188
 30
0.0
 11
170.1692627898417
 21
632.1692557613653
 31
0.0
  0
LINE
  5
879B
330
7F12
100
AcDbEntity
  8
30
  6
Continuous
 62
     0
440
 16777216
370
    -2
100
AcDbLine
 10
170.1692627898417
 20
630.1692557613653
 30
0.0
 11
170.1692627898417
 21
610.6692557613653
 31
0.0
  0
INSERT
  5
879C
330
7F12
100
AcDbEntity
  8
30
  6
Continuous
 62
     0
440
 16777216
370
    -2
100
AcDbBlockReference
  2
_OPEN
 10
170.1692627898417
 20
642.7250590044187
 30
0.0
 41
2.0
 42
2.0
 43
2.0
 50
90.0
  0
INSERT
  5
879D
330
7F12
100
AcDbEntity
  8
30
  6
Continuous
 62
     0
440
 16777216
370
    -2
100
AcDbBlockReference
  2
_OPEN
 10
170.1692627898417
 20
630.1692557613653
 30
0.0
 41
2.0
 42
2.0
 43
2.0
 50
270.0
  0
MTEXT
  5
879E
330
7F12
100
AcDbEntity
  8
30
  6
Continuous
 62
     0
440
 16777216
100
AcDbMText
 10
165.1692627898416
 20
619.4192557613653
 30
0.0
 40
6.0
 41
0.0
 46
0.0
 71
     5
 72
     1
  1
\A1;12.5
 11
0.0000000000000001
 21
1.0
 31
0.0
 73
     1
 44
1.0
 90
        3
 63
     9
421
 13158600
 45
1.1
441
        0
  0
POINT
  5
879F
330
7F12
100
AcDbEntity
  8
Defpoints
  6
Continuous
 62
     0
440
 16777216
100
AcDbPoint
 10
153.2138460772843
 20
642.7250590044187
 30
0.0
  0
POINT
  5
87A0
330
7F12
100
AcDbEntity
  8
Defpoints
  6
Continuous
 62
     0
440
 16777216
100
AcDbPoint
 10
153.2155605503797
 20
630.1692557613653
 30
0.0
  0
POINT
  5
87A1
330
7F12
100
AcDbEntity
  8
Defpoints
  6
Continuous
 62
     0
440
 16777216
100
AcDbPoint
 10
170.1692627898417
 20
630.1692557613653
 30
0.0
  0
ENDBLK
  5
7F14
330
7F12
100
AcDbEntity
  8
0
100
AcDbBlockEnd
  0
BLOCK
  5
7F20
330
7F1F
100
AcDbEntity
  8
0
100
AcDbBlockBegin
  2
*D36
 70
     1
 10
0.0
 20
0.0
 30
0.0
  3
*D36
  1

  0
LINE
  5
869E
330
7F1F
100
AcDbEntity
  8
30
  6
Continuous
 62
     0
440
 16777216
370
    -2
100
AcDbLine
 10
104.9702968344251
 20
686.0810857901333
 30
0.0
 11
52.20495641642505
 21
686.0810857901333
 31
0.0
  0
LINE
  5
869F
330
7F1F
100
AcDbEntity
  8
30
  6
Continuous
 62
     0
440
 16777216
370
    -2
100
AcDbLine
 10
84.20495641642503
 20
599.0810857901331
 30
0.0
 11
52.20495641642504
 21
599.0810857901331
 31
0.0
  0
LINE
  5
86A0
330
7F1F
100
AcDbEntity
  8
30
  6
Continuous
 62
     0
440
 16777216
370
    -2
100
AcDbLine
 10
52.70495641642503
 20
684.0810857901333
 30
0.0
 11
52.70495641642503
 21
601.0810857901333
 31
0.0
  0
INSERT
  5
86A1
330
7F1F
100
AcDbEntity
  8
30
  6
Continuous
 62
     0
440
 16777216
370
    -2
100
AcDbBlockReference
  2
_OPEN
 10
52.70495641642503
 20
686.0810857901333
 30
0.0
 41
2.0
 42
2.0
 43
2.0
 50
90.0
  0
INSERT
  5
86A2
330
7F1F
100
AcDbEntity
  8
30
  6
Continuous
 62
     0
440
 16777216
370
    -2
100
AcDbBlockReference
  2
_OPEN
 10
52.70495641642503
 20
599.0810857901331
 30
0.0
 41
2.0
 42
2.0
 43
2.0
 50
270.0
  0
MTEXT
  5
86A3
330
7F1F
100
AcDbEntity
  8
30
  6
Continuous
 62
     0
440
 16777216
100
AcDbMText
 10
47.70495641642494
 20
642.5810857901333
 30
0.0
 40
6.0
 41
0.0
 46
0.0
 71
     5
 72
     1
  1
\A1;87
 11
0.0000000000000001
 21
1.0
 31
0.0
 73
     1
 44
1.0
 90
        3
 63
     9
421
 13158600
 45
1.1
441
        0
  0
POINT
  5
86A4
330
7F1F
100
AcDbEntity
  8
Defpoints
  6
Continuous
 62
     0
440
 16777216
100
AcDbPoint
 10
105.9702968344251
 20
686.0810857901333
 30
0.0
  0
POINT
  5
86A5
330
7F1F
100
AcDbEntity
  8
Defpoints
  6
Continuous
 62
     0
440
 16777216
100
AcDbPoint
 10
85.20495641642503
 20
599.0810857901331
 30
0.0
  0
POINT
  5
86A6
330
7F1F
100
AcDbEntity
  8
Defpoints
  6
Continuous
 62
     0
440
 16777216
100
AcDbPoint
 10
52.70495641642503
 20
599.0810857901331
 30
0.0
  0
ENDBLK
  5
7F21
330
7F1F
100
AcDbEntity
  8
0
100
AcDbBlockEnd
  0
BLOCK
  5
7F2C
330
7F2B
100
AcDbEntity
  8
0
100
AcDbBlockBegin
  2
*D37
 70
     1
 10
0.0
 20
0.0
 30
0.0
  3
*D37
  1

  0
LINE
  5
86A7
330
7F2B
100
AcDbEntity
  8
30
  6
Continuous
 62
     0
440
 16777216
370
    -2
100
AcDbLine
 10
121.704956416425
 20
701.0810857901332
 30
0.0
 11
42.20495641642506
 21
701.0810857901332
 31
0.0
  0
LINE
  5
86A8
330
7F2B
100
AcDbEntity
  8
30
  6
Continuous
 62
     0
440
 16777216
370
    -2
100
AcDbLine
 10
84.20495641642503
 20
599.0810857901331
 30
0.0
 11
42.20495641642503
 21
599.0810857901331
 31
0.0
  0
LINE
  5
86A9
330
7F2B
100
AcDbEntity
  8
30
  6
Continuous
 62
     0
440
 16777216
370
    -2
100
AcDbLine
 10
42.70495641642503
 20
699.0810857901331
 30
0.0
 11
42.70495641642503
 21
601.0810857901333
 31
0.0
  0
INSERT
  5
86AA
330
7F2B
100
AcDbEntity
  8
30
  6
Continuous
 62
     0
440
 16777216
370
    -2
100
AcDbBlockReference
  2
_OPEN
 10
42.70495641642503
 20
701.0810857901332
 30
0.0
 41
2.0
 42
2.0
 43
2.0
 50
90.0
  0
INSERT
  5
86AB
330
7F2B
100
AcDbEntity
  8
30
  6
Continuous
 62
     0
440
 16777216
370
    -2
100
AcDbBlockReference
  2
_OPEN
 10
42.70495641642503
 20
599.0810857901331
 30
0.0
 41
2.0
 42
2.0
 43
2.0
 50
270.0
  0
MTEXT
  5
86AC
330
7F2B
100
AcDbEntity
  8
30
  6
Continuous
 62
     0
440
 16777216
100
AcDbMText
 10
37.70495641642494
 20
650.0810857901333
 30
0.0
 40
6.0
 41
0.0
 46
0.0
 71
     5
 72
     1
  1
\A1;102
 11
0.0000000000000001
 21
1.0
 31
0.0
 73
     1
 44
1.0
 90
        3
 63
     9
421
 13158600
 45
1.1
441
        0
  0
POINT
  5
86AD
330
7F2B
100
AcDbEntity
  8
Defpoints
  6
Continuous
 62
     0
440
 16777216
100
AcDbPoint
 10
122.704956416425
 20
701.0810857901332
 30
0.0
  0
POINT
  5
86AE
330
7F2B
100
AcDbEntity
  8
Defpoints
  6
Continuous
 62
     0
440
 16777216
100
AcDbPoint
 10
85.20495641642503
 20
599.0810857901331
 30
0.0
  0
POINT
  5
86AF
330
7F2B
100
AcDbEntity
  8
Defpoints
  6
Continuous
 62
     0
440
 16777216
100
AcDbPoint
 10
42.70495641642503
 20
599.0810857901331
 30
0.0
  0
ENDBLK
  5
7F2D
330
7F2B
100
AcDbEntity
  8
0
100
AcDbBlockEnd
  0
BLOCK
  5
7F38
330
7F37
100
AcDbEntity
  8
0
100
AcDbBlockBegin
  2
*D38
 70
     1
 10
0.0
 20
0.0
 30
0.0
  3
*D38
  1

  0
LINE
  5
86B0
330
7F37
100
AcDbEntity
  8
30
  6
Continuous
 62
     0
440
 16777216
370
    -2
100
AcDbLine
 10
153.162745467764
 20
652.1411216191424
 30
0.0
 11
153.162745467764
 21
717.6411216191425
 31
0.0
  0
LINE
  5
86B1
330
7F37
100
AcDbEntity
  8
30
  6
Continuous
 62
     0
440
 16777216
370
    -2
100
AcDbLine
 10
183.2455746270928
 20
702.1316769071975
 30
0.0
 11
183.2455746270928
 21
717.6411216191425
 31
0.0
  0
LINE
  5
86B2
330
7F37
100
AcDbEntity
  8
30
  6
Continuous
 62
     0
440
 16777216
370
    -2
100
AcDbLine
 10
155.162745467764
 20
717.1411216191422
 30
0.0
 11
181.2455746270929
 21
717.1411216191422
 31
0.0
  0
INSERT
  5
86B3
330
7F37
100
AcDbEntity
  8
30
  6
Continuous
 62
     0
440
 16777216
370
    -2
100
AcDbBlockReference
  2
_OPEN
 10
153.162745467764
 20
717.1411216191422
 30
0.0
 41
2.0
 42
2.0
 43
2.0
 50
180.0
  0
INSERT
  5
86B4
330
7F37
100
AcDbEntity
  8
30
  6
Continuous
 62
     0
440
 16777216
370
    -2
100
AcDbBlockReference
  2
_OPEN
 10
183.2455746270928
 20
717.1411216191422
 30
0.0
 41
2.0
 42
2.0
 43
2.0
  0
MTEXT
  5
86B5
330
7F37
100
AcDbEntity
  8
30
  6
Continuous
 62
     0
440
 16777216
100
AcDbMText
 10
170.4217134735887
 20
722.1411216191425
 30
0.0
 40
6.0
 41
0.0
 46
0.0
 71
     5
 72
     1
  1
\A1;30
 73
     1
 44
1.0
 90
        3
 63
     9
421
 13158600
 45
1.1
441
        0
  0
POINT
  5
86B6
330
7F37
100
AcDbEntity
  8
Defpoints
  6
Continuous
 62
     0
440
 16777216
100
AcDbPoint
 10
153.162745467764
 20
651.1411216191422
 30
0.0
  0
POINT
  5
86B7
330
7F37
100
AcDbEntity
  8
Defpoints
  6
Continuous
 62
     0
440
 16777216
100
AcDbPoint
 10
183.2455746270928
 20
701.1316769071973
 30
0.0
  0
POINT
  5
86B8
330
7F37
100
AcDbEntity
  8
Defpoints
  6
Continuous
 62
     0
440
 16777216
100
AcDbPoint
 10
183.2455746270928
 20
717.1411216191422
 30
0.0
  0
ENDBLK
  5
7F39
330
7F37
100
AcDbEntity
  8
0
100
AcDbBlockEnd
  0
BLOCK
  5
7F44
330
7F43
100
AcDbEntity
  8
0
100
AcDbBlockBegin
  2
*D39
 70
     1
 10
0.0
 20
0.0
 30
0.0
  3
*D39
  1

  0
LINE
  5
8785
330
7F43
100
AcDbEntity
  8
30
  6
Continuous
 62
     0
440
 16777216
370
    -2
100
AcDbLine
 10
145.2641192137591
 20
650.0924458404107
 30
0.0
 11
145.2641192137591
 21
677.5810857901333
 31
0.0
  0
LINE
  5
8786
330
7F43
100
AcDbEntity
  8
30
  6
Continuous
 62
     0
440
 16777216
370
    -2
100
AcDbLine
 10
161.2342079038233
 20
650.1924458404109
 30
0.0
 11
161.2342079038233
 21
677.5810857901333
 31
0.0
  0
LINE
  5
8787
330
7F43
100
AcDbEntity
  8
30
  6
Continuous
 62
     0
440
 16777216
370
    -2
100
AcDbLine
 10
147.2641192137591
 20
677.0810857901333
 30
0.0
 11
159.2342079038233
 21
677.0810857901333
 31
0.0
  0
INSERT
  5
8788
330
7F43
100
AcDbEntity
  8
30
  6
Continuous
 62
     0
440
 16777216
370
    -2
100
AcDbBlockReference
  2
_OPEN
 10
145.2641192137591
 20
677.0810857901333
 30
0.0
 41
2.0
 42
2.0
 43
2.0
 50
180.0
  0
INSERT
  5
8789
330
7F43
100
AcDbEntity
  8
30
  6
Continuous
 62
     0
440
 16777216
370
    -2
100
AcDbBlockReference
  2
_OPEN
 10
161.2342079038233
 20
677.0810857901333
 30
0.0
 41
2.0
 42
2.0
 43
2.0
  0
MTEXT
  5
878A
330
7F43
100
AcDbEntity
  8
30
  6
Continuous
 62
     0
440
 16777216
100
AcDbMText
 10
153.2491635587911
 20
682.0810857901333
 30
0.0
 40
6.0
 41
0.0
 46
0.0
 71
     5
 72
     1
  1
\A1;16
 73
     1
 44
1.0
 90
        3
 63
     9
421
 13158600
 45
1.1
441
        0
  0
POINT
  5
878B
330
7F43
100
AcDbEntity
  8
Defpoints
  6
Continuous
 62
     0
440
 16777216
100
AcDbPoint
 10
145.2641192137591
 20
649.0924458404109
 30
0.0
  0
POINT
  5
878C
330
7F43
100
AcDbEntity
  8
Defpoints
  6
Continuous
 62
     0
440
 16777216
100
AcDbPoint
 10
161.2342079038233
 20
649.1924458404107
 30
0.0
  0
POINT
  5
878D
330
7F43
100
AcDbEntity
  8
Defpoints
  6
Continuous
 62
     0
440
 16777216
100
AcDbPoint
 10
161.2342079038233
 20
677.0810857901333
 30
0.0
  0
ENDBLK
  5
7F45
330
7F43
100
AcDbEntity
  8
0
100
AcDbBlockEnd
  0
BLOCK
  5
7FA3
330
7FA2
100
AcDbEntity
  8
0
100
AcDbBlockBegin
  2
*D40
 70
     1
 10
0.0
 20
0.0
 30
0.0
  3
*D40
  1

  0
LINE
  5
86B9
330
7FA2
100
AcDbEntity
  8
30
  6
Continuous
 62
     0
440
 16777216
370
    -2
100
AcDbLine
 10
148.944874240119
 20
637.14119875444
 30
0.0
 11
148.944874240119
 21
663.7597644987049
 31
0.0
  0
LINE
  5
86BA
330
7FA2
100
AcDbEntity
  8
30
  6
Continuous
 62
     0
440
 16777216
370
    -2
100
AcDbLine
 10
157.4828192915701
 20
637.14119875444
 30
0.0
 11
157.4828192915701
 21
663.7597644987049
 31
0.0
  0
LINE
  5
86BB
330
7FA2
100
AcDbEntity
  8
30
  6
Continuous
 62
     0
440
 16777216
370
    -2
100
AcDbLine
 10
150.944874240119
 20
663.259764498705
 30
0.0
 11
155.4828192915701
 21
663.259764498705
 31
0.0
  0
LINE
  5
86BC
330
7FA2
100
AcDbEntity
  8
30
  6
Continuous
 62
     0
440
 16777216
370
    -2
100
AcDbLine
 10
157.4828192915701
 20
663.259764498705
 30
0.0
 11
174.0560837865456
 21
663.259764498705
 31
0.0
  0
INSERT
  5
86BD
330
7FA2
100
AcDbEntity
  8
30
  6
Continuous
 62
     0
440
 16777216
370
    -2
100
AcDbBlockReference
  2
_OPEN
 10
148.944874240119
 20
663.259764498705
 30
0.0
 41
2.0
 42
2.0
 43
2.0
 50
180.0
  0
INSERT
  5
86BE
330
7FA2
100
AcDbEntity
  8
30
  6
Continuous
 62
     0
440
 16777216
370
    -2
100
AcDbBlockReference
  2
_OPEN
 10
157.4828192915701
 20
663.259764498705
 30
0.0
 41
2.0
 42
2.0
 43
2.0
  0
MTEXT
  5
86BF
330
7FA2
100
AcDbEntity
  8
30
  6
Continuous
 62
     0
440
 16777216
100
AcDbMText
 10
167.232220150182
 20
668.2597644987049
 30
0.0
 40
6.0
 41
0.0
 46
0.0
 71
     5
 72
     1
  1
\A1;8.5
 73
     1
 44
1.0
 90
        3
 63
     9
421
 13158600
 45
1.1
441
        0
  0
POINT
  5
86C0
330
7FA2
100
AcDbEntity
  8
Defpoints
  6
Continuous
 62
     0
440
 16777216
100
AcDbPoint
 10
148.944874240119
 20
636.14119875444
 30
0.0
  0
POINT
  5
86C1
330
7FA2
100
AcDbEntity
  8
Defpoints
  6
Continuous
 62
     0
440
 16777216
100
AcDbPoint
 10
157.4828192915701
 20
636.14119875444
 30
0.0
  0
POINT
  5
86C2
330
7FA2
100
AcDbEntity
  8
Defpoints
  6
Continuous
 62
     0
440
 16777216
100
AcDbPoint
 10
157.4828192915701
 20
663.259764498705
 30
0.0
  0
ENDBLK
  5
7FA4
330
7FA2
100
AcDbEntity
  8
0
100
AcDbBlockEnd
  0
BLOCK
  5
806E
330
806A
100
AcDbEntity
  8
0
100
AcDbBlockBegin
  2
A$C6CB5752B
 70
     0
 10
0.0
 20
0.0
 30
0.0
  3
A$C6CB5752B
  1

  0
LINE
  5
806B
330
806A
100
AcDbEntity
  8
0
100
AcDbLine
 10
0.0
 20
0.0
 30
0.0
 11
-262.0055925361933
 21
-180.3640260838654
 31
0.0
  0
ENDBLK
  5
806F
330
806A
100
AcDbEntity
  8
0
100
AcDbBlockEnd
  0
BLOCK
  5
8355
330
8354
100
AcDbEntity
  8
0
100
AcDbBlockBegin
  2
SW_CENTERMARKSYMBOL_18
 70
     0
 10
0.0
 20
0.0
 30
0.0
  3
SW_CENTERMARKSYMBOL_18
  1
SW_CENTERMARKSYMBOL_18
  0
LINE
  5
8356
330
8354
100
AcDbEntity
  8
SLD-0
 62
     0
100
AcDbLine
 10
0.0
 20
0.0
 30
0.0
 11
0.0
 21
1.0
 31
0.0
  0
LINE
  5
8357
330
8354
100
AcDbEntity
  8
SLD-0
 62
     0
100
AcDbLine
 10
0.0
 20
0.0
 30
0.0
 11
-1.0
 21
0.0
 31
0.0
  0
LINE
  5
8358
330
8354
100
AcDbEntity
  8
SLD-0
 62
     0
100
AcDbLine
 10
0.0
 20
0.0
 30
0.0
 11
0.0
 21
-1.0
 31
0.0
  0
LINE
  5
8359
330
8354
100
AcDbEntity
  8
SLD-0
 62
     0
100
AcDbLine
 10
0.0
 20
0.0
 30
0.0
 11
1.0
 21
0.0
 31
0.0
  0
LINE
  5
835A
330
8354
100
AcDbEntity
  8
SLD-0
 62
     0
100
AcDbLine
 10
0.0
 20
1.0
 30
0.0
 11
0.0
 21
1.8
 31
0.0
  0
LINE
  5
835B
330
8354
100
AcDbEntity
  8
SLD-0
 62
     0
100
AcDbLine
 10
-1.0
 20
0.0
 30
0.0
 11
-1.8
 21
0.0
 31
0.0
  0
LINE
  5
835C
330
8354
100
AcDbEntity
  8
SLD-0
 62
     0
100
AcDbLine
 10
0.0
 20
-1.0
 30
0.0
 11
0.0
 21
-1.8
 31
0.0
  0
LINE
  5
835D
330
8354
100
AcDbEntity
  8
SLD-0
 62
     0
100
AcDbLine
 10
1.0
 20
0.0
 30
0.0
 11
1.8
 21
0.0
 31
0.0
  0
ENDBLK
  5
835E
330
8354
100
AcDbEntity
  8
0
100
AcDbBlockEnd
  0
BLOCK
  5
83BB
330
83BA
100
AcDbEntity
  8
0
100
AcDbBlockBegin
  2
*D43
 70
     1
 10
0.0
 20
0.0
 30
0.0
  3
*D43
  1

  0
LINE
  5
86E8
330
83BA
100
AcDbEntity
  8
30
  6
Continuous
 62
     0
440
 16777216
370
    -2
100
AcDbLine
 10
110.4234844474863
 20
686.0810857901333
 30
0.0
 11
104.6691381488972
 21
686.0810857901333
 31
0.0
  0
LINE
  5
86E9
330
83BA
100
AcDbEntity
  8
30
  6
Continuous
 62
     0
440
 16777216
370
    -2
100
AcDbLine
 10
111.6131907033492
 20
663.1035607464736
 30
0.0
 11
104.6691381488972
 21
663.1035607464736
 31
0.0
  0
LINE
  5
86EA
330
83BA
100
AcDbEntity
  8
30
  6
Continuous
 62
     0
440
 16777216
370
    -2
100
AcDbLine
 10
105.1691381488972
 20
684.0810857901333
 30
0.0
 11
105.1691381488972
 21
665.1035607464738
 31
0.0
  0
INSERT
  5
86EB
330
83BA
100
AcDbEntity
  8
30
  6
Continuous
 62
     0
440
 16777216
370
    -2
100
AcDbBlockReference
  2
_OPEN
 10
105.1691381488972
 20
686.0810857901333
 30
0.0
 41
2.0
 42
2.0
 43
2.0
 50
90.0
  0
INSERT
  5
86EC
330
83BA
100
AcDbEntity
  8
30
  6
Continuous
 62
     0
440
 16777216
370
    -2
100
AcDbBlockReference
  2
_OPEN
 10
105.1691381488972
 20
663.1035607464736
 30
0.0
 41
2.0
 42
2.0
 43
2.0
 50
270.0
  0
MTEXT
  5
86ED
330
83BA
100
AcDbEntity
  8
30
  6
Continuous
 62
     0
440
 16777216
100
AcDbMText
 10
100.1691381488971
 20
674.5923232683034
 30
0.0
 40
6.0
 41
0.0
 46
0.0
 71
     5
 72
     1
  1
\A1;23
 11
0.0000000000000001
 21
1.0
 31
0.0
 73
     1
 44
1.0
 90
        3
 63
     9
421
 13158600
 45
1.1
441
        0
  0
POINT
  5
86EE
330
83BA
100
AcDbEntity
  8
Defpoints
  6
Continuous
 62
     0
440
 16777216
100
AcDbPoint
 10
111.4234844474863
 20
686.0810857901333
 30
0.0
  0
POINT
  5
86EF
330
83BA
100
AcDbEntity
  8
Defpoints
  6
Continuous
 62
     0
440
 16777216
100
AcDbPoint
 10
112.6131907033492
 20
663.1035607464736
 30
0.0
  0
POINT
  5
86F0
330
83BA
100
AcDbEntity
  8
Defpoints
  6
Continuous
 62
     0
440
 16777216
100
AcDbPoint
 10
105.1691381488972
 20
663.1035607464736
 30
0.0
  0
ENDBLK
  5
83BC
330
83BA
100
AcDbEntity
  8
0
100
AcDbBlockEnd
  0
ENDSEC
  0
SECTION
  2
ENTITIES
  0
MTEXT
  5
6620
330
1F
100
AcDbEntity
  8
19
  6
Continuous
 62
     7
100
AcDbMText
 10
326.3487103694694
 20
587.0387645767682
 30
0.0
 40
8.0
 41
0.0
 46
0.0
 71
     7
 72
     5
  1
PS125-NF (60-125A) 4P RC\PPS50-PF (60-125A) 4P RC\PPS125-PF (60-125A) 4P RC\PPS125-NE (60-125A) 4P RC\PPS125-PE (60-125A) 4P RC
  7
blockfont
 73
     1
 44
1.0
  0
LINE
  5
6621
330
1F
100
AcDbEntity
  8
10
100
AcDbLine
 10
168.1972855906546
 20
431.2636551379132
 30
0.0
 11
78.23551078473919
 21
431.2636551379132
 31
0.0
  0
LINE
  5
6622
330
1F
100
AcDbEntity
  8
10
100
AcDbLine
 10
168.1972855906546
 20
433.2725840386054
 30
0.0
 11
78.23076773351147
 21
433.2725840386054
 31
0.0
  0
LINE
  5
6624
330
1F
100
AcDbEntity
  8
16
 48
5.0
100
AcDbLine
 10
203.08677622805
 20
382.2946805573553
 30
0.0
 11
70.84659081878908
 21
382.2946805573553
 31
0.0
  0
LINE
  5
6627
330
1F
100
AcDbEntity
  8
17
 48
0.5
100
AcDbLine
 10
123.1972855906546
 20
434.3193573730026
 30
0.0
 11
123.1972855906546
 21
444.3195573730027
 31
0.0
  0
LINE
  5
662A
330
1F
100
AcDbEntity
  8
17
 48
0.5
100
AcDbLine
 10
153.3312134884889
 20
434.3193573730026
 30
0.0
 11
153.3312134884889
 21
444.3195573730027
 31
0.0
  0
LINE
  5
662B
330
1F
100
AcDbEntity
  8
17
 48
0.5
100
AcDbLine
 10
148.331113488489
 20
439.3194573730027
 30
0.0
 11
158.3313134884889
 21
439.3194573730027
 31
0.0
  0
LWPOLYLINE
  5
662C
330
1F
100
AcDbEntity
  8
10
100
AcDbPolyline
 90
        5
 70
     0
 43
0.0
 10
168.1972855906546
 20
317.36617178278
 10
168.1972855906546
 20
447.3661293207372
 10
78.23076773351147
 20
447.3661293207372
 10
78.23076773351147
 20
317.36617178278
 10
168.1972855906546
 20
317.36617178278
  0
LWPOLYLINE
  5
662D
330
1F
100
AcDbEntity
  8
10
100
AcDbPolyline
 90
        6
 70
     1
 43
0.0
 10
113.6513886482213
 20
447.3661293207372
 10
132.7562678747855
 20
447.3661293207372
 10
132.7562678747855
 20
436.259885619065
 42
-0.4144445394035128
 10
129.7539022535148
 20
433.259886551759
 10
116.6490230269506
 20
433.2702202819878
 42
-0.4139826230609387
 10
113.6513886482213
 20
436.2702193492935
  0
LWPOLYLINE
  5
662E
330
1F
100
AcDbEntity
  8
10
100
AcDbPolyline
 90
        6
 70
     1
 43
0.0
 10
143.7853165460556
 20
447.3661293207372
 10
162.8901957726199
 20
447.3661293207372
 10
162.8901957726199
 20
436.259885619065
 42
-0.3875051527158081
 10
160.1659298245315
 20
433.2725840386054
 10
146.782950924785
 20
433.2702202819878
 42
-0.4139826230609387
 10
143.7853165460556
 20
436.2702193492935
  0
LWPOLYLINE
  5
662F
330
1F
100
AcDbEntity
  8
10
100
AcDbPolyline
 90
        4
 70
     1
 43
0.0
 10
81.19467563323745
 20
407.3883422408274
 10
165.1946756332374
 20
407.3883422408274
 10
165.1946756332374
 20
357.3865392301367
 10
81.19467563323745
 20
357.3865392301367
  0
LINE
  5
6630
330
1F
100
AcDbEntity
  8
10
100
AcDbLine
 10
168.1972855906546
 20
333.6257059767973
 30
0.0
 11
78.23551078473919
 21
333.6257059767973
 31
0.0
  0
LINE
  5
6631
330
1F
100
AcDbEntity
  8
10
100
AcDbLine
 10
168.1972855906546
 20
331.6167770761055
 30
0.0
 11
78.23076773351147
 21
331.6167770761055
 31
0.0
  0
CIRCLE
  5
6632
330
1F
100
AcDbEntity
  8
22
  6
CONTINOUS
100
AcDbCircle
 10
138.2642498763688
 20
327.0766002002125
 30
0.0
 40
3.077821902690307
  0
LINE
  5
6633
330
1F
100
AcDbEntity
  8
17
 48
0.5
100
AcDbLine
 10
123.1972855906546
 20
330.5700037417081
 30
0.0
 11
123.1972855906546
 21
320.5698037417081
 31
0.0
  0
LINE
  5
6634
330
1F
100
AcDbEntity
  8
17
 48
0.5
100
AcDbLine
 10
118.1971855906546
 20
325.5699037417081
 30
0.0
 11
128.1973855906545
 21
325.5699037417081
 31
0.0
  0
LINE
  5
6635
330
1F
100
AcDbEntity
  8
22
  6
DASHDOT
 48
0.5
100
AcDbLine
 10
138.214026662083
 20
332.0766994818197
 30
0.0
 11
138.214026662083
 21
322.0764994818197
 31
0.0
  0
LINE
  5
6636
330
1F
100
AcDbEntity
  8
22
  6
DASHDOT
 48
0.5
100
AcDbLine
 10
133.213926662083
 20
327.0765994818197
 30
0.0
 11
143.214126662083
 21
327.0765994818197
 31
0.0
  0
LINE
  5
6637
330
1F
100
AcDbEntity
  8
17
 48
0.5
100
AcDbLine
 10
153.3312134884889
 20
330.5700037417081
 30
0.0
 11
153.3312134884889
 21
320.5698037417081
 31
0.0
  0
LINE
  5
6638
330
1F
100
AcDbEntity
  8
17
 48
0.5
100
AcDbLine
 10
148.331113488489
 20
325.5699037417081
 30
0.0
 11
158.3313134884889
 21
325.5699037417081
 31
0.0
  0
LWPOLYLINE
  5
6639
330
1F
100
AcDbEntity
  8
10
100
AcDbPolyline
 90
        6
 70
     1
 43
0.0
 10
113.6513886482213
 20
317.36617178278
 10
132.7562678747855
 20
317.36617178278
 10
132.7562678747855
 20
328.6294754956458
 42
0.4144445394035128
 10
129.7539022535148
 20
331.6294745629517
 10
116.6490230269506
 20
331.619140832723
 42
0.4139826230609387
 10
113.6513886482213
 20
328.6191417654171
  0
LWPOLYLINE
  5
663A
330
1F
100
AcDbEntity
  8
10
100
AcDbPolyline
 90
        6
 70
     1
 43
0.0
 10
143.7853165460556
 20
317.36617178278
 10
162.8901957726199
 20
317.36617178278
 10
162.8901957726199
 20
328.6294754956458
 42
0.3875051527157385
 10
160.165929824532
 20
331.6167770761054
 10
146.782950924785
 20
331.619140832723
 42
0.4139826230609387
 10
143.7853165460556
 20
328.6191417654171
  0
CIRCLE
  5
663B
330
1F
100
AcDbEntity
  8
24
  6
CONTINOUS
100
AcDbCircle
 10
123.1972855906546
 20
325.5699037417081
 30
0.0
 40
4.25
  0
CIRCLE
  5
663C
330
1F
100
AcDbEntity
  8
24
  6
CONTINOUS
100
AcDbCircle
 10
153.3312134884889
 20
325.5699037417081
 30
0.0
 40
4.25
  0
CIRCLE
  5
663D
330
1F
100
AcDbEntity
  8
24
  6
CONTINOUS
100
AcDbCircle
 10
153.3312134884889
 20
439.3194573730027
 30
0.0
 40
4.25
  0
LINE
  5
663F
330
1F
100
AcDbEntity
  8
16
 48
5.0
100
AcDbLine
 10
123.1946756332374
 20
308.9560236659672
 30
0.0
 11
123.1946756332374
 21
457.1526890149292
 31
0.0
  0
LINE
  5
6641
330
1F
100
AcDbEntity
  8
18
 48
5.0
100
AcDbLine
 10
369.7238442629373
 20
217.0995446199259
 30
0.0
 11
369.7238442629373
 21
87.09955011509293
 31
0.0
  0
LINE
  5
6642
330
1F
100
AcDbEntity
  8
18
 48
5.0
100
AcDbLine
 10
489.7238473359371
 20
87.09955011509293
 30
0.0
 11
489.7238473359371
 21
217.0995446199259
 31
0.0
  0
LINE
  5
6643
330
1F
100
AcDbEntity
  8
18
 48
5.0
100
AcDbLine
 10
369.7238442629373
 20
87.09955011509293
 30
0.0
 11
489.7238473359371
 21
87.09955011509293
 31
0.0
  0
LINE
  5
6644
330
1F
100
AcDbEntity
  8
18
 48
5.0
100
AcDbLine
 10
489.7238473359371
 20
217.0995446199259
 30
0.0
 11
369.7238442629373
 21
217.0995446199259
 31
0.0
  0
DIMENSION
  5
6646
330
1F
100
AcDbEntity
  8
30
100
AcDbDimension
280
     0
  2
*D3
 10
426.7238457995622
 20
56.51574730462812
 30
0.0
 11
417.0212324252981
 21
56.51574730462812
 31
0.0
 70
   160
  1
<>
 71
     2
 42
23.99999999999977
 73
     0
 74
     0
 75
     0
  3
STANDARD
100
AcDbAlignedDimension
 13
402.7238457995625
 23
151.8495473676344
 33
0.0
 14
426.7238457995622
 24
151.8495473676344
 34
0.0
100
AcDbRotatedDimension
  0
DIMENSION
  5
6648
330
1F
100
AcDbEntity
  8
30
100
AcDbDimension
280
     0
  2
*D4
 10
489.7238455479373
 20
237.0327642726122
 30
0.0
 11
429.7238457995622
 21
237.0327642726122
 31
0.0
 70
   160
 71
     2
 42
119.9999994967499
 73
     0
 74
     0
 75
     0
  3
STANDARD
100
AcDbAlignedDimension
 13
369.7238460511873
 23
217.0995470041759
 33
0.0
 14
489.7238455479373
 24
217.0995470041759
 34
0.0
100
AcDbRotatedDimension
  0
LINE
  5
664A
330
1F
100
AcDbEntity
  8
16
 48
5.0
100
AcDbLine
 10
414.7238457995625
 20
82.09954775905123
 30
0.0
 11
414.7238457995625
 21
224.7110376154983
 31
0.0
  0
LINE
  5
664B
330
1F
100
AcDbEntity
  8
16
 48
5.0
100
AcDbLine
 10
496.583171757685
 20
152.0995473676344
 30
0.0
 11
364.7238460791459
 21
152.0995473676344
 31
0.0
  0
LINE
  5
664D
330
1F
100
AcDbEntity
  8
18
 48
5.0
100
AcDbLine
 10
168.4120674966889
 20
217.5056619861042
 30
0.0
 11
48.13090992772891
 21
217.5056619861042
 31
0.0
  0
LINE
  5
6655
330
1F
100
AcDbEntity
  8
SLD-0
 62
     0
100
AcDbLine
 10
78.13719081857573
 20
201.3572584426883
 30
0.0
 11
78.13719081857573
 21
193.1814939252301
 31
0.0
  0
LINE
  5
665E
330
1F
100
AcDbEntity
  8
16
 48
5.0
100
AcDbLine
 10
93.14598867246264
 20
77.09954736763439
 30
0.0
 11
93.14598867246264
 21
227.0995473676344
 31
0.0
  0
LINE
  5
665F
330
1F
100
AcDbEntity
  8
16
 48
5.0
100
AcDbLine
 10
43.35925827692654
 20
152.0995473676344
 30
0.0
 11
170.6309099277289
 21
152.0995473676344
 31
0.0
  0
LINE
  5
6662
330
1F
100
AcDbEntity
  8
18
100
AcDbLine
 10
77.849752991699
 20
217.5056619861042
 30
0.0
 11
77.849752991699
 21
87.09954537476027
 31
0.0
  0
LEADER
  5
6663
330
1F
100
AcDbEntity
  8
30
100
AcDbLeader
  3
STANDARD1
 76
     3
 10
77.28668797268404
 20
209.9309499273606
 30
0.0
 10
68.43854565959225
 20
233.3841892234927
 30
0.0
 10
31.33854565959223
 20
233.3841892234927
 30
0.0
1001
ACAD
1000
DSTYLE
1002
{
1070
   147
1040
2.0
1070
    77
1070
     0
1002
}
  0
MTEXT
  5
6664
330
1F
100
AcDbEntity
  8
30
100
AcDbMText
 10
35.17760751357879
 20
239.7309499273608
 30
0.0
 40
5.0
 41
30.0
 46
0.0
 71
     1
 72
     5
  1
M4x0.7
  7
blockfont
 73
     1
 44
1.0
  0
DIMENSION
  5
6665
330
1F
100
AcDbEntity
  8
30
100
AcDbDimension
280
     0
  2
*D5
 10
36.47565287853036
 20
96.60278666376648
 30
0.0
 11
31.47565287853034
 21
152.1245473676343
 31
0.0
 70
    32
 71
     5
 42
111.0435214077358
 73
     0
 74
     0
 75
     0
  3
STANDARD
100
AcDbAlignedDimension
 13
76.12469493735523
 23
207.6463080715022
 33
0.0
 14
106.112133155662
 24
96.60278666376644
 34
0.0
 50
90.0
100
AcDbRotatedDimension
  0
LINE
  5
6666
330
1F
100
AcDbEntity
  8
17
 48
0.5
100
AcDbLine
 10
123.1954305325253
 20
434.3193577171199
 30
0.0
 11
123.1991406487839
 21
444.3195570288853
 31
0.0
  0
LINE
  5
6667
330
1F
100
AcDbEntity
  8
22
  6
DASHDOT
 48
0.5
100
AcDbLine
 10
108.2086402626078
 20
432.8182276953578
 30
0.0
 11
108.2123503788665
 21
442.8184270071233
 31
0.0
  0
LINE
  5
6668
330
1F
100
AcDbEntity
  8
22
 48
0.5
100
AcDbLine
 10
113.21059497662
 20
437.8164722931112
 30
0.0
 11
103.2103956648544
 21
437.8201824093696
 31
0.0
  0
LINE
  5
6669
330
1F
100
AcDbEntity
  8
17
 48
0.5
100
AcDbLine
 10
93.09201346705437
 20
434.3305318716676
 30
0.0
 11
93.09572358331299
 21
444.3307311834331
 31
0.0
  0
LINE
  5
666A
330
1F
100
AcDbEntity
  8
17
 48
0.5
100
AcDbLine
 10
98.09396818106643
 20
439.3287764694211
 30
0.0
 11
88.0937688693009
 21
439.3324865856796
 31
0.0
  0
LWPOLYLINE
  5
666B
330
1F
100
AcDbEntity
  8
10
100
AcDbPolyline
 90
        6
 70
     1
 43
0.0
 10
102.6427408344823
 20
447.3661293207372
 10
83.53786246025993
 20
447.3623241600861
 10
83.53375178493299
 20
436.2746064068089
 42
0.4144445394035128
 10
86.53500418730322
 20
433.2734936556964
 10
99.63988634582008
 20
433.2789654199046
 42
0.4139826230609387
 10
102.6386335305174
 20
436.2778521457824
  0
CIRCLE
  5
666C
330
1F
100
AcDbEntity
  8
24
  6
CONTINOUS
100
AcDbCircle
 10
93.09386852518356
 20
439.3306315275502
 30
0.0
 40
4.25
  0
CIRCLE
  5
666D
330
1F
100
AcDbEntity
  8
24
  6
CONTINOUS
100
AcDbCircle
 10
123.2277943491389
 20
439.3194517135636
 30
0.0
 40
4.25
  0
CIRCLE
  5
666E
330
1F
100
AcDbEntity
  8
22
  6
DASHDOT
100
AcDbCircle
 10
108.1602721101744
 20
437.818346702657
 30
0.0
 40
3.077821902690307
  0
LINE
  5
666F
330
1F
100
AcDbEntity
  8
17
 48
0.5
100
AcDbLine
 10
93.0633576928202
 20
330.5700037417081
 30
0.0
 11
93.0633576928202
 21
320.5698037417081
 31
0.0
  0
LINE
  5
6670
330
1F
100
AcDbEntity
  8
17
 48
0.5
100
AcDbLine
 10
88.06325769282024
 20
325.5699037417081
 30
0.0
 11
98.06345769282016
 21
325.5699037417081
 31
0.0
  0
LWPOLYLINE
  5
6671
330
1F
100
AcDbEntity
  8
10
100
AcDbPolyline
 90
        6
 70
     1
 43
0.0
 10
83.51746075038693
 20
317.36617178278
 10
102.6223399769511
 20
317.36617178278
 10
102.6223399769511
 20
328.6294754956458
 42
0.4144445394035128
 10
99.61997435568049
 20
331.6294745629517
 10
86.51509512911628
 20
331.619140832723
 42
0.4139826230609387
 10
83.51746075038693
 20
328.6191417654171
  0
CIRCLE
  5
6672
330
1F
100
AcDbEntity
  8
24
  6
CONTINOUS
100
AcDbCircle
 10
93.0633576928202
 20
325.5699037417081
 30
0.0
 40
4.25
  0
DIMENSION
  5
6676
330
1F
100
AcDbEntity
  8
30
100
AcDbDimension
280
     0
  2
*D6
 10
165.1946756332374
 20
293.0371299773276
 30
0.0
 11
123.1946756332374
 21
298.0371299773276
 31
0.0
 70
    32
 71
     5
 42
84.0
 73
     0
 74
     0
 75
     0
  3
STANDARD
100
AcDbAlignedDimension
 13
81.19467563323745
 23
357.3865392301367
 33
0.0
 14
165.1946756332374
 24
357.3865392301367
 34
0.0
100
AcDbRotatedDimension
  0
LWPOLYLINE
  5
6677
330
1F
100
AcDbEntity
  8
10
100
AcDbPolyline
 90
        4
 70
     1
 43
0.0
 10
115.7104055800871
 20
369.0625205098701
 10
130.6789456863878
 20
369.0625205098701
 10
130.6789456863878
 20
396.22115164938
 10
115.7104055800871
 20
396.22115164938
  0
LWPOLYLINE
  5
6678
330
1F
100
AcDbEntity
  8
10
100
AcDbPolyline
 90
        4
 70
     1
 43
0.0
 10
116.7954370789823
 20
393.4729980157139
 10
129.7954370789823
 20
393.4729980157139
 10
129.7954370789823
 20
388.4729980157139
 10
116.7954370789823
 20
388.4729980157139
  0
LINE
  5
6679
330
1F
100
AcDbEntity
  8
17
 48
0.5
100
AcDbLine
 10
118.1945756332375
 20
439.3193226705053
 30
0.0
 11
128.1947756332374
 21
439.3193226705053
 31
0.0
  0
LWPOLYLINE
  5
667A
102
{ACAD_REACTORS
330
75D8
102
}
330
1F
100
AcDbEntity
  8
10
100
AcDbPolyline
 90
        4
 70
     1
 43
0.0
 10
112.1716624220149
 20
404.3988997953026
 10
134.2179587411278
 20
404.3988997953026
 10
134.217958741161
 20
360.1904620895151
 10
112.1716549249718
 20
360.1904620895151
  0
DIMENSION
  5
667B
330
1F
100
AcDbEntity
  8
30
100
AcDbDimension
280
     0
  2
*D7
 10
108.1246290368826
 20
69.4095589577595
 30
0.0
 11
93.1309099277289
 21
69.4095589577595
 31
0.0
 70
   160
 71
     5
 42
29.98743821830693
 73
     0
 74
     0
 75
     0
  3
STANDARD
100
AcDbAlignedDimension
 13
78.13719081857573
 23
207.6463080715022
 33
0.0
 14
108.1246290368826
 24
96.60278666376644
 34
0.0
100
AcDbRotatedDimension
  0
CIRCLE
  5
66FF
330
1F
100
AcDbEntity
  8
22
  6
Continuous
100
AcDbCircle
 10
93.14598867246264
 20
209.0995473676344
 30
0.0
 40
9.0
  0
LINE
  5
6700
330
1F
100
AcDbEntity
  8
17
 48
0.5
100
AcDbLine
 10
93.14598867246264
 20
197.5995473676344
 30
0.0
 11
93.14598867246264
 21
220.5995473676344
 31
0.0
  0
CIRCLE
  5
6701
330
1F
100
AcDbEntity
  8
22
  6
Continuous
100
AcDbCircle
 10
123.1309099277289
 20
209.0995473676344
 30
0.0
 40
9.0
  0
LINE
  5
6702
330
1F
100
AcDbEntity
  8
17
 48
0.5
100
AcDbLine
 10
123.1309099277289
 20
197.5995473676344
 30
0.0
 11
123.1309099277289
 21
220.5995473676344
 31
0.0
  0
CIRCLE
  5
6703
330
1F
100
AcDbEntity
  8
22
  6
Continuous
100
AcDbCircle
 10
152.9888904586122
 20
209.0995473676344
 30
0.0
 40
9.0
  0
LINE
  5
6704
330
1F
100
AcDbEntity
  8
17
 48
0.5
100
AcDbLine
 10
152.9888904586122
 20
197.5995473676344
 30
0.0
 11
152.9888904586122
 21
220.5995473676344
 31
0.0
  0
CIRCLE
  5
6707
330
1F
100
AcDbEntity
  8
22
  6
Continuous
100
AcDbCircle
 10
93.14598867246271
 20
95.09954537476028
 30
0.0
 40
9.0
  0
LINE
  5
6708
330
1F
100
AcDbEntity
  8
17
 48
0.5
100
AcDbLine
 10
93.14598867246271
 20
106.5995453747603
 30
0.0
 11
93.14598867246271
 21
83.59954537476028
 31
0.0
  0
CIRCLE
  5
6709
330
1F
100
AcDbEntity
  8
22
  6
Continuous
100
AcDbCircle
 10
123.1309099277289
 20
95.09954537476028
 30
0.0
 40
9.0
  0
LINE
  5
670A
330
1F
100
AcDbEntity
  8
17
 48
0.5
100
AcDbLine
 10
123.1309099277289
 20
106.5995453747603
 30
0.0
 11
123.1309099277289
 21
83.59954537476028
 31
0.0
  0
CIRCLE
  5
670B
330
1F
100
AcDbEntity
  8
22
  6
Continuous
100
AcDbCircle
 10
153.1308904586122
 20
95.09954537476028
 30
0.0
 40
9.0
  0
LINE
  5
670C
102
{ACAD_REACTORS
330
728D
102
}
330
1F
100
AcDbEntity
  8
17
 48
0.5
100
AcDbLine
 10
153.1308904586122
 20
106.5995453747603
 30
0.0
 11
153.1308904586122
 21
83.59954537476028
 31
0.0
  0
ARC
  5
6710
330
1F
100
AcDbEntity
  8
10
100
AcDbCircle
 10
123.227795022733
 20
439.0194516836307
 30
0.0
 40
10.04464285714245
100
AcDbArc
 50
56.19728719519034
 51
123.8027128048096
  0
ARC
  5
6711
330
1F
100
AcDbEntity
  8
10
100
AcDbCircle
 10
153.331214162083
 20
439.0194573430696
 30
0.0
 40
10.04464285714245
100
AcDbArc
 50
56.19722916890058
 51
123.8027708310994
  0
ARC
  5
6712
330
1F
100
AcDbEntity
  8
10
100
AcDbCircle
 10
123.227795022733
 20
325.7128494198864
 30
0.0
 40
10.04464285714245
100
AcDbArc
 50
236.1972871951903
 51
303.8027128048097
  0
ARC
  5
6713
330
1F
100
AcDbEntity
  8
10
100
AcDbCircle
 10
153.331214162083
 20
325.7128437604474
 30
0.0
 40
10.04464285714245
100
AcDbArc
 50
236.1972291689006
 51
303.8027708310995
  0
ARC
  5
6715
330
1F
100
AcDbEntity
  8
10
100
AcDbCircle
 10
93.09386712489867
 20
439.0194516836307
 30
0.0
 40
10.04464285714245
100
AcDbArc
 50
56.19728719519034
 51
123.8027128048096
  0
ARC
  5
6716
330
1F
100
AcDbEntity
  8
10
100
AcDbCircle
 10
93.09386712489867
 20
325.7128494198864
 30
0.0
 40
10.04464285714245
100
AcDbArc
 50
236.1972871951903
 51
303.8027128048097
  0
DIMENSION
  5
6717
330
1F
100
AcDbEntity
  8
30
100
AcDbDimension
280
     0
  2
*D2
 10
19.09601197195253
 20
95.0995453747603
 30
0.0
 11
19.09601197195252
 21
152.0995463711972
 31
0.0
 70
   160
 71
     5
 42
114.0000019928741
 73
     0
 74
     0
 75
     0
  3
STANDARD
100
AcDbAlignedDimension
 13
51.64598867246263
 23
209.0995473676344
 33
0.0
 14
64.03454693918241
 24
95.09954537476028
 34
0.0
 50
90.0
100
AcDbRotatedDimension
  0
LINE
  5
6718
330
1F
100
AcDbEntity
  8
17
 48
0.5
100
AcDbLine
 10
104.6459886724627
 20
95.09954537476028
 30
0.0
 11
81.64598867246274
 21
95.09954537476028
 31
0.0
  0
LINE
  5
6719
330
1F
100
AcDbEntity
  8
17
 48
0.5
100
AcDbLine
 10
134.6309099277289
 20
95.09954537476028
 30
0.0
 11
111.6309099277289
 21
95.09954537476028
 31
0.0
  0
LINE
  5
671A
330
1F
100
AcDbEntity
  8
17
 48
0.5
100
AcDbLine
 10
164.6308904586122
 20
95.09954537476028
 30
0.0
 11
141.6888904586122
 21
95.09954537476028
 31
0.0
  0
LINE
  5
671B
330
1F
100
AcDbEntity
  8
17
 48
0.5
100
AcDbLine
 10
164.4888904586122
 20
209.0995473676344
 30
0.0
 11
141.4888904586122
 21
209.0995473676344
 31
0.0
  0
LINE
  5
671C
330
1F
100
AcDbEntity
  8
17
 48
0.5
100
AcDbLine
 10
134.6309099277289
 20
209.0995473676344
 30
0.0
 11
111.6309099277289
 21
209.0995473676344
 31
0.0
  0
LINE
  5
671D
330
1F
100
AcDbEntity
  8
17
 48
0.5
100
AcDbLine
 10
104.6459886724626
 20
209.0995473676344
 30
0.0
 11
81.64598867246262
 21
209.0995473676344
 31
0.0
  0
DIMENSION
  5
7276
102
{ACAD_XDICTIONARY
360
7283
102
}
102
{ACAD_REACTORS
330
728D
102
}
330
1F
100
AcDbEntity
  8
30
100
AcDbDimension
280
     0
  2
*D8
 10
153.1308904586122
 20
56.71957254075867
 30
0.0
 11
138.1309001931705
 21
61.71957254075867
 31
0.0
 70
    32
 71
     5
 42
29.99998053088331
 73
     0
 74
     0
 75
     0
  3
STANDARD
100
AcDbAlignedDimension
 13
123.1309099277289
 23
95.09954537476028
 33
0.0
 14
153.1308904586122
 24
83.59954537476028
 34
0.0
100
AcDbRotatedDimension
  0
MTEXT
  5
7316
330
1F
100
AcDbEntity
  8
19
100
AcDbMText
 10
223.8901440662579
 20
31.7884613915935
 30
0.0
 40
7.826237649998486
 41
0.0
 46
0.0
 71
     1
 72
     1
  1
[Cutout A]
  7
SLDTEXTSTYLE0
 73
     1
 44
1.0
  0
MTEXT
  5
7317
330
1F
100
AcDbEntity
  8
19
100
AcDbMText
 10
400.9647668522492
 20
31.7884613915935
 30
0.0
 40
7.826237649998486
 41
0.0
 46
0.0
 71
     1
 72
     1
  1
[Cutout B]
  7
SLDTEXTSTYLE0
 73
     1
 44
1.0
  0
LWPOLYLINE
  5
734B
330
1F
100
AcDbEntity
  8
10
 62
     1
100
AcDbPolyline
 90
        8
 70
     1
 43
0.0
 10
209.16825163745
 20
177.0995477587509
 10
209.16825163745
 20
127.0995469765179
 42
0.4142135623730951
 10
210.16825163745
 20
126.0995469765179
 10
294.1682540773168
 20
126.0995469765179
 42
0.4142135623730951
 10
295.1682540773168
 20
127.0995469765179
 10
295.1682540773168
 20
177.0995477587509
 42
0.4142135623730951
 10
294.1682540773168
 20
178.0995477587508
 10
210.16825163745
 20
178.0995477587508
 42
0.4142135623730951
  0
LINE
  5
734C
330
1F
100
AcDbEntity
  8
18
 48
5.0
100
AcDbLine
 10
207.1682513208834
 20
217.0995446199259
 30
0.0
 11
207.1682513208834
 21
87.09955011509293
 31
0.0
  0
LINE
  5
734D
330
1F
100
AcDbEntity
  8
18
 48
5.0
100
AcDbLine
 10
327.1682543938831
 20
87.09955011509293
 30
0.0
 11
327.1682543938831
 21
217.0995446199259
 31
0.0
  0
LINE
  5
734E
330
1F
100
AcDbEntity
  8
18
 48
5.0
100
AcDbLine
 10
207.1682513208834
 20
87.09955011509293
 30
0.0
 11
327.1682543938831
 21
87.09955011509293
 31
0.0
  0
LINE
  5
734F
330
1F
100
AcDbEntity
  8
18
 48
5.0
100
AcDbLine
 10
327.1682543938831
 20
217.0995446199259
 30
0.0
 11
207.1682513208834
 21
217.0995446199259
 31
0.0
  0
DIMENSION
  5
7351
330
1F
100
AcDbEntity
  8
30
100
AcDbDimension
280
     0
  2
*D9
 10
295.1682526170666
 20
56.51574730462812
 30
0.0
 11
252.1682528575086
 21
56.51574730462812
 31
0.0
 70
   160
  1
<>
 71
     2
 42
85.99999951911639
 73
     0
 74
     0
 75
     0
  3
STANDARD
100
AcDbAlignedDimension
 13
209.1682530979503
 23
127.0995475074261
 33
0.0
 14
295.1682526170666
 24
127.0995475074261
 34
0.0
100
AcDbRotatedDimension
  0
DIMENSION
  5
7353
330
1F
100
AcDbEntity
  8
30
100
AcDbDimension
280
     0
  2
*D10
 10
327.1682526058835
 20
237.0327642726122
 30
0.0
 11
267.1682528575085
 21
237.0327642726122
 31
0.0
 70
   160
 71
     2
 42
119.9999994967499
 73
     0
 74
     0
 75
     0
  3
STANDARD
100
AcDbAlignedDimension
 13
207.1682531091335
 23
217.0995470041759
 33
0.0
 14
327.1682526058835
 24
217.0995470041759
 34
0.0
100
AcDbRotatedDimension
  0
DIMENSION
  5
7354
330
1F
100
AcDbEntity
  8
30
100
AcDbDimension
280
     0
  2
*D11
 10
295.5433515324859
 20
178.4736920167361
 30
0.0
 11
305.6064330919517
 21
185.9736920139996
 31
0.0
 70
   164
  1
R1
 71
     5
 42
0.9999999943785267
 73
     0
 74
     0
 75
     0
  3
STANDARD1
100
AcDbRadialDimension
 15
296.0433515293867
 25
179.3397174158189
 35
0.0
 40
0.0
  0
LINE
  5
7355
330
1F
100
AcDbEntity
  8
16
 48
5.0
100
AcDbLine
 10
252.1682528575086
 20
82.09954775905123
 30
0.0
 11
252.1682528575086
 21
224.4052657290681
 31
0.0
  0
LINE
  5
7356
330
1F
100
AcDbEntity
  8
16
 48
5.0
100
AcDbLine
 10
331.4770807273803
 20
152.0995473676344
 30
0.0
 11
202.168253137092
 21
152.0995473676344
 31
0.0
  0
LINE
  5
73E9
330
1F
100
AcDbEntity
  8
10
 62
     1
100
AcDbLine
 10
403.7238457995623
 20
175.8495473676342
 30
0.0
 11
425.7238457995622
 21
175.8495473676342
 31
0.0
  0
LINE
  5
73EA
330
1F
100
AcDbEntity
  8
10
 62
     1
100
AcDbLine
 10
402.7238457995625
 20
174.8495473676342
 30
0.0
 11
402.7238457995625
 21
128.8495473676345
 31
0.0
  0
LINE
  5
73EB
330
1F
100
AcDbEntity
  8
10
 62
     1
100
AcDbLine
 10
403.7238457995623
 20
127.8495473676345
 30
0.0
 11
425.7238457995622
 21
127.8495473676345
 31
0.0
  0
LINE
  5
73EC
330
1F
100
AcDbEntity
  8
10
 62
     1
100
AcDbLine
 10
426.7238457995622
 20
174.8495473676342
 30
0.0
 11
426.7238457995622
 21
128.8495473676345
 31
0.0
  0
ARC
  5
73ED
330
1F
100
AcDbEntity
  8
10
 62
     1
100
AcDbCircle
 10
425.7238457995622
 20
174.8495473676342
 30
0.0
 40
0.9999999999998236
100
AcDbArc
 50
0.0
 51
90.0
  0
ARC
  5
73EE
330
1F
100
AcDbEntity
  8
10
 62
     1
100
AcDbCircle
 10
403.7238457995623
 20
174.8495473676342
 30
0.0
 40
0.9999999999998236
100
AcDbArc
 50
90.0
 51
180.0
  0
ARC
  5
73EF
330
1F
100
AcDbEntity
  8
10
 62
     1
100
AcDbCircle
 10
403.7238457995623
 20
128.8495473676345
 30
0.0
 40
0.9999999999998236
100
AcDbArc
 50
180.0
 51
270.0
  0
ARC
  5
73F0
330
1F
100
AcDbEntity
  8
10
 62
     1
100
AcDbCircle
 10
425.7238457995622
 20
128.8495473676345
 30
0.0
 40
0.9999999999998236
100
AcDbArc
 50
270.0
 51
0.0
  0
DIMENSION
  5
7414
330
1F
100
AcDbEntity
  8
30
100
AcDbDimension
280
     0
  2
*D12
 10
509.6557066424706
 20
127.8495473676345
 30
0.0
 11
509.6557066424706
 21
152.9878037369322
 31
0.0
 70
   160
 71
     2
 42
47.99999999999967
 73
     0
 74
     0
 75
     0
  3
STANDARD
100
AcDbAlignedDimension
 13
425.7238457995622
 23
175.8495473676342
 33
0.0
 14
425.7238457995622
 24
127.8495473676345
 34
0.0
 50
90.0
100
AcDbRotatedDimension
  0
DIMENSION
  5
7433
330
1F
100
AcDbEntity
  8
30
100
AcDbDimension
280
     0
  2
*D13
 10
348.2152634128425
 20
126.099546976356
 30
0.0
 11
343.2152634128424
 21
152.0995473674724
 31
0.0
 70
    32
 71
     5
 42
52.0000007822329
 73
     0
 74
     0
 75
     0
  3
STANDARD
100
AcDbAlignedDimension
 13
298.0112647938022
 23
178.0995477585889
 33
0.0
 14
298.0112647936018
 24
126.099546976356
 34
0.0
 50
89.99999999977854
100
AcDbRotatedDimension
  0
DIMENSION
  5
75C1
102
{ACAD_XDICTIONARY
360
75CE
102
}
102
{ACAD_REACTORS
330
75D8
102
}
330
1F
100
AcDbEntity
  8
30
100
AcDbDimension
280
     0
  2
*D14
 10
134.217958741161
 20
345.0746097152655
 30
0.0
 11
123.1948068330664
 21
345.0746097152655
 31
0.0
 70
   160
 71
     5
 42
22.04630381618915
 73
     0
 74
     0
 75
     0
  3
STANDARD
100
AcDbAlignedDimension
 13
112.1716549249718
 23
360.1904620895151
 33
0.0
 14
134.217958741161
 24
360.1904620895151
 34
0.0
100
AcDbRotatedDimension
  0
DIMENSION
  5
7672
330
1F
100
AcDbEntity
  8
30
100
AcDbDimension
280
     0
  2
*D15
 10
123.1309099277289
 20
56.71957254075867
 30
0.0
 11
108.1384493000958
 21
61.71957254075867
 31
0.0
 70
    32
 71
     5
 42
29.98492125526616
 73
     0
 74
     0
 75
     0
  3
STANDARD
100
AcDbAlignedDimension
 13
93.14598867246271
 23
66.8352627800407
 33
0.0
 14
123.1309099277289
 24
83.59954537476028
 34
0.0
100
AcDbRotatedDimension
  0
CIRCLE
  5
76BE
330
1F
100
AcDbEntity
  8
22
  6
Continuous
100
AcDbCircle
 10
63.14598867246264
 20
209.0995473676344
 30
0.0
 40
9.0
  0
LINE
  5
76BF
330
1F
100
AcDbEntity
  8
17
 48
0.5
100
AcDbLine
 10
63.14598867246264
 20
197.5995473676344
 30
0.0
 11
63.14598867246264
 21
220.5995473676344
 31
0.0
  0
CIRCLE
  5
76C0
330
1F
100
AcDbEntity
  8
22
  6
Continuous
100
AcDbCircle
 10
63.14598867246274
 20
95.09954537476028
 30
0.0
 40
9.0
  0
LINE
  5
76C1
330
1F
100
AcDbEntity
  8
17
 48
0.5
100
AcDbLine
 10
63.14598867246274
 20
106.5995453747603
 30
0.0
 11
63.14598867246274
 21
83.59954537476028
 31
0.0
  0
LINE
  5
76C3
330
1F
100
AcDbEntity
  8
17
 48
0.5
100
AcDbLine
 10
74.64598867246262
 20
209.0995473676344
 30
0.0
 11
51.64598867246263
 21
209.0995473676344
 31
0.0
  0
DIMENSION
  5
76C6
330
1F
100
AcDbEntity
  8
30
100
AcDbDimension
280
     0
  2
*D16
 10
93.1309099277289
 20
56.71957254075867
 30
0.0
 11
78.13844930009583
 21
61.71957254075867
 31
0.0
 70
    32
 71
     5
 42
29.98492125526616
 73
     0
 74
     0
 75
     0
  3
STANDARD
100
AcDbAlignedDimension
 13
63.14598867246274
 23
85.01052954771967
 33
0.0
 14
93.1309099277289
 24
65.66471947127912
 34
0.0
100
AcDbRotatedDimension
  0
LINE
  5
76E6
330
1F
100
AcDbEntity
  8
18
 48
5.0
100
AcDbLine
 10
48.13090992772891
 20
217.5056619861042
 30
0.0
 11
48.13090992772891
 21
87.09954537476027
 31
0.0
  0
LINE
  5
76E8
330
1F
100
AcDbEntity
  8
18
 48
5.0
100
AcDbLine
 10
168.1309099277289
 20
217.0995453747603
 30
0.0
 11
168.1309099277289
 21
87.09954537476027
 31
0.0
  0
LINE
  5
76E9
330
1F
100
AcDbEntity
  8
18
 48
5.0
100
AcDbLine
 10
48.13090992772891
 20
87.09954537476027
 30
0.0
 11
168.1309099277289
 21
87.09954537476027
 31
0.0
  0
LWPOLYLINE
  5
7729
330
1F
100
AcDbEntity
  8
10
100
AcDbPolyline
 90
        4
 70
     1
 43
0.0
 10
168.1972855906546
 20
317.36617178278
 10
198.1972855906546
 20
317.36617178278
 10
198.1972855906546
 20
447.4053465411413
 10
168.1972855906546
 20
447.4053465411413
  0
DIMENSION
  5
772D
330
1F
100
AcDbEntity
  8
30
100
AcDbDimension
280
     0
  2
*D17
 10
61.09787052520829
 20
317.36617178278
 30
0.0
 11
61.09787052520822
 21
380.6681853317227
 31
0.0
 70
   160
 71
     5
 42
129.9999575379572
 73
     0
 74
     0
 75
     0
  3
STANDARD
100
AcDbAlignedDimension
 13
78.23076773351147
 23
447.3661293207372
 33
0.0
 14
78.22161510524551
 24
317.36617178278
 34
0.0
 50
90.0
100
AcDbRotatedDimension
  0
LINE
  5
7772
330
1F
100
AcDbEntity
  8
17
 48
0.5
100
AcDbLine
 10
183.1972855906546
 20
434.358574593407
 30
0.0
 11
183.1972855906546
 21
444.3587745934069
 31
0.0
  0
LINE
  5
7773
330
1F
100
AcDbEntity
  8
17
 48
0.5
100
AcDbLine
 10
178.1971855906546
 20
439.3586745934069
 30
0.0
 11
188.1973855906545
 21
439.3586745934069
 31
0.0
  0
LWPOLYLINE
  5
7774
330
1F
100
AcDbEntity
  8
10
100
AcDbPolyline
 90
        6
 70
     1
 43
0.0
 10
173.6448459773725
 20
447.4053465411413
 10
192.7497252039367
 20
447.4053465411413
 10
192.7497252039367
 20
436.2991028394691
 42
-0.4144445394035217
 10
189.747359582666
 20
433.2991037721633
 10
176.6424803561018
 20
433.3094375023919
 42
-0.4139826230609387
 10
173.6448459773725
 20
436.3094365696978
  0
LINE
  5
7775
330
1F
100
AcDbEntity
  8
17
 48
0.5
100
AcDbLine
 10
183.1907429198057
 20
330.6092209621123
 30
0.0
 11
183.1907429198057
 21
320.6090209621124
 31
0.0
  0
LINE
  5
7776
330
1F
100
AcDbEntity
  8
17
 48
0.5
100
AcDbLine
 10
178.1906429198056
 20
325.6091209621124
 30
0.0
 11
188.1908429198056
 21
325.6091209621124
 31
0.0
  0
LWPOLYLINE
  5
7777
330
1F
100
AcDbEntity
  8
10
100
AcDbPolyline
 90
        6
 70
     1
 43
0.0
 10
173.6472115986431
 20
317.3586411610481
 10
192.7520908252073
 20
317.3586411610481
 10
192.7520908252073
 20
328.621944873914
 42
0.4144445394035128
 10
189.7497252039367
 20
331.6219439412198
 10
176.6448459773725
 20
331.6116102109912
 42
0.4139826230609387
 10
173.6472115986431
 20
328.6116111436852
  0
CIRCLE
  5
7778
330
1F
100
AcDbEntity
  8
24
  6
CONTINOUS
100
AcDbCircle
 10
183.1907429198057
 20
325.6091209621124
 30
0.0
 40
4.25
  0
CIRCLE
  5
7779
330
1F
100
AcDbEntity
  8
24
  6
CONTINOUS
100
AcDbCircle
 10
183.2038282615034
 20
439.3586745934069
 30
0.0
 40
4.25
  0
ARC
  5
777A
330
1F
100
AcDbEntity
  8
10
100
AcDbCircle
 10
183.1907435933998
 20
439.0586745634739
 30
0.0
 40
10.04464285714245
100
AcDbArc
 50
56.19722916890014
 51
123.8027708310994
  0
ARC
  5
777B
330
1F
100
AcDbEntity
  8
10
100
AcDbCircle
 10
183.1907435933998
 20
325.7520609808516
 30
0.0
 40
10.04464285714245
100
AcDbArc
 50
236.1972291689002
 51
303.8027708310999
  0
LINE
  5
777C
330
1F
100
AcDbEntity
  8
10
100
AcDbLine
 10
168.1972855906546
 20
333.6257059767973
 30
0.0
 11
198.1972855906546
 21
333.6257059767973
 31
0.0
  0
LINE
  5
777D
330
1F
100
AcDbEntity
  8
10
100
AcDbLine
 10
168.1972855906546
 20
331.6167770761055
 30
0.0
 11
198.1972855906546
 21
331.6167770761055
 31
0.0
  0
LINE
  5
777E
330
1F
100
AcDbEntity
  8
10
100
AcDbLine
 10
168.1972855906546
 20
433.2725840386054
 30
0.0
 11
198.1972855906546
 21
433.2725840386054
 31
0.0
  0
LINE
  5
7780
330
1F
100
AcDbEntity
  8
10
100
AcDbLine
 10
168.1972855906546
 20
431.2636551379132
 30
0.0
 11
198.1972855906546
 21
431.2636551379132
 31
0.0
  0
LWPOLYLINE
  5
79E4
330
1F
100
AcDbEntity
  8
10
  6
Continuous
100
AcDbPolyline
 90
        4
 70
     1
 43
0.0
 10
0.0
 20
742.4999999999997
 10
525.0
 20
742.4999999999997
 10
525.0
 20
0.0
 10
0.0
 20
0.0
  0
LEADER
  5
7ADE
330
1F
100
AcDbEntity
  8
30
100
AcDbLeader
  3
STANDARD1
 76
     3
 10
158.5275575841526
 20
216.1934296948552
 30
0.0
 10
170.8247225729301
 20
231.0995473676344
 30
0.0
 10
192.0756863313843
 20
231.0995473676344
 30
0.0
211
-1.0
221
0.0
231
0.0
1001
ACAD
1000
DSTYLE
1002
{
1070
   147
1040
2.0
1070
    77
1070
     0
1002
}
  0
MTEXT
  5
7ADF
330
1F
100
AcDbEntity
  8
30
100
AcDbMText
 10
177.3799871162819
 20
237.4463080715024
 30
0.0
 40
5.0
 41
30.0
 46
0.0
 71
     1
 72
     5
  1
φ18
  7
blockfont
 73
     1
 44
1.0
  0
DIMENSION
  5
7B82
330
1F
100
AcDbEntity
  8
30
100
AcDbDimension
280
     0
  2
*D20
 10
426.0402413465184
 20
175.8739549710513
 30
0.0
 11
436.1033229059846
 21
185.9342364038425
 31
0.0
 70
   164
  1
R1
 71
     5
 42
0.9999999943787544
 73
     0
 74
     0
 75
     0
  3
STANDARD1
100
AcDbRadialDimension
 15
426.4355931639769
 25
176.7924847360507
 35
0.0
 40
0.0
  0
DIMENSION
  5
7C47
330
1F
100
AcDbEntity
  8
30
  6
Continuous
100
AcDbDimension
280
     0
  2
*D21
 10
250.0769072910571
 20
357.2946805573553
 30
0.0
 11
250.076907291057
 21
385.0671232583553
 31
0.0
 70
   160
 71
     5
 42
50.0
 73
     0
 74
     0
 75
     0
  3
STANDARD
100
AcDbAlignedDimension
 13
288.1769072910568
 23
407.2946805573553
 33
0.0
 14
288.1769072910568
 24
357.2946805573553
 34
0.0
 50
270.0
100
AcDbRotatedDimension
1001
ACAD
1000
DSTYLE
1002
{
1070
    79
1070
     3
1002
}
  0
DIMENSION
  5
7C48
330
1F
100
AcDbEntity
  8
30
  6
Continuous
100
AcDbDimension
280
     0
  2
*D22
 10
480.6185988143242
 20
322.7946805573554
 30
0.0
 11
480.6185988143242
 21
304.7946805573555
 31
0.0
 70
   160
 71
     5
 42
5.0
 73
     0
 74
     0
 75
     0
  3
STANDARD
100
AcDbAlignedDimension
 13
462.3837197725931
 23
327.7946805573554
 33
0.0
 14
462.4717299199239
 24
322.7946805573554
 34
0.0
 50
270.0
100
AcDbRotatedDimension
1001
ACAD
1000
DSTYLE
1002
{
1070
    79
1070
     3
1002
}
  0
LWPOLYLINE
  5
7C49
330
1F
100
AcDbEntity
  8
18
100
AcDbPolyline
 90
        2
 70
     0
 43
0.001
 10
360.9001823730882
 20
295.2851083313627
 10
360.9001823730882
 20
447.6269121003327
  0
LWPOLYLINE
  5
7C4A
330
1F
100
AcDbEntity
  8
18
100
AcDbPolyline
 90
        2
 70
     0
 43
0.001
 10
362.9001823730882
 20
295.2851083313627
 10
362.9001823730882
 20
447.6269121003327
  0
LINE
  5
7C4B
330
1F
100
AcDbEntity
  8
10
  6
Continuous
100
AcDbLine
 10
288.9001836098377
 20
357.2946805573553
 30
0.0
 11
288.9001836098377
 21
407.2946805573553
 31
0.0
  0
LINE
  5
7C4C
330
1F
100
AcDbEntity
  8
24
  6
Continuous
 62
     7
100
AcDbLine
 10
376.6185988035241
 20
317.6622383875554
 30
0.0
 11
371.6188729559239
 21
317.1098794739554
 31
0.0
  0
LINE
  5
7C4D
330
1F
100
AcDbEntity
  8
24
  6
Continuous
 62
     7
100
AcDbLine
 10
371.618872967524
 20
317.1098793699554
 30
0.0
 11
360.9001823730882
 21
316.997629401281
 31
0.0
  0
LINE
  5
7C4E
330
1F
100
AcDbEntity
  8
24
  6
Continuous
 62
     7
100
AcDbLine
 10
423.7185988143236
 20
322.0946805573555
 30
0.0
 11
383.7185988143236
 21
322.0946805573555
 31
0.0
  0
LINE
  5
7C4F
330
1F
100
AcDbEntity
  8
24
  6
Continuous
 62
     7
100
AcDbLine
 10
462.4717299199239
 20
322.7946805573554
 30
0.0
 11
423.7185988143236
 21
322.7946805573554
 31
0.0
  0
LINE
  5
7C50
330
1F
100
AcDbEntity
  8
17
100
AcDbLine
 10
350.6185988143242
 20
325.2946805573554
 30
0.0
 11
470.6185988143241
 21
325.2946805573554
 31
0.0
  0
LINE
  5
7C51
330
1F
100
AcDbEntity
  8
24
  6
Continuous
 62
     7
100
AcDbLine
 10
423.7185988143236
 20
327.7946805573554
 30
0.0
 11
462.3837197725936
 21
327.7946805573554
 31
0.0
  0
LINE
  5
7C52
330
1F
100
AcDbEntity
  8
24
  6
Continuous
 62
     7
100
AcDbLine
 10
383.7185988143236
 20
328.4946805573553
 30
0.0
 11
423.7185988143236
 21
328.4946805573553
 31
0.0
  0
LINE
  5
7C53
330
1F
100
AcDbEntity
  8
24
  6
Continuous
 62
     7
100
AcDbLine
 10
371.618872967524
 20
333.4794817449554
 30
0.0
 11
360.9001823730882
 21
333.5917317134349
 31
0.0
  0
LINE
  5
7C54
330
1F
100
AcDbEntity
  8
24
  6
Continuous
 62
     7
100
AcDbLine
 10
376.6185988035241
 20
332.9271227273554
 30
0.0
 11
371.6188729559239
 21
333.4794816409555
 31
0.0
  0
LINE
  5
7C55
330
1F
100
AcDbEntity
  8
24
  6
Continuous
 62
     7
100
AcDbLine
 10
376.6185988143242
 20
317.6622382905553
 30
0.0
 11
376.6185988143242
 21
332.9271228243554
 31
0.0
  0
LINE
  5
7C56
330
1F
100
AcDbEntity
  8
24
  6
Continuous
 62
     7
100
AcDbLine
 10
376.6185988143242
 20
431.6622382905554
 30
0.0
 11
376.6185988143242
 21
446.9271228243551
 31
0.0
  0
LINE
  5
7C57
330
1F
100
AcDbEntity
  8
24
  6
Continuous
 62
     7
100
AcDbLine
 10
376.6185988035241
 20
431.6622383875553
 30
0.0
 11
371.6188729559239
 21
431.1098794739551
 31
0.0
  0
LINE
  5
7C58
330
1F
100
AcDbEntity
  8
24
  6
Continuous
 62
     7
100
AcDbLine
 10
371.618872967524
 20
431.1098793699553
 30
0.0
 11
360.9001823730882
 21
430.9976294012809
 31
0.0
  0
LINE
  5
7C59
330
1F
100
AcDbEntity
  8
24
  6
Continuous
 62
     7
100
AcDbLine
 10
383.7185988143236
 20
436.0946805573553
 30
0.0
 11
423.7185988143236
 21
436.0946805573553
 31
0.0
  0
LINE
  5
7C5A
330
1F
100
AcDbEntity
  8
24
  6
Continuous
 62
     7
100
AcDbLine
 10
423.7185988143236
 20
442.4946805573553
 30
0.0
 11
423.7185988143236
 21
436.0946805573553
 31
0.0
  0
LINE
  5
7C5B
330
1F
100
AcDbEntity
  8
24
  6
Continuous
 62
     7
100
AcDbLine
 10
423.7185988143236
 20
322.0946805573555
 30
0.0
 11
423.7185988143236
 21
328.4946805573553
 31
0.0
  0
LINE
  5
7C5C
330
1F
100
AcDbEntity
  8
24
  6
Continuous
 62
     7
100
AcDbLine
 10
423.7185988143236
 20
442.4946805573553
 30
0.0
 11
383.7185988143236
 21
442.4946805573553
 31
0.0
  0
LINE
  5
7C5D
330
1F
100
AcDbEntity
  8
24
  6
Continuous
 62
     7
100
AcDbLine
 10
371.618872967524
 20
447.4794817449553
 30
0.0
 11
360.9001823730882
 21
447.6269121003327
 31
0.0
  0
LINE
  5
7C5E
330
1F
100
AcDbEntity
  8
24
  6
Continuous
 62
     7
100
AcDbLine
 10
376.6185988035241
 20
446.9271227273553
 30
0.0
 11
371.6188729559239
 21
447.4794816409552
 31
0.0
  0
LWPOLYLINE
  5
7C5F
330
1F
100
AcDbEntity
  8
30
  6
Continuous
100
AcDbPolyline
 90
        2
 70
     0
 43
0.0
 10
266.1919066665241
 20
392.0882876785233
 42
0.0941531552727132
 10
265.4001836098379
 20
384.9114088899767
  0
ARC
  5
7C60
330
1F
100
AcDbEntity
  8
24
  6
Continuous
 62
     7
100
AcDbCircle
 10
383.7185988143236
 20
453.7946805573553
 30
0.0
 40
11.3
100
AcDbArc
 50
231.0505796710034
 51
270.0
  0
ARC
  5
7C61
330
1F
100
AcDbEntity
  8
24
  6
Continuous
 62
     7
100
AcDbCircle
 10
383.7185988143236
 20
424.7946805573553
 30
0.0
 40
11.3
100
AcDbArc
 50
90.0
 51
128.9494266960035
  0
ARC
  5
7C62
330
1F
100
AcDbEntity
  8
24
  6
Continuous
 62
     7
100
AcDbCircle
 10
383.7185988143236
 20
310.7946805573554
 30
0.0
 40
11.3
100
AcDbArc
 50
90.0
 51
128.9494279204027
  0
ARC
  5
7C63
330
1F
100
AcDbEntity
  8
24
  6
Continuous
 62
     7
100
AcDbCircle
 10
383.7185988143236
 20
339.7946805573554
 30
0.0
 40
11.3
100
AcDbArc
 50
231.0505808667993
 51
270.0
  0
ARC
  5
7C64
330
1F
100
AcDbEntity
  8
24
  6
Continuous
 62
     7
100
AcDbCircle
 10
447.1305089754125
 20
325.0254185128467
 30
0.0
 40
15.50255630192575
100
AcDbArc
 50
351.7267125754978
 51
10.29012314721962
  0
LWPOLYLINE
  5
7C65
330
1F
100
AcDbEntity
  8
10
  6
Continuous
100
AcDbPolyline
 90
        4
 70
     1
 43
0.0
 10
358.9001823730882
 20
315.0269545623757
 10
360.9001823730882
 20
315.0269545623757
 10
360.9001823730882
 20
317.0269545623757
 10
358.9001823730882
 20
317.0269545623757
  0
LWPOLYLINE
  5
7C66
330
1F
100
AcDbEntity
  8
24
  6
Continuous
100
AcDbPolyline
 90
        4
 70
     1
 43
0.0
 10
358.9001823730882
 20
449.6269121003328
 10
360.9001823730882
 20
449.6269121003328
 10
360.9001823730882
 20
447.6269121003327
 10
358.9001823730882
 20
447.6269121003327
  0
LWPOLYLINE
  5
7C67
330
1F
100
AcDbEntity
  8
10
  6
Continuous
100
AcDbPolyline
 90
        4
 70
     1
 43
0.0
 10
288.9001836098377
 20
407.2946805573553
 10
292.9001836098377
 20
407.2946805573553
 10
292.9001836098377
 20
357.2946805573553
 10
288.9001836098377
 20
357.2946805573553
  0
LWPOLYLINE
  5
7C68
330
1F
100
AcDbEntity
  8
10
  6
Continuous
100
AcDbPolyline
 90
       20
 70
     0
 43
0.0
 10
288.9001836098377
 20
359.7946805573553
 10
283.2635386865241
 20
359.7946805573553
 10
283.0151195719897
 20
362.4417393808848
 10
282.8708279878707
 20
365.0887982044142
 10
282.7347914645833
 20
367.7358570279437
 10
282.6111375325435
 20
370.382915851473
 10
282.5039937221669
 20
373.0299746750024
 10
282.4174875638691
 20
375.6770334985318
 10
282.3557465880662
 20
378.3240923220613
 10
282.318598814324
 20
382.2946805573553
 10
282.3228983251738
 20
383.6182099691201
 10
282.3557465880662
 20
386.2652687926495
 10
282.4174875638691
 20
388.9123276161789
 10
282.5039937221669
 20
391.5593864397083
 10
282.6111375325435
 20
394.2064452632377
 10
282.7347914645833
 20
396.8535040867672
 10
282.8708279878707
 20
399.5005629102966
 10
283.0151195719897
 20
402.147621733826
 10
283.163538686524
 20
404.7946805573553
 10
288.9001836098377
 20
404.7946805573553
  0
LINE
  5
7C69
330
1F
100
AcDbEntity
  8
17
100
AcDbLine
 10
350.6185988143242
 20
439.2946805573552
 30
0.0
 11
470.6185988143241
 21
439.2946805573552
 31
0.0
  0
LINE
  5
7C6A
330
1F
100
AcDbEntity
  8
24
  6
Continuous
 62
     7
100
AcDbLine
 10
383.1185988143242
 20
322.7946805573554
 30
0.0
 11
412.8617310269238
 21
322.7946805573554
 31
0.0
  0
LINE
  5
7C6B
330
1F
100
AcDbEntity
  8
24
  6
Continuous
 62
     7
100
AcDbLine
 10
383.1185988143242
 20
327.7946805573554
 30
0.0
 11
412.8617310269238
 21
327.7946805573554
 31
0.0
  0
ARC
  5
7C6C
330
1F
100
AcDbEntity
  8
24
  6
Continuous
 62
     7
100
AcDbCircle
 10
393.0185988143242
 20
325.2946805573554
 30
0.0
 40
20.0
100
AcDbArc
 50
352.8055694888982
 51
7.194430511101937
  0
ARC
  5
7C6D
330
1F
100
AcDbEntity
  8
24
  6
Continuous
 62
     7
100
AcDbCircle
 10
382.4725349943236
 20
339.7772763337554
 30
0.0
 40
12.0
100
AcDbArc
 50
240.7833294700036
 51
273.0862196937968
  0
ARC
  5
7C6E
330
1F
100
AcDbEntity
  8
24
  6
Continuous
 62
     7
100
AcDbCircle
 10
382.4725349943236
 20
310.8120847809554
 30
0.0
 40
12.0
100
AcDbArc
 50
86.91378030620315
 51
119.2168251174987
  0
LINE
  5
7C6F
330
1F
100
AcDbEntity
  8
24
  6
Continuous
 62
     7
100
AcDbLine
 10
383.1185988143242
 20
436.7946805573553
 30
0.0
 11
412.8617310269241
 21
436.7946805573553
 31
0.0
  0
LINE
  5
7C70
330
1F
100
AcDbEntity
  8
24
  6
Continuous
 62
     7
100
AcDbLine
 10
383.1185988143242
 20
441.7946805573553
 30
0.0
 11
412.8617310269241
 21
441.7946805573553
 31
0.0
  0
ARC
  5
7C71
330
1F
100
AcDbEntity
  8
24
  6
Continuous
 62
     7
100
AcDbCircle
 10
393.0185988143243
 20
439.2946805573552
 30
0.0
 40
20.0
100
AcDbArc
 50
352.8055694888982
 51
7.194430511101937
  0
ARC
  5
7C72
330
1F
100
AcDbEntity
  8
24
  6
Continuous
 62
     7
100
AcDbCircle
 10
382.4725349943236
 20
453.7772763337553
 30
0.0
 40
12.0
100
AcDbArc
 50
240.7833294700036
 51
273.0862196937968
  0
ARC
  5
7C73
330
1F
100
AcDbEntity
  8
24
  6
Continuous
 62
     7
100
AcDbCircle
 10
382.4725349943236
 20
424.8120847809552
 30
0.0
 40
12.0
100
AcDbArc
 50
86.91378030620315
 51
119.2168251174987
  0
DIMENSION
  5
7C74
330
1F
100
AcDbEntity
  8
30
  6
Continuous
100
AcDbDimension
280
     0
  2
*D23
 10
489.5070477391631
 20
325.2946805573554
 30
0.0
 11
484.5070477391629
 21
382.2946805573553
 31
0.0
 70
    32
 71
     5
 42
114.0
 73
     0
 74
     0
 75
     0
  3
STANDARD
100
AcDbAlignedDimension
 13
469.5070477391631
 23
439.2946805573552
 33
0.0
 14
469.5070477391631
 24
325.2946805573554
 34
0.0
 50
90.0
100
AcDbRotatedDimension
1001
ACAD
1000
DSTYLE
1002
{
1070
    79
1070
     3
1002
}
  0
LWPOLYLINE
  5
7C75
330
1F
100
AcDbEntity
  8
10
  6
Continuous
100
AcDbPolyline
 90
       31
 70
     0
 43
0.0
 10
300.9203573187666
 20
331.1651555649322
 10
300.9203573187666
 20
331.1651555649322
 10
300.9203573187666
 20
331.1651555649322
 10
300.9203573187666
 20
331.1651555649322
 10
300.9203573187666
 20
331.1651555649322
 42
1.09625752610414
 10
300.9203573187666
 20
331.1651555649322
 10
292.9001836098377
 20
331.1651555649322
 10
292.9001836098377
 20
331.1651555649322
 10
292.9001836098377
 20
332.1925787621808
 10
292.9001836098377
 20
333.9114088899766
 10
292.9001836098377
 20
357.2946805573553
 10
292.9001836098377
 20
433.3814358643528
 42
-0.0855072839151511
 10
292.9001836098377
 20
433.5693378975496
 10
300.1826403106041
 20
433.5308646512912
 42
0.3758822830529091
 10
300.6812772410251
 20
433.9612658193988
 10
301.7797549892102
 20
441.7773398729981
 10
301.7797549892102
 20
441.7773398729981
 10
301.7797549892102
 20
441.7773398729981
 10
302.3615670056011
 20
445.9171412515295
 10
302.3615670056011
 20
445.9171412515295
 10
302.3615670056011
 20
445.9171412515295
 42
-0.1294431367931932
 10
303.6672838093658
 20
447.6269121003327
 10
360.4626001292107
 20
447.6269121003327
 42
0.0033336821045917
 10
360.9001823730882
 20
447.6269121003327
 10
360.9001823730882
 20
317.0269545623757
 42
8.931262686279291
 10
360.9001823730882
 20
317.0269545623757
 10
303.7716007169581
 20
317.0269545623757
 42
-0.1953144770907657
 10
302.6968860891652
 20
317.9537780074633
 10
302.3615670056011
 20
318.5715948185643
 10
300.9203573187666
 20
331.1651555649322
 42
0.1261397278995533
 10
300.9203573187666
 20
331.1651555649322
  0
LWPOLYLINE
  5
7C76
330
1F
100
AcDbEntity
  8
10
100
AcDbPolyline
 90
        9
 70
     0
 43
0.0
 10
282.4091951189749
 20
395.0307123110223
 10
274.2664916766976
 20
397.170094835389
 10
269.6824981442723
 20
398.3470648052943
 10
268.1274919550108
 20
398.1118919026383
 10
267.2164624951429
 20
396.8299489172299
 10
266.4920788903287
 20
393.53525969044
 10
266.7813764676201
 20
391.9894075532297
 10
268.0943329976329
 20
391.1236722328851
 10
282.1119697711483
 20
388.6681092176409
  0
LINE
  5
7C77
330
1F
100
AcDbEntity
  8
24
  6
CENTER
 62
     0
100
AcDbLine
 10
399.873745834204
 20
435.1693430190676
 30
0.0
 11
399.873745834204
 21
443.2958439197633
 31
0.0
  0
LINE
  5
7C78
330
1F
100
AcDbEntity
  8
24
  6
CENTER
 62
     0
100
AcDbLine
 10
395.873745834204
 20
434.9756449063201
 30
0.0
 11
395.873745834204
 21
443.2958439197633
 31
0.0
  0
LINE
  5
7C79
330
1F
100
AcDbEntity
  8
24
  6
CENTER
 62
     0
100
AcDbLine
 10
449.8969571263134
 20
435.1693430190676
 30
0.0
 11
449.8969571263134
 21
443.2958439197633
 31
0.0
  0
LINE
  5
7C7A
330
1F
100
AcDbEntity
  8
24
  6
CENTER
 62
     0
100
AcDbLine
 10
445.8969571263134
 20
434.9756449063201
 30
0.0
 11
445.8969571263134
 21
443.2958439197633
 31
0.0
  0
LINE
  5
7C7B
330
1F
100
AcDbEntity
  8
24
  6
CENTER
 62
     0
100
AcDbLine
 10
399.873745834204
 20
321.1693430190676
 30
0.0
 11
399.873745834204
 21
329.2958439197635
 31
0.0
  0
LINE
  5
7C7C
330
1F
100
AcDbEntity
  8
24
  6
CENTER
 62
     0
100
AcDbLine
 10
395.873745834204
 20
320.9756449063202
 30
0.0
 11
395.873745834204
 21
329.2958439197635
 31
0.0
  0
LINE
  5
7C7D
330
1F
100
AcDbEntity
  8
24
  6
CENTER
 62
     0
100
AcDbLine
 10
449.8969571263134
 20
321.1693430190676
 30
0.0
 11
449.8969571263134
 21
329.2958439197635
 31
0.0
  0
LINE
  5
7C7E
330
1F
100
AcDbEntity
  8
24
  6
CENTER
 62
     0
100
AcDbLine
 10
445.8969571263134
 20
320.9756449063202
 30
0.0
 11
445.8969571263134
 21
329.2958439197635
 31
0.0
  0
DIMENSION
  5
7C7F
330
1F
100
AcDbEntity
  8
30
  6
Continuous
100
AcDbDimension
280
     0
  2
*D24
 10
360.9001823730882
 20
265.5431514921811
 30
0.0
 11
313.150182991463
 21
270.543151492181
 31
0.0
 70
    32
 71
     5
 42
95.49999876325022
 73
     0
 74
     0
 75
     0
  3
STANDARD
100
AcDbAlignedDimension
 13
265.4001836098379
 23
385.9114088899767
 33
0.0
 14
360.9001823730882
 24
320.7507754607405
 34
0.0
 50
180.0
100
AcDbRotatedDimension
1001
ACAD
1000
DSTYLE
1002
{
1070
    79
1070
     3
1002
}
  0
DIMENSION
  5
7C80
330
1F
100
AcDbEntity
  8
30
  6
Continuous
100
AcDbDimension
280
     0
  2
*D25
 10
288.9001836098377
 20
276.9634192587379
 30
0.0
 11
271.610410882565
 21
276.9634192587379
 31
0.0
 70
   160
 71
     5
 42
6.5
 73
     0
 74
     0
 75
     0
  3
STANDARD
100
AcDbAlignedDimension
 13
282.4001836098377
 23
360.9114088899767
 33
0.0
 14
288.9001836098377
 24
354.8565085252878
 34
0.0
 50
180.0
100
AcDbRotatedDimension
1001
ACAD
1000
DSTYLE
1002
{
1070
    79
1070
     3
1002
}
  0
DIMENSION
  5
7C81
330
1F
100
AcDbEntity
  8
30
  6
Continuous
100
AcDbDimension
280
     0
  2
*D26
 10
360.9001823730882
 20
276.9634192587379
 30
0.0
 11
324.9001829914629
 21
281.9634192587379
 31
0.0
 70
    32
 71
     5
 42
71.99999876325046
 73
     0
 74
     0
 75
     0
  3
STANDARD
100
AcDbAlignedDimension
 13
288.9001836098377
 23
349.7223597174827
 33
0.0
 14
360.9001823730882
 24
320.7507754607405
 34
0.0
 50
180.0
100
AcDbRotatedDimension
1001
ACAD
1000
DSTYLE
1002
{
1070
    79
1070
     3
1002
}
  0
DIMENSION
  5
7C82
330
1F
100
AcDbEntity
  8
30
  6
Continuous
100
AcDbDimension
280
     0
  2
*D27
 10
360.9001823730882
 20
287.8178846470682
 30
0.0
 11
326.9001829914629
 21
292.8178846470682
 31
0.0
 70
    32
 71
     5
 42
67.99999876325045
 73
     0
 74
     0
 75
     0
  3
STANDARD
100
AcDbAlignedDimension
 13
292.9001836098377
 23
324.2711775736895
 33
0.0
 14
360.9001823730882
 24
320.7507754607405
 34
0.0
 50
180.0
100
AcDbRotatedDimension
1001
ACAD
1000
DSTYLE
1002
{
1070
    79
1070
     3
1002
}
  0
DIMENSION
  5
7C83
330
1F
100
AcDbEntity
  8
30
  6
Continuous
100
AcDbDimension
280
     0
  2
*D28
 10
360.9001823730882
 20
298.1180743723132
 30
0.0
 11
330.9001823730881
 21
303.1180743723132
 31
0.0
 70
    32
 71
     5
 42
60.0000000000001
 73
     0
 74
     0
 75
     0
  3
STANDARD
100
AcDbAlignedDimension
 13
300.900182373088
 23
320.7507754607405
 33
0.0
 14
360.9001823730882
 24
320.7507754607405
 34
0.0
 50
180.0
100
AcDbRotatedDimension
1001
ACAD
1000
DSTYLE
1002
{
1070
    79
1070
     3
1002
}
  0
LINE
  5
7C84
330
1F
100
AcDbEntity
  8
24
  6
Continuous
 62
     7
100
AcDbLine
 10
462.4717299199239
 20
436.7946805573553
 30
0.0
 11
423.7185988143236
 21
436.7946805573553
 31
0.0
  0
LINE
  5
7C85
330
1F
100
AcDbEntity
  8
24
  6
Continuous
 62
     7
100
AcDbLine
 10
423.7185988143236
 20
441.7946805573553
 30
0.0
 11
462.3837197725936
 21
441.7946805573553
 31
0.0
  0
ARC
  5
7C86
330
1F
100
AcDbEntity
  8
24
  6
Continuous
 62
     7
100
AcDbCircle
 10
447.1305089754125
 20
439.0254185128465
 30
0.0
 40
15.50255630192575
100
AcDbArc
 50
351.7267125754978
 51
10.29012314721962
  0
DIMENSION
  5
7D8A
330
1F
100
AcDbEntity
  8
30
100
AcDbDimension
280
     0
  2
*D29
 10
198.2216151052455
 20
279.3653314905109
 30
0.0
 11
138.2216151052455
 21
284.3653314905109
 31
0.0
 70
    32
 71
     5
 42
120.0
 73
     0
 74
     0
 75
     0
  3
STANDARD
100
AcDbAlignedDimension
 13
78.22161510524551
 23
317.36617178278
 33
0.0
 14
198.2216151052455
 24
317.36617178278
 34
0.0
100
AcDbRotatedDimension
  0
LINE
  5
7E89
330
1F
100
AcDbEntity
  8
0
  6
Continuous
 62
     7
100
AcDbLine
 10
136.1379532275742
 20
605.6185174180584
 30
0.0
 11
136.6401854527975
 21
606.1207496432817
 31
0.0
  0
LINE
  5
7E8A
330
1F
100
AcDbEntity
  8
0
  6
Continuous
 62
     7
100
AcDbLine
 10
139.6535778683779
 20
606.1207496432817
 30
0.0
 11
140.155811029159
 21
605.6185174180584
 31
0.0
  0
LINE
  5
7E8B
330
1F
100
AcDbEntity
  8
0
  6
Continuous
 62
     7
100
AcDbLine
 10
136.1379532275742
 20
599.0209728258262
 30
0.0
 11
136.1379532275742
 21
605.6185174180584
 31
0.0
  0
LINE
  5
7E8C
330
1F
100
AcDbEntity
  8
0
  6
Continuous
 62
     7
100
AcDbLine
 10
140.155811029159
 20
605.6185174180584
 30
0.0
 11
140.155811029159
 21
599.0209728258262
 31
0.0
  0
LINE
  5
7E8D
330
1F
100
AcDbEntity
  8
0
  6
Continuous
 62
     7
100
AcDbLine
 10
106.0040234588242
 20
605.6185174180584
 30
0.0
 11
106.5062566194048
 21
606.1207496432817
 31
0.0
  0
LINE
  5
7E8E
330
1F
100
AcDbEntity
  8
0
  6
Continuous
 62
     7
100
AcDbLine
 10
109.519649034985
 20
606.1207496432817
 30
0.0
 11
110.0218812602082
 21
605.6185174180584
 31
0.0
  0
LINE
  5
7E8F
330
1F
100
AcDbEntity
  8
0
  6
Continuous
 62
     7
100
AcDbLine
 10
106.0040234588242
 20
599.0209728258262
 30
0.0
 11
106.0040234588242
 21
605.6185174180584
 31
0.0
  0
LINE
  5
7E90
330
1F
100
AcDbEntity
  8
0
  6
Continuous
 62
     7
100
AcDbLine
 10
110.0218812602082
 20
605.6185174180584
 30
0.0
 11
110.0218812602082
 21
599.0209728258262
 31
0.0
  0
LWPOLYLINE
  5
7E91
330
1F
100
AcDbEntity
  8
24
  6
Continuous
 62
     7
100
AcDbPolyline
 90
        6
 70
     0
 43
0.0
 10
87.90795713250942
 20
614.2888299686871
 42
0.1739087674231221
 10
85.06094406556817
 20
620.3065652213117
 10
85.06094432743044
 20
649.132332876104
 42
-0.2471454556482815
 10
100.8310327556324
 20
649.1323330139606
 10
100.8310327556324
 20
620.3065652213117
 42
0.1718897542815705
 10
97.98402021241599
 20
614.2888299686873
  0
LINE
  5
7E92
330
1F
100
AcDbEntity
  8
0
  6
Continuous
 62
     7
100
AcDbLine
 10
136.1379532275742
 20
605.6185174180584
 30
0.0
 11
140.155811029159
 21
605.6185174180584
 31
0.0
  0
LINE
  5
7E93
330
1F
100
AcDbEntity
  8
0
  6
Continuous
 62
     7
100
AcDbLine
 10
136.6401854527975
 20
606.1207496432817
 30
0.0
 11
139.6535778683779
 21
606.1207496432817
 31
0.0
  0
LINE
  5
7E94
330
1F
100
AcDbEntity
  8
0
  6
Continuous
 62
     7
100
AcDbLine
 10
106.0040234588242
 20
605.6185174180584
 30
0.0
 11
110.0218812602082
 21
605.6185174180584
 31
0.0
  0
LINE
  5
7E95
330
1F
100
AcDbEntity
  8
0
  6
Continuous
 62
     7
100
AcDbLine
 10
106.5062566194048
 20
606.1207496432817
 30
0.0
 11
109.519649034985
 21
606.1207496432817
 31
0.0
  0
LINE
  5
7E96
330
1F
100
AcDbEntity
  8
0
  6
SLD-実線
370
    15
100
AcDbLine
 10
165.1972855906546
 20
526.0995473676342
 30
0.0
 11
80.96254889712794
 21
526.0995473676342
 31
0.0
  0
LINE
  5
7E97
330
1F
100
AcDbEntity
  8
0
  6
SLD-実線
370
    15
100
AcDbLine
 10
163.7494091076636
 20
530.1173976853577
 30
0.0
 11
82.41042538011891
 21
530.1173976853577
 31
0.0
  0
LINE
  5
7E98
330
1F
100
AcDbEntity
  8
24
  6
Continuous
 62
     7
100
AcDbLine
 10
100.8310327556324
 20
621.8357031327906
 30
0.0
 11
85.06094406556817
 21
621.8357031328554
 31
0.0
  0
LWPOLYLINE
  5
7E99
330
1F
100
AcDbEntity
  8
24
  6
Continuous
 62
     7
100
AcDbPolyline
 90
        5
 70
     0
 43
0.0
 10
88.67701683529743
 20
638.3959732929022
 10
88.67701683529743
 20
634.3746867052507
 42
0.9995984643691707
 10
97.21496188674848
 20
634.3781156511652
 10
97.21496188674848
 20
638.3959728258262
 42
1.0
 10
88.67701545817693
 20
638.3959728258262
  0
LWPOLYLINE
  5
7EA6
330
1F
100
AcDbEntity
  8
10
  6
CONTINOUS
100
AcDbPolyline
 90
        5
 70
     0
 43
0.0
 10
167.9310545353775
 20
530.1173976853577
 10
78.02881756992917
 20
530.1173976853577
 10
78.02881756992917
 20
599.0810857901331
 10
167.9310545353775
 20
599.0810857901331
 10
167.9310545353775
 20
530.1173976853577
  0
LWPOLYLINE
  5
7EA7
330
1F
100
AcDbEntity
  8
10
  6
CONTINOUS
100
AcDbPolyline
 90
        4
 70
     1
 43
0.0
 10
78.02881756992917
 20
530.1173976853577
 10
167.9310545353775
 20
530.1173976853577
 10
167.9310545358374
 20
532.0938953561791
 10
78.02881756992917
 20
532.0938953561791
  0
LWPOLYLINE
  5
7EA8
330
1F
100
AcDbEntity
  8
10
  6
CONTINOUS
100
AcDbPolyline
 90
        4
 70
     1
 43
0.0
 10
80.96254889712794
 20
530.1173976853577
 10
165.1972855906546
 20
530.1173976853577
 10
165.1972855906546
 20
526.0995473676342
 10
80.96254889712794
 20
526.0995473676342
  0
LWPOLYLINE
  5
7EA9
330
1F
100
AcDbEntity
  8
10
  6
CONTINOUS
100
AcDbPolyline
 90
        4
 70
     1
 43
0.0
 10
112.0799172438912
 20
526.0995473676342
 10
134.0799172438912
 20
526.0995473676342
 10
134.0799172438912
 20
519.7995530838343
 10
112.0799172438912
 20
519.7995530838343
  0
LWPOLYLINE
  5
7EAA
330
1F
100
AcDbEntity
  8
10
  6
CONTINOUS
100
AcDbPolyline
 90
        4
 70
     1
 43
0.0
 10
116.5288175699291
 20
503.6728552198343
 10
129.5288175699291
 20
503.6728552198343
 10
129.5288175699291
 20
519.7995530838343
 10
116.5288175699291
 20
519.7995530838343
  0
LWPOLYLINE
  5
7EAB
330
1F
100
AcDbEntity
  8
24
  6
Continuous
 62
     7
100
AcDbPolyline
 90
        4
 70
     0
 43
0.0
 10
84.86110081825108
 20
599.0810857901331
 10
85.12655116748497
 20
614.2888302262282
 10
100.7654256537126
 20
614.2888302262282
 10
101.0308760029466
 20
599.0810857901331
  0
DIMENSION
  5
7EAC
330
1F
100
AcDbEntity
  8
30
  6
Continuous
100
AcDbDimension
280
     0
  2
*D30
 10
123.0288173079649
 20
717.0725690048461
 30
0.0
 11
135.1538558069047
 21
717.0725690048461
 31
0.0
 70
   160
  1
30
 71
     5
 42
30.13392815979911
 73
     0
 74
     0
 75
     0
  3
STANDARD
100
AcDbAlignedDimension
 13
153.162745467764
 23
651.1411216191422
 33
0.0
 14
123.0288173079649
 24
701.0716410781883
 34
0.0
100
AcDbRotatedDimension
1001
ACAD
1000
DSTYLE
1002
{
1070
    79
1070
     3
1002
}
  0
DIMENSION
  5
7EAD
330
1F
100
AcDbEntity
  8
30
  6
Continuous
100
AcDbDimension
280
     0
  2
*D31
 10
123.0288175699292
 20
717.0810857901332
 30
0.0
 11
110.204956416425
 21
717.0810857901332
 31
0.0
 70
   160
  1
30
 71
     5
 42
30.08282915932887
 73
     0
 74
     0
 75
     0
  3
STANDARD
100
AcDbAlignedDimension
 13
92.94598841060032
 23
651.0810857901331
 33
0.0
 14
123.0288175699292
 24
701.0716410781883
 34
0.0
 50
180.0
100
AcDbRotatedDimension
1001
ACAD
1000
DSTYLE
1002
{
1070
    79
1070
     3
1002
}
  0
DIMENSION
  5
7EAE
330
1F
100
AcDbEntity
  8
30
  6
Continuous
100
AcDbDimension
280
     0
  2
*D32
 10
72.70495641642503
 20
599.0810857901331
 30
0.0
 11
67.70495641642495
 21
617.5810857901333
 31
0.0
 70
    32
 71
     5
 42
37.0
 73
     0
 74
     0
 75
     0
  3
STANDARD
100
AcDbAlignedDimension
 13
83.05570491162496
 23
636.0810857901333
 33
0.0
 14
85.20495641642503
 24
599.0810857901331
 34
0.0
 50
90.0
100
AcDbRotatedDimension
1001
ACAD
1000
DSTYLE
1002
{
1070
    79
1070
     3
1002
}
  0
DIMENSION
  5
7EAF
330
1F
100
AcDbEntity
  8
30
  6
Continuous
100
AcDbDimension
280
     0
  2
*D33
 10
62.70495641642503
 20
599.0810857901331
 30
0.0
 11
57.70495641642494
 21
625.0810857901333
 31
0.0
 70
    32
 71
     5
 42
52.0
 73
     0
 74
     0
 75
     0
  3
STANDARD
100
AcDbAlignedDimension
 13
97.70495641642504
 23
651.0810857901333
 33
0.0
 14
85.20495641642503
 24
599.0810857901331
 34
0.0
 50
90.0
100
AcDbRotatedDimension
1001
ACAD
1000
DSTYLE
1002
{
1070
    79
1070
     3
1002
}
  0
DIMENSION
  5
7EB0
330
1F
100
AcDbEntity
  8
30
  6
Continuous
100
AcDbDimension
280
     0
  2
*D34
 10
216.2006987779528
 20
599.0810857901331
 30
0.0
 11
216.2006987779527
 21
615.7810857901332
 31
0.0
 70
   160
 71
     5
 42
7.039663853148567
 73
     0
 74
     0
 75
     0
  3
STANDARD
100
AcDbAlignedDimension
 13
139.924839602406
 23
606.1207496432817
 33
0.0
 14
198.1972855906546
 24
599.0810857901331
 34
0.0
 50
90.0
100
AcDbRotatedDimension
1001
ACAD
1000
DSTYLE
1002
{
1070
   279
1070
     1
1070
    79
1070
     3
1002
}
  0
DIMENSION
  5
7EB1
330
1F
100
AcDbEntity
  8
30
  6
Continuous
100
AcDbDimension
280
     0
  2
*D35
 10
170.1692627898417
 20
630.1692557613653
 30
0.0
 11
165.1692627898416
 21
619.4192557613653
 31
0.0
 70
    32
  1
12.5
 71
     5
 42
12.55580324305344
 73
     0
 74
     0
 75
     0
  3
STANDARD
100
AcDbAlignedDimension
 13
153.2138460772843
 23
642.7250590044187
 33
0.0
 14
153.2155605503797
 24
630.1692557613653
 34
0.0
 50
90.0
100
AcDbRotatedDimension
  0
DIMENSION
  5
7EB2
330
1F
100
AcDbEntity
  8
30
  6
Continuous
100
AcDbDimension
280
     0
  2
*D36
 10
52.70495641642503
 20
599.0810857901331
 30
0.0
 11
47.70495641642494
 21
642.5810857901333
 31
0.0
 70
    32
 71
     5
 42
87.00000000000011
 73
     0
 74
     0
 75
     0
  3
STANDARD
100
AcDbAlignedDimension
 13
105.9702968344251
 23
686.0810857901333
 33
0.0
 14
85.20495641642503
 24
599.0810857901331
 34
0.0
 50
90.0
100
AcDbRotatedDimension
  0
DIMENSION
  5
7EB3
330
1F
100
AcDbEntity
  8
30
  6
Continuous
100
AcDbDimension
280
     0
  2
*D37
 10
42.70495641642503
 20
599.0810857901331
 30
0.0
 11
37.70495641642494
 21
650.0810857901333
 31
0.0
 70
    32
 71
     5
 42
102.0000000000001
 73
     0
 74
     0
 75
     0
  3
STANDARD
100
AcDbAlignedDimension
 13
122.704956416425
 23
701.0810857901332
 33
0.0
 14
85.20495641642503
 24
599.0810857901331
 34
0.0
 50
90.0
100
AcDbRotatedDimension
  0
LWPOLYLINE
  5
7EB9
330
1F
100
AcDbEntity
  8
24
  6
Continuous
 62
     7
100
AcDbPolyline
 90
        4
 70
     0
 43
0.0
 10
114.9439299776818
 20
599.14119875444
 10
115.2093803269157
 20
614.348943190535
 10
130.8482548131434
 20
614.348943190535
 10
131.1137051623773
 20
599.14119875444
  0
LINE
  5
7EBA
330
1F
100
AcDbEntity
  8
24
  6
Continuous
 62
     7
100
AcDbLine
 10
161.098890160454
 20
621.8958160970974
 30
0.0
 11
145.3288014703897
 21
621.8958160971622
 31
0.0
  0
LWPOLYLINE
  5
7EBB
330
1F
100
AcDbEntity
  8
24
  6
Continuous
 62
     7
100
AcDbPolyline
 90
        4
 70
     0
 43
0.0
 10
145.1289582230725
 20
599.14119875444
 10
145.3944085723066
 20
614.348943190535
 10
161.0332830585342
 20
614.348943190535
 10
161.2987334077681
 20
599.14119875444
  0
LINE
  5
7EBC
330
1F
100
AcDbEntity
  8
17
 48
0.5
100
AcDbLine
 10
92.94598841060032
 20
624.1288649940432
 30
0.0
 11
92.94598841060032
 21
654.8499526018042
 31
0.0
  0
LINE
  5
7EBD
330
1F
100
AcDbEntity
  8
17
 48
0.5
100
AcDbLine
 10
153.1627912831859
 20
623.5141740382082
 30
0.0
 11
153.162745467764
 21
652.1411216191424
 31
0.0
  0
LINE
  5
7EBE
330
1F
100
AcDbEntity
  8
16
 48
0.5
100
AcDbLine
 10
123.0288175699292
 20
497.6971651752498
 30
0.0
 11
123.0288175699292
 21
705.5948168714247
 31
0.0
  0
LINE
  5
7EBF
330
1F
100
AcDbEntity
  8
17
 48
0.5
100
AcDbLine
 10
83.05570491162496
 20
636.0810857901333
 30
0.0
 11
104.5513215332439
 21
636.0810857901333
 31
0.0
  0
LWPOLYLINE
  5
7EC1
330
1F
100
AcDbEntity
  8
10
100
AcDbPolyline
 90
        4
 70
     1
 43
0.0
 10
167.9310545353775
 20
599.0810857901331
 10
198.1972855906546
 20
599.0810857901331
 10
198.1972855906546
 20
530.1173976853577
 10
167.9310545353775
 20
530.1173976853577
  0
DIMENSION
  5
7EC4
330
1F
100
AcDbEntity
  8
30
  6
Continuous
100
AcDbDimension
280
     0
  2
*D38
 10
183.2455746270928
 20
717.1411216191422
 30
0.0
 11
170.4217134735887
 21
717.1411216191422
 31
0.0
 70
   160
  1
30
 71
     5
 42
30.08282915932887
 73
     0
 74
     0
 75
     0
  3
STANDARD
100
AcDbAlignedDimension
 13
153.162745467764
 23
651.1411216191422
 33
0.0
 14
183.2455746270928
 24
701.1316769071973
 34
0.0
 50
180.0
100
AcDbRotatedDimension
1001
ACAD
1000
DSTYLE
1002
{
1070
    79
1070
     3
1002
}
  0
LWPOLYLINE
  5
7EC7
330
1F
100
AcDbEntity
  8
24
  6
Continuous
 62
     7
100
AcDbPolyline
 90
        4
 70
     0
 43
0.0
 10
175.1449398539703
 20
599.14119875444
 10
175.4103902032042
 20
614.348943190535
 10
191.0492646894319
 20
614.348943190535
 10
191.3147150386658
 20
599.14119875444
  0
LINE
  5
7EC8
330
1F
100
AcDbEntity
  8
17
 48
0.5
100
AcDbLine
 10
183.2455746270928
 20
675.5519351385787
 30
0.0
 11
183.2455746270928
 21
705.0823254657047
 31
0.0
  0
LWPOLYLINE
  5
7ECA
330
1F
100
AcDbEntity
  8
24
  6
Continuous
 62
     7
100
AcDbPolyline
 90
        6
 70
     0
 43
0.0
 10
148.175814537331
 20
614.3489429329937
 42
0.1739087674231221
 10
145.3288014703897
 20
620.3666781856187
 10
145.328801732252
 20
649.1924458404107
 42
-0.2471454556482815
 10
161.098890160454
 20
649.1924459782674
 10
161.098890160454
 20
620.3666781856187
 42
0.1718897542815705
 10
158.2518776172376
 20
614.3489429329942
  0
LWPOLYLINE
  5
7ECB
330
1F
100
AcDbEntity
  8
24
  6
Continuous
 62
     7
100
AcDbPolyline
 90
        5
 70
     0
 43
0.0
 10
148.944874240119
 20
638.4560862572087
 10
148.944874240119
 20
634.4347996695577
 42
0.9995984643691707
 10
157.4828192915701
 20
634.4382286154718
 10
157.4828192915701
 20
638.4560857901329
 42
1.0
 10
148.9448728629985
 20
638.4560857901329
  0
LINE
  5
7ECD
330
1F
100
AcDbEntity
  8
17
 48
0.5
100
AcDbLine
 10
143.3235623164465
 20
636.14119875444
 30
0.0
 11
164.8191789380654
 21
636.14119875444
 31
0.0
  0
DIMENSION
  5
7ED1
330
1F
100
AcDbEntity
  8
30
  6
Continuous
100
AcDbDimension
280
     0
  2
*D40
 10
157.4828192915701
 20
663.259764498705
 30
0.0
 11
167.232220150182
 21
663.259764498705
 31
0.0
 70
   160
 71
     5
 42
8.537945051451059
 73
     0
 74
     0
 75
     0
  3
STANDARD
100
AcDbAlignedDimension
 13
148.944874240119
 23
636.14119875444
 33
0.0
 14
157.4828192915701
 24
636.14119875444
 34
0.0
100
AcDbRotatedDimension
  0
DIMENSION
  5
7ED4
330
1F
100
AcDbEntity
  8
30
  6
Continuous
100
AcDbDimension
280
     0
  2
*D39
 10
161.2342079038233
 20
677.0810857901333
 30
0.0
 11
153.2491635587911
 21
677.0810857901333
 31
0.0
 70
   160
 71
     5
 42
15.97008869006413
 73
     0
 74
     0
 75
     0
  3
STANDARD
100
AcDbAlignedDimension
 13
145.2641192137591
 23
649.0924458404109
 33
0.0
 14
161.2342079038233
 24
649.1924458404107
 34
0.0
100
AcDbRotatedDimension
  0
LINE
  5
801D
330
1F
100
AcDbEntity
  8
17
 48
0.5
100
AcDbLine
 10
74.64598867246275
 20
95.09954537476028
 30
0.0
 11
51.64598867246275
 21
95.09954537476028
 31
0.0
  0
CIRCLE
  5
836D
330
1F
100
AcDbEntity
  8
12
  6
Continuous
 62
     3
100
AcDbCircle
 10
108.1397077816163
 20
96.60278666376644
 30
0.0
 40
2.012495881220635
  0
CIRCLE
  5
836E
330
1F
100
AcDbEntity
  8
12
  6
Continuous
 62
     3
100
AcDbCircle
 10
78.20447092047356
 20
207.6463080715022
 30
0.0
 40
2.000000000000023
  0
INSERT
  5
836F
330
1F
100
AcDbEntity
  8
12
  6
Continuous
 62
     3
100
AcDbBlockReference
  2
SW_CENTERMARKSYMBOL_18
 10
78.15226956330945
 20
207.6463080715022
 30
0.0
 41
2.5
 42
2.5
 43
2.5
  0
INSERT
  5
8370
330
1F
100
AcDbEntity
  8
12
  6
Continuous
 62
     3
100
AcDbBlockReference
  2
SW_CENTERMARKSYMBOL_18
 10
108.0875064244522
 20
96.60278666376644
 30
0.0
 41
2.5
 42
2.5
 43
2.5
  0
LWPOLYLINE
  5
83A2
330
1F
100
AcDbEntity
  8
24
  6
Continuous
 62
     7
100
AcDbPolyline
 90
        5
 70
     0
 43
0.0
 10
127.2977894072952
 20
688.3865285809571
 10
127.2977894072952
 20
684.3652419933057
 42
-0.9995984643691707
 10
118.7598443558441
 20
684.3686709392202
 10
118.7598443558441
 20
688.3865281138812
 42
-1.0
 10
127.2977907844157
 20
688.3865281138812
  0
LWPOLYLINE
  5
83A3
330
1F
100
AcDbEntity
  8
24
  6
Continuous
 62
     7
100
AcDbPolyline
 90
        4
 70
     0
 43
0.0
 10
130.9138619151155
 20
663.1035607464736
 10
130.913861915162
 20
699.1228881641592
 42
0.2471454556482762
 10
115.1437734869602
 20
699.1228883020156
 10
115.142896212362
 20
663.1035607464736
  0
LINE
  5
83A4
330
1F
100
AcDbEntity
  8
17
 48
0.5
100
AcDbLine
 10
132.9191010691053
 20
686.0810857901333
 30
0.0
 11
111.4234844474863
 21
686.0810857901333
 31
0.0
  0
LINE
  5
83A5
330
1F
100
AcDbEntity
  8
24
  6
Continuous
 62
     7
100
AcDbLine
 10
114.3895478746277
 20
622.4249902158931
 30
0.0
 11
114.3895478746277
 21
621.4737639475897
 31
0.0
  0
LINE
  5
83A6
330
1F
100
AcDbEntity
  8
24
  6
Continuous
 62
     7
100
AcDbLine
 10
131.565887917708
 20
621.4737639475897
 30
0.0
 11
131.565887917708
 21
622.4249902158931
 31
0.0
  0
LINE
  5
83A7
330
1F
100
AcDbEntity
  8
24
  6
Continuous
 62
     7
100
AcDbLine
 10
115.8962445500964
 20
663.1035607464736
 30
0.0
 11
130.0591912420385
 21
663.1035607464736
 31
0.0
  0
LINE
  5
83A8
330
1F
100
AcDbEntity
  8
24
  6
Continuous
 62
     7
100
AcDbLine
 10
114.3895478746277
 20
663.1035607464736
 30
0.0
 11
114.3895478746277
 21
622.4249902158931
 31
0.0
  0
LINE
  5
83A9
330
1F
100
AcDbEntity
  8
24
  6
Continuous
 62
     7
100
AcDbLine
 10
115.8962445500964
 20
663.1035607464736
 30
0.0
 11
114.3895478746277
 21
663.1035607464736
 31
0.0
  0
LINE
  5
83AA
330
1F
100
AcDbEntity
  8
24
  6
Continuous
 62
     7
100
AcDbLine
 10
131.565887917708
 20
663.1035607464736
 30
0.0
 11
130.0591912420385
 21
663.1035607464736
 31
0.0
  0
LINE
  5
83AB
330
1F
100
AcDbEntity
  8
24
  6
Continuous
 62
     7
100
AcDbLine
 10
131.565887917708
 20
622.4249902158931
 30
0.0
 11
131.565887917708
 21
663.1035607464736
 31
0.0
  0
LINE
  5
83AC
330
1F
100
AcDbEntity
  8
24
  6
Continuous
 62
     7
100
AcDbLine
 10
130.0591912420385
 20
622.4249902158931
 30
0.0
 11
115.8962445500964
 21
622.4249902158931
 31
0.0
  0
LINE
  5
83AD
330
1F
100
AcDbEntity
  8
24
  6
Continuous
 62
     7
100
AcDbLine
 10
114.3895478746277
 20
622.4249902158931
 30
0.0
 11
115.8962445500964
 21
622.4249902158931
 31
0.0
  0
LINE
  5
83AE
330
1F
100
AcDbEntity
  8
24
  6
Continuous
 62
     7
100
AcDbLine
 10
130.0591912420385
 20
622.4249902158931
 30
0.0
 11
131.565887917708
 21
622.4249902158931
 31
0.0
  0
LINE
  5
83AF
330
1F
100
AcDbEntity
  8
24
  6
Continuous
 62
     7
100
AcDbLine
 10
130.0591912420385
 20
663.1035607464736
 30
0.0
 11
130.0591912420385
 21
622.4249902158931
 31
0.0
  0
LINE
  5
83B0
330
1F
100
AcDbEntity
  8
24
  6
Continuous
 62
     7
100
AcDbLine
 10
115.8962445500964
 20
622.4249902158931
 30
0.0
 11
115.8962445500964
 21
663.1035607464736
 31
0.0
  0
ARC
  5
83B1
330
1F
100
AcDbEntity
  8
24
  6
Continuous
 62
     7
100
AcDbCircle
 10
108.0735581227749
 20
613.3393999322636
 30
0.0
 40
9.968479384627967
100
AcDbArc
 50
5.812510157188596
 51
50.68406185258144
  0
ARC
  5
83B2
330
1F
100
AcDbEntity
  8
24
  6
Continuous
 62
     7
100
AcDbCircle
 10
138.341197766354
 20
613.2500521806876
 30
0.0
 40
10.33294762297491
100
AcDbArc
 50
130.9727204924186
 51
173.8951502389756
  0
LINE
  5
83B3
330
1F
100
AcDbEntity
  8
24
  6
Continuous
 62
     7
100
AcDbLine
 10
114.3895478746277
 20
622.4249902158931
 30
0.0
 11
131.565887917708
 21
622.4249902158931
 31
0.0
  0
LINE
  5
83B4
330
1F
100
AcDbEntity
  8
24
  6
Continuous
 62
     7
100
AcDbLine
 10
115.8962445500964
 20
663.1035607464736
 30
0.0
 11
115.8962445500964
 21
622.4249902158931
 31
0.0
  0
LINE
  5
83B5
330
1F
100
AcDbEntity
  8
24
  6
Continuous
 62
     7
100
AcDbLine
 10
130.0591912420385
 20
663.1035607464736
 30
0.0
 11
130.0591912419866
 21
622.4249902158931
 31
0.0
  0
LINE
  5
83B6
330
1F
100
AcDbEntity
  8
24
  6
Continuous
 62
     7
100
AcDbLine
 10
131.565887917708
 20
663.1035607464736
 30
0.0
 11
131.565887890896
 21
621.0516534695682
 31
0.0
  0
LINE
  5
83B7
330
1F
100
AcDbEntity
  8
24
  6
Continuous
 62
     7
100
AcDbLine
 10
114.3895478746277
 20
663.1035607464736
 30
0.0
 11
114.3895478803714
 21
621.0516534695682
 31
0.0
  0
LINE
  5
83B8
330
1F
100
AcDbEntity
  8
24
  6
Continuous
 62
     7
100
AcDbLine
 10
131.565887917708
 20
663.1035607464736
 30
0.0
 11
114.3895478746277
 21
663.1035607464736
 31
0.0
  0
DIMENSION
  5
83B9
330
1F
100
AcDbEntity
  8
30
  6
Continuous
100
AcDbDimension
280
     0
  2
*D43
 10
105.1691381488972
 20
663.1035607464736
 30
0.0
 11
100.1691381488971
 21
674.5923232683034
 31
0.0
 70
    32
 71
     5
 42
22.97752504365963
 73
     0
 74
     0
 75
     0
  3
STANDARD
100
AcDbAlignedDimension
 13
111.4234844474863
 23
686.0810857901333
 33
0.0
 14
112.6131907033492
 24
663.1035607464736
 34
0.0
 50
90.0
100
AcDbRotatedDimension
1001
ACAD
1000
DSTYLE
1002
{
1070
    79
1070
     3
1002
}
  0
LWPOLYLINE
  5
840B
330
1F
100
AcDbEntity
  8
24
  6
Continuous
 62
     7
100
AcDbPolyline
 90
        5
 70
     0
 43
0.0
 10
187.4987992835837
 20
688.3865285809571
 10
187.4987992835837
 20
684.3652419933057
 42
-0.9995984643691707
 10
178.9608542321326
 20
684.3686709392202
 10
178.9608542321326
 20
688.3865281138812
 42
-1.0
 10
187.4988006607042
 20
688.3865281138812
  0
LWPOLYLINE
  5
840C
330
1F
100
AcDbEntity
  8
24
  6
Continuous
 62
     7
100
AcDbPolyline
 90
        4
 70
     0
 43
0.0
 10
191.114871791404
 20
663.1035607464736
 10
191.1148717914506
 20
699.1228881641592
 42
0.2471454556482762
 10
175.3447833632487
 20
699.1228883020156
 10
175.3439060886505
 20
663.1035607464736
  0
LINE
  5
840D
330
1F
100
AcDbEntity
  8
17
 48
0.5
100
AcDbLine
 10
193.1201109453938
 20
686.0810857901333
 30
0.0
 11
171.6244943237748
 21
686.0810857901333
 31
0.0
  0
LINE
  5
840E
330
1F
100
AcDbEntity
  8
24
  6
Continuous
 62
     7
100
AcDbLine
 10
174.5905577509161
 20
622.4249902158931
 30
0.0
 11
174.5905577509161
 21
621.4737639475897
 31
0.0
  0
LINE
  5
840F
330
1F
100
AcDbEntity
  8
24
  6
Continuous
 62
     7
100
AcDbLine
 10
191.7668977939964
 20
621.4737639475897
 30
0.0
 11
191.7668977939964
 21
622.4249902158931
 31
0.0
  0
LINE
  5
8410
330
1F
100
AcDbEntity
  8
24
  6
Continuous
 62
     7
100
AcDbLine
 10
176.0972544263849
 20
663.1035607464736
 30
0.0
 11
190.260201118327
 21
663.1035607464736
 31
0.0
  0
LINE
  5
8411
330
1F
100
AcDbEntity
  8
24
  6
Continuous
 62
     7
100
AcDbLine
 10
174.5905577509161
 20
663.1035607464736
 30
0.0
 11
174.5905577509161
 21
622.4249902158931
 31
0.0
  0
LINE
  5
8412
330
1F
100
AcDbEntity
  8
24
  6
Continuous
 62
     7
100
AcDbLine
 10
176.0972544263849
 20
663.1035607464736
 30
0.0
 11
174.5905577509161
 21
663.1035607464736
 31
0.0
  0
LINE
  5
8413
330
1F
100
AcDbEntity
  8
24
  6
Continuous
 62
     7
100
AcDbLine
 10
191.7668977939964
 20
663.1035607464736
 30
0.0
 11
190.260201118327
 21
663.1035607464736
 31
0.0
  0
LINE
  5
8414
330
1F
100
AcDbEntity
  8
24
  6
Continuous
 62
     7
100
AcDbLine
 10
191.7668977939964
 20
622.4249902158931
 30
0.0
 11
191.7668977939964
 21
663.1035607464736
 31
0.0
  0
LINE
  5
8415
330
1F
100
AcDbEntity
  8
24
  6
Continuous
 62
     7
100
AcDbLine
 10
190.260201118327
 20
622.4249902158931
 30
0.0
 11
176.0972544263849
 21
622.4249902158931
 31
0.0
  0
LINE
  5
8416
330
1F
100
AcDbEntity
  8
24
  6
Continuous
 62
     7
100
AcDbLine
 10
174.5905577509161
 20
622.4249902158931
 30
0.0
 11
176.0972544263849
 21
622.4249902158931
 31
0.0
  0
LINE
  5
8417
330
1F
100
AcDbEntity
  8
24
  6
Continuous
 62
     7
100
AcDbLine
 10
190.260201118327
 20
622.4249902158931
 30
0.0
 11
191.7668977939964
 21
622.4249902158931
 31
0.0
  0
LINE
  5
8418
330
1F
100
AcDbEntity
  8
24
  6
Continuous
 62
     7
100
AcDbLine
 10
190.260201118327
 20
663.1035607464736
 30
0.0
 11
190.260201118327
 21
622.4249902158931
 31
0.0
  0
LINE
  5
8419
330
1F
100
AcDbEntity
  8
24
  6
Continuous
 62
     7
100
AcDbLine
 10
176.0972544263849
 20
622.4249902158931
 30
0.0
 11
176.0972544263849
 21
663.1035607464736
 31
0.0
  0
ARC
  5
841A
330
1F
100
AcDbEntity
  8
24
  6
Continuous
 62
     7
100
AcDbCircle
 10
168.2745679990634
 20
613.3393999322636
 30
0.0
 40
9.968479384627967
100
AcDbArc
 50
5.812510157188513
 51
50.68406185258144
  0
ARC
  5
841B
330
1F
100
AcDbEntity
  8
24
  6
Continuous
 62
     7
100
AcDbCircle
 10
198.5422076426425
 20
613.2500521806876
 30
0.0
 40
10.33294762297491
100
AcDbArc
 50
130.972720492418
 51
173.8951502389754
  0
LINE
  5
841C
330
1F
100
AcDbEntity
  8
24
  6
Continuous
 62
     7
100
AcDbLine
 10
174.5905577509161
 20
622.4249902158931
 30
0.0
 11
191.7668977939964
 21
622.4249902158931
 31
0.0
  0
LINE
  5
841D
330
1F
100
AcDbEntity
  8
24
  6
Continuous
 62
     7
100
AcDbLine
 10
176.0972544263849
 20
663.1035607464736
 30
0.0
 11
176.0972544263849
 21
622.4249902158931
 31
0.0
  0
LINE
  5
841E
330
1F
100
AcDbEntity
  8
24
  6
Continuous
 62
     7
100
AcDbLine
 10
190.260201118327
 20
663.1035607464736
 30
0.0
 11
190.260201118275
 21
622.4249902158931
 31
0.0
  0
LINE
  5
841F
330
1F
100
AcDbEntity
  8
24
  6
Continuous
 62
     7
100
AcDbLine
 10
191.7668977939964
 20
663.1035607464736
 30
0.0
 11
191.7668977671844
 21
621.0516534695682
 31
0.0
  0
LINE
  5
8420
330
1F
100
AcDbEntity
  8
24
  6
Continuous
 62
     7
100
AcDbLine
 10
174.5905577509161
 20
663.1035607464736
 30
0.0
 11
174.5905577566599
 21
621.0516534695682
 31
0.0
  0
LINE
  5
8421
330
1F
100
AcDbEntity
  8
24
  6
Continuous
 62
     7
100
AcDbLine
 10
191.7668977939964
 20
663.1035607464736
 30
0.0
 11
174.5905577509161
 21
663.1035607464736
 31
0.0
  0
LINE
  5
880D
330
1F
100
AcDbEntity
  8
16
 48
5.0
100
AcDbLine
 10
375.3500422757857
 20
382.2946805573553
 30
0.0
 11
274.4598787981626
 21
382.2946805573553
 31
0.0
  0
LINE
  5
88C6
330
1F
100
AcDbEntity
  8
10
  6
Continuous
100
AcDbLine
 10
185.6536740980127
 20
418.4820950231744
 30
0.0
 11
186.6536740980126
 21
419.4820950231743
 31
0.0
  0
LINE
  5
88C7
330
1F
100
AcDbEntity
  8
10
  6
Continuous
100
AcDbLine
 10
180.6536740980127
 20
419.828072523174
 30
0.0
 11
180.6536740980127
 21
412.1285400231744
 31
0.0
  0
LINE
  5
88C8
330
1F
100
AcDbEntity
  8
10
  6
Continuous
100
AcDbLine
 10
185.6536740980127
 20
420.603415023174
 30
0.0
 11
186.6536740980126
 21
421.603415023174
 31
0.0
  0
LINE
  5
88C9
330
1F
100
AcDbEntity
  8
10
  6
Continuous
100
AcDbLine
 10
179.6536740980127
 20
412.4820950231741
 30
0.0
 11
180.6536740980127
 21
413.4820950231744
 31
0.0
  0
LINE
  5
88CA
330
1F
100
AcDbEntity
  8
10
  6
Continuous
100
AcDbLine
 10
180.7918515980129
 20
419.6306775231745
 30
0.0
 11
181.5098840980129
 21
420.3487100231742
 31
0.0
  0
LINE
  5
88CB
330
1F
100
AcDbEntity
  8
10
  6
Continuous
100
AcDbLine
 10
185.6536740980127
 20
416.3607725231741
 30
0.0
 11
186.6536740980126
 21
417.3607725231743
 31
0.0
  0
LINE
  5
88CC
330
1F
100
AcDbEntity
  8
10
  6
Continuous
100
AcDbLine
 10
185.6536740980127
 20
417.4214325231745
 30
0.0
 11
186.6536740980126
 21
418.4214325231743
 31
0.0
  0
LINE
  5
88CD
330
1F
100
AcDbEntity
  8
10
  6
Continuous
100
AcDbLine
 10
185.6536740980127
 20
414.9465600231743
 30
0.0
 11
186.6536740980126
 21
415.9465600231741
 31
0.0
  0
LINE
  5
88CE
330
1F
100
AcDbEntity
  8
10
  6
Continuous
100
AcDbLine
 10
185.3048565980129
 20
413.1835275231741
 30
0.0
 11
186.6536740980126
 21
414.5323475231741
 31
0.0
  0
LINE
  5
88CF
330
1F
100
AcDbEntity
  8
10
  6
Continuous
100
AcDbLine
 10
179.6536740980127
 20
412.8356475231741
 30
0.0
 11
180.6536740980127
 21
413.8356475231741
 31
0.0
  0
LINE
  5
88D0
330
1F
100
AcDbEntity
  8
10
  6
Continuous
100
AcDbLine
 10
179.6536740980127
 20
418.4925025231741
 30
0.0
 11
180.6536740980127
 21
419.4925025231741
 31
0.0
  0
LINE
  5
88D1
330
1F
100
AcDbEntity
  8
10
  6
Continuous
100
AcDbLine
 10
179.6536740980127
 20
419.5531625231743
 30
0.0
 11
181.0731415980131
 21
420.9726275231745
 31
0.0
  0
LINE
  5
88D2
330
1F
100
AcDbEntity
  8
10
  6
Continuous
100
AcDbLine
 10
184.2857890980129
 20
414.6393350231745
 30
0.0
 11
185.0038215980129
 21
415.357367523174
 31
0.0
  0
LINE
  5
88D3
330
1F
100
AcDbEntity
  8
10
  6
Continuous
100
AcDbLine
 10
185.4504365980129
 20
412.9755550231742
 30
0.0
 11
186.6536740980126
 21
414.1787925231742
 31
0.0
  0
LINE
  5
88D4
330
1F
100
AcDbEntity
  8
10
  6
Continuous
100
AcDbLine
 10
185.6536740980127
 20
416.7143275231741
 30
0.0
 11
186.6536740980126
 21
417.7143275231739
 31
0.0
  0
LINE
  5
88D5
330
1F
100
AcDbEntity
  8
10
  6
Continuous
100
AcDbLine
 10
179.6536740980127
 20
420.9673750231744
 30
0.0
 11
180.490816598013
 21
421.8045175231742
 31
0.0
  0
LINE
  5
88D6
330
1F
100
AcDbEntity
  8
10
  6
Continuous
100
AcDbLine
 10
181.0830115980129
 20
419.2147325231744
 30
0.0
 11
181.8010440980128
 21
419.9327650231741
 31
0.0
  0
LINE
  5
88D7
330
1F
100
AcDbEntity
  8
10
  6
Continuous
100
AcDbLine
 10
179.6536740980127
 20
415.6640750231744
 30
0.0
 11
180.6536740980127
 21
416.6640750231742
 31
0.0
  0
LINE
  5
88D8
330
1F
100
AcDbEntity
  8
10
  6
Continuous
100
AcDbLine
 10
179.6536740980127
 20
414.6034150231741
 30
0.0
 11
180.6536740980127
 21
415.6034150231741
 31
0.0
  0
LINE
  5
88D9
330
1F
100
AcDbEntity
  8
10
  6
Continuous
100
AcDbLine
 10
180.9374315980129
 20
419.4227050231742
 30
0.0
 11
181.6554640980126
 21
420.1407375231744
 31
0.0
  0
LINE
  5
88DA
330
1F
100
AcDbEntity
  8
10
  6
Continuous
100
AcDbLine
 10
183.4123040980129
 20
415.8871700231741
 30
0.0
 11
184.1303390980129
 21
416.6052050231743
 31
0.0
  0
LINE
  5
88DB
330
1F
100
AcDbEntity
  8
10
  6
Continuous
100
AcDbLine
 10
185.6536740980127
 20
416.0072200231743
 30
0.0
 11
186.6536740980126
 21
417.0072200231741
 31
0.0
  0
LINE
  5
88DC
330
1F
100
AcDbEntity
  8
10
  6
Continuous
100
AcDbLine
 10
186.6536740980126
 20
412.1285400231744
 30
0.0
 11
186.6536740980126
 21
422.1285400231743
 31
0.0
  0
LINE
  5
88DD
330
1F
100
AcDbEntity
  8
10
  6
Continuous
100
AcDbLine
 10
179.6536740980127
 20
420.2602675231738
 30
0.0
 11
180.7819790980129
 21
421.3885725231744
 31
0.0
  0
LINE
  5
88DE
330
1F
100
AcDbEntity
  8
10
  6
Continuous
100
AcDbLine
 10
179.6536740980127
 20
419.9067150231743
 30
0.0
 11
180.9275590980126
 21
421.1806000231744
 31
0.0
  0
LINE
  5
88DF
330
1F
100
AcDbEntity
  8
10
  6
Continuous
100
AcDbLine
 10
185.6536740980127
 20
417.7749875231739
 30
0.0
 11
186.6536740980126
 21
418.7749875231739
 31
0.0
  0
LINE
  5
88E0
330
1F
100
AcDbEntity
  8
10
  6
Continuous
100
AcDbLine
 10
179.6536740980127
 20
416.0176275231741
 30
0.0
 11
180.6536740980127
 21
417.0176275231743
 31
0.0
  0
LINE
  5
88E1
330
1F
100
AcDbEntity
  8
10
  6
Continuous
100
AcDbLine
 10
184.8681140980129
 20
413.8074450231743
 30
0.0
 11
185.5861465980128
 21
414.5254775231741
 31
0.0
  0
LINE
  5
88E2
330
1F
100
AcDbEntity
  8
10
  6
Continuous
100
AcDbLine
 10
182.2476590980128
 20
417.550952523174
 30
0.0
 11
182.9656915980126
 21
418.268985023174
 31
0.0
  0
LINE
  5
88E3
330
1F
100
AcDbEntity
  8
10
  6
Continuous
100
AcDbLine
 10
182.5388215980128
 20
417.1350075231742
 30
0.0
 11
183.2568540980126
 21
417.8530400231744
 31
0.0
  0
LINE
  5
88E4
330
1F
100
AcDbEntity
  8
10
  6
Continuous
100
AcDbLine
 10
180.0072290980129
 20
412.1285400231744
 30
0.0
 11
180.6536740980127
 21
412.7749875231741
 31
0.0
  0
LINE
  5
88E5
330
1F
100
AcDbEntity
  8
10
  6
Continuous
100
AcDbLine
 10
179.6536740980127
 20
421.320927523174
 30
0.0
 11
180.3452365980129
 21
422.0124900231742
 31
0.0
  0
LINE
  5
88E6
330
1F
100
AcDbEntity
  8
10
  6
Continuous
100
AcDbLine
 10
179.6536740980127
 20
422.1285400231743
 30
0.0
 11
180.2640015980129
 21
422.1285400231743
 31
0.0
  0
LINE
  5
88E7
330
1F
100
AcDbEntity
  8
10
  6
Continuous
100
AcDbLine
 10
179.6536740980127
 20
414.9569675231742
 30
0.0
 11
180.6536740980127
 21
415.9569675231743
 31
0.0
  0
LINE
  5
88E8
330
1F
100
AcDbEntity
  8
10
  6
Continuous
100
AcDbLine
 10
179.6536740980127
 20
412.1285400231744
 30
0.0
 11
180.6536740980127
 21
413.1285400231744
 31
0.0
  0
LINE
  5
88E9
330
1F
100
AcDbEntity
  8
10
  6
Continuous
100
AcDbLine
 10
180.3607815980127
 20
412.1285400231744
 30
0.0
 11
180.6536740980127
 21
412.4214325231745
 31
0.0
  0
LINE
  5
88EA
330
1F
100
AcDbEntity
  8
10
  6
Continuous
100
AcDbLine
 10
185.6536740980127
 20
414.4290100231743
 30
0.0
 11
185.6536740980127
 21
422.1285400231743
 31
0.0
  0
LINE
  5
88EB
330
1F
100
AcDbEntity
  8
10
  6
Continuous
100
AcDbLine
 10
185.8871790980129
 20
412.3516375231744
 30
0.0
 11
186.6536740980126
 21
413.1181325231743
 31
0.0
  0
LINE
  5
88EC
330
1F
100
AcDbEntity
  8
10
  6
Continuous
100
AcDbLine
 10
185.6536740980127
 20
415.3001125231743
 30
0.0
 11
186.6536740980126
 21
416.3001125231743
 31
0.0
  0
LINE
  5
88ED
330
1F
100
AcDbEntity
  8
10
  6
Continuous
100
AcDbLine
 10
181.2285940980127
 20
419.0067600231741
 30
0.0
 11
181.9466265980129
 21
419.7247925231743
 31
0.0
  0
LINE
  5
88EE
330
1F
100
AcDbEntity
  8
10
  6
Continuous
100
AcDbLine
 10
181.8109165980126
 20
418.1748700231739
 30
0.0
 11
182.528949098013
 21
418.8929025231744
 31
0.0
  0
LINE
  5
88EF
330
1F
100
AcDbEntity
  8
10
  6
Continuous
100
AcDbLine
 10
185.6536740980127
 20
414.5930075231744
 30
0.0
 11
186.6536740980126
 21
415.5930075231744
 31
0.0
  0
LINE
  5
88F0
330
1F
100
AcDbEntity
  8
10
  6
Continuous
100
AcDbLine
 10
184.4313715980129
 20
414.431362523174
 30
0.0
 11
185.1494040980126
 21
415.1493950231741
 31
0.0
  0
LINE
  5
88F1
330
1F
100
AcDbEntity
  8
10
  6
Continuous
100
AcDbLine
 10
179.6536740980127
 20
413.1892000231744
 30
0.0
 11
180.6536740980127
 21
414.1892000231742
 31
0.0
  0
LINE
  5
88F2
330
1F
100
AcDbEntity
  8
10
  6
Continuous
100
AcDbLine
 10
179.6536740980127
 20
417.0782875231742
 30
0.0
 11
180.6536740980127
 21
418.0782875231744
 31
0.0
  0
LINE
  5
88F3
330
1F
100
AcDbEntity
  8
10
  6
Continuous
100
AcDbLine
 10
185.7415990980126
 20
412.5596100231742
 30
0.0
 11
186.6536740980126
 21
413.4716875231738
 31
0.0
  0
LINE
  5
88F4
330
1F
100
AcDbEntity
  8
10
  6
Continuous
100
AcDbLine
 10
185.6536740980127
 20
418.8356475231741
 30
0.0
 11
186.6536740980126
 21
419.835647523174
 31
0.0
  0
LINE
  5
88F5
330
1F
100
AcDbEntity
  8
10
  6
Continuous
100
AcDbLine
 10
185.6536740980127
 20
422.1285400231743
 30
0.0
 11
186.6536740980126
 21
422.1285400231743
 31
0.0
  0
LINE
  5
88F6
330
1F
100
AcDbEntity
  8
10
  6
Continuous
100
AcDbLine
 10
185.6536740980127
 20
419.5427550231744
 30
0.0
 11
186.6536740980126
 21
420.5427550231744
 31
0.0
  0
LINE
  5
88F7
330
1F
100
AcDbEntity
  8
10
  6
Continuous
100
AcDbLine
 10
181.5197540980129
 20
418.5908150231743
 30
0.0
 11
182.2377865980129
 21
419.3088475231744
 31
0.0
  0
LINE
  5
88F8
330
1F
100
AcDbEntity
  8
10
  6
Continuous
100
AcDbLine
 10
185.6536740980127
 20
422.0176275231743
 30
0.0
 11
185.7645865980129
 21
422.1285400231743
 31
0.0
  0
LINE
  5
88F9
330
1F
100
AcDbEntity
  8
10
  6
Continuous
100
AcDbLine
 10
179.6536740980127
 20
412.1285400231744
 30
0.0
 11
179.6536740980127
 21
422.1285400231743
 31
0.0
  0
LINE
  5
88FA
330
1F
100
AcDbEntity
  8
10
  6
Continuous
100
AcDbLine
 10
185.1592740980131
 20
413.3915000231743
 30
0.0
 11
186.6536740980126
 21
414.8859000231743
 31
0.0
  0
LINE
  5
88FB
330
1F
100
AcDbEntity
  8
10
  6
Continuous
100
AcDbLine
 10
184.140209098013
 20
414.8473075231741
 30
0.0
 11
184.8582415980126
 21
415.5653400231743
 31
0.0
  0
LINE
  5
88FC
330
1F
100
AcDbEntity
  8
10
  6
Continuous
100
AcDbLine
 10
179.6536740980127
 20
420.6138225231742
 30
0.0
 11
180.6363990980131
 21
421.5965450231744
 31
0.0
  0
LINE
  5
88FD
330
1F
100
AcDbEntity
  8
10
  6
Continuous
100
AcDbLine
 10
185.6536740980127
 20
417.0678800231741
 30
0.0
 11
186.6536740980126
 21
418.0678800231741
 31
0.0
  0
LINE
  5
88FE
330
1F
100
AcDbEntity
  8
10
  6
Continuous
100
AcDbLine
 10
186.0176365980129
 20
412.1285400231744
 30
0.0
 11
186.6536740980126
 21
412.764580023174
 31
0.0
  0
LINE
  5
88FF
330
1F
100
AcDbEntity
  8
10
  6
Continuous
100
AcDbLine
 10
182.8299815980129
 20
416.7190625231741
 30
0.0
 11
183.5480140980127
 21
417.4370950231743
 31
0.0
  0
LINE
  5
8900
330
1F
100
AcDbEntity
  8
10
  6
Continuous
100
AcDbLine
 10
179.6536740980127
 20
422.0280350231741
 30
0.0
 11
179.7541790980129
 21
422.1285400231743
 31
0.0
  0
LINE
  5
8901
330
1F
100
AcDbEntity
  8
10
  6
Continuous
100
AcDbLine
 10
185.0136940980126
 20
413.5994725231741
 30
0.0
 11
186.6536740980126
 21
415.2394525231744
 31
0.0
  0
LINE
  5
8902
330
1F
100
AcDbEntity
  8
10
  6
Continuous
100
AcDbLine
 10
179.6536740980127
 20
417.7853950231743
 30
0.0
 11
180.6536740980127
 21
418.7853950231741
 31
0.0
  0
LINE
  5
8903
330
1F
100
AcDbEntity
  8
10
  6
Continuous
100
AcDbLine
 10
183.266724098013
 20
416.0951450231744
 30
0.0
 11
183.9847565980129
 21
416.813177523174
 31
0.0
  0
LINE
  5
8904
330
1F
100
AcDbEntity
  8
10
  6
Continuous
100
AcDbLine
 10
179.6536740980127
 20
413.8963075231743
 30
0.0
 11
180.6536740980127
 21
414.8963075231743
 31
0.0
  0
LINE
  5
8905
330
1F
100
AcDbEntity
  8
10
  6
Continuous
100
AcDbLine
 10
179.6536740980127
 20
416.7247350231743
 30
0.0
 11
180.6536740980127
 21
417.7247350231743
 31
0.0
  0
LINE
  5
8906
330
1F
100
AcDbEntity
  8
10
  6
Continuous
100
AcDbLine
 10
179.6536740980127
 20
416.3711800231743
 30
0.0
 11
180.6536740980127
 21
417.3711800231743
 31
0.0
  0
LINE
  5
8907
330
1F
100
AcDbEntity
  8
10
  6
Continuous
100
AcDbLine
 10
184.7225315980129
 20
414.0154175231741
 30
0.0
 11
185.4405640980129
 21
414.7334500231744
 31
0.0
  0
LINE
  5
8908
330
1F
100
AcDbEntity
  8
10
  6
Continuous
100
AcDbLine
 10
179.6536740980127
 20
421.6744825231743
 30
0.0
 11
180.1077340980129
 21
422.1285400231743
 31
0.0
  0
LINE
  5
8909
330
1F
100
AcDbEntity
  8
10
  6
Continuous
100
AcDbLine
 10
181.3741740980131
 20
418.7987875231743
 30
0.0
 11
182.0922065980126
 21
419.5168200231744
 31
0.0
  0
LINE
  5
890A
330
1F
100
AcDbEntity
  8
10
  6
Continuous
100
AcDbLine
 10
185.5960165980127
 20
412.7675825231744
 30
0.0
 11
186.6536740980126
 21
413.8252400231744
 31
0.0
  0
LINE
  5
890B
330
1F
100
AcDbEntity
  8
10
  6
Continuous
100
AcDbLine
 10
179.6536740980127
 20
412.1285400231744
 30
0.0
 11
180.6536740980127
 21
412.1285400231744
 31
0.0
  0
LINE
  5
890C
330
1F
100
AcDbEntity
  8
10
  6
Continuous
100
AcDbLine
 10
180.2640015980129
 20
422.1285400231743
 30
0.0
 11
185.6536740980127
 21
414.4290100231743
 31
0.0
  0
LINE
  5
890D
330
1F
100
AcDbEntity
  8
10
  6
Continuous
100
AcDbLine
 10
183.1211440980126
 20
416.3031175231743
 30
0.0
 11
183.8391765980129
 21
417.021150023174
 31
0.0
  0
LINE
  5
890E
330
1F
100
AcDbEntity
  8
10
  6
Continuous
100
AcDbLine
 10
186.3711890980126
 20
412.1285400231744
 30
0.0
 11
186.6536740980126
 21
412.4110250231743
 31
0.0
  0
LINE
  5
890F
330
1F
100
AcDbEntity
  8
10
  6
Continuous
100
AcDbLine
 10
179.6536740980127
 20
418.1389475231743
 30
0.0
 11
180.6536740980127
 21
419.1389475231744
 31
0.0
  0
LINE
  5
8910
330
1F
100
AcDbEntity
  8
10
  6
Continuous
100
AcDbLine
 10
179.6536740980127
 20
419.1996075231741
 30
0.0
 11
181.2187215980129
 21
420.7646550231741
 31
0.0
  0
LINE
  5
8911
330
1F
100
AcDbEntity
  8
10
  6
Continuous
100
AcDbLine
 10
183.8490465980131
 20
415.2632525231743
 30
0.0
 11
184.5670815980129
 21
415.9812850231739
 31
0.0
  0
LINE
  5
8912
330
1F
100
AcDbEntity
  8
10
  6
Continuous
100
AcDbLine
 10
185.6536740980127
 20
420.9569675231744
 30
0.0
 11
186.6536740980126
 21
421.9569675231739
 31
0.0
  0
LINE
  5
8913
330
1F
100
AcDbEntity
  8
10
  6
Continuous
100
AcDbLine
 10
186.6536740980126
 20
412.1285400231744
 30
0.0
 11
186.0433465980128
 21
412.1285400231744
 31
0.0
  0
LINE
  5
8914
330
1F
100
AcDbEntity
  8
10
  6
Continuous
100
AcDbLine
 10
185.6536740980127
 20
420.2498600231743
 30
0.0
 11
186.6536740980126
 21
421.249860023174
 31
0.0
  0
LINE
  5
8915
330
1F
100
AcDbEntity
  8
10
  6
Continuous
100
AcDbLine
 10
185.6536740980127
 20
421.6640750231741
 30
0.0
 11
186.1181415980126
 21
422.1285400231743
 31
0.0
  0
LINE
  5
8916
330
1F
100
AcDbEntity
  8
10
  6
Continuous
100
AcDbLine
 10
180.6536740980127
 20
419.828072523174
 30
0.0
 11
186.0433465980128
 21
412.1285400231744
 31
0.0
  0
LINE
  5
8917
330
1F
100
AcDbEntity
  8
10
  6
Continuous
100
AcDbLine
 10
179.6536740980127
 20
417.4318425231742
 30
0.0
 11
180.6536740980127
 21
418.4318425231741
 31
0.0
  0
LINE
  5
8918
330
1F
100
AcDbEntity
  8
10
  6
Continuous
100
AcDbLine
 10
183.5578865980127
 20
415.6791975231742
 30
0.0
 11
184.2759190980127
 21
416.397232523174
 31
0.0
  0
LINE
  5
8919
330
1F
100
AcDbEntity
  8
10
  6
Continuous
100
AcDbLine
 10
179.6536740980127
 20
418.8460550231744
 30
0.0
 11
181.3643015980128
 21
420.5566825231742
 31
0.0
  0
LINE
  5
891A
330
1F
100
AcDbEntity
  8
10
  6
Continuous
100
AcDbLine
 10
185.6536740980127
 20
421.3105200231741
 30
0.0
 11
186.4716940980128
 21
422.1285400231743
 31
0.0
  0
LINE
  5
891B
330
1F
100
AcDbEntity
  8
10
  6
Continuous
100
AcDbLine
 10
182.9755615980129
 20
416.5110900231743
 30
0.0
 11
183.6935965980129
 21
417.2291225231739
 31
0.0
  0
LINE
  5
891C
330
1F
100
AcDbEntity
  8
10
  6
Continuous
100
AcDbLine
 10
183.9946290980129
 20
415.055280023174
 30
0.0
 11
184.7126615980127
 21
415.7733125231742
 31
0.0
  0
LINE
  5
891D
330
1F
100
AcDbEntity
  8
10
  6
Continuous
100
AcDbLine
 10
185.6536740980127
 20
419.1892000231742
 30
0.0
 11
186.6536740980126
 21
420.1892000231741
 31
0.0
  0
LINE
  5
891E
330
1F
100
AcDbEntity
  8
10
  6
Continuous
100
AcDbLine
 10
185.6536740980127
 20
418.1285400231743
 30
0.0
 11
186.6536740980126
 21
419.1285400231742
 31
0.0
  0
LINE
  5
891F
330
1F
100
AcDbEntity
  8
10
  6
Continuous
100
AcDbLine
 10
185.6536740980127
 20
415.6536675231741
 30
0.0
 11
186.6536740980126
 21
416.653667523174
 31
0.0
  0
LINE
  5
8920
330
1F
100
AcDbEntity
  8
10
  6
Continuous
100
AcDbLine
 10
182.1020790980126
 20
417.7589250231743
 30
0.0
 11
182.8201115980126
 21
418.476957523174
 31
0.0
  0
LINE
  5
8921
330
1F
100
AcDbEntity
  8
10
  6
Continuous
100
AcDbLine
 10
179.6536740980127
 20
415.3105200231741
 30
0.0
 11
180.6536740980127
 21
416.3105200231741
 31
0.0
  0
LINE
  5
8922
330
1F
100
AcDbEntity
  8
10
  6
Continuous
100
AcDbLine
 10
182.6844015980129
 20
416.9270350231744
 30
0.0
 11
183.4024340980129
 21
417.6450675231741
 31
0.0
  0
LINE
  5
8923
330
1F
100
AcDbEntity
  8
10
  6
Continuous
100
AcDbLine
 10
183.7034665980126
 20
415.4712250231744
 30
0.0
 11
184.4214990980131
 21
416.1892575231744
 31
0.0
  0
LINE
  5
8924
330
1F
100
AcDbEntity
  8
10
  6
Continuous
100
AcDbLine
 10
182.3932390980129
 20
417.3429800231743
 30
0.0
 11
183.1112715980129
 21
418.0610125231743
 31
0.0
  0
LINE
  5
8925
330
1F
100
AcDbEntity
  8
10
  6
Continuous
100
AcDbLine
 10
179.6536740980127
 20
414.2498600231741
 30
0.0
 11
180.6536740980127
 21
415.2498600231743
 31
0.0
  0
LINE
  5
8926
330
1F
100
AcDbEntity
  8
10
  6
Continuous
100
AcDbLine
 10
185.6536740980127
 20
419.8963075231742
 30
0.0
 11
186.6536740980126
 21
420.8963075231743
 31
0.0
  0
LINE
  5
8927
330
1F
100
AcDbEntity
  8
10
  6
Continuous
100
AcDbLine
 10
181.6653365980127
 20
418.3828425231743
 30
0.0
 11
182.3833690980126
 21
419.1008750231741
 31
0.0
  0
LINE
  5
8928
330
1F
100
AcDbEntity
  8
10
  6
Continuous
100
AcDbLine
 10
179.6536740980127
 20
413.5427550231741
 30
0.0
 11
180.6536740980127
 21
414.5427550231743
 31
0.0
  0
LINE
  5
8929
330
1F
100
AcDbEntity
  8
10
  6
Continuous
100
AcDbLine
 10
184.5769515980129
 20
414.2233900231743
 30
0.0
 11
185.2949840980129
 21
414.9414225231741
 31
0.0
  0
LINE
  5
892A
330
1F
100
AcDbEntity
  8
10
  6
Continuous
100
AcDbLine
 10
181.9564965980129
 20
417.9668975231741
 30
0.0
 11
182.6745290980129
 21
418.6849300231744
 31
0.0
  0
CIRCLE
  5
892B
330
1F
100
AcDbEntity
  8
10
  6
Continuous
100
AcDbCircle
 10
183.1536740980127
 20
417.1285400231744
 30
0.0
 40
8.0
  0
ENDSEC
  0
SECTION
  2
OBJECTS
  0
DICTIONARY
  5
C
330
0
100
AcDbDictionary
281
     1
  3
ACAD_CIP_PREVIOUS_PRODUCT_INFO
350
87E5
  3
ACAD_COLOR
350
59A2
  3
ACAD_DETAILVIEWSTYLE
350
599C
  3
ACAD_GROUP
350
D
  3
ACAD_LAYOUT
350
1A
  3
ACAD_MATERIAL
350
43
  3
ACAD_MLEADERSTYLE
350
599B
  3
ACAD_MLINESTYLE
350
17
  3
ACAD_PLOTSETTINGS
350
19
  3
ACAD_PLOTSTYLENAME
350
E
  3
ACAD_SCALELIST
350
47
  3
ACAD_SECTIONVIEWSTYLE
350
599D
  3
ACAD_TABLESTYLE
350
599A
  3
ACAD_VISUALSTYLE
350
2A
  3
ACDB_RECOMPOSE_DATA
350
8933
  3
AcDbVariableDictionary
350
5998
  3
AEC_PROPERTY_SET_DEFS
350
65E5
  0
SUN
  5
69
330
29
100
AcDbSun
 90
        1
290
     1
 63
     7
421
 16777215
 40
1.0
291
     1
 91
  2455826
 92
 54000000
292
     0
 70
     0
 71
   256
280
     1
  0
DICTIONARY
  5
5F3B
330
2
100
AcDbDictionary
280
     1
281
     1
  3
ACAD_LAYERSTATES
360
5F3C
  0
DICTIONARY
  5
59A9
330
10
100
AcDbDictionary
280
     1
281
     1
  3
ADSK_XREC_LAYER_RECONCILED
360
59AA
  0
DICTIONARY
  5
59AB
330
71
100
AcDbDictionary
280
     1
281
     1
  3
ADSK_XREC_LAYER_RECONCILED
360
59AC
  0
DICTIONARY
  5
649A
330
6499
100
AcDbDictionary
280
     1
281
     1
  0
DICTIONARY
  5
649C
330
649B
100
AcDbDictionary
280
     1
281
     1
  0
DICTIONARY
  5
649E
330
649D
100
AcDbDictionary
280
     1
281
     1
  0
DICTIONARY
  5
64A0
330
649F
100
AcDbDictionary
280
     1
281
     1
  0
DICTIONARY
  5
64A2
330
64A1
100
AcDbDictionary
280
     1
281
     1
  0
DICTIONARY
  5
7308
330
7307
100
AcDbDictionary
280
     1
281
     1
  0
DICTIONARY
  5
8360
330
835F
100
AcDbDictionary
280
     1
281
     1
  0
DICTIONARY
  5
72CC
330
1F
100
AcDbDictionary
280
     1
281
     1
  3
ACAD_SORTENTS
360
72CD
  0
DICTIONARY
  5
7A85
330
7A82
100
AcDbDictionary
280
     1
281
     1
  3
ACAD_SORTENTS
360
7A86
  0
DICTIONARY
  5
806C
330
806A
100
AcDbDictionary
280
     1
281
     1
  3
ACAD_SORTENTS
360
806D
  0
DICTIONARY
  5
7283
330
7276
100
AcDbDictionary
280
     1
281
     1
  3
ACAD_DIMASSOC
360
728D
  0
DICTIONARY
  5
75CE
330
75C1
100
AcDbDictionary
280
     1
281
     1
  3
ACAD_DIMASSOC
360
75D8
  0
XRECORD
  5
87E5
102
{ACAD_REACTORS
330
C
102
}
330
C
100
AcDbXrecord
280
     1
300
ACDLT
300
2014
300
ACDLT_F_S
  0
DICTIONARY
  5
59A2
102
{ACAD_REACTORS
330
C
102
}
330
C
100
AcDbDictionary
281
     1
  0
DICTIONARY
  5
599C
102
{ACAD_REACTORS
330
C
102
}
330
C
100
AcDbDictionary
281
     1
  3
Imperial24
350
8858
  3
Metric50
350
87E0
  0
DICTIONARY
  5
D
102
{ACAD_REACTORS
330
C
102
}
330
C
100
AcDbDictionary
281
     1
  0
DICTIONARY
  5
1A
102
{ACAD_REACTORS
330
C
102
}
330
C
100
AcDbDictionary
281
     1
  3
Layout1
350
1E
  3
Layout2
350
26
  3
Model
350
22
  0
DICTIONARY
  5
43
102
{ACAD_REACTORS
330
C
102
}
330
C
100
AcDbDictionary
281
     1
  3
ByBlock
350
45
  3
ByLayer
350
44
  3
Global
350
46
  0
DICTIONARY
  5
599B
102
{ACAD_REACTORS
330
C
102
}
330
C
100
AcDbDictionary
281
     1
  3
Standard
350
59A4
  0
DICTIONARY
  5
17
102
{ACAD_REACTORS
330
C
102
}
330
C
100
AcDbDictionary
281
     1
  3
Standard
350
18
  0
DICTIONARY
  5
19
102
{ACAD_REACTORS
330
C
102
}
330
C
100
AcDbDictionary
281
     1
  0
ACDBDICTIONARYWDFLT
  5
E
102
{ACAD_REACTORS
330
C
102
}
330
C
100
AcDbDictionary
281
     1
  3
Normal
350
F
100
AcDbDictionaryWithDefault
340
F
  0
DICTIONARY
  5
47
102
{ACAD_REACTORS
330
C
102
}
330
C
100
AcDbDictionary
281
     1
  3
A0
350
48
  3
A1
350
49
  3
A2
350
4A
  3
A3
350
4B
  3
A4
350
4C
  3
A5
350
4D
  3
A6
350
4E
  3
A7
350
4F
  3
A8
350
50
  3
A9
350
51
  3
B0
350
52
  3
B1
350
53
  3
B2
350
54
  3
B3
350
55
  3
B4
350
56
  3
B5
350
57
  3
B6
350
58
  3
B7
350
59
  3
B8
350
5A
  3
B9
350
5B
  3
C0
350
5C
  3
C1
350
5D
  3
C2
350
5E
  3
C3
350
5F
  3
C4
350
60
  3
C5
350
61
  3
C6
350
62
  3
C7
350
63
  3
C8
350
64
  3
C9
350
65
  3
D0
350
66
  3
D1
350
67
  3
D2
350
68
  0
DICTIONARY
  5
599D
102
{ACAD_REACTORS
330
C
102
}
330
C
100
AcDbDictionary
281
     1
  3
Imperial24
350
8857
  3
Metric50
350
87DF
  0
DICTIONARY
  5
599A
102
{ACAD_REACTORS
330
C
102
}
330
C
100
AcDbDictionary
281
     1
  3
Standard
350
59A3
  0
DICTIONARY
  5
2A
102
{ACAD_REACTORS
330
C
102
}
330
C
100
AcDbDictionary
281
     1
  3
2dWireframe
350
2F
  3
3D Hidden
350
59A1
  3
3dWireframe
350
59A0
  3
Basic
350
32
  3
Brighten
350
36
  3
ColorChange
350
3A
  3
Conceptual
350
34
  3
Dim
350
35
  3
EdgeColorOff
350
3D
  3
Facepattern
350
39
  3
Flat
350
2B
  3
FlatWithEdges
350
2C
  3
Gouraud
350
2D
  3
GouraudWithEdges
350
2E
  3
Hidden
350
31
  3
JitterOff
350
3B
  3
Linepattern
350
38
  3
OverhangOff
350
3C
  3
Realistic
350
33
  3
Shaded
350
42
  3
Shaded with edges
350
41
  3
Shades of Gray
350
3E
  3
Sketchy
350
3F
  3
Thicken
350
37
  3
Wireframe
350
30
  3
X-Ray
350
40
  0
XRECORD
  5
8933
102
{ACAD_REACTORS
330
C
102
}
330
C
100
AcDbXrecord
280
     1
 90
        1
330
59A3
330
87DF
330
87E0
330
8857
330
8858
  0
DICTIONARY
  5
5998
102
{ACAD_REACTORS
330
C
102
}
330
C
100
AcDbDictionary
281
     1
  3
CANNOSCALE
350
5999
  3
CMLEADERSTYLE
350
59B4
  3
CTABLESTYLE
350
59B3
  3
CVIEWDETAILSTYLE
350
87FE
  3
CVIEWSECTIONSTYLE
350
87FF
  3
LAYEREVAL
350
59B5
  3
LAYERNOTIFY
350
59B6
  0
DICTIONARY
  5
65E5
102
{ACAD_REACTORS
330
C
102
}
330
C
100
AcDbDictionary
281
     1
  0
DICTIONARY
  5
5F3C
102
{ACAD_REACTORS
330
5F3B
102
}
330
5F3B
100
AcDbDictionary
281
     1
  0
XRECORD
  5
59AA
102
{ACAD_REACTORS
330
59A9
102
}
330
59A9
100
AcDbXrecord
280
     1
290
     1
  0
XRECORD
  5
59AC
102
{ACAD_REACTORS
330
59AB
102
}
330
59AB
100
AcDbXrecord
280
     1
290
     1
  0
SORTENTSTABLE
  5
72CD
102
{ACAD_REACTORS
330
72CC
102
}
330
72CC
100
AcDbSortentsTable
330
1F
331
76C0
  5
7773
331
6719
  5
7351
331
76E8
  5
7779
331
666A
  5
666A
331
6716
  5
734E
331
7778
  5
77A2
331
7351
  5
7414
331
6646
  5
6646
331
7780
  5
77A9
331
662B
  5
662B
331
6702
  5
6716
331
73E9
  5
7581
331
6633
  5
6633
331
6666
  5
6666
331
670A
  5
671C
331
663B
  5
663B
331
75C1
  5
76E6
331
6676
  5
6676
331
76C1
  5
7774
331
671A
  5
7352
331
7729
  5
777B
331
7276
  5
7356
331
76E9
  5
777A
331
666B
  5
666B
331
6717
  5
734F
331
6624
  5
6624
331
7779
  5
77A3
331
6703
  5
6717
331
73EA
  5
7582
331
662C
  5
662C
331
6634
  5
6634
331
6667
  5
6667
331
670B
  5
671D
331
663C
  5
663C
331
7672
  5
76E9
331
6677
  5
6677
331
7414
  5
76BE
331
671B
  5
7353
331
666C
  5
666C
331
7772
  5
777D
331
6710
  5
6DC0
331
777A
  5
77A4
331
7353
  5
7452
331
6648
  5
6648
331
734B
  5
73EB
331
73EB
  5
7583
331
662D
  5
662D
331
7433
  5
76BF
331
6704
  5
6718
331
6635
  5
6635
331
670C
  5
6A8B
331
663D
  5
663D
331
6670
  5
6670
331
6678
  5
6678
331
6655
  5
6655
331
76C3
  5
7776
331
671C
  5
7354
331
666D
  5
666D
331
7773
  5
777E
331
6711
  5
6DC1
331
6641
  5
6641
331
734C
  5
73ED
331
777B
  5
77A5
331
7354
  5
7453
331
73EC
  5
7585
331
662E
  5
662E
331
6636
  5
6636
331
6671
  5
6671
331
6679
  5
6679
331
671D
  5
7355
331
665E
  5
665E
331
666E
  5
666E
331
7774
  5
7780
331
6712
  5
6DC2
331
6642
  5
6642
331
777C
  5
77A6
331
6627
  5
6627
331
7355
  5
7454
331
664A
  5
664A
331
734D
  5
73EE
331
73ED
  5
7590
331
662F
  5
662F
331
6662
  5
6662
331
6637
  5
6637
331
79E4
  5
7AC1
331
663F
  5
663F
331
6672
  5
6672
331
667A
  5
667A
331
665F
  5
665F
331
772D
  5
777C
331
666F
  5
666F
331
7316
  5
73E9
331
7775
  5
779A
331
6713
  5
734B
331
6620
  5
6620
331
6643
  5
6643
331
66FF
  5
6713
331
734E
  5
73EF
331
777D
  5
77A7
331
7356
  5
7455
331
664B
  5
664B
331
6707
  5
6719
331
73EE
  5
75C1
331
6663
  5
6663
331
6630
  5
6630
331
6638
  5
6638
331
667B
  5
667B
331
76BE
  5
772D
331
76C6
  5
7777
331
76E6
  5
7778
331
6668
  5
6668
331
7317
  5
73EA
331
7776
  5
77A0
331
6644
  5
6644
331
6621
  5
6621
331
777E
  5
77A8
331
6700
  5
6714
331
734F
  5
73F0
331
73EF
  5
75FA
331
6631
  5
6631
331
6664
  5
6664
331
6708
  5
671A
331
6639
  5
6639
331
6718
  5
7350
331
76BF
  5
7772
331
6669
  5
6669
331
7777
  5
77A1
331
6715
  5
734D
331
6622
  5
6622
331
6701
  5
6715
331
664D
  5
664D
331
662A
  5
662A
331
6709
  5
671B
331
73F0
  5
7672
331
6665
  5
6665
331
6632
  5
6632
331
663A
  5
663A
  0
SORTENTSTABLE
  5
7A86
102
{ACAD_REACTORS
330
7A85
102
}
330
7A85
100
AcDbSortentsTable
330
7A82
  0
SORTENTSTABLE
  5
806D
102
{ACAD_REACTORS
330
806C
102
}
330
806C
100
AcDbSortentsTable
330
806A
  0
DIMASSOC
  5
728D
102
{ACAD_REACTORS
330
7283
102
}
330
7283
100
AcDbDimAssoc
330
7276
 90
        2
 70
     0
 71
     0
  1
AcDbOsnapPointRef
 72
     1
331
670C
 73
     2
 91
        0
 40
1.0
 10
0.0
 20
0.0
 30
2.000000000000000E+50
 75
     0
  0
DIMASSOC
  5
75D8
102
{ACAD_REACTORS
330
75CE
102
}
330
75CE
100
AcDbDimAssoc
330
75C1
 90
        3
 70
     0
 71
     0
  1
AcDbOsnapPointRef
 72
     1
331
667A
 73
     2
 91
        3
 40
1.0
 10
0.0
 20
0.0
 30
2.000000000000000E+50
 75
     0
  1
AcDbOsnapPointRef
 72
     1
331
667A
 73
     2
 91
        2
 40
1.0
 10
0.0
 20
0.0
 30
2.000000000000000E+50
 75
     0
  0
ACDBDETAILVIEWSTYLE
  5
8858
102
{ACAD_XDICTIONARY
360
8931
102
}
102
{ACAD_REACTORS
330
599C
102
}
330
599C
100
AcDbModelDocViewStyle
 70
     0
  3
Imperial24
290
     0
100
AcDbDetailViewStyle
 70
     0
 71
     0
 90
        3
 71
     1
340
11
 62
   256
 40
0.24
340
0
 62
   256
 40
0.24
300

 40
0.36
280
     3
 71
     2
340
16
 90
       25
 62
   256
 71
     3
340
11
 62
   256
 40
0.24
 90
        1
 40
0.75
 90
        1
300
%<\AcVar ViewType \f "%tc1">% %<\AcVar ViewDetailId>%\PSCALE %<\AcVar ViewScale \f "%sn">%
 71
     4
340
16
 90
       25
 62
   256
340
16
 90
       25
 62
   256
280
     0
  0
ACDBDETAILVIEWSTYLE
  5
87E0
102
{ACAD_XDICTIONARY
360
8803
102
}
102
{ACAD_REACTORS
330
599C
102
}
330
599C
100
AcDbModelDocViewStyle
 70
     0
  3
Metric50
290
     0
100
AcDbDetailViewStyle
 70
     0
 71
     0
 90
        3
 71
     1
340
11
 62
   256
 40
5.0
340
0
 62
   256
 40
5.0
300

 40
0.0
280
     1
 71
     2
340
16
 90
       25
 62
   256
 71
     3
340
11
 62
   256
 40
5.0
 90
        0
 40
15.0
 90
        1
300
%<\AcVar ViewDetailId>% (%<\AcVar ViewScale \f "%sn">%)
 71
     4
340
16
 90
       25
 62
   256
340
16
 90
       25
 62
   256
280
     0
  0
LAYOUT
  5
1E
102
{ACAD_REACTORS
330
1A
102
}
330
1A
100
AcDbPlotSettings
  1

  2
none_device
  4

  6

 40
0.0
 41
0.0
 42
0.0
 43
0.0
 44
0.0
 45
0.0
 46
0.0
 47
0.0
 48
0.0
 49
0.0
140
0.0
141
0.0
142
1.0
143
1.0
 70
   688
 72
     1
 73
     0
 74
     5
  7
monochrome.ctb
 75
    16
147
1.0
 76
     0
 77
     2
 78
   300
148
0.0
149
0.0
100
AcDbLayout
  1
Layout1
 70
     1
 71
     1
 10
0.0
 20
0.0
 11
420.0
 21
297.0
 12
0.0
 22
0.0
 32
0.0
 14
1.000000000000000E+20
 24
1.000000000000000E+20
 34
1.000000000000000E+20
 15
-1.000000000000000E+20
 25
-1.000000000000000E+20
 35
-1.000000000000000E+20
146
0.0
 13
0.0
 23
0.0
 33
0.0
 16
1.0
 26
0.0
 36
0.0
 17
0.0
 27
1.0
 37
0.0
 76
     0
330
1B
  0
LAYOUT
  5
26
102
{ACAD_REACTORS
330
1A
102
}
330
1A
100
AcDbPlotSettings
  1

  2
none_device
  4

  6

 40
0.0
 41
0.0
 42
0.0
 43
0.0
 44
0.0
 45
0.0
 46
0.0
 47
0.0
 48
0.0
 49
0.0
140
0.0
141
0.0
142
1.0
143
1.0
 70
   688
 72
     1
 73
     0
 74
     5
  7
monochrome.ctb
 75
    16
147
1.0
 76
     0
 77
     2
 78
   300
148
0.0
149
0.0
100
AcDbLayout
  1
Layout2
 70
     1
 71
     2
 10
0.0
 20
0.0
 11
0.0
 21
0.0
 12
0.0
 22
0.0
 32
0.0
 14
0.0
 24
0.0
 34
0.0
 15
0.0
 25
0.0
 35
0.0
146
0.0
 13
0.0
 23
0.0
 33
0.0
 16
1.0
 26
0.0
 36
0.0
 17
0.0
 27
1.0
 37
0.0
 76
     0
330
23
  0
LAYOUT
  5
22
102
{ACAD_XDICTIONARY
360
5F41
102
}
102
{ACAD_REACTORS
330
1A
102
}
330
1A
100
AcDbPlotSettings
  1

  2
none_device
  4
Letter_(8.50_x_11.00_Inches)
  6

 40
6.349999999999997
 41
6.349999999999997
 42
6.350005079999997
 43
6.350005079999997
 44
215.9
 45
279.4
 46
0.0
 47
0.0
 48
0.0
 49
0.0
140
0.0
141
0.0
142
1.0
143
1.0
 70
  1712
 72
     1
 73
     0
 74
     0
  7
monochrome.ctb
 75
     0
147
1.0
 76
     0
 77
     2
 78
   300
148
0.0
149
0.0
100
AcDbLayout
  1
Model
 70
     1
 71
     0
 10
0.0
 20
0.0
 11
594.0
 21
420.0
 12
0.0
 22
0.0
 32
0.0
 14
0.0
 24
0.0
 34
0.0
 15
594.0
 25
420.0
 35
0.0
146
0.0
 13
0.0
 23
0.0
 33
0.0
 16
1.0
 26
0.0
 36
0.0
 17
0.0
 27
1.0
 37
0.0
 76
     0
330
1F
331
29
  0
MATERIAL
  5
45
102
{ACAD_REACTORS
330
43
102
}
330
43
100
AcDbMaterial
  1
ByBlock
  0
MATERIAL
  5
44
102
{ACAD_REACTORS
330
43
102
}
330
43
100
AcDbMaterial
  1
ByLayer
  0
MATERIAL
  5
46
102
{ACAD_REACTORS
330
43
102
}
330
43
100
AcDbMaterial
  1
Global
  0
MLEADERSTYLE
  5
59A4
102
{ACAD_REACTORS
330
599B
102
}
330
599B
100
AcDbMLeaderStyle
179
     2
170
     2
171
     1
172
     0
 90
        2
 40
0.0
 41
0.0
173
     1
 91
-1056964608
340
14
 92
       -2
290
     1
 42
2.0
291
     1
 43
0.36
  3
Standard
 44
4.0
300

342
11
174
     1
178
     6
175
     1
176
     0
 93
-1056964608
 45
4.0
292
     0
297
     0
 46
4.0
 94
-1056964608
 47
1.0
 49
1.0
140
1.0
293
     1
141
0.0
294
     1
177
     0
142
1.0
295
     0
296
     0
143
0.125
271
     0
272
     9
273
     9
298
     0
  0
MLINESTYLE
  5
18
102
{ACAD_REACTORS
330
17
102
}
330
17
100
AcDbMlineStyle
  2
STANDARD
 70
     0
  3

 62
   256
 51
90.0
 52
90.0
 71
     2
 49
0.5
 62
   256
  6
BYLAYER
 49
-0.5
 62
   256
  6
BYLAYER
  0
ACDBPLACEHOLDER
  5
F
102
{ACAD_REACTORS
330
E
102
}
330
E
  0
SCALE
  5
48
102
{ACAD_REACTORS
330
47
102
}
330
47
100
AcDbScale
 70
     0
300
1:1
140
1.0
141
1.0
290
     1
  0
SCALE
  5
49
102
{ACAD_REACTORS
330
47
102
}
330
47
100
AcDbScale
 70
     0
300
1:2
140
1.0
141
2.0
290
     0
  0
SCALE
  5
4A
102
{ACAD_REACTORS
330
47
102
}
330
47
100
AcDbScale
 70
     0
300
1:4
140
1.0
141
4.0
290
     0
  0
SCALE
  5
4B
102
{ACAD_REACTORS
330
47
102
}
330
47
100
AcDbScale
 70
     0
300
1:5
140
1.0
141
5.0
290
     0
  0
SCALE
  5
4C
102
{ACAD_REACTORS
330
47
102
}
330
47
100
AcDbScale
 70
     0
300
1:8
140
1.0
141
8.0
290
     0
  0
SCALE
  5
4D
102
{ACAD_REACTORS
330
47
102
}
330
47
100
AcDbScale
 70
     0
300
1:10
140
1.0
141
10.0
290
     0
  0
SCALE
  5
4E
102
{ACAD_REACTORS
330
47
102
}
330
47
100
AcDbScale
 70
     0
300
1:16
140
1.0
141
16.0
290
     0
  0
SCALE
  5
4F
102
{ACAD_REACTORS
330
47
102
}
330
47
100
AcDbScale
 70
     0
300
1:20
140
1.0
141
20.0
290
     0
  0
SCALE
  5
50
102
{ACAD_REACTORS
330
47
102
}
330
47
100
AcDbScale
 70
     0
300
1:30
140
1.0
141
30.0
290
     0
  0
SCALE
  5
51
102
{ACAD_REACTORS
330
47
102
}
330
47
100
AcDbScale
 70
     0
300
1:40
140
1.0
141
40.0
290
     0
  0
SCALE
  5
52
102
{ACAD_REACTORS
330
47
102
}
330
47
100
AcDbScale
 70
     0
300
1:50
140
1.0
141
50.0
290
     0
  0
SCALE
  5
53
102
{ACAD_REACTORS
330
47
102
}
330
47
100
AcDbScale
 70
     0
300
1:100
140
1.0
141
100.0
290
     0
  0
SCALE
  5
54
102
{ACAD_REACTORS
330
47
102
}
330
47
100
AcDbScale
 70
     0
300
2:1
140
2.0
141
1.0
290
     0
  0
SCALE
  5
55
102
{ACAD_REACTORS
330
47
102
}
330
47
100
AcDbScale
 70
     0
300
4:1
140
4.0
141
1.0
290
     0
  0
SCALE
  5
56
102
{ACAD_REACTORS
330
47
102
}
330
47
100
AcDbScale
 70
     0
300
8:1
140
8.0
141
1.0
290
     0
  0
SCALE
  5
57
102
{ACAD_REACTORS
330
47
102
}
330
47
100
AcDbScale
 70
     0
300
10:1
140
10.0
141
1.0
290
     0
  0
SCALE
  5
58
102
{ACAD_REACTORS
330
47
102
}
330
47
100
AcDbScale
 70
     0
300
100:1
140
100.0
141
1.0
290
     0
  0
SCALE
  5
59
102
{ACAD_REACTORS
330
47
102
}
330
47
100
AcDbScale
 70
     0
300
1/128" = 1'-0"
140
0.0078125
141
12.0
290
     0
  0
SCALE
  5
5A
102
{ACAD_REACTORS
330
47
102
}
330
47
100
AcDbScale
 70
     0
300
1/64" = 1'-0"
140
0.015625
141
12.0
290
     0
  0
SCALE
  5
5B
102
{ACAD_REACTORS
330
47
102
}
330
47
100
AcDbScale
 70
     0
300
1/32" = 1'-0"
140
0.03125
141
12.0
290
     0
  0
SCALE
  5
5C
102
{ACAD_REACTORS
330
47
102
}
330
47
100
AcDbScale
 70
     0
300
1/16" = 1'-0"
140
0.0625
141
12.0
290
     0
  0
SCALE
  5
5D
102
{ACAD_REACTORS
330
47
102
}
330
47
100
AcDbScale
 70
     0
300
3/32" = 1'-0"
140
0.09375
141
12.0
290
     0
  0
SCALE
  5
5E
102
{ACAD_REACTORS
330
47
102
}
330
47
100
AcDbScale
 70
     0
300
1/8" = 1'-0"
140
0.125
141
12.0
290
     0
  0
SCALE
  5
5F
102
{ACAD_REACTORS
330
47
102
}
330
47
100
AcDbScale
 70
     0
300
3/16" = 1'-0"
140
0.1875
141
12.0
290
     0
  0
SCALE
  5
60
102
{ACAD_REACTORS
330
47
102
}
330
47
100
AcDbScale
 70
     0
300
1/4" = 1'-0"
140
0.25
141
12.0
290
     0
  0
SCALE
  5
61
102
{ACAD_REACTORS
330
47
102
}
330
47
100
AcDbScale
 70
     0
300
3/8" = 1'-0"
140
0.375
141
12.0
290
     0
  0
SCALE
  5
62
102
{ACAD_REACTORS
330
47
102
}
330
47
100
AcDbScale
 70
     0
300
1/2" = 1'-0"
140
0.5
141
12.0
290
     0
  0
SCALE
  5
63
102
{ACAD_REACTORS
330
47
102
}
330
47
100
AcDbScale
 70
     0
300
3/4" = 1'-0"
140
0.75
141
12.0
290
     0
  0
SCALE
  5
64
102
{ACAD_REACTORS
330
47
102
}
330
47
100
AcDbScale
 70
     0
300
1" = 1'-0"
140
1.0
141
12.0
290
     0
  0
SCALE
  5
65
102
{ACAD_REACTORS
330
47
102
}
330
47
100
AcDbScale
 70
     0
300
1-1/2" = 1'-0"
140
1.5
141
12.0
290
     0
  0
SCALE
  5
66
102
{ACAD_REACTORS
330
47
102
}
330
47
100
AcDbScale
 70
     0
300
3" = 1'-0"
140
3.0
141
12.0
290
     0
  0
SCALE
  5
67
102
{ACAD_REACTORS
330
47
102
}
330
47
100
AcDbScale
 70
     0
300
6" = 1'-0"
140
6.0
141
12.0
290
     0
  0
SCALE
  5
68
102
{ACAD_REACTORS
330
47
102
}
330
47
100
AcDbScale
 70
     0
300
1'-0" = 1'-0"
140
12.0
141
12.0
290
     0
  0
ACDBSECTIONVIEWSTYLE
  5
8857
102
{ACAD_XDICTIONARY
360
892F
102
}
102
{ACAD_REACTORS
330
599D
102
}
330
599D
100
AcDbModelDocViewStyle
 70
     0
  3
Imperial24
290
     0
100
AcDbSectionViewStyle
 70
     0
 71
     0
 90
       78
 71
     1
340
11
 62
   256
 40
0.24
340
0
340
0
 62
   256
 40
0.24
300
I, O, Q, S, X, Z
 40
0.48
 90
        3
 40
0.18
 90
        1
 71
     2
340
16
 90
       25
 62
   256
340
16
 90
       50
 62
   256
 40
0.24
 40
0.0
 40
0.24
 71
     3
340
11
 62
   256
 40
0.24
 90
        1
 40
0.75
 90
        1
300
%<\AcVar ViewType \f "%tc1">% %<\AcVar ViewSectionStartId>%-%<\AcVar ViewSectionEndId>%\PSCALE %<\AcVar ViewScale \f "%sn">%
 71
     4
 62
   256
 62
   257
300
ANSI31
 40
1.0
 90
        0
290
     0
290
     0
 90
        6
 40
0.0
 40
1.570796326794896
 40
0.2617993877991494
 40
1.308996938995747
 40
-0.2617993877991494
 40
1.832595714594046
  0
ACDBSECTIONVIEWSTYLE
  5
87DF
102
{ACAD_XDICTIONARY
360
8801
102
}
102
{ACAD_REACTORS
330
599D
102
}
330
599D
100
AcDbModelDocViewStyle
 70
     0
  3
Metric50
290
     0
100
AcDbSectionViewStyle
 70
     0
 71
     0
 90
      102
 71
     1
340
11
 62
   256
 40
5.0
340
0
340
0
 62
   256
 40
5.0
300
I, O, Q, S, X, Z
 40
10.0
 90
        0
 40
2.5
 90
        0
 71
     2
340
16
 90
       25
 62
   256
340
16
 90
       50
 62
   256
 40
5.0
 40
2.5
 40
5.0
 71
     3
340
11
 62
   256
 40
5.0
 90
        0
 40
15.0
 90
        1
300
%<\AcVar ViewSectionStartId>%-%<\AcVar ViewSectionEndId>% (%<\AcVar ViewScale \f "%sn">%)
 71
     4
 62
   256
 62
   257
300
ANSI31
 40
1.0
 90
        0
290
     0
290
     0
 90
        6
 40
0.0
 40
1.570796326794896
 40
0.2617993877991494
 40
1.308996938995747
 40
-0.2617993877991494
 40
1.832595714594044
  0
TABLESTYLE
  5
59A3
102
{ACAD_XDICTIONARY
360
87DA
102
}
102
{ACAD_REACTORS
330
599A
102
}
330
599A
100
AcDbTableStyle
280
     0
  3
Standard
 70
     0
 71
     0
 40
1.5
 41
1.5
280
     0
281
     0
  7
STANDARD
140
4.5
170
     2
 62
     0
 63
     7
283
     0
 90
      512
 91
        0
  1

274
    -2
284
     1
 64
     0
275
    -2
285
     1
 65
     0
276
    -2
286
     1
 66
     0
277
    -2
287
     1
 67
     0
278
    -2
288
     1
 68
     0
279
    -2
289
     1
 69
     0
  7
STANDARD
140
6.0
170
     5
 62
     0
 63
     7
283
     0
 90
      512
 91
        0
  1

274
    -2
284
     1
 64
     0
275
    -2
285
     1
 65
     0
276
    -2
286
     1
 66
     0
277
    -2
287
     1
 67
     0
278
    -2
288
     1
 68
     0
279
    -2
289
     1
 69
     0
  7
STANDARD
140
4.5
170
     5
 62
     0
 63
     7
283
     0
 90
      512
 91
        0
  1

274
    -2
284
     1
 64
     0
275
    -2
285
     1
 65
     0
276
    -2
286
     1
 66
     0
277
    -2
287
     1
 67
     0
278
    -2
288
     1
 68
     0
279
    -2
289
     1
 69
     0
  0
VISUALSTYLE
  5
2F
102
{ACAD_REACTORS
330
2A
102
}
330
2A
100
AcDbVisualStyle
  2

 70
     4
177
     3
291
     0
 70
    58
 90
        0
176
     1
 90
        2
176
     1
 90
        0
176
     1
 90
        0
176
     1
 40
0.6
176
     1
 40
30.0
176
     1
 62
     7
420
 16777215
176
     1
 90
        1
176
     1
 90
        4
176
     1
 62
     7
176
     1
 62
   257
176
     1
 90
        1
176
     1
 90
        1
176
     1
 40
1.0
176
     1
 90
        0
176
     1
 62
   257
176
     1
 40
1.0
176
     1
 90
        1
176
     1
 90
        6
176
     1
 90
        2
176
     1
 62
     7
176
     1
 90
        5
176
     1
 90
        0
176
     1
 90
        0
176
     1
290
     0
176
     1
 90
        1
176
     1
 40
0.0
176
     1
 90
        0
176
     1
290
     1
176
     1
290
     1
176
     1
290
     0
176
     1
290
     0
176
     1
290
     0
176
     1
290
     0
176
     1
290
     0
176
     1
290
     0
176
     1
290
     0
176
     1
 90
       50
176
     1
 40
0.0
176
     1
 40
1.0
176
     1
 90
        0
176
     1
 62
    18
176
     1
 90
       50
176
     1
 90
        3
176
     1
 62
     5
420
      255
176
     1
290
     0
176
     1
 90
       50
176
     1
 90
       50
176
     1
 90
       50
176
     1
290
     0
176
     1
 90
       50
176
     1
 62
   256
176
     0
 40
1.0
176
     0
 90
        2
176
     1
  1
strokes_ogs.tif
176
     1
290
     0
176
     1
 40
1.0
176
     1
 40
1.0
176
     1
  0
VISUALSTYLE
  5
59A1
102
{ACAD_REACTORS
330
2A
102
}
330
2A
100
AcDbVisualStyle
  2
3D Hidden
 70
     6
177
     3
291
     0
 70
    58
 90
        1
176
     1
 90
        2
176
     1
 90
        2
176
     1
 90
        0
176
     1
 40
0.6
176
     1
 40
30.0
176
     1
 62
     7
420
 16777215
176
     1
 90
        2
176
     1
 90
        2
176
     1
 62
     7
176
     1
 62
   257
176
     1
 90
        2
176
     1
 90
        1
176
     1
 40
179.0
176
     1
 90
        0
176
     1
 62
   257
176
     1
 40
1.0
176
     1
 90
        1
176
     1
 90
        6
176
     1
 90
        2
176
     1
 62
     7
176
     1
 90
        3
176
     1
 90
        0
176
     1
 90
        0
176
     1
290
     0
176
     1
 90
        1
176
     1
 40
0.0
176
     1
 90
        0
176
     1
290
     0
176
     1
290
     1
176
     1
290
     1
176
     1
290
     0
176
     1
290
     0
176
     1
290
     0
176
     1
290
     0
176
     1
290
     0
176
     1
290
     0
176
     1
 90
       50
176
     1
 40
0.0
176
     1
 40
1.0
176
     1
 90
        0
176
     1
 62
    18
176
     1
 90
       50
176
     1
 90
        3
176
     1
 62
     5
420
      255
176
     1
290
     0
176
     1
 90
       50
176
     1
 90
       50
176
     1
 90
       50
176
     1
290
     0
176
     1
 90
       50
176
     1
 62
   256
176
     0
 40
1.0
176
     0
 90
        2
176
     1
  1
strokes_ogs.tif
176
     1
290
     0
176
     1
 40
1.0
176
     1
 40
1.0
176
     1
  0
VISUALSTYLE
  5
59A0
102
{ACAD_REACTORS
330
2A
102
}
330
2A
100
AcDbVisualStyle
  2
3dWireframe
 70
     5
177
     3
291
     0
 70
    58
 90
        0
176
     1
 90
        2
176
     1
 90
        0
176
     1
 90
        0
176
     1
 40
0.6
176
     1
 40
30.0
176
     1
 62
     7
420
 16777215
176
     1
 90
        1
176
     1
 90
        4
176
     1
 62
     7
176
     1
 62
   257
176
     1
 90
        1
176
     1
 90
        1
176
     1
 40
1.0
176
     1
 90
        0
176
     1
 62
   257
176
     1
 40
1.0
176
     1
 90
        1
176
     1
 90
        6
176
     1
 90
        2
176
     1
 62
     7
176
     1
 90
        5
176
     1
 90
        0
176
     1
 90
        0
176
     1
290
     0
176
     1
 90
        1
176
     1
 40
0.0
176
     1
 90
        0
176
     1
290
     0
176
     1
290
     1
176
     1
290
     1
176
     1
290
     0
176
     1
290
     0
176
     1
290
     0
176
     1
290
     0
176
     1
290
     0
176
     1
290
     0
176
     1
 90
       50
176
     1
 40
0.0
176
     1
 40
1.0
176
     1
 90
        0
176
     1
 62
    18
176
     1
 90
       50
176
     1
 90
        3
176
     1
 62
     5
420
      255
176
     1
290
     0
176
     1
 90
       50
176
     1
 90
       50
176
     1
 90
       50
176
     1
290
     0
176
     1
 90
       50
176
     1
 62
   256
176
     0
 40
1.0
176
     0
 90
        2
176
     1
  1
strokes_ogs.tif
176
     1
290
     0
176
     1
 40
1.0
176
     1
 40
1.0
176
     1
  0
VISUALSTYLE
  5
32
102
{ACAD_REACTORS
330
2A
102
}
330
2A
100
AcDbVisualStyle
  2

 70
     7
177
     3
291
     1
 70
    58
 90
        1
176
     1
 90
        0
176
     1
 90
        1
176
     1
 90
        0
176
     1
 40
0.6
176
     1
 40
30.0
176
     1
 62
     7
420
 16777215
176
     1
 90
        0
176
     1
 90
        4
176
     1
 62
     7
176
     1
 62
   257
176
     1
 90
        1
176
     1
 90
        1
176
     1
 40
1.0
176
     1
 90
        8
176
     1
 62
     7
176
     1
 40
1.0
176
     1
 90
        1
176
     1
 90
        6
176
     1
 90
        2
176
     1
 62
     7
176
     1
 90
        5
176
     1
 90
        0
176
     1
 90
        0
176
     1
290
     0
176
     1
 90
        1
176
     1
 40
0.0
176
     1
 90
        0
176
     1
290
     0
176
     1
290
     1
176
     1
290
     1
176
     1
290
     0
176
     1
290
     0
176
     1
290
     0
176
     1
290
     0
176
     1
290
     0
176
     1
290
     0
176
     1
 90
       50
176
     1
 40
0.0
176
     1
 40
1.0
176
     1
 90
        0
176
     1
 62
    18
176
     1
 90
       50
176
     1
 90
        3
176
     1
 62
     5
420
      255
176
     1
290
     0
176
     1
 90
       50
176
     1
 90
       50
176
     1
 90
       50
176
     1
290
     0
176
     1
 90
       50
176
     1
 62
   256
176
     0
 40
1.0
176
     0
 90
        2
176
     1
  1
strokes_ogs.tif
176
     1
290
     0
176
     1
 40
1.0
176
     1
 40
1.0
176
     1
  0
VISUALSTYLE
  5
36
102
{ACAD_REACTORS
330
2A
102
}
330
2A
100
AcDbVisualStyle
  2

 70
    12
177
     3
291
     1
 70
    58
 90
        2
176
     1
 90
        2
176
     1
 90
        0
176
     1
 90
        0
176
     1
 40
0.6
176
     1
 40
30.0
176
     1
 62
     7
420
 16777215
176
     1
 90
        1
176
     1
 90
        4
176
     1
 62
     7
176
     1
 62
   257
176
     1
 90
        1
176
     1
 90
        1
176
     1
 40
1.0
176
     1
 90
        8
176
     1
 62
     7
176
     1
 40
1.0
176
     1
 90
        1
176
     1
 90
        6
176
     1
 90
        2
176
     1
 62
     7
176
     1
 90
        5
176
     1
 90
        0
176
     1
 90
        0
176
     1
290
     0
176
     1
 90
        1
176
     1
 40
50.0
176
     1
 90
        0
176
     1
290
     0
176
     1
290
     1
176
     1
290
     1
176
     1
290
     0
176
     1
290
     0
176
     1
290
     0
176
     1
290
     0
176
     1
290
     0
176
     1
290
     0
176
     1
 90
       50
176
     1
 40
0.0
176
     1
 40
1.0
176
     1
 90
        0
176
     1
 62
    18
176
     1
 90
       50
176
     1
 90
        3
176
     1
 62
     5
420
      255
176
     1
290
     0
176
     1
 90
       50
176
     1
 90
       50
176
     1
 90
       50
176
     1
290
     0
176
     1
 90
       50
176
     1
 62
   256
176
     0
 40
1.0
176
     0
 90
        2
176
     1
  1
strokes_ogs.tif
176
     1
290
     0
176
     1
 40
1.0
176
     1
 40
1.0
176
     1
  0
VISUALSTYLE
  5
3A
102
{ACAD_REACTORS
330
2A
102
}
330
2A
100
AcDbVisualStyle
  2

 70
    16
177
     3
291
     1
 70
    58
 90
        2
176
     1
 90
        2
176
     1
 90
        3
176
     1
 90
        0
176
     1
 40
0.6
176
     1
 40
30.0
176
     1
 62
     8
420
  8421504
176
     1
 90
        1
176
     1
 90
        4
176
     1
 62
     7
176
     1
 62
   257
176
     1
 90
        1
176
     1
 90
        1
176
     1
 40
1.0
176
     1
 90
        8
176
     1
 62
     8
420
  8421504
176
     1
 40
1.0
176
     1
 90
        1
176
     1
 90
        6
176
     1
 90
        2
176
     1
 62
     7
176
     1
 90
        5
176
     1
 90
        0
176
     1
 90
        0
176
     1
290
     0
176
     1
 90
        1
176
     1
 40
0.0
176
     1
 90
        0
176
     1
290
     0
176
     1
290
     1
176
     1
290
     1
176
     1
290
     0
176
     1
290
     0
176
     1
290
     0
176
     1
290
     0
176
     1
290
     0
176
     1
290
     0
176
     1
 90
       50
176
     1
 40
0.0
176
     1
 40
1.0
176
     1
 90
        0
176
     1
 62
    18
176
     1
 90
       50
176
     1
 90
        3
176
     1
 62
     5
420
      255
176
     1
290
     0
176
     1
 90
       50
176
     1
 90
       50
176
     1
 90
       50
176
     1
290
     0
176
     1
 90
       50
176
     1
 62
   256
176
     0
 40
1.0
176
     0
 90
        2
176
     1
  1
strokes_ogs.tif
176
     1
290
     0
176
     1
 40
1.0
176
     1
 40
1.0
176
     1
  0
VISUALSTYLE
  5
34
102
{ACAD_REACTORS
330
2A
102
}
330
2A
100
AcDbVisualStyle
  2

 70
     9
177
     3
291
     0
 70
    58
 90
        3
176
     1
 90
        2
176
     1
 90
        0
176
     1
 90
        0
176
     1
 40
0.6
176
     1
 40
30.0
176
     1
 62
     7
420
 16777215
176
     1
 90
        2
176
     1
 90
        2
176
     1
 62
     7
176
     1
 62
   257
176
     1
 90
        1
176
     1
 90
        1
176
     1
 40
179.0
176
     1
 90
        8
176
     1
 62
     7
176
     1
 40
1.0
176
     1
 90
        1
176
     1
 90
        6
176
     1
 90
        2
176
     1
 62
     7
176
     1
 90
        3
176
     1
 90
        0
176
     1
 90
        0
176
     1
290
     0
176
     1
 90
        1
176
     1
 40
0.0
176
     1
 90
        0
176
     1
290
     0
176
     1
290
     1
176
     1
290
     1
176
     1
290
     0
176
     1
290
     0
176
     1
290
     0
176
     1
290
     0
176
     1
290
     0
176
     1
290
     0
176
     1
 90
       50
176
     1
 40
0.0
176
     1
 40
1.0
176
     1
 90
        0
176
     1
 62
    18
176
     1
 90
       50
176
     1
 90
        3
176
     1
 62
     5
420
      255
176
     1
290
     0
176
     1
 90
       50
176
     1
 90
       50
176
     1
 90
       50
176
     1
290
     0
176
     1
 90
       50
176
     1
 62
   256
176
     0
 40
1.0
176
     0
 90
        2
176
     1
  1
strokes_ogs.tif
176
     1
290
     0
176
     1
 40
1.0
176
     1
 40
1.0
176
     1
  0
VISUALSTYLE
  5
35
102
{ACAD_REACTORS
330
2A
102
}
330
2A
100
AcDbVisualStyle
  2

 70
    11
177
     3
291
     1
 70
    58
 90
        2
176
     1
 90
        2
176
     1
 90
        0
176
     1
 90
        0
176
     1
 40
0.6
176
     1
 40
30.0
176
     1
 62
     7
420
 16777215
176
     1
 90
        1
176
     1
 90
        4
176
     1
 62
     7
176
     1
 62
   257
176
     1
 90
        1
176
     1
 90
        1
176
     1
 40
1.0
176
     1
 90
        8
176
     1
 62
     7
176
     1
 40
1.0
176
     1
 90
        1
176
     1
 90
        6
176
     1
 90
        2
176
     1
 62
     7
176
     1
 90
        5
176
     1
 90
        0
176
     1
 90
        0
176
     1
290
     0
176
     1
 90
        1
176
     1
 40
-50.0
176
     1
 90
        0
176
     1
290
     0
176
     1
290
     1
176
     1
290
     1
176
     1
290
     0
176
     1
290
     0
176
     1
290
     0
176
     1
290
     0
176
     1
290
     0
176
     1
290
     0
176
     1
 90
       50
176
     1
 40
0.0
176
     1
 40
1.0
176
     1
 90
        0
176
     1
 62
    18
176
     1
 90
       50
176
     1
 90
        3
176
     1
 62
     5
420
      255
176
     1
290
     0
176
     1
 90
       50
176
     1
 90
       50
176
     1
 90
       50
176
     1
290
     0
176
     1
 90
       50
176
     1
 62
   256
176
     0
 40
1.0
176
     0
 90
        2
176
     1
  1
strokes_ogs.tif
176
     1
290
     0
176
     1
 40
1.0
176
     1
 40
1.0
176
     1
  0
VISUALSTYLE
  5
3D
102
{ACAD_REACTORS
330
2A
102
}
330
2A
100
AcDbVisualStyle
  2

 70
    22
177
     3
291
     1
 70
    58
 90
        2
176
     1
 90
        2
176
     1
 90
        0
176
     1
 90
        0
176
     1
 40
0.6
176
     1
 40
30.0
176
     1
 62
     7
420
 16777215
176
     1
 90
        1
176
     1
 90
        4
176
     1
 62
     7
176
     1
 62
   257
176
     1
 90
        1
176
     1
 90
        1
176
     1
 40
1.0
176
     1
 90
        8
176
     1
 62
     7
176
     1
 40
1.0
176
     1
 90
        1
176
     1
 90
        6
176
     1
 90
        2
176
     1
 62
     7
176
     1
 90
        5
176
     1
 90
        0
176
     1
 90
        0
176
     1
290
     0
176
     1
 90
        1
176
     1
 40
0.0
176
     1
 90
        0
176
     1
290
     0
176
     1
290
     1
176
     1
290
     1
176
     1
290
     0
176
     1
290
     0
176
     1
290
     0
176
     1
290
     0
176
     1
290
     0
176
     1
290
     0
176
     1
 90
       50
176
     1
 40
0.0
176
     1
 40
1.0
176
     1
 90
        0
176
     1
 62
    18
176
     1
 90
       50
176
     1
 90
        3
176
     1
 62
     5
420
      255
176
     1
290
     0
176
     1
 90
       50
176
     1
 90
       50
176
     1
 90
       50
176
     1
290
     0
176
     1
 90
       50
176
     1
 62
   256
176
     0
 40
1.0
176
     0
 90
        2
176
     1
  1
strokes_ogs.tif
176
     1
290
     0
176
     1
 40
1.0
176
     1
 40
1.0
176
     1
  0
VISUALSTYLE
  5
39
102
{ACAD_REACTORS
330
2A
102
}
330
2A
100
AcDbVisualStyle
  2

 70
    15
177
     3
291
     1
 70
    58
 90
        2
176
     1
 90
        2
176
     1
 90
        0
176
     1
 90
        0
176
     1
 40
0.6
176
     1
 40
30.0
176
     1
 62
     7
420
 16777215
176
     1
 90
        1
176
     1
 90
        4
176
     1
 62
     7
176
     1
 62
   257
176
     1
 90
        1
176
     1
 90
        1
176
     1
 40
1.0
176
     1
 90
        8
176
     1
 62
     7
176
     1
 40
1.0
176
     1
 90
        1
176
     1
 90
        6
176
     1
 90
        2
176
     1
 62
     7
176
     1
 90
        5
176
     1
 90
        0
176
     1
 90
        0
176
     1
290
     0
176
     1
 90
        1
176
     1
 40
0.0
176
     1
 90
        0
176
     1
290
     0
176
     1
290
     1
176
     1
290
     1
176
     1
290
     0
176
     1
290
     0
176
     1
290
     0
176
     1
290
     0
176
     1
290
     0
176
     1
290
     0
176
     1
 90
       50
176
     1
 40
0.0
176
     1
 40
1.0
176
     1
 90
        0
176
     1
 62
    18
176
     1
 90
       50
176
     1
 90
        3
176
     1
 62
     5
420
      255
176
     1
290
     0
176
     1
 90
       50
176
     1
 90
       50
176
     1
 90
       50
176
     1
290
     0
176
     1
 90
       50
176
     1
 62
   256
176
     0
 40
1.0
176
     0
 90
        2
176
     1
  1
strokes_ogs.tif
176
     1
290
     0
176
     1
 40
1.0
176
     1
 40
1.0
176
     1
  0
VISUALSTYLE
  5
2B
102
{ACAD_REACTORS
330
2A
102
}
330
2A
100
AcDbVisualStyle
  2

 70
     0
177
     3
291
     1
 70
    58
 90
        2
176
     1
 90
        1
176
     1
 90
        1
176
     1
 90
        2
176
     1
 40
0.6
176
     1
 40
30.0
176
     1
 62
     7
420
 16777215
176
     1
 90
        0
176
     1
 90
        0
176
     1
 62
     7
176
     1
 62
   257
176
     1
 90
        1
176
     1
 90
        1
176
     1
 40
1.0
176
     1
 90
        8
176
     1
 62
     7
176
     1
 40
1.0
176
     1
 90
        1
176
     1
 90
        6
176
     1
 90
        2
176
     1
 62
     7
176
     1
 90
        5
176
     1
 90
        0
176
     1
 90
        0
176
     1
290
     0
176
     1
 90
       13
176
     1
 40
0.0
176
     1
 90
        0
176
     1
290
     0
176
     1
290
     1
176
     1
290
     1
176
     1
290
     0
176
     1
290
     0
176
     1
290
     0
176
     1
290
     0
176
     1
290
     0
176
     1
290
     0
176
     1
 90
       50
176
     1
 40
0.0
176
     1
 40
1.0
176
     1
 90
        0
176
     1
 62
    18
176
     1
 90
       50
176
     1
 90
        3
176
     1
 62
     5
420
      255
176
     1
290
     0
176
     1
 90
       50
176
     1
 90
       50
176
     1
 90
       50
176
     1
290
     0
176
     1
 90
       50
176
     1
 62
   256
176
     0
 40
1.0
176
     0
 90
        2
176
     1
  1
strokes_ogs.tif
176
     1
290
     0
176
     1
 40
1.0
176
     1
 40
1.0
176
     1
  0
VISUALSTYLE
  5
2C
102
{ACAD_REACTORS
330
2A
102
}
330
2A
100
AcDbVisualStyle
  2

 70
     1
177
     3
291
     1
 70
    58
 90
        2
176
     1
 90
        1
176
     1
 90
        1
176
     1
 90
        2
176
     1
 40
0.6
176
     1
 40
30.0
176
     1
 62
     7
420
 16777215
176
     1
 90
        1
176
     1
 90
        0
176
     1
 62
     7
176
     1
 62
   257
176
     1
 90
        1
176
     1
 90
        1
176
     1
 40
1.0
176
     1
 90
        0
176
     1
 62
   257
176
     1
 40
1.0
176
     1
 90
        1
176
     1
 90
        6
176
     1
 90
        2
176
     1
 62
     7
176
     1
 90
        5
176
     1
 90
        0
176
     1
 90
        0
176
     1
290
     0
176
     1
 90
       13
176
     1
 40
0.0
176
     1
 90
        0
176
     1
290
     0
176
     1
290
     1
176
     1
290
     1
176
     1
290
     0
176
     1
290
     0
176
     1
290
     0
176
     1
290
     0
176
     1
290
     0
176
     1
290
     0
176
     1
 90
       50
176
     1
 40
0.0
176
     1
 40
1.0
176
     1
 90
        0
176
     1
 62
    18
176
     1
 90
       50
176
     1
 90
        3
176
     1
 62
     5
420
      255
176
     1
290
     0
176
     1
 90
       50
176
     1
 90
       50
176
     1
 90
       50
176
     1
290
     0
176
     1
 90
       50
176
     1
 62
   256
176
     0
 40
1.0
176
     0
 90
        2
176
     1
  1
strokes_ogs.tif
176
     1
290
     0
176
     1
 40
1.0
176
     1
 40
1.0
176
     1
  0
VISUALSTYLE
  5
2D
102
{ACAD_REACTORS
330
2A
102
}
330
2A
100
AcDbVisualStyle
  2

 70
     2
177
     3
291
     1
 70
    58
 90
        2
176
     1
 90
        2
176
     1
 90
        1
176
     1
 90
        2
176
     1
 40
0.6
176
     1
 40
30.0
176
     1
 62
     7
420
 16777215
176
     1
 90
        0
176
     1
 90
        0
176
     1
 62
     7
176
     1
 62
   257
176
     1
 90
        1
176
     1
 90
        1
176
     1
 40
1.0
176
     1
 90
        0
176
     1
 62
     7
176
     1
 40
1.0
176
     1
 90
        1
176
     1
 90
        6
176
     1
 90
        2
176
     1
 62
     7
176
     1
 90
        5
176
     1
 90
        0
176
     1
 90
        0
176
     1
290
     0
176
     1
 90
       13
176
     1
 40
0.0
176
     1
 90
        0
176
     1
290
     0
176
     1
290
     1
176
     1
290
     1
176
     1
290
     0
176
     1
290
     0
176
     1
290
     0
176
     1
290
     0
176
     1
290
     0
176
     1
290
     0
176
     1
 90
       50
176
     1
 40
0.0
176
     1
 40
1.0
176
     1
 90
        0
176
     1
 62
    18
176
     1
 90
       50
176
     1
 90
        3
176
     1
 62
     5
420
      255
176
     1
290
     0
176
     1
 90
       50
176
     1
 90
       50
176
     1
 90
       50
176
     1
290
     0
176
     1
 90
       50
176
     1
 62
   256
176
     0
 40
1.0
176
     0
 90
        2
176
     1
  1
strokes_ogs.tif
176
     1
290
     0
176
     1
 40
1.0
176
     1
 40
1.0
176
     1
  0
VISUALSTYLE
  5
2E
102
{ACAD_REACTORS
330
2A
102
}
330
2A
100
AcDbVisualStyle
  2

 70
     3
177
     3
291
     1
 70
    58
 90
        2
176
     1
 90
        2
176
     1
 90
        1
176
     1
 90
        2
176
     1
 40
0.6
176
     1
 40
30.0
176
     1
 62
     7
420
 16777215
176
     1
 90
        1
176
     1
 90
        0
176
     1
 62
     7
176
     1
 62
   257
176
     1
 90
        1
176
     1
 90
        1
176
     1
 40
1.0
176
     1
 90
        0
176
     1
 62
   257
176
     1
 40
1.0
176
     1
 90
        1
176
     1
 90
        6
176
     1
 90
        2
176
     1
 62
     7
176
     1
 90
        5
176
     1
 90
        0
176
     1
 90
        0
176
     1
290
     0
176
     1
 90
       13
176
     1
 40
0.0
176
     1
 90
        0
176
     1
290
     0
176
     1
290
     1
176
     1
290
     1
176
     1
290
     0
176
     1
290
     0
176
     1
290
     0
176
     1
290
     0
176
     1
290
     0
176
     1
290
     0
176
     1
 90
       50
176
     1
 40
0.0
176
     1
 40
1.0
176
     1
 90
        0
176
     1
 62
    18
176
     1
 90
       50
176
     1
 90
        3
176
     1
 62
     5
420
      255
176
     1
290
     0
176
     1
 90
       50
176
     1
 90
       50
176
     1
 90
       50
176
     1
290
     0
176
     1
 90
       50
176
     1
 62
   256
176
     0
 40
1.0
176
     0
 90
        2
176
     1
  1
strokes_ogs.tif
176
     1
290
     0
176
     1
 40
1.0
176
     1
 40
1.0
176
     1
  0
VISUALSTYLE
  5
31
102
{ACAD_REACTORS
330
2A
102
}
330
2A
100
AcDbVisualStyle
  2

 70
     6
177
     3
291
     0
 70
    58
 90
        1
176
     1
 90
        2
176
     1
 90
        2
176
     1
 90
        0
176
     1
 40
0.6
176
     1
 40
30.0
176
     1
 62
     7
420
 16777215
176
     1
 90
        2
176
     1
 90
        2
176
     1
 62
     7
176
     1
 62
   257
176
     1
 90
        2
176
     1
 90
        1
176
     1
 40
40.0
176
     1
 90
        0
176
     1
 62
   257
176
     1
 40
1.0
176
     1
 90
        1
176
     1
 90
        6
176
     1
 90
        2
176
     1
 62
     7
176
     1
 90
        3
176
     1
 90
        0
176
     1
 90
        0
176
     1
290
     0
176
     1
 90
        1
176
     1
 40
0.0
176
     1
 90
        0
176
     1
290
     0
176
     1
290
     1
176
     1
290
     1
176
     1
290
     0
176
     1
290
     0
176
     1
290
     0
176
     1
290
     0
176
     1
290
     0
176
     1
290
     0
176
     1
 90
       50
176
     1
 40
0.0
176
     1
 40
1.0
176
     1
 90
        0
176
     1
 62
    18
176
     1
 90
       50
176
     1
 90
        3
176
     1
 62
     5
420
      255
176
     1
290
     0
176
     1
 90
       50
176
     1
 90
       50
176
     1
 90
       50
176
     1
290
     0
176
     1
 90
       50
176
     1
 62
   256
176
     0
 40
1.0
176
     0
 90
        2
176
     1
  1
strokes_ogs.tif
176
     1
290
     0
176
     1
 40
1.0
176
     1
 40
1.0
176
     1
  0
VISUALSTYLE
  5
3B
102
{ACAD_REACTORS
330
2A
102
}
330
2A
100
AcDbVisualStyle
  2

 70
    20
177
     3
291
     1
 70
    58
 90
        2
176
     1
 90
        2
176
     1
 90
        0
176
     1
 90
        0
176
     1
 40
0.6
176
     1
 40
30.0
176
     1
 62
     7
420
 16777215
176
     1
 90
        1
176
     1
 90
        4
176
     1
 62
     7
176
     1
 62
   257
176
     1
 90
        1
176
     1
 90
        1
176
     1
 40
1.0
176
     1
 90
       10
176
     1
 62
     7
176
     1
 40
1.0
176
     1
 90
        1
176
     1
 90
        6
176
     1
 90
        2
176
     1
 62
     7
176
     1
 90
        5
176
     1
 90
        0
176
     1
 90
        0
176
     1
290
     0
176
     1
 90
        1
176
     1
 40
0.0
176
     1
 90
        0
176
     1
290
     0
176
     1
290
     1
176
     1
290
     1
176
     1
290
     0
176
     1
290
     0
176
     1
290
     0
176
     1
290
     0
176
     1
290
     0
176
     1
290
     0
176
     1
 90
       50
176
     1
 40
0.0
176
     1
 40
1.0
176
     1
 90
        0
176
     1
 62
    18
176
     1
 90
       50
176
     1
 90
        3
176
     1
 62
     5
420
      255
176
     1
290
     0
176
     1
 90
       50
176
     1
 90
       50
176
     1
 90
       50
176
     1
290
     0
176
     1
 90
       50
176
     1
 62
   256
176
     0
 40
1.0
176
     0
 90
        2
176
     1
  1
strokes_ogs.tif
176
     1
290
     0
176
     1
 40
1.0
176
     1
 40
1.0
176
     1
  0
VISUALSTYLE
  5
38
102
{ACAD_REACTORS
330
2A
102
}
330
2A
100
AcDbVisualStyle
  2

 70
    14
177
     3
291
     1
 70
    58
 90
        2
176
     1
 90
        2
176
     1
 90
        0
176
     1
 90
        0
176
     1
 40
0.6
176
     1
 40
30.0
176
     1
 62
     7
420
 16777215
176
     1
 90
        1
176
     1
 90
        4
176
     1
 62
     7
176
     1
 62
   257
176
     1
 90
        7
176
     1
 90
        7
176
     1
 40
1.0
176
     1
 90
        8
176
     1
 62
     7
176
     1
 40
1.0
176
     1
 90
        1
176
     1
 90
        6
176
     1
 90
        2
176
     1
 62
     7
176
     1
 90
        5
176
     1
 90
        0
176
     1
 90
        0
176
     1
290
     0
176
     1
 90
        1
176
     1
 40
0.0
176
     1
 90
        0
176
     1
290
     0
176
     1
290
     1
176
     1
290
     1
176
     1
290
     0
176
     1
290
     0
176
     1
290
     0
176
     1
290
     0
176
     1
290
     0
176
     1
290
     0
176
     1
 90
       50
176
     1
 40
0.0
176
     1
 40
1.0
176
     1
 90
        0
176
     1
 62
    18
176
     1
 90
       50
176
     1
 90
        3
176
     1
 62
     5
420
      255
176
     1
290
     0
176
     1
 90
       50
176
     1
 90
       50
176
     1
 90
       50
176
     1
290
     0
176
     1
 90
       50
176
     1
 62
   256
176
     0
 40
1.0
176
     0
 90
        2
176
     1
  1
strokes_ogs.tif
176
     1
290
     0
176
     1
 40
1.0
176
     1
 40
1.0
176
     1
  0
VISUALSTYLE
  5
3C
102
{ACAD_REACTORS
330
2A
102
}
330
2A
100
AcDbVisualStyle
  2

 70
    21
177
     3
291
     1
 70
    58
 90
        2
176
     1
 90
        2
176
     1
 90
        0
176
     1
 90
        0
176
     1
 40
0.6
176
     1
 40
30.0
176
     1
 62
     7
420
 16777215
176
     1
 90
        1
176
     1
 90
        4
176
     1
 62
     7
176
     1
 62
   257
176
     1
 90
        1
176
     1
 90
        1
176
     1
 40
1.0
176
     1
 90
        9
176
     1
 62
     7
176
     1
 40
1.0
176
     1
 90
        1
176
     1
 90
        6
176
     1
 90
        2
176
     1
 62
     7
176
     1
 90
        5
176
     1
 90
        0
176
     1
 90
        0
176
     1
290
     0
176
     1
 90
        1
176
     1
 40
0.0
176
     1
 90
        0
176
     1
290
     0
176
     1
290
     1
176
     1
290
     1
176
     1
290
     0
176
     1
290
     0
176
     1
290
     0
176
     1
290
     0
176
     1
290
     0
176
     1
290
     0
176
     1
 90
       50
176
     1
 40
0.0
176
     1
 40
1.0
176
     1
 90
        0
176
     1
 62
    18
176
     1
 90
       50
176
     1
 90
        3
176
     1
 62
     5
420
      255
176
     1
290
     0
176
     1
 90
       50
176
     1
 90
       50
176
     1
 90
       50
176
     1
290
     0
176
     1
 90
       50
176
     1
 62
   256
176
     0
 40
1.0
176
     0
 90
        2
176
     1
  1
strokes_ogs.tif
176
     1
290
     0
176
     1
 40
1.0
176
     1
 40
1.0
176
     1
  0
VISUALSTYLE
  5
33
102
{ACAD_REACTORS
330
2A
102
}
330
2A
100
AcDbVisualStyle
  2

 70
     8
177
     3
291
     0
 70
    58
 90
        2
176
     1
 90
        3
176
     1
 90
        0
176
     1
 90
        2
176
     1
 40
0.6
176
     1
 40
30.0
176
     1
 62
     7
420
 16777215
176
     1
 90
        0
176
     1
 90
        0
176
     1
 62
     7
176
     1
 62
   257
176
     1
 90
        1
176
     1
 90
        1
176
     1
 40
1.0
176
     1
 90
        8
176
     1
 62
   257
176
     1
 40
1.0
176
     1
 90
        1
176
     1
 90
        6
176
     1
 90
        2
176
     1
 62
     7
176
     1
 90
        3
176
     1
 90
        0
176
     1
 90
        0
176
     1
290
     0
176
     1
 90
       13
176
     1
 40
0.0
176
     1
 90
        0
176
     1
290
     0
176
     1
290
     1
176
     1
290
     1
176
     1
290
     0
176
     1
290
     0
176
     1
290
     0
176
     1
290
     0
176
     1
290
     0
176
     1
290
     0
176
     1
 90
       50
176
     1
 40
0.0
176
     1
 40
1.0
176
     1
 90
        0
176
     1
 62
    18
176
     1
 90
       50
176
     1
 90
        3
176
     1
 62
     5
420
      255
176
     1
290
     0
176
     1
 90
       50
176
     1
 90
       50
176
     1
 90
       50
176
     1
290
     0
176
     1
 90
       50
176
     1
 62
   256
176
     0
 40
1.0
176
     0
 90
        2
176
     1
  1
strokes_ogs.tif
176
     1
290
     0
176
     1
 40
1.0
176
     1
 40
1.0
176
     1
  0
VISUALSTYLE
  5
42
102
{ACAD_REACTORS
330
2A
102
}
330
2A
100
AcDbVisualStyle
  2

 70
    27
177
     3
291
     0
 70
    58
 90
        2
176
     1
 90
        2
176
     1
 90
        1
176
     1
 90
        2
176
     1
 40
0.6
176
     1
 40
30.0
176
     1
 62
     7
420
 16777215
176
     1
 90
        0
176
     1
 90
        4
176
     1
 62
     7
176
     1
 62
   257
176
     1
 90
        1
176
     1
 90
        1
176
     1
 40
1.0
176
     1
 90
        8
176
     1
 62
   257
176
     1
 40
1.0
176
     1
 90
        1
176
     1
 90
        6
176
     1
 90
        2
176
     1
 62
     8
420
  7895160
176
     1
 90
        3
176
     1
 90
        0
176
     1
 90
        0
176
     1
290
     0
176
     1
 90
        5
176
     1
 40
0.0
176
     1
 90
        0
176
     1
290
     0
176
     1
290
     1
176
     1
290
     1
176
     1
290
     0
176
     1
290
     0
176
     1
290
     0
176
     1
290
     0
176
     1
290
     0
176
     1
290
     0
176
     1
 90
       50
176
     1
 40
0.0
176
     1
 40
1.0
176
     1
 90
        0
176
     1
 62
    18
176
     1
 90
       50
176
     1
 90
        3
176
     1
 62
     5
420
      255
176
     1
290
     0
176
     1
 90
       50
176
     1
 90
       50
176
     1
 90
       50
176
     1
290
     0
176
     1
 90
       50
176
     1
 62
   256
176
     0
 40
1.0
176
     0
 90
        2
176
     1
  1
strokes_ogs.tif
176
     1
290
     0
176
     1
 40
1.0
176
     1
 40
1.0
176
     1
  0
VISUALSTYLE
  5
41
102
{ACAD_REACTORS
330
2A
102
}
330
2A
100
AcDbVisualStyle
  2

 70
    26
177
     3
291
     0
 70
    58
 90
        2
176
     1
 90
        2
176
     1
 90
        1
176
     1
 90
        2
176
     1
 40
0.6
176
     1
 40
30.0
176
     1
 62
     7
420
 16777215
176
     1
 90
        1
176
     1
 90
       10
176
     1
 62
     7
176
     1
 62
   257
176
     1
 90
        2
176
     1
 90
        1
176
     1
 40
1.0
176
     1
 90
        8
176
     1
 62
   257
176
     1
 40
1.0
176
     1
 90
        1
176
     1
 90
        6
176
     1
 90
        2
176
     1
 62
     7
176
     1
 90
        3
176
     1
 90
        0
176
     1
 90
        0
176
     1
290
     0
176
     1
 90
        5
176
     1
 40
0.0
176
     1
 90
        0
176
     1
290
     0
176
     1
290
     1
176
     1
290
     1
176
     1
290
     0
176
     1
290
     0
176
     1
290
     0
176
     1
290
     0
176
     1
290
     0
176
     1
290
     0
176
     1
 90
       50
176
     1
 40
0.0
176
     1
 40
1.0
176
     1
 90
        0
176
     1
 62
    18
176
     1
 90
       50
176
     1
 90
        3
176
     1
 62
     5
420
      255
176
     1
290
     0
176
     1
 90
       50
176
     1
 90
       50
176
     1
 90
       50
176
     1
290
     0
176
     1
 90
       50
176
     1
 62
   256
176
     0
 40
1.0
176
     0
 90
        2
176
     1
  1
strokes_ogs.tif
176
     1
290
     0
176
     1
 40
1.0
176
     1
 40
1.0
176
     1
  0
VISUALSTYLE
  5
3E
102
{ACAD_REACTORS
330
2A
102
}
330
2A
100
AcDbVisualStyle
  2

 70
    23
177
     3
291
     0
 70
    58
 90
        2
176
     1
 90
        2
176
     1
 90
        3
176
     1
 90
        0
176
     1
 40
0.6
176
     1
 40
30.0
176
     1
 62
     7
420
 16777215
176
     1
 90
        2
176
     1
 90
        2
176
     1
 62
     7
176
     1
 62
     7
176
     1
 90
        1
176
     1
 90
        1
176
     1
 40
40.0
176
     1
 90
        8
176
     1
 62
     7
176
     1
 40
1.0
176
     1
 90
        1
176
     1
 90
        6
176
     1
 90
        2
176
     1
 62
     7
176
     1
 90
        3
176
     1
 90
        0
176
     1
 90
        0
176
     1
290
     0
176
     1
 90
        1
176
     1
 40
0.0
176
     1
 90
        0
176
     1
290
     0
176
     1
290
     1
176
     1
290
     1
176
     1
290
     0
176
     1
290
     0
176
     1
290
     0
176
     1
290
     0
176
     1
290
     0
176
     1
290
     0
176
     1
 90
       50
176
     1
 40
0.0
176
     1
 40
1.0
176
     1
 90
        0
176
     1
 62
    18
176
     1
 90
       50
176
     1
 90
        3
176
     1
 62
     5
420
      255
176
     1
290
     0
176
     1
 90
       50
176
     1
 90
       50
176
     1
 90
       50
176
     1
290
     0
176
     1
 90
       50
176
     1
 62
   256
176
     0
 40
1.0
176
     0
 90
        2
176
     1
  1
strokes_ogs.tif
176
     1
290
     0
176
     1
 40
1.0
176
     1
 40
1.0
176
     1
  0
VISUALSTYLE
  5
3F
102
{ACAD_REACTORS
330
2A
102
}
330
2A
100
AcDbVisualStyle
  2

 70
    24
177
     3
291
     0
 70
    58
 90
        1
176
     1
 90
        2
176
     1
 90
        2
176
     1
 90
        0
176
     1
 40
0.6
176
     1
 40
30.0
176
     1
 62
     7
420
 16777215
176
     1
 90
        2
176
     1
 90
        2
176
     1
 62
     7
176
     1
 62
     7
176
     1
 90
        1
176
     1
 90
        1
176
     1
 40
40.0
176
     1
 90
       11
176
     1
 62
     7
176
     1
 40
1.0
176
     1
 90
        1
176
     1
 90
        6
176
     1
 90
        2
176
     1
 62
     7
176
     1
 90
        6
176
     1
 90
        0
176
     1
 90
        0
176
     1
290
     0
176
     1
 90
        1
176
     1
 40
0.0
176
     1
 90
        0
176
     1
290
     0
176
     1
290
     1
176
     1
290
     1
176
     1
290
     0
176
     1
290
     0
176
     1
290
     0
176
     1
290
     0
176
     1
290
     0
176
     1
290
     0
176
     1
 90
       50
176
     1
 40
0.0
176
     1
 40
1.0
176
     1
 90
        0
176
     1
 62
    18
176
     1
 90
       50
176
     1
 90
        3
176
     1
 62
     5
420
      255
176
     1
290
     0
176
     1
 90
       50
176
     1
 90
       50
176
     1
 90
       50
176
     1
290
     0
176
     1
 90
       50
176
     1
 62
   256
176
     0
 40
1.0
176
     0
 90
        2
176
     1
  1
strokes_ogs.tif
176
     1
290
     0
176
     1
 40
1.0
176
     1
 40
1.0
176
     1
  0
VISUALSTYLE
  5
37
102
{ACAD_REACTORS
330
2A
102
}
330
2A
100
AcDbVisualStyle
  2

 70
    13
177
     3
291
     1
 70
    58
 90
        2
176
     1
 90
        2
176
     1
 90
        0
176
     1
 90
        0
176
     1
 40
0.6
176
     1
 40
30.0
176
     1
 62
     7
420
 16777215
176
     1
 90
        1
176
     1
 90
        4
176
     1
 62
     7
176
     1
 62
   257
176
     1
 90
        1
176
     1
 90
        1
176
     1
 40
1.0
176
     1
 90
       12
176
     1
 62
     7
176
     1
 40
1.0
176
     1
 90
        1
176
     1
 90
        6
176
     1
 90
        2
176
     1
 62
     7
176
     1
 90
        5
176
     1
 90
        0
176
     1
 90
        0
176
     1
290
     0
176
     1
 90
        1
176
     1
 40
0.0
176
     1
 90
        0
176
     1
290
     0
176
     1
290
     1
176
     1
290
     1
176
     1
290
     0
176
     1
290
     0
176
     1
290
     0
176
     1
290
     0
176
     1
290
     0
176
     1
290
     0
176
     1
 90
       50
176
     1
 40
0.0
176
     1
 40
1.0
176
     1
 90
        0
176
     1
 62
    18
176
     1
 90
       50
176
     1
 90
        3
176
     1
 62
     5
420
      255
176
     1
290
     0
176
     1
 90
       50
176
     1
 90
       50
176
     1
 90
       50
176
     1
290
     0
176
     1
 90
       50
176
     1
 62
   256
176
     0
 40
1.0
176
     0
 90
        2
176
     1
  1
strokes_ogs.tif
176
     1
290
     0
176
     1
 40
1.0
176
     1
 40
1.0
176
     1
  0
VISUALSTYLE
  5
30
102
{ACAD_REACTORS
330
2A
102
}
330
2A
100
AcDbVisualStyle
  2

 70
     5
177
     3
291
     0
 70
    58
 90
        0
176
     1
 90
        2
176
     1
 90
        0
176
     1
 90
        0
176
     1
 40
0.6
176
     1
 40
30.0
176
     1
 62
     7
420
 16777215
176
     1
 90
        1
176
     1
 90
        4
176
     1
 62
     7
176
     1
 62
   257
176
     1
 90
        1
176
     1
 90
        1
176
     1
 40
1.0
176
     1
 90
        0
176
     1
 62
   257
176
     1
 40
1.0
176
     1
 90
        1
176
     1
 90
        6
176
     1
 90
        2
176
     1
 62
     7
176
     1
 90
        3
176
     1
 90
        0
176
     1
 90
        0
176
     1
290
     0
176
     1
 90
        1
176
     1
 40
0.0
176
     1
 90
        0
176
     1
290
     0
176
     1
290
     1
176
     1
290
     1
176
     1
290
     0
176
     1
290
     0
176
     1
290
     0
176
     1
290
     0
176
     1
290
     0
176
     1
290
     0
176
     1
 90
       50
176
     1
 40
0.0
176
     1
 40
1.0
176
     1
 90
        0
176
     1
 62
    18
176
     1
 90
       50
176
     1
 90
        3
176
     1
 62
     5
420
      255
176
     1
290
     0
176
     1
 90
       50
176
     1
 90
       50
176
     1
 90
       50
176
     1
290
     0
176
     1
 90
       50
176
     1
 62
   256
176
     0
 40
1.0
176
     0
 90
        2
176
     1
  1
strokes_ogs.tif
176
     1
290
     0
176
     1
 40
1.0
176
     1
 40
1.0
176
     1
  0
VISUALSTYLE
  5
40
102
{ACAD_REACTORS
330
2A
102
}
330
2A
100
AcDbVisualStyle
  2

 70
    25
177
     3
291
     0
 70
    58
 90
        2
176
     1
 90
        2
176
     1
 90
        1
176
     1
 90
        1
176
     1
 40
0.5
176
     1
 40
30.0
176
     1
 62
     7
420
 16777215
176
     1
 90
        1
176
     1
 90
        0
176
     1
 62
     7
176
     1
 62
   257
176
     1
 90
        1
176
     1
 90
        1
176
     1
 40
1.0
176
     1
 90
        8
176
     1
 62
     7
176
     1
 40
1.0
176
     1
 90
        1
176
     1
 90
        6
176
     1
 90
        2
176
     1
 62
     7
176
     1
 90
        3
176
     1
 90
        0
176
     1
 90
        0
176
     1
290
     0
176
     1
 90
       13
176
     1
 40
0.0
176
     1
 90
        0
176
     1
290
     0
176
     1
290
     1
176
     1
290
     1
176
     1
290
     0
176
     1
290
     0
176
     1
290
     0
176
     1
290
     0
176
     1
290
     0
176
     1
290
     0
176
     1
 90
       50
176
     1
 40
0.0
176
     1
 40
1.0
176
     1
 90
        0
176
     1
 62
    18
176
     1
 90
       50
176
     1
 90
        3
176
     1
 62
     5
420
      255
176
     1
290
     0
176
     1
 90
       50
176
     1
 90
       50
176
     1
 90
       50
176
     1
290
     0
176
     1
 90
       50
176
     1
 62
   256
176
     0
 40
1.0
176
     0
 90
        2
176
     1
  1
strokes_ogs.tif
176
     1
290
     0
176
     1
 40
1.0
176
     1
 40
1.0
176
     1
  0
DICTIONARYVAR
  5
5999
102
{ACAD_REACTORS
330
5998
102
}
330
5998
100
DictionaryVariables
280
     0
  1
1:1
  0
DICTIONARYVAR
  5
59B4
102
{ACAD_REACTORS
330
5998
102
}
330
5998
100
DictionaryVariables
280
     0
  1
STANDARD
  0
DICTIONARYVAR
  5
59B3
102
{ACAD_REACTORS
330
5998
102
}
330
5998
100
DictionaryVariables
280
     0
  1
STANDARD
  0
DICTIONARYVAR
  5
87FE
102
{ACAD_REACTORS
330
5998
102
}
330
5998
100
DictionaryVariables
280
     0
  1
Metric50
  0
DICTIONARYVAR
  5
87FF
102
{ACAD_REACTORS
330
5998
102
}
330
5998
100
DictionaryVariables
280
     0
  1
Metric50
  0
DICTIONARYVAR
  5
59B5
102
{ACAD_REACTORS
330
5998
102
}
330
5998
100
DictionaryVariables
280
     0
  1
1
  0
DICTIONARYVAR
  5
59B6
102
{ACAD_REACTORS
330
5998
102
}
330
5998
100
DictionaryVariables
280
     0
  1
15
  0
DICTIONARY
  5
8931
330
8858
100
AcDbDictionary
280
     1
281
     1
  3
ACAD_XREC_ROUNDTRIP
360
8932
  0
DICTIONARY
  5
8803
330
87E0
100
AcDbDictionary
280
     1
281
     1
  3
ACAD_XREC_ROUNDTRIP
360
892E
  0
DICTIONARY
  5
5F41
330
22
100
AcDbDictionary
280
     1
281
     1
  0
DICTIONARY
  5
892F
330
8857
100
AcDbDictionary
280
     1
281
     1
  3
ACAD_XREC_ROUNDTRIP
360
8930
  0
DICTIONARY
  5
8801
330
87DF
100
AcDbDictionary
280
     1
281
     1
  3
ACAD_XREC_ROUNDTRIP
360
892D
  0
DICTIONARY
  5
87DA
330
59A3
100
AcDbDictionary
280
     1
281
     1
  3
ACAD_ROUNDTRIP_2008_TABLESTYLE_CELLSTYLEMAP
360
892C
  0
XRECORD
  5
8932
102
{ACAD_REACTORS
330
8931
102
}
330
8931
100
AcDbXrecord
280
     1
102
DISPLAYNAME
  1
Imperial24
102
FLAGS
 90
        0
  0
XRECORD
  5
892E
102
{ACAD_REACTORS
330
8803
102
}
330
8803
100
AcDbXrecord
280
     1
102
DISPLAYNAME
  1
Metric50
102
FLAGS
 90
        0
  0
XRECORD
  5
8930
102
{ACAD_REACTORS
330
892F
102
}
330
892F
100
AcDbXrecord
280
     1
102
DISPLAYNAME
  1
Imperial24
102
FLAGS
 90
        0
  0
XRECORD
  5
892D
102
{ACAD_REACTORS
330
8801
102
}
330
8801
100
AcDbXrecord
280
     1
102
DISPLAYNAME
  1
Metric50
102
FLAGS
 90
        0
  0
CELLSTYLEMAP
  5
892C
102
{ACAD_REACTORS
330
87DA
102
}
330
87DA
100
AcDbCellStyleMap
 90
        3
300
CELLSTYLE
  1
TABLEFORMAT_BEGIN
 90
        5
170
     1
 91
        0
 92
    32768
 62
   257
 93
        1
300
CONTENTFORMAT
  1
CONTENTFORMAT_BEGIN
 90
        0
 91
        0
 92
      512
 93
        0
300

 40
0.0
140
1.0
 94
        5
 62
     0
340
11
144
6.0
309
CONTENTFORMAT_END
171
     1
301
MARGIN
  1
CELLMARGIN_BEGIN
 40
1.5
 40
1.5
 40
1.5
 40
1.5
 40
0.18
 40
0.18
309
CELLMARGIN_END
 94
        6
 95
        1
302
GRIDFORMAT
  1
GRIDFORMAT_BEGIN
 90
        0
 91
        1
 62
     0
 92
       -2
340
0
 93
        0
 40
1.125
309
GRIDFORMAT_END
 95
        2
302
GRIDFORMAT
  1
GRIDFORMAT_BEGIN
 90
        0
 91
        1
 62
     0
 92
       -2
340
0
 93
        0
 40
1.125
309
GRIDFORMAT_END
 95
        4
302
GRIDFORMAT
  1
GRIDFORMAT_BEGIN
 90
        0
 91
        1
 62
     0
 92
       -2
340
0
 93
        0
 40
1.125
309
GRIDFORMAT_END
 95
        8
302
GRIDFORMAT
  1
GRIDFORMAT_BEGIN
 90
        0
 91
        1
 62
     0
 92
       -2
340
0
 93
        0
 40
1.125
309
GRIDFORMAT_END
 95
       16
302
GRIDFORMAT
  1
GRIDFORMAT_BEGIN
 90
        0
 91
        1
 62
     0
 92
       -2
340
0
 93
        0
 40
1.125
309
GRIDFORMAT_END
 95
       32
302
GRIDFORMAT
  1
GRIDFORMAT_BEGIN
 90
        0
 91
        1
 62
     0
 92
       -2
340
0
 93
        0
 40
1.125
309
GRIDFORMAT_END
309
TABLEFORMAT_END
  1
CELLSTYLE_BEGIN
 90
        1
 91
        1
300
_TITLE
309
CELLSTYLE_END
300
CELLSTYLE
  1
TABLEFORMAT_BEGIN
 90
        5
170
     1
 91
        0
 92
        0
 62
   257
 93
        1
300
CONTENTFORMAT
  1
CONTENTFORMAT_BEGIN
 90
        0
 91
        0
 92
      512
 93
        0
300

 40
0.0
140
1.0
 94
        5
 62
     0
340
11
144
4.5
309
CONTENTFORMAT_END
171
     1
301
MARGIN
  1
CELLMARGIN_BEGIN
 40
1.5
 40
1.5
 40
1.5
 40
1.5
 40
0.18
 40
0.18
309
CELLMARGIN_END
 94
        6
 95
        1
302
GRIDFORMAT
  1
GRIDFORMAT_BEGIN
 90
        0
 91
        1
 62
     0
 92
       -2
340
0
 93
        0
 40
1.125
309
GRIDFORMAT_END
 95
        2
302
GRIDFORMAT
  1
GRIDFORMAT_BEGIN
 90
        0
 91
        1
 62
     0
 92
       -2
340
0
 93
        0
 40
1.125
309
GRIDFORMAT_END
 95
        4
302
GRIDFORMAT
  1
GRIDFORMAT_BEGIN
 90
        0
 91
        1
 62
     0
 92
       -2
340
0
 93
        0
 40
1.125
309
GRIDFORMAT_END
 95
        8
302
GRIDFORMAT
  1
GRIDFORMAT_BEGIN
 90
        0
 91
        1
 62
     0
 92
       -2
340
0
 93
        0
 40
1.125
309
GRIDFORMAT_END
 95
       16
302
GRIDFORMAT
  1
GRIDFORMAT_BEGIN
 90
        0
 91
        1
 62
     0
 92
       -2
340
0
 93
        0
 40
1.125
309
GRIDFORMAT_END
 95
       32
302
GRIDFORMAT
  1
GRIDFORMAT_BEGIN
 90
        0
 91
        1
 62
     0
 92
       -2
340
0
 93
        0
 40
1.125
309
GRIDFORMAT_END
309
TABLEFORMAT_END
  1
CELLSTYLE_BEGIN
 90
        2
 91
        1
300
_HEADER
309
CELLSTYLE_END
300
CELLSTYLE
  1
TABLEFORMAT_BEGIN
 90
        5
170
     1
 91
        0
 92
        0
 62
   257
 93
        1
300
CONTENTFORMAT
  1
CONTENTFORMAT_BEGIN
 90
        0
 91
        0
 92
      512
 93
        0
300

 40
0.0
140
1.0
 94
        2
 62
     0
340
11
144
4.5
309
CONTENTFORMAT_END
171
     1
301
MARGIN
  1
CELLMARGIN_BEGIN
 40
1.5
 40
1.5
 40
1.5
 40
1.5
 40
0.18
 40
0.18
309
CELLMARGIN_END
 94
        6
 95
        1
302
GRIDFORMAT
  1
GRIDFORMAT_BEGIN
 90
        0
 91
        1
 62
     0
 92
       -2
340
0
 93
        0
 40
1.125
309
GRIDFORMAT_END
 95
        2
302
GRIDFORMAT
  1
GRIDFORMAT_BEGIN
 90
        0
 91
        1
 62
     0
 92
       -2
340
0
 93
        0
 40
1.125
309
GRIDFORMAT_END
 95
        4
302
GRIDFORMAT
  1
GRIDFORMAT_BEGIN
 90
        0
 91
        1
 62
     0
 92
       -2
340
0
 93
        0
 40
1.125
309
GRIDFORMAT_END
 95
        8
302
GRIDFORMAT
  1
GRIDFORMAT_BEGIN
 90
        0
 91
        1
 62
     0
 92
       -2
340
0
 93
        0
 40
1.125
309
GRIDFORMAT_END
 95
       16
302
GRIDFORMAT
  1
GRIDFORMAT_BEGIN
 90
        0
 91
        1
 62
     0
 92
       -2
340
0
 93
        0
 40
1.125
309
GRIDFORMAT_END
 95
       32
302
GRIDFORMAT
  1
GRIDFORMAT_BEGIN
 90
        0
 91
        1
 62
     0
 92
       -2
340
0
 93
        0
 40
1.125
309
GRIDFORMAT_END
309
TABLEFORMAT_END
  1
CELLSTYLE_BEGIN
 90
        3
 91
        2
300
_DATA
309
CELLSTYLE_END
  0
ENDSEC
  0
SECTION
  2
ACDSDATA
 70
     2
 71
     6
  0
ACDSSCHEMA
 90
        0
  1
AcDb_Thumbnail_Schema
  2
AcDbDs::ID
280
    10
 91
        8
  2
Thumbnail_Data
280
    15
 91
        0
101
ACDSRECORD
 95
        0
 90
        1
  2
AcDbDs::TreatedAsObjectData
280
     1
291
     1
101
ACDSRECORD
 95
        0
 90
        2
  2
AcDbDs::Legacy
280
     1
291
     1
101
ACDSRECORD
  1
AcDbDs::ID
 90
        3
  2
AcDs:Indexable
280
     1
291
     1
101
ACDSRECORD
  1
AcDbDs::ID
 90
        4
  2
AcDbDs::HandleAttribute
280
     7
282
     1
  0
ACDSSCHEMA
 90
        1
  1
AcDbDs::TreatedAsObjectDataSchema
  2
AcDbDs::TreatedAsObjectData
280
     1
 91
        0
  0
ACDSSCHEMA
 90
        2
  1
AcDbDs::LegacySchema
  2
AcDbDs::Legacy
280
     1
 91
        0
  0
ACDSSCHEMA
 90
        3
  1
AcDbDs::IndexedPropertySchema
  2
AcDs:Indexable
280
     1
 91
        0
  0
ACDSSCHEMA
 90
        4
  1
AcDbDs::HandleAttributeSchema
  2
AcDbDs::HandleAttribute
280
     7
 91
        1
284
     1
  0
ACDSRECORD
 90
        0
  2
AcDbDs::ID
280
    10
320
22
  2
Thumbnail_Data
280
    15
 94
     1949
310
89504E470D0A1A0A0000000D4948445200000100000000A408030000004F56001800000300504C5445000000000000FFFFFF0000000000000000000000000000000000000000000000000000330000660000990000CC0000FF0033000033330033660033990033CC0033FF0066000066330066660066990066CC0066FF0099
310
000099330099660099990099CC0099FF00CC0000CC3300CC6600CC9900CCCC00CCFF00FF0000FF3300FF6600FF9900FFCC00FFFF3300003300333300663300993300CC3300FF3333003333333333663333993333CC3333FF3366003366333366663366993366CC3366FF3399003399333399663399993399CC3399FF33CC00
310
33CC3333CC6633CC9933CCCC33CCFF33FF0033FF3333FF6633FF9933FFCC33FFFF6600006600336600666600996600CC6600FF6633006633336633666633996633CC6633FF6666006666336666666666996666CC6666FF6699006699336699666699996699CC6699FF66CC0066CC3366CC6666CC9966CCCC66CCFF66FF0066
310
FF3366FF6666FF9966FFCC66FFFF9900009900339900669900999900CC9900FF9933009933339933669933999933CC9933FF9966009966339966669966999966CC9966FF9999009999339999669999999999CC9999FF99CC0099CC3399CC6699CC9999CCCC99CCFF99FF0099FF3399FF6699FF9999FFCC99FFFFCC0000CC00
310
33CC0066CC0099CC00CCCC00FFCC3300CC3333CC3366CC3399CC33CCCC33FFCC6600CC6633CC6666CC6699CC66CCCC66FFCC9900CC9933CC9966CC9999CC99CCCC99FFCCCC00CCCC33CCCC66CCCC99CCCCCCCCCCFFCCFF00CCFF33CCFF66CCFF99CCFFCCCCFFFFFF0000FF0033FF0066FF0099FF00CCFF00FFFF3300FF3333
310
FF3366FF3399FF33CCFF33FFFF6600FF6633FF6666FF6699FF66CCFF66FFFF9900FF9933FF9966FF9999FF99CCFF99FFFFCC00FFCC33FFCC66FFCC99FFCCCCFFCCFFFFFF00FFFF33FFFF66FFFF99FFFFCCFFFFFF0000000D0D0D1A1A1A2828283535354343435050505D5D5D6B6B6B787878868686939393A1A1A1AEAEAEBB
310
BBBBC9C9C9D6D6D6E4E4E4F1F1F1FFFFFF000000000000000000000000000000000000000000000000000000000000C11FEF66000004584944415478DAEDDD4D76A3300C07F0B901D760E3FBEFB2E11A5EE904DAB01F7F629B989074D2374FD25F9D820B6D5FFD8B6C8CE349FE90F1F8030000000000000000000000000000
310
0000000000000000808FC3FD52C801F89DBF0C0000100AC021287D94923980C9C61E801F4B2600B88B3D4406C8251B005D0618056819E04324009F4B56008EBDD50C684DC0D35E2852C916001780340808B5B79701F932904744869A00F54D800E00BA00D8739CF675270F20267EB902F02700A7900E90FABF588D7FC80052
310
03B087AE803FCB802E01640E84A88C8152B57D6C0E3700E5119F2480D0AB00F7191082CD7482C7653003A4BA1CA5D94DB1B64EB05CFFA92574B7B999156839B24BBF19CA75D8CF9B24F35606ECC233A08C7D630D42F34F5781B87901A0E632D826449CDBC3C7B0F908406C064C5BAEBBAC8ABE4EF04380DE825474823F0750
310
73370800000000000000807580AF2D76D101F0AD5F2B07A0297CFFD7CA0108871C01C03480330EF08D00000024036C0000000000600F203F2F727F37D89DBA5E42241220D6CDD70825E7D2E6EA27E2F7946744EABE3D8F261AC03580E70CE80F389A3C2F2A1C20C5F6A209F45FBA5903900D307682B3293177D7D001A0A909
310
D8CC8056F501A0AE1FB00BF03C5B680B201FD00C402F01387DBE91015247827104B7B92D44E8045B21163B80DB0CA8EB896402D40CD868DE07A80678A7137C03404327186F09F90A807503A4DB61A65A988C038635830A01F2BEAC9CE6F365905B1B07806280E366C822409E0BD9BC8B13227C9E0F4800FD844859209D632F
310
3D857C00DF00C629B19C019329B15DC794589914F575933380CF006DE69487B9B05DFA40A80CF6EB0020553D949E018E1FE5CB2E402EC0D009F6C72600A416806E01B84FF7E1564038407DED986ED0F70CD0E2F25E484706D014A0224D0104CF078C95E56943E7F27FCBEA318500B3380194633A33E026F8941EF6006AF3A7
310
AB4E5039C0FFFFB50000C02F01DCB4E8A76BE3ED29712FA17135B0EBC63EDBF3B5F1FA94CC26C0A7F551E38B2A6E930BE2E52989003EBD7E5A2ED52F5FD75215C0B2FA75E5B859CA86D725D768C9B12D2D2AC0E529510029D317EF43BD57DF470658260FF34237A76401C47FE9715FE3868E8D2D00F26BD8850DA54D002063
310
00A9031BAE0273009E01B46BA801009E02B05E80478E2DEFFA014F07A0B9093C860C7894330DA057A936B600C2A947FF430201C83400FD0880B400E439AE6D892BC2781B22D56F9B46EA034BF9513EFB73E200ACF7010C00005C03F0CD4048FD3860F2A4F9701560ED23412B00E93D05FA29316300C794D87A9E10D10F50DF
310
56224500E0714A4C3D40FEBB8F585BB1000C339FDCCE503DB2D5EF394E895C2657A6C43896286FDA637E5A3AD5C798012417A05B2B3C5474B674EA7C440D001F0BE14C02CCDF65CB0C405DFC559E131D4EF08B6521B3776553B53EC04A067C350000005500FD3B075C9EDC0180260000000804B0FED6DBB203000000000000
310
0000000000000000000000000000000000000000004CC55FD4040599F5B4B2690000000049454E44AE426082
  0
ENDSEC
  0
EOF
