  0
SECTION
  2
HEADER
  9
$ACADVER
  1
AC1027
  9
$ACADMAINTVER
 70
    55
  9
$DWGCODEPAGE
  3
ANSI_932
  9
$LASTSAVEDBY
  1
marketing
  9
$REQUIREDVERSIONS
160
                 0
  9
$INSBASE
 10
0.0
 20
0.0
 30
0.0
  9
$EXTMIN
 10
-0.0017324146140254
 20
-0.0543798347300708
 30
-0.0000000349181948
  9
$EXTMAX
 10
630.0214389420989
 20
891.054388133068
 30
0.0000000814935747
  9
$LIMMIN
 10
0.0
 20
0.0
  9
$LIMMAX
 10
420.0
 20
297.0
  9
$ORTHOMODE
 70
     1
  9
$REGENMODE
 70
     1
  9
$FILLMODE
 70
     1
  9
$QTEXTMODE
 70
     0
  9
$MIRRTEXT
 70
     1
  9
$LTSCALE
 40
1.0
  9
$ATTMODE
 70
     1
  9
$TEXTSIZE
 40
3.0
  9
$TRACEWID
 40
1.0
  9
$TEXTSTYLE
  7
STANDARD
  9
$CLAYER
  8
0
  9
$CELTYPE
  6
ByLayer
  9
$CECOLOR
 62
   256
  9
$CELTSCALE
 40
1.0
  9
$DISPSILH
 70
     0
  9
$DIMSCALE
 40
1.0
  9
$DIMASZ
 40
2.0
  9
$DIMEXO
 40
1.0
  9
$DIMDLI
 40
0.5
  9
$DIMRND
 40
0.0
  9
$DIMDLE
 40
0.0
  9
$DIMEXE
 40
0.5
  9
$DIMTP
 40
0.0
  9
$DIMTM
 40
0.0
  9
$DIMTXT
 40
7.0
  9
$DIMCEN
 40
0.09
  9
$DIMTSZ
 40
0.0
  9
$DIMTOL
 70
     0
  9
$DIMLIM
 70
     0
  9
$DIMTIH
 70
     0
  9
$DIMTOH
 70
     0
  9
$DIMSE1
 70
     0
  9
$DIMSE2
 70
     0
  9
$DIMTAD
 70
     3
  9
$DIMZIN
 70
    12
  9
$DIMBLK
  1
OPEN
  9
$DIMASO
 70
     1
  9
$DIMSHO
 70
     1
  9
$DIMPOST
  1

  9
$DIMAPOST
  1

  9
$DIMALT
 70
     0
  9
$DIMALTD
 70
     2
  9
$DIMALTF
 40
25.4
  9
$DIMLFAC
 40
1.0
  9
$DIMTOFL
 70
     0
  9
$DIMTVP
 40
0.0
  9
$DIMTIX
 70
     0
  9
$DIMSOXD
 70
     0
  9
$DIMSAH
 70
     0
  9
$DIMBLK1
  1

  9
$DIMBLK2
  1

  9
$DIMSTYLE
  2
STANDARD
  9
$DIMCLRD
 70
     0
  9
$DIMCLRE
 70
     0
  9
$DIMCLRT
 70
     0
  9
$DIMTFAC
 40
1.0
  9
$DIMGAP
 40
2.0
  9
$DIMJUST
 70
     0
  9
$DIMSD1
 70
     0
  9
$DIMSD2
 70
     0
  9
$DIMTOLJ
 70
     1
  9
$DIMTZIN
 70
     0
  9
$DIMALTZ
 70
     0
  9
$DIMALTTZ
 70
     0
  9
$DIMUPT
 70
     0
  9
$DIMDEC
 70
     1
  9
$DIMTDEC
 70
     1
  9
$DIMALTU
 70
     2
  9
$DIMALTTD
 70
     2
  9
$DIMTXSTY
  7
STANDARD
  9
$DIMAUNIT
 70
     0
  9
$DIMADEC
 70
     0
  9
$DIMALTRND
 40
0.0
  9
$DIMAZIN
 70
     0
  9
$DIMDSEP
 70
    46
  9
$DIMATFIT
 70
     3
  9
$DIMFRAC
 70
     0
  9
$DIMLDRBLK
  1
OPEN
  9
$DIMLUNIT
 70
     2
  9
$DIMLWD
 70
    -2
  9
$DIMLWE
 70
    -2
  9
$DIMTMOVE
 70
     0
  9
$DIMFXL
 40
1.0
  9
$DIMFXLON
 70
     0
  9
$DIMJOGANG
 40
0.7853981633974483
  9
$DIMTFILL
 70
     0
  9
$DIMTFILLCLR
 70
     0
  9
$DIMARCSYM
 70
     0
  9
$DIMLTYPE
  6

  9
$DIMLTEX1
  6

  9
$DIMLTEX2
  6

  9
$DIMTXTDIRECTION
 70
     0
  9
$LUNITS
 70
     2
  9
$LUPREC
 70
     1
  9
$SKETCHINC
 40
1.0
  9
$FILLETRAD
 40
0.0
  9
$AUNITS
 70
     0
  9
$AUPREC
 70
     2
  9
$MENU
  1
.
  9
$ELEVATION
 40
0.0
  9
$PELEVATION
 40
0.0
  9
$THICKNESS
 40
0.0
  9
$LIMCHECK
 70
     0
  9
$CHAMFERA
 40
0.0
  9
$CHAMFERB
 40
0.0
  9
$CHAMFERC
 40
0.0
  9
$CHAMFERD
 40
0.0
  9
$SKPOLY
 70
     0
  9
$TDCREATE
 40
2458968.445094757
  9
$TDUCREATE
 40
2458968.070094757
  9
$TDUPDATE
 40
2459243.574775833
  9
$TDUUPDATE
 40
2459243.199775833
  9
$TDINDWG
 40
0.8248903935
  9
$TDUSRTIMER
 40
0.8248898958
  9
$USRTIMER
 70
     1
  9
$ANGBASE
 50
0.0
  9
$ANGDIR
 70
     0
  9
$PDMODE
 70
     0
  9
$PDSIZE
 40
-1.0
  9
$PLINEWID
 40
0.0
  9
$SPLFRAME
 70
     0
  9
$SPLINETYPE
 70
     6
  9
$SPLINESEGS
 70
     8
  9
$HANDSEED
  5
A045
  9
$SURFTAB1
 70
     6
  9
$SURFTAB2
 70
     6
  9
$SURFTYPE
 70
     6
  9
$SURFU
 70
     6
  9
$SURFV
 70
     6
  9
$UCSBASE
  2

  9
$UCSNAME
  2

  9
$UCSORG
 10
0.0
 20
0.0
 30
0.0
  9
$UCSXDIR
 10
1.0
 20
0.0
 30
0.0
  9
$UCSYDIR
 10
0.0
 20
1.0
 30
0.0
  9
$UCSORTHOREF
  2

  9
$UCSORTHOVIEW
 70
     0
  9
$UCSORGTOP
 10
0.0
 20
0.0
 30
0.0
  9
$UCSORGBOTTOM
 10
0.0
 20
0.0
 30
0.0
  9
$UCSORGLEFT
 10
0.0
 20
0.0
 30
0.0
  9
$UCSORGRIGHT
 10
0.0
 20
0.0
 30
0.0
  9
$UCSORGFRONT
 10
0.0
 20
0.0
 30
0.0
  9
$UCSORGBACK
 10
0.0
 20
0.0
 30
0.0
  9
$PUCSBASE
  2

  9
$PUCSNAME
  2

  9
$PUCSORG
 10
0.0
 20
0.0
 30
0.0
  9
$PUCSXDIR
 10
1.0
 20
0.0
 30
0.0
  9
$PUCSYDIR
 10
0.0
 20
1.0
 30
0.0
  9
$PUCSORTHOREF
  2

  9
$PUCSORTHOVIEW
 70
     0
  9
$PUCSORGTOP
 10
0.0
 20
0.0
 30
0.0
  9
$PUCSORGBOTTOM
 10
0.0
 20
0.0
 30
0.0
  9
$PUCSORGLEFT
 10
0.0
 20
0.0
 30
0.0
  9
$PUCSORGRIGHT
 10
0.0
 20
0.0
 30
0.0
  9
$PUCSORGFRONT
 10
0.0
 20
0.0
 30
0.0
  9
$PUCSORGBACK
 10
0.0
 20
0.0
 30
0.0
  9
$USERI1
 70
     0
  9
$USERI2
 70
     0
  9
$USERI3
 70
     0
  9
$USERI4
 70
     0
  9
$USERI5
 70
     0
  9
$USERR1
 40
0.0
  9
$USERR2
 40
0.0
  9
$USERR3
 40
0.0
  9
$USERR4
 40
0.0
  9
$USERR5
 40
0.0
  9
$WORLDVIEW
 70
     1
  9
$SHADEDGE
 70
     3
  9
$SHADEDIF
 70
    70
  9
$TILEMODE
 70
     1
  9
$MAXACTVP
 70
    64
  9
$PINSBASE
 10
0.0
 20
0.0
 30
0.0
  9
$PLIMCHECK
 70
     0
  9
$PEXTMIN
 10
1.000000000000000E+20
 20
1.000000000000000E+20
 30
1.000000000000000E+20
  9
$PEXTMAX
 10
-1.000000000000000E+20
 20
-1.000000000000000E+20
 30
-1.000000000000000E+20
  9
$PLIMMIN
 10
0.0
 20
0.0
  9
$PLIMMAX
 10
420.0
 20
297.0
  9
$UNITMODE
 70
     0
  9
$VISRETAIN
 70
     1
  9
$PLINEGEN
 70
     0
  9
$PSLTSCALE
 70
     1
  9
$TREEDEPTH
 70
  3020
  9
$CMLSTYLE
  2
Standard
  9
$CMLJUST
 70
     0
  9
$CMLSCALE
 40
20.0
  9
$PROXYGRAPHICS
 70
     1
  9
$MEASUREMENT
 70
     1
  9
$CELWEIGHT
370
    -1
  9
$ENDCAPS
280
     0
  9
$JOINSTYLE
280
     0
  9
$LWDISPLAY
290
     1
  9
$INSUNITS
 70
     4
  9
$HYPERLINKBASE
  1

  9
$STYLESHEET
  1
MONOCHROME.CTB
  9
$XEDIT
290
     1
  9
$CEPSNTYPE
380
     0
  9
$PSTYLEMODE
290
     1
  9
$FINGERPRINTGUID
  2
{C11E7A15-92EB-4EA4-8972-997643E844ED}
  9
$VERSIONGUID
  2
{C0A1F6B3-07B3-4493-8367-F15CB4AD41BF}
  9
$EXTNAMES
290
     1
  9
$PSVPSCALE
 40
0.0
  9
$OLESTARTUP
290
     0
  9
$SORTENTS
280
   127
  9
$INDEXCTL
280
     0
  9
$HIDETEXT
280
     1
  9
$XCLIPFRAME
280
     0
  9
$HALOGAP
280
     0
  9
$OBSCOLOR
 70
   257
  9
$OBSLTYPE
280
     0
  9
$INTERSECTIONDISPLAY
280
     0
  9
$INTERSECTIONCOLOR
 70
   257
  9
$DIMASSOC
280
     2
  9
$PROJECTNAME
  1

  9
$CAMERADISPLAY
290
     0
  9
$LENSLENGTH
 40
50.0
  9
$CAMERAHEIGHT
 40
0.0
  9
$STEPSPERSEC
 40
2.0
  9
$STEPSIZE
 40
6.0
  9
$3DDWFPREC
 40
2.0
  9
$PSOLWIDTH
 40
5.0
  9
$PSOLHEIGHT
 40
80.0
  9
$LOFTANG1
 40
1.5707963268
  9
$LOFTANG2
 40
1.5707963268
  9
$LOFTMAG1
 40
0.0
  9
$LOFTMAG2
 40
0.0
  9
$LOFTPARAM
 70
     7
  9
$LOFTNORMALS
280
     1
  9
$LATITUDE
 40
37.795
  9
$LONGITUDE
 40
-122.394
  9
$NORTHDIRECTION
 40
0.0
  9
$TIMEZONE
 70
 -8000
  9
$LIGHTGLYPHDISPLAY
280
     1
  9
$TILEMODELIGHTSYNCH
280
     1
  9
$CMATERIAL
347
44
  9
$SOLIDHIST
280
     1
  9
$SHOWHIST
280
     1
  9
$DWFFRAME
280
     2
  9
$DGNFRAME
280
     2
  9
$REALWORLDSCALE
290
     1
  9
$INTERFERECOLOR
 62
   256
  9
$INTERFEREOBJVS
345
33
  9
$INTERFEREVPVS
346
314E
  9
$CSHADOW
280
     0
  9
$SHADOWPLANELOCATION
 40
0.0
  0
ENDSEC
  0
SECTION
  2
CLASSES
  0
CLASS
  1
ACDBDICTIONARYWDFLT
  2
AcDbDictionaryWithDefault
  3
ObjectDBX Classes
 90
        0
 91
        1
280
     0
281
     0
  0
CLASS
  1
VISUALSTYLE
  2
AcDbVisualStyle
  3
ObjectDBX Classes
 90
     4095
 91
       26
280
     0
281
     0
  0
CLASS
  1
MATERIAL
  2
AcDbMaterial
  3
ObjectDBX Classes
 90
     1153
 91
        3
280
     0
281
     0
  0
CLASS
  1
SCALE
  2
AcDbScale
  3
ObjectDBX Classes
 90
     1153
 91
       33
280
     0
281
     0
  0
CLASS
  1
SUN
  2
AcDbSun
  3
SCENEOE
 90
     1153
 91
        1
280
     0
281
     0
  0
CLASS
  1
DICTIONARYVAR
  2
AcDbDictionaryVar
  3
ObjectDBX Classes
 90
        0
 91
        7
280
     0
281
     0
  0
CLASS
  1
TABLESTYLE
  2
AcDbTableStyle
  3
ObjectDBX Classes
 90
     4095
 91
        1
280
     0
281
     0
  0
CLASS
  1
MLEADERSTYLE
  2
AcDbMLeaderStyle
  3
ACDB_MLEADERSTYLE_CLASS
 90
     4095
 91
        1
280
     0
281
     0
  0
CLASS
  1
SORTENTSTABLE
  2
AcDbSortentsTable
  3
ObjectDBX Classes
 90
        0
 91
        5
280
     0
281
     0
  0
CLASS
  1
DIMASSOC
  2
AcDbDimAssoc
  3
"AcDbDimAssoc|Product Desc:     AcDim ARX App For Dimension|Company:          Autodesk, Inc.|WEB Address:      www.autodesk.com"
 90
        0
 91
        3
280
     0
281
     0
  0
CLASS
  1
AEC_REFEDIT_STATUS_TRACKER
  2
AecDbRefEditStatusTracker
  3
AecArchBase70|Product Desc: Autodesk Architectural Desktop 2007 |Company: Autodesk,Inc. |WEB Address: www.autodesk.com
 90
      129
 91
        0
280
     0
281
     0
  0
CLASS
  1
NPOCOLLECTION
  2
AcDbImpNonPersistentObjectsCollection
  3
ObjectDBX Classes
 90
     1153
 91
        0
280
     0
281
     0
  0
CLASS
  1
EXACXREFPANELOBJECT
  2
ExAcXREFPanelObject
  3
EXAC_ESW
 90
     1025
 91
        0
280
     0
281
     0
  0
CLASS
  1
CELLSTYLEMAP
  2
AcDbCellStyleMap
  3
ObjectDBX Classes
 90
     1152
 91
        2
280
     0
281
     0
  0
CLASS
  1
ACDBSECTIONVIEWSTYLE
  2
AcDbSectionViewStyle
  3
ObjectDBX Classes
 90
     1025
 91
        1
280
     0
281
     0
  0
CLASS
  1
ACDBDETAILVIEWSTYLE
  2
AcDbDetailViewStyle
  3
ObjectDBX Classes
 90
     1025
 91
        1
280
     0
281
     0
  0
ENDSEC
  0
SECTION
  2
TABLES
  0
TABLE
  2
VPORT
  5
8
330
0
100
AcDbSymbolTable
 70
     1
  0
VPORT
  5
29
330
8
100
AcDbSymbolTableRecord
100
AcDbViewportTableRecord
  2
*Active
 70
     0
 10
0.0
 20
0.0
 11
1.0
 21
1.0
 12
315.0098532637425
 22
445.5000041491689
 13
0.0
 23
0.0
 14
10.0
 24
10.0
 15
10.0
 25
10.0
 16
0.0
 26
0.0
 36
1.0
 17
0.0
 27
0.0
 37
0.0
 40
899.2097567675052
 41
2.464339908952958
 42
50.0
 43
0.0
 44
0.0
 50
0.0
 51
0.0
 71
     0
 72
  2000
 73
     1
 74
     3
 75
     0
 76
     0
 77
     0
 78
     0
281
     0
 65
     1
110
0.0
120
0.0
130
0.0
111
1.0
121
0.0
131
0.0
112
0.0
122
1.0
132
0.0
 79
     0
146
0.0
348
2F
 60
     3
 61
     5
292
     1
282
     1
141
0.0
142
0.0
 63
   250
361
69
1001
ACAD_NAV_VCDISPLAY
1070
     3
  0
ENDTAB
  0
TABLE
  2
LTYPE
  5
5
330
0
100
AcDbSymbolTable
 70
    12
  0
LTYPE
  5
14
330
5
100
AcDbSymbolTableRecord
100
AcDbLinetypeTableRecord
  2
ByBlock
 70
     0
  3

 72
    65
 73
     0
 40
0.0
  0
LTYPE
  5
15
330
5
100
AcDbSymbolTableRecord
100
AcDbLinetypeTableRecord
  2
ByLayer
 70
     0
  3

 72
    65
 73
     0
 40
0.0
  0
LTYPE
  5
16
330
5
100
AcDbSymbolTableRecord
100
AcDbLinetypeTableRecord
  2
Continuous
 70
     0
  3
Solid line
 72
    65
 73
     0
 40
0.0
  0
LTYPE
  5
6A
330
5
100
AcDbSymbolTableRecord
100
AcDbLinetypeTableRecord
  2
SLD-実線
 70
     0
  3
SolidWorks Line Style
 72
    65
 73
     0
 40
0.0
  0
LTYPE
  5
6B
330
5
100
AcDbSymbolTableRecord
100
AcDbLinetypeTableRecord
  2
SLD-破線
 70
     0
  3
SolidWorks Line Style
 72
    65
 73
     2
 40
1.905
 49
1.27
 74
     0
 49
-0.635
 74
     0
  0
LTYPE
  5
6C
330
5
100
AcDbSymbolTableRecord
100
AcDbLinetypeTableRecord
  2
SLD-2点鎖線
 70
     0
  3
SolidWorks Line Style
 72
    65
 73
     6
 40
12.7
 49
6.349999999999997
 74
     0
 49
-1.27
 74
     0
 49
1.27
 74
     0
 49
-1.27
 74
     0
 49
1.27
 74
     0
 49
-1.27
 74
     0
  0
LTYPE
  5
39A6
330
5
100
AcDbSymbolTableRecord
100
AcDbLinetypeTableRecord
  2
CONTINOUS
 70
     0
  3
Solid line
 72
    65
 73
     0
 40
0.0
  0
LTYPE
  5
39A9
330
5
100
AcDbSymbolTableRecord
100
AcDbLinetypeTableRecord
  2
DIVIDE
 70
     0
  3
Divide ____ . . ____ . . ____ . . ____ . . ____
 72
    65
 73
     6
 40
1.25
 49
0.5
 74
     0
 49
-0.25
 74
     0
 49
0.0
 74
     0
 49
-0.25
 74
     0
 49
0.0
 74
     0
 49
-0.25
 74
     0
  0
LTYPE
  5
8AEC
330
5
100
AcDbSymbolTableRecord
100
AcDbLinetypeTableRecord
  2
DASHDOT
 70
     0
  3
__ . __ . __ . __ . __ . __ . __ . __ . __ . __
 72
    65
 73
     4
 40
1.0
 49
0.5
 74
     0
 49
-0.25
 74
     0
 49
0.0
 74
     0
 49
-0.25
 74
     0
  0
LTYPE
  5
8C45
330
5
100
AcDbSymbolTableRecord
100
AcDbLinetypeTableRecord
  2
SLD-鎖線
 70
     0
  3
SolidWorks Line Style
 72
    65
 73
     4
 40
10.16
 49
6.349999999999997
 74
     0
 49
-1.27
 74
     0
 49
1.27
 74
     0
 49
-1.27
 74
     0
  0
LTYPE
  5
8C46
330
5
100
AcDbSymbolTableRecord
100
AcDbLinetypeTableRecord
  2
HIDDEN
 70
     0
  3
Hidden __ __ __ __ __ __ __ __ __ __ __ __ __ __
 72
    65
 73
     2
 40
9.524999999999996
 49
6.349999999999997
 74
     0
 49
-3.174999999999998
 74
     0
  0
LTYPE
  5
A03F
330
5
100
AcDbSymbolTableRecord
100
AcDbLinetypeTableRecord
  2
HIDDENX2
 70
     0
  3
Hidden (2x) ____ ____ ____ ____ ____ ____ ____
 72
    65
 73
     2
 40
19.05
 49
12.7
 74
     0
 49
-6.349999999999999
 74
     0
  0
LTYPE
  5
A040
330
5
100
AcDbSymbolTableRecord
100
AcDbLinetypeTableRecord
  2
HIDDEN2
 70
     0
  3
Hidden (.5x) _ _ _ _ _ _ _ _ _ _ _ _ _ _ _ _ _
 72
    65
 73
     2
 40
4.762499999999999
 49
3.174999999999999
 74
     0
 49
-1.587499999999999
 74
     0
  0
ENDTAB
  0
TABLE
  2
LAYER
  5
2
102
{ACAD_XDICTIONARY
360
52E1
102
}
330
0
100
AcDbSymbolTable
 70
    12
  0
LAYER
  5
10
102
{ACAD_XDICTIONARY
360
3158
102
}
330
2
100
AcDbSymbolTableRecord
100
AcDbLayerTableRecord
  2
0
 70
     0
 62
     7
  6
Continuous
370
    -3
390
F
347
46
348
0
  0
LAYER
  5
72
102
{ACAD_XDICTIONARY
360
315C
102
}
330
2
100
AcDbSymbolTableRecord
100
AcDbLayerTableRecord
  2
240
 70
     0
 62
     7
  6
SLD-実線
370
    -3
390
F
347
46
348
0
  0
LAYER
  5
316A
330
2
100
AcDbSymbolTableRecord
100
AcDbLayerTableRecord
  2
Defpoints
 70
     0
 62
     7
  6
Continuous
290
     0
370
    -3
390
F
347
46
348
0
  0
LAYER
  5
39AA
102
{ACAD_XDICTIONARY
360
39AB
102
}
330
2
100
AcDbSymbolTableRecord
100
AcDbLayerTableRecord
  2
10
 70
     0
 62
     4
  6
CONTINOUS
370
    -3
390
F
347
46
348
0
  0
LAYER
  5
39B0
102
{ACAD_XDICTIONARY
360
39B1
102
}
330
2
100
AcDbSymbolTableRecord
100
AcDbLayerTableRecord
  2
11
 70
     0
 62
     1
  6
CONTINOUS
370
    -3
390
F
347
46
348
0
  0
LAYER
  5
39B2
102
{ACAD_XDICTIONARY
360
39B3
102
}
330
2
100
AcDbSymbolTableRecord
100
AcDbLayerTableRecord
  2
24
 70
     0
 62
     7
  6
CONTINOUS
370
    -3
390
F
347
46
348
0
  0
LAYER
  5
39B4
102
{ACAD_XDICTIONARY
360
39B5
102
}
330
2
100
AcDbSymbolTableRecord
100
AcDbLayerTableRecord
  2
30
 70
     0
 62
     9
  6
Continuous
370
    -3
390
F
347
46
348
0
  0
LAYER
  5
39B6
102
{ACAD_XDICTIONARY
360
39B7
102
}
330
2
100
AcDbSymbolTableRecord
100
AcDbLayerTableRecord
  2
18
 70
     0
 62
     5
  6
DIVIDE
370
    -3
390
F
347
46
348
0
  0
LAYER
  5
8AED
102
{ACAD_XDICTIONARY
360
8AEE
102
}
330
2
100
AcDbSymbolTableRecord
100
AcDbLayerTableRecord
  2
16
 70
     0
 62
     6
  6
DASHDOT
370
    -3
390
F
347
46
348
0
  0
LAYER
  5
92B7
102
{ACAD_XDICTIONARY
360
92B8
102
}
330
2
100
AcDbSymbolTableRecord
100
AcDbLayerTableRecord
  2
17
 70
     0
 62
     2
  6
DASHDOT
370
    -3
390
F
347
46
348
0
  0
LAYER
  5
A033
330
2
100
AcDbSymbolTableRecord
100
AcDbLayerTableRecord
  2
12
 70
     0
 62
     3
  6
Continuous
370
    -3
390
F
347
46
348
0
1001
AcAecLayerStandard
1000

1000

1001
AcCmTransparency
1071
        0
  0
LAYER
  5
A036
330
2
100
AcDbSymbolTableRecord
100
AcDbLayerTableRecord
  2
19
 70
     0
 62
     7
  6
Continuous
370
    -3
390
F
347
46
348
0
1001
AcAecLayerStandard
1000

1000

1001
AcCmTransparency
1071
        0
  0
ENDTAB
  0
TABLE
  2
STYLE
  5
3
330
0
100
AcDbSymbolTable
 70
     3
  0
STYLE
  5
11
330
3
100
AcDbSymbolTableRecord
100
AcDbTextStyleTableRecord
  2
STANDARD
 70
     0
 40
0.0
 41
1.0
 50
0.0
 71
     0
 42
3.0
  3
MS UI Gothic.ttf
  4

1001
ACAD
1000
MS UI GOTHIC
1071
    32818
  0
STYLE
  5
39BA
330
3
100
AcDbSymbolTableRecord
100
AcDbTextStyleTableRecord
  2
STANDARD1
 70
     0
 40
0.0
 41
1.0
 50
0.0
 71
     0
 42
5.0
  3
MONOTXT
  4
BIGFONT
  0
STYLE
  5
A03E
330
3
100
AcDbSymbolTableRecord
100
AcDbTextStyleTableRecord
  2

 70
     1
 40
0.0
 41
1.0
 50
0.0
 71
     0
 42
3.0
  3
ltypeshp.shx
  4

  0
ENDTAB
  0
TABLE
  2
VIEW
  5
6
330
0
100
AcDbSymbolTable
 70
     0
  0
ENDTAB
  0
TABLE
  2
UCS
  5
7
330
0
100
AcDbSymbolTable
 70
     0
  0
ENDTAB
  0
TABLE
  2
APPID
  5
9
330
0
100
AcDbSymbolTable
 70
     8
  0
APPID
  5
12
330
9
100
AcDbSymbolTableRecord
100
AcDbRegAppTableRecord
  2
ACAD
 70
     0
  0
APPID
  5
43A1
330
9
100
AcDbSymbolTableRecord
100
AcDbRegAppTableRecord
  2
ACAD_EXEMPT_FROM_CAD_STANDARDS
 70
     0
  0
APPID
  5
8C47
330
9
100
AcDbSymbolTableRecord
100
AcDbRegAppTableRecord
  2
ACAD_DSTYLE_DIMRADIAL_EXTENSION
 70
     0
  0
APPID
  5
9903
330
9
100
AcDbSymbolTableRecord
100
AcDbRegAppTableRecord
  2
ACAD_DSTYLE_DIMJAG
 70
     0
  0
APPID
  5
9904
330
9
100
AcDbSymbolTableRecord
100
AcDbRegAppTableRecord
  2
ACAD_DSTYLE_DIMTALN
 70
     0
  0
APPID
  5
A000
330
9
100
AcDbSymbolTableRecord
100
AcDbRegAppTableRecord
  2
ACAD_NAV_VCDISPLAY
 70
     0
  0
APPID
  5
A034
330
9
100
AcDbSymbolTableRecord
100
AcDbRegAppTableRecord
  2
AcAecLayerStandard
 70
     0
  0
APPID
  5
A035
330
9
100
AcDbSymbolTableRecord
100
AcDbRegAppTableRecord
  2
AcCmTransparency
 70
     0
  0
ENDTAB
  0
TABLE
  2
DIMSTYLE
  5
A
330
0
100
AcDbSymbolTable
 70
     3
100
AcDbDimStyleTable
 71
     2
340
39BC
340
27
  0
DIMSTYLE
105
27
102
{ACAD_REACTORS
330
960E
102
}
330
A
100
AcDbSymbolTableRecord
100
AcDbDimStyleTableRecord
  2
ISO-25
 70
     0
 41
2.5
 42
0.625
 43
3.75
 44
1.25
 77
     1
 78
     8
140
7.0
141
2.5
143
0.0393700787
147
2.0
171
     3
172
     1
271
     2
272
     2
274
     3
278
    44
283
     0
284
     8
340
11
1001
ACAD_DSTYLE_DIMJAG
1070
   388
1040
1.5
1001
ACAD_DSTYLE_DIMTALN
1070
   392
1070
     0
  0
DIMSTYLE
105
39BC
102
{ACAD_REACTORS
330
95B1
330
967C
330
95FA
330
9527
330
951A
330
966C
330
966D
330
966B
330
9670
330
9672
330
963B
330
963A
330
9833
330
963C
330
95B2
330
960D
330
9611
330
95FF
330
9618
330
9F83
102
}
330
A
100
AcDbSymbolTableRecord
100
AcDbDimStyleTableRecord
  2
STANDARD
 70
     0
 41
2.0
 42
1.0
 43
0.5
 44
0.5
 73
     0
 74
     0
 77
     3
 78
    12
140
7.0
147
2.0
271
     1
272
     1
340
11
341
380B
342
380B
1001
ACAD_DSTYLE_DIMJAG
1070
   388
1040
1.5
1001
ACAD_DSTYLE_DIMTALN
1070
   392
1070
     0
  0
ENDTAB
  0
TABLE
  2
BLOCK_RECORD
  5
1
330
0
100
AcDbSymbolTable
 70
    46
  0
BLOCK_RECORD
  5
1F
102
{ACAD_XDICTIONARY
360
52DB
102
}
330
1
100
AcDbSymbolTableRecord
100
AcDbBlockTableRecord
  2
*Model_Space
340
22
 70
     0
280
     1
281
     0
  0
BLOCK_RECORD
  5
1B
330
1
100
AcDbSymbolTableRecord
100
AcDbBlockTableRecord
  2
*Paper_Space
340
1E
 70
     0
280
     1
281
     0
  0
BLOCK_RECORD
  5
23
330
1
100
AcDbSymbolTableRecord
100
AcDbBlockTableRecord
  2
*Paper_Space0
340
26
 70
     0
280
     1
281
     0
  0
BLOCK_RECORD
  5
1202
330
1
100
AcDbSymbolTableRecord
100
AcDbBlockTableRecord
  2
SW_CENTERMARKSYMBOL_24
340
0
 70
     0
280
     1
281
     0
  0
BLOCK_RECORD
  5
120E
330
1
100
AcDbSymbolTableRecord
100
AcDbBlockTableRecord
  2
SW_CENTERMARKSYMBOL_25
340
0
 70
     0
280
     1
281
     0
  0
BLOCK_RECORD
  5
121A
330
1
100
AcDbSymbolTableRecord
100
AcDbBlockTableRecord
  2
SW_CENTERMARKSYMBOL_26
340
0
 70
     0
280
     1
281
     0
  0
BLOCK_RECORD
  5
1226
330
1
100
AcDbSymbolTableRecord
100
AcDbBlockTableRecord
  2
SW_CENTERMARKSYMBOL_27
340
0
 70
     0
280
     1
281
     0
  0
BLOCK_RECORD
  5
1E19
330
1
100
AcDbSymbolTableRecord
100
AcDbBlockTableRecord
  2
SW_CENTERMARKSYMBOL_32
340
0
 70
     0
280
     1
281
     0
  0
BLOCK_RECORD
  5
1E25
330
1
100
AcDbSymbolTableRecord
100
AcDbBlockTableRecord
  2
SW_CENTERMARKSYMBOL_33
340
0
 70
     0
280
     1
281
     0
  0
BLOCK_RECORD
  5
1E31
330
1
100
AcDbSymbolTableRecord
100
AcDbBlockTableRecord
  2
SW_CENTERMARKSYMBOL_34
340
0
 70
     0
280
     1
281
     0
  0
BLOCK_RECORD
  5
1E3D
330
1
100
AcDbSymbolTableRecord
100
AcDbBlockTableRecord
  2
SW_CENTERMARKSYMBOL_35
340
0
 70
     0
280
     1
281
     0
  0
BLOCK_RECORD
  5
1E49
330
1
100
AcDbSymbolTableRecord
100
AcDbBlockTableRecord
  2
SW_CENTERMARKSYMBOL_36
340
0
 70
     0
280
     1
281
     0
  0
BLOCK_RECORD
  5
1E55
330
1
100
AcDbSymbolTableRecord
100
AcDbBlockTableRecord
  2
SW_CENTERMARKSYMBOL_37
340
0
 70
     0
280
     1
281
     0
  0
BLOCK_RECORD
  5
380B
330
1
100
AcDbSymbolTableRecord
100
AcDbBlockTableRecord
  2
_OPEN
340
0
102
{BLKREFS
331
9F93
331
9F94
331
9FF8
331
9FF9
331
9E0F
331
9E10
331
9FEF
331
9FF0
331
9DD8
331
9DEA
331
9DEB
331
9DFC
331
9DFD
331
9E05
331
9E06
331
9D9F
331
9DA0
331
9DBA
331
9DBB
331
9EDA
331
9EDB
331
9DC3
331
9DC4
331
9DCD
331
9DCE
331
9DD7
331
9E18
331
9E19
331
9E21
331
9E22
331
9E33
331
9E34
331
9E43
331
9E44
331
9E81
331
9E82
331
9FD4
331
9FD5
331
9FDD
331
9FDE
102
}
 70
     0
280
     1
281
     0
  0
BLOCK_RECORD
  5
6318
330
1
100
AcDbSymbolTableRecord
100
AcDbBlockTableRecord
  2
READTB
340
0
310
2800000020000000200000000100080000000000000400000000000000000000000000000000000000000000000080000080000000808000800000008000800080800000C0C0C000C0DCC000F0CAA6000020400000206000002080000020A0000020C0000020E00000400000004020000040400000406000004080000040A0
310
000040C0000040E00000600000006020000060400000606000006080000060A0000060C0000060E00000800000008020000080400000806000008080000080A0000080C0000080E00000A0000000A0200000A0400000A0600000A0800000A0A00000A0C00000A0E00000C0000000C0200000C0400000C0600000C0800000C0
310
A00000C0C00000C0E00000E0000000E0200000E0400000E0600000E0800000E0A00000E0C00000E0E00040000000400020004000400040006000400080004000A0004000C0004000E00040200000402020004020400040206000402080004020A0004020C0004020E000404000004040200040404000404060004040800040
310
40A0004040C0004040E00040600000406020004060400040606000406080004060A0004060C0004060E00040800000408020004080400040806000408080004080A0004080C0004080E00040A0000040A0200040A0400040A0600040A0800040A0A00040A0C00040A0E00040C0000040C0200040C0400040C0600040C08000
310
40C0A00040C0C00040C0E00040E0000040E0200040E0400040E0600040E0800040E0A00040E0C00040E0E00080000000800020008000400080006000800080008000A0008000C0008000E00080200000802020008020400080206000802080008020A0008020C0008020E00080400000804020008040400080406000804080
310
008040A0008040C0008040E00080600000806020008060400080606000806080008060A0008060C0008060E00080800000808020008080400080806000808080008080A0008080C0008080E00080A0000080A0200080A0400080A0600080A0800080A0A00080A0C00080A0E00080C0000080C0200080C0400080C0600080C0
310
800080C0A00080C0C00080C0E00080E0000080E0200080E0400080E0600080E0800080E0A00080E0C00080E0E000C0000000C0002000C0004000C0006000C0008000C000A000C000C000C000E000C0200000C0202000C0204000C0206000C0208000C020A000C020C000C020E000C0400000C0402000C0404000C0406000C0
310
408000C040A000C040C000C040E000C0600000C0602000C0604000C0606000C0608000C060A000C060C000C060E000C0800000C0802000C0804000C0806000C0808000C080A000C080C000C080E000C0A00000C0A02000C0A04000C0A06000C0A08000C0A0A000C0A0C000C0A0E000C0C00000C0C02000C0C04000C0C06000
310
C0C08000C0C0A000F0FBFF00A4A0A000808080000000FF0000FF000000FFFF00FF000000FF00FF00FFFF0000FFFFFF0000000000000000000000000000000000000000000000000000000000000000000000000000000000000000FEFEFEFEFEFEFEFEFE0000000000000000000000000000000000000000000000FEFEFEFE
310
FEFEFEFEFEFE00000000000000000000000000000000000000000000FEFEFEFEFEFBFBFEFEFE0000000000000000000000000000000000000000000000000000FEFBFB00FE000000000000000000000000000000000000000000000000000000FEFBFB00FE0000000000000000000000000000000000000000000000000000
310
00FEFBFB00FE0000000000000000000000000000000000000000000000FEFEFEFEFEFBFE00FE000000000000000000000000000000000000000000000000000000FEFBFB00FE000000000000000000000000000000000000000000000000000000FEFBFB00FE00000000000000000000000000000000000000000000000000
310
0000FEFBFB00FE0000000000000000000000000000000000000000000000FEFEFEFEFEFEFE00FE000000000000000000000000000000000000000000000000000000FEFBFB00FE000000000000000000000000000000000000000000000000000000FEFBFB00FE000000000000000000000000000000000000000000000000
310
000000FEFBFB00FE000000000000000000000000000000000000000000000000000000FEFBFE00FE0000000000000000000000000000000000000000000000FEFEFEFEFEFBFB00FE000000000000000000000000000000000000000000000000000000FEFBFB00FE0000000000000000000000000000000000000000000000
310
00000000FEFBFB00FE000000000000000000000000000000000000000000000000000000FEFBFB00FE0000000000000000000000000000000000000000000000FEFEFEFEFEFBFE00FE000000000000000000000000000000000000000000000000000000FEFBFB00FE00000000000000000000000000000000000000000000
310
0000000000FEFBFB00FE000000000000000000000000000000000000000000000000000000FEFBFB00FE0000000000000000000000000000000000000000000000FEFEFEFEFEFEFE00A4000000000000000000000000000000000000000000000000000000FEFBFB00FE000000000000000000000000000000000000000000
310
000000000000FEFBFB00FE000000000000000000000000000000000000000000000000000000FEFBFB00FE000000000000000000000000000000000000000000000000000000FEFBFBFEA4FE00000000000000000000000000000000000000000000FEFEFEFEFEFEFEFEFEFE00000000000000000000000000000000000000
310
00000000FB000000000000000000000000000000000000000000000000000000000000000000000000000000000000000000000000000000
 70
     4
280
     1
281
     0
  0
BLOCK_RECORD
  5
819C
330
1
100
AcDbSymbolTableRecord
100
AcDbBlockTableRecord
  2
BOLT12
340
0
310
2800000020000000200000000100080000000000000400000000000000000000000000000000000000000000000080000080000000808000800000008000800080800000C0C0C000C0DCC000F0CAA6000020400000206000002080000020A0000020C0000020E00000400000004020000040400000406000004080000040A0
310
000040C0000040E00000600000006020000060400000606000006080000060A0000060C0000060E00000800000008020000080400000806000008080000080A0000080C0000080E00000A0000000A0200000A0400000A0600000A0800000A0A00000A0C00000A0E00000C0000000C0200000C0400000C0600000C0800000C0
310
A00000C0C00000C0E00000E0000000E0200000E0400000E0600000E0800000E0A00000E0C00000E0E00040000000400020004000400040006000400080004000A0004000C0004000E00040200000402020004020400040206000402080004020A0004020C0004020E000404000004040200040404000404060004040800040
310
40A0004040C0004040E00040600000406020004060400040606000406080004060A0004060C0004060E00040800000408020004080400040806000408080004080A0004080C0004080E00040A0000040A0200040A0400040A0600040A0800040A0A00040A0C00040A0E00040C0000040C0200040C0400040C0600040C08000
310
40C0A00040C0C00040C0E00040E0000040E0200040E0400040E0600040E0800040E0A00040E0C00040E0E00080000000800020008000400080006000800080008000A0008000C0008000E00080200000802020008020400080206000802080008020A0008020C0008020E00080400000804020008040400080406000804080
310
008040A0008040C0008040E00080600000806020008060400080606000806080008060A0008060C0008060E00080800000808020008080400080806000808080008080A0008080C0008080E00080A0000080A0200080A0400080A0600080A0800080A0A00080A0C00080A0E00080C0000080C0200080C0400080C0600080C0
310
800080C0A00080C0C00080C0E00080E0000080E0200080E0400080E0600080E0800080E0A00080E0C00080E0E000C0000000C0002000C0004000C0006000C0008000C000A000C000C000C000E000C0200000C0202000C0204000C0206000C0208000C020A000C020C000C020E000C0400000C0402000C0404000C0406000C0
310
408000C040A000C040C000C040E000C0600000C0602000C0604000C0606000C0608000C060A000C060C000C060E000C0800000C0802000C0804000C0806000C0808000C080A000C080C000C080E000C0A00000C0A02000C0A04000C0A06000C0A08000C0A0A000C0A0C000C0A0E000C0C00000C0C02000C0C04000C0C06000
310
C0C08000C0C0A000F0FBFF00A4A0A000808080000000FF0000FF000000FFFF00FF000000FF00FF00FFFF0000FFFFFF0000000000000000000000000000000000000000000000000000000000000000000000000000000000000000000000000000000000000000000000000000000000000000000000000000000000000000
310
00000000000000000000000000000000000000000000000000000000000000000000000000000000000000000000000000000000000000000000000000000000000000000000000000000000000000000000000000000000000000000000000000000000000000000000000000000000000000000000000000000000000000
310
00000000000000000000000000000000000000FB00000000000000000000000000000000000000000000000000000000FB0000FB00000000000000000000000000000000000000000000000000000000FB0000FB00000000000000000000000000000000000000000000000000000000FB0000FBFBFBFBFBFBFBFBFBFBFBFB
310
FBFBFBFBFBFBFBFBFBFBFBFBFBFBFBFBFBFB00000000FB000000000000000000000000000000000000000000000000FB000000000000FB000000000000000000000000000000000000000000000000FB000000000000FB000000000000000000000000000000000000000000000000FB000000000000FBFBFBFBFBFBFBFBFB
310
FBFBFBFBFBFBFBFBFBFBFBFBFBFBFBFBFBFB0000000000FB00000000000000000000000000000000000000000000000000FB0000000000FB00000000000000000000000000000000000000000000000000FB0000000000FB00000000000000000000000000000000000000000000000000FB0000000000FB00000000000000
310
000000000000000000000000000000000000FB0000000000FB000000000000000000000000000000000000000000000000FBFB0000000000FBFB0000000000000000000000000000000000000000000000FB00000000000000FBFB0000000000000000000000000000000000000000FBFB00000000000000000000FBFBFBFB
310
00000000000000000000000000FBFBFB00000000000000000000000000000000FBFBFBFB0000000000FBFBFBFB0000000000000000000000000000000000000000000000FBFBFBFBFB000000000000000000000000000000000000000000000000000000000000000000000000000000000000000000000000000000000000
310
00000000000000000000000000000000000000000000000000000000000000000000000000000000000000000000000000000000000000000000000000000000000000000000000000000000000000000000000000000000000000000000000000000000000000000000000000000000000000000000000000000000000000
310
0000000000000000000000000000000000000000000000000000000000000000000000000000000000000000000000000000000000000000
102
{BLKREFS
331
95C0
331
95C1
102
}
 70
     4
280
     1
281
     0
  0
BLOCK_RECORD
  5
8BA2
330
1
100
AcDbSymbolTableRecord
100
AcDbBlockTableRecord
  2
SW_CENTERMARKSYMBOL_12
340
0
102
{BLKREFS
331
9603
102
}
 70
     0
280
     1
281
     0
  0
BLOCK_RECORD
  5
8BAD
330
1
100
AcDbSymbolTableRecord
100
AcDbBlockTableRecord
  2
SW_CENTERMARKSYMBOL_13
340
0
102
{BLKREFS
331
9604
102
}
 70
     0
280
     1
281
     0
  0
BLOCK_RECORD
  5
8BB8
330
1
100
AcDbSymbolTableRecord
100
AcDbBlockTableRecord
  2
SW_CENTERMARKSYMBOL_14
340
0
102
{BLKREFS
331
9607
102
}
 70
     0
280
     1
281
     0
  0
BLOCK_RECORD
  5
8BC3
330
1
100
AcDbSymbolTableRecord
100
AcDbBlockTableRecord
  2
SW_CENTERMARKSYMBOL_15
340
0
102
{BLKREFS
331
9608
102
}
 70
     0
280
     1
281
     0
  0
BLOCK_RECORD
  5
8BCE
330
1
100
AcDbSymbolTableRecord
100
AcDbBlockTableRecord
  2
SW_CENTERMARKSYMBOL_22
340
0
102
{BLKREFS
331
9616
331
960B
102
}
 70
     0
280
     1
281
     0
  0
BLOCK_RECORD
  5
8BD9
330
1
100
AcDbSymbolTableRecord
100
AcDbBlockTableRecord
  2
SW_CENTERMARKSYMBOL_23
340
0
102
{BLKREFS
331
9617
331
960C
102
}
 70
     0
280
     1
281
     0
  0
BLOCK_RECORD
  5
9681
330
1
100
AcDbSymbolTableRecord
100
AcDbBlockTableRecord
  2
*D20
340
0
 70
     0
280
     1
281
     0
  0
BLOCK_RECORD
  5
968D
330
1
100
AcDbSymbolTableRecord
100
AcDbBlockTableRecord
  2
*D21
340
0
 70
     0
280
     1
281
     0
  0
BLOCK_RECORD
  5
9699
330
1
100
AcDbSymbolTableRecord
100
AcDbBlockTableRecord
  2
*D22
340
0
 70
     0
280
     1
281
     0
  0
BLOCK_RECORD
  5
96A5
330
1
100
AcDbSymbolTableRecord
100
AcDbBlockTableRecord
  2
*D23
340
0
 70
     0
280
     1
281
     0
  0
BLOCK_RECORD
  5
96B1
330
1
100
AcDbSymbolTableRecord
100
AcDbBlockTableRecord
  2
*D24
340
0
 70
     0
280
     1
281
     0
  0
BLOCK_RECORD
  5
96BD
330
1
100
AcDbSymbolTableRecord
100
AcDbBlockTableRecord
  2
*D25
340
0
 70
     0
280
     1
281
     0
  0
BLOCK_RECORD
  5
96C9
330
1
100
AcDbSymbolTableRecord
100
AcDbBlockTableRecord
  2
*D26
340
0
 70
     0
280
     1
281
     0
  0
BLOCK_RECORD
  5
96D5
330
1
100
AcDbSymbolTableRecord
100
AcDbBlockTableRecord
  2
*D27
340
0
 70
     0
280
     1
281
     0
  0
BLOCK_RECORD
  5
96E1
330
1
100
AcDbSymbolTableRecord
100
AcDbBlockTableRecord
  2
*D28
340
0
 70
     0
280
     1
281
     0
  0
BLOCK_RECORD
  5
96EE
330
1
100
AcDbSymbolTableRecord
100
AcDbBlockTableRecord
  2
*D29
340
0
 70
     0
280
     1
281
     0
  0
BLOCK_RECORD
  5
96FB
330
1
100
AcDbSymbolTableRecord
100
AcDbBlockTableRecord
  2
*D30
340
0
 70
     0
280
     1
281
     0
  0
BLOCK_RECORD
  5
9708
330
1
100
AcDbSymbolTableRecord
100
AcDbBlockTableRecord
  2
*D31
340
0
 70
     0
280
     1
281
     0
  0
BLOCK_RECORD
  5
9714
330
1
100
AcDbSymbolTableRecord
100
AcDbBlockTableRecord
  2
*D32
340
0
 70
     0
280
     1
281
     0
  0
BLOCK_RECORD
  5
9720
330
1
100
AcDbSymbolTableRecord
100
AcDbBlockTableRecord
  2
*D33
340
0
 70
     0
280
     1
281
     0
  0
BLOCK_RECORD
  5
973A
330
1
100
AcDbSymbolTableRecord
100
AcDbBlockTableRecord
  2
*D34
340
0
 70
     0
280
     1
281
     0
  0
BLOCK_RECORD
  5
9746
330
1
100
AcDbSymbolTableRecord
100
AcDbBlockTableRecord
  2
*D35
340
0
 70
     0
280
     1
281
     0
  0
BLOCK_RECORD
  5
977F
330
1
100
AcDbSymbolTableRecord
100
AcDbBlockTableRecord
  2
*D36
340
0
 70
     0
280
     1
281
     0
  0
BLOCK_RECORD
  5
978A
330
1
100
AcDbSymbolTableRecord
100
AcDbBlockTableRecord
  2
*D37
340
0
 70
     0
280
     1
281
     0
  0
BLOCK_RECORD
  5
9796
330
1
100
AcDbSymbolTableRecord
100
AcDbBlockTableRecord
  2
*D38
340
0
 70
     0
280
     1
281
     0
  0
BLOCK_RECORD
  5
9835
330
1
100
AcDbSymbolTableRecord
100
AcDbBlockTableRecord
  2
*D39
340
0
 70
     0
280
     1
281
     0
  0
BLOCK_RECORD
  5
9BAC
102
{ACAD_XDICTIONARY
360
9BAE
102
}
330
1
100
AcDbSymbolTableRecord
100
AcDbBlockTableRecord
  2
A$C761E3718
340
0
 70
     4
280
     1
281
     0
  0
BLOCK_RECORD
  5
9BB2
102
{ACAD_XDICTIONARY
360
9BB3
102
}
330
1
100
AcDbSymbolTableRecord
100
AcDbBlockTableRecord
  2
A$C23077EED
340
0
102
{BLKREFS
331
9BE5
331
9BED
331
9BF5
331
9BFD
102
}
 70
     4
280
     1
281
     0
  0
BLOCK_RECORD
  5
9BFE
102
{ACAD_XDICTIONARY
360
9BFF
102
}
330
1
100
AcDbSymbolTableRecord
100
AcDbBlockTableRecord
  2
A$C6D904D4D
340
0
102
{BLKREFS
331
9C4C
102
}
 70
     4
280
     1
281
     0
  0
BLOCK_RECORD
  5
9C4D
102
{ACAD_XDICTIONARY
360
9C64
102
}
330
1
100
AcDbSymbolTableRecord
100
AcDbBlockTableRecord
  2
A$C37787D9A
340
0
102
{BLKREFS
331
9C68
102
}
 70
     4
280
     1
281
     0
  0
BLOCK_RECORD
  5
9F84
330
1
100
AcDbSymbolTableRecord
100
AcDbBlockTableRecord
  2
*D44
340
0
 70
     0
280
     1
281
     0
  0
ENDTAB
  0
ENDSEC
  0
SECTION
  2
BLOCKS
  0
BLOCK
  5
20
330
1F
100
AcDbEntity
  8
0
100
AcDbBlockBegin
  2
*Model_Space
 70
     0
 10
0.0
 20
0.0
 30
0.0
  3
*Model_Space
  1
*Model_Space
  0
ENDBLK
  5
21
330
1F
100
AcDbEntity
  8
0
100
AcDbBlockEnd
  0
BLOCK
  5
1C
330
1B
100
AcDbEntity
 67
     1
  8
0
100
AcDbBlockBegin
  2
*Paper_Space
 70
     0
 10
0.0
 20
0.0
 30
0.0
  3
*Paper_Space
  1
*Paper_Space
  0
ENDBLK
  5
1D
330
1B
100
AcDbEntity
 67
     1
  8
0
100
AcDbBlockEnd
  0
BLOCK
  5
24
330
23
100
AcDbEntity
 67
     1
  8
0
100
AcDbBlockBegin
  2
*Paper_Space0
 70
     0
 10
0.0
 20
0.0
 30
0.0
  3
*Paper_Space0
  1
*Paper_Space0
  0
ENDBLK
  5
25
330
23
100
AcDbEntity
 67
     1
  8
0
100
AcDbBlockEnd
  0
BLOCK
  5
1203
330
1202
100
AcDbEntity
  8
0
100
AcDbBlockBegin
  2
SW_CENTERMARKSYMBOL_24
 70
     0
 10
0.0
 20
0.0
 30
0.0
  3
SW_CENTERMARKSYMBOL_24
  1
SW_CENTERMARKSYMBOL_24
  0
LINE
  5
1205
330
1202
100
AcDbEntity
  8
240
 62
     0
100
AcDbLine
 10
0.0
 20
0.0
 30
0.0
 11
0.0
 21
0.625
 31
0.0
  0
LINE
  5
1206
330
1202
100
AcDbEntity
  8
240
 62
     0
100
AcDbLine
 10
0.0
 20
0.0
 30
0.0
 11
-0.625
 21
0.0
 31
0.0
  0
LINE
  5
1207
330
1202
100
AcDbEntity
  8
240
 62
     0
100
AcDbLine
 10
0.0
 20
0.0
 30
0.0
 11
0.0
 21
-0.625
 31
0.0
  0
LINE
  5
1208
330
1202
100
AcDbEntity
  8
240
 62
     0
100
AcDbLine
 10
0.0
 20
0.0
 30
0.0
 11
0.625
 21
0.0
 31
0.0
  0
LINE
  5
1209
330
1202
100
AcDbEntity
  8
240
 62
     0
100
AcDbLine
 10
0.0
 20
0.625
 30
0.0
 11
0.0
 21
1.25
 31
0.0
  0
LINE
  5
120A
330
1202
100
AcDbEntity
  8
240
 62
     0
100
AcDbLine
 10
-0.625
 20
0.0
 30
0.0
 11
-1.25
 21
0.0
 31
0.0
  0
LINE
  5
120B
330
1202
100
AcDbEntity
  8
240
 62
     0
100
AcDbLine
 10
0.0
 20
-0.625
 30
0.0
 11
0.0
 21
-1.25
 31
0.0
  0
LINE
  5
120C
330
1202
100
AcDbEntity
  8
240
 62
     0
100
AcDbLine
 10
0.625
 20
0.0
 30
0.0
 11
1.25
 21
0.0
 31
0.0
  0
ENDBLK
  5
1204
330
1202
100
AcDbEntity
  8
0
100
AcDbBlockEnd
  0
BLOCK
  5
120F
330
120E
100
AcDbEntity
  8
0
100
AcDbBlockBegin
  2
SW_CENTERMARKSYMBOL_25
 70
     0
 10
0.0
 20
0.0
 30
0.0
  3
SW_CENTERMARKSYMBOL_25
  1
SW_CENTERMARKSYMBOL_25
  0
LINE
  5
1211
330
120E
100
AcDbEntity
  8
240
 62
     0
100
AcDbLine
 10
0.0
 20
0.0
 30
0.0
 11
0.0
 21
0.625
 31
0.0
  0
LINE
  5
1212
330
120E
100
AcDbEntity
  8
240
 62
     0
100
AcDbLine
 10
0.0
 20
0.0
 30
0.0
 11
-0.625
 21
0.0
 31
0.0
  0
LINE
  5
1213
330
120E
100
AcDbEntity
  8
240
 62
     0
100
AcDbLine
 10
0.0
 20
0.0
 30
0.0
 11
0.0
 21
-0.625
 31
0.0
  0
LINE
  5
1214
330
120E
100
AcDbEntity
  8
240
 62
     0
100
AcDbLine
 10
0.0
 20
0.0
 30
0.0
 11
0.625
 21
0.0
 31
0.0
  0
LINE
  5
1215
330
120E
100
AcDbEntity
  8
240
 62
     0
100
AcDbLine
 10
0.0
 20
0.625
 30
0.0
 11
0.0
 21
1.25
 31
0.0
  0
LINE
  5
1216
330
120E
100
AcDbEntity
  8
240
 62
     0
100
AcDbLine
 10
-0.625
 20
0.0
 30
0.0
 11
-1.25
 21
0.0
 31
0.0
  0
LINE
  5
1217
330
120E
100
AcDbEntity
  8
240
 62
     0
100
AcDbLine
 10
0.0
 20
-0.625
 30
0.0
 11
0.0
 21
-1.25
 31
0.0
  0
LINE
  5
1218
330
120E
100
AcDbEntity
  8
240
 62
     0
100
AcDbLine
 10
0.625
 20
0.0
 30
0.0
 11
1.25
 21
0.0
 31
0.0
  0
ENDBLK
  5
1210
330
120E
100
AcDbEntity
  8
0
100
AcDbBlockEnd
  0
BLOCK
  5
121B
330
121A
100
AcDbEntity
  8
0
100
AcDbBlockBegin
  2
SW_CENTERMARKSYMBOL_26
 70
     0
 10
0.0
 20
0.0
 30
0.0
  3
SW_CENTERMARKSYMBOL_26
  1
SW_CENTERMARKSYMBOL_26
  0
LINE
  5
121D
330
121A
100
AcDbEntity
  8
240
 62
     0
100
AcDbLine
 10
0.0
 20
0.0
 30
0.0
 11
0.0
 21
0.625
 31
0.0
  0
LINE
  5
121E
330
121A
100
AcDbEntity
  8
240
 62
     0
100
AcDbLine
 10
0.0
 20
0.0
 30
0.0
 11
-0.625
 21
0.0
 31
0.0
  0
LINE
  5
121F
330
121A
100
AcDbEntity
  8
240
 62
     0
100
AcDbLine
 10
0.0
 20
0.0
 30
0.0
 11
0.0
 21
-0.625
 31
0.0
  0
LINE
  5
1220
330
121A
100
AcDbEntity
  8
240
 62
     0
100
AcDbLine
 10
0.0
 20
0.0
 30
0.0
 11
0.625
 21
0.0
 31
0.0
  0
LINE
  5
1221
330
121A
100
AcDbEntity
  8
240
 62
     0
100
AcDbLine
 10
0.0
 20
0.625
 30
0.0
 11
0.0
 21
1.25
 31
0.0
  0
LINE
  5
1222
330
121A
100
AcDbEntity
  8
240
 62
     0
100
AcDbLine
 10
-0.625
 20
0.0
 30
0.0
 11
-1.25
 21
0.0
 31
0.0
  0
LINE
  5
1223
330
121A
100
AcDbEntity
  8
240
 62
     0
100
AcDbLine
 10
0.0
 20
-0.625
 30
0.0
 11
0.0
 21
-1.25
 31
0.0
  0
LINE
  5
1224
330
121A
100
AcDbEntity
  8
240
 62
     0
100
AcDbLine
 10
0.625
 20
0.0
 30
0.0
 11
1.25
 21
0.0
 31
0.0
  0
ENDBLK
  5
121C
330
121A
100
AcDbEntity
  8
0
100
AcDbBlockEnd
  0
BLOCK
  5
1227
330
1226
100
AcDbEntity
  8
0
100
AcDbBlockBegin
  2
SW_CENTERMARKSYMBOL_27
 70
     0
 10
0.0
 20
0.0
 30
0.0
  3
SW_CENTERMARKSYMBOL_27
  1
SW_CENTERMARKSYMBOL_27
  0
LINE
  5
1229
330
1226
100
AcDbEntity
  8
240
 62
     0
100
AcDbLine
 10
0.0
 20
0.0
 30
0.0
 11
0.0
 21
0.625
 31
0.0
  0
LINE
  5
122A
330
1226
100
AcDbEntity
  8
240
 62
     0
100
AcDbLine
 10
0.0
 20
0.0
 30
0.0
 11
-0.625
 21
0.0
 31
0.0
  0
LINE
  5
122B
330
1226
100
AcDbEntity
  8
240
 62
     0
100
AcDbLine
 10
0.0
 20
0.0
 30
0.0
 11
0.0
 21
-0.625
 31
0.0
  0
LINE
  5
122C
330
1226
100
AcDbEntity
  8
240
 62
     0
100
AcDbLine
 10
0.0
 20
0.0
 30
0.0
 11
0.625
 21
0.0
 31
0.0
  0
LINE
  5
122D
330
1226
100
AcDbEntity
  8
240
 62
     0
100
AcDbLine
 10
0.0
 20
0.625
 30
0.0
 11
0.0
 21
1.25
 31
0.0
  0
LINE
  5
122E
330
1226
100
AcDbEntity
  8
240
 62
     0
100
AcDbLine
 10
-0.625
 20
0.0
 30
0.0
 11
-1.25
 21
0.0
 31
0.0
  0
LINE
  5
122F
330
1226
100
AcDbEntity
  8
240
 62
     0
100
AcDbLine
 10
0.0
 20
-0.625
 30
0.0
 11
0.0
 21
-1.25
 31
0.0
  0
LINE
  5
1230
330
1226
100
AcDbEntity
  8
240
 62
     0
100
AcDbLine
 10
0.625
 20
0.0
 30
0.0
 11
1.25
 21
0.0
 31
0.0
  0
ENDBLK
  5
1228
330
1226
100
AcDbEntity
  8
0
100
AcDbBlockEnd
  0
BLOCK
  5
1E1A
330
1E19
100
AcDbEntity
  8
0
100
AcDbBlockBegin
  2
SW_CENTERMARKSYMBOL_32
 70
     0
 10
0.0
 20
0.0
 30
0.0
  3
SW_CENTERMARKSYMBOL_32
  1
SW_CENTERMARKSYMBOL_32
  0
LINE
  5
1E1C
330
1E19
100
AcDbEntity
  8
240
 62
     0
100
AcDbLine
 10
0.0
 20
0.0
 30
0.0
 11
0.0
 21
0.625
 31
0.0
  0
LINE
  5
1E1D
330
1E19
100
AcDbEntity
  8
240
 62
     0
100
AcDbLine
 10
0.0
 20
0.0
 30
0.0
 11
-0.625
 21
0.0
 31
0.0
  0
LINE
  5
1E1E
330
1E19
100
AcDbEntity
  8
240
 62
     0
100
AcDbLine
 10
0.0
 20
0.0
 30
0.0
 11
0.0
 21
-0.625
 31
0.0
  0
LINE
  5
1E1F
330
1E19
100
AcDbEntity
  8
240
 62
     0
100
AcDbLine
 10
0.0
 20
0.0
 30
0.0
 11
0.625
 21
0.0
 31
0.0
  0
LINE
  5
1E20
330
1E19
100
AcDbEntity
  8
240
 62
     0
100
AcDbLine
 10
0.0
 20
1.25
 30
0.0
 11
0.0
 21
1.6875
 31
0.0
  0
LINE
  5
1E21
330
1E19
100
AcDbEntity
  8
240
 62
     0
100
AcDbLine
 10
-1.25
 20
0.0
 30
0.0
 11
-1.6875
 21
0.0
 31
0.0
  0
LINE
  5
1E22
330
1E19
100
AcDbEntity
  8
240
 62
     0
100
AcDbLine
 10
0.0
 20
-1.25
 30
0.0
 11
0.0
 21
-1.6875
 31
0.0
  0
LINE
  5
1E23
330
1E19
100
AcDbEntity
  8
240
 62
     0
100
AcDbLine
 10
1.25
 20
0.0
 30
0.0
 11
1.6875
 21
0.0
 31
0.0
  0
ENDBLK
  5
1E1B
330
1E19
100
AcDbEntity
  8
0
100
AcDbBlockEnd
  0
BLOCK
  5
1E26
330
1E25
100
AcDbEntity
  8
0
100
AcDbBlockBegin
  2
SW_CENTERMARKSYMBOL_33
 70
     0
 10
0.0
 20
0.0
 30
0.0
  3
SW_CENTERMARKSYMBOL_33
  1
SW_CENTERMARKSYMBOL_33
  0
LINE
  5
1E28
330
1E25
100
AcDbEntity
  8
240
 62
     0
100
AcDbLine
 10
0.0
 20
0.0
 30
0.0
 11
0.0
 21
0.625
 31
0.0
  0
LINE
  5
1E29
330
1E25
100
AcDbEntity
  8
240
 62
     0
100
AcDbLine
 10
0.0
 20
0.0
 30
0.0
 11
-0.625
 21
0.0
 31
0.0
  0
LINE
  5
1E2A
330
1E25
100
AcDbEntity
  8
240
 62
     0
100
AcDbLine
 10
0.0
 20
0.0
 30
0.0
 11
0.0
 21
-0.625
 31
0.0
  0
LINE
  5
1E2B
330
1E25
100
AcDbEntity
  8
240
 62
     0
100
AcDbLine
 10
0.0
 20
0.0
 30
0.0
 11
0.625
 21
0.0
 31
0.0
  0
LINE
  5
1E2C
330
1E25
100
AcDbEntity
  8
240
 62
     0
100
AcDbLine
 10
0.0
 20
1.25
 30
0.0
 11
0.0
 21
1.6875
 31
0.0
  0
LINE
  5
1E2D
330
1E25
100
AcDbEntity
  8
240
 62
     0
100
AcDbLine
 10
-1.25
 20
0.0
 30
0.0
 11
-1.6875
 21
0.0
 31
0.0
  0
LINE
  5
1E2E
330
1E25
100
AcDbEntity
  8
240
 62
     0
100
AcDbLine
 10
0.0
 20
-1.25
 30
0.0
 11
0.0
 21
-1.6875
 31
0.0
  0
LINE
  5
1E2F
330
1E25
100
AcDbEntity
  8
240
 62
     0
100
AcDbLine
 10
1.25
 20
0.0
 30
0.0
 11
1.6875
 21
0.0
 31
0.0
  0
ENDBLK
  5
1E27
330
1E25
100
AcDbEntity
  8
0
100
AcDbBlockEnd
  0
BLOCK
  5
1E32
330
1E31
100
AcDbEntity
  8
0
100
AcDbBlockBegin
  2
SW_CENTERMARKSYMBOL_34
 70
     0
 10
0.0
 20
0.0
 30
0.0
  3
SW_CENTERMARKSYMBOL_34
  1
SW_CENTERMARKSYMBOL_34
  0
LINE
  5
1E34
330
1E31
100
AcDbEntity
  8
240
 62
     0
100
AcDbLine
 10
0.0
 20
0.0
 30
0.0
 11
0.0
 21
0.625
 31
0.0
  0
LINE
  5
1E35
330
1E31
100
AcDbEntity
  8
240
 62
     0
100
AcDbLine
 10
0.0
 20
0.0
 30
0.0
 11
-0.625
 21
0.0
 31
0.0
  0
LINE
  5
1E36
330
1E31
100
AcDbEntity
  8
240
 62
     0
100
AcDbLine
 10
0.0
 20
0.0
 30
0.0
 11
0.0
 21
-0.625
 31
0.0
  0
LINE
  5
1E37
330
1E31
100
AcDbEntity
  8
240
 62
     0
100
AcDbLine
 10
0.0
 20
0.0
 30
0.0
 11
0.625
 21
0.0
 31
0.0
  0
LINE
  5
1E38
330
1E31
100
AcDbEntity
  8
240
 62
     0
100
AcDbLine
 10
0.0
 20
1.25
 30
0.0
 11
0.0
 21
1.6875
 31
0.0
  0
LINE
  5
1E39
330
1E31
100
AcDbEntity
  8
240
 62
     0
100
AcDbLine
 10
-1.25
 20
0.0
 30
0.0
 11
-1.6875
 21
0.0
 31
0.0
  0
LINE
  5
1E3A
330
1E31
100
AcDbEntity
  8
240
 62
     0
100
AcDbLine
 10
0.0
 20
-1.25
 30
0.0
 11
0.0
 21
-1.6875
 31
0.0
  0
LINE
  5
1E3B
330
1E31
100
AcDbEntity
  8
240
 62
     0
100
AcDbLine
 10
1.25
 20
0.0
 30
0.0
 11
1.6875
 21
0.0
 31
0.0
  0
ENDBLK
  5
1E33
330
1E31
100
AcDbEntity
  8
0
100
AcDbBlockEnd
  0
BLOCK
  5
1E3E
330
1E3D
100
AcDbEntity
  8
0
100
AcDbBlockBegin
  2
SW_CENTERMARKSYMBOL_35
 70
     0
 10
0.0
 20
0.0
 30
0.0
  3
SW_CENTERMARKSYMBOL_35
  1
SW_CENTERMARKSYMBOL_35
  0
LINE
  5
1E40
330
1E3D
100
AcDbEntity
  8
240
 62
     0
100
AcDbLine
 10
0.0
 20
0.0
 30
0.0
 11
0.0
 21
0.625
 31
0.0
  0
LINE
  5
1E41
330
1E3D
100
AcDbEntity
  8
240
 62
     0
100
AcDbLine
 10
0.0
 20
0.0
 30
0.0
 11
-0.625
 21
0.0
 31
0.0
  0
LINE
  5
1E42
330
1E3D
100
AcDbEntity
  8
240
 62
     0
100
AcDbLine
 10
0.0
 20
0.0
 30
0.0
 11
0.0
 21
-0.625
 31
0.0
  0
LINE
  5
1E43
330
1E3D
100
AcDbEntity
  8
240
 62
     0
100
AcDbLine
 10
0.0
 20
0.0
 30
0.0
 11
0.625
 21
0.0
 31
0.0
  0
LINE
  5
1E44
330
1E3D
100
AcDbEntity
  8
240
 62
     0
100
AcDbLine
 10
0.0
 20
1.25
 30
0.0
 11
0.0
 21
1.6875
 31
0.0
  0
LINE
  5
1E45
330
1E3D
100
AcDbEntity
  8
240
 62
     0
100
AcDbLine
 10
-1.25
 20
0.0
 30
0.0
 11
-1.6875
 21
0.0
 31
0.0
  0
LINE
  5
1E46
330
1E3D
100
AcDbEntity
  8
240
 62
     0
100
AcDbLine
 10
0.0
 20
-1.25
 30
0.0
 11
0.0
 21
-1.6875
 31
0.0
  0
LINE
  5
1E47
330
1E3D
100
AcDbEntity
  8
240
 62
     0
100
AcDbLine
 10
1.25
 20
0.0
 30
0.0
 11
1.6875
 21
0.0
 31
0.0
  0
ENDBLK
  5
1E3F
330
1E3D
100
AcDbEntity
  8
0
100
AcDbBlockEnd
  0
BLOCK
  5
1E4A
330
1E49
100
AcDbEntity
  8
0
100
AcDbBlockBegin
  2
SW_CENTERMARKSYMBOL_36
 70
     0
 10
0.0
 20
0.0
 30
0.0
  3
SW_CENTERMARKSYMBOL_36
  1
SW_CENTERMARKSYMBOL_36
  0
LINE
  5
1E4C
330
1E49
100
AcDbEntity
  8
240
 62
     0
100
AcDbLine
 10
0.0
 20
0.0
 30
0.0
 11
0.0
 21
0.625
 31
0.0
  0
LINE
  5
1E4D
330
1E49
100
AcDbEntity
  8
240
 62
     0
100
AcDbLine
 10
0.0
 20
0.0
 30
0.0
 11
-0.625
 21
0.0
 31
0.0
  0
LINE
  5
1E4E
330
1E49
100
AcDbEntity
  8
240
 62
     0
100
AcDbLine
 10
0.0
 20
0.0
 30
0.0
 11
0.0
 21
-0.625
 31
0.0
  0
LINE
  5
1E4F
330
1E49
100
AcDbEntity
  8
240
 62
     0
100
AcDbLine
 10
0.0
 20
0.0
 30
0.0
 11
0.625
 21
0.0
 31
0.0
  0
LINE
  5
1E50
330
1E49
100
AcDbEntity
  8
240
 62
     0
100
AcDbLine
 10
0.0
 20
1.25
 30
0.0
 11
0.0
 21
1.6875
 31
0.0
  0
LINE
  5
1E51
330
1E49
100
AcDbEntity
  8
240
 62
     0
100
AcDbLine
 10
-1.25
 20
0.0
 30
0.0
 11
-1.6875
 21
0.0
 31
0.0
  0
LINE
  5
1E52
330
1E49
100
AcDbEntity
  8
240
 62
     0
100
AcDbLine
 10
0.0
 20
-1.25
 30
0.0
 11
0.0
 21
-1.6875
 31
0.0
  0
LINE
  5
1E53
330
1E49
100
AcDbEntity
  8
240
 62
     0
100
AcDbLine
 10
1.25
 20
0.0
 30
0.0
 11
1.6875
 21
0.0
 31
0.0
  0
ENDBLK
  5
1E4B
330
1E49
100
AcDbEntity
  8
0
100
AcDbBlockEnd
  0
BLOCK
  5
1E56
330
1E55
100
AcDbEntity
  8
0
100
AcDbBlockBegin
  2
SW_CENTERMARKSYMBOL_37
 70
     0
 10
0.0
 20
0.0
 30
0.0
  3
SW_CENTERMARKSYMBOL_37
  1
SW_CENTERMARKSYMBOL_37
  0
LINE
  5
1E58
330
1E55
100
AcDbEntity
  8
240
 62
     0
100
AcDbLine
 10
0.0
 20
0.0
 30
0.0
 11
0.0
 21
0.625
 31
0.0
  0
LINE
  5
1E59
330
1E55
100
AcDbEntity
  8
240
 62
     0
100
AcDbLine
 10
0.0
 20
0.0
 30
0.0
 11
-0.625
 21
0.0
 31
0.0
  0
LINE
  5
1E5A
330
1E55
100
AcDbEntity
  8
240
 62
     0
100
AcDbLine
 10
0.0
 20
0.0
 30
0.0
 11
0.0
 21
-0.625
 31
0.0
  0
LINE
  5
1E5B
330
1E55
100
AcDbEntity
  8
240
 62
     0
100
AcDbLine
 10
0.0
 20
0.0
 30
0.0
 11
0.625
 21
0.0
 31
0.0
  0
LINE
  5
1E5C
330
1E55
100
AcDbEntity
  8
240
 62
     0
100
AcDbLine
 10
0.0
 20
1.25
 30
0.0
 11
0.0
 21
1.6875
 31
0.0
  0
LINE
  5
1E5D
330
1E55
100
AcDbEntity
  8
240
 62
     0
100
AcDbLine
 10
-1.25
 20
0.0
 30
0.0
 11
-1.6875
 21
0.0
 31
0.0
  0
LINE
  5
1E5E
330
1E55
100
AcDbEntity
  8
240
 62
     0
100
AcDbLine
 10
0.0
 20
-1.25
 30
0.0
 11
0.0
 21
-1.6875
 31
0.0
  0
LINE
  5
1E5F
330
1E55
100
AcDbEntity
  8
240
 62
     0
100
AcDbLine
 10
1.25
 20
0.0
 30
0.0
 11
1.6875
 21
0.0
 31
0.0
  0
ENDBLK
  5
1E57
330
1E55
100
AcDbEntity
  8
0
100
AcDbBlockEnd
  0
BLOCK
  5
380C
330
380B
100
AcDbEntity
  8
0
100
AcDbBlockBegin
  2
_OPEN
 70
     0
 10
0.0
 20
0.0
 30
0.0
  3
_OPEN
  1

  0
LINE
  5
380D
330
380B
100
AcDbEntity
  8
30
  6
Continuous
 62
     0
100
AcDbLine
 10
-1.0
 20
0.166667
 30
0.0
 11
0.0
 21
0.0
 31
0.0
  0
LINE
  5
380E
330
380B
100
AcDbEntity
  8
30
  6
Continuous
 62
     0
100
AcDbLine
 10
-1.0
 20
-0.166667
 30
0.0
 11
0.0
 21
0.0
 31
0.0
  0
LINE
  5
380F
330
380B
100
AcDbEntity
  8
30
  6
Continuous
 62
     0
100
AcDbLine
 10
0.0
 20
0.0
 30
0.0
 11
-1.0
 21
0.0
 31
0.0
  0
ENDBLK
  5
3810
330
380B
100
AcDbEntity
  8
0
100
AcDbBlockEnd
  0
BLOCK
  5
6319
330
6318
100
AcDbEntity
  8
0
100
AcDbBlockBegin
  2
READTB
 70
     0
 10
0.0
 20
0.0
 30
0.0
  3
READTB
  1

  0
LWPOLYLINE
  5
631B
330
6318
100
AcDbEntity
  8
24
  6
CONTINOUS
100
AcDbPolyline
 90
        4
 70
     0
 43
0.0
 10
11.0
 20
21.19999999999993
 10
11.79999999999973
 20
21.19999999999993
 10
11.79999999999973
 20
27.79999999999996
 10
11.0
 20
27.79999999999996
  0
LINE
  5
631C
330
6318
100
AcDbEntity
  8
10
  6
CONTINOUS
100
AcDbLine
 10
6.5
 20
29.99999999999989
 30
0.0
 11
6.5
 21
31.59999999999991
 31
0.0
  0
LINE
  5
631D
330
6318
100
AcDbEntity
  8
10
  6
CONTINOUS
100
AcDbLine
 10
0.0
 20
31.59999999999991
 30
0.0
 11
17.0
 21
31.59999999999991
 31
0.0
  0
LINE
  5
631E
330
6318
100
AcDbEntity
  8
10
  6
CONTINOUS
100
AcDbLine
 10
17.0
 20
31.59999999999991
 30
0.0
 11
17.0
 21
29.99999999999989
 31
0.0
  0
ARC
  5
631F
330
6318
100
AcDbEntity
  8
24
  6
CONTINOUS
100
AcDbCircle
 10
2.099999999999909
 20
32.09999999999991
 30
0.0
 40
0.5000000000000232
100
AcDbArc
 50
180.0
 51
258.4630409671953
  0
LINE
  5
6320
330
6318
100
AcDbEntity
  8
10
  6
CONTINOUS
100
AcDbLine
 10
6.5
 20
-31.0
 30
0.0
 11
6.5
 21
-32.60000000000002
 31
0.0
  0
LINE
  5
6321
330
6318
100
AcDbEntity
  8
10
  6
CONTINOUS
100
AcDbLine
 10
10.0
 20
-31.0
 30
0.0
 11
10.0
 21
-32.60000000000002
 31
0.0
  0
LINE
  5
6322
330
6318
100
AcDbEntity
  8
10
  6
CONTINOUS
100
AcDbLine
 10
10.0
 20
-32.60000000000002
 30
0.0
 11
0.0
 21
-32.60000000000002
 31
0.0
  0
LINE
  5
6323
330
6318
100
AcDbEntity
  8
10
  6
CONTINOUS
100
AcDbLine
 10
17.0
 20
-31.0
 30
0.0
 11
17.0
 21
-32.60000000000002
 31
0.0
  0
LINE
  5
6324
330
6318
100
AcDbEntity
  8
10
  6
CONTINOUS
100
AcDbLine
 10
17.0
 20
-32.60000000000002
 30
0.0
 11
15.0
 21
-32.60000000000002
 31
0.0
  0
LINE
  5
6325
330
6318
100
AcDbEntity
  8
10
  6
CONTINOUS
100
AcDbLine
 10
15.0
 20
-32.60000000000002
 30
0.0
 11
10.0
 21
-32.60000000000002
 31
0.0
  0
LWPOLYLINE
  5
6326
330
6318
100
AcDbEntity
  8
10
  6
CONTINOUS
100
AcDbPolyline
 90
        3
 70
     0
 43
0.0
 10
10.0
 20
27.99999999999989
 10
10.0
 20
20.0
 10
0.0
 20
20.0
  0
LWPOLYLINE
  5
6327
330
6318
100
AcDbEntity
  8
10
  6
CONTINOUS
100
AcDbPolyline
 90
        4
 70
     0
 43
0.0
 10
8.237926744066726
 20
18.0
 10
13.29999999999972
 20
18.0
 10
13.29999999999972
 20
21.0
 10
10.0
 20
21.0
  0
LINE
  5
6328
330
6318
100
AcDbEntity
  8
10
  6
CONTINOUS
100
AcDbLine
 10
10.0
 20
10.0
 30
0.0
 11
0.0
 21
10.0
 31
0.0
  0
LINE
  5
6329
330
6318
100
AcDbEntity
  8
10
  6
CONTINOUS
100
AcDbLine
 10
10.0
 20
0.0
 30
0.0
 11
0.0
 21
0.0
 31
0.0
  0
LINE
  5
632A
330
6318
100
AcDbEntity
  8
10
  6
CONTINOUS
100
AcDbLine
 10
10.0
 20
-10.0
 30
0.0
 11
0.0
 21
-10.0
 31
0.0
  0
LINE
  5
632B
330
6318
100
AcDbEntity
  8
10
  6
CONTINOUS
100
AcDbLine
 10
10.0
 20
-20.0
 30
0.0
 11
0.0
 21
-20.0
 31
0.0
  0
LINE
  5
632C
330
6318
100
AcDbEntity
  8
10
  6
CONTINOUS
100
AcDbLine
 10
19.09999999999991
 20
28.99999999999989
 30
0.0
 11
19.08749217800005
 21
-30.0
 31
0.0
  0
LINE
  5
632D
330
6318
100
AcDbEntity
  8
24
  6
CONTINOUS
100
AcDbLine
 10
11.79999999999973
 20
24.5
 30
0.0
 11
11.0
 21
24.19230769239994
 31
0.0
  0
LINE
  5
632E
330
6318
100
AcDbEntity
  8
24
  6
CONTINOUS
100
AcDbLine
 10
11.79999999999973
 20
24.99999999999989
 30
0.0
 11
11.0
 21
24.69230769239994
 31
0.0
  0
LWPOLYLINE
  5
632F
330
6318
100
AcDbEntity
  8
10
  6
CONTINOUS
100
AcDbPolyline
 90
        3
 70
     0
 43
0.0
 10
13.5
 20
-30.0
 10
13.5
 20
-29.0
 10
9.960492974930275
 20
-29.0
  0
LINE
  5
6330
330
6318
100
AcDbEntity
  8
10
  6
CONTINOUS
100
AcDbLine
 10
0.0
 20
-31.0
 30
0.0
 11
20.0
 21
-31.0
 31
0.0
  0
LINE
  5
6331
330
6318
100
AcDbEntity
  8
10
  6
CONTINOUS
100
AcDbLine
 10
8.199999999999818
 20
-30.0
 30
0.0
 11
0.0
 21
-30.0
 31
0.0
  0
LINE
  5
6332
330
6318
100
AcDbEntity
  8
10
  6
CONTINOUS
100
AcDbLine
 10
8.199999999999818
 20
-30.0
 30
0.0
 11
8.199999999999818
 21
-29.0
 31
0.0
  0
LINE
  5
6333
330
6318
100
AcDbEntity
  8
10
  6
CONTINOUS
100
AcDbLine
 10
20.0
 20
-30.0
 30
0.0
 11
20.0
 21
-31.0
 31
0.0
  0
LINE
  5
6334
330
6318
100
AcDbEntity
  8
10
  6
CONTINOUS
100
AcDbLine
 10
13.5
 20
-30.0
 30
0.0
 11
20.0
 21
-30.0
 31
0.0
  0
LINE
  5
6335
330
6318
100
AcDbEntity
  8
24
  6
CONTINOUS
100
AcDbLine
 10
11.0
 20
27.99999999999989
 30
0.0
 11
11.0
 21
21.0
 31
0.0
  0
LINE
  5
6336
330
6318
100
AcDbEntity
  8
10
  6
CONTINOUS
100
AcDbLine
 10
10.0
 20
31.59999999999991
 30
0.0
 11
10.0
 21
29.99999999999989
 31
0.0
  0
LINE
  5
6337
330
6318
100
AcDbEntity
  8
10
  6
CONTINOUS
100
AcDbLine
 10
13.29999999999972
 20
30.99999999999989
 30
0.0
 11
10.0
 21
30.99999999999989
 31
0.0
  0
LINE
  5
6338
330
6318
100
AcDbEntity
  8
10
  6
CONTINOUS
100
AcDbLine
 10
13.29999999999972
 20
30.99999999999989
 30
0.0
 11
13.29999999999972
 21
29.99999999999989
 31
0.0
  0
LINE
  5
6339
330
6318
100
AcDbEntity
  8
10
  6
CONTINOUS
100
AcDbLine
 10
13.29999999999972
 20
28.99999999999989
 30
0.0
 11
18.0
 21
28.99999999999989
 31
0.0
  0
LINE
  5
633A
330
6318
100
AcDbEntity
  8
10
  6
CONTINOUS
100
AcDbLine
 10
13.29999999999972
 20
28.99999999999989
 30
0.0
 11
13.29999999999972
 21
27.99999999999989
 31
0.0
  0
LINE
  5
633B
330
6318
100
AcDbEntity
  8
10
  6
CONTINOUS
100
AcDbLine
 10
8.245828149080692
 20
27.99999999999989
 30
0.0
 11
13.29999999999972
 21
27.99999999999989
 31
0.0
  0
LINE
  5
633C
330
6318
100
AcDbEntity
  8
10
  6
CONTINOUS
100
AcDbLine
 10
8.199999999999818
 20
-30.0
 30
0.0
 11
8.245828149080692
 21
27.99999999999989
 31
0.0
  0
LINE
  5
633D
330
6318
100
AcDbEntity
  8
10
  6
CONTINOUS
100
AcDbLine
 10
20.0
 20
29.99999999999989
 30
0.0
 11
20.0
 21
28.99999999999989
 31
0.0
  0
LINE
  5
633E
330
6318
100
AcDbEntity
  8
10
  6
CONTINOUS
100
AcDbLine
 10
20.0
 20
28.99999999999989
 30
0.0
 11
18.0
 21
28.99999999999989
 31
0.0
  0
LWPOLYLINE
  5
633F
330
6318
100
AcDbEntity
  8
24
  6
CONTINOUS
100
AcDbPolyline
 90
       18
 70
     0
 43
0.0
 10
11.79999999999973
 20
27.49999999999989
 10
12.85369821182246
 20
27.40781335190093
 42
-0.3142202440833934
 10
13.81921958789166
 20
26.60086861890551
 42
-0.0056715522299757
 10
13.86488945880001
 20
26.42522510279992
 10
13.8648894587036
 20
26.37203784373256
 42
-0.026670071057275
 10
14.01983488289795
 20
25.53129002979455
 42
-0.0147955144204446
 10
14.04789378308965
 20
25.14458684978507
 42
-0.0301142318753599
 10
14.01983488279984
 20
24.96114673039995
 10
13.86488945880001
 20
24.94940628519998
 10
13.86488945880001
 20
24.05059371519997
 10
14.01983488266342
 20
24.03885326975845
 42
-0.0301142318753597
 10
14.04789378331804
 20
23.85541315057409
 42
-0.0147955144204444
 10
14.01983488276494
 20
23.46870997066259
 42
-0.0266700710572752
 10
13.86488945880001
 20
22.62796215679998
 10
13.86488945858139
 20
22.57477489731588
 42
-0.0056715522299757
 10
13.81921958813518
 20
22.39913138130043
 42
-0.3142202440833934
 10
12.85369821159975
 20
21.59218664839989
 10
11.79999999999973
 20
21.5
  0
LINE
  5
6340
330
6318
100
AcDbEntity
  8
0
  6
SLD-実線
 62
     8
370
     0
100
AcDbLine
 10
2.0
 20
31.59999999999991
 30
0.0
 11
2.0
 21
31.61010205159994
 31
0.0
  0
LINE
  5
6341
330
6318
100
AcDbEntity
  8
0
  6
SLD-実線
 62
     8
370
     0
100
AcDbLine
 10
18.0
 20
19.0
 30
0.0
 11
18.0
 21
20.0
 31
0.0
  0
LINE
  5
6342
330
6318
100
AcDbEntity
  8
0
  6
SLD-実線
 62
     8
370
     0
100
AcDbLine
 10
18.0
 20
28.99999999999989
 30
0.0
 11
18.0
 21
29.99999999999989
 31
0.0
  0
LINE
  5
6343
330
6318
100
AcDbEntity
  8
10
  6
CONTINOUS
100
AcDbLine
 10
0.0
 20
29.99999999999989
 30
0.0
 11
20.0
 21
29.99999999999989
 31
0.0
  0
LWPOLYLINE
  5
6344
330
6318
100
AcDbEntity
  8
24
  6
CONTINOUS
100
AcDbPolyline
 90
        4
 70
     0
 43
0.0
 10
10.99209859498603
 20
11.19999999999993
 10
11.79209859498576
 20
11.19999999999993
 10
11.79209859498576
 20
17.79999999999995
 10
10.99209859498603
 20
17.79999999999995
  0
LWPOLYLINE
  5
6345
330
6318
100
AcDbEntity
  8
10
  6
CONTINOUS
100
AcDbPolyline
 90
        3
 70
     0
 43
0.0
 10
9.992098594986034
 20
17.99999999999988
 10
9.992098594986034
 20
10.0
 10
-0.0079014050139676
 20
10.0
  0
LWPOLYLINE
  5
6346
330
6318
100
AcDbEntity
  8
10
  6
CONTINOUS
100
AcDbPolyline
 90
        4
 70
     0
 43
0.0
 10
8.230025339052758
 20
8.0
 10
13.29209859498576
 20
8.0
 10
13.29209859498576
 20
11.0
 10
9.992098594986034
 20
11.0
  0
LINE
  5
6347
330
6318
100
AcDbEntity
  8
24
  6
CONTINOUS
100
AcDbLine
 10
11.79209859498576
 20
14.5
 30
0.0
 11
10.99209859498603
 21
14.19230769239993
 31
0.0
  0
LINE
  5
6348
330
6318
100
AcDbEntity
  8
24
  6
CONTINOUS
100
AcDbLine
 10
11.79209859498576
 20
14.99999999999988
 30
0.0
 11
10.99209859498603
 21
14.69230769239993
 31
0.0
  0
LINE
  5
6349
330
6318
100
AcDbEntity
  8
24
  6
CONTINOUS
100
AcDbLine
 10
10.99209859498603
 20
17.99999999999988
 30
0.0
 11
10.99209859498603
 21
11.0
 31
0.0
  0
LWPOLYLINE
  5
634A
330
6318
100
AcDbEntity
  8
24
  6
CONTINOUS
100
AcDbPolyline
 90
       18
 70
     0
 43
0.0
 10
11.79209859498576
 20
17.49999999999988
 10
12.84579680680849
 20
17.40781335190092
 42
-0.3142202440833934
 10
13.8113181828777
 20
16.60086861890551
 42
-0.0056715522299757
 10
13.85698805378604
 20
16.42522510279991
 10
13.85698805368963
 20
16.37203784373255
 42
-0.026670071057275
 10
14.01193347788398
 20
15.53129002979455
 42
-0.0147955144204446
 10
14.03999237807568
 20
15.14458684978507
 42
-0.0301142318753599
 10
14.01193347778587
 20
14.96114673039994
 10
13.85698805378604
 20
14.94940628519998
 10
13.85698805378604
 20
14.05059371519996
 10
14.01193347764945
 20
14.03885326975845
 42
-0.0301142318753597
 10
14.03999237830408
 20
13.85541315057409
 42
-0.0147955144204444
 10
14.01193347775097
 20
13.46870997066259
 42
-0.0266700710572752
 10
13.85698805378604
 20
12.62796215679998
 10
13.85698805356742
 20
12.57477489731587
 42
-0.0056715522299757
 10
13.81131818312121
 20
12.39913138130043
 42
-0.3142202440833934
 10
12.84579680658578
 20
11.59218664839989
 10
11.79209859498576
 20
11.5
  0
LWPOLYLINE
  5
634B
330
6318
100
AcDbEntity
  8
24
  6
CONTINOUS
100
AcDbPolyline
 90
        4
 70
     0
 43
0.0
 10
10.98419718997206
 20
1.19999999999993
 10
11.78419718997179
 20
1.19999999999993
 10
11.78419718997179
 20
7.799999999999952
 10
10.98419718997206
 20
7.799999999999952
  0
LWPOLYLINE
  5
634C
330
6318
100
AcDbEntity
  8
10
  6
CONTINOUS
100
AcDbPolyline
 90
        3
 70
     0
 43
0.0
 10
9.984197189972064
 20
7.999999999999886
 10
9.984197189972064
 20
0.0
 10
-0.0158028100279353
 20
0.0
  0
LWPOLYLINE
  5
634D
330
6318
100
AcDbEntity
  8
10
  6
CONTINOUS
100
AcDbPolyline
 90
        4
 70
     0
 43
0.0
 10
8.222123934038791
 20
-2.0
 10
13.28419718997179
 20
-2.0
 10
13.28419718997179
 20
1.0
 10
9.984197189972064
 20
1.0
  0
LINE
  5
634E
330
6318
100
AcDbEntity
  8
24
  6
CONTINOUS
100
AcDbLine
 10
11.78419718997179
 20
4.5
 30
0.0
 11
10.98419718997206
 21
4.192307692399936
 31
0.0
  0
LINE
  5
634F
330
6318
100
AcDbEntity
  8
24
  6
CONTINOUS
100
AcDbLine
 10
11.78419718997179
 20
4.999999999999886
 30
0.0
 11
10.98419718997206
 21
4.692307692399936
 31
0.0
  0
LINE
  5
6350
330
6318
100
AcDbEntity
  8
24
  6
CONTINOUS
100
AcDbLine
 10
10.98419718997206
 20
7.999999999999886
 30
0.0
 11
10.98419718997206
 21
1.0
 31
0.0
  0
LWPOLYLINE
  5
6351
330
6318
100
AcDbEntity
  8
24
  6
CONTINOUS
100
AcDbPolyline
 90
       18
 70
     0
 43
0.0
 10
11.78419718997179
 20
7.499999999999886
 10
12.83789540179453
 20
7.407813351900927
 42
-0.3142202440833934
 10
13.80341677786373
 20
6.600868618905507
 42
-0.0056715522299757
 10
13.84908664877207
 20
6.425225102799912
 10
13.84908664867566
 20
6.372037843732556
 42
-0.026670071057275
 10
14.00403207287002
 20
5.531290029794546
 42
-0.0147955144204446
 10
14.03209097306171
 20
5.144586849785071
 42
-0.0301142318753599
 10
14.0040320727719
 20
4.961146730399946
 10
13.84908664877207
 20
4.949406285199983
 10
13.84908664877207
 20
4.050593715199966
 10
14.00403207263548
 20
4.038853269758448
 42
-0.0301142318753597
 10
14.03209097329011
 20
3.855413150574093
 42
-0.0147955144204444
 10
14.004032072737
 20
3.468709970662586
 42
-0.0266700710572752
 10
13.84908664877207
 20
2.627962156799981
 10
13.84908664855345
 20
2.574774897315875
 42
-0.0056715522299757
 10
13.80341677810725
 20
2.399131381300434
 42
-0.3142202440833934
 10
12.83789540157181
 20
1.592186648399888
 10
11.78419718997179
 20
1.5
  0
LWPOLYLINE
  5
6352
330
6318
100
AcDbEntity
  8
24
  6
CONTINOUS
100
AcDbPolyline
 90
        4
 70
     0
 43
0.0
 10
10.97629578495821
 20
-8.800000000000068
 10
11.77629578495793
 20
-8.800000000000068
 10
11.77629578495793
 20
-2.200000000000045
 10
10.97629578495821
 20
-2.200000000000045
  0
LWPOLYLINE
  5
6353
330
6318
100
AcDbEntity
  8
10
  6
CONTINOUS
100
AcDbPolyline
 90
        3
 70
     0
 43
0.0
 10
9.97629578495821
 20
-2.000000000000111
 10
9.97629578495821
 20
-10.0
 10
-0.0237042150417892
 20
-10.0
  0
LWPOLYLINE
  5
6354
330
6318
100
AcDbEntity
  8
10
  6
CONTINOUS
100
AcDbPolyline
 90
        4
 70
     0
 43
0.0
 10
8.214222529024937
 20
-12.0
 10
13.27629578495794
 20
-12.0
 10
13.27629578495794
 20
-9.0
 10
9.97629578495821
 20
-9.0
  0
LINE
  5
6355
330
6318
100
AcDbEntity
  8
24
  6
CONTINOUS
100
AcDbLine
 10
11.77629578495793
 20
-5.5
 30
0.0
 11
10.97629578495821
 21
-5.807692307600063
 31
0.0
  0
LINE
  5
6356
330
6318
100
AcDbEntity
  8
24
  6
CONTINOUS
100
AcDbLine
 10
11.77629578495793
 20
-5.000000000000113
 30
0.0
 11
10.97629578495821
 21
-5.307692307600063
 31
0.0
  0
LINE
  5
6357
330
6318
100
AcDbEntity
  8
24
  6
CONTINOUS
100
AcDbLine
 10
10.97629578495821
 20
-2.000000000000111
 30
0.0
 11
10.97629578495821
 21
-9.0
 31
0.0
  0
LWPOLYLINE
  5
6358
330
6318
100
AcDbEntity
  8
24
  6
CONTINOUS
100
AcDbPolyline
 90
       18
 70
     0
 43
0.0
 10
11.77629578495793
 20
-2.500000000000113
 10
12.82999399678067
 20
-2.592186648099068
 42
-0.3142202440833934
 10
13.79551537284988
 20
-3.399131381094491
 42
-0.0056715522299757
 10
13.84118524375822
 20
-3.574774897200086
 10
13.84118524366181
 20
-3.627962156267443
 42
-0.026670071057275
 10
13.99613066785616
 20
-4.468709970205452
 42
-0.0147955144204446
 10
14.02418956804786
 20
-4.855413150214928
 42
-0.0301142318753599
 10
13.99613066775805
 20
-5.038853269600051
 10
13.84118524375822
 20
-5.050593714800013
 10
13.84118524375822
 20
-5.949406284800032
 10
13.99613066762163
 20
-5.96114673024155
 42
-0.0301142318753597
 10
14.02418956827625
 20
-6.144586849425905
 42
-0.0147955144204444
 10
13.99613066772315
 20
-6.53129002933741
 42
-0.0266700710572752
 10
13.84118524375822
 20
-7.372037843200017
 10
13.8411852435396
 20
-7.425225102684122
 42
-0.0056715522299757
 10
13.79551537309339
 20
-7.600868618699562
 42
-0.3142202440833934
 10
12.82999399655796
 20
-8.407813351600111
 10
11.77629578495793
 20
-8.5
  0
LWPOLYLINE
  5
6359
330
6318
100
AcDbEntity
  8
24
  6
CONTINOUS
100
AcDbPolyline
 90
        4
 70
     0
 43
0.0
 10
10.96839437994424
 20
-18.80000000000007
 10
11.76839437994397
 20
-18.80000000000007
 10
11.76839437994397
 20
-12.20000000000004
 10
10.96839437994424
 20
-12.20000000000004
  0
LWPOLYLINE
  5
635A
330
6318
100
AcDbEntity
  8
10
  6
CONTINOUS
100
AcDbPolyline
 90
        3
 70
     0
 43
0.0
 10
9.968394379944244
 20
-12.00000000000011
 10
9.968394379944244
 20
-20.0
 10
-0.0316056200557569
 20
-20.0
  0
LWPOLYLINE
  5
635B
330
6318
100
AcDbEntity
  8
10
  6
CONTINOUS
100
AcDbPolyline
 90
        4
 70
     0
 43
0.0
 10
8.206321124010967
 20
-22.0
 10
13.26839437994397
 20
-22.0
 10
13.26839437994397
 20
-19.0
 10
9.968394379944244
 20
-19.0
  0
LINE
  5
635C
330
6318
100
AcDbEntity
  8
24
  6
CONTINOUS
100
AcDbLine
 10
11.76839437994397
 20
-15.5
 30
0.0
 11
10.96839437994424
 21
-15.80769230760006
 31
0.0
  0
LINE
  5
635D
330
6318
100
AcDbEntity
  8
24
  6
CONTINOUS
100
AcDbLine
 10
11.76839437994397
 20
-15.00000000000011
 30
0.0
 11
10.96839437994424
 21
-15.30769230760006
 31
0.0
  0
LINE
  5
635E
330
6318
100
AcDbEntity
  8
24
  6
CONTINOUS
100
AcDbLine
 10
10.96839437994424
 20
-12.00000000000011
 30
0.0
 11
10.96839437994424
 21
-19.0
 31
0.0
  0
LWPOLYLINE
  5
635F
330
6318
100
AcDbEntity
  8
24
  6
CONTINOUS
100
AcDbPolyline
 90
       18
 70
     0
 43
0.0
 10
11.76839437994397
 20
-12.50000000000011
 10
12.8220925917667
 20
-12.59218664809907
 42
-0.3142202440833934
 10
13.78761396783591
 20
-13.39913138109449
 42
-0.0056715522299757
 10
13.83328383874425
 20
-13.57477489720009
 10
13.83328383864784
 20
-13.62796215626744
 42
-0.026670071057275
 10
13.9882292628422
 20
-14.46870997020545
 42
-0.0147955144204446
 10
14.01628816303389
 20
-14.85541315021493
 42
-0.0301142318753599
 10
13.98822926274408
 20
-15.03885326960005
 10
13.83328383874425
 20
-15.05059371480001
 10
13.83328383874425
 20
-15.94940628480003
 10
13.98822926260766
 20
-15.96114673024155
 42
-0.0301142318753597
 10
14.01628816326229
 20
-16.1445868494259
 42
-0.0147955144204444
 10
13.98822926270918
 20
-16.53129002933741
 42
-0.0266700710572752
 10
13.83328383874425
 20
-17.37203784320002
 10
13.83328383852563
 20
-17.42522510268412
 42
-0.0056715522299757
 10
13.78761396807943
 20
-17.60086861869956
 42
-0.3142202440833934
 10
12.82209259154399
 20
-18.40781335160011
 10
11.76839437994397
 20
-18.5
  0
LWPOLYLINE
  5
6360
330
6318
100
AcDbEntity
  8
24
  6
CONTINOUS
100
AcDbPolyline
 90
        4
 70
     0
 43
0.0
 10
10.96049297493027
 20
-28.80000000000007
 10
11.76049297493
 20
-28.80000000000007
 10
11.76049297493
 20
-22.20000000000005
 10
10.96049297493027
 20
-22.20000000000005
  0
LWPOLYLINE
  5
6361
330
6318
100
AcDbEntity
  8
10
  6
CONTINOUS
100
AcDbPolyline
 90
        3
 70
     0
 43
0.0
 10
9.960492974930275
 20
-22.00000000000011
 10
9.960492974930275
 20
-30.0
 10
-0.0395070250697245
 20
-30.0
  0
LINE
  5
6362
330
6318
100
AcDbEntity
  8
24
  6
CONTINOUS
100
AcDbLine
 10
11.76049297493
 20
-25.5
 30
0.0
 11
10.96049297493027
 21
-25.80769230760007
 31
0.0
  0
LINE
  5
6363
330
6318
100
AcDbEntity
  8
24
  6
CONTINOUS
100
AcDbLine
 10
11.76049297493
 20
-25.00000000000011
 30
0.0
 11
10.96049297493027
 21
-25.30769230760006
 31
0.0
  0
LINE
  5
6364
330
6318
100
AcDbEntity
  8
24
  6
CONTINOUS
100
AcDbLine
 10
10.96049297493027
 20
-22.00000000000011
 30
0.0
 11
10.96049297493027
 21
-29.0
 31
0.0
  0
LWPOLYLINE
  5
6365
330
6318
100
AcDbEntity
  8
24
  6
CONTINOUS
100
AcDbPolyline
 90
       18
 70
     0
 43
0.0
 10
11.76049297493
 20
-22.50000000000011
 10
12.81419118675273
 20
-22.59218664809907
 42
-0.3142202440833934
 10
13.77971256282194
 20
-23.39913138109449
 42
-0.0056715522299757
 10
13.82538243373028
 20
-23.57477489720009
 10
13.82538243363387
 20
-23.62796215626744
 42
-0.026670071057275
 10
13.98032785782823
 20
-24.46870997020545
 42
-0.0147955144204446
 10
14.00838675801992
 20
-24.85541315021493
 42
-0.0301142318753599
 10
13.98032785773011
 20
-25.03885326960006
 10
13.82538243373028
 20
-25.05059371480002
 10
13.82538243373028
 20
-25.94940628480003
 10
13.98032785759369
 20
-25.96114673024155
 42
-0.0301142318753597
 10
14.00838675824832
 20
-26.14458684942591
 42
-0.0147955144204444
 10
13.98032785769521
 20
-26.53129002933741
 42
-0.0266700710572752
 10
13.82538243373028
 20
-27.37203784320002
 10
13.82538243351166
 20
-27.42522510268412
 42
-0.0056715522299757
 10
13.77971256306546
 20
-27.60086861869956
 42
-0.3142202440833934
 10
12.81419118653002
 20
-28.40781335160011
 10
11.76049297493
 20
-28.5
  0
ENDBLK
  5
631A
330
6318
100
AcDbEntity
  8
0
100
AcDbBlockEnd
  0
BLOCK
  5
819D
330
819C
100
AcDbEntity
  8
0
100
AcDbBlockBegin
  2
BOLT12
 70
     0
 10
0.0
 20
0.0
 30
0.0
  3
BOLT12
  1

  0
LINE
  5
819F
330
819C
100
AcDbEntity
  8
24
  6
CONTINOUS
100
AcDbLine
 10
4.999998956999998
 20
-0.9999996984000743
 30
0.0
 11
4.999998956999998
 21
0.0
 31
0.0
  0
LINE
  5
81A0
330
819C
100
AcDbEntity
  8
24
  6
CONTINOUS
100
AcDbLine
 10
-5.152004715239286
 20
0.0
 30
0.0
 11
-5.152004715239286
 21
-0.9999996984000743
 31
0.0
  0
LINE
  5
81A1
330
819C
100
AcDbEntity
  8
24
  6
CONTINOUS
100
AcDbLine
 10
4.599999636600159
 20
0.0
 30
0.0
 11
4.599999636599931
 21
1.300000585599946
 31
0.0
  0
LWPOLYLINE
  5
81A2
330
819C
100
AcDbEntity
  8
24
  6
CONTINOUS
100
AcDbPolyline
 90
        4
 70
     0
 43
0.0
 10
-4.749998450199996
 20
2.74347513919997
 10
-4.749998450199996
 20
1.300000585599946
 10
4.749998450200108
 20
1.300000585599946
 10
4.749998450200108
 20
2.74347513919997
  0
LWPOLYLINE
  5
81A3
330
819C
100
AcDbEntity
  8
24
  6
CONTINOUS
100
AcDbPolyline
 90
        5
 70
     0
 43
0.0
 10
4.749999940600105
 20
2.74347468159999
 42
0.2633131761903178
 10
4.119402925675898
 20
3.857880193020036
 42
0.1360605493281584
 10
-0.0000000594000085
 20
5.000000123599988
 42
0.1360605493358075
 10
-4.119403044474893
 20
3.857880192880767
 42
0.263313176190318
 10
-4.750000059400122
 20
2.74347468159999
  0
LINE
  5
81A4
330
819C
100
AcDbEntity
  8
24
  6
CONTINOUS
100
AcDbLine
 10
-4.999998956999998
 20
0.0
 30
0.0
 11
4.999998956999998
 21
0.0
 31
0.0
  0
ELLIPSE
  5
81A5
330
819C
100
AcDbEntity
  8
24
  6
CONTINOUS
100
AcDbEllipse
 10
-0.1520058176392922
 20
1.673331663600035
 30
0.0
 11
0.0
 21
-12.63839612949135
 31
0.0
210
0.0
220
0.0
230
1.0
 40
0.3639702343
 41
4.741932712748464
 42
4.845179527289683
  0
ENDBLK
  5
819E
330
819C
100
AcDbEntity
  8
0
100
AcDbBlockEnd
  0
BLOCK
  5
8BA3
330
8BA2
100
AcDbEntity
  8
0
100
AcDbBlockBegin
  2
SW_CENTERMARKSYMBOL_12
 70
     0
 10
0.0
 20
0.0
 30
0.0
  3
SW_CENTERMARKSYMBOL_12
  1
SW_CENTERMARKSYMBOL_12
  0
LINE
  5
8BA4
330
8BA2
100
AcDbEntity
  8
240
 62
     0
100
AcDbLine
 10
0.0
 20
0.0
 30
0.0
 11
0.0
 21
0.625
 31
0.0
  0
LINE
  5
8BA5
330
8BA2
100
AcDbEntity
  8
240
 62
     0
100
AcDbLine
 10
0.0
 20
0.0
 30
0.0
 11
-0.625
 21
0.0
 31
0.0
  0
LINE
  5
8BA6
330
8BA2
100
AcDbEntity
  8
240
 62
     0
100
AcDbLine
 10
0.0
 20
0.0
 30
0.0
 11
0.0
 21
-0.625
 31
0.0
  0
LINE
  5
8BA7
330
8BA2
100
AcDbEntity
  8
240
 62
     0
100
AcDbLine
 10
0.0
 20
0.0
 30
0.0
 11
0.625
 21
0.0
 31
0.0
  0
LINE
  5
8BA8
330
8BA2
100
AcDbEntity
  8
240
 62
     0
100
AcDbLine
 10
0.0
 20
0.625
 30
0.0
 11
0.0
 21
1.25
 31
0.0
  0
LINE
  5
8BA9
330
8BA2
100
AcDbEntity
  8
240
 62
     0
100
AcDbLine
 10
-0.625
 20
0.0
 30
0.0
 11
-1.25
 21
0.0
 31
0.0
  0
LINE
  5
8BAA
330
8BA2
100
AcDbEntity
  8
240
 62
     0
100
AcDbLine
 10
0.0
 20
-0.625
 30
0.0
 11
0.0
 21
-1.25
 31
0.0
  0
LINE
  5
8BAB
330
8BA2
100
AcDbEntity
  8
240
 62
     0
100
AcDbLine
 10
0.625
 20
0.0
 30
0.0
 11
1.25
 21
0.0
 31
0.0
  0
ENDBLK
  5
8BAC
330
8BA2
100
AcDbEntity
  8
0
100
AcDbBlockEnd
  0
BLOCK
  5
8BAE
330
8BAD
100
AcDbEntity
  8
0
100
AcDbBlockBegin
  2
SW_CENTERMARKSYMBOL_13
 70
     0
 10
0.0
 20
0.0
 30
0.0
  3
SW_CENTERMARKSYMBOL_13
  1
SW_CENTERMARKSYMBOL_13
  0
LINE
  5
8BAF
330
8BAD
100
AcDbEntity
  8
240
 62
     0
100
AcDbLine
 10
0.0
 20
0.0
 30
0.0
 11
0.0
 21
0.625
 31
0.0
  0
LINE
  5
8BB0
330
8BAD
100
AcDbEntity
  8
240
 62
     0
100
AcDbLine
 10
0.0
 20
0.0
 30
0.0
 11
-0.625
 21
0.0
 31
0.0
  0
LINE
  5
8BB1
330
8BAD
100
AcDbEntity
  8
240
 62
     0
100
AcDbLine
 10
0.0
 20
0.0
 30
0.0
 11
0.0
 21
-0.625
 31
0.0
  0
LINE
  5
8BB2
330
8BAD
100
AcDbEntity
  8
240
 62
     0
100
AcDbLine
 10
0.0
 20
0.0
 30
0.0
 11
0.625
 21
0.0
 31
0.0
  0
LINE
  5
8BB3
330
8BAD
100
AcDbEntity
  8
240
 62
     0
100
AcDbLine
 10
0.0
 20
0.625
 30
0.0
 11
0.0
 21
1.25
 31
0.0
  0
LINE
  5
8BB4
330
8BAD
100
AcDbEntity
  8
240
 62
     0
100
AcDbLine
 10
-0.625
 20
0.0
 30
0.0
 11
-1.25
 21
0.0
 31
0.0
  0
LINE
  5
8BB5
330
8BAD
100
AcDbEntity
  8
240
 62
     0
100
AcDbLine
 10
0.0
 20
-0.625
 30
0.0
 11
0.0
 21
-1.25
 31
0.0
  0
LINE
  5
8BB6
330
8BAD
100
AcDbEntity
  8
240
 62
     0
100
AcDbLine
 10
0.625
 20
0.0
 30
0.0
 11
1.25
 21
0.0
 31
0.0
  0
ENDBLK
  5
8BB7
330
8BAD
100
AcDbEntity
  8
0
100
AcDbBlockEnd
  0
BLOCK
  5
8BB9
330
8BB8
100
AcDbEntity
  8
0
100
AcDbBlockBegin
  2
SW_CENTERMARKSYMBOL_14
 70
     0
 10
0.0
 20
0.0
 30
0.0
  3
SW_CENTERMARKSYMBOL_14
  1
SW_CENTERMARKSYMBOL_14
  0
LINE
  5
8BBA
330
8BB8
100
AcDbEntity
  8
240
 62
     0
100
AcDbLine
 10
0.0
 20
0.0
 30
0.0
 11
0.0
 21
0.625
 31
0.0
  0
LINE
  5
8BBB
330
8BB8
100
AcDbEntity
  8
240
 62
     0
100
AcDbLine
 10
0.0
 20
0.0
 30
0.0
 11
-0.625
 21
0.0
 31
0.0
  0
LINE
  5
8BBC
330
8BB8
100
AcDbEntity
  8
240
 62
     0
100
AcDbLine
 10
0.0
 20
0.0
 30
0.0
 11
0.0
 21
-0.625
 31
0.0
  0
LINE
  5
8BBD
330
8BB8
100
AcDbEntity
  8
240
 62
     0
100
AcDbLine
 10
0.0
 20
0.0
 30
0.0
 11
0.625
 21
0.0
 31
0.0
  0
LINE
  5
8BBE
330
8BB8
100
AcDbEntity
  8
240
 62
     0
100
AcDbLine
 10
0.0
 20
0.625
 30
0.0
 11
0.0
 21
1.25
 31
0.0
  0
LINE
  5
8BBF
330
8BB8
100
AcDbEntity
  8
240
 62
     0
100
AcDbLine
 10
-0.625
 20
0.0
 30
0.0
 11
-1.25
 21
0.0
 31
0.0
  0
LINE
  5
8BC0
330
8BB8
100
AcDbEntity
  8
240
 62
     0
100
AcDbLine
 10
0.0
 20
-0.625
 30
0.0
 11
0.0
 21
-1.25
 31
0.0
  0
LINE
  5
8BC1
330
8BB8
100
AcDbEntity
  8
240
 62
     0
100
AcDbLine
 10
0.625
 20
0.0
 30
0.0
 11
1.25
 21
0.0
 31
0.0
  0
ENDBLK
  5
8BC2
330
8BB8
100
AcDbEntity
  8
0
100
AcDbBlockEnd
  0
BLOCK
  5
8BC4
330
8BC3
100
AcDbEntity
  8
0
100
AcDbBlockBegin
  2
SW_CENTERMARKSYMBOL_15
 70
     0
 10
0.0
 20
0.0
 30
0.0
  3
SW_CENTERMARKSYMBOL_15
  1
SW_CENTERMARKSYMBOL_15
  0
LINE
  5
8BC5
330
8BC3
100
AcDbEntity
  8
240
 62
     0
100
AcDbLine
 10
0.0
 20
0.0
 30
0.0
 11
0.0
 21
0.625
 31
0.0
  0
LINE
  5
8BC6
330
8BC3
100
AcDbEntity
  8
240
 62
     0
100
AcDbLine
 10
0.0
 20
0.0
 30
0.0
 11
-0.625
 21
0.0
 31
0.0
  0
LINE
  5
8BC7
330
8BC3
100
AcDbEntity
  8
240
 62
     0
100
AcDbLine
 10
0.0
 20
0.0
 30
0.0
 11
0.0
 21
-0.625
 31
0.0
  0
LINE
  5
8BC8
330
8BC3
100
AcDbEntity
  8
240
 62
     0
100
AcDbLine
 10
0.0
 20
0.0
 30
0.0
 11
0.625
 21
0.0
 31
0.0
  0
LINE
  5
8BC9
330
8BC3
100
AcDbEntity
  8
240
 62
     0
100
AcDbLine
 10
0.0
 20
0.625
 30
0.0
 11
0.0
 21
1.25
 31
0.0
  0
LINE
  5
8BCA
330
8BC3
100
AcDbEntity
  8
240
 62
     0
100
AcDbLine
 10
-0.625
 20
0.0
 30
0.0
 11
-1.25
 21
0.0
 31
0.0
  0
LINE
  5
8BCB
330
8BC3
100
AcDbEntity
  8
240
 62
     0
100
AcDbLine
 10
0.0
 20
-0.625
 30
0.0
 11
0.0
 21
-1.25
 31
0.0
  0
LINE
  5
8BCC
330
8BC3
100
AcDbEntity
  8
240
 62
     0
100
AcDbLine
 10
0.625
 20
0.0
 30
0.0
 11
1.25
 21
0.0
 31
0.0
  0
ENDBLK
  5
8BCD
330
8BC3
100
AcDbEntity
  8
0
100
AcDbBlockEnd
  0
BLOCK
  5
8BCF
330
8BCE
100
AcDbEntity
  8
0
100
AcDbBlockBegin
  2
SW_CENTERMARKSYMBOL_22
 70
     0
 10
0.0
 20
0.0
 30
0.0
  3
SW_CENTERMARKSYMBOL_22
  1
SW_CENTERMARKSYMBOL_22
  0
LINE
  5
8BD0
330
8BCE
100
AcDbEntity
  8
240
 62
     0
100
AcDbLine
 10
0.0
 20
0.0
 30
0.0
 11
0.0
 21
0.625
 31
0.0
  0
LINE
  5
8BD1
330
8BCE
100
AcDbEntity
  8
240
 62
     0
100
AcDbLine
 10
0.0
 20
0.0
 30
0.0
 11
-0.625
 21
0.0
 31
0.0
  0
LINE
  5
8BD2
330
8BCE
100
AcDbEntity
  8
240
 62
     0
100
AcDbLine
 10
0.0
 20
0.0
 30
0.0
 11
0.0
 21
-0.625
 31
0.0
  0
LINE
  5
8BD3
330
8BCE
100
AcDbEntity
  8
240
 62
     0
100
AcDbLine
 10
0.0
 20
0.0
 30
0.0
 11
0.625
 21
0.0
 31
0.0
  0
LINE
  5
8BD4
330
8BCE
100
AcDbEntity
  8
240
 62
     0
100
AcDbLine
 10
0.0
 20
0.625
 30
0.0
 11
0.0
 21
1.25
 31
0.0
  0
LINE
  5
8BD5
330
8BCE
100
AcDbEntity
  8
240
 62
     0
100
AcDbLine
 10
-0.625
 20
0.0
 30
0.0
 11
-1.25
 21
0.0
 31
0.0
  0
LINE
  5
8BD6
330
8BCE
100
AcDbEntity
  8
240
 62
     0
100
AcDbLine
 10
0.0
 20
-0.625
 30
0.0
 11
0.0
 21
-1.25
 31
0.0
  0
LINE
  5
8BD7
330
8BCE
100
AcDbEntity
  8
240
 62
     0
100
AcDbLine
 10
0.625
 20
0.0
 30
0.0
 11
1.25
 21
0.0
 31
0.0
  0
ENDBLK
  5
8BD8
330
8BCE
100
AcDbEntity
  8
0
100
AcDbBlockEnd
  0
BLOCK
  5
8BDA
330
8BD9
100
AcDbEntity
  8
0
100
AcDbBlockBegin
  2
SW_CENTERMARKSYMBOL_23
 70
     0
 10
0.0
 20
0.0
 30
0.0
  3
SW_CENTERMARKSYMBOL_23
  1
SW_CENTERMARKSYMBOL_23
  0
LINE
  5
8BDB
330
8BD9
100
AcDbEntity
  8
240
 62
     0
100
AcDbLine
 10
0.0
 20
0.0
 30
0.0
 11
0.0
 21
0.625
 31
0.0
  0
LINE
  5
8BDC
330
8BD9
100
AcDbEntity
  8
240
 62
     0
100
AcDbLine
 10
0.0
 20
0.0
 30
0.0
 11
-0.625
 21
0.0
 31
0.0
  0
LINE
  5
8BDD
330
8BD9
100
AcDbEntity
  8
240
 62
     0
100
AcDbLine
 10
0.0
 20
0.0
 30
0.0
 11
0.0
 21
-0.625
 31
0.0
  0
LINE
  5
8BDE
330
8BD9
100
AcDbEntity
  8
240
 62
     0
100
AcDbLine
 10
0.0
 20
0.0
 30
0.0
 11
0.625
 21
0.0
 31
0.0
  0
LINE
  5
8BDF
330
8BD9
100
AcDbEntity
  8
240
 62
     0
100
AcDbLine
 10
0.0
 20
0.625
 30
0.0
 11
0.0
 21
1.25
 31
0.0
  0
LINE
  5
8BE0
330
8BD9
100
AcDbEntity
  8
240
 62
     0
100
AcDbLine
 10
-0.625
 20
0.0
 30
0.0
 11
-1.25
 21
0.0
 31
0.0
  0
LINE
  5
8BE1
330
8BD9
100
AcDbEntity
  8
240
 62
     0
100
AcDbLine
 10
0.0
 20
-0.625
 30
0.0
 11
0.0
 21
-1.25
 31
0.0
  0
LINE
  5
8BE2
330
8BD9
100
AcDbEntity
  8
240
 62
     0
100
AcDbLine
 10
0.625
 20
0.0
 30
0.0
 11
1.25
 21
0.0
 31
0.0
  0
ENDBLK
  5
8BE3
330
8BD9
100
AcDbEntity
  8
0
100
AcDbBlockEnd
  0
BLOCK
  5
9682
330
9681
100
AcDbEntity
  8
0
100
AcDbBlockBegin
  2
*D20
 70
     1
 10
0.0
 20
0.0
 30
0.0
  3
*D20
  1

  0
LINE
  5
9D9C
330
9681
100
AcDbEntity
  8
30
  6
Continuous
 62
     0
440
 16777216
370
    -2
100
AcDbLine
 10
274.5859432201669
 20
362.8273603953914
 30
0.0
 11
274.5859432201669
 21
310.4000300039623
 31
0.0
  0
LINE
  5
9D9D
330
9681
100
AcDbEntity
  8
30
  6
Continuous
 62
     0
440
 16777216
370
    -2
100
AcDbLine
 10
82.58594155136689
 20
357.9185438077705
 30
0.0
 11
82.58594155136689
 21
310.4000300039623
 31
0.0
  0
LINE
  5
9D9E
330
9681
100
AcDbEntity
  8
30
  6
Continuous
 62
     0
440
 16777216
370
    -2
100
AcDbLine
 10
272.5859432201669
 20
310.9000300039622
 30
0.0
 11
84.58594155136687
 21
310.9000300039622
 31
0.0
  0
INSERT
  5
9D9F
330
9681
100
AcDbEntity
  8
30
  6
Continuous
 62
     0
440
 16777216
370
    -2
100
AcDbBlockReference
  2
_OPEN
 10
274.5859432201669
 20
310.9000300039622
 30
0.0
 41
2.0
 42
2.0
 43
2.0
  0
INSERT
  5
9DA0
330
9681
100
AcDbEntity
  8
30
  6
Continuous
 62
     0
440
 16777216
370
    -2
100
AcDbBlockReference
  2
_OPEN
 10
82.58594155136689
 20
310.9000300039622
 30
0.0
 41
2.0
 42
2.0
 43
2.0
 50
180.0
  0
MTEXT
  5
9DA1
330
9681
100
AcDbEntity
  8
30
  6
Continuous
 62
     0
440
 16777216
100
AcDbMText
 10
163.5859417897668
 20
319.9000300039622
 30
0.0
 40
7.0
 41
0.0
 46
0.0
 71
     2
 72
     1
  1
\A1;192
 73
     1
 44
1.0
  0
POINT
  5
9DA2
330
9681
100
AcDbEntity
  8
Defpoints
  6
Continuous
 62
     0
440
 16777216
100
AcDbPoint
 10
274.5859432201669
 20
363.8273603953915
 30
0.0
  0
POINT
  5
9DA3
330
9681
100
AcDbEntity
  8
Defpoints
  6
Continuous
 62
     0
440
 16777216
100
AcDbPoint
 10
82.58594155136689
 20
358.9185438077704
 30
0.0
  0
POINT
  5
9DA4
330
9681
100
AcDbEntity
  8
Defpoints
  6
Continuous
 62
     0
440
 16777216
100
AcDbPoint
 10
82.58594155136689
 20
310.9000300039622
 30
0.0
  0
ENDBLK
  5
9683
330
9681
100
AcDbEntity
  8
0
100
AcDbBlockEnd
  0
BLOCK
  5
968E
330
968D
100
AcDbEntity
  8
0
100
AcDbBlockBegin
  2
*D21
 70
     1
 10
0.0
 20
0.0
 30
0.0
  3
*D21
  1

  0
LINE
  5
9E1E
330
968D
100
AcDbEntity
  8
30
  6
Continuous
 62
     0
440
 16777216
370
    -2
100
AcDbLine
 10
269.5859417897668
 20
343.7296855068892
 30
0.0
 11
303.0859417897669
 21
343.7296855068892
 31
0.0
  0
LINE
  5
9E1F
330
968D
100
AcDbEntity
  8
30
  6
Continuous
 62
     0
440
 16777216
370
    -2
100
AcDbLine
 10
269.5859417897668
 20
535.729685506889
 30
0.0
 11
303.0859417897669
 21
535.729685506889
 31
0.0
  0
LINE
  5
9E20
330
968D
100
AcDbEntity
  8
30
  6
Continuous
 62
     0
440
 16777216
370
    -2
100
AcDbLine
 10
302.5859417897669
 20
345.7296855068892
 30
0.0
 11
302.5859417897669
 21
533.729685506889
 31
0.0
  0
INSERT
  5
9E21
330
968D
100
AcDbEntity
  8
30
  6
Continuous
 62
     0
440
 16777216
370
    -2
100
AcDbBlockReference
  2
_OPEN
 10
302.5859417897669
 20
343.7296855068892
 30
0.0
 41
2.0
 42
2.0
 43
2.0
 50
270.0
  0
INSERT
  5
9E22
330
968D
100
AcDbEntity
  8
30
  6
Continuous
 62
     0
440
 16777216
370
    -2
100
AcDbBlockReference
  2
_OPEN
 10
302.5859417897669
 20
535.729685506889
 30
0.0
 41
2.0
 42
2.0
 43
2.0
 50
90.0
  0
MTEXT
  5
9E23
330
968D
100
AcDbEntity
  8
30
  6
Continuous
 62
     0
440
 16777216
100
AcDbMText
 10
293.5859417897668
 20
439.7296855068892
 30
0.0
 40
7.0
 41
0.0
 46
0.0
 71
     2
 72
     1
  1
\A1;192
 11
0.0000000000000001
 21
1.0
 31
0.0
 73
     1
 44
1.0
  0
POINT
  5
9E24
330
968D
100
AcDbEntity
  8
Defpoints
  6
Continuous
 62
     0
440
 16777216
100
AcDbPoint
 10
268.5859417897668
 20
343.7296855068892
 30
0.0
  0
POINT
  5
9E25
330
968D
100
AcDbEntity
  8
Defpoints
  6
Continuous
 62
     0
440
 16777216
100
AcDbPoint
 10
268.5859417897668
 20
535.729685506889
 30
0.0
  0
POINT
  5
9E26
330
968D
100
AcDbEntity
  8
Defpoints
  6
Continuous
 62
     0
440
 16777216
100
AcDbPoint
 10
302.5859417897669
 20
535.729685506889
 30
0.0
  0
ENDBLK
  5
968F
330
968D
100
AcDbEntity
  8
0
100
AcDbBlockEnd
  0
BLOCK
  5
969A
330
9699
100
AcDbEntity
  8
0
100
AcDbBlockBegin
  2
*D22
 70
     1
 10
0.0
 20
0.0
 30
0.0
  3
*D22
  1

  0
LINE
  5
9ED7
330
9699
100
AcDbEntity
  8
30
  6
Continuous
 62
     0
440
 16777216
370
    -2
100
AcDbLine
 10
223.5859417895668
 20
800.4955611661006
 30
0.0
 11
223.5859417895668
 21
849.845581781701
 31
0.0
  0
LINE
  5
9ED8
330
9699
100
AcDbEntity
  8
30
  6
Continuous
 62
     0
440
 16777216
370
    -2
100
AcDbLine
 10
193.5859417895668
 20
812.0955611661008
 30
0.0
 11
193.5859417895668
 21
849.845581781701
 31
0.0
  0
LINE
  5
9ED9
330
9699
100
AcDbEntity
  8
30
  6
Continuous
 62
     0
440
 16777216
370
    -2
100
AcDbLine
 10
221.5859417895668
 20
849.3455817817007
 30
0.0
 11
195.5859417895668
 21
849.3455817817007
 31
0.0
  0
INSERT
  5
9EDA
330
9699
100
AcDbEntity
  8
30
  6
Continuous
 62
     0
440
 16777216
370
    -2
100
AcDbBlockReference
  2
_OPEN
 10
223.5859417895668
 20
849.3455817817007
 30
0.0
 41
2.0
 42
2.0
 43
2.0
  0
INSERT
  5
9EDB
330
9699
100
AcDbEntity
  8
30
  6
Continuous
 62
     0
440
 16777216
370
    -2
100
AcDbBlockReference
  2
_OPEN
 10
193.5859417895668
 20
849.3455817817007
 30
0.0
 41
2.0
 42
2.0
 43
2.0
 50
180.0
  0
MTEXT
  5
9EDC
330
9699
100
AcDbEntity
  8
30
  6
Continuous
 62
     0
440
 16777216
100
AcDbMText
 10
208.5859417895668
 20
858.3455817817009
 30
0.0
 40
7.0
 41
0.0
 46
0.0
 71
     2
 72
     1
  1
\A1;30
 73
     1
 44
1.0
  0
POINT
  5
9EDD
330
9699
100
AcDbEntity
  8
Defpoints
  6
Continuous
 62
     0
440
 16777216
100
AcDbPoint
 10
223.5859417895668
 20
799.4955611661007
 30
0.0
  0
POINT
  5
9EDE
330
9699
100
AcDbEntity
  8
Defpoints
  6
Continuous
 62
     0
440
 16777216
100
AcDbPoint
 10
193.5859417895668
 20
811.0955611661008
 30
0.0
  0
POINT
  5
9EDF
330
9699
100
AcDbEntity
  8
Defpoints
  6
Continuous
 62
     0
440
 16777216
100
AcDbPoint
 10
193.5859417895668
 20
849.3455817817007
 30
0.0
  0
ENDBLK
  5
969B
330
9699
100
AcDbEntity
  8
0
100
AcDbBlockEnd
  0
BLOCK
  5
96A6
330
96A5
100
AcDbEntity
  8
0
100
AcDbBlockBegin
  2
*D23
 70
     1
 10
0.0
 20
0.0
 30
0.0
  3
*D23
  1

  0
LINE
  5
9E40
330
96A5
100
AcDbEntity
  8
30
  6
Continuous
 62
     0
440
 16777216
370
    -2
100
AcDbLine
 10
83.08594178976681
 20
69.66721685380014
 30
0.0
 11
83.08594178976681
 21
32.49951917260023
 31
0.0
  0
LINE
  5
9E41
330
96A5
100
AcDbEntity
  8
30
  6
Continuous
 62
     0
440
 16777216
370
    -2
100
AcDbLine
 10
244.0859417897668
 20
69.66721685380014
 30
0.0
 11
244.0859417897668
 21
32.49951917260023
 31
0.0
  0
LINE
  5
9E42
330
96A5
100
AcDbEntity
  8
30
  6
Continuous
 62
     0
440
 16777216
370
    -2
100
AcDbLine
 10
85.08594178976682
 20
32.99951917260023
 30
0.0
 11
242.0859417897668
 21
32.99951917260023
 31
0.0
  0
INSERT
  5
9E43
330
96A5
100
AcDbEntity
  8
30
  6
Continuous
 62
     0
440
 16777216
370
    -2
100
AcDbBlockReference
  2
_OPEN
 10
83.08594178976681
 20
32.99951917260023
 30
0.0
 41
2.0
 42
2.0
 43
2.0
 50
180.0
  0
INSERT
  5
9E44
330
96A5
100
AcDbEntity
  8
30
  6
Continuous
 62
     0
440
 16777216
370
    -2
100
AcDbBlockReference
  2
_OPEN
 10
244.0859417897668
 20
32.99951917260023
 30
0.0
 41
2.0
 42
2.0
 43
2.0
  0
MTEXT
  5
9E45
330
96A5
100
AcDbEntity
  8
30
  6
Continuous
 62
     0
440
 16777216
100
AcDbMText
 10
163.5859417897668
 20
41.99951917260022
 30
0.0
 40
7.0
 41
0.0
 46
0.0
 71
     2
 72
     1
  1
\A1;161
 73
     1
 44
1.0
  0
POINT
  5
9E46
330
96A5
100
AcDbEntity
  8
Defpoints
  6
Continuous
 62
     0
440
 16777216
100
AcDbPoint
 10
83.08594178976681
 20
70.66721685380014
 30
0.0
  0
POINT
  5
9E47
330
96A5
100
AcDbEntity
  8
Defpoints
  6
Continuous
 62
     0
440
 16777216
100
AcDbPoint
 10
244.0859417897668
 20
70.66721685380014
 30
0.0
  0
POINT
  5
9E48
330
96A5
100
AcDbEntity
  8
Defpoints
  6
Continuous
 62
     0
440
 16777216
100
AcDbPoint
 10
244.0859417897668
 20
32.99951917260023
 30
0.0
  0
ENDBLK
  5
96A7
330
96A5
100
AcDbEntity
  8
0
100
AcDbBlockEnd
  0
BLOCK
  5
96B2
330
96B1
100
AcDbEntity
  8
0
100
AcDbBlockBegin
  2
*D24
 70
     1
 10
0.0
 20
0.0
 30
0.0
  3
*D24
  1

  0
LINE
  5
9FEC
330
96B1
100
AcDbEntity
  8
30
  6
Continuous
 62
     0
440
 16777216
370
    -2
100
AcDbLine
 10
245.0859417897668
 20
249.8514871304801
 30
0.0
 11
301.7554298344156
 21
249.8514871304801
 31
0.0
  0
LINE
  5
9FED
330
96B1
100
AcDbEntity
  8
30
  6
Continuous
 62
     0
440
 16777216
370
    -2
100
AcDbLine
 10
245.0859417897668
 20
68.85148713048001
 30
0.0
 11
301.7554298344155
 21
68.85148713048001
 31
0.0
  0
LINE
  5
9FEE
330
96B1
100
AcDbEntity
  8
30
  6
Continuous
 62
     0
440
 16777216
370
    -2
100
AcDbLine
 10
301.2554298344156
 20
247.8514871304801
 30
0.0
 11
301.2554298344155
 21
70.85148713047998
 31
0.0
  0
INSERT
  5
9FEF
330
96B1
100
AcDbEntity
  8
30
  6
Continuous
 62
     0
440
 16777216
370
    -2
100
AcDbBlockReference
  2
_OPEN
 10
301.2554298344156
 20
249.8514871304801
 30
0.0
 41
2.0
 42
2.0
 43
2.0
 50
90.0
  0
INSERT
  5
9FF0
330
96B1
100
AcDbEntity
  8
30
  6
Continuous
 62
     0
440
 16777216
370
    -2
100
AcDbBlockReference
  2
_OPEN
 10
301.2554298344155
 20
68.85148713048001
 30
0.0
 41
2.0
 42
2.0
 43
2.0
 50
270.0
  0
MTEXT
  5
9FF1
330
96B1
100
AcDbEntity
  8
30
  6
Continuous
 62
     0
440
 16777216
100
AcDbMText
 10
295.7554298344155
 20
159.3514871304801
 30
0.0
 40
7.0
 41
0.0
 46
0.0
 71
     5
 72
     1
  1
\A1;181
 11
0.0000000000000001
 21
1.0
 31
0.0
 73
     1
 44
1.0
  0
POINT
  5
9FF2
330
96B1
100
AcDbEntity
  8
Defpoints
  6
Continuous
 62
     0
440
 16777216
100
AcDbPoint
 10
244.0859417897668
 20
249.8514871304801
 30
0.0
  0
POINT
  5
9FF3
330
96B1
100
AcDbEntity
  8
Defpoints
  6
Continuous
 62
     0
440
 16777216
100
AcDbPoint
 10
244.0859417897668
 20
68.85148713048001
 30
0.0
  0
POINT
  5
9FF4
330
96B1
100
AcDbEntity
  8
Defpoints
  6
Continuous
 62
     0
440
 16777216
100
AcDbPoint
 10
301.2554298344155
 20
68.85148713048001
 30
0.0
  0
ENDBLK
  5
96B3
330
96B1
100
AcDbEntity
  8
0
100
AcDbBlockEnd
  0
BLOCK
  5
96BE
330
96BD
100
AcDbEntity
  8
0
100
AcDbBlockBegin
  2
*D25
 70
     1
 10
0.0
 20
0.0
 30
0.0
  3
*D25
  1

  0
LINE
  5
9E02
330
96BD
100
AcDbEntity
  8
30
  6
Continuous
 62
     0
440
 16777216
370
    -2
100
AcDbLine
 10
355.1080025837192
 20
447.7084903331273
 30
0.0
 11
355.1080025837192
 21
294.3296865202892
 31
0.0
  0
LINE
  5
9E03
330
96BD
100
AcDbEntity
  8
30
  6
Continuous
 62
     0
440
 16777216
370
    -2
100
AcDbLine
 10
395.6080032989189
 20
343.9343240464893
 30
0.0
 11
395.6080032989189
 21
294.3296865202892
 31
0.0
  0
LINE
  5
9E04
330
96BD
100
AcDbEntity
  8
30
  6
Continuous
 62
     0
440
 16777216
370
    -2
100
AcDbLine
 10
357.1080025837192
 20
294.8296865202892
 30
0.0
 11
393.6080032989189
 21
294.8296865202892
 31
0.0
  0
INSERT
  5
9E05
330
96BD
100
AcDbEntity
  8
30
  6
Continuous
 62
     0
440
 16777216
370
    -2
100
AcDbBlockReference
  2
_OPEN
 10
355.1080025837192
 20
294.8296865202892
 30
0.0
 41
2.0
 42
2.0
 43
2.0
 50
180.0
  0
INSERT
  5
9E06
330
96BD
100
AcDbEntity
  8
30
  6
Continuous
 62
     0
440
 16777216
370
    -2
100
AcDbBlockReference
  2
_OPEN
 10
395.6080032989189
 20
294.8296865202892
 30
0.0
 41
2.0
 42
2.0
 43
2.0
  0
MTEXT
  5
9E07
330
96BD
100
AcDbEntity
  8
30
  6
Continuous
 62
     0
440
 16777216
100
AcDbMText
 10
375.3580025837191
 20
303.8296865202892
 30
0.0
 40
7.0
 41
0.0
 46
0.0
 71
     2
 72
     1
  1
\A1;40.5
 73
     1
 44
1.0
  0
POINT
  5
9E08
330
96BD
100
AcDbEntity
  8
Defpoints
  6
Continuous
 62
     0
440
 16777216
100
AcDbPoint
 10
355.1080025837192
 20
448.7084903331274
 30
0.0
  0
POINT
  5
9E09
330
96BD
100
AcDbEntity
  8
Defpoints
  6
Continuous
 62
     0
440
 16777216
100
AcDbPoint
 10
395.6080032989189
 20
344.9343240464894
 30
0.0
  0
POINT
  5
9E0A
330
96BD
100
AcDbEntity
  8
Defpoints
  6
Continuous
 62
     0
440
 16777216
100
AcDbPoint
 10
395.6080032989189
 20
294.8296865202892
 30
0.0
  0
ENDBLK
  5
96BF
330
96BD
100
AcDbEntity
  8
0
100
AcDbBlockEnd
  0
BLOCK
  5
96CA
330
96C9
100
AcDbEntity
  8
0
100
AcDbBlockBegin
  2
*D26
 70
     1
 10
0.0
 20
0.0
 30
0.0
  3
*D26
  1

  0
LINE
  5
9DF9
330
96C9
100
AcDbEntity
  8
30
  6
Continuous
 62
     0
440
 16777216
370
    -2
100
AcDbLine
 10
380.6080025837191
 20
344.7296865202893
 30
0.0
 11
380.6080025837191
 21
314.3296865202892
 31
0.0
  0
LINE
  5
9DFA
330
96C9
100
AcDbEntity
  8
30
  6
Continuous
 62
     0
440
 16777216
370
    -2
100
AcDbLine
 10
395.6080025837188
 20
331.2655057486893
 30
0.0
 11
395.6080025837188
 21
314.3296865202892
 31
0.0
  0
LINE
  5
9DFB
330
96C9
100
AcDbEntity
  8
30
  6
Continuous
 62
     0
440
 16777216
370
    -2
100
AcDbLine
 10
382.6080025837192
 20
314.8296865202892
 30
0.0
 11
393.6080025837187
 21
314.8296865202892
 31
0.0
  0
INSERT
  5
9DFC
330
96C9
100
AcDbEntity
  8
30
  6
Continuous
 62
     0
440
 16777216
370
    -2
100
AcDbBlockReference
  2
_OPEN
 10
380.6080025837191
 20
314.8296865202892
 30
0.0
 41
2.0
 42
2.0
 43
2.0
 50
180.0
  0
INSERT
  5
9DFD
330
96C9
100
AcDbEntity
  8
30
  6
Continuous
 62
     0
440
 16777216
370
    -2
100
AcDbBlockReference
  2
_OPEN
 10
395.6080025837188
 20
314.8296865202892
 30
0.0
 41
2.0
 42
2.0
 43
2.0
  0
MTEXT
  5
9DFE
330
96C9
100
AcDbEntity
  8
30
  6
Continuous
 62
     0
440
 16777216
100
AcDbMText
 10
388.1080025837192
 20
323.8296865202892
 30
0.0
 40
7.0
 41
0.0
 46
0.0
 71
     2
 72
     1
  1
\A1;15
 73
     1
 44
1.0
  0
POINT
  5
9DFF
330
96C9
100
AcDbEntity
  8
Defpoints
  6
Continuous
 62
     0
440
 16777216
100
AcDbPoint
 10
380.6080025837191
 20
345.7296865202893
 30
0.0
  0
POINT
  5
9E00
330
96C9
100
AcDbEntity
  8
Defpoints
  6
Continuous
 62
     0
440
 16777216
100
AcDbPoint
 10
395.6080025837188
 20
332.2655057486893
 30
0.0
  0
POINT
  5
9E01
330
96C9
100
AcDbEntity
  8
Defpoints
  6
Continuous
 62
     0
440
 16777216
100
AcDbPoint
 10
395.6080025837188
 20
314.8296865202892
 30
0.0
  0
ENDBLK
  5
96CB
330
96C9
100
AcDbEntity
  8
0
100
AcDbBlockEnd
  0
BLOCK
  5
96D6
330
96D5
100
AcDbEntity
  8
0
100
AcDbBlockBegin
  2
*D27
 70
     1
 10
0.0
 20
0.0
 30
0.0
  3
*D27
  1

  0
LINE
  5
9E15
330
96D5
100
AcDbEntity
  8
30
  6
Continuous
 62
     0
440
 16777216
370
    -2
100
AcDbLine
 10
556.9523136685188
 20
497.2296865202891
 30
0.0
 11
582.8319281788918
 21
497.2296865202891
 31
0.0
  0
LINE
  5
9E16
330
96D5
100
AcDbEntity
  8
30
  6
Continuous
 62
     0
440
 16777216
370
    -2
100
AcDbLine
 10
557.2319433949193
 20
383.2296865202891
 30
0.0
 11
582.8319281788918
 21
383.2296865202891
 31
0.0
  0
LINE
  5
9E17
330
96D5
100
AcDbEntity
  8
30
  6
Continuous
 62
     0
440
 16777216
370
    -2
100
AcDbLine
 10
582.3319281788918
 20
495.2296865202891
 30
0.0
 11
582.3319281788918
 21
385.2296865202891
 31
0.0
  0
INSERT
  5
9E18
330
96D5
100
AcDbEntity
  8
30
  6
Continuous
 62
     0
440
 16777216
370
    -2
100
AcDbBlockReference
  2
_OPEN
 10
582.3319281788918
 20
497.2296865202891
 30
0.0
 41
2.0
 42
2.0
 43
2.0
 50
90.0
  0
INSERT
  5
9E19
330
96D5
100
AcDbEntity
  8
30
  6
Continuous
 62
     0
440
 16777216
370
    -2
100
AcDbBlockReference
  2
_OPEN
 10
582.3319281788918
 20
383.2296865202891
 30
0.0
 41
2.0
 42
2.0
 43
2.0
 50
270.0
  0
MTEXT
  5
9E1A
330
96D5
100
AcDbEntity
  8
30
  6
Continuous
 62
     0
440
 16777216
100
AcDbMText
 10
573.3319281788919
 20
440.964842933559
 30
0.0
 40
7.0
 41
0.0
 46
0.0
 71
     2
 72
     1
  1
\A1;114
 11
0.0000000000000001
 21
1.0
 31
0.0
 73
     1
 44
1.0
  0
POINT
  5
9E1B
330
96D5
100
AcDbEntity
  8
Defpoints
  6
Continuous
 62
     0
440
 16777216
100
AcDbPoint
 10
555.9523136685188
 20
497.2296865202891
 30
0.0
  0
POINT
  5
9E1C
330
96D5
100
AcDbEntity
  8
Defpoints
  6
Continuous
 62
     0
440
 16777216
100
AcDbPoint
 10
556.2319433949193
 20
383.2296865202891
 30
0.0
  0
POINT
  5
9E1D
330
96D5
100
AcDbEntity
  8
Defpoints
  6
Continuous
 62
     0
440
 16777216
100
AcDbPoint
 10
582.3319281788918
 20
383.2296865202891
 30
0.0
  0
ENDBLK
  5
96D7
330
96D5
100
AcDbEntity
  8
0
100
AcDbBlockEnd
  0
BLOCK
  5
96E2
330
96E1
100
AcDbEntity
  8
0
100
AcDbBlockBegin
  2
*D28
 70
     1
 10
0.0
 20
0.0
 30
0.0
  3
*D28
  1

  0
LINE
  5
9E7E
330
96E1
100
AcDbEntity
  8
30
  6
Continuous
 62
     0
440
 16777216
370
    -2
100
AcDbLine
 10
133.7414962278045
 20
749.6464528644528
 30
0.0
 11
106.2694425733473
 21
749.6464528644528
 31
0.0
  0
LINE
  5
9E7F
330
96E1
100
AcDbEntity
  8
30
  6
Continuous
 62
     0
440
 16777216
370
    -2
100
AcDbLine
 10
133.7414962278045
 20
762.1464528644528
 30
0.0
 11
106.2694425733473
 21
762.1464528644528
 31
0.0
  0
LINE
  5
9E80
330
96E1
100
AcDbEntity
  8
30
  6
Continuous
 62
     0
440
 16777216
370
    -2
100
AcDbLine
 10
106.7694425733473
 20
751.6464528644528
 30
0.0
 11
106.7694425733473
 21
760.1464528644528
 31
0.0
  0
INSERT
  5
9E81
330
96E1
100
AcDbEntity
  8
30
  6
Continuous
 62
     0
440
 16777216
370
    -2
100
AcDbBlockReference
  2
_OPEN
 10
106.7694425733473
 20
749.6464528644528
 30
0.0
 41
2.0
 42
2.0
 43
2.0
 50
270.0
  0
INSERT
  5
9E82
330
96E1
100
AcDbEntity
  8
30
  6
Continuous
 62
     0
440
 16777216
370
    -2
100
AcDbBlockReference
  2
_OPEN
 10
106.7694425733473
 20
762.1464528644528
 30
0.0
 41
2.0
 42
2.0
 43
2.0
 50
90.0
  0
MTEXT
  5
9E83
330
96E1
100
AcDbEntity
  8
30
  6
Continuous
 62
     0
440
 16777216
100
AcDbMText
 10
97.7694425733472
 20
755.8964528644528
 30
0.0
 40
7.0
 41
0.0
 46
0.0
 71
     2
 72
     1
  1
\A1;12.5
 11
0.0000000000000001
 21
1.0
 31
0.0
 73
     1
 44
1.0
  0
POINT
  5
9E84
330
96E1
100
AcDbEntity
  8
Defpoints
  6
Continuous
 62
     0
440
 16777216
100
AcDbPoint
 10
134.7414962278045
 20
749.6464528644528
 30
0.0
  0
POINT
  5
9E85
330
96E1
100
AcDbEntity
  8
Defpoints
  6
Continuous
 62
     0
440
 16777216
100
AcDbPoint
 10
134.7414962278045
 20
762.1464528644528
 30
0.0
  0
POINT
  5
9E86
330
96E1
100
AcDbEntity
  8
Defpoints
  6
Continuous
 62
     0
440
 16777216
100
AcDbPoint
 10
106.7694425733473
 20
762.1464528644528
 30
0.0
  0
ENDBLK
  5
96E3
330
96E1
100
AcDbEntity
  8
0
100
AcDbBlockEnd
  0
BLOCK
  5
96EF
330
96EE
100
AcDbEntity
  8
0
100
AcDbBlockBegin
  2
*D29
 70
     1
 10
0.0
 20
0.0
 30
0.0
  3
*D29
  1

  0
LINE
  5
9DC9
330
96EE
100
AcDbEntity
  8
30
  6
Continuous
 62
     0
440
 16777216
370
    -2
100
AcDbLine
 10
141.7768139355739
 20
770.5346720935324
 30
0.0
 11
141.7768139355739
 21
800.2277185770196
 31
0.0
  0
LINE
  5
9DCA
330
96EE
100
AcDbEntity
  8
30
  6
Continuous
 62
     0
440
 16777216
370
    -2
100
AcDbLine
 10
125.7768145287738
 20
770.6677559000093
 30
0.0
 11
125.7768145287738
 21
800.2277185770196
 31
0.0
  0
LINE
  5
9DCB
330
96EE
100
AcDbEntity
  8
30
  6
Continuous
 62
     0
440
 16777216
370
    -2
100
AcDbLine
 10
139.776813935574
 20
799.7277185770196
 30
0.0
 11
127.7768145287738
 21
799.7277185770196
 31
0.0
  0
LINE
  5
9DCC
330
96EE
100
AcDbEntity
  8
30
  6
Continuous
 62
     0
440
 16777216
370
    -2
100
AcDbLine
 10
125.7768145287738
 20
799.7277185770196
 30
0.0
 11
102.9322641884977
 21
799.7277185770196
 31
0.0
  0
INSERT
  5
9DCD
330
96EE
100
AcDbEntity
  8
30
  6
Continuous
 62
     0
440
 16777216
370
    -2
100
AcDbBlockReference
  2
_OPEN
 10
141.7768139355739
 20
799.7277185770196
 30
0.0
 41
2.0
 42
2.0
 43
2.0
  0
INSERT
  5
9DCE
330
96EE
100
AcDbEntity
  8
30
  6
Continuous
 62
     0
440
 16777216
370
    -2
100
AcDbBlockReference
  2
_OPEN
 10
125.7768145287738
 20
799.7277185770196
 30
0.0
 41
2.0
 42
2.0
 43
2.0
 50
180.0
  0
MTEXT
  5
9DCF
330
96EE
100
AcDbEntity
  8
30
  6
Continuous
 62
     0
440
 16777216
100
AcDbMText
 10
109.2078323703159
 20
808.7277185770197
 30
0.0
 40
7.0
 41
0.0
 46
0.0
 71
     2
 72
     1
  1
\A1;16
 73
     1
 44
1.0
  0
POINT
  5
9DD0
330
96EE
100
AcDbEntity
  8
Defpoints
  6
Continuous
 62
     0
440
 16777216
100
AcDbPoint
 10
141.7768139355739
 20
769.5346720935324
 30
0.0
  0
POINT
  5
9DD1
330
96EE
100
AcDbEntity
  8
Defpoints
  6
Continuous
 62
     0
440
 16777216
100
AcDbPoint
 10
125.7768145287738
 20
769.6677559000093
 30
0.0
  0
POINT
  5
9DD2
330
96EE
100
AcDbEntity
  8
Defpoints
  6
Continuous
 62
     0
440
 16777216
100
AcDbPoint
 10
125.7768145287738
 20
799.7277185770196
 30
0.0
  0
ENDBLK
  5
96F0
330
96EE
100
AcDbEntity
  8
0
100
AcDbBlockEnd
  0
BLOCK
  5
96FC
330
96FB
100
AcDbEntity
  8
0
100
AcDbBlockBegin
  2
*D30
 70
     1
 10
0.0
 20
0.0
 30
0.0
  3
*D30
  1

  0
LINE
  5
9DD3
330
96FB
100
AcDbEntity
  8
30
  6
Continuous
 62
     0
440
 16777216
370
    -2
100
AcDbLine
 10
137.9725230135187
 20
759.3455611661011
 30
0.0
 11
137.9725230135187
 21
785.0132868366138
 31
0.0
  0
LINE
  5
9DD4
330
96FB
100
AcDbEntity
  8
30
  6
Continuous
 62
     0
440
 16777216
370
    -2
100
AcDbLine
 10
129.4725230135187
 20
759.3455611661011
 30
0.0
 11
129.4725230135187
 21
785.0132868366138
 31
0.0
  0
LINE
  5
9DD5
330
96FB
100
AcDbEntity
  8
30
  6
Continuous
 62
     0
440
 16777216
370
    -2
100
AcDbLine
 10
135.9725230135187
 20
784.5132868366138
 30
0.0
 11
131.4725230135187
 21
784.5132868366138
 31
0.0
  0
LINE
  5
9DD6
330
96FB
100
AcDbEntity
  8
30
  6
Continuous
 62
     0
440
 16777216
370
    -2
100
AcDbLine
 10
129.4725230135187
 20
784.5132868366138
 30
0.0
 11
109.1147680643919
 21
784.5132868366138
 31
0.0
  0
INSERT
  5
9DD7
330
96FB
100
AcDbEntity
  8
30
  6
Continuous
 62
     0
440
 16777216
370
    -2
100
AcDbBlockReference
  2
_OPEN
 10
137.9725230135187
 20
784.5132868366138
 30
0.0
 41
2.0
 42
2.0
 43
2.0
  0
INSERT
  5
9DD8
330
96FB
100
AcDbEntity
  8
30
  6
Continuous
 62
     0
440
 16777216
370
    -2
100
AcDbBlockReference
  2
_OPEN
 10
129.4725230135187
 20
784.5132868366138
 30
0.0
 41
2.0
 42
2.0
 43
2.0
 50
180.0
  0
MTEXT
  5
9DD9
330
96FB
100
AcDbEntity
  8
30
  6
Continuous
 62
     0
440
 16777216
100
AcDbMText
 10
116.7426089734828
 20
793.5132868366138
 30
0.0
 40
7.0
 41
0.0
 46
0.0
 71
     2
 72
     1
  1
\A1;8.5
 73
     1
 44
1.0
  0
POINT
  5
9DDA
330
96FB
100
AcDbEntity
  8
Defpoints
  6
Continuous
 62
     0
440
 16777216
100
AcDbPoint
 10
137.9725230135187
 20
758.3455611661007
 30
0.0
  0
POINT
  5
9DDB
330
96FB
100
AcDbEntity
  8
Defpoints
  6
Continuous
 62
     0
440
 16777216
100
AcDbPoint
 10
129.4725230135187
 20
758.3455611661007
 30
0.0
  0
POINT
  5
9DDC
330
96FB
100
AcDbEntity
  8
Defpoints
  6
Continuous
 62
     0
440
 16777216
100
AcDbPoint
 10
129.4725230135187
 20
784.5132868366138
 30
0.0
  0
ENDBLK
  5
96FD
330
96FB
100
AcDbEntity
  8
0
100
AcDbBlockEnd
  0
BLOCK
  5
9709
330
9708
100
AcDbEntity
  8
0
100
AcDbBlockBegin
  2
*D31
 70
     1
 10
0.0
 20
0.0
 30
0.0
  3
*D31
  1

  0
LINE
  5
9DE7
330
9708
100
AcDbEntity
  8
30
  6
Continuous
 62
     0
440
 16777216
370
    -2
100
AcDbLine
 10
132.6645622628285
 20
755.6155611661007
 30
0.0
 11
117.2877302567225
 21
755.6155611661007
 31
0.0
  0
LINE
  5
9DE8
330
9708
100
AcDbEntity
  8
30
  6
Continuous
 62
     0
440
 16777216
370
    -2
100
AcDbLine
 10
132.7768139712349
 20
770.6155611661012
 30
0.0
 11
117.2877302567225
 21
770.6155611661012
 31
0.0
  0
LINE
  5
9DE9
330
9708
100
AcDbEntity
  8
30
  6
Continuous
 62
     0
440
 16777216
370
    -2
100
AcDbLine
 10
117.7877302567225
 20
757.6155611661008
 30
0.0
 11
117.7877302567225
 21
768.6155611661011
 31
0.0
  0
INSERT
  5
9DEA
330
9708
100
AcDbEntity
  8
30
  6
Continuous
 62
     0
440
 16777216
370
    -2
100
AcDbBlockReference
  2
_OPEN
 10
117.7877302567225
 20
755.6155611661007
 30
0.0
 41
2.0
 42
2.0
 43
2.0
 50
270.0
  0
INSERT
  5
9DEB
330
9708
100
AcDbEntity
  8
30
  6
Continuous
 62
     0
440
 16777216
370
    -2
100
AcDbBlockReference
  2
_OPEN
 10
117.7877302567225
 20
770.6155611661012
 30
0.0
 41
2.0
 42
2.0
 43
2.0
 50
90.0
  0
MTEXT
  5
9DEC
330
9708
100
AcDbEntity
  8
30
  6
Continuous
 62
     0
440
 16777216
100
AcDbMText
 10
112.2877302567224
 20
766.5256769629015
 30
0.0
 40
7.0
 41
0.0
 46
0.0
 71
     5
 72
     1
  1
\A1;15
 11
0.0000000000000001
 21
1.0
 31
0.0
 73
     1
 44
1.0
  0
POINT
  5
9DED
330
9708
100
AcDbEntity
  8
Defpoints
  6
Continuous
 62
     0
440
 16777216
100
AcDbPoint
 10
133.6645622628285
 20
755.6155611661007
 30
0.0
  0
POINT
  5
9DEE
330
9708
100
AcDbEntity
  8
Defpoints
  6
Continuous
 62
     0
440
 16777216
100
AcDbPoint
 10
133.7768139712349
 20
770.6155611661012
 30
0.0
  0
POINT
  5
9DEF
330
9708
100
AcDbEntity
  8
Defpoints
  6
Continuous
 62
     0
440
 16777216
100
AcDbPoint
 10
117.7877302567225
 20
770.6155611661012
 30
0.0
  0
ENDBLK
  5
970A
330
9708
100
AcDbEntity
  8
0
100
AcDbBlockEnd
  0
BLOCK
  5
9715
330
9714
100
AcDbEntity
  8
0
100
AcDbBlockBegin
  2
*D32
 70
     1
 10
0.0
 20
0.0
 30
0.0
  3
*D32
  1

  0
LINE
  5
9FDA
330
9714
100
AcDbEntity
  8
30
  6
Continuous
 62
     0
440
 16777216
370
    -2
100
AcDbLine
 10
87.54085859323696
 20
663.6455604509009
 30
0.0
 11
47.93721864901995
 21
663.6455604509009
 31
0.0
  0
LINE
  5
9FDB
330
9714
100
AcDbEntity
  8
30
  6
Continuous
 62
     0
440
 16777216
370
    -2
100
AcDbLine
 10
130.9340559609587
 20
770.6155611661012
 30
0.0
 11
47.93721864901995
 21
770.6155611661012
 31
0.0
  0
LINE
  5
9FDC
330
9714
100
AcDbEntity
  8
30
  6
Continuous
 62
     0
440
 16777216
370
    -2
100
AcDbLine
 10
48.43721864901995
 20
665.6455604509009
 30
0.0
 11
48.43721864901997
 21
768.6155611661011
 31
0.0
  0
INSERT
  5
9FDD
330
9714
100
AcDbEntity
  8
30
  6
Continuous
 62
     0
440
 16777216
370
    -2
100
AcDbBlockReference
  2
_OPEN
 10
48.43721864901995
 20
663.6455604509009
 30
0.0
 41
2.0
 42
2.0
 43
2.0
 50
270.0
  0
INSERT
  5
9FDE
330
9714
100
AcDbEntity
  8
30
  6
Continuous
 62
     0
440
 16777216
370
    -2
100
AcDbBlockReference
  2
_OPEN
 10
48.43721864901997
 20
770.6155611661012
 30
0.0
 41
2.0
 42
2.0
 43
2.0
 50
90.0
  0
MTEXT
  5
9FDF
330
9714
100
AcDbEntity
  8
30
  6
Continuous
 62
     0
440
 16777216
100
AcDbMText
 10
42.93721864901985
 20
717.1305608085011
 30
0.0
 40
7.0
 41
0.0
 46
0.0
 71
     5
 72
     1
  1
\A1;107
 11
0.0000000000000001
 21
1.0
 31
0.0
 73
     1
 44
1.0
  0
POINT
  5
9FE0
330
9714
100
AcDbEntity
  8
Defpoints
  6
Continuous
 62
     0
440
 16777216
100
AcDbPoint
 10
88.54085859323696
 20
663.6455604509009
 30
0.0
  0
POINT
  5
9FE1
330
9714
100
AcDbEntity
  8
Defpoints
  6
Continuous
 62
     0
440
 16777216
100
AcDbPoint
 10
131.9340559609587
 20
770.6155611661012
 30
0.0
  0
POINT
  5
9FE2
330
9714
100
AcDbEntity
  8
Defpoints
  6
Continuous
 62
     0
440
 16777216
100
AcDbPoint
 10
48.43721864901997
 20
770.6155611661012
 30
0.0
  0
ENDBLK
  5
9716
330
9714
100
AcDbEntity
  8
0
100
AcDbBlockEnd
  0
BLOCK
  5
9721
330
9720
100
AcDbEntity
  8
0
100
AcDbBlockBegin
  2
*D33
 70
     1
 10
0.0
 20
0.0
 30
0.0
  3
*D33
  1

  0
LINE
  5
9FD1
330
9720
100
AcDbEntity
  8
30
  6
Continuous
 62
     0
440
 16777216
370
    -2
100
AcDbLine
 10
261.5954250570341
 20
663.6455564277007
 30
0.0
 11
329.0844068236246
 21
663.6455564277007
 31
0.0
  0
LINE
  5
9FD2
330
9720
100
AcDbEntity
  8
30
  6
Continuous
 62
     0
440
 16777216
370
    -2
100
AcDbLine
 10
224.5859417896691
 20
820.6400850826659
 30
0.0
 11
329.0844068236246
 21
820.6400850826657
 31
0.0
  0
LINE
  5
9FD3
330
9720
100
AcDbEntity
  8
30
  6
Continuous
 62
     0
440
 16777216
370
    -2
100
AcDbLine
 10
328.5844068236246
 20
665.6455564277007
 30
0.0
 11
328.5844068236246
 21
818.6400850826656
 31
0.0
  0
INSERT
  5
9FD4
330
9720
100
AcDbEntity
  8
30
  6
Continuous
 62
     0
440
 16777216
370
    -2
100
AcDbBlockReference
  2
_OPEN
 10
328.5844068236246
 20
663.6455564277007
 30
0.0
 41
2.0
 42
2.0
 43
2.0
 50
270.0
  0
INSERT
  5
9FD5
330
9720
100
AcDbEntity
  8
30
  6
Continuous
 62
     0
440
 16777216
370
    -2
100
AcDbBlockReference
  2
_OPEN
 10
328.5844068236246
 20
820.6400850826657
 30
0.0
 41
2.0
 42
2.0
 43
2.0
 50
90.0
  0
MTEXT
  5
9FD6
330
9720
100
AcDbEntity
  8
30
  6
Continuous
 62
     0
440
 16777216
100
AcDbMText
 10
323.0844068236245
 20
742.1428211127832
 30
0.0
 40
7.0
 41
0.0
 46
0.0
 71
     5
 72
     1
  1
\A1;157
 11
0.0000000000000001
 21
1.0
 31
0.0
 73
     1
 44
1.0
  0
POINT
  5
9FD7
330
9720
100
AcDbEntity
  8
Defpoints
  6
Continuous
 62
     0
440
 16777216
100
AcDbPoint
 10
260.5954250570341
 20
663.6455564277007
 30
0.0
  0
POINT
  5
9FD8
330
9720
100
AcDbEntity
  8
Defpoints
  6
Continuous
 62
     0
440
 16777216
100
AcDbPoint
 10
223.5859417896691
 20
820.6400850826659
 30
0.0
  0
POINT
  5
9FD9
330
9720
100
AcDbEntity
  8
Defpoints
  6
Continuous
 62
     0
440
 16777216
100
AcDbPoint
 10
328.5844068236246
 20
820.6400850826657
 30
0.0
  0
ENDBLK
  5
9722
330
9720
100
AcDbEntity
  8
0
100
AcDbBlockEnd
  0
BLOCK
  5
973B
330
973A
100
AcDbEntity
  8
0
100
AcDbBlockBegin
  2
*D34
 70
     1
 10
0.0
 20
0.0
 30
0.0
  3
*D34
  1

  0
LINE
  5
9DC0
330
973A
100
AcDbEntity
  8
30
  6
Continuous
 62
     0
440
 16777216
370
    -2
100
AcDbLine
 10
133.5859417895668
 20
762.0955611661009
 30
0.0
 11
133.5859417895668
 21
849.845581781701
 31
0.0
  0
LINE
  5
9DC1
330
973A
100
AcDbEntity
  8
30
  6
Continuous
 62
     0
440
 16777216
370
    -2
100
AcDbLine
 10
163.5859417895668
 20
812.0955611661008
 30
0.0
 11
163.5859417895668
 21
849.845581781701
 31
0.0
  0
LINE
  5
9DC2
330
973A
100
AcDbEntity
  8
30
  6
Continuous
 62
     0
440
 16777216
370
    -2
100
AcDbLine
 10
135.5859417895668
 20
849.3455817817007
 30
0.0
 11
161.5859417895668
 21
849.3455817817007
 31
0.0
  0
INSERT
  5
9DC3
330
973A
100
AcDbEntity
  8
30
  6
Continuous
 62
     0
440
 16777216
370
    -2
100
AcDbBlockReference
  2
_OPEN
 10
133.5859417895668
 20
849.3455817817007
 30
0.0
 41
2.0
 42
2.0
 43
2.0
 50
180.0
  0
INSERT
  5
9DC4
330
973A
100
AcDbEntity
  8
30
  6
Continuous
 62
     0
440
 16777216
370
    -2
100
AcDbBlockReference
  2
_OPEN
 10
163.5859417895668
 20
849.3455817817007
 30
0.0
 41
2.0
 42
2.0
 43
2.0
  0
MTEXT
  5
9DC5
330
973A
100
AcDbEntity
  8
30
  6
Continuous
 62
     0
440
 16777216
100
AcDbMText
 10
148.5859417895668
 20
858.3455817817009
 30
0.0
 40
7.0
 41
0.0
 46
0.0
 71
     2
 72
     1
  1
\A1;30
 73
     1
 44
1.0
  0
POINT
  5
9DC6
330
973A
100
AcDbEntity
  8
Defpoints
  6
Continuous
 62
     0
440
 16777216
100
AcDbPoint
 10
133.5859417895668
 20
761.0955611661007
 30
0.0
  0
POINT
  5
9DC7
330
973A
100
AcDbEntity
  8
Defpoints
  6
Continuous
 62
     0
440
 16777216
100
AcDbPoint
 10
163.5859417895668
 20
811.0955611661008
 30
0.0
  0
POINT
  5
9DC8
330
973A
100
AcDbEntity
  8
Defpoints
  6
Continuous
 62
     0
440
 16777216
100
AcDbPoint
 10
163.5859417895668
 20
849.3455817817007
 30
0.0
  0
ENDBLK
  5
973C
330
973A
100
AcDbEntity
  8
0
100
AcDbBlockEnd
  0
BLOCK
  5
9747
330
9746
100
AcDbEntity
  8
0
100
AcDbBlockBegin
  2
*D35
 70
     1
 10
0.0
 20
0.0
 30
0.0
  3
*D35
  1

  0
LINE
  5
9DB7
330
9746
100
AcDbEntity
  8
30
  6
Continuous
 62
     0
440
 16777216
370
    -2
100
AcDbLine
 10
193.5859417895668
 20
762.0955611661009
 30
0.0
 11
193.5859417895668
 21
849.845581781701
 31
0.0
  0
LINE
  5
9DB8
330
9746
100
AcDbEntity
  8
30
  6
Continuous
 62
     0
440
 16777216
370
    -2
100
AcDbLine
 10
163.5859417895668
 20
812.0955611661008
 30
0.0
 11
163.5859417895668
 21
849.845581781701
 31
0.0
  0
LINE
  5
9DB9
330
9746
100
AcDbEntity
  8
30
  6
Continuous
 62
     0
440
 16777216
370
    -2
100
AcDbLine
 10
191.5859417895666
 20
849.3455817817007
 30
0.0
 11
165.5859417895666
 21
849.3455817817007
 31
0.0
  0
INSERT
  5
9DBA
330
9746
100
AcDbEntity
  8
30
  6
Continuous
 62
     0
440
 16777216
370
    -2
100
AcDbBlockReference
  2
_OPEN
 10
193.5859417895668
 20
849.3455817817007
 30
0.0
 41
2.0
 42
2.0
 43
2.0
  0
INSERT
  5
9DBB
330
9746
100
AcDbEntity
  8
30
  6
Continuous
 62
     0
440
 16777216
370
    -2
100
AcDbBlockReference
  2
_OPEN
 10
163.5859417895668
 20
849.3455817817007
 30
0.0
 41
2.0
 42
2.0
 43
2.0
 50
180.0
  0
MTEXT
  5
9DBC
330
9746
100
AcDbEntity
  8
30
  6
Continuous
 62
     0
440
 16777216
100
AcDbMText
 10
178.5859417895668
 20
858.3455817817009
 30
0.0
 40
7.0
 41
0.0
 46
0.0
 71
     2
 72
     1
  1
\A1;30
 73
     1
 44
1.0
  0
POINT
  5
9DBD
330
9746
100
AcDbEntity
  8
Defpoints
  6
Continuous
 62
     0
440
 16777216
100
AcDbPoint
 10
193.5859417895668
 20
761.0955611661007
 30
0.0
  0
POINT
  5
9DBE
330
9746
100
AcDbEntity
  8
Defpoints
  6
Continuous
 62
     0
440
 16777216
100
AcDbPoint
 10
163.5859417895668
 20
811.0955611661008
 30
0.0
  0
POINT
  5
9DBF
330
9746
100
AcDbEntity
  8
Defpoints
  6
Continuous
 62
     0
440
 16777216
100
AcDbPoint
 10
163.5859417895668
 20
849.3455817817007
 30
0.0
  0
ENDBLK
  5
9748
330
9746
100
AcDbEntity
  8
0
100
AcDbBlockEnd
  0
BLOCK
  5
9780
330
977F
100
AcDbEntity
  8
0
100
AcDbBlockBegin
  2
*D36
 70
     1
 10
0.0
 20
0.0
 30
0.0
  3
*D36
  1

  0
LINE
  5
9E75
330
977F
100
AcDbEntity
  8
30
  6
Continuous
 62
     0
440
 16777216
370
    -2
100
AcDbLine
 10
291.7581484164886
 20
214.8654485351984
 30
0.0
 11
280.3320120528523
 21
214.8654485351984
 31
0.0
  0
LINE
  5
9E76
330
977F
100
AcDbEntity
  8
30
  6
Continuous
 62
     0
440
 16777216
370
    -2
100
AcDbLine
 10
280.3320120528523
 20
214.8654485351984
 30
0.0
 11
253.6114034298103
 21
196.4095495012829
 31
0.0
  0
LINE
  5
9E77
330
977F
100
AcDbEntity
  8
30
  6
Continuous
 62
     0
440
 16777216
370
    -2
100
AcDbLine
 10
244.5604807457228
 20
190.1580857873448
 30
0.0
 11
242.5034528629758
 21
188.7372985796316
 31
0.0
  0
MTEXT
  5
9E78
330
977F
100
AcDbEntity
  8
30
  6
Continuous
 62
     0
440
 16777216
100
AcDbMText
 10
287.0450802346703
 20
220.3654485351983
 30
0.0
 40
7.0
 41
0.0
 46
0.0
 71
     5
 72
     1
  1
∅6
 73
     1
 44
1.0
  0
LINE
  5
9E79
330
977F
100
AcDbEntity
  8
30
  6
Continuous
 62
     0
440
 16777216
370
    -2
100
AcDbLine
 10
246.6175086284698
 20
191.5788729950579
 30
0.0
 11
251.5543755470632
 21
194.9887622935698
 31
0.0
  0
SOLID
  5
9E7A
330
977F
100
AcDbEntity
  8
30
  6
Continuous
 62
     0
440
 16777216
100
AcDbTrace
 10
244.3236828777706
 20
190.5009237678026
 30
0.0
 11
244.797278613675
 21
189.8152478068869
 31
0.0
 12
246.6175086284698
 22
191.5788729950579
 32
0.0
 13
246.6175086284698
 23
191.5788729950579
 33
0.0
  0
SOLID
  5
9E7B
330
977F
100
AcDbEntity
  8
30
  6
Continuous
 62
     0
440
 16777216
100
AcDbTrace
 10
253.3746055618581
 20
196.7523874817408
 30
0.0
 11
253.8482012977624
 21
196.0667115208251
 31
0.0
 12
251.5543755470632
 22
194.9887622935698
 32
0.0
 13
251.5543755470632
 23
194.9887622935698
 33
0.0
  0
POINT
  5
9E7C
330
977F
100
AcDbEntity
  8
Defpoints
  6
Continuous
 62
     0
440
 16777216
100
AcDbPoint
 10
251.5543755470632
 20
194.9887622935698
 30
0.0
  0
POINT
  5
9E7D
330
977F
100
AcDbEntity
  8
Defpoints
  6
Continuous
 62
     0
440
 16777216
100
AcDbPoint
 10
246.6175086284698
 20
191.5788729950579
 30
0.0
  0
ENDBLK
  5
9781
330
977F
100
AcDbEntity
  8
0
100
AcDbBlockEnd
  0
BLOCK
  5
978B
330
978A
100
AcDbEntity
  8
0
100
AcDbBlockBegin
  2
*D37
 70
     1
 10
0.0
 20
0.0
 30
0.0
  3
*D37
  1

  0
LINE
  5
9E30
330
978A
100
AcDbEntity
  8
30
  6
Continuous
 62
     0
440
 16777216
370
    -2
100
AcDbLine
 10
255.0859420877666
 20
193.2838176443139
 30
0.0
 11
279.6022357175371
 21
193.2838176443139
 31
0.0
  0
LINE
  5
9E31
330
978A
100
AcDbEntity
  8
30
  6
Continuous
 62
     0
440
 16777216
370
    -2
100
AcDbLine
 10
255.0859420877666
 20
127.2838176443142
 30
0.0
 11
279.602235717537
 21
127.2838176443142
 31
0.0
  0
LINE
  5
9E32
330
978A
100
AcDbEntity
  8
30
  6
Continuous
 62
     0
440
 16777216
370
    -2
100
AcDbLine
 10
279.1022357175371
 20
191.2838176443139
 30
0.0
 11
279.1022357175371
 21
129.2838176443142
 31
0.0
  0
INSERT
  5
9E33
330
978A
100
AcDbEntity
  8
30
  6
Continuous
 62
     0
440
 16777216
370
    -2
100
AcDbBlockReference
  2
_OPEN
 10
279.1022357175371
 20
193.2838176443139
 30
0.0
 41
2.0
 42
2.0
 43
2.0
 50
90.0
  0
INSERT
  5
9E34
330
978A
100
AcDbEntity
  8
30
  6
Continuous
 62
     0
440
 16777216
370
    -2
100
AcDbBlockReference
  2
_OPEN
 10
279.102235717537
 20
127.2838176443142
 30
0.0
 41
2.0
 42
2.0
 43
2.0
 50
270.0
  0
MTEXT
  5
9E35
330
978A
100
AcDbEntity
  8
30
  6
Continuous
 62
     0
440
 16777216
100
AcDbMText
 10
273.602235717537
 20
160.2838176443141
 30
0.0
 40
7.0
 41
0.0
 46
0.0
 71
     5
 72
     1
  1
\A1;66
 11
0.0000000000000001
 21
1.0
 31
0.0
 73
     1
 44
1.0
  0
POINT
  5
9E36
330
978A
100
AcDbEntity
  8
Defpoints
  6
Continuous
 62
     0
440
 16777216
100
AcDbPoint
 10
254.0859420877666
 20
193.2838176443139
 30
0.0
  0
POINT
  5
9E37
330
978A
100
AcDbEntity
  8
Defpoints
  6
Continuous
 62
     0
440
 16777216
100
AcDbPoint
 10
254.0859420877666
 20
127.2838176443142
 30
0.0
  0
POINT
  5
9E38
330
978A
100
AcDbEntity
  8
Defpoints
  6
Continuous
 62
     0
440
 16777216
100
AcDbPoint
 10
279.102235717537
 20
127.2838176443142
 30
0.0
  0
ENDBLK
  5
978C
330
978A
100
AcDbEntity
  8
0
100
AcDbBlockEnd
  0
BLOCK
  5
9797
330
9796
100
AcDbEntity
  8
0
100
AcDbBlockBegin
  2
*D38
 70
     1
 10
0.0
 20
0.0
 30
0.0
  3
*D38
  1

  0
LINE
  5
9FF5
330
9796
100
AcDbEntity
  8
30
  6
Continuous
 62
     0
440
 16777216
370
    -2
100
AcDbLine
 10
78.08594149176702
 20
121.2838176443142
 30
0.0
 11
78.08594149176702
 21
11.25062912189196
 31
0.0
  0
LINE
  5
9FF6
330
9796
100
AcDbEntity
  8
30
  6
Continuous
 62
     0
440
 16777216
370
    -2
100
AcDbLine
 10
249.0859420877666
 20
121.2838176443142
 30
0.0
 11
249.0859420877666
 21
11.25062912189196
 31
0.0
  0
LINE
  5
9FF7
330
9796
100
AcDbEntity
  8
30
  6
Continuous
 62
     0
440
 16777216
370
    -2
100
AcDbLine
 10
80.08594149176701
 20
11.75062912189196
 30
0.0
 11
247.0859420877666
 21
11.75062912189196
 31
0.0
  0
INSERT
  5
9FF8
330
9796
100
AcDbEntity
  8
30
  6
Continuous
 62
     0
440
 16777216
370
    -2
100
AcDbBlockReference
  2
_OPEN
 10
78.08594149176702
 20
11.75062912189196
 30
0.0
 41
2.0
 42
2.0
 43
2.0
 50
180.0
  0
INSERT
  5
9FF9
330
9796
100
AcDbEntity
  8
30
  6
Continuous
 62
     0
440
 16777216
370
    -2
100
AcDbBlockReference
  2
_OPEN
 10
249.0859420877666
 20
11.75062912189196
 30
0.0
 41
2.0
 42
2.0
 43
2.0
  0
MTEXT
  5
9FFA
330
9796
100
AcDbEntity
  8
30
  6
Continuous
 62
     0
440
 16777216
100
AcDbMText
 10
163.5859417897668
 20
17.25062912189196
 30
0.0
 40
7.0
 41
0.0
 46
0.0
 71
     5
 72
     1
  1
\A1;171
 73
     1
 44
1.0
  0
POINT
  5
9FFB
330
9796
100
AcDbEntity
  8
Defpoints
  6
Continuous
 62
     0
440
 16777216
100
AcDbPoint
 10
78.08594149176702
 20
122.2838176443142
 30
0.0
  0
POINT
  5
9FFC
330
9796
100
AcDbEntity
  8
Defpoints
  6
Continuous
 62
     0
440
 16777216
100
AcDbPoint
 10
249.0859420877666
 20
122.2838176443142
 30
0.0
  0
POINT
  5
9FFD
330
9796
100
AcDbEntity
  8
Defpoints
  6
Continuous
 62
     0
440
 16777216
100
AcDbPoint
 10
249.0859420877666
 20
11.75062912189196
 30
0.0
  0
ENDBLK
  5
9798
330
9796
100
AcDbEntity
  8
0
100
AcDbBlockEnd
  0
BLOCK
  5
9836
330
9835
100
AcDbEntity
  8
0
100
AcDbBlockBegin
  2
*D39
 70
     1
 10
0.0
 20
0.0
 30
0.0
  3
*D39
  1

  0
LINE
  5
9E0B
330
9835
100
AcDbEntity
  8
30
  6
Continuous
 62
     0
440
 16777216
370
    -2
100
AcDbLine
 10
553.808002583719
 20
385.7296865202893
 30
0.0
 11
568.6246695373104
 21
385.7296865202893
 31
0.0
  0
LINE
  5
9E0C
330
9835
100
AcDbEntity
  8
30
  6
Continuous
 62
     0
440
 16777216
370
    -2
100
AcDbLine
 10
553.808002583719
 20
380.7296865202891
 30
0.0
 11
568.6246695373104
 21
380.7296865202891
 31
0.0
  0
LINE
  5
9E0D
330
9835
100
AcDbEntity
  8
30
  6
Continuous
 62
     0
440
 16777216
370
    -2
100
AcDbLine
 10
568.1246695373102
 20
387.7296865202893
 30
0.0
 11
568.1246695373102
 21
389.7296865202893
 31
0.0
  0
LINE
  5
9E0E
330
9835
100
AcDbEntity
  8
30
  6
Continuous
 62
     0
440
 16777216
370
    -2
100
AcDbLine
 10
568.1246695373102
 20
378.7296865202891
 30
0.0
 11
568.1246695373102
 21
363.8739392524515
 31
0.0
  0
INSERT
  5
9E0F
330
9835
100
AcDbEntity
  8
30
  6
Continuous
 62
     0
440
 16777216
370
    -2
100
AcDbBlockReference
  2
_OPEN
 10
568.1246695373102
 20
385.7296865202893
 30
0.0
 41
2.0
 42
2.0
 43
2.0
 50
270.0
  0
INSERT
  5
9E10
330
9835
100
AcDbEntity
  8
30
  6
Continuous
 62
     0
440
 16777216
370
    -2
100
AcDbBlockReference
  2
_OPEN
 10
568.1246695373102
 20
380.7296865202891
 30
0.0
 41
2.0
 42
2.0
 43
2.0
 50
90.0
  0
MTEXT
  5
9E11
330
9835
100
AcDbEntity
  8
30
  6
Continuous
 62
     0
440
 16777216
100
AcDbMText
 10
559.1246695373103
 20
367.9023483433607
 30
0.0
 40
7.0
 41
0.0
 46
0.0
 71
     2
 72
     1
  1
\A1;5
 11
0.0000000000000001
 21
1.0
 31
0.0
 73
     1
 44
1.0
  0
POINT
  5
9E12
330
9835
100
AcDbEntity
  8
Defpoints
  6
Continuous
 62
     0
440
 16777216
100
AcDbPoint
 10
552.808002583719
 20
385.7296865202893
 30
0.0
  0
POINT
  5
9E13
330
9835
100
AcDbEntity
  8
Defpoints
  6
Continuous
 62
     0
440
 16777216
100
AcDbPoint
 10
552.808002583719
 20
380.7296865202891
 30
0.0
  0
POINT
  5
9E14
330
9835
100
AcDbEntity
  8
Defpoints
  6
Continuous
 62
     0
440
 16777216
100
AcDbPoint
 10
568.1246695373102
 20
380.7296865202891
 30
0.0
  0
ENDBLK
  5
9837
330
9835
100
AcDbEntity
  8
0
100
AcDbBlockEnd
  0
BLOCK
  5
9BB0
330
9BAC
100
AcDbEntity
  8
0
100
AcDbBlockBegin
  2
A$C761E3718
 70
     0
 10
0.0
 20
0.0
 30
0.0
  3
A$C761E3718
  1

  0
LWPOLYLINE
  5
9BAD
330
9BAC
100
AcDbEntity
  8
10
  6
CONTINOUS
100
AcDbPolyline
 90
       13
 70
     1
 43
0.0
 10
-76.50000601999987
 20
-14.50000330799992
 10
-72.50000536440018
 20
-14.50000330799992
 10
107.4999943375998
 20
-14.50000330799992
 10
111.4999949931999
 20
-14.50000330799992
 10
111.4999976159998
 20
-14.50000131759987
 42
0.4142135623730951
 10
113.4999976159998
 20
-12.50000131759987
 10
113.4999990463999
 20
-12.49999925519989
 10
113.4999990463999
 20
0.0000000000001137
 10
107.4999943375998
 20
0.0000000000001137
 10
-78.50000262240008
 20
0.0
 10
-78.50000262240008
 20
-12.49999925519989
 10
-78.50000238400014
 20
-12.50000131759998
 42
0.4142135623730951
 10
-76.50000238400014
 20
-14.50000131759998
  0
ENDBLK
  5
9BB1
330
9BAC
100
AcDbEntity
  8
0
100
AcDbBlockEnd
  0
BLOCK
  5
9BB5
330
9BB2
100
AcDbEntity
  8
0
100
AcDbBlockBegin
  2
A$C23077EED
 70
     0
 10
0.0
 20
0.0
 30
0.0
  3
A$C23077EED
  1

  0
LINE
  5
9BB6
330
9BB2
100
AcDbEntity
  8
24
  6
CONTINOUS
100
AcDbLine
 10
5.799128966030592
 20
-11.32304873319992
 30
0.0
 11
5.799128966030592
 21
-12.92304787799992
 31
0.0
  0
ARC
  5
9BB7
330
9BB2
100
AcDbEntity
  8
24
  6
CONTINOUS
100
AcDbCircle
 10
5.974127296830602
 20
-14.24804852479997
 30
0.0
 40
0.1750000000000684
100
AcDbArc
 50
270.0
 51
0.0
  0
ARC
  5
9BB8
330
9BB2
100
AcDbEntity
  8
24
  6
CONTINOUS
100
AcDbCircle
 10
5.974127296830602
 20
-13.09804852479988
 30
0.0
 40
0.1750000000000684
100
AcDbArc
 50
0.0
 51
90.0
  0
LINE
  5
9BB9
330
9BB2
100
AcDbEntity
  8
24
  6
CONTINOUS
100
AcDbLine
 10
6.149127440030611
 20
-13.0980489776
 30
0.0
 11
6.149127440030611
 21
-14.24804795559998
 31
0.0
  0
ARC
  5
9BBA
330
9BB2
100
AcDbEntity
  8
24
  6
CONTINOUS
100
AcDbCircle
 10
4.749127296830693
 20
-16.34425061199999
 30
0.0
 40
1.3
100
AcDbArc
 50
302.6992894884049
 51
0.0
  0
LINE
  5
9BBB
330
9BB2
100
AcDbEntity
  8
24
  6
CONTINOUS
100
AcDbLine
 10
6.049125747230617
 20
-14.40616314283898
 30
0.0
 11
6.049125747230617
 21
-16.34425018000001
 31
0.0
  0
ARC
  5
9BBC
330
9BB2
100
AcDbEntity
  8
24
  6
CONTINOUS
100
AcDbCircle
 10
0.0491272968305339
 20
-9.023048524799262
 30
0.0
 40
10.00000000000073
100
AcDbArc
 50
267.7985461275124
 51
302.6992894884049
  0
LINE
  5
9BBD
330
9BB2
100
AcDbEntity
  8
10
  6
CONTINOUS
100
AcDbLine
 10
-7.3994795667694
 20
-38.08465333179242
 30
0.0
 11
-7.307653104539097
 21
-11.32304873320004
 31
0.0
  0
LINE
  5
9BBE
330
9BB2
100
AcDbEntity
  8
10
  6
CONTINOUS
100
AcDbLine
 10
5.78626553843048
 20
-3.299999050799896
 30
0.0
 11
5.729637400830597
 21
0.0
 31
0.0
  0
LINE
  5
9BBF
330
9BB2
100
AcDbEntity
  8
10
  6
CONTINOUS
100
AcDbLine
 10
9.781240777630612
 20
-3.299999050799896
 30
0.0
 11
5.78626553843048
 21
-3.299999050799896
 31
0.0
  0
SPLINE
  5
9BC0
330
9BB2
100
AcDbEntity
  8
10
  6
CONTINOUS
100
AcDbSpline
210
0.0
220
0.0
230
1.0
 70
     8
 71
     3
 72
    13
 73
     9
 74
     0
 42
0.000000001
 43
0.0000000001
 40
0.0
 40
0.0
 40
0.0
 40
0.0
 40
0.1359333841156276
 40
0.2701964075702176
 40
0.4999959066126105
 40
0.7297971636608436
 40
0.8639094857510036
 40
1.0
 40
1.0
 40
1.0
 40
1.0
 10
10.781049088965
 20
-4.291235469471073
 30
0.0
 10
10.77636073293536
 20
-4.220548031097337
 30
0.0
 10
10.76704163178226
 20
-4.080041767436114
 30
0.0
 10
10.67962317800584
 20
-3.833015725259883
 30
0.0
 10
10.50115630144091
 20
-3.573711883809891
 30
0.0
 10
10.24038549833653
 20
-3.397575158053541
 30
0.0
 10
9.992652914518883
 20
-3.312134608251767
 30
0.0
 10
9.852054603038482
 20
-3.304063932250755
 30
0.0
 10
9.781240777502603
 20
-3.299999050985431
 30
0.0
  0
LINE
  5
9BC1
330
9BB2
100
AcDbEntity
  8
10
  6
CONTINOUS
100
AcDbLine
 10
11.05613570043067
 20
-36.37304808959993
 30
0.0
 11
10.78104908883062
 21
-4.291235469599996
 31
0.0
  0
LINE
  5
9BC2
330
9BB2
100
AcDbEntity
  8
10
  6
CONTINOUS
100
AcDbLine
 10
-5.688012285569358
 20
-3.299999050799896
 30
0.0
 11
-9.682983799569342
 21
-3.299999050799896
 31
0.0
  0
LINE
  5
9BC3
330
9BB2
100
AcDbEntity
  8
10
  6
CONTINOUS
100
AcDbLine
 10
-5.631380422769438
 20
0.0
 30
0.0
 11
-5.688012285569358
 21
-3.299999050799896
 31
0.0
  0
LINE
  5
9BC4
330
9BB2
100
AcDbEntity
  8
10
  6
CONTINOUS
100
AcDbLine
 10
-10.68279583636945
 20
-4.291235469599996
 30
0.0
 11
-10.95788244756943
 21
-36.37304808959993
 31
0.0
  0
SPLINE
  5
9BC5
330
9BB2
100
AcDbEntity
  8
10
  6
CONTINOUS
100
AcDbSpline
210
0.0
220
0.0
230
1.0
 70
     8
 71
     3
 72
    13
 73
     9
 74
     0
 42
0.000000001
 43
0.0000000001
 40
0.0
 40
0.0
 40
0.0
 40
0.0
 40
0.1359332289454908
 40
0.2701975746343308
 40
0.4999975108998482
 40
0.729796675815167
 40
0.8639095686302415
 40
1.0
 40
1.0
 40
1.0
 40
1.0
 10
-9.68298379944747
 20
-3.299999050985431
 30
0.0
 10
-9.753711470593087
 20
-3.304081684923403
 30
0.0
 10
-9.894298473133856
 20
-3.312196829371486
 30
0.0
 10
-10.14207544965063
 20
-3.39749132295924
 30
0.0
 10
-10.40290985708736
 20
-3.573721388678221
 30
0.0
 10
-10.58128546342141
 20
-3.832960727038198
 30
0.0
 10
-10.66884725755869
 20
-4.079942883109197
 30
0.0
 10
-10.67812367951944
 20
-4.220461801822692
 30
0.0
 10
-10.68279583620017
 20
-4.291235469471073
 30
0.0
  0
SPLINE
  5
9BC6
330
9BB2
100
AcDbEntity
  8
24
  6
CONTINOUS
100
AcDbSpline
210
0.0
220
0.0
230
1.0
 70
     8
 71
     3
 72
    12
 73
     8
 74
     0
 42
0.000000001
 43
0.0000000001
 40
0.0
 40
0.0
 40
0.0
 40
0.0
 40
0.2302246052763817
 40
0.461465393904272
 40
0.6846481392781254
 40
0.8945815887735514
 40
1.0
 40
1.0
 40
1.0
 40
1.0
 10
-6.048689304461047
 20
-14.24804795552359
 30
0.0
 10
-6.046805751980737
 20
-14.26848180962065
 30
0.0
 10
-6.043030333248677
 20
-14.3094397103564
 30
0.0
 10
-6.010634250382622
 20
-14.36381094865896
 30
0.0
 10
-5.963091038475454
 20
-14.40317989600316
 30
0.0
 10
-5.914593486286776
 20
-14.42102083837733
 30
0.0
 10
-5.884947173037858
 20
-14.4225409123959
 30
0.0
 10
-5.875036759843395
 20
-14.42304905522917
 30
0.0
  0
LINE
  5
9BC7
330
9BB2
100
AcDbEntity
  8
24
  6
CONTINOUS
100
AcDbLine
 10
-5.875036759969472
 20
-14.42304905519995
 30
0.0
 11
5.974128202830567
 21
-14.42304905519995
 31
0.0
  0
LINE
  5
9BC8
330
9BB2
100
AcDbEntity
  8
24
  6
CONTINOUS
100
AcDbLine
 10
-5.875874044281772
 20
-12.92304852479992
 30
0.0
 11
5.974128202830567
 21
-12.92304787799992
 31
0.0
  0
ELLIPSE
  5
9BC9
330
9BB2
100
AcDbEntity
  8
24
  6
CONTINOUS
100
AcDbEllipse
 10
-22.08573108739404
 20
-13.70350724510763
 30
0.0
 11
-11.34643601874679
 21
11.34643601874678
 31
0.0
210
0.0
220
0.0
230
-1.0
 40
0.9999999999999984
 41
2.318453509821118
 42
2.390136670339345
  0
LINE
  5
9BCA
330
9BB2
100
AcDbEntity
  8
10
  6
CONTINOUS
100
AcDbLine
 10
2.057778940830528
 20
-7.123048417599872
 30
0.0
 11
-1.95952382556936
 21
-7.123048417599872
 31
0.0
  0
ARC
  5
9BCB
330
9BB2
100
AcDbEntity
  8
10
  6
CONTINOUS
100
AcDbCircle
 10
2.057778665230557
 20
-7.623048524799969
 30
0.0
 40
0.5
100
AcDbArc
 50
1.000000000001761
 51
90.0
  0
LINE
  5
9BCC
330
9BB2
100
AcDbEntity
  8
10
  6
CONTINOUS
100
AcDbLine
 10
2.575311170430607
 20
-8.623047731999918
 30
0.0
 11
2.557701723230593
 21
-7.614322938399936
 31
0.0
  0
LINE
  5
9BCD
330
9BB2
100
AcDbEntity
  8
10
  6
CONTINOUS
100
AcDbLine
 10
10.81819236285525
 20
-8.623047731999918
 30
0.0
 11
2.575311170430607
 21
-8.623047731999918
 31
0.0
  0
LINE
  5
9BCE
330
9BB2
100
AcDbEntity
  8
10
  6
CONTINOUS
100
AcDbLine
 10
-2.477056054769374
 20
-8.623047731999918
 30
0.0
 11
-10.71993911034008
 21
-8.623047731999804
 31
0.0
  0
ARC
  5
9BCF
330
9BB2
100
AcDbEntity
  8
24
  6
CONTINOUS
100
AcDbCircle
 10
0.0491272968306475
 20
-16.82304852480001
 30
0.0
 40
3.250000000000069
100
AcDbArc
 50
214.3365734082007
 51
325.6634265917993
  0
LINE
  5
9BD0
330
9BB2
100
AcDbEntity
  8
10
  6
CONTINOUS
100
AcDbLine
 10
10.84134361479766
 20
-11.32304873319992
 30
0.0
 11
-10.74309036224883
 21
-11.32304873320004
 31
0.0
  0
LINE
  5
9BD1
330
9BB2
100
AcDbEntity
  8
10
  6
CONTINOUS
100
AcDbLine
 10
7.528755735082312
 20
-34.15487986079995
 30
0.0
 11
-7.385995427809119
 21
-34.15487986080008
 31
0.0
  0
SPLINE
  5
9BD2
330
9BB2
100
AcDbEntity
  8
24
  6
CONTINOUS
100
AcDbSpline
210
0.0
220
0.0
230
1.0
 70
     8
 71
     3
 72
    15
 73
    11
 74
     0
 42
0.000000001
 43
0.0000000001
 40
0.0191599181193224
 40
0.0191599181193224
 40
0.0191599181193224
 40
0.0191599181193224
 40
0.0275388957707847
 40
0.1849948866841793
 40
0.3424510465127668
 40
0.4999072371049071
 40
0.6573634276970476
 40
0.8148194186104419
 40
0.9722755223894999
 40
0.9806563850672594
 40
0.9806563850672594
 40
0.9806563850672594
 40
0.9806563850672594
 10
3.484727702645386
 20
-18.41435566766335
 30
0.0
 10
3.479443205910115
 20
-18.43937900411697
 30
0.0
 10
3.366831230923593
 20
-18.93205815167721
 30
0.0
 10
2.702403750653843
 20
-19.74958477771611
 30
0.0
 10
1.509701413642573
 20
-20.58264338781453
 30
0.0
 10
0.049122276192179
 20
-20.86825221452386
 30
0.0
 10
-1.411430237836725
 20
-20.58263897038637
 30
0.0
 10
-2.604210880321712
 20
-19.74960335055755
 30
0.0
 10
-3.268442825549755
 20
-18.93200897061001
 30
0.0
 10
-3.381207408496377
 20
-18.43937260229541
 30
0.0
 10
-3.386499955762586
 20
-18.4143458463227
 30
0.0
  0
LINE
  5
9BD3
330
9BB2
100
AcDbEntity
  8
10
  6
CONTINOUS
100
AcDbLine
 10
7.542239874042593
 20
-38.08465333179242
 30
0.0
 11
7.450413411812291
 21
-11.32304873320004
 31
0.0
  0
LINE
  5
9BD4
330
9BB2
100
AcDbEntity
  8
24
  6
CONTINOUS
100
AcDbLine
 10
-5.700871987969432
 20
-12.92304787799992
 30
0.0
 11
-5.700871987969432
 21
-11.32304873319992
 31
0.0
  0
ARC
  5
9BD5
330
9BB2
100
AcDbEntity
  8
24
  6
CONTINOUS
100
AcDbCircle
 10
-4.650872703169396
 20
-16.34425061199999
 30
0.0
 40
1.3
100
AcDbArc
 50
180.0
 51
237.3007105115951
  0
LINE
  5
9BD6
330
9BB2
100
AcDbEntity
  8
24
  6
CONTINOUS
100
AcDbLine
 10
-5.950872494369491
 20
-16.34425018000001
 30
0.0
 11
-5.950872494369491
 21
-14.40577571755034
 31
0.0
  0
ARC
  5
9BD7
330
9BB2
100
AcDbEntity
  8
24
  6
CONTINOUS
100
AcDbCircle
 10
0.0491272968306475
 20
-9.023048524799943
 30
0.0
 40
10.00000000000003
100
AcDbArc
 50
237.3007105115951
 51
270.7795451585671
  0
LINE
  5
9BD8
330
9BB2
100
AcDbEntity
  8
10
  6
CONTINOUS
100
AcDbLine
 10
-2.459448470369351
 20
-7.614322938399936
 30
0.0
 11
-2.477056054769374
 21
-8.623047731999918
 31
0.0
  0
ARC
  5
9BD9
330
9BB2
100
AcDbEntity
  8
10
  6
CONTINOUS
100
AcDbCircle
 10
-1.959524071569489
 20
-7.623048524799969
 30
0.0
 40
0.5000000000000088
100
AcDbArc
 50
90.0
 51
179.0000000000047
  0
ARC
  5
9BDA
330
9BB2
100
AcDbEntity
  8
24
  6
CONTINOUS
100
AcDbCircle
 10
-5.875874044281772
 20
-13.09804852479988
 30
0.0
 40
0.1750000000000684
100
AcDbArc
 50
90.0
 51
180.0
  0
ENDBLK
  5
9BDB
330
9BB2
100
AcDbEntity
  8
0
100
AcDbBlockEnd
  0
BLOCK
  5
9C01
330
9BFE
100
AcDbEntity
  8
0
100
AcDbBlockBegin
  2
A$C6D904D4D
 70
     0
 10
0.0
 20
0.0
 30
0.0
  3
A$C6D904D4D
  1

  0
LWPOLYLINE
  5
9C02
330
9BFE
100
AcDbEntity
  8
10
  6
CONTINOUS
100
AcDbPolyline
 90
        2
 70
     0
 43
0.0
 10
43.00000146039997
 20
-26.99999985080002
 10
43.00000146039997
 20
26.99999968719988
  0
LWPOLYLINE
  5
9C03
330
9BFE
100
AcDbEntity
  8
10
  6
CONTINOUS
100
AcDbPolyline
 90
        2
 70
     0
 43
0.0
 10
41.99999943399996
 20
27.99999985119996
 10
-41.9999994336
 20
27.99999985119996
  0
LWPOLYLINE
  5
9C04
330
9BFE
100
AcDbEntity
  8
10
  6
CONTINOUS
100
AcDbPolyline
 90
        2
 70
     0
 43
0.0
 10
-43.0
 20
-27.0
 42
0.4142135623730951
 10
-42.0
 20
-28.0
  0
LWPOLYLINE
  5
9C05
330
9BFE
100
AcDbEntity
  8
10
  6
CONTINOUS
100
AcDbPolyline
 90
        2
 70
     0
 43
0.0
 10
-41.9999994336
 20
-28.0000000148001
 10
41.99999943399996
 20
-28.0000000148001
  0
LWPOLYLINE
  5
9C06
330
9BFE
100
AcDbEntity
  8
10
  6
CONTINOUS
100
AcDbPolyline
 90
        2
 70
     0
 43
0.0
 10
-42.0
 20
27.99999999999989
 42
0.4142135623730951
 10
-43.0
 20
26.99999999999989
  0
LWPOLYLINE
  5
9C07
330
9BFE
100
AcDbEntity
  8
10
  6
CONTINOUS
100
AcDbPolyline
 90
        2
 70
     0
 43
0.0
 10
-43.00000146040008
 20
-26.99999985080002
 10
-43.00000146040008
 20
26.99999968719988
  0
LWPOLYLINE
  5
9C08
330
9BFE
100
AcDbEntity
  8
10
  6
CONTINOUS
100
AcDbPolyline
 90
        2
 70
     0
 43
0.0
 10
43.0
 20
26.99999999999989
 42
0.4142135623730951
 10
42.0
 20
27.99999999999989
  0
LWPOLYLINE
  5
9C09
330
9BFE
100
AcDbEntity
  8
10
  6
CONTINOUS
100
AcDbPolyline
 90
        2
 70
     0
 43
0.0
 10
42.0
 20
-28.0
 42
0.4142135623730951
 10
43.0
 20
-27.0
  0
LWPOLYLINE
  5
9C0A
330
9BFE
100
AcDbEntity
  8
10
  6
CONTINOUS
100
AcDbPolyline
 90
        2
 70
     0
 43
0.0
 10
39.7570952775999
 20
-28.0000000148001
 10
39.7570952775999
 20
-24.40000054239999
  0
LWPOLYLINE
  5
9C0B
330
9BFE
100
AcDbEntity
  8
10
  6
CONTINOUS
100
AcDbPolyline
 90
        2
 70
     0
 43
0.0
 10
-39.75709527720005
 20
-24.40000054239999
 10
-39.75709527720005
 20
-28.0000000148001
  0
LWPOLYLINE
  5
9C0C
330
9BFE
100
AcDbEntity
  8
10
  6
CONTINOUS
100
AcDbPolyline
 90
        2
 70
     0
 43
0.0
 10
40.50349071639994
 20
-8.053490974000052
 10
39.59999978559995
 20
-8.053490974000052
  0
LWPOLYLINE
  5
9C0D
330
9BFE
100
AcDbEntity
  8
10
  6
CONTINOUS
100
AcDbPolyline
 90
        2
 70
     0
 43
0.0
 10
-40.5034907160001
 20
-10.04650917640003
 10
-39.5999997852
 20
-10.04650917640003
  0
LWPOLYLINE
  5
9C0E
330
9BFE
100
AcDbEntity
  8
10
  6
CONTINOUS
100
AcDbPolyline
 90
        2
 70
     0
 43
0.0
 10
-40.5034907160001
 20
-20.55349116000002
 10
-40.5034907160001
 20
-10.04650917640003
  0
LWPOLYLINE
  5
9C0F
330
9BFE
100
AcDbEntity
  8
10
  6
CONTINOUS
100
AcDbPolyline
 90
        2
 70
     0
 43
0.0
 10
-17.99650862800001
 20
-20.55349116000002
 10
-40.5034907160001
 20
-20.55349116000002
  0
LWPOLYLINE
  5
9C10
330
9BFE
100
AcDbEntity
  8
10
  6
CONTINOUS
100
AcDbPolyline
 90
        2
 70
     0
 43
0.0
 10
-17.99650862800001
 20
21.65349099039997
 10
-17.99650862800001
 20
-20.55349116000002
  0
LWPOLYLINE
  5
9C11
330
9BFE
100
AcDbEntity
  8
10
  6
CONTINOUS
100
AcDbPolyline
 90
        2
 70
     0
 43
0.0
 10
-40.5034907160001
 20
21.65349099039997
 10
-17.99650862800001
 20
21.65349099039997
  0
LWPOLYLINE
  5
9C12
330
9BFE
100
AcDbEntity
  8
10
  6
CONTINOUS
100
AcDbPolyline
 90
        2
 70
     0
 43
0.0
 10
-40.5034907160001
 20
-8.053490974000052
 10
-40.5034907160001
 20
21.65349099039997
  0
LWPOLYLINE
  5
9C13
330
9BFE
100
AcDbEntity
  8
10
  6
CONTINOUS
100
AcDbPolyline
 90
        2
 70
     0
 43
0.0
 10
-39.5999997852
 20
-8.053490974000052
 10
-40.5034907160001
 20
-8.053490974000052
  0
LWPOLYLINE
  5
9C14
330
9BFE
100
AcDbEntity
  8
10
  6
CONTINOUS
100
AcDbPolyline
 90
        2
 70
     0
 43
0.0
 10
40.50349071639994
 20
-20.55349116000002
 10
17.99650862839996
 20
-20.55349116000002
  0
LWPOLYLINE
  5
9C15
330
9BFE
100
AcDbEntity
  8
10
  6
CONTINOUS
100
AcDbPolyline
 90
        2
 70
     0
 43
0.0
 10
40.50349071639994
 20
-10.04650917640003
 10
40.50349071639994
 20
-20.55349116000002
  0
LWPOLYLINE
  5
9C16
330
9BFE
100
AcDbEntity
  8
10
  6
CONTINOUS
100
AcDbPolyline
 90
        2
 70
     0
 43
0.0
 10
39.59999978559995
 20
-10.04650917640003
 10
40.50349071639994
 20
-10.04650917640003
  0
LWPOLYLINE
  5
9C17
330
9BFE
100
AcDbEntity
  8
10
  6
CONTINOUS
100
AcDbPolyline
 90
        2
 70
     0
 43
0.0
 10
40.50349071639994
 20
21.65349099039997
 10
40.50349071639994
 20
-8.053490974000052
  0
LWPOLYLINE
  5
9C18
330
9BFE
100
AcDbEntity
  8
10
  6
CONTINOUS
100
AcDbPolyline
 90
        2
 70
     0
 43
0.0
 10
17.99650862839996
 20
21.65349099039997
 10
40.50349071639994
 20
21.65349099039997
  0
LWPOLYLINE
  5
9C19
330
9BFE
100
AcDbEntity
  8
10
  6
CONTINOUS
100
AcDbPolyline
 90
        2
 70
     0
 43
0.0
 10
17.99650862839996
 20
-20.55349116000002
 10
17.99650862839996
 20
21.65349099039997
  0
LWPOLYLINE
  5
9C1A
330
9BFE
100
AcDbEntity
  8
10
  6
CONTINOUS
100
AcDbPolyline
 90
        2
 70
     0
 43
0.0
 10
-15.02618286760014
 20
-21.72625911200009
 10
-15.02618286760014
 20
24.12625859679997
  0
LWPOLYLINE
  5
9C1B
330
9BFE
100
AcDbEntity
  8
10
  6
CONTINOUS
100
AcDbPolyline
 90
        2
 70
     0
 43
0.0
 10
14.52625915399994
 20
-22.22618189440004
 10
-14.52625915400006
 20
-22.22618189440004
  0
LWPOLYLINE
  5
9C1C
330
9BFE
100
AcDbEntity
  8
10
  6
CONTINOUS
100
AcDbPolyline
 90
        2
 70
     0
 43
0.0
 10
15.02618286759991
 20
24.12625859679997
 10
15.02618286759991
 20
-21.72625911200009
  0
LWPOLYLINE
  5
9C1D
330
9BFE
100
AcDbEntity
  8
10
  6
CONTINOUS
100
AcDbPolyline
 90
        2
 70
     0
 43
0.0
 10
-14.52625915400006
 20
24.62618324159996
 10
14.52625915399994
 20
24.62618324159996
  0
LWPOLYLINE
  5
9C1E
330
9BFE
100
AcDbEntity
  8
10
  6
CONTINOUS
100
AcDbPolyline
 90
        2
 70
     0
 43
0.0
 10
41.99999943399996
 20
25.50000037279995
 10
41.99999943399996
 20
-24.40000054239999
  0
LWPOLYLINE
  5
9C1F
330
9BFE
100
AcDbEntity
  8
10
  6
CONTINOUS
100
AcDbPolyline
 90
        2
 70
     0
 43
0.0
 10
-41.9999994336
 20
25.50000037279995
 10
41.99999943399996
 20
25.50000037279995
  0
LWPOLYLINE
  5
9C20
330
9BFE
100
AcDbEntity
  8
10
  6
CONTINOUS
100
AcDbPolyline
 90
        2
 70
     0
 43
0.0
 10
-41.9999994336
 20
-24.40000054239999
 10
41.99999943399996
 20
-24.40000054239999
  0
LWPOLYLINE
  5
9C21
330
9BFE
100
AcDbEntity
  8
10
  6
CONTINOUS
100
AcDbPolyline
 90
        2
 70
     0
 43
0.0
 10
-41.9999994336
 20
-24.40000054239999
 10
-41.9999994336
 20
25.50000037279995
  0
LWPOLYLINE
  5
9C22
330
9BFE
100
AcDbEntity
  8
10
  6
CONTINOUS
100
AcDbPolyline
 90
        2
 70
     0
 43
0.0
 10
40.10225087399986
 20
-24.40000054239999
 10
40.10225087399986
 20
-28.0000000148001
  0
LWPOLYLINE
  5
9C23
330
9BFE
100
AcDbEntity
  8
10
  6
CONTINOUS
100
AcDbPolyline
 90
        2
 70
     0
 43
0.0
 10
-40.1022508740001
 20
-28.0000000148001
 10
-40.1022508740001
 20
-24.40000054239999
  0
LWPOLYLINE
  5
9C24
330
9BFE
100
AcDbEntity
  8
10
  6
CONTINOUS
100
AcDbPolyline
 90
        2
 70
     0
 43
0.0
 10
-10.90744044621271
 20
-21.43768136184974
 42
0.4140077244144309
 10
-10.507501661849
 20
-21.83762107760873
  0
LWPOLYLINE
  5
9C25
330
9BFE
100
AcDbEntity
  8
10
  6
CONTINOUS
100
AcDbPolyline
 90
        2
 70
     0
 43
0.0
 10
10.50750073039989
 20
22.83762107799998
 10
-10.50750166160003
 20
22.83762107799998
  0
LWPOLYLINE
  5
9C26
330
9BFE
100
AcDbEntity
  8
10
  6
CONTINOUS
100
AcDbPolyline
 90
        2
 70
     0
 43
0.0
 10
-10.50750166160003
 20
-21.83762107760003
 10
10.50750166199998
 20
-21.83762107760003
  0
LWPOLYLINE
  5
9C27
330
9BFE
100
AcDbEntity
  8
0
  6
SLD-実線
 62
     8
370
     0
100
AcDbPolyline
 90
        2
 70
     0
 43
0.0
 10
14.07503336679997
 20
22.93532426679997
 10
14.13985434919993
 20
23.00000089439993
  0
LWPOLYLINE
  5
9C28
330
9BFE
100
AcDbEntity
  8
0
  6
SLD-実線
 62
     8
370
     0
100
AcDbPolyline
 90
        2
 70
     0
 43
0.0
 10
39.59999978559995
 20
-8.053490974000052
 10
39.59999978559995
 20
-8.050000376799971
  0
LWPOLYLINE
  5
9C29
330
9BFE
100
AcDbEntity
  8
0
  6
SLD-実線
 62
     8
370
     0
100
AcDbPolyline
 90
        2
 70
     0
 43
0.0
 10
-39.5999997852
 20
-10.04650917640003
 10
-39.5999997852
 20
-10.04999977320006
  0
LWPOLYLINE
  5
9C2A
330
9BFE
100
AcDbEntity
  8
0
  6
SLD-実線
 62
     8
370
     0
100
AcDbPolyline
 90
        2
 70
     0
 43
0.0
 10
-39.5999997852
 20
-8.050000376799971
 10
-39.5999997852
 20
-8.053490974000052
  0
LWPOLYLINE
  5
9C2B
330
9BFE
100
AcDbEntity
  8
0
  6
SLD-実線
 62
     8
370
     0
100
AcDbPolyline
 90
        2
 70
     0
 43
0.0
 10
14.99999966479992
 20
24.10007539399999
 10
15.02618286759991
 20
24.12625859679997
  0
LWPOLYLINE
  5
9C2C
330
9BFE
100
AcDbEntity
  8
0
  6
SLD-実線
 62
     8
370
     0
100
AcDbPolyline
 90
        2
 70
     0
 43
0.0
 10
14.50007595119996
 20
24.60000003879998
 10
14.52625915399994
 20
24.62618324159996
  0
LWPOLYLINE
  5
9C2D
330
9BFE
100
AcDbEntity
  8
0
  6
SLD-実線
 62
     8
370
     0
100
AcDbPolyline
 90
        2
 70
     0
 43
0.0
 10
-6.001745350400142
 20
11.71186371919998
 10
5.900000222000016
 20
11.72078485799989
  0
LWPOLYLINE
  5
9C2E
330
9BFE
100
AcDbEntity
  8
0
  6
SLD-実線
 62
     8
370
     0
100
AcDbPolyline
 90
        2
 70
     0
 43
0.0
 10
5.900000222000016
 20
11.72078485799989
 10
6.002181675199834
 20
11.72068893199991
  0
LWPOLYLINE
  5
9C2F
330
9BFE
100
AcDbEntity
  8
0
  6
SLD-実線
 62
     8
370
     0
100
AcDbPolyline
 90
        2
 70
     0
 43
0.0
 10
6.002181675199834
 20
9.324610151599928
 10
6.002181675199834
 20
11.72068893199991
  0
LWPOLYLINE
  5
9C30
330
9BFE
100
AcDbEntity
  8
0
  6
SLD-実線
 62
     8
370
     0
100
AcDbPolyline
 90
        2
 70
     0
 43
0.0
 10
-6.001745350400142
 20
9.36503420799988
 10
-6.001745350400142
 20
11.71186371919998
  0
LWPOLYLINE
  5
9C31
330
9BFE
100
AcDbEntity
  8
0
  6
SLD-実線
 62
     8
370
     0
100
AcDbPolyline
 90
        2
 70
     0
 43
0.0
 10
6.002154667199985
 20
8.475579239599937
 10
6.002181675199834
 20
9.324610151599928
  0
LWPOLYLINE
  5
9C32
330
9BFE
100
AcDbEntity
  8
0
  6
SLD-実線
 62
     8
370
     0
100
AcDbPolyline
 90
        2
 70
     0
 43
0.0
 10
-6.001723464400012
 20
8.51637768759997
 10
-6.001745350400142
 20
9.36503420799988
  0
LWPOLYLINE
  5
9C33
330
9BFE
100
AcDbEntity
  8
0
  6
SLD-実線
 62
     8
370
     0
100
AcDbPolyline
 90
        2
 70
     0
 43
0.0
 10
-6.001723464400012
 20
8.51637768759997
 10
5.900026764799918
 20
8.475136861199871
  0
LWPOLYLINE
  5
9C34
330
9BFE
100
AcDbEntity
  8
0
  6
SLD-実線
 62
     8
370
     0
100
AcDbPolyline
 90
        2
 70
     0
 43
0.0
 10
5.900026764799918
 20
8.475136861199871
 10
6.002154667199985
 20
8.475579239599937
  0
LWPOLYLINE
  5
9C35
330
9BFE
100
AcDbEntity
  8
0
  6
SLD-実線
 62
     8
370
     0
100
AcDbPolyline
 90
        2
 70
     0
 43
0.0
 10
-6.001723464400012
 20
8.51637768759997
 10
-6.001723464400012
 20
8.437381044399897
  0
LWPOLYLINE
  5
9C36
330
9BFE
100
AcDbEntity
  8
10
  6
CONTINOUS
100
AcDbPolyline
 90
        2
 70
     0
 43
0.0
 10
10.90743951519994
 20
22.43768136239999
 10
10.90744044642156
 20
-21.43768136184974
  0
LWPOLYLINE
  5
9C37
330
9BFE
100
AcDbEntity
  8
10
  6
CONTINOUS
100
AcDbPolyline
 90
        2
 70
     0
 43
0.0
 10
-10.90744044621328
 20
22.43768136221593
 10
-10.90744044621271
 20
-21.43768136184974
  0
LWPOLYLINE
  5
9C38
330
9BFE
100
AcDbEntity
  8
10
  6
CONTINOUS
100
AcDbPolyline
 90
        4
 70
     1
 43
0.0
 10
-7.437659893200134
 20
14.34999975599999
 10
7.437935182262775
 20
14.34999975599999
 10
7.437935182262775
 20
-12.64999999999872
 10
-7.437659893200134
 20
-12.64999999999872
  0
LWPOLYLINE
  5
9C39
330
9BFE
100
AcDbEntity
  8
10
  6
CONTINOUS
100
AcDbPolyline
 90
        4
 70
     1
 43
0.0
 10
-6.001745350400142
 20
11.71186371919998
 10
6.004114707199957
 20
11.71186371919998
 10
6.004114707199957
 20
8.475575366153407
 10
-6.001745350400142
 20
8.475575366153407
  0
LWPOLYLINE
  5
9C3A
330
9BFE
100
AcDbEntity
  8
0
  6
SLD-実線
 62
     8
370
     0
100
AcDbPolyline
 90
       30
 70
     0
 43
0.0
 10
-10.90744044621271
 20
-21.43768136184974
 10
-10.90681734048124
 20
-21.44851368217803
 10
-10.90614306316607
 20
-21.4593375766168
 10
-10.90536644268354
 20
-21.47014461927648
 10
-10.90443630745005
 20
-21.48092638426755
 10
-10.90330148588188
 20
-21.49167444570048
 10
-10.90191080639545
 20
-21.50238037768577
 10
-10.90021309740706
 20
-21.51303575433383
 10
-10.89816209512165
 20
-21.52363238698297
 10
-10.89575425291059
 20
-21.53416415179032
 10
-10.89300801946271
 20
-21.5446259881005
 10
-10.88994202526186
 20
-21.55501284404562
 10
-10.88657490079182
 20
-21.56531966775765
 10
-10.88292527653647
 20
-21.57554140736869
 10
-10.87901178297963
 20
-21.58567301101078
 10
-10.8748524624992
 20
-21.59570918324306
 10
-10.87045183220334
 20
-21.60563902693372
 10
-10.86580088457847
 20
-21.61544604352792
 10
-10.8608900241347
 20
-21.62511349095177
 10
-10.85570965538213
 20
-21.63462462713142
 10
-10.85025018283087
 20
-21.64396270999288
 10
-10.84450201099099
 20
-21.65311099746237
 10
-10.83845567916435
 20
-21.66205286982836
 10
-10.83211802913004
 20
-21.67078650658442
 10
-10.82552756056785
 20
-21.67933882590944
 10
-10.81872640989908
 20
-21.68774004737526
 10
-10.81175671354503
 20
-21.69602039055377
 10
-10.80466060792702
 20
-21.70421007501676
 10
-10.79748022946634
 20
-21.71233932033607
 10
-10.7902577145843
 20
-21.72043834608361
  0
LWPOLYLINE
  5
9C3B
330
9BFE
100
AcDbEntity
  8
10
  6
CONTINOUS
100
AcDbPolyline
 90
       18
 70
     0
 43
0.0
 10
10.90743951519994
 20
22.43768136239999
 10
10.89590796294217
 20
22.51604538835807
 10
10.87835509870785
 20
22.5816023972659
 10
10.85589410701823
 20
22.63569703126746
 10
10.82963817239456
 20
22.67967393250649
 10
10.80070047935817
 20
22.71487774312681
 10
10.77019421243028
 20
22.74265310527227
 10
10.73923255613218
 20
22.76434466108674
 10
10.70892869498516
 20
22.78129705271397
 10
10.68036690923549
 20
22.79483357500055
 10
10.65396682948142
 20
22.8057866447603
 10
10.62948351926127
 20
22.81449786177006
 10
10.60664315435591
 20
22.82128749070836
 10
10.58517191054616
 20
22.82647579625388
 10
10.56479596361299
 20
22.83038304308502
 10
10.5452414893372
 20
22.83332949588043
 10
10.52623466349968
 20
22.83563541931869
 10
10.50750166188129
 20
22.83762107807837
  0
LWPOLYLINE
  5
9C3C
330
9BFE
100
AcDbEntity
  8
10
  6
CONTINOUS
100
AcDbPolyline
 90
       42
 70
     0
 43
0.0
 10
-15.02618286748282
 20
24.12625859696118
 10
-15.02502280061816
 20
24.14539005230699
 10
-15.02369562425562
 20
24.16449207414661
 10
-15.02203422889735
 20
24.18353522897382
 10
-15.0198715050455
 20
24.20249008328244
 10
-15.01704034320218
 20
24.22132720356626
 10
-15.01337686245867
 20
24.24001727296934
 10
-15.00881526280059
 20
24.25853451833968
 10
-15.00340322978849
 20
24.27685726680659
 10
-14.99719477907675
 20
24.29496407420856
 10
-14.99024392631989
 20
24.31283349638392
 10
-14.98260468717237
 20
24.33044408917102
 10
-14.97432534193825
 20
24.34777353825223
 10
-14.96542441037655
 20
24.36479501409895
 10
-14.95591078899696
 20
24.38148022716223
 10
-14.94579336946278
 20
24.39780088715798
 10
-14.93508104343726
 20
24.41372870380184
 10
-14.92378270258365
 20
24.42923538680975
 10
-14.91190723856522
 20
24.44429264589746
 10
-14.89946354304521
 20
24.45887219078071
 10
-14.88646050768693
 20
24.47294573117535
 10
-14.87290743230795
 20
24.48648541693723
 10
-14.85882295319538
 20
24.49947346606189
 10
-14.84423501481569
 20
24.51190213417715
 10
-14.82917196413166
 20
24.52376411094951
 10
-14.81366214810606
 20
24.53505208604549
 10
-14.79773391370168
 20
24.54575874913161
 10
-14.78141560788128
 20
24.55587678987445
 10
-14.76473557760767
 20
24.56539889794056
 10
-14.7477221698436
 20
24.57431776299632
 10
-14.73040373056545
 20
24.58262606843908
 10
-14.71280678749426
 20
24.59030494095782
 10
-14.69495228407024
 20
24.59730001393234
 10
-14.67686009522433
 20
24.60355012936992
 10
-14.6585500958875
 20
24.60899412927785
 10
-14.64004216099073
 20
24.61357085566329
 10
-14.62135655810303
 20
24.61722779882967
 10
-14.60251924999099
 20
24.62003789222098
 10
-14.58356049340358
 20
24.6221686490793
 10
-14.56451065045965
 20
24.6237899035379
 10
-14.54540008327805
 20
24.62507148972993
 10
-14.52625915397766
 20
24.62618324178868
  0
LWPOLYLINE
  5
9C3D
330
9BFE
100
AcDbEntity
  8
10
  6
CONTINOUS
100
AcDbPolyline
 90
       42
 70
     0
 43
0.0
 10
14.52625915418514
 20
24.62618324178925
 10
14.54539059527772
 20
24.62502298975227
 10
14.56449260228834
 20
24.62369563242493
 10
14.58353574113516
 20
24.62203406451688
 10
14.60249057773632
 20
24.61987118073774
 10
14.62132767800989
 20
24.6170398757971
 10
14.64001772455981
 20
24.61337627281057
 10
14.65853494486785
 20
24.60881457286229
 10
14.6768576681103
 20
24.60340246073781
 10
14.69496445225616
 20
24.5971939513488
 10
14.71283385527434
 20
24.59024305960691
 10
14.7304444351339
 20
24.58260380042384
 10
14.74777387919263
 20
24.57432445239806
 10
14.7647953578016
 20
24.56542353231589
 10
14.78148058088797
 20
24.55590993447146
 10
14.79780125764429
 20
24.54579254831918
 10
14.8137290972632
 20
24.53508026331349
 10
14.82923580893734
 20
24.52378196890885
 10
14.84429310185928
 20
24.51190655455974
 10
14.85887268522162
 20
24.49946290972065
 10
14.87294626821702
 20
24.48645992384598
 10
14.88648600032297
 20
24.47290689474761
 10
14.89947409921512
 20
24.45882245833332
 10
14.91190281845445
 20
24.44423455863722
 10
14.9237648454243
 20
24.42917154205702
 10
14.93505286750798
 20
24.41366175499025
 10
14.94575957208875
 20
24.39773354383442
 10
14.95587764654991
 20
24.38141525498719
 10
14.96539977827481
 20
24.36473523484614
 10
14.97431865464671
 20
24.34772182980879
 10
14.98262695677112
 20
24.33040338528531
 10
14.99030580815687
 20
24.31280642883377
 10
14.99730084057597
 20
24.2949519056466
 10
15.00355089557982
 20
24.2768596929073
 10
15.00899481471981
 20
24.25854966779923
 10
15.01357143954743
 20
24.24004170750601
 10
15.01722825986286
 20
24.22135608173204
 10
15.02003821039685
 20
24.20251875379165
 10
15.02216880828519
 20
24.18355997984213
 10
15.02378989168923
 20
24.16451012138566
 10
15.02507129877048
 20
24.14539953992461
 10
15.02618286769029
 20
24.12625859696124
  0
LWPOLYLINE
  5
9C3E
330
9BFE
100
AcDbEntity
  8
10
  6
CONTINOUS
100
AcDbPolyline
 90
       42
 70
     0
 43
0.0
 10
15.02618286769075
 20
-21.72625911217483
 10
15.02502279302197
 20
-21.74539054425691
 10
15.02369561105752
 20
-21.76449254431259
 10
15.02203421450167
 20
-21.78353568031537
 10
15.01987149605873
 20
-21.8024905202389
 10
15.01704034843303
 20
-21.82132763205669
 10
15.01337689265023
 20
-21.84001770026498
 10
15.00881532495168
 20
-21.85853494927193
 10
15.00340332198632
 20
-21.87685769943067
 10
14.99719489033589
 20
-21.89496449956601
 10
14.990244036582
 20
-21.91283389850275
 10
14.98260476730633
 20
-21.93044444506558
 10
14.97432535622457
 20
-21.94777381984352
 10
14.96542432854627
 20
-21.9647951980495
 10
14.95591058985749
 20
-21.9814802980157
 10
14.94579304089817
 20
-21.99780083734038
 10
14.93508058240826
 20
-22.01372853362193
 10
14.92378211512778
 20
-22.02923510445868
 10
14.91190653979663
 20
-22.04429226744884
 10
14.89946275715479
 20
-22.05887174019074
 10
14.88645966794226
 20
-22.07294524028276
 10
14.87290658084194
 20
-22.08648492531597
 10
14.85882213342458
 20
-22.09947301468924
 10
14.84423426235736
 20
-22.11190175747714
 10
14.82917130629207
 20
-22.12376383632074
 10
14.81366160388049
 20
-22.13505193386106
 10
14.79773349377444
 20
-22.14575873273901
 10
14.78141531462575
 20
-22.15587691559574
 10
14.76473540508616
 20
-22.16539916507213
 10
14.74772210380755
 20
-22.17431816380923
 10
14.73040374845686
 20
-22.18262658817838
 10
14.7128068613477
 20
-22.19030555697401
 10
14.69495238941474
 20
-22.19730069294497
 10
14.67686021278464
 20
-22.2035508269305
 10
14.65855021158401
 20
-22.20899478976992
 10
14.64004226593948
 20
-22.21357141230254
 10
14.62135664842231
 20
-22.21722817441304
 10
14.60251932411421
 20
-22.22003801260314
 10
14.58356055011327
 20
-22.22216845465908
 10
14.56451068884274
 20
-22.22378934961444
 10
14.54540010272578
 20
-22.22507054650271
 10
14.52625915418557
 20
-22.22618189435735
  0
LWPOLYLINE
  5
9C3F
330
9BFE
100
AcDbEntity
  8
10
  6
CONTINOUS
100
AcDbPolyline
 90
       42
 70
     0
 43
0.0
 10
-14.52625915397732
 20
-22.22618189435764
 10
-14.5453906150266
 20
-22.22502204963632
 10
-14.56449264166065
 20
-22.22369508441892
 10
-14.5835357994641
 20
-22.22203387820923
 10
-14.60249065402166
 20
-22.21987131051117
 10
-14.62132777091801
 20
-22.21704026082853
 10
-14.64001783235841
 20
-22.21337683757707
 10
-14.65853506334272
 20
-22.20881523968813
 10
-14.67685778809658
 20
-22.20340316269682
 10
-14.69496455949524
 20
-22.19719463283764
 10
-14.71283393041406
 20
-22.19024367634535
 10
-14.73044445372832
 20
-22.18260431945458
 10
-14.74777381340215
 20
-22.17432485151829
 10
-14.76479518522271
 20
-22.1654237971926
 10
-14.78148028741123
 20
-22.15591005772933
 10
-14.79780083745581
 20
-22.14579252954019
 10
-14.81372855284456
 20
-22.13508010903695
 10
-14.82923515106563
 20
-22.1237816926315
 10
-14.84429234960714
 20
-22.1119061767356
 10
-14.85887186595721
 20
-22.09946245776098
 10
-14.87294541760397
 20
-22.08645943211946
 10
-14.88648516179066
 20
-22.0729064041156
 10
-14.89947331480187
 20
-22.0588220082675
 10
-14.91190212132235
 20
-22.04423418088629
 10
-14.92376425966375
 20
-22.02917126049141
 10
-14.93505240813772
 20
-22.01366158560228
 10
-14.94575924505588
 20
-21.99773349473844
 10
-14.95587744872989
 20
-21.98141532641938
 10
-14.96539969747135
 20
-21.96473541916446
 10
-14.97431866959189
 20
-21.94772211149325
 10
-14.98262703712549
 20
-21.93040374093914
 10
-14.99030591812996
 20
-21.91280683034722
 10
-14.99730095103103
 20
-21.89495233006699
 10
-15.00355098654515
 20
-21.87686012435808
 10
-15.00899487538868
 20
-21.85855009748002
 10
-15.01357146827803
 20
-21.84004213369246
 10
-15.01722826395789
 20
-21.82135650946566
 10
-15.02003820055455
 20
-21.80251919027307
 10
-15.02216879322338
 20
-21.78356043090349
 10
-15.02378987794631
 20
-21.76451059140112
 10
-15.02507129070537
 20
-21.74540003181016
 10
-15.02618286748247
 20
-21.72625911217489
  0
LWPOLYLINE
  5
9C40
330
9BFE
100
AcDbEntity
  8
10
  6
CONTINOUS
100
AcDbPolyline
 90
       61
 70
     0
 43
0.0
 10
-39.59999978531937
 20
-10.04650917630965
 10
-39.50233617927842
 20
-10.03479147462315
 10
-39.40560329781304
 20
-10.02017530965463
 10
-39.35787673022607
 20
-10.01087453366404
 10
-39.31073186549882
 20
-9.999762218122155
 10
-39.26428504420322
 20
-9.986476055118828
 10
-39.21865260691125
 20
-9.97065373674377
 10
-39.17394794417949
 20
-9.952021515527576
 10
-39.13027264680593
 20
-9.930659876675463
 10
-39.08772535572463
 20
-9.906737861289622
 10
-39.04640471186958
 20
-9.880424510472153
 10
-39.00640935617481
 20
-9.851888865325179
 10
-38.96783792957436
 20
-9.821299966950787
 10
-38.93078907300223
 20
-9.788826856451123
 10
-38.89536142739246
 20
-9.754638574928263
 10
-38.86164817611351
 20
-9.718887906453346
 10
-38.82972067169978
 20
-9.681662605269368
 10
-38.79964480883407
 20
-9.64303416773663
 10
-38.77148648219929
 20
-9.603074090215159
 10
-38.74531158647826
 20
-9.561853869065203
 10
-38.72118601635385
 20
-9.519445000646953
 10
-38.69917566650889
 20
-9.475918981320603
 10
-38.67934643162622
 20
-9.43134730744623
 10
-38.66175708143277
 20
-9.385809854272451
 10
-38.64643788587942
 20
-9.339420012544223
 10
-38.63341198998509
 20
-9.29229955186696
 10
-38.62270253876872
 20
-9.244570241845906
 10
-38.61433267724918
 20
-9.196353852086303
 10
-38.60832555044542
 20
-9.147772152193507
 10
-38.60470430337635
 20
-9.098946911772712
 10
-38.60349208106086
 20
-9.049999900429156
 10
-38.60470431372612
 20
-9.001052888006995
 10
-38.60832557188179
 20
-8.95222764530547
 10
-38.61433271097072
 20
-8.903645943362731
 10
-38.62270258643569
 20
-8.855429553216822
 10
-38.63341205371954
 20
-8.807700245905834
 10
-38.64643796826505
 20
-8.760579792467806
 10
-38.66175718551505
 20
-8.714189963940951
 10
-38.67934656091235
 20
-8.66865253136325
 10
-38.69917582430398
 20
-8.624080885719136
 10
-38.72118620369665
 20
-8.580554898417062
 10
-38.74531180177267
 20
-8.538146061130646
 10
-38.77148672121429
 20
-8.496925865533681
 10
-38.79964506470381
 20
-8.456965803299965
 10
-38.82972093492352
 20
-8.41833736610323
 10
-38.86164843455569
 20
-8.381112045617271
 10
-38.89536166628264
 20
-8.345361333515882
 10
-38.93078927600127
 20
-8.311172981919581
 10
-38.96783808349127
 20
-8.278699781684961
 10
-39.00640945225904
 20
-8.248110782589492
 10
-39.046404745811
 20
-8.219575034410636
 10
-39.08772532765353
 20
-8.193261586925812
 10
-39.130272561293
 20
-8.169339489912657
 10
-39.17394781023586
 20
-8.14797779314847
 10
-39.21865243798847
 20
-8.129345546410887
 10
-39.26428485711218
 20
-8.113523242230995
 10
-39.31073167595294
 20
-8.10023713109382
 10
-39.35787655169404
 20
-8.089124899707542
 10
-39.40560314151874
 20
-8.079824234780346
 10
-39.50233609215214
 20
-8.065208351135936
 10
-39.59999978531937
 20
-8.053490973826001
  0
LWPOLYLINE
  5
9C41
330
9BFE
100
AcDbEntity
  8
10
  6
CONTINOUS
100
AcDbPolyline
 90
       61
 70
     0
 43
0.0
 10
39.59999978552764
 20
-8.053490973825319
 10
39.50233609236054
 20
-8.065208351135197
 10
39.40560314172723
 20
-8.079824234779549
 10
39.35787655190253
 20
-8.089124899706746
 10
39.31073167616145
 20
-8.100237131092967
 10
39.26428485732068
 20
-8.113523242230144
 10
39.21865243819699
 20
-8.129345546410092
 10
39.17394781044432
 20
-8.147977793147731
 10
39.1302725615015
 20
-8.169339489911862
 10
39.08772532786199
 20
-8.193261586925075
 10
39.04640474601947
 20
-8.219575034409842
 10
39.00640945246752
 20
-8.248110782588696
 10
38.96783808369972
 20
-8.278699781684167
 10
38.93078927620972
 20
-8.311172981918787
 10
38.89536166649111
 20
-8.345361333514972
 10
38.86164843476413
 20
-8.381112045616362
 10
38.82972093513195
 20
-8.418337366102321
 10
38.79964506491221
 20
-8.456965803299056
 10
38.77148672142266
 20
-8.496925865532714
 10
38.74531180198104
 20
-8.53814606112968
 10
38.72118620390501
 20
-8.580554898416039
 10
38.69917582451235
 20
-8.624080885718115
 10
38.67934656112069
 20
-8.66865253136217
 10
38.66175718572343
 20
-8.714189963939871
 10
38.64643796847344
 20
-8.760579792466785
 10
38.63341205392794
 20
-8.807700245904754
 10
38.62270258664414
 20
-8.855429553215799
 10
38.61433271117917
 20
-8.903645943361764
 10
38.60832557209028
 20
-8.952227645304501
 10
38.60470431393461
 20
-9.001052888006029
 10
38.60349208126937
 20
-9.049999900428247
 10
38.60470430358486
 20
-9.098946911771747
 10
38.60832555065389
 20
-9.147772152192599
 10
38.61433267745764
 20
-9.196353852085394
 10
38.62270253897714
 20
-9.244570241844996
 10
38.63341199019348
 20
-9.292299551866051
 10
38.6464378860878
 20
-9.339420012543373
 10
38.6617570816411
 20
-9.385809854271542
 10
38.67934643183455
 20
-9.431347307445435
 10
38.6991756667172
 20
-9.475918981319804
 10
38.72118601656215
 20
-9.519445000646213
 10
38.74531158668654
 20
-9.561853869064464
 10
38.77148648240757
 20
-9.603074090214418
 10
38.79964480904236
 20
-9.643034167735892
 10
38.82972067190804
 20
-9.681662605268684
 10
38.86164817632179
 20
-9.718887906452607
 10
38.89536142760074
 20
-9.754638574927581
 10
38.93078907321049
 20
-9.788826856450382
 10
38.96783792978263
 20
-9.821299966949991
 10
39.0064093563831
 20
-9.851888865324383
 10
39.04640471207789
 20
-9.880424510471355
 10
39.08772535593293
 20
-9.906737861288831
 10
39.13027264701422
 20
-9.930659876674667
 10
39.17394794438778
 20
-9.952021515526725
 10
39.21865260711955
 20
-9.970653736742974
 10
39.26428504441154
 20
-9.986476055117977
 10
39.31073186570714
 20
-9.999762218121304
 10
39.35787673043441
 20
-10.01087453366312
 10
39.40560329802139
 20
-10.02017530965372
 10
39.50233617948676
 20
-10.03479147462224
 10
39.59999978552762
 20
-10.04650917630874
  0
LWPOLYLINE
  5
9C42
330
9BFE
100
AcDbEntity
  8
10
  6
CONTINOUS
100
AcDbPolyline
 90
       30
 70
     0
 43
0.0
 10
10.90744044642156
 20
-21.43768136184974
 10
10.90491467898985
 20
-21.45935181583263
 10
10.90219363435451
 20
-21.48095664378974
 10
10.89908203531183
 20
-21.50243021969527
 10
10.89538460465817
 20
-21.52370691752344
 10
10.89090606518985
 20
-21.54472111124841
 10
10.88545113970326
 20
-21.5654071748445
 10
10.87882455099469
 20
-21.58569948228575
 10
10.87085116002299
 20
-21.60553431324814
 10
10.86153110155155
 20
-21.62486453380484
 10
10.85095475652181
 20
-21.64365155014735
 10
10.83921325167614
 20
-21.66185683904314
 10
10.82639771375693
 20
-21.67944187725971
 10
10.81259926950645
 20
-21.69636814156468
 10
10.7979090456671
 20
-21.71259710872551
 10
10.78241707318585
 20
-21.7280891596456
 10
10.76618817758739
 20
-21.74277946822355
 10
10.74926197779138
 20
-21.75657800017035
 10
10.73167699668551
 20
-21.7693936250962
 10
10.71347175715749
 20
-21.78113521261139
 10
10.69468478209504
 20
-21.79171163232616
 10
10.67535459438588
 20
-21.80103175385074
 10
10.65551978749801
 20
-21.80900519261212
 10
10.63522749551882
 20
-21.81563181214796
 10
10.61454143990696
 20
-21.82108675355295
 10
10.59352724793459
 20
-21.82556529651555
 10
10.57225054687376
 20
-21.82926272072427
 10
10.55077696399664
 20
-21.83237430586752
 10
10.52917212657536
 20
-21.83509533163386
 10
10.50750166188197
 20
-21.83762107771167
  0
LWPOLYLINE
  5
9C43
330
9BFE
100
AcDbEntity
  8
10
  6
CONTINOUS
100
AcDbPolyline
 90
       30
 70
     0
 43
0.0
 10
-10.5075016616737
 20
22.83762107807831
 10
-10.52917211290918
 20
22.83509530171068
 10
-10.55077693964156
 20
22.83237424871948
 10
-10.57225051736788
 20
22.8292626424813
 10
-10.59352722158499
 20
22.82556520637257
 10
-10.6145414277899
 20
22.82108666376985
 10
-10.63522751147951
 20
22.8156317380496
 10
-10.65551984815082
 20
22.80900515258833
 10
-10.67535471837695
 20
22.80103176885763
 10
-10.69468498347794
 20
22.79171171935019
 10
-10.71347204189433
 20
22.78113538037309
 10
-10.73167736261544
 20
22.76939387398682
 10
-10.74926241463055
 20
22.75657832225193
 10
-10.76618866692897
 20
22.74277984722893
 10
-10.78241758850001
 20
22.72808957097828
 10
-10.79790955282115
 20
22.71259751997508
 10
-10.81259973555527
 20
22.69636852118401
 10
-10.82639811397124
 20
22.67944220148013
 10
-10.83921356971021
 20
22.66185709203705
 10
-10.85095498441333
 20
22.64365172402836
 10
-10.86153123972178
 20
22.62486462862768
 10
-10.87085121727668
 20
22.60553433700858
 10
-10.87882454449857
 20
22.58569945089312
 10
-10.88545109149908
 20
22.56540710868421
 10
-10.89090599494204
 20
22.5447210284612
 10
-10.89538452875376
 20
22.52370683322636
 10
-10.8990819668605
 20
22.50243014598203
 10
-10.90219358318847
 20
22.48095658973062
 10
-10.904914651664
 20
22.45935178747448
 10
-10.90744044621328
 20
22.43768136221587
  0
ENDBLK
  5
9C44
330
9BFE
100
AcDbEntity
  8
0
100
AcDbBlockEnd
  0
BLOCK
  5
9C66
330
9C4D
100
AcDbEntity
  8
0
100
AcDbBlockBegin
  2
A$C37787D9A
 70
     0
 10
0.0
 20
0.0
 30
0.0
  3
A$C37787D9A
  1

  0
LINE
  5
9C4E
330
9C4D
100
AcDbEntity
  8
10
  6
CONTINOUS
100
AcDbLine
 10
-2.0
 20
-19.20000000000004
 30
0.0
 11
-7.835235792091451
 21
-19.24528263327227
 31
0.0
  0
LINE
  5
9C4F
330
9C4D
100
AcDbEntity
  8
10
  6
CONTINOUS
100
AcDbLine
 10
-7.302727501200022
 20
22.83762028759998
 30
0.0
 11
-2.0
 21
22.93017974040004
 31
0.0
  0
LINE
  5
9C50
330
9C4D
100
AcDbEntity
  8
10
  6
CONTINOUS
100
AcDbLine
 10
-7.302721334000125
 20
-21.83762039480007
 30
0.0
 11
-2.0
 21
-21.93017973999997
 31
0.0
  0
LINE
  5
9C51
330
9C4D
100
AcDbEntity
  8
10
  6
CONTINOUS
100
AcDbLine
 10
-8.069541355730166
 20
-15.53235591842883
 30
0.0
 11
-2.049999959200249
 21
-15.5995636568
 31
0.0
  0
SPLINE
  5
9C52
330
9C4D
100
AcDbEntity
  8
10
  6
CONTINOUS
100
AcDbSpline
210
0.0
220
0.0
230
1.0
 70
     8
 71
     3
 72
    11
 73
     7
 74
     0
 42
0.000000001
 43
0.0000000001
 40
0.0
 40
0.0
 40
0.0
 40
0.0
 40
0.2500000000000094
 40
0.4999999999999905
 40
0.749999999999996
 40
1.0
 40
1.0
 40
1.0
 40
1.0
 10
-7.302727490332928
 20
-21.83762028745923
 30
0.0
 10
-7.352011672625848
 20
-21.83143385152562
 30
0.0
 10
-7.450580037212603
 20
-21.81906097965839
 30
0.0
 10
-7.576257749889464
 20
-21.73430905271596
 30
0.0
 10
-7.667891236099876
 20
-21.61355690661048
 30
0.0
 10
-7.685745584104552
 20
-21.51583263780878
 30
0.0
 10
-7.694672758106659
 20
-21.46697050340811
 30
0.0
  0
LINE
  5
9C53
330
9C4D
100
AcDbEntity
  8
10
  6
CONTINOUS
100
AcDbLine
 10
-2.0
 20
25.43017974040004
 30
0.0
 11
-2.0
 21
-24.33017974000006
 31
0.0
  0
LINE
  5
9C54
330
9C4D
100
AcDbEntity
  8
10
  6
CONTINOUS
100
AcDbLine
 10
0.0
 20
25.46508987039999
 30
0.0
 11
-2.0
 21
25.43017974040004
 31
0.0
  0
LINE
  5
9C55
330
9C4D
100
AcDbEntity
  8
10
  6
CONTINOUS
100
AcDbLine
 10
0.0
 20
-24.36508987000002
 30
0.0
 11
-2.0
 21
-24.33017974000006
 31
0.0
  0
LINE
  5
9C56
330
9C4D
100
AcDbEntity
  8
10
  6
CONTINOUS
100
AcDbLine
 10
-2.055530328399981
 20
-15.70000000000004
 30
0.0
 11
-8.059540785589772
 21
-15.70000000000004
 31
0.0
  0
LINE
  5
9C57
330
9C4D
100
AcDbEntity
  8
10
  6
CONTINOUS
100
AcDbLine
 10
-2.02708363360034
 20
-19.10000000000002
 30
0.0
 11
-7.844427617816562
 21
-19.10000000000002
 31
0.0
  0
SPLINE
  5
9C58
330
9C4D
100
AcDbEntity
  8
10
  6
CONTINOUS
100
AcDbSpline
210
0.0
220
0.0
230
1.0
 70
     8
 71
     3
 72
     9
 73
     5
 74
     0
 42
0.000000001
 43
0.0000000001
 40
0.0
 40
0.0
 40
0.0
 40
0.0
 40
0.5307938312772637
 40
0.9910671933770951
 40
0.9910671933770951
 40
0.9910671933770951
 40
0.9910671933770951
 10
-23.30386255404437
 20
9.324609705199916
 30
0.0
 10
-15.53551226832815
 20
8.234002414561928
 30
0.0
 10
-12.6071357124789
 20
7.931301712168476
 30
0.0
 10
-9.750735795484617
 20
7.222125559231585
 30
0.0
 10
-8.424456522773082
 20
6.891099478436387
 30
0.0
  0
LINE
  5
9C59
330
9C4D
100
AcDbEntity
  8
10
  6
CONTINOUS
100
AcDbLine
 10
-24.89581385204383
 20
11.72068903080003
 30
0.0
 11
-24.17592726204385
 21
14.99492101239991
 31
0.0
  0
LINE
  5
9C5A
330
9C4D
100
AcDbEntity
  8
10
  6
CONTINOUS
100
AcDbLine
 10
-21.72574926404422
 20
16.50228057399999
 30
0.0
 11
-8.199582744267218
 21
13.06088525410939
 31
0.0
  0
ARC
  5
9C5B
330
9C4D
100
AcDbEntity
  8
10
  6
CONTINOUS
100
AcDbCircle
 10
-22.94290474884428
 20
11.29131411720003
 30
0.0
 40
1.999554145593261
100
AcDbArc
 50
167.5999999998046
 51
259.5999999999035
  0
ARC
  5
9C5C
330
9C4D
100
AcDbEntity
  8
10
  6
CONTINOUS
100
AcDbCircle
 10
-22.2230181588443
 20
14.56554609879993
 30
0.0
 40
1.999554145593456
100
AcDbArc
 50
75.5999999998952
 51
167.5999999999049
  0
LINE
  5
9C5D
330
9C4D
100
AcDbEntity
  8
0
  6
SLD-実線
 62
     8
370
     0
100
AcDbLine
 10
-17.10388644600016
 20
8.396122475999957
 30
0.0
 11
-17.10383141520015
 21
8.396565094799937
 31
0.0
  0
LINE
  5
9C5E
330
9C4D
100
AcDbEntity
  8
0
  6
SLD-実線
 62
     8
370
     0
100
AcDbLine
 10
-21.72563838484439
 20
16.50271242119993
 30
0.0
 11
-21.72574926404422
 21
16.50228057399999
 31
0.0
  0
LINE
  5
9C5F
330
9C4D
100
AcDbEntity
  8
0
  6
SLD-実線
 62
     8
370
     0
100
AcDbLine
 10
-23.30394303924413
 20
9.324171175599984
 30
0.0
 11
-23.30386255404437
 21
9.324609705199916
 31
0.0
  0
LINE
  5
9C60
330
9C4D
100
AcDbEntity
  8
0
  6
SLD-実線
 62
     8
370
     0
100
AcDbLine
 10
-17.70295989760007
 20
8.475136915599932
 30
0.0
 11
-17.70290054400038
 21
8.47557908519991
 31
0.0
  0
LINE
  5
9C61
330
9C4D
100
AcDbEntity
  8
0
  6
SLD-実線
 62
     8
370
     0
100
AcDbLine
 10
-24.17636271564425
 20
14.99501675319993
 30
0.0
 11
-24.17592726204385
 21
14.99492101239991
 31
0.0
  0
LINE
  5
9C62
330
9C4D
100
AcDbEntity
  8
0
  6
SLD-実線
 62
     8
370
     0
100
AcDbLine
 10
-24.89624930564423
 20
11.72078477119987
 30
0.0
 11
-24.89581385204383
 21
11.72068903080003
 31
0.0
  0
LWPOLYLINE
  5
9C63
330
9C4D
100
AcDbEntity
  8
10
  6
CONTINOUS
100
AcDbPolyline
 90
       11
 70
     0
 43
0.0
 10
-2.0
 20
-21.93017973999997
 10
-7.302727490332928
 20
-21.83762028745923
 10
-7.570583709007562
 20
-21.72830901915592
 10
-7.694672758106659
 20
-21.46697050340811
 10
-8.059540785589772
 20
-15.70000000000004
 10
-8.085474515946316
 20
-15.26526114548278
 10
-8.424456522773082
 20
6.891099478436387
 10
-8.199582744267331
 20
13.06088525410939
 10
-7.694672758106659
 20
22.46697050376599
 10
-7.302727490332928
 20
22.83762028782598
 10
-2.0
 20
22.93017974040004
  0
ENDBLK
  5
9C67
330
9C4D
100
AcDbEntity
  8
0
100
AcDbBlockEnd
  0
BLOCK
  5
9F85
330
9F84
100
AcDbEntity
  8
0
100
AcDbBlockBegin
  2
*D44
 70
     1
 10
0.0
 20
0.0
 30
0.0
  3
*D44
  1

  0
LINE
  5
9F90
330
9F84
100
AcDbEntity
  8
0
 62
     0
440
 16777216
370
    -2
100
AcDbLine
 10
249.7881109446759
 20
820.6400850826657
 30
0.0
 11
258.8717241021222
 21
820.6400850826657
 31
0.0
  0
LINE
  5
9F91
330
9F84
100
AcDbEntity
  8
0
 62
     0
440
 16777216
370
    -2
100
AcDbLine
 10
230.5391026651678
 20
805.6400850826657
 30
0.0
 11
258.8717241021222
 21
805.6400850826657
 31
0.0
  0
LINE
  5
9F92
330
9F84
100
AcDbEntity
  8
0
 62
     0
440
 16777216
370
    -2
100
AcDbLine
 10
258.3717241021223
 20
818.6400850826656
 30
0.0
 11
258.3717241021223
 21
807.6400850826654
 31
0.0
  0
INSERT
  5
9F93
330
9F84
100
AcDbEntity
  8
0
 62
     0
440
 16777216
370
    -2
100
AcDbBlockReference
  2
_OPEN
 10
258.3717241021223
 20
820.6400850826657
 30
0.0
 41
2.0
 42
2.0
 43
2.0
 50
90.0
  0
INSERT
  5
9F94
330
9F84
100
AcDbEntity
  8
0
 62
     0
440
 16777216
370
    -2
100
AcDbBlockReference
  2
_OPEN
 10
258.3717241021223
 20
805.6400850826657
 30
0.0
 41
2.0
 42
2.0
 43
2.0
 50
270.0
  0
MTEXT
  5
9F95
330
9F84
100
AcDbEntity
  8
0
 62
     0
440
 16777216
100
AcDbMText
 10
252.8717241021221
 20
813.1400850826656
 30
0.0
 40
7.0
 41
0.0
 46
0.0
 71
     5
 72
     1
  1
\A1;15
 11
0.0000000000000001
 21
1.0
 31
0.0
 73
     1
 44
1.0
  0
POINT
  5
9F96
330
9F84
100
AcDbEntity
  8
Defpoints
 62
     0
440
 16777216
100
AcDbPoint
 10
248.7881109446759
 20
820.6400850826657
 30
0.0
  0
POINT
  5
9F97
330
9F84
100
AcDbEntity
  8
Defpoints
 62
     0
440
 16777216
100
AcDbPoint
 10
229.5391026651678
 20
805.6400850826657
 30
0.0
  0
POINT
  5
9F98
330
9F84
100
AcDbEntity
  8
Defpoints
 62
     0
440
 16777216
100
AcDbPoint
 10
258.3717241021223
 20
805.6400850826657
 30
0.0
  0
ENDBLK
  5
9F86
330
9F84
100
AcDbEntity
  8
0
100
AcDbBlockEnd
  0
ENDSEC
  0
SECTION
  2
ENTITIES
  0
LWPOLYLINE
  5
8A6A
330
1F
100
AcDbEntity
  8
10
  6
Continuous
100
AcDbPolyline
 90
        4
 70
     1
 43
0.0
 10
0.0
 20
891.0
 10
629.9999999999998
 20
891.0
 10
629.9999999999998
 20
0.0
 10
0.0
 20
0.0
  0
MTEXT
  5
91C1
330
1F
100
AcDbEntity
  8
19
  6
Continuous
100
AcDbMText
 10
390.1717892766046
 20
789.2124772215558
 30
0.0
 40
9.0
 41
216.6946499535022
 46
0.0
 71
     1
 72
     5
  1
PS125-NF (60-125A) 4P FP\PPS50-PF (60-125A) 4P FP\PPS125-PF (60-125A) 4P FP\PPS125-NE (60-125A) 4P FP\PPS125-PE (60-125A) 4P FP
  7
STANDARD1
 73
     1
 44
1.0
  0
LINE
  5
94A0
330
1F
100
AcDbEntity
  8
16
  6
SLD-鎖線
370
     0
100
AcDbLine
 10
163.5859417895668
 20
613.4250367151944
 30
0.0
 11
163.5859417895668
 21
828.3164228857481
 31
0.0
  0
LINE
  5
94A1
330
1F
100
AcDbEntity
  8
0
  6
SLD-実線
 62
     7
370
    30
100
AcDbLine
 10
124.9824497083667
 20
647.145564265701
 30
0.0
 11
124.9824273567668
 21
647.1443051173007
 31
0.0
  0
CIRCLE
  5
94A2
330
1F
100
AcDbEntity
  8
10
  6
CONTINOUS
100
AcDbCircle
 10
125.0859417895668
 20
656.6455611661007
 30
0.0
 40
2.399999999999977
  0
CIRCLE
  5
94A3
330
1F
100
AcDbEntity
  8
10
  6
CONTINOUS
100
AcDbCircle
 10
202.0859417895668
 20
656.6455611661007
 30
0.0
 40
2.399999999999977
  0
CIRCLE
  5
94A4
330
1F
100
AcDbEntity
  8
10
  6
CONTINOUS
100
AcDbCircle
 10
196.5859417895668
 20
656.6455611661007
 30
0.0
 40
2.399999999999977
  0
CIRCLE
  5
94A5
330
1F
100
AcDbEntity
  8
10
  6
CONTINOUS
100
AcDbCircle
 10
130.5859417895668
 20
656.6455611661007
 30
0.0
 40
2.399999999999863
  0
LWPOLYLINE
  5
94A6
330
1F
100
AcDbEntity
  8
24
  6
CONTINOUS
100
AcDbPolyline
 90
        6
 70
     0
 43
0.0
 10
146.5859408659668
 20
721.745561173301
 10
146.5859408659668
 20
725.315561115701
 10
147.0859418791667
 20
725.8155611977008
 10
150.0859414395668
 20
725.8155611977008
 10
150.5859415215668
 20
725.315561115701
 10
150.5859415215668
 20
721.745561173301
  0
ARC
  5
94B2
330
1F
100
AcDbEntity
  8
24
  6
CONTINOUS
100
AcDbCircle
 10
150.5652569143577
 20
734.4349293310317
 30
0.0
 40
7.322967530982105
100
AcDbArc
 50
359.3007573680306
 51
36.24164990807603
  0
ARC
  5
94B3
330
1F
100
AcDbEntity
  8
24
  6
CONTINOUS
100
AcDbCircle
 10
176.6058147960278
 20
734.4353466240919
 30
0.0
 40
7.322066034963969
100
AcDbArc
 50
143.7572279264272
 51
180.7025943248122
  0
LINE
  5
94B4
330
1F
100
AcDbEntity
  8
24
  6
CONTINOUS
100
AcDbLine
 10
156.4714554863667
 20
738.7642102017007
 30
0.0
 11
155.3265829739669
 21
740.3244772629006
 31
0.0
  0
LINE
  5
94B5
330
1F
100
AcDbEntity
  8
24
  6
CONTINOUS
100
AcDbLine
 10
171.8453006055668
 20
740.3244772629006
 30
0.0
 11
170.7004280927667
 21
738.7642102017007
 31
0.0
  0
ARC
  5
94B6
330
1F
100
AcDbEntity
  8
24
  6
CONTINOUS
100
AcDbCircle
 10
156.7825882079668
 20
741.3149671017007
 30
0.0
 40
1.756269579941686
100
AcDbArc
 50
173.9994519955006
 51
214.0510857583008
  0
SPLINE
  5
94B7
330
1F
100
AcDbEntity
  8
24
  6
CONTINOUS
100
AcDbSpline
210
0.0
220
0.0
230
1.0
 70
     8
 71
     3
 72
    17
 73
    13
 74
     0
 42
0.000000001
 43
0.0000000001
 40
0.0
 40
0.0
 40
0.0
 40
0.0
 40
0.4568458165979526
 40
0.6045104364765149
 40
0.6571052795533621
 40
0.6993807138312427
 40
0.7351086934353562
 40
0.7685357788800653
 40
0.8032689738584441
 40
0.8413434014159244
 40
0.9286060915954696
 40
1.0
 40
1.0
 40
1.0
 40
1.0
 10
172.1359421666703
 20
741.4985639676904
 30
0.0
 10
172.1356721026836
 20
741.4073340977572
 30
0.0
 10
172.1353147468919
 20
741.2866163271451
 30
0.0
 10
172.1364683103952
 20
741.1836536532921
 30
0.0
 10
172.1323008267035
 20
741.1022093403442
 30
0.0
 10
172.1259740147216
 20
741.0368352228092
 30
0.0
 10
172.1141884176139
 20
740.9578592469763
 30
0.0
 10
172.0952499652099
 20
740.8675720844946
 30
0.0
 10
172.0687033027907
 20
740.7711389763057
 30
0.0
 10
172.02019877938
 20
740.6323513741347
 30
0.0
 10
171.9493279698184
 20
740.4777051046636
 30
0.0
 10
171.8769819997103
 20
740.376955138071
 30
0.0
 10
171.8444270249448
 20
740.3316186443421
 30
0.0
  0
LWPOLYLINE
  5
94B8
330
1F
100
AcDbEntity
  8
24
  6
CONTINOUS
100
AcDbPolyline
 90
        4
 70
     0
 43
0.0
 10
185.5813255450428
 20
721.745561173301
 10
185.8012578619667
 20
734.3455614225007
 10
201.3706262391667
 20
734.3455614225007
 10
201.5905585557594
 20
721.745561173301
  0
LWPOLYLINE
  5
94B9
330
1F
100
AcDbEntity
  8
24
  6
CONTINOUS
100
AcDbPolyline
 90
        4
 70
     0
 43
0.0
 10
125.5359421651668
 20
719.1455611661007
 10
125.8012573403668
 20
734.3455614225007
 10
141.3706257175666
 20
734.3455614225007
 10
141.6359408927666
 20
719.1455611661007
  0
LWPOLYLINE
  5
94BA
330
1F
100
AcDbEntity
  8
24
  6
CONTINOUS
100
AcDbPolyline
 90
        4
 70
     0
 43
0.0
 10
155.5813248435668
 20
721.745561173301
 10
155.8012589979668
 20
734.3455614225007
 10
171.3706245811667
 20
734.3455614225007
 10
171.5905587355668
 20
721.745561173301
  0
LWPOLYLINE
  5
94BB
330
1F
100
AcDbEntity
  8
10
  6
CONTINOUS
100
AcDbPolyline
 90
        4
 70
     0
 43
0.0
 10
170.0859421397691
 20
640.9339034633009
 10
170.0859417895668
 20
625.6780561357007
 42
-0.4129361512865498
 10
169.5881234442179
 20
625.1780608953406
 10
157.5841964391667
 20
625.2191612201007
  0
LINE
  5
94BC
330
1F
100
AcDbEntity
  8
10
  6
CONTINOUS
100
AcDbLine
 10
141.5905580344906
 20
721.7455611733007
 30
0.0
 11
215.5813248435668
 21
721.745561173301
 31
0.0
  0
LINE
  5
94BD
330
1F
100
AcDbEntity
  8
10
  6
CONTINOUS
100
AcDbLine
 10
106.0859407467668
 20
721.745561173301
 30
0.0
 11
108.0859410743668
 21
721.745561173301
 31
0.0
  0
LINE
  5
94BE
330
1F
100
AcDbEntity
  8
10
  6
CONTINOUS
100
AcDbLine
 10
108.0859410743668
 20
721.745561173301
 30
0.0
 11
125.5813236515668
 21
721.745561173301
 31
0.0
  0
LINE
  5
94BF
330
1F
100
AcDbEntity
  8
10
  6
CONTINOUS
100
AcDbLine
 10
237.8359417971668
 20
670.0955616013009
 30
0.0
 11
118.9997218832419
 21
670.0955616013009
 31
0.0
  0
LWPOLYLINE
  5
94C0
330
1F
100
AcDbEntity
  8
10
  6
CONTINOUS
100
AcDbPolyline
 90
        6
 70
     0
 43
0.0
 10
152.5859418491667
 20
647.145564265701
 10
152.6584257970676
 20
641.7232103254682
 42
0.4103039084504604
 10
153.4583543293774
 20
640.9339034633009
 10
173.7179424627755
 20
640.9339034633009
 42
0.410541630299924
 10
174.5178794323215
 20
641.7238613144394
 10
174.5859417299667
 20
647.145564265701
  0
LINE
  5
94C2
330
1F
100
AcDbEntity
  8
10
  6
CONTINOUS
100
AcDbLine
 10
187.9054340699667
 20
706.4686096909007
 30
0.0
 11
179.5359417031668
 21
706.4686096909007
 31
0.0
  0
LINE
  5
94C3
330
1F
100
AcDbEntity
  8
10
  6
CONTINOUS
100
AcDbLine
 10
208.1445525917766
 20
706.4686096909007
 30
0.0
 11
187.9054340699667
 21
706.4686096909007
 31
0.0
  0
LINE
  5
94C8
330
1F
100
AcDbEntity
  8
10
  6
CONTINOUS
100
AcDbLine
 10
147.6359418759668
 20
706.4686096909007
 30
0.0
 11
139.2664495091667
 21
706.4686096909007
 31
0.0
  0
LINE
  5
94C9
330
1F
100
AcDbEntity
  8
10
  6
CONTINOUS
100
AcDbLine
 10
146.4743069539669
 20
680.8839277997008
 30
0.0
 11
146.4272341859668
 21
670.0955616013009
 31
0.0
  0
LINE
  5
94CA
330
1F
100
AcDbEntity
  8
10
  6
CONTINOUS
100
AcDbLine
 10
147.5289086979668
 20
681.9385276809007
 30
0.0
 11
146.4743069539669
 21
680.8839277997008
 31
0.0
  0
LINE
  5
94CD
330
1F
100
AcDbEntity
  8
10
  6
CONTINOUS
100
AcDbLine
 10
180.6975766251668
 20
680.8839277997008
 30
0.0
 11
179.6429748815668
 21
681.9385276809007
 31
0.0
  0
LINE
  5
94CE
330
1F
100
AcDbEntity
  8
10
  6
CONTINOUS
100
AcDbLine
 10
180.7446493935667
 20
670.0955616013009
 30
0.0
 11
180.6975766251668
 21
680.8839277997008
 31
0.0
  0
LINE
  5
94D1
330
1F
100
AcDbEntity
  8
10
  6
CONTINOUS
100
AcDbLine
 10
150.6975763643668
 20
680.8839277997008
 30
0.0
 11
149.6429755519667
 21
681.9385276809007
 31
0.0
  0
LINE
  5
94D2
330
1F
100
AcDbEntity
  8
10
  6
CONTINOUS
100
AcDbLine
 10
150.7446500639669
 20
670.0955616013009
 30
0.0
 11
150.6975763643668
 21
680.8839277997008
 31
0.0
  0
LINE
  5
94D3
330
1F
100
AcDbEntity
  8
10
  6
CONTINOUS
100
AcDbLine
 10
176.4743072147668
 20
680.8839277997008
 30
0.0
 11
176.4272335151668
 21
670.0955616013009
 31
0.0
  0
LINE
  5
94D4
330
1F
100
AcDbEntity
  8
10
  6
CONTINOUS
100
AcDbLine
 10
177.5289080271668
 20
681.9385276809007
 30
0.0
 11
176.4743072147668
 21
680.8839277997008
 31
0.0
  0
LINE
  5
94D5
330
1F
100
AcDbEntity
  8
10
  6
CONTINOUS
100
AcDbLine
 10
235.9027247781618
 20
711.1323276237007
 30
0.0
 11
237.8432605017967
 21
709.5036839319036
 31
0.0
  0
LINE
  5
94D6
330
1F
100
AcDbEntity
  8
10
  6
CONTINOUS
100
AcDbLine
 10
235.7241231853618
 20
711.5131677761008
 30
0.0
 11
235.6929946597617
 21
718.647742823701
 31
0.0
  0
SPLINE
  5
94D7
330
1F
100
AcDbEntity
  8
10
  6
CONTINOUS
100
AcDbSpline
210
0.0
220
0.0
230
1.0
 70
     8
 71
     3
 72
    11
 73
     7
 74
     0
 42
0.000000001
 43
0.0000000001
 40
0.0
 40
0.0
 40
0.0
 40
0.0
 40
0.2500006708655172
 40
0.4999998424741214
 40
0.7499982410954682
 40
1.0
 40
1.0
 40
1.0
 40
1.0
 10
235.6929946597929
 20
718.6477428237426
 30
0.0
 10
235.6852351169441
 20
718.7130459147673
 30
0.0
 10
235.6697160777804
 20
718.8436517051923
 30
0.0
 10
235.5539872411929
 20
719.0081289176061
 30
0.0
 10
235.3890072888825
 20
719.1231420568524
 30
0.0
 10
235.2583343035625
 20
719.1380880962372
 30
0.0
 10
235.1929973718041
 20
719.1455611661528
 30
0.0
  0
LINE
  5
94D8
330
1F
100
AcDbEntity
  8
10
  6
CONTINOUS
100
AcDbLine
 10
179.3359420431668
 20
681.4497286157009
 30
0.0
 11
177.8359417971668
 21
681.4497286157009
 31
0.0
  0
LINE
  5
94D9
330
1F
100
AcDbEntity
  8
10
  6
CONTINOUS
100
AcDbLine
 10
179.3359420431668
 20
681.4497286157009
 30
0.0
 11
179.3359420431668
 21
706.4686096909007
 31
0.0
  0
LINE
  5
94DA
330
1F
100
AcDbEntity
  8
10
  6
CONTINOUS
100
AcDbLine
 10
177.8359417971668
 20
681.4497286157009
 30
0.0
 11
177.8359417971668
 21
706.4686096909007
 31
0.0
  0
LINE
  5
94DB
330
1F
100
AcDbEntity
  8
10
  6
CONTINOUS
100
AcDbLine
 10
149.3359417823668
 20
681.4497286157009
 30
0.0
 11
147.8359415363668
 21
681.4497286157009
 31
0.0
  0
LINE
  5
94DC
330
1F
100
AcDbEntity
  8
10
  6
CONTINOUS
100
AcDbLine
 10
147.8359415363668
 20
681.4497286157009
 30
0.0
 11
147.8359415363668
 21
706.4686096909007
 31
0.0
  0
LINE
  5
94DD
330
1F
100
AcDbEntity
  8
10
  6
CONTINOUS
100
AcDbLine
 10
149.3359417823668
 20
681.4497286157009
 30
0.0
 11
149.3359417823668
 21
706.4686096909007
 31
0.0
  0
LINE
  5
94DE
330
1F
100
AcDbEntity
  8
10
  6
CONTINOUS
100
AcDbLine
 10
147.8359415363668
 20
706.4686096909007
 30
0.0
 11
147.8359415363668
 21
719.1455611661007
 31
0.0
  0
LINE
  5
94DF
330
1F
100
AcDbEntity
  8
10
  6
CONTINOUS
100
AcDbLine
 10
149.3359417823668
 20
706.4686096909007
 30
0.0
 11
149.3359417823668
 21
719.1455611661007
 31
0.0
  0
LINE
  5
94E0
330
1F
100
AcDbEntity
  8
10
  6
CONTINOUS
100
AcDbLine
 10
177.8359417971668
 20
706.4686096909007
 30
0.0
 11
177.8359417971668
 21
719.1455611661007
 31
0.0
  0
LINE
  5
94E1
330
1F
100
AcDbEntity
  8
10
  6
CONTINOUS
100
AcDbLine
 10
179.3359420431668
 20
706.4686096909007
 30
0.0
 11
179.3359420431668
 21
719.1455611661007
 31
0.0
  0
LINE
  5
94E2
330
1F
100
AcDbEntity
  8
10
  6
CONTINOUS
100
AcDbLine
 10
179.3359420431668
 20
680.4274270013007
 30
0.0
 11
177.8359417971668
 21
680.4274270013007
 31
0.0
  0
LINE
  5
94E3
330
1F
100
AcDbEntity
  8
10
  6
CONTINOUS
100
AcDbLine
 10
177.8359417971668
 20
680.4274270013007
 30
0.0
 11
177.8359417971668
 21
681.4497286157009
 31
0.0
  0
LINE
  5
94E4
330
1F
100
AcDbEntity
  8
10
  6
CONTINOUS
100
AcDbLine
 10
179.3359420431668
 20
680.4274270013007
 30
0.0
 11
179.3359420431668
 21
681.4497286157009
 31
0.0
  0
LINE
  5
94E5
330
1F
100
AcDbEntity
  8
10
  6
CONTINOUS
100
AcDbLine
 10
149.3359417823668
 20
680.4274270013007
 30
0.0
 11
147.8359415363668
 21
680.4274270013007
 31
0.0
  0
LINE
  5
94E6
330
1F
100
AcDbEntity
  8
10
  6
CONTINOUS
100
AcDbLine
 10
147.8359415363668
 20
680.4274270013007
 30
0.0
 11
147.8359415363668
 21
681.4497286157009
 31
0.0
  0
LINE
  5
94E7
330
1F
100
AcDbEntity
  8
10
  6
CONTINOUS
100
AcDbLine
 10
149.3359417823668
 20
680.4274270013007
 30
0.0
 11
149.3359417823668
 21
681.4497286157009
 31
0.0
  0
SPLINE
  5
94E8
330
1F
100
AcDbEntity
  8
10
  6
CONTINOUS
100
AcDbSpline
210
0.0
220
0.0
230
1.0
 70
     8
 71
     3
 72
     9
 73
     5
 74
     0
 42
0.000000001
 43
0.0000000001
 40
0.0
 40
0.0
 40
0.0
 40
0.0
 40
0.4574472827388937
 40
1.0
 40
1.0
 40
1.0
 40
1.0
 10
235.724123185527
 20
711.5131677762126
 30
0.0
 10
235.7319474513634
 20
711.4519686968398
 30
0.0
 10
235.7490516426689
 20
711.3181848015536
 30
0.0
 10
235.8008182903749
 20
711.2474504014511
 30
0.0
 10
235.9027247782356
 20
711.1323276235849
 30
0.0
  0
LINE
  5
94E9
330
1F
100
AcDbEntity
  8
10
  6
CONTINOUS
100
AcDbLine
 10
208.1770575948096
 20
663.6455604509009
 30
0.0
 11
208.1349301021719
 21
719.1455611661007
 31
0.0
  0
CIRCLE
  5
94EA
330
1F
100
AcDbEntity
  8
10
  6
CONTINOUS
100
AcDbCircle
 10
125.0859417895668
 20
656.6455611661007
 30
0.0
 40
0.7250000000000229
  0
CIRCLE
  5
94EB
330
1F
100
AcDbEntity
  8
10
  6
CONTINOUS
100
AcDbCircle
 10
202.0859417895668
 20
656.6455611661007
 30
0.0
 40
0.7250000000000229
  0
CIRCLE
  5
94EC
330
1F
100
AcDbEntity
  8
10
  6
CONTINOUS
100
AcDbCircle
 10
196.5859417895668
 20
656.6455611661007
 30
0.0
 40
0.7250000000000229
  0
CIRCLE
  5
94ED
330
1F
100
AcDbEntity
  8
10
  6
CONTINOUS
100
AcDbCircle
 10
130.5859417895668
 20
656.6455611661007
 30
0.0
 40
0.7249999999999092
  0
LINE
  5
94EE
330
1F
100
AcDbEntity
  8
10
  6
CONTINOUS
100
AcDbLine
 10
102.4859417895669
 20
723.5455611661009
 30
0.0
 11
102.4859431367669
 21
663.6455604509009
 31
0.0
  0
LINE
  5
94EF
330
1F
100
AcDbEntity
  8
10
  6
CONTINOUS
100
AcDbLine
 10
104.0859404187667
 20
663.6455604509009
 30
0.0
 11
104.0859417895668
 21
723.5455611661009
 31
0.0
  0
ARC
  5
94F0
330
1F
100
AcDbEntity
  8
10
  6
CONTINOUS
100
AcDbCircle
 10
104.2859417895669
 20
723.5455611661009
 30
0.0
 40
0.1999999999999888
100
AcDbArc
 50
90.0
 51
180.0
  0
ARC
  5
94F1
330
1F
100
AcDbEntity
  8
10
  6
CONTINOUS
100
AcDbCircle
 10
104.2859417895669
 20
723.5455611661009
 30
0.0
 40
1.799999999999954
100
AcDbArc
 50
90.0
 51
180.0
  0
LINE
  5
94F2
330
1F
100
AcDbEntity
  8
10
  6
CONTINOUS
100
AcDbLine
 10
125.6441618483667
 20
725.3455613441007
 30
0.0
 11
104.2859400791667
 21
725.3455613441007
 31
0.0
  0
LINE
  5
94F3
330
1F
100
AcDbEntity
  8
10
  6
CONTINOUS
100
AcDbLine
 10
125.6162333471668
 20
723.745561268101
 30
0.0
 11
104.2859400791667
 21
723.745561268101
 31
0.0
  0
LINE
  5
94F4
330
1F
100
AcDbEntity
  8
10
  6
CONTINOUS
100
AcDbLine
 10
106.0859407467668
 20
723.745561268101
 30
0.0
 11
125.6162333471668
 21
723.745561268101
 31
0.0
  0
LINE
  5
94F5
330
1F
100
AcDbEntity
  8
10
  6
CONTINOUS
100
AcDbLine
 10
106.0859407467668
 20
719.1455611661007
 30
0.0
 11
106.0859407467668
 21
723.745561268101
 31
0.0
  0
LINE
  5
94F6
330
1F
100
AcDbEntity
  8
24
  6
CONTINOUS
100
AcDbLine
 10
146.5859408659668
 20
725.315561115701
 30
0.0
 11
150.5859415215668
 21
725.315561115701
 31
0.0
  0
LINE
  5
94F7
330
1F
100
AcDbEntity
  8
24
  6
CONTINOUS
100
AcDbLine
 10
201.4359417539668
 20
741.8455617205007
 30
0.0
 11
185.7359423471667
 21
741.8455617205007
 31
0.0
  0
LINE
  5
94F8
330
1F
100
AcDbEntity
  8
24
  6
CONTINOUS
100
AcDbLine
 10
197.8359404187667
 20
758.3455616309008
 30
0.0
 11
197.8359404187667
 21
754.3455609753009
 31
0.0
  0
ARC
  5
94F9
330
1F
100
AcDbEntity
  8
24
  6
CONTINOUS
100
AcDbCircle
 10
193.5859417895668
 20
754.3455611661007
 30
0.0
 40
4.25
100
AcDbArc
 50
180.0
 51
0.0
  0
LINE
  5
94FA
330
1F
100
AcDbEntity
  8
24
  6
CONTINOUS
100
AcDbLine
 10
189.3359418195668
 20
754.3455609753009
 30
0.0
 11
189.3359418195668
 21
758.3455616309008
 31
0.0
  0
ARC
  5
94FB
330
1F
100
AcDbEntity
  8
24
  6
CONTINOUS
100
AcDbCircle
 10
193.5859417895668
 20
758.3455611661007
 30
0.0
 40
4.25
100
AcDbArc
 50
0.0
 51
180.0
  0
LINE
  5
94FC
330
1F
100
AcDbEntity
  8
24
  6
CONTINOUS
100
AcDbLine
 10
141.4359412323668
 20
741.8455617205007
 30
0.0
 11
125.7359418255667
 21
741.8455617205007
 31
0.0
  0
LINE
  5
94FD
330
1F
100
AcDbEntity
  8
24
  6
CONTINOUS
100
AcDbLine
 10
141.4359412323668
 20
741.8588926717009
 30
0.0
 11
141.4359412323675
 21
740.3365509286975
 31
0.0
  0
LINE
  5
94FE
330
1F
100
AcDbEntity
  8
24
  6
CONTINOUS
100
AcDbLine
 10
125.7359418255667
 20
740.6526026949007
 30
0.0
 11
125.7359418255667
 21
741.8588926717009
 31
0.0
  0
LWPOLYLINE
  5
9504
330
1F
100
AcDbEntity
  8
24
  6
CONTINOUS
100
AcDbPolyline
 90
        4
 70
     0
 43
0.0
 10
155.0359414126715
 20
741.4985621050452
 10
155.0359414127667
 20
782.4455598073009
 10
172.1359421667669
 20
782.4455598073009
 10
172.1359421667669
 20
741.1963061015573
  0
LINE
  5
9505
330
1F
100
AcDbEntity
  8
24
  6
CONTINOUS
100
AcDbLine
 10
167.8359420207667
 20
807.9209742658179
 30
0.0
 11
167.8359420207667
 21
803.9209736102177
 31
0.0
  0
ARC
  5
9506
330
1F
100
AcDbEntity
  8
24
  6
CONTINOUS
100
AcDbCircle
 10
163.5859417895668
 20
803.9209767810177
 30
0.0
 40
4.250000000000111
100
AcDbArc
 50
180.0
 51
0.0
  0
LINE
  5
9507
330
1F
100
AcDbEntity
  8
24
  6
CONTINOUS
100
AcDbLine
 10
159.3359415587668
 20
803.9209736102177
 30
0.0
 11
159.3359415587668
 21
807.9209742658179
 31
0.0
  0
ARC
  5
9508
330
1F
100
AcDbEntity
  8
24
  6
CONTINOUS
100
AcDbCircle
 10
163.5859417895668
 20
807.9209767810178
 30
0.0
 40
4.250000000000111
100
AcDbArc
 50
0.0
 51
180.0
  0
LWPOLYLINE
  5
9509
330
1F
100
AcDbEntity
  8
24
  6
CONTINOUS
100
AcDbPolyline
 90
        6
 70
     0
 43
0.0
 10
155.7359420863668
 20
782.4455598073009
 10
155.7359420863668
 20
819.2962580993006
 42
-0.3057346189780497
 10
156.0474801975678
 20
819.7565326170147
 42
-0.1172059384902747
 10
171.1244033817648
 20
819.7565326169673
 42
-0.3057346188780048
 10
171.4359414929848
 20
819.2962580994786
 10
171.4359414931668
 20
782.4455598073009
  0
LWPOLYLINE
  5
9515
330
1F
100
AcDbEntity
  8
10
  6
CONTINOUS
100
AcDbPolyline
 90
        3
 70
     0
 43
0.0
 10
157.0859414392118
 20
640.9339034633009
 10
157.0859417895666
 20
625.7191570921007
 42
0.4131915413381155
 10
157.5841964638592
 20
625.2191601382717
  0
LINE
  5
9516
330
1F
100
AcDbEntity
  8
24
  6
CONTINOUS
100
AcDbLine
 10
157.8859416935668
 20
734.4455612525011
 30
0.0
 11
169.2837487610638
 21
734.4353466240919
 31
0.0
  0
LINE
  5
9517
330
1F
100
AcDbEntity
  8
0
  6
SLD-実線
 62
     8
370
     0
100
AcDbLine
 10
169.4859420115668
 20
626.816573150501
 30
0.0
 11
169.5881234647667
 21
626.8166551069008
 31
0.0
  0
LINE
  5
9518
330
1F
100
AcDbEntity
  8
18
100
AcDbLine
 10
68.79057931596685
 20
664.1455611661007
 30
0.0
 11
287.1221221395847
 21
664.1455611661007
 31
0.0
  0
LINE
  5
9519
330
1F
100
AcDbEntity
  8
18
100
AcDbLine
 10
68.79057931596685
 20
668.1455611661007
 30
0.0
 11
287.1221221395847
 21
668.1455611661007
 31
0.0
  0
DIMENSION
  5
951A
330
1F
100
AcDbEntity
  8
30
  6
Continuous
100
AcDbDimension
280
     0
  2
*D34
 10
163.5859417895668
 20
849.3455817817007
 30
0.0
 11
148.5859417895668
 21
849.3455817817007
 31
0.0
 70
   160
  1
<>
 71
     2
 42
30.0
 73
     0
 74
     0
 75
     0
  3
STANDARD
100
AcDbAlignedDimension
 13
133.5859417895668
 23
761.0955611661007
 33
0.0
 14
163.5859417895668
 24
811.0955611661008
 34
0.0
100
AcDbRotatedDimension
1001
ACAD
1000
DSTYLE
1002
{
1070
    79
1070
     3
1002
}
  0
LINE
  5
951B
330
1F
100
AcDbEntity
  8
10
  6
CONTINOUS
100
AcDbLine
 10
249.0859425047669
 20
719.1455611661007
 30
0.0
 11
251.0859428323669
 21
719.1455611661007
 31
0.0
  0
LINE
  5
951C
330
1F
100
AcDbEntity
  8
10
  6
CONTINOUS
100
AcDbLine
 10
251.0859428323669
 20
721.745561173301
 30
0.0
 11
249.0859425047669
 21
721.745561173301
 31
0.0
  0
LINE
  5
951D
330
1F
100
AcDbEntity
  8
10
  6
CONTINOUS
100
AcDbLine
 10
249.0859425047669
 20
719.1455611661007
 30
0.0
 11
106.0859407467668
 21
719.1455611661007
 31
0.0
  0
LINE
  5
951E
330
1F
100
AcDbEntity
  8
10
  6
CONTINOUS
100
AcDbLine
 10
249.0859425047669
 20
721.745561173301
 30
0.0
 11
231.5905599275669
 21
721.745561173301
 31
0.0
  0
LINE
  5
951F
330
1F
100
AcDbEntity
  8
10
  6
CONTINOUS
100
AcDbLine
 10
254.6859417895667
 20
723.5455611661009
 30
0.0
 11
254.6859404423668
 21
663.6455604509009
 31
0.0
  0
LINE
  5
9520
330
1F
100
AcDbEntity
  8
10
  6
CONTINOUS
100
AcDbLine
 10
253.0859431603669
 20
663.6455604509009
 30
0.0
 11
253.0859417895669
 21
723.5455611661009
 31
0.0
  0
ARC
  5
9521
330
1F
100
AcDbEntity
  8
10
  6
CONTINOUS
100
AcDbCircle
 10
252.8859417895668
 20
723.5455611661009
 30
0.0
 40
0.1999999999999888
100
AcDbArc
 50
0.0
 51
90.0
  0
ARC
  5
9522
330
1F
100
AcDbEntity
  8
10
  6
CONTINOUS
100
AcDbCircle
 10
252.8859417895668
 20
723.5455611661009
 30
0.0
 40
1.799999999999954
100
AcDbArc
 50
0.0
 51
90.0
  0
LINE
  5
9523
330
1F
100
AcDbEntity
  8
10
  6
CONTINOUS
100
AcDbLine
 10
231.527721730767
 20
725.3455613441007
 30
0.0
 11
252.885943499967
 21
725.3455613441007
 31
0.0
  0
LINE
  5
9524
330
1F
100
AcDbEntity
  8
10
  6
CONTINOUS
100
AcDbLine
 10
231.5556502319669
 20
723.745561268101
 30
0.0
 11
252.885943499967
 21
723.745561268101
 31
0.0
  0
LINE
  5
9525
330
1F
100
AcDbEntity
  8
10
  6
CONTINOUS
100
AcDbLine
 10
251.0859428323669
 20
723.745561268101
 30
0.0
 11
231.5556502319669
 21
723.745561268101
 31
0.0
  0
LINE
  5
9526
330
1F
100
AcDbEntity
  8
10
  6
CONTINOUS
100
AcDbLine
 10
251.0859428323669
 20
719.1455611661007
 30
0.0
 11
251.0859428323669
 21
723.745561268101
 31
0.0
  0
DIMENSION
  5
9527
330
1F
100
AcDbEntity
  8
30
  6
Continuous
100
AcDbDimension
280
     0
  2
*D35
 10
163.5859417895668
 20
849.3455817817007
 30
0.0
 11
178.5859417895668
 21
849.3455817817007
 31
0.0
 70
   160
  1
<>
 71
     2
 42
30.0
 73
     0
 74
     0
 75
     0
  3
STANDARD
100
AcDbAlignedDimension
 13
193.5859417895668
 23
761.0955611661007
 33
0.0
 14
163.5859417895668
 24
811.0955611661008
 34
0.0
 50
180.0
100
AcDbRotatedDimension
1001
ACAD
1000
DSTYLE
1002
{
1070
    79
1070
     3
1002
}
  0
LWPOLYLINE
  5
9528
330
1F
100
AcDbEntity
  8
24
  6
CONTINOUS
100
AcDbPolyline
 90
        6
 70
     0
 43
0.0
 10
176.5859415923668
 20
721.745561173301
 10
176.5859415923668
 20
725.315561115701
 10
177.0859426055667
 20
725.8155611977008
 10
180.0859421659668
 20
725.8155611977008
 10
180.5859422479668
 20
725.315561115701
 10
180.5859422479668
 20
721.745561173301
  0
LINE
  5
9529
330
1F
100
AcDbEntity
  8
24
  6
CONTINOUS
100
AcDbLine
 10
176.5859415923668
 20
725.315561115701
 30
0.0
 11
180.5859422479668
 21
725.315561115701
 31
0.0
  0
LINE
  5
9537
330
1F
100
AcDbEntity
  8
10
  6
CONTINOUS
100
AcDbLine
 10
119.0273309875368
 20
706.4686096907457
 30
0.0
 11
139.2664495093467
 21
706.4686096908105
 31
0.0
  0
LINE
  5
9540
330
1F
100
AcDbEntity
  8
10
  6
CONTINOUS
100
AcDbLine
 10
120.9701704961292
 20
711.1323276235427
 30
0.0
 11
119.0296347725003
 21
709.5036839317382
 31
0.0
  0
LINE
  5
9541
330
1F
100
AcDbEntity
  8
10
  6
CONTINOUS
100
AcDbLine
 10
121.1487720889278
 20
711.5131677759434
 30
0.0
 11
121.1820726220708
 21
719.1455611661007
 31
0.0
  0
SPLINE
  5
9542
330
1F
100
AcDbEntity
  8
10
  6
CONTINOUS
100
AcDbSpline
210
0.0
220
0.0
230
1.0
 70
     8
 71
     3
 72
     9
 73
     5
 74
     0
 42
0.000000001
 43
0.0000000001
 40
0.0
 40
0.0
 40
0.0
 40
0.0
 40
0.4574472827388937
 40
1.0
 40
1.0
 40
1.0
 40
1.0
 10
121.1487720887626
 20
711.5131677760553
 30
0.0
 10
121.1409478229265
 20
711.4519686966822
 30
0.0
 10
121.1238436316214
 20
711.3181848013962
 30
0.0
 10
121.0720769839157
 20
711.2474504012935
 30
0.0
 10
120.9701704960554
 20
711.1323276234267
 30
0.0
  0
LINE
  5
9543
330
1F
100
AcDbEntity
  8
10
  6
CONTINOUS
100
AcDbLine
 10
118.9948259846626
 20
663.6455604507355
 30
0.0
 11
119.0369534770944
 21
719.1455611659355
 31
0.0
  0
LINE
  5
955D
330
1F
100
AcDbEntity
  8
10
  6
CONTINOUS
100
AcDbLine
 10
157.9054340700049
 20
706.4686096909007
 30
0.0
 11
149.535941703205
 21
706.4686096909007
 31
0.0
  0
LINE
  5
955E
330
1F
100
AcDbEntity
  8
10
  6
CONTINOUS
100
AcDbLine
 10
177.6359421367668
 20
706.4686096909007
 30
0.0
 11
157.9054340700049
 21
706.4686096909007
 31
0.0
  0
LWPOLYLINE
  5
957D
330
1F
100
AcDbEntity
  8
10
  6
CONTINOUS
100
AcDbPolyline
 90
        4
 70
     0
 43
0.0
 10
121.6208520511667
 20
649.1455608681007
 10
121.6557617467668
 20
647.145564265701
 10
205.5161218327668
 20
647.145564265701
 10
205.5510315279668
 20
649.1455608681007
  0
LWPOLYLINE
  5
957E
330
1F
100
AcDbEntity
  8
10
  6
CONTINOUS
100
AcDbPolyline
 90
        8
 70
     0
 43
0.0
 10
88.58593880936679
 20
535.7296863416892
 10
268.5859432201669
 20
535.7296863416892
 42
-0.4142135623730951
 10
274.5859432201669
 20
529.7296863416891
 10
274.5859432201669
 20
349.7296846724891
 42
-0.4142135623730951
 10
268.5859432201669
 20
343.7296846724891
 10
88.58594155136689
 20
343.7296846724891
 42
-0.4142135623730951
 10
82.58594155136689
 20
349.7296846724891
 10
82.58594155136689
 20
529.729689083289
  0
LWPOLYLINE
  5
9587
330
1F
100
AcDbEntity
  8
10
  6
CONTINOUS
100
AcDbPolyline
 90
        2
 70
     0
 43
0.0
 10
88.58594178976678
 20
535.729685506889
 42
0.4142135623730951
 10
82.58594178976682
 20
529.729685506889
  0
LINE
  5
95AD
330
1F
100
AcDbEntity
  8
10
  6
HIDDEN
100
AcDbLine
 10
118.5859417897668
 20
504.729685506889
 30
0.0
 11
118.5859417897668
 21
374.7296855068892
 31
0.0
  0
LINE
  5
95AE
330
1F
100
AcDbEntity
  8
10
  6
HIDDEN
100
AcDbLine
 10
118.5859417897668
 20
504.729685506889
 30
0.0
 11
238.5859417897668
 21
504.729685506889
 31
0.0
  0
LINE
  5
95AF
330
1F
100
AcDbEntity
  8
10
  6
HIDDEN
100
AcDbLine
 10
238.5859417897668
 20
504.729685506889
 30
0.0
 11
238.5859417897668
 21
374.7296855068892
 31
0.0
  0
LINE
  5
95B0
330
1F
100
AcDbEntity
  8
10
  6
HIDDEN
100
AcDbLine
 10
118.5859417897668
 20
374.7296855068892
 30
0.0
 11
238.5859417897668
 21
374.7296855068892
 31
0.0
  0
DIMENSION
  5
95B1
330
1F
100
AcDbEntity
  8
30
  6
Continuous
100
AcDbDimension
280
     0
  2
*D20
 10
82.58594155136689
 20
310.9000300039622
 30
0.0
 11
163.5859417897668
 21
310.9000300039622
 31
0.0
 70
   160
  1
<>
 71
     2
 42
192.0000016688
 73
     0
 74
     0
 75
     0
  3
STANDARD
100
AcDbAlignedDimension
 13
274.5859432201669
 23
363.8273603953915
 33
0.0
 14
82.58594155136689
 24
358.9185438077704
 34
0.0
100
AcDbRotatedDimension
1001
ACAD
1000
DSTYLE
1002
{
1070
    79
1070
     3
1070
   140
1040
7.0
1002
}
  0
DIMENSION
  5
95B2
330
1F
100
AcDbEntity
  8
30
  6
Continuous
100
AcDbDimension
280
     0
  2
*D21
 10
302.5859417897669
 20
535.729685506889
 30
0.0
 11
302.5859417897668
 21
439.7296855068892
 31
0.0
 70
   160
  1
<>
 71
     2
 42
191.9999999999999
 73
     0
 74
     0
 75
     0
  3
STANDARD
100
AcDbAlignedDimension
 13
268.5859417897668
 23
343.7296855068892
 33
0.0
 14
268.5859417897668
 24
535.729685506889
 34
0.0
 50
90.0
100
AcDbRotatedDimension
1001
ACAD
1000
DSTYLE
1002
{
1070
    79
1070
     3
1002
}
  0
LINE
  5
95B3
330
1F
100
AcDbEntity
  8
16
  6
SLD-鎖線
370
     0
100
AcDbLine
 10
280.7400140325667
 20
439.7296855068892
 30
0.0
 11
65.63683409861119
 21
439.7296855068892
 31
0.0
  0
LWPOLYLINE
  5
95BF
330
1F
100
AcDbEntity
  8
10
  6
CONTINOUS
100
AcDbPolyline
 90
       13
 70
     1
 43
0.0
 10
87.08593576956696
 20
649.145557142901
 10
91.08593642516666
 20
649.145557142901
 10
271.0859361271666
 20
649.145557142901
 10
275.0859367827668
 20
649.145557142901
 10
275.0859394055666
 20
649.145559133301
 42
0.4142135623730951
 10
277.0859394055666
 20
651.145559133301
 10
277.0859408359668
 20
651.145561195701
 10
277.0859408359668
 20
663.645560450901
 10
271.0859361271666
 20
663.645560450901
 10
85.08593916716677
 20
663.6455604509009
 10
85.08593916716677
 20
651.145561195701
 10
85.0859394055667
 20
651.1455591333008
 42
0.4142135623730951
 10
87.08593940556671
 20
649.1455591333008
  0
INSERT
  5
95C0
330
1F
100
AcDbEntity
  8
10
100
AcDbBlockReference
  2
BOLT12
 10
245.0859418489669
 20
726.3455610425011
 30
0.0
  0
INSERT
  5
95C1
330
1F
100
AcDbEntity
  8
10
100
AcDbBlockReference
  2
BOLT12
 10
112.0859418492353
 20
726.3455610425011
 30
0.0
  0
ARC
  5
95C2
330
1F
100
AcDbEntity
  8
24
  6
CONTINOUS
100
AcDbCircle
 10
210.5652569143578
 20
734.4349293310317
 30
0.0
 40
7.322967530982105
100
AcDbArc
 50
359.3007573680306
 51
36.24164990807603
  0
ARC
  5
95C3
330
1F
100
AcDbEntity
  8
24
  6
CONTINOUS
100
AcDbCircle
 10
236.6058147960278
 20
734.4353466240919
 30
0.0
 40
7.322066034963969
100
AcDbArc
 50
143.7572279264272
 51
180.7025943248122
  0
LINE
  5
95C4
330
1F
100
AcDbEntity
  8
24
  6
CONTINOUS
100
AcDbLine
 10
216.4714554863667
 20
738.7642102017007
 30
0.0
 11
215.3265829739669
 21
740.3244772629006
 31
0.0
  0
LINE
  5
95C5
330
1F
100
AcDbEntity
  8
24
  6
CONTINOUS
100
AcDbLine
 10
231.8453006055668
 20
740.3244772629006
 30
0.0
 11
230.7004280927667
 21
738.7642102017007
 31
0.0
  0
ARC
  5
95C6
330
1F
100
AcDbEntity
  8
24
  6
CONTINOUS
100
AcDbCircle
 10
216.7825882079668
 20
741.3149671017007
 30
0.0
 40
1.756269579941686
100
AcDbArc
 50
173.9994519955006
 51
214.0510857583008
  0
SPLINE
  5
95C7
330
1F
100
AcDbEntity
  8
24
  6
CONTINOUS
100
AcDbSpline
210
0.0
220
0.0
230
1.0
 70
     8
 71
     3
 72
    17
 73
    13
 74
     0
 42
0.000000001
 43
0.0000000001
 40
0.0
 40
0.0
 40
0.0
 40
0.0
 40
0.4568458165979526
 40
0.6045104364765149
 40
0.6571052795533621
 40
0.6993807138312427
 40
0.7351086934353562
 40
0.7685357788800653
 40
0.8032689738584441
 40
0.8413434014159244
 40
0.9286060915954696
 40
1.0
 40
1.0
 40
1.0
 40
1.0
 10
232.1359421666703
 20
741.4985639676904
 30
0.0
 10
232.1356721026837
 20
741.4073340977572
 30
0.0
 10
232.1353147468919
 20
741.2866163271451
 30
0.0
 10
232.1364683103952
 20
741.1836536532921
 30
0.0
 10
232.1323008267035
 20
741.1022093403442
 30
0.0
 10
232.1259740147216
 20
741.0368352228092
 30
0.0
 10
232.1141884176141
 20
740.9578592469763
 30
0.0
 10
232.09524996521
 20
740.8675720844946
 30
0.0
 10
232.0687033027907
 20
740.7711389763057
 30
0.0
 10
232.02019877938
 20
740.6323513741347
 30
0.0
 10
231.9493279698185
 20
740.4777051046636
 30
0.0
 10
231.8769819997104
 20
740.376955138071
 30
0.0
 10
231.8444270249448
 20
740.3316186443421
 30
0.0
  0
LWPOLYLINE
  5
95C8
330
1F
100
AcDbEntity
  8
24
  6
CONTINOUS
100
AcDbPolyline
 90
        4
 70
     0
 43
0.0
 10
215.5359416061292
 20
719.1455611661007
 10
215.8012589979668
 20
734.3455614225007
 10
231.3706245811667
 20
734.3455614225007
 10
231.5905587355668
 20
721.745561173301
  0
LINE
  5
95C9
330
1F
100
AcDbEntity
  8
10
  6
CONTINOUS
100
AcDbLine
 10
237.8359417971668
 20
663.645560450901
 30
0.0
 11
237.8359417971668
 21
706.4686096909007
 31
0.0
  0
LINE
  5
95CA
330
1F
100
AcDbEntity
  8
10
  6
CONTINOUS
100
AcDbLine
 10
209.3359417823669
 20
670.0955616013009
 30
0.0
 11
209.3359417823668
 21
706.4686096909007
 31
0.0
  0
LINE
  5
95CB
330
1F
100
AcDbEntity
  8
10
  6
CONTINOUS
100
AcDbLine
 10
209.3359417823668
 20
706.4686096909007
 30
0.0
 11
209.3359417823668
 21
719.1455611661007
 31
0.0
  0
LINE
  5
95CC
330
1F
100
AcDbEntity
  8
10
  6
CONTINOUS
100
AcDbLine
 10
237.8359417971668
 20
706.4686096909007
 30
0.0
 11
237.8359417971668
 21
719.1455611661007
 31
0.0
  0
LWPOLYLINE
  5
95CD
330
1F
100
AcDbEntity
  8
24
  6
CONTINOUS
100
AcDbPolyline
 90
        4
 70
     0
 43
0.0
 10
215.0359414126715
 20
741.4985621050452
 10
215.0359414127668
 20
782.4455598073009
 10
232.1359421667669
 20
782.4455598073009
 10
232.1359421667669
 20
741.1963061015573
  0
LINE
  5
95CE
330
1F
100
AcDbEntity
  8
24
  6
CONTINOUS
100
AcDbLine
 10
227.8359420207668
 20
807.9209742658179
 30
0.0
 11
227.8359420207668
 21
803.9209736102177
 31
0.0
  0
ARC
  5
95CF
330
1F
100
AcDbEntity
  8
24
  6
CONTINOUS
100
AcDbCircle
 10
223.5859417895668
 20
803.9209767810177
 30
0.0
 40
4.250000000000111
100
AcDbArc
 50
180.0
 51
0.0
  0
LINE
  5
95D0
330
1F
100
AcDbEntity
  8
24
  6
CONTINOUS
100
AcDbLine
 10
219.3359415587669
 20
803.9209736102177
 30
0.0
 11
219.3359415587669
 21
807.9209742658179
 31
0.0
  0
ARC
  5
95D1
330
1F
100
AcDbEntity
  8
24
  6
CONTINOUS
100
AcDbCircle
 10
223.5859417895668
 20
807.9209767810178
 30
0.0
 40
4.250000000000111
100
AcDbArc
 50
0.0
 51
180.0
  0
LINE
  5
95D2
330
1F
100
AcDbEntity
  8
24
  6
CONTINOUS
100
AcDbLine
 10
217.8859416935668
 20
734.4455612525011
 30
0.0
 11
229.2837487610638
 21
734.4353466240919
 31
0.0
  0
LINE
  5
95DB
330
1F
100
AcDbEntity
  8
10
  6
CONTINOUS
100
AcDbLine
 10
217.905434070005
 20
706.4686096909007
 30
0.0
 11
209.535941703205
 21
706.4686096909007
 31
0.0
  0
LINE
  5
95DC
330
1F
100
AcDbEntity
  8
10
  6
CONTINOUS
100
AcDbLine
 10
237.6359421367669
 20
706.4686096909007
 30
0.0
 11
217.905434070005
 21
706.4686096909007
 31
0.0
  0
DIMENSION
  5
95FA
330
1F
100
AcDbEntity
  8
30
  6
Continuous
100
AcDbDimension
280
     0
  2
*D22
 10
193.5859417895668
 20
849.3455817817007
 30
0.0
 11
208.5859417895668
 21
849.3455817817007
 31
0.0
 70
   160
  1
<>
 71
     2
 42
30.0
 73
     0
 74
     0
 75
     0
  3
STANDARD
100
AcDbAlignedDimension
 13
223.5859417895668
 23
799.4955611661007
 33
0.0
 14
193.5859417895668
 24
811.0955611661008
 34
0.0
 50
180.0
100
AcDbRotatedDimension
1001
ACAD
1000
DSTYLE
1002
{
1070
    79
1070
     3
1002
}
  0
LINE
  5
95FB
330
1F
100
AcDbEntity
  8
16
  6
SLD-鎖線
370
     0
100
AcDbLine
 10
163.5859417897668
 20
335.736383003336
 30
0.0
 11
163.5859417897668
 21
539.6772725748053
 31
0.0
  0
LINE
  5
95FC
330
1F
100
AcDbEntity
  8
16
  6
SLD-鎖線
370
     0
100
AcDbLine
 10
268.4500598950674
 20
160.2838176443142
 30
0.0
 11
60.15399993833216
 21
160.2838176443142
 31
0.0
  0
LINE
  5
95FD
330
1F
100
AcDbEntity
  8
16
  6
SLD-鎖線
370
     0
100
AcDbLine
 10
163.5859417897668
 20
49.94352442683293
 30
0.0
 11
163.5859417897668
 21
270.238217821925
 31
0.0
  0
LWPOLYLINE
  5
95FE
330
1F
100
AcDbEntity
  8
11
 48
2.0
100
AcDbPolyline
 90
        4
 70
     1
 43
0.0
 10
83.08594178976681
 20
68.85148713048001
 10
83.08594178976681
 20
249.8514871304801
 10
244.0859417897668
 20
249.8514871304801
 10
244.0859417897668
 20
68.85148713048001
  0
DIMENSION
  5
95FF
330
1F
100
AcDbEntity
  8
30
  6
Continuous
100
AcDbDimension
280
     0
  2
*D23
 10
244.0859417897668
 20
32.99951917260023
 30
0.0
 11
163.5859417897668
 21
32.99951917260023
 31
0.0
 70
   160
  1
<>
 71
     2
 42
161.0
 73
     0
 74
     0
 75
     0
  3
STANDARD
100
AcDbAlignedDimension
 13
83.08594178976681
 23
70.66721685380014
 33
0.0
 14
244.0859417897668
 24
70.66721685380014
 34
0.0
100
AcDbRotatedDimension
1001
ACAD
1000
DSTYLE
1002
{
1070
    79
1070
     3
1002
}
  0
LWPOLYLINE
  5
9600
330
1F
100
AcDbEntity
  8
18
  6
DIVIDE
 48
5.0
100
AcDbPolyline
 90
       15
 70
     1
 43
0.0
 10
253.0859417897668
 20
59.78381764431397
 42
0.4142135623730951
 10
259.0859417897671
 20
65.78381764431418
 10
259.0859417897668
 20
65.78381764431418
 10
259.0859417897668
 20
254.7838176443143
 10
259.0859417897671
 20
254.7838176443143
 42
0.4142135623730951
 10
253.0859417897668
 20
260.7838176443145
 10
253.0859417897668
 20
260.7838176443143
 10
74.08594178976682
 20
260.7838176443143
 10
74.08594178976682
 20
260.7838176443145
 42
0.4142135623730951
 10
68.08594178976659
 20
254.7838176443143
 10
68.08594178976659
 20
254.7838176443143
 10
68.08594178976659
 20
65.78381764431418
 10
68.08594178976659
 20
65.78381764431418
 42
0.4142135623730951
 10
74.08594178976682
 20
59.78381764431397
 10
74.08594178976682
 20
59.78381764431418
  0
CIRCLE
  5
9601
330
1F
100
AcDbEntity
  8
10
  6
HIDDEN2
 48
3.0
370
     0
100
AcDbCircle
 10
264.0859405973667
 20
472.7296892324885
 30
0.0
 40
3.0
  0
CIRCLE
  5
9602
330
1F
100
AcDbEntity
  8
10
  6
HIDDEN2
 48
3.0
370
     0
100
AcDbCircle
 10
264.0859405973667
 20
406.729689232489
 30
0.0
 40
3.0
  0
INSERT
  5
9603
330
1F
100
AcDbEntity
  8
10
  6
HIDDEN2
100
AcDbBlockReference
  2
SW_CENTERMARKSYMBOL_12
 10
264.0859405973667
 20
406.729689232489
 30
0.0
 41
4.0
 42
4.0
 43
4.0
  0
INSERT
  5
9604
330
1F
100
AcDbEntity
  8
10
  6
HIDDEN2
100
AcDbBlockReference
  2
SW_CENTERMARKSYMBOL_13
 10
264.0859405973667
 20
472.7296892324885
 30
0.0
 41
4.0
 42
4.0
 43
4.0
  0
CIRCLE
  5
9605
330
1F
100
AcDbEntity
  8
10
  6
HIDDEN2
 48
3.0
370
     0
100
AcDbCircle
 10
93.08594287729944
 20
472.7296855070886
 30
0.0
 40
3.0
  0
CIRCLE
  5
9606
330
1F
100
AcDbEntity
  8
10
  6
HIDDEN2
 48
3.0
370
     0
100
AcDbCircle
 10
93.08594287729944
 20
406.7296855070891
 30
0.0
 40
3.0
  0
INSERT
  5
9607
330
1F
100
AcDbEntity
  8
10
  6
HIDDEN2
100
AcDbBlockReference
  2
SW_CENTERMARKSYMBOL_14
 10
93.08594287729944
 20
472.7296855070886
 30
0.0
 41
4.0
 42
4.0
 43
4.0
  0
INSERT
  5
9608
330
1F
100
AcDbEntity
  8
10
  6
HIDDEN2
100
AcDbBlockReference
  2
SW_CENTERMARKSYMBOL_15
 10
93.08594287729944
 20
406.7296855070891
 30
0.0
 41
4.0
 42
4.0
 43
4.0
  0
CIRCLE
  5
9609
102
{ACAD_REACTORS
330
9610
102
}
330
1F
100
AcDbEntity
  8
12
  6
CONTINOUS
370
     0
100
AcDbCircle
 10
249.0859420877666
 20
193.2838176443139
 30
0.0
 40
3.0
  0
CIRCLE
  5
960A
330
1F
100
AcDbEntity
  8
12
  6
CONTINOUS
370
     0
100
AcDbCircle
 10
249.0859420877666
 20
127.2838176443142
 30
0.0
 40
3.0
  0
INSERT
  5
960B
102
{ACAD_REACTORS
330
9613
102
}
330
1F
100
AcDbEntity
  8
12
  6
DASHDOT
100
AcDbBlockReference
  2
SW_CENTERMARKSYMBOL_22
 10
249.0859420877666
 20
193.2838176443139
 30
0.0
 41
4.0
 42
4.0
 43
4.0
  0
INSERT
  5
960C
102
{ACAD_REACTORS
330
9613
330
961A
102
}
330
1F
100
AcDbEntity
  8
12
  6
DASHDOT
100
AcDbBlockReference
  2
SW_CENTERMARKSYMBOL_23
 10
249.0859420877666
 20
127.2838176443142
 30
0.0
 41
4.0
 42
4.0
 43
4.0
  0
DIMENSION
  5
960D
330
1F
100
AcDbEntity
  8
30
  6
Continuous
100
AcDbDimension
280
     0
  2
*D24
 10
301.2554298344155
 20
68.85148713048001
 30
0.0
 11
295.7554298344155
 21
159.3514871304801
 31
0.0
 70
    32
 71
     5
 42
181.0
 73
     0
 74
     0
 75
     0
  3
STANDARD
100
AcDbAlignedDimension
 13
244.0859417897668
 23
249.8514871304801
 33
0.0
 14
244.0859417897668
 24
68.85148713048001
 34
0.0
 50
90.0
100
AcDbRotatedDimension
1001
ACAD
1000
DSTYLE
1002
{
1070
    79
1070
     3
1002
}
  0
DIMENSION
  5
960E
102
{ACAD_XDICTIONARY
360
960F
102
}
102
{ACAD_REACTORS
330
9610
102
}
330
1F
100
AcDbEntity
  8
30
  6
Continuous
100
AcDbDimension
280
     0
  2
*D36
 10
246.6175086284698
 20
191.5788729950579
 30
0.0
 11
287.0450802346703
 21
214.8654485351984
 31
0.0
 70
   163
 71
     5
 42
6.000000000000622
 73
     0
 74
     0
 75
     0
  3
ISO-25
100
AcDbDiametricDimension
 15
251.5543755470632
 25
194.9887622935698
 35
0.0
 40
0.0
1001
ACAD_DSTYLE_DIMRADIAL_EXTENSION
1070
   387
1070
     1
1070
   388
1040
0.0
1070
   390
1040
0.0
  0
DIMENSION
  5
9611
102
{ACAD_XDICTIONARY
360
9612
102
}
102
{ACAD_REACTORS
330
9613
102
}
330
1F
100
AcDbEntity
  8
30
  6
Continuous
100
AcDbDimension
280
     0
  2
*D37
 10
279.102235717537
 20
127.2838176443142
 30
0.0
 11
273.602235717537
 21
160.2838176443141
 31
0.0
 70
    32
 71
     5
 42
65.99999999999977
 73
     0
 74
     0
 75
     0
  3
STANDARD
100
AcDbAlignedDimension
 13
254.0859420877666
 23
193.2838176443139
 33
0.0
 14
254.0859420877666
 24
127.2838176443142
 34
0.0
 50
90.0
100
AcDbRotatedDimension
1001
ACAD
1000
DSTYLE
1002
{
1070
    79
1070
     3
1002
}
  0
CIRCLE
  5
9614
330
1F
100
AcDbEntity
  8
12
  6
CONTINOUS
370
     0
100
AcDbCircle
 10
78.08594149176702
 20
193.2838176443139
 30
0.0
 40
3.0
  0
CIRCLE
  5
9615
330
1F
100
AcDbEntity
  8
12
  6
CONTINOUS
370
     0
100
AcDbCircle
 10
78.08594149176702
 20
127.2838176443142
 30
0.0
 40
3.0
  0
INSERT
  5
9616
330
1F
100
AcDbEntity
  8
12
  6
DASHDOT
100
AcDbBlockReference
  2
SW_CENTERMARKSYMBOL_22
 10
78.08594149176702
 20
193.2838176443139
 30
0.0
 41
-4.0
 42
4.0
 43
4.0
  0
INSERT
  5
9617
102
{ACAD_REACTORS
330
961A
102
}
330
1F
100
AcDbEntity
  8
12
  6
DASHDOT
100
AcDbBlockReference
  2
SW_CENTERMARKSYMBOL_23
 10
78.08594149176702
 20
127.2838176443142
 30
0.0
 41
-4.0
 42
4.0
 43
4.0
  0
DIMENSION
  5
9618
102
{ACAD_XDICTIONARY
360
9619
102
}
102
{ACAD_REACTORS
330
961A
102
}
330
1F
100
AcDbEntity
  8
30
  6
Continuous
100
AcDbDimension
280
     0
  2
*D38
 10
249.0859420877666
 20
11.75062912189196
 30
0.0
 11
163.5859417897668
 21
17.25062912189196
 31
0.0
 70
    32
 71
     5
 42
171.0000005959996
 73
     0
 74
     0
 75
     0
  3
STANDARD
100
AcDbAlignedDimension
 13
78.08594149176702
 23
122.2838176443142
 33
0.0
 14
249.0859420877666
 24
122.2838176443142
 34
0.0
100
AcDbRotatedDimension
1001
ACAD
1000
DSTYLE
1002
{
1070
    79
1070
     3
1002
}
  0
LINE
  5
961B
330
1F
100
AcDbEntity
  8
16
 48
5.0
100
AcDbLine
 10
464.7580881853929
 20
439.7296865202891
 30
0.0
 11
365.3768075387916
 21
439.7296865202891
 31
0.0
  0
LWPOLYLINE
  5
961C
330
1F
100
AcDbEntity
  8
10
  6
CONTINOUS
100
AcDbPolyline
 90
        4
 70
     0
 43
0.0
 10
456.808002583719
 20
396.2296865202893
 10
457.808002583719
 20
396.2296865202893
 10
457.808002583719
 20
406.2296865202891
 10
456.808002583719
 20
406.2296865202891
  0
LWPOLYLINE
  5
961D
330
1F
100
AcDbEntity
  8
10
  6
CONTINOUS
100
AcDbPolyline
 90
        4
 70
     0
 43
0.0
 10
459.1080025837189
 20
405.6546865202891
 42
0.4142135623730951
 10
458.933002583719
 20
405.8296865202891
 10
457.9830025837186
 20
405.8296865202891
 42
0.4142135623730951
 10
457.8080025837188
 20
405.6546865202891
  0
LWPOLYLINE
  5
961E
330
1F
100
AcDbEntity
  8
10
  6
CONTINOUS
100
AcDbPolyline
 90
        4
 70
     0
 43
0.0
 10
457.8080025837188
 20
396.8046865202892
 42
0.4142135623730951
 10
457.9830025837186
 20
396.6296865202892
 10
458.933002583719
 20
396.6296865202892
 42
0.4142135623730951
 10
459.1080025837189
 20
396.8046865202892
  0
LINE
  5
961F
330
1F
100
AcDbEntity
  8
10
  6
CONTINOUS
100
AcDbLine
 10
448.808002583719
 20
373.2925439054891
 30
0.0
 11
450.6080025837187
 21
373.2296865202893
 31
0.0
  0
LWPOLYLINE
  5
9622
330
1F
100
AcDbEntity
  8
10
  6
CONTINOUS
100
AcDbPolyline
 90
        6
 70
     1
 43
0.0
 10
382.6080025837192
 20
343.7296865202893
 42
-0.4142135623730951
 10
380.6080025837191
 20
345.7296865202893
 10
380.6080025837191
 20
533.729686520289
 42
-0.4142135623730951
 10
382.6080025837192
 20
535.7296865202888
 10
395.1080025837188
 20
535.7296865202888
 10
395.1080025837188
 20
343.7296865202893
  0
LINE
  5
9623
330
1F
100
AcDbEntity
  8
10
  6
CONTINOUS
100
AcDbLine
 10
450.6080025837187
 20
371.2296865202893
 30
0.0
 11
453.2080025837191
 21
371.2296865202893
 31
0.0
  0
LINE
  5
9624
330
1F
100
AcDbEntity
  8
10
  6
CONTINOUS
100
AcDbLine
 10
450.6080025837187
 20
373.2296865202893
 30
0.0
 11
450.6080025837187
 21
371.2296865202893
 31
0.0
  0
LINE
  5
9625
330
1F
100
AcDbEntity
  8
10
  6
CONTINOUS
100
AcDbLine
 10
453.2080025837191
 20
371.2296865202893
 30
0.0
 11
453.2080025837191
 21
375.2250696890892
 31
0.0
  0
LINE
  5
9629
330
1F
100
AcDbEntity
  8
10
  6
CONTINOUS
100
AcDbLine
 10
395.1080025837188
 20
375.3210538018446
 30
0.0
 11
450.116728786919
 21
375.4423883102893
 31
0.0
  0
LINE
  5
962A
330
1F
100
AcDbEntity
  8
10
  6
CONTINOUS
100
AcDbLine
 10
450.6080025837187
 20
375.9423121578893
 30
0.0
 11
450.6080025837187
 21
395.2296865202892
 31
0.0
  0
SPLINE
  5
962B
330
1F
100
AcDbEntity
  8
24
  6
CONTINOUS
100
AcDbSpline
210
0.0
220
0.0
230
1.0
 70
     8
 71
     3
 72
    11
 73
     7
 74
     0
 42
0.000000001
 43
0.0000000001
 40
0.0
 40
0.0
 40
0.0
 40
0.0
 40
0.2499999999999934
 40
0.5000000000000058
 40
0.7499999999999965
 40
1.0
 40
1.0
 40
1.0
 40
1.0
 10
450.6080025838265
 20
375.9423121576933
 30
0.0
 10
450.6006562901176
 20
375.8775221196444
 30
0.0
 10
450.5859637026998
 20
375.7479420435475
 30
0.0
 10
450.4727796203878
 20
375.5838467622166
 30
0.0
 10
450.3106846661695
 20
375.4678160608448
 30
0.0
 10
450.181380746753
 20
375.4508642270248
 30
0.0
 10
450.1167287870448
 20
375.4423883101149
 30
0.0
  0
LWPOLYLINE
  5
962C
330
1F
100
AcDbEntity
  8
10
  6
CONTINOUS
100
AcDbPolyline
 90
        2
 70
     0
 43
0.0
 10
459.1080025837189
 20
401.8387293933312
 10
457.808002583719
 20
401.3655680884471
  0
LINE
  5
962D
330
1F
100
AcDbEntity
  8
10
  6
CONTINOUS
100
AcDbLine
 10
457.808002583719
 20
400.6206436476471
 30
0.0
 11
459.1080025837189
 21
401.0938049525312
 31
0.0
  0
LWPOLYLINE
  5
962E
330
1F
100
AcDbEntity
  8
10
  6
CONTINOUS
100
AcDbPolyline
 90
        9
 70
     0
 43
0.0
 10
461.6658826533998
 20
397.1102835352143
 42
-0.2633131761903002
 10
460.5514771421191
 20
396.4796865202893
 10
459.308002583719
 20
396.479686520289
 42
-0.5216718986821923
 10
459.1080025837189
 20
396.8046865202892
 10
459.1080025837189
 20
405.7796865202891
 42
-0.4142135623730951
 10
459.308002583719
 20
405.9796865202891
 10
460.5514771421191
 20
405.9796865202891
 42
-0.2633131761903001
 10
461.6658826531386
 20
405.3490895053655
 42
-0.2723797614275332
 10
461.6658826533191
 20
397.1102835355134
  0
LWPOLYLINE
  5
9637
330
1F
100
AcDbEntity
  8
10
  6
CONTINOUS
100
AcDbPolyline
 90
       12
 70
     0
 43
0.0
 10
395.1080025837188
 20
380.2296865202891
 10
446.808002583719
 20
380.2296865202891
 42
0.4142135623730951
 10
447.808002583719
 20
381.2296865202891
 10
447.808002583719
 20
394.2296865202893
 42
-0.4142135623730951
 10
448.808002583719
 20
395.2296865202892
 10
456.808002583719
 20
395.2296865202892
 10
456.808002583719
 20
485.2296865202891
 10
448.8080025837191
 20
485.2296865204796
 42
-0.4142135623730951
 10
447.8080025837191
 20
486.2296865204796
 10
447.808002583719
 20
498.2296865202891
 42
0.4142135623730951
 10
446.808002583719
 20
499.2296865202891
 10
395.1080025837188
 20
499.2296865202891
  0
LINE
  5
9638
330
1F
100
AcDbEntity
  8
10
  6
CONTINOUS
100
AcDbLine
 10
448.808002583719
 20
375.439501611005
 30
0.0
 11
448.808002583719
 21
373.2925439054891
 31
0.0
  0
LINE
  5
9639
330
1F
100
AcDbEntity
  8
10
  6
CONTINOUS
100
AcDbLine
 10
450.6080025837187
 20
373.2296865202893
 30
0.0
 11
450.6080025837187
 21
375.8367225758892
 31
0.0
  0
DIMENSION
  5
963A
330
1F
100
AcDbEntity
  8
30
  6
Continuous
100
AcDbDimension
280
     0
  2
*D25
 10
395.6080032989189
 20
294.8296865202892
 30
0.0
 11
375.3580025837191
 21
294.8296865202892
 31
0.0
 70
   160
  1
<>
 71
     2
 42
40.50000071519956
 73
     0
 74
     0
 75
     0
  3
STANDARD
100
AcDbAlignedDimension
 13
355.1080025837192
 23
448.7084903331274
 33
0.0
 14
395.6080032989189
 24
344.9343240464894
 34
0.0
100
AcDbRotatedDimension
1001
ACAD
1000
DSTYLE
1002
{
1070
    79
1070
     3
1002
}
  0
DIMENSION
  5
963B
330
1F
100
AcDbEntity
  8
30
  6
Continuous
100
AcDbDimension
280
     0
  2
*D26
 10
395.6080025837188
 20
314.8296865202892
 30
0.0
 11
388.1080025837192
 21
314.8296865202892
 31
0.0
 70
   160
  1
<>
 71
     2
 42
14.99999999999954
 73
     0
 74
     0
 75
     0
  3
STANDARD
100
AcDbAlignedDimension
 13
380.6080025837191
 23
345.7296865202893
 33
0.0
 14
395.6080025837188
 24
332.2655057486893
 34
0.0
100
AcDbRotatedDimension
1001
ACAD
1000
DSTYLE
1002
{
1070
    79
1070
     3
1002
}
  0
DIMENSION
  5
963C
330
1F
100
AcDbEntity
  8
30
  6
Continuous
100
AcDbDimension
280
     0
  2
*D27
 10
582.3319281788918
 20
383.2296865202891
 30
0.0
 11
582.3319281788918
 21
440.964842933559
 31
0.0
 70
   160
  1
<>
 71
     2
 42
113.9999999999999
 73
     0
 74
     0
 75
     0
  3
STANDARD
100
AcDbAlignedDimension
 13
555.9523136685188
 23
497.2296865202891
 33
0.0
 14
556.2319433949193
 24
383.2296865202891
 34
0.0
 50
90.0
100
AcDbRotatedDimension
1001
ACAD
1000
DSTYLE
1002
{
1070
    79
1070
     3
1002
}
  0
LWPOLYLINE
  5
963D
330
1F
100
AcDbEntity
  8
24
  6
CONTINOUS
100
AcDbPolyline
 90
        4
 70
     0
 43
0.0
 10
450.6080025837187
 20
391.2796865202892
 10
465.808002583719
 20
391.0143695334892
 10
465.808002583719
 20
375.4450035074892
 10
450.6080025837187
 20
375.1796865202892
  0
LWPOLYLINE
  5
963E
330
1F
100
AcDbEntity
  8
10
  6
CONTINOUS
100
AcDbPolyline
 90
        4
 70
     0
 43
0.0
 10
456.8080025837188
 20
474.2296865200986
 10
457.8080025837188
 20
474.2296865200986
 10
457.8080025837188
 20
484.2296865200987
 10
456.8080025837188
 20
484.2296865200987
  0
LWPOLYLINE
  5
963F
330
1F
100
AcDbEntity
  8
10
  6
CONTINOUS
100
AcDbPolyline
 90
        4
 70
     0
 43
0.0
 10
457.8080025837187
 20
474.8046865200986
 42
0.4142135623730951
 10
457.9830025837186
 20
474.6296865200987
 10
458.9330025837187
 20
474.6296865200987
 42
0.4142135623730951
 10
459.1080025837189
 20
474.8046865200986
  0
LWPOLYLINE
  5
9640
330
1F
100
AcDbEntity
  8
10
  6
CONTINOUS
100
AcDbPolyline
 90
        9
 70
     0
 43
0.0
 10
461.6658826533996
 20
475.1102835350236
 42
-0.2633131761903002
 10
460.551477142119
 20
474.4796865200987
 10
459.3080025837187
 20
474.4796865200983
 42
-0.5216718986821923
 10
459.1080025837189
 20
474.8046865200986
 10
459.1080025837189
 20
483.7796865200986
 42
-0.4142135623730951
 10
459.3080025837187
 20
483.9796865200987
 10
460.551477142119
 20
483.9796865200987
 42
-0.2633131761903001
 10
461.6658826531383
 20
483.349089505175
 42
-0.2723797614275332
 10
461.6658826533186
 20
475.1102835353228
  0
LINE
  5
9641
330
1F
100
AcDbEntity
  8
10
  6
CONTINOUS
100
AcDbLine
 10
448.808002583719
 20
506.1668291350893
 30
0.0
 11
450.6080025837187
 21
506.2296865202891
 31
0.0
  0
LINE
  5
9642
330
1F
100
AcDbEntity
  8
10
  6
CONTINOUS
100
AcDbLine
 10
450.6080025837187
 20
508.2296865202891
 30
0.0
 11
453.2080025837191
 21
508.2296865202891
 31
0.0
  0
LINE
  5
9643
330
1F
100
AcDbEntity
  8
10
  6
CONTINOUS
100
AcDbLine
 10
450.6080025837187
 20
506.2296865202891
 30
0.0
 11
450.6080025837187
 21
508.2296865202891
 31
0.0
  0
LINE
  5
9644
330
1F
100
AcDbEntity
  8
10
  6
CONTINOUS
100
AcDbLine
 10
453.2080025837191
 20
508.2296865202891
 30
0.0
 11
453.2080025837191
 21
504.2343033514891
 31
0.0
  0
LINE
  5
9645
330
1F
100
AcDbEntity
  8
10
  6
CONTINOUS
100
AcDbLine
 10
395.1080025837188
 20
504.1383192387336
 30
0.0
 11
450.116728786919
 21
504.0169847302891
 31
0.0
  0
LINE
  5
9646
330
1F
100
AcDbEntity
  8
10
  6
CONTINOUS
100
AcDbLine
 10
450.6080025837187
 20
503.5170608826892
 30
0.0
 11
450.6080025837187
 21
485.2296865204796
 31
0.0
  0
SPLINE
  5
9647
330
1F
100
AcDbEntity
  8
24
  6
CONTINOUS
100
AcDbSpline
210
0.0
220
0.0
230
1.0
 70
     8
 71
     3
 72
    11
 73
     7
 74
     0
 42
0.000000001
 43
0.0000000001
 40
0.0
 40
0.0
 40
0.0
 40
0.0
 40
0.2499999999999934
 40
0.5000000000000058
 40
0.7499999999999965
 40
1.0
 40
1.0
 40
1.0
 40
1.0
 10
450.6080025838265
 20
503.5170608828852
 30
0.0
 10
450.6006562901176
 20
503.5818509209341
 30
0.0
 10
450.5859637026998
 20
503.7114309970307
 30
0.0
 10
450.4727796203878
 20
503.8755262783618
 30
0.0
 10
450.3106846661695
 20
503.9915569797337
 30
0.0
 10
450.181380746753
 20
504.0085088135536
 30
0.0
 10
450.1167287870448
 20
504.0169847304636
 30
0.0
  0
LINE
  5
9648
330
1F
100
AcDbEntity
  8
10
  6
CONTINOUS
100
AcDbLine
 10
448.808002583719
 20
504.0198714295732
 30
0.0
 11
448.808002583719
 21
506.1668291350893
 31
0.0
  0
LINE
  5
9649
330
1F
100
AcDbEntity
  8
10
  6
CONTINOUS
100
AcDbLine
 10
450.6080025837187
 20
506.2296865202891
 30
0.0
 11
450.6080025837187
 21
503.6226504646893
 31
0.0
  0
LWPOLYLINE
  5
964A
330
1F
100
AcDbEntity
  8
24
  6
CONTINOUS
100
AcDbPolyline
 90
        4
 70
     0
 43
0.0
 10
450.6080025837187
 20
488.1796865202892
 10
465.808002583719
 20
488.4450035070893
 10
465.808002583719
 20
504.0143695330892
 10
450.6080025837187
 20
504.2796865202893
  0
LWPOLYLINE
  5
964C
330
1F
100
AcDbEntity
  8
10
  6
CONTINOUS
100
AcDbPolyline
 90
        4
 70
     0
 43
0.0
 10
459.1080025837189
 20
483.6546865200986
 42
0.4142135623730951
 10
458.9330025837187
 20
483.8296865200987
 10
457.9830025837186
 20
483.8296865200987
 42
0.4142135623730951
 10
457.8080025837187
 20
483.6546865200986
  0
LWPOLYLINE
  5
964D
330
1F
100
AcDbEntity
  8
10
  6
CONTINOUS
100
AcDbPolyline
 90
        2
 70
     0
 43
0.0
 10
459.1080025837187
 20
479.8387293931407
 10
457.8080025837188
 20
479.3655680882566
  0
LINE
  5
964E
330
1F
100
AcDbEntity
  8
10
  6
CONTINOUS
100
AcDbLine
 10
457.8080025837188
 20
478.6206436474564
 30
0.0
 11
459.1080025837187
 21
479.0938049523407
 31
0.0
  0
LWPOLYLINE
  5
964F
330
1F
100
AcDbEntity
  8
24
  6
CONTINOUS
100
AcDbPolyline
 90
       10
 70
     0
 43
0.0
 10
465.808002583719
 20
377.6252958507553
 42
-0.1496721635402247
 10
472.4361017628092
 20
379.8986561974757
 10
472.4361017628092
 20
379.8986561974757
 10
472.4361017628092
 20
379.8986561974757
 10
513.9080025837188
 20
380.0296865202891
 10
513.9080025837188
 20
386.4296865202892
 10
472.1706678775833
 20
386.4460606092021
 10
472.1706678775833
 20
386.4460606092021
 10
472.1706678775833
 20
386.4460606092021
 42
-0.1550526629680419
 10
466.0019984486281
 20
388.8307186024718
  0
LWPOLYLINE
  5
9650
330
1F
100
AcDbEntity
  8
24
  6
CONTINOUS
100
AcDbPolyline
 90
       13
 70
     0
 43
0.0
 10
465.7776875246092
 20
387.8835521195264
 42
0.1672155262380537
 10
473.308002583719
 20
385.7296865202893
 10
500.758698949149
 20
385.7296865204729
 10
501.8401152831422
 20
385.7296865204729
 10
502.2051673249189
 20
385.7296865202893
 42
-0.3844306407974888
 10
502.7025305234841
 20
385.2809685715688
 42
-0.0256918450417758
 10
502.8080025837188
 20
383.2296865202891
 42
-0.0256918450417758
 10
502.7025305234131
 20
381.1784044690073
 42
-0.3844306407974888
 10
502.2051673250971
 20
380.7296865204729
 10
501.840115276184
 20
380.7296865204729
 10
500.7586989493188
 20
380.7296865202891
 10
473.308002583719
 20
380.7296865202891
 42
0.1661327115651163
 10
465.8471624391771
 20
378.6241724344053
  0
LWPOLYLINE
  5
9651
330
1F
100
AcDbEntity
  8
24
  6
CONTINOUS
100
AcDbPolyline
 90
       10
 70
     0
 43
0.0
 10
465.808002583719
 20
502.8340771898228
 42
0.1496721635402247
 10
472.4361017628092
 20
500.5607168431025
 10
472.4361017628092
 20
500.5607168431025
 10
472.4361017628092
 20
500.5607168431025
 10
513.9080025837188
 20
500.4296865202891
 10
513.9080025837188
 20
494.0296865202891
 10
472.1706678775833
 20
494.0133124313763
 10
472.1706678775833
 20
494.0133124313763
 10
472.1706678775833
 20
494.0133124313763
 42
0.1550526629680419
 10
466.0019984486281
 20
491.6286544381065
  0
LWPOLYLINE
  5
9652
330
1F
100
AcDbEntity
  8
24
  6
CONTINOUS
100
AcDbPolyline
 90
       13
 70
     0
 43
0.0
 10
465.7776875246092
 20
492.5758209210518
 42
-0.1672155262380537
 10
473.308002583719
 20
494.7296865202891
 10
500.758698949149
 20
494.7296865201051
 10
501.8401152831422
 20
494.7296865201051
 10
502.2051673249189
 20
494.7296865202891
 42
0.3844306407974888
 10
502.7025305234841
 20
495.1784044690095
 42
0.0256918450417758
 10
502.8080025837188
 20
497.229686520289
 42
0.0256918450417758
 10
502.7025305234131
 20
499.2809685715711
 42
0.3844306407974888
 10
502.2051673250971
 20
499.7296865201055
 10
501.840115276184
 20
499.7296865201055
 10
500.7586989493188
 20
499.7296865202891
 10
473.308002583719
 20
499.7296865202891
 42
-0.1661327115651163
 10
465.8471624391771
 20
501.835200606173
  0
LINE
  5
9653
330
1F
100
AcDbEntity
  8
18
100
AcDbLine
 10
395.6080032989189
 20
344.9343240464894
 30
0.0
 11
395.6080032989189
 21
530.1472625388892
 31
0.0
  0
LINE
  5
9654
330
1F
100
AcDbEntity
  8
18
100
AcDbLine
 10
399.6080032989188
 20
344.9343240464894
 30
0.0
 11
399.6080032989188
 21
530.1472625388892
 31
0.0
  0
DIMENSION
  5
966B
330
1F
100
AcDbEntity
  8
30
  6
Continuous
100
AcDbDimension
280
     0
  2
*D28
 10
106.7694425733473
 20
762.1464528644528
 30
0.0
 11
106.7694425733472
 21
755.8964528644528
 31
0.0
 70
   160
  1
<>
 71
     2
 42
12.5
 73
     0
 74
     0
 75
     0
  3
STANDARD
100
AcDbAlignedDimension
 13
134.7414962278045
 23
749.6464528644528
 33
0.0
 14
134.7414962278045
 24
762.1464528644528
 34
0.0
 50
90.0
100
AcDbRotatedDimension
1001
ACAD
1000
DSTYLE
1002
{
1070
    79
1070
     3
1002
}
  0
DIMENSION
  5
966C
330
1F
100
AcDbEntity
  8
30
  6
Continuous
100
AcDbDimension
280
     0
  2
*D29
 10
125.7768145287738
 20
799.7277185770196
 30
0.0
 11
109.2078323703159
 21
799.7277185770196
 31
0.0
 70
   160
  1
<>
 71
     2
 42
15.99999940680027
 73
     0
 74
     0
 75
     0
  3
STANDARD
100
AcDbAlignedDimension
 13
141.7768139355739
 23
769.5346720935324
 33
0.0
 14
125.7768145287738
 24
769.6677559000093
 34
0.0
100
AcDbRotatedDimension
1001
ACAD
1000
DSTYLE
1002
{
1070
    79
1070
     3
1002
}
  0
DIMENSION
  5
966D
330
1F
100
AcDbEntity
  8
30
  6
Continuous
100
AcDbDimension
280
     0
  2
*D30
 10
129.4725230135187
 20
784.5132868366138
 30
0.0
 11
116.7426089734828
 21
784.5132868366138
 31
0.0
 70
   160
  1
<>
 71
     2
 42
8.5
 73
     0
 74
     0
 75
     0
  3
STANDARD
100
AcDbAlignedDimension
 13
137.9725230135187
 23
758.3455611661007
 33
0.0
 14
129.4725230135187
 24
758.3455611661007
 34
0.0
100
AcDbRotatedDimension
1001
ACAD
1000
DSTYLE
1002
{
1070
    79
1070
     3
1002
}
  0
LINE
  5
966E
330
1F
100
AcDbEntity
  8
17
100
AcDbLine
 10
127.927747578096
 20
755.6155611661007
 30
0.0
 11
139.0868929681134
 21
755.6155611661007
 31
0.0
  0
LWPOLYLINE
  5
966F
330
1F
100
AcDbEntity
  8
24
  6
Continuous
 62
     7
100
AcDbPolyline
 90
        5
 70
     0
 43
0.0
 10
129.1614144709634
 20
757.9304486688699
 10
129.1614144709634
 20
753.9091620812187
 42
0.9995984643691707
 10
137.6993595224144
 20
753.9125910271327
 10
137.6993595224144
 20
757.9304482017938
 42
1.0
 10
129.1614130938429
 20
757.9304482017938
  0
DIMENSION
  5
9670
330
1F
100
AcDbEntity
  8
30
  6
Continuous
100
AcDbDimension
280
     0
  2
*D31
 10
117.7877302567225
 20
770.6155611661012
 30
0.0
 11
117.7877302567224
 21
766.5256769629015
 31
0.0
 70
   160
 71
     5
 42
15.00000000000045
 73
     0
 74
     0
 75
     0
  3
STANDARD
100
AcDbAlignedDimension
 13
133.6645622628285
 23
755.6155611661007
 33
0.0
 14
133.7768139712349
 24
770.6155611661012
 34
0.0
 50
90.0
100
AcDbRotatedDimension
1001
ACAD
1000
DSTYLE
1002
{
1070
    79
1070
     3
1002
}
  0
LINE
  5
9671
330
1F
100
AcDbEntity
  8
17
100
AcDbLine
 10
133.5859412679666
 20
746.4695236824342
 30
0.0
 11
133.5859412679666
 21
772.4298787295728
 31
0.0
  0
DIMENSION
  5
9672
330
1F
100
AcDbEntity
  8
30
  6
Continuous
100
AcDbDimension
280
     0
  2
*D32
 10
48.43721864901997
 20
770.6155611661012
 30
0.0
 11
48.43721864901985
 21
717.1305608085011
 31
0.0
 70
   160
 71
     5
 42
106.9700007152003
 73
     0
 74
     0
 75
     0
  3
STANDARD
100
AcDbAlignedDimension
 13
88.54085859323696
 23
663.6455604509009
 33
0.0
 14
131.9340559609587
 24
770.6155611661012
 34
0.0
 50
90.0
100
AcDbRotatedDimension
1001
ACAD
1000
DSTYLE
1002
{
1070
    79
1070
     3
1002
}
  0
LWPOLYLINE
  5
9673
330
1F
100
AcDbEntity
  8
24
  6
CONTINOUS
100
AcDbPolyline
 90
        8
 70
     0
 43
0.0
 10
138.6015815566313
 20
734.3455611661044
 42
-0.1683727652934361
 10
141.435940710367
 20
740.440366361752
 10
141.5859407103669
 20
769.4929593870422
 42
0.1278513079332888
 10
141.1244028064136
 20
769.8704524649281
 42
0.102820541989588
 10
126.0474797295055
 20
769.8704524649717
 42
0.0465035059649609
 10
125.5859413035668
 20
769.4799633025147
 10
125.5859413035668
 20
740.3587686214673
 42
-0.1953251241738503
 10
128.5703009793023
 20
734.3455611661044
  0
LWPOLYLINE
  5
9674
330
1F
100
AcDbEntity
  8
24
  6
CONTINOUS
100
AcDbPolyline
 90
        8
 70
     0
 43
0.0
 10
198.6015820782313
 20
734.3455611661044
 42
-0.1683727652934361
 10
201.435941231967
 20
740.440366361752
 10
201.5859412319669
 20
769.4929593870422
 42
0.1278513079332888
 10
201.1244033280136
 20
769.8704524649281
 42
0.102820541989588
 10
186.0474802511055
 20
769.8704524649717
 42
0.0465035059649609
 10
185.5859418251668
 20
769.4799633025147
 10
185.5859418251668
 20
740.3587686214673
 42
-0.1953251241738503
 10
188.5703015009023
 20
734.3455611661044
  0
LINE
  5
9675
330
1F
100
AcDbEntity
  8
24
100
AcDbLine
 10
157.9277480996962
 20
805.6400850826657
 30
0.0
 11
169.0868934897136
 21
805.6400850826657
 31
0.0
  0
LINE
  5
9676
330
1F
100
AcDbEntity
  8
17
100
AcDbLine
 10
157.9277480996962
 20
805.6400850826657
 30
0.0
 11
169.0868934897136
 21
805.6400850826657
 31
0.0
  0
LINE
  5
9678
330
1F
100
AcDbEntity
  8
17
100
AcDbLine
 10
187.9277480996962
 20
756.0646694677489
 30
0.0
 11
199.0868934897136
 21
756.0646694677489
 31
0.0
  0
LINE
  5
9679
330
1F
100
AcDbEntity
  8
17
100
AcDbLine
 10
193.5859417895668
 20
746.8241023092279
 30
0.0
 11
193.5859417895668
 21
772.8789870312207
 31
0.0
  0
LINE
  5
967A
330
1F
100
AcDbEntity
  8
17
100
AcDbLine
 10
217.9277480996963
 20
805.6400850826657
 30
0.0
 11
229.0868934897136
 21
805.6400850826657
 31
0.0
  0
LINE
  5
967B
330
1F
100
AcDbEntity
  8
17
100
AcDbLine
 10
223.5859417895668
 20
795.978193296911
 30
0.0
 11
223.5859417895668
 21
817.3934462848006
 31
0.0
  0
DIMENSION
  5
967C
330
1F
100
AcDbEntity
  8
30
  6
Continuous
100
AcDbDimension
280
     0
  2
*D33
 10
328.5844068236246
 20
820.6400850826657
 30
0.0
 11
328.5844068236245
 21
742.1428211127832
 31
0.0
 70
   160
 71
     5
 42
156.9945286549649
 73
     0
 74
     0
 75
     0
  3
STANDARD
100
AcDbAlignedDimension
 13
260.5954250570341
 23
663.6455564277007
 33
0.0
 14
223.5859417896691
 24
820.6400850826659
 34
0.0
 50
90.0
100
AcDbRotatedDimension
1001
ACAD
1000
DSTYLE
1002
{
1070
    79
1070
     3
1002
}
  0
LWPOLYLINE
  5
967D
330
1F
100
AcDbEntity
  8
24
  6
CONTINOUS
100
AcDbPolyline
 90
        6
 70
     0
 43
0.0
 10
215.7359420863668
 20
782.4455598073009
 10
215.7359420863668
 20
819.2962580993006
 42
-0.3057346189780497
 10
216.0474801975678
 20
819.7565326170147
 42
-0.1172059384902747
 10
231.1244033817648
 20
819.7565326169673
 42
-0.3057346188780048
 10
231.435941492985
 20
819.2962580994786
 10
231.4359414931669
 20
782.4455598073009
  0
LWPOLYLINE
  5
9832
330
1F
100
AcDbEntity
  8
24
  6
CONTINOUS
100
AcDbPolyline
 90
        7
 70
     0
 43
0.0
 10
513.9080025837188
 20
380.7296865202891
 10
552.2051673249189
 20
380.7296865202891
 42
0.3844306407974888
 10
552.7025305234841
 20
381.1784044690096
 42
0.0339392115285597
 10
552.808002583719
 20
382.7296865202892
 42
0.0206663951566866
 10
552.7025305234132
 20
385.2809685715712
 42
0.3844306407974888
 10
552.2051673249189
 20
385.7296865202893
 10
513.9080025837188
 20
385.7296865202893
  0
DIMENSION
  5
9833
330
1F
100
AcDbEntity
  8
30
  6
Continuous
100
AcDbDimension
280
     0
  2
*D39
 10
568.1246695373102
 20
380.7296865202891
 30
0.0
 11
568.1246695373102
 21
367.9023483433607
 31
0.0
 70
   160
 71
     2
 42
5.0
 73
     0
 74
     0
 75
     0
  3
STANDARD
100
AcDbAlignedDimension
 13
552.808002583719
 23
385.7296865202893
 33
0.0
 14
552.808002583719
 24
380.7296865202891
 34
0.0
 50
90.0
100
AcDbRotatedDimension
1001
ACAD
1000
DSTYLE
1002
{
1070
    79
1070
     3
1002
}
  0
LWPOLYLINE
  5
9834
330
1F
100
AcDbEntity
  8
24
  6
CONTINOUS
100
AcDbPolyline
 90
        7
 70
     0
 43
0.0
 10
513.9080025837188
 20
494.7296865202891
 10
552.2051673249189
 20
494.7296865202891
 42
0.3844306407974888
 10
552.7025305234841
 20
495.1784044690096
 42
0.0339392115285597
 10
552.808002583719
 20
496.7296865202891
 42
0.0206663951566866
 10
552.7025305234132
 20
499.2809685715712
 42
0.3844306407974888
 10
552.2051673249189
 20
499.7296865202891
 10
513.9080025837188
 20
499.7296865202891
  0
INSERT
  5
9BE5
330
1F
100
AcDbEntity
  8
0
100
AcDbBlockReference
  2
A$C23077EED
 10
163.5859417895668
 20
706.4686096909007
 30
0.0
  0
INSERT
  5
9BED
330
1F
100
AcDbEntity
  8
0
100
AcDbBlockReference
  2
A$C23077EED
 10
193.5859420503668
 20
706.4686096909007
 30
0.0
  0
INSERT
  5
9BF5
330
1F
100
AcDbEntity
  8
0
100
AcDbBlockReference
  2
A$C23077EED
 10
223.585942050405
 20
706.4686096909007
 30
0.0
  0
INSERT
  5
9BFD
330
1F
100
AcDbEntity
  8
0
100
AcDbBlockReference
  2
A$C23077EED
 10
133.585941528973
 20
706.4686096907924
 30
0.0
  0
INSERT
  5
9C4C
330
1F
100
AcDbEntity
  8
0
100
AcDbBlockReference
  2
A$C6D904D4D
 10
163.5859417897668
 20
439.7296855068892
 30
0.0
  0
INSERT
  5
9C68
330
1F
100
AcDbEntity
  8
0
100
AcDbBlockReference
  2
A$C37787D9A
 10
380.6080025837191
 20
439.7296865202891
 30
0.0
  0
DIMENSION
  5
9F83
330
1F
100
AcDbEntity
  8
0
100
AcDbDimension
280
     0
  2
*D44
 10
258.3717241021223
 20
805.6400850826657
 30
0.0
 11
252.8717241021221
 21
813.1400850826656
 31
0.0
 70
    32
 71
     5
 42
15.0
 73
     0
 74
     0
 75
     0
  3
STANDARD
100
AcDbAlignedDimension
 13
248.7881109446759
 23
820.6400850826657
 33
0.0
 14
229.5391026651678
 24
805.6400850826657
 34
0.0
 50
90.0
100
AcDbRotatedDimension
  0
LINE
  5
A00E
330
1F
100
AcDbEntity
  8
17
 48
5.0
100
AcDbLine
 10
556.9523136685188
 20
383.2296865202891
 30
0.0
 11
445.0612527366269
 21
383.2296865202891
 31
0.0
  0
LINE
  5
A016
330
1F
100
AcDbEntity
  8
17
 48
5.0
100
AcDbLine
 10
556.9523136685188
 20
497.2296865202891
 30
0.0
 11
445.0612527366269
 21
497.2296865202891
 31
0.0
  0
ENDSEC
  0
SECTION
  2
OBJECTS
  0
DICTIONARY
  5
C
330
0
100
AcDbDictionary
281
     1
  3
ACAD_CIP_PREVIOUS_PRODUCT_INFO
350
9FC9
  3
ACAD_COLOR
350
3150
  3
ACAD_DETAILVIEWSTYLE
350
314A
  3
ACAD_GROUP
350
D
  3
ACAD_LAYOUT
350
1A
  3
ACAD_MATERIAL
350
43
  3
ACAD_MLEADERSTYLE
350
3149
  3
ACAD_MLINESTYLE
350
17
  3
ACAD_PLOTSETTINGS
350
19
  3
ACAD_PLOTSTYLENAME
350
E
  3
ACAD_SCALELIST
350
47
  3
ACAD_SECTIONVIEWSTYLE
350
314B
  3
ACAD_TABLESTYLE
350
3148
  3
ACAD_VISUALSTYLE
350
2A
  3
ACDB_RECOMPOSE_DATA
350
A044
  3
AcDbVariableDictionary
350
3146
  3
AEC_PROPERTY_SET_DEFS
350
8A66
  0
SUN
  5
69
330
29
100
AcDbSun
 90
        1
290
     1
 63
     7
421
 16777215
 40
1.0
291
     1
 91
  2455826
 92
 54000000
292
     0
 70
     0
 71
   256
280
     1
  0
DICTIONARY
  5
52E1
330
2
100
AcDbDictionary
280
     1
281
     1
  3
ACAD_LAYERSTATES
360
52E2
  0
DICTIONARY
  5
3158
330
10
100
AcDbDictionary
280
     1
281
     1
  3
ADSK_XREC_LAYER_RECONCILED
360
3159
  0
DICTIONARY
  5
315C
330
72
100
AcDbDictionary
280
     1
281
     1
  3
ADSK_XREC_LAYER_RECONCILED
360
315D
  0
DICTIONARY
  5
39AB
330
39AA
100
AcDbDictionary
280
     1
281
     1
  0
DICTIONARY
  5
39B1
330
39B0
100
AcDbDictionary
280
     1
281
     1
  0
DICTIONARY
  5
39B3
330
39B2
100
AcDbDictionary
280
     1
281
     1
  0
DICTIONARY
  5
39B5
330
39B4
100
AcDbDictionary
280
     1
281
     1
  0
DICTIONARY
  5
39B7
330
39B6
100
AcDbDictionary
280
     1
281
     1
  0
DICTIONARY
  5
8AEE
330
8AED
100
AcDbDictionary
280
     1
281
     1
  0
DICTIONARY
  5
92B8
330
92B7
100
AcDbDictionary
280
     1
281
     1
  0
DICTIONARY
  5
52DB
330
1F
100
AcDbDictionary
280
     1
281
     1
  3
ACAD_SORTENTS
360
52DC
  0
DICTIONARY
  5
9BAE
330
9BAC
100
AcDbDictionary
280
     1
281
     1
  3
ACAD_SORTENTS
360
9BAF
  0
DICTIONARY
  5
9BB3
330
9BB2
100
AcDbDictionary
280
     1
281
     1
  3
ACAD_SORTENTS
360
9BB4
  0
DICTIONARY
  5
9BFF
330
9BFE
100
AcDbDictionary
280
     1
281
     1
  3
ACAD_SORTENTS
360
9C00
  0
DICTIONARY
  5
9C64
330
9C4D
100
AcDbDictionary
280
     1
281
     1
  3
ACAD_SORTENTS
360
9C65
  0
DICTIONARY
  5
960F
330
960E
100
AcDbDictionary
280
     1
281
     1
  3
ACAD_DIMASSOC
360
9610
  0
DICTIONARY
  5
9612
330
9611
100
AcDbDictionary
280
     1
281
     1
  3
ACAD_DIMASSOC
360
9613
  0
DICTIONARY
  5
9619
330
9618
100
AcDbDictionary
280
     1
281
     1
  3
ACAD_DIMASSOC
360
961A
  0
XRECORD
  5
9FC9
102
{ACAD_REACTORS
330
C
102
}
330
C
100
AcDbXrecord
280
     1
300
ACDLT
300
2014
300
ACDLT_F_S
  0
DICTIONARY
  5
3150
102
{ACAD_REACTORS
330
C
102
}
330
C
100
AcDbDictionary
281
     1
  0
DICTIONARY
  5
314A
102
{ACAD_REACTORS
330
C
102
}
330
C
100
AcDbDictionary
281
     1
  3
Metric50
350
9FC4
  0
DICTIONARY
  5
D
102
{ACAD_REACTORS
330
C
102
}
330
C
100
AcDbDictionary
281
     1
  0
DICTIONARY
  5
1A
102
{ACAD_REACTORS
330
C
102
}
330
C
100
AcDbDictionary
281
     1
  3
Layout1
350
1E
  3
Layout2
350
26
  3
Model
350
22
  0
DICTIONARY
  5
43
102
{ACAD_REACTORS
330
C
102
}
330
C
100
AcDbDictionary
281
     1
  3
ByBlock
350
45
  3
ByLayer
350
44
  3
Global
350
46
  0
DICTIONARY
  5
3149
102
{ACAD_REACTORS
330
C
102
}
330
C
100
AcDbDictionary
281
     1
  3
Standard
350
3152
  0
DICTIONARY
  5
17
102
{ACAD_REACTORS
330
C
102
}
330
C
100
AcDbDictionary
281
     1
  3
Standard
350
18
  0
DICTIONARY
  5
19
102
{ACAD_REACTORS
330
C
102
}
330
C
100
AcDbDictionary
281
     1
  0
ACDBDICTIONARYWDFLT
  5
E
102
{ACAD_REACTORS
330
C
102
}
330
C
100
AcDbDictionary
281
     1
  3
Normal
350
F
100
AcDbDictionaryWithDefault
340
F
  0
DICTIONARY
  5
47
102
{ACAD_REACTORS
330
C
102
}
330
C
100
AcDbDictionary
281
     1
  3
A0
350
48
  3
A1
350
49
  3
A2
350
4A
  3
A3
350
4B
  3
A4
350
4C
  3
A5
350
4D
  3
A6
350
4E
  3
A7
350
4F
  3
A8
350
50
  3
A9
350
51
  3
B0
350
52
  3
B1
350
53
  3
B2
350
54
  3
B3
350
55
  3
B4
350
56
  3
B5
350
57
  3
B6
350
58
  3
B7
350
59
  3
B8
350
5A
  3
B9
350
5B
  3
C0
350
5C
  3
C1
350
5D
  3
C2
350
5E
  3
C3
350
5F
  3
C4
350
60
  3
C5
350
61
  3
C6
350
62
  3
C7
350
63
  3
C8
350
64
  3
C9
350
65
  3
D0
350
66
  3
D1
350
67
  3
D2
350
68
  0
DICTIONARY
  5
314B
102
{ACAD_REACTORS
330
C
102
}
330
C
100
AcDbDictionary
281
     1
  3
Metric50
350
9FC3
  0
DICTIONARY
  5
3148
102
{ACAD_REACTORS
330
C
102
}
330
C
100
AcDbDictionary
281
     1
  3
Standard
350
3151
  0
DICTIONARY
  5
2A
102
{ACAD_REACTORS
330
C
102
}
330
C
100
AcDbDictionary
281
     1
  3
2dWireframe
350
2F
  3
3D Hidden
350
314F
  3
3dWireframe
350
314E
  3
Basic
350
32
  3
Brighten
350
36
  3
ColorChange
350
3A
  3
Conceptual
350
34
  3
Dim
350
35
  3
EdgeColorOff
350
3D
  3
Facepattern
350
39
  3
Flat
350
2B
  3
FlatWithEdges
350
2C
  3
Gouraud
350
2D
  3
GouraudWithEdges
350
2E
  3
Hidden
350
31
  3
JitterOff
350
3B
  3
Linepattern
350
38
  3
OverhangOff
350
3C
  3
Realistic
350
33
  3
Shaded
350
42
  3
Shaded with edges
350
41
  3
Shades of Gray
350
3E
  3
Sketchy
350
3F
  3
Thicken
350
37
  3
Wireframe
350
30
  3
X-Ray
350
40
  0
XRECORD
  5
A044
102
{ACAD_REACTORS
330
C
102
}
330
C
100
AcDbXrecord
280
     1
 90
        1
330
3151
330
9FC3
330
9FC4
  0
DICTIONARY
  5
3146
102
{ACAD_REACTORS
330
C
102
}
330
C
100
AcDbDictionary
281
     1
  3
CANNOSCALE
350
3147
  3
CMLEADERSTYLE
350
315F
  3
CTABLESTYLE
350
315E
  3
CVIEWDETAILSTYLE
350
9FFE
  3
CVIEWSECTIONSTYLE
350
9FFF
  3
LAYEREVAL
350
3160
  3
LAYERNOTIFY
350
3161
  0
DICTIONARY
  5
8A66
102
{ACAD_REACTORS
330
C
102
}
330
C
100
AcDbDictionary
281
     1
  0
DICTIONARY
  5
52E2
102
{ACAD_REACTORS
330
52E1
102
}
330
52E1
100
AcDbDictionary
281
     1
  0
XRECORD
  5
3159
102
{ACAD_REACTORS
330
3158
102
}
330
3158
100
AcDbXrecord
280
     1
290
     1
  0
XRECORD
  5
315D
102
{ACAD_REACTORS
330
315C
102
}
330
315C
100
AcDbXrecord
280
     1
290
     1
  0
SORTENTSTABLE
  5
52DC
102
{ACAD_REACTORS
330
52DB
102
}
330
52DB
100
AcDbSortentsTable
330
1F
331
9608
  5
9608
331
95B0
  5
95B0
331
963F
  5
9647
331
9625
  5
9625
331
955E
  5
955E
331
957E
  5
957E
331
962D
  5
962D
331
94B8
  5
94B8
331
94C0
  5
94C0
331
95AE
  5
95AE
331
9507
  5
9507
331
94C8
  5
94C8
331
9678
  5
9834
331
9833
  5
9C69
331
9520
  5
9520
331
9518
  5
9518
331
9645
  5
964D
331
9517
  5
9517
331
95C3
  5
95C3
331
95CE
  5
95CE
331
964D
  5
966B
331
9537
  5
9537
331
9601
  5
9601
331
94D8
  5
94D8
331
91C1
  5
91C1
331
94E0
  5
94E0
331
94A1
  5
94A1
331
94E8
  5
94E8
331
94F0
  5
94F0
331
961B
  5
961B
331
9670
  5
9678
331
9638
  5
9640
331
9609
  5
9609
331
95B1
  5
95B1
331
962E
  5
962E
331
94F8
  5
94F8
331
94B9
  5
94B9
331
9587
  5
9587
331
95AF
  5
95AF
331
94C9
  5
94C9
331
9508
  5
9508
331
94D1
  5
94D1
331
9679
  5
9BE5
331
9834
  5
9C6A
331
9521
  5
9521
331
9614
  5
9614
331
9519
  5
9519
331
9528
  5
9528
331
95BF
  5
95BF
331
9646
  5
964E
331
964E
  5
966C
331
95CF
  5
95CF
331
95C4
  5
95C4
331
8A6A
  5
8AE2
331
9540
  5
9540
331
9602
  5
9602
331
94D9
  5
94D9
331
94E1
  5
94E1
331
94E9
  5
94E9
331
94A2
  5
94A2
331
94B2
  5
94B2
331
94F1
  5
94F1
331
961C
  5
961C
331
9671
  5
9679
331
960A
  5
960A
331
9639
  5
9641
331
95B2
  5
95B2
331
94BA
  5
94BA
331
94F9
  5
94F9
331
9637
  5
963F
331
94C2
  5
94C2
331
9C68
  5
9C70
331
9509
  5
9509
331
94CA
  5
94CA
331
94D2
  5
94D2
331
967A
  5
9BED
331
95FA
  5
95FA
331
9522
  5
9522
331
9615
  5
9615
331
951A
  5
951A
331
9647
  5
964F
331
9529
  5
9529
331
95C8
  5
95C8
331
95C5
  5
95C5
331
95D0
  5
95D0
331
964F
  5
966D
331
9541
  5
9541
331
9603
  5
9603
331
94DA
  5
94DA
331
94E2
  5
94E2
331
94A3
  5
94A3
331
94EA
  5
94EA
331
94B3
  5
94B3
331
94F2
  5
94F2
331
961D
  5
961D
331
9672
  5
967A
331
963A
  5
9642
331
960B
  5
960B
331
95B3
  5
95B3
331
94FA
  5
94FA
331
94BB
  5
94BB
331
94C3
  5
94C3
331
94D3
  5
94D3
331
967B
  5
9BF5
331
95FB
  5
95FB
331
9523
  5
9523
331
9640
  5
9648
331
9616
  5
9616
331
951B
  5
951B
331
95C9
  5
95C9
331
9648
  5
9650
331
9650
  5
966E
331
95D1
  5
95D1
331
95C6
  5
95C6
331
9542
  5
9542
331
9604
  5
9604
331
94DB
  5
94DB
331
94E3
  5
94E3
331
94EB
  5
94EB
331
94A4
  5
94A4
331
94B4
  5
94B4
331
94F3
  5
94F3
331
961E
  5
961E
331
966B
  5
9673
331
9673
  5
967B
331
960C
  5
960C
331
963B
  5
9643
331
9629
  5
9629
331
94BC
  5
94BC
331
94FB
  5
94FB
331
94D4
  5
94D4
331
967C
  5
9BFD
331
95FC
  5
95FC
331
9524
  5
9524
331
9641
  5
9649
331
9617
  5
9617
331
951C
  5
951C
331
95CA
  5
95CA
331
9649
  5
9651
331
95C7
  5
95C7
331
95D2
  5
95D2
331
9651
  5
966F
331
9543
  5
9543
331
9605
  5
9605
331
94DC
  5
94DC
331
94E4
  5
94E4
331
94A5
  5
94A5
331
94EC
  5
94EC
331
94B5
  5
94B5
331
94F4
  5
94F4
331
961F
  5
961F
331
966C
  5
9674
331
9674
  5
967C
331
963C
  5
9644
331
960D
  5
960D
331
9622
  5
9622
331
962A
  5
962A
331
94FC
  5
94FC
331
94BD
  5
94BD
331
9504
  5
9504
331
94CD
  5
94CD
331
94D5
  5
94D5
331
967D
  5
9C4C
331
95FD
  5
95FD
331
9525
  5
9525
331
951D
  5
951D
331
9642
  5
964A
331
95C0
  5
95C0
331
95CB
  5
95CB
331
964A
  5
9652
331
9652
  5
9670
331
95DB
  5
95DB
331
9606
  5
9606
331
94DD
  5
94DD
331
94E5
  5
94E5
331
94ED
  5
94ED
331
94A6
  5
94A6
331
94B6
  5
94B6
331
94F5
  5
94F5
331
9618
  5
9618
331
966D
  5
9675
331
9675
  5
967D
331
960E
  5
960E
331
963D
  5
9645
331
9623
  5
9623
331
962B
  5
962B
331
9C4C
  5
9C6F
331
94BE
  5
94BE
331
94FD
  5
94FD
331
9505
  5
9505
331
94CE
  5
94CE
331
94D6
  5
94D6
331
95FE
  5
95FE
331
9611
  5
9611
331
9526
  5
9526
331
9643
  5
964B
331
9515
  5
9515
331
951E
  5
951E
331
95CC
  5
95CC
331
95C1
  5
95C1
331
9653
  5
9671
331
9BE5
  5
9C6B
331
9BED
  5
9C6C
331
94DE
  5
94DE
331
9607
  5
9607
331
95DC
  5
95DC
331
9BF5
  5
9C6D
331
94E6
  5
94E6
331
9BFD
  5
9C6E
331
94EE
  5
94EE
331
94F6
  5
94F6
331
94B7
  5
94B7
331
966E
  5
9676
331
9676
  5
9832
331
963E
  5
9646
331
955D
  5
955D
331
9624
  5
9624
331
962C
  5
962C
331
957D
  5
957D
331
94FE
  5
94FE
331
95AD
  5
95AD
331
94BF
  5
94BF
331
9506
  5
9506
331
94D7
  5
94D7
331
9832
  5
9C68
331
95FF
  5
95FF
331
9527
  5
9527
331
9516
  5
9516
331
951F
  5
951F
331
9644
  5
964C
331
95C2
  5
95C2
331
95CD
  5
95CD
331
964C
  5
9654
331
9654
  5
9672
331
9600
  5
9600
331
94DF
  5
94DF
331
94E7
  5
94E7
331
94A0
  5
94A0
331
94EF
  5
94EF
331
94F7
  5
94F7
331
966F
  5
9677
  0
SORTENTSTABLE
  5
9BAF
102
{ACAD_REACTORS
330
9BAE
102
}
330
9BAE
100
AcDbSortentsTable
330
9BAC
  0
SORTENTSTABLE
  5
9BB4
102
{ACAD_REACTORS
330
9BB3
102
}
330
9BB3
100
AcDbSortentsTable
330
9BB2
  0
SORTENTSTABLE
  5
9C00
102
{ACAD_REACTORS
330
9BFF
102
}
330
9BFF
100
AcDbSortentsTable
330
9BFE
  0
SORTENTSTABLE
  5
9C65
102
{ACAD_REACTORS
330
9C64
102
}
330
9C64
100
AcDbSortentsTable
330
9C4D
  0
DIMASSOC
  5
9610
102
{ACAD_REACTORS
330
960F
102
}
330
960F
100
AcDbDimAssoc
330
960E
 90
        2
 70
     0
 71
     0
  1
AcDbOsnapPointRef
 72
     3
331
9609
 73
     2
 91
        0
 40
0.0
 10
0.0
 20
0.0
 30
0.0
 75
     0
  0
DIMASSOC
  5
9613
102
{ACAD_REACTORS
330
9612
102
}
330
9612
100
AcDbDimAssoc
330
9611
 90
        3
 70
     0
 71
     0
  1
AcDbOsnapPointRef
 72
     1
331
960B
331
8BD7
 73
     2
 91
        0
 40
1.0
 10
0.0
 20
0.0
 30
2.000000000000000E+50
 75
     0
  1
AcDbOsnapPointRef
 72
     1
331
960C
331
8BE2
 73
     2
 91
        0
 40
1.0
 10
0.0
 20
0.0
 30
2.000000000000000E+50
 75
     0
  0
DIMASSOC
  5
961A
102
{ACAD_REACTORS
330
9619
102
}
330
9619
100
AcDbDimAssoc
330
9618
 90
        3
 70
     0
 71
     0
  1
AcDbOsnapPointRef
 72
     1
331
9617
331
8BE1
 73
     2
 91
        0
 40
1.0
 10
0.0
 20
0.0
 30
2.000000000000000E+50
 75
     0
  1
AcDbOsnapPointRef
 72
     1
331
960C
331
8BE1
 73
     2
 91
        0
 40
1.0
 10
0.0
 20
0.0
 30
2.000000000000000E+50
 75
     0
  0
ACDBDETAILVIEWSTYLE
  5
9FC4
102
{ACAD_XDICTIONARY
360
A004
102
}
102
{ACAD_REACTORS
330
314A
102
}
330
314A
100
AcDbModelDocViewStyle
 70
     0
  3
Metric50
290
     0
100
AcDbDetailViewStyle
 70
     0
 71
     0
 90
        3
 71
     1
340
11
 62
   256
 40
5.0
340
0
 62
   256
 40
5.0
300

 40
0.0
280
     1
 71
     2
340
16
 90
       25
 62
   256
 71
     3
340
11
 62
   256
 40
5.0
 90
        0
 40
15.0
 90
        1
300
%<\AcVar ViewDetailId>% (%<\AcVar ViewScale \f "%sn">%)
 71
     4
340
16
 90
       25
 62
   256
340
16
 90
       25
 62
   256
280
     0
  0
LAYOUT
  5
1E
102
{ACAD_REACTORS
330
1A
102
}
330
1A
100
AcDbPlotSettings
  1

  2
none_device
  4

  6

 40
0.0
 41
0.0
 42
0.0
 43
0.0
 44
0.0
 45
0.0
 46
0.0
 47
0.0
 48
0.0
 49
0.0
140
0.0
141
0.0
142
1.0
143
1.0
 70
   688
 72
     1
 73
     0
 74
     5
  7
monochrome.ctb
 75
    16
147
1.0
 76
     0
 77
     2
 78
   300
148
0.0
149
0.0
100
AcDbLayout
  1
Layout1
 70
     1
 71
     1
 10
0.0
 20
0.0
 11
420.0
 21
297.0
 12
0.0
 22
0.0
 32
0.0
 14
1.000000000000000E+20
 24
1.000000000000000E+20
 34
1.000000000000000E+20
 15
-1.000000000000000E+20
 25
-1.000000000000000E+20
 35
-1.000000000000000E+20
146
0.0
 13
0.0
 23
0.0
 33
0.0
 16
1.0
 26
0.0
 36
0.0
 17
0.0
 27
1.0
 37
0.0
 76
     0
330
1B
  0
LAYOUT
  5
26
102
{ACAD_REACTORS
330
1A
102
}
330
1A
100
AcDbPlotSettings
  1

  2
none_device
  4

  6

 40
0.0
 41
0.0
 42
0.0
 43
0.0
 44
0.0
 45
0.0
 46
0.0
 47
0.0
 48
0.0
 49
0.0
140
0.0
141
0.0
142
1.0
143
1.0
 70
   688
 72
     1
 73
     0
 74
     5
  7
monochrome.ctb
 75
    16
147
1.0
 76
     0
 77
     2
 78
   300
148
0.0
149
0.0
100
AcDbLayout
  1
Layout2
 70
     1
 71
     2
 10
0.0
 20
0.0
 11
0.0
 21
0.0
 12
0.0
 22
0.0
 32
0.0
 14
0.0
 24
0.0
 34
0.0
 15
0.0
 25
0.0
 35
0.0
146
0.0
 13
0.0
 23
0.0
 33
0.0
 16
1.0
 26
0.0
 36
0.0
 17
0.0
 27
1.0
 37
0.0
 76
     0
330
23
  0
LAYOUT
  5
22
102
{ACAD_XDICTIONARY
360
52E7
102
}
102
{ACAD_REACTORS
330
1A
102
}
330
1A
100
AcDbPlotSettings
  1

  2
none_device
  4
Letter_(8.50_x_11.00_Inches)
  6

 40
6.349999999999997
 41
6.349999999999997
 42
6.350005079999997
 43
6.350005079999997
 44
215.9
 45
279.4
 46
0.0
 47
0.0
 48
0.0
 49
0.0
140
0.0
141
0.0
142
1.0
143
1.0
 70
  1712
 72
     1
 73
     0
 74
     0
  7
monochrome.ctb
 75
     0
147
1.0
 76
     0
 77
     2
 78
   300
148
0.0
149
0.0
100
AcDbLayout
  1
Model
 70
     1
 71
     0
 10
0.0
 20
0.0
 11
420.0
 21
297.0
 12
0.0
 22
0.0
 32
0.0
 14
0.0
 24
0.0
 34
0.0
 15
420.0
 25
297.0
 35
0.0
146
0.0
 13
0.0
 23
0.0
 33
0.0
 16
1.0
 26
0.0
 36
0.0
 17
0.0
 27
1.0
 37
0.0
 76
     0
330
1F
331
29
  0
MATERIAL
  5
45
102
{ACAD_REACTORS
330
43
102
}
330
43
100
AcDbMaterial
  1
ByBlock
  0
MATERIAL
  5
44
102
{ACAD_REACTORS
330
43
102
}
330
43
100
AcDbMaterial
  1
ByLayer
  0
MATERIAL
  5
46
102
{ACAD_REACTORS
330
43
102
}
330
43
100
AcDbMaterial
  1
Global
  0
MLEADERSTYLE
  5
3152
102
{ACAD_REACTORS
330
3149
102
}
330
3149
100
AcDbMLeaderStyle
179
     2
170
     2
171
     1
172
     0
 90
        2
 40
0.0
 41
0.0
173
     1
 91
-1056964608
340
14
 92
       -2
290
     1
 42
2.0
291
     1
 43
0.36
  3
Standard
 44
4.0
300

342
11
174
     1
178
     6
175
     1
176
     0
 93
-1056964608
 45
4.0
292
     0
297
     0
 46
4.0
 94
-1056964608
 47
1.0
 49
1.0
140
1.0
293
     1
141
0.0
294
     1
177
     0
142
1.0
295
     0
296
     0
143
0.125
271
     0
272
     9
273
     9
298
     0
  0
MLINESTYLE
  5
18
102
{ACAD_REACTORS
330
17
102
}
330
17
100
AcDbMlineStyle
  2
STANDARD
 70
     0
  3

 62
   256
 51
90.0
 52
90.0
 71
     2
 49
0.5
 62
   256
  6
BYLAYER
 49
-0.5
 62
   256
  6
BYLAYER
  0
ACDBPLACEHOLDER
  5
F
102
{ACAD_REACTORS
330
E
102
}
330
E
  0
SCALE
  5
48
102
{ACAD_REACTORS
330
47
102
}
330
47
100
AcDbScale
 70
     0
300
1:1
140
1.0
141
1.0
290
     1
  0
SCALE
  5
49
102
{ACAD_REACTORS
330
47
102
}
330
47
100
AcDbScale
 70
     0
300
1:2
140
1.0
141
2.0
290
     0
  0
SCALE
  5
4A
102
{ACAD_REACTORS
330
47
102
}
330
47
100
AcDbScale
 70
     0
300
1:4
140
1.0
141
4.0
290
     0
  0
SCALE
  5
4B
102
{ACAD_REACTORS
330
47
102
}
330
47
100
AcDbScale
 70
     0
300
1:5
140
1.0
141
5.0
290
     0
  0
SCALE
  5
4C
102
{ACAD_REACTORS
330
47
102
}
330
47
100
AcDbScale
 70
     0
300
1:8
140
1.0
141
8.0
290
     0
  0
SCALE
  5
4D
102
{ACAD_REACTORS
330
47
102
}
330
47
100
AcDbScale
 70
     0
300
1:10
140
1.0
141
10.0
290
     0
  0
SCALE
  5
4E
102
{ACAD_REACTORS
330
47
102
}
330
47
100
AcDbScale
 70
     0
300
1:16
140
1.0
141
16.0
290
     0
  0
SCALE
  5
4F
102
{ACAD_REACTORS
330
47
102
}
330
47
100
AcDbScale
 70
     0
300
1:20
140
1.0
141
20.0
290
     0
  0
SCALE
  5
50
102
{ACAD_REACTORS
330
47
102
}
330
47
100
AcDbScale
 70
     0
300
1:30
140
1.0
141
30.0
290
     0
  0
SCALE
  5
51
102
{ACAD_REACTORS
330
47
102
}
330
47
100
AcDbScale
 70
     0
300
1:40
140
1.0
141
40.0
290
     0
  0
SCALE
  5
52
102
{ACAD_REACTORS
330
47
102
}
330
47
100
AcDbScale
 70
     0
300
1:50
140
1.0
141
50.0
290
     0
  0
SCALE
  5
53
102
{ACAD_REACTORS
330
47
102
}
330
47
100
AcDbScale
 70
     0
300
1:100
140
1.0
141
100.0
290
     0
  0
SCALE
  5
54
102
{ACAD_REACTORS
330
47
102
}
330
47
100
AcDbScale
 70
     0
300
2:1
140
2.0
141
1.0
290
     0
  0
SCALE
  5
55
102
{ACAD_REACTORS
330
47
102
}
330
47
100
AcDbScale
 70
     0
300
4:1
140
4.0
141
1.0
290
     0
  0
SCALE
  5
56
102
{ACAD_REACTORS
330
47
102
}
330
47
100
AcDbScale
 70
     0
300
8:1
140
8.0
141
1.0
290
     0
  0
SCALE
  5
57
102
{ACAD_REACTORS
330
47
102
}
330
47
100
AcDbScale
 70
     0
300
10:1
140
10.0
141
1.0
290
     0
  0
SCALE
  5
58
102
{ACAD_REACTORS
330
47
102
}
330
47
100
AcDbScale
 70
     0
300
100:1
140
100.0
141
1.0
290
     0
  0
SCALE
  5
59
102
{ACAD_REACTORS
330
47
102
}
330
47
100
AcDbScale
 70
     0
300
1/128" = 1'-0"
140
0.0078125
141
12.0
290
     0
  0
SCALE
  5
5A
102
{ACAD_REACTORS
330
47
102
}
330
47
100
AcDbScale
 70
     0
300
1/64" = 1'-0"
140
0.015625
141
12.0
290
     0
  0
SCALE
  5
5B
102
{ACAD_REACTORS
330
47
102
}
330
47
100
AcDbScale
 70
     0
300
1/32" = 1'-0"
140
0.03125
141
12.0
290
     0
  0
SCALE
  5
5C
102
{ACAD_REACTORS
330
47
102
}
330
47
100
AcDbScale
 70
     0
300
1/16" = 1'-0"
140
0.0625
141
12.0
290
     0
  0
SCALE
  5
5D
102
{ACAD_REACTORS
330
47
102
}
330
47
100
AcDbScale
 70
     0
300
3/32" = 1'-0"
140
0.09375
141
12.0
290
     0
  0
SCALE
  5
5E
102
{ACAD_REACTORS
330
47
102
}
330
47
100
AcDbScale
 70
     0
300
1/8" = 1'-0"
140
0.125
141
12.0
290
     0
  0
SCALE
  5
5F
102
{ACAD_REACTORS
330
47
102
}
330
47
100
AcDbScale
 70
     0
300
3/16" = 1'-0"
140
0.1875
141
12.0
290
     0
  0
SCALE
  5
60
102
{ACAD_REACTORS
330
47
102
}
330
47
100
AcDbScale
 70
     0
300
1/4" = 1'-0"
140
0.25
141
12.0
290
     0
  0
SCALE
  5
61
102
{ACAD_REACTORS
330
47
102
}
330
47
100
AcDbScale
 70
     0
300
3/8" = 1'-0"
140
0.375
141
12.0
290
     0
  0
SCALE
  5
62
102
{ACAD_REACTORS
330
47
102
}
330
47
100
AcDbScale
 70
     0
300
1/2" = 1'-0"
140
0.5
141
12.0
290
     0
  0
SCALE
  5
63
102
{ACAD_REACTORS
330
47
102
}
330
47
100
AcDbScale
 70
     0
300
3/4" = 1'-0"
140
0.75
141
12.0
290
     0
  0
SCALE
  5
64
102
{ACAD_REACTORS
330
47
102
}
330
47
100
AcDbScale
 70
     0
300
1" = 1'-0"
140
1.0
141
12.0
290
     0
  0
SCALE
  5
65
102
{ACAD_REACTORS
330
47
102
}
330
47
100
AcDbScale
 70
     0
300
1-1/2" = 1'-0"
140
1.5
141
12.0
290
     0
  0
SCALE
  5
66
102
{ACAD_REACTORS
330
47
102
}
330
47
100
AcDbScale
 70
     0
300
3" = 1'-0"
140
3.0
141
12.0
290
     0
  0
SCALE
  5
67
102
{ACAD_REACTORS
330
47
102
}
330
47
100
AcDbScale
 70
     0
300
6" = 1'-0"
140
6.0
141
12.0
290
     0
  0
SCALE
  5
68
102
{ACAD_REACTORS
330
47
102
}
330
47
100
AcDbScale
 70
     0
300
1'-0" = 1'-0"
140
12.0
141
12.0
290
     0
  0
ACDBSECTIONVIEWSTYLE
  5
9FC3
102
{ACAD_XDICTIONARY
360
A002
102
}
102
{ACAD_REACTORS
330
314B
102
}
330
314B
100
AcDbModelDocViewStyle
 70
     0
  3
Metric50
290
     0
100
AcDbSectionViewStyle
 70
     0
 71
     0
 90
      102
 71
     1
340
11
 62
   256
 40
5.0
340
0
340
0
 62
   256
 40
5.0
300
I, O, Q, S, X, Z
 40
10.0
 90
        0
 40
2.5
 90
        0
 71
     2
340
16
 90
       25
 62
   256
340
16
 90
       50
 62
   256
 40
5.0
 40
2.5
 40
5.0
 71
     3
340
11
 62
   256
 40
5.0
 90
        0
 40
15.0
 90
        1
300
%<\AcVar ViewSectionStartId>%-%<\AcVar ViewSectionEndId>% (%<\AcVar ViewScale \f "%sn">%)
 71
     4
 62
   256
 62
   257
300
ANSI31
 40
1.0
 90
        0
290
     0
290
     0
 90
        6
 40
0.0
 40
1.570796326794896
 40
0.2617993877991494
 40
1.308996938995747
 40
-0.2617993877991494
 40
1.832595714594044
  0
TABLESTYLE
  5
3151
102
{ACAD_XDICTIONARY
360
9FBE
102
}
102
{ACAD_REACTORS
330
3148
102
}
330
3148
100
AcDbTableStyle
280
     0
  3
Standard
 70
     0
 71
     0
 40
1.5
 41
1.5
280
     0
281
     0
  7
STANDARD
140
4.5
170
     2
 62
     0
 63
     7
283
     0
 90
      512
 91
        0
  1

274
    -2
284
     1
 64
     0
275
    -2
285
     1
 65
     0
276
    -2
286
     1
 66
     0
277
    -2
287
     1
 67
     0
278
    -2
288
     1
 68
     0
279
    -2
289
     1
 69
     0
  7
STANDARD
140
6.0
170
     5
 62
     0
 63
     7
283
     0
 90
      512
 91
        0
  1

274
    -2
284
     1
 64
     0
275
    -2
285
     1
 65
     0
276
    -2
286
     1
 66
     0
277
    -2
287
     1
 67
     0
278
    -2
288
     1
 68
     0
279
    -2
289
     1
 69
     0
  7
STANDARD
140
4.5
170
     5
 62
     0
 63
     7
283
     0
 90
      512
 91
        0
  1

274
    -2
284
     1
 64
     0
275
    -2
285
     1
 65
     0
276
    -2
286
     1
 66
     0
277
    -2
287
     1
 67
     0
278
    -2
288
     1
 68
     0
279
    -2
289
     1
 69
     0
  0
VISUALSTYLE
  5
2F
102
{ACAD_REACTORS
330
2A
102
}
330
2A
100
AcDbVisualStyle
  2

 70
     4
177
     3
291
     0
 70
    58
 90
        0
176
     1
 90
        2
176
     1
 90
        0
176
     1
 90
        0
176
     1
 40
0.6
176
     1
 40
30.0
176
     1
 62
     7
420
 16777215
176
     1
 90
        1
176
     1
 90
        4
176
     1
 62
     7
176
     1
 62
   257
176
     1
 90
        1
176
     1
 90
        1
176
     1
 40
1.0
176
     1
 90
        0
176
     1
 62
   257
176
     1
 40
1.0
176
     1
 90
        1
176
     1
 90
        6
176
     1
 90
        2
176
     1
 62
     7
176
     1
 90
        5
176
     1
 90
        0
176
     1
 90
        0
176
     1
290
     0
176
     1
 90
        1
176
     1
 40
0.0
176
     1
 90
        0
176
     1
290
     1
176
     1
290
     1
176
     1
290
     0
176
     1
290
     0
176
     1
290
     0
176
     1
290
     0
176
     1
290
     0
176
     1
290
     0
176
     1
290
     0
176
     1
 90
       50
176
     1
 40
0.0
176
     1
 40
1.0
176
     1
 90
        0
176
     1
 62
    18
176
     1
 90
       50
176
     1
 90
        3
176
     1
 62
     5
420
      255
176
     1
290
     0
176
     1
 90
       50
176
     1
 90
       50
176
     1
 90
       50
176
     1
290
     0
176
     1
 90
       50
176
     1
 62
   256
176
     0
 40
1.0
176
     0
 90
        2
176
     1
  1
strokes_ogs.tif
176
     1
290
     0
176
     1
 40
1.0
176
     1
 40
1.0
176
     1
  0
VISUALSTYLE
  5
314F
102
{ACAD_REACTORS
330
2A
102
}
330
2A
100
AcDbVisualStyle
  2
3D Hidden
 70
     6
177
     3
291
     0
 70
    58
 90
        1
176
     1
 90
        2
176
     1
 90
        2
176
     1
 90
        0
176
     1
 40
0.6
176
     1
 40
30.0
176
     1
 62
     7
420
 16777215
176
     1
 90
        2
176
     1
 90
        2
176
     1
 62
     7
176
     1
 62
   257
176
     1
 90
        2
176
     1
 90
        1
176
     1
 40
179.0
176
     1
 90
        0
176
     1
 62
   257
176
     1
 40
1.0
176
     1
 90
        1
176
     1
 90
        6
176
     1
 90
        2
176
     1
 62
     7
176
     1
 90
        3
176
     1
 90
        0
176
     1
 90
        0
176
     1
290
     0
176
     1
 90
        1
176
     1
 40
0.0
176
     1
 90
        0
176
     1
290
     0
176
     1
290
     1
176
     1
290
     1
176
     1
290
     0
176
     1
290
     0
176
     1
290
     0
176
     1
290
     0
176
     1
290
     0
176
     1
290
     0
176
     1
 90
       50
176
     1
 40
0.0
176
     1
 40
1.0
176
     1
 90
        0
176
     1
 62
    18
176
     1
 90
       50
176
     1
 90
        3
176
     1
 62
     5
420
      255
176
     1
290
     0
176
     1
 90
       50
176
     1
 90
       50
176
     1
 90
       50
176
     1
290
     0
176
     1
 90
       50
176
     1
 62
   256
176
     0
 40
1.0
176
     0
 90
        2
176
     1
  1
strokes_ogs.tif
176
     1
290
     0
176
     1
 40
1.0
176
     1
 40
1.0
176
     1
  0
VISUALSTYLE
  5
314E
102
{ACAD_REACTORS
330
2A
102
}
330
2A
100
AcDbVisualStyle
  2
3dWireframe
 70
     5
177
     3
291
     0
 70
    58
 90
        0
176
     1
 90
        2
176
     1
 90
        0
176
     1
 90
        0
176
     1
 40
0.6
176
     1
 40
30.0
176
     1
 62
     7
420
 16777215
176
     1
 90
        1
176
     1
 90
        4
176
     1
 62
     7
176
     1
 62
   257
176
     1
 90
        1
176
     1
 90
        1
176
     1
 40
1.0
176
     1
 90
        0
176
     1
 62
   257
176
     1
 40
1.0
176
     1
 90
        1
176
     1
 90
        6
176
     1
 90
        2
176
     1
 62
     7
176
     1
 90
        5
176
     1
 90
        0
176
     1
 90
        0
176
     1
290
     0
176
     1
 90
        1
176
     1
 40
0.0
176
     1
 90
        0
176
     1
290
     0
176
     1
290
     1
176
     1
290
     1
176
     1
290
     0
176
     1
290
     0
176
     1
290
     0
176
     1
290
     0
176
     1
290
     0
176
     1
290
     0
176
     1
 90
       50
176
     1
 40
0.0
176
     1
 40
1.0
176
     1
 90
        0
176
     1
 62
    18
176
     1
 90
       50
176
     1
 90
        3
176
     1
 62
     5
420
      255
176
     1
290
     0
176
     1
 90
       50
176
     1
 90
       50
176
     1
 90
       50
176
     1
290
     0
176
     1
 90
       50
176
     1
 62
   256
176
     0
 40
1.0
176
     0
 90
        2
176
     1
  1
strokes_ogs.tif
176
     1
290
     0
176
     1
 40
1.0
176
     1
 40
1.0
176
     1
  0
VISUALSTYLE
  5
32
102
{ACAD_REACTORS
330
2A
102
}
330
2A
100
AcDbVisualStyle
  2

 70
     7
177
     3
291
     1
 70
    58
 90
        1
176
     1
 90
        0
176
     1
 90
        1
176
     1
 90
        0
176
     1
 40
0.6
176
     1
 40
30.0
176
     1
 62
     7
420
 16777215
176
     1
 90
        0
176
     1
 90
        4
176
     1
 62
     7
176
     1
 62
   257
176
     1
 90
        1
176
     1
 90
        1
176
     1
 40
1.0
176
     1
 90
        8
176
     1
 62
     7
176
     1
 40
1.0
176
     1
 90
        1
176
     1
 90
        6
176
     1
 90
        2
176
     1
 62
     7
176
     1
 90
        5
176
     1
 90
        0
176
     1
 90
        0
176
     1
290
     0
176
     1
 90
        1
176
     1
 40
0.0
176
     1
 90
        0
176
     1
290
     0
176
     1
290
     1
176
     1
290
     1
176
     1
290
     0
176
     1
290
     0
176
     1
290
     0
176
     1
290
     0
176
     1
290
     0
176
     1
290
     0
176
     1
 90
       50
176
     1
 40
0.0
176
     1
 40
1.0
176
     1
 90
        0
176
     1
 62
    18
176
     1
 90
       50
176
     1
 90
        3
176
     1
 62
     5
420
      255
176
     1
290
     0
176
     1
 90
       50
176
     1
 90
       50
176
     1
 90
       50
176
     1
290
     0
176
     1
 90
       50
176
     1
 62
   256
176
     0
 40
1.0
176
     0
 90
        2
176
     1
  1
strokes_ogs.tif
176
     1
290
     0
176
     1
 40
1.0
176
     1
 40
1.0
176
     1
  0
VISUALSTYLE
  5
36
102
{ACAD_REACTORS
330
2A
102
}
330
2A
100
AcDbVisualStyle
  2

 70
    12
177
     3
291
     1
 70
    58
 90
        2
176
     1
 90
        2
176
     1
 90
        0
176
     1
 90
        0
176
     1
 40
0.6
176
     1
 40
30.0
176
     1
 62
     7
420
 16777215
176
     1
 90
        1
176
     1
 90
        4
176
     1
 62
     7
176
     1
 62
   257
176
     1
 90
        1
176
     1
 90
        1
176
     1
 40
1.0
176
     1
 90
        8
176
     1
 62
     7
176
     1
 40
1.0
176
     1
 90
        1
176
     1
 90
        6
176
     1
 90
        2
176
     1
 62
     7
176
     1
 90
        5
176
     1
 90
        0
176
     1
 90
        0
176
     1
290
     0
176
     1
 90
        1
176
     1
 40
50.0
176
     1
 90
        0
176
     1
290
     0
176
     1
290
     1
176
     1
290
     1
176
     1
290
     0
176
     1
290
     0
176
     1
290
     0
176
     1
290
     0
176
     1
290
     0
176
     1
290
     0
176
     1
 90
       50
176
     1
 40
0.0
176
     1
 40
1.0
176
     1
 90
        0
176
     1
 62
    18
176
     1
 90
       50
176
     1
 90
        3
176
     1
 62
     5
420
      255
176
     1
290
     0
176
     1
 90
       50
176
     1
 90
       50
176
     1
 90
       50
176
     1
290
     0
176
     1
 90
       50
176
     1
 62
   256
176
     0
 40
1.0
176
     0
 90
        2
176
     1
  1
strokes_ogs.tif
176
     1
290
     0
176
     1
 40
1.0
176
     1
 40
1.0
176
     1
  0
VISUALSTYLE
  5
3A
102
{ACAD_REACTORS
330
2A
102
}
330
2A
100
AcDbVisualStyle
  2

 70
    16
177
     3
291
     1
 70
    58
 90
        2
176
     1
 90
        2
176
     1
 90
        3
176
     1
 90
        0
176
     1
 40
0.6
176
     1
 40
30.0
176
     1
 62
     8
420
  8421504
176
     1
 90
        1
176
     1
 90
        4
176
     1
 62
     7
176
     1
 62
   257
176
     1
 90
        1
176
     1
 90
        1
176
     1
 40
1.0
176
     1
 90
        8
176
     1
 62
     8
420
  8421504
176
     1
 40
1.0
176
     1
 90
        1
176
     1
 90
        6
176
     1
 90
        2
176
     1
 62
     7
176
     1
 90
        5
176
     1
 90
        0
176
     1
 90
        0
176
     1
290
     0
176
     1
 90
        1
176
     1
 40
0.0
176
     1
 90
        0
176
     1
290
     0
176
     1
290
     1
176
     1
290
     1
176
     1
290
     0
176
     1
290
     0
176
     1
290
     0
176
     1
290
     0
176
     1
290
     0
176
     1
290
     0
176
     1
 90
       50
176
     1
 40
0.0
176
     1
 40
1.0
176
     1
 90
        0
176
     1
 62
    18
176
     1
 90
       50
176
     1
 90
        3
176
     1
 62
     5
420
      255
176
     1
290
     0
176
     1
 90
       50
176
     1
 90
       50
176
     1
 90
       50
176
     1
290
     0
176
     1
 90
       50
176
     1
 62
   256
176
     0
 40
1.0
176
     0
 90
        2
176
     1
  1
strokes_ogs.tif
176
     1
290
     0
176
     1
 40
1.0
176
     1
 40
1.0
176
     1
  0
VISUALSTYLE
  5
34
102
{ACAD_REACTORS
330
2A
102
}
330
2A
100
AcDbVisualStyle
  2

 70
     9
177
     3
291
     0
 70
    58
 90
        3
176
     1
 90
        2
176
     1
 90
        0
176
     1
 90
        0
176
     1
 40
0.6
176
     1
 40
30.0
176
     1
 62
     7
420
 16777215
176
     1
 90
        2
176
     1
 90
        2
176
     1
 62
     7
176
     1
 62
   257
176
     1
 90
        1
176
     1
 90
        1
176
     1
 40
179.0
176
     1
 90
        8
176
     1
 62
     7
176
     1
 40
1.0
176
     1
 90
        1
176
     1
 90
        6
176
     1
 90
        2
176
     1
 62
     7
176
     1
 90
        3
176
     1
 90
        0
176
     1
 90
        0
176
     1
290
     0
176
     1
 90
        1
176
     1
 40
0.0
176
     1
 90
        0
176
     1
290
     0
176
     1
290
     1
176
     1
290
     1
176
     1
290
     0
176
     1
290
     0
176
     1
290
     0
176
     1
290
     0
176
     1
290
     0
176
     1
290
     0
176
     1
 90
       50
176
     1
 40
0.0
176
     1
 40
1.0
176
     1
 90
        0
176
     1
 62
    18
176
     1
 90
       50
176
     1
 90
        3
176
     1
 62
     5
420
      255
176
     1
290
     0
176
     1
 90
       50
176
     1
 90
       50
176
     1
 90
       50
176
     1
290
     0
176
     1
 90
       50
176
     1
 62
   256
176
     0
 40
1.0
176
     0
 90
        2
176
     1
  1
strokes_ogs.tif
176
     1
290
     0
176
     1
 40
1.0
176
     1
 40
1.0
176
     1
  0
VISUALSTYLE
  5
35
102
{ACAD_REACTORS
330
2A
102
}
330
2A
100
AcDbVisualStyle
  2

 70
    11
177
     3
291
     1
 70
    58
 90
        2
176
     1
 90
        2
176
     1
 90
        0
176
     1
 90
        0
176
     1
 40
0.6
176
     1
 40
30.0
176
     1
 62
     7
420
 16777215
176
     1
 90
        1
176
     1
 90
        4
176
     1
 62
     7
176
     1
 62
   257
176
     1
 90
        1
176
     1
 90
        1
176
     1
 40
1.0
176
     1
 90
        8
176
     1
 62
     7
176
     1
 40
1.0
176
     1
 90
        1
176
     1
 90
        6
176
     1
 90
        2
176
     1
 62
     7
176
     1
 90
        5
176
     1
 90
        0
176
     1
 90
        0
176
     1
290
     0
176
     1
 90
        1
176
     1
 40
-50.0
176
     1
 90
        0
176
     1
290
     0
176
     1
290
     1
176
     1
290
     1
176
     1
290
     0
176
     1
290
     0
176
     1
290
     0
176
     1
290
     0
176
     1
290
     0
176
     1
290
     0
176
     1
 90
       50
176
     1
 40
0.0
176
     1
 40
1.0
176
     1
 90
        0
176
     1
 62
    18
176
     1
 90
       50
176
     1
 90
        3
176
     1
 62
     5
420
      255
176
     1
290
     0
176
     1
 90
       50
176
     1
 90
       50
176
     1
 90
       50
176
     1
290
     0
176
     1
 90
       50
176
     1
 62
   256
176
     0
 40
1.0
176
     0
 90
        2
176
     1
  1
strokes_ogs.tif
176
     1
290
     0
176
     1
 40
1.0
176
     1
 40
1.0
176
     1
  0
VISUALSTYLE
  5
3D
102
{ACAD_REACTORS
330
2A
102
}
330
2A
100
AcDbVisualStyle
  2

 70
    22
177
     3
291
     1
 70
    58
 90
        2
176
     1
 90
        2
176
     1
 90
        0
176
     1
 90
        0
176
     1
 40
0.6
176
     1
 40
30.0
176
     1
 62
     7
420
 16777215
176
     1
 90
        1
176
     1
 90
        4
176
     1
 62
     7
176
     1
 62
   257
176
     1
 90
        1
176
     1
 90
        1
176
     1
 40
1.0
176
     1
 90
        8
176
     1
 62
     7
176
     1
 40
1.0
176
     1
 90
        1
176
     1
 90
        6
176
     1
 90
        2
176
     1
 62
     7
176
     1
 90
        5
176
     1
 90
        0
176
     1
 90
        0
176
     1
290
     0
176
     1
 90
        1
176
     1
 40
0.0
176
     1
 90
        0
176
     1
290
     0
176
     1
290
     1
176
     1
290
     1
176
     1
290
     0
176
     1
290
     0
176
     1
290
     0
176
     1
290
     0
176
     1
290
     0
176
     1
290
     0
176
     1
 90
       50
176
     1
 40
0.0
176
     1
 40
1.0
176
     1
 90
        0
176
     1
 62
    18
176
     1
 90
       50
176
     1
 90
        3
176
     1
 62
     5
420
      255
176
     1
290
     0
176
     1
 90
       50
176
     1
 90
       50
176
     1
 90
       50
176
     1
290
     0
176
     1
 90
       50
176
     1
 62
   256
176
     0
 40
1.0
176
     0
 90
        2
176
     1
  1
strokes_ogs.tif
176
     1
290
     0
176
     1
 40
1.0
176
     1
 40
1.0
176
     1
  0
VISUALSTYLE
  5
39
102
{ACAD_REACTORS
330
2A
102
}
330
2A
100
AcDbVisualStyle
  2

 70
    15
177
     3
291
     1
 70
    58
 90
        2
176
     1
 90
        2
176
     1
 90
        0
176
     1
 90
        0
176
     1
 40
0.6
176
     1
 40
30.0
176
     1
 62
     7
420
 16777215
176
     1
 90
        1
176
     1
 90
        4
176
     1
 62
     7
176
     1
 62
   257
176
     1
 90
        1
176
     1
 90
        1
176
     1
 40
1.0
176
     1
 90
        8
176
     1
 62
     7
176
     1
 40
1.0
176
     1
 90
        1
176
     1
 90
        6
176
     1
 90
        2
176
     1
 62
     7
176
     1
 90
        5
176
     1
 90
        0
176
     1
 90
        0
176
     1
290
     0
176
     1
 90
        1
176
     1
 40
0.0
176
     1
 90
        0
176
     1
290
     0
176
     1
290
     1
176
     1
290
     1
176
     1
290
     0
176
     1
290
     0
176
     1
290
     0
176
     1
290
     0
176
     1
290
     0
176
     1
290
     0
176
     1
 90
       50
176
     1
 40
0.0
176
     1
 40
1.0
176
     1
 90
        0
176
     1
 62
    18
176
     1
 90
       50
176
     1
 90
        3
176
     1
 62
     5
420
      255
176
     1
290
     0
176
     1
 90
       50
176
     1
 90
       50
176
     1
 90
       50
176
     1
290
     0
176
     1
 90
       50
176
     1
 62
   256
176
     0
 40
1.0
176
     0
 90
        2
176
     1
  1
strokes_ogs.tif
176
     1
290
     0
176
     1
 40
1.0
176
     1
 40
1.0
176
     1
  0
VISUALSTYLE
  5
2B
102
{ACAD_REACTORS
330
2A
102
}
330
2A
100
AcDbVisualStyle
  2

 70
     0
177
     3
291
     1
 70
    58
 90
        2
176
     1
 90
        1
176
     1
 90
        1
176
     1
 90
        2
176
     1
 40
0.6
176
     1
 40
30.0
176
     1
 62
     7
420
 16777215
176
     1
 90
        0
176
     1
 90
        0
176
     1
 62
     7
176
     1
 62
   257
176
     1
 90
        1
176
     1
 90
        1
176
     1
 40
1.0
176
     1
 90
        8
176
     1
 62
     7
176
     1
 40
1.0
176
     1
 90
        1
176
     1
 90
        6
176
     1
 90
        2
176
     1
 62
     7
176
     1
 90
        5
176
     1
 90
        0
176
     1
 90
        0
176
     1
290
     0
176
     1
 90
       13
176
     1
 40
0.0
176
     1
 90
        0
176
     1
290
     0
176
     1
290
     1
176
     1
290
     1
176
     1
290
     0
176
     1
290
     0
176
     1
290
     0
176
     1
290
     0
176
     1
290
     0
176
     1
290
     0
176
     1
 90
       50
176
     1
 40
0.0
176
     1
 40
1.0
176
     1
 90
        0
176
     1
 62
    18
176
     1
 90
       50
176
     1
 90
        3
176
     1
 62
     5
420
      255
176
     1
290
     0
176
     1
 90
       50
176
     1
 90
       50
176
     1
 90
       50
176
     1
290
     0
176
     1
 90
       50
176
     1
 62
   256
176
     0
 40
1.0
176
     0
 90
        2
176
     1
  1
strokes_ogs.tif
176
     1
290
     0
176
     1
 40
1.0
176
     1
 40
1.0
176
     1
  0
VISUALSTYLE
  5
2C
102
{ACAD_REACTORS
330
2A
102
}
330
2A
100
AcDbVisualStyle
  2

 70
     1
177
     3
291
     1
 70
    58
 90
        2
176
     1
 90
        1
176
     1
 90
        1
176
     1
 90
        2
176
     1
 40
0.6
176
     1
 40
30.0
176
     1
 62
     7
420
 16777215
176
     1
 90
        1
176
     1
 90
        0
176
     1
 62
     7
176
     1
 62
   257
176
     1
 90
        1
176
     1
 90
        1
176
     1
 40
1.0
176
     1
 90
        0
176
     1
 62
   257
176
     1
 40
1.0
176
     1
 90
        1
176
     1
 90
        6
176
     1
 90
        2
176
     1
 62
     7
176
     1
 90
        5
176
     1
 90
        0
176
     1
 90
        0
176
     1
290
     0
176
     1
 90
       13
176
     1
 40
0.0
176
     1
 90
        0
176
     1
290
     0
176
     1
290
     1
176
     1
290
     1
176
     1
290
     0
176
     1
290
     0
176
     1
290
     0
176
     1
290
     0
176
     1
290
     0
176
     1
290
     0
176
     1
 90
       50
176
     1
 40
0.0
176
     1
 40
1.0
176
     1
 90
        0
176
     1
 62
    18
176
     1
 90
       50
176
     1
 90
        3
176
     1
 62
     5
420
      255
176
     1
290
     0
176
     1
 90
       50
176
     1
 90
       50
176
     1
 90
       50
176
     1
290
     0
176
     1
 90
       50
176
     1
 62
   256
176
     0
 40
1.0
176
     0
 90
        2
176
     1
  1
strokes_ogs.tif
176
     1
290
     0
176
     1
 40
1.0
176
     1
 40
1.0
176
     1
  0
VISUALSTYLE
  5
2D
102
{ACAD_REACTORS
330
2A
102
}
330
2A
100
AcDbVisualStyle
  2

 70
     2
177
     3
291
     1
 70
    58
 90
        2
176
     1
 90
        2
176
     1
 90
        1
176
     1
 90
        2
176
     1
 40
0.6
176
     1
 40
30.0
176
     1
 62
     7
420
 16777215
176
     1
 90
        0
176
     1
 90
        0
176
     1
 62
     7
176
     1
 62
   257
176
     1
 90
        1
176
     1
 90
        1
176
     1
 40
1.0
176
     1
 90
        0
176
     1
 62
     7
176
     1
 40
1.0
176
     1
 90
        1
176
     1
 90
        6
176
     1
 90
        2
176
     1
 62
     7
176
     1
 90
        5
176
     1
 90
        0
176
     1
 90
        0
176
     1
290
     0
176
     1
 90
       13
176
     1
 40
0.0
176
     1
 90
        0
176
     1
290
     0
176
     1
290
     1
176
     1
290
     1
176
     1
290
     0
176
     1
290
     0
176
     1
290
     0
176
     1
290
     0
176
     1
290
     0
176
     1
290
     0
176
     1
 90
       50
176
     1
 40
0.0
176
     1
 40
1.0
176
     1
 90
        0
176
     1
 62
    18
176
     1
 90
       50
176
     1
 90
        3
176
     1
 62
     5
420
      255
176
     1
290
     0
176
     1
 90
       50
176
     1
 90
       50
176
     1
 90
       50
176
     1
290
     0
176
     1
 90
       50
176
     1
 62
   256
176
     0
 40
1.0
176
     0
 90
        2
176
     1
  1
strokes_ogs.tif
176
     1
290
     0
176
     1
 40
1.0
176
     1
 40
1.0
176
     1
  0
VISUALSTYLE
  5
2E
102
{ACAD_REACTORS
330
2A
102
}
330
2A
100
AcDbVisualStyle
  2

 70
     3
177
     3
291
     1
 70
    58
 90
        2
176
     1
 90
        2
176
     1
 90
        1
176
     1
 90
        2
176
     1
 40
0.6
176
     1
 40
30.0
176
     1
 62
     7
420
 16777215
176
     1
 90
        1
176
     1
 90
        0
176
     1
 62
     7
176
     1
 62
   257
176
     1
 90
        1
176
     1
 90
        1
176
     1
 40
1.0
176
     1
 90
        0
176
     1
 62
   257
176
     1
 40
1.0
176
     1
 90
        1
176
     1
 90
        6
176
     1
 90
        2
176
     1
 62
     7
176
     1
 90
        5
176
     1
 90
        0
176
     1
 90
        0
176
     1
290
     0
176
     1
 90
       13
176
     1
 40
0.0
176
     1
 90
        0
176
     1
290
     0
176
     1
290
     1
176
     1
290
     1
176
     1
290
     0
176
     1
290
     0
176
     1
290
     0
176
     1
290
     0
176
     1
290
     0
176
     1
290
     0
176
     1
 90
       50
176
     1
 40
0.0
176
     1
 40
1.0
176
     1
 90
        0
176
     1
 62
    18
176
     1
 90
       50
176
     1
 90
        3
176
     1
 62
     5
420
      255
176
     1
290
     0
176
     1
 90
       50
176
     1
 90
       50
176
     1
 90
       50
176
     1
290
     0
176
     1
 90
       50
176
     1
 62
   256
176
     0
 40
1.0
176
     0
 90
        2
176
     1
  1
strokes_ogs.tif
176
     1
290
     0
176
     1
 40
1.0
176
     1
 40
1.0
176
     1
  0
VISUALSTYLE
  5
31
102
{ACAD_REACTORS
330
2A
102
}
330
2A
100
AcDbVisualStyle
  2

 70
     6
177
     3
291
     0
 70
    58
 90
        1
176
     1
 90
        2
176
     1
 90
        2
176
     1
 90
        0
176
     1
 40
0.6
176
     1
 40
30.0
176
     1
 62
     7
420
 16777215
176
     1
 90
        2
176
     1
 90
        2
176
     1
 62
     7
176
     1
 62
   257
176
     1
 90
        2
176
     1
 90
        1
176
     1
 40
40.0
176
     1
 90
        0
176
     1
 62
   257
176
     1
 40
1.0
176
     1
 90
        1
176
     1
 90
        6
176
     1
 90
        2
176
     1
 62
     7
176
     1
 90
        3
176
     1
 90
        0
176
     1
 90
        0
176
     1
290
     0
176
     1
 90
        1
176
     1
 40
0.0
176
     1
 90
        0
176
     1
290
     0
176
     1
290
     1
176
     1
290
     1
176
     1
290
     0
176
     1
290
     0
176
     1
290
     0
176
     1
290
     0
176
     1
290
     0
176
     1
290
     0
176
     1
 90
       50
176
     1
 40
0.0
176
     1
 40
1.0
176
     1
 90
        0
176
     1
 62
    18
176
     1
 90
       50
176
     1
 90
        3
176
     1
 62
     5
420
      255
176
     1
290
     0
176
     1
 90
       50
176
     1
 90
       50
176
     1
 90
       50
176
     1
290
     0
176
     1
 90
       50
176
     1
 62
   256
176
     0
 40
1.0
176
     0
 90
        2
176
     1
  1
strokes_ogs.tif
176
     1
290
     0
176
     1
 40
1.0
176
     1
 40
1.0
176
     1
  0
VISUALSTYLE
  5
3B
102
{ACAD_REACTORS
330
2A
102
}
330
2A
100
AcDbVisualStyle
  2

 70
    20
177
     3
291
     1
 70
    58
 90
        2
176
     1
 90
        2
176
     1
 90
        0
176
     1
 90
        0
176
     1
 40
0.6
176
     1
 40
30.0
176
     1
 62
     7
420
 16777215
176
     1
 90
        1
176
     1
 90
        4
176
     1
 62
     7
176
     1
 62
   257
176
     1
 90
        1
176
     1
 90
        1
176
     1
 40
1.0
176
     1
 90
       10
176
     1
 62
     7
176
     1
 40
1.0
176
     1
 90
        1
176
     1
 90
        6
176
     1
 90
        2
176
     1
 62
     7
176
     1
 90
        5
176
     1
 90
        0
176
     1
 90
        0
176
     1
290
     0
176
     1
 90
        1
176
     1
 40
0.0
176
     1
 90
        0
176
     1
290
     0
176
     1
290
     1
176
     1
290
     1
176
     1
290
     0
176
     1
290
     0
176
     1
290
     0
176
     1
290
     0
176
     1
290
     0
176
     1
290
     0
176
     1
 90
       50
176
     1
 40
0.0
176
     1
 40
1.0
176
     1
 90
        0
176
     1
 62
    18
176
     1
 90
       50
176
     1
 90
        3
176
     1
 62
     5
420
      255
176
     1
290
     0
176
     1
 90
       50
176
     1
 90
       50
176
     1
 90
       50
176
     1
290
     0
176
     1
 90
       50
176
     1
 62
   256
176
     0
 40
1.0
176
     0
 90
        2
176
     1
  1
strokes_ogs.tif
176
     1
290
     0
176
     1
 40
1.0
176
     1
 40
1.0
176
     1
  0
VISUALSTYLE
  5
38
102
{ACAD_REACTORS
330
2A
102
}
330
2A
100
AcDbVisualStyle
  2

 70
    14
177
     3
291
     1
 70
    58
 90
        2
176
     1
 90
        2
176
     1
 90
        0
176
     1
 90
        0
176
     1
 40
0.6
176
     1
 40
30.0
176
     1
 62
     7
420
 16777215
176
     1
 90
        1
176
     1
 90
        4
176
     1
 62
     7
176
     1
 62
   257
176
     1
 90
        7
176
     1
 90
        7
176
     1
 40
1.0
176
     1
 90
        8
176
     1
 62
     7
176
     1
 40
1.0
176
     1
 90
        1
176
     1
 90
        6
176
     1
 90
        2
176
     1
 62
     7
176
     1
 90
        5
176
     1
 90
        0
176
     1
 90
        0
176
     1
290
     0
176
     1
 90
        1
176
     1
 40
0.0
176
     1
 90
        0
176
     1
290
     0
176
     1
290
     1
176
     1
290
     1
176
     1
290
     0
176
     1
290
     0
176
     1
290
     0
176
     1
290
     0
176
     1
290
     0
176
     1
290
     0
176
     1
 90
       50
176
     1
 40
0.0
176
     1
 40
1.0
176
     1
 90
        0
176
     1
 62
    18
176
     1
 90
       50
176
     1
 90
        3
176
     1
 62
     5
420
      255
176
     1
290
     0
176
     1
 90
       50
176
     1
 90
       50
176
     1
 90
       50
176
     1
290
     0
176
     1
 90
       50
176
     1
 62
   256
176
     0
 40
1.0
176
     0
 90
        2
176
     1
  1
strokes_ogs.tif
176
     1
290
     0
176
     1
 40
1.0
176
     1
 40
1.0
176
     1
  0
VISUALSTYLE
  5
3C
102
{ACAD_REACTORS
330
2A
102
}
330
2A
100
AcDbVisualStyle
  2

 70
    21
177
     3
291
     1
 70
    58
 90
        2
176
     1
 90
        2
176
     1
 90
        0
176
     1
 90
        0
176
     1
 40
0.6
176
     1
 40
30.0
176
     1
 62
     7
420
 16777215
176
     1
 90
        1
176
     1
 90
        4
176
     1
 62
     7
176
     1
 62
   257
176
     1
 90
        1
176
     1
 90
        1
176
     1
 40
1.0
176
     1
 90
        9
176
     1
 62
     7
176
     1
 40
1.0
176
     1
 90
        1
176
     1
 90
        6
176
     1
 90
        2
176
     1
 62
     7
176
     1
 90
        5
176
     1
 90
        0
176
     1
 90
        0
176
     1
290
     0
176
     1
 90
        1
176
     1
 40
0.0
176
     1
 90
        0
176
     1
290
     0
176
     1
290
     1
176
     1
290
     1
176
     1
290
     0
176
     1
290
     0
176
     1
290
     0
176
     1
290
     0
176
     1
290
     0
176
     1
290
     0
176
     1
 90
       50
176
     1
 40
0.0
176
     1
 40
1.0
176
     1
 90
        0
176
     1
 62
    18
176
     1
 90
       50
176
     1
 90
        3
176
     1
 62
     5
420
      255
176
     1
290
     0
176
     1
 90
       50
176
     1
 90
       50
176
     1
 90
       50
176
     1
290
     0
176
     1
 90
       50
176
     1
 62
   256
176
     0
 40
1.0
176
     0
 90
        2
176
     1
  1
strokes_ogs.tif
176
     1
290
     0
176
     1
 40
1.0
176
     1
 40
1.0
176
     1
  0
VISUALSTYLE
  5
33
102
{ACAD_REACTORS
330
2A
102
}
330
2A
100
AcDbVisualStyle
  2

 70
     8
177
     3
291
     0
 70
    58
 90
        2
176
     1
 90
        3
176
     1
 90
        0
176
     1
 90
        2
176
     1
 40
0.6
176
     1
 40
30.0
176
     1
 62
     7
420
 16777215
176
     1
 90
        0
176
     1
 90
        0
176
     1
 62
     7
176
     1
 62
   257
176
     1
 90
        1
176
     1
 90
        1
176
     1
 40
1.0
176
     1
 90
        8
176
     1
 62
   257
176
     1
 40
1.0
176
     1
 90
        1
176
     1
 90
        6
176
     1
 90
        2
176
     1
 62
     7
176
     1
 90
        3
176
     1
 90
        0
176
     1
 90
        0
176
     1
290
     0
176
     1
 90
       13
176
     1
 40
0.0
176
     1
 90
        0
176
     1
290
     0
176
     1
290
     1
176
     1
290
     1
176
     1
290
     0
176
     1
290
     0
176
     1
290
     0
176
     1
290
     0
176
     1
290
     0
176
     1
290
     0
176
     1
 90
       50
176
     1
 40
0.0
176
     1
 40
1.0
176
     1
 90
        0
176
     1
 62
    18
176
     1
 90
       50
176
     1
 90
        3
176
     1
 62
     5
420
      255
176
     1
290
     0
176
     1
 90
       50
176
     1
 90
       50
176
     1
 90
       50
176
     1
290
     0
176
     1
 90
       50
176
     1
 62
   256
176
     0
 40
1.0
176
     0
 90
        2
176
     1
  1
strokes_ogs.tif
176
     1
290
     0
176
     1
 40
1.0
176
     1
 40
1.0
176
     1
  0
VISUALSTYLE
  5
42
102
{ACAD_REACTORS
330
2A
102
}
330
2A
100
AcDbVisualStyle
  2

 70
    27
177
     3
291
     0
 70
    58
 90
        2
176
     1
 90
        2
176
     1
 90
        1
176
     1
 90
        2
176
     1
 40
0.6
176
     1
 40
30.0
176
     1
 62
     7
420
 16777215
176
     1
 90
        0
176
     1
 90
        4
176
     1
 62
     7
176
     1
 62
   257
176
     1
 90
        1
176
     1
 90
        1
176
     1
 40
1.0
176
     1
 90
        8
176
     1
 62
   257
176
     1
 40
1.0
176
     1
 90
        1
176
     1
 90
        6
176
     1
 90
        2
176
     1
 62
     8
420
  7895160
176
     1
 90
        3
176
     1
 90
        0
176
     1
 90
        0
176
     1
290
     0
176
     1
 90
        5
176
     1
 40
0.0
176
     1
 90
        0
176
     1
290
     0
176
     1
290
     1
176
     1
290
     1
176
     1
290
     0
176
     1
290
     0
176
     1
290
     0
176
     1
290
     0
176
     1
290
     0
176
     1
290
     0
176
     1
 90
       50
176
     1
 40
0.0
176
     1
 40
1.0
176
     1
 90
        0
176
     1
 62
    18
176
     1
 90
       50
176
     1
 90
        3
176
     1
 62
     5
420
      255
176
     1
290
     0
176
     1
 90
       50
176
     1
 90
       50
176
     1
 90
       50
176
     1
290
     0
176
     1
 90
       50
176
     1
 62
   256
176
     0
 40
1.0
176
     0
 90
        2
176
     1
  1
strokes_ogs.tif
176
     1
290
     0
176
     1
 40
1.0
176
     1
 40
1.0
176
     1
  0
VISUALSTYLE
  5
41
102
{ACAD_REACTORS
330
2A
102
}
330
2A
100
AcDbVisualStyle
  2

 70
    26
177
     3
291
     0
 70
    58
 90
        2
176
     1
 90
        2
176
     1
 90
        1
176
     1
 90
        2
176
     1
 40
0.6
176
     1
 40
30.0
176
     1
 62
     7
420
 16777215
176
     1
 90
        1
176
     1
 90
       10
176
     1
 62
     7
176
     1
 62
   257
176
     1
 90
        2
176
     1
 90
        1
176
     1
 40
1.0
176
     1
 90
        8
176
     1
 62
   257
176
     1
 40
1.0
176
     1
 90
        1
176
     1
 90
        6
176
     1
 90
        2
176
     1
 62
     7
176
     1
 90
        3
176
     1
 90
        0
176
     1
 90
        0
176
     1
290
     0
176
     1
 90
        5
176
     1
 40
0.0
176
     1
 90
        0
176
     1
290
     0
176
     1
290
     1
176
     1
290
     1
176
     1
290
     0
176
     1
290
     0
176
     1
290
     0
176
     1
290
     0
176
     1
290
     0
176
     1
290
     0
176
     1
 90
       50
176
     1
 40
0.0
176
     1
 40
1.0
176
     1
 90
        0
176
     1
 62
    18
176
     1
 90
       50
176
     1
 90
        3
176
     1
 62
     5
420
      255
176
     1
290
     0
176
     1
 90
       50
176
     1
 90
       50
176
     1
 90
       50
176
     1
290
     0
176
     1
 90
       50
176
     1
 62
   256
176
     0
 40
1.0
176
     0
 90
        2
176
     1
  1
strokes_ogs.tif
176
     1
290
     0
176
     1
 40
1.0
176
     1
 40
1.0
176
     1
  0
VISUALSTYLE
  5
3E
102
{ACAD_REACTORS
330
2A
102
}
330
2A
100
AcDbVisualStyle
  2

 70
    23
177
     3
291
     0
 70
    58
 90
        2
176
     1
 90
        2
176
     1
 90
        3
176
     1
 90
        0
176
     1
 40
0.6
176
     1
 40
30.0
176
     1
 62
     7
420
 16777215
176
     1
 90
        2
176
     1
 90
        2
176
     1
 62
     7
176
     1
 62
     7
176
     1
 90
        1
176
     1
 90
        1
176
     1
 40
40.0
176
     1
 90
        8
176
     1
 62
     7
176
     1
 40
1.0
176
     1
 90
        1
176
     1
 90
        6
176
     1
 90
        2
176
     1
 62
     7
176
     1
 90
        3
176
     1
 90
        0
176
     1
 90
        0
176
     1
290
     0
176
     1
 90
        1
176
     1
 40
0.0
176
     1
 90
        0
176
     1
290
     0
176
     1
290
     1
176
     1
290
     1
176
     1
290
     0
176
     1
290
     0
176
     1
290
     0
176
     1
290
     0
176
     1
290
     0
176
     1
290
     0
176
     1
 90
       50
176
     1
 40
0.0
176
     1
 40
1.0
176
     1
 90
        0
176
     1
 62
    18
176
     1
 90
       50
176
     1
 90
        3
176
     1
 62
     5
420
      255
176
     1
290
     0
176
     1
 90
       50
176
     1
 90
       50
176
     1
 90
       50
176
     1
290
     0
176
     1
 90
       50
176
     1
 62
   256
176
     0
 40
1.0
176
     0
 90
        2
176
     1
  1
strokes_ogs.tif
176
     1
290
     0
176
     1
 40
1.0
176
     1
 40
1.0
176
     1
  0
VISUALSTYLE
  5
3F
102
{ACAD_REACTORS
330
2A
102
}
330
2A
100
AcDbVisualStyle
  2

 70
    24
177
     3
291
     0
 70
    58
 90
        1
176
     1
 90
        2
176
     1
 90
        2
176
     1
 90
        0
176
     1
 40
0.6
176
     1
 40
30.0
176
     1
 62
     7
420
 16777215
176
     1
 90
        2
176
     1
 90
        2
176
     1
 62
     7
176
     1
 62
     7
176
     1
 90
        1
176
     1
 90
        1
176
     1
 40
40.0
176
     1
 90
       11
176
     1
 62
     7
176
     1
 40
1.0
176
     1
 90
        1
176
     1
 90
        6
176
     1
 90
        2
176
     1
 62
     7
176
     1
 90
        6
176
     1
 90
        0
176
     1
 90
        0
176
     1
290
     0
176
     1
 90
        1
176
     1
 40
0.0
176
     1
 90
        0
176
     1
290
     0
176
     1
290
     1
176
     1
290
     1
176
     1
290
     0
176
     1
290
     0
176
     1
290
     0
176
     1
290
     0
176
     1
290
     0
176
     1
290
     0
176
     1
 90
       50
176
     1
 40
0.0
176
     1
 40
1.0
176
     1
 90
        0
176
     1
 62
    18
176
     1
 90
       50
176
     1
 90
        3
176
     1
 62
     5
420
      255
176
     1
290
     0
176
     1
 90
       50
176
     1
 90
       50
176
     1
 90
       50
176
     1
290
     0
176
     1
 90
       50
176
     1
 62
   256
176
     0
 40
1.0
176
     0
 90
        2
176
     1
  1
strokes_ogs.tif
176
     1
290
     0
176
     1
 40
1.0
176
     1
 40
1.0
176
     1
  0
VISUALSTYLE
  5
37
102
{ACAD_REACTORS
330
2A
102
}
330
2A
100
AcDbVisualStyle
  2

 70
    13
177
     3
291
     1
 70
    58
 90
        2
176
     1
 90
        2
176
     1
 90
        0
176
     1
 90
        0
176
     1
 40
0.6
176
     1
 40
30.0
176
     1
 62
     7
420
 16777215
176
     1
 90
        1
176
     1
 90
        4
176
     1
 62
     7
176
     1
 62
   257
176
     1
 90
        1
176
     1
 90
        1
176
     1
 40
1.0
176
     1
 90
       12
176
     1
 62
     7
176
     1
 40
1.0
176
     1
 90
        1
176
     1
 90
        6
176
     1
 90
        2
176
     1
 62
     7
176
     1
 90
        5
176
     1
 90
        0
176
     1
 90
        0
176
     1
290
     0
176
     1
 90
        1
176
     1
 40
0.0
176
     1
 90
        0
176
     1
290
     0
176
     1
290
     1
176
     1
290
     1
176
     1
290
     0
176
     1
290
     0
176
     1
290
     0
176
     1
290
     0
176
     1
290
     0
176
     1
290
     0
176
     1
 90
       50
176
     1
 40
0.0
176
     1
 40
1.0
176
     1
 90
        0
176
     1
 62
    18
176
     1
 90
       50
176
     1
 90
        3
176
     1
 62
     5
420
      255
176
     1
290
     0
176
     1
 90
       50
176
     1
 90
       50
176
     1
 90
       50
176
     1
290
     0
176
     1
 90
       50
176
     1
 62
   256
176
     0
 40
1.0
176
     0
 90
        2
176
     1
  1
strokes_ogs.tif
176
     1
290
     0
176
     1
 40
1.0
176
     1
 40
1.0
176
     1
  0
VISUALSTYLE
  5
30
102
{ACAD_REACTORS
330
2A
102
}
330
2A
100
AcDbVisualStyle
  2

 70
     5
177
     3
291
     0
 70
    58
 90
        0
176
     1
 90
        2
176
     1
 90
        0
176
     1
 90
        0
176
     1
 40
0.6
176
     1
 40
30.0
176
     1
 62
     7
420
 16777215
176
     1
 90
        1
176
     1
 90
        4
176
     1
 62
     7
176
     1
 62
   257
176
     1
 90
        1
176
     1
 90
        1
176
     1
 40
1.0
176
     1
 90
        0
176
     1
 62
   257
176
     1
 40
1.0
176
     1
 90
        1
176
     1
 90
        6
176
     1
 90
        2
176
     1
 62
     7
176
     1
 90
        3
176
     1
 90
        0
176
     1
 90
        0
176
     1
290
     0
176
     1
 90
        1
176
     1
 40
0.0
176
     1
 90
        0
176
     1
290
     0
176
     1
290
     1
176
     1
290
     1
176
     1
290
     0
176
     1
290
     0
176
     1
290
     0
176
     1
290
     0
176
     1
290
     0
176
     1
290
     0
176
     1
 90
       50
176
     1
 40
0.0
176
     1
 40
1.0
176
     1
 90
        0
176
     1
 62
    18
176
     1
 90
       50
176
     1
 90
        3
176
     1
 62
     5
420
      255
176
     1
290
     0
176
     1
 90
       50
176
     1
 90
       50
176
     1
 90
       50
176
     1
290
     0
176
     1
 90
       50
176
     1
 62
   256
176
     0
 40
1.0
176
     0
 90
        2
176
     1
  1
strokes_ogs.tif
176
     1
290
     0
176
     1
 40
1.0
176
     1
 40
1.0
176
     1
  0
VISUALSTYLE
  5
40
102
{ACAD_REACTORS
330
2A
102
}
330
2A
100
AcDbVisualStyle
  2

 70
    25
177
     3
291
     0
 70
    58
 90
        2
176
     1
 90
        2
176
     1
 90
        1
176
     1
 90
        1
176
     1
 40
0.5
176
     1
 40
30.0
176
     1
 62
     7
420
 16777215
176
     1
 90
        1
176
     1
 90
        0
176
     1
 62
     7
176
     1
 62
   257
176
     1
 90
        1
176
     1
 90
        1
176
     1
 40
1.0
176
     1
 90
        8
176
     1
 62
     7
176
     1
 40
1.0
176
     1
 90
        1
176
     1
 90
        6
176
     1
 90
        2
176
     1
 62
     7
176
     1
 90
        3
176
     1
 90
        0
176
     1
 90
        0
176
     1
290
     0
176
     1
 90
       13
176
     1
 40
0.0
176
     1
 90
        0
176
     1
290
     0
176
     1
290
     1
176
     1
290
     1
176
     1
290
     0
176
     1
290
     0
176
     1
290
     0
176
     1
290
     0
176
     1
290
     0
176
     1
290
     0
176
     1
 90
       50
176
     1
 40
0.0
176
     1
 40
1.0
176
     1
 90
        0
176
     1
 62
    18
176
     1
 90
       50
176
     1
 90
        3
176
     1
 62
     5
420
      255
176
     1
290
     0
176
     1
 90
       50
176
     1
 90
       50
176
     1
 90
       50
176
     1
290
     0
176
     1
 90
       50
176
     1
 62
   256
176
     0
 40
1.0
176
     0
 90
        2
176
     1
  1
strokes_ogs.tif
176
     1
290
     0
176
     1
 40
1.0
176
     1
 40
1.0
176
     1
  0
DICTIONARYVAR
  5
3147
102
{ACAD_REACTORS
330
3146
102
}
330
3146
100
DictionaryVariables
280
     0
  1
1:1
  0
DICTIONARYVAR
  5
315F
102
{ACAD_REACTORS
330
3146
102
}
330
3146
100
DictionaryVariables
280
     0
  1
STANDARD
  0
DICTIONARYVAR
  5
315E
102
{ACAD_REACTORS
330
3146
102
}
330
3146
100
DictionaryVariables
280
     0
  1
STANDARD
  0
DICTIONARYVAR
  5
9FFE
102
{ACAD_REACTORS
330
3146
102
}
330
3146
100
DictionaryVariables
280
     0
  1
Metric50
  0
DICTIONARYVAR
  5
9FFF
102
{ACAD_REACTORS
330
3146
102
}
330
3146
100
DictionaryVariables
280
     0
  1
Metric50
  0
DICTIONARYVAR
  5
3160
102
{ACAD_REACTORS
330
3146
102
}
330
3146
100
DictionaryVariables
280
     0
  1
1
  0
DICTIONARYVAR
  5
3161
102
{ACAD_REACTORS
330
3146
102
}
330
3146
100
DictionaryVariables
280
     0
  1
15
  0
DICTIONARY
  5
A004
330
9FC4
100
AcDbDictionary
280
     1
281
     1
  3
ACAD_XREC_ROUNDTRIP
360
A043
  0
DICTIONARY
  5
52E7
330
22
100
AcDbDictionary
280
     1
281
     1
  0
DICTIONARY
  5
A002
330
9FC3
100
AcDbDictionary
280
     1
281
     1
  3
ACAD_XREC_ROUNDTRIP
360
A042
  0
DICTIONARY
  5
9FBE
330
3151
100
AcDbDictionary
280
     1
281
     1
  3
ACAD_ROUNDTRIP_2008_TABLESTYLE_CELLSTYLEMAP
360
A041
  0
XRECORD
  5
A043
102
{ACAD_REACTORS
330
A004
102
}
330
A004
100
AcDbXrecord
280
     1
102
DISPLAYNAME
  1
Metric50
102
FLAGS
 90
        0
  0
XRECORD
  5
A042
102
{ACAD_REACTORS
330
A002
102
}
330
A002
100
AcDbXrecord
280
     1
102
DISPLAYNAME
  1
Metric50
102
FLAGS
 90
        0
  0
CELLSTYLEMAP
  5
A041
102
{ACAD_REACTORS
330
9FBE
102
}
330
9FBE
100
AcDbCellStyleMap
 90
        3
300
CELLSTYLE
  1
TABLEFORMAT_BEGIN
 90
        5
170
     1
 91
        0
 92
    32768
 62
   257
 93
        1
300
CONTENTFORMAT
  1
CONTENTFORMAT_BEGIN
 90
        0
 91
        0
 92
      512
 93
        0
300

 40
0.0
140
1.0
 94
        5
 62
     0
340
11
144
6.0
309
CONTENTFORMAT_END
171
     1
301
MARGIN
  1
CELLMARGIN_BEGIN
 40
1.5
 40
1.5
 40
1.5
 40
1.5
 40
0.18
 40
0.18
309
CELLMARGIN_END
 94
        6
 95
        1
302
GRIDFORMAT
  1
GRIDFORMAT_BEGIN
 90
        0
 91
        1
 62
     0
 92
       -2
340
0
 93
        0
 40
1.125
309
GRIDFORMAT_END
 95
        2
302
GRIDFORMAT
  1
GRIDFORMAT_BEGIN
 90
        0
 91
        1
 62
     0
 92
       -2
340
0
 93
        0
 40
1.125
309
GRIDFORMAT_END
 95
        4
302
GRIDFORMAT
  1
GRIDFORMAT_BEGIN
 90
        0
 91
        1
 62
     0
 92
       -2
340
0
 93
        0
 40
1.125
309
GRIDFORMAT_END
 95
        8
302
GRIDFORMAT
  1
GRIDFORMAT_BEGIN
 90
        0
 91
        1
 62
     0
 92
       -2
340
0
 93
        0
 40
1.125
309
GRIDFORMAT_END
 95
       16
302
GRIDFORMAT
  1
GRIDFORMAT_BEGIN
 90
        0
 91
        1
 62
     0
 92
       -2
340
0
 93
        0
 40
1.125
309
GRIDFORMAT_END
 95
       32
302
GRIDFORMAT
  1
GRIDFORMAT_BEGIN
 90
        0
 91
        1
 62
     0
 92
       -2
340
0
 93
        0
 40
1.125
309
GRIDFORMAT_END
309
TABLEFORMAT_END
  1
CELLSTYLE_BEGIN
 90
        1
 91
        1
300
_TITLE
309
CELLSTYLE_END
300
CELLSTYLE
  1
TABLEFORMAT_BEGIN
 90
        5
170
     1
 91
        0
 92
        0
 62
   257
 93
        1
300
CONTENTFORMAT
  1
CONTENTFORMAT_BEGIN
 90
        0
 91
        0
 92
      512
 93
        0
300

 40
0.0
140
1.0
 94
        5
 62
     0
340
11
144
4.5
309
CONTENTFORMAT_END
171
     1
301
MARGIN
  1
CELLMARGIN_BEGIN
 40
1.5
 40
1.5
 40
1.5
 40
1.5
 40
0.18
 40
0.18
309
CELLMARGIN_END
 94
        6
 95
        1
302
GRIDFORMAT
  1
GRIDFORMAT_BEGIN
 90
        0
 91
        1
 62
     0
 92
       -2
340
0
 93
        0
 40
1.125
309
GRIDFORMAT_END
 95
        2
302
GRIDFORMAT
  1
GRIDFORMAT_BEGIN
 90
        0
 91
        1
 62
     0
 92
       -2
340
0
 93
        0
 40
1.125
309
GRIDFORMAT_END
 95
        4
302
GRIDFORMAT
  1
GRIDFORMAT_BEGIN
 90
        0
 91
        1
 62
     0
 92
       -2
340
0
 93
        0
 40
1.125
309
GRIDFORMAT_END
 95
        8
302
GRIDFORMAT
  1
GRIDFORMAT_BEGIN
 90
        0
 91
        1
 62
     0
 92
       -2
340
0
 93
        0
 40
1.125
309
GRIDFORMAT_END
 95
       16
302
GRIDFORMAT
  1
GRIDFORMAT_BEGIN
 90
        0
 91
        1
 62
     0
 92
       -2
340
0
 93
        0
 40
1.125
309
GRIDFORMAT_END
 95
       32
302
GRIDFORMAT
  1
GRIDFORMAT_BEGIN
 90
        0
 91
        1
 62
     0
 92
       -2
340
0
 93
        0
 40
1.125
309
GRIDFORMAT_END
309
TABLEFORMAT_END
  1
CELLSTYLE_BEGIN
 90
        2
 91
        1
300
_HEADER
309
CELLSTYLE_END
300
CELLSTYLE
  1
TABLEFORMAT_BEGIN
 90
        5
170
     1
 91
        0
 92
        0
 62
   257
 93
        1
300
CONTENTFORMAT
  1
CONTENTFORMAT_BEGIN
 90
        0
 91
        0
 92
      512
 93
        0
300

 40
0.0
140
1.0
 94
        2
 62
     0
340
11
144
4.5
309
CONTENTFORMAT_END
171
     1
301
MARGIN
  1
CELLMARGIN_BEGIN
 40
1.5
 40
1.5
 40
1.5
 40
1.5
 40
0.18
 40
0.18
309
CELLMARGIN_END
 94
        6
 95
        1
302
GRIDFORMAT
  1
GRIDFORMAT_BEGIN
 90
        0
 91
        1
 62
     0
 92
       -2
340
0
 93
        0
 40
1.125
309
GRIDFORMAT_END
 95
        2
302
GRIDFORMAT
  1
GRIDFORMAT_BEGIN
 90
        0
 91
        1
 62
     0
 92
       -2
340
0
 93
        0
 40
1.125
309
GRIDFORMAT_END
 95
        4
302
GRIDFORMAT
  1
GRIDFORMAT_BEGIN
 90
        0
 91
        1
 62
     0
 92
       -2
340
0
 93
        0
 40
1.125
309
GRIDFORMAT_END
 95
        8
302
GRIDFORMAT
  1
GRIDFORMAT_BEGIN
 90
        0
 91
        1
 62
     0
 92
       -2
340
0
 93
        0
 40
1.125
309
GRIDFORMAT_END
 95
       16
302
GRIDFORMAT
  1
GRIDFORMAT_BEGIN
 90
        0
 91
        1
 62
     0
 92
       -2
340
0
 93
        0
 40
1.125
309
GRIDFORMAT_END
 95
       32
302
GRIDFORMAT
  1
GRIDFORMAT_BEGIN
 90
        0
 91
        1
 62
     0
 92
       -2
340
0
 93
        0
 40
1.125
309
GRIDFORMAT_END
309
TABLEFORMAT_END
  1
CELLSTYLE_BEGIN
 90
        3
 91
        2
300
_DATA
309
CELLSTYLE_END
  0
ENDSEC
  0
SECTION
  2
ACDSDATA
 70
     2
 71
     6
  0
ACDSSCHEMA
 90
        0
  1
AcDb_Thumbnail_Schema
  2
AcDbDs::ID
280
    10
 91
        8
  2
Thumbnail_Data
280
    15
 91
        0
101
ACDSRECORD
 95
        0
 90
        1
  2
AcDbDs::TreatedAsObjectData
280
     1
291
     1
101
ACDSRECORD
 95
        0
 90
        2
  2
AcDbDs::Legacy
280
     1
291
     1
101
ACDSRECORD
  1
AcDbDs::ID
 90
        3
  2
AcDs:Indexable
280
     1
291
     1
101
ACDSRECORD
  1
AcDbDs::ID
 90
        4
  2
AcDbDs::HandleAttribute
280
     7
282
     1
  0
ACDSSCHEMA
 90
        1
  1
AcDbDs::TreatedAsObjectDataSchema
  2
AcDbDs::TreatedAsObjectData
280
     1
 91
        0
  0
ACDSSCHEMA
 90
        2
  1
AcDbDs::LegacySchema
  2
AcDbDs::Legacy
280
     1
 91
        0
  0
ACDSSCHEMA
 90
        3
  1
AcDbDs::IndexedPropertySchema
  2
AcDs:Indexable
280
     1
 91
        0
  0
ACDSSCHEMA
 90
        4
  1
AcDbDs::HandleAttributeSchema
  2
AcDbDs::HandleAttribute
280
     7
 91
        1
284
     1
  0
ACDSRECORD
 90
        0
  2
AcDbDs::ID
280
    10
320
22
  2
Thumbnail_Data
280
    15
 94
     1865
310
89504E470D0A1A0A0000000D4948445200000100000000CB0803000000B6F4BD9700000300504C5445000000000000FFFFFF0000000000000000000000000000000000000000000000000000330000660000990000CC0000FF0033000033330033660033990033CC0033FF0066000066330066660066990066CC0066FF0099
310
000099330099660099990099CC0099FF00CC0000CC3300CC6600CC9900CCCC00CCFF00FF0000FF3300FF6600FF9900FFCC00FFFF3300003300333300663300993300CC3300FF3333003333333333663333993333CC3333FF3366003366333366663366993366CC3366FF3399003399333399663399993399CC3399FF33CC00
310
33CC3333CC6633CC9933CCCC33CCFF33FF0033FF3333FF6633FF9933FFCC33FFFF6600006600336600666600996600CC6600FF6633006633336633666633996633CC6633FF6666006666336666666666996666CC6666FF6699006699336699666699996699CC6699FF66CC0066CC3366CC6666CC9966CCCC66CCFF66FF0066
310
FF3366FF6666FF9966FFCC66FFFF9900009900339900669900999900CC9900FF9933009933339933669933999933CC9933FF9966009966339966669966999966CC9966FF9999009999339999669999999999CC9999FF99CC0099CC3399CC6699CC9999CCCC99CCFF99FF0099FF3399FF6699FF9999FFCC99FFFFCC0000CC00
310
33CC0066CC0099CC00CCCC00FFCC3300CC3333CC3366CC3399CC33CCCC33FFCC6600CC6633CC6666CC6699CC66CCCC66FFCC9900CC9933CC9966CC9999CC99CCCC99FFCCCC00CCCC33CCCC66CCCC99CCCCCCCCCCFFCCFF00CCFF33CCFF66CCFF99CCFFCCCCFFFFFF0000FF0033FF0066FF0099FF00CCFF00FFFF3300FF3333
310
FF3366FF3399FF33CCFF33FFFF6600FF6633FF6666FF6699FF66CCFF66FFFF9900FF9933FF9966FF9999FF99CCFF99FFFFCC00FFCC33FFCC66FFCC99FFCCCCFFCCFFFFFF00FFFF33FFFF66FFFF99FFFFCCFFFFFF0000000D0D0D1A1A1A2828283535354343435050505D5D5D6B6B6B787878868686939393A1A1A1AEAEAEBB
310
BBBBC9C9C9D6D6D6E4E4E4F1F1F1FFFFFF000000000000000000000000000000000000000000000000000000000000C11FEF66000004044944415478DAEDDD4D72B3300C06E0DE2027F1FD776C7C0DADB4CE421BF61FF80730D8C15F9ACC54D6EB99A634743AC3832CDBC26D7FD878FB010000000000000000000000000000
310
000000000000000000007ED3DC97DBDF07F8EEED02000000A01240D60F4907F600A46C0601B620E0DF06010000A015C0513E704B1A98E737538166007738E0996D03CC760072D727A20C30AFCD0E401AFA4F5D80ED74810CC019805B00736C9C5FB737387F560C1097F27114B801D8114E5FA84D820180BB23A0D554768170
310
FBD77B1E0096EEEFFA002AC73A7380AC046BDA4B00740FC0B9D3F39E01385FBFC608E004E0DD3A14BA37BA80E62418BB4006E88A80E576F3CC45F24BEFE90448793F02B83D07C8CD30388F310C86AB0C035FB8F6F4F21AE0DA05348F02B9DFB3F33913AE3D81AC4C8432C0F2E2D64130C64078CFC244284F01AB4F782A00BC
310
25C1730E509A04E314D08534C03E9E727132E88C2C860240E5F6DB02A07CDD945FAC01840C486E3FB0D605F2753BAB00210DF8C354C806C032DA93106D19C01547EBA9F101422DA0DAC21A69FC2E10BF88937F7F2887BD7F2DDA003EBEDD47634DF0A39B9CD4EE10F9D4062FBD5B64D6E5B06D00F7B40D1046010058066000
310
00000000000000000000001802381602FCB528566E9DEF5A30AB2C89D5D702E1720B00EE28930E04C000008011804A126C02DC164F55025C22E016E05C4ADEC78BD101B6F3975ABA2D00A2EB9E6B9D00D404A05749B0920D750284FD7055008A37B90150C9829A23E0F268AC1A01AE00A041008A05C1F30850E68078EA08F0
310
1C09604328D26201C00960DF42610CE0990152CC8C00E0535B26813ECD0497037F68697AB31E85B344F17C00580F0ED7AF3F02FC3502F67A80F04D04C8E05DE016608851C0B547012992E040C360EF3C40069D0774CF0465E89960C75AE00C30CA5AA07B355802D40A22B6004E8923FCF6A10D807A45489457843A6A827253
310
1314CD3541BE44C07E518D2478FE4ED10A2000F80840EBC72B00E87D381A30DC80007711504683300006066000DC01C880002F9B0580FF89001EB00B743709453FCB00BD7F6D14DBE4000000AD00067F67E8F1AA190078BC8A00230053ABF1E3CD3FB3AD0DA01101538E000000C032801807383CEF31092006BA00350148C4
310
400EA0A2CCED2FAB5FC31120F4281F8CD84C820000C0D000FEE1FDE4EB6D5A4E8AB0EDC5907900E400CBF380C9C63CA03D1324233341999A0036EA014D80090000000000000080F101A4F1644CC4C4A3B187349F0D8B8587A3A77FA5E35B27006004804D02F4EC1245040C0CD0BA66740123005F680A00BEDCFE3C80BE0600
310
000000000000000000000000000000000000000000000000000000000000000000000000000000000000000000000000000000000000000000000000000000C66BFF00715E7BA6CFD2368B0000000049454E44AE426082
  0
ENDSEC
  0
EOF
