  0
SECTION
  2
HEADER
  9
$ACADVER
  1
AC1027
  9
$ACADMAINTVER
 70
    55
  9
$DWGCODEPAGE
  3
ANSI_932
  9
$LASTSAVEDBY
  1
marketing
  9
$REQUIREDVERSIONS
160
                 0
  9
$INSBASE
 10
0.0
 20
0.0
 30
0.0
  9
$EXTMIN
 10
-0.1232244904658728
 20
-0.121759839963488
 30
-0.0000000000112498
  9
$EXTMAX
 10
525.0484354373165
 20
742.5665322977192
 30
0.0000000000002956
  9
$LIMMIN
 10
-1176.0
 20
-798.0
  9
$LIMMAX
 10
594.0
 20
1078.0
  9
$ORTHOMODE
 70
     1
  9
$REGENMODE
 70
     1
  9
$FILLMODE
 70
     1
  9
$QTEXTMODE
 70
     0
  9
$MIRRTEXT
 70
     1
  9
$LTSCALE
 40
10.0
  9
$ATTMODE
 70
     1
  9
$TEXTSIZE
 40
2.0
  9
$TRACEWID
 40
0.05
  9
$TEXTSTYLE
  7
STANDARD
  9
$CLAYER
  8
130
  9
$CELTYPE
  6
BYLAYER
  9
$CECOLOR
 62
   256
  9
$CELTSCALE
 40
1.0
  9
$DISPSILH
 70
     0
  9
$DIMSCALE
 40
1.0
  9
$DIMASZ
 40
2.0
  9
$DIMEXO
 40
1.0
  9
$DIMDLI
 40
0.5
  9
$DIMRND
 40
0.0
  9
$DIMDLE
 40
0.0
  9
$DIMEXE
 40
0.5
  9
$DIMTP
 40
0.0
  9
$DIMTM
 40
0.0
  9
$DIMTXT
 40
6.0
  9
$DIMCEN
 40
0.09
  9
$DIMTSZ
 40
0.0
  9
$DIMTOL
 70
     0
  9
$DIMLIM
 70
     0
  9
$DIMTIH
 70
     0
  9
$DIMTOH
 70
     0
  9
$DIMSE1
 70
     0
  9
$DIMSE2
 70
     0
  9
$DIMTAD
 70
     3
  9
$DIMZIN
 70
    12
  9
$DIMBLK
  1
OPEN
  9
$DIMASO
 70
     1
  9
$DIMSHO
 70
     1
  9
$DIMPOST
  1

  9
$DIMAPOST
  1

  9
$DIMALT
 70
     0
  9
$DIMALTD
 70
     2
  9
$DIMALTF
 40
25.4
  9
$DIMLFAC
 40
1.0
  9
$DIMTOFL
 70
     0
  9
$DIMTVP
 40
0.0
  9
$DIMTIX
 70
     0
  9
$DIMSOXD
 70
     0
  9
$DIMSAH
 70
     0
  9
$DIMBLK1
  1

  9
$DIMBLK2
  1

  9
$DIMSTYLE
  2
STANDARD
  9
$DIMCLRD
 70
     0
  9
$DIMCLRE
 70
     0
  9
$DIMCLRT
 70
     0
  9
$DIMTFAC
 40
1.0
  9
$DIMGAP
 40
2.0
  9
$DIMJUST
 70
     0
  9
$DIMSD1
 70
     0
  9
$DIMSD2
 70
     0
  9
$DIMTOLJ
 70
     1
  9
$DIMTZIN
 70
     0
  9
$DIMALTZ
 70
     0
  9
$DIMALTTZ
 70
     0
  9
$DIMUPT
 70
     0
  9
$DIMDEC
 70
     1
  9
$DIMTDEC
 70
     1
  9
$DIMALTU
 70
     2
  9
$DIMALTTD
 70
     2
  9
$DIMTXSTY
  7
STANDARD
  9
$DIMAUNIT
 70
     0
  9
$DIMADEC
 70
     0
  9
$DIMALTRND
 40
0.0
  9
$DIMAZIN
 70
     0
  9
$DIMDSEP
 70
    46
  9
$DIMATFIT
 70
     3
  9
$DIMFRAC
 70
     0
  9
$DIMLDRBLK
  1
OPEN
  9
$DIMLUNIT
 70
     2
  9
$DIMLWD
 70
    -2
  9
$DIMLWE
 70
    -2
  9
$DIMTMOVE
 70
     0
  9
$DIMFXL
 40
1.0
  9
$DIMFXLON
 70
     0
  9
$DIMJOGANG
 40
0.7853981633974483
  9
$DIMTFILL
 70
     1
  9
$DIMTFILLCLR
 70
     0
  9
$DIMARCSYM
 70
     0
  9
$DIMLTYPE
  6

  9
$DIMLTEX1
  6

  9
$DIMLTEX2
  6

  9
$DIMTXTDIRECTION
 70
     0
  9
$LUNITS
 70
     2
  9
$LUPREC
 70
     8
  9
$SKETCHINC
 40
0.1
  9
$FILLETRAD
 40
0.0
  9
$AUNITS
 70
     0
  9
$AUPREC
 70
     0
  9
$MENU
  1
.
  9
$ELEVATION
 40
0.0
  9
$PELEVATION
 40
0.0
  9
$THICKNESS
 40
0.0
  9
$LIMCHECK
 70
     0
  9
$CHAMFERA
 40
0.0
  9
$CHAMFERB
 40
0.0
  9
$CHAMFERC
 40
0.0
  9
$CHAMFERD
 40
0.0
  9
$SKPOLY
 70
     0
  9
$TDCREATE
 40
2452286.555658658
  9
$TDUCREATE
 40
2452286.180658658
  9
$TDUPDATE
 40
2459243.550480185
  9
$TDUUPDATE
 40
2459243.175480185
  9
$TDINDWG
 40
3.3248980787
  9
$TDUSRTIMER
 40
3.3248940162
  9
$USRTIMER
 70
     1
  9
$ANGBASE
 50
0.0
  9
$ANGDIR
 70
     0
  9
$PDMODE
 70
     0
  9
$PDSIZE
 40
0.0
  9
$PLINEWID
 40
0.0
  9
$SPLFRAME
 70
     0
  9
$SPLINETYPE
 70
     6
  9
$SPLINESEGS
 70
     8
  9
$HANDSEED
  5
2711E
  9
$SURFTAB1
 70
     6
  9
$SURFTAB2
 70
     6
  9
$SURFTYPE
 70
     6
  9
$SURFU
 70
     6
  9
$SURFV
 70
     6
  9
$UCSBASE
  2

  9
$UCSNAME
  2

  9
$UCSORG
 10
0.0
 20
0.0
 30
0.0
  9
$UCSXDIR
 10
1.0
 20
0.0
 30
0.0
  9
$UCSYDIR
 10
0.0
 20
1.0
 30
0.0
  9
$UCSORTHOREF
  2

  9
$UCSORTHOVIEW
 70
     0
  9
$UCSORGTOP
 10
0.0
 20
0.0
 30
0.0
  9
$UCSORGBOTTOM
 10
0.0
 20
0.0
 30
0.0
  9
$UCSORGLEFT
 10
0.0
 20
0.0
 30
0.0
  9
$UCSORGRIGHT
 10
0.0
 20
0.0
 30
0.0
  9
$UCSORGFRONT
 10
0.0
 20
0.0
 30
0.0
  9
$UCSORGBACK
 10
0.0
 20
0.0
 30
0.0
  9
$PUCSBASE
  2

  9
$PUCSNAME
  2

  9
$PUCSORG
 10
0.0
 20
0.0
 30
0.0
  9
$PUCSXDIR
 10
1.0
 20
0.0
 30
0.0
  9
$PUCSYDIR
 10
0.0
 20
1.0
 30
0.0
  9
$PUCSORTHOREF
  2

  9
$PUCSORTHOVIEW
 70
     0
  9
$PUCSORGTOP
 10
0.0
 20
0.0
 30
0.0
  9
$PUCSORGBOTTOM
 10
0.0
 20
0.0
 30
0.0
  9
$PUCSORGLEFT
 10
0.0
 20
0.0
 30
0.0
  9
$PUCSORGRIGHT
 10
0.0
 20
0.0
 30
0.0
  9
$PUCSORGFRONT
 10
0.0
 20
0.0
 30
0.0
  9
$PUCSORGBACK
 10
0.0
 20
0.0
 30
0.0
  9
$USERI1
 70
     0
  9
$USERI2
 70
     0
  9
$USERI3
 70
     0
  9
$USERI4
 70
     0
  9
$USERI5
 70
     0
  9
$USERR1
 40
0.0
  9
$USERR2
 40
0.0
  9
$USERR3
 40
0.0
  9
$USERR4
 40
0.0
  9
$USERR5
 40
0.0
  9
$WORLDVIEW
 70
     1
  9
$SHADEDGE
 70
     3
  9
$SHADEDIF
 70
    70
  9
$TILEMODE
 70
     1
  9
$MAXACTVP
 70
    48
  9
$PINSBASE
 10
0.0
 20
0.0
 30
0.0
  9
$PLIMCHECK
 70
     0
  9
$PEXTMIN
 10
0.0
 20
0.0
 30
0.0
  9
$PEXTMAX
 10
0.0
 20
0.0
 30
0.0
  9
$PLIMMIN
 10
0.0
 20
0.0
  9
$PLIMMAX
 10
0.0
 20
0.0
  9
$UNITMODE
 70
     0
  9
$VISRETAIN
 70
     1
  9
$PLINEGEN
 70
     0
  9
$PSLTSCALE
 70
     0
  9
$TREEDEPTH
 70
  3020
  9
$CMLSTYLE
  2
STANDARD
  9
$CMLJUST
 70
     0
  9
$CMLSCALE
 40
1.0
  9
$PROXYGRAPHICS
 70
     1
  9
$MEASUREMENT
 70
     0
  9
$CELWEIGHT
370
    -1
  9
$ENDCAPS
280
     0
  9
$JOINSTYLE
280
     0
  9
$LWDISPLAY
290
     0
  9
$INSUNITS
 70
     0
  9
$HYPERLINKBASE
  1

  9
$STYLESHEET
  1
MONOCHROME.CTB
  9
$XEDIT
290
     1
  9
$CEPSNTYPE
380
     0
  9
$PSTYLEMODE
290
     1
  9
$FINGERPRINTGUID
  2

  9
$VERSIONGUID
  2
{0ED240A4-17C6-4A93-9B23-62757FBDB38C}
  9
$EXTNAMES
290
     1
  9
$PSVPSCALE
 40
0.0
  9
$OLESTARTUP
290
     0
  9
$SORTENTS
280
   127
  9
$INDEXCTL
280
     0
  9
$HIDETEXT
280
     0
  9
$XCLIPFRAME
280
     2
  9
$HALOGAP
280
     0
  9
$OBSCOLOR
 70
   257
  9
$OBSLTYPE
280
     0
  9
$INTERSECTIONDISPLAY
280
     0
  9
$INTERSECTIONCOLOR
 70
   257
  9
$DIMASSOC
280
     1
  9
$PROJECTNAME
  1

  9
$CAMERADISPLAY
290
     0
  9
$LENSLENGTH
 40
50.0
  9
$CAMERAHEIGHT
 40
0.0
  9
$STEPSPERSEC
 40
2.0
  9
$STEPSIZE
 40
6.0
  9
$3DDWFPREC
 40
2.0
  9
$PSOLWIDTH
 40
0.25
  9
$PSOLHEIGHT
 40
4.0
  9
$LOFTANG1
 40
1.570796326794896
  9
$LOFTANG2
 40
1.570796326794896
  9
$LOFTMAG1
 40
0.0
  9
$LOFTMAG2
 40
0.0
  9
$LOFTPARAM
 70
     7
  9
$LOFTNORMALS
280
     1
  9
$LATITUDE
 40
37.795
  9
$LONGITUDE
 40
-122.394
  9
$NORTHDIRECTION
 40
0.0
  9
$TIMEZONE
 70
 -8000
  9
$LIGHTGLYPHDISPLAY
280
     1
  9
$TILEMODELIGHTSYNCH
280
     1
  9
$CMATERIAL
347
FFFD
  9
$SOLIDHIST
280
     1
  9
$SHOWHIST
280
     1
  9
$DWFFRAME
280
     2
  9
$DGNFRAME
280
     0
  9
$REALWORLDSCALE
290
     1
  9
$INTERFERECOLOR
 62
     1
  9
$INTERFEREOBJVS
345
1001F
  9
$INTERFEREVPVS
346
1001C
  9
$CSHADOW
280
     0
  9
$SHADOWPLANELOCATION
 40
0.0
  0
ENDSEC
  0
SECTION
  2
CLASSES
  0
CLASS
  1
ACDBDICTIONARYWDFLT
  2
AcDbDictionaryWithDefault
  3
ObjectDBX Classes
 90
        0
 91
        1
280
     0
281
     0
  0
CLASS
  1
DICTIONARYVAR
  2
AcDbDictionaryVar
  3
ObjectDBX Classes
 90
        0
 91
       12
280
     0
281
     0
  0
CLASS
  1
MATERIAL
  2
AcDbMaterial
  3
ObjectDBX Classes
 90
     1153
 91
        3
280
     0
281
     0
  0
CLASS
  1
VISUALSTYLE
  2
AcDbVisualStyle
  3
ObjectDBX Classes
 90
     4095
 91
       26
280
     0
281
     0
  0
CLASS
  1
TABLESTYLE
  2
AcDbTableStyle
  3
ObjectDBX Classes
 90
     4095
 91
        1
280
     0
281
     0
  0
CLASS
  1
SCALE
  2
AcDbScale
  3
ObjectDBX Classes
 90
     1153
 91
       33
280
     0
281
     0
  0
CLASS
  1
MLEADERSTYLE
  2
AcDbMLeaderStyle
  3
ACDB_MLEADERSTYLE_CLASS
 90
     4095
 91
        1
280
     0
281
     0
  0
CLASS
  1
CELLSTYLEMAP
  2
AcDbCellStyleMap
  3
ObjectDBX Classes
 90
     1152
 91
        3
280
     0
281
     0
  0
CLASS
  1
AEC_REFEDIT_STATUS_TRACKER
  2
AecDbRefEditStatusTracker
  3
AecArchBase70|Product Desc: Autodesk Architectural Desktop 2007 |Company: Autodesk,Inc. |WEB Address: www.autodesk.com
 90
      129
 91
        0
280
     0
281
     0
  0
CLASS
  1
NPOCOLLECTION
  2
AcDbImpNonPersistentObjectsCollection
  3
ObjectDBX Classes
 90
     1153
 91
        0
280
     0
281
     0
  0
CLASS
  1
SORTENTSTABLE
  2
AcDbSortentsTable
  3
ObjectDBX Classes
 90
        0
 91
        5
280
     0
281
     0
  0
CLASS
  1
ACDB_ALDIMOBJECTCONTEXTDATA_CLASS
  2
AcDbAlignedDimensionObjectContextData
  3
ObjectDBX Classes
 90
     1153
 91
        1
280
     0
281
     0
  0
CLASS
  1
ACDBSECTIONVIEWSTYLE
  2
AcDbSectionViewStyle
  3
ObjectDBX Classes
 90
     1025
 91
        1
280
     0
281
     0
  0
CLASS
  1
ACDBDETAILVIEWSTYLE
  2
AcDbDetailViewStyle
  3
ObjectDBX Classes
 90
     1025
 91
        1
280
     0
281
     0
  0
ENDSEC
  0
SECTION
  2
TABLES
  0
TABLE
  2
VPORT
  5
8
330
0
100
AcDbSymbolTable
 70
     1
  0
VPORT
  5
15B34
330
8
100
AcDbSymbolTableRecord
100
AcDbViewportTableRecord
  2
*Active
 70
     0
 10
0.0
 20
0.0
 11
1.0
 21
1.0
 12
262.4626054734254
 22
371.2223862288779
 13
0.0
 23
0.0
 14
1.0
 24
1.0
 15
10.0
 25
10.0
 16
0.0
 26
0.0
 36
1.0
 17
0.0
 27
0.0
 37
0.0
 40
749.4400038843889
 41
2.464339908952958
 42
50.0
 43
0.0
 44
0.0
 50
0.0
 51
0.0
 71
     0
 72
   100
 73
     1
 74
     1
 75
     0
 76
     0
 77
     0
 78
     1
281
     0
 65
     1
110
0.0
120
0.0
130
0.0
111
1.0
121
0.0
131
0.0
112
0.0
122
1.0
132
0.0
 79
     0
146
0.0
348
1001B
 60
     3
 61
     5
292
     1
282
     1
141
0.0
142
0.0
 63
   250
421
  3355443
1001
ACAD_NAV_VCDISPLAY
1070
     3
  0
ENDTAB
  0
TABLE
  2
LTYPE
  5
5
330
0
100
AcDbSymbolTable
 70
    10
  0
LTYPE
  5
13
330
5
100
AcDbSymbolTableRecord
100
AcDbLinetypeTableRecord
  2
BYBLOCK
 70
     0
  3

 72
    65
 73
     0
 40
0.0
  0
LTYPE
  5
14
330
5
100
AcDbSymbolTableRecord
100
AcDbLinetypeTableRecord
  2
BYLAYER
 70
     0
  3

 72
    65
 73
     0
 40
0.0
  0
LTYPE
  5
15
330
5
100
AcDbSymbolTableRecord
100
AcDbLinetypeTableRecord
  2
CONTINUOUS
 70
     0
  3
Solid line
 72
    65
 73
     0
 40
0.0
  0
LTYPE
  5
22
330
5
100
AcDbSymbolTableRecord
100
AcDbLinetypeTableRecord
  2
CONTINOUS
 70
     0
  3
Solid line
 72
    65
 73
     0
 40
0.0
  0
LTYPE
  5
23
330
5
100
AcDbSymbolTableRecord
100
AcDbLinetypeTableRecord
  2
DASHED
 70
     0
  3
__ __ __ __ __ __ __ __ __ __ __ __ __ __ __
 72
    65
 73
     2
 40
0.75
 49
0.5
 74
     0
 49
-0.25
 74
     0
  0
LTYPE
  5
24
330
5
100
AcDbSymbolTableRecord
100
AcDbLinetypeTableRecord
  2
DASHDOT
 70
     0
  3
__ . __ . __ . __ . __ . __ . __ . __ . __ . __
 72
    65
 73
     4
 40
1.0
 49
0.5
 74
     0
 49
-0.25
 74
     0
 49
0.0
 74
     0
 49
-0.25
 74
     0
  0
LTYPE
  5
4C47
330
5
100
AcDbSymbolTableRecord
100
AcDbLinetypeTableRecord
  2
DIVIDE
 70
     0
  3
Divide ____ . . ____ . . ____ . . ____ . . ____
 72
    65
 73
     6
 40
1.25
 49
0.5
 74
     0
 49
-0.25
 74
     0
 49
0.0
 74
     0
 49
-0.25
 74
     0
 49
0.0
 74
     0
 49
-0.25
 74
     0
  0
LTYPE
  5
685F
330
5
100
AcDbSymbolTableRecord
100
AcDbLinetypeTableRecord
  2
PHANTOM
 70
     0
  3
Phantom ______  __  __  ______  __  __  ______
 72
    65
 73
     6
 40
2.5
 49
1.25
 74
     0
 49
-0.25
 74
     0
 49
0.25
 74
     0
 49
-0.25
 74
     0
 49
0.25
 74
     0
 49
-0.25
 74
     0
  0
LTYPE
  5
16086
330
5
100
AcDbSymbolTableRecord
100
AcDbLinetypeTableRecord
  2
SLD-実線
 70
     0
  3
SolidWorks Line Style
 72
    65
 73
     0
 40
0.0
  0
LTYPE
  5
16089
330
5
100
AcDbSymbolTableRecord
100
AcDbLinetypeTableRecord
  2
SLD-鎖線
 70
     0
  3
SolidWorks Line Style
 72
    65
 73
     4
 40
10.16
 49
6.349999999999997
 74
     0
 49
-1.27
 74
     0
 49
1.27
 74
     0
 49
-1.27
 74
     0
  0
LTYPE
  5
270EE
330
5
100
AcDbSymbolTableRecord
100
AcDbLinetypeTableRecord
  2
HIDDENX2
 70
     0
  3
Hidden (2x) ____ ____ ____ ____ ____ ____ ____
 72
    65
 73
     2
 40
0.75
 49
0.5
 74
     0
 49
-0.25
 74
     0
  0
ENDTAB
  0
TABLE
  2
LAYER
  5
2
102
{ACAD_XDICTIONARY
360
160A2
102
}
330
0
100
AcDbSymbolTable
 70
    16
  0
LAYER
  5
10
102
{ACAD_XDICTIONARY
360
10054
102
}
330
2
100
AcDbSymbolTableRecord
100
AcDbLayerTableRecord
  2
0
 70
     0
 62
     7
  6
CONTINOUS
370
    -3
390
F
347
1000D
348
0
  0
LAYER
  5
2F
102
{ACAD_XDICTIONARY
360
10056
102
}
330
2
100
AcDbSymbolTableRecord
100
AcDbLayerTableRecord
  2
10
 70
     0
 62
     4
  6
CONTINOUS
370
    -3
390
F
347
1000D
348
0
  0
LAYER
  5
31
102
{ACAD_XDICTIONARY
360
10058
102
}
330
2
100
AcDbSymbolTableRecord
100
AcDbLayerTableRecord
  2
12
 70
     0
 62
     3
  6
CONTINOUS
370
    -3
390
F
347
1000D
348
0
  0
LAYER
  5
35
102
{ACAD_XDICTIONARY
360
1005A
102
}
330
2
100
AcDbSymbolTableRecord
100
AcDbLayerTableRecord
  2
16
 70
     0
 62
     6
  6
DASHDOT
370
    -3
390
F
347
1000D
348
0
  0
LAYER
  5
3D
102
{ACAD_XDICTIONARY
360
1005E
102
}
330
2
100
AcDbSymbolTableRecord
100
AcDbLayerTableRecord
  2
24
 70
     0
 62
     7
  6
CONTINOUS
370
    -3
390
F
347
1000D
348
0
  0
LAYER
  5
3A2
102
{ACAD_XDICTIONARY
360
10060
102
}
330
2
100
AcDbSymbolTableRecord
100
AcDbLayerTableRecord
  2
30
 70
     0
 62
     9
  6
CONTINUOUS
370
    -3
390
F
347
1000D
348
0
  0
LAYER
  5
3A4
330
2
100
AcDbSymbolTableRecord
100
AcDbLayerTableRecord
  2
DEFPOINTS
 70
     0
 62
     7
  6
CONTINUOUS
290
     0
370
    -3
390
F
347
1000D
348
0
  0
LAYER
  5
3BBA
102
{ACAD_XDICTIONARY
360
10062
102
}
330
2
100
AcDbSymbolTableRecord
100
AcDbLayerTableRecord
  2
18
 70
     0
 62
     5
  6
DIVIDE
370
    -3
390
F
347
1000D
348
0
  0
LAYER
  5
67A8
102
{ACAD_XDICTIONARY
360
10064
102
}
330
2
100
AcDbSymbolTableRecord
100
AcDbLayerTableRecord
  2
11
 70
     0
 62
     1
  6
CONTINOUS
370
    -3
390
F
347
1000D
348
0
  0
LAYER
  5
7837
102
{ACAD_XDICTIONARY
360
10066
102
}
330
2
100
AcDbSymbolTableRecord
100
AcDbLayerTableRecord
  2
17
 70
     0
 62
     2
  6
DASHDOT
370
    -3
390
F
347
1000D
348
0
  0
LAYER
  5
C500
102
{ACAD_XDICTIONARY
360
10070
102
}
330
2
100
AcDbSymbolTableRecord
100
AcDbLayerTableRecord
  2
240
 70
     0
 62
     7
  6
CONTINUOUS
370
    -3
390
F
347
1000D
348
0
  0
LAYER
  5
C501
102
{ACAD_XDICTIONARY
360
10072
102
}
330
2
100
AcDbSymbolTableRecord
100
AcDbLayerTableRecord
  2
5
 70
     0
 62
     7
  6
CONTINUOUS
370
    -3
390
F
347
1000D
348
0
  0
LAYER
  5
F7D2
102
{ACAD_XDICTIONARY
360
10076
102
}
330
2
100
AcDbSymbolTableRecord
100
AcDbLayerTableRecord
  2
13
 70
     0
 62
     3
  6
CONTINUOUS
370
    -3
390
F
347
1000D
348
0
  0
LAYER
  5
F7D8
102
{ACAD_XDICTIONARY
360
10078
102
}
330
2
100
AcDbSymbolTableRecord
100
AcDbLayerTableRecord
  2
130
 70
     0
 62
     4
  6
CONTINOUS
370
    -3
390
F
347
1000D
348
0
  0
LAYER
  5
F9C3
102
{ACAD_XDICTIONARY
360
1007A
102
}
330
2
100
AcDbSymbolTableRecord
100
AcDbLayerTableRecord
  2
131
 70
     0
 62
     4
  6
PHANTOM
370
    -3
390
F
347
1000D
348
0
  0
LAYER
  5
270E6
330
2
100
AcDbSymbolTableRecord
100
AcDbLayerTableRecord
  2
19
 70
     0
 62
     7
  6
CONTINOUS
370
    -3
390
F
347
1000D
348
0
1001
AcAecLayerStandard
1000

1000

1001
AcCmTransparency
1071
        0
  0
ENDTAB
  0
TABLE
  2
STYLE
  5
3
330
0
100
AcDbSymbolTable
 70
     3
  0
STYLE
  5
11
330
3
100
AcDbSymbolTableRecord
100
AcDbTextStyleTableRecord
  2
STANDARD
 70
     0
 40
0.0
 41
1.0
 50
0.0
 71
     0
 42
2.0
  3
txt.shx
  4
bigfont.shx
  0
STYLE
  5
C503
330
3
100
AcDbSymbolTableRecord
100
AcDbTextStyleTableRecord
  2
blockfont
 70
     0
 40
0.0
 41
1.0
 50
0.0
 71
     0
 42
0.2
  3
simplex.shx
  4
bigfont
  0
STYLE
  5
270ED
330
3
100
AcDbSymbolTableRecord
100
AcDbTextStyleTableRecord
  2

 70
     1
 40
0.0
 41
1.0
 50
0.0
 71
     0
 42
2.0
  3
ltypeshp.shx
  4

  0
ENDTAB
  0
TABLE
  2
VIEW
  5
6
330
0
100
AcDbSymbolTable
 70
     4
  0
VIEW
  5
230C
330
6
100
AcDbSymbolTableRecord
100
AcDbViewTableRecord
  2
OLE1
 70
     0
 40
148.912488
 10
429.497628
 20
2.560627
 41
103.145806
 11
0.0
 21
0.0
 31
1.0
 12
0.0
 22
0.0
 32
0.0
 42
50.0
 43
0.0
 44
0.0
 50
0.0
 71
     0
281
     0
 72
     0
 73
     0
348
1001B
  0
VIEW
  5
230E
330
6
100
AcDbSymbolTableRecord
100
AcDbViewTableRecord
  2
OLE2
 70
     0
 40
170.778692
 10
322.66497
 20
-5.978304
 41
102.467215
 11
0.0
 21
0.0
 31
1.0
 12
0.0
 22
0.0
 32
0.0
 42
50.0
 43
0.0
 44
0.0
 50
0.0
 71
     0
281
     0
 72
     0
 73
     0
348
1001B
  0
VIEW
  5
23AA
330
6
100
AcDbSymbolTableRecord
100
AcDbViewTableRecord
  2
OLE3
 70
     0
 40
591.7897389999998
 10
84.79698199999999
 20
-46.09335999999998
 41
388.792096
 11
0.0
 21
0.0
 31
1.0
 12
0.0
 22
0.0
 32
0.0
 42
50.0
 43
0.0
 44
0.0
 50
0.0
 71
     0
281
     0
 72
     0
 73
     0
348
1001B
  0
ENDTAB
  0
TABLE
  2
UCS
  5
7
330
0
100
AcDbSymbolTable
 70
     0
  0
ENDTAB
  0
TABLE
  2
APPID
  5
9
330
0
100
AcDbSymbolTable
 70
    12
  0
APPID
  5
12
330
9
100
AcDbSymbolTableRecord
100
AcDbRegAppTableRecord
  2
ACAD
 70
     0
  0
APPID
  5
ECD
330
9
100
AcDbSymbolTableRecord
100
AcDbRegAppTableRecord
  2
CONTENTBLOCKICON
 70
     0
  0
APPID
  5
100CA
330
9
100
AcDbSymbolTableRecord
100
AcDbRegAppTableRecord
  2
ACAD_MLEADERVER
 70
     0
  0
APPID
  5
1012B
330
9
100
AcDbSymbolTableRecord
100
AcDbRegAppTableRecord
  2
DCO15
 70
     0
  0
APPID
  5
14499
330
9
100
AcDbSymbolTableRecord
100
AcDbRegAppTableRecord
  2
ACAD_EXEMPT_FROM_CAD_STANDARDS
 70
     0
  0
APPID
  5
15772
330
9
100
AcDbSymbolTableRecord
100
AcDbRegAppTableRecord
  2
ACAD_PSEXT
 70
     0
  0
APPID
  5
160A0
330
9
100
AcDbSymbolTableRecord
100
AcDbRegAppTableRecord
  2
ACAD_DSTYLE_DIMJAG
 70
     0
  0
APPID
  5
160A1
330
9
100
AcDbSymbolTableRecord
100
AcDbRegAppTableRecord
  2
ACAD_DSTYLE_DIMTALN
 70
     0
  0
APPID
  5
26A76
330
9
100
AcDbSymbolTableRecord
100
AcDbRegAppTableRecord
  2
AcadAnnotative
 70
     0
  0
APPID
  5
2702D
330
9
100
AcDbSymbolTableRecord
100
AcDbRegAppTableRecord
  2
ACAD_NAV_VCDISPLAY
 70
     0
  0
APPID
  5
270B8
330
9
100
AcDbSymbolTableRecord
100
AcDbRegAppTableRecord
  2
AcAecLayerStandard
 70
     0
  0
APPID
  5
270B9
330
9
100
AcDbSymbolTableRecord
100
AcDbRegAppTableRecord
  2
AcCmTransparency
 70
     0
  0
ENDTAB
  0
TABLE
  2
DIMSTYLE
  5
A
330
0
100
AcDbSymbolTable
 70
     3
100
AcDbDimStyleTable
 71
     2
340
175
340
C24A
  0
DIMSTYLE
105
175
102
{ACAD_REACTORS
330
261F7
330
26146
330
26050
330
25E6A
330
22903
330
26C98
330
26C99
330
26CDC
330
26CDD
330
26CDE
330
26CDF
330
26CE0
330
26CE1
330
26CF2
330
26CF3
330
26CF8
330
26C8E
330
26C91
330
26C9B
330
269B6
330
269B7
102
}
330
A
100
AcDbSymbolTableRecord
100
AcDbDimStyleTableRecord
  2
STANDARD
 70
     0
 41
2.0
 42
1.0
 43
0.5
 44
0.5
 69
     1
 73
     0
 74
     0
 77
     3
 78
    12
140
6.0
147
2.0
271
     1
272
     1
340
11
341
3B2
342
3B2
1001
ACAD_DSTYLE_DIMJAG
1070
   388
1040
1.5
1001
ACAD_DSTYLE_DIMTALN
1070
   392
1070
     0
  0
DIMSTYLE
105
C24A
102
{ACAD_REACTORS
330
22625
330
22626
330
22624
330
260AE
330
2616F
330
25E6E
330
25E6C
330
26C88
330
26C89
330
26C8A
330
26C8B
330
26196
330
260FF
330
25FF3
330
26033
330
2704E
102
}
330
A
100
AcDbSymbolTableRecord
100
AcDbDimStyleTableRecord
  2
STANDARD1
 70
     0
 41
2.0
 42
3.0
 43
0.5
 44
0.5
 77
     3
 78
    12
140
6.0
147
2.0
172
     1
271
     1
272
     1
289
     2
340
11
341
3B2
342
3B2
1001
ACAD_DSTYLE_DIMJAG
1070
   388
1040
1.5
1001
ACAD_DSTYLE_DIMTALN
1070
   392
1070
     0
  0
ENDTAB
  0
TABLE
  2
BLOCK_RECORD
  5
1
330
0
100
AcDbSymbolTable
 70
    47
  0
BLOCK_RECORD
  5
1E
102
{ACAD_XDICTIONARY
360
178
102
}
330
1
100
AcDbSymbolTableRecord
100
AcDbBlockTableRecord
  2
*MODEL_SPACE
340
904E
 70
     0
280
     1
281
     0
  0
BLOCK_RECORD
  5
1A
102
{ACAD_XDICTIONARY
360
17A
102
}
330
1
100
AcDbSymbolTableRecord
100
AcDbBlockTableRecord
  2
*PAPER_SPACE
340
904F
 70
     0
280
     1
281
     0
  0
BLOCK_RECORD
  5
3B2
330
1
100
AcDbSymbolTableRecord
100
AcDbBlockTableRecord
  2
_OPEN
340
0
310
2800000020000000200000000100080000000000000400000000000000000000000000000000000000000000000080000080000000808000800000008000800080800000C0C0C000C0DCC000F0CAA6000020400000206000002080000020A0000020C0000020E00000400000004020000040400000406000004080000040A0
310
000040C0000040E00000600000006020000060400000606000006080000060A0000060C0000060E00000800000008020000080400000806000008080000080A0000080C0000080E00000A0000000A0200000A0400000A0600000A0800000A0A00000A0C00000A0E00000C0000000C0200000C0400000C0600000C0800000C0
310
A00000C0C00000C0E00000E0000000E0200000E0400000E0600000E0800000E0A00000E0C00000E0E00040000000400020004000400040006000400080004000A0004000C0004000E00040200000402020004020400040206000402080004020A0004020C0004020E000404000004040200040404000404060004040800040
310
40A0004040C0004040E00040600000406020004060400040606000406080004060A0004060C0004060E00040800000408020004080400040806000408080004080A0004080C0004080E00040A0000040A0200040A0400040A0600040A0800040A0A00040A0C00040A0E00040C0000040C0200040C0400040C0600040C08000
310
40C0A00040C0C00040C0E00040E0000040E0200040E0400040E0600040E0800040E0A00040E0C00040E0E00080000000800020008000400080006000800080008000A0008000C0008000E00080200000802020008020400080206000802080008020A0008020C0008020E00080400000804020008040400080406000804080
310
008040A0008040C0008040E00080600000806020008060400080606000806080008060A0008060C0008060E00080800000808020008080400080806000808080008080A0008080C0008080E00080A0000080A0200080A0400080A0600080A0800080A0A00080A0C00080A0E00080C0000080C0200080C0400080C0600080C0
310
800080C0A00080C0C00080C0E00080E0000080E0200080E0400080E0600080E0800080E0A00080E0C00080E0E000C0000000C0002000C0004000C0006000C0008000C000A000C000C000C000E000C0200000C0202000C0204000C0206000C0208000C020A000C020C000C020E000C0400000C0402000C0404000C0406000C0
310
408000C040A000C040C000C040E000C0600000C0602000C0604000C0606000C0608000C060A000C060C000C060E000C0800000C0802000C0804000C0806000C0808000C080A000C080C000C080E000C0A00000C0A02000C0A04000C0A06000C0A08000C0A0A000C0A0C000C0A0E000C0C00000C0C02000C0C04000C0C06000
310
C0C08000C0C0A000F0FBFF00A4A0A000808080000000FF0000FF000000FFFF00FF000000FF00FF00FFFF0000FFFFFF0000000000000000000000000000000000000000000000000000000000000000000000000000000000000000000000000000000000000000000000000000000000000000000000000000000000000000
310
00000000000000000000000000000000000000000000000000000000000000000000000000000000000000000000000000000000000000000000000000000000000000000000000000000000000000000000000000000000000000000000000000000000000000000000000000000000000000000000000000000000000000
310
00000000000000000000000000000000000000000000000000000000000000000000000000000000000000000000000000000000000000000000000000000000000000000000000000000000000000000000000000000000000000000000000000000000000000000000000000000000000000000000000000000000000000
310
0000000000000000000000000000000000000000FFFFFF0000000000000000000000000000000000000000000000000000000000000000FFFFFFFFFFFF0000000000000000000000000000000000000000000000000000000000000000FFFFFFFFFFFF00000000000000000000000000000000000000000000000000000000
310
00000000FFFFFFFFFFFF0000000000000000000000000000000000000000000000000000000000000000FFFFFFFFFFFF0000000000FFFFFFFFFFFFFFFFFFFFFFFFFFFFFFFFFFFFFFFFFFFFFFFFFFFFFFFFFFFF000000000000000000000000000000000000000000FFFFFFFFFFFFFF00000000000000000000000000000000
310
00FFFFFFFFFFFFFFFF0000000000000000000000000000000000FFFFFFFFFFFFFF000000000000000000000000000000000000000000FFFFFFFF000000000000000000000000000000000000000000000000000000000000000000000000000000000000000000000000000000000000000000000000000000000000000000
310
00000000000000000000000000000000000000000000000000000000000000000000000000000000000000000000000000000000000000000000000000000000000000000000000000000000000000000000000000000000000000000000000000000000000000000000000000000000000000000000000000000000000000
310
00000000000000000000000000000000000000000000000000000000000000000000000000000000000000000000000000000000000000000000000000000000000000000000000000000000000000000000000000000000000000000000000000000000000000000000000000000000000000000000000000000000000000
310
0000000000000000000000000000000000000000000000000000000000000000000000000000000000000000000000000000000000000000
102
{BLKREFS
331
26EBB
331
26EBC
331
26F66
331
26F67
331
26F76
331
26F77
331
26FE1
331
26FE2
331
26FEA
331
26FEB
331
26FF3
331
26FF4
331
27001
331
27002
331
2700A
331
2700B
331
27013
331
27014
331
2701C
331
2701D
331
26E8E
331
26E8F
331
26E97
331
26E98
331
26EA0
331
26EA1
331
26E71
331
26E72
331
26E7A
331
26E7B
331
26E84
331
26E85
331
26F29
331
26F2A
331
26991
331
26992
331
2699E
331
2699F
331
26EA9
331
26EAA
331
2708B
331
2708C
331
2709A
331
2709B
331
26F34
331
26F35
331
26F3D
331
26F3E
331
26F46
331
26F47
331
26F4F
331
27048
331
27049
331
26F56
331
26F5D
331
26F5E
331
26E56
331
26E57
331
26E5F
331
26E60
331
26E68
331
26E69
331
2703F
331
27040
331
27079
331
2707A
331
27082
331
27083
102
}
 70
     0
280
     1
281
     0
  0
BLOCK_RECORD
  5
15CE1
102
{ACAD_XDICTIONARY
360
26262
102
}
330
1
100
AcDbSymbolTableRecord
100
AcDbBlockTableRecord
  2
SW_CENTERMARKSYMBOL_4
340
0
102
{BLKREFS
331
2626D
331
26275
331
2627D
102
}
 70
     0
280
     1
281
     0
  0
BLOCK_RECORD
  5
15D4F
330
1
100
AcDbSymbolTableRecord
100
AcDbBlockTableRecord
  2
SW_CENTERMARKSYMBOL_14
340
0
102
{BLKREFS
331
26C9A
102
}
 70
     0
280
     1
281
     0
  0
BLOCK_RECORD
  5
20AF9
330
1
100
AcDbSymbolTableRecord
100
AcDbBlockTableRecord
  2
PM1
340
0
310
2800000020000000200000000100080000000000000400000000000000000000000000000000000000000000000080000080000000808000800000008000800080800000C0C0C000C0DCC000F0CAA6000020400000206000002080000020A0000020C0000020E00000400000004020000040400000406000004080000040A0
310
000040C0000040E00000600000006020000060400000606000006080000060A0000060C0000060E00000800000008020000080400000806000008080000080A0000080C0000080E00000A0000000A0200000A0400000A0600000A0800000A0A00000A0C00000A0E00000C0000000C0200000C0400000C0600000C0800000C0
310
A00000C0C00000C0E00000E0000000E0200000E0400000E0600000E0800000E0A00000E0C00000E0E00040000000400020004000400040006000400080004000A0004000C0004000E00040200000402020004020400040206000402080004020A0004020C0004020E000404000004040200040404000404060004040800040
310
40A0004040C0004040E00040600000406020004060400040606000406080004060A0004060C0004060E00040800000408020004080400040806000408080004080A0004080C0004080E00040A0000040A0200040A0400040A0600040A0800040A0A00040A0C00040A0E00040C0000040C0200040C0400040C0600040C08000
310
40C0A00040C0C00040C0E00040E0000040E0200040E0400040E0600040E0800040E0A00040E0C00040E0E00080000000800020008000400080006000800080008000A0008000C0008000E00080200000802020008020400080206000802080008020A0008020C0008020E00080400000804020008040400080406000804080
310
008040A0008040C0008040E00080600000806020008060400080606000806080008060A0008060C0008060E00080800000808020008080400080806000808080008080A0008080C0008080E00080A0000080A0200080A0400080A0600080A0800080A0A00080A0C00080A0E00080C0000080C0200080C0400080C0600080C0
310
800080C0A00080C0C00080C0E00080E0000080E0200080E0400080E0600080E0800080E0A00080E0C00080E0E000C0000000C0002000C0004000C0006000C0008000C000A000C000C000C000E000C0200000C0202000C0204000C0206000C0208000C020A000C020C000C020E000C0400000C0402000C0404000C0406000C0
310
408000C040A000C040C000C040E000C0600000C0602000C0604000C0606000C0608000C060A000C060C000C060E000C0800000C0802000C0804000C0806000C0808000C080A000C080C000C080E000C0A00000C0A02000C0A04000C0A06000C0A08000C0A0A000C0A0C000C0A0E000C0C00000C0C02000C0C04000C0C06000
310
C0C08000C0C0A000F0FBFF00A4A0A000808080000000FF0000FF000000FFFF00FF000000FF00FF00FFFF0000FFFFFF0000000000000000000000000000000000000000000000000000000000000000000000000000000000000000000000FEFEFEFEFE0000000000000000000000000000000000000000000000000000FEFE
310
FEFEFEFE0000000000000000000000000000000000000000000000000000FEFE000000000000000000000000000000000000000000000000000000000000FEFE000000000000000000000000000000000000000000000000000000000000FEFE000000000000000000000000000000000000000000000000000000000000A7
310
A7A7A7A7A7000000000000000000000000000000000000000000000000FBFBFBFBFBFBFBFBFBFB000000000000000000000000000000000000000000000000A7A7A7A7A7A70000000000000000000000000000000000000000000000000000FEA7A7A700000000000000000000000000000000000000000000000000000000
310
FEFE000000000000000000000000000000000000000000000000000000000000FEFE000000000000000000000000000000000000000000000000000000000000FEFE000000000000000000000000000000000000000000000000000000000000FEFE0000000000000000000000000000000000000000000000000000000000
310
00FEFE000000000000000000000000000000000000000000000000000000000000FEFE000000000000000000000000000000000000000000000000000000000000FEFE000000000000000000000000000000000000000000000000000000000000FEFE00000000000000000000000000000000000000000000000000000000
310
0000FEFE000000000000000000000000000000000000000000000000000000000000FEFE000000000000000000000000000000000000000000000000000000000000FEFE000000000000000000000000000000000000000000000000000000000000FEFE000000000000000000000000000000000000000000000000000000
310
000000FEA7A7A700000000000000000000000000000000000000000000000000000000A7A7A7A7A7A7000000000000000000000000000000000000000000000000FBFBFBA7A7A7FBA7FBFB000000000000000000000000000000000000000000000000A7A7A7A7A7A700000000000000000000000000000000000000000000
310
00000000FEFE000000000000000000000000000000000000000000000000000000000000FEFE000000000000000000000000000000000000000000000000000000000000FEFE000000000000000000000000000000000000000000000000000000000000FEFEFEFEFEFE000000000000000000000000000000000000000000
310
000000000000FEFEFEFEFE000000000000000000000000000000000000000000000000000000000000000000000000000000000000000000
102
{BLKREFS
331
26CEB
102
}
 70
     0
280
     1
281
     0
  0
BLOCK_RECORD
  5
22629
330
1
100
AcDbSymbolTableRecord
100
AcDbBlockTableRecord
  2
*D4
340
0
 70
     0
280
     1
281
     0
  0
BLOCK_RECORD
  5
22635
330
1
100
AcDbSymbolTableRecord
100
AcDbBlockTableRecord
  2
*D5
340
0
 70
     0
280
     1
281
     0
  0
BLOCK_RECORD
  5
22641
330
1
100
AcDbSymbolTableRecord
100
AcDbBlockTableRecord
  2
*D6
340
0
 70
     0
280
     1
281
     0
  0
BLOCK_RECORD
  5
22904
330
1
100
AcDbSymbolTableRecord
100
AcDbBlockTableRecord
  2
*D7
340
0
 70
     0
280
     1
281
     0
  0
BLOCK_RECORD
  5
25DBC
330
1
100
AcDbSymbolTableRecord
100
AcDbBlockTableRecord
  2
SW_CENTERMARKSYMBOL_9
340
0
102
{BLKREFS
331
25E74
102
}
 70
     0
280
     1
281
     0
  0
BLOCK_RECORD
  5
25DC7
330
1
100
AcDbSymbolTableRecord
100
AcDbBlockTableRecord
  2
SW_CENTERMARKSYMBOL_10
340
0
102
{BLKREFS
331
25E75
102
}
 70
     0
280
     1
281
     0
  0
BLOCK_RECORD
  5
25DD2
330
1
100
AcDbSymbolTableRecord
100
AcDbBlockTableRecord
  2
SW_CENTERMARKSYMBOL_11
340
0
102
{BLKREFS
331
25E76
102
}
 70
     0
280
     1
281
     0
  0
BLOCK_RECORD
  5
25DDD
330
1
100
AcDbSymbolTableRecord
100
AcDbBlockTableRecord
  2
SW_CENTERMARKSYMBOL_12
340
0
102
{BLKREFS
331
25E77
102
}
 70
     0
280
     1
281
     0
  0
BLOCK_RECORD
  5
25E79
330
1
100
AcDbSymbolTableRecord
100
AcDbBlockTableRecord
  2
*D12
340
0
 70
     0
280
     1
281
     0
  0
BLOCK_RECORD
  5
25E91
330
1
100
AcDbSymbolTableRecord
100
AcDbBlockTableRecord
  2
*D13
340
0
 70
     0
280
     1
281
     0
  0
BLOCK_RECORD
  5
25EA9
330
1
100
AcDbSymbolTableRecord
100
AcDbBlockTableRecord
  2
*D14
340
0
 70
     0
280
     1
281
     0
  0
BLOCK_RECORD
  5
25FF4
330
1
100
AcDbSymbolTableRecord
100
AcDbBlockTableRecord
  2
*D15
340
0
 70
     0
280
     1
281
     0
  0
BLOCK_RECORD
  5
26034
330
1
100
AcDbSymbolTableRecord
100
AcDbBlockTableRecord
  2
*D16
340
0
 70
     0
280
     1
281
     0
  0
BLOCK_RECORD
  5
26051
330
1
100
AcDbSymbolTableRecord
100
AcDbBlockTableRecord
  2
*D17
340
0
 70
     0
280
     1
281
     0
  0
BLOCK_RECORD
  5
260B0
330
1
100
AcDbSymbolTableRecord
100
AcDbBlockTableRecord
  2
*D18
340
0
 70
     0
280
     1
281
     0
  0
BLOCK_RECORD
  5
26100
330
1
100
AcDbSymbolTableRecord
100
AcDbBlockTableRecord
  2
*D19
340
0
 70
     0
280
     1
281
     0
  0
BLOCK_RECORD
  5
26147
330
1
100
AcDbSymbolTableRecord
100
AcDbBlockTableRecord
  2
*D20
340
0
 70
     0
280
     1
281
     0
  0
BLOCK_RECORD
  5
26170
330
1
100
AcDbSymbolTableRecord
100
AcDbBlockTableRecord
  2
*D21
340
0
 70
     0
280
     1
281
     0
  0
BLOCK_RECORD
  5
26197
330
1
100
AcDbSymbolTableRecord
100
AcDbBlockTableRecord
  2
*D22
340
0
 70
     0
280
     1
281
     0
  0
BLOCK_RECORD
  5
261F8
330
1
100
AcDbSymbolTableRecord
100
AcDbBlockTableRecord
  2
*D23
340
0
 70
     0
280
     1
281
     0
  0
BLOCK_RECORD
  5
2698C
330
1
100
AcDbSymbolTableRecord
100
AcDbBlockTableRecord
  2
*D24
340
0
 70
     0
280
     1
281
     0
  0
BLOCK_RECORD
  5
26998
330
1
100
AcDbSymbolTableRecord
100
AcDbBlockTableRecord
  2
*D25
340
0
 70
     0
280
     1
281
     0
  0
BLOCK_RECORD
  5
269A5
102
{ACAD_XDICTIONARY
360
269B8
102
}
330
1
100
AcDbSymbolTableRecord
100
AcDbBlockTableRecord
  2
A$C321920B3
340
0
 70
     0
280
     1
281
     0
  0
BLOCK_RECORD
  5
26CF9
330
1
100
AcDbSymbolTableRecord
100
AcDbBlockTableRecord
  2
*D27
340
0
 70
     0
280
     1
281
     0
  0
BLOCK_RECORD
  5
26D05
330
1
100
AcDbSymbolTableRecord
100
AcDbBlockTableRecord
  2
*D28
340
0
 70
     0
280
     1
281
     0
  0
BLOCK_RECORD
  5
26D13
330
1
100
AcDbSymbolTableRecord
100
AcDbBlockTableRecord
  2
*D29
340
0
 70
     0
280
     1
281
     0
  0
BLOCK_RECORD
  5
26D1F
330
1
100
AcDbSymbolTableRecord
100
AcDbBlockTableRecord
  2
*D30
340
0
 70
     0
280
     1
281
     0
  0
BLOCK_RECORD
  5
26D2B
330
1
100
AcDbSymbolTableRecord
100
AcDbBlockTableRecord
  2
*D31
340
0
 70
     0
280
     1
281
     0
  0
BLOCK_RECORD
  5
26D39
330
1
100
AcDbSymbolTableRecord
100
AcDbBlockTableRecord
  2
*D32
340
0
 70
     0
280
     1
281
     0
  0
BLOCK_RECORD
  5
26D46
330
1
100
AcDbSymbolTableRecord
100
AcDbBlockTableRecord
  2
*D33
340
0
 70
     0
280
     1
281
     0
  0
BLOCK_RECORD
  5
26D52
330
1
100
AcDbSymbolTableRecord
100
AcDbBlockTableRecord
  2
*D34
340
0
 70
     0
280
     1
281
     0
  0
BLOCK_RECORD
  5
26D5E
330
1
100
AcDbSymbolTableRecord
100
AcDbBlockTableRecord
  2
*D35
340
0
 70
     0
280
     1
281
     0
  0
BLOCK_RECORD
  5
26D6A
330
1
100
AcDbSymbolTableRecord
100
AcDbBlockTableRecord
  2
*D36
340
0
 70
     0
280
     1
281
     0
  0
BLOCK_RECORD
  5
26D76
330
1
100
AcDbSymbolTableRecord
100
AcDbBlockTableRecord
  2
*D37
340
0
 70
     0
280
     1
281
     0
  0
BLOCK_RECORD
  5
26D82
330
1
100
AcDbSymbolTableRecord
100
AcDbBlockTableRecord
  2
*D38
340
0
 70
     0
280
     1
281
     0
  0
BLOCK_RECORD
  5
26D8E
330
1
100
AcDbSymbolTableRecord
100
AcDbBlockTableRecord
  2
*D39
340
0
 70
     0
280
     1
281
     0
  0
BLOCK_RECORD
  5
26D9A
330
1
100
AcDbSymbolTableRecord
100
AcDbBlockTableRecord
  2
*D40
340
0
 70
     0
280
     1
281
     0
  0
BLOCK_RECORD
  5
26E20
330
1
100
AcDbSymbolTableRecord
100
AcDbBlockTableRecord
  2
*D41
340
0
 70
     0
280
     1
281
     0
  0
BLOCK_RECORD
  5
26FF9
330
1
100
AcDbSymbolTableRecord
100
AcDbBlockTableRecord
  2
*D42
340
0
 70
     0
280
     1
281
     0
  0
BLOCK_RECORD
  5
2704F
330
1
100
AcDbSymbolTableRecord
100
AcDbBlockTableRecord
  2
*D43
340
0
 70
     0
280
     1
281
     0
  0
ENDTAB
  0
ENDSEC
  0
SECTION
  2
BLOCKS
  0
BLOCK
  5
1F
330
1E
100
AcDbEntity
  8
0
100
AcDbBlockBegin
  2
*MODEL_SPACE
 70
     0
 10
0.0
 20
0.0
 30
0.0
  3
*MODEL_SPACE
  1

  0
ENDBLK
  5
20
330
1E
100
AcDbEntity
  8
0
100
AcDbBlockEnd
  0
BLOCK
  5
1B
330
1A
100
AcDbEntity
 67
     1
  8
0
100
AcDbBlockBegin
  2
*PAPER_SPACE
 70
     0
 10
0.0
 20
0.0
 30
0.0
  3
*PAPER_SPACE
  1

  0
ENDBLK
  5
1C
330
1A
100
AcDbEntity
 67
     1
  8
0
100
AcDbBlockEnd
  0
BLOCK
  5
3B6
330
3B2
100
AcDbEntity
  8
0
100
AcDbBlockBegin
  2
_OPEN
 70
     0
 10
0.0
 20
0.0
 30
0.0
  3
_OPEN
  1

  0
LINE
  5
3B3
330
3B2
100
AcDbEntity
  8
30
  6
Continuous
 62
     0
100
AcDbLine
 10
-1.0
 20
0.166667
 30
0.0
 11
0.0
 21
0.0
 31
0.0
  0
LINE
  5
3B4
330
3B2
100
AcDbEntity
  8
30
  6
Continuous
 62
     0
100
AcDbLine
 10
-1.0
 20
-0.166667
 30
0.0
 11
0.0
 21
0.0
 31
0.0
  0
LINE
  5
3B5
330
3B2
100
AcDbEntity
  8
30
  6
Continuous
 62
     0
100
AcDbLine
 10
0.0
 20
0.0
 30
0.0
 11
-1.0
 21
0.0
 31
0.0
  0
ENDBLK
  5
3B7
330
3B2
100
AcDbEntity
  8
0
100
AcDbBlockEnd
  0
BLOCK
  5
15CE2
330
15CE1
100
AcDbEntity
  8
0
100
AcDbBlockBegin
  2
SW_CENTERMARKSYMBOL_4
 70
     0
 10
0.0
 20
0.0
 30
0.0
  3
SW_CENTERMARKSYMBOL_4
  1
SW_CENTERMARKSYMBOL_4
  0
LINE
  5
26260
330
15CE1
100
AcDbEntity
  8
240
 62
     0
100
AcDbLine
 10
0.0
 20
-6.524922498999996
 30
0.0
 11
0.0
 21
6.524922498999996
 31
0.0
  0
LINE
  5
26261
330
15CE1
100
AcDbEntity
  8
240
 62
     0
100
AcDbLine
 10
6.524922498999996
 20
0.0
 30
0.0
 11
-6.524922498999996
 21
0.0
 31
0.0
  0
ENDBLK
  5
15CEB
330
15CE1
100
AcDbEntity
  8
0
100
AcDbBlockEnd
  0
BLOCK
  5
15D50
330
15D4F
100
AcDbEntity
  8
0
100
AcDbBlockBegin
  2
SW_CENTERMARKSYMBOL_14
 70
     0
 10
0.0
 20
0.0
 30
0.0
  3
SW_CENTERMARKSYMBOL_14
  1
SW_CENTERMARKSYMBOL_14
  0
LINE
  5
15D51
330
15D4F
100
AcDbEntity
  8
240
 62
     0
100
AcDbLine
 10
0.0
 20
0.0
 30
0.0
 11
0.0
 21
2.5
 31
0.0
  0
LINE
  5
15D52
330
15D4F
100
AcDbEntity
  8
240
 62
     0
100
AcDbLine
 10
0.0
 20
0.0
 30
0.0
 11
-2.5
 21
0.0
 31
0.0
  0
LINE
  5
15D53
330
15D4F
100
AcDbEntity
  8
240
 62
     0
100
AcDbLine
 10
0.0
 20
0.0
 30
0.0
 11
0.0
 21
-2.5
 31
0.0
  0
LINE
  5
15D54
330
15D4F
100
AcDbEntity
  8
240
 62
     0
100
AcDbLine
 10
0.0
 20
0.0
 30
0.0
 11
2.5
 21
0.0
 31
0.0
  0
LINE
  5
15D55
330
15D4F
100
AcDbEntity
  8
240
 62
     0
100
AcDbLine
 10
0.0
 20
2.5
 30
0.0
 11
0.0
 21
3.9534442357
 31
0.0
  0
LINE
  5
15D56
330
15D4F
100
AcDbEntity
  8
240
 62
     0
100
AcDbLine
 10
-2.5
 20
0.0
 30
0.0
 11
-3.9534442357
 21
0.0
 31
0.0
  0
LINE
  5
15D57
330
15D4F
100
AcDbEntity
  8
240
 62
     0
100
AcDbLine
 10
0.0
 20
-2.5
 30
0.0
 11
0.0
 21
-3.9534442357
 31
0.0
  0
LINE
  5
15D58
330
15D4F
100
AcDbEntity
  8
240
 62
     0
100
AcDbLine
 10
2.5
 20
0.0
 30
0.0
 11
3.9534442357
 21
0.0
 31
0.0
  0
ENDBLK
  5
15D59
330
15D4F
100
AcDbEntity
  8
0
100
AcDbBlockEnd
  0
BLOCK
  5
20AFA
330
20AF9
100
AcDbEntity
  8
0
100
AcDbBlockBegin
  2
PM1
 70
     0
 10
0.0
 20
0.0
 30
0.0
  3
PM1
  1

  0
LWPOLYLINE
  5
20B51
330
20AF9
100
AcDbEntity
  8
131
 62
     4
100
AcDbPolyline
 90
       13
 70
     0
 43
0.0
 10
15.0
 20
-43.99999999999997
 10
5.0
 20
-43.99999999999997
 42
-0.4142135623730951
 10
0.0
 20
-39.0
 10
0.0
 20
39.0
 42
-0.4142135623730951
 10
5.0
 20
44.00000000000003
 10
15.0
 20
44.00000000000003
 10
15.0
 20
40.8
 10
4.200000000000158
 20
40.8
 42
0.4142135623730951
 10
3.200000000000156
 20
39.79999999999999
 10
3.200000000000156
 20
-39.79999999999991
 42
0.4142135623730951
 10
4.200000000000158
 20
-40.79999999999988
 10
15.0
 20
-40.79999999999988
 10
15.0
 20
-43.99999999999997
  0
LINE
  5
20B52
330
20AF9
100
AcDbEntity
  8
11
  6
Continuous
 62
    11
100
AcDbLine
 10
4.5
 20
-30.70994064680012
 30
0.0
 11
9.0
 21
-30.70994064680012
 31
0.0
  0
LINE
  5
20B53
330
20AF9
100
AcDbEntity
  8
11
  6
Continuous
 62
    11
100
AcDbLine
 10
4.5
 20
-30.6911384933999
 30
0.0
 11
3.200000000000156
 21
-30.6911384933999
 31
0.0
  0
LINE
  5
20B54
330
20AF9
100
AcDbEntity
  8
11
  6
Continuous
 62
    11
100
AcDbLine
 10
14.60000000000036
 20
-28.59113849340001
 30
0.0
 11
9.0
 21
-28.59113849340001
 31
0.0
  0
LINE
  5
20B55
330
20AF9
100
AcDbEntity
  8
11
  6
Continuous
 62
    11
100
AcDbLine
 10
3.200000000000156
 20
-28.59113849340001
 30
0.0
 11
0.0
 21
-28.59113849340001
 31
0.0
  0
LINE
  5
20B56
330
20AF9
100
AcDbEntity
  8
11
  6
Continuous
 62
    11
100
AcDbLine
 10
4.5
 20
-28.40053957019991
 30
0.0
 11
9.0
 21
-28.40053957019991
 31
0.0
  0
LINE
  5
20B57
330
20AF9
100
AcDbEntity
  8
11
  6
Continuous
 62
    11
100
AcDbLine
 10
4.5
 20
-23.78173741660001
 30
0.0
 11
9.0
 21
-23.78173741660001
 31
0.0
  0
LINE
  5
20B58
330
20AF9
100
AcDbEntity
  8
11
  6
Continuous
 62
    11
100
AcDbLine
 10
14.60000000000036
 20
-23.59113849340001
 30
0.0
 11
9.0
 21
-23.59113849340001
 31
0.0
  0
LINE
  5
20B59
330
20AF9
100
AcDbEntity
  8
11
  6
Continuous
 62
    11
100
AcDbLine
 10
3.200000000000156
 20
-23.59113849340001
 30
0.0
 11
0.0
 21
-23.59113849340001
 31
0.0
  0
LINE
  5
20B5A
330
20AF9
100
AcDbEntity
  8
11
  6
Continuous
 62
    11
100
AcDbLine
 10
4.5
 20
-21.4911384934
 30
0.0
 11
3.200000000000156
 21
-21.4911384934
 31
0.0
  0
LINE
  5
20B5B
330
20AF9
100
AcDbEntity
  8
11
  6
Continuous
 62
    11
100
AcDbLine
 10
4.5
 20
-21.4723363398
 30
0.0
 11
9.0
 21
-21.4723363398
 31
0.0
  0
LINE
  5
20B5C
330
20AF9
100
AcDbEntity
  8
11
  6
Continuous
 62
    11
100
AcDbLine
 10
4.5
 20
21.29005935319989
 30
0.0
 11
9.0
 21
21.29005935319989
 31
0.0
  0
LINE
  5
20B5D
330
20AF9
100
AcDbEntity
  8
11
  6
Continuous
 62
    11
100
AcDbLine
 10
4.5
 20
21.3088615066001
 30
0.0
 11
3.200000000000156
 21
21.3088615066001
 31
0.0
  0
LINE
  5
20B5E
330
20AF9
100
AcDbEntity
  8
11
  6
Continuous
 62
    11
100
AcDbLine
 10
14.60000000000036
 20
23.40886150660001
 30
0.0
 11
9.0
 21
23.40886150660001
 31
0.0
  0
LINE
  5
20B5F
330
20AF9
100
AcDbEntity
  8
11
  6
Continuous
 62
    11
100
AcDbLine
 10
3.200000000000156
 20
23.40886150660001
 30
0.0
 11
0.0
 21
23.40886150660001
 31
0.0
  0
LINE
  5
20B60
330
20AF9
100
AcDbEntity
  8
11
  6
Continuous
 62
    11
100
AcDbLine
 10
4.5
 20
23.59946042980007
 30
0.0
 11
9.0
 21
23.59946042980007
 31
0.0
  0
LINE
  5
20B61
330
20AF9
100
AcDbEntity
  8
11
  6
Continuous
 62
    11
100
AcDbLine
 10
15.39999985459997
 20
24.20886165220009
 30
0.0
 11
14.59999978619987
 21
23.40886172060007
 31
0.0
  0
LINE
  5
20B62
330
20AF9
100
AcDbEntity
  8
17
100
AcDbLine
 10
-5.0
 20
25.90886150660009
 30
0.0
 11
20.0
 21
25.90886150660009
 31
0.0
  0
LINE
  5
20B63
330
20AF9
100
AcDbEntity
  8
11
  6
Continuous
 62
    11
100
AcDbLine
 10
4.5
 20
28.21826258339999
 30
0.0
 11
9.0
 21
28.21826258339999
 31
0.0
  0
LINE
  5
20B64
330
20AF9
100
AcDbEntity
  8
11
  6
Continuous
 62
    11
100
AcDbLine
 10
14.60000000000036
 20
28.40886150660001
 30
0.0
 11
9.0
 21
28.40886150660001
 31
0.0
  0
LINE
  5
20B65
330
20AF9
100
AcDbEntity
  8
11
  6
Continuous
 62
    11
100
AcDbLine
 10
3.200000000000156
 20
28.40886150660001
 30
0.0
 11
0.0
 21
28.40886150660001
 31
0.0
  0
LINE
  5
20B66
330
20AF9
100
AcDbEntity
  8
11
  6
Continuous
 62
    11
100
AcDbLine
 10
4.5
 20
30.50886150659989
 30
0.0
 11
3.200000000000156
 21
30.50886150659989
 31
0.0
  0
LINE
  5
20B67
330
20AF9
100
AcDbEntity
  8
11
  6
Continuous
 62
    11
100
AcDbLine
 10
4.5
 20
30.52766366020001
 30
0.0
 11
9.0
 21
30.52766366020001
 31
0.0
  0
LINE
  5
20B68
330
20AF9
100
AcDbEntity
  8
11
  6
Continuous
 62
    11
100
AcDbLine
 10
15.39999985459997
 20
-24.39113863879992
 30
0.0
 11
14.59999978619987
 21
-23.59113870719991
 31
0.0
  0
LINE
  5
20B69
330
20AF9
100
AcDbEntity
  8
11
  6
Continuous
 62
    11
100
AcDbLine
 10
3.200000000000156
 20
-30.6911384933999
 30
0.0
 11
3.200000000000156
 21
-21.4911384934
 31
0.0
  0
LINE
  5
20B6A
330
20AF9
100
AcDbEntity
  8
11
  6
Continuous
 62
    11
100
AcDbLine
 10
3.200000000000156
 20
21.3088615066001
 30
0.0
 11
3.200000000000156
 21
30.50886150659989
 31
0.0
  0
LINE
  5
20B6B
330
20AF9
100
AcDbEntity
  8
11
  6
Continuous
 62
    11
100
AcDbLine
 10
4.5
 20
30.52766366020001
 30
0.0
 11
4.5
 21
30.50886150659989
 31
0.0
  0
LINE
  5
20B6C
330
20AF9
100
AcDbEntity
  8
11
  6
Continuous
 62
    11
100
AcDbLine
 10
4.5
 20
30.50767394140007
 30
0.0
 11
4.5
 21
21.30981828280011
 31
0.0
  0
LINE
  5
20B6D
330
20AF9
100
AcDbEntity
  8
11
  6
Continuous
 62
    11
100
AcDbLine
 10
4.5
 20
21.3088623348001
 30
0.0
 11
4.5
 21
21.29005935319989
 31
0.0
  0
LINE
  5
20B6E
330
20AF9
100
AcDbEntity
  8
11
  6
Continuous
 62
    11
100
AcDbLine
 10
4.5
 20
-21.4723363398
 30
0.0
 11
4.5
 21
-21.4911384934
 31
0.0
  0
LINE
  5
20B6F
330
20AF9
100
AcDbEntity
  8
11
  6
Continuous
 62
    11
100
AcDbLine
 10
4.5
 20
-21.49232605859991
 30
0.0
 11
4.5
 21
-30.69018171719991
 31
0.0
  0
LINE
  5
20B70
330
20AF9
100
AcDbEntity
  8
11
  6
Continuous
 62
    11
100
AcDbLine
 10
4.5
 20
-30.69113766519993
 30
0.0
 11
4.5
 21
-30.70994064680012
 31
0.0
  0
LINE
  5
20B71
330
20AF9
100
AcDbEntity
  8
11
  6
Continuous
 62
    11
100
AcDbLine
 10
9.0
 20
30.52766366020001
 30
0.0
 11
9.0
 21
21.29005935319989
 31
0.0
  0
LINE
  5
20B72
330
20AF9
100
AcDbEntity
  8
11
  6
Continuous
 62
    11
100
AcDbLine
 10
9.0
 20
-21.4723363398
 30
0.0
 11
9.0
 21
-30.70994064680012
 31
0.0
  0
LINE
  5
20B73
330
20AF9
100
AcDbEntity
  8
11
  6
Continuous
 62
    11
100
AcDbLine
 10
14.59999999319996
 20
28.40886150660001
 30
0.0
 11
14.59999999319996
 21
23.40886150660001
 31
0.0
  0
LINE
  5
20B74
330
20AF9
100
AcDbEntity
  8
11
  6
Continuous
 62
    11
100
AcDbLine
 10
14.59999999319996
 20
-23.59113849340001
 30
0.0
 11
14.59999999319996
 21
-28.59113849340001
 31
0.0
  0
LINE
  5
20B75
330
20AF9
100
AcDbEntity
  8
11
  6
Continuous
 62
    11
100
AcDbLine
 10
15.39999999999998
 20
-27.79113849340002
 30
0.0
 11
15.39999999999998
 21
-24.39113849339991
 31
0.0
  0
LINE
  5
20B76
330
20AF9
100
AcDbEntity
  8
11
  6
Continuous
 62
    11
100
AcDbLine
 10
15.39999999999998
 20
24.20886150659999
 30
0.0
 11
15.39999999999998
 21
27.60886150660008
 31
0.0
  0
LINE
  5
20B77
330
20AF9
100
AcDbEntity
  8
11
  6
Continuous
 62
    11
100
AcDbLine
 10
15.39999985459997
 20
-27.79113834779991
 30
0.0
 11
14.59999978619987
 21
-28.59113827939991
 31
0.0
  0
LINE
  5
20B78
330
20AF9
100
AcDbEntity
  8
11
  6
Continuous
 62
    11
100
AcDbLine
 10
15.39999985459997
 20
27.60886136120007
 30
0.0
 11
14.59999978619987
 21
28.40886129280011
 31
0.0
  0
LINE
  5
20B79
330
20AF9
100
AcDbEntity
  8
17
100
AcDbLine
 10
-5.0
 20
-26.09113849339991
 30
0.0
 11
20.0
 21
-26.09113849339991
 31
0.0
  0
ENDBLK
  5
20AFB
330
20AF9
100
AcDbEntity
  8
0
100
AcDbBlockEnd
  0
BLOCK
  5
2262A
330
22629
100
AcDbEntity
  8
0
100
AcDbBlockBegin
  2
*D4
 70
     1
 10
0.0
 20
0.0
 30
0.0
  3
*D4
  1

  0
LINE
  5
27097
330
22629
100
AcDbEntity
  8
30
 62
     0
440
 16777216
370
    -2
100
AcDbLine
 10
84.24445599424322
 20
381.4046274768922
 30
0.0
 11
84.24445599424322
 21
301.3336534793841
 31
0.0
  0
LINE
  5
27098
330
22629
100
AcDbEntity
  8
30
 62
     0
440
 16777216
370
    -2
100
AcDbLine
 10
106.2444353329756
 20
388.4697286014643
 30
0.0
 11
106.2444353329756
 21
301.3336534793841
 31
0.0
  0
LINE
  5
27099
330
22629
100
AcDbEntity
  8
30
 62
     0
440
 16777216
370
    -2
100
AcDbLine
 10
86.24445599424324
 20
301.8336534793841
 30
0.0
 11
104.2444353329756
 21
301.8336534793841
 31
0.0
  0
INSERT
  5
2709A
330
22629
100
AcDbEntity
  8
30
 62
     0
440
 16777216
370
    -2
100
AcDbBlockReference
  2
_OPEN
 10
84.24445599424322
 20
301.8336534793841
 30
0.0
 41
2.0
 42
2.0
 43
2.0
 50
180.0
  0
INSERT
  5
2709B
330
22629
100
AcDbEntity
  8
30
 62
     0
440
 16777216
370
    -2
100
AcDbBlockReference
  2
_OPEN
 10
106.2444353329756
 20
301.8336534793841
 30
0.0
 41
2.0
 42
2.0
 43
2.0
  0
MTEXT
  5
2709C
330
22629
100
AcDbEntity
  8
30
 62
     0
440
 16777216
100
AcDbMText
 10
95.24444566360941
 20
309.8336534793841
 30
0.0
 40
6.0
 41
0.0
 46
0.0
 71
     2
 72
     1
  1
\A1;22
 73
     1
 44
1.0
  0
POINT
  5
2709D
330
22629
100
AcDbEntity
  8
DEFPOINTS
 62
     0
440
 16777216
100
AcDbPoint
 10
84.24445599424322
 20
384.4046274768922
 30
0.0
  0
POINT
  5
2709E
330
22629
100
AcDbEntity
  8
DEFPOINTS
 62
     0
440
 16777216
100
AcDbPoint
 10
106.2444353329756
 20
391.4697286014643
 30
0.0
  0
POINT
  5
2709F
330
22629
100
AcDbEntity
  8
DEFPOINTS
 62
     0
440
 16777216
100
AcDbPoint
 10
106.2444353329756
 20
301.8336534793841
 30
0.0
  0
ENDBLK
  5
2262B
330
22629
100
AcDbEntity
  8
0
100
AcDbBlockEnd
  0
BLOCK
  5
22636
330
22635
100
AcDbEntity
  8
0
100
AcDbBlockBegin
  2
*D5
 70
     1
 10
0.0
 20
0.0
 30
0.0
  3
*D5
  1

  0
LINE
  5
27010
330
22635
100
AcDbEntity
  8
30
 62
     0
440
 16777216
370
    -2
100
AcDbLine
 10
49.82917764921207
 20
319.9295797272865
 30
0.0
 11
49.82917764921207
 21
268.3154446928246
 31
0.0
  0
LINE
  5
27011
330
22635
100
AcDbEntity
  8
30
 62
     0
440
 16777216
370
    -2
100
AcDbLine
 10
169.8415694379164
 20
336.9268094194945
 30
0.0
 11
169.8415694379164
 21
268.3154446928246
 31
0.0
  0
LINE
  5
27012
330
22635
100
AcDbEntity
  8
30
 62
     0
440
 16777216
370
    -2
100
AcDbLine
 10
51.82917764921207
 20
268.8154446928245
 30
0.0
 11
167.8415694379164
 21
268.8154446928245
 31
0.0
  0
INSERT
  5
27013
330
22635
100
AcDbEntity
  8
30
 62
     0
440
 16777216
370
    -2
100
AcDbBlockReference
  2
_OPEN
 10
49.82917764921207
 20
268.8154446928245
 30
0.0
 41
2.0
 42
2.0
 43
2.0
 50
180.0
  0
INSERT
  5
27014
330
22635
100
AcDbEntity
  8
30
 62
     0
440
 16777216
370
    -2
100
AcDbBlockReference
  2
_OPEN
 10
169.8415694379164
 20
268.8154446928245
 30
0.0
 41
2.0
 42
2.0
 43
2.0
  0
MTEXT
  5
27015
330
22635
100
AcDbEntity
  8
30
 62
     0
440
 16777216
100
AcDbMText
 10
95.24444566360941
 20
276.8154446928245
 30
0.0
 40
6.0
 41
0.0
 46
0.0
 71
     2
 72
     1
  1
\A1;120
 73
     1
 44
1.0
  0
POINT
  5
27016
330
22635
100
AcDbEntity
  8
DEFPOINTS
 62
     0
440
 16777216
100
AcDbPoint
 10
49.82917764921207
 20
322.9295797272865
 30
0.0
  0
POINT
  5
27017
330
22635
100
AcDbEntity
  8
DEFPOINTS
 62
     0
440
 16777216
100
AcDbPoint
 10
169.8415694379164
 20
339.9268094194945
 30
0.0
  0
POINT
  5
27018
330
22635
100
AcDbEntity
  8
DEFPOINTS
 62
     0
440
 16777216
100
AcDbPoint
 10
169.8415694379164
 20
268.8154446928245
 30
0.0
  0
ENDBLK
  5
22637
330
22635
100
AcDbEntity
  8
0
100
AcDbBlockEnd
  0
BLOCK
  5
22642
330
22641
100
AcDbEntity
  8
0
100
AcDbBlockBegin
  2
*D6
 70
     1
 10
0.0
 20
0.0
 30
0.0
  3
*D6
  1

  0
LINE
  5
27019
330
22641
100
AcDbEntity
  8
30
 62
     0
440
 16777216
370
    -2
100
AcDbLine
 10
53.19024382837223
 20
377.130639957313
 30
0.0
 11
53.19024382837223
 21
284.6904816969275
 31
0.0
  0
LINE
  5
2701A
330
22641
100
AcDbEntity
  8
30
 62
     0
440
 16777216
370
    -2
100
AcDbLine
 10
137.2254891033639
 20
377.130639957313
 30
0.0
 11
137.2254891033639
 21
284.6904816969275
 31
0.0
  0
LINE
  5
2701B
330
22641
100
AcDbEntity
  8
30
 62
     0
440
 16777216
370
    -2
100
AcDbLine
 10
55.19024382837223
 20
285.1904816969275
 30
0.0
 11
135.2254891033639
 21
285.1904816969275
 31
0.0
  0
INSERT
  5
2701C
330
22641
100
AcDbEntity
  8
30
 62
     0
440
 16777216
370
    -2
100
AcDbBlockReference
  2
_OPEN
 10
53.19024382837223
 20
285.1904816969275
 30
0.0
 41
2.0
 42
2.0
 43
2.0
 50
180.0
  0
INSERT
  5
2701D
330
22641
100
AcDbEntity
  8
30
 62
     0
440
 16777216
370
    -2
100
AcDbBlockReference
  2
_OPEN
 10
137.2254891033639
 20
285.1904816969275
 30
0.0
 41
2.0
 42
2.0
 43
2.0
  0
MTEXT
  5
2701E
330
22641
100
AcDbEntity
  8
30
 62
     0
440
 16777216
100
AcDbMText
 10
95.24444566360941
 20
293.1904816969275
 30
0.0
 40
6.0
 41
0.0
 46
0.0
 71
     2
 72
     1
  1
\A1;84
 73
     1
 44
1.0
  0
POINT
  5
2701F
330
22641
100
AcDbEntity
  8
DEFPOINTS
 62
     0
440
 16777216
100
AcDbPoint
 10
53.19024382837223
 20
380.130639957313
 30
0.0
  0
POINT
  5
27020
330
22641
100
AcDbEntity
  8
DEFPOINTS
 62
     0
440
 16777216
100
AcDbPoint
 10
137.2254891033639
 20
380.130639957313
 30
0.0
  0
POINT
  5
27021
330
22641
100
AcDbEntity
  8
DEFPOINTS
 62
     0
440
 16777216
100
AcDbPoint
 10
137.2254891033639
 20
285.1904816969275
 30
0.0
  0
ENDBLK
  5
22643
330
22641
100
AcDbEntity
  8
0
100
AcDbBlockEnd
  0
BLOCK
  5
22905
330
22904
100
AcDbEntity
  8
0
100
AcDbBlockBegin
  2
*D7
 70
     1
 10
0.0
 20
0.0
 30
0.0
  3
*D7
  1

  0
LINE
  5
26E77
330
22904
100
AcDbEntity
  8
30
 62
     0
440
 16777216
370
    -2
100
AcDbLine
 10
48.82584848759655
 20
470.0697145142362
 30
0.0
 11
32.97836974585107
 21
470.0697145142362
 31
0.0
  0
LINE
  5
26E78
330
22904
100
AcDbEntity
  8
30
 62
     0
440
 16777216
370
    -2
100
AcDbLine
 10
48.82032336131175
 20
340.0697145142363
 30
0.0
 11
32.97836974585104
 21
340.0697145142363
 31
0.0
  0
LINE
  5
26E79
330
22904
100
AcDbEntity
  8
30
 62
     0
440
 16777216
370
    -2
100
AcDbLine
 10
33.47836974585107
 20
468.0697145142363
 30
0.0
 11
33.47836974585104
 21
342.0697145142364
 31
0.0
  0
INSERT
  5
26E7A
330
22904
100
AcDbEntity
  8
30
 62
     0
440
 16777216
370
    -2
100
AcDbBlockReference
  2
_OPEN
 10
33.47836974585107
 20
470.0697145142362
 30
0.0
 41
2.0
 42
2.0
 43
2.0
 50
90.0
  0
INSERT
  5
26E7B
330
22904
100
AcDbEntity
  8
30
 62
     0
440
 16777216
370
    -2
100
AcDbBlockReference
  2
_OPEN
 10
33.47836974585104
 20
340.0697145142363
 30
0.0
 41
2.0
 42
2.0
 43
2.0
 50
270.0
  0
MTEXT
  5
26E7C
330
22904
100
AcDbEntity
  8
30
 62
     0
440
 16777216
100
AcDbMText
 10
28.47836974585099
 20
405.0697145142363
 30
0.0
 40
6.0
 41
0.0
 46
0.0
 71
     5
 72
     1
  1
\A1;130
 11
0.0000000000000001
 21
1.0
 31
0.0
 73
     1
 44
1.0
 90
        3
 63
     9
421
 13158600
 45
1.25
441
        0
  0
POINT
  5
26E7D
330
22904
100
AcDbEntity
  8
DEFPOINTS
 62
     0
440
 16777216
100
AcDbPoint
 10
49.82584848759657
 20
470.0697145142362
 30
0.0
  0
POINT
  5
26E7E
330
22904
100
AcDbEntity
  8
DEFPOINTS
 62
     0
440
 16777216
100
AcDbPoint
 10
49.82032336131172
 20
340.0697145142363
 30
0.0
  0
POINT
  5
26E7F
330
22904
100
AcDbEntity
  8
DEFPOINTS
 62
     0
440
 16777216
100
AcDbPoint
 10
33.47836974585104
 20
340.0697145142363
 30
0.0
  0
ENDBLK
  5
22906
330
22904
100
AcDbEntity
  8
0
100
AcDbBlockEnd
  0
BLOCK
  5
25DBD
330
25DBC
100
AcDbEntity
  8
0
100
AcDbBlockBegin
  2
SW_CENTERMARKSYMBOL_9
 70
     0
 10
0.0
 20
0.0
 30
0.0
  3
SW_CENTERMARKSYMBOL_9
  1
SW_CENTERMARKSYMBOL_9
  0
LINE
  5
25DBE
330
25DBC
100
AcDbEntity
  8
240
 62
     0
100
AcDbLine
 10
0.0
 20
0.0
 30
0.0
 11
0.0
 21
2.5
 31
0.0
  0
LINE
  5
25DBF
330
25DBC
100
AcDbEntity
  8
240
 62
     0
100
AcDbLine
 10
0.0
 20
0.0
 30
0.0
 11
-2.5
 21
0.0
 31
0.0
  0
LINE
  5
25DC0
330
25DBC
100
AcDbEntity
  8
240
 62
     0
100
AcDbLine
 10
0.0
 20
0.0
 30
0.0
 11
0.0
 21
-2.5
 31
0.0
  0
LINE
  5
25DC1
330
25DBC
100
AcDbEntity
  8
240
 62
     0
100
AcDbLine
 10
0.0
 20
0.0
 30
0.0
 11
2.5
 21
0.0
 31
0.0
  0
LINE
  5
25DC2
330
25DBC
100
AcDbEntity
  8
240
 62
     0
100
AcDbLine
 10
0.0
 20
2.5
 30
0.0
 11
0.0
 21
3.841640832999998
 31
0.0
  0
LINE
  5
25DC3
330
25DBC
100
AcDbEntity
  8
240
 62
     0
100
AcDbLine
 10
-2.5
 20
0.0
 30
0.0
 11
-3.841640832999998
 21
0.0
 31
0.0
  0
LINE
  5
25DC4
330
25DBC
100
AcDbEntity
  8
240
 62
     0
100
AcDbLine
 10
0.0
 20
-2.5
 30
0.0
 11
0.0
 21
-3.841640832999998
 31
0.0
  0
LINE
  5
25DC5
330
25DBC
100
AcDbEntity
  8
240
 62
     0
100
AcDbLine
 10
2.5
 20
0.0
 30
0.0
 11
3.841640832999998
 21
0.0
 31
0.0
  0
ENDBLK
  5
25DC6
330
25DBC
100
AcDbEntity
  8
0
100
AcDbBlockEnd
  0
BLOCK
  5
25DC8
330
25DC7
100
AcDbEntity
  8
0
100
AcDbBlockBegin
  2
SW_CENTERMARKSYMBOL_10
 70
     0
 10
0.0
 20
0.0
 30
0.0
  3
SW_CENTERMARKSYMBOL_10
  1
SW_CENTERMARKSYMBOL_10
  0
LINE
  5
25DC9
330
25DC7
100
AcDbEntity
  8
240
 62
     0
100
AcDbLine
 10
0.0
 20
0.0
 30
0.0
 11
0.0
 21
2.5
 31
0.0
  0
LINE
  5
25DCA
330
25DC7
100
AcDbEntity
  8
240
 62
     0
100
AcDbLine
 10
0.0
 20
0.0
 30
0.0
 11
-2.5
 21
0.0
 31
0.0
  0
LINE
  5
25DCB
330
25DC7
100
AcDbEntity
  8
240
 62
     0
100
AcDbLine
 10
0.0
 20
0.0
 30
0.0
 11
0.0
 21
-2.5
 31
0.0
  0
LINE
  5
25DCC
330
25DC7
100
AcDbEntity
  8
240
 62
     0
100
AcDbLine
 10
0.0
 20
0.0
 30
0.0
 11
2.5
 21
0.0
 31
0.0
  0
LINE
  5
25DCD
330
25DC7
100
AcDbEntity
  8
240
 62
     0
100
AcDbLine
 10
0.0
 20
2.5
 30
0.0
 11
0.0
 21
3.841640832999998
 31
0.0
  0
LINE
  5
25DCE
330
25DC7
100
AcDbEntity
  8
240
 62
     0
100
AcDbLine
 10
-2.5
 20
0.0
 30
0.0
 11
-3.841640832999998
 21
0.0
 31
0.0
  0
LINE
  5
25DCF
330
25DC7
100
AcDbEntity
  8
240
 62
     0
100
AcDbLine
 10
0.0
 20
-2.5
 30
0.0
 11
0.0
 21
-3.841640832999998
 31
0.0
  0
LINE
  5
25DD0
330
25DC7
100
AcDbEntity
  8
240
 62
     0
100
AcDbLine
 10
2.5
 20
0.0
 30
0.0
 11
3.841640832999998
 21
0.0
 31
0.0
  0
ENDBLK
  5
25DD1
330
25DC7
100
AcDbEntity
  8
0
100
AcDbBlockEnd
  0
BLOCK
  5
25DD3
330
25DD2
100
AcDbEntity
  8
0
100
AcDbBlockBegin
  2
SW_CENTERMARKSYMBOL_11
 70
     0
 10
0.0
 20
0.0
 30
0.0
  3
SW_CENTERMARKSYMBOL_11
  1
SW_CENTERMARKSYMBOL_11
  0
LINE
  5
25DD4
330
25DD2
100
AcDbEntity
  8
240
 62
     0
100
AcDbLine
 10
0.0
 20
0.0
 30
0.0
 11
0.0
 21
2.5
 31
0.0
  0
LINE
  5
25DD5
330
25DD2
100
AcDbEntity
  8
240
 62
     0
100
AcDbLine
 10
0.0
 20
0.0
 30
0.0
 11
-2.5
 21
0.0
 31
0.0
  0
LINE
  5
25DD6
330
25DD2
100
AcDbEntity
  8
240
 62
     0
100
AcDbLine
 10
0.0
 20
0.0
 30
0.0
 11
0.0
 21
-2.5
 31
0.0
  0
LINE
  5
25DD7
330
25DD2
100
AcDbEntity
  8
240
 62
     0
100
AcDbLine
 10
0.0
 20
0.0
 30
0.0
 11
2.5
 21
0.0
 31
0.0
  0
LINE
  5
25DD8
330
25DD2
100
AcDbEntity
  8
240
 62
     0
100
AcDbLine
 10
0.0
 20
2.5
 30
0.0
 11
0.0
 21
3.841640832999998
 31
0.0
  0
LINE
  5
25DD9
330
25DD2
100
AcDbEntity
  8
240
 62
     0
100
AcDbLine
 10
-2.5
 20
0.0
 30
0.0
 11
-3.841640832999998
 21
0.0
 31
0.0
  0
LINE
  5
25DDA
330
25DD2
100
AcDbEntity
  8
240
 62
     0
100
AcDbLine
 10
0.0
 20
-2.5
 30
0.0
 11
0.0
 21
-3.841640832999998
 31
0.0
  0
LINE
  5
25DDB
330
25DD2
100
AcDbEntity
  8
240
 62
     0
100
AcDbLine
 10
2.5
 20
0.0
 30
0.0
 11
3.841640832999998
 21
0.0
 31
0.0
  0
ENDBLK
  5
25DDC
330
25DD2
100
AcDbEntity
  8
0
100
AcDbBlockEnd
  0
BLOCK
  5
25DDE
330
25DDD
100
AcDbEntity
  8
0
100
AcDbBlockBegin
  2
SW_CENTERMARKSYMBOL_12
 70
     0
 10
0.0
 20
0.0
 30
0.0
  3
SW_CENTERMARKSYMBOL_12
  1
SW_CENTERMARKSYMBOL_12
  0
LINE
  5
25DDF
330
25DDD
100
AcDbEntity
  8
240
 62
     0
100
AcDbLine
 10
0.0
 20
0.0
 30
0.0
 11
0.0
 21
2.5
 31
0.0
  0
LINE
  5
25DE0
330
25DDD
100
AcDbEntity
  8
240
 62
     0
100
AcDbLine
 10
0.0
 20
0.0
 30
0.0
 11
-2.5
 21
0.0
 31
0.0
  0
LINE
  5
25DE1
330
25DDD
100
AcDbEntity
  8
240
 62
     0
100
AcDbLine
 10
0.0
 20
0.0
 30
0.0
 11
0.0
 21
-2.5
 31
0.0
  0
LINE
  5
25DE2
330
25DDD
100
AcDbEntity
  8
240
 62
     0
100
AcDbLine
 10
0.0
 20
0.0
 30
0.0
 11
2.5
 21
0.0
 31
0.0
  0
LINE
  5
25DE3
330
25DDD
100
AcDbEntity
  8
240
 62
     0
100
AcDbLine
 10
0.0
 20
2.5
 30
0.0
 11
0.0
 21
3.841640832999998
 31
0.0
  0
LINE
  5
25DE4
330
25DDD
100
AcDbEntity
  8
240
 62
     0
100
AcDbLine
 10
-2.5
 20
0.0
 30
0.0
 11
-3.841640832999998
 21
0.0
 31
0.0
  0
LINE
  5
25DE5
330
25DDD
100
AcDbEntity
  8
240
 62
     0
100
AcDbLine
 10
0.0
 20
-2.5
 30
0.0
 11
0.0
 21
-3.841640832999998
 31
0.0
  0
LINE
  5
25DE6
330
25DDD
100
AcDbEntity
  8
240
 62
     0
100
AcDbLine
 10
2.5
 20
0.0
 30
0.0
 11
3.841640832999998
 21
0.0
 31
0.0
  0
ENDBLK
  5
25DE7
330
25DDD
100
AcDbEntity
  8
0
100
AcDbBlockEnd
  0
BLOCK
  5
25E7A
330
25E79
100
AcDbEntity
  8
0
100
AcDbBlockBegin
  2
*D12
 70
     1
 10
0.0
 20
0.0
 30
0.0
  3
*D12
  1

  0
LINE
  5
26E6E
330
25E79
100
AcDbEntity
  8
30
 62
     0
440
 16777216
370
    -2
100
AcDbLine
 10
107.6054720999429
 20
171.4697145142365
 30
0.0
 11
37.22772143291152
 21
171.4697145142365
 31
0.0
  0
LINE
  5
26E6F
330
25E79
100
AcDbEntity
  8
30
 62
     0
440
 16777216
370
    -2
100
AcDbLine
 10
107.6054720999429
 20
151.4697145142366
 30
0.0
 11
37.22772143291153
 21
151.4697145142366
 31
0.0
  0
LINE
  5
26E70
330
25E79
100
AcDbEntity
  8
30
 62
     0
440
 16777216
370
    -2
100
AcDbLine
 10
37.72772143291152
 20
169.4697145142365
 30
0.0
 11
37.72772143291152
 21
153.4697145142366
 31
0.0
  0
INSERT
  5
26E71
330
25E79
100
AcDbEntity
  8
30
 62
     0
440
 16777216
370
    -2
100
AcDbBlockReference
  2
_OPEN
 10
37.72772143291152
 20
171.4697145142365
 30
0.0
 41
2.0
 42
2.0
 43
2.0
 50
90.0
  0
INSERT
  5
26E72
330
25E79
100
AcDbEntity
  8
30
 62
     0
440
 16777216
370
    -2
100
AcDbBlockReference
  2
_OPEN
 10
37.72772143291152
 20
151.4697145142366
 30
0.0
 41
2.0
 42
2.0
 43
2.0
 50
270.0
  0
MTEXT
  5
26E73
330
25E79
100
AcDbEntity
  8
30
 62
     0
440
 16777216
100
AcDbMText
 10
29.7277214329115
 20
161.4697145142366
 30
0.0
 40
6.0
 41
0.0
 46
0.0
 71
     2
 72
     1
  1
\A1;20
 11
0.0000000000000001
 21
1.0
 31
0.0
 73
     1
 44
1.0
 90
        3
 63
     9
421
 13158600
 45
1.25
441
        0
  0
POINT
  5
26E74
330
25E79
100
AcDbEntity
  8
DEFPOINTS
 62
     0
440
 16777216
100
AcDbPoint
 10
108.6054720999429
 20
171.4697145142365
 30
0.0
  0
POINT
  5
26E75
330
25E79
100
AcDbEntity
  8
DEFPOINTS
 62
     0
440
 16777216
100
AcDbPoint
 10
108.6054720999429
 20
151.4697145142366
 30
0.0
  0
POINT
  5
26E76
330
25E79
100
AcDbEntity
  8
DEFPOINTS
 62
     0
440
 16777216
100
AcDbPoint
 10
37.72772143291152
 20
151.4697145142366
 30
0.0
  0
ENDBLK
  5
25E7B
330
25E79
100
AcDbEntity
  8
0
100
AcDbBlockEnd
  0
BLOCK
  5
25E92
330
25E91
100
AcDbEntity
  8
0
100
AcDbBlockBegin
  2
*D13
 70
     1
 10
0.0
 20
0.0
 30
0.0
  3
*D13
  1

  0
LINE
  5
27045
330
25E91
100
AcDbEntity
  8
30
 62
     0
440
 16777216
370
    -2
100
AcDbLine
 10
73.60547209994317
 20
132.4697145142368
 30
0.0
 11
73.60547209994317
 21
38.36810860656738
 31
0.0
  0
LINE
  5
27046
330
25E91
100
AcDbEntity
  8
30
 62
     0
440
 16777216
370
    -2
100
AcDbLine
 10
143.6054720999427
 20
132.4697145142368
 30
0.0
 11
143.6054720999427
 21
38.36810860656738
 31
0.0
  0
LINE
  5
27047
330
25E91
100
AcDbEntity
  8
30
 62
     0
440
 16777216
370
    -2
100
AcDbLine
 10
75.60547209994317
 20
38.86810860656737
 30
0.0
 11
141.6054720999427
 21
38.86810860656737
 31
0.0
  0
INSERT
  5
27048
330
25E91
100
AcDbEntity
  8
30
 62
     0
440
 16777216
370
    -2
100
AcDbBlockReference
  2
_OPEN
 10
73.60547209994317
 20
38.86810860656737
 30
0.0
 41
2.0
 42
2.0
 43
2.0
 50
180.0
  0
INSERT
  5
27049
330
25E91
100
AcDbEntity
  8
30
 62
     0
440
 16777216
370
    -2
100
AcDbBlockReference
  2
_OPEN
 10
143.6054720999427
 20
38.86810860656737
 30
0.0
 41
2.0
 42
2.0
 43
2.0
  0
MTEXT
  5
2704A
330
25E91
100
AcDbEntity
  8
30
 62
     0
440
 16777216
100
AcDbMText
 10
107.1972015410667
 20
46.86810860656736
 30
0.0
 40
6.0
 41
0.0
 46
0.0
 71
     2
 72
     1
  1
\A1;70
 73
     1
 44
1.0
  0
POINT
  5
2704B
330
25E91
100
AcDbEntity
  8
DEFPOINTS
 62
     0
440
 16777216
100
AcDbPoint
 10
73.60547209994317
 20
135.4697145142368
 30
0.0
  0
POINT
  5
2704C
330
25E91
100
AcDbEntity
  8
DEFPOINTS
 62
     0
440
 16777216
100
AcDbPoint
 10
143.6054720999427
 20
135.4697145142368
 30
0.0
  0
POINT
  5
2704D
330
25E91
100
AcDbEntity
  8
DEFPOINTS
 62
     0
440
 16777216
100
AcDbPoint
 10
143.6054720999427
 20
38.86810860656737
 30
0.0
  0
ENDBLK
  5
25E93
330
25E91
100
AcDbEntity
  8
0
100
AcDbBlockEnd
  0
BLOCK
  5
25EAA
330
25EA9
100
AcDbEntity
  8
0
100
AcDbBlockBegin
  2
*D14
 70
     1
 10
0.0
 20
0.0
 30
0.0
  3
*D14
  1

  0
LINE
  5
2703C
330
25EA9
100
AcDbEntity
  8
30
 62
     0
440
 16777216
370
    -2
100
AcDbLine
 10
143.6054720999427
 20
132.4697145142368
 30
0.0
 11
143.6054720999427
 21
38.36810860656738
 31
0.0
  0
LINE
  5
2703D
330
25EA9
100
AcDbEntity
  8
30
 62
     0
440
 16777216
370
    -2
100
AcDbLine
 10
165.6054720999426
 20
158.4697145142366
 30
0.0
 11
165.6054720999426
 21
38.36810860656738
 31
0.0
  0
LINE
  5
2703E
330
25EA9
100
AcDbEntity
  8
30
 62
     0
440
 16777216
370
    -2
100
AcDbLine
 10
145.6054720999427
 20
38.86810860656737
 30
0.0
 11
163.6054720999426
 21
38.86810860656737
 31
0.0
  0
INSERT
  5
2703F
330
25EA9
100
AcDbEntity
  8
30
 62
     0
440
 16777216
370
    -2
100
AcDbBlockReference
  2
_OPEN
 10
143.6054720999427
 20
38.86810860656737
 30
0.0
 41
2.0
 42
2.0
 43
2.0
 50
180.0
  0
INSERT
  5
27040
330
25EA9
100
AcDbEntity
  8
30
 62
     0
440
 16777216
370
    -2
100
AcDbBlockReference
  2
_OPEN
 10
165.6054720999426
 20
38.86810860656737
 30
0.0
 41
2.0
 42
2.0
 43
2.0
  0
MTEXT
  5
27041
330
25EA9
100
AcDbEntity
  8
30
 62
     0
440
 16777216
100
AcDbMText
 10
154.6054720999427
 20
46.86810860656736
 30
0.0
 40
6.0
 41
0.0
 46
0.0
 71
     2
 72
     1
  1
\A1;22
 73
     1
 44
1.0
  0
POINT
  5
27042
330
25EA9
100
AcDbEntity
  8
DEFPOINTS
 62
     0
440
 16777216
100
AcDbPoint
 10
143.6054720999427
 20
135.4697145142368
 30
0.0
  0
POINT
  5
27043
330
25EA9
100
AcDbEntity
  8
DEFPOINTS
 62
     0
440
 16777216
100
AcDbPoint
 10
165.6054720999426
 20
161.4697145142366
 30
0.0
  0
POINT
  5
27044
330
25EA9
100
AcDbEntity
  8
DEFPOINTS
 62
     0
440
 16777216
100
AcDbPoint
 10
165.6054720999426
 20
38.86810860656737
 30
0.0
  0
ENDBLK
  5
25EAB
330
25EA9
100
AcDbEntity
  8
0
100
AcDbBlockEnd
  0
BLOCK
  5
25FF5
330
25FF4
100
AcDbEntity
  8
0
100
AcDbBlockBegin
  2
*D15
 70
     1
 10
0.0
 20
0.0
 30
0.0
  3
*D15
  1

  0
LINE
  5
26F5A
330
25FF4
100
AcDbEntity
  8
30
 62
     0
440
 16777216
370
    -2
100
AcDbLine
 10
162.6350564058546
 20
155.2212106999051
 30
0.0
 11
168.5758877940303
 21
167.8982183285682
 31
0.0
  0
LINE
  5
26F5B
330
25FF4
100
AcDbEntity
  8
30
 62
     0
440
 16777216
370
    -2
100
AcDbLine
 10
169.4245779923413
 20
169.7092194183776
 30
0.0
 11
185.0756289327169
 21
203.1066480278882
 31
0.0
  0
LINE
  5
26F5C
330
25FF4
100
AcDbEntity
  8
30
 62
     0
440
 16777216
370
    -2
100
AcDbLine
 10
185.0756289327169
 20
203.1066480278882
 30
0.0
 11
201.0756289327169
 21
203.1066480278882
 31
0.0
  0
INSERT
  5
26F5D
330
25FF4
100
AcDbEntity
  8
30
 62
     0
440
 16777216
370
    -2
100
AcDbBlockReference
  2
_OPEN
 10
161.7863662075436
 20
153.4102096100957
 30
0.0
 41
2.0
 42
2.0
 43
2.0
 50
244.8907826351501
  0
INSERT
  5
26F5E
330
25FF4
100
AcDbEntity
  8
30
 62
     0
440
 16777216
370
    -2
100
AcDbBlockReference
  2
_OPEN
 10
169.4245779923413
 20
169.7092194183776
 30
0.0
 41
2.0
 42
2.0
 43
2.0
 50
64.89078263515013
  0
MTEXT
  5
26F5F
330
25FF4
100
AcDbEntity
  8
30
 62
     0
440
 16777216
100
AcDbMText
 10
187.0756289327168
 20
211.1066480278882
 30
0.0
 40
6.0
 41
0.0
 46
0.0
 71
     1
 72
     1
  1
\A1;∅18
 73
     1
 44
1.0
  0
POINT
  5
26F60
330
25FF4
100
AcDbEntity
  8
DEFPOINTS
 62
     0
440
 16777216
100
AcDbPoint
 10
169.4245779923413
 20
169.7092194183776
 30
0.0
  0
POINT
  5
26F61
330
25FF4
100
AcDbEntity
  8
DEFPOINTS
 62
     0
440
 16777216
100
AcDbPoint
 10
161.7863662075436
 20
153.4102096100957
 30
0.0
  0
ENDBLK
  5
25FF6
330
25FF4
100
AcDbEntity
  8
0
100
AcDbBlockEnd
  0
BLOCK
  5
26035
330
26034
100
AcDbEntity
  8
0
100
AcDbBlockBegin
  2
*D16
 70
     1
 10
0.0
 20
0.0
 30
0.0
  3
*D16
  1

  0
LINE
  5
26F62
330
26034
100
AcDbEntity
  8
30
 62
     0
440
 16777216
370
    -2
100
AcDbLine
 10
77.24937995666312
 20
138.8934457435899
 30
0.0
 11
78.70694309935467
 21
140.2629382353792
 31
0.0
  0
LINE
  5
26F63
330
26034
100
AcDbEntity
  8
30
 62
     0
440
 16777216
370
    -2
100
AcDbLine
 10
69.96156424322265
 20
132.04598328466
 30
0.0
 11
36.2633821190561
 21
100.3839536584355
 31
0.0
  0
LINE
  5
26F64
330
26034
100
AcDbEntity
  8
30
 62
     0
440
 16777216
370
    -2
100
AcDbLine
 10
36.2633821190561
 20
100.3839536584355
 30
0.0
 11
24.26338211905609
 21
100.3839536584355
 31
0.0
  0
LINE
  5
26F65
330
26034
100
AcDbEntity
  8
30
 62
     0
440
 16777216
370
    -2
100
AcDbLine
 10
75.79181681397156
 20
137.5239532518007
 30
0.0
 11
71.41912738591421
 21
133.4154757764492
 31
0.0
  0
INSERT
  5
26F66
330
26034
100
AcDbEntity
  8
30
 62
     0
440
 16777216
370
    -2
100
AcDbBlockReference
  2
_OPEN
 10
75.79181681397156
 20
137.5239532518007
 30
0.0
 41
2.0
 42
2.0
 43
2.0
 50
223.2156540942601
  0
INSERT
  5
26F67
330
26034
100
AcDbEntity
  8
30
 62
     0
440
 16777216
370
    -2
100
AcDbBlockReference
  2
_OPEN
 10
71.41912738591421
 20
133.4154757764492
 30
0.0
 41
2.0
 42
2.0
 43
2.0
 50
43.21565409425999
  0
MTEXT
  5
26F68
330
26034
100
AcDbEntity
  8
30
 62
     0
440
 16777216
100
AcDbMText
 10
24.26338211905625
 20
108.3839536584353
 30
0.0
 40
6.0
 41
0.0
 46
0.0
 71
     1
 72
     1
  1
\A1;∅6
 73
     1
 44
1.0
  0
POINT
  5
26F69
330
26034
100
AcDbEntity
  8
DEFPOINTS
 62
     0
440
 16777216
100
AcDbPoint
 10
71.41912738591421
 20
133.4154757764492
 30
0.0
  0
POINT
  5
26F6A
330
26034
100
AcDbEntity
  8
DEFPOINTS
 62
     0
440
 16777216
100
AcDbPoint
 10
75.79181681397156
 20
137.5239532518007
 30
0.0
  0
ENDBLK
  5
26036
330
26034
100
AcDbEntity
  8
0
100
AcDbBlockEnd
  0
BLOCK
  5
26052
330
26051
100
AcDbEntity
  8
0
100
AcDbBlockBegin
  2
*D17
 70
     1
 10
0.0
 20
0.0
 30
0.0
  3
*D17
  1

  0
LINE
  5
26E65
330
26051
100
AcDbEntity
  8
30
 62
     0
440
 16777216
370
    -2
100
AcDbLine
 10
65.51530234994427
 20
187.4697145142364
 30
0.0
 11
24.02321778049554
 21
187.4697145142365
 31
0.0
  0
LINE
  5
26E66
330
26051
100
AcDbEntity
  8
30
 62
     0
440
 16777216
370
    -2
100
AcDbLine
 10
67.01530234994425
 20
135.4697145142368
 30
0.0
 11
24.02321778049553
 21
135.4697145142368
 31
0.0
  0
LINE
  5
26E67
330
26051
100
AcDbEntity
  8
30
 62
     0
440
 16777216
370
    -2
100
AcDbLine
 10
24.52321778049555
 20
185.4697145142365
 30
0.0
 11
24.52321778049554
 21
137.4697145142368
 31
0.0
  0
INSERT
  5
26E68
330
26051
100
AcDbEntity
  8
30
 62
     0
440
 16777216
370
    -2
100
AcDbBlockReference
  2
_OPEN
 10
24.52321778049555
 20
187.4697145142365
 30
0.0
 41
2.0
 42
2.0
 43
2.0
 50
90.0
  0
INSERT
  5
26E69
330
26051
100
AcDbEntity
  8
30
 62
     0
440
 16777216
370
    -2
100
AcDbBlockReference
  2
_OPEN
 10
24.52321778049553
 20
135.4697145142368
 30
0.0
 41
2.0
 42
2.0
 43
2.0
 50
270.0
  0
MTEXT
  5
26E6A
330
26051
100
AcDbEntity
  8
30
 62
     0
440
 16777216
100
AcDbMText
 10
16.52321778049551
 20
161.4697145142366
 30
0.0
 40
6.0
 41
0.0
 46
0.0
 71
     2
 72
     1
  1
\A1;52
 11
0.0000000000000001
 21
1.0
 31
0.0
 73
     1
 44
1.0
 90
        3
 63
     9
421
 13158600
 45
1.25
441
        0
  0
POINT
  5
26E6B
330
26051
100
AcDbEntity
  8
DEFPOINTS
 62
     0
440
 16777216
100
AcDbPoint
 10
66.51530234994426
 20
187.4697145142364
 30
0.0
  0
POINT
  5
26E6C
330
26051
100
AcDbEntity
  8
DEFPOINTS
 62
     0
440
 16777216
100
AcDbPoint
 10
68.01530234994425
 20
135.4697145142368
 30
0.0
  0
POINT
  5
26E6D
330
26051
100
AcDbEntity
  8
DEFPOINTS
 62
     0
440
 16777216
100
AcDbPoint
 10
24.52321778049553
 20
135.4697145142368
 30
0.0
  0
ENDBLK
  5
26053
330
26051
100
AcDbEntity
  8
0
100
AcDbBlockEnd
  0
BLOCK
  5
260B1
330
260B0
100
AcDbEntity
  8
0
100
AcDbBlockBegin
  2
*D18
 70
     1
 10
0.0
 20
0.0
 30
0.0
  3
*D18
  1

  0
LINE
  5
2707F
330
260B0
100
AcDbEntity
  8
30
 62
     0
440
 16777216
370
    -2
100
AcDbLine
 10
304.8386016549195
 20
133.4697145142368
 30
0.0
 11
304.8386016549195
 21
37.78601293573297
 31
0.0
  0
LINE
  5
27080
330
260B0
100
AcDbEntity
  8
30
 62
     0
440
 16777216
370
    -2
100
AcDbLine
 10
218.83860165492
 20
133.4697145142368
 30
0.0
 11
218.83860165492
 21
37.78601293573297
 31
0.0
  0
LINE
  5
27081
330
260B0
100
AcDbEntity
  8
30
 62
     0
440
 16777216
370
    -2
100
AcDbLine
 10
302.8386016549195
 20
38.28601293573297
 30
0.0
 11
220.83860165492
 21
38.28601293573297
 31
0.0
  0
INSERT
  5
27082
330
260B0
100
AcDbEntity
  8
30
 62
     0
440
 16777216
370
    -2
100
AcDbBlockReference
  2
_OPEN
 10
304.8386016549195
 20
38.28601293573297
 30
0.0
 41
2.0
 42
2.0
 43
2.0
  0
INSERT
  5
27083
330
260B0
100
AcDbEntity
  8
30
 62
     0
440
 16777216
370
    -2
100
AcDbBlockReference
  2
_OPEN
 10
218.83860165492
 20
38.28601293573297
 30
0.0
 41
2.0
 42
2.0
 43
2.0
 50
180.0
  0
MTEXT
  5
27084
330
260B0
100
AcDbEntity
  8
30
 62
     0
440
 16777216
100
AcDbMText
 10
261.8386016549199
 20
46.28601293573296
 30
0.0
 40
6.0
 41
0.0
 46
0.0
 71
     2
 72
     1
  1
\A1;86
 73
     1
 44
1.0
  0
POINT
  5
27085
330
260B0
100
AcDbEntity
  8
DEFPOINTS
 62
     0
440
 16777216
100
AcDbPoint
 10
304.8386016549195
 20
136.4697145142368
 30
0.0
  0
POINT
  5
27086
330
260B0
100
AcDbEntity
  8
DEFPOINTS
 62
     0
440
 16777216
100
AcDbPoint
 10
218.83860165492
 20
136.4697145142368
 30
0.0
  0
POINT
  5
27087
330
260B0
100
AcDbEntity
  8
DEFPOINTS
 62
     0
440
 16777216
100
AcDbPoint
 10
218.83860165492
 20
38.28601293573297
 30
0.0
  0
ENDBLK
  5
260B2
330
260B0
100
AcDbEntity
  8
0
100
AcDbBlockEnd
  0
BLOCK
  5
26101
330
26100
100
AcDbEntity
  8
0
100
AcDbBlockBegin
  2
*D19
 70
     1
 10
0.0
 20
0.0
 30
0.0
  3
*D19
  1

  0
LINE
  5
26F53
330
26100
100
AcDbEntity
  8
30
 62
     0
440
 16777216
370
    -2
100
AcDbLine
 10
306.4503015672987
 20
187.9458661213058
 30
0.0
 11
323.2773397107698
 21
197.4566293142623
 31
0.0
  0
LINE
  5
26F54
330
26100
100
AcDbEntity
  8
30
 62
     0
440
 16777216
370
    -2
100
AcDbLine
 10
323.2773397107698
 20
197.4566293142623
 30
0.0
 11
333.2773397107697
 21
197.4566293142624
 31
0.0
  0
LINE
  5
26F55
330
26100
100
AcDbEntity
  8
30
 62
     0
440
 16777216
370
    -2
100
AcDbLine
 10
303.8386016549195
 20
186.4697145142363
 30
0.0
 11
304.7091682923189
 21
186.9617650498921
 31
0.0
  0
INSERT
  5
26F56
330
26100
100
AcDbEntity
  8
30
 62
     0
440
 16777216
370
    -2
100
AcDbBlockReference
  2
_OPEN
 10
304.7091682923189
 20
186.9617650498921
 30
0.0
 41
2.0
 42
2.0
 43
2.0
 50
209.4754466665844
  0
MTEXT
  5
26F57
330
26100
100
AcDbEntity
  8
30
 62
     0
440
 16777216
100
AcDbMText
 10
325.2773397107695
 20
205.4566293142627
 30
0.0
 40
6.0
 41
0.0
 46
0.0
 71
     1
 72
     1
  1
\A1;R1
 73
     1
 44
1.0
  0
POINT
  5
26F58
330
26100
100
AcDbEntity
  8
DEFPOINTS
 62
     0
440
 16777216
100
AcDbPoint
 10
304.7091682923189
 20
186.9617650498921
 30
0.0
  0
POINT
  5
26F59
330
26100
100
AcDbEntity
  8
DEFPOINTS
 62
     0
440
 16777216
100
AcDbPoint
 10
303.8386016549195
 20
186.4697145142363
 30
0.0
  0
ENDBLK
  5
26102
330
26100
100
AcDbEntity
  8
0
100
AcDbBlockEnd
  0
BLOCK
  5
26148
330
26147
100
AcDbEntity
  8
0
100
AcDbBlockBegin
  2
*D20
 70
     1
 10
0.0
 20
0.0
 30
0.0
  3
*D20
  1

  0
LINE
  5
26E5C
330
26147
100
AcDbEntity
  8
30
 62
     0
440
 16777216
370
    -2
100
AcDbLine
 10
436.4743502160973
 20
185.4697145142365
 30
0.0
 11
515.0883466054953
 21
185.4697145142365
 31
0.0
  0
LINE
  5
26E5D
330
26147
100
AcDbEntity
  8
30
 62
     0
440
 16777216
370
    -2
100
AcDbLine
 10
429.485329794364
 20
137.4697145142368
 30
0.0
 11
515.0883466054953
 21
137.4697145142367
 31
0.0
  0
LINE
  5
26E5E
330
26147
100
AcDbEntity
  8
30
 62
     0
440
 16777216
370
    -2
100
AcDbLine
 10
514.5883466054953
 20
183.4697145142365
 30
0.0
 11
514.5883466054953
 21
139.4697145142367
 31
0.0
  0
INSERT
  5
26E5F
330
26147
100
AcDbEntity
  8
30
 62
     0
440
 16777216
370
    -2
100
AcDbBlockReference
  2
_OPEN
 10
514.5883466054953
 20
185.4697145142365
 30
0.0
 41
2.0
 42
2.0
 43
2.0
 50
90.0
  0
INSERT
  5
26E60
330
26147
100
AcDbEntity
  8
30
 62
     0
440
 16777216
370
    -2
100
AcDbBlockReference
  2
_OPEN
 10
514.5883466054953
 20
137.4697145142367
 30
0.0
 41
2.0
 42
2.0
 43
2.0
 50
270.0
  0
MTEXT
  5
26E61
330
26147
100
AcDbEntity
  8
30
 62
     0
440
 16777216
100
AcDbMText
 10
506.5883466054953
 20
161.4697145142366
 30
0.0
 40
6.0
 41
0.0
 46
0.0
 71
     2
 72
     1
  1
\A1;48
 11
0.0000000000000001
 21
1.0
 31
0.0
 73
     1
 44
1.0
 90
        3
 63
     9
421
 13158600
 45
1.25
441
        0
  0
POINT
  5
26E62
330
26147
100
AcDbEntity
  8
DEFPOINTS
 62
     0
440
 16777216
100
AcDbPoint
 10
435.4743502160972
 20
185.4697145142365
 30
0.0
  0
POINT
  5
26E63
330
26147
100
AcDbEntity
  8
DEFPOINTS
 62
     0
440
 16777216
100
AcDbPoint
 10
428.485329794364
 20
137.4697145142368
 30
0.0
  0
POINT
  5
26E64
330
26147
100
AcDbEntity
  8
DEFPOINTS
 62
     0
440
 16777216
100
AcDbPoint
 10
514.5883466054953
 20
137.4697145142367
 30
0.0
  0
ENDBLK
  5
26149
330
26147
100
AcDbEntity
  8
0
100
AcDbBlockEnd
  0
BLOCK
  5
26171
330
26170
100
AcDbEntity
  8
0
100
AcDbBlockBegin
  2
*D21
 70
     1
 10
0.0
 20
0.0
 30
0.0
  3
*D21
  1

  0
LINE
  5
27088
330
26170
100
AcDbEntity
  8
30
 62
     0
440
 16777216
370
    -2
100
AcDbLine
 10
429.485329794364
 20
135.4697145142368
 30
0.0
 11
429.485329794364
 21
38.18212867909847
 31
0.0
  0
LINE
  5
27089
330
26170
100
AcDbEntity
  8
30
 62
     0
440
 16777216
370
    -2
100
AcDbLine
 10
405.485329794364
 20
135.4697145142368
 30
0.0
 11
405.485329794364
 21
38.18212867909847
 31
0.0
  0
LINE
  5
2708A
330
26170
100
AcDbEntity
  8
30
 62
     0
440
 16777216
370
    -2
100
AcDbLine
 10
427.485329794364
 20
38.68212867909847
 30
0.0
 11
407.485329794364
 21
38.68212867909847
 31
0.0
  0
INSERT
  5
2708B
330
26170
100
AcDbEntity
  8
30
 62
     0
440
 16777216
370
    -2
100
AcDbBlockReference
  2
_OPEN
 10
429.485329794364
 20
38.68212867909847
 30
0.0
 41
2.0
 42
2.0
 43
2.0
  0
INSERT
  5
2708C
330
26170
100
AcDbEntity
  8
30
 62
     0
440
 16777216
370
    -2
100
AcDbBlockReference
  2
_OPEN
 10
405.485329794364
 20
38.68212867909847
 30
0.0
 41
2.0
 42
2.0
 43
2.0
 50
180.0
  0
MTEXT
  5
2708D
330
26170
100
AcDbEntity
  8
30
 62
     0
440
 16777216
100
AcDbMText
 10
417.4853297943641
 20
46.68212867909846
 30
0.0
 40
6.0
 41
0.0
 46
0.0
 71
     2
 72
     1
  1
\A1;24
 73
     1
 44
1.0
  0
POINT
  5
2708E
330
26170
100
AcDbEntity
  8
DEFPOINTS
 62
     0
440
 16777216
100
AcDbPoint
 10
429.485329794364
 20
138.4697145142368
 30
0.0
  0
POINT
  5
2708F
330
26170
100
AcDbEntity
  8
DEFPOINTS
 62
     0
440
 16777216
100
AcDbPoint
 10
405.485329794364
 20
138.4697145142368
 30
0.0
  0
POINT
  5
27090
330
26170
100
AcDbEntity
  8
DEFPOINTS
 62
     0
440
 16777216
100
AcDbPoint
 10
405.485329794364
 20
38.68212867909847
 30
0.0
  0
ENDBLK
  5
26172
330
26170
100
AcDbEntity
  8
0
100
AcDbBlockEnd
  0
BLOCK
  5
26198
330
26197
100
AcDbEntity
  8
0
100
AcDbBlockBegin
  2
*D22
 70
     1
 10
0.0
 20
0.0
 30
0.0
  3
*D22
  1

  0
LINE
  5
26F4C
330
26197
100
AcDbEntity
  8
30
 62
     0
440
 16777216
370
    -2
100
AcDbLine
 10
430.3964404798736
 20
186.7822144487457
 30
0.0
 11
439.8260584797959
 21
198.1923285633299
 31
0.0
  0
LINE
  5
26F4D
330
26197
100
AcDbEntity
  8
30
 62
     0
440
 16777216
370
    -2
100
AcDbLine
 10
439.8260584797959
 20
198.1923285633299
 30
0.0
 11
449.826058479796
 21
198.19232856333
 31
0.0
  0
LINE
  5
26F4E
330
26197
100
AcDbEntity
  8
30
 62
     0
440
 16777216
370
    -2
100
AcDbLine
 10
428.485329794364
 20
184.4697145142366
 30
0.0
 11
429.1223666894897
 21
185.240547825686
 31
0.0
  0
INSERT
  5
26F4F
330
26197
100
AcDbEntity
  8
30
 62
     0
440
 16777216
370
    -2
100
AcDbBlockReference
  2
_OPEN
 10
429.1223666894897
 20
185.240547825686
 30
0.0
 41
2.0
 42
2.0
 43
2.0
 50
230.4287785817409
  0
MTEXT
  5
26F50
330
26197
100
AcDbEntity
  8
30
 62
     0
440
 16777216
100
AcDbMText
 10
441.8260584797962
 20
206.1923285633298
 30
0.0
 40
6.0
 41
0.0
 46
0.0
 71
     1
 72
     1
  1
\A1;R1
 73
     1
 44
1.0
  0
POINT
  5
26F51
330
26197
100
AcDbEntity
  8
DEFPOINTS
 62
     0
440
 16777216
100
AcDbPoint
 10
429.1223666894897
 20
185.240547825686
 30
0.0
  0
POINT
  5
26F52
330
26197
100
AcDbEntity
  8
DEFPOINTS
 62
     0
440
 16777216
100
AcDbPoint
 10
428.485329794364
 20
184.4697145142366
 30
0.0
  0
ENDBLK
  5
26199
330
26197
100
AcDbEntity
  8
0
100
AcDbBlockEnd
  0
BLOCK
  5
261F9
330
261F8
100
AcDbEntity
  8
0
100
AcDbBlockBegin
  2
*D23
 70
     1
 10
0.0
 20
0.0
 30
0.0
  3
*D23
  1

  0
LINE
  5
26E53
330
261F8
100
AcDbEntity
  8
30
 62
     0
440
 16777216
370
    -2
100
AcDbLine
 10
308.360952666505
 20
187.4697145142364
 30
0.0
 11
358.8522954887922
 21
187.4697145142363
 31
0.0
  0
LINE
  5
26E54
330
261F8
100
AcDbEntity
  8
30
 62
     0
440
 16777216
370
    -2
100
AcDbLine
 10
306.646569233687
 20
135.4697145142369
 30
0.0
 11
358.8522954887922
 21
135.4697145142368
 31
0.0
  0
LINE
  5
26E55
330
261F8
100
AcDbEntity
  8
30
 62
     0
440
 16777216
370
    -2
100
AcDbLine
 10
358.3522954887922
 20
185.4697145142363
 30
0.0
 11
358.3522954887922
 21
137.4697145142368
 31
0.0
  0
INSERT
  5
26E56
330
261F8
100
AcDbEntity
  8
30
 62
     0
440
 16777216
370
    -2
100
AcDbBlockReference
  2
_OPEN
 10
358.3522954887922
 20
187.4697145142363
 30
0.0
 41
2.0
 42
2.0
 43
2.0
 50
90.0
  0
INSERT
  5
26E57
330
261F8
100
AcDbEntity
  8
30
 62
     0
440
 16777216
370
    -2
100
AcDbBlockReference
  2
_OPEN
 10
358.3522954887922
 20
135.4697145142368
 30
0.0
 41
2.0
 42
2.0
 43
2.0
 50
270.0
  0
MTEXT
  5
26E58
330
261F8
100
AcDbEntity
  8
30
 62
     0
440
 16777216
100
AcDbMText
 10
350.3522954887921
 20
160.9655321337318
 30
0.0
 40
6.0
 41
0.0
 46
0.0
 71
     2
 72
     1
  1
\A1;52
 11
0.0000000000000001
 21
1.0
 31
0.0
 73
     1
 44
1.0
 90
        3
 63
     9
421
 13158600
 45
1.25
441
        0
  0
POINT
  5
26E59
330
261F8
100
AcDbEntity
  8
DEFPOINTS
 62
     0
440
 16777216
100
AcDbPoint
 10
307.360952666505
 20
187.4697145142364
 30
0.0
  0
POINT
  5
26E5A
330
261F8
100
AcDbEntity
  8
DEFPOINTS
 62
     0
440
 16777216
100
AcDbPoint
 10
305.6465692336869
 20
135.4697145142369
 30
0.0
  0
POINT
  5
26E5B
330
261F8
100
AcDbEntity
  8
DEFPOINTS
 62
     0
440
 16777216
100
AcDbPoint
 10
358.3522954887922
 20
135.4697145142368
 30
0.0
  0
ENDBLK
  5
261FA
330
261F8
100
AcDbEntity
  8
0
100
AcDbBlockEnd
  0
BLOCK
  5
2698D
330
2698C
100
AcDbEntity
  8
0
100
AcDbBlockBegin
  2
*D24
 70
     1
 10
0.0
 20
0.0
 30
0.0
  3
*D24
  1

  0
LINE
  5
2698E
330
2698C
100
AcDbEntity
  8
30
 62
     0
370
    -2
100
AcDbLine
 10
236.5418816078165
 20
427.7107746403109
 30
0.0
 11
203.6544833604434
 21
427.7107746403109
 31
0.0
  0
LINE
  5
2698F
330
2698C
100
AcDbEntity
  8
30
 62
     0
370
    -2
100
AcDbLine
 10
236.5418816078165
 20
382.6930161003913
 30
0.0
 11
203.6544833604434
 21
382.6930161003913
 31
0.0
  0
LINE
  5
26990
330
2698C
100
AcDbEntity
  8
30
 62
     0
370
    -2
100
AcDbLine
 10
204.1544833604434
 20
425.7107746403108
 30
0.0
 11
204.1544833604434
 21
384.6930161003913
 31
0.0
  0
INSERT
  5
26991
330
2698C
100
AcDbEntity
  8
30
 62
     0
370
    -2
100
AcDbBlockReference
  2
_OPEN
 10
204.1544833604434
 20
427.7107746403109
 30
0.0
 41
2.0
 42
2.0
 43
2.0
 50
90.0
  0
INSERT
  5
26992
330
2698C
100
AcDbEntity
  8
30
 62
     0
370
    -2
100
AcDbBlockReference
  2
_OPEN
 10
204.1544833604434
 20
382.6930161003913
 30
0.0
 41
2.0
 42
2.0
 43
2.0
 50
270.0
  0
MTEXT
  5
26993
330
2698C
100
AcDbEntity
  8
30
 62
     0
100
AcDbMText
 10
199.1544833604434
 20
405.2018953703512
 30
0.0
 40
6.0
 41
0.0
 46
0.0
 71
     5
 72
     1
  1
\A1;45
 11
0.0000000000000001
 21
1.0
 31
0.0
 73
     1
 44
1.0
  0
POINT
  5
26994
330
2698C
100
AcDbEntity
  8
DEFPOINTS
 62
     0
100
AcDbPoint
 10
237.5418816078165
 20
427.7107746403109
 30
0.0
  0
POINT
  5
26995
330
2698C
100
AcDbEntity
  8
DEFPOINTS
 62
     0
100
AcDbPoint
 10
237.5418816078165
 20
382.6930161003913
 30
0.0
  0
POINT
  5
26996
330
2698C
100
AcDbEntity
  8
DEFPOINTS
 62
     0
100
AcDbPoint
 10
204.1544833604434
 20
382.6930161003913
 30
0.0
  0
ENDBLK
  5
26997
330
2698C
100
AcDbEntity
  8
0
100
AcDbBlockEnd
  0
BLOCK
  5
26999
330
26998
100
AcDbEntity
  8
0
100
AcDbBlockBegin
  2
*D25
 70
     1
 10
0.0
 20
0.0
 30
0.0
  3
*D25
  1

  0
LINE
  5
2699A
330
26998
100
AcDbEntity
  8
30
 62
     0
370
    -2
100
AcDbLine
 10
231.041887712282
 20
404.0306161999858
 30
0.0
 11
231.041887712282
 21
287.7096972143354
 31
0.0
  0
LINE
  5
2699B
330
26998
100
AcDbEntity
  8
30
 62
     0
370
    -2
100
AcDbLine
 10
237.5418816078165
 20
381.9952663331412
 30
0.0
 11
237.5418816078165
 21
287.7096972143354
 31
0.0
  0
LINE
  5
2699C
330
26998
100
AcDbEntity
  8
30
 62
     0
370
    -2
100
AcDbLine
 10
239.5418816078165
 20
288.2096972143354
 30
0.0
 11
241.5418816078165
 21
288.2096972143354
 31
0.0
  0
LINE
  5
2699D
330
26998
100
AcDbEntity
  8
30
 62
     0
370
    -2
100
AcDbLine
 10
229.041887712282
 20
288.2096972143354
 30
0.0
 11
196.4499754513945
 21
288.2096972143354
 31
0.0
  0
INSERT
  5
2699E
330
26998
100
AcDbEntity
  8
30
 62
     0
370
    -2
100
AcDbBlockReference
  2
_OPEN
 10
237.5418816078165
 20
288.2096972143354
 30
0.0
 41
2.0
 42
2.0
 43
2.0
 50
180.0
  0
INSERT
  5
2699F
330
26998
100
AcDbEntity
  8
30
 62
     0
370
    -2
100
AcDbBlockReference
  2
_OPEN
 10
231.041887712282
 20
288.2096972143354
 30
0.0
 41
2.0
 42
2.0
 43
2.0
  0
MTEXT
  5
269A0
330
26998
100
AcDbEntity
  8
30
 62
     0
100
AcDbMText
 10
204.4499754513945
 20
296.2096972143354
 30
0.0
 40
6.0
 41
0.0
 46
0.0
 71
     2
 72
     1
  1
\A1;6.5
 73
     1
 44
1.0
  0
POINT
  5
269A1
330
26998
100
AcDbEntity
  8
DEFPOINTS
 62
     0
100
AcDbPoint
 10
231.041887712282
 20
405.0306161999857
 30
0.0
  0
POINT
  5
269A2
330
26998
100
AcDbEntity
  8
DEFPOINTS
 62
     0
100
AcDbPoint
 10
237.5418816078165
 20
382.9952663331411
 30
0.0
  0
POINT
  5
269A3
330
26998
100
AcDbEntity
  8
DEFPOINTS
 62
     0
100
AcDbPoint
 10
237.5418816078165
 20
288.2096972143354
 30
0.0
  0
ENDBLK
  5
269A4
330
26998
100
AcDbEntity
  8
0
100
AcDbBlockEnd
  0
BLOCK
  5
269BA
330
269A5
100
AcDbEntity
  8
0
100
AcDbBlockBegin
  2
A$C321920B3
 70
     0
 10
0.0
 20
0.0
 30
0.0
  3
A$C321920B3
  1

  0
LINE
  5
269A6
330
269A5
100
AcDbEntity
  8
0
  6
SLD-実線
 62
     7
370
    30
100
AcDbLine
 10
41.38740244860443
 20
142.2510750928012
 30
0.0
 11
41.38740244860443
 21
92.49076341704606
 31
0.0
  0
LINE
  5
269A7
330
269A5
100
AcDbEntity
  8
0
  6
SLD-実線
 62
     7
370
    30
100
AcDbLine
 10
45.3873918970473
 20
142.3208962805556
 30
0.0
 11
41.38740244860443
 21
142.2510750928012
 31
0.0
  0
LINE
  5
269A8
330
269A5
100
AcDbEntity
  8
130
100
AcDbLine
 10
53.38738942060214
 20
168.320870536482
 30
0.0
 11
48.3873951594705
 21
168.320870536482
 31
0.0
  0
LINE
  5
269A9
330
269A5
100
AcDbEntity
  8
0
  6
SLD-実線
 62
     7
370
    30
100
AcDbLine
 10
53.38738942060214
 20
167.8461758660196
 30
0.0
 11
53.38738942060214
 21
167.8565619656055
 31
0.0
  0
LINE
  5
269AA
330
269A5
100
AcDbEntity
  8
130
100
AcDbLine
 10
47.35248813469293
 20
168.3028066207127
 30
0.0
 11
48.3873951594705
 21
168.320870536482
 31
0.0
  0
SPLINE
  5
269AB
330
269A5
100
AcDbEntity
  8
130
100
AcDbSpline
210
0.0
220
0.0
230
1.0
 70
     8
 71
     3
 72
    12
 73
     8
 74
     0
 42
0.000000001
 43
0.0000000001
 40
0.0
 40
0.0
 40
0.0
 40
0.0
 40
0.2429927693644977
 40
0.4991681179683811
 40
0.7111648306467968
 40
0.8460825200099279
 40
1.0
 40
1.0
 40
1.0
 40
1.0
 10
45.38739189715507
 20
166.3031136447908
 30
0.0
 10
45.41523180198143
 20
166.5549397084685
 30
0.0
 10
45.47242195184887
 20
167.0722536293312
 30
0.0
 10
45.9003898754656
 20
167.7042439490208
 30
0.0
 10
46.40905040382945
 20
168.0740277068747
 30
0.0
 10
46.8957145407514
 20
168.2633332880556
 30
0.0
 10
47.19369644678268
 20
168.2890842051104
 30
0.0
 10
47.3524881346568
 20
168.3028066208026
 30
0.0
  0
SPLINE
  5
269AC
330
269A5
100
AcDbEntity
  8
130
100
AcDbSpline
210
0.0
220
0.0
230
1.0
 70
     8
 71
     3
 72
    12
 73
     8
 74
     0
 42
0.000000001
 43
0.0000000001
 40
0.0
 40
0.0
 40
0.0
 40
0.0
 40
0.1540330144142507
 40
0.2890514592245007
 40
0.5012146475018571
 40
0.7571789837608979
 40
1.0
 40
1.0
 40
1.0
 40
1.0
 10
53.38738942060214
 20
66.32096823699754
 30
0.0
 10
47.19357580788752
 20
66.4571358394661
 30
0.0
 10
46.89536804953077
 20
66.48291929017062
 30
0.0
 10
46.40837636192211
 20
66.67251158356288
 30
0.0
 10
45.89982116381768
 20
67.042577044621
 30
0.0
 10
45.47229369633527
 20
67.67452556106992
 30
0.0
 10
45.41519093182702
 20
68.19144157080582
 30
0.0
 10
45.38739189715507
 20
68.44308903832995
 30
0.0
  0
LINE
  5
269AD
330
269A5
100
AcDbEntity
  8
130
100
AcDbLine
 10
45.3873918970473
 20
68.44308903823577
 30
0.0
 11
45.3873918970473
 21
166.3031136446866
 31
0.0
  0
LWPOLYLINE
  5
269AE
330
269A5
100
AcDbEntity
  8
130
100
AcDbPolyline
 90
        2
 70
     0
 43
0.0
 10
53.38738942060214
 20
168.320870536482
 10
53.38738942060214
 20
66.46397009826137
  0
SPLINE
  5
269AF
330
269A5
100
AcDbEntity
  8
0
  6
SLD-実線
 62
     7
370
    30
100
AcDbSpline
210
0.0
220
0.0
230
1.0
 70
     8
 71
     3
 72
    11
 73
     7
 74
     0
 42
0.000000001
 43
0.0000000001
 40
0.0
 40
0.0
 40
0.0
 40
0.0
 40
0.2500057960785421
 40
0.5000069977228378
 40
0.750000840406983
 40
1.0
 40
1.0
 40
1.0
 40
1.0
 10
36.08468020627217
 20
94.98331928714531
 30
0.0
 10
36.03539471235943
 20
94.98950592683014
 30
0.0
 10
35.936824630269
 20
95.00187909250616
 30
0.0
 10
35.81114271675661
 20
95.08662791331516
 30
0.0
 10
35.71951519115007
 20
95.20738479995506
 30
0.0
 10
35.70166201465665
 20
95.30510820197891
 30
0.0
 10
35.69273533148495
 20
95.3539704225845
 30
0.0
  0
ARC
  5
269B0
330
269A5
100
AcDbEntity
  8
30
100
AcDbCircle
 10
72.43037269880097
 20
115.244161103115
 30
0.0
 40
54.61052984062211
100
AcDbArc
 50
165.938300871894
 51
182.1442091416228
  0
LINE
  5
269B1
330
269A5
100
AcDbEntity
  8
240
370
     0
100
AcDbLine
 10
41.38739934919087
 20
141.2510766531293
 30
0.0
 11
41.38739934919087
 21
138.7510790010005
 31
0.0
  0
LINE
  5
269B2
330
269A5
100
AcDbEntity
  8
240
370
     0
100
AcDbLine
 10
41.38739934919087
 20
93.49076202643542
 30
0.0
 11
41.38739934919087
 21
95.89075977247899
 31
0.0
  0
LWPOLYLINE
  5
269B3
330
269A5
100
AcDbEntity
  8
130
100
AcDbPolyline
 90
        4
 70
     0
 43
0.0
 10
45.3873955925969
 20
142.3208959080267
 10
41.38740244860443
 20
142.2510750928012
 10
41.38740244860443
 20
92.49076341704606
 10
45.3248955925969
 20
92.42094277153809
  0
LWPOLYLINE
  5
269B4
330
269A5
100
AcDbEntity
  8
130
100
AcDbPolyline
 90
        8
 70
     0
 43
0.0
 10
41.38739934919087
 20
140.0010778270649
 10
35.98686293582861
 20
139.9833192871453
 10
35.69273533148499
 20
139.2878683508368
 10
35.38651675653635
 20
101.3622154187911
 10
35.47835997739954
 20
97.72093756149981
 10
35.69273533146267
 20
95.35397042261292
 10
36.08468020627217
 20
94.98331928714531
 10
41.38740244860443
 20
94.98331928714531
  0
LWPOLYLINE
  5
269B5
330
269A5
100
AcDbEntity
  8
130
100
AcDbPolyline
 90
        6
 70
     0
 43
0.0
 10
35.61593670688069
 20
129.7762377030602
 10
22.62470490878738
 20
133.2966851681734
 10
20.17428575757342
 20
131.78732561662
 10
19.45626652908547
 20
128.5126970055117
 10
21.05013793708938
 20
126.1164556315129
 10
35.56496726659589
 20
123.4635922252105
  0
DIMENSION
  5
269B6
330
269A5
100
AcDbEntity
  8
30
100
AcDbDimension
280
     0
  2
*D24
 10
8.000001101817787
 20
94.98331928714531
 30
0.0
 11
3.000001101817728
 21
117.4921985571052
 31
0.0
 12
-196.1544822586256
 22
-287.7096968132459
 32
0.0
 71
     5
 42
45.01775853991961
 73
     0
 74
     0
 75
     0
  3
STANDARD
100
AcDbAlignedDimension
 13
41.38739934919087
 23
140.0010778270649
 33
0.0
 14
41.38739934919087
 24
94.98331928714531
 34
0.0
 50
90.0
100
AcDbRotatedDimension
  0
DIMENSION
  5
269B7
330
269A5
100
AcDbEntity
  8
30
100
AcDbDimension
280
     0
  2
*D25
 10
41.38739934919087
 20
0.5000004010894373
 30
0.0
 11
8.295493192768843
 21
0.5000004010894373
 31
0.0
 12
-196.1544822586256
 22
-287.7096968132459
 32
0.0
 70
   128
  1
<>
 71
     2
 42
6.499993895534544
 73
     0
 74
     0
 75
     0
  3
STANDARD
100
AcDbAlignedDimension
 13
34.88740545365633
 23
117.3209193867398
 33
0.0
 14
41.38739934919087
 24
95.28556951989529
 34
0.0
100
AcDbRotatedDimension
  0
ENDBLK
  5
269BB
330
269A5
100
AcDbEntity
  8
0
100
AcDbBlockEnd
  0
BLOCK
  5
26CFA
330
26CF9
100
AcDbEntity
  8
0
100
AcDbBlockBegin
  2
*D27
 70
     1
 10
0.0
 20
0.0
 30
0.0
  3
*D27
  1

  0
LINE
  5
26F26
330
26CF9
100
AcDbEntity
  8
30
 62
     0
440
 16777216
370
    -2
100
AcDbLine
 10
411.6391713752959
 20
551.3289141956611
 30
0.0
 11
411.6391713752959
 21
512.0739388957257
 31
0.0
  0
LINE
  5
26F27
330
26CF9
100
AcDbEntity
  8
30
 62
     0
440
 16777216
370
    -2
100
AcDbLine
 10
391.6391713752961
 20
548.2264141957227
 30
0.0
 11
391.6391713752961
 21
512.0739388957257
 31
0.0
  0
LINE
  5
26F28
330
26CF9
100
AcDbEntity
  8
30
 62
     0
440
 16777216
370
    -2
100
AcDbLine
 10
409.6391713752955
 20
512.5739388957257
 30
0.0
 11
393.6391713752962
 21
512.5739388957257
 31
0.0
  0
INSERT
  5
26F29
330
26CF9
100
AcDbEntity
  8
30
 62
     0
440
 16777216
370
    -2
100
AcDbBlockReference
  2
_OPEN
 10
411.6391713752959
 20
512.5739388957257
 30
0.0
 41
2.0
 42
2.0
 43
2.0
  0
INSERT
  5
26F2A
330
26CF9
100
AcDbEntity
  8
30
 62
     0
440
 16777216
370
    -2
100
AcDbBlockReference
  2
_OPEN
 10
391.6391713752961
 20
512.5739388957257
 30
0.0
 41
2.0
 42
2.0
 43
2.0
 50
180.0
  0
MTEXT
  5
26F2B
330
26CF9
100
AcDbEntity
  8
30
 62
     0
440
 16777216
100
AcDbMText
 10
401.6391713752961
 20
520.5739388957257
 30
0.0
 40
6.0
 41
0.0
 46
0.0
 71
     2
 72
     1
  1
\A1;20
 73
     1
 44
1.0
  0
POINT
  5
26F2C
330
26CF9
100
AcDbEntity
  8
DEFPOINTS
 62
     0
440
 16777216
100
AcDbPoint
 10
411.6391713752959
 20
554.3289141956611
 30
0.0
  0
POINT
  5
26F2D
330
26CF9
100
AcDbEntity
  8
DEFPOINTS
 62
     0
440
 16777216
100
AcDbPoint
 10
391.6391713752961
 20
551.2264141957226
 30
0.0
  0
POINT
  5
26F2E
330
26CF9
100
AcDbEntity
  8
DEFPOINTS
 62
     0
440
 16777216
100
AcDbPoint
 10
391.6391713752961
 20
512.5739388957257
 30
0.0
  0
ENDBLK
  5
26CFB
330
26CF9
100
AcDbEntity
  8
0
100
AcDbBlockEnd
  0
BLOCK
  5
26D06
330
26D05
100
AcDbEntity
  8
0
100
AcDbBlockBegin
  2
*D28
 70
     1
 10
0.0
 20
0.0
 30
0.0
  3
*D28
  1

  0
LINE
  5
26F2F
330
26D05
100
AcDbEntity
  8
30
 62
     0
440
 16777216
370
    -2
100
AcDbLine
 10
386.4391713752961
 20
567.7220698008915
 30
0.0
 11
386.4391713752961
 21
512.0739388957257
 31
0.0
  0
LINE
  5
26F30
330
26D05
100
AcDbEntity
  8
30
 62
     0
440
 16777216
370
    -2
100
AcDbLine
 10
391.6391713752961
 20
548.2264141957227
 30
0.0
 11
391.6391713752961
 21
512.0739388957257
 31
0.0
  0
LINE
  5
26F31
330
26D05
100
AcDbEntity
  8
30
 62
     0
440
 16777216
370
    -2
100
AcDbLine
 10
393.6391713752962
 20
512.5739388957257
 30
0.0
 11
395.6391713752962
 21
512.5739388957257
 31
0.0
  0
LINE
  5
26F32
330
26D05
100
AcDbEntity
  8
30
 62
     0
440
 16777216
370
    -2
100
AcDbLine
 10
384.4391713752961
 20
512.5739388957257
 30
0.0
 11
366.4391713752961
 21
512.5739388957257
 31
0.0
  0
LINE
  5
26F33
330
26D05
100
AcDbEntity
  8
30
 62
     0
440
 16777216
370
    -2
100
AcDbLine
 10
391.6391713752961
 20
512.5739388957257
 30
0.0
 11
386.4391713752961
 21
512.5739388957257
 31
0.0
  0
INSERT
  5
26F34
330
26D05
100
AcDbEntity
  8
30
 62
     0
440
 16777216
370
    -2
100
AcDbBlockReference
  2
_OPEN
 10
391.6391713752961
 20
512.5739388957257
 30
0.0
 41
2.0
 42
2.0
 43
2.0
 50
180.0
  0
INSERT
  5
26F35
330
26D05
100
AcDbEntity
  8
30
 62
     0
440
 16777216
370
    -2
100
AcDbBlockReference
  2
_OPEN
 10
386.4391713752961
 20
512.5739388957257
 30
0.0
 41
2.0
 42
2.0
 43
2.0
  0
MTEXT
  5
26F36
330
26D05
100
AcDbEntity
  8
30
 62
     0
440
 16777216
100
AcDbMText
 10
374.4391713752961
 20
520.5739388957257
 30
0.0
 40
6.0
 41
0.0
 46
0.0
 71
     2
 72
     1
  1
\A1;5.2
 73
     1
 44
1.0
  0
POINT
  5
26F37
330
26D05
100
AcDbEntity
  8
DEFPOINTS
 62
     0
440
 16777216
100
AcDbPoint
 10
386.4391713752961
 20
570.7220698008915
 30
0.0
  0
POINT
  5
26F38
330
26D05
100
AcDbEntity
  8
DEFPOINTS
 62
     0
440
 16777216
100
AcDbPoint
 10
391.6391713752961
 20
551.2264141957226
 30
0.0
  0
POINT
  5
26F39
330
26D05
100
AcDbEntity
  8
DEFPOINTS
 62
     0
440
 16777216
100
AcDbPoint
 10
391.6391713752961
 20
512.5739388957257
 30
0.0
  0
ENDBLK
  5
26D07
330
26D05
100
AcDbEntity
  8
0
100
AcDbBlockEnd
  0
BLOCK
  5
26D14
330
26D13
100
AcDbEntity
  8
0
100
AcDbBlockBegin
  2
*D29
 70
     1
 10
0.0
 20
0.0
 30
0.0
  3
*D29
  1

  0
LINE
  5
26F3A
330
26D13
100
AcDbEntity
  8
30
 62
     0
440
 16777216
370
    -2
100
AcDbLine
 10
367.4391713752963
 20
526.2351504166336
 30
0.0
 11
367.4391713752963
 21
500.893599395728
 31
0.0
  0
LINE
  5
26F3B
330
26D13
100
AcDbEntity
  8
30
 62
     0
440
 16777216
370
    -2
100
AcDbLine
 10
391.6391713752961
 20
557.1239141955601
 30
0.0
 11
391.6391713752961
 21
500.893599395728
 31
0.0
  0
LINE
  5
26F3C
330
26D13
100
AcDbEntity
  8
30
 62
     0
440
 16777216
370
    -2
100
AcDbLine
 10
369.4391713752963
 20
501.393599395728
 30
0.0
 11
389.6391713752962
 21
501.393599395728
 31
0.0
  0
INSERT
  5
26F3D
330
26D13
100
AcDbEntity
  8
30
 62
     0
440
 16777216
370
    -2
100
AcDbBlockReference
  2
_OPEN
 10
367.4391713752963
 20
501.393599395728
 30
0.0
 41
2.0
 42
2.0
 43
2.0
 50
180.0
  0
INSERT
  5
26F3E
330
26D13
100
AcDbEntity
  8
30
 62
     0
440
 16777216
370
    -2
100
AcDbBlockReference
  2
_OPEN
 10
391.6391713752961
 20
501.393599395728
 30
0.0
 41
2.0
 42
2.0
 43
2.0
  0
MTEXT
  5
26F3F
330
26D13
100
AcDbEntity
  8
30
 62
     0
440
 16777216
100
AcDbMText
 10
379.5391713752962
 20
509.393599395728
 30
0.0
 40
6.0
 41
0.0
 46
0.0
 71
     2
 72
     1
  1
\A1;24.2
 73
     1
 44
1.0
  0
POINT
  5
26F40
330
26D13
100
AcDbEntity
  8
DEFPOINTS
 62
     0
440
 16777216
100
AcDbPoint
 10
367.4391713752963
 20
529.2351504166336
 30
0.0
  0
POINT
  5
26F41
330
26D13
100
AcDbEntity
  8
DEFPOINTS
 62
     0
440
 16777216
100
AcDbPoint
 10
391.6391713752961
 20
560.1239141955606
 30
0.0
  0
POINT
  5
26F42
330
26D13
100
AcDbEntity
  8
DEFPOINTS
 62
     0
440
 16777216
100
AcDbPoint
 10
391.6391713752961
 20
501.393599395728
 30
0.0
  0
ENDBLK
  5
26D15
330
26D13
100
AcDbEntity
  8
0
100
AcDbBlockEnd
  0
BLOCK
  5
26D20
330
26D1F
100
AcDbEntity
  8
0
100
AcDbBlockBegin
  2
*D30
 70
     1
 10
0.0
 20
0.0
 30
0.0
  3
*D30
  1

  0
LINE
  5
26F43
330
26D1F
100
AcDbEntity
  8
30
 62
     0
440
 16777216
370
    -2
100
AcDbLine
 10
402.4391713752961
 20
593.2264141954987
 30
0.0
 11
402.4391713752961
 21
611.2596785812208
 31
0.0
  0
LINE
  5
26F44
330
26D1F
100
AcDbEntity
  8
30
 62
     0
440
 16777216
370
    -2
100
AcDbLine
 10
386.4391713752961
 20
575.2264141954989
 30
0.0
 11
386.4391713752961
 21
611.2596785812208
 31
0.0
  0
LINE
  5
26F45
330
26D1F
100
AcDbEntity
  8
30
 62
     0
440
 16777216
370
    -2
100
AcDbLine
 10
400.439171375296
 20
610.7596785812209
 30
0.0
 11
388.4391713752961
 21
610.7596785812209
 31
0.0
  0
INSERT
  5
26F46
330
26D1F
100
AcDbEntity
  8
30
 62
     0
440
 16777216
370
    -2
100
AcDbBlockReference
  2
_OPEN
 10
402.4391713752961
 20
610.7596785812209
 30
0.0
 41
2.0
 42
2.0
 43
2.0
  0
INSERT
  5
26F47
330
26D1F
100
AcDbEntity
  8
30
 62
     0
440
 16777216
370
    -2
100
AcDbBlockReference
  2
_OPEN
 10
386.4391713752961
 20
610.7596785812209
 30
0.0
 41
2.0
 42
2.0
 43
2.0
 50
180.0
  0
MTEXT
  5
26F48
330
26D1F
100
AcDbEntity
  8
30
 62
     0
440
 16777216
100
AcDbMText
 10
394.4391713752961
 20
618.7596785812209
 30
0.0
 40
6.0
 41
0.0
 46
0.0
 71
     2
 72
     1
  1
\A1;16
 73
     1
 44
1.0
  0
POINT
  5
26F49
330
26D1F
100
AcDbEntity
  8
DEFPOINTS
 62
     0
440
 16777216
100
AcDbPoint
 10
402.4391713752961
 20
590.2264141954987
 30
0.0
  0
POINT
  5
26F4A
330
26D1F
100
AcDbEntity
  8
DEFPOINTS
 62
     0
440
 16777216
100
AcDbPoint
 10
386.4391713752961
 20
572.2264141954989
 30
0.0
  0
POINT
  5
26F4B
330
26D1F
100
AcDbEntity
  8
DEFPOINTS
 62
     0
440
 16777216
100
AcDbPoint
 10
386.4391713752961
 20
610.7596785812209
 30
0.0
  0
ENDBLK
  5
26D21
330
26D1F
100
AcDbEntity
  8
0
100
AcDbBlockEnd
  0
BLOCK
  5
26D2C
330
26D2B
100
AcDbEntity
  8
0
100
AcDbBlockBegin
  2
*D31
 70
     1
 10
0.0
 20
0.0
 30
0.0
  3
*D31
  1

  0
LINE
  5
26E80
330
26D2B
100
AcDbEntity
  8
30
  6
Continuous
 62
     0
440
 16777216
370
    -2
100
AcDbLine
 10
477.7852291395531
 20
459.6834390974565
 30
0.0
 11
466.469814287505
 21
459.6834390974565
 31
0.0
  0
LINE
  5
26E81
330
26D2B
100
AcDbEntity
  8
30
  6
Continuous
 62
     0
440
 16777216
370
    -2
100
AcDbLine
 10
470.2852291395532
 20
469.6834390974565
 30
0.0
 11
466.469814287505
 21
469.6834390974565
 31
0.0
  0
LINE
  5
26E82
330
26D2B
100
AcDbEntity
  8
30
  6
Continuous
 62
     0
440
 16777216
370
    -2
100
AcDbLine
 10
466.9698142875049
 20
461.6834390974566
 30
0.0
 11
466.9698142875049
 21
467.6834390974565
 31
0.0
  0
LINE
  5
26E83
330
26D2B
100
AcDbEntity
  8
30
  6
Continuous
 62
     0
440
 16777216
370
    -2
100
AcDbLine
 10
466.9698142875049
 20
469.6834390974565
 30
0.0
 11
466.9698142875049
 21
502.9418155642227
 31
0.0
  0
INSERT
  5
26E84
330
26D2B
100
AcDbEntity
  8
30
  6
Continuous
 62
     0
440
 16777216
370
    -2
100
AcDbBlockReference
  2
_OPEN
 10
466.9698142875049
 20
459.6834390974565
 30
0.0
 41
2.0
 42
2.0
 43
2.0
 50
270.0
  0
INSERT
  5
26E85
330
26D2B
100
AcDbEntity
  8
30
  6
Continuous
 62
     0
440
 16777216
370
    -2
100
AcDbBlockReference
  2
_OPEN
 10
466.9698142875049
 20
469.6834390974565
 30
0.0
 41
2.0
 42
2.0
 43
2.0
 50
90.0
  0
MTEXT
  5
26E86
330
26D2B
100
AcDbEntity
  8
30
  6
Continuous
 62
     0
440
 16777216
100
AcDbMText
 10
448.9698142875049
 20
487.9418155642228
 30
0.0
 40
6.0
 41
0.0
 46
0.0
 71
     2
 72
     1
  1
\A1;10\P(MAX.)
 11
0.0000000000000001
 21
1.0
 31
0.0
 73
     1
 44
1.0
 90
        3
 63
     9
421
 13158600
 45
1.25
441
        0
  0
POINT
  5
26E87
330
26D2B
100
AcDbEntity
  8
DEFPOINTS
  6
Continuous
 62
     0
440
 16777216
100
AcDbPoint
 10
478.7852291395532
 20
459.6834390974565
 30
0.0
  0
POINT
  5
26E88
330
26D2B
100
AcDbEntity
  8
DEFPOINTS
  6
Continuous
 62
     0
440
 16777216
100
AcDbPoint
 10
471.2852291395533
 20
469.6834390974565
 30
0.0
  0
POINT
  5
26E89
330
26D2B
100
AcDbEntity
  8
DEFPOINTS
  6
Continuous
 62
     0
440
 16777216
100
AcDbPoint
 10
466.9698142875049
 20
469.6834390974565
 30
0.0
  0
ENDBLK
  5
26D2D
330
26D2B
100
AcDbEntity
  8
0
100
AcDbBlockEnd
  0
BLOCK
  5
26D3A
330
26D39
100
AcDbEntity
  8
0
100
AcDbBlockBegin
  2
*D32
 70
     1
 10
0.0
 20
0.0
 30
0.0
  3
*D32
  1

  0
LINE
  5
26E8A
330
26D39
100
AcDbEntity
  8
30
 62
     0
440
 16777216
370
    -2
100
AcDbLine
 10
471.2852291395533
 20
448.8202745852298
 30
0.0
 11
471.2852291395533
 21
437.0512135695535
 31
0.0
  0
LINE
  5
26E8B
330
26D39
100
AcDbEntity
  8
30
 62
     0
440
 16777216
370
    -2
100
AcDbLine
 10
486.2852291395532
 20
447.0425716780614
 30
0.0
 11
486.2852291395532
 21
437.0512135695535
 31
0.0
  0
LINE
  5
26E8C
330
26D39
100
AcDbEntity
  8
30
 62
     0
440
 16777216
370
    -2
100
AcDbLine
 10
473.2852291395531
 20
437.5512135695536
 30
0.0
 11
484.2852291395533
 21
437.5512135695536
 31
0.0
  0
LINE
  5
26E8D
330
26D39
100
AcDbEntity
  8
30
 62
     0
440
 16777216
370
    -2
100
AcDbLine
 10
486.2852291395532
 20
437.5512135695536
 30
0.0
 11
519.3725639843328
 21
437.5512135695536
 31
0.0
  0
INSERT
  5
26E8E
330
26D39
100
AcDbEntity
  8
30
 62
     0
440
 16777216
370
    -2
100
AcDbBlockReference
  2
_OPEN
 10
471.2852291395533
 20
437.5512135695536
 30
0.0
 41
2.0
 42
2.0
 43
2.0
 50
180.0
  0
INSERT
  5
26E8F
330
26D39
100
AcDbEntity
  8
30
 62
     0
440
 16777216
370
    -2
100
AcDbBlockReference
  2
_OPEN
 10
486.2852291395532
 20
437.5512135695536
 30
0.0
 41
2.0
 42
2.0
 43
2.0
  0
MTEXT
  5
26E90
330
26D39
100
AcDbEntity
  8
30
 62
     0
440
 16777216
100
AcDbMText
 10
504.3725639843327
 20
455.5512135695535
 30
0.0
 40
6.0
 41
0.0
 46
0.0
 71
     2
 72
     1
  1
\A1;15\P(MAX.)
 73
     1
 44
1.0
 90
        3
 63
     9
421
 13158600
 45
1.25
441
        0
  0
POINT
  5
26E91
330
26D39
100
AcDbEntity
  8
DEFPOINTS
 62
     0
440
 16777216
100
AcDbPoint
 10
471.2852291395533
 20
449.8202745852299
 30
0.0
  0
POINT
  5
26E92
330
26D39
100
AcDbEntity
  8
DEFPOINTS
 62
     0
440
 16777216
100
AcDbPoint
 10
486.2852291395532
 20
448.0425716780612
 30
0.0
  0
POINT
  5
26E93
330
26D39
100
AcDbEntity
  8
DEFPOINTS
 62
     0
440
 16777216
100
AcDbPoint
 10
486.2852291395532
 20
437.5512135695536
 30
0.0
  0
ENDBLK
  5
26D3B
330
26D39
100
AcDbEntity
  8
0
100
AcDbBlockEnd
  0
BLOCK
  5
26D47
330
26D46
100
AcDbEntity
  8
0
100
AcDbBlockBegin
  2
*D33
 70
     1
 10
0.0
 20
0.0
 30
0.0
  3
*D33
  1

  0
LINE
  5
26E94
330
26D46
100
AcDbEntity
  8
30
 62
     0
440
 16777216
370
    -2
100
AcDbLine
 10
355.1333536591014
 20
361.0306575225208
 30
0.0
 11
397.2858036020881
 21
361.0306575225207
 31
0.0
  0
LINE
  5
26E95
330
26D46
100
AcDbEntity
  8
30
 62
     0
440
 16777216
370
    -2
100
AcDbLine
 10
384.088217964012
 20
449.0305748774506
 30
0.0
 11
397.2858036020883
 21
449.0305748774506
 31
0.0
  0
LINE
  5
26E96
330
26D46
100
AcDbEntity
  8
30
 62
     0
440
 16777216
370
    -2
100
AcDbLine
 10
396.7858036020881
 20
363.0306575225207
 30
0.0
 11
396.7858036020883
 21
447.0305748774506
 31
0.0
  0
INSERT
  5
26E97
330
26D46
100
AcDbEntity
  8
30
 62
     0
440
 16777216
370
    -2
100
AcDbBlockReference
  2
_OPEN
 10
396.7858036020881
 20
361.0306575225207
 30
0.0
 41
2.0
 42
2.0
 43
2.0
 50
270.0
  0
INSERT
  5
26E98
330
26D46
100
AcDbEntity
  8
30
 62
     0
440
 16777216
370
    -2
100
AcDbBlockReference
  2
_OPEN
 10
396.7858036020883
 20
449.0305748774506
 30
0.0
 41
2.0
 42
2.0
 43
2.0
 50
90.0
  0
MTEXT
  5
26E99
330
26D46
100
AcDbEntity
  8
30
 62
     0
440
 16777216
100
AcDbMText
 10
388.7858036020881
 20
405.0306161999857
 30
0.0
 40
6.0
 41
0.0
 46
0.0
 71
     2
 72
     1
  1
\A1;88
 11
0.0000000000000001
 21
1.0
 31
0.0
 73
     1
 44
1.0
 90
        3
 63
     9
421
 13158600
 45
1.25
441
        0
  0
POINT
  5
26E9A
330
26D46
100
AcDbEntity
  8
DEFPOINTS
 62
     0
440
 16777216
100
AcDbPoint
 10
354.1333536591015
 20
361.0306575225208
 30
0.0
  0
POINT
  5
26E9B
330
26D46
100
AcDbEntity
  8
DEFPOINTS
 62
     0
440
 16777216
100
AcDbPoint
 10
383.088217964012
 20
449.0305748774507
 30
0.0
  0
POINT
  5
26E9C
330
26D46
100
AcDbEntity
  8
DEFPOINTS
 62
     0
440
 16777216
100
AcDbPoint
 10
396.7858036020883
 20
449.0305748774506
 30
0.0
  0
ENDBLK
  5
26D48
330
26D46
100
AcDbEntity
  8
0
100
AcDbBlockEnd
  0
BLOCK
  5
26D53
330
26D52
100
AcDbEntity
  8
0
100
AcDbBlockBegin
  2
*D34
 70
     1
 10
0.0
 20
0.0
 30
0.0
  3
*D34
  1

  0
LINE
  5
26E9D
330
26D52
100
AcDbEntity
  8
30
 62
     0
440
 16777216
370
    -2
100
AcDbLine
 10
367.7054818193507
 20
462.0305626685198
 30
0.0
 11
412.8653612612338
 21
462.0305626685197
 31
0.0
  0
LINE
  5
26E9E
330
26D52
100
AcDbEntity
  8
30
 62
     0
440
 16777216
370
    -2
100
AcDbLine
 10
367.7054818193507
 20
348.0306697314517
 30
0.0
 11
412.8653612612338
 21
348.0306697314517
 31
0.0
  0
LINE
  5
26E9F
330
26D52
100
AcDbEntity
  8
30
 62
     0
440
 16777216
370
    -2
100
AcDbLine
 10
412.3653612612338
 20
460.0305626685193
 30
0.0
 11
412.3653612612338
 21
350.0306697314517
 31
0.0
  0
INSERT
  5
26EA0
330
26D52
100
AcDbEntity
  8
30
 62
     0
440
 16777216
370
    -2
100
AcDbBlockReference
  2
_OPEN
 10
412.3653612612338
 20
462.0305626685197
 30
0.0
 41
2.0
 42
2.0
 43
2.0
 50
90.0
  0
INSERT
  5
26EA1
330
26D52
100
AcDbEntity
  8
30
 62
     0
440
 16777216
370
    -2
100
AcDbBlockReference
  2
_OPEN
 10
412.3653612612338
 20
348.0306697314517
 30
0.0
 41
2.0
 42
2.0
 43
2.0
 50
270.0
  0
MTEXT
  5
26EA2
330
26D52
100
AcDbEntity
  8
30
 62
     0
440
 16777216
100
AcDbMText
 10
404.3653612612335
 20
405.0306161999857
 30
0.0
 40
6.0
 41
0.0
 46
0.0
 71
     2
 72
     1
  1
\A1;114
 11
0.0000000000000001
 21
1.0
 31
0.0
 73
     1
 44
1.0
 90
        3
 63
     9
421
 13158600
 45
1.25
441
        0
  0
POINT
  5
26EA3
330
26D52
100
AcDbEntity
  8
DEFPOINTS
 62
     0
440
 16777216
100
AcDbPoint
 10
366.7054818193506
 20
462.0305626685198
 30
0.0
  0
POINT
  5
26EA4
330
26D52
100
AcDbEntity
  8
DEFPOINTS
 62
     0
440
 16777216
100
AcDbPoint
 10
366.7054818193506
 20
348.0306697314517
 30
0.0
  0
POINT
  5
26EA5
330
26D52
100
AcDbEntity
  8
DEFPOINTS
 62
     0
440
 16777216
100
AcDbPoint
 10
412.3653612612338
 20
348.0306697314517
 30
0.0
  0
ENDBLK
  5
26D54
330
26D52
100
AcDbEntity
  8
0
100
AcDbBlockEnd
  0
BLOCK
  5
26D5F
330
26D5E
100
AcDbEntity
  8
0
100
AcDbBlockBegin
  2
*D35
 70
     1
 10
0.0
 20
0.0
 30
0.0
  3
*D35
  1

  0
LINE
  5
26EA6
330
26D5E
100
AcDbEntity
  8
30
 62
     0
440
 16777216
370
    -2
100
AcDbLine
 10
384.2761256590815
 20
480.0304343701943
 30
0.0
 11
425.9607454728238
 21
480.0289792598307
 31
0.0
  0
LINE
  5
26EA7
330
26D5E
100
AcDbEntity
  8
30
 62
     0
440
 16777216
370
    -2
100
AcDbLine
 10
365.7007667728894
 20
330.0359186701801
 30
0.0
 11
425.9555095004555
 21
330.0338153212475
 31
0.0
  0
LINE
  5
26EA8
330
26D5E
100
AcDbEntity
  8
30
 62
     0
440
 16777216
370
    -2
100
AcDbLine
 10
425.4606756579127
 20
478.0289967148532
 30
0.0
 11
425.4555793159758
 21
332.0338327738329
 31
0.0
  0
INSERT
  5
26EA9
330
26D5E
100
AcDbEntity
  8
30
 62
     0
440
 16777216
370
    -2
100
AcDbBlockReference
  2
_OPEN
 10
425.4607454731281
 20
480.0289967136347
 30
0.0
 41
2.0
 42
2.0
 43
2.0
 50
89.99799994139584
  0
INSERT
  5
26EAA
330
26D5E
100
AcDbEntity
  8
30
 62
     0
440
 16777216
370
    -2
100
AcDbBlockReference
  2
_OPEN
 10
425.4555095007601
 20
330.0338327750514
 30
0.0
 41
2.0
 42
2.0
 43
2.0
 50
269.9979999413958
  0
MTEXT
  5
26EAB
330
26D5E
100
AcDbEntity
  8
30
 62
     0
440
 16777216
100
AcDbMText
 10
417.458127455826
 20
405.0306629285704
 30
0.0
 40
6.0
 41
0.0
 46
0.0
 71
     2
 72
     1
  1
\A1;150
 11
0.0000349076078692
 21
0.9999999993907294
 31
0.0
 73
     1
 44
1.0
 90
        3
 63
     9
421
 13158600
 45
1.25
441
        0
  0
POINT
  5
26EAC
330
26D5E
100
AcDbEntity
  8
DEFPOINTS
 62
     0
440
 16777216
100
AcDbPoint
 10
383.2761256596908
 20
480.0304692778021
 30
0.0
  0
POINT
  5
26EAD
330
26D5E
100
AcDbEntity
  8
DEFPOINTS
 62
     0
440
 16777216
100
AcDbPoint
 10
364.7007667734987
 20
330.035953577788
 30
0.0
  0
POINT
  5
26EAE
330
26D5E
100
AcDbEntity
  8
DEFPOINTS
 62
     0
440
 16777216
100
AcDbPoint
 10
425.4555095007601
 20
330.0338327750514
 30
0.0
  0
ENDBLK
  5
26D60
330
26D5E
100
AcDbEntity
  8
0
100
AcDbBlockEnd
  0
BLOCK
  5
26D6B
330
26D6A
100
AcDbEntity
  8
0
100
AcDbBlockBegin
  2
*D36
 70
     1
 10
0.0
 20
0.0
 30
0.0
  3
*D36
  1

  0
LINE
  5
27007
330
26D6A
100
AcDbEntity
  8
30
 62
     0
440
 16777216
370
    -2
100
AcDbLine
 10
306.1333987380066
 20
320.5306946188875
 30
0.0
 11
306.1333987380066
 21
303.7685631659376
 31
0.0
  0
LINE
  5
27008
330
26D6A
100
AcDbEntity
  8
30
 62
     0
440
 16777216
370
    -2
100
AcDbLine
 10
246.1334550869182
 20
353.0306640965606
 30
0.0
 11
246.1334550869182
 21
303.7685631659376
 31
0.0
  0
LINE
  5
27009
330
26D6A
100
AcDbEntity
  8
30
 62
     0
440
 16777216
370
    -2
100
AcDbLine
 10
304.1333987380066
 20
304.2685631659376
 30
0.0
 11
248.1334550869182
 21
304.2685631659376
 31
0.0
  0
INSERT
  5
2700A
330
26D6A
100
AcDbEntity
  8
30
 62
     0
440
 16777216
370
    -2
100
AcDbBlockReference
  2
_OPEN
 10
306.1333987380066
 20
304.2685631659376
 30
0.0
 41
2.0
 42
2.0
 43
2.0
  0
INSERT
  5
2700B
330
26D6A
100
AcDbEntity
  8
30
 62
     0
440
 16777216
370
    -2
100
AcDbBlockReference
  2
_OPEN
 10
246.1334550869182
 20
304.2685631659376
 30
0.0
 41
2.0
 42
2.0
 43
2.0
 50
180.0
  0
MTEXT
  5
2700C
330
26D6A
100
AcDbEntity
  8
30
 62
     0
440
 16777216
100
AcDbMText
 10
276.1334269124624
 20
312.2685631659376
 30
0.0
 40
6.0
 41
0.0
 46
0.0
 71
     2
 72
     1
  1
\A1;60
 73
     1
 44
1.0
 90
        3
 63
     9
421
 13158600
 45
1.25
441
        0
  0
POINT
  5
2700D
330
26D6A
100
AcDbEntity
  8
DEFPOINTS
 62
     0
440
 16777216
100
AcDbPoint
 10
306.1333987380066
 20
321.5306946188875
 30
0.0
  0
POINT
  5
2700E
330
26D6A
100
AcDbEntity
  8
DEFPOINTS
 62
     0
440
 16777216
100
AcDbPoint
 10
246.1334550869182
 20
354.0306640965606
 30
0.0
  0
POINT
  5
2700F
330
26D6A
100
AcDbEntity
  8
DEFPOINTS
 62
     0
440
 16777216
100
AcDbPoint
 10
246.1334550869182
 20
304.2685631659376
 30
0.0
  0
ENDBLK
  5
26D6C
330
26D6A
100
AcDbEntity
  8
0
100
AcDbBlockEnd
  0
BLOCK
  5
26D77
330
26D76
100
AcDbEntity
  8
0
100
AcDbBlockBegin
  2
*D37
 70
     1
 10
0.0
 20
0.0
 30
0.0
  3
*D37
  1

  0
LINE
  5
26EB8
330
26D76
100
AcDbEntity
  8
30
 62
     0
440
 16777216
370
    -2
100
AcDbLine
 10
351.2423011765031
 20
491.0305354332126
 30
0.0
 11
437.9990820811813
 21
491.0305354332126
 31
0.0
  0
LINE
  5
26EB9
330
26D76
100
AcDbEntity
  8
30
 62
     0
440
 16777216
370
    -2
100
AcDbLine
 10
348.6983937497511
 20
319.0306969667588
 30
0.0
 11
437.9990820811813
 21
319.0306969667588
 31
0.0
  0
LINE
  5
26EBA
330
26D76
100
AcDbEntity
  8
30
 62
     0
440
 16777216
370
    -2
100
AcDbLine
 10
437.4990820811813
 20
489.0305354332125
 30
0.0
 11
437.4990820811813
 21
321.0306969667588
 31
0.0
  0
INSERT
  5
26EBB
330
26D76
100
AcDbEntity
  8
30
 62
     0
440
 16777216
370
    -2
100
AcDbBlockReference
  2
_OPEN
 10
437.4990820811813
 20
491.0305354332126
 30
0.0
 41
2.0
 42
2.0
 43
2.0
 50
90.0
  0
INSERT
  5
26EBC
330
26D76
100
AcDbEntity
  8
30
 62
     0
440
 16777216
370
    -2
100
AcDbBlockReference
  2
_OPEN
 10
437.4990820811813
 20
319.0306969667588
 30
0.0
 41
2.0
 42
2.0
 43
2.0
 50
270.0
  0
MTEXT
  5
26EBD
330
26D76
100
AcDbEntity
  8
30
 62
     0
440
 16777216
100
AcDbMText
 10
429.499082081181
 20
405.0306161999857
 30
0.0
 40
6.0
 41
0.0
 46
0.0
 71
     2
 72
     1
  1
\A1;172
 11
0.0000000000000001
 21
1.0
 31
0.0
 73
     1
 44
1.0
 90
        3
 63
     9
421
 13158600
 45
1.25
441
        0
  0
POINT
  5
26EBE
330
26D76
100
AcDbEntity
  8
DEFPOINTS
 62
     0
440
 16777216
100
AcDbPoint
 10
350.2423011765031
 20
491.0305354332126
 30
0.0
  0
POINT
  5
26EBF
330
26D76
100
AcDbEntity
  8
DEFPOINTS
 62
     0
440
 16777216
100
AcDbPoint
 10
347.6983937497511
 20
319.0306969667588
 30
0.0
  0
POINT
  5
26EC0
330
26D76
100
AcDbEntity
  8
DEFPOINTS
 62
     0
440
 16777216
100
AcDbPoint
 10
437.4990820811813
 20
319.0306969667588
 30
0.0
  0
ENDBLK
  5
26D78
330
26D76
100
AcDbEntity
  8
0
100
AcDbBlockEnd
  0
BLOCK
  5
26D83
330
26D82
100
AcDbEntity
  8
0
100
AcDbBlockBegin
  2
*D38
 70
     1
 10
0.0
 20
0.0
 30
0.0
  3
*D38
  1

  0
LINE
  5
26FF0
330
26D82
100
AcDbEntity
  8
30
 62
     0
440
 16777216
370
    -2
100
AcDbLine
 10
234.1334663567006
 20
296.5078465109629
 30
0.0
 11
234.1334663567006
 21
284.6467170491781
 31
0.0
  0
LINE
  5
26FF1
330
26D82
100
AcDbEntity
  8
30
 62
     0
440
 16777216
370
    -2
100
AcDbLine
 10
354.1333987380066
 20
320.5306946188875
 30
0.0
 11
354.1333987380066
 21
284.6467170491781
 31
0.0
  0
LINE
  5
26FF2
330
26D82
100
AcDbEntity
  8
30
 62
     0
440
 16777216
370
    -2
100
AcDbLine
 10
236.1334663567006
 20
285.1467170491781
 30
0.0
 11
352.1333987380066
 21
285.1467170491781
 31
0.0
  0
INSERT
  5
26FF3
330
26D82
100
AcDbEntity
  8
30
 62
     0
440
 16777216
370
    -2
100
AcDbBlockReference
  2
_OPEN
 10
234.1334663567006
 20
285.1467170491781
 30
0.0
 41
2.0
 42
2.0
 43
2.0
 50
180.0
  0
INSERT
  5
26FF4
330
26D82
100
AcDbEntity
  8
30
 62
     0
440
 16777216
370
    -2
100
AcDbBlockReference
  2
_OPEN
 10
354.1333987380066
 20
285.1467170491781
 30
0.0
 41
2.0
 42
2.0
 43
2.0
  0
MTEXT
  5
26FF5
330
26D82
100
AcDbEntity
  8
30
 62
     0
440
 16777216
100
AcDbMText
 10
282.0603110423162
 20
293.1467170491781
 30
0.0
 40
6.0
 41
0.0
 46
0.0
 71
     2
 72
     1
  1
\A1;120
 73
     1
 44
1.0
 90
        3
 63
     9
421
 13158600
 45
1.25
441
        0
  0
POINT
  5
26FF6
330
26D82
100
AcDbEntity
  8
DEFPOINTS
 62
     0
440
 16777216
100
AcDbPoint
 10
234.1334663567006
 20
297.5078465109628
 30
0.0
  0
POINT
  5
26FF7
330
26D82
100
AcDbEntity
  8
DEFPOINTS
 62
     0
440
 16777216
100
AcDbPoint
 10
354.1333987380066
 20
321.5306946188875
 30
0.0
  0
POINT
  5
26FF8
330
26D82
100
AcDbEntity
  8
DEFPOINTS
 62
     0
440
 16777216
100
AcDbPoint
 10
354.1333987380066
 20
285.1467170491781
 30
0.0
  0
ENDBLK
  5
26D84
330
26D82
100
AcDbEntity
  8
0
100
AcDbBlockEnd
  0
BLOCK
  5
26D8F
330
26D8E
100
AcDbEntity
  8
0
100
AcDbBlockBegin
  2
*D39
 70
     1
 10
0.0
 20
0.0
 30
0.0
  3
*D39
  1

  0
LINE
  5
26FE7
330
26D8E
100
AcDbEntity
  8
30
 62
     0
440
 16777216
370
    -2
100
AcDbLine
 10
210.6334694561141
 20
398.0913457165475
 30
0.0
 11
210.6334694561141
 21
268.0565195628767
 31
0.0
  0
LINE
  5
26FE8
330
26D8E
100
AcDbEntity
  8
30
 62
     0
440
 16777216
370
    -2
100
AcDbLine
 10
354.1333987380066
 20
320.5306946188875
 30
0.0
 11
354.1333987380066
 21
268.0565195628767
 31
0.0
  0
LINE
  5
26FE9
330
26D8E
100
AcDbEntity
  8
30
 62
     0
440
 16777216
370
    -2
100
AcDbLine
 10
212.6334694561141
 20
268.5565195628767
 30
0.0
 11
352.1333987380066
 21
268.5565195628767
 31
0.0
  0
INSERT
  5
26FEA
330
26D8E
100
AcDbEntity
  8
30
 62
     0
440
 16777216
370
    -2
100
AcDbBlockReference
  2
_OPEN
 10
210.6334694561141
 20
268.5565195628767
 30
0.0
 41
2.0
 42
2.0
 43
2.0
 50
180.0
  0
INSERT
  5
26FEB
330
26D8E
100
AcDbEntity
  8
30
 62
     0
440
 16777216
370
    -2
100
AcDbBlockReference
  2
_OPEN
 10
354.1333987380066
 20
268.5565195628767
 30
0.0
 41
2.0
 42
2.0
 43
2.0
  0
MTEXT
  5
26FEC
330
26D8E
100
AcDbEntity
  8
30
 62
     0
440
 16777216
100
AcDbMText
 10
282.3834340970604
 20
273.5565195628767
 30
0.0
 40
6.0
 41
0.0
 46
0.0
 71
     5
 72
     1
  1
\A1;143.5
 73
     1
 44
1.0
 90
        3
 63
     9
421
 13158600
 45
1.25
441
        0
  0
POINT
  5
26FED
330
26D8E
100
AcDbEntity
  8
DEFPOINTS
 62
     0
440
 16777216
100
AcDbPoint
 10
210.6334694561141
 20
399.0913457165475
 30
0.0
  0
POINT
  5
26FEE
330
26D8E
100
AcDbEntity
  8
DEFPOINTS
 62
     0
440
 16777216
100
AcDbPoint
 10
354.1333987380066
 20
321.5306946188875
 30
0.0
  0
POINT
  5
26FEF
330
26D8E
100
AcDbEntity
  8
DEFPOINTS
 62
     0
440
 16777216
100
AcDbPoint
 10
354.1333987380066
 20
268.5565195628767
 30
0.0
  0
ENDBLK
  5
26D90
330
26D8E
100
AcDbEntity
  8
0
100
AcDbBlockEnd
  0
BLOCK
  5
26D9B
330
26D9A
100
AcDbEntity
  8
0
100
AcDbBlockBegin
  2
*D40
 70
     1
 10
0.0
 20
0.0
 30
0.0
  3
*D40
  1

  0
LINE
  5
26FDE
330
26D9A
100
AcDbEntity
  8
30
 62
     0
440
 16777216
370
    -2
100
AcDbLine
 10
354.1333283017353
 20
334.4558087490786
 30
0.0
 11
354.1333283017353
 21
268.0565195628767
 31
0.0
  0
LINE
  5
26FDF
330
26D9A
100
AcDbEntity
  8
30
 62
     0
440
 16777216
370
    -2
100
AcDbLine
 10
381.1333283020675
 20
330.0353465792452
 30
0.0
 11
381.1333283020675
 21
268.0565195628767
 31
0.0
  0
LINE
  5
26FE0
330
26D9A
100
AcDbEntity
  8
30
 62
     0
440
 16777216
370
    -2
100
AcDbLine
 10
356.1333283017353
 20
268.5565195628767
 30
0.0
 11
379.1333283020675
 21
268.5565195628767
 31
0.0
  0
INSERT
  5
26FE1
330
26D9A
100
AcDbEntity
  8
30
 62
     0
440
 16777216
370
    -2
100
AcDbBlockReference
  2
_OPEN
 10
354.1333283017353
 20
268.5565195628767
 30
0.0
 41
2.0
 42
2.0
 43
2.0
 50
180.0
  0
INSERT
  5
26FE2
330
26D9A
100
AcDbEntity
  8
30
 62
     0
440
 16777216
370
    -2
100
AcDbBlockReference
  2
_OPEN
 10
381.1333283020675
 20
268.5565195628767
 30
0.0
 41
2.0
 42
2.0
 43
2.0
  0
MTEXT
  5
26FE3
330
26D9A
100
AcDbEntity
  8
30
 62
     0
440
 16777216
100
AcDbMText
 10
367.6333283019014
 20
273.5565195628767
 30
0.0
 40
6.0
 41
0.0
 46
0.0
 71
     5
 72
     1
  1
\A1;27
 73
     1
 44
1.0
 90
        3
 63
     9
421
 13158600
 45
1.25
441
        0
  0
POINT
  5
26FE4
330
26D9A
100
AcDbEntity
  8
DEFPOINTS
 62
     0
440
 16777216
100
AcDbPoint
 10
354.1333283017353
 20
335.4558087490786
 30
0.0
  0
POINT
  5
26FE5
330
26D9A
100
AcDbEntity
  8
DEFPOINTS
 62
     0
440
 16777216
100
AcDbPoint
 10
381.1333283020675
 20
331.0353465792452
 30
0.0
  0
POINT
  5
26FE6
330
26D9A
100
AcDbEntity
  8
DEFPOINTS
 62
     0
440
 16777216
100
AcDbPoint
 10
381.1333283020675
 20
268.5565195628767
 30
0.0
  0
ENDBLK
  5
26D9C
330
26D9A
100
AcDbEntity
  8
0
100
AcDbBlockEnd
  0
BLOCK
  5
26E21
330
26E20
100
AcDbEntity
  8
0
100
AcDbBlockBegin
  2
*D41
 70
     1
 10
0.0
 20
0.0
 30
0.0
  3
*D41
  1

  0
LINE
  5
26F71
330
26E20
100
AcDbEntity
  8
30
 62
     0
440
 16777216
370
    -2
100
AcDbLine
 10
234.1334663567006
 20
380.2004588396814
 30
0.0
 11
234.1334663567006
 21
297.0078465109627
 31
0.0
  0
LINE
  5
26F72
330
26E20
100
AcDbEntity
  8
30
 62
     0
440
 16777216
370
    -2
100
AcDbLine
 10
227.6334663567006
 20
380.2004588396814
 30
0.0
 11
227.6334663567006
 21
297.0078465109627
 31
0.0
  0
LINE
  5
26F73
330
26E20
100
AcDbEntity
  8
30
 62
     0
440
 16777216
370
    -2
100
AcDbLine
 10
236.1334663567006
 20
297.5078465109628
 30
0.0
 11
238.1334663567006
 21
297.5078465109628
 31
0.0
  0
LINE
  5
26F74
330
26E20
100
AcDbEntity
  8
30
 62
     0
440
 16777216
370
    -2
100
AcDbLine
 10
225.6334663567006
 20
297.5078465109628
 30
0.0
 11
191.5512293021143
 21
297.5078465109628
 31
0.0
  0
LINE
  5
26F75
330
26E20
100
AcDbEntity
  8
30
 62
     0
440
 16777216
370
    -2
100
AcDbLine
 10
234.1334663567006
 20
297.5078465109628
 30
0.0
 11
227.6334663567006
 21
297.5078465109628
 31
0.0
  0
INSERT
  5
26F76
330
26E20
100
AcDbEntity
  8
30
 62
     0
440
 16777216
370
    -2
100
AcDbBlockReference
  2
_OPEN
 10
234.1334663567006
 20
297.5078465109628
 30
0.0
 41
2.0
 42
2.0
 43
2.0
 50
180.0
  0
INSERT
  5
26F77
330
26E20
100
AcDbEntity
  8
30
 62
     0
440
 16777216
370
    -2
100
AcDbBlockReference
  2
_OPEN
 10
227.6334663567006
 20
297.5078465109628
 30
0.0
 41
2.0
 42
2.0
 43
2.0
  0
MTEXT
  5
26F78
330
26E20
100
AcDbEntity
  8
30
 62
     0
440
 16777216
100
AcDbMText
 10
199.5512293021143
 20
302.5078465109627
 30
0.0
 40
6.0
 41
0.0
 46
0.0
 71
     5
 72
     1
  1
\A1;6.5
 73
     1
 44
1.0
 90
        3
 63
     9
421
 13158600
 45
1.25
441
        0
  0
POINT
  5
26F79
330
26E20
100
AcDbEntity
  8
DEFPOINTS
 62
     0
440
 16777216
100
AcDbPoint
 10
234.1334663567006
 20
381.2004588396814
 30
0.0
  0
POINT
  5
26F7A
330
26E20
100
AcDbEntity
  8
DEFPOINTS
 62
     0
440
 16777216
100
AcDbPoint
 10
227.6334663567006
 20
381.2004588396814
 30
0.0
  0
POINT
  5
26F7B
330
26E20
100
AcDbEntity
  8
DEFPOINTS
 62
     0
440
 16777216
100
AcDbPoint
 10
227.6334663567006
 20
297.5078465109628
 30
0.0
  0
ENDBLK
  5
26E22
330
26E20
100
AcDbEntity
  8
0
100
AcDbBlockEnd
  0
BLOCK
  5
26FFA
330
26FF9
100
AcDbEntity
  8
0
100
AcDbBlockBegin
  2
*D42
 70
     1
 10
0.0
 20
0.0
 30
0.0
  3
*D42
  1

  0
LINE
  5
26FFC
330
26FF9
100
AcDbEntity
  8
30
 62
     0
440
 16777216
370
    -2
100
AcDbLine
 10
234.1334663567006
 20
380.2004588396814
 30
0.0
 11
234.1334663567006
 21
284.6467170491781
 31
0.0
  0
LINE
  5
26FFD
330
26FF9
100
AcDbEntity
  8
30
 62
     0
440
 16777216
370
    -2
100
AcDbLine
 10
227.6334663567006
 20
380.2004588396814
 30
0.0
 11
227.6334663567006
 21
284.6467170491781
 31
0.0
  0
LINE
  5
26FFE
330
26FF9
100
AcDbEntity
  8
30
 62
     0
440
 16777216
370
    -2
100
AcDbLine
 10
236.1334663567006
 20
285.1467170491781
 30
0.0
 11
238.1334663567006
 21
285.1467170491781
 31
0.0
  0
LINE
  5
26FFF
330
26FF9
100
AcDbEntity
  8
30
 62
     0
440
 16777216
370
    -2
100
AcDbLine
 10
225.6334663567006
 20
285.1467170491781
 30
0.0
 11
191.5512293021143
 21
285.1467170491781
 31
0.0
  0
LINE
  5
27000
330
26FF9
100
AcDbEntity
  8
30
 62
     0
440
 16777216
370
    -2
100
AcDbLine
 10
234.1334663567006
 20
285.1467170491781
 30
0.0
 11
227.6334663567006
 21
285.1467170491781
 31
0.0
  0
INSERT
  5
27001
330
26FF9
100
AcDbEntity
  8
30
 62
     0
440
 16777216
370
    -2
100
AcDbBlockReference
  2
_OPEN
 10
234.1334663567006
 20
285.1467170491781
 30
0.0
 41
2.0
 42
2.0
 43
2.0
 50
180.0
  0
INSERT
  5
27002
330
26FF9
100
AcDbEntity
  8
30
 62
     0
440
 16777216
370
    -2
100
AcDbBlockReference
  2
_OPEN
 10
227.6334663567006
 20
285.1467170491781
 30
0.0
 41
2.0
 42
2.0
 43
2.0
  0
MTEXT
  5
27003
330
26FF9
100
AcDbEntity
  8
30
 62
     0
440
 16777216
100
AcDbMText
 10
199.5512293021143
 20
290.146717049178
 30
0.0
 40
6.0
 41
0.0
 46
0.0
 71
     5
 72
     1
  1
\A1;6.5
 73
     1
 44
1.0
 90
        3
 63
     9
421
 13158600
 45
1.25
441
        0
  0
POINT
  5
27004
330
26FF9
100
AcDbEntity
  8
DEFPOINTS
 62
     0
440
 16777216
100
AcDbPoint
 10
234.1334663567006
 20
381.2004588396814
 30
0.0
  0
POINT
  5
27005
330
26FF9
100
AcDbEntity
  8
DEFPOINTS
 62
     0
440
 16777216
100
AcDbPoint
 10
227.6334663567006
 20
381.2004588396814
 30
0.0
  0
POINT
  5
27006
330
26FF9
100
AcDbEntity
  8
DEFPOINTS
 62
     0
440
 16777216
100
AcDbPoint
 10
227.6334663567006
 20
285.1467170491781
 30
0.0
  0
ENDBLK
  5
26FFB
330
26FF9
100
AcDbEntity
  8
0
100
AcDbBlockEnd
  0
BLOCK
  5
27050
330
2704F
100
AcDbEntity
  8
0
100
AcDbBlockBegin
  2
*D43
 70
     1
 10
0.0
 20
0.0
 30
0.0
  3
*D43
  1

  0
LINE
  5
27076
330
2704F
100
AcDbEntity
  8
30
 62
     0
440
 16777216
370
    -2
100
AcDbLine
 10
96.10547209994315
 20
71.96971451423718
 30
0.0
 11
96.10547209994315
 21
52.83837035677105
 31
0.0
  0
LINE
  5
27077
330
2704F
100
AcDbEntity
  8
30
 62
     0
440
 16777216
370
    -2
100
AcDbLine
 10
73.60547209994317
 20
132.4697145142368
 30
0.0
 11
73.60547209994317
 21
52.83837035677105
 31
0.0
  0
LINE
  5
27078
330
2704F
100
AcDbEntity
  8
30
 62
     0
440
 16777216
370
    -2
100
AcDbLine
 10
94.10547209994316
 20
53.33837035677106
 30
0.0
 11
75.60547209994317
 21
53.33837035677106
 31
0.0
  0
INSERT
  5
27079
330
2704F
100
AcDbEntity
  8
30
 62
     0
440
 16777216
370
    -2
100
AcDbBlockReference
  2
_OPEN
 10
96.10547209994315
 20
53.33837035677106
 30
0.0
 41
2.0
 42
2.0
 43
2.0
  0
INSERT
  5
2707A
330
2704F
100
AcDbEntity
  8
30
 62
     0
440
 16777216
370
    -2
100
AcDbBlockReference
  2
_OPEN
 10
73.60547209994317
 20
53.33837035677106
 30
0.0
 41
2.0
 42
2.0
 43
2.0
 50
180.0
  0
MTEXT
  5
2707B
330
2704F
100
AcDbEntity
  8
30
 62
     0
440
 16777216
100
AcDbMText
 10
84.85547209994317
 20
58.33837035677106
 30
0.0
 40
6.0
 41
0.0
 46
0.0
 71
     5
 72
     1
  1
\A1;22.5
 73
     1
 44
1.0
  0
POINT
  5
2707C
330
2704F
100
AcDbEntity
  8
DEFPOINTS
 62
     0
440
 16777216
100
AcDbPoint
 10
96.10547209994315
 20
74.96971451423718
 30
0.0
  0
POINT
  5
2707D
330
2704F
100
AcDbEntity
  8
DEFPOINTS
 62
     0
440
 16777216
100
AcDbPoint
 10
73.60547209994317
 20
135.4697145142368
 30
0.0
  0
POINT
  5
2707E
330
2704F
100
AcDbEntity
  8
DEFPOINTS
 62
     0
440
 16777216
100
AcDbPoint
 10
73.60547209994317
 20
53.33837035677106
 30
0.0
  0
ENDBLK
  5
27051
330
2704F
100
AcDbEntity
  8
0
100
AcDbBlockEnd
  0
ENDSEC
  0
SECTION
  2
ENTITIES
  0
MTEXT
  5
A94C
330
1E
100
AcDbEntity
  8
19
  6
Continuous
 62
     7
100
AcDbMText
 10
329.8173230527996
 20
647.0948157442279
 30
0.0
 40
8.0
 41
0.0
 46
0.0
 71
     7
 72
     5
  1
PS125-NF 4P PMB\PPS50-PF 4P PMB\PPS125-PF 4P PMB\PPS125-NE 4P PMB\PPS125-PE 4P PMB
  7
blockfont
 73
     1
 44
1.0
  0
LINE
  5
21B81
330
1E
100
AcDbEntity
  8
10
100
AcDbLine
 10
95.57849258013044
 20
334.3395050677492
 30
0.0
 11
95.57849258013044
 21
339.9268094194945
 31
0.0
  0
LINE
  5
21B82
330
1E
100
AcDbEntity
  8
10
100
AcDbLine
 10
109.0912317244708
 20
334.3395050677492
 30
0.0
 11
95.57849258013044
 21
334.3395050677492
 31
0.0
  0
LINE
  5
21B83
330
1E
100
AcDbEntity
  8
10
100
AcDbLine
 10
109.0912317244708
 20
339.9268094194945
 30
0.0
 11
109.0912317244708
 21
334.3395050677492
 31
0.0
  0
LINE
  5
21BA4
330
1E
100
AcDbEntity
  8
10
100
AcDbLine
 10
80.57850665327107
 20
334.3395050677492
 30
0.0
 11
80.57850665327107
 21
339.9268094194945
 31
0.0
  0
LINE
  5
21BA6
330
1E
100
AcDbEntity
  8
10
100
AcDbLine
 10
94.0784939758841
 20
334.3395050677492
 30
0.0
 11
80.57850665327107
 21
334.3395050677492
 31
0.0
  0
LINE
  5
21BA7
330
1E
100
AcDbEntity
  8
10
100
AcDbLine
 10
94.0784939758841
 20
339.9268094194945
 30
0.0
 11
94.0784939758841
 21
334.3395050677492
 31
0.0
  0
LINE
  5
21BC5
330
1E
100
AcDbEntity
  8
10
100
AcDbLine
 10
79.07850781625
 20
334.3395050677492
 30
0.0
 11
65.57852107590912
 21
334.3395050677492
 31
0.0
  0
LINE
  5
21BC6
330
1E
100
AcDbEntity
  8
10
100
AcDbLine
 10
79.07850781625002
 20
339.9268094194945
 30
0.0
 11
79.07850781625
 21
334.3395050677492
 31
0.0
  0
LINE
  5
21BC7
330
1E
100
AcDbEntity
  8
10
100
AcDbLine
 10
110.5912305617155
 20
334.3395050677492
 30
0.0
 11
110.5912305617155
 21
339.9268094194945
 31
0.0
  0
LINE
  5
21BC8
330
1E
100
AcDbEntity
  8
10
100
AcDbLine
 10
124.0784654801053
 20
334.3395050677492
 30
0.0
 11
110.5912305617155
 21
334.3395050677492
 31
0.0
  0
LINE
  5
21BC9
330
1E
100
AcDbEntity
  8
10
100
AcDbLine
 10
124.0784654801053
 20
339.9268094194945
 30
0.0
 11
124.0784654801053
 21
334.3395050677492
 31
0.0
  0
DIMENSION
  5
22624
330
1E
100
AcDbEntity
  8
30
100
AcDbDimension
280
     0
  2
*D4
 10
106.2444353329756
 20
301.8336534793841
 30
0.0
 11
95.24444566360941
 21
301.8336534793841
 31
0.0
 70
   160
  1
<>
 71
     2
 42
21.99997933873238
 73
     0
 74
     0
 75
     0
  3
STANDARD1
100
AcDbAlignedDimension
 13
84.24445599424322
 23
384.4046274768922
 33
0.0
 14
106.2444353329756
 24
391.4697286014643
 34
0.0
100
AcDbRotatedDimension
  0
DIMENSION
  5
22625
330
1E
100
AcDbEntity
  8
30
100
AcDbDimension
280
     0
  2
*D5
 10
169.8415694379164
 20
268.8154446928245
 30
0.0
 11
95.24444566360941
 21
268.8154446928245
 31
0.0
 70
   160
  1
<>
 71
     2
 42
120.0123917887043
 73
     0
 74
     0
 75
     0
  3
STANDARD1
100
AcDbAlignedDimension
 13
49.82917764921207
 23
322.9295797272865
 33
0.0
 14
169.8415694379164
 24
339.9268094194945
 34
0.0
100
AcDbRotatedDimension
  0
DIMENSION
  5
22626
330
1E
100
AcDbEntity
  8
30
100
AcDbDimension
280
     0
  2
*D6
 10
137.2254891033639
 20
285.1904816969275
 30
0.0
 11
95.24444566360941
 21
285.1904816969275
 31
0.0
 70
   160
  1
<>
 71
     2
 42
84.03524527499168
 73
     0
 74
     0
 75
     0
  3
STANDARD1
100
AcDbAlignedDimension
 13
53.19024382837223
 23
380.130639957313
 33
0.0
 14
137.2254891033639
 24
380.130639957313
 34
0.0
100
AcDbRotatedDimension
  0
LWPOLYLINE
  5
226DA
330
1E
100
AcDbEntity
  8
10
100
AcDbPolyline
 90
        4
 70
     1
 43
0.0
 10
84.24445599424322
 20
427.4607747753693
 10
106.2444353329756
 20
427.4607747753693
 10
106.2444353329756
 20
382.6930161003913
 10
84.24445599424322
 20
382.6930161003913
  0
LWPOLYLINE
  5
226DB
330
1E
100
AcDbEntity
  8
10
100
AcDbPolyline
 90
        4
 70
     1
 43
0.0
 10
87.71998332857547
 20
420.3110986440875
 10
102.7426400702238
 20
420.3110986440875
 10
102.7426400702238
 20
393.3206106748846
 10
87.71998332857547
 20
393.3206106748846
  0
LWPOLYLINE
  5
226DC
330
1E
100
AcDbEntity
  8
10
100
AcDbPolyline
 90
        4
 70
     1
 43
0.0
 10
88.7444516340242
 20
417.5454177842182
 10
101.744439693308
 20
417.5454177842182
 10
101.744439693308
 20
413.1872294368868
 10
88.7444516340242
 20
413.1872294368868
  0
LWPOLYLINE
  5
226E3
330
1E
100
AcDbEntity
  8
10
100
AcDbPolyline
 90
        4
 70
     0
 43
0.0
 10
51.60948005059555
 20
339.9268094194945
 10
51.60948005059555
 20
334.3385517863165
 10
64.07852130734221
 20
334.3395050677492
 10
64.07852130734221
 20
339.9268094194945
  0
LWPOLYLINE
  5
22844
330
1E
100
AcDbEntity
  8
10
100
AcDbPolyline
 90
        4
 70
     1
 43
0.0
 10
53.19024382837223
 20
430.0305930938016
 10
137.2254891033639
 20
430.0305930938016
 10
137.2254891033639
 20
380.130639957313
 10
53.19024382837223
 20
380.130639957313
  0
LINE
  5
22869
330
1E
100
AcDbEntity
  8
10
100
AcDbLine
 10
139.8435688259733
 20
354.0306640965606
 30
0.0
 11
49.81342078480562
 21
354.0306640965606
 31
0.0
  0
LINE
  5
22870
330
1E
100
AcDbEntity
  8
10
100
AcDbLine
 10
65.57852107590912
 20
334.3395050677492
 30
0.0
 11
65.57852107590912
 21
339.9268094194945
 31
0.0
  0
LINE
  5
22871
330
1E
100
AcDbEntity
  8
10
100
AcDbLine
 10
49.83889025027881
 20
339.9268094194945
 30
0.0
 11
139.8411021072501
 21
339.9268094194945
 31
0.0
  0
LWPOLYLINE
  5
228B3
330
1E
100
AcDbEntity
  8
10
100
AcDbPolyline
 90
        5
 70
     0
 43
0.0
 10
138.9329057831074
 20
339.9558941877272
 10
138.9329057831074
 20
334.3685898359819
 10
138.9329057831074
 20
334.3685898359819
 10
125.5697790262667
 20
334.3685898359819
 10
125.5697790262667
 20
339.9268094194945
  0
DIMENSION
  5
22903
330
1E
100
AcDbEntity
  8
30
100
AcDbDimension
280
     0
  2
*D7
 10
33.47836974585104
 20
340.0697145142363
 30
0.0
 11
28.47836974585099
 21
405.0697145142363
 31
0.0
 70
    32
 71
     5
 42
130.0
 73
     0
 74
     0
 75
     0
  3
STANDARD
100
AcDbAlignedDimension
 13
49.82584848759657
 23
470.0697145142362
 33
0.0
 14
49.82032336131172
 24
340.0697145142363
 34
0.0
 50
90.0
100
AcDbRotatedDimension
  0
LINE
  5
22A8B
330
1E
100
AcDbEntity
  8
16
100
AcDbLine
 10
178.5442812915862
 20
405.0306161999857
 30
0.0
 11
46.3046508619213
 21
405.0306161999857
 31
0.0
  0
LINE
  5
22B00
330
1E
100
AcDbEntity
  8
130
100
AcDbLine
 10
139.8557803858897
 20
456.030568303411
 30
0.0
 11
49.84724431531066
 21
456.030568303411
 31
0.0
  0
LINE
  5
22B02
330
1E
100
AcDbEntity
  8
130
100
AcDbLine
 10
49.84825448019735
 20
470.0697145142362
 30
0.0
 11
139.8492374200802
 21
470.0697145142362
 31
0.0
  0
LINE
  5
22D1B
330
1E
100
AcDbEntity
  8
16
100
AcDbLine
 10
261.8386016549199
 20
252.7956660473205
 30
0.0
 11
261.8386016549199
 21
65.44597089444278
 31
0.0
  0
LINE
  5
22D1C
330
1E
100
AcDbEntity
  8
16
100
AcDbLine
 10
204.3386016549197
 20
161.4697145142366
 30
0.0
 11
349.6618513153944
 21
161.4697145142366
 31
0.0
  0
LINE
  5
23593
330
1E
100
AcDbEntity
  8
10
100
AcDbLine
 10
169.8415694379164
 20
339.9268094194945
 30
0.0
 11
164.5430679692927
 21
339.9268094194945
 31
0.0
  0
LINE
  5
235A6
330
1E
100
AcDbEntity
  8
10
100
AcDbLine
 10
164.5430679692927
 20
339.9268094194945
 30
0.0
 11
139.8411021072501
 21
339.9268094194945
 31
0.0
  0
LWPOLYLINE
  5
237E8
330
1E
100
AcDbEntity
  8
10
100
AcDbPolyline
 90
        4
 70
     1
 43
0.0
 10
51.60948005059555
 20
332.8395108873396
 10
64.07852130734221
 20
332.8395108873396
 10
64.07852130734221
 20
321.3395207338646
 10
51.60948005059555
 20
321.3395207338646
  0
LWPOLYLINE
  5
237EC
330
1E
100
AcDbEntity
  8
10
100
AcDbPolyline
 90
        4
 70
     1
 43
0.0
 10
65.57852107590912
 20
332.8395108873396
 10
79.07850781625
 20
332.8395108873396
 10
79.07850781625
 20
321.3395207338646
 10
65.57852107590912
 20
321.3395207338646
  0
LWPOLYLINE
  5
237F0
330
1E
100
AcDbEntity
  8
10
100
AcDbPolyline
 90
        4
 70
     1
 43
0.0
 10
80.57850665327107
 20
332.8395108873396
 10
94.0784939758841
 20
332.8395108873396
 10
94.0784939758841
 20
321.3395207338646
 10
80.57850665327107
 20
321.3395207338646
  0
LWPOLYLINE
  5
237F4
330
1E
100
AcDbEntity
  8
10
100
AcDbPolyline
 90
        4
 70
     1
 43
0.0
 10
95.57849258013044
 20
332.8395108873396
 10
109.0784799025198
 20
332.8395108873396
 10
109.0784799025198
 20
321.3395207338646
 10
95.57849258013044
 20
321.3395207338646
  0
LWPOLYLINE
  5
237F8
330
1E
100
AcDbEntity
  8
10
100
AcDbPolyline
 90
        4
 70
     1
 43
0.0
 10
110.5784787397645
 20
332.8395108873396
 10
124.0784654801053
 20
332.8395108873396
 10
124.0784654801053
 20
321.3395207338646
 10
110.5784787397645
 20
321.3395207338646
  0
LWPOLYLINE
  5
237F9
330
1E
100
AcDbEntity
  8
10
100
AcDbPolyline
 90
        4
 70
     1
 43
0.0
 10
125.5784652484487
 20
332.8395108873396
 10
138.9329057831074
 20
332.8395108873396
 10
138.9329057831074
 20
321.3395207338646
 10
125.5784652484487
 20
321.3395207338646
  0
LINE
  5
23839
330
1E
100
AcDbEntity
  8
130
100
AcDbLine
 10
139.8492374200802
 20
470.0697145142362
 30
0.0
 11
169.8724651929451
 21
470.0697145142362
 31
0.0
  0
LWPOLYLINE
  5
2383A
330
1E
100
AcDbEntity
  8
10
100
AcDbPolyline
 90
        3
 70
     0
 43
0.0
 10
139.8672604926815
 20
489.4915178857352
 10
139.8672604926815
 20
489.4915178857352
 10
139.8375167259426
 20
319.4268243805777
  0
CIRCLE
  5
23965
330
1E
100
AcDbEntity
  8
24
100
AcDbCircle
 10
65.22852297984515
 20
348.0306697314479
 30
0.0
 40
5.999994365112642
  0
ELLIPSE
  5
23983
330
1E
100
AcDbEntity
  8
10
100
AcDbEllipse
 10
59.22898559836783
 20
351.022831266755
 30
0.0
 11
-1.224716190266895
 21
2.749200778644313
 31
0.0
210
0.0
220
0.0
230
1.0
 40
0.9963343309
 41
5.865459295927847
 42
7.433525461465419
  0
ELLIPSE
  5
23985
330
1E
100
AcDbEntity
  8
10
100
AcDbEllipse
 10
71.22806036109889
 20
351.022831266755
 30
0.0
 11
1.224716190266833
 21
2.749200778644375
 31
0.0
210
0.0
220
0.0
230
1.0
 40
0.9963343309
 41
5.132845152893018
 42
6.700911318431388
  0
LINE
  5
23989
330
1E
100
AcDbEntity
  8
10
100
AcDbLine
 10
56.22853003128538
 20
351.0310417670835
 30
0.0
 11
56.22853003128536
 21
339.9268094194945
 31
0.0
  0
LINE
  5
239C7
330
1E
100
AcDbEntity
  8
10
  6
SLD-実線
 62
     8
370
     0
100
AcDbLine
 10
56.2025349801195
 20
351.0573571928901
 30
0.0
 11
56.22853003128538
 21
351.0310417670835
 31
0.0
  0
LINE
  5
239C8
330
1E
100
AcDbEntity
  8
10
100
AcDbLine
 10
74.25451112849296
 20
351.0573571928901
 30
0.0
 11
74.25451112849296
 21
339.9268094194945
 31
0.0
  0
CIRCLE
  5
23A78
330
1E
100
AcDbEntity
  8
24
100
AcDbCircle
 10
95.22849480538949
 20
348.0306697314479
 30
0.0
 40
5.999994365112642
  0
ELLIPSE
  5
23A79
330
1E
100
AcDbEntity
  8
10
100
AcDbEllipse
 10
89.22895742391213
 20
351.022831266755
 30
0.0
 11
-1.224716190266895
 21
2.749200778644313
 31
0.0
210
0.0
220
0.0
230
1.0
 40
0.9963343309
 41
5.865459295927847
 42
7.433525461465419
  0
ELLIPSE
  5
23A7A
330
1E
100
AcDbEntity
  8
10
100
AcDbEllipse
 10
101.2280321866432
 20
351.022831266755
 30
0.0
 11
1.224716190266833
 21
2.749200778644375
 31
0.0
210
0.0
220
0.0
230
1.0
 40
0.9963343309
 41
5.132845152893018
 42
6.700911318431388
  0
LINE
  5
23A7B
330
1E
100
AcDbEntity
  8
10
100
AcDbLine
 10
86.22850185682969
 20
351.0310417670835
 30
0.0
 11
86.22850185682969
 21
339.9268094194945
 31
0.0
  0
LINE
  5
23A7C
330
1E
100
AcDbEntity
  8
10
  6
SLD-実線
 62
     8
370
     0
100
AcDbLine
 10
86.20250680566384
 20
351.0573571928901
 30
0.0
 11
86.22850185682969
 21
351.0310417670835
 31
0.0
  0
LINE
  5
23A7D
330
1E
100
AcDbEntity
  8
10
100
AcDbLine
 10
104.2544829540372
 20
351.0573571928901
 30
0.0
 11
104.2544829540373
 21
339.9268094194945
 31
0.0
  0
CIRCLE
  5
23AB2
330
1E
100
AcDbEntity
  8
24
100
AcDbCircle
 10
125.2284667612964
 20
348.0306697314479
 30
0.0
 40
5.999994365112642
  0
ELLIPSE
  5
23AB3
330
1E
100
AcDbEntity
  8
10
100
AcDbEllipse
 10
119.2289293798191
 20
351.022831266755
 30
0.0
 11
-1.224716190266895
 21
2.749200778644313
 31
0.0
210
0.0
220
0.0
230
1.0
 40
0.9963343309
 41
5.865459295927847
 42
7.433525461465419
  0
ELLIPSE
  5
23AB4
330
1E
100
AcDbEntity
  8
10
100
AcDbEllipse
 10
131.2280041425502
 20
351.022831266755
 30
0.0
 11
1.224716190266833
 21
2.749200778644375
 31
0.0
210
0.0
220
0.0
230
1.0
 40
0.9963343309
 41
5.132845152893018
 42
6.700911318431388
  0
LINE
  5
23AB5
330
1E
100
AcDbEntity
  8
10
100
AcDbLine
 10
116.2284738127366
 20
351.0310417670835
 30
0.0
 11
116.2284738127366
 21
339.9268094194945
 31
0.0
  0
LINE
  5
23AB6
330
1E
100
AcDbEntity
  8
10
  6
SLD-実線
 62
     8
370
     0
100
AcDbLine
 10
116.2024787615708
 20
351.0573571928901
 30
0.0
 11
116.2284738127366
 21
351.0310417670835
 31
0.0
  0
LINE
  5
23AB7
330
1E
100
AcDbEntity
  8
10
100
AcDbLine
 10
134.2544549099442
 20
351.0573571928901
 30
0.0
 11
134.2544549099442
 21
339.9268094194945
 31
0.0
  0
CIRCLE
  5
25A20
330
1E
100
AcDbEntity
  8
24
100
AcDbCircle
 10
155.2418153303163
 20
348.0306697314479
 30
0.0
 40
5.999994365112642
  0
ELLIPSE
  5
25A21
330
1E
100
AcDbEntity
  8
10
100
AcDbEllipse
 10
149.2422779488389
 20
351.022831266755
 30
0.0
 11
-1.224716190266895
 21
2.749200778644313
 31
0.0
210
0.0
220
0.0
230
1.0
 40
0.9963343309
 41
5.865459295927847
 42
7.433525461465419
  0
ELLIPSE
  5
25A22
330
1E
100
AcDbEntity
  8
10
100
AcDbEllipse
 10
161.24135271157
 20
351.022831266755
 30
0.0
 11
1.224716190266833
 21
2.749200778644375
 31
0.0
210
0.0
220
0.0
230
1.0
 40
0.9963343309
 41
5.132845152893018
 42
6.700911318431388
  0
LINE
  5
25A23
330
1E
100
AcDbEntity
  8
10
100
AcDbLine
 10
146.2418223817565
 20
351.0310417670835
 30
0.0
 11
146.2418223817565
 21
339.9268094194945
 31
0.0
  0
LINE
  5
25A24
330
1E
100
AcDbEntity
  8
10
  6
SLD-実線
 62
     8
370
     0
100
AcDbLine
 10
146.0158273305905
 20
351.0573571928901
 30
0.0
 11
146.0418223817565
 21
351.0310417670835
 31
0.0
  0
LINE
  5
25A25
330
1E
100
AcDbEntity
  8
10
100
AcDbLine
 10
164.2678034789641
 20
351.0573571928901
 30
0.0
 11
164.2678034789641
 21
339.9268094194945
 31
0.0
  0
LINE
  5
25A26
330
1E
100
AcDbEntity
  8
10
100
AcDbLine
 10
139.8435688259733
 20
354.0306640965606
 30
0.0
 11
169.844917674524
 21
354.0306640965606
 31
0.0
  0
LWPOLYLINE
  5
25A38
330
1E
100
AcDbEntity
  8
10
100
AcDbPolyline
 90
        7
 70
     0
 43
0.0
 10
140.8507065825746
 20
337.9050341754041
 10
141.6502593003473
 20
338.3047574490323
 10
144.9507032177395
 20
337.2044194868229
 10
154.3506933229154
 20
337.2044194868229
 10
154.3506933229154
 20
334.2044236752018
 10
140.8507065825746
 20
334.2044236752018
 10
140.8507065825746
 20
337.9050341754041
  0
LWPOLYLINE
  5
25A39
330
1E
100
AcDbEntity
  8
10
100
AcDbPolyline
 90
        7
 70
     0
 43
0.0
 10
158.8104542086274
 20
339.6579231756899
 10
157.6284430589265
 20
339.2501160295876
 10
156.1229503549042
 20
338.9866190438038
 10
156.1229503549042
 20
334.2044236752018
 10
167.8729407803968
 20
334.2044236752018
 10
167.8729407803968
 20
339.6856691116247
 10
158.8104542086274
 20
339.6579231756899
  0
LWPOLYLINE
  5
25A3A
330
1E
100
AcDbEntity
  8
10
100
AcDbPolyline
 90
        5
 70
     0
 43
0.0
 10
140.8507065825746
 20
332.7044294947922
 10
154.3506933229154
 20
332.7044294947922
 10
154.3506933229154
 20
321.3395207338646
 10
140.8507065825746
 20
321.3395207338646
 10
140.8507065825746
 20
332.7044294947922
  0
LWPOLYLINE
  5
25A3B
330
1E
100
AcDbEntity
  8
10
100
AcDbPolyline
 90
        5
 70
     0
 43
0.0
 10
156.1229503549042
 20
332.7044294947922
 10
167.8729407803968
 20
332.7044294947922
 10
167.8729407803968
 20
321.3395207338646
 10
156.1229503549042
 20
321.3395207338646
 10
156.1229503549042
 20
332.7044294947922
  0
LINE
  5
25A8A
330
1E
100
AcDbEntity
  8
10
100
AcDbLine
 10
167.8383213214428
 20
319.4268243805777
 30
0.0
 11
56.99687418436358
 21
319.4268243805777
 31
0.0
  0
LWPOLYLINE
  5
25A94
330
1E
100
AcDbEntity
  8
10
100
AcDbPolyline
 90
        8
 70
     1
 43
0.0
 10
49.84950804926302
 20
487.491661792618
 10
49.83755912304071
 20
321.4269682874605
 42
0.4142346372051985
 10
51.83755911786342
 20
319.4268243805777
 10
167.8383213214428
 20
319.4268243805777
 42
0.4141460611190474
 10
169.8383212683268
 20
321.4263634421877
 10
169.8574576669471
 20
487.4910569473453
 42
0.4210953269462248
 10
167.8765941186834
 20
489.4915178857352
 10
51.84950804408572
 20
489.4915178857352
 42
0.4141924878550472
  0
LINE
  5
25AA5
330
1E
100
AcDbEntity
  8
130
100
AcDbLine
 10
95.57849258013044
 20
475.7217273322224
 30
0.0
 11
95.57849258013044
 21
470.1344229804771
 31
0.0
  0
LINE
  5
25AA6
330
1E
100
AcDbEntity
  8
130
100
AcDbLine
 10
109.0912317244708
 20
475.7217273322224
 30
0.0
 11
95.57849258013044
 21
475.7217273322224
 31
0.0
  0
LINE
  5
25AA7
330
1E
100
AcDbEntity
  8
130
100
AcDbLine
 10
109.0912317244708
 20
470.1344229804771
 30
0.0
 11
109.0912317244708
 21
475.7217273322224
 31
0.0
  0
LWPOLYLINE
  5
25AA8
330
1E
100
AcDbEntity
  8
130
100
AcDbPolyline
 90
        4
 70
     1
 43
0.0
 10
125.5784652484487
 20
477.2217215126318
 10
138.9329057831074
 20
477.2217215126318
 10
138.9329057831074
 20
488.7217116661068
 10
125.5784652484487
 20
488.7217116661068
  0
LWPOLYLINE
  5
25AA9
330
1E
100
AcDbEntity
  8
130
100
AcDbPolyline
 90
        4
 70
     1
 43
0.0
 10
110.5784787397645
 20
477.2217215126318
 10
124.0784654801053
 20
477.2217215126318
 10
124.0784654801053
 20
488.7217116661068
 10
110.5784787397645
 20
488.7217116661068
  0
LWPOLYLINE
  5
25AAA
330
1E
100
AcDbEntity
  8
130
100
AcDbPolyline
 90
        4
 70
     1
 43
0.0
 10
95.57849258013044
 20
477.2217215126318
 10
109.0784799025198
 20
477.2217215126318
 10
109.0784799025198
 20
488.7217116661068
 10
95.57849258013044
 20
488.7217116661068
  0
LINE
  5
25AAB
330
1E
100
AcDbEntity
  8
130
100
AcDbLine
 10
80.57850665327107
 20
475.7217273322224
 30
0.0
 11
80.57850665327107
 21
470.1344229804771
 31
0.0
  0
LINE
  5
25AAC
330
1E
100
AcDbEntity
  8
130
100
AcDbLine
 10
94.0784939758841
 20
475.7217273322224
 30
0.0
 11
80.57850665327107
 21
475.7217273322224
 31
0.0
  0
LINE
  5
25AAD
330
1E
100
AcDbEntity
  8
130
100
AcDbLine
 10
94.0784939758841
 20
470.1344229804771
 30
0.0
 11
94.0784939758841
 21
475.7217273322224
 31
0.0
  0
LWPOLYLINE
  5
25AAE
330
1E
100
AcDbEntity
  8
130
100
AcDbPolyline
 90
        4
 70
     1
 43
0.0
 10
80.57850665327107
 20
477.2217215126318
 10
94.0784939758841
 20
477.2217215126318
 10
94.0784939758841
 20
488.7217116661068
 10
80.57850665327107
 20
488.7217116661068
  0
LWPOLYLINE
  5
25AAF
330
1E
100
AcDbEntity
  8
130
100
AcDbPolyline
 90
        4
 70
     1
 43
0.0
 10
65.57852107590912
 20
477.2217215126318
 10
79.07850781625
 20
477.2217215126318
 10
79.07850781625
 20
488.7217116661068
 10
65.57852107590912
 20
488.7217116661068
  0
LINE
  5
25AB1
330
1E
100
AcDbEntity
  8
130
100
AcDbLine
 10
79.07850781625
 20
475.7217273322224
 30
0.0
 11
65.57852107590912
 21
475.7217273322224
 31
0.0
  0
LINE
  5
25AB2
330
1E
100
AcDbEntity
  8
130
100
AcDbLine
 10
79.07850781625002
 20
470.1344229804771
 30
0.0
 11
79.07850781625
 21
475.7217273322224
 31
0.0
  0
LINE
  5
25AB3
330
1E
100
AcDbEntity
  8
130
100
AcDbLine
 10
110.5912305617155
 20
475.7217273322224
 30
0.0
 11
110.5912305617155
 21
470.1344229804771
 31
0.0
  0
LINE
  5
25AB4
330
1E
100
AcDbEntity
  8
130
100
AcDbLine
 10
124.0784654801053
 20
475.7217273322224
 30
0.0
 11
110.5912305617155
 21
475.7217273322224
 31
0.0
  0
LINE
  5
25AB5
330
1E
100
AcDbEntity
  8
130
100
AcDbLine
 10
124.0784654801053
 20
470.1344229804771
 30
0.0
 11
124.0784654801053
 21
475.7217273322224
 31
0.0
  0
LWPOLYLINE
  5
25AB7
330
1E
100
AcDbEntity
  8
130
100
AcDbPolyline
 90
        3
 70
     0
 43
0.0
 10
49.83848814616752
 20
475.7228160092853
 10
64.07852130734221
 20
475.7217273322224
 10
64.07852130734221
 20
470.1344229804771
  0
LINE
  5
25ABB
330
1E
100
AcDbEntity
  8
130
100
AcDbLine
 10
139.8435688259733
 20
456.030568303411
 30
0.0
 11
49.81342078480562
 21
456.030568303411
 31
0.0
  0
LINE
  5
25ABC
330
1E
100
AcDbEntity
  8
130
100
AcDbLine
 10
65.57852107590912
 20
475.7217273322224
 30
0.0
 11
65.57852107590912
 21
470.1344229804771
 31
0.0
  0
LINE
  5
25ABD
330
1E
100
AcDbEntity
  8
130
100
AcDbLine
 10
49.83889025027881
 20
470.1344229804771
 30
0.0
 11
139.8411021072501
 21
470.1344229804771
 31
0.0
  0
LWPOLYLINE
  5
25ABE
330
1E
100
AcDbEntity
  8
130
100
AcDbPolyline
 90
        5
 70
     0
 43
0.0
 10
138.9329057831074
 20
470.1053382122443
 10
138.9329057831074
 20
475.6926425639896
 10
138.9329057831074
 20
475.6926425639896
 10
125.5697790262667
 20
475.6926425639896
 10
125.5697790262667
 20
470.1344229804771
  0
LINE
  5
25ABF
330
1E
100
AcDbEntity
  8
130
100
AcDbLine
 10
164.5430679692927
 20
470.1344229804771
 30
0.0
 11
139.8411021072501
 21
470.1344229804771
 31
0.0
  0
CIRCLE
  5
25AD4
330
1E
100
AcDbEntity
  8
24
100
AcDbCircle
 10
65.23430615218792
 20
462.1303953030559
 30
0.0
 40
5.999994365112642
  0
ELLIPSE
  5
25AD5
330
1E
100
AcDbEntity
  8
130
100
AcDbEllipse
 10
59.22898559836783
 20
459.0384011332163
 30
0.0
 11
-1.224716190266895
 21
-2.749200778644313
 31
0.0
210
0.0
220
0.0
230
-1.0
 40
0.9963343309
 41
5.865459295927847
 42
7.433525461465419
  0
ELLIPSE
  5
25AD6
330
1E
100
AcDbEntity
  8
130
100
AcDbEllipse
 10
71.22806036109889
 20
459.0384011332163
 30
0.0
 11
1.224716190266833
 21
-2.749200778644375
 31
0.0
210
0.0
220
0.0
230
-1.0
 40
0.9963343309
 41
5.132845152893018
 42
6.700911318431388
  0
LINE
  5
25AD7
330
1E
100
AcDbEntity
  8
130
100
AcDbLine
 10
56.22853003128538
 20
459.0301906328881
 30
0.0
 11
56.22853003128536
 21
470.1344229804771
 31
0.0
  0
LINE
  5
25AD8
330
1E
100
AcDbEntity
  8
0
  6
SLD-実線
 62
     8
370
     0
100
AcDbLine
 10
56.2025349801195
 20
459.0038752070815
 30
0.0
 11
56.22853003128538
 21
459.0301906328881
 31
0.0
  0
LINE
  5
25AD9
330
1E
100
AcDbEntity
  8
130
100
AcDbLine
 10
74.25451112849296
 20
459.0038752070815
 30
0.0
 11
74.25451112849296
 21
470.1344229804771
 31
0.0
  0
CIRCLE
  5
25AEE
330
1E
100
AcDbEntity
  8
24
100
AcDbCircle
 10
95.23427797773226
 20
462.1303953030559
 30
0.0
 40
5.999994365112642
  0
ELLIPSE
  5
25AEF
330
1E
100
AcDbEntity
  8
130
100
AcDbEllipse
 10
89.22895742391213
 20
459.0384011332163
 30
0.0
 11
-1.224716190266895
 21
-2.749200778644313
 31
0.0
210
0.0
220
0.0
230
-1.0
 40
0.9963343309
 41
5.865459295927847
 42
7.433525461465419
  0
ELLIPSE
  5
25AF0
330
1E
100
AcDbEntity
  8
130
100
AcDbEllipse
 10
101.2280321866432
 20
459.0384011332163
 30
0.0
 11
1.224716190266833
 21
-2.749200778644375
 31
0.0
210
0.0
220
0.0
230
-1.0
 40
0.9963343309
 41
5.132845152893018
 42
6.700911318431388
  0
LINE
  5
25AF1
330
1E
100
AcDbEntity
  8
130
100
AcDbLine
 10
86.22850185682969
 20
459.0301906328881
 30
0.0
 11
86.22850185682969
 21
470.1344229804771
 31
0.0
  0
LINE
  5
25AF2
330
1E
100
AcDbEntity
  8
0
  6
SLD-実線
 62
     8
370
     0
100
AcDbLine
 10
86.20250680566384
 20
459.0038752070815
 30
0.0
 11
86.22850185682969
 21
459.0301906328881
 31
0.0
  0
LINE
  5
25AF3
330
1E
100
AcDbEntity
  8
130
100
AcDbLine
 10
104.2544829540372
 20
459.0038752070815
 30
0.0
 11
104.2544829540373
 21
470.1344229804771
 31
0.0
  0
CIRCLE
  5
25B08
330
1E
100
AcDbEntity
  8
24
100
AcDbCircle
 10
125.2342499336392
 20
462.1303953030559
 30
0.0
 40
5.999994365112642
  0
ELLIPSE
  5
25B09
330
1E
100
AcDbEntity
  8
130
100
AcDbEllipse
 10
119.2289293798191
 20
459.0384011332163
 30
0.0
 11
-1.224716190266895
 21
-2.749200778644313
 31
0.0
210
0.0
220
0.0
230
-1.0
 40
0.9963343309
 41
5.865459295927847
 42
7.433525461465419
  0
ELLIPSE
  5
25B0A
330
1E
100
AcDbEntity
  8
130
100
AcDbEllipse
 10
131.2280041425502
 20
459.0384011332163
 30
0.0
 11
1.224716190266833
 21
-2.749200778644375
 31
0.0
210
0.0
220
0.0
230
-1.0
 40
0.9963343309
 41
5.132845152893018
 42
6.700911318431388
  0
LINE
  5
25B0B
330
1E
100
AcDbEntity
  8
130
100
AcDbLine
 10
116.2284738127366
 20
459.0301906328881
 30
0.0
 11
116.2284738127366
 21
470.1344229804771
 31
0.0
  0
LINE
  5
25B0C
330
1E
100
AcDbEntity
  8
0
  6
SLD-実線
 62
     8
370
     0
100
AcDbLine
 10
116.2024787615708
 20
459.0038752070815
 30
0.0
 11
116.2284738127366
 21
459.0301906328881
 31
0.0
  0
LINE
  5
25B0D
330
1E
100
AcDbEntity
  8
130
100
AcDbLine
 10
134.2544549099442
 20
459.0038752070815
 30
0.0
 11
134.2544549099442
 21
470.1344229804771
 31
0.0
  0
CIRCLE
  5
25B22
330
1E
100
AcDbEntity
  8
24
100
AcDbCircle
 10
155.2372212541646
 20
462.0668090458026
 30
0.0
 40
5.999994365112642
  0
ELLIPSE
  5
25B23
330
1E
100
AcDbEntity
  8
130
100
AcDbEllipse
 10
149.2319007003444
 20
458.9748148759629
 30
0.0
 11
-1.224716190266895
 21
-2.749200778644313
 31
0.0
210
0.0
220
0.0
230
-1.0
 40
0.9963343309
 41
5.865459295927847
 42
7.433525461465419
  0
ELLIPSE
  5
25B24
330
1E
100
AcDbEntity
  8
130
100
AcDbEllipse
 10
161.2309754630754
 20
458.9748148759629
 30
0.0
 11
1.224716190266833
 21
-2.749200778644375
 31
0.0
210
0.0
220
0.0
230
-1.0
 40
0.9963343309
 41
5.132845152893018
 42
6.700911318431388
  0
LINE
  5
25B25
330
1E
100
AcDbEntity
  8
130
100
AcDbLine
 10
146.231445133262
 20
458.9666043756347
 30
0.0
 11
146.231445133262
 21
470.0708367232238
 31
0.0
  0
LINE
  5
25B26
330
1E
100
AcDbEntity
  8
0
  6
SLD-実線
 62
     8
370
     0
100
AcDbLine
 10
146.0158273305905
 20
459.0038752070815
 30
0.0
 11
146.0418223817565
 21
459.0301906328881
 31
0.0
  0
LINE
  5
25B27
330
1E
100
AcDbEntity
  8
130
100
AcDbLine
 10
164.2574262304695
 20
458.9402889498281
 30
0.0
 11
164.2574262304695
 21
470.0708367232238
 31
0.0
  0
LWPOLYLINE
  5
25B28
330
1E
100
AcDbEntity
  8
130
100
AcDbPolyline
 90
        7
 70
     0
 43
0.0
 10
140.8507065825746
 20
472.1561982245673
 10
141.6502593003473
 20
471.7564749509393
 10
144.9507032177395
 20
472.8568129131486
 10
154.3506933229154
 20
472.8568129131486
 10
154.3506933229154
 20
475.8568087247693
 10
140.8507065825746
 20
475.8568087247693
 10
140.8507065825746
 20
472.1561982245673
  0
LWPOLYLINE
  5
25B29
330
1E
100
AcDbEntity
  8
130
100
AcDbPolyline
 90
        7
 70
     0
 43
0.0
 10
158.8104542086274
 20
470.4033092242815
 10
157.6284430589265
 20
470.8111163703839
 10
156.1229503549042
 20
471.0746133561676
 10
156.1229503549042
 20
475.8568087247693
 10
167.8729407803968
 20
475.8568087247693
 10
167.8729407803968
 20
470.3755632883467
 10
158.8104542086274
 20
470.4033092242815
  0
LWPOLYLINE
  5
25B2A
330
1E
100
AcDbEntity
  8
130
100
AcDbPolyline
 90
        5
 70
     0
 43
0.0
 10
140.8507065825746
 20
477.3568029051793
 10
154.3506933229154
 20
477.3568029051793
 10
154.3506933229154
 20
488.7217116661068
 10
140.8507065825746
 20
488.7217116661068
 10
140.8507065825746
 20
477.3568029051793
  0
LWPOLYLINE
  5
25B2B
330
1E
100
AcDbEntity
  8
130
100
AcDbPolyline
 90
        5
 70
     0
 43
0.0
 10
156.1229503549042
 20
477.3568029051793
 10
167.8729407803968
 20
477.3568029051793
 10
167.8729407803968
 20
488.7217116661068
 10
156.1229503549042
 20
488.7217116661068
 10
156.1229503549042
 20
477.3568029051793
  0
LWPOLYLINE
  5
25B2E
330
1E
100
AcDbEntity
  8
130
100
AcDbPolyline
 90
        5
 70
     0
 43
0.0
 10
50.83238076562286
 20
477.3568029051793
 10
64.33236750596364
 20
477.3568029051793
 10
64.33236750596364
 20
488.7217116661068
 10
50.83238076562286
 20
488.7217116661068
 10
50.83238076562286
 20
477.3568029051793
  0
LINE
  5
25B32
330
1E
100
AcDbEntity
  8
130
100
AcDbLine
 10
139.8557803858897
 20
456.030568303411
 30
0.0
 11
169.8538323301053
 21
456.030568303411
 31
0.0
  0
LINE
  5
25B3B
330
1E
100
AcDbEntity
  8
16
100
AcDbLine
 10
95.26555124628442
 20
507.2250769186304
 30
0.0
 11
95.26555124628442
 21
318.3086872390961
 31
0.0
  0
MTEXT
  5
25B3C
330
1E
100
AcDbEntity
  8
19
100
AcDbMText
 10
239.4504847894975
 20
21.66497939297176
 30
0.0
 40
7.826237649998486
 41
0.0
 46
0.0
 71
     1
 72
     1
  1
[Cutout A]
 73
     1
 44
1.0
  0
LINE
  5
25B3D
330
1E
100
AcDbEntity
  8
16
100
AcDbLine
 10
417.4853297943641
 20
252.601971788642
 30
0.0
 11
417.4853297943641
 21
64.47950790109779
 31
0.0
  0
MTEXT
  5
25B4F
330
1E
100
AcDbEntity
  8
19
100
AcDbMText
 10
388.1722138470657
 20
21.66497939297176
 30
0.0
 40
7.826237649998486
 41
0.0
 46
0.0
 71
     1
 72
     1
  1
[Cutout B]
 73
     1
 44
1.0
  0
LWPOLYLINE
  5
25D41
330
1E
100
AcDbEntity
  8
131
  6
Continuous
100
AcDbPolyline
 90
        4
 70
     1
 43
0.0
 10
0.0
 20
742.4999999999997
 10
525.0
 20
742.4999999999997
 10
525.0
 20
0.0
 10
0.0
 20
0.0
  0
LINE
  5
25D5A
330
1E
100
AcDbEntity
  8
16
100
AcDbLine
 10
362.3011984596256
 20
161.4697145142366
 30
0.0
 11
505.2124528231145
 21
161.4697145142366
 31
0.0
  0
LINE
  5
25E3B
330
1E
100
AcDbEntity
  8
16
100
AcDbLine
 10
149.8965934812734
 20
161.4697145142366
 30
0.0
 11
50.29495100522976
 21
161.4697145142366
 31
0.0
  0
LINE
  5
25E41
330
1E
100
AcDbEntity
  8
16
100
AcDbLine
 10
96.10547209994315
 20
247.9697145142361
 30
0.0
 11
96.10547209994315
 21
74.96971451423718
 31
0.0
  0
LINE
  5
25E43
330
1E
100
AcDbEntity
  8
12
100
AcDbLine
 10
46.10547209994339
 20
203.9697145142363
 30
0.0
 11
177.1317797755379
 21
203.9697145142363
 31
0.0
  0
LINE
  5
25E44
330
1E
100
AcDbEntity
  8
12
100
AcDbLine
 10
47.13177977553864
 20
118.9697145142369
 30
0.0
 11
177.1317797755379
 21
118.9697145142369
 31
0.0
  0
LINE
  5
25E45
330
1E
100
AcDbEntity
  8
12
  6
DASHED
100
AcDbLine
 10
45.2021363258004
 20
200.7697145142364
 30
0.0
 11
176.5401061368302
 21
200.7697145142364
 31
0.0
  0
LINE
  5
25E46
330
1E
100
AcDbEntity
  8
12
  6
DASHED
100
AcDbLine
 10
48.01711869493029
 20
122.1697145142368
 30
0.0
 11
178.9989990169934
 21
122.1697145142368
 31
0.0
  0
CIRCLE
  5
25E61
330
1E
100
AcDbEntity
  8
12
370
     0
100
AcDbCircle
 10
73.60547209994317
 20
135.4697145142368
 30
0.0
 40
2.999999999999548
  0
CIRCLE
  5
25E62
330
1E
100
AcDbEntity
  8
12
100
AcDbCircle
 10
143.6054720999427
 20
135.4697145142368
 30
0.0
 40
2.999999999999548
  0
CIRCLE
  5
25E63
330
1E
100
AcDbEntity
  8
12
100
AcDbCircle
 10
73.60547209994317
 20
187.4697145142364
 30
0.0
 40
2.999999999999531
  0
CIRCLE
  5
25E64
330
1E
100
AcDbEntity
  8
12
100
AcDbCircle
 10
143.6054720999427
 20
187.4697145142364
 30
0.0
 40
2.999999999999531
  0
CIRCLE
  5
25E65
330
1E
100
AcDbEntity
  8
13
370
     0
100
AcDbCircle
 10
108.6054720999429
 20
171.4697145142365
 30
0.0
 40
8.999999999998259
  0
CIRCLE
  5
25E66
330
1E
100
AcDbEntity
  8
13
370
     0
100
AcDbCircle
 10
108.6054720999429
 20
151.4697145142366
 30
0.0
 40
8.999999999998259
  0
CIRCLE
  5
25E67
330
1E
100
AcDbEntity
  8
13
370
     0
100
AcDbCircle
 10
165.6054720999426
 20
161.4697145142366
 30
0.0
 40
8.999999999998262
  0
DIMENSION
  5
25E6A
330
1E
100
AcDbEntity
  8
30
100
AcDbDimension
280
     0
  2
*D12
 10
37.72772143291152
 20
151.4697145142366
 30
0.0
 11
37.72772143291149
 21
161.4697145142366
 31
0.0
 70
   160
  1
<>
 71
     2
 42
19.99999999999988
 73
     0
 74
     0
 75
     0
  3
STANDARD
100
AcDbAlignedDimension
 13
108.6054720999429
 23
171.4697145142365
 33
0.0
 14
108.6054720999429
 24
151.4697145142366
 34
0.0
 50
90.0
100
AcDbRotatedDimension
  0
DIMENSION
  5
25E6C
330
1E
100
AcDbEntity
  8
30
100
AcDbDimension
280
     0
  2
*D13
 10
143.6054720999427
 20
38.86810860656737
 30
0.0
 11
107.1972015410667
 21
38.86810860656737
 31
0.0
 70
   160
  1
<>
 71
     2
 42
69.99999999999952
 73
     0
 74
     0
 75
     0
  3
STANDARD1
100
AcDbAlignedDimension
 13
73.60547209994317
 23
135.4697145142368
 33
0.0
 14
143.6054720999427
 24
135.4697145142368
 34
0.0
100
AcDbRotatedDimension
  0
DIMENSION
  5
25E6E
330
1E
100
AcDbEntity
  8
30
100
AcDbDimension
280
     0
  2
*D14
 10
165.6054720999426
 20
38.86810860656737
 30
0.0
 11
154.6054720999427
 21
38.86810860656737
 31
0.0
 70
   160
  1
<>
 71
     2
 42
21.99999999999993
 73
     0
 74
     0
 75
     0
  3
STANDARD1
100
AcDbAlignedDimension
 13
143.6054720999427
 23
135.4697145142368
 33
0.0
 14
165.6054720999426
 24
161.4697145142366
 34
0.0
100
AcDbRotatedDimension
  0
INSERT
  5
25E74
330
1E
100
AcDbEntity
  8
12
  6
DASHDOT
100
AcDbBlockReference
  2
SW_CENTERMARKSYMBOL_9
 10
143.6054720999427
 20
187.4697145142364
 30
0.0
 41
2.236067899999567
 42
2.236067899999567
 43
2.236067899999567
  0
INSERT
  5
25E75
330
1E
100
AcDbEntity
  8
12
  6
DASHDOT
100
AcDbBlockReference
  2
SW_CENTERMARKSYMBOL_10
 10
73.60547209994317
 20
187.4697145142364
 30
0.0
 41
2.236067899999567
 42
2.236067899999567
 43
2.236067899999567
  0
INSERT
  5
25E76
330
1E
100
AcDbEntity
  8
12
  6
DASHDOT
100
AcDbBlockReference
  2
SW_CENTERMARKSYMBOL_11
 10
73.60547209994317
 20
135.4697145142368
 30
0.0
 41
2.236067899999567
 42
2.236067899999567
 43
2.236067899999567
  0
INSERT
  5
25E77
330
1E
100
AcDbEntity
  8
12
  6
DASHDOT
100
AcDbBlockReference
  2
SW_CENTERMARKSYMBOL_12
 10
143.6054720999427
 20
135.4697145142368
 30
0.0
 41
2.236067899999567
 42
2.236067899999567
 43
2.236067899999567
  0
DIMENSION
  5
25FF3
330
1E
100
AcDbEntity
  8
30
100
AcDbDimension
280
     0
  2
*D15
 10
161.7863662075436
 20
153.4102096100957
 30
0.0
 11
194.0756289327168
 21
203.1066480278883
 31
0.0
 70
   163
  1
<>
 71
     5
 42
17.99999999999696
 73
     0
 74
     0
 75
     0
  3
STANDARD1
100
AcDbDiametricDimension
 15
169.4245779923413
 25
169.7092194183776
 35
0.0
 40
0.0
  0
DIMENSION
  5
26033
330
1E
100
AcDbEntity
  8
30
100
AcDbDimension
280
     0
  2
*D16
 10
75.79181681397156
 20
137.5239532518007
 30
0.0
 11
29.26338211905625
 21
100.3839536584353
 31
0.0
 70
   163
  1
<>
 71
     5
 42
5.999999999976267
 73
     0
 74
     0
 75
     0
  3
STANDARD1
100
AcDbDiametricDimension
 15
71.41912738591421
 25
133.4154757764492
 35
0.0
 40
0.0
  0
DIMENSION
  5
26050
330
1E
100
AcDbEntity
  8
30
100
AcDbDimension
280
     0
  2
*D17
 10
24.52321778049553
 20
135.4697145142368
 30
0.0
 11
24.52321778049551
 21
161.4697145142366
 31
0.0
 70
   160
  1
<>
 71
     2
 42
51.99999999999966
 73
     0
 74
     0
 75
     0
  3
STANDARD
100
AcDbAlignedDimension
 13
66.51530234994426
 23
187.4697145142364
 33
0.0
 14
68.01530234994425
 24
135.4697145142368
 34
0.0
 50
90.0
100
AcDbRotatedDimension
  0
LINE
  5
260A9
330
1E
100
AcDbEntity
  8
18
100
AcDbLine
 10
209.3386016549201
 20
246.469714514236
 30
0.0
 11
344.3386016549192
 21
246.469714514236
 31
0.0
  0
LINE
  5
260AA
330
1E
100
AcDbEntity
  8
18
100
AcDbLine
 10
209.3386016549201
 20
246.469714514236
 30
0.0
 11
209.3386016549201
 21
76.46971451423713
 31
0.0
  0
LINE
  5
260AB
330
1E
100
AcDbEntity
  8
18
100
AcDbLine
 10
209.3386016549201
 20
76.46971451423713
 30
0.0
 11
344.3386016549192
 21
76.46971451423713
 31
0.0
  0
LINE
  5
260AC
330
1E
100
AcDbEntity
  8
18
100
AcDbLine
 10
344.3386016549192
 20
246.469714514236
 30
0.0
 11
344.3386016549192
 21
76.46971451423713
 31
0.0
  0
LWPOLYLINE
  5
260AD
330
1E
100
AcDbEntity
  8
11
370
    15
100
AcDbPolyline
 90
        8
 70
     1
 43
0.0
 10
218.8386016549202
 20
136.4697145142368
 42
0.4142135623730951
 10
219.83860165492
 20
135.4697145142368
 10
303.8386016549193
 20
135.4697145142369
 42
0.4142135623730951
 10
304.8386016549195
 20
136.4697145142368
 10
304.8386016549193
 20
186.4697145142364
 42
0.4142135623730951
 10
303.8386016549193
 20
187.4697145142364
 10
219.83860165492
 20
187.4697145142363
 42
0.4142135623730951
 10
218.83860165492
 20
186.4697145142364
  0
DIMENSION
  5
260AE
330
1E
100
AcDbEntity
  8
30
100
AcDbDimension
280
     0
  2
*D18
 10
218.83860165492
 20
38.28601293573297
 30
0.0
 11
261.8386016549199
 21
38.28601293573297
 31
0.0
 70
   160
  1
<>
 71
     2
 42
85.99999999999949
 73
     0
 74
     0
 75
     0
  3
STANDARD1
100
AcDbAlignedDimension
 13
304.8386016549195
 23
136.4697145142368
 33
0.0
 14
218.83860165492
 24
136.4697145142368
 34
0.0
100
AcDbRotatedDimension
  0
DIMENSION
  5
260FF
330
1E
100
AcDbEntity
  8
30
100
AcDbDimension
280
     0
  2
*D19
 10
303.8386016549195
 20
186.4697145142363
 30
0.0
 11
329.2773397107695
 21
197.4566293142626
 31
0.0
 70
   164
  1
<>
 71
     5
 42
0.9999999998958626
 73
     0
 74
     0
 75
     0
  3
STANDARD1
100
AcDbRadialDimension
 15
304.7091682923189
 25
186.9617650498921
 35
0.0
 40
0.0
  0
LINE
  5
2611F
330
1E
100
AcDbEntity
  8
18
100
AcDbLine
 10
364.9853297943644
 20
246.469714514236
 30
0.0
 11
499.9853297943634
 21
246.469714514236
 31
0.0
  0
LINE
  5
26120
330
1E
100
AcDbEntity
  8
18
100
AcDbLine
 10
364.9853297943644
 20
246.469714514236
 30
0.0
 11
364.9853297943644
 21
76.46971451423713
 31
0.0
  0
LINE
  5
26121
330
1E
100
AcDbEntity
  8
18
100
AcDbLine
 10
364.9853297943644
 20
76.46971451423713
 30
0.0
 11
499.9853297943634
 21
76.46971451423713
 31
0.0
  0
LINE
  5
26122
330
1E
100
AcDbEntity
  8
18
100
AcDbLine
 10
499.9853297943634
 20
246.469714514236
 30
0.0
 11
499.9853297943634
 21
76.46971451423713
 31
0.0
  0
DIMENSION
  5
26146
330
1E
100
AcDbEntity
  8
30
100
AcDbDimension
280
     0
  2
*D20
 10
514.5883466054953
 20
137.4697145142367
 30
0.0
 11
514.5883466054953
 21
161.4697145142366
 31
0.0
 70
   160
 71
     2
 42
47.99999999999971
 73
     0
 74
     0
 75
     0
  3
STANDARD
100
AcDbAlignedDimension
 13
435.4743502160972
 23
185.4697145142365
 33
0.0
 14
428.485329794364
 24
137.4697145142368
 34
0.0
 50
90.0
100
AcDbRotatedDimension
  0
DIMENSION
  5
2616F
330
1E
100
AcDbEntity
  8
30
100
AcDbDimension
280
     0
  2
*D21
 10
405.485329794364
 20
38.68212867909847
 30
0.0
 11
417.4853297943641
 21
38.68212867909847
 31
0.0
 70
   160
  1
<>
 71
     2
 42
24.0
 73
     0
 74
     0
 75
     0
  3
STANDARD1
100
AcDbAlignedDimension
 13
429.485329794364
 23
138.4697145142368
 33
0.0
 14
405.485329794364
 24
138.4697145142368
 34
0.0
100
AcDbRotatedDimension
  0
DIMENSION
  5
26196
330
1E
100
AcDbEntity
  8
30
100
AcDbDimension
280
     0
  2
*D22
 10
428.485329794364
 20
184.4697145142366
 30
0.0
 11
445.8260584797962
 21
198.1923285633298
 31
0.0
 70
   164
  1
<>
 71
     5
 42
0.9999999998957491
 73
     0
 74
     0
 75
     0
  3
STANDARD1
100
AcDbRadialDimension
 15
429.1223666894897
 25
185.240547825686
 35
0.0
 40
0.0
  0
LINE
  5
261BB
330
1E
100
AcDbEntity
  8
11
370
    15
100
AcDbLine
 10
428.4853297943637
 20
185.4697145142365
 30
0.0
 11
406.485329794364
 21
185.4697145142363
 31
0.0
  0
ARC
  5
261BC
330
1E
100
AcDbEntity
  8
11
370
    15
100
AcDbCircle
 10
406.485329794364
 20
184.4697145142365
 30
0.0
 40
0.9999999999998292
100
AcDbArc
 50
90.0
 51
180.0
  0
LINE
  5
261BD
330
1E
100
AcDbEntity
  8
11
370
    15
100
AcDbLine
 10
405.485329794364
 20
184.4697145142365
 30
0.0
 11
405.485329794364
 21
138.4697145142368
 31
0.0
  0
ARC
  5
261BE
330
1E
100
AcDbEntity
  8
11
370
    15
100
AcDbCircle
 10
406.485329794364
 20
138.4697145142368
 30
0.0
 40
0.9999999999998292
100
AcDbArc
 50
180.0
 51
270.0
  0
LINE
  5
261BF
330
1E
100
AcDbEntity
  8
11
370
    15
100
AcDbLine
 10
406.485329794364
 20
137.4697145142369
 30
0.0
 11
428.485329794364
 21
137.4697145142369
 31
0.0
  0
ARC
  5
261C0
330
1E
100
AcDbEntity
  8
11
370
    15
100
AcDbCircle
 10
428.485329794364
 20
138.4697145142368
 30
0.0
 40
0.9999999999998292
100
AcDbArc
 50
270.0000000000033
 51
0.0
  0
LINE
  5
261C1
330
1E
100
AcDbEntity
  8
11
370
    15
100
AcDbLine
 10
429.4853297943638
 20
138.4697145142368
 30
0.0
 11
429.4853297943638
 21
184.4697145142365
 31
0.0
  0
ARC
  5
261C2
330
1E
100
AcDbEntity
  8
11
370
    15
100
AcDbCircle
 10
428.4853297943637
 20
184.4697145142365
 30
0.0
 40
1.0
100
AcDbArc
 50
0.0
 51
90.0
  0
DIMENSION
  5
261F7
330
1E
100
AcDbEntity
  8
30
100
AcDbDimension
280
     0
  2
*D23
 10
358.3522954887922
 20
135.4697145142368
 30
0.0
 11
358.3522954887921
 21
160.9655321337318
 31
0.0
 70
   160
 71
     2
 42
51.99999999999953
 73
     0
 74
     0
 75
     0
  3
STANDARD
100
AcDbAlignedDimension
 13
307.360952666505
 23
187.4697145142364
 33
0.0
 14
305.6465692336869
 24
135.4697145142369
 34
0.0
 50
90.0
100
AcDbRotatedDimension
  0
INSERT
  5
2626D
330
1E
100
AcDbEntity
  8
12
  6
DASHDOT
100
AcDbBlockReference
  2
SW_CENTERMARKSYMBOL_4
 10
108.6054720999429
 20
171.4697145142365
 30
0.0
 41
2.236067899999567
 42
2.236067899999567
 43
2.236067899999567
  0
INSERT
  5
26275
330
1E
100
AcDbEntity
  8
12
  6
DASHDOT
100
AcDbBlockReference
  2
SW_CENTERMARKSYMBOL_4
 10
108.6054720999429
 20
151.4697145142366
 30
0.0
 41
2.236067899999567
 42
2.236067899999567
 43
2.236067899999567
  0
INSERT
  5
2627D
330
1E
100
AcDbEntity
  8
12
  6
DASHDOT
100
AcDbBlockReference
  2
SW_CENTERMARKSYMBOL_4
 10
165.6054720999425
 20
161.6497145142366
 30
0.0
 41
2.236067899999567
 42
2.236067899999567
 43
2.236067899999567
  0
LWPOLYLINE
  5
2691B
330
1E
100
AcDbEntity
  8
18
100
AcDbPolyline
 90
       28
 70
     1
 43
0.0
 10
75.10547209994328
 20
86.46971451423709
 10
51.1054720999434
 20
86.46971451423709
 10
51.1054720999434
 20
236.4697145142361
 10
75.10547209994328
 20
236.4697145142361
 10
75.10547209994328
 20
246.9697145142361
 10
87.10547209994318
 20
246.9697145142361
 10
87.10547209994318
 20
236.4697145142361
 10
105.105472099943
 20
236.4697145142361
 10
105.105472099943
 20
246.9697145142361
 10
117.1054720999429
 20
246.9697145142361
 10
117.1054720999429
 20
236.4697145142361
 10
135.1054720999428
 20
236.4697145142361
 10
135.1054720999428
 20
246.9697145142361
 10
147.1054720999427
 20
246.9697145142361
 10
147.1054720999427
 20
236.4697145142361
 10
171.1054720999426
 20
236.4697145142361
 10
171.1054720999426
 20
86.46971451423709
 10
147.1054720999427
 20
86.46971451423709
 10
147.1054720999427
 20
75.96971451423718
 10
135.1054720999428
 20
75.96971451423718
 10
135.1054720999428
 20
86.46971451423709
 10
117.1054720999429
 20
86.46971451423709
 10
117.1054720999429
 20
75.96971451423718
 10
105.105472099943
 20
75.96971451423718
 10
105.105472099943
 20
86.46971451423709
 10
87.10547209994318
 20
86.46971451423709
 10
87.10547209994318
 20
75.96971451423718
 10
75.10547209994328
 20
75.96971451423718
  0
LWPOLYLINE
  5
26BBC
330
1E
100
AcDbEntity
  8
10
100
AcDbPolyline
 90
        4
 70
     0
 43
0.0
 10
306.1333987380066
 20
470.030567349728
 10
250.7502880087117
 20
470.030567349728
 42
0.3536533375391492
 10
248.794683180512
 20
468.449625527328
 10
246.1334564281119
 20
456.030567349728
  0
LINE
  5
26BBD
330
1E
100
AcDbEntity
  8
24
100
AcDbLine
 10
395.639168742997
 20
592.2264143149048
 30
0.0
 11
395.436706665652
 21
592.7152115174567
 31
0.0
  0
LINE
  5
26BBE
330
1E
100
AcDbEntity
  8
24
100
AcDbLine
 10
395.436706665652
 20
583.7376176635435
 30
0.0
 11
395.639168742997
 21
584.2264148660956
 31
0.0
  0
LINE
  5
26BBF
330
1E
100
AcDbEntity
  8
24
100
AcDbLine
 10
395.3968013560615
 20
592.8076136181166
 30
0.0
 11
390.9391711389437
 21
592.8076136181166
 31
0.0
  0
LINE
  5
26BC0
330
1E
100
AcDbEntity
  8
24
100
AcDbLine
 10
390.9391711389437
 20
583.6452137002392
 30
0.0
 11
395.3968013560615
 21
583.6452137002392
 31
0.0
  0
ARC
  5
26BC1
330
1E
100
AcDbEntity
  8
24
100
AcDbCircle
 10
389.8141649749431
 20
583.8014075131776
 30
0.0
 40
0.1749934904430388
100
AcDbArc
 50
179.9975085699976
 51
270.0018815922996
  0
ARC
  5
26BC2
330
1E
100
AcDbEntity
  8
24
100
AcDbCircle
 10
389.8141649749431
 20
592.6514198054018
 30
0.0
 40
0.1749934903217181
100
AcDbArc
 50
89.99811839129861
 51
180.0018816087991
  0
LINE
  5
26BC3
330
1E
100
AcDbEntity
  8
24
100
AcDbLine
 10
389.8141707218612
 20
583.6264140226508
 30
0.0
 11
390.7641719019461
 21
583.6264140226508
 31
0.0
  0
LINE
  5
26BC4
330
1E
100
AcDbEntity
  8
24
100
AcDbLine
 10
390.7641719019461
 20
592.8264132954812
 30
0.0
 11
389.8141707218612
 21
592.8264132954812
 31
0.0
  0
ARC
  5
26BC5
330
1E
100
AcDbEntity
  8
24
100
AcDbCircle
 10
390.7641649298864
 20
583.8014202319317
 30
0.0
 40
0.1750062093005818
100
AcDbArc
 50
270.0022826370001
 51
359.9983272006993
  0
ARC
  5
26BC6
330
1E
100
AcDbEntity
  8
24
100
AcDbCircle
 10
390.7641649296626
 20
592.6514070862004
 30
0.0
 40
0.1750062094103553
100
AcDbArc
 50
0.0022826519003383
 51
89.99771734810293
  0
LINE
  5
26BC7
330
1E
100
AcDbEntity
  8
24
100
AcDbLine
 10
395.639168742997
 20
585.7264141807408
 30
0.0
 11
401.9391710794643
 21
585.7264141807408
 31
0.0
  0
LINE
  5
26BC8
330
1E
100
AcDbEntity
  8
24
100
AcDbLine
 10
401.9391710794643
 20
590.7264150002596
 30
0.0
 11
395.639168742997
 21
590.7264150002596
 31
0.0
  0
LINE
  5
26BC9
330
1E
100
AcDbEntity
  8
24
100
AcDbLine
 10
401.9391710794643
 20
585.7264141807408
 30
0.0
 11
402.4391720926263
 21
586.2264133312586
 31
0.0
  0
LINE
  5
26BCA
330
1E
100
AcDbEntity
  8
24
100
AcDbLine
 10
402.4391720926263
 20
590.2264139868732
 30
0.0
 11
401.9391710794643
 21
590.7264150002596
 31
0.0
  0
LINE
  5
26BCB
330
1E
100
AcDbEntity
  8
13
100
AcDbLine
 10
377.4391735827423
 20
530.276416174531
 30
0.0
 11
378.5391735769287
 21
530.276416174531
 31
0.0
  0
LINE
  5
26BCC
330
1E
100
AcDbEntity
  8
13
100
AcDbLine
 10
378.5391735769287
 20
538.1764157930579
 30
0.0
 11
377.4391735827423
 21
538.1764157930579
 31
0.0
  0
ARC
  5
26BCD
330
1E
100
AcDbEntity
  8
0
  6
SLD-実線
 62
     7
370
     0
100
AcDbCircle
 10
387.5741577999378
 20
546.2952772489536
 30
0.0
 40
55.25283029826606
100
AcDbArc
 50
87.85813451139727
 51
176.8386385283986
  0
LINE
  5
26BCE
330
1E
100
AcDbEntity
  8
24
100
AcDbLine
 10
390.9391711389437
 20
590.1966824450043
 30
0.0
 11
390.9391711389437
 21
589.8954629221932
 31
0.0
  0
LINE
  5
26BCF
330
1E
100
AcDbEntity
  8
24
100
AcDbLine
 10
390.9391711389437
 20
586.1167016693298
 30
0.0
 11
390.9391711389437
 21
585.8154821465188
 31
0.0
  0
LINE
  5
26BD0
330
1E
100
AcDbEntity
  8
24
100
AcDbLine
 10
395.639168742997
 20
591.575090146911
 30
0.0
 11
395.639168742997
 21
588.0060832270837
 31
0.0
  0
LINE
  5
26BD1
330
1E
100
AcDbEntity
  8
24
100
AcDbLine
 10
395.639168742997
 20
588.0060832270837
 30
0.0
 11
395.639168742997
 21
584.6574067392387
 31
0.0
  0
LINE
  5
26BD2
330
1E
100
AcDbEntity
  8
24
100
AcDbLine
 10
390.9391711389437
 20
590.1966824450043
 30
0.0
 11
390.9391711389437
 21
590.3751331637145
 31
0.0
  0
LINE
  5
26BD3
330
1E
100
AcDbEntity
  8
24
100
AcDbLine
 10
390.9391711389437
 20
592.7750489929755
 30
0.0
 11
390.9391711389437
 21
592.6100484351102
 31
0.0
  0
LINE
  5
26BD4
330
1E
100
AcDbEntity
  8
24
100
AcDbLine
 10
390.9391711389437
 20
590.5401337215801
 30
0.0
 11
390.9391711389437
 21
590.3751331637145
 31
0.0
  0
LINE
  5
26BD5
330
1E
100
AcDbEntity
  8
24
100
AcDbLine
 10
390.9391711389437
 20
585.6480489739626
 30
0.0
 11
390.9391711389437
 21
585.8154821465188
 31
0.0
  0
LINE
  5
26BD6
330
1E
100
AcDbEntity
  8
24
100
AcDbLine
 10
390.9391711389437
 20
585.6480489739626
 30
0.0
 11
390.9391711389437
 21
585.5118300090171
 31
0.0
  0
LINE
  5
26BD7
330
1E
100
AcDbEntity
  8
24
100
AcDbLine
 10
390.9391711389437
 20
583.8029816070392
 30
0.0
 11
390.9391711389437
 21
583.6667626418702
 31
0.0
  0
SPLINE
  5
26BD8
330
1E
100
AcDbEntity
  8
24
100
AcDbSpline
210
0.0
220
0.0
230
1.0
 70
     8
 71
     3
 72
    11
 73
     7
 74
     0
 42
0.000000001
 43
0.0000000001
 40
0.0
 40
0.0
 40
0.0
 40
0.0
 40
0.3934671520995484
 40
0.4174049029749511
 40
0.8045718586716315
 40
1.0
 40
1.0
 40
1.0
 40
1.0
 10
395.4063157475022
 20
592.7860646763481
 30
0.0
 10
395.4051254401063
 20
592.7967712429582
 30
0.0
 10
395.4038627168003
 20
592.8081291755662
 30
0.0
 10
395.3897481501341
 20
592.8020937417095
 30
0.0
 10
395.4031473222175
 20
592.7875172797065
 30
0.0
 10
395.4055198850733
 20
592.7781808455447
 30
0.0
 10
395.4063157475022
 20
592.7750489929357
 30
0.0
  0
LINE
  5
26BD9
330
1E
100
AcDbEntity
  8
24
100
AcDbLine
 10
395.4063157476082
 20
592.7860646762619
 30
0.0
 11
395.4241896904029
 21
592.7100259134347
 31
0.0
  0
LINE
  5
26BDA
330
1E
100
AcDbEntity
  8
24
100
AcDbLine
 10
395.639168742997
 20
592.2264143149048
 30
0.0
 11
395.639168742997
 21
591.575090146911
 31
0.0
  0
SPLINE
  5
26BDB
330
1E
100
AcDbEntity
  8
24
100
AcDbSpline
210
0.0
220
0.0
230
1.0
 70
     8
 71
     3
 72
     9
 73
     5
 74
     0
 42
0.000000001
 43
0.0000000001
 40
0.0
 40
0.0
 40
0.0
 40
0.0
 40
0.9720765363217923
 40
1.0
 40
1.0
 40
1.0
 40
1.0
 10
395.4063157475022
 20
583.6667626419718
 30
0.0
 10
395.4050312319852
 20
583.6558535801477
 30
0.0
 10
395.4037098180135
 20
583.6446311491802
 30
0.0
 10
395.3969890239293
 20
583.6476767549426
 30
0.0
 10
395.39680135608
 20
583.6477617988045
 30
0.0
  0
LINE
  5
26BDC
330
1E
100
AcDbEntity
  8
24
100
AcDbLine
 10
395.639168742997
 20
584.6574067392387
 30
0.0
 11
395.639168742997
 21
584.2264148660956
 31
0.0
  0
LINE
  5
26BDD
330
1E
100
AcDbEntity
  8
24
100
AcDbLine
 10
390.9391711389437
 20
592.7750489929755
 30
0.0
 11
390.9391711389437
 21
592.8076136181166
 31
0.0
  0
LINE
  5
26BDE
330
1E
100
AcDbEntity
  8
24
100
AcDbLine
 10
390.9391711389437
 20
583.6452137002392
 30
0.0
 11
390.9391711389437
 21
583.6667626418702
 31
0.0
  0
LINE
  5
26BDF
330
1E
100
AcDbEntity
  8
24
100
AcDbLine
 10
390.9391711389437
 20
583.8029816070392
 30
0.0
 11
390.9391711389437
 21
585.5118300090171
 31
0.0
  0
LINE
  5
26BE0
330
1E
100
AcDbEntity
  8
24
100
AcDbLine
 10
390.9391711389437
 20
586.1167016693298
 30
0.0
 11
390.9391711389437
 21
589.8954629221932
 31
0.0
  0
LINE
  5
26BE1
330
1E
100
AcDbEntity
  8
24
100
AcDbLine
 10
390.9391711389437
 20
590.5401337215801
 30
0.0
 11
390.9391711389437
 21
592.6100484351102
 31
0.0
  0
LINE
  5
26BE2
330
1E
100
AcDbEntity
  8
24
100
AcDbLine
 10
402.4391720926263
 20
590.2264139868732
 30
0.0
 11
402.4391720926263
 21
586.2264133312586
 31
0.0
  0
LINE
  5
26BE3
330
1E
100
AcDbEntity
  8
0
  6
SLD-実線
 62
     7
370
    30
100
AcDbLine
 10
386.4391731954553
 20
601.4662667432783
 30
0.0
 11
386.4391731954553
 21
575.9264140644652
 31
0.0
  0
LINE
  5
26BE4
330
1E
100
AcDbEntity
  8
24
100
AcDbLine
 10
389.6391714846399
 20
601.5095052564277
 30
0.0
 11
389.6391714846399
 21
575.9264140644652
 31
0.0
  0
ARC
  5
26BE5
330
1E
100
AcDbEntity
  8
24
100
AcDbCircle
 10
390.6391695837585
 20
575.9264101370356
 30
0.0
 40
4.199996388383426
100
AcDbArc
 50
179.9999464213004
 51
270.0000535786996
  0
ARC
  5
26BE6
330
1E
100
AcDbEntity
  8
24
100
AcDbCircle
 10
390.6391660822998
 20
575.9264103608662
 30
0.0
 40
0.999994597662854
100
AcDbArc
 50
179.9997877963977
 51
270.0004256469975
  0
LINE
  5
26BE7
330
1E
100
AcDbEntity
  8
13
100
AcDbLine
 10
338.4391709155608
 20
528.7264122883567
 30
0.0
 11
342.9478990770121
 21
528.805112771156
 31
0.0
  0
LINE
  5
26BE8
330
1E
100
AcDbEntity
  8
0
  6
SLD-実線
 62
     7
370
    30
100
AcDbLine
 10
338.4391709155608
 20
528.7264271895134
 30
0.0
 11
338.4391709155608
 21
530.7264163414536
 31
0.0
  0
LINE
  5
26BE9
330
1E
100
AcDbEntity
  8
13
100
AcDbLine
 10
348.4391706919542
 20
577.7264147321552
 30
0.0
 11
341.652387466119
 21
577.0477338950015
 31
0.0
  0
LINE
  5
26BEA
330
1E
100
AcDbEntity
  8
13
100
AcDbLine
 10
348.4391706919542
 20
577.7264147321552
 30
0.0
 11
348.4391706919542
 21
578.6976277152055
 31
0.0
  0
LINE
  5
26BEB
330
1E
100
AcDbEntity
  8
13
100
AcDbLine
 10
348.4391706919542
 20
584.7552011974669
 30
0.0
 11
348.4391706919542
 21
578.6976277152055
 31
0.0
  0
LINE
  5
26BEC
330
1E
100
AcDbEntity
  8
13
100
AcDbLine
 10
348.4391706919542
 20
584.7552011974669
 30
0.0
 11
348.4391706919542
 21
585.3116068313283
 31
0.0
  0
LINE
  5
26BED
330
1E
100
AcDbEntity
  8
13
100
AcDbLine
 10
366.4391736424456
 20
578.1805499711204
 30
0.0
 11
366.4391736424456
 21
597.3217881540521
 31
0.0
  0
ARC
  5
26BEE
330
1E
100
AcDbEntity
  8
13
100
AcDbCircle
 10
364.4391681406004
 20
578.1805559646767
 30
0.0
 40
2.000005501803836
100
AcDbArc
 50
271.0000719135972
 51
359.9998283009004
  0
LINE
  5
26BEF
330
1E
100
AcDbEntity
  8
13
100
AcDbLine
 10
342.9478972143676
 20
575.8051148871467
 30
0.0
 11
364.4740755593732
 21
576.1808551172443
 31
0.0
  0
LINE
  5
26BF0
330
1E
100
AcDbEntity
  8
13
100
AcDbLine
 10
338.4391709155608
 20
530.7264163414536
 30
0.0
 11
338.4391709155608
 21
571.6007112781071
 31
0.0
  0
LINE
  5
26BF1
330
1E
100
AcDbEntity
  8
13
100
AcDbLine
 10
343.4391717350797
 20
530.7264163414536
 30
0.0
 11
343.4391717350797
 21
575.8136905053873
 31
0.0
  0
LINE
  5
26BF2
330
1E
100
AcDbEntity
  8
13
100
AcDbLine
 10
343.4391717350797
 20
529.305046729114
 30
0.0
 11
343.4391717350797
 21
530.7264163414536
 31
0.0
  0
SPLINE
  5
26BF3
330
1E
100
AcDbEntity
  8
13
100
AcDbSpline
210
0.0
220
0.0
230
1.0
 70
     8
 71
     3
 72
    11
 73
     7
 74
     0
 42
0.000000001
 43
0.0000000001
 40
0.0
 40
0.0
 40
0.0
 40
0.0
 40
0.2500002021574283
 40
0.5000006753123169
 40
0.7499963964637133
 40
1.0
 40
1.0
 40
1.0
 40
1.0
 10
342.9478990769516
 20
528.8051127711098
 30
0.0
 10
343.0125508687906
 20
528.8135897502496
 30
0.0
 10
343.1418545225503
 20
528.830543717718
 30
0.0
 10
343.3039465703557
 20
528.9465753790822
 30
0.0
 10
343.4171332636367
 20
529.1106682346788
 30
0.0
 10
343.4318255007128
 20
529.2402482496809
 30
0.0
 10
343.4391717350611
 20
529.3050392785828
 30
0.0
  0
LINE
  5
26BF4
330
1E
100
AcDbEntity
  8
13
100
AcDbLine
 10
348.4391706919542
 20
579.1980832138643
 30
0.0
 11
342.9573538637091
 21
578.9107925513267
 31
0.0
  0
LINE
  5
26BF5
330
1E
100
AcDbEntity
  8
13
100
AcDbLine
 10
347.4601588136686
 20
584.3060522595557
 30
0.0
 11
348.4391706919542
 21
584.2547438361632
 31
0.0
  0
LINE
  5
26BF6
330
1E
100
AcDbEntity
  8
13
100
AcDbLine
 10
350.9478966629533
 20
537.8574787893717
 30
0.0
 11
343.4391717350797
 21
537.7264156261353
 31
0.0
  0
LINE
  5
26BF7
330
1E
100
AcDbEntity
  8
13
100
AcDbLine
 10
343.4391717350797
 20
540.2264132420397
 30
0.0
 11
350.9478966629533
 21
540.0953500785798
 31
0.0
  0
LINE
  5
26BF8
330
1E
100
AcDbEntity
  8
13
100
AcDbLine
 10
355.9435333049247
 20
574.9720878223687
 30
0.0
 11
343.4391717350797
 21
574.8629666187658
 31
0.0
  0
ARC
  5
26BF9
330
1E
100
AcDbEntity
  8
13
100
AcDbCircle
 10
350.9392047758899
 20
538.3573937069882
 30
0.0
 40
0.4999664079602952
100
AcDbArc
 50
315.4983478595032
 51
0.0013281828979506
  0
ARC
  5
26BFA
330
1E
100
AcDbEntity
  8
13
100
AcDbCircle
 10
350.9391626928684
 20
538.3574111570383
 30
0.0
 40
0.5000086542669432
100
AcDbArc
 50
271.0008728288025
 51
315.5003017807975
  0
ARC
  5
26BFB
330
1E
100
AcDbEntity
  8
13
100
AcDbCircle
 10
350.9391628142868
 20
539.5954179939994
 30
0.0
 40
0.5000083693687332
100
AcDbArc
 50
0.0006390942001118
 51
88.99914052710128
  0
LINE
  5
26BFC
330
1E
100
AcDbEntity
  8
13
100
AcDbLine
 10
351.4391711836653
 20
539.5954235711998
 30
0.0
 11
351.4391711836653
 21
538.3574052969752
 31
0.0
  0
ARC
  5
26BFD
330
1E
100
AcDbEntity
  8
13
100
AcDbCircle
 10
355.9391639752532
 20
575.472080061648
 30
0.0
 40
0.500011330355008
100
AcDbArc
 50
270.5006833174991
 51
315.2498516891027
  0
ARC
  5
26BFE
330
1E
100
AcDbEntity
  8
13
100
AcDbCircle
 10
355.9391849209484
 20
575.4720641026079
 30
0.0
 40
0.499985219671965
100
AcDbArc
 50
315.2494606632972
 51
0.0006997727006028
  0
LINE
  5
26BFF
330
1E
100
AcDbEntity
  8
13
100
AcDbLine
 10
356.4355845486422
 20
576.0405420579892
 30
0.0
 11
356.4391701405397
 21
575.980758599386
 31
0.0
  0
LINE
  5
26C00
330
1E
100
AcDbEntity
  8
13
100
AcDbLine
 10
356.4391701405397
 20
575.4720702090856
 30
0.0
 11
356.4391701405397
 21
575.980758599386
 31
0.0
  0
ARC
  5
26C01
330
1E
100
AcDbEntity
  8
13
100
AcDbCircle
 10
370.3930747503436
 20
573.9576053458952
 30
0.0
 40
2.442398458676377
100
AcDbArc
 50
50.49885440040235
 51
100.571096933903
  0
LINE
  5
26C02
330
1E
100
AcDbEntity
  8
13
100
AcDbLine
 10
365.3474177157684
 20
576.3986728408197
 30
0.0
 11
369.9450033641621
 21
576.3585514644606
 31
0.0
  0
LINE
  5
26C03
330
1E
100
AcDbEntity
  8
13
100
AcDbLine
 10
371.9466688966542
 20
575.8421889761104
 30
0.0
 11
371.9466688966542
 21
575.6106398323614
 31
0.0
  0
ARC
  5
26C04
330
1E
100
AcDbEntity
  8
13
100
AcDbCircle
 10
370.3930769642746
 20
577.495214879877
 30
0.0
 40
2.442390427803428
100
AcDbArc
 50
259.428815071203
 51
309.5012335945008
  0
LINE
  5
26C05
330
1E
100
AcDbEntity
  8
13
100
AcDbLine
 10
369.9450033641621
 20
575.0942773440112
 30
0.0
 11
355.9435333049247
 21
574.9720878223687
 31
0.0
  0
LINE
  5
26C06
330
1E
100
AcDbEntity
  8
13
100
AcDbLine
 10
343.4391717350797
 20
578.9360462943305
 30
0.0
 11
343.4391717350797
 21
579.5592836358255
 31
0.0
  0
LINE
  5
26C07
330
1E
100
AcDbEntity
  8
13
100
AcDbLine
 10
374.4392494594583
 20
574.1871430792627
 30
0.0
 11
374.4392494594583
 21
576.3193316080684
 31
0.0
  0
LINE
  5
26C08
330
1E
100
AcDbEntity
  8
13
100
AcDbLine
 10
374.4392494594583
 20
576.3193316080684
 30
0.0
 11
369.9450033641621
 21
576.3585514644606
 31
0.0
  0
LINE
  5
26C09
330
1E
100
AcDbEntity
  8
13
100
AcDbLine
 10
376.4391715561941
 20
574.195871434581
 30
0.0
 11
376.4391715561941
 21
576.3018786231681
 31
0.0
  0
LINE
  5
26C0A
330
1E
100
AcDbEntity
  8
13
100
AcDbLine
 10
374.4392494594583
 20
576.3193316080684
 30
0.0
 11
376.4391715561941
 21
576.3018786231681
 31
0.0
  0
LINE
  5
26C0B
330
1E
100
AcDbEntity
  8
13
100
AcDbLine
 10
348.4391706919542
 20
579.3242662467862
 30
0.0
 11
348.3125201350237
 21
579.1914484719264
 31
0.0
  0
LINE
  5
26C0C
330
1E
100
AcDbEntity
  8
13
100
AcDbLine
 10
348.0175479238582
 20
579.1759885171534
 30
0.0
 11
347.4460362381372
 21
579.7475002028741
 31
0.0
  0
ARC
  5
26C0D
330
1E
100
AcDbEntity
  8
13
100
AcDbCircle
 10
345.2377480577041
 20
581.7415882282946
 30
0.0
 40
2.975386317731365
100
AcDbArc
 50
317.9179093736005
 51
49.42097053960313
  0
LINE
  5
26C0E
330
1E
100
AcDbEntity
  8
13
100
AcDbLine
 10
378.5391735769287
 20
538.1764157930579
 30
0.0
 11
378.5391735769287
 21
530.276416174531
 31
0.0
  0
LINE
  5
26C0F
330
1E
100
AcDbEntity
  8
13
100
AcDbLine
 10
379.470116171831
 20
576.734872839661
 30
0.0
 11
379.4478985405792
 21
576.7350665549193
 31
0.0
  0
LINE
  5
26C10
330
1E
100
AcDbEntity
  8
13
100
AcDbLine
 10
379.4478985405792
 20
576.7350665549193
 30
0.0
 11
367.9304446017724
 21
576.8355748871665
 31
0.0
  0
ARC
  5
26C11
330
1E
100
AcDbEntity
  8
13
100
AcDbCircle
 10
379.461426297676
 20
575.734872544053
 30
0.0
 40
1.000038051997635
100
AcDbArc
 50
0.0020351895997867
 51
89.50211956470218
  0
ARC
  5
26C12
330
1E
100
AcDbEntity
  8
13
100
AcDbCircle
 10
367.939175825295
 20
577.8355416643405
 30
0.0
 40
1.000004895007277
100
AcDbArc
 50
180.0001148018005
 51
269.4997338291973
  0
LINE
  5
26C13
330
1E
100
AcDbEntity
  8
13
100
AcDbLine
 10
366.9391709303188
 20
597.5248947064151
 30
0.0
 11
366.9391709303188
 21
577.8355396608238
 31
0.0
  0
ARC
  5
26C14
330
1E
100
AcDbEntity
  8
13
100
AcDbCircle
 10
367.9391699345976
 20
539.7373269239579
 30
0.0
 40
0.4999979913239975
100
AcDbArc
 50
180.0025148795992
 51
269.7480544091989
  0
ARC
  5
26C15
330
1E
100
AcDbEntity
  8
0
  6
SLD-実線
 62
     7
370
    30
100
AcDbCircle
 10
386.9391708999082
 20
570.7220678801093
 30
0.0
 40
0.4999977047852543
100
AcDbArc
 50
180.0021168534998
 51
269.4979246435017
  0
LINE
  5
26C16
330
1E
100
AcDbEntity
  8
13
100
AcDbLine
 10
367.4391719437046
 20
539.7373273291337
 30
0.0
 11
367.4391719437046
 21
539.7373049773989
 31
0.0
  0
LINE
  5
26C17
330
1E
100
AcDbEntity
  8
13
100
AcDbLine
 10
367.4391719437046
 20
541.7264162817505
 30
0.0
 11
367.4391719437046
 21
539.7373273291337
 31
0.0
  0
LINE
  5
26C18
330
1E
100
AcDbEntity
  8
13
100
AcDbLine
 10
370.4391742980606
 20
539.2264112152678
 30
0.0
 11
367.9369899367711
 21
539.2373337665493
 31
0.0
  0
LINE
  5
26C19
330
1E
100
AcDbEntity
  8
13
100
AcDbLine
 10
367.9369899367711
 20
539.2373337665493
 30
0.0
 11
367.9369713103255
 21
539.2373337665493
 31
0.0
  0
LINE
  5
26C1A
330
1E
100
AcDbEntity
  8
0
  6
SLD-実線
 62
     7
370
    30
100
AcDbLine
 10
386.4391731954553
 20
572.2264147618949
 30
0.0
 11
386.4391731954553
 21
570.7220680335033
 31
0.0
  0
LINE
  5
26C1B
330
1E
100
AcDbEntity
  8
0
  6
SLD-実線
 62
     7
370
    30
100
AcDbLine
 10
386.4391731954553
 20
570.7220494070577
 30
0.0
 11
386.4391731954553
 21
570.7220680335033
 31
0.0
  0
LINE
  5
26C1C
330
1E
100
AcDbEntity
  8
0
  6
SLD-実線
 62
     7
370
    30
100
AcDbLine
 10
386.9348081684258
 20
570.2220893720757
 30
0.0
 11
386.9347895419803
 21
570.2220893720757
 31
0.0
  0
LINE
  5
26C1D
330
1E
100
AcDbEntity
  8
13
100
AcDbLine
 10
386.9348081684258
 20
570.2220893720757
 30
0.0
 11
412.9435296093748
 21
569.9951148847094
 31
0.0
  0
LINE
  5
26C1E
330
1E
100
AcDbEntity
  8
13
100
AcDbLine
 10
412.9435296093748
 20
569.9951148847094
 30
0.0
 11
412.9435519611093
 21
569.9951148847094
 31
0.0
  0
ARC
  5
26C1F
330
1E
100
AcDbEntity
  8
13
100
AcDbCircle
 10
379.4614044626966
 20
575.7348881529249
 30
0.0
 40
1.000022633546082
100
AcDbArc
 50
0.001140910401975
 51
89.500860822403
  0
LINE
  5
26C20
330
1E
100
AcDbEntity
  8
0
  6
SLD-実線
 62
     7
370
    30
100
AcDbLine
 10
386.4391731954553
 20
573.9873334088902
 30
0.0
 11
386.4391731954553
 21
572.2264147618949
 31
0.0
  0
LINE
  5
26C21
330
1E
100
AcDbEntity
  8
0
  6
SLD-実線
 62
     7
370
    30
100
AcDbLine
 10
386.4391731954553
 20
575.9264140644652
 30
0.0
 11
386.4391731954553
 21
573.9873334088902
 31
0.0
  0
ARC
  5
26C22
330
1E
100
AcDbEntity
  8
13
100
AcDbCircle
 10
380.4204320690814
 20
567.5285689841196
 30
0.0
 40
0.0211236945490667
100
AcDbArc
 50
274.7800876823973
 51
332.5187850074045
  0
LINE
  5
26C23
330
1E
100
AcDbEntity
  8
13
100
AcDbLine
 10
380.4391722118093
 20
567.518821291087
 30
0.0
 11
380.4391722118093
 21
567.6995090463621
 31
0.0
  0
ARC
  5
26C24
330
1E
100
AcDbEntity
  8
13
100
AcDbCircle
 10
379.4391738000883
 20
575.7351062042044
 30
0.0
 40
0.9999984118914916
100
AcDbArc
 50
359.9997465748002
 51
89.50010205619911
  0
LINE
  5
26C25
330
1E
100
AcDbEntity
  8
13
100
AcDbLine
 10
380.4391722118093
 20
567.6995090463621
 30
0.0
 11
380.4391722118093
 21
575.7351017812617
 31
0.0
  0
ARC
  5
26C26
330
1E
100
AcDbEntity
  8
13
100
AcDbCircle
 10
412.9531295027051
 20
569.5282249259467
 30
0.0
 40
0.4669881827082432
100
AcDbArc
 50
353.2103515308913
 51
91.17517145386527
  0
LINE
  5
26C27
330
1E
100
AcDbEntity
  8
13
100
AcDbLine
 10
413.4391720331471
 20
569.4951324977687
 30
0.0
 11
413.4391720331471
 21
569.4951511242146
 31
0.0
  0
ARC
  5
26C28
330
1E
100
AcDbEntity
  8
13
100
AcDbCircle
 10
412.4391542841346
 20
540.5929965858098
 30
0.0
 40
1.000017749135226
100
AcDbArc
 50
270.5007827885983
 51
359.9991532664981
  0
LINE
  5
26C29
330
1E
100
AcDbEntity
  8
13
100
AcDbLine
 10
370.4391742980606
 20
539.2264112152678
 30
0.0
 11
412.4478946364042
 21
539.5930170337567
 31
0.0
  0
LINE
  5
26C2A
330
1E
100
AcDbEntity
  8
13
100
AcDbLine
 10
382.4391539131713
 20
539.3311365761424
 30
0.0
 11
370.4479175543117
 21
539.226493171852
 31
0.0
  0
LINE
  5
26C2B
330
1E
100
AcDbEntity
  8
13
100
AcDbLine
 10
380.4391722118093
 20
572.2395054318924
 30
0.0
 11
343.9369897281462
 21
572.3987764933002
 31
0.0
  0
LINE
  5
26C2C
330
1E
100
AcDbEntity
  8
13
100
AcDbLine
 10
344.4348077214363
 20
574.0562252023021
 30
0.0
 11
380.4391722118093
 21
574.2133244194812
 31
0.0
  0
ARC
  5
26C2D
330
1E
100
AcDbEntity
  8
13
100
AcDbCircle
 10
344.439173881034
 20
573.0562325880343
 30
0.0
 40
1.000002146035664
100
AcDbArc
 50
90.25016278180066
 51
179.9998989505978
  0
ARC
  5
26C2E
330
1E
100
AcDbEntity
  8
13
100
AcDbCircle
 10
343.93916790559
 20
572.8987679195451
 30
0.0
 40
0.4999961706341577
100
AcDbArc
 50
179.9997551640997
 51
269.7503965471976
  0
LINE
  5
26C2F
330
1E
100
AcDbEntity
  8
13
100
AcDbLine
 10
380.4221923386273
 20
567.507518760315
 30
0.0
 11
380.4221923386273
 21
567.4761853436762
 31
0.0
  0
LWPOLYLINE
  5
26C30
330
1E
100
AcDbEntity
  8
13
100
AcDbPolyline
 90
        8
 70
   128
 43
0.0
 10
379.9435186123933
 20
567.4697145142362
 10
380.0342741345905
 20
567.4709438600936
 10
380.122015896994
 20
567.4721285024814
 10
380.2038307226164
 20
567.4732349135735
 10
380.2769916987032
 20
567.4742221156383
 10
380.3390773868776
 20
567.4750603059144
 10
380.3880165254946
 20
567.4757234076016
 10
380.4221923386273
 20
567.4761853436762
  0
LWPOLYLINE
  5
26C31
330
1E
100
AcDbEntity
  8
13
100
AcDbPolyline
 90
        9
 70
   128
 43
0.0
 10
343.4391717350797
 20
566.9764152982159
 10
343.4487792586307
 20
566.9765456835587
 10
343.4772311634635
 20
566.9769293883383
 10
343.5234359389705
 20
566.9775515118451
 10
343.5856184846622
 20
566.9783934274097
 10
343.6613853013839
 20
566.9794178823657
 10
343.7478288000813
 20
566.9805838980842
 10
343.8416260219641
 20
566.9818542221219
 10
343.9391708855975
 20
566.9831692496289
  0
LINE
  5
26C32
330
1E
100
AcDbEntity
  8
13
100
AcDbLine
 10
367.4391719437046
 20
541.7264162817505
 30
0.0
 11
344.4348077214363
 21
541.8267905035897
 31
0.0
  0
LINE
  5
26C33
330
1E
100
AcDbEntity
  8
13
100
AcDbLine
 10
379.9435186123933
 20
567.4697145142362
 30
0.0
 11
343.9391708855975
 21
566.9831692496289
 31
0.0
  0
ARC
  5
26C34
330
1E
100
AcDbEntity
  8
13
100
AcDbCircle
 10
344.4391640763235
 20
542.8267733558556
 30
0.0
 40
0.9999923412683315
100
AcDbArc
 50
179.9997551640997
 51
269.7503965471976
  0
LINE
  5
26C35
330
1E
100
AcDbEntity
  8
13
100
AcDbLine
 10
370.4391742980606
 20
529.226405850941
 30
0.0
 11
370.4391742980606
 21
535.528337887844
 31
0.0
  0
LINE
  5
26C36
330
1E
100
AcDbEntity
  8
13
100
AcDbLine
 10
370.4391742980606
 20
535.528337887844
 30
0.0
 11
368.4348079300611
 21
535.5259909550267
 31
0.0
  0
LINE
  5
26C37
330
1E
100
AcDbEntity
  8
13
100
AcDbLine
 10
370.4391742980606
 20
529.226376048628
 30
0.0
 11
370.4391742980606
 21
529.226405850941
 31
0.0
  0
ARC
  5
26C38
330
1E
100
AcDbEntity
  8
13
100
AcDbCircle
 10
255.5353902743679
 20
528.7263936619113
 30
0.0
 40
114.9048718086132
100
AcDbArc
 50
359.7506896745007
 51
0.2493103254994406
  0
LINE
  5
26C39
330
1E
100
AcDbEntity
  8
13
100
AcDbLine
 10
370.4391742980606
 20
528.2264112749706
 30
0.0
 11
368.4348079300611
 21
528.2351582565111
 31
0.0
  0
LINE
  5
26C3A
330
1E
100
AcDbEntity
  8
13
100
AcDbLine
 10
376.9435348844829
 20
528.2831772484914
 30
0.0
 11
370.4391742980606
 21
528.2264112749706
 31
0.0
  0
LINE
  5
26C3B
330
1E
100
AcDbEntity
  8
13
100
AcDbLine
 10
376.9435348844829
 20
535.5131312527311
 30
0.0
 11
370.4391742980606
 21
535.528337887844
 31
0.0
  0
LINE
  5
26C3C
330
1E
100
AcDbEntity
  8
13
100
AcDbLine
 10
370.4391742980606
 20
535.528337887844
 30
0.0
 11
370.4391742980606
 21
538.1264149465944
 31
0.0
  0
LINE
  5
26C3D
330
1E
100
AcDbEntity
  8
13
100
AcDbLine
 10
376.9435348844829
 20
538.111208311705
 30
0.0
 11
370.4391742980606
 21
538.1264149465944
 31
0.0
  0
LINE
  5
26C3E
330
1E
100
AcDbEntity
  8
13
100
AcDbLine
 10
370.4391742980606
 20
538.1264149465944
 30
0.0
 11
368.4348079300611
 21
538.1240680137771
 31
0.0
  0
ARC
  5
26C3F
330
1E
100
AcDbEntity
  8
13
100
AcDbCircle
 10
368.4391770710086
 20
529.2351538391591
 30
0.0
 40
1.00000512731618
100
AcDbArc
 50
180.0000576762979
 51
269.7496671483999
  0
ARC
  5
26C40
330
1E
100
AcDbEntity
  8
13
100
AcDbCircle
 10
368.204732348797
 20
534.3971359886693
 30
0.0
 40
1.152062631962254
100
AcDbArc
 50
78.48014336489804
 51
131.6449622381024
  0
ARC
  5
26C41
330
1E
100
AcDbEntity
  8
13
100
AcDbCircle
 10
368.204732348797
 20
536.9952130474196
 30
0.0
 40
1.152062631962383
100
AcDbArc
 50
78.48014336489804
 51
131.6449622381024
  0
LINE
  5
26C42
330
1E
100
AcDbEntity
  8
13
100
AcDbLine
 10
367.4391719437046
 20
535.2580457249338
 30
0.0
 11
367.4391719437046
 21
537.8561227836843
 31
0.0
  0
LINE
  5
26C43
330
1E
100
AcDbEntity
  8
13
100
AcDbLine
 10
367.4391719437046
 20
529.2351528324814
 30
0.0
 11
367.4391719437046
 21
535.2580457249338
 31
0.0
  0
LINE
  5
26C44
330
1E
100
AcDbEntity
  8
13
100
AcDbLine
 10
377.4391735827423
 20
537.9772319712578
 30
0.0
 11
377.4391735827423
 21
535.3791623630857
 31
0.0
  0
ARC
  5
26C45
330
1E
100
AcDbEntity
  8
13
100
AcDbCircle
 10
377.0575671338278
 20
534.9511806693441
 30
0.0
 40
0.5734037078780087
100
AcDbArc
 50
48.27846360959647
 51
101.4708318101989
  0
ARC
  5
26C46
330
1E
100
AcDbEntity
  8
13
100
AcDbCircle
 10
377.0575674627533
 20
537.5492827454459
 30
0.0
 40
0.5733792557126725
100
AcDbArc
 50
48.27632895930165
 51
101.4713611758989
  0
LINE
  5
26C47
330
1E
100
AcDbEntity
  8
13
100
AcDbLine
 10
377.4391735827423
 20
529.2831420221482
 30
0.0
 11
377.4391735827423
 21
528.7831559101426
 31
0.0
  0
ARC
  5
26C48
330
1E
100
AcDbEntity
  8
13
100
AcDbCircle
 10
376.9391711914916
 20
528.7831605978351
 30
0.0
 40
0.5000023913092483
100
AcDbArc
 50
270.5000463344009
 51
359.9994628335001
  0
LINE
  5
26C49
330
1E
100
AcDbEntity
  8
13
100
AcDbLine
 10
377.4391735827423
 20
535.3791623630857
 30
0.0
 11
377.4391735827423
 21
529.2831420221482
 31
0.0
  0
LINE
  5
26C4A
330
1E
100
AcDbEntity
  8
13
100
AcDbLine
 10
370.4391742980606
 20
538.1264149465944
 30
0.0
 11
370.4391742980606
 21
539.2264112152678
 31
0.0
  0
LINE
  5
26C4B
330
1E
100
AcDbEntity
  8
13
100
AcDbLine
 10
367.4391719437046
 20
537.8561227836843
 30
0.0
 11
367.4391719437046
 21
539.7373273291337
 31
0.0
  0
LINE
  5
26C4C
330
1E
100
AcDbEntity
  8
13
100
AcDbLine
 10
377.4391735827423
 20
539.287520877469
 30
0.0
 11
377.4391735827423
 21
537.9772319712578
 31
0.0
  0
LINE
  5
26C4D
330
1E
100
AcDbEntity
  8
0
  6
SLD-実線
 62
     7
370
    30
100
AcDbLine
 10
366.4391736424456
 20
584.1522368856316
 30
0.0
 11
366.9391709303188
 21
584.1544180433062
 31
0.0
  0
LINE
  5
26C4E
330
1E
100
AcDbEntity
  8
13
100
AcDbLine
 10
345.9391712136286
 20
579.0670647540974
 30
0.0
 11
345.9391712136286
 21
582.6362430372244
 31
0.0
  0
LINE
  5
26C4F
330
1E
100
AcDbEntity
  8
0
  6
SLD-実線
 62
     7
370
    30
100
AcDbLine
 10
366.9391709303188
 20
584.1871428558795
 30
0.0
 11
366.4391736424456
 21
584.1915070334269
 31
0.0
  0
LINE
  5
26C50
330
1E
100
AcDbEntity
  8
13
100
AcDbLine
 10
345.9391469990257
 20
582.6362169602004
 30
0.0
 11
345.9391469990257
 21
579.0670647540974
 31
0.0
  0
LINE
  5
26C51
330
1E
100
AcDbEntity
  8
0
  6
SLD-実線
 62
     7
370
    30
100
AcDbLine
 10
366.9391709303188
 20
594.8616865345152
 30
0.0
 11
366.4391736424456
 21
594.8354828425618
 31
0.0
  0
LINE
  5
26C52
330
1E
100
AcDbEntity
  8
13
100
AcDbLine
 10
338.039171595102
 20
570.8083345809678
 30
0.0
 11
338.039171595102
 21
569.8917492548114
 31
0.0
  0
LINE
  5
26C53
330
1E
100
AcDbEntity
  8
13
100
AcDbLine
 10
338.039171595102
 20
565.561095557422
 30
0.0
 11
338.039171595102
 21
563.3264131168195
 31
0.0
  0
LINE
  5
26C54
330
1E
100
AcDbEntity
  8
13
100
AcDbLine
 10
338.039171595102
 20
569.8917492548114
 30
0.0
 11
338.039171595102
 21
565.561095557422
 31
0.0
  0
LINE
  5
26C55
330
1E
100
AcDbEntity
  8
24
100
AcDbLine
 10
395.4063157476082
 20
592.7750489929755
 30
0.0
 11
390.9391711389437
 21
592.7750489929755
 31
0.0
  0
LINE
  5
26C56
330
1E
100
AcDbEntity
  8
24
100
AcDbLine
 10
390.9391711389437
 20
583.6667626418702
 30
0.0
 11
395.4063157476082
 21
583.6667626418702
 31
0.0
  0
LINE
  5
26C57
330
1E
100
AcDbEntity
  8
13
100
AcDbLine
 10
354.0120503789723
 20
575.9982413868227
 30
0.0
 11
356.0151985769818
 21
575.980758599386
 31
0.0
  0
LWPOLYLINE
  5
26C58
330
1E
100
AcDbEntity
  8
13
100
AcDbPolyline
 90
        3
 70
   128
 43
0.0
 10
356.0151985769818
 20
575.980758599386
 10
356.0152507310296
 20
576.0297238150265
 10
356.0152265166504
 20
576.0332069614727
  0
LINE
  5
26C59
330
1E
100
AcDbEntity
  8
13
100
AcDbLine
 10
356.0151985769818
 20
575.980758599386
 30
0.0
 11
356.4391701405397
 21
575.980758599386
 31
0.0
  0
LINE
  5
26C5A
330
1E
100
AcDbEntity
  8
13
100
AcDbLine
 10
380.4614643490672
 20
575.734908066004
 30
0.0
 11
380.4614270961758
 21
575.734908066004
 31
0.0
  0
LINE
  5
26C5B
330
1E
100
AcDbEntity
  8
13
100
AcDbLine
 10
413.4168426429979
 20
569.4730154493234
 30
0.0
 11
413.4391720331604
 21
540.5929818072602
 31
0.0
  0
LINE
  5
26C5C
330
1E
100
AcDbEntity
  8
0
  6
SLD-実線
 62
     8
370
     0
100
AcDbLine
 10
412.4478946364042
 20
539.5930170337567
 30
0.0
 11
412.4478052294653
 21
539.6035298027876
 31
0.0
  0
LINE
  5
26C5D
330
1E
100
AcDbEntity
  8
24
100
AcDbLine
 10
391.6391713752961
 20
554.3289141956611
 30
0.0
 11
391.6391713752961
 21
551.2264141954989
 31
0.0
  0
LINE
  5
26C5E
330
1E
100
AcDbEntity
  8
24
100
AcDbLine
 10
388.1423621395415
 20
563.2264141954989
 30
0.0
 11
391.6391713752961
 21
563.2264141954989
 31
0.0
  0
LINE
  5
26C5F
330
1E
100
AcDbEntity
  8
24
100
AcDbLine
 10
391.6391713752961
 20
563.2264141954989
 30
0.0
 11
391.6391713752961
 21
560.1239141955606
 31
0.0
  0
LINE
  5
26C60
330
1E
100
AcDbEntity
  8
24
100
AcDbLine
 10
389.2486518711839
 20
551.2264141954989
 30
0.0
 11
391.6391713752961
 21
551.2264141954989
 31
0.0
  0
LINE
  5
26C61
330
1E
100
AcDbEntity
  8
17
100
AcDbLine
 10
377.8385793740838
 20
557.2264141954989
 30
0.0
 11
416.0635539822465
 21
557.2264141954989
 31
0.0
  0
LINE
  5
26C62
330
1E
100
AcDbEntity
  8
24
100
AcDbLine
 10
391.6391713752961
 20
560.1239141955606
 30
0.0
 11
411.6391713752959
 21
560.1239141955606
 31
0.0
  0
LINE
  5
26C63
330
1E
100
AcDbEntity
  8
24
100
AcDbLine
 10
411.6391713752959
 20
560.1239141955606
 30
0.0
 11
411.6391713752959
 21
554.3289141956611
 31
0.0
  0
LINE
  5
26C64
330
1E
100
AcDbEntity
  8
24
100
AcDbLine
 10
391.6391713752961
 20
554.3289141956611
 30
0.0
 11
411.6391713752959
 21
554.3289141956611
 31
0.0
  0
LINE
  5
26C65
330
1E
100
AcDbEntity
  8
24
100
AcDbLine
 10
401.4391713752961
 20
574.9264141954987
 30
0.0
 11
390.6391713752961
 21
574.9264141954987
 31
0.0
  0
LINE
  5
26C66
330
1E
100
AcDbEntity
  8
24
100
AcDbLine
 10
401.4391713752961
 20
571.7264141954989
 30
0.0
 11
390.6391713752961
 21
571.7264141954989
 31
0.0
  0
LINE
  5
26C67
330
1E
100
AcDbEntity
  8
24
100
AcDbLine
 10
401.4391713752961
 20
574.9264141954987
 30
0.0
 11
401.4391713752961
 21
571.7264141954989
 31
0.0
  0
LINE
  5
26C68
330
1E
100
AcDbEntity
  8
13
100
AcDbLine
 10
390.1650824876035
 20
568.2487057860383
 30
0.0
 11
413.4391332975194
 21
568.2487057860383
 31
0.0
  0
LINE
  5
26C69
330
1E
100
AcDbEntity
  8
24
100
AcDbLine
 10
391.6391713752961
 20
566.7915453831093
 30
0.0
 11
391.6391713752961
 21
544.3109172481131
 31
0.0
  0
LINE
  5
26C6A
330
1E
100
AcDbEntity
  8
24
100
AcDbLine
 10
391.6391713752961
 20
566.7915453831093
 30
0.0
 11
394.6391713752961
 21
566.7915453831093
 31
0.0
  0
LINE
  5
26C6B
330
1E
100
AcDbEntity
  8
24
100
AcDbLine
 10
394.6391713752961
 20
566.7915453831093
 30
0.0
 11
394.6391713752961
 21
544.3109172481131
 31
0.0
  0
LINE
  5
26C6C
330
1E
100
AcDbEntity
  8
24
100
AcDbLine
 10
391.6391713752961
 20
544.3109172481131
 30
0.0
 11
394.6391713752961
 21
544.3109172481131
 31
0.0
  0
LINE
  5
26C6D
330
1E
100
AcDbEntity
  8
24
100
AcDbLine
 10
394.6391713752961
 20
562.2264141954989
 30
0.0
 11
394.6391713752961
 21
552.2264141954989
 31
0.0
  0
LINE
  5
26C6E
330
1E
100
AcDbEntity
  8
24
100
AcDbLine
 10
394.6391713752961
 20
562.2264141954989
 30
0.0
 11
395.9391713752961
 21
562.2264141954989
 31
0.0
  0
LINE
  5
26C6F
330
1E
100
AcDbEntity
  8
24
100
AcDbLine
 10
395.9391713752961
 20
562.2264141954989
 30
0.0
 11
395.9391713752961
 21
552.2264141954989
 31
0.0
  0
LINE
  5
26C70
330
1E
100
AcDbEntity
  8
24
100
AcDbLine
 10
394.6391713752961
 20
552.2264141954989
 30
0.0
 11
395.9391713752961
 21
552.2264141954989
 31
0.0
  0
LINE
  5
26C71
330
1E
100
AcDbEntity
  8
24
100
AcDbLine
 10
395.9391713752961
 20
561.8264141954988
 30
0.0
 11
395.9391713752961
 21
552.6264141954991
 31
0.0
  0
LINE
  5
26C72
330
1E
100
AcDbEntity
  8
24
100
AcDbLine
 10
395.9391713752961
 20
561.8264141954988
 30
0.0
 11
396.9391713752961
 21
561.8264141954988
 31
0.0
  0
LINE
  5
26C73
330
1E
100
AcDbEntity
  8
24
100
AcDbLine
 10
396.9391713752961
 20
561.8264141954988
 30
0.0
 11
396.9391713752961
 21
552.6264141954991
 31
0.0
  0
LINE
  5
26C74
330
1E
100
AcDbEntity
  8
24
100
AcDbLine
 10
395.9391713752961
 20
552.6264141954991
 30
0.0
 11
396.9391713752961
 21
552.6264141954991
 31
0.0
  0
LINE
  5
26C75
330
1E
100
AcDbEntity
  8
24
100
AcDbLine
 10
396.9391713752961
 20
561.2264141954989
 30
0.0
 11
396.9391713752961
 21
553.2264141954989
 31
0.0
  0
LINE
  5
26C76
330
1E
100
AcDbEntity
  8
24
100
AcDbLine
 10
396.9391713752961
 20
561.2264141954989
 30
0.0
 11
401.6391713752961
 21
561.2264141954989
 31
0.0
  0
LINE
  5
26C77
330
1E
100
AcDbEntity
  8
24
100
AcDbLine
 10
401.6391713752961
 20
561.2264141954989
 30
0.0
 11
401.6391713752961
 21
553.2264141954989
 31
0.0
  0
LINE
  5
26C78
330
1E
100
AcDbEntity
  8
24
100
AcDbLine
 10
396.9391713752961
 20
553.2264141954989
 30
0.0
 11
401.6391713752961
 21
553.2264141954989
 31
0.0
  0
LINE
  5
26C79
330
1E
100
AcDbEntity
  8
24
100
AcDbLine
 10
380.9956968170052
 20
583.4764141956107
 30
0.0
 11
382.2391713752963
 21
583.4764141956107
 31
0.0
  0
LINE
  5
26C7A
330
1E
100
AcDbEntity
  8
24
100
AcDbLine
 10
382.2391713752963
 20
592.9764141956106
 30
0.0
 11
380.9956968170052
 21
592.9764141956106
 31
0.0
  0
LINE
  5
26C7B
330
1E
100
AcDbEntity
  8
24
100
AcDbLine
 10
382.4391713752963
 20
593.2264141954987
 30
0.0
 11
382.4391713752963
 21
583.2264141954986
 31
0.0
  0
LINE
  5
26C7C
330
1E
100
AcDbEntity
  8
24
100
AcDbLine
 10
395.6059030868675
 20
590.7264141954986
 30
0.0
 11
383.4391713752961
 21
590.7264141954986
 31
0.0
  0
LINE
  5
26C7D
330
1E
100
AcDbEntity
  8
24
100
AcDbLine
 10
383.4391713752961
 20
585.7264141954987
 30
0.0
 11
395.802709097765
 21
585.7264141954987
 31
0.0
  0
LINE
  5
26C7E
330
1E
100
AcDbEntity
  8
24
100
AcDbLine
 10
383.4391713752961
 20
593.2264141954987
 30
0.0
 11
382.4391713752963
 21
593.2264141954987
 31
0.0
  0
LINE
  5
26C7F
330
1E
100
AcDbEntity
  8
24
100
AcDbLine
 10
382.4391713752963
 20
583.2264141954986
 30
0.0
 11
383.4391713752961
 21
583.2264141954986
 31
0.0
  0
LINE
  5
26C80
330
1E
100
AcDbEntity
  8
24
100
AcDbLine
 10
383.4391713752961
 20
583.2264141954986
 30
0.0
 11
383.4391713752961
 21
593.2264141954987
 31
0.0
  0
ARC
  5
26C81
330
1E
100
AcDbEntity
  8
24
100
AcDbCircle
 10
380.9956968170052
 20
591.6764141956106
 30
0.0
 40
1.299999999999745
100
AcDbArc
 50
90.0
 51
149.0075330463973
  0
ARC
  5
26C82
330
1E
100
AcDbEntity
  8
24
100
AcDbCircle
 10
386.7391713752963
 20
588.2264141954987
 30
0.0
 40
7.99999999999849
100
AcDbArc
 50
149.0075330463973
 51
182.2482051777013
  0
ARC
  5
26C83
330
1E
100
AcDbEntity
  8
24
100
AcDbCircle
 10
380.9956968170052
 20
584.7764141956106
 30
0.0
 40
1.29999999999974
100
AcDbArc
 50
210.9924669536027
 51
270.0
  0
ARC
  5
26C84
330
1E
100
AcDbEntity
  8
24
100
AcDbCircle
 10
386.7391713752963
 20
588.2264141954987
 30
0.0
 40
7.99999999999849
100
AcDbArc
 50
182.2482051777013
 51
210.9924669536027
  0
ARC
  5
26C85
330
1E
100
AcDbEntity
  8
24
100
AcDbCircle
 10
382.2391713752963
 20
592.7764141956106
 30
0.0
 40
0.1999999999999457
100
AcDbArc
 50
0.0
 51
90.0
  0
ARC
  5
26C86
330
1E
100
AcDbEntity
  8
24
100
AcDbCircle
 10
382.2391713752963
 20
583.6764141956107
 30
0.0
 40
0.1999999999999616
100
AcDbArc
 50
270.0
 51
0.0
  0
SPLINE
  5
26C87
330
1E
100
AcDbEntity
  8
13
100
AcDbSpline
210
0.0
220
0.0
230
1.0
 70
     8
 71
     3
 72
     8
 73
     4
 74
     0
 42
0.000000001
 43
0.0000000001
 40
0.0
 40
0.0
 40
0.0
 40
0.0
 40
1.0
 40
1.0
 40
1.0
 40
1.0
 10
391.6526295998751
 20
570.1542609955436
 30
0.0
 10
381.499284025315
 20
558.9288478775728
 30
0.0
 10
396.5752556447416
 20
547.1278681704583
 30
0.0
 10
384.8450842002682
 20
539.3521326922405
 30
0.0
  0
DIMENSION
  5
26C88
330
1E
100
AcDbEntity
  8
30
100
AcDbDimension
280
     0
  2
*D27
 10
391.6391713752961
 20
512.5739388957257
 30
0.0
 11
401.6391713752961
 21
512.5739388957257
 31
0.0
 70
   160
  1
<>
 71
     2
 42
19.99999999999977
 73
     0
 74
     0
 75
     0
  3
STANDARD1
100
AcDbAlignedDimension
 13
411.6391713752959
 23
554.3289141956611
 33
0.0
 14
391.6391713752961
 24
551.2264141957226
 34
0.0
100
AcDbRotatedDimension
  0
DIMENSION
  5
26C89
330
1E
100
AcDbEntity
  8
30
100
AcDbDimension
280
     0
  2
*D28
 10
391.6391713752961
 20
512.5739388957257
 30
0.0
 11
374.4391713752961
 21
512.5739388957257
 31
0.0
 70
   160
  1
<>
 71
     2
 42
5.200000000000041
 73
     0
 74
     0
 75
     0
  3
STANDARD1
100
AcDbAlignedDimension
 13
386.4391713752961
 23
570.7220698008915
 33
0.0
 14
391.6391713752961
 24
551.2264141957226
 34
0.0
100
AcDbRotatedDimension
  0
DIMENSION
  5
26C8A
330
1E
100
AcDbEntity
  8
30
100
AcDbDimension
280
     0
  2
*D29
 10
391.6391713752961
 20
501.393599395728
 30
0.0
 11
379.5391713752962
 21
501.393599395728
 31
0.0
 70
   160
  1
<>
 71
     2
 42
24.19999999999982
 73
     0
 74
     0
 75
     0
  3
STANDARD1
100
AcDbAlignedDimension
 13
367.4391713752963
 23
529.2351504166336
 33
0.0
 14
391.6391713752961
 24
560.1239141955606
 34
0.0
100
AcDbRotatedDimension
  0
DIMENSION
  5
26C8B
330
1E
100
AcDbEntity
  8
30
100
AcDbDimension
280
     0
  2
*D30
 10
386.4391713752961
 20
610.7596785812209
 30
0.0
 11
394.4391713752961
 21
610.7596785812209
 31
0.0
 70
   160
  1
<>
 71
     2
 42
16.0
 73
     0
 74
     0
 75
     0
  3
STANDARD1
100
AcDbAlignedDimension
 13
402.4391713752961
 23
590.2264141954987
 33
0.0
 14
386.4391713752961
 24
572.2264141954989
 34
0.0
100
AcDbRotatedDimension
  0
LINE
  5
26C8C
330
1E
100
AcDbEntity
  8
30
100
AcDbLine
 10
486.4723587316698
 20
571.1490181593571
 30
0.0
 11
418.6424277838042
 21
571.1490181593571
 31
0.0
  0
MTEXT
  5
26C8D
330
1E
100
AcDbEntity
  8
30
  6
Continuous
100
AcDbMText
 10
419.6899734603601
 20
580.0761779288749
 30
0.0
 40
5.0
 41
70.74860822312405
 46
0.0
 71
     1
 72
     5
  1
M5 Mounting screw 
  7
blockfont
 73
     1
 44
1.0
  0
LEADER
  5
26C8E
330
1E
100
AcDbEntity
  8
30
  6
Continuous
100
AcDbLeader
  3
STANDARD
 76
     2
 10
399.8618010020584
 20
587.0396012337619
 30
0.0
 10
418.6424277838042
 20
571.1490181593571
 30
0.0
  0
LINE
  5
26C8F
330
1E
100
AcDbEntity
  8
30
100
AcDbLine
 10
456.1296220727093
 20
542.8507577300701
 30
0.0
 11
418.6424277838042
 21
542.8507577300701
 31
0.0
  0
MTEXT
  5
26C90
330
1E
100
AcDbEntity
  8
30
  6
Continuous
100
AcDbMText
 10
419.6899734603601
 20
551.7282951333312
 30
0.0
 40
5.0
 41
100.0
 46
0.0
 71
     1
 72
     5
  1
M6 Screw
  7
blockfont
 73
     1
 44
1.0
  0
LEADER
  5
26C91
330
1E
100
AcDbEntity
  8
30
  6
Continuous
100
AcDbLeader
  3
STANDARD
 76
     2
 10
407.0056225249681
 20
556.1682646408781
 30
0.0
 10
418.6424277838042
 20
542.8507577300701
 30
0.0
  0
LINE
  5
26C92
330
1E
100
AcDbEntity
  8
17
100
AcDbLine
 10
406.4113075768926
 20
588.2264136590661
 30
0.0
 11
371.2056453263763
 21
588.2264136590661
 31
0.0
  0
LINE
  5
26C93
330
1E
100
AcDbEntity
  8
24
100
AcDbLine
 10
471.2852291395533
 20
449.8202745852299
 30
0.0
 11
471.2852291395533
 21
469.6834390974565
 31
0.0
  0
LINE
  5
26C94
330
1E
100
AcDbEntity
  8
24
100
AcDbLine
 10
471.2852291395533
 20
469.6834390974565
 30
0.0
 11
486.2852291395532
 21
469.6834390974565
 31
0.0
  0
LINE
  5
26C95
330
1E
100
AcDbEntity
  8
24
100
AcDbLine
 10
486.2852291395532
 20
448.0425716780612
 30
0.0
 11
486.2852291395532
 21
469.6834390974565
 31
0.0
  0
CIRCLE
  5
26C96
330
1E
100
AcDbEntity
  8
24
100
AcDbCircle
 10
478.7852291395532
 20
459.6834390974565
 30
0.0
 40
3.249999999999341
  0
SPLINE
  5
26C97
330
1E
100
AcDbEntity
  8
24
100
AcDbSpline
210
0.0
220
0.0
230
1.0
 70
     8
 71
     3
 72
     8
 73
     4
 74
     0
 42
0.000000001
 43
0.0000000001
 40
0.0
 40
0.0
 40
0.0
 40
0.0
 40
1.0
 40
1.0
 40
1.0
 40
1.0
 10
471.2852291395098
 20
449.8202745851918
 30
0.0
 10
476.9175079075266
 20
452.8958054261596
 30
0.0
 10
483.5156406135448
 20
445.9072822119235
 30
0.0
 10
486.285229139507
 20
448.0425716780684
 30
0.0
  0
DIMENSION
  5
26C98
330
1E
100
AcDbEntity
  8
30
  6
Continuous
100
AcDbDimension
280
     0
  2
*D31
 10
466.9698142875049
 20
469.6834390974565
 30
0.0
 11
466.9698142875049
 21
487.9418155642228
 31
0.0
 70
   160
  1
<>\P(MAX.)
 71
     2
 42
9.999999999999943
 73
     0
 74
     0
 75
     0
  3
STANDARD
100
AcDbAlignedDimension
 13
478.7852291395532
 23
459.6834390974565
 33
0.0
 14
471.2852291395533
 24
469.6834390974565
 34
0.0
 50
90.0
100
AcDbRotatedDimension
1001
ACAD
1000
DSTYLE
1002
{
1070
   140
1040
6.0
1002
}
  0
DIMENSION
  5
26C99
330
1E
100
AcDbEntity
  8
30
100
AcDbDimension
280
     0
  2
*D32
 10
486.2852291395532
 20
437.5512135695536
 30
0.0
 11
504.3725639843327
 21
437.5512135695536
 31
0.0
 70
   160
  1
<>\P(MAX.)
 71
     2
 42
15.0
 73
     0
 74
     0
 75
     0
  3
STANDARD
100
AcDbAlignedDimension
 13
471.2852291395533
 23
449.8202745852299
 33
0.0
 14
486.2852291395532
 24
448.0425716780612
 34
0.0
100
AcDbRotatedDimension
  0
INSERT
  5
26C9A
330
1E
100
AcDbEntity
  8
17
100
AcDbBlockReference
  2
SW_CENTERMARKSYMBOL_14
 10
478.7852291395532
 20
459.6834390974565
 30
0.0
 41
2.236067899999567
 42
2.236067899999567
 43
2.236067899999567
  0
LEADER
  5
26C9B
330
1E
100
AcDbEntity
  8
30
100
AcDbLeader
  3
STANDARD
 76
     3
 10
481.0629502491122
 20
462.0017329845783
 30
0.0
 10
493.3496090428201
 20
473.8380025537565
 30
0.0
 10
476.3496090428201
 20
473.8380025537565
 30
0.0
1001
ACAD
1000
DSTYLE
1002
{
1070
   147
1040
2.0
1070
    77
1070
     0
1002
}
  0
MTEXT
  5
26C9C
330
1E
100
AcDbEntity
  8
30
100
AcDbMText
 10
477.3496090428202
 20
481.9243464856413
 30
0.0
 40
6.0
 41
10.0
 46
0.0
 71
     1
 72
     5
  1
%%C6.5
  7
blockfont
 73
     1
 44
1.0
  0
LINE
  5
26C9D
330
1E
100
AcDbEntity
  8
10
100
AcDbLine
 10
345.1333629159754
 20
481.0805431804054
 30
0.0
 11
346.2333618768743
 21
481.0805431804054
 31
0.0
  0
LINE
  5
26C9E
330
1E
100
AcDbEntity
  8
10
100
AcDbLine
 10
346.2333618768743
 20
488.9805353796588
 30
0.0
 11
345.1333629159754
 21
488.9805353796588
 31
0.0
  0
LINE
  5
26C9F
330
1E
100
AcDbEntity
  8
10
100
AcDbLine
 10
345.1333629159754
 20
321.0806970203127
 30
0.0
 11
346.2333618768743
 21
321.0806970203127
 31
0.0
  0
LINE
  5
26CA0
330
1E
100
AcDbEntity
  8
10
100
AcDbLine
 10
346.2333618768743
 20
328.9806892195661
 30
0.0
 11
345.1333629159754
 21
328.9806892195661
 31
0.0
  0
LINE
  5
26CA1
330
1E
100
AcDbEntity
  8
10
  6
SLD-実線
 62
     7
370
    30
100
AcDbLine
 10
234.1334694561141
 20
429.9607719060471
 30
0.0
 11
234.1334694561141
 21
380.200460230292
 31
0.0
  0
LINE
  5
26CA2
330
1E
100
AcDbEntity
  8
10
  6
SLD-実線
 62
     7
370
    30
100
AcDbLine
 10
238.133458904557
 20
430.0305930938016
 30
0.0
 11
234.1334694561141
 21
429.9607719060471
 31
0.0
  0
LINE
  5
26CA3
330
1E
100
AcDbEntity
  8
10
100
AcDbLine
 10
306.1333987380066
 20
490.5305378101527
 30
0.0
 11
311.1333939306843
 21
490.4432621381663
 31
0.0
  0
SPLINE
  5
26CA4
330
1E
100
AcDbEntity
  8
10
100
AcDbSpline
210
0.0
220
0.0
230
1.0
 70
    24
 71
     3
 72
    12
 73
     8
 74
     0
 42
0.000000001
 43
0.0000000001
 40
0.0
 40
0.0
 40
0.0
 40
0.0
 40
0.2144782929225663
 40
0.4289845633770979
 40
0.6435663596551767
 40
0.8579758564114229
 40
1.0
 40
1.0
 40
1.0
 40
1.0
 10
306.1333987380927
 20
488.5305356353428
 30
0.0
 10
306.1333987380927
 20
488.7551636335514
 30
0.0
 10
306.1333987380927
 20
489.2044489314745
 30
0.0
 10
306.1333987380927
 20
489.8034262436706
 30
0.0
 10
306.1333987380927
 20
490.2555923997613
 30
0.0
 10
306.1333987380927
 20
490.4959940171846
 30
0.0
 10
306.1333987380927
 20
490.5206846911148
 30
0.0
 10
306.1333987380927
 20
490.530522909012
 30
0.0
  0
LINE
  5
26CA5
330
1E
100
AcDbEntity
  8
10
100
AcDbLine
 10
306.1333987380056
 20
319.5306945898187
 30
0.0
 11
311.1333939306843
 21
319.562997235864
 31
0.0
  0
LWPOLYLINE
  5
26CA6
330
1E
100
AcDbEntity
  8
10
100
AcDbPolyline
 90
        2
 70
     0
 43
0.0
 10
334.1333724418495
 20
441.0764460032289
 42
0.4091108014282317
 10
332.1682791002355
 20
443.0761395155321
  0
LWPOLYLINE
  5
26CA7
330
1E
100
AcDbEntity
  8
10
100
AcDbPolyline
 90
        4
 70
     0
 43
0.0
 10
311.1333939306843
 20
366.6179281650286
 10
332.0343026910795
 20
366.6179281650286
 42
0.1995059223003618
 10
334.133373306312
 20
369.9674855189813
 10
334.133373306312
 20
441.0764465720848
  0
LINE
  5
26CA8
330
1E
100
AcDbEntity
  8
10
100
AcDbLine
 10
306.1333987380056
 20
319.5306945898187
 30
0.0
 11
306.1333987380927
 21
488.5305356353428
 31
0.0
  0
LINE
  5
26CA9
330
1E
100
AcDbEntity
  8
10
100
AcDbLine
 10
311.1333939306843
 20
319.562997235864
 30
0.0
 11
311.1333939306843
 21
490.4432621381663
 31
0.0
  0
LINE
  5
26CAA
330
1E
100
AcDbEntity
  8
10
100
AcDbLine
 10
346.2333618768743
 20
485.0305392799202
 30
0.0
 11
346.2333618768743
 21
481.0805431804054
 31
0.0
  0
LINE
  5
26CAB
330
1E
100
AcDbEntity
  8
10
100
AcDbLine
 10
346.2333618768743
 20
488.9805353796588
 30
0.0
 11
346.2333618768743
 21
485.0305392799202
 31
0.0
  0
LINE
  5
26CAC
330
1E
100
AcDbEntity
  8
10
100
AcDbLine
 10
346.2333618768743
 20
328.9806892195661
 30
0.0
 11
346.2333618768743
 21
321.0806970203127
 31
0.0
  0
ARC
  5
26CAD
330
1E
100
AcDbEntity
  8
10
100
AcDbCircle
 10
335.6333710331254
 20
479.5196331069417
 30
0.0
 40
0.4999995307854361
100
AcDbArc
 50
90.25217214920923
 51
179.9978278508017
  0
LINE
  5
26CAE
330
1E
100
AcDbEntity
  8
10
  6
SLD-実線
 62
     7
370
    30
100
AcDbLine
 10
380.6377116758342
 20
449.261873971118
 30
0.0
 11
380.6376893240994
 21
449.261873971118
 31
0.0
  0
LINE
  5
26CAF
330
1E
100
AcDbEntity
  8
10
100
AcDbLine
 10
335.1333706684226
 20
479.5196554618067
 30
0.0
 11
335.1333706684226
 21
479.5196331100719
 31
0.0
  0
LINE
  5
26CB0
330
1E
100
AcDbEntity
  8
10
100
AcDbLine
 10
335.6311695674817
 20
480.0196262033055
 30
0.0
 11
335.631190056572
 21
480.0196262033055
 31
0.0
  0
LINE
  5
26CB1
330
1E
100
AcDbEntity
  8
10
100
AcDbLine
 10
335.631190056572
 20
480.0196262033055
 30
0.0
 11
338.1333702053329
 21
480.0305487440777
 31
0.0
  0
ARC
  5
26CB2
330
1E
100
AcDbEntity
  8
10
100
AcDbCircle
 10
380.6333287716654
 20
360.5441104944408
 30
0.0
 40
0.4999995304260984
100
AcDbArc
 50
0.0021626513996375
 51
89.49783734860115
  0
ARC
  5
26CB3
330
1E
100
AcDbEntity
  8
10
100
AcDbCircle
 10
380.6333287716654
 20
449.7618552263842
 30
0.0
 40
0.499999530426087
100
AcDbArc
 50
270.5021626513989
 51
359.9978373486004
  0
LINE
  5
26CB4
330
1E
100
AcDbEntity
  8
10
100
AcDbLine
 10
381.1333312823223
 20
449.7618558884838
 30
0.0
 11
381.1420712296708
 21
479.0305082897808
 31
0.0
  0
LINE
  5
26CB5
330
1E
100
AcDbEntity
  8
10
  6
SLD-実線
 62
     7
370
    30
100
AcDbLine
 10
381.1332865788529
 20
333.2349890966332
 30
0.0
 11
381.1228185229065
 21
333.2245210409102
 31
0.0
  0
LINE
  5
26CB6
330
1E
100
AcDbEntity
  8
10
100
AcDbLine
 10
335.1333706684226
 20
330.0565884621741
 30
0.0
 11
380.1449795436787
 21
330.0354144572645
 31
0.0
  0
ARC
  5
26CB7
330
1E
100
AcDbEntity
  8
10
100
AcDbCircle
 10
380.1420721688187
 20
479.0305082897808
 30
0.0
 40
0.9999990608521628
100
AcDbArc
 50
0.0000000000977066
 51
89.49999999999542
  0
LINE
  5
26CB8
330
1E
100
AcDbEntity
  8
10
100
AcDbLine
 10
380.1507986961216
 20
480.0304692737329
 30
0.0
 11
338.142114085
 21
480.0304692778022
 31
0.0
  0
LWPOLYLINE
  5
26CB9
330
1E
100
AcDbEntity
  8
10
100
AcDbPolyline
 90
        3
 70
     0
 43
0.0
 10
335.1333706684226
 20
320.039434656319
 10
335.1333706684226
 20
332.5306863742814
 10
311.1333939306843
 20
332.6231775888199
  0
LWPOLYLINE
  5
26CBA
330
1E
100
AcDbEntity
  8
10
100
AcDbPolyline
 90
        6
 70
     0
 43
0.0
 10
311.1333939306843
 20
477.4366677396925
 10
335.1333706684226
 20
477.4366677396925
 10
335.1333706684226
 20
479.5196331100719
 10
335.1333706684226
 20
481.4008358888042
 10
335.1333706684226
 20
483.9989105075573
 10
335.1333706684226
 20
490.0217977436525
  0
LINE
  5
26CBB
330
1E
100
AcDbEntity
  8
10
100
AcDbLine
 10
351.9833569536119
 20
397.4490270573423
 30
0.0
 11
351.9833569536119
 21
412.6122053424054
 31
0.0
  0
LINE
  5
26CBC
330
1E
100
AcDbEntity
  8
10
100
AcDbLine
 10
351.1333582645067
 20
397.4564450348332
 30
0.0
 11
351.1333582645067
 21
412.6047873651383
 31
0.0
  0
LINE
  5
26CBD
330
1E
100
AcDbEntity
  8
10
100
AcDbLine
 10
336.73337017291
 20
402.4878569678657
 30
0.0
 11
336.73337017291
 21
407.5733754321056
 31
0.0
  0
LWPOLYLINE
  5
26CBE
330
1E
100
AcDbEntity
  8
10
100
AcDbPolyline
 90
        3
 70
     0
 43
0.0
 10
344.6377246830413
 20
319.087459966309
 10
338.1333702053329
 20
319.030694046007
 10
336.1290075823001
 20
319.0394410194975
  0
LINE
  5
26CBF
330
1E
100
AcDbEntity
  8
10
100
AcDbLine
 10
336.1290075823001
 20
491.0217913804741
 30
0.0
 11
344.6377258444402
 21
491.0217913842362
 31
0.0
  0
LWPOLYLINE
  5
26CC0
330
1E
100
AcDbEntity
  8
10
100
AcDbPolyline
 90
        2
 70
     0
 43
0.0
 10
335.1333715026989
 20
320.0394322402477
 42
0.4129361512916065
 10
336.129007258364
 20
319.0394426986659
  0
LWPOLYLINE
  5
26CC1
330
1E
100
AcDbEntity
  8
10
100
AcDbPolyline
 90
        2
 70
     0
 43
0.0
 10
336.1290072583642
 20
491.021789701082
 42
0.4129361512916736
 10
335.133371502699
 20
490.0218001595002
  0
LWPOLYLINE
  5
26CC2
330
1E
100
AcDbEntity
  8
10
100
AcDbPolyline
 90
        2
 70
     0
 43
0.0
 10
344.6377258444402
 20
319.0874596316902
 42
0.411659890495474
 10
345.1333621112148
 20
319.5874401236661
  0
LWPOLYLINE
  5
26CC3
330
1E
100
AcDbEntity
  8
10
100
AcDbPolyline
 90
        4
 70
     0
 43
0.0
 10
345.1333629159754
 20
330.0917932604045
 10
345.1333629159754
 20
328.7815055849249
 10
345.1333629159754
 20
326.1834384167502
 10
345.1333621112149
 20
319.5874401236661
  0
LWPOLYLINE
  5
26CC4
330
1E
100
AcDbEntity
  8
10
100
AcDbPolyline
 90
        5
 70
     0
 43
0.0
 10
345.1333621112149
 20
490.5380049481608
 10
345.1333629159754
 20
489.973808599154
 10
345.1333629159754
 20
483.8777939832213
 10
345.1333629159754
 20
481.2797268150466
 10
345.1333629159754
 20
479.9694391393433
  0
LWPOLYLINE
  5
26CC5
330
1E
100
AcDbEntity
  8
10
100
AcDbPolyline
 90
        2
 70
     0
 43
0.0
 10
345.1333621112149
 20
490.5218108922603
 42
0.4116598904954074
 10
344.6377258444402
 20
491.0217913842362
  0
LINE
  5
26CC6
330
1E
100
AcDbEntity
  8
10
100
AcDbLine
 10
246.1334564281119
 20
456.030567349728
 30
0.0
 11
241.1334621669801
 21
456.030567349728
 31
0.0
  0
LINE
  5
26CC7
330
1E
100
AcDbEntity
  8
10
  6
SLD-実線
 62
     7
370
    30
100
AcDbLine
 10
246.1334564281119
 20
455.5558726792653
 30
0.0
 11
246.1334564281119
 21
455.5662587788514
 31
0.0
  0
LINE
  5
26CC8
330
1E
100
AcDbEntity
  8
10
100
AcDbLine
 10
240.0985551422027
 20
456.0125034339586
 30
0.0
 11
241.1334621669801
 21
456.030567349728
 31
0.0
  0
SPLINE
  5
26CC9
330
1E
100
AcDbEntity
  8
10
100
AcDbSpline
210
0.0
220
0.0
230
1.0
 70
     8
 71
     3
 72
    12
 73
     8
 74
     0
 42
0.000000001
 43
0.0000000001
 40
0.0
 40
0.0
 40
0.0
 40
0.0
 40
0.2429927693644977
 40
0.4991681179683811
 40
0.7111648306467968
 40
0.8460825200099279
 40
1.0
 40
1.0
 40
1.0
 40
1.0
 10
238.1334589046648
 20
454.0128104580368
 30
0.0
 10
238.1612988094911
 20
454.2646365217144
 30
0.0
 10
238.2184889593586
 20
454.7819504425772
 30
0.0
 10
238.6464568829753
 20
455.4139407622667
 30
0.0
 10
239.1551174113392
 20
455.7837245201207
 30
0.0
 10
239.6417815482611
 20
455.9730301013015
 30
0.0
 10
239.9397634542924
 20
455.9987810183563
 30
0.0
 10
240.0985551421665
 20
456.0125034340485
 30
0.0
  0
SPLINE
  5
26CCA
330
1E
100
AcDbEntity
  8
10
100
AcDbSpline
210
0.0
220
0.0
230
1.0
 70
     8
 71
     3
 72
    12
 73
     8
 74
     0
 42
0.000000001
 43
0.0000000001
 40
0.0
 40
0.0
 40
0.0
 40
0.0
 40
0.1540330144142507
 40
0.2890514592245007
 40
0.5012146475018571
 40
0.7571789837608979
 40
1.0
 40
1.0
 40
1.0
 40
1.0
 10
246.1334564281119
 20
354.0306650502436
 30
0.0
 10
239.9396428153973
 20
354.166832652712
 30
0.0
 10
239.6414350570405
 20
354.1926161034166
 30
0.0
 10
239.1544433694318
 20
354.3822083968088
 30
0.0
 10
238.6458881713274
 20
354.752273857867
 30
0.0
 10
238.218360703845
 20
355.3842223743159
 30
0.0
 10
238.1612579393368
 20
355.9011383840517
 30
0.0
 10
238.1334589046648
 20
356.1527858515759
 30
0.0
  0
LINE
  5
26CCB
330
1E
100
AcDbEntity
  8
10
100
AcDbLine
 10
238.133458904557
 20
356.1527858514817
 30
0.0
 11
238.133458904557
 21
454.0128104579323
 31
0.0
  0
LWPOLYLINE
  5
26CCC
330
1E
100
AcDbEntity
  8
10
100
AcDbPolyline
 90
        2
 70
     0
 43
0.0
 10
246.1334564281119
 20
456.030567349728
 10
246.1334564281119
 20
354.1736669115073
  0
LINE
  5
26CCD
330
1E
100
AcDbEntity
  8
10
  6
SLD-実線
 62
     7
370
    30
100
AcDbLine
 10
228.8307472138344
 20
427.3682162995497
 30
0.0
 11
234.1334694561141
 21
427.4607747753693
 31
0.0
  0
SPLINE
  5
26CCE
330
1E
100
AcDbEntity
  8
10
  6
SLD-実線
 62
     7
370
    30
100
AcDbSpline
210
0.0
220
0.0
230
1.0
 70
     8
 71
     3
 72
    11
 73
     7
 74
     0
 42
0.000000001
 43
0.0000000001
 40
0.0
 40
0.0
 40
0.0
 40
0.0
 40
0.2500057960785421
 40
0.5000069977228378
 40
0.750000840406983
 40
1.0
 40
1.0
 40
1.0
 40
1.0
 10
228.8307472137819
 20
382.6930161003913
 30
0.0
 10
228.7814617198691
 20
382.6992027400761
 30
0.0
 10
228.6828916377787
 20
382.7115759057521
 30
0.0
 10
228.5572097242663
 20
382.7963247265611
 30
0.0
 10
228.4655821986598
 20
382.917081613201
 30
0.0
 10
228.4477290221663
 20
383.0148050152248
 30
0.0
 10
228.4388023389947
 20
383.0636672358305
 30
0.0
  0
SPLINE
  5
26CCF
330
1E
100
AcDbEntity
  8
10
  6
SLD-実線
 62
     7
370
    30
100
AcDbSpline
210
0.0
220
0.0
230
1.0
 70
     8
 71
     3
 72
    11
 73
     7
 74
     0
 42
0.000000001
 43
0.0000000001
 40
0.0
 40
0.0
 40
0.0
 40
0.0
 40
0.2499991595930171
 40
0.4999930022771621
 40
0.7499942039214579
 40
1.0
 40
1.0
 40
1.0
 40
1.0
 10
228.4388023389947
 20
426.9975651640827
 30
0.0
 10
228.4477290221663
 20
427.0464273846883
 30
0.0
 10
228.4655821986598
 20
427.1441507867121
 30
0.0
 10
228.5572097242663
 20
427.2649076733523
 30
0.0
 10
228.6828916377787
 20
427.3496564941613
 30
0.0
 10
228.7814617198691
 20
427.362029659837
 30
0.0
 10
228.8307472137819
 20
427.3682162995219
 30
0.0
  0
LWPOLYLINE
  5
26CD0
330
1E
100
AcDbEntity
  8
13
100
AcDbPolyline
 90
        2
 70
     0
 43
0.0
 10
354.6023155302103
 20
360.9999092437078
 10
380.6377109072711
 20
361.0440908213677
  0
ELLIPSE
  5
26CD1
330
1E
100
AcDbEntity
  8
10
100
AcDbEllipse
 10
354.6067553067536
 20
361.4999458830222
 30
0.0
 11
0.3551727770182599
 21
0.3520867555563158
 31
0.0
210
0.0
220
0.0
230
1.0
 40
0.9997735673999995
 41
2.360595558709523
 42
3.922589748470071
  0
LINE
  5
26CD2
330
1E
100
AcDbEntity
  8
10
  6
SLD-実線
 62
     8
370
     0
100
AcDbLine
 10
380.6377116758342
 20
449.261873971118
 30
0.0
 11
380.6153823067043
 21
449.2840096252137
 31
0.0
  0
LINE
  5
26CD3
330
1E
100
AcDbEntity
  8
10
100
AcDbLine
 10
337.2290065431993
 20
407.5690501413443
 30
0.0
 11
337.2290065431993
 21
402.492182258627
 31
0.0
  0
SPLINE
  5
26CD4
330
1E
100
AcDbEntity
  8
10
  6
SLD-実線
 62
     8
370
     0
100
AcDbSpline
210
0.0
220
0.0
230
1.0
 70
     8
 71
     3
 72
     9
 73
     5
 74
     0
 42
0.000000001
 43
0.0000000001
 40
0.0
 40
0.0
 40
0.0
 40
0.0
 40
0.5000028020680265
 40
1.0
 40
1.0
 40
1.0
 40
1.0
 10
228.8307472137819
 20
427.3682162995219
 30
0.0
 10
228.829913370479
 20
427.3627414769276
 30
0.0
 10
228.8282456932192
 20
427.351791893102
 30
0.0
 10
228.8279712568967
 20
427.2846196241833
 30
0.0
 10
228.8278340395045
 20
427.2510336779454
 30
0.0
  0
SPLINE
  5
26CD5
330
1E
100
AcDbEntity
  8
10
  6
SLD-実線
 62
     8
370
     0
100
AcDbSpline
210
0.0
220
0.0
230
1.0
 70
     8
 71
     3
 72
     9
 73
     5
 74
     0
 42
0.000000001
 43
0.0000000001
 40
0.0
 40
0.0
 40
0.0
 40
0.0
 40
0.5000006414325294
 40
1.0
 40
1.0
 40
1.0
 40
1.0
 10
228.8278340395047
 20
427.2510336779454
 30
0.0
 10
228.8279669074634
 20
427.2097292853187
 30
0.0
 10
228.8282326430401
 20
427.1271206060409
 30
0.0
 10
228.8298841889954
 20
427.0212247962382
 30
0.0
 10
228.8307099609139
 20
426.9682769592621
 30
0.0
  0
SPLINE
  5
26CD6
330
1E
100
AcDbEntity
  8
10
  6
SLD-実線
 62
     8
370
     0
100
AcDbSpline
210
0.0
220
0.0
230
1.0
 70
     8
 71
     3
 72
    13
 73
     9
 74
     0
 42
0.000000001
 43
0.0000000001
 40
0.0
 40
0.0
 40
0.0
 40
0.0
 40
0.239544344176169
 40
0.365175650014858
 40
0.498363992538185
 40
0.7393832643179015
 40
0.8675083472766726
 40
1.0
 40
1.0
 40
1.0
 40
1.0
 10
228.8307099609139
 20
426.9682769592621
 30
0.0
 10
228.7811922937787
 20
426.9722032020513
 30
0.0
 10
228.7057046159311
 20
426.9781886001513
 30
0.0
 10
228.6146289776431
 20
426.9842972803184
 30
0.0
 10
228.5345550273568
 20
426.9901779007112
 30
0.0
 10
228.4757726335892
 20
426.9944121901497
 30
0.0
 10
228.443625783746
 20
426.9970009226255
 30
0.0
 10
228.4404280132002
 20
426.9973749944361
 30
0.0
 10
228.4388023389947
 20
426.9975651640827
 30
0.0
  0
LWPOLYLINE
  5
26CD7
330
1E
100
AcDbEntity
  8
24
  6
HIDDENX2
370
     0
100
AcDbPolyline
 90
       10
 70
     0
 43
0.0
 10
353.8333539408458
 20
468.0305570336288
 10
359.3333487755288
 20
467.9825593059836
 10
359.3333487755288
 20
464.9280599475103
 10
378.8333304621328
 20
464.9280599475103
 10
379.3333299925584
 20
464.4280604170845
 10
379.3333299925584
 20
459.6330649201787
 10
378.8333304621328
 20
459.133065389753
 10
359.3333487755288
 20
459.133065389753
 10
359.3333487755288
 20
456.0785660312798
 10
353.8333539408458
 20
456.030568303411
  0
ARC
  5
26CD8
330
1E
100
AcDbEntity
  8
10
100
AcDbCircle
 10
276.8802587579947
 20
401.8440768264403
 30
0.0
 40
66.35299604080373
100
AcDbArc
 50
164.3867552779038
 51
183.2422115187634
  0
LINE
  5
26CD9
330
1E
100
AcDbEntity
  8
10
370
     0
100
AcDbLine
 10
234.1334663567006
 20
428.9607734663753
 30
0.0
 11
234.1334663567006
 21
426.4607758142465
 31
0.0
  0
LINE
  5
26CDA
330
1E
100
AcDbEntity
  8
10
370
     0
100
AcDbLine
 10
233.4283836017393
 20
427.4484676097004
 30
0.0
 11
233.1336196006948
 21
427.4433224849918
 31
0.0
  0
LINE
  5
26CDB
330
1E
100
AcDbEntity
  8
10
370
     0
100
AcDbLine
 10
234.1334663567006
 20
381.2004588396814
 30
0.0
 11
234.1334663567006
 21
383.6004565857249
 31
0.0
  0
DIMENSION
  5
26CDC
330
1E
100
AcDbEntity
  8
30
100
AcDbDimension
280
     0
  2
*D33
 10
396.7858036020883
 20
449.0305748774506
 30
0.0
 11
396.7858036020881
 21
405.0306161999857
 31
0.0
 70
   160
  1
<>
 71
     2
 42
87.99991735492989
 73
     0
 74
     0
 75
     0
  3
STANDARD
100
AcDbAlignedDimension
 13
354.1333536591015
 23
361.0306575225208
 33
0.0
 14
383.088217964012
 24
449.0305748774507
 34
0.0
 50
90.0
100
AcDbRotatedDimension
  0
DIMENSION
  5
26CDD
330
1E
100
AcDbEntity
  8
30
100
AcDbDimension
280
     0
  2
*D34
 10
412.3653612612338
 20
348.0306697314517
 30
0.0
 11
412.3653612612335
 21
405.0306161999857
 31
0.0
 70
   160
  1
<>
 71
     2
 42
113.9998929370681
 73
     0
 74
     0
 75
     0
  3
STANDARD
100
AcDbAlignedDimension
 13
366.7054818193506
 23
462.0305626685198
 33
0.0
 14
366.7054818193506
 24
348.0306697314517
 34
0.0
 50
90.0
100
AcDbRotatedDimension
  0
DIMENSION
  5
26CDE
330
1E
100
AcDbEntity
  8
30
100
AcDbDimension
280
     0
  2
*D35
 10
425.4555095007601
 20
330.0338327750514
 30
0.0
 11
425.4581274509518
 21
405.0303836677072
 31
0.0
 70
   160
  1
<>
 71
     2
 42
149.9951640299709
 73
     0
 74
     0
 75
     0
  3
STANDARD
100
AcDbAlignedDimension
 13
383.2761256596909
 23
480.0304692778022
 33
0.0
 14
364.7007667734988
 24
330.035953577788
 34
0.0
 50
89.99799994139577
100
AcDbRotatedDimension
  0
DIMENSION
  5
26CDF
330
1E
100
AcDbEntity
  8
30
100
AcDbDimension
280
     0
  2
*D36
 10
246.1334550869182
 20
304.2685631659376
 30
0.0
 11
276.1334269124624
 21
304.2685631659376
 31
0.0
 70
   160
  1
<>
 71
     2
 42
59.99994365108843
 73
     0
 74
     0
 75
     0
  3
STANDARD
100
AcDbAlignedDimension
 13
306.1333987380066
 23
321.5306946188875
 33
0.0
 14
246.1334550869182
 24
354.0306640965606
 34
0.0
100
AcDbRotatedDimension
  0
DIMENSION
  5
26CE0
330
1E
100
AcDbEntity
  8
30
100
AcDbDimension
280
     0
  2
*D37
 10
437.4990820811813
 20
319.0306969667588
 30
0.0
 11
437.499082081181
 21
405.0306161999857
 31
0.0
 70
   160
  1
<>
 71
     2
 42
171.9998384664538
 73
     0
 74
     0
 75
     0
  3
STANDARD
100
AcDbAlignedDimension
 13
350.2423011765031
 23
491.0305354332126
 33
0.0
 14
347.6983937497511
 24
319.0306969667588
 34
0.0
 50
90.0
100
AcDbRotatedDimension
  0
DIMENSION
  5
26CE1
330
1E
100
AcDbEntity
  8
30
100
AcDbDimension
280
     0
  2
*D38
 10
354.1333987380066
 20
285.1467170491781
 30
0.0
 11
282.0603110423162
 21
285.1467170491781
 31
0.0
 70
   160
  1
<>
 71
     2
 42
119.999932381306
 73
     0
 74
     0
 75
     0
  3
STANDARD
100
AcDbAlignedDimension
 13
234.1334663567006
 23
297.5078465109628
 33
0.0
 14
354.1333987380066
 24
321.5306946188875
 34
0.0
100
AcDbRotatedDimension
  0
LINE
  5
26CE2
330
1E
100
AcDbEntity
  8
16
100
AcDbLine
 10
364.2507645046312
 20
405.0306161999857
 30
0.0
 11
222.470384023688
 21
405.0306161999857
 31
0.0
  0
LINE
  5
26CE3
330
1E
100
AcDbEntity
  8
240
  6
SLD-鎖線
 48
0.9999990609000001
370
     0
100
AcDbLine
 10
339.5344162153123
 20
462.0305626685198
 30
0.0
 11
383.3054662621318
 21
462.0305626685198
 31
0.0
  0
LINE
  5
26CE4
330
1E
100
AcDbEntity
  8
240
  6
SLD-鎖線
 48
0.9999990609000001
370
     0
100
AcDbLine
 10
383.3054662621318
 20
348.0306697314517
 30
0.0
 11
336.8209258336432
 21
348.0306697314517
 31
0.0
  0
LWPOLYLINE
  5
26CE5
330
1E
100
AcDbEntity
  8
10
100
AcDbPolyline
 90
        4
 70
     0
 43
0.0
 10
238.1334626001066
 20
430.0305927212726
 10
234.1334694561141
 20
429.9607719060471
 10
234.1334694561141
 20
380.200460230292
 10
238.0709626001066
 20
380.1306395847841
  0
LWPOLYLINE
  5
26CE6
330
1E
100
AcDbEntity
  8
10
100
AcDbPolyline
 90
        8
 70
     0
 43
0.0
 10
234.1334694561141
 20
427.4607747753693
 10
228.8307472138344
 20
427.3682162995497
 10
228.4388023389947
 20
426.9975651640827
 10
228.132583764046
 20
389.0719122320371
 10
228.2244269849093
 20
385.4306343747457
 10
228.4388023389724
 20
383.0636672358588
 10
228.8307472137819
 20
382.6930161003913
 10
234.1334694561141
 20
382.6930161003913
  0
LWPOLYLINE
  5
26CE7
330
1E
100
AcDbEntity
  8
10
100
AcDbPolyline
 90
        7
 70
     0
 43
0.0
 10
311.1333939306843
 20
481.5305429247111
 10
314.8877533343386
 20
481.4650114045845
 10
318.6421127379928
 20
481.3994798844584
 10
319.1333867974042
 20
480.2805452905826
 10
318.6421127379928
 20
479.1616106969303
 10
314.8877533343386
 20
479.0960791768042
 10
311.1333939306843
 20
479.0305476566778
  0
LWPOLYLINE
  5
26CE8
330
1E
100
AcDbEntity
  8
10
100
AcDbPolyline
 90
        7
 70
     0
 43
0.0
 10
311.1333939306843
 20
331.0306847432936
 10
314.8877533343386
 20
330.9651532231673
 10
318.6421127379928
 20
330.8996217030409
 10
319.1333867974042
 20
329.7806871091652
 10
318.6421127379928
 20
328.661752515513
 10
314.8877533343386
 20
328.5962209953867
 10
311.1333939306843
 20
328.5306894752605
  0
LINE
  5
26CE9
330
1E
100
AcDbEntity
  8
10
100
AcDbLine
 10
381.1333283020675
 20
331.0353465792452
 30
0.0
 11
381.1333283017353
 21
360.544129367117
 31
0.0
  0
ARC
  5
26CEA
330
1E
100
AcDbEntity
  8
10
100
AcDbCircle
 10
380.1333283020675
 20
331.0353465792452
 30
0.0
 40
1.0
100
AcDbArc
 50
270.433701581604
 51
0.0000000007067447
  0
INSERT
  5
26CEB
330
1E
100
AcDbEntity
  8
130
100
AcDbBlockReference
  2
PM1
 10
354.1067369021261
 20
405.0306161998736
 30
0.0
  0
LWPOLYLINE
  5
26CEC
330
1E
100
AcDbEntity
  8
10
100
AcDbPolyline
 90
        6
 70
     0
 43
0.0
 10
228.3620037143904
 20
417.4859345163061
 10
215.3707719162971
 20
421.0063819814194
 10
212.9203527650831
 20
419.497022429866
 10
212.2023335365952
 20
416.2223938187576
 10
213.7962049445991
 20
413.8261524447589
 10
228.3110342741056
 20
411.1732890384563
  0
LWPOLYLINE
  5
26CED
330
1E
100
AcDbEntity
  8
10
100
AcDbPolyline
 90
       15
 70
     0
 43
0.0
 10
311.1333939306843
 20
358.1214851233206
 10
348.2591890257558
 20
358.1214851233206
 10
348.2591890257558
 20
366.6179281650286
 10
347.3071137529395
 20
367.5391100541678
 10
335.767454882852
 20
367.6398120070877
 10
334.7761821275148
 20
368.6397743020635
 10
334.7503061239872
 20
401.4782201934161
 10
335.7674546610642
 20
402.4781812350583
 10
342.2761735343065
 20
402.5306186037588
 10
342.7761746143273
 20
402.0306190174312
 10
342.7761740778946
 20
398.0262784078162
 10
343.1093279090981
 20
397.4490270573423
 10
353.8445988677058
 20
397.4490270573423
 10
354.1066986595305
 20
397.0891218700399
 10
354.1066986595305
 20
361.499870389466
  0
LWPOLYLINE
  5
26CEE
330
1E
100
AcDbEntity
  8
10
100
AcDbPolyline
 90
       18
 70
     0
 43
0.0
 10
311.1333939306843
 20
451.9397472764274
 10
348.2615059758059
 20
451.9397472764274
 10
348.2761694490108
 20
443.5218912613787
 10
347.3071137529395
 20
442.52212234558
 10
335.7674561734933
 20
442.421420403923
 42
0.411429610139034
 10
334.7761827487255
 20
441.422246457184
 10
334.75030691003
 20
408.58400974932
 42
0.412086317216791
 10
335.7422503802126
 20
407.5832542224942
 10
341.7681183274396
 20
407.5347069330137
 42
0.4165752126067682
 10
342.7761745468018
 20
408.5346746151143
 10
342.7761741441435
 20
411.5404222474166
 42
-0.4109953411030502
 10
343.7651740488722
 20
412.5403618785012
 10
353.7536834445537
 20
412.6502430816014
 10
353.7804914850151
 20
412.6746857549083
 42
0.2109266866875249
 10
354.1067369021261
 20
413.4136409376061
 10
354.1067369021261
 20
448.2618739741186
 42
-0.4142135624075202
 10
355.1067369022437
 20
449.2618739741186
 10
380.6376893240994
 20
449.261873971118
  0
LINE
  5
26CEF
330
1E
100
AcDbEntity
  8
10
100
AcDbLine
 10
332.1682791002355
 20
443.0761395155321
 30
0.0
 11
311.1333939306843
 21
443.0761395155321
 31
0.0
  0
LWPOLYLINE
  5
26CF0
330
1E
100
AcDbEntity
  8
24
  6
HIDDENX2
370
     0
100
AcDbPolyline
 90
       10
 70
     0
 43
0.0
 10
353.8333539408458
 20
342.0306753663428
 10
359.3333487755288
 20
342.078673093988
 10
359.3333487755288
 20
345.1331724524612
 10
378.8333304621328
 20
345.1331724524612
 10
379.3333299925584
 20
345.6331719828869
 10
379.3333299925584
 20
350.4281674797927
 10
378.8333304621328
 20
350.9281670102185
 10
359.3333487755288
 20
350.9281670102185
 10
359.3333487755288
 20
353.9826663686918
 10
353.8333539408458
 20
354.0306640965606
  0
LWPOLYLINE
  5
26CF1
330
1E
100
AcDbEntity
  8
10
100
AcDbPolyline
 90
        4
 70
     0
 43
0.0
 10
306.133397396813
 20
340.0306640965605
 10
250.7502866675181
 20
340.0306640965605
 42
-0.3536533375391492
 10
248.7946818393183
 20
341.6116059189607
 10
246.1334550869182
 20
354.0306640965606
  0
DIMENSION
  5
26CF2
330
1E
100
AcDbEntity
  8
30
100
AcDbDimension
280
     0
  2
*D39
 10
354.1333987380066
 20
268.5565195628767
 30
0.0
 11
282.3834340970604
 21
273.5565195628767
 31
0.0
 70
    32
 71
     5
 42
143.4999292818925
 73
     0
 74
     0
 75
     0
  3
STANDARD
100
AcDbAlignedDimension
 13
210.6334694561141
 23
399.0913457165475
 33
0.0
 14
354.1333987380066
 24
321.5306946188875
 34
0.0
100
AcDbRotatedDimension
  0
DIMENSION
  5
26CF3
102
{ACAD_XDICTIONARY
360
26CF4
102
}
330
1E
100
AcDbEntity
  8
30
100
AcDbDimension
280
     0
  2
*D42
 10
227.6334663567006
 20
285.1467170491781
 30
0.0
 11
199.5512293021143
 21
285.1467170491781
 31
0.0
 70
   128
 71
     5
 42
6.5
 73
     0
 74
     0
 75
     0
  3
STANDARD
100
AcDbAlignedDimension
 13
234.1334663567006
 23
381.2004588396814
 33
0.0
 14
227.6334663567006
 24
381.2004588396814
 34
0.0
100
AcDbRotatedDimension
1001
AcadAnnotative
1000
AnnotativeData
1002
{
1070
     1
1070
     1
1002
}
1001
ACAD
1000
DSTYLE
1002
{
1070
    40
1040
0.0
1002
}
  0
DIMENSION
  5
26CF8
330
1E
100
AcDbEntity
  8
30
100
AcDbDimension
280
     0
  2
*D40
 10
381.1333283020675
 20
268.5565195628767
 30
0.0
 11
367.6333283019014
 21
273.5565195628767
 31
0.0
 70
    32
 71
     5
 42
27.00000000033214
 73
     0
 74
     0
 75
     0
  3
STANDARD
100
AcDbAlignedDimension
 13
354.1333283017353
 23
335.4558087490786
 33
0.0
 14
381.1333283020675
 24
331.0353465792452
 34
0.0
100
AcDbRotatedDimension
  0
DIMENSION
  5
2704E
330
1E
100
AcDbEntity
  8
30
100
AcDbDimension
280
     0
  2
*D43
 10
73.60547209994317
 20
53.33837035677106
 30
0.0
 11
84.85547209994317
 21
58.33837035677106
 31
0.0
 70
    32
 71
     5
 42
22.49999999999999
 73
     0
 74
     0
 75
     0
  3
STANDARD1
100
AcDbAlignedDimension
 13
96.10547209994315
 23
74.96971451423718
 33
0.0
 14
73.60547209994317
 24
135.4697145142368
 34
0.0
100
AcDbRotatedDimension
  0
LINE
  5
270C7
330
1E
100
AcDbEntity
  8
0
  6
SLD-実線
 62
     7
370
    30
100
AcDbLine
 10
75.95682435153442
 20
456.5306152462357
 30
0.0
 11
75.96555084403435
 21
456.5393436014856
 31
0.0
  0
LINE
  5
270C8
330
1E
100
AcDbEntity
  8
0
  6
SLD-実線
 62
     7
370
    30
100
AcDbLine
 10
75.96555084403435
 20
456.5393436014856
 30
0.0
 11
84.96555138803438
 21
456.5393436014856
 31
0.0
  0
LINE
  5
270C9
330
1E
100
AcDbEntity
  8
0
  6
SLD-実線
 62
     7
370
    30
100
AcDbLine
 10
84.98705748878439
 20
465.5521209597355
 30
0.0
 11
75.94404474328435
 21
465.5521209597355
 31
0.0
  0
CIRCLE
  5
270CA
330
1E
100
AcDbEntity
  8
12
  6
SLD-実線
370
     0
100
AcDbCircle
 10
80.46555124628442
 20
461.0306161999856
 30
0.0
 40
4.332040220405366
  0
LINE
  5
270CB
330
1E
100
AcDbEntity
  8
12
  6
DASHDOT
100
AcDbLine
 10
74.96555158178438
 20
461.0306169152354
 30
0.0
 11
85.96555158178464
 21
461.0306169152354
 31
0.0
  0
LINE
  5
270CC
330
1E
100
AcDbEntity
  8
12
  6
DASHDOT
100
AcDbLine
 10
80.46555158178451
 20
466.5306169152358
 30
0.0
 11
80.46555158178451
 21
455.5306169152355
 31
0.0
  0
LWPOLYLINE
  5
270CD
330
1E
100
AcDbEntity
  8
130
100
AcDbPolyline
 90
        4
 70
     1
 43
0.0
 10
75.94404474328435
 20
465.5521209597355
 10
84.96555138803438
 20
465.5521209597355
 10
84.96555138803438
 20
456.5393436014856
 10
75.94404474328435
 20
456.5393436014856
  0
LINE
  5
270DB
330
1E
100
AcDbEntity
  8
10
  6
SLD-実線
 62
     8
370
     0
100
AcDbLine
 10
116.2025068056638
 20
347.0038752070816
 30
0.0
 11
116.2285018568297
 21
347.0301906328881
 31
0.0
  0
LINE
  5
270DC
330
1E
100
AcDbEntity
  8
10
  6
SLD-実線
 62
     7
370
    30
100
AcDbLine
 10
105.9568243515344
 20
344.5306152462358
 30
0.0
 11
105.9655508440343
 21
344.5393436014856
 31
0.0
  0
LINE
  5
270DD
330
1E
100
AcDbEntity
  8
10
  6
SLD-実線
 62
     7
370
    30
100
AcDbLine
 10
105.9655508440343
 20
344.5393436014856
 30
0.0
 11
114.9655513880344
 21
344.5393436014856
 31
0.0
  0
LINE
  5
270DE
330
1E
100
AcDbEntity
  8
10
  6
SLD-実線
 62
     7
370
    30
100
AcDbLine
 10
114.9870574887844
 20
353.5521209597356
 30
0.0
 11
105.9440447432843
 21
353.5521209597356
 31
0.0
  0
CIRCLE
  5
270DF
330
1E
100
AcDbEntity
  8
12
  6
SLD-実線
370
     0
100
AcDbCircle
 10
110.4655512462844
 20
349.0306161999857
 30
0.0
 40
4.332040220405366
  0
LINE
  5
270E0
330
1E
100
AcDbEntity
  8
12
  6
DASHDOT
100
AcDbLine
 10
104.9655515817843
 20
349.0306169152355
 30
0.0
 11
115.9655515817846
 21
349.0306169152355
 31
0.0
  0
LINE
  5
270E1
330
1E
100
AcDbEntity
  8
12
  6
DASHDOT
100
AcDbLine
 10
110.4655515817845
 20
354.5306169152359
 30
0.0
 11
110.4655515817845
 21
343.5306169152356
 31
0.0
  0
LWPOLYLINE
  5
270E2
330
1E
100
AcDbEntity
  8
10
100
AcDbPolyline
 90
        4
 70
     1
 43
0.0
 10
105.9440447432843
 20
353.5521209597356
 10
114.9655513880344
 20
353.5521209597356
 10
114.9655513880344
 20
344.5393436014856
 10
105.9440447432843
 20
344.5393436014856
  0
LINE
  5
270F7
330
1E
100
AcDbEntity
  8
17
100
AcDbLine
 10
65.23430615218792
 20
469.1303953030558
 30
0.0
 11
65.23430615218792
 21
455.1303953030557
 31
0.0
  0
LINE
  5
270F8
330
1E
100
AcDbEntity
  8
17
100
AcDbLine
 10
58.23430615218804
 20
462.1303953030559
 30
0.0
 11
72.23430615218781
 21
462.1303953030559
 31
0.0
  0
LINE
  5
270FB
330
1E
100
AcDbEntity
  8
17
100
AcDbLine
 10
95.23430615218792
 20
469.1303953030558
 30
0.0
 11
95.23430615218792
 21
455.1303953030557
 31
0.0
  0
LINE
  5
270FC
330
1E
100
AcDbEntity
  8
17
100
AcDbLine
 10
88.23430615218804
 20
462.1303953030559
 30
0.0
 11
102.2343061521878
 21
462.1303953030559
 31
0.0
  0
LINE
  5
270FD
330
1E
100
AcDbEntity
  8
17
100
AcDbLine
 10
125.2343061521879
 20
469.1303953030558
 30
0.0
 11
125.2343061521879
 21
455.1303953030557
 31
0.0
  0
LINE
  5
270FE
330
1E
100
AcDbEntity
  8
17
100
AcDbLine
 10
118.234306152188
 20
462.1303953030559
 30
0.0
 11
132.2343061521878
 21
462.1303953030559
 31
0.0
  0
LINE
  5
270FF
330
1E
100
AcDbEntity
  8
17
100
AcDbLine
 10
155.2343061521879
 20
469.1303953030558
 30
0.0
 11
155.2343061521879
 21
455.1303953030557
 31
0.0
  0
LINE
  5
27100
330
1E
100
AcDbEntity
  8
17
100
AcDbLine
 10
148.234306152188
 20
462.1303953030559
 30
0.0
 11
162.2343061521878
 21
462.1303953030559
 31
0.0
  0
LINE
  5
27101
330
1E
100
AcDbEntity
  8
17
100
AcDbLine
 10
65.23430615218792
 20
340.9308370969156
 30
0.0
 11
65.23430615218792
 21
354.9308370969156
 31
0.0
  0
LINE
  5
27102
330
1E
100
AcDbEntity
  8
17
100
AcDbLine
 10
58.23430615218804
 20
347.9308370969154
 30
0.0
 11
72.23430615218781
 21
347.9308370969154
 31
0.0
  0
LINE
  5
27103
330
1E
100
AcDbEntity
  8
17
100
AcDbLine
 10
95.23430615218792
 20
340.9308370969156
 30
0.0
 11
95.23430615218792
 21
354.9308370969156
 31
0.0
  0
LINE
  5
27104
330
1E
100
AcDbEntity
  8
17
100
AcDbLine
 10
88.23430615218804
 20
347.9308370969154
 30
0.0
 11
102.2343061521878
 21
347.9308370969154
 31
0.0
  0
LINE
  5
27105
330
1E
100
AcDbEntity
  8
17
100
AcDbLine
 10
125.2343061521879
 20
340.9308370969156
 30
0.0
 11
125.2343061521879
 21
354.9308370969156
 31
0.0
  0
LINE
  5
27106
330
1E
100
AcDbEntity
  8
17
100
AcDbLine
 10
118.234306152188
 20
347.9308370969154
 30
0.0
 11
132.2343061521878
 21
347.9308370969154
 31
0.0
  0
LINE
  5
27107
330
1E
100
AcDbEntity
  8
17
100
AcDbLine
 10
155.2343061521879
 20
340.9308370969156
 30
0.0
 11
155.2343061521879
 21
354.9308370969156
 31
0.0
  0
LINE
  5
27108
330
1E
100
AcDbEntity
  8
17
100
AcDbLine
 10
148.234306152188
 20
347.9308370969154
 30
0.0
 11
162.2343061521878
 21
347.9308370969154
 31
0.0
  0
VIEWPORT
  5
9AC
330
1A
100
AcDbEntity
 67
     1
  8
0
  6
Continuous
348
1001B
100
AcDbViewport
 10
0.0
 20
0.0
 30
0.0
 40
0.0
 41
0.0
 68
     1
 69
     1
 12
0.0
 22
0.0
 13
0.0
 23
0.0
 14
10.0
 24
10.0
 15
10.0
 25
10.0
 16
0.0
 26
0.0
 36
1.0
 17
0.0
 27
0.0
 37
0.0
 42
50.0
 43
0.0
 44
0.0
 45
0.0
 50
0.0
 51
0.0
 72
   100
 90
    32800
  1

281
     0
 71
     1
 74
     0
110
0.0
120
0.0
130
0.0
111
1.0
121
0.0
131
0.0
112
0.0
122
1.0
132
0.0
 79
     0
146
0.0
170
     0
 61
     5
292
     1
282
     1
141
0.0
142
0.0
 63
   250
421
  3355443
  0
VIEWPORT
  5
E19D
330
1A
100
AcDbEntity
 67
     1
  8
30
348
1001B
100
AcDbViewport
 10
0.0
 20
0.0
 30
0.0
 40
0.0
 41
0.0
 68
     2
 69
     2
 12
8.653370891979619
 22
137.2805829780177
 13
0.0
 23
0.0
 14
1.0
 24
1.0
 15
10.0
 25
10.0
 16
0.0
 26
0.0
 36
1.0
 17
0.0
 27
0.0
 37
0.0
 42
50.0
 43
0.0
 44
0.0
 45
689.9195596776387
 50
0.0
 51
0.0
 72
   100
 90
    37664
  1

281
     0
 71
     1
 74
     0
110
0.0
120
0.0
130
0.0
111
1.0
121
0.0
131
0.0
112
0.0
122
1.0
132
0.0
 79
     0
146
0.0
170
     0
 61
     5
292
     1
282
     1
141
0.0
142
0.0
 63
   250
421
  3355443
  0
ENDSEC
  0
SECTION
  2
OBJECTS
  0
DICTIONARY
  5
C
330
0
100
AcDbDictionary
281
     1
  3
ACAD_CIP_PREVIOUS_PRODUCT_INFO
350
26FC2
  3
ACAD_COLOR
350
10029
  3
ACAD_DETAILVIEWSTYLE
350
26FBD
  3
ACAD_GROUP
350
D
  3
ACAD_LAYOUT
350
19
  3
ACAD_MATERIAL
350
FFFC
  3
ACAD_MLEADERSTYLE
350
1004E
  3
ACAD_MLINESTYLE
350
16
  3
ACAD_PLOTSETTINGS
350
18
  3
ACAD_PLOTSTYLENAME
350
E
  3
ACAD_SCALELIST
350
1002C
  3
ACAD_SECTIONVIEWSTYLE
350
26FBB
  3
ACAD_TABLESTYLE
350
1002A
  3
ACAD_VISUALSTYLE
350
10015
  3
ACADDIM
350
6D5E
  3
ACDB_RECOMPOSE_DATA
350
2711D
  3
ACDBVARIABLEDICTIONARY
350
5697
  3
AEC_PROPERTY_SET_DEFS
350
102B7
  3
ASE_INDEX_DICTIONARY
350
1012A
  0
DICTIONARY
  5
160A2
330
2
100
AcDbDictionary
280
     1
281
     1
  3
ACAD_LAYERSTATES
360
160A3
  0
DICTIONARY
  5
10054
330
10
100
AcDbDictionary
280
     1
281
     1
  3
ADSK_XREC_LAYER_RECONCILED
360
10055
  0
DICTIONARY
  5
10056
330
2F
100
AcDbDictionary
280
     1
281
     1
  3
ADSK_XREC_LAYER_RECONCILED
360
10057
  0
DICTIONARY
  5
10058
330
31
100
AcDbDictionary
280
     1
281
     1
  3
ADSK_XREC_LAYER_RECONCILED
360
10059
  0
DICTIONARY
  5
1005A
330
35
100
AcDbDictionary
280
     1
281
     1
  3
ADSK_XREC_LAYER_RECONCILED
360
1005B
  0
DICTIONARY
  5
1005E
330
3D
100
AcDbDictionary
280
     1
281
     1
  3
ADSK_XREC_LAYER_RECONCILED
360
1005F
  0
DICTIONARY
  5
10060
330
3A2
100
AcDbDictionary
280
     1
281
     1
  3
ADSK_XREC_LAYER_RECONCILED
360
10061
  0
DICTIONARY
  5
10062
330
3BBA
100
AcDbDictionary
280
     1
281
     1
  3
ADSK_XREC_LAYER_RECONCILED
360
10063
  0
DICTIONARY
  5
10064
330
67A8
100
AcDbDictionary
280
     1
281
     1
  3
ADSK_XREC_LAYER_RECONCILED
360
10065
  0
DICTIONARY
  5
10066
330
7837
100
AcDbDictionary
280
     1
281
     1
  3
ADSK_XREC_LAYER_RECONCILED
360
10067
  0
DICTIONARY
  5
10070
330
C500
100
AcDbDictionary
280
     1
281
     1
  3
ADSK_XREC_LAYER_RECONCILED
360
10071
  0
DICTIONARY
  5
10072
330
C501
100
AcDbDictionary
280
     1
281
     1
  3
ADSK_XREC_LAYER_RECONCILED
360
10073
  0
DICTIONARY
  5
10076
330
F7D2
100
AcDbDictionary
280
     1
281
     1
  3
ADSK_XREC_LAYER_RECONCILED
360
10077
  0
DICTIONARY
  5
10078
330
F7D8
100
AcDbDictionary
280
     1
281
     1
  3
ADSK_XREC_LAYER_RECONCILED
360
10079
  0
DICTIONARY
  5
1007A
330
F9C3
100
AcDbDictionary
280
     1
281
     1
  3
ADSK_XREC_LAYER_RECONCILED
360
1007B
  0
DICTIONARY
  5
178
330
1E
100
AcDbDictionary
280
     1
281
     1
  3
ACAD_LAYOUTSELFREF
360
9011
  3
ACAD_SORTENTS
360
10128
  0
DICTIONARY
  5
17A
330
1A
100
AcDbDictionary
280
     1
281
     1
  3
ACAD_LAYOUTSELFREF
360
9010
  0
DICTIONARY
  5
26262
330
15CE1
100
AcDbDictionary
280
     1
281
     1
  3
ACAD_SORTENTS
360
26263
  0
DICTIONARY
  5
269B8
330
269A5
100
AcDbDictionary
280
     1
281
     1
  3
ACAD_SORTENTS
360
269B9
  0
DICTIONARY
  5
26CF4
330
26CF3
100
AcDbDictionary
280
     1
281
     1
  3
AcDbContextDataManager
360
26CF5
  0
XRECORD
  5
26FC2
102
{ACAD_REACTORS
330
C
102
}
330
C
100
AcDbXrecord
280
     1
300
ACDLT
300
2014
300
ACDLT_F_S
  0
DICTIONARY
  5
10029
102
{ACAD_REACTORS
330
C
102
}
330
C
100
AcDbDictionary
281
     1
  0
DICTIONARY
  5
26FBD
102
{ACAD_REACTORS
330
C
102
}
330
C
100
AcDbDictionary
281
     1
  3
Imperial24
350
26FBE
  0
DICTIONARY
  5
D
102
{ACAD_REACTORS
330
C
102
}
330
C
100
AcDbDictionary
281
     1
  0
DICTIONARY
  5
19
102
{ACAD_REACTORS
330
C
102
}
330
C
100
AcDbDictionary
281
     1
  3
Model
350
904E
  3
ﾚｲｱｳﾄ1
350
904F
  0
DICTIONARY
  5
FFFC
102
{ACAD_REACTORS
330
C
102
}
330
C
100
AcDbDictionary
281
     1
  3
ByBlock
350
10005
  3
ByLayer
350
FFFD
  3
Global
350
1000D
  0
DICTIONARY
  5
1004E
102
{ACAD_REACTORS
330
C
102
}
330
C
100
AcDbDictionary
281
     1
  3
Standard
350
1004F
  0
DICTIONARY
  5
16
102
{ACAD_REACTORS
330
C
102
}
330
C
100
AcDbDictionary
281
     1
  3
STANDARD
350
17
  0
DICTIONARY
  5
18
102
{ACAD_REACTORS
330
C
102
}
330
C
100
AcDbDictionary
281
     1
  0
ACDBDICTIONARYWDFLT
  5
E
102
{ACAD_REACTORS
330
C
102
}
330
C
100
AcDbDictionary
281
     1
  3
Normal
350
F
100
AcDbDictionaryWithDefault
340
F
  0
DICTIONARY
  5
1002C
102
{ACAD_REACTORS
330
C
102
}
330
C
100
AcDbDictionary
281
     1
  3
A0
350
1002D
  3
A1
350
1002E
  3
A2
350
1002F
  3
A3
350
10030
  3
A4
350
10031
  3
A5
350
10032
  3
A6
350
10033
  3
A7
350
10034
  3
A8
350
10035
  3
A9
350
10036
  3
B0
350
10037
  3
B1
350
10038
  3
B2
350
10039
  3
B3
350
1003A
  3
B4
350
1003B
  3
B5
350
1003C
  3
B6
350
1003D
  3
B7
350
1003E
  3
B8
350
1003F
  3
B9
350
10040
  3
C0
350
10041
  3
C1
350
10042
  3
C2
350
10043
  3
C3
350
10044
  3
C4
350
10045
  3
C5
350
10046
  3
C6
350
10047
  3
C7
350
10048
  3
C8
350
10049
  3
C9
350
1004A
  3
D0
350
1004B
  3
D1
350
1004C
  3
D2
350
1004D
  0
DICTIONARY
  5
26FBB
102
{ACAD_REACTORS
330
C
102
}
330
C
100
AcDbDictionary
281
     1
  3
Imperial24
350
26FBC
  0
DICTIONARY
  5
1002A
102
{ACAD_REACTORS
330
C
102
}
330
C
100
AcDbDictionary
281
     1
  3
Standard
350
1002B
  0
DICTIONARY
  5
10015
102
{ACAD_REACTORS
330
C
102
}
330
C
100
AcDbDictionary
281
     1
  3
2dWireframe
350
1001B
  3
3D Hidden
350
1001D
  3
3dWireframe
350
1001C
  3
Basic
350
1001A
  3
Brighten
350
10021
  3
ColorChange
350
10025
  3
Conceptual
350
1001E
  3
Dim
350
10020
  3
EdgeColorOff
350
10028
  3
Facepattern
350
10024
  3
Flat
350
10016
  3
FlatWithEdges
350
10017
  3
Gouraud
350
10018
  3
GouraudWithEdges
350
10019
  3
Hidden
350
26FB5
  3
JitterOff
350
10026
  3
Linepattern
350
10023
  3
OverhangOff
350
10027
  3
Realistic
350
1001F
  3
Shaded
350
26FBA
  3
Shaded with edges
350
26FB9
  3
Shades of Gray
350
26FB6
  3
Sketchy
350
26FB7
  3
Thicken
350
10022
  3
Wireframe
350
26FB4
  3
X-Ray
350
26FB8
  0
XRECORD
  5
6D5E
102
{ACAD_REACTORS
330
C
102
}
330
C
100
AcDbXrecord
280
     1
 90
   990106
  3

 60
     0
 61
     0
 62
     1
 63
     3
 64
     0
 65
     0
 66
     0
 67
     3
 68
     1
 69
     0
 70
     0
 71
     0
 72
     0
 40
0.0
170
     0
340
0
  0
XRECORD
  5
2711D
102
{ACAD_REACTORS
330
C
102
}
330
C
100
AcDbXrecord
280
     1
 90
        1
330
1002B
330
26FBC
330
26FBE
  0
DICTIONARY
  5
5697
102
{ACAD_REACTORS
330
C
102
}
330
C
100
AcDbDictionary
281
     1
  3
CANNOSCALE
350
100CD
  3
CMLEADERSTYLE
350
100CC
  3
CTABLESTYLE
350
100CB
  3
CVIEWDETAILSTYLE
350
2702B
  3
CVIEWSECTIONSTYLE
350
2702C
  3
DIMASSOC
350
5698
  3
INDEXCTL
350
100CF
  3
LAYEREVAL
350
228A5
  3
LAYERNOTIFY
350
228A6
  3
LIGHTINGUNITS
350
228A4
  3
MSLTSCALE
350
228A3
  3
SORTENTS
350
100CE
  0
DICTIONARY
  5
102B7
102
{ACAD_REACTORS
330
C
102
}
330
C
100
AcDbDictionary
281
     1
  0
DICTIONARY
  5
1012A
102
{ACAD_REACTORS
330
C
102
}
330
C
100
AcDbDictionary
281
     1
  3
ASEBlockHierarchyIndexRecord
350
1012C
1001
DCO15
1040
1706443972.030999
  0
DICTIONARY
  5
160A3
102
{ACAD_REACTORS
330
160A2
102
}
330
160A2
100
AcDbDictionary
281
     1
  0
XRECORD
  5
10055
102
{ACAD_REACTORS
330
10054
102
}
330
10054
100
AcDbXrecord
280
     1
290
     1
  0
XRECORD
  5
10057
102
{ACAD_REACTORS
330
10056
102
}
330
10056
100
AcDbXrecord
280
     1
290
     1
  0
XRECORD
  5
10059
102
{ACAD_REACTORS
330
10058
102
}
330
10058
100
AcDbXrecord
280
     1
290
     1
  0
XRECORD
  5
1005B
102
{ACAD_REACTORS
330
1005A
102
}
330
1005A
100
AcDbXrecord
280
     1
290
     1
  0
XRECORD
  5
1005F
102
{ACAD_REACTORS
330
1005E
102
}
330
1005E
100
AcDbXrecord
280
     1
290
     1
  0
XRECORD
  5
10061
102
{ACAD_REACTORS
330
10060
102
}
330
10060
100
AcDbXrecord
280
     1
290
     1
  0
XRECORD
  5
10063
102
{ACAD_REACTORS
330
10062
102
}
330
10062
100
AcDbXrecord
280
     1
290
     1
  0
XRECORD
  5
10065
102
{ACAD_REACTORS
330
10064
102
}
330
10064
100
AcDbXrecord
280
     1
290
     1
  0
XRECORD
  5
10067
102
{ACAD_REACTORS
330
10066
102
}
330
10066
100
AcDbXrecord
280
     1
290
     1
  0
XRECORD
  5
10071
102
{ACAD_REACTORS
330
10070
102
}
330
10070
100
AcDbXrecord
280
     1
290
     1
  0
XRECORD
  5
10073
102
{ACAD_REACTORS
330
10072
102
}
330
10072
100
AcDbXrecord
280
     1
290
     1
  0
XRECORD
  5
10077
102
{ACAD_REACTORS
330
10076
102
}
330
10076
100
AcDbXrecord
280
     1
290
     1
  0
XRECORD
  5
10079
102
{ACAD_REACTORS
330
10078
102
}
330
10078
100
AcDbXrecord
280
     1
290
     1
  0
XRECORD
  5
1007B
102
{ACAD_REACTORS
330
1007A
102
}
330
1007A
100
AcDbXrecord
280
     1
290
     1
  0
XRECORD
  5
9011
102
{ACAD_REACTORS
330
178
102
}
330
178
100
AcDbXrecord
280
     1
340
1E
  0
SORTENTSTABLE
  5
10128
102
{ACAD_REACTORS
330
178
102
}
330
178
100
AcDbSortentsTable
330
1E
331
26CD3
  5
26CD3
331
26C7C
  5
26C7C
331
25B0B
  5
25B0F
331
26C00
  5
26C00
331
26C08
  5
26C08
331
26C47
  5
26C47
331
26C84
  5
26C84
331
25AD4
  5
25AD8
331
261C1
  5
2692B
331
26CE8
  5
26CE8
331
26C10
  5
26C10
331
25D5A
  5
25D5A
331
26C4F
  5
26C4F
331
23AB6
  5
25A18
331
25AA5
  5
25AA9
331
26CA4
  5
26CA4
331
26C57
  5
26C57
331
26CAC
  5
26CAC
331
26C18
  5
26C18
331
26C8C
  5
26C8C
331
26C94
  5
26C94
331
237F4
  5
226DC
331
26BCD
  5
26BCD
331
22624
  5
22799
331
26BD5
  5
26BD5
331
26BDD
  5
26BDD
331
25E74
  5
261C2
331
26BE1
  5
26BE1
331
26CB4
  5
26CB4
331
26C5D
  5
26C5D
331
25AAD
  5
25AB2
331
25B23
  5
25B27
331
26C20
  5
26C20
331
26C28
  5
26C28
331
25B2B
  5
25B3C
331
25E62
  5
26195
331
26CBC
  5
26CBC
331
26C65
  5
26C65
331
25AB5
  5
25AB9
331
26BE9
  5
26BE9
331
260AB
  5
26312
331
26C9D
  5
26C9D
331
26BF1
  5
26BF1
331
26C30
  5
26C30
331
26CC4
  5
26CC4
331
26C6D
  5
26C6D
331
25A26
  5
25A8C
331
25ABD
  5
25AC1
331
26CDD
  5
26CDD
331
26BF9
  5
26BF9
331
26C38
  5
26C38
331
26CCC
  5
26CCC
331
25B3B
  5
25B3F
331
26C75
  5
26C75
331
26122
  5
26924
331
26CE5
  5
26CE5
331
21BA7
  5
22762
331
21BC7
  5
2278C
331
26BBE
  5
26BBE
331
26BC6
  5
26BC6
331
26CD4
  5
26CD4
331
25B0C
  5
25B10
331
26C01
  5
26C01
331
26C40
  5
26C40
331
26C7D
  5
26C7D
331
26C48
  5
26C48
331
26CE9
  5
26CE9
331
261C2
  5
2692C
331
26C85
  5
26C85
331
25AD5
  5
25AD9
331
26C09
  5
26C09
331
26C50
  5
26C50
331
26CA5
  5
26CA5
331
25AA6
  5
25AAA
331
23AB7
  5
25A19
331
26C11
  5
26C11
331
26C19
  5
26C19
331
25E3B
  5
25E3B
331
26C8D
  5
26C8D
331
26CAD
  5
26CAD
331
26C95
  5
26C95
331
22625
  5
2279B
331
26BCE
  5
26BCE
331
26BD6
  5
26BD6
331
26BDE
  5
26BDE
331
25E75
  5
261F7
331
26BE2
  5
26BE2
331
26C21
  5
26C21
331
25B24
  5
25B28
331
25E43
  5
25E4B
331
26C5E
  5
26C5E
331
25AAE
  5
25AB3
331
26CB5
  5
26CB5
331
260AC
  5
2691B
331
26146
  5
2692D
331
26BEA
  5
26BEA
331
26C29
  5
26C29
331
26CBD
  5
26CBD
331
26C66
  5
26C66
331
23A78
  5
23AA6
331
25E63
  5
26196
331
26C9E
  5
26C9E
331
26CC5
  5
26CC5
331
26C6E
  5
26C6E
331
25ABE
  5
25AC2
331
26BF2
  5
26BF2
331
26C31
  5
26C31
331
26CDE
  5
26CDE
331
26C39
  5
26C39
331
25B3C
  5
25B40
331
26CCD
  5
26CCD
331
26C76
  5
26C76
331
26BFA
  5
26BFA
331
26CE6
  5
26CE6
331
23965
  5
23A68
331
23985
  5
23A6E
331
21BC8
  5
2278D
331
235A6
  5
23959
331
25E6E
  5
261C1
331
26BBF
  5
26BBF
331
26BC7
  5
26BC7
331
26C02
  5
26C02
331
26C41
  5
26C41
331
261BB
  5
26925
331
26CD5
  5
26CD5
331
26C7E
  5
26C7E
331
25B0D
  5
25B11
331
26C0A
  5
26C0A
331
26C49
  5
26C49
331
26C86
  5
26C86
331
25AD6
  5
25ADA
331
26CEA
  5
26CEA
331
2691B
  5
260AA
331
26C12
  5
26C12
331
26C51
  5
26C51
331
25AA7
  5
25AAB
331
26CA6
  5
26CA6
331
26C8E
  5
26C8E
331
26CAE
  5
26CAE
331
26C1A
  5
26C1A
331
26C96
  5
26C96
331
26BCF
  5
26BCF
331
22626
  5
227A2
331
26BD7
  5
26BD7
331
26BDF
  5
26BDF
331
25E76
  5
2626D
331
25E44
  5
25E4C
331
26BE3
  5
26BE3
331
26CB6
  5
26CB6
331
26C5F
  5
26C5F
331
25AAF
  5
25AB4
331
25AEE
  5
25AF2
331
25B25
  5
25B29
331
26C22
  5
26C22
331
26C2A
  5
26C2A
331
25E64
  5
261BB
331
26CBE
  5
26CBE
331
26C67
  5
26C67
331
25A20
  5
25A3A
331
25AB7
  5
25ABB
331
23A79
  5
23AA7
331
26BEB
  5
26BEB
331
260AD
  5
2691E
331
26C9F
  5
26C9F
331
26BF3
  5
26BF3
331
26C32
  5
26C32
331
26C6F
  5
26C6F
331
25A38
  5
25A93
331
25ABF
  5
25AC3
331
26CC6
  5
26CC6
331
26CDF
  5
26CDF
331
26BFB
  5
26BFB
331
26CCE
  5
26CCE
331
25B3D
  5
25B41
331
26C3A
  5
26C3A
331
26C77
  5
26C77
331
26CE7
  5
26CE7
331
21B81
  5
21B84
331
21BC9
  5
22797
331
22870
  5
22AC7
331
26BC0
  5
26BC0
331
261BC
  5
26926
331
26CD6
  5
26CD6
331
26C7F
  5
26C7F
331
26C03
  5
26C03
331
26C42
  5
26C42
331
26C4A
  5
26C4A
331
26CEB
  5
26CEB
331
26C87
  5
26C87
331
25AD7
  5
25ADB
331
26C0B
  5
26C0B
331
26C13
  5
26C13
331
26C52
  5
26C52
331
26CA7
  5
26CA7
331
26C1B
  5
26C1B
331
26C8F
  5
26C8F
331
26CAF
  5
26CAF
331
26C97
  5
26C97
331
22B00
  5
232F7
331
26BC8
  5
26BC8
331
26BD0
  5
26BD0
331
26BD8
  5
26BD8
331
25E77
  5
26275
331
26C58
  5
26C58
331
25AA8
  5
25AAC
331
26BE4
  5
26BE4
331
26C23
  5
26C23
331
25B26
  5
25B2A
331
25E45
  5
25E4D
331
25AEF
  5
25AF3
331
26C60
  5
26C60
331
26CB7
  5
26CB7
331
260AE
  5
2691F
331
26C98
  5
26C98
331
25E65
  5
261BC
331
26BEC
  5
26BEC
331
26CBF
  5
26CBF
331
25B2E
  5
25B3D
331
26C2B
  5
26C2B
331
26C68
  5
26C68
331
23A7A
  5
23AA8
331
25A21
  5
25A3B
331
26CD8
  5
26CD8
331
26CC7
  5
26CC7
331
26C70
  5
26C70
331
26BF4
  5
26BF4
331
25A39
  5
25AA5
331
26C33
  5
26C33
331
26CE0
  5
26CE0
331
26C3B
  5
26C3B
331
26CCF
  5
26CCF
331
26BFC
  5
26BFC
331
26196
  5
2692F
331
21B82
  5
21B85
331
22869
  5
22AC6
331
22871
  5
22AC8
331
237E8
  5
22780
331
26050
  5
2630F
331
26BC1
  5
26BC1
331
26C78
  5
26C78
331
26CF0
  5
26CF0
331
26C04
  5
26C04
331
26C43
  5
26C43
331
261BD
  5
26927
331
26C80
  5
26C80
331
26CD7
  5
26CD7
331
26CEC
  5
26CEC
331
26CF8
  5
26CF8
331
26C0C
  5
26C0C
331
26C4B
  5
26C4B
331
26CA0
  5
26CA0
331
23AB2
  5
24A53
331
25AD8
  5
25ADC
331
26C88
  5
26C88
331
26CA8
  5
26CA8
331
26C14
  5
26C14
331
26C53
  5
26C53
331
26C90
  5
26C90
331
26C1C
  5
26C1C
331
237F0
  5
2276F
331
237F8
  5
226DB
331
226DA
  5
22871
331
239C7
  5
23A70
331
26BC9
  5
26BC9
331
26BD1
  5
26BD1
331
26BD9
  5
26BD9
331
26CB0
  5
26CB0
331
25AA9
  5
25AAD
331
26C59
  5
26C59
331
26C24
  5
26C24
331
25E46
  5
25E4F
331
26BE5
  5
26BE5
331
26CB8
  5
26CB8
331
26C61
  5
26C61
331
25AB1
  5
25AB5
331
25AF0
  5
25AF4
331
25B27
  5
25B2B
331
26C99
  5
26C99
331
26C2C
  5
26C2C
331
25E66
  5
261BD
331
26CC0
  5
26CC0
331
26C69
  5
26C69
331
25A22
  5
25A5E
331
23A7B
  5
23AA9
331
26BED
  5
26BED
331
2616F
  5
2692E
331
26CD9
  5
26CD9
331
26BF5
  5
26BF5
331
26C34
  5
26C34
331
2626D
  5
26931
331
26C71
  5
26C71
331
25A3A
  5
25AA6
331
26CC8
  5
26CC8
331
26275
  5
26932
331
26CE1
  5
26CE1
331
26BFD
  5
26BFD
331
26C3C
  5
26C3C
331
2627D
  5
26933
331
260FF
  5
26920
331
21B83
  5
21B86
331
261F7
  5
26930
331
26BC2
  5
26BC2
331
26CD0
  5
26CD0
331
25B08
  5
25B0C
331
26C79
  5
26C79
331
25A8A
  5
25AA8
331
26CF1
  5
26CF1
331
261BE
  5
26928
331
26C05
  5
26C05
331
26C81
  5
26C81
331
25B4F
  5
25D2F
331
26C44
  5
26C44
331
26C4C
  5
26C4C
331
26CED
  5
26CED
331
26CA1
  5
26CA1
331
25AD9
  5
25ADD
331
23AB3
  5
24A54
331
26C0D
  5
26C0D
331
26C89
  5
26C89
331
26C15
  5
26C15
331
26C54
  5
26C54
331
26CA9
  5
26CA9
331
26C1D
  5
26C1D
331
26C91
  5
26C91
331
239C8
  5
23A71
331
226DB
  5
22874
331
237F9
  5
21BAD
331
23839
  5
2395E
331
226E3
  5
22876
331
22B02
  5
232F9
331
26BCA
  5
26BCA
331
26BD2
  5
26BD2
331
26BDA
  5
26BDA
331
26CB1
  5
26CB1
331
26C5A
  5
26C5A
331
25AAA
  5
25AAE
331
26BE6
  5
26BE6
331
26CB9
  5
26CB9
331
25AF1
  5
25AF5
331
25B28
  5
25B2E
331
26C25
  5
26C25
331
26C62
  5
26C62
331
25AB2
  5
25AB6
331
26C9A
  5
26C9A
331
25E67
  5
261BE
331
26CC1
  5
26CC1
331
26BEE
  5
26BEE
331
26C2D
  5
26C2D
331
23A7C
  5
23AAA
331
25A23
  5
25A87
331
26C6A
  5
26C6A
331
26C35
  5
26C35
331
2611F
  5
26921
331
26CC9
  5
26CC9
331
26C72
  5
26C72
331
26BF6
  5
26BF6
331
25A3B
  5
25AA7
331
26CDA
  5
26CDA
331
26CE2
  5
26CE2
331
26C3D
  5
26C3D
331
26BFE
  5
26BFE
331
21BA4
  5
226DD
331
23989
  5
23A6F
331
25E6A
  5
261BF
331
26BC3
  5
26BC3
331
26CD1
  5
26CD1
331
26C7A
  5
26C7A
331
25B09
  5
25B0D
331
26CF2
  5
26CF2
331
26C06
  5
26C06
331
26C45
  5
26C45
331
26C82
  5
26C82
331
261BF
  5
26929
331
26CEE
  5
26CEE
331
26C0E
  5
26C0E
331
26C4D
  5
26C4D
331
26CA2
  5
26CA2
331
23AB4
  5
25A16
331
26C8A
  5
26C8A
331
26CAA
  5
26CAA
331
26C16
  5
26C16
331
26C55
  5
26C55
331
26C92
  5
26C92
331
26C1E
  5
26C1E
331
228B3
  5
22ACC
331
22A8B
  5
20BCA
331
226DC
  5
22875
331
2383A
  5
2395D
331
26BCB
  5
26BCB
331
26BD3
  5
26BD3
331
26BDB
  5
26BDB
331
26CB2
  5
26CB2
331
25AAB
  5
25AAF
331
26C5B
  5
26C5B
331
26C26
  5
26C26
331
25B29
  5
25B32
331
26CBA
  5
26CBA
331
26C63
  5
26C63
331
25AB3
  5
25AB7
331
25AF2
  5
25AF6
331
26BE7
  5
26BE7
331
260A9
  5
26310
331
26C9B
  5
26C9B
331
26C2E
  5
26C2E
331
26CC2
  5
26CC2
331
26C6B
  5
26C6B
331
25A24
  5
25A89
331
25ABB
  5
25ABF
331
23A7D
  5
23AAB
331
26BEF
  5
26BEF
331
26CDB
  5
26CDB
331
26BF7
  5
26BF7
331
26C36
  5
26C36
331
26CCA
  5
26CCA
331
26C73
  5
26C73
331
26120
  5
26922
331
A94C
  5
A94C
331
26CE3
  5
26CE3
331
26BFF
  5
26BFF
331
26C3E
  5
26C3E
331
22D1B
  5
232FB
331
22844
  5
22AC5
331
23593
  5
23951
331
21BC5
  5
22781
331
26BBC
  5
26BBC
331
26BC4
  5
26BC4
331
22903
  5
22ACD
331
26CD2
  5
26CD2
331
25B0A
  5
25B0E
331
26C7B
  5
26C7B
331
26C46
  5
26C46
331
261C0
  5
2692A
331
26C07
  5
26C07
331
26C83
  5
26C83
331
25A94
  5
2395C
331
25D41
  5
25D41
331
26CF3
  5
26CF3
331
26C4E
  5
26C4E
331
26CEF
  5
26CEF
331
26CA3
  5
26CA3
331
23AB5
  5
25A17
331
26C0F
  5
26C0F
331
26C8B
  5
26C8B
331
26C17
  5
26C17
331
26C56
  5
26C56
331
26CAB
  5
26CAB
331
26C1F
  5
26C1F
331
26C93
  5
26C93
331
26BCC
  5
26BCC
331
25FF3
  5
2627D
331
26BD4
  5
26BD4
331
26BDC
  5
26BDC
331
26033
  5
2630E
331
26BE0
  5
26BE0
331
25B22
  5
25B26
331
25E41
  5
25E44
331
26CB3
  5
26CB3
331
26C5C
  5
26C5C
331
25AAC
  5
25AB1
331
260AA
  5
26311
331
26BE8
  5
26BE8
331
26C27
  5
26C27
331
26CBB
  5
26CBB
331
25AF3
  5
25AF7
331
25B2A
  5
25B3B
331
26C64
  5
26C64
331
25AB4
  5
25AB8
331
25E61
  5
26194
331
26C9C
  5
26C9C
331
26BF0
  5
26BF0
331
26CC3
  5
26CC3
331
25B32
  5
25B3E
331
26C2F
  5
26C2F
331
25ABC
  5
25AC0
331
25A25
  5
25A8B
331
26C6C
  5
26C6C
331
26CDC
  5
26CDC
331
26C37
  5
26C37
331
26121
  5
26923
331
26CCB
  5
26CCB
331
26C74
  5
26C74
331
26BF8
  5
26BF8
331
26CE4
  5
26CE4
331
26C3F
  5
26C3F
331
22D1C
  5
232FC
331
21BA6
  5
226EC
331
21BC6
  5
2278B
331
23983
  5
23A69
331
237EC
  5
2277F
331
25E6C
  5
261C0
331
26BBD
  5
26BBD
331
26BC5
  5
26BC5
  0
XRECORD
  5
9010
102
{ACAD_REACTORS
330
17A
102
}
330
17A
100
AcDbXrecord
280
     1
340
1A
  0
SORTENTSTABLE
  5
26263
102
{ACAD_REACTORS
330
26262
102
}
330
26262
100
AcDbSortentsTable
330
15CE1
  0
SORTENTSTABLE
  5
269B9
102
{ACAD_REACTORS
330
269B8
102
}
330
269B8
100
AcDbSortentsTable
330
269A5
  0
DICTIONARY
  5
26CF5
102
{ACAD_REACTORS
330
26CF4
102
}
330
26CF4
100
AcDbDictionary
281
     1
  3
ACDB_ANNOTATIONSCALES
350
26CF6
  0
ACDBDETAILVIEWSTYLE
  5
26FBE
102
{ACAD_XDICTIONARY
360
27031
102
}
102
{ACAD_REACTORS
330
26FBD
102
}
330
26FBD
100
AcDbModelDocViewStyle
 70
     0
  3
Imperial24
290
     0
100
AcDbDetailViewStyle
 70
     0
 71
     0
 90
        3
 71
     1
340
11
 62
   256
 40
0.24
340
0
 62
   256
 40
0.24
300

 40
0.36
280
     3
 71
     2
340
15
 90
       25
 62
   256
 71
     3
340
11
 62
   256
 40
0.24
 90
        1
 40
0.75
 90
        1
300
%<\AcVar ViewType \f "%tc1">% %<\AcVar ViewDetailId>%\PSCALE %<\AcVar ViewScale \f "%sn">%
 71
     4
340
15
 90
       25
 62
   256
340
15
 90
       25
 62
   256
280
     0
  0
LAYOUT
  5
904E
102
{ACAD_XDICTIONARY
360
1F6F5
102
}
102
{ACAD_REACTORS
330
19
102
}
330
19
100
AcDbPlotSettings
  1

  2
Canon LBP3800 LIPSLX
  4
A4
  6

 40
5.873749732971191
 41
5.873747825622557
 42
5.873748779296875
 43
5.873748779296875
 44
209.9733276367186
 45
296.9259948730469
 46
12.8491819637551
 47
19.52827530649846
 48
0.0
 49
0.0
140
0.0
141
0.0
142
1.0
143
2.5
 70
 11940
 72
     1
 73
     0
 74
     1
  7
monochrome.ctb
 75
     0
147
0.4396468539207607
 76
     0
 77
     2
 78
   300
148
148.1273750533901
149
230.5569407722878
100
AcDbLayout
  1
Model
 70
     1
 71
     0
 10
0.0
 20
0.0
 11
12.0
 21
9.0
 12
0.0
 22
0.0
 32
0.0
 14
0.0
 24
0.0
 34
0.0
 15
0.0
 25
0.0
 35
0.0
146
0.0
 13
0.0
 23
0.0
 33
0.0
 16
1.0
 26
0.0
 36
0.0
 17
0.0
 27
1.0
 37
0.0
 76
     0
330
1E
331
15B34
1001
ACAD_PSEXT
1000
Canon LBP3800 LIPSLX
1000
Canon LBP3800 LIPSLX
1000
IP_192.168.54.50
1000

1070
     0
  0
LAYOUT
  5
904F
102
{ACAD_REACTORS
330
19
102
}
330
19
100
AcDbPlotSettings
  1

  2
LBP5400
  4

  6

 40
0.0
 41
0.0
 42
0.0
 43
0.0
 44
0.0
 45
0.0
 46
0.0
 47
0.0
 48
0.0
 49
0.0
140
0.0
141
0.0
142
1.0
143
1.0
 70
   688
 72
     0
 73
     1
 74
     1
  7
monochrome.stb
 75
     0
147
1.0
 76
     0
 77
     2
 78
   300
148
0.0
149
0.0
100
AcDbLayout
  1
ﾚｲｱｳﾄ1
 70
     0
 71
     1
 10
0.0
 20
0.0
 11
0.0
 21
0.0
 12
0.0
 22
0.0
 32
0.0
 14
0.0
 24
0.0
 34
0.0
 15
0.0
 25
0.0
 35
0.0
146
0.0
 13
0.0
 23
0.0
 33
0.0
 16
1.0
 26
0.0
 36
0.0
 17
0.0
 27
1.0
 37
0.0
 76
     0
330
1A
331
9AC
  0
MATERIAL
  5
10005
102
{ACAD_XDICTIONARY
360
10006
102
}
102
{ACAD_REACTORS
330
FFFC
102
}
330
FFFC
100
AcDbMaterial
  1
ByBlock
 72
     0
 43
0.0208333333333333
 43
0.0
 43
0.0
 43
0.0
 43
0.0
 43
0.0208333333333333
 43
0.0
 43
0.0
 43
0.0
 43
0.0
 43
1.0
 43
0.0
 43
0.0
 43
0.0
 43
0.0
 43
1.0
 77
     0
 47
0.0208333333333333
 47
0.0
 47
0.0
 47
0.0
 47
0.0
 47
0.0208333333333333
 47
0.0
 47
0.0
 47
0.0
 47
0.0
 47
1.0
 47
0.0
 47
0.0
 47
0.0
 47
0.0
 47
1.0
171
     0
 49
0.0208333333333333
 49
0.0
 49
0.0
 49
0.0
 49
0.0
 49
0.0208333333333333
 49
0.0
 49
0.0
 49
0.0
 49
0.0
 49
1.0
 49
0.0
 49
0.0
 49
0.0
 49
0.0
 49
1.0
175
     0
142
0.0208333333333333
142
0.0
142
0.0
142
0.0
142
0.0
142
0.0208333333333333
142
0.0
142
0.0
142
0.0
142
0.0
142
1.0
142
0.0
142
0.0
142
0.0
142
0.0
142
1.0
179
     0
144
0.0208333333333333
144
0.0
144
0.0
144
0.0
144
0.0
144
0.0208333333333333
144
0.0
144
0.0
144
0.0
144
0.0
144
1.0
144
0.0
144
0.0
144
0.0
144
0.0
144
1.0
147
0.0208333333333333
147
0.0
147
0.0
147
0.0
147
0.0
147
0.0208333333333333
147
0.0
147
0.0
147
0.0
147
0.0
147
1.0
147
0.0
147
0.0
147
0.0
147
0.0
147
1.0
  0
MATERIAL
  5
FFFD
102
{ACAD_XDICTIONARY
360
FFFE
102
}
102
{ACAD_REACTORS
330
FFFC
102
}
330
FFFC
100
AcDbMaterial
  1
ByLayer
 72
     0
 43
0.0208333333333333
 43
0.0
 43
0.0
 43
0.0
 43
0.0
 43
0.0208333333333333
 43
0.0
 43
0.0
 43
0.0
 43
0.0
 43
1.0
 43
0.0
 43
0.0
 43
0.0
 43
0.0
 43
1.0
 77
     0
 47
0.0208333333333333
 47
0.0
 47
0.0
 47
0.0
 47
0.0
 47
0.0208333333333333
 47
0.0
 47
0.0
 47
0.0
 47
0.0
 47
1.0
 47
0.0
 47
0.0
 47
0.0
 47
0.0
 47
1.0
171
     0
 49
0.0208333333333333
 49
0.0
 49
0.0
 49
0.0
 49
0.0
 49
0.0208333333333333
 49
0.0
 49
0.0
 49
0.0
 49
0.0
 49
1.0
 49
0.0
 49
0.0
 49
0.0
 49
0.0
 49
1.0
175
     0
142
0.0208333333333333
142
0.0
142
0.0
142
0.0
142
0.0
142
0.0208333333333333
142
0.0
142
0.0
142
0.0
142
0.0
142
1.0
142
0.0
142
0.0
142
0.0
142
0.0
142
1.0
179
     0
144
0.0208333333333333
144
0.0
144
0.0
144
0.0
144
0.0
144
0.0208333333333333
144
0.0
144
0.0
144
0.0
144
0.0
144
1.0
144
0.0
144
0.0
144
0.0
144
0.0
144
1.0
147
0.0208333333333333
147
0.0
147
0.0
147
0.0
147
0.0
147
0.0208333333333333
147
0.0
147
0.0
147
0.0
147
0.0
147
1.0
147
0.0
147
0.0
147
0.0
147
0.0
147
1.0
  0
MATERIAL
  5
1000D
102
{ACAD_XDICTIONARY
360
1000E
102
}
102
{ACAD_REACTORS
330
FFFC
102
}
330
FFFC
100
AcDbMaterial
  1
Global
 72
     0
 43
0.0208333333333333
 43
0.0
 43
0.0
 43
0.0
 43
0.0
 43
0.0208333333333333
 43
0.0
 43
0.0
 43
0.0
 43
0.0
 43
1.0
 43
0.0
 43
0.0
 43
0.0
 43
0.0
 43
1.0
 77
     0
 47
0.0208333333333333
 47
0.0
 47
0.0
 47
0.0
 47
0.0
 47
0.0208333333333333
 47
0.0
 47
0.0
 47
0.0
 47
0.0
 47
1.0
 47
0.0
 47
0.0
 47
0.0
 47
0.0
 47
1.0
171
     0
 49
0.0208333333333333
 49
0.0
 49
0.0
 49
0.0
 49
0.0
 49
0.0208333333333333
 49
0.0
 49
0.0
 49
0.0
 49
0.0
 49
1.0
 49
0.0
 49
0.0
 49
0.0
 49
0.0
 49
1.0
175
     0
142
0.0208333333333333
142
0.0
142
0.0
142
0.0
142
0.0
142
0.0208333333333333
142
0.0
142
0.0
142
0.0
142
0.0
142
1.0
142
0.0
142
0.0
142
0.0
142
0.0
142
1.0
179
     0
144
0.0208333333333333
144
0.0
144
0.0
144
0.0
144
0.0
144
0.0208333333333333
144
0.0
144
0.0
144
0.0
144
0.0
144
1.0
144
0.0
144
0.0
144
0.0
144
0.0
144
1.0
147
0.0208333333333333
147
0.0
147
0.0
147
0.0
147
0.0
147
0.0208333333333333
147
0.0
147
0.0
147
0.0
147
0.0
147
1.0
147
0.0
147
0.0
147
0.0
147
0.0
147
1.0
  0
MLEADERSTYLE
  5
1004F
102
{ACAD_REACTORS
330
1004E
102
}
330
1004E
100
AcDbMLeaderStyle
179
     2
170
     2
171
     1
172
     0
 90
        2
 40
0.0
 41
0.0
173
     1
 91
-1056964608
340
13
 92
       -2
290
     1
 42
0.09
291
     1
 43
0.36
  3
Standard
 44
0.18
300

342
11
174
     1
178
     6
175
     1
176
     0
 93
-1056964608
 45
0.18
292
     0
297
     0
 46
0.18
 94
-1056964608
 47
1.0
 49
1.0
140
1.0
293
     1
141
0.0
294
     1
177
     0
142
1.0
295
     0
296
     0
143
0.125
271
     0
272
     9
273
     9
298
     0
  0
MLINESTYLE
  5
17
102
{ACAD_REACTORS
330
16
102
}
330
16
100
AcDbMlineStyle
  2
STANDARD
 70
     0
  3

 62
   256
 51
90.0
 52
90.0
 71
     2
 49
0.5
 62
   256
  6
BYLAYER
 49
-0.5
 62
   256
  6
BYLAYER
  0
ACDBPLACEHOLDER
  5
F
102
{ACAD_REACTORS
330
E
102
}
330
E
  0
SCALE
  5
1002D
102
{ACAD_REACTORS
330
1002C
102
}
330
1002C
100
AcDbScale
 70
     0
300
1:1
140
1.0
141
1.0
290
     1
  0
SCALE
  5
1002E
102
{ACAD_REACTORS
330
1002C
102
}
330
1002C
100
AcDbScale
 70
     0
300
1:2
140
1.0
141
2.0
290
     0
  0
SCALE
  5
1002F
102
{ACAD_REACTORS
330
1002C
102
}
330
1002C
100
AcDbScale
 70
     0
300
1:4
140
1.0
141
4.0
290
     0
  0
SCALE
  5
10030
102
{ACAD_REACTORS
330
1002C
102
}
330
1002C
100
AcDbScale
 70
     0
300
1:5
140
1.0
141
5.0
290
     0
  0
SCALE
  5
10031
102
{ACAD_REACTORS
330
1002C
102
}
330
1002C
100
AcDbScale
 70
     0
300
1:8
140
1.0
141
8.0
290
     0
  0
SCALE
  5
10032
102
{ACAD_REACTORS
330
1002C
102
}
330
1002C
100
AcDbScale
 70
     0
300
1:10
140
1.0
141
10.0
290
     0
  0
SCALE
  5
10033
102
{ACAD_REACTORS
330
1002C
102
}
330
1002C
100
AcDbScale
 70
     0
300
1:16
140
1.0
141
16.0
290
     0
  0
SCALE
  5
10034
102
{ACAD_REACTORS
330
1002C
102
}
330
1002C
100
AcDbScale
 70
     0
300
1:20
140
1.0
141
20.0
290
     0
  0
SCALE
  5
10035
102
{ACAD_REACTORS
330
1002C
102
}
330
1002C
100
AcDbScale
 70
     0
300
1:30
140
1.0
141
30.0
290
     0
  0
SCALE
  5
10036
102
{ACAD_REACTORS
330
1002C
102
}
330
1002C
100
AcDbScale
 70
     0
300
1:40
140
1.0
141
40.0
290
     0
  0
SCALE
  5
10037
102
{ACAD_REACTORS
330
1002C
102
}
330
1002C
100
AcDbScale
 70
     0
300
1:50
140
1.0
141
50.0
290
     0
  0
SCALE
  5
10038
102
{ACAD_REACTORS
330
1002C
102
}
330
1002C
100
AcDbScale
 70
     0
300
1:100
140
1.0
141
100.0
290
     0
  0
SCALE
  5
10039
102
{ACAD_REACTORS
330
1002C
102
}
330
1002C
100
AcDbScale
 70
     0
300
2:1
140
2.0
141
1.0
290
     0
  0
SCALE
  5
1003A
102
{ACAD_REACTORS
330
1002C
102
}
330
1002C
100
AcDbScale
 70
     0
300
4:1
140
4.0
141
1.0
290
     0
  0
SCALE
  5
1003B
102
{ACAD_REACTORS
330
1002C
102
}
330
1002C
100
AcDbScale
 70
     0
300
8:1
140
8.0
141
1.0
290
     0
  0
SCALE
  5
1003C
102
{ACAD_REACTORS
330
1002C
102
}
330
1002C
100
AcDbScale
 70
     0
300
10:1
140
10.0
141
1.0
290
     0
  0
SCALE
  5
1003D
102
{ACAD_REACTORS
330
1002C
102
}
330
1002C
100
AcDbScale
 70
     0
300
100:1
140
100.0
141
1.0
290
     0
  0
SCALE
  5
1003E
102
{ACAD_REACTORS
330
1002C
102
}
330
1002C
100
AcDbScale
 70
     0
300
1/128" = 1'-0"
140
0.0078125
141
12.0
290
     0
  0
SCALE
  5
1003F
102
{ACAD_REACTORS
330
1002C
102
}
330
1002C
100
AcDbScale
 70
     0
300
1/64" = 1'-0"
140
0.015625
141
12.0
290
     0
  0
SCALE
  5
10040
102
{ACAD_REACTORS
330
1002C
102
}
330
1002C
100
AcDbScale
 70
     0
300
1/32" = 1'-0"
140
0.03125
141
12.0
290
     0
  0
SCALE
  5
10041
102
{ACAD_REACTORS
330
1002C
102
}
330
1002C
100
AcDbScale
 70
     0
300
1/16" = 1'-0"
140
0.0625
141
12.0
290
     0
  0
SCALE
  5
10042
102
{ACAD_REACTORS
330
1002C
102
}
330
1002C
100
AcDbScale
 70
     0
300
3/32" = 1'-0"
140
0.09375
141
12.0
290
     0
  0
SCALE
  5
10043
102
{ACAD_REACTORS
330
1002C
102
}
330
1002C
100
AcDbScale
 70
     0
300
1/8" = 1'-0"
140
0.125
141
12.0
290
     0
  0
SCALE
  5
10044
102
{ACAD_REACTORS
330
1002C
102
}
330
1002C
100
AcDbScale
 70
     0
300
3/16" = 1'-0"
140
0.1875
141
12.0
290
     0
  0
SCALE
  5
10045
102
{ACAD_REACTORS
330
1002C
102
}
330
1002C
100
AcDbScale
 70
     0
300
1/4" = 1'-0"
140
0.25
141
12.0
290
     0
  0
SCALE
  5
10046
102
{ACAD_REACTORS
330
1002C
102
}
330
1002C
100
AcDbScale
 70
     0
300
3/8" = 1'-0"
140
0.375
141
12.0
290
     0
  0
SCALE
  5
10047
102
{ACAD_REACTORS
330
1002C
102
}
330
1002C
100
AcDbScale
 70
     0
300
1/2" = 1'-0"
140
0.5
141
12.0
290
     0
  0
SCALE
  5
10048
102
{ACAD_REACTORS
330
1002C
102
}
330
1002C
100
AcDbScale
 70
     0
300
3/4" = 1'-0"
140
0.75
141
12.0
290
     0
  0
SCALE
  5
10049
102
{ACAD_REACTORS
330
1002C
102
}
330
1002C
100
AcDbScale
 70
     0
300
1" = 1'-0"
140
1.0
141
12.0
290
     0
  0
SCALE
  5
1004A
102
{ACAD_REACTORS
330
1002C
102
}
330
1002C
100
AcDbScale
 70
     0
300
1-1/2" = 1'-0"
140
1.5
141
12.0
290
     0
  0
SCALE
  5
1004B
102
{ACAD_REACTORS
330
1002C
102
}
330
1002C
100
AcDbScale
 70
     0
300
3" = 1'-0"
140
3.0
141
12.0
290
     0
  0
SCALE
  5
1004C
102
{ACAD_REACTORS
330
1002C
102
}
330
1002C
100
AcDbScale
 70
     0
300
6" = 1'-0"
140
6.0
141
12.0
290
     0
  0
SCALE
  5
1004D
102
{ACAD_REACTORS
330
1002C
102
}
330
1002C
100
AcDbScale
 70
     0
300
1'-0" = 1'-0"
140
12.0
141
12.0
290
     0
  0
ACDBSECTIONVIEWSTYLE
  5
26FBC
102
{ACAD_XDICTIONARY
360
2702F
102
}
102
{ACAD_REACTORS
330
26FBB
102
}
330
26FBB
100
AcDbModelDocViewStyle
 70
     0
  3
Imperial24
290
     0
100
AcDbSectionViewStyle
 70
     0
 71
     0
 90
       78
 71
     1
340
11
 62
   256
 40
0.24
340
0
340
0
 62
   256
 40
0.24
300
I, O, Q, S, X, Z
 40
0.48
 90
        3
 40
0.18
 90
        1
 71
     2
340
15
 90
       25
 62
   256
340
15
 90
       50
 62
   256
 40
0.24
 40
0.0
 40
0.24
 71
     3
340
11
 62
   256
 40
0.24
 90
        1
 40
0.75
 90
        1
300
%<\AcVar ViewType \f "%tc1">% %<\AcVar ViewSectionStartId>%-%<\AcVar ViewSectionEndId>%\PSCALE %<\AcVar ViewScale \f "%sn">%
 71
     4
 62
   256
 62
   257
300
ANSI31
 40
1.0
 90
        0
290
     0
290
     0
 90
        6
 40
0.0
 40
1.570796326794896
 40
0.2617993877991494
 40
1.308996938995747
 40
-0.2617993877991494
 40
1.832595714594044
  0
TABLESTYLE
  5
1002B
102
{ACAD_XDICTIONARY
360
1007E
102
}
102
{ACAD_REACTORS
330
1002A
102
}
330
1002A
100
AcDbTableStyle
280
     0
  3
Standard
 70
     0
 71
     0
 40
0.06
 41
0.06
280
     0
281
     0
  7
STANDARD
140
0.18
170
     2
 62
     0
 63
     7
283
     0
 90
      512
 91
        0
  1

274
    -2
284
     1
 64
     0
275
    -2
285
     1
 65
     0
276
    -2
286
     1
 66
     0
277
    -2
287
     1
 67
     0
278
    -2
288
     1
 68
     0
279
    -2
289
     1
 69
     0
  7
STANDARD
140
0.25
170
     5
 62
     0
 63
     7
283
     0
 90
      512
 91
        0
  1

274
    -2
284
     1
 64
     0
275
    -2
285
     1
 65
     0
276
    -2
286
     1
 66
     0
277
    -2
287
     1
 67
     0
278
    -2
288
     1
 68
     0
279
    -2
289
     1
 69
     0
  7
STANDARD
140
0.18
170
     5
 62
     0
 63
     7
283
     0
 90
      512
 91
        0
  1

274
    -2
284
     1
 64
     0
275
    -2
285
     1
 65
     0
276
    -2
286
     1
 66
     0
277
    -2
287
     1
 67
     0
278
    -2
288
     1
 68
     0
279
    -2
289
     1
 69
     0
  0
VISUALSTYLE
  5
1001B
102
{ACAD_REACTORS
330
10015
102
}
330
10015
100
AcDbVisualStyle
  2
2dWireframe
 70
     4
177
     3
291
     0
 70
    58
 90
        0
176
     1
 90
        2
176
     1
 90
        0
176
     1
 90
        0
176
     1
 40
0.6
176
     1
 40
30.0
176
     1
 62
     7
176
     1
 90
        1
176
     1
 90
        4
176
     1
 62
     7
176
     1
 62
   257
176
     1
 90
        1
176
     1
 90
        1
176
     1
 40
1.0
176
     1
 90
        0
176
     1
 62
   257
176
     1
 40
1.0
176
     1
 90
        1
176
     1
 90
        6
176
     1
 90
        2
176
     1
 62
     7
176
     1
 90
        5
176
     1
 90
        0
176
     1
 90
        0
176
     1
290
     0
176
     1
 90
        1
176
     1
 40
0.0
176
     1
 90
        0
176
     1
290
     1
176
     1
290
     1
176
     1
290
     0
176
     1
290
     0
176
     1
290
     0
176
     1
290
     0
176
     1
290
     0
176
     1
290
     0
176
     1
290
     0
176
     1
 90
       50
176
     1
 40
0.0
176
     1
 40
1.0
176
     1
 90
        0
176
     1
 62
    18
176
     1
 90
       50
176
     1
 90
        3
176
     1
 62
     5
420
      255
176
     1
290
     0
176
     1
 90
       50
176
     1
 90
       50
176
     1
 90
       50
176
     1
290
     0
176
     1
 90
       50
176
     1
 62
   256
176
     0
 40
1.0
176
     0
 90
        2
176
     1
  1
strokes_ogs.tif
176
     1
290
     0
176
     1
 40
1.0
176
     1
 40
1.0
176
     1
  0
VISUALSTYLE
  5
1001D
102
{ACAD_REACTORS
330
10015
102
}
330
10015
100
AcDbVisualStyle
  2
3D Hidden
 70
     6
177
     3
291
     0
 70
    58
 90
        1
176
     1
 90
        2
176
     1
 90
        2
176
     1
 90
        0
176
     1
 40
0.6
176
     1
 40
30.0
176
     1
 62
     7
176
     1
 90
        2
176
     1
 90
        2
176
     1
 62
     7
176
     1
 62
   257
176
     1
 90
        2
176
     1
 90
        1
176
     1
 40
179.0
176
     1
 90
        0
176
     1
 62
   257
176
     1
 40
1.0
176
     1
 90
        1
176
     1
 90
        6
176
     1
 90
        2
176
     1
 62
     7
176
     1
 90
        3
176
     1
 90
        0
176
     1
 90
        0
176
     1
290
     0
176
     1
 90
        1
176
     1
 40
0.0
176
     1
 90
        0
176
     1
290
     0
176
     1
290
     1
176
     1
290
     1
176
     1
290
     0
176
     1
290
     0
176
     1
290
     0
176
     1
290
     0
176
     1
290
     0
176
     1
290
     0
176
     1
 90
       50
176
     1
 40
0.0
176
     1
 40
1.0
176
     1
 90
        0
176
     1
 62
    18
176
     1
 90
       50
176
     1
 90
        3
176
     1
 62
     5
420
      255
176
     1
290
     0
176
     1
 90
       50
176
     1
 90
       50
176
     1
 90
       50
176
     1
290
     0
176
     1
 90
       50
176
     1
 62
   256
176
     0
 40
1.0
176
     0
 90
        2
176
     1
  1
strokes_ogs.tif
176
     1
290
     0
176
     1
 40
1.0
176
     1
 40
1.0
176
     1
  0
VISUALSTYLE
  5
1001C
102
{ACAD_REACTORS
330
10015
102
}
330
10015
100
AcDbVisualStyle
  2
3dWireframe
 70
     5
177
     3
291
     0
 70
    58
 90
        0
176
     1
 90
        2
176
     1
 90
        0
176
     1
 90
        0
176
     1
 40
0.6
176
     1
 40
30.0
176
     1
 62
     7
176
     1
 90
        1
176
     1
 90
        4
176
     1
 62
     7
176
     1
 62
   257
176
     1
 90
        1
176
     1
 90
        1
176
     1
 40
1.0
176
     1
 90
        0
176
     1
 62
   257
176
     1
 40
1.0
176
     1
 90
        1
176
     1
 90
        6
176
     1
 90
        2
176
     1
 62
     7
176
     1
 90
        5
176
     1
 90
        0
176
     1
 90
        0
176
     1
290
     0
176
     1
 90
        1
176
     1
 40
0.0
176
     1
 90
        0
176
     1
290
     0
176
     1
290
     1
176
     1
290
     1
176
     1
290
     0
176
     1
290
     0
176
     1
290
     0
176
     1
290
     0
176
     1
290
     0
176
     1
290
     0
176
     1
 90
       50
176
     1
 40
0.0
176
     1
 40
1.0
176
     1
 90
        0
176
     1
 62
    18
176
     1
 90
       50
176
     1
 90
        3
176
     1
 62
     5
420
      255
176
     1
290
     0
176
     1
 90
       50
176
     1
 90
       50
176
     1
 90
       50
176
     1
290
     0
176
     1
 90
       50
176
     1
 62
   256
176
     0
 40
1.0
176
     0
 90
        2
176
     1
  1
strokes_ogs.tif
176
     1
290
     0
176
     1
 40
1.0
176
     1
 40
1.0
176
     1
  0
VISUALSTYLE
  5
1001A
102
{ACAD_REACTORS
330
10015
102
}
330
10015
100
AcDbVisualStyle
  2
Basic
 70
     7
177
     3
291
     1
 70
    58
 90
        1
176
     1
 90
        0
176
     1
 90
        1
176
     1
 90
        0
176
     1
 40
0.6
176
     1
 40
30.0
176
     1
 62
     7
176
     1
 90
        0
176
     1
 90
        4
176
     1
 62
     7
176
     1
 62
   257
176
     1
 90
        1
176
     1
 90
        1
176
     1
 40
1.0
176
     1
 90
        8
176
     1
 62
     7
176
     1
 40
1.0
176
     1
 90
        1
176
     1
 90
        6
176
     1
 90
        2
176
     1
 62
     7
176
     1
 90
        5
176
     1
 90
        0
176
     1
 90
        0
176
     1
290
     0
176
     1
 90
        1
176
     1
 40
0.0
176
     1
 90
        0
176
     1
290
     0
176
     1
290
     1
176
     1
290
     1
176
     1
290
     0
176
     1
290
     0
176
     1
290
     0
176
     1
290
     0
176
     1
290
     0
176
     1
290
     0
176
     1
 90
       50
176
     1
 40
0.0
176
     1
 40
1.0
176
     1
 90
        0
176
     1
 62
    18
176
     1
 90
       50
176
     1
 90
        3
176
     1
 62
     5
420
      255
176
     1
290
     0
176
     1
 90
       50
176
     1
 90
       50
176
     1
 90
       50
176
     1
290
     0
176
     1
 90
       50
176
     1
 62
   256
176
     0
 40
1.0
176
     0
 90
        2
176
     1
  1
strokes_ogs.tif
176
     1
290
     0
176
     1
 40
1.0
176
     1
 40
1.0
176
     1
  0
VISUALSTYLE
  5
10021
102
{ACAD_REACTORS
330
10015
102
}
330
10015
100
AcDbVisualStyle
  2
Brighten
 70
    12
177
     3
291
     1
 70
    58
 90
        2
176
     1
 90
        2
176
     1
 90
        0
176
     1
 90
        0
176
     1
 40
0.6
176
     1
 40
30.0
176
     1
 62
     7
176
     1
 90
        1
176
     1
 90
        4
176
     1
 62
     7
176
     1
 62
   257
176
     1
 90
        1
176
     1
 90
        1
176
     1
 40
1.0
176
     1
 90
        8
176
     1
 62
     7
176
     1
 40
1.0
176
     1
 90
        1
176
     1
 90
        6
176
     1
 90
        2
176
     1
 62
     7
176
     1
 90
        5
176
     1
 90
        0
176
     1
 90
        0
176
     1
290
     0
176
     1
 90
        1
176
     1
 40
50.0
176
     1
 90
        0
176
     1
290
     0
176
     1
290
     1
176
     1
290
     1
176
     1
290
     0
176
     1
290
     0
176
     1
290
     0
176
     1
290
     0
176
     1
290
     0
176
     1
290
     0
176
     1
 90
       50
176
     1
 40
0.0
176
     1
 40
1.0
176
     1
 90
        0
176
     1
 62
    18
176
     1
 90
       50
176
     1
 90
        3
176
     1
 62
     5
420
      255
176
     1
290
     0
176
     1
 90
       50
176
     1
 90
       50
176
     1
 90
       50
176
     1
290
     0
176
     1
 90
       50
176
     1
 62
   256
176
     0
 40
1.0
176
     0
 90
        2
176
     1
  1
strokes_ogs.tif
176
     1
290
     0
176
     1
 40
1.0
176
     1
 40
1.0
176
     1
  0
VISUALSTYLE
  5
10025
102
{ACAD_REACTORS
330
10015
102
}
330
10015
100
AcDbVisualStyle
  2
ColorChange
 70
    16
177
     3
291
     1
 70
    58
 90
        2
176
     1
 90
        2
176
     1
 90
        3
176
     1
 90
        0
176
     1
 40
0.6
176
     1
 40
30.0
176
     1
 62
     8
176
     1
 90
        1
176
     1
 90
        4
176
     1
 62
     7
176
     1
 62
   257
176
     1
 90
        1
176
     1
 90
        1
176
     1
 40
1.0
176
     1
 90
        8
176
     1
 62
     8
176
     1
 40
1.0
176
     1
 90
        1
176
     1
 90
        6
176
     1
 90
        2
176
     1
 62
     7
176
     1
 90
        5
176
     1
 90
        0
176
     1
 90
        0
176
     1
290
     0
176
     1
 90
        1
176
     1
 40
0.0
176
     1
 90
        0
176
     1
290
     0
176
     1
290
     1
176
     1
290
     1
176
     1
290
     0
176
     1
290
     0
176
     1
290
     0
176
     1
290
     0
176
     1
290
     0
176
     1
290
     0
176
     1
 90
       50
176
     1
 40
0.0
176
     1
 40
1.0
176
     1
 90
        0
176
     1
 62
    18
176
     1
 90
       50
176
     1
 90
        3
176
     1
 62
     5
420
      255
176
     1
290
     0
176
     1
 90
       50
176
     1
 90
       50
176
     1
 90
       50
176
     1
290
     0
176
     1
 90
       50
176
     1
 62
   256
176
     0
 40
1.0
176
     0
 90
        2
176
     1
  1
strokes_ogs.tif
176
     1
290
     0
176
     1
 40
1.0
176
     1
 40
1.0
176
     1
  0
VISUALSTYLE
  5
1001E
102
{ACAD_REACTORS
330
10015
102
}
330
10015
100
AcDbVisualStyle
  2
Conceptual
 70
     9
177
     3
291
     0
 70
    58
 90
        3
176
     1
 90
        2
176
     1
 90
        0
176
     1
 90
        0
176
     1
 40
0.6
176
     1
 40
30.0
176
     1
 62
     7
176
     1
 90
        2
176
     1
 90
        2
176
     1
 62
     7
176
     1
 62
   257
176
     1
 90
        1
176
     1
 90
        1
176
     1
 40
179.0
176
     1
 90
        8
176
     1
 62
     7
176
     1
 40
1.0
176
     1
 90
        1
176
     1
 90
        6
176
     1
 90
        2
176
     1
 62
     7
176
     1
 90
        3
176
     1
 90
        0
176
     1
 90
        0
176
     1
290
     0
176
     1
 90
        1
176
     1
 40
0.0
176
     1
 90
        0
176
     1
290
     0
176
     1
290
     1
176
     1
290
     1
176
     1
290
     0
176
     1
290
     0
176
     1
290
     0
176
     1
290
     0
176
     1
290
     0
176
     1
290
     0
176
     1
 90
       50
176
     1
 40
0.0
176
     1
 40
1.0
176
     1
 90
        0
176
     1
 62
    18
176
     1
 90
       50
176
     1
 90
        3
176
     1
 62
     5
420
      255
176
     1
290
     0
176
     1
 90
       50
176
     1
 90
       50
176
     1
 90
       50
176
     1
290
     0
176
     1
 90
       50
176
     1
 62
   256
176
     0
 40
1.0
176
     0
 90
        2
176
     1
  1
strokes_ogs.tif
176
     1
290
     0
176
     1
 40
1.0
176
     1
 40
1.0
176
     1
  0
VISUALSTYLE
  5
10020
102
{ACAD_REACTORS
330
10015
102
}
330
10015
100
AcDbVisualStyle
  2
Dim
 70
    11
177
     3
291
     1
 70
    58
 90
        2
176
     1
 90
        2
176
     1
 90
        0
176
     1
 90
        0
176
     1
 40
0.6
176
     1
 40
30.0
176
     1
 62
     7
176
     1
 90
        1
176
     1
 90
        4
176
     1
 62
     7
176
     1
 62
   257
176
     1
 90
        1
176
     1
 90
        1
176
     1
 40
1.0
176
     1
 90
        8
176
     1
 62
     7
176
     1
 40
1.0
176
     1
 90
        1
176
     1
 90
        6
176
     1
 90
        2
176
     1
 62
     7
176
     1
 90
        5
176
     1
 90
        0
176
     1
 90
        0
176
     1
290
     0
176
     1
 90
        1
176
     1
 40
-50.0
176
     1
 90
        0
176
     1
290
     0
176
     1
290
     1
176
     1
290
     1
176
     1
290
     0
176
     1
290
     0
176
     1
290
     0
176
     1
290
     0
176
     1
290
     0
176
     1
290
     0
176
     1
 90
       50
176
     1
 40
0.0
176
     1
 40
1.0
176
     1
 90
        0
176
     1
 62
    18
176
     1
 90
       50
176
     1
 90
        3
176
     1
 62
     5
420
      255
176
     1
290
     0
176
     1
 90
       50
176
     1
 90
       50
176
     1
 90
       50
176
     1
290
     0
176
     1
 90
       50
176
     1
 62
   256
176
     0
 40
1.0
176
     0
 90
        2
176
     1
  1
strokes_ogs.tif
176
     1
290
     0
176
     1
 40
1.0
176
     1
 40
1.0
176
     1
  0
VISUALSTYLE
  5
10028
102
{ACAD_REACTORS
330
10015
102
}
330
10015
100
AcDbVisualStyle
  2
EdgeColorOff
 70
    22
177
     3
291
     1
 70
    58
 90
        2
176
     0
 90
        2
176
     0
 90
        0
176
     0
 90
        0
176
     0
 40
0.6
176
     0
 40
30.0
176
     0
 62
     7
176
     0
 90
        1
176
     0
 90
        4
176
     0
 62
     7
176
     0
 62
   257
176
     0
 90
        1
176
     0
 90
        1
176
     0
 40
1.0
176
     0
 90
        8
176
     2
 62
     7
176
     0
 40
1.0
176
     0
 90
        1
176
     0
 90
        6
176
     0
 90
        2
176
     0
 62
     7
176
     0
 90
        5
176
     0
 90
        0
176
     0
 90
        0
176
     0
290
     0
176
     0
 90
        1
176
     0
 40
0.0
176
     0
 90
        0
176
     0
290
     0
176
     1
290
     1
176
     1
290
     1
176
     1
290
     0
176
     1
290
     0
176
     1
290
     0
176
     1
290
     0
176
     1
290
     0
176
     1
290
     0
176
     1
 90
       50
176
     1
 40
0.0
176
     1
 40
1.0
176
     1
 90
        0
176
     1
 62
    18
176
     1
 90
       50
176
     1
 90
        3
176
     1
 62
     5
420
      255
176
     1
290
     0
176
     1
 90
       50
176
     1
 90
       50
176
     1
 90
       50
176
     1
290
     0
176
     1
 90
       50
176
     1
 62
   256
176
     0
 40
1.0
176
     0
 90
        2
176
     1
  1
strokes_ogs.tif
176
     1
290
     0
176
     1
 40
1.0
176
     1
 40
1.0
176
     1
  0
VISUALSTYLE
  5
10024
102
{ACAD_REACTORS
330
10015
102
}
330
10015
100
AcDbVisualStyle
  2
Facepattern
 70
    15
177
     3
291
     1
 70
    58
 90
        2
176
     1
 90
        2
176
     1
 90
        0
176
     1
 90
        0
176
     1
 40
0.6
176
     1
 40
30.0
176
     1
 62
     7
176
     1
 90
        1
176
     1
 90
        4
176
     1
 62
     7
176
     1
 62
   257
176
     1
 90
        1
176
     1
 90
        1
176
     1
 40
1.0
176
     1
 90
        8
176
     1
 62
     7
176
     1
 40
1.0
176
     1
 90
        1
176
     1
 90
        6
176
     1
 90
        2
176
     1
 62
     7
176
     1
 90
        5
176
     1
 90
        0
176
     1
 90
        0
176
     1
290
     0
176
     1
 90
        1
176
     1
 40
0.0
176
     1
 90
        0
176
     1
290
     0
176
     1
290
     1
176
     1
290
     1
176
     1
290
     0
176
     1
290
     0
176
     1
290
     0
176
     1
290
     0
176
     1
290
     0
176
     1
290
     0
176
     1
 90
       50
176
     1
 40
0.0
176
     1
 40
1.0
176
     1
 90
        0
176
     1
 62
    18
176
     1
 90
       50
176
     1
 90
        3
176
     1
 62
     5
420
      255
176
     1
290
     0
176
     1
 90
       50
176
     1
 90
       50
176
     1
 90
       50
176
     1
290
     0
176
     1
 90
       50
176
     1
 62
   256
176
     0
 40
1.0
176
     0
 90
        2
176
     1
  1
strokes_ogs.tif
176
     1
290
     0
176
     1
 40
1.0
176
     1
 40
1.0
176
     1
  0
VISUALSTYLE
  5
10016
102
{ACAD_REACTORS
330
10015
102
}
330
10015
100
AcDbVisualStyle
  2
Flat
 70
     0
177
     3
291
     1
 70
    58
 90
        2
176
     1
 90
        1
176
     1
 90
        1
176
     1
 90
        2
176
     1
 40
0.6
176
     1
 40
30.0
176
     1
 62
     7
176
     1
 90
        0
176
     1
 90
        4
176
     1
 62
     7
176
     1
 62
   257
176
     1
 90
        1
176
     1
 90
        1
176
     1
 40
1.0
176
     1
 90
        8
176
     1
 62
     7
176
     1
 40
1.0
176
     1
 90
        1
176
     1
 90
        6
176
     1
 90
        2
176
     1
 62
     7
176
     1
 90
        5
176
     1
 90
        0
176
     1
 90
        0
176
     1
290
     0
176
     1
 90
       13
176
     1
 40
0.0
176
     1
 90
        0
176
     1
290
     0
176
     1
290
     1
176
     1
290
     1
176
     1
290
     0
176
     1
290
     0
176
     1
290
     0
176
     1
290
     0
176
     1
290
     0
176
     1
290
     0
176
     1
 90
       50
176
     1
 40
0.0
176
     1
 40
1.0
176
     1
 90
        0
176
     1
 62
    18
176
     1
 90
       50
176
     1
 90
        3
176
     1
 62
     5
420
      255
176
     1
290
     0
176
     1
 90
       50
176
     1
 90
       50
176
     1
 90
       50
176
     1
290
     0
176
     1
 90
       50
176
     1
 62
   256
176
     0
 40
1.0
176
     0
 90
        2
176
     1
  1
strokes_ogs.tif
176
     1
290
     0
176
     1
 40
1.0
176
     1
 40
1.0
176
     1
  0
VISUALSTYLE
  5
10017
102
{ACAD_REACTORS
330
10015
102
}
330
10015
100
AcDbVisualStyle
  2
FlatWithEdges
 70
     1
177
     3
291
     1
 70
    58
 90
        2
176
     1
 90
        1
176
     1
 90
        1
176
     1
 90
        2
176
     1
 40
0.6
176
     1
 40
30.0
176
     1
 62
     7
176
     1
 90
        1
176
     1
 90
        4
176
     1
 62
     7
176
     1
 62
   257
176
     1
 90
        1
176
     1
 90
        1
176
     1
 40
1.0
176
     1
 90
        0
176
     1
 62
   257
176
     1
 40
1.0
176
     1
 90
        1
176
     1
 90
        6
176
     1
 90
        2
176
     1
 62
     7
176
     1
 90
        5
176
     1
 90
        0
176
     1
 90
        0
176
     1
290
     0
176
     1
 90
       13
176
     1
 40
0.0
176
     1
 90
        0
176
     1
290
     0
176
     1
290
     1
176
     1
290
     1
176
     1
290
     0
176
     1
290
     0
176
     1
290
     0
176
     1
290
     0
176
     1
290
     0
176
     1
290
     0
176
     1
 90
       50
176
     1
 40
0.0
176
     1
 40
1.0
176
     1
 90
        0
176
     1
 62
    18
176
     1
 90
       50
176
     1
 90
        3
176
     1
 62
     5
420
      255
176
     1
290
     0
176
     1
 90
       50
176
     1
 90
       50
176
     1
 90
       50
176
     1
290
     0
176
     1
 90
       50
176
     1
 62
   256
176
     0
 40
1.0
176
     0
 90
        2
176
     1
  1
strokes_ogs.tif
176
     1
290
     0
176
     1
 40
1.0
176
     1
 40
1.0
176
     1
  0
VISUALSTYLE
  5
10018
102
{ACAD_REACTORS
330
10015
102
}
330
10015
100
AcDbVisualStyle
  2
Gouraud
 70
     2
177
     3
291
     1
 70
    58
 90
        2
176
     1
 90
        2
176
     1
 90
        1
176
     1
 90
        2
176
     1
 40
0.6
176
     1
 40
30.0
176
     1
 62
     7
176
     1
 90
        0
176
     1
 90
        4
176
     1
 62
     7
176
     1
 62
   257
176
     1
 90
        1
176
     1
 90
        1
176
     1
 40
1.0
176
     1
 90
        0
176
     1
 62
     7
176
     1
 40
1.0
176
     1
 90
        1
176
     1
 90
        6
176
     1
 90
        2
176
     1
 62
     7
176
     1
 90
        5
176
     1
 90
        0
176
     1
 90
        0
176
     1
290
     0
176
     1
 90
       13
176
     1
 40
0.0
176
     1
 90
        0
176
     1
290
     0
176
     1
290
     1
176
     1
290
     1
176
     1
290
     0
176
     1
290
     0
176
     1
290
     0
176
     1
290
     0
176
     1
290
     0
176
     1
290
     0
176
     1
 90
       50
176
     1
 40
0.0
176
     1
 40
1.0
176
     1
 90
        0
176
     1
 62
    18
176
     1
 90
       50
176
     1
 90
        3
176
     1
 62
     5
420
      255
176
     1
290
     0
176
     1
 90
       50
176
     1
 90
       50
176
     1
 90
       50
176
     1
290
     0
176
     1
 90
       50
176
     1
 62
   256
176
     0
 40
1.0
176
     0
 90
        2
176
     1
  1
strokes_ogs.tif
176
     1
290
     0
176
     1
 40
1.0
176
     1
 40
1.0
176
     1
  0
VISUALSTYLE
  5
10019
102
{ACAD_REACTORS
330
10015
102
}
330
10015
100
AcDbVisualStyle
  2
GouraudWithEdges
 70
     3
177
     3
291
     1
 70
    58
 90
        2
176
     1
 90
        2
176
     1
 90
        1
176
     1
 90
        2
176
     1
 40
0.6
176
     1
 40
30.0
176
     1
 62
     7
176
     1
 90
        1
176
     1
 90
        4
176
     1
 62
     7
176
     1
 62
   257
176
     1
 90
        1
176
     1
 90
        1
176
     1
 40
1.0
176
     1
 90
        0
176
     1
 62
   257
176
     1
 40
1.0
176
     1
 90
        1
176
     1
 90
        6
176
     1
 90
        2
176
     1
 62
     7
176
     1
 90
        5
176
     1
 90
        0
176
     1
 90
        0
176
     1
290
     0
176
     1
 90
       13
176
     1
 40
0.0
176
     1
 90
        0
176
     1
290
     0
176
     1
290
     1
176
     1
290
     1
176
     1
290
     0
176
     1
290
     0
176
     1
290
     0
176
     1
290
     0
176
     1
290
     0
176
     1
290
     0
176
     1
 90
       50
176
     1
 40
0.0
176
     1
 40
1.0
176
     1
 90
        0
176
     1
 62
    18
176
     1
 90
       50
176
     1
 90
        3
176
     1
 62
     5
420
      255
176
     1
290
     0
176
     1
 90
       50
176
     1
 90
       50
176
     1
 90
       50
176
     1
290
     0
176
     1
 90
       50
176
     1
 62
   256
176
     0
 40
1.0
176
     0
 90
        2
176
     1
  1
strokes_ogs.tif
176
     1
290
     0
176
     1
 40
1.0
176
     1
 40
1.0
176
     1
  0
VISUALSTYLE
  5
26FB5
102
{ACAD_REACTORS
330
10015
102
}
330
10015
100
AcDbVisualStyle
  2
Hidden
 70
     6
177
     3
291
     0
 70
    58
 90
        1
176
     1
 90
        2
176
     1
 90
        2
176
     1
 90
        0
176
     1
 40
0.6
176
     1
 40
30.0
176
     1
 62
     7
420
 16777215
176
     1
 90
        2
176
     1
 90
        2
176
     1
 62
     7
176
     1
 62
   257
176
     1
 90
        2
176
     1
 90
        1
176
     1
 40
40.0
176
     1
 90
        0
176
     1
 62
   257
176
     1
 40
1.0
176
     1
 90
        1
176
     1
 90
        6
176
     1
 90
        2
176
     1
 62
     7
176
     1
 90
        3
176
     1
 90
        0
176
     1
 90
        0
176
     1
290
     0
176
     1
 90
        1
176
     1
 40
0.0
176
     1
 90
        0
176
     1
290
     0
176
     1
290
     1
176
     1
290
     1
176
     1
290
     0
176
     1
290
     0
176
     1
290
     0
176
     1
290
     0
176
     1
290
     0
176
     1
290
     0
176
     1
 90
       50
176
     1
 40
0.0
176
     1
 40
1.0
176
     1
 90
        0
176
     1
 62
    18
176
     1
 90
       50
176
     1
 90
        3
176
     1
 62
     5
420
      255
176
     1
290
     0
176
     1
 90
       50
176
     1
 90
       50
176
     1
 90
       50
176
     1
290
     0
176
     1
 90
       50
176
     1
 62
   256
176
     0
 40
1.0
176
     0
 90
        2
176
     1
  1
strokes_ogs.tif
176
     1
290
     0
176
     1
 40
1.0
176
     1
 40
1.0
176
     1
  0
VISUALSTYLE
  5
10026
102
{ACAD_REACTORS
330
10015
102
}
330
10015
100
AcDbVisualStyle
  2
JitterOff
 70
    20
177
     3
291
     1
 70
    58
 90
        2
176
     0
 90
        2
176
     0
 90
        0
176
     0
 90
        0
176
     0
 40
0.6
176
     0
 40
30.0
176
     0
 62
     7
176
     0
 90
        1
176
     0
 90
        4
176
     0
 62
     7
176
     0
 62
   257
176
     0
 90
        1
176
     0
 90
        1
176
     0
 40
1.0
176
     0
 90
       10
176
     2
 62
     7
176
     0
 40
1.0
176
     0
 90
        1
176
     0
 90
        6
176
     0
 90
        2
176
     0
 62
     7
176
     0
 90
        5
176
     0
 90
        0
176
     0
 90
        0
176
     0
290
     0
176
     0
 90
        1
176
     0
 40
0.0
176
     0
 90
        0
176
     0
290
     0
176
     1
290
     1
176
     1
290
     1
176
     1
290
     0
176
     1
290
     0
176
     1
290
     0
176
     1
290
     0
176
     1
290
     0
176
     1
290
     0
176
     1
 90
       50
176
     1
 40
0.0
176
     1
 40
1.0
176
     1
 90
        0
176
     1
 62
    18
176
     1
 90
       50
176
     1
 90
        3
176
     1
 62
     5
420
      255
176
     1
290
     0
176
     1
 90
       50
176
     1
 90
       50
176
     1
 90
       50
176
     1
290
     0
176
     1
 90
       50
176
     1
 62
   256
176
     0
 40
1.0
176
     0
 90
        2
176
     1
  1
strokes_ogs.tif
176
     1
290
     0
176
     1
 40
1.0
176
     1
 40
1.0
176
     1
  0
VISUALSTYLE
  5
10023
102
{ACAD_REACTORS
330
10015
102
}
330
10015
100
AcDbVisualStyle
  2
Linepattern
 70
    14
177
     3
291
     1
 70
    58
 90
        2
176
     1
 90
        2
176
     1
 90
        0
176
     1
 90
        0
176
     1
 40
0.6
176
     1
 40
30.0
176
     1
 62
     7
176
     1
 90
        1
176
     1
 90
        4
176
     1
 62
     7
176
     1
 62
   257
176
     1
 90
        7
176
     1
 90
        7
176
     1
 40
1.0
176
     1
 90
        8
176
     1
 62
     7
176
     1
 40
1.0
176
     1
 90
        1
176
     1
 90
        6
176
     1
 90
        2
176
     1
 62
     7
176
     1
 90
        5
176
     1
 90
        0
176
     1
 90
        0
176
     1
290
     0
176
     1
 90
        1
176
     1
 40
0.0
176
     1
 90
        0
176
     1
290
     0
176
     1
290
     1
176
     1
290
     1
176
     1
290
     0
176
     1
290
     0
176
     1
290
     0
176
     1
290
     0
176
     1
290
     0
176
     1
290
     0
176
     1
 90
       50
176
     1
 40
0.0
176
     1
 40
1.0
176
     1
 90
        0
176
     1
 62
    18
176
     1
 90
       50
176
     1
 90
        3
176
     1
 62
     5
420
      255
176
     1
290
     0
176
     1
 90
       50
176
     1
 90
       50
176
     1
 90
       50
176
     1
290
     0
176
     1
 90
       50
176
     1
 62
   256
176
     0
 40
1.0
176
     0
 90
        2
176
     1
  1
strokes_ogs.tif
176
     1
290
     0
176
     1
 40
1.0
176
     1
 40
1.0
176
     1
  0
VISUALSTYLE
  5
10027
102
{ACAD_REACTORS
330
10015
102
}
330
10015
100
AcDbVisualStyle
  2
OverhangOff
 70
    21
177
     3
291
     1
 70
    58
 90
        2
176
     0
 90
        2
176
     0
 90
        0
176
     0
 90
        0
176
     0
 40
0.6
176
     0
 40
30.0
176
     0
 62
     7
176
     0
 90
        1
176
     0
 90
        4
176
     0
 62
     7
176
     0
 62
   257
176
     0
 90
        1
176
     0
 90
        1
176
     0
 40
1.0
176
     0
 90
        9
176
     2
 62
     7
176
     0
 40
1.0
176
     0
 90
        1
176
     0
 90
        6
176
     0
 90
        2
176
     0
 62
     7
176
     0
 90
        5
176
     0
 90
        0
176
     0
 90
        0
176
     0
290
     0
176
     0
 90
        1
176
     0
 40
0.0
176
     0
 90
        0
176
     0
290
     0
176
     1
290
     1
176
     1
290
     1
176
     1
290
     0
176
     1
290
     0
176
     1
290
     0
176
     1
290
     0
176
     1
290
     0
176
     1
290
     0
176
     1
 90
       50
176
     1
 40
0.0
176
     1
 40
1.0
176
     1
 90
        0
176
     1
 62
    18
176
     1
 90
       50
176
     1
 90
        3
176
     1
 62
     5
420
      255
176
     1
290
     0
176
     1
 90
       50
176
     1
 90
       50
176
     1
 90
       50
176
     1
290
     0
176
     1
 90
       50
176
     1
 62
   256
176
     0
 40
1.0
176
     0
 90
        2
176
     1
  1
strokes_ogs.tif
176
     1
290
     0
176
     1
 40
1.0
176
     1
 40
1.0
176
     1
  0
VISUALSTYLE
  5
1001F
102
{ACAD_REACTORS
330
10015
102
}
330
10015
100
AcDbVisualStyle
  2
Realistic
 70
     8
177
     3
291
     0
 70
    58
 90
        2
176
     1
 90
        2
176
     1
 90
        0
176
     1
 90
        0
176
     1
 40
0.6
176
     1
 40
30.0
176
     1
 62
     7
176
     1
 90
        1
176
     1
 90
        0
176
     1
 62
     7
176
     1
 62
   257
176
     1
 90
        1
176
     1
 90
        1
176
     1
 40
1.0
176
     1
 90
        8
176
     1
 62
     8
176
     1
 40
1.0
176
     1
 90
        1
176
     1
 90
        6
176
     1
 90
        2
176
     1
 62
     7
176
     1
 90
        5
176
     1
 90
        0
176
     1
 90
        0
176
     1
290
     0
176
     1
 90
       13
176
     1
 40
0.0
176
     1
 90
        0
176
     1
290
     0
176
     1
290
     1
176
     1
290
     1
176
     1
290
     0
176
     1
290
     0
176
     1
290
     0
176
     1
290
     0
176
     1
290
     0
176
     1
290
     0
176
     1
 90
       50
176
     1
 40
0.0
176
     1
 40
1.0
176
     1
 90
        0
176
     1
 62
    18
176
     1
 90
       50
176
     1
 90
        3
176
     1
 62
     5
420
      255
176
     1
290
     0
176
     1
 90
       50
176
     1
 90
       50
176
     1
 90
       50
176
     1
290
     0
176
     1
 90
       50
176
     1
 62
   256
176
     0
 40
1.0
176
     0
 90
        2
176
     1
  1
strokes_ogs.tif
176
     1
290
     0
176
     1
 40
1.0
176
     1
 40
1.0
176
     1
  0
VISUALSTYLE
  5
26FBA
102
{ACAD_REACTORS
330
10015
102
}
330
10015
100
AcDbVisualStyle
  2
Shaded
 70
    27
177
     3
291
     0
 70
    58
 90
        2
176
     1
 90
        2
176
     1
 90
        1
176
     1
 90
        2
176
     1
 40
0.6
176
     1
 40
30.0
176
     1
 62
     7
420
 16777215
176
     1
 90
        0
176
     1
 90
        4
176
     1
 62
     7
176
     1
 62
   257
176
     1
 90
        1
176
     1
 90
        1
176
     1
 40
1.0
176
     1
 90
        8
176
     1
 62
   257
176
     1
 40
1.0
176
     1
 90
        1
176
     1
 90
        6
176
     1
 90
        2
176
     1
 62
     8
420
  7895160
176
     1
 90
        3
176
     1
 90
        0
176
     1
 90
        0
176
     1
290
     0
176
     1
 90
        5
176
     1
 40
0.0
176
     1
 90
        0
176
     1
290
     0
176
     1
290
     1
176
     1
290
     1
176
     1
290
     0
176
     1
290
     0
176
     1
290
     0
176
     1
290
     0
176
     1
290
     0
176
     1
290
     0
176
     1
 90
       50
176
     1
 40
0.0
176
     1
 40
1.0
176
     1
 90
        0
176
     1
 62
    18
176
     1
 90
       50
176
     1
 90
        3
176
     1
 62
     5
420
      255
176
     1
290
     0
176
     1
 90
       50
176
     1
 90
       50
176
     1
 90
       50
176
     1
290
     0
176
     1
 90
       50
176
     1
 62
   256
176
     0
 40
1.0
176
     0
 90
        2
176
     1
  1
strokes_ogs.tif
176
     1
290
     0
176
     1
 40
1.0
176
     1
 40
1.0
176
     1
  0
VISUALSTYLE
  5
26FB9
102
{ACAD_REACTORS
330
10015
102
}
330
10015
100
AcDbVisualStyle
  2
Shaded with edges
 70
    26
177
     3
291
     0
 70
    58
 90
        2
176
     1
 90
        2
176
     1
 90
        1
176
     1
 90
        2
176
     1
 40
0.6
176
     1
 40
30.0
176
     1
 62
     7
420
 16777215
176
     1
 90
        1
176
     1
 90
       10
176
     1
 62
     7
176
     1
 62
   257
176
     1
 90
        2
176
     1
 90
        1
176
     1
 40
1.0
176
     1
 90
        8
176
     1
 62
   257
176
     1
 40
1.0
176
     1
 90
        1
176
     1
 90
        6
176
     1
 90
        2
176
     1
 62
     7
176
     1
 90
        3
176
     1
 90
        0
176
     1
 90
        0
176
     1
290
     0
176
     1
 90
        5
176
     1
 40
0.0
176
     1
 90
        0
176
     1
290
     0
176
     1
290
     1
176
     1
290
     1
176
     1
290
     0
176
     1
290
     0
176
     1
290
     0
176
     1
290
     0
176
     1
290
     0
176
     1
290
     0
176
     1
 90
       50
176
     1
 40
0.0
176
     1
 40
1.0
176
     1
 90
        0
176
     1
 62
    18
176
     1
 90
       50
176
     1
 90
        3
176
     1
 62
     5
420
      255
176
     1
290
     0
176
     1
 90
       50
176
     1
 90
       50
176
     1
 90
       50
176
     1
290
     0
176
     1
 90
       50
176
     1
 62
   256
176
     0
 40
1.0
176
     0
 90
        2
176
     1
  1
strokes_ogs.tif
176
     1
290
     0
176
     1
 40
1.0
176
     1
 40
1.0
176
     1
  0
VISUALSTYLE
  5
26FB6
102
{ACAD_REACTORS
330
10015
102
}
330
10015
100
AcDbVisualStyle
  2
Shades of Gray
 70
    23
177
     3
291
     0
 70
    58
 90
        2
176
     1
 90
        2
176
     1
 90
        3
176
     1
 90
        0
176
     1
 40
0.6
176
     1
 40
30.0
176
     1
 62
     7
420
 16777215
176
     1
 90
        2
176
     1
 90
        2
176
     1
 62
     7
176
     1
 62
     7
176
     1
 90
        1
176
     1
 90
        1
176
     1
 40
40.0
176
     1
 90
        8
176
     1
 62
     7
176
     1
 40
1.0
176
     1
 90
        1
176
     1
 90
        6
176
     1
 90
        2
176
     1
 62
     7
176
     1
 90
        3
176
     1
 90
        0
176
     1
 90
        0
176
     1
290
     0
176
     1
 90
        1
176
     1
 40
0.0
176
     1
 90
        0
176
     1
290
     0
176
     1
290
     1
176
     1
290
     1
176
     1
290
     0
176
     1
290
     0
176
     1
290
     0
176
     1
290
     0
176
     1
290
     0
176
     1
290
     0
176
     1
 90
       50
176
     1
 40
0.0
176
     1
 40
1.0
176
     1
 90
        0
176
     1
 62
    18
176
     1
 90
       50
176
     1
 90
        3
176
     1
 62
     5
420
      255
176
     1
290
     0
176
     1
 90
       50
176
     1
 90
       50
176
     1
 90
       50
176
     1
290
     0
176
     1
 90
       50
176
     1
 62
   256
176
     0
 40
1.0
176
     0
 90
        2
176
     1
  1
strokes_ogs.tif
176
     1
290
     0
176
     1
 40
1.0
176
     1
 40
1.0
176
     1
  0
VISUALSTYLE
  5
26FB7
102
{ACAD_REACTORS
330
10015
102
}
330
10015
100
AcDbVisualStyle
  2
Sketchy
 70
    24
177
     3
291
     0
 70
    58
 90
        1
176
     1
 90
        2
176
     1
 90
        2
176
     1
 90
        0
176
     1
 40
0.6
176
     1
 40
30.0
176
     1
 62
     7
420
 16777215
176
     1
 90
        2
176
     1
 90
        2
176
     1
 62
     7
176
     1
 62
     7
176
     1
 90
        1
176
     1
 90
        1
176
     1
 40
40.0
176
     1
 90
       11
176
     1
 62
     7
176
     1
 40
1.0
176
     1
 90
        1
176
     1
 90
        6
176
     1
 90
        2
176
     1
 62
     7
176
     1
 90
        6
176
     1
 90
        0
176
     1
 90
        0
176
     1
290
     0
176
     1
 90
        1
176
     1
 40
0.0
176
     1
 90
        0
176
     1
290
     0
176
     1
290
     1
176
     1
290
     1
176
     1
290
     0
176
     1
290
     0
176
     1
290
     0
176
     1
290
     0
176
     1
290
     0
176
     1
290
     0
176
     1
 90
       50
176
     1
 40
0.0
176
     1
 40
1.0
176
     1
 90
        0
176
     1
 62
    18
176
     1
 90
       50
176
     1
 90
        3
176
     1
 62
     5
420
      255
176
     1
290
     0
176
     1
 90
       50
176
     1
 90
       50
176
     1
 90
       50
176
     1
290
     0
176
     1
 90
       50
176
     1
 62
   256
176
     0
 40
1.0
176
     0
 90
        2
176
     1
  1
strokes_ogs.tif
176
     1
290
     0
176
     1
 40
1.0
176
     1
 40
1.0
176
     1
  0
VISUALSTYLE
  5
10022
102
{ACAD_REACTORS
330
10015
102
}
330
10015
100
AcDbVisualStyle
  2
Thicken
 70
    13
177
     3
291
     1
 70
    58
 90
        2
176
     1
 90
        2
176
     1
 90
        0
176
     1
 90
        0
176
     1
 40
0.6
176
     1
 40
30.0
176
     1
 62
     7
176
     1
 90
        1
176
     1
 90
        4
176
     1
 62
     7
176
     1
 62
   257
176
     1
 90
        1
176
     1
 90
        1
176
     1
 40
1.0
176
     1
 90
       12
176
     1
 62
     7
176
     1
 40
1.0
176
     1
 90
        1
176
     1
 90
        6
176
     1
 90
        2
176
     1
 62
     7
176
     1
 90
        5
176
     1
 90
        0
176
     1
 90
        0
176
     1
290
     0
176
     1
 90
        1
176
     1
 40
0.0
176
     1
 90
        0
176
     1
290
     0
176
     1
290
     1
176
     1
290
     1
176
     1
290
     0
176
     1
290
     0
176
     1
290
     0
176
     1
290
     0
176
     1
290
     0
176
     1
290
     0
176
     1
 90
       50
176
     1
 40
0.0
176
     1
 40
1.0
176
     1
 90
        0
176
     1
 62
    18
176
     1
 90
       50
176
     1
 90
        3
176
     1
 62
     5
420
      255
176
     1
290
     0
176
     1
 90
       50
176
     1
 90
       50
176
     1
 90
       50
176
     1
290
     0
176
     1
 90
       50
176
     1
 62
   256
176
     0
 40
1.0
176
     0
 90
        2
176
     1
  1
strokes_ogs.tif
176
     1
290
     0
176
     1
 40
1.0
176
     1
 40
1.0
176
     1
  0
VISUALSTYLE
  5
26FB4
102
{ACAD_REACTORS
330
10015
102
}
330
10015
100
AcDbVisualStyle
  2
Wireframe
 70
     5
177
     3
291
     0
 70
    58
 90
        0
176
     1
 90
        2
176
     1
 90
        0
176
     1
 90
        0
176
     1
 40
0.6
176
     1
 40
30.0
176
     1
 62
     7
420
 16777215
176
     1
 90
        1
176
     1
 90
        4
176
     1
 62
     7
176
     1
 62
   257
176
     1
 90
        1
176
     1
 90
        1
176
     1
 40
1.0
176
     1
 90
        0
176
     1
 62
   257
176
     1
 40
1.0
176
     1
 90
        1
176
     1
 90
        6
176
     1
 90
        2
176
     1
 62
     7
176
     1
 90
        3
176
     1
 90
        0
176
     1
 90
        0
176
     1
290
     0
176
     1
 90
        1
176
     1
 40
0.0
176
     1
 90
        0
176
     1
290
     0
176
     1
290
     1
176
     1
290
     1
176
     1
290
     0
176
     1
290
     0
176
     1
290
     0
176
     1
290
     0
176
     1
290
     0
176
     1
290
     0
176
     1
 90
       50
176
     1
 40
0.0
176
     1
 40
1.0
176
     1
 90
        0
176
     1
 62
    18
176
     1
 90
       50
176
     1
 90
        3
176
     1
 62
     5
420
      255
176
     1
290
     0
176
     1
 90
       50
176
     1
 90
       50
176
     1
 90
       50
176
     1
290
     0
176
     1
 90
       50
176
     1
 62
   256
176
     0
 40
1.0
176
     0
 90
        2
176
     1
  1
strokes_ogs.tif
176
     1
290
     0
176
     1
 40
1.0
176
     1
 40
1.0
176
     1
  0
VISUALSTYLE
  5
26FB8
102
{ACAD_REACTORS
330
10015
102
}
330
10015
100
AcDbVisualStyle
  2
X-Ray
 70
    25
177
     3
291
     0
 70
    58
 90
        2
176
     1
 90
        2
176
     1
 90
        1
176
     1
 90
        1
176
     1
 40
0.5
176
     1
 40
30.0
176
     1
 62
     7
420
 16777215
176
     1
 90
        1
176
     1
 90
        0
176
     1
 62
     7
176
     1
 62
   257
176
     1
 90
        1
176
     1
 90
        1
176
     1
 40
1.0
176
     1
 90
        8
176
     1
 62
     7
176
     1
 40
1.0
176
     1
 90
        1
176
     1
 90
        6
176
     1
 90
        2
176
     1
 62
     7
176
     1
 90
        3
176
     1
 90
        0
176
     1
 90
        0
176
     1
290
     0
176
     1
 90
       13
176
     1
 40
0.0
176
     1
 90
        0
176
     1
290
     0
176
     1
290
     1
176
     1
290
     1
176
     1
290
     0
176
     1
290
     0
176
     1
290
     0
176
     1
290
     0
176
     1
290
     0
176
     1
290
     0
176
     1
 90
       50
176
     1
 40
0.0
176
     1
 40
1.0
176
     1
 90
        0
176
     1
 62
    18
176
     1
 90
       50
176
     1
 90
        3
176
     1
 62
     5
420
      255
176
     1
290
     0
176
     1
 90
       50
176
     1
 90
       50
176
     1
 90
       50
176
     1
290
     0
176
     1
 90
       50
176
     1
 62
   256
176
     0
 40
1.0
176
     0
 90
        2
176
     1
  1
strokes_ogs.tif
176
     1
290
     0
176
     1
 40
1.0
176
     1
 40
1.0
176
     1
  0
DICTIONARYVAR
  5
100CD
102
{ACAD_REACTORS
330
5697
102
}
330
5697
100
DictionaryVariables
280
     0
  1
1:1
  0
DICTIONARYVAR
  5
100CC
102
{ACAD_REACTORS
330
5697
102
}
330
5697
100
DictionaryVariables
280
     0
  1
STANDARD
  0
DICTIONARYVAR
  5
100CB
102
{ACAD_REACTORS
330
5697
102
}
330
5697
100
DictionaryVariables
280
     0
  1
STANDARD
  0
DICTIONARYVAR
  5
2702B
102
{ACAD_REACTORS
330
5697
102
}
330
5697
100
DictionaryVariables
280
     0
  1
Imperial24
  0
DICTIONARYVAR
  5
2702C
102
{ACAD_REACTORS
330
5697
102
}
330
5697
100
DictionaryVariables
280
     0
  1
Imperial24
  0
DICTIONARYVAR
  5
5698
102
{ACAD_REACTORS
330
5697
102
}
330
5697
100
DictionaryVariables
280
     0
  1
1
  0
DICTIONARYVAR
  5
100CF
102
{ACAD_REACTORS
330
5697
102
}
330
5697
100
DictionaryVariables
280
     0
  1
0
  0
DICTIONARYVAR
  5
228A5
102
{ACAD_REACTORS
330
5697
102
}
330
5697
100
DictionaryVariables
280
     0
  1
1
  0
DICTIONARYVAR
  5
228A6
102
{ACAD_REACTORS
330
5697
102
}
330
5697
100
DictionaryVariables
280
     0
  1
15
  0
DICTIONARYVAR
  5
228A4
102
{ACAD_REACTORS
330
5697
102
}
330
5697
100
DictionaryVariables
280
     0
  1
0
  0
DICTIONARYVAR
  5
228A3
102
{ACAD_REACTORS
330
5697
102
}
330
5697
100
DictionaryVariables
280
     0
  1
0
  0
DICTIONARYVAR
  5
100CE
102
{ACAD_REACTORS
330
5697
102
}
330
5697
100
DictionaryVariables
280
     0
  1
127
  0
XRECORD
  5
1012C
102
{ACAD_REACTORS
330
1012A
102
}
330
1012A
100
AcDbXrecord
280
     1
330
0
330
0
330
0
330
0
330
0
330
0
330
0
330
0
330
0
330
0
330
0
330
0
330
0
330
0
330
0
330
0
330
0
330
0
330
0
330
0
330
0
330
0
330
0
330
0
330
0
330
0
330
0
330
0
330
0
330
0
330
0
330
0
330
0
330
0
330
0
330
0
330
0
330
0
330
0
330
0
330
0
330
0
330
0
330
0
330
0
330
0
330
0
330
0
330
0
330
0
  0
DICTIONARY
  5
26CF6
102
{ACAD_REACTORS
330
26CF5
102
}
330
26CF5
100
AcDbDictionary
281
     1
  3
*A1
350
26CF7
  0
DICTIONARY
  5
27031
330
26FBE
100
AcDbDictionary
280
     1
281
     1
  3
ACAD_XREC_ROUNDTRIP
360
2711C
  0
DICTIONARY
  5
1F6F5
330
904E
100
AcDbDictionary
280
     1
281
     1
  0
DICTIONARY
  5
10006
330
10005
100
AcDbDictionary
280
     1
281
     1
  3
ACAD_XREC_ROUNDTRIP
360
159CA
  3
BUMPTILE
360
10008
  3
DIFFUSETILE
360
10007
  3
OPACITYTILE
360
1000B
  3
REFLECTIONTILE
360
1000A
  3
REFRACTIONTILE
360
1000C
  3
SPECULARTILE
360
10009
  0
DICTIONARY
  5
FFFE
330
FFFD
100
AcDbDictionary
280
     1
281
     1
  3
ACAD_XREC_ROUNDTRIP
360
159C9
  3
BUMPTILE
360
10000
  3
DIFFUSETILE
360
FFFF
  3
OPACITYTILE
360
10003
  3
REFLECTIONTILE
360
10002
  3
REFRACTIONTILE
360
10004
  3
SPECULARTILE
360
10001
  0
DICTIONARY
  5
1000E
330
1000D
100
AcDbDictionary
280
     1
281
     1
  3
ACAD_XREC_ROUNDTRIP
360
159CB
  3
BUMPTILE
360
10010
  3
DIFFUSETILE
360
1000F
  3
OPACITYTILE
360
10013
  3
REFLECTIONTILE
360
10012
  3
REFRACTIONTILE
360
10014
  3
SPECULARTILE
360
10011
  0
DICTIONARY
  5
2702F
330
26FBC
100
AcDbDictionary
280
     1
281
     1
  3
ACAD_XREC_ROUNDTRIP
360
2711B
  0
DICTIONARY
  5
1007E
330
1002B
100
AcDbDictionary
280
     1
281
     1
  3
ACAD_ROUNDTRIP_2008_TABLESTYLE_CELLSTYLEMAP
360
2711A
  0
ACDB_ALDIMOBJECTCONTEXTDATA_CLASS
  5
26CF7
102
{ACAD_REACTORS
330
26CF6
102
}
330
26CF6
100
AcDbObjectContextData
 70
     4
290
     1
100
AcDbAnnotScaleObjectContextData
340
1002D
100
AcDbDimensionObjectContextData
  2
*D42
293
     0
 10
199.5512293021143
 20
285.1467170491781
294
     0
140
0.0
298
     1
291
     0
 70
     0
292
     0
 71
     0
280
     1
295
     0
296
     0
297
     0
100
AcDbAlignedDimensionObjectContextData
 11
227.6334663567006
 21
285.1467170491781
 31
0.0
  0
XRECORD
  5
2711C
102
{ACAD_REACTORS
330
27031
102
}
330
27031
100
AcDbXrecord
280
     1
102
DISPLAYNAME
  1
Imperial24
102
FLAGS
 90
        0
  0
XRECORD
  5
159CA
102
{ACAD_REACTORS
330
10006
102
}
330
10006
100
AcDbXrecord
280
     1
102
MATERIAL
148
0.0
149
0.0
149
0.0
 93
        0
 94
      127
282
     0
 72
     0
 77
     0
171
     0
175
     0
179
     0
273
     0
  0
XRECORD
  5
10008
102
{ACAD_REACTORS
330
10006
102
}
330
10006
100
AcDbXrecord
280
     1
270
     1
271
     1
  0
XRECORD
  5
10007
102
{ACAD_REACTORS
330
10006
102
}
330
10006
100
AcDbXrecord
280
     1
270
     1
271
     1
  0
XRECORD
  5
1000B
102
{ACAD_REACTORS
330
10006
102
}
330
10006
100
AcDbXrecord
280
     1
270
     1
271
     1
  0
XRECORD
  5
1000A
102
{ACAD_REACTORS
330
10006
102
}
330
10006
100
AcDbXrecord
280
     1
270
     1
271
     1
  0
XRECORD
  5
1000C
102
{ACAD_REACTORS
330
10006
102
}
330
10006
100
AcDbXrecord
280
     1
270
     1
271
     1
  0
XRECORD
  5
10009
102
{ACAD_REACTORS
330
10006
102
}
330
10006
100
AcDbXrecord
280
     1
270
     1
271
     1
  0
XRECORD
  5
159C9
102
{ACAD_REACTORS
330
FFFE
102
}
330
FFFE
100
AcDbXrecord
280
     1
102
MATERIAL
148
0.0
149
0.0
149
0.0
 93
        0
 94
      127
282
     0
 72
     0
 77
     0
171
     0
175
     0
179
     0
273
     0
  0
XRECORD
  5
10000
102
{ACAD_REACTORS
330
FFFE
102
}
330
FFFE
100
AcDbXrecord
280
     1
270
     1
271
     1
  0
XRECORD
  5
FFFF
102
{ACAD_REACTORS
330
FFFE
102
}
330
FFFE
100
AcDbXrecord
280
     1
270
     1
271
     1
  0
XRECORD
  5
10003
102
{ACAD_REACTORS
330
FFFE
102
}
330
FFFE
100
AcDbXrecord
280
     1
270
     1
271
     1
  0
XRECORD
  5
10002
102
{ACAD_REACTORS
330
FFFE
102
}
330
FFFE
100
AcDbXrecord
280
     1
270
     1
271
     1
  0
XRECORD
  5
10004
102
{ACAD_REACTORS
330
FFFE
102
}
330
FFFE
100
AcDbXrecord
280
     1
270
     1
271
     1
  0
XRECORD
  5
10001
102
{ACAD_REACTORS
330
FFFE
102
}
330
FFFE
100
AcDbXrecord
280
     1
270
     1
271
     1
  0
XRECORD
  5
159CB
102
{ACAD_REACTORS
330
1000E
102
}
330
1000E
100
AcDbXrecord
280
     1
102
MATERIAL
148
0.0
149
0.0
149
0.0
 93
        0
 94
      127
282
     0
 72
     0
 77
     0
171
     0
175
     0
179
     0
273
     0
  0
XRECORD
  5
10010
102
{ACAD_REACTORS
330
1000E
102
}
330
1000E
100
AcDbXrecord
280
     1
270
     1
271
     1
  0
XRECORD
  5
1000F
102
{ACAD_REACTORS
330
1000E
102
}
330
1000E
100
AcDbXrecord
280
     1
270
     1
271
     1
  0
XRECORD
  5
10013
102
{ACAD_REACTORS
330
1000E
102
}
330
1000E
100
AcDbXrecord
280
     1
270
     1
271
     1
  0
XRECORD
  5
10012
102
{ACAD_REACTORS
330
1000E
102
}
330
1000E
100
AcDbXrecord
280
     1
270
     1
271
     1
  0
XRECORD
  5
10014
102
{ACAD_REACTORS
330
1000E
102
}
330
1000E
100
AcDbXrecord
280
     1
270
     1
271
     1
  0
XRECORD
  5
10011
102
{ACAD_REACTORS
330
1000E
102
}
330
1000E
100
AcDbXrecord
280
     1
270
     1
271
     1
  0
XRECORD
  5
2711B
102
{ACAD_REACTORS
330
2702F
102
}
330
2702F
100
AcDbXrecord
280
     1
102
DISPLAYNAME
  1
Imperial24
102
FLAGS
 90
        0
  0
CELLSTYLEMAP
  5
2711A
102
{ACAD_REACTORS
330
1007E
102
}
330
1007E
100
AcDbCellStyleMap
 90
        3
300
CELLSTYLE
  1
TABLEFORMAT_BEGIN
 90
        5
170
     1
 91
        0
 92
    32768
 62
   257
 93
        1
300
CONTENTFORMAT
  1
CONTENTFORMAT_BEGIN
 90
        0
 91
        0
 92
      512
 93
        0
300

 40
0.0
140
1.0
 94
        5
 62
     0
340
11
144
0.25
309
CONTENTFORMAT_END
171
     1
301
MARGIN
  1
CELLMARGIN_BEGIN
 40
0.06
 40
0.06
 40
0.06
 40
0.06
 40
0.18
 40
0.18
309
CELLMARGIN_END
 94
        6
 95
        1
302
GRIDFORMAT
  1
GRIDFORMAT_BEGIN
 90
        0
 91
        1
 62
     0
 92
       -2
340
0
 93
        0
 40
0.045
309
GRIDFORMAT_END
 95
        2
302
GRIDFORMAT
  1
GRIDFORMAT_BEGIN
 90
        0
 91
        1
 62
     0
 92
       -2
340
0
 93
        0
 40
0.045
309
GRIDFORMAT_END
 95
        4
302
GRIDFORMAT
  1
GRIDFORMAT_BEGIN
 90
        0
 91
        1
 62
     0
 92
       -2
340
0
 93
        0
 40
0.045
309
GRIDFORMAT_END
 95
        8
302
GRIDFORMAT
  1
GRIDFORMAT_BEGIN
 90
        0
 91
        1
 62
     0
 92
       -2
340
0
 93
        0
 40
0.045
309
GRIDFORMAT_END
 95
       16
302
GRIDFORMAT
  1
GRIDFORMAT_BEGIN
 90
        0
 91
        1
 62
     0
 92
       -2
340
0
 93
        0
 40
0.045
309
GRIDFORMAT_END
 95
       32
302
GRIDFORMAT
  1
GRIDFORMAT_BEGIN
 90
        0
 91
        1
 62
     0
 92
       -2
340
0
 93
        0
 40
0.045
309
GRIDFORMAT_END
309
TABLEFORMAT_END
  1
CELLSTYLE_BEGIN
 90
        1
 91
        1
300
_TITLE
309
CELLSTYLE_END
300
CELLSTYLE
  1
TABLEFORMAT_BEGIN
 90
        5
170
     1
 91
        0
 92
        0
 62
   257
 93
        1
300
CONTENTFORMAT
  1
CONTENTFORMAT_BEGIN
 90
        0
 91
        0
 92
      512
 93
        0
300

 40
0.0
140
1.0
 94
        5
 62
     0
340
11
144
0.18
309
CONTENTFORMAT_END
171
     1
301
MARGIN
  1
CELLMARGIN_BEGIN
 40
0.06
 40
0.06
 40
0.06
 40
0.06
 40
0.18
 40
0.18
309
CELLMARGIN_END
 94
        6
 95
        1
302
GRIDFORMAT
  1
GRIDFORMAT_BEGIN
 90
        0
 91
        1
 62
     0
 92
       -2
340
0
 93
        0
 40
0.045
309
GRIDFORMAT_END
 95
        2
302
GRIDFORMAT
  1
GRIDFORMAT_BEGIN
 90
        0
 91
        1
 62
     0
 92
       -2
340
0
 93
        0
 40
0.045
309
GRIDFORMAT_END
 95
        4
302
GRIDFORMAT
  1
GRIDFORMAT_BEGIN
 90
        0
 91
        1
 62
     0
 92
       -2
340
0
 93
        0
 40
0.045
309
GRIDFORMAT_END
 95
        8
302
GRIDFORMAT
  1
GRIDFORMAT_BEGIN
 90
        0
 91
        1
 62
     0
 92
       -2
340
0
 93
        0
 40
0.045
309
GRIDFORMAT_END
 95
       16
302
GRIDFORMAT
  1
GRIDFORMAT_BEGIN
 90
        0
 91
        1
 62
     0
 92
       -2
340
0
 93
        0
 40
0.045
309
GRIDFORMAT_END
 95
       32
302
GRIDFORMAT
  1
GRIDFORMAT_BEGIN
 90
        0
 91
        1
 62
     0
 92
       -2
340
0
 93
        0
 40
0.045
309
GRIDFORMAT_END
309
TABLEFORMAT_END
  1
CELLSTYLE_BEGIN
 90
        2
 91
        1
300
_HEADER
309
CELLSTYLE_END
300
CELLSTYLE
  1
TABLEFORMAT_BEGIN
 90
        5
170
     1
 91
        0
 92
        0
 62
   257
 93
        1
300
CONTENTFORMAT
  1
CONTENTFORMAT_BEGIN
 90
        0
 91
        0
 92
      512
 93
        0
300

 40
0.0
140
1.0
 94
        2
 62
     0
340
11
144
0.18
309
CONTENTFORMAT_END
171
     1
301
MARGIN
  1
CELLMARGIN_BEGIN
 40
0.06
 40
0.06
 40
0.06
 40
0.06
 40
0.18
 40
0.18
309
CELLMARGIN_END
 94
        6
 95
        1
302
GRIDFORMAT
  1
GRIDFORMAT_BEGIN
 90
        0
 91
        1
 62
     0
 92
       -2
340
0
 93
        0
 40
0.045
309
GRIDFORMAT_END
 95
        2
302
GRIDFORMAT
  1
GRIDFORMAT_BEGIN
 90
        0
 91
        1
 62
     0
 92
       -2
340
0
 93
        0
 40
0.045
309
GRIDFORMAT_END
 95
        4
302
GRIDFORMAT
  1
GRIDFORMAT_BEGIN
 90
        0
 91
        1
 62
     0
 92
       -2
340
0
 93
        0
 40
0.045
309
GRIDFORMAT_END
 95
        8
302
GRIDFORMAT
  1
GRIDFORMAT_BEGIN
 90
        0
 91
        1
 62
     0
 92
       -2
340
0
 93
        0
 40
0.045
309
GRIDFORMAT_END
 95
       16
302
GRIDFORMAT
  1
GRIDFORMAT_BEGIN
 90
        0
 91
        1
 62
     0
 92
       -2
340
0
 93
        0
 40
0.045
309
GRIDFORMAT_END
 95
       32
302
GRIDFORMAT
  1
GRIDFORMAT_BEGIN
 90
        0
 91
        1
 62
     0
 92
       -2
340
0
 93
        0
 40
0.045
309
GRIDFORMAT_END
309
TABLEFORMAT_END
  1
CELLSTYLE_BEGIN
 90
        3
 91
        2
300
_DATA
309
CELLSTYLE_END
  0
ENDSEC
  0
SECTION
  2
ACDSDATA
 70
     2
 71
     6
  0
ACDSSCHEMA
 90
        0
  1
AcDb_Thumbnail_Schema
  2
AcDbDs::ID
280
    10
 91
        8
  2
Thumbnail_Data
280
    15
 91
        0
101
ACDSRECORD
 95
        0
 90
        1
  2
AcDbDs::TreatedAsObjectData
280
     1
291
     1
101
ACDSRECORD
 95
        0
 90
        2
  2
AcDbDs::Legacy
280
     1
291
     1
101
ACDSRECORD
  1
AcDbDs::ID
 90
        3
  2
AcDs:Indexable
280
     1
291
     1
101
ACDSRECORD
  1
AcDbDs::ID
 90
        4
  2
AcDbDs::HandleAttribute
280
     7
282
     1
  0
ACDSSCHEMA
 90
        1
  1
AcDbDs::TreatedAsObjectDataSchema
  2
AcDbDs::TreatedAsObjectData
280
     1
 91
        0
  0
ACDSSCHEMA
 90
        2
  1
AcDbDs::LegacySchema
  2
AcDbDs::Legacy
280
     1
 91
        0
  0
ACDSSCHEMA
 90
        3
  1
AcDbDs::IndexedPropertySchema
  2
AcDs:Indexable
280
     1
 91
        0
  0
ACDSSCHEMA
 90
        4
  1
AcDbDs::HandleAttributeSchema
  2
AcDbDs::HandleAttribute
280
     7
 91
        1
284
     1
  0
ACDSRECORD
 90
        0
  2
AcDbDs::ID
280
    10
320
904E
  2
Thumbnail_Data
280
    15
 94
     1953
310
89504E470D0A1A0A0000000D4948445200000100000000670803000000D82A6C0200000300504C5445000000000000C8C8C80000000000000000000000000000000000000000000000000000330000660000990000CC0000FF0033000033330033660033990033CC0033FF0066000066330066660066990066CC0066FF0099
310
000099330099660099990099CC0099FF00CC0000CC3300CC6600CC9900CCCC00CCFF00FF0000FF3300FF6600FF9900FFCC00FFFF3300003300333300663300993300CC3300FF3333003333333333663333993333CC3333FF3366003366333366663366993366CC3366FF3399003399333399663399993399CC3399FF33CC00
310
33CC3333CC6633CC9933CCCC33CCFF33FF0033FF3333FF6633FF9933FFCC33FFFF6600006600336600666600996600CC6600FF6633006633336633666633996633CC6633FF6666006666336666666666996666CC6666FF6699006699336699666699996699CC6699FF66CC0066CC3366CC6666CC9966CCCC66CCFF66FF0066
310
FF3366FF6666FF9966FFCC66FFFF9900009900339900669900999900CC9900FF9933009933339933669933999933CC9933FF9966009966339966669966999966CC9966FF9999009999339999669999999999CC9999FF99CC0099CC3399CC6699CC9999CCCC99CCFF99FF0099FF3399FF6699FF9999FFCC99FFFFCC0000CC00
310
33CC0066CC0099CC00CCCC00FFCC3300CC3333CC3366CC3399CC33CCCC33FFCC6600CC6633CC6666CC6699CC66CCCC66FFCC9900CC9933CC9966CC9999CC99CCCC99FFCCCC00CCCC33CCCC66CCCC99CCCCCCCCCCFFCCFF00CCFF33CCFF66CCFF99CCFFCCCCFFFFFF0000FF0033FF0066FF0099FF00CCFF00FFFF3300FF3333
310
FF3366FF3399FF33CCFF33FFFF6600FF6633FF6666FF6699FF66CCFF66FFFF9900FF9933FF9966FF9999FF99CCFF99FFFFCC00FFCC33FFCC66FFCC99FFCCCCFFCCFFFFFF00FFFF33FFFF66FFFF99FFFFCCFFFFFF0000000D0D0D1A1A1A2828283535354343435050505D5D5D6B6B6B787878868686939393A1A1A1AEAEAEBB
310
BBBBC9C9C9D6D6D6E4E4E4F1F1F1FFFFFF00000000000000000000000000000000000000000000000000000000000008F1915C000003D14944415478DAED9DB192E3200C86F506BC060DEFDFA5A1DD4770E57A0B35EE0F21C0C2E05C8ABB9958421B2736F164469F7F09844916E0FF59F86706CFB4F0751FB4002C000BC0F7
310
0238C8A06CF462128030B30046019802D062005608980D011824B014B0BAC1A58035125C0016002B0010CD0340E300C032007F1CA6011CC7466615803FA80CB09B033C1B1EC4A099450069EBFCB703807B81CB6C883100DB86C779E96D55834D0120E56F3007B414603104C87B18464246001C1900D805502A211C47422A00
310
C405E053006577DF71B70740981E00BCCA25BE5DF112F27978312D00F25F2C20600E205450350B640025222C28A035F373024021A0010062085BE0ADEE5C1C6FCE9F3744785AE8D88EE7870042D8B62D6FBF75470AFF3CB5DC11E200C8006876684FF67400B081873CCFB5E5831980D38AFB4501290A140010DD60908A9E00
310
28F26700085C1A5B00C08F1FE80194DEF0E900BA5E4000081700DBCFCFCF2601A8180A235F670250AF79B8F47CB70AD00060DF6F0084114039464AFC6D14F87400480A883112007AE1FDFC261F34E3402981AF0CC04C0138E480DA09E802009F03A8BD02C57F0A0293001426C1DB6E107399D077837C63541F803CA6893CB4
310
790320A855C02700CA4C4140590BA80901AE82BD97E5F0082004AA85CF6A400F8052057B9F9E7E6B399C013402F3725807007CA3007C3F21A202409137C6D07B8BDD7A306EE612581F8024F4404930E738B801906785CF7961750A1826457B0079EAB39F13D70300EBDC4615387600500A7FBC31AA1C407FBD550310EE2170
310
B1C36E8BBA473380FA2CD55FDF40F5002E526705B41B80E7AE56004207005D2200E8EE88CFD6066853C02983B9ED0A017CD1077D2180F849AB0200CE414C5B7A75AD65B469EBF301F4EE149FC08DD7DACD5A3500B83AB5002C00E601A40EFF6F00EA884803007F31E7270092C36A0100F8E6AA67050CBA40AD0078809B2E3B
310
44F29D76C0916FEE25AD8E84330071CC23E74703381590BF119215C00084025E35373080D4FA12094381025804E53B313E8BDB06005AEC59E3BAF97F0B209D3D0180CF07C02B401280F24224A27B89D521BC4F00EA517BD7A1BE10F0770AD8778539809320D610489B776030098A6E100B80DB6E103575833C944139102A00
310
502800BBA130423CA70C550C854B06A85F8B74DE168072A7B3B96A4B011CD7A601806D00D72468128073D82645911EC600904BCEE50DC8FBE22D8AB962ECA6C5B143A6030088351008E2AA4B059C674750F60B12DD1A88050006A7AF00401D003857046107007102E0B2484C8B022EEBBFEE96844D9609ACDBE30B805200D3
310
DF909DB42D002B041E0AE009FF65E60F1CB72489ED1E90D40000000049454E44AE426082EA2E0E3343FD0D114E8BC0B6F38F4C22C071001816049575127380F33F175C1B60BAFAED109901102F807915B85C13C80EE086BF0E0000B80540BC937EB86B427F27F9B4D775F797670B30BB95FE6C2FAA0000960390FEFF0DDEBF
310
00000000000000000000000000000000000000000000000000C2CA1F58366A5FBA85D89E0000000049454E44AE426082
  0
ENDSEC
  0
EOF
