  0
SECTION
  2
HEADER
  9
$ACADVER
  1
AC1027
  9
$ACADMAINTVER
 70
    55
  9
$DWGCODEPAGE
  3
ANSI_932
  9
$LASTSAVEDBY
  1
marketing
  9
$REQUIREDVERSIONS
160
                 0
  9
$INSBASE
 10
0.0
 20
0.0
 30
0.0
  9
$EXTMIN
 10
-0.0271848000274986
 20
-0.0339799624200623
 30
-0.0000000000000058
  9
$EXTMAX
 10
525.0421626064198
 20
742.533993793299
 30
0.0000000000000104
  9
$LIMMIN
 10
0.0
 20
0.0
  9
$LIMMAX
 10
594.0
 20
420.0
  9
$ORTHOMODE
 70
     1
  9
$REGENMODE
 70
     1
  9
$FILLMODE
 70
     1
  9
$QTEXTMODE
 70
     0
  9
$MIRRTEXT
 70
     1
  9
$LTSCALE
 40
1.0
  9
$ATTMODE
 70
     1
  9
$TEXTSIZE
 40
3.0
  9
$TRACEWID
 40
1.0
  9
$TEXTSTYLE
  7
STANDARD
  9
$CLAYER
  8
0
  9
$CELTYPE
  6
ByLayer
  9
$CECOLOR
 62
   256
  9
$CELTSCALE
 40
1.0
  9
$DISPSILH
 70
     0
  9
$DIMSCALE
 40
1.0
  9
$DIMASZ
 40
2.0
  9
$DIMEXO
 40
1.0
  9
$DIMDLI
 40
0.5
  9
$DIMRND
 40
0.0
  9
$DIMDLE
 40
0.0
  9
$DIMEXE
 40
0.5
  9
$DIMTP
 40
0.0
  9
$DIMTM
 40
0.0
  9
$DIMTXT
 40
6.0
  9
$DIMCEN
 40
0.09
  9
$DIMTSZ
 40
0.0
  9
$DIMTOL
 70
     0
  9
$DIMLIM
 70
     0
  9
$DIMTIH
 70
     0
  9
$DIMTOH
 70
     0
  9
$DIMSE1
 70
     0
  9
$DIMSE2
 70
     0
  9
$DIMTAD
 70
     3
  9
$DIMZIN
 70
    12
  9
$DIMBLK
  1
OPEN
  9
$DIMASO
 70
     1
  9
$DIMSHO
 70
     1
  9
$DIMPOST
  1

  9
$DIMAPOST
  1

  9
$DIMALT
 70
     0
  9
$DIMALTD
 70
     2
  9
$DIMALTF
 40
25.4
  9
$DIMLFAC
 40
1.0
  9
$DIMTOFL
 70
     0
  9
$DIMTVP
 40
0.0
  9
$DIMTIX
 70
     0
  9
$DIMSOXD
 70
     0
  9
$DIMSAH
 70
     0
  9
$DIMBLK1
  1

  9
$DIMBLK2
  1

  9
$DIMSTYLE
  2
STANDARD
  9
$DIMCLRD
 70
     0
  9
$DIMCLRE
 70
     0
  9
$DIMCLRT
 70
     0
  9
$DIMTFAC
 40
1.0
  9
$DIMGAP
 40
2.0
  9
$DIMJUST
 70
     0
  9
$DIMSD1
 70
     0
  9
$DIMSD2
 70
     0
  9
$DIMTOLJ
 70
     1
  9
$DIMTZIN
 70
     0
  9
$DIMALTZ
 70
     0
  9
$DIMALTTZ
 70
     0
  9
$DIMUPT
 70
     0
  9
$DIMDEC
 70
     1
  9
$DIMTDEC
 70
     1
  9
$DIMALTU
 70
     2
  9
$DIMALTTD
 70
     2
  9
$DIMTXSTY
  7
STANDARD
  9
$DIMAUNIT
 70
     0
  9
$DIMADEC
 70
     0
  9
$DIMALTRND
 40
0.0
  9
$DIMAZIN
 70
     0
  9
$DIMDSEP
 70
    46
  9
$DIMATFIT
 70
     3
  9
$DIMFRAC
 70
     0
  9
$DIMLDRBLK
  1
OPEN
  9
$DIMLUNIT
 70
     2
  9
$DIMLWD
 70
    -2
  9
$DIMLWE
 70
    -2
  9
$DIMTMOVE
 70
     0
  9
$DIMFXL
 40
1.0
  9
$DIMFXLON
 70
     0
  9
$DIMJOGANG
 40
0.7853981633974483
  9
$DIMTFILL
 70
     1
  9
$DIMTFILLCLR
 70
     0
  9
$DIMARCSYM
 70
     0
  9
$DIMLTYPE
  6

  9
$DIMLTEX1
  6

  9
$DIMLTEX2
  6

  9
$DIMTXTDIRECTION
 70
     0
  9
$LUNITS
 70
     2
  9
$LUPREC
 70
     4
  9
$SKETCHINC
 40
1.0
  9
$FILLETRAD
 40
0.0
  9
$AUNITS
 70
     0
  9
$AUPREC
 70
     0
  9
$MENU
  1
.
  9
$ELEVATION
 40
0.0
  9
$PELEVATION
 40
0.0
  9
$THICKNESS
 40
0.0
  9
$LIMCHECK
 70
     0
  9
$CHAMFERA
 40
0.0
  9
$CHAMFERB
 40
0.0
  9
$CHAMFERC
 40
0.0
  9
$CHAMFERD
 40
0.0
  9
$SKPOLY
 70
     0
  9
$TDCREATE
 40
2458661.367548785
  9
$TDUCREATE
 40
2458660.992548785
  9
$TDUPDATE
 40
2459243.583210914
  9
$TDUUPDATE
 40
2459243.208210915
  9
$TDINDWG
 40
0.4203658102
  9
$TDUSRTIMER
 40
0.4203652431
  9
$USRTIMER
 70
     1
  9
$ANGBASE
 50
0.0
  9
$ANGDIR
 70
     0
  9
$PDMODE
 70
     0
  9
$PDSIZE
 40
-1.0
  9
$PLINEWID
 40
0.0
  9
$SPLFRAME
 70
     0
  9
$SPLINETYPE
 70
     6
  9
$SPLINESEGS
 70
     8
  9
$HANDSEED
  5
8B50
  9
$SURFTAB1
 70
     6
  9
$SURFTAB2
 70
     6
  9
$SURFTYPE
 70
     6
  9
$SURFU
 70
     6
  9
$SURFV
 70
     6
  9
$UCSBASE
  2

  9
$UCSNAME
  2

  9
$UCSORG
 10
0.0
 20
0.0
 30
0.0
  9
$UCSXDIR
 10
1.0
 20
0.0
 30
0.0
  9
$UCSYDIR
 10
0.0
 20
1.0
 30
0.0
  9
$UCSORTHOREF
  2

  9
$UCSORTHOVIEW
 70
     0
  9
$UCSORGTOP
 10
0.0
 20
0.0
 30
0.0
  9
$UCSORGBOTTOM
 10
0.0
 20
0.0
 30
0.0
  9
$UCSORGLEFT
 10
0.0
 20
0.0
 30
0.0
  9
$UCSORGRIGHT
 10
0.0
 20
0.0
 30
0.0
  9
$UCSORGFRONT
 10
0.0
 20
0.0
 30
0.0
  9
$UCSORGBACK
 10
0.0
 20
0.0
 30
0.0
  9
$PUCSBASE
  2

  9
$PUCSNAME
  2

  9
$PUCSORG
 10
0.0
 20
0.0
 30
0.0
  9
$PUCSXDIR
 10
1.0
 20
0.0
 30
0.0
  9
$PUCSYDIR
 10
0.0
 20
1.0
 30
0.0
  9
$PUCSORTHOREF
  2

  9
$PUCSORTHOVIEW
 70
     0
  9
$PUCSORGTOP
 10
0.0
 20
0.0
 30
0.0
  9
$PUCSORGBOTTOM
 10
0.0
 20
0.0
 30
0.0
  9
$PUCSORGLEFT
 10
0.0
 20
0.0
 30
0.0
  9
$PUCSORGRIGHT
 10
0.0
 20
0.0
 30
0.0
  9
$PUCSORGFRONT
 10
0.0
 20
0.0
 30
0.0
  9
$PUCSORGBACK
 10
0.0
 20
0.0
 30
0.0
  9
$USERI1
 70
     0
  9
$USERI2
 70
     0
  9
$USERI3
 70
     0
  9
$USERI4
 70
     0
  9
$USERI5
 70
     0
  9
$USERR1
 40
0.0
  9
$USERR2
 40
0.0
  9
$USERR3
 40
0.0
  9
$USERR4
 40
0.0
  9
$USERR5
 40
0.0
  9
$WORLDVIEW
 70
     1
  9
$SHADEDGE
 70
     3
  9
$SHADEDIF
 70
    70
  9
$TILEMODE
 70
     1
  9
$MAXACTVP
 70
    64
  9
$PINSBASE
 10
0.0
 20
0.0
 30
0.0
  9
$PLIMCHECK
 70
     0
  9
$PEXTMIN
 10
1.000000000000000E+20
 20
1.000000000000000E+20
 30
1.000000000000000E+20
  9
$PEXTMAX
 10
-1.000000000000000E+20
 20
-1.000000000000000E+20
 30
-1.000000000000000E+20
  9
$PLIMMIN
 10
0.0
 20
0.0
  9
$PLIMMAX
 10
420.0
 20
297.0
  9
$UNITMODE
 70
     0
  9
$VISRETAIN
 70
     1
  9
$PLINEGEN
 70
     0
  9
$PSLTSCALE
 70
     1
  9
$TREEDEPTH
 70
  3020
  9
$CMLSTYLE
  2
Standard
  9
$CMLJUST
 70
     0
  9
$CMLSCALE
 40
20.0
  9
$PROXYGRAPHICS
 70
     1
  9
$MEASUREMENT
 70
     1
  9
$CELWEIGHT
370
    -1
  9
$ENDCAPS
280
     0
  9
$JOINSTYLE
280
     0
  9
$LWDISPLAY
290
     1
  9
$INSUNITS
 70
     4
  9
$HYPERLINKBASE
  1

  9
$STYLESHEET
  1
MONOCHROME.CTB
  9
$XEDIT
290
     1
  9
$CEPSNTYPE
380
     0
  9
$PSTYLEMODE
290
     1
  9
$FINGERPRINTGUID
  2
{4F539629-E7AA-4B74-AABF-D3D77F167EDD}
  9
$VERSIONGUID
  2
{BA028BED-86D7-42F6-A188-21E7783BE910}
  9
$EXTNAMES
290
     1
  9
$PSVPSCALE
 40
0.0
  9
$OLESTARTUP
290
     0
  9
$SORTENTS
280
   127
  9
$INDEXCTL
280
     0
  9
$HIDETEXT
280
     1
  9
$XCLIPFRAME
280
     0
  9
$HALOGAP
280
     0
  9
$OBSCOLOR
 70
   257
  9
$OBSLTYPE
280
     0
  9
$INTERSECTIONDISPLAY
280
     0
  9
$INTERSECTIONCOLOR
 70
   257
  9
$DIMASSOC
280
     2
  9
$PROJECTNAME
  1

  9
$CAMERADISPLAY
290
     0
  9
$LENSLENGTH
 40
50.0
  9
$CAMERAHEIGHT
 40
0.0
  9
$STEPSPERSEC
 40
2.0
  9
$STEPSIZE
 40
6.0
  9
$3DDWFPREC
 40
2.0
  9
$PSOLWIDTH
 40
5.0
  9
$PSOLHEIGHT
 40
80.0
  9
$LOFTANG1
 40
1.5707963268
  9
$LOFTANG2
 40
1.5707963268
  9
$LOFTMAG1
 40
0.0
  9
$LOFTMAG2
 40
0.0
  9
$LOFTPARAM
 70
     7
  9
$LOFTNORMALS
280
     1
  9
$LATITUDE
 40
37.795
  9
$LONGITUDE
 40
-122.394
  9
$NORTHDIRECTION
 40
0.0
  9
$TIMEZONE
 70
 -8000
  9
$LIGHTGLYPHDISPLAY
280
     1
  9
$TILEMODELIGHTSYNCH
280
     1
  9
$CMATERIAL
347
44
  9
$SOLIDHIST
280
     1
  9
$SHOWHIST
280
     1
  9
$DWFFRAME
280
     2
  9
$DGNFRAME
280
     2
  9
$REALWORLDSCALE
290
     1
  9
$INTERFERECOLOR
 62
   256
  9
$INTERFEREOBJVS
345
33
  9
$INTERFEREVPVS
346
59A0
  9
$CSHADOW
280
     0
  9
$SHADOWPLANELOCATION
 40
0.0
  0
ENDSEC
  0
SECTION
  2
CLASSES
  0
CLASS
  1
ACDBDICTIONARYWDFLT
  2
AcDbDictionaryWithDefault
  3
ObjectDBX Classes
 90
        0
 91
        1
280
     0
281
     0
  0
CLASS
  1
VISUALSTYLE
  2
AcDbVisualStyle
  3
ObjectDBX Classes
 90
     4095
 91
       26
280
     0
281
     0
  0
CLASS
  1
MATERIAL
  2
AcDbMaterial
  3
ObjectDBX Classes
 90
     1153
 91
        3
280
     0
281
     0
  0
CLASS
  1
SCALE
  2
AcDbScale
  3
ObjectDBX Classes
 90
     1153
 91
       33
280
     0
281
     0
  0
CLASS
  1
SUN
  2
AcDbSun
  3
SCENEOE
 90
     1153
 91
        1
280
     0
281
     0
  0
CLASS
  1
DICTIONARYVAR
  2
AcDbDictionaryVar
  3
ObjectDBX Classes
 90
        0
 91
        7
280
     0
281
     0
  0
CLASS
  1
TABLESTYLE
  2
AcDbTableStyle
  3
ObjectDBX Classes
 90
     4095
 91
        1
280
     0
281
     0
  0
CLASS
  1
MLEADERSTYLE
  2
AcDbMLeaderStyle
  3
ACDB_MLEADERSTYLE_CLASS
 90
     4095
 91
        1
280
     0
281
     0
  0
CLASS
  1
SORTENTSTABLE
  2
AcDbSortentsTable
  3
ObjectDBX Classes
 90
        0
 91
        2
280
     0
281
     0
  0
CLASS
  1
AEC_REFEDIT_STATUS_TRACKER
  2
AecDbRefEditStatusTracker
  3
AecArchBase70|Product Desc: Autodesk Architectural Desktop 2007 |Company: Autodesk,Inc. |WEB Address: www.autodesk.com
 90
      129
 91
        0
280
     0
281
     0
  0
CLASS
  1
NPOCOLLECTION
  2
AcDbImpNonPersistentObjectsCollection
  3
ObjectDBX Classes
 90
     1153
 91
        0
280
     0
281
     0
  0
CLASS
  1
ACDB_MTEXTOBJECTCONTEXTDATA_CLASS
  2
AcDbMTextObjectContextData
  3
ObjectDBX Classes
 90
     1153
 91
        0
280
     0
281
     0
  0
CLASS
  1
DIMASSOC
  2
AcDbDimAssoc
  3
"AcDbDimAssoc|Product Desc:     AcDim ARX App For Dimension|Company:          Autodesk, Inc.|WEB Address:      www.autodesk.com"
 90
        0
 91
        2
280
     0
281
     0
  0
CLASS
  1
EXACXREFPANELOBJECT
  2
ExAcXREFPanelObject
  3
EXAC_ESW
 90
     1025
 91
        0
280
     0
281
     0
  0
CLASS
  1
CELLSTYLEMAP
  2
AcDbCellStyleMap
  3
ObjectDBX Classes
 90
     1152
 91
        2
280
     0
281
     0
  0
CLASS
  1
ACDBSECTIONVIEWSTYLE
  2
AcDbSectionViewStyle
  3
ObjectDBX Classes
 90
     1025
 91
        1
280
     0
281
     0
  0
CLASS
  1
ACDBDETAILVIEWSTYLE
  2
AcDbDetailViewStyle
  3
ObjectDBX Classes
 90
     1025
 91
        1
280
     0
281
     0
  0
ENDSEC
  0
SECTION
  2
TABLES
  0
TABLE
  2
VPORT
  5
8
330
0
100
AcDbSymbolTable
 70
     1
  0
VPORT
  5
29
330
8
100
AcDbSymbolTableRecord
100
AcDbViewportTableRecord
  2
*Active
 70
     0
 10
0.0
 20
0.0
 11
1.0
 21
1.0
 12
262.5074889031962
 22
371.2500069154395
 13
0.0
 23
0.0
 14
10.0
 24
10.0
 15
10.0
 25
10.0
 16
0.0
 26
0.0
 36
1.0
 17
0.0
 27
0.0
 37
0.0
 40
749.318591698953
 41
2.464339908952958
 42
50.0
 43
0.0
 44
0.0
 50
0.0
 51
0.0
 71
     0
 72
  2000
 73
     1
 74
     3
 75
     0
 76
     0
 77
     0
 78
     0
281
     0
 65
     1
110
0.0
120
0.0
130
0.0
111
1.0
121
0.0
131
0.0
112
0.0
122
1.0
132
0.0
 79
     0
146
0.0
348
2F
 60
     3
 61
     5
292
     1
282
     1
141
0.0
142
0.0
 63
   250
361
69
1001
ACAD_NAV_VCDISPLAY
1070
     3
  0
ENDTAB
  0
TABLE
  2
LTYPE
  5
5
330
0
100
AcDbSymbolTable
 70
     6
  0
LTYPE
  5
14
330
5
100
AcDbSymbolTableRecord
100
AcDbLinetypeTableRecord
  2
ByBlock
 70
     0
  3

 72
    65
 73
     0
 40
0.0
  0
LTYPE
  5
15
330
5
100
AcDbSymbolTableRecord
100
AcDbLinetypeTableRecord
  2
ByLayer
 70
     0
  3

 72
    65
 73
     0
 40
0.0
  0
LTYPE
  5
16
330
5
100
AcDbSymbolTableRecord
100
AcDbLinetypeTableRecord
  2
Continuous
 70
     0
  3
Solid line
 72
    65
 73
     0
 40
0.0
  0
LTYPE
  5
6A
330
5
100
AcDbSymbolTableRecord
100
AcDbLinetypeTableRecord
  2
SLD-実線
 70
     0
  3
SolidWorks Line Style
 72
    65
 73
     0
 40
0.0
  0
LTYPE
  5
6496
330
5
100
AcDbSymbolTableRecord
100
AcDbLinetypeTableRecord
  2
CONTINOUS
 70
     0
  3
Solid line
 72
    65
 73
     0
 40
0.0
  0
LTYPE
  5
6497
330
5
100
AcDbSymbolTableRecord
100
AcDbLinetypeTableRecord
  2
DASHDOT
 70
     0
  3
__ . __ . __ . __ . __ . __ . __ . __ . __ . __
 72
    65
 73
     4
 40
1.0
 49
0.5
 74
     0
 49
-0.25
 74
     0
 49
0.0
 74
     0
 49
-0.25
 74
     0
  0
LTYPE
  5
6498
330
5
100
AcDbSymbolTableRecord
100
AcDbLinetypeTableRecord
  2
DIVIDE
 70
     0
  3
Divide ____ . . ____ . . ____ . . ____ . . ____
 72
    65
 73
     6
 40
1.25
 49
0.5
 74
     0
 49
-0.25
 74
     0
 49
0.0
 74
     0
 49
-0.25
 74
     0
 49
0.0
 74
     0
 49
-0.25
 74
     0
  0
LTYPE
  5
6C7D
330
5
100
AcDbSymbolTableRecord
100
AcDbLinetypeTableRecord
  2
CENTER
 70
     0
  3
____ _ ____ _ ____ _ ____ _ ____ _ ____ _ ____
 72
    65
 73
     4
 40
0.6
 49
0.375
 74
     0
 49
-0.075
 74
     0
 49
0.075
 74
     0
 49
-0.075
 74
     0
  0
ENDTAB
  0
TABLE
  2
LAYER
  5
2
102
{ACAD_XDICTIONARY
360
5F3B
102
}
330
0
100
AcDbSymbolTable
 70
    13
  0
LAYER
  5
10
102
{ACAD_XDICTIONARY
360
59A9
102
}
330
2
100
AcDbSymbolTableRecord
100
AcDbLayerTableRecord
  2
0
 70
     0
 62
     7
  6
Continuous
370
    -3
390
F
347
46
348
0
  0
LAYER
  5
71
102
{ACAD_XDICTIONARY
360
59AB
102
}
330
2
100
AcDbSymbolTableRecord
100
AcDbLayerTableRecord
  2
SLD-0
 70
     0
 62
     9
  6
SLD-実線
370
    -3
390
F
347
46
348
0
  0
LAYER
  5
59BD
330
2
100
AcDbSymbolTableRecord
100
AcDbLayerTableRecord
  2
Defpoints
 70
     0
 62
     7
  6
Continuous
290
     0
370
    -3
390
F
347
46
348
0
  0
LAYER
  5
6499
102
{ACAD_XDICTIONARY
360
649A
102
}
330
2
100
AcDbSymbolTableRecord
100
AcDbLayerTableRecord
  2
16
 70
     0
 62
     6
  6
DASHDOT
370
    -3
390
F
347
46
348
0
  0
LAYER
  5
649B
102
{ACAD_XDICTIONARY
360
649C
102
}
330
2
100
AcDbSymbolTableRecord
100
AcDbLayerTableRecord
  2
30
 70
     0
 62
     9
  6
Continuous
370
    -3
390
F
347
46
348
0
  0
LAYER
  5
649D
102
{ACAD_XDICTIONARY
360
649E
102
}
330
2
100
AcDbSymbolTableRecord
100
AcDbLayerTableRecord
  2
18
 70
     0
 62
     5
  6
DIVIDE
370
    -3
390
F
347
46
348
0
  0
LAYER
  5
649F
102
{ACAD_XDICTIONARY
360
64A0
102
}
330
2
100
AcDbSymbolTableRecord
100
AcDbLayerTableRecord
  2
10
 70
     0
 62
     4
  6
Continuous
370
    -3
390
F
347
46
348
0
  0
LAYER
  5
64A1
102
{ACAD_XDICTIONARY
360
64A2
102
}
330
2
100
AcDbSymbolTableRecord
100
AcDbLayerTableRecord
  2
17
 70
     0
 62
     2
  6
DASHDOT
370
    -3
390
F
347
46
348
0
  0
LAYER
  5
64A3
330
2
100
AcDbSymbolTableRecord
100
AcDbLayerTableRecord
  2
22
 70
     0
 62
     3
  6
Continuous
370
    -3
390
F
347
46
348
0
  0
LAYER
  5
7307
102
{ACAD_XDICTIONARY
360
7308
102
}
330
2
100
AcDbSymbolTableRecord
100
AcDbLayerTableRecord
  2
240
 70
     0
 62
     7
  6
Continuous
370
    -3
390
F
347
46
348
0
  0
LAYER
  5
8A0C
102
{ACAD_XDICTIONARY
360
8A0D
102
}
330
2
100
AcDbSymbolTableRecord
100
AcDbLayerTableRecord
  2
12
 70
     0
 62
     3
  6
CONTINOUS
370
    -3
390
F
347
46
348
0
  0
LAYER
  5
8B2E
330
2
100
AcDbSymbolTableRecord
100
AcDbLayerTableRecord
  2
24
 70
     0
 62
     7
  6
Continuous
370
    -3
390
F
347
46
348
0
1001
AcAecLayerStandard
1000

1000

1001
AcCmTransparency
1071
        0
  0
LAYER
  5
8B31
330
2
100
AcDbSymbolTableRecord
100
AcDbLayerTableRecord
  2
19
 70
     0
 62
     7
  6
Continuous
370
    -3
390
F
347
46
348
0
1001
AcAecLayerStandard
1000

1000

1001
AcCmTransparency
1071
        0
  0
ENDTAB
  0
TABLE
  2
STYLE
  5
3
330
0
100
AcDbSymbolTable
 70
     3
  0
STYLE
  5
11
330
3
100
AcDbSymbolTableRecord
100
AcDbTextStyleTableRecord
  2
STANDARD
 70
     0
 40
0.0
 41
1.0
 50
0.0
 71
     0
 42
3.0
  3
MS UI Gothic.ttf
  4

1001
ACAD
1000
MS UI GOTHIC
1071
    32818
  0
STYLE
  5
203
330
3
100
AcDbSymbolTableRecord
100
AcDbTextStyleTableRecord
  2
SLDTEXTSTYLE0
 70
     0
 40
0.0
 41
1.0
 50
0.0
 71
     0
 42
3.0
  3
MS UI Gothic.ttf
  4

1001
ACAD
1000
MS UI Gothic
1071
      306
  0
STYLE
  5
64A5
330
3
100
AcDbSymbolTableRecord
100
AcDbTextStyleTableRecord
  2
blockfont
 70
     0
 40
0.0
 41
1.0
 50
0.0
 71
     0
 42
0.2
  3
simplex.shx
  4
bigfont
  0
ENDTAB
  0
TABLE
  2
VIEW
  5
6
330
0
100
AcDbSymbolTable
 70
     0
  0
ENDTAB
  0
TABLE
  2
UCS
  5
7
330
0
100
AcDbSymbolTable
 70
     0
  0
ENDTAB
  0
TABLE
  2
APPID
  5
9
330
0
100
AcDbSymbolTable
 70
    10
  0
APPID
  5
12
330
9
100
AcDbSymbolTableRecord
100
AcDbRegAppTableRecord
  2
ACAD
 70
     0
  0
APPID
  5
5C7A
330
9
100
AcDbSymbolTableRecord
100
AcDbRegAppTableRecord
  2
ACAD_DSTYLE_DIMJAG
 70
     0
  0
APPID
  5
5C7B
330
9
100
AcDbSymbolTableRecord
100
AcDbRegAppTableRecord
  2
ACAD_DSTYLE_DIMTALN
 70
     0
  0
APPID
  5
64A8
330
9
100
AcDbSymbolTableRecord
100
AcDbRegAppTableRecord
  2
ACAD_NAV_VCDISPLAY
 70
     0
  0
APPID
  5
6C84
330
9
100
AcDbSymbolTableRecord
100
AcDbRegAppTableRecord
  2
ACAD_DSTYLE_DIMRADIAL_EXTENSION
 70
     0
  0
APPID
  5
6C85
330
9
100
AcDbSymbolTableRecord
100
AcDbRegAppTableRecord
  2
AcadAnnotative
 70
     0
  0
APPID
  5
725A
330
9
100
AcDbSymbolTableRecord
100
AcDbRegAppTableRecord
  2
ACAD_EXEMPT_FROM_CAD_STANDARDS
 70
     0
  0
APPID
  5
730B
330
9
100
AcDbSymbolTableRecord
100
AcDbRegAppTableRecord
  2
ACAD_PSEXT
 70
     0
  0
APPID
  5
8B2F
330
9
100
AcDbSymbolTableRecord
100
AcDbRegAppTableRecord
  2
AcAecLayerStandard
 70
     0
  0
APPID
  5
8B30
330
9
100
AcDbSymbolTableRecord
100
AcDbRegAppTableRecord
  2
AcCmTransparency
 70
     0
  0
ENDTAB
  0
TABLE
  2
DIMSTYLE
  5
A
330
0
100
AcDbSymbolTable
 70
     2
100
AcDbDimStyleTable
 71
     2
340
64A6
340
64A7
  0
DIMSTYLE
105
64A6
102
{ACAD_REACTORS
330
82ED
330
82FB
330
82FC
330
82FD
330
82FE
330
82FF
330
8301
330
8302
330
81F8
330
81FA
330
8218
330
8234
330
8245
330
824A
330
826D
330
826E
330
826F
330
8270
330
8271
330
8272
330
8273
330
8274
330
8283
330
8296
330
829D
330
82A8
330
82B5
330
82BB
330
82C0
330
82C1
330
8A6F
330
82B4
102
}
330
A
100
AcDbSymbolTableRecord
100
AcDbDimStyleTableRecord
  2
STANDARD
 70
     0
 41
2.0
 42
1.0
 43
0.5
 44
0.5
 69
     1
 73
     0
 74
     0
 77
     3
 78
    12
140
6.0
147
2.0
271
     1
272
     1
340
11
341
629D
342
629D
1001
ACAD_DSTYLE_DIMJAG
1070
   388
1040
1.5
1001
ACAD_DSTYLE_DIMTALN
1070
   392
1070
     0
  0
DIMSTYLE
105
64A7
102
{ACAD_REACTORS
330
82A9
330
8303
330
8232
330
862E
102
}
330
A
100
AcDbSymbolTableRecord
100
AcDbDimStyleTableRecord
  2
STANDARD1
 70
     0
 41
2.0
 42
3.0
 43
0.5
 44
0.5
 77
     3
 78
    12
140
6.0
147
2.0
172
     1
271
     8
272
     8
289
     2
340
11
341
629D
342
629D
1001
ACAD_DSTYLE_DIMJAG
1070
   388
1040
1.5
1001
ACAD_DSTYLE_DIMTALN
1070
   392
1070
     0
  0
ENDTAB
  0
TABLE
  2
BLOCK_RECORD
  5
1
330
0
100
AcDbSymbolTable
 70
    38
  0
BLOCK_RECORD
  5
1F
102
{ACAD_XDICTIONARY
360
72CC
102
}
330
1
100
AcDbSymbolTableRecord
100
AcDbBlockTableRecord
  2
*Model_Space
340
22
 70
     0
280
     1
281
     0
  0
BLOCK_RECORD
  5
1B
330
1
100
AcDbSymbolTableRecord
100
AcDbBlockTableRecord
  2
*Paper_Space
340
1E
 70
     0
280
     1
281
     0
  0
BLOCK_RECORD
  5
23
330
1
100
AcDbSymbolTableRecord
100
AcDbBlockTableRecord
  2
*Paper_Space0
340
26
 70
     0
280
     1
281
     0
  0
BLOCK_RECORD
  5
629D
330
1
100
AcDbSymbolTableRecord
100
AcDbBlockTableRecord
  2
_OPEN
340
0
102
{BLKREFS
331
8AD8
331
8AE6
331
8AE7
331
8AF0
331
8AF1
331
8AFA
331
8AFB
331
8B04
331
8B05
331
8A88
331
8A89
331
88BC
331
88BD
331
88C5
331
88C6
331
88CE
331
88CF
331
88D7
331
898F
331
8990
331
8998
331
8999
331
89A1
331
89A2
331
89E2
331
89F0
331
8918
331
8919
331
8921
331
8922
331
8933
331
8934
331
893C
331
893D
331
8A98
331
8A99
331
8986
331
8987
331
8AC5
331
8AC6
331
8AD7
331
8958
331
8960
331
8961
331
896B
331
896C
331
8860
331
8861
331
8873
331
8874
331
88A1
331
88A2
331
88AA
331
88AB
331
88B3
331
88B4
331
8945
331
8946
331
8957
331
88D8
331
88E9
331
88EA
331
88F2
331
88F3
331
88FB
331
88FC
102
}
 70
     0
280
     1
281
     0
  0
BLOCK_RECORD
  5
8304
330
1
100
AcDbSymbolTableRecord
100
AcDbBlockTableRecord
  2
*D2
340
0
 70
     0
280
     1
281
     0
  0
BLOCK_RECORD
  5
8310
330
1
100
AcDbSymbolTableRecord
100
AcDbBlockTableRecord
  2
*D3
340
0
 70
     0
280
     1
281
     0
  0
BLOCK_RECORD
  5
831C
330
1
100
AcDbSymbolTableRecord
100
AcDbBlockTableRecord
  2
*D4
340
0
 70
     0
280
     1
281
     0
  0
BLOCK_RECORD
  5
8329
330
1
100
AcDbSymbolTableRecord
100
AcDbBlockTableRecord
  2
*D5
340
0
 70
     0
280
     1
281
     0
  0
BLOCK_RECORD
  5
8335
330
1
100
AcDbSymbolTableRecord
100
AcDbBlockTableRecord
  2
*D6
340
0
 70
     0
280
     1
281
     0
  0
BLOCK_RECORD
  5
8341
330
1
100
AcDbSymbolTableRecord
100
AcDbBlockTableRecord
  2
*D7
340
0
 70
     0
280
     1
281
     0
  0
BLOCK_RECORD
  5
834D
330
1
100
AcDbSymbolTableRecord
100
AcDbBlockTableRecord
  2
*D8
340
0
 70
     0
280
     1
281
     0
  0
BLOCK_RECORD
  5
835A
330
1
100
AcDbSymbolTableRecord
100
AcDbBlockTableRecord
  2
*D9
340
0
 70
     0
280
     1
281
     0
  0
BLOCK_RECORD
  5
8366
330
1
100
AcDbSymbolTableRecord
100
AcDbBlockTableRecord
  2
*D10
340
0
 70
     0
280
     1
281
     0
  0
BLOCK_RECORD
  5
836F
330
1
100
AcDbSymbolTableRecord
100
AcDbBlockTableRecord
  2
*D11
340
0
 70
     0
280
     1
281
     0
  0
BLOCK_RECORD
  5
837B
330
1
100
AcDbSymbolTableRecord
100
AcDbBlockTableRecord
  2
*D12
340
0
 70
     0
280
     1
281
     0
  0
BLOCK_RECORD
  5
8387
330
1
100
AcDbSymbolTableRecord
100
AcDbBlockTableRecord
  2
*D13
340
0
 70
     0
280
     1
281
     0
  0
BLOCK_RECORD
  5
8393
330
1
100
AcDbSymbolTableRecord
100
AcDbBlockTableRecord
  2
*D14
340
0
 70
     0
280
     1
281
     0
  0
BLOCK_RECORD
  5
839F
330
1
100
AcDbSymbolTableRecord
100
AcDbBlockTableRecord
  2
*D15
340
0
 70
     0
280
     1
281
     0
  0
BLOCK_RECORD
  5
83AB
330
1
100
AcDbSymbolTableRecord
100
AcDbBlockTableRecord
  2
*D16
340
0
 70
     0
280
     1
281
     0
  0
BLOCK_RECORD
  5
83B7
330
1
100
AcDbSymbolTableRecord
100
AcDbBlockTableRecord
  2
*D17
340
0
 70
     0
280
     1
281
     0
  0
BLOCK_RECORD
  5
83C3
330
1
100
AcDbSymbolTableRecord
100
AcDbBlockTableRecord
  2
*D18
340
0
 70
     0
280
     1
281
     0
  0
BLOCK_RECORD
  5
83CF
330
1
100
AcDbSymbolTableRecord
100
AcDbBlockTableRecord
  2
*D19
340
0
 70
     0
280
     1
281
     0
  0
BLOCK_RECORD
  5
83DB
330
1
100
AcDbSymbolTableRecord
100
AcDbBlockTableRecord
  2
*D20
340
0
 70
     0
280
     1
281
     0
  0
BLOCK_RECORD
  5
83E7
330
1
100
AcDbSymbolTableRecord
100
AcDbBlockTableRecord
  2
*D21
340
0
 70
     0
280
     1
281
     0
  0
BLOCK_RECORD
  5
83F4
330
1
100
AcDbSymbolTableRecord
100
AcDbBlockTableRecord
  2
*D22
340
0
 70
     0
280
     1
281
     0
  0
BLOCK_RECORD
  5
8401
330
1
100
AcDbSymbolTableRecord
100
AcDbBlockTableRecord
  2
*D23
340
0
 70
     0
280
     1
281
     0
  0
BLOCK_RECORD
  5
840D
330
1
100
AcDbSymbolTableRecord
100
AcDbBlockTableRecord
  2
*D24
340
0
 70
     0
280
     1
281
     0
  0
BLOCK_RECORD
  5
8419
330
1
100
AcDbSymbolTableRecord
100
AcDbBlockTableRecord
  2
*D25
340
0
 70
     0
280
     1
281
     0
  0
BLOCK_RECORD
  5
8425
330
1
100
AcDbSymbolTableRecord
100
AcDbBlockTableRecord
  2
*D26
340
0
 70
     0
280
     1
281
     0
  0
BLOCK_RECORD
  5
843D
330
1
100
AcDbSymbolTableRecord
100
AcDbBlockTableRecord
  2
*D27
340
0
 70
     0
280
     1
281
     0
  0
BLOCK_RECORD
  5
8449
330
1
100
AcDbSymbolTableRecord
100
AcDbBlockTableRecord
  2
*D28
340
0
 70
     0
280
     1
281
     0
  0
BLOCK_RECORD
  5
8452
330
1
100
AcDbSymbolTableRecord
100
AcDbBlockTableRecord
  2
*D29
340
0
 70
     0
280
     1
281
     0
  0
BLOCK_RECORD
  5
845E
330
1
100
AcDbSymbolTableRecord
100
AcDbBlockTableRecord
  2
*D30
340
0
 70
     0
280
     1
281
     0
  0
BLOCK_RECORD
  5
846A
330
1
100
AcDbSymbolTableRecord
100
AcDbBlockTableRecord
  2
*D31
340
0
 70
     0
280
     1
281
     0
  0
BLOCK_RECORD
  5
8476
330
1
100
AcDbSymbolTableRecord
100
AcDbBlockTableRecord
  2
*D32
340
0
 70
     0
280
     1
281
     0
  0
BLOCK_RECORD
  5
8566
330
1
100
AcDbSymbolTableRecord
100
AcDbBlockTableRecord
  2
*D33
340
0
 70
     0
280
     1
281
     0
  0
BLOCK_RECORD
  5
859C
330
1
100
AcDbSymbolTableRecord
100
AcDbBlockTableRecord
  2
*D34
340
0
 70
     0
280
     1
281
     0
  0
BLOCK_RECORD
  5
8611
102
{ACAD_XDICTIONARY
360
8615
102
}
330
1
100
AcDbSymbolTableRecord
100
AcDbBlockTableRecord
  2
A$C4A823173
340
0
 70
     4
280
     1
281
     0
  0
BLOCK_RECORD
  5
8A01
330
1
100
AcDbSymbolTableRecord
100
AcDbBlockTableRecord
  2
SW_CENTERMARKSYMBOL_18
340
0
102
{BLKREFS
331
8A1C
331
8A1D
102
}
 70
     0
280
     1
281
     0
  0
BLOCK_RECORD
  5
8A70
330
1
100
AcDbSymbolTableRecord
100
AcDbBlockTableRecord
  2
*D37
340
0
 70
     0
280
     1
281
     0
  0
ENDTAB
  0
ENDSEC
  0
SECTION
  2
BLOCKS
  0
BLOCK
  5
20
330
1F
100
AcDbEntity
  8
0
100
AcDbBlockBegin
  2
*Model_Space
 70
     0
 10
0.0
 20
0.0
 30
0.0
  3
*Model_Space
  1
*Model_Space
  0
ENDBLK
  5
21
330
1F
100
AcDbEntity
  8
0
100
AcDbBlockEnd
  0
BLOCK
  5
1C
330
1B
100
AcDbEntity
 67
     1
  8
0
100
AcDbBlockBegin
  2
*Paper_Space
 70
     0
 10
0.0
 20
0.0
 30
0.0
  3
*Paper_Space
  1
*Paper_Space
  0
ENDBLK
  5
1D
330
1B
100
AcDbEntity
 67
     1
  8
0
100
AcDbBlockEnd
  0
BLOCK
  5
24
330
23
100
AcDbEntity
 67
     1
  8
0
100
AcDbBlockBegin
  2
*Paper_Space0
 70
     0
 10
0.0
 20
0.0
 30
0.0
  3
*Paper_Space0
  1
*Paper_Space0
  0
ENDBLK
  5
25
330
23
100
AcDbEntity
 67
     1
  8
0
100
AcDbBlockEnd
  0
BLOCK
  5
629E
330
629D
100
AcDbEntity
  8
0
100
AcDbBlockBegin
  2
_OPEN
 70
     0
 10
0.0
 20
0.0
 30
0.0
  3
_OPEN
  1

  0
LINE
  5
629F
330
629D
100
AcDbEntity
  8
30
  6
Continuous
 62
     0
100
AcDbLine
 10
-1.0
 20
0.166667
 30
0.0
 11
0.0
 21
0.0
 31
0.0
  0
LINE
  5
62A0
330
629D
100
AcDbEntity
  8
30
  6
Continuous
 62
     0
100
AcDbLine
 10
-1.0
 20
-0.166667
 30
0.0
 11
0.0
 21
0.0
 31
0.0
  0
LINE
  5
62A1
330
629D
100
AcDbEntity
  8
30
  6
Continuous
 62
     0
100
AcDbLine
 10
0.0
 20
0.0
 30
0.0
 11
-1.0
 21
0.0
 31
0.0
  0
ENDBLK
  5
62A2
330
629D
100
AcDbEntity
  8
0
100
AcDbBlockEnd
  0
BLOCK
  5
8305
330
8304
100
AcDbEntity
  8
0
100
AcDbBlockBegin
  2
*D2
 70
     1
 10
0.0
 20
0.0
 30
0.0
  3
*D2
  1

  0
LINE
  5
885D
330
8304
100
AcDbEntity
  8
30
  6
Continuous
 62
     0
440
 16777216
370
    -2
100
AcDbLine
 10
431.5763722675416
 20
430.5976664031549
 30
0.0
 11
451.0763722675418
 21
430.5976664031549
 31
0.0
  0
LINE
  5
885E
330
8304
100
AcDbEntity
  8
30
  6
Continuous
 62
     0
440
 16777216
370
    -2
100
AcDbLine
 10
431.5763722675416
 20
316.597666403155
 30
0.0
 11
451.0763722675418
 21
316.597666403155
 31
0.0
  0
LINE
  5
885F
330
8304
100
AcDbEntity
  8
30
  6
Continuous
 62
     0
440
 16777216
370
    -2
100
AcDbLine
 10
450.5763722675419
 20
428.5976664031549
 30
0.0
 11
450.5763722675418
 21
318.597666403155
 31
0.0
  0
INSERT
  5
8860
330
8304
100
AcDbEntity
  8
30
  6
Continuous
 62
     0
440
 16777216
370
    -2
100
AcDbBlockReference
  2
_OPEN
 10
450.5763722675419
 20
430.5976664031549
 30
0.0
 41
2.0
 42
2.0
 43
2.0
 50
90.0
  0
INSERT
  5
8861
330
8304
100
AcDbEntity
  8
30
  6
Continuous
 62
     0
440
 16777216
370
    -2
100
AcDbBlockReference
  2
_OPEN
 10
450.5763722675418
 20
316.597666403155
 30
0.0
 41
2.0
 42
2.0
 43
2.0
 50
270.0
  0
MTEXT
  5
8862
330
8304
100
AcDbEntity
  8
30
  6
Continuous
 62
     0
440
 16777216
100
AcDbMText
 10
445.5763722675418
 20
373.5976664031551
 30
0.0
 40
6.0
 41
0.0
 46
0.0
 71
     5
 72
     1
  1
\A1;114
 11
0.0000000000000001
 21
1.0
 31
0.0
 73
     1
 44
1.0
 90
        3
 63
     9
421
 13158600
 45
1.1
441
        0
  0
POINT
  5
8863
330
8304
100
AcDbEntity
  8
Defpoints
  6
Continuous
 62
     0
440
 16777216
100
AcDbPoint
 10
430.5763722675417
 20
430.5976664031549
 30
0.0
  0
POINT
  5
8864
330
8304
100
AcDbEntity
  8
Defpoints
  6
Continuous
 62
     0
440
 16777216
100
AcDbPoint
 10
430.5763722675417
 20
316.597666403155
 30
0.0
  0
POINT
  5
8865
330
8304
100
AcDbEntity
  8
Defpoints
  6
Continuous
 62
     0
440
 16777216
100
AcDbPoint
 10
450.5763722675418
 20
316.597666403155
 30
0.0
  0
ENDBLK
  5
8306
330
8304
100
AcDbEntity
  8
0
100
AcDbBlockEnd
  0
BLOCK
  5
8311
330
8310
100
AcDbEntity
  8
0
100
AcDbBlockBegin
  2
*D3
 70
     1
 10
0.0
 20
0.0
 30
0.0
  3
*D3
  1

  0
LINE
  5
899E
330
8310
100
AcDbEntity
  8
30
  6
Continuous
 62
     0
440
 16777216
370
    -2
100
AcDbLine
 10
226.4695081382166
 20
376.2143947357764
 30
0.0
 11
226.4695081382166
 21
256.3461373379805
 31
0.0
  0
LINE
  5
899F
330
8310
100
AcDbEntity
  8
30
  6
Continuous
 62
     0
440
 16777216
370
    -2
100
AcDbLine
 10
321.9695069014668
 20
305.3299404081754
 30
0.0
 11
321.9695069014668
 21
256.3461373379805
 31
0.0
  0
LINE
  5
89A0
330
8310
100
AcDbEntity
  8
30
  6
Continuous
 62
     0
440
 16777216
370
    -2
100
AcDbLine
 10
228.4695081382166
 20
256.8461373379806
 30
0.0
 11
319.9695069014668
 21
256.8461373379806
 31
0.0
  0
INSERT
  5
89A1
330
8310
100
AcDbEntity
  8
30
  6
Continuous
 62
     0
440
 16777216
370
    -2
100
AcDbBlockReference
  2
_OPEN
 10
226.4695081382166
 20
256.8461373379806
 30
0.0
 41
2.0
 42
2.0
 43
2.0
 50
180.0
  0
INSERT
  5
89A2
330
8310
100
AcDbEntity
  8
30
  6
Continuous
 62
     0
440
 16777216
370
    -2
100
AcDbBlockReference
  2
_OPEN
 10
321.9695069014668
 20
256.8461373379806
 30
0.0
 41
2.0
 42
2.0
 43
2.0
  0
MTEXT
  5
89A3
330
8310
100
AcDbEntity
  8
30
  6
Continuous
 62
     0
440
 16777216
100
AcDbMText
 10
274.2195075198416
 20
261.8461373379806
 30
0.0
 40
6.0
 41
0.0
 46
0.0
 71
     5
 72
     1
  1
\A1;95.5
 73
     1
 44
1.0
 90
        3
 63
     9
421
 13158600
 45
1.1
441
        0
  0
POINT
  5
89A4
330
8310
100
AcDbEntity
  8
Defpoints
  6
Continuous
 62
     0
440
 16777216
100
AcDbPoint
 10
226.4695081382166
 20
377.2143947357764
 30
0.0
  0
POINT
  5
89A5
330
8310
100
AcDbEntity
  8
Defpoints
  6
Continuous
 62
     0
440
 16777216
100
AcDbPoint
 10
321.9695069014668
 20
306.3299404081754
 30
0.0
  0
POINT
  5
89A6
330
8310
100
AcDbEntity
  8
Defpoints
  6
Continuous
 62
     0
440
 16777216
100
AcDbPoint
 10
321.9695069014668
 20
256.8461373379806
 30
0.0
  0
ENDBLK
  5
8312
330
8310
100
AcDbEntity
  8
0
100
AcDbBlockEnd
  0
BLOCK
  5
831D
330
831C
100
AcDbEntity
  8
0
100
AcDbBlockBegin
  2
*D4
 70
     1
 10
0.0
 20
0.0
 30
0.0
  3
*D4
  1

  0
LINE
  5
886F
330
831C
100
AcDbEntity
  8
30
  6
Continuous
 62
     0
440
 16777216
370
    -2
100
AcDbLine
 10
243.4695081382164
 20
351.2143947357764
 30
0.0
 11
243.4695081382164
 21
267.7664051045375
 31
0.0
  0
LINE
  5
8870
330
831C
100
AcDbEntity
  8
30
  6
Continuous
 62
     0
440
 16777216
370
    -2
100
AcDbLine
 10
249.9695081382164
 20
345.1594943710875
 30
0.0
 11
249.9695081382164
 21
267.7664051045375
 31
0.0
  0
LINE
  5
8871
330
831C
100
AcDbEntity
  8
30
  6
Continuous
 62
     0
440
 16777216
370
    -2
100
AcDbLine
 10
251.9695081382164
 20
268.2664051045375
 30
0.0
 11
253.9695081382164
 21
268.2664051045375
 31
0.0
  0
LINE
  5
8872
330
831C
100
AcDbEntity
  8
30
  6
Continuous
 62
     0
440
 16777216
370
    -2
100
AcDbLine
 10
241.4695081382164
 20
268.2664051045375
 30
0.0
 11
225.8899626836709
 21
268.2664051045375
 31
0.0
  0
INSERT
  5
8873
330
831C
100
AcDbEntity
  8
30
  6
Continuous
 62
     0
440
 16777216
370
    -2
100
AcDbBlockReference
  2
_OPEN
 10
249.9695081382164
 20
268.2664051045375
 30
0.0
 41
2.0
 42
2.0
 43
2.0
 50
180.0
  0
INSERT
  5
8874
330
831C
100
AcDbEntity
  8
30
  6
Continuous
 62
     0
440
 16777216
370
    -2
100
AcDbBlockReference
  2
_OPEN
 10
243.4695081382164
 20
268.2664051045375
 30
0.0
 41
2.0
 42
2.0
 43
2.0
  0
MTEXT
  5
8875
330
831C
100
AcDbEntity
  8
30
  6
Continuous
 62
     0
440
 16777216
100
AcDbMText
 10
232.6797354109437
 20
273.2664051045375
 30
0.0
 40
6.0
 41
0.0
 46
0.0
 71
     5
 72
     1
  1
\A1;6.5
 73
     1
 44
1.0
 90
        3
 63
     9
421
 13158600
 45
1.1
441
        0
  0
POINT
  5
8876
330
831C
100
AcDbEntity
  8
Defpoints
  6
Continuous
 62
     0
440
 16777216
100
AcDbPoint
 10
243.4695081382164
 20
352.2143947357764
 30
0.0
  0
POINT
  5
8877
330
831C
100
AcDbEntity
  8
Defpoints
  6
Continuous
 62
     0
440
 16777216
100
AcDbPoint
 10
249.9695081382164
 20
346.1594943710875
 30
0.0
  0
POINT
  5
8878
330
831C
100
AcDbEntity
  8
Defpoints
  6
Continuous
 62
     0
440
 16777216
100
AcDbPoint
 10
249.9695081382164
 20
268.2664051045375
 30
0.0
  0
ENDBLK
  5
831E
330
831C
100
AcDbEntity
  8
0
100
AcDbBlockEnd
  0
BLOCK
  5
832A
330
8329
100
AcDbEntity
  8
0
100
AcDbBlockBegin
  2
*D5
 70
     1
 10
0.0
 20
0.0
 30
0.0
  3
*D5
  1

  0
LINE
  5
8995
330
8329
100
AcDbEntity
  8
30
  6
Continuous
 62
     0
440
 16777216
370
    -2
100
AcDbLine
 10
249.9695081382164
 20
340.0253455632824
 30
0.0
 11
249.9695081382164
 21
267.7664051045375
 31
0.0
  0
LINE
  5
8996
330
8329
100
AcDbEntity
  8
30
  6
Continuous
 62
     0
440
 16777216
370
    -2
100
AcDbLine
 10
321.9695069014668
 20
305.3299404081754
 30
0.0
 11
321.9695069014668
 21
267.7664051045375
 31
0.0
  0
LINE
  5
8997
330
8329
100
AcDbEntity
  8
30
  6
Continuous
 62
     0
440
 16777216
370
    -2
100
AcDbLine
 10
251.9695081382164
 20
268.2664051045375
 30
0.0
 11
319.9695069014668
 21
268.2664051045375
 31
0.0
  0
INSERT
  5
8998
330
8329
100
AcDbEntity
  8
30
  6
Continuous
 62
     0
440
 16777216
370
    -2
100
AcDbBlockReference
  2
_OPEN
 10
249.9695081382164
 20
268.2664051045375
 30
0.0
 41
2.0
 42
2.0
 43
2.0
 50
180.0
  0
INSERT
  5
8999
330
8329
100
AcDbEntity
  8
30
  6
Continuous
 62
     0
440
 16777216
370
    -2
100
AcDbBlockReference
  2
_OPEN
 10
321.9695069014668
 20
268.2664051045375
 30
0.0
 41
2.0
 42
2.0
 43
2.0
  0
MTEXT
  5
899A
330
8329
100
AcDbEntity
  8
30
  6
Continuous
 62
     0
440
 16777216
100
AcDbMText
 10
285.9695075198416
 20
273.2664051045375
 30
0.0
 40
6.0
 41
0.0
 46
0.0
 71
     5
 72
     1
  1
\A1;72
 73
     1
 44
1.0
 90
        3
 63
     9
421
 13158600
 45
1.1
441
        0
  0
POINT
  5
899B
330
8329
100
AcDbEntity
  8
Defpoints
  6
Continuous
 62
     0
440
 16777216
100
AcDbPoint
 10
249.9695081382164
 20
341.0253455632824
 30
0.0
  0
POINT
  5
899C
330
8329
100
AcDbEntity
  8
Defpoints
  6
Continuous
 62
     0
440
 16777216
100
AcDbPoint
 10
321.9695069014668
 20
306.3299404081754
 30
0.0
  0
POINT
  5
899D
330
8329
100
AcDbEntity
  8
Defpoints
  6
Continuous
 62
     0
440
 16777216
100
AcDbPoint
 10
321.9695069014668
 20
268.2664051045375
 30
0.0
  0
ENDBLK
  5
832B
330
8329
100
AcDbEntity
  8
0
100
AcDbBlockEnd
  0
BLOCK
  5
8336
330
8335
100
AcDbEntity
  8
0
100
AcDbBlockBegin
  2
*D6
 70
     1
 10
0.0
 20
0.0
 30
0.0
  3
*D6
  1

  0
LINE
  5
898C
330
8335
100
AcDbEntity
  8
30
  6
Continuous
 62
     0
440
 16777216
370
    -2
100
AcDbLine
 10
253.9695081382164
 20
314.5741634194892
 30
0.0
 11
253.9695081382164
 21
278.6208704928678
 31
0.0
  0
LINE
  5
898D
330
8335
100
AcDbEntity
  8
30
  6
Continuous
 62
     0
440
 16777216
370
    -2
100
AcDbLine
 10
321.9695069014668
 20
305.3299404081754
 30
0.0
 11
321.9695069014668
 21
278.6208704928678
 31
0.0
  0
LINE
  5
898E
330
8335
100
AcDbEntity
  8
30
  6
Continuous
 62
     0
440
 16777216
370
    -2
100
AcDbLine
 10
255.9695081382164
 20
279.1208704928678
 30
0.0
 11
319.9695069014668
 21
279.1208704928678
 31
0.0
  0
INSERT
  5
898F
330
8335
100
AcDbEntity
  8
30
  6
Continuous
 62
     0
440
 16777216
370
    -2
100
AcDbBlockReference
  2
_OPEN
 10
253.9695081382164
 20
279.1208704928678
 30
0.0
 41
2.0
 42
2.0
 43
2.0
 50
180.0
  0
INSERT
  5
8990
330
8335
100
AcDbEntity
  8
30
  6
Continuous
 62
     0
440
 16777216
370
    -2
100
AcDbBlockReference
  2
_OPEN
 10
321.9695069014668
 20
279.1208704928678
 30
0.0
 41
2.0
 42
2.0
 43
2.0
  0
MTEXT
  5
8991
330
8335
100
AcDbEntity
  8
30
  6
Continuous
 62
     0
440
 16777216
100
AcDbMText
 10
287.9695075198416
 20
284.1208704928678
 30
0.0
 40
6.0
 41
0.0
 46
0.0
 71
     5
 72
     1
  1
\A1;68
 73
     1
 44
1.0
 90
        3
 63
     9
421
 13158600
 45
1.1
441
        0
  0
POINT
  5
8992
330
8335
100
AcDbEntity
  8
Defpoints
  6
Continuous
 62
     0
440
 16777216
100
AcDbPoint
 10
253.9695081382164
 20
315.5741634194892
 30
0.0
  0
POINT
  5
8993
330
8335
100
AcDbEntity
  8
Defpoints
  6
Continuous
 62
     0
440
 16777216
100
AcDbPoint
 10
321.9695069014668
 20
306.3299404081754
 30
0.0
  0
POINT
  5
8994
330
8335
100
AcDbEntity
  8
Defpoints
  6
Continuous
 62
     0
440
 16777216
100
AcDbPoint
 10
321.9695069014668
 20
279.1208704928678
 30
0.0
  0
ENDBLK
  5
8337
330
8335
100
AcDbEntity
  8
0
100
AcDbBlockEnd
  0
BLOCK
  5
8342
330
8341
100
AcDbEntity
  8
0
100
AcDbBlockBegin
  2
*D7
 70
     1
 10
0.0
 20
0.0
 30
0.0
  3
*D7
  1

  0
LINE
  5
8983
330
8341
100
AcDbEntity
  8
30
  6
Continuous
 62
     0
440
 16777216
370
    -2
100
AcDbLine
 10
261.9695069014667
 20
311.0537613065401
 30
0.0
 11
261.9695069014667
 21
288.9210602181128
 31
0.0
  0
LINE
  5
8984
330
8341
100
AcDbEntity
  8
30
  6
Continuous
 62
     0
440
 16777216
370
    -2
100
AcDbLine
 10
321.9695069014668
 20
305.3299404081754
 30
0.0
 11
321.9695069014668
 21
288.9210602181128
 31
0.0
  0
LINE
  5
8985
330
8341
100
AcDbEntity
  8
30
  6
Continuous
 62
     0
440
 16777216
370
    -2
100
AcDbLine
 10
263.9695069014667
 20
289.4210602181128
 30
0.0
 11
319.9695069014668
 21
289.4210602181128
 31
0.0
  0
INSERT
  5
8986
330
8341
100
AcDbEntity
  8
30
  6
Continuous
 62
     0
440
 16777216
370
    -2
100
AcDbBlockReference
  2
_OPEN
 10
261.9695069014667
 20
289.4210602181128
 30
0.0
 41
2.0
 42
2.0
 43
2.0
 50
180.0
  0
INSERT
  5
8987
330
8341
100
AcDbEntity
  8
30
  6
Continuous
 62
     0
440
 16777216
370
    -2
100
AcDbBlockReference
  2
_OPEN
 10
321.9695069014668
 20
289.4210602181128
 30
0.0
 41
2.0
 42
2.0
 43
2.0
  0
MTEXT
  5
8988
330
8341
100
AcDbEntity
  8
30
  6
Continuous
 62
     0
440
 16777216
100
AcDbMText
 10
291.9695069014668
 20
294.4210602181128
 30
0.0
 40
6.0
 41
0.0
 46
0.0
 71
     5
 72
     1
  1
\A1;60
 73
     1
 44
1.0
 90
        3
 63
     9
421
 13158600
 45
1.1
441
        0
  0
POINT
  5
8989
330
8341
100
AcDbEntity
  8
Defpoints
  6
Continuous
 62
     0
440
 16777216
100
AcDbPoint
 10
261.9695069014667
 20
312.0537613065401
 30
0.0
  0
POINT
  5
898A
330
8341
100
AcDbEntity
  8
Defpoints
  6
Continuous
 62
     0
440
 16777216
100
AcDbPoint
 10
321.9695069014668
 20
306.3299404081754
 30
0.0
  0
POINT
  5
898B
330
8341
100
AcDbEntity
  8
Defpoints
  6
Continuous
 62
     0
440
 16777216
100
AcDbPoint
 10
321.9695069014668
 20
289.4210602181128
 30
0.0
  0
ENDBLK
  5
8343
330
8341
100
AcDbEntity
  8
0
100
AcDbBlockEnd
  0
BLOCK
  5
834E
330
834D
100
AcDbEntity
  8
0
100
AcDbBlockBegin
  2
*D8
 70
     1
 10
0.0
 20
0.0
 30
0.0
  3
*D8
  1

  0
LINE
  5
8B00
330
834D
100
AcDbEntity
  8
30
  6
Continuous
 62
     0
440
 16777216
370
    -2
100
AcDbLine
 10
143.0512622359832
 20
598.9342633954402
 30
0.0
 11
143.0512622359832
 21
626.6012030022054
 31
0.0
  0
LINE
  5
8B01
330
834D
100
AcDbEntity
  8
30
  6
Continuous
 62
     0
440
 16777216
370
    -2
100
AcDbLine
 10
151.589209158348
 20
599.2402218438027
 30
0.0
 11
151.589209158348
 21
626.6012030022054
 31
0.0
  0
LINE
  5
8B02
330
834D
100
AcDbEntity
  8
30
  6
Continuous
 62
     0
440
 16777216
370
    -2
100
AcDbLine
 10
145.0512622359832
 20
626.1012030022055
 30
0.0
 11
149.589209158348
 21
626.1012030022055
 31
0.0
  0
LINE
  5
8B03
330
834D
100
AcDbEntity
  8
30
  6
Continuous
 62
     0
440
 16777216
370
    -2
100
AcDbLine
 10
151.589209158348
 20
626.1012030022055
 30
0.0
 11
175.158757750892
 21
626.1012030022055
 31
0.0
  0
INSERT
  5
8B04
330
834D
100
AcDbEntity
  8
30
  6
Continuous
 62
     0
440
 16777216
370
    -2
100
AcDbBlockReference
  2
_OPEN
 10
143.0512622359832
 20
626.1012030022055
 30
0.0
 41
2.0
 42
2.0
 43
2.0
 50
180.0
  0
INSERT
  5
8B05
330
834D
100
AcDbEntity
  8
30
  6
Continuous
 62
     0
440
 16777216
370
    -2
100
AcDbBlockReference
  2
_OPEN
 10
151.589209158348
 20
626.1012030022055
 30
0.0
 41
2.0
 42
2.0
 43
2.0
  0
MTEXT
  5
8B06
330
834D
100
AcDbEntity
  8
30
  6
Continuous
 62
     0
440
 16777216
100
AcDbMText
 10
168.3348941145284
 20
631.1012030022054
 30
0.0
 40
6.0
 41
0.0
 46
0.0
 71
     5
 72
     1
  1
\A1;8.5
 73
     1
 44
1.0
 90
        3
 63
     9
421
 13158600
 45
1.1
441
        0
  0
POINT
  5
8B07
330
834D
100
AcDbEntity
  8
Defpoints
  6
Continuous
 62
     0
440
 16777216
100
AcDbPoint
 10
143.0512622359832
 20
597.9342633954402
 30
0.0
  0
POINT
  5
8B08
330
834D
100
AcDbEntity
  8
Defpoints
  6
Continuous
 62
     0
440
 16777216
100
AcDbPoint
 10
151.589209158348
 20
598.2402218438027
 30
0.0
  0
POINT
  5
8B09
330
834D
100
AcDbEntity
  8
Defpoints
  6
Continuous
 62
     0
440
 16777216
100
AcDbPoint
 10
151.589209158348
 20
626.1012030022055
 30
0.0
  0
ENDBLK
  5
834F
330
834D
100
AcDbEntity
  8
0
100
AcDbBlockEnd
  0
BLOCK
  5
835B
330
835A
100
AcDbEntity
  8
0
100
AcDbBlockBegin
  2
*D9
 70
     1
 10
0.0
 20
0.0
 30
0.0
  3
*D9
  1

  0
LINE
  5
889E
330
835A
100
AcDbEntity
  8
30
  6
Continuous
 62
     0
440
 16777216
370
    -2
100
AcDbLine
 10
139.3705090805371
 20
611.8855104814111
 30
0.0
 11
139.3705090805371
 21
639.3741504311332
 31
0.0
  0
LINE
  5
889F
330
835A
100
AcDbEntity
  8
30
  6
Continuous
 62
     0
440
 16777216
370
    -2
100
AcDbLine
 10
155.3405977706012
 20
611.9855104814111
 30
0.0
 11
155.3405977706012
 21
639.3741504311332
 31
0.0
  0
LINE
  5
88A0
330
835A
100
AcDbEntity
  8
30
  6
Continuous
 62
     0
440
 16777216
370
    -2
100
AcDbLine
 10
141.3705090805371
 20
638.8741504311332
 30
0.0
 11
153.3405977706012
 21
638.8741504311332
 31
0.0
  0
INSERT
  5
88A1
330
835A
100
AcDbEntity
  8
30
  6
Continuous
 62
     0
440
 16777216
370
    -2
100
AcDbBlockReference
  2
_OPEN
 10
139.3705090805371
 20
638.8741504311332
 30
0.0
 41
2.0
 42
2.0
 43
2.0
 50
180.0
  0
INSERT
  5
88A2
330
835A
100
AcDbEntity
  8
30
  6
Continuous
 62
     0
440
 16777216
370
    -2
100
AcDbBlockReference
  2
_OPEN
 10
155.3405977706012
 20
638.8741504311332
 30
0.0
 41
2.0
 42
2.0
 43
2.0
  0
MTEXT
  5
88A3
330
835A
100
AcDbEntity
  8
30
  6
Continuous
 62
     0
440
 16777216
100
AcDbMText
 10
148.585204714166
 20
643.8741504311332
 30
0.0
 40
6.0
 41
0.0
 46
0.0
 71
     5
 72
     1
  1
\A1;16
 73
     1
 44
1.0
 90
        3
 63
     9
421
 13158600
 45
1.1
441
        0
  0
POINT
  5
88A4
330
835A
100
AcDbEntity
  8
Defpoints
  6
Continuous
 62
     0
440
 16777216
100
AcDbPoint
 10
139.3705090805371
 20
610.8855104814113
 30
0.0
  0
POINT
  5
88A5
330
835A
100
AcDbEntity
  8
Defpoints
  6
Continuous
 62
     0
440
 16777216
100
AcDbPoint
 10
155.3405977706012
 20
610.9855104814108
 30
0.0
  0
POINT
  5
88A6
330
835A
100
AcDbEntity
  8
Defpoints
  6
Continuous
 62
     0
440
 16777216
100
AcDbPoint
 10
155.3405977706012
 20
638.8741504311332
 30
0.0
  0
ENDBLK
  5
835C
330
835A
100
AcDbEntity
  8
0
100
AcDbBlockEnd
  0
BLOCK
  5
8367
330
8366
100
AcDbEntity
  8
0
100
AcDbBlockBegin
  2
*D10
 70
     1
 10
0.0
 20
0.0
 30
0.0
  3
*D10
  1

  0
LINE
  5
89DF
330
8366
100
AcDbEntity
  8
30
 62
     0
440
 16777216
370
    -2
100
AcDbLine
 10
411.5901833485418
 20
168.652835684139
 30
0.0
 11
417.1346971007205
 21
177.0148216100008
 31
0.0
  0
LINE
  5
89E0
330
8366
100
AcDbEntity
  8
30
 62
     0
440
 16777216
370
    -2
100
AcDbLine
 10
417.1346971007205
 20
177.0148216100008
 30
0.0
 11
426.6006061916296
 21
177.0148216100009
 31
0.0
  0
LINE
  5
89E1
330
8366
100
AcDbEntity
  8
30
 62
     0
440
 16777216
370
    -2
100
AcDbLine
 10
409.9323278462756
 20
166.1525326825255
 30
0.0
 11
410.4849463449601
 21
166.9859670132732
 31
0.0
  0
INSERT
  5
89E2
330
8366
100
AcDbEntity
  8
30
 62
     0
440
 16777216
370
    -2
100
AcDbBlockReference
  2
_OPEN
 10
410.4849463449601
 20
166.9859670132732
 30
0.0
 41
2.0
 42
2.0
 43
2.0
 50
236.4531607465409
  0
MTEXT
  5
89E3
330
8366
100
AcDbEntity
  8
30
 62
     0
440
 16777216
100
AcDbMText
 10
419.1346971007201
 20
185.0148216100009
 30
0.0
 40
6.0
 41
0.0
 46
0.0
 71
     1
 72
     1
  1
\A1;R1
 73
     1
 44
1.0
  0
POINT
  5
89E4
330
8366
100
AcDbEntity
  8
Defpoints
 62
     0
440
 16777216
100
AcDbPoint
 10
410.4849463449601
 20
166.9859670132732
 30
0.0
  0
POINT
  5
89E5
330
8366
100
AcDbEntity
  8
Defpoints
 62
     0
440
 16777216
100
AcDbPoint
 10
409.9323278462756
 20
166.1525326825255
 30
0.0
  0
ENDBLK
  5
8368
330
8366
100
AcDbEntity
  8
0
100
AcDbBlockEnd
  0
BLOCK
  5
8370
330
836F
100
AcDbEntity
  8
0
100
AcDbBlockBegin
  2
*D11
 70
     1
 10
0.0
 20
0.0
 30
0.0
  3
*D11
  1

  0
LINE
  5
88A7
330
836F
100
AcDbEntity
  8
30
 62
     0
440
 16777216
370
    -2
100
AcDbLine
 10
72.3371576002894
 20
307.3691576285796
 30
0.0
 11
72.3371576002894
 21
272.4890575481204
 31
0.0
  0
LINE
  5
88A8
330
836F
100
AcDbEntity
  8
30
 62
     0
440
 16777216
370
    -2
100
AcDbLine
 10
162.3036754574325
 20
307.3691576285796
 30
0.0
 11
162.3036754574325
 21
272.4890575481204
 31
0.0
  0
LINE
  5
88A9
330
836F
100
AcDbEntity
  8
30
 62
     0
440
 16777216
370
    -2
100
AcDbLine
 10
74.3371576002894
 20
272.9890575481204
 30
0.0
 11
160.3036754574325
 21
272.9890575481204
 31
0.0
  0
INSERT
  5
88AA
330
836F
100
AcDbEntity
  8
30
 62
     0
440
 16777216
370
    -2
100
AcDbBlockReference
  2
_OPEN
 10
72.3371576002894
 20
272.9890575481204
 30
0.0
 41
2.0
 42
2.0
 43
2.0
 50
180.0
  0
INSERT
  5
88AB
330
836F
100
AcDbEntity
  8
30
 62
     0
440
 16777216
370
    -2
100
AcDbBlockReference
  2
_OPEN
 10
162.3036754574325
 20
272.9890575481204
 30
0.0
 41
2.0
 42
2.0
 43
2.0
  0
MTEXT
  5
88AC
330
836F
100
AcDbEntity
  8
30
 62
     0
440
 16777216
100
AcDbMText
 10
115.378555106616
 20
280.9890575481204
 30
0.0
 40
6.0
 41
0.0
 46
0.0
 71
     2
 72
     1
  1
\A1;90
 73
     1
 44
1.0
 90
        3
 63
     9
421
 13158600
 45
1.1
441
        0
  0
POINT
  5
88AD
330
836F
100
AcDbEntity
  8
Defpoints
 62
     0
440
 16777216
100
AcDbPoint
 10
72.3371576002894
 20
308.3691576285796
 30
0.0
  0
POINT
  5
88AE
330
836F
100
AcDbEntity
  8
Defpoints
 62
     0
440
 16777216
100
AcDbPoint
 10
162.3036754574325
 20
308.3691576285796
 30
0.0
  0
POINT
  5
88AF
330
836F
100
AcDbEntity
  8
Defpoints
 62
     0
440
 16777216
100
AcDbPoint
 10
162.3036754574325
 20
272.9890575481204
 30
0.0
  0
ENDBLK
  5
8371
330
836F
100
AcDbEntity
  8
0
100
AcDbBlockEnd
  0
BLOCK
  5
837C
330
837B
100
AcDbEntity
  8
0
100
AcDbBlockBegin
  2
*D12
 70
     1
 10
0.0
 20
0.0
 30
0.0
  3
*D12
  1

  0
LINE
  5
88B0
330
837B
100
AcDbEntity
  8
30
 62
     0
440
 16777216
370
    -2
100
AcDbLine
 10
74.13634063688552
 20
438.9691151665367
 30
0.0
 11
46.56050166876153
 21
438.9691151665367
 31
0.0
  0
LINE
  5
88B1
330
837B
100
AcDbEntity
  8
30
 62
     0
440
 16777216
370
    -2
100
AcDbLine
 10
106.7577785149992
 20
308.3691576285796
 30
0.0
 11
46.5605016687615
 21
308.3691576285796
 31
0.0
  0
LINE
  5
88B2
330
837B
100
AcDbEntity
  8
30
 62
     0
440
 16777216
370
    -2
100
AcDbLine
 10
47.06050166876153
 20
436.9691151665366
 30
0.0
 11
47.0605016687615
 21
310.3691576285796
 31
0.0
  0
INSERT
  5
88B3
330
837B
100
AcDbEntity
  8
30
 62
     0
440
 16777216
370
    -2
100
AcDbBlockReference
  2
_OPEN
 10
47.06050166876153
 20
438.9691151665367
 30
0.0
 41
2.0
 42
2.0
 43
2.0
 50
90.0
  0
INSERT
  5
88B4
330
837B
100
AcDbEntity
  8
30
 62
     0
440
 16777216
370
    -2
100
AcDbBlockReference
  2
_OPEN
 10
47.0605016687615
 20
308.3691576285796
 30
0.0
 41
2.0
 42
2.0
 43
2.0
 50
270.0
  0
MTEXT
  5
88B5
330
837B
100
AcDbEntity
  8
30
 62
     0
440
 16777216
100
AcDbMText
 10
42.06050166876145
 20
373.6691363975582
 30
0.0
 40
6.0
 41
0.0
 46
0.0
 71
     5
 72
     1
  1
\A1;130
 11
0.0000000000000001
 21
1.0
 31
0.0
 73
     1
 44
1.0
 90
        3
 63
     9
421
 13158600
 45
1.1
441
        0
  0
POINT
  5
88B6
330
837B
100
AcDbEntity
  8
Defpoints
 62
     0
440
 16777216
100
AcDbPoint
 10
75.13634063688552
 20
438.9691151665367
 30
0.0
  0
POINT
  5
88B7
330
837B
100
AcDbEntity
  8
Defpoints
 62
     0
440
 16777216
100
AcDbPoint
 10
107.7577785149992
 20
308.3691576285796
 30
0.0
  0
POINT
  5
88B8
330
837B
100
AcDbEntity
  8
Defpoints
 62
     0
440
 16777216
100
AcDbPoint
 10
47.0605016687615
 20
308.3691576285796
 30
0.0
  0
ENDBLK
  5
837D
330
837B
100
AcDbEntity
  8
0
100
AcDbBlockEnd
  0
BLOCK
  5
8388
330
8387
100
AcDbEntity
  8
0
100
AcDbBlockBegin
  2
*D13
 70
     1
 10
0.0
 20
0.0
 30
0.0
  3
*D13
  1

  0
LINE
  5
88B9
330
8387
100
AcDbEntity
  8
30
 62
     0
440
 16777216
370
    -2
100
AcDbLine
 10
386.9323293009348
 20
114.6290606198108
 30
0.0
 11
386.9323293009348
 21
50.90248380055959
 31
0.0
  0
LINE
  5
88BA
330
8387
100
AcDbEntity
  8
30
 62
     0
440
 16777216
370
    -2
100
AcDbLine
 10
410.9323293009346
 20
115.3845971821354
 30
0.0
 11
410.9323293009346
 21
50.90248380055959
 31
0.0
  0
LINE
  5
88BB
330
8387
100
AcDbEntity
  8
30
 62
     0
440
 16777216
370
    -2
100
AcDbLine
 10
388.9323293009348
 20
51.40248380055959
 30
0.0
 11
408.9323293009345
 21
51.40248380055959
 31
0.0
  0
INSERT
  5
88BC
330
8387
100
AcDbEntity
  8
30
 62
     0
440
 16777216
370
    -2
100
AcDbBlockReference
  2
_OPEN
 10
386.9323293009348
 20
51.40248380055959
 30
0.0
 41
2.0
 42
2.0
 43
2.0
 50
180.0
  0
INSERT
  5
88BD
330
8387
100
AcDbEntity
  8
30
 62
     0
440
 16777216
370
    -2
100
AcDbBlockReference
  2
_OPEN
 10
410.9323293009346
 20
51.40248380055959
 30
0.0
 41
2.0
 42
2.0
 43
2.0
  0
MTEXT
  5
88BE
330
8387
100
AcDbEntity
  8
30
 62
     0
440
 16777216
100
AcDbMText
 10
398.9323293009348
 20
59.40248380055959
 30
0.0
 40
6.0
 41
0.0
 46
0.0
 71
     2
 72
     1
  1
\A1;24
 73
     1
 44
1.0
 90
        3
 63
     9
421
 13158600
 45
1.1
441
        0
  0
POINT
  5
88BF
330
8387
100
AcDbEntity
  8
Defpoints
 62
     0
440
 16777216
100
AcDbPoint
 10
386.9323293009348
 20
115.6290606198108
 30
0.0
  0
POINT
  5
88C0
330
8387
100
AcDbEntity
  8
Defpoints
 62
     0
440
 16777216
100
AcDbPoint
 10
410.9323293009346
 20
116.3845971821354
 30
0.0
  0
POINT
  5
88C1
330
8387
100
AcDbEntity
  8
Defpoints
 62
     0
440
 16777216
100
AcDbPoint
 10
410.9323293009346
 20
51.40248380055959
 30
0.0
  0
ENDBLK
  5
8389
330
8387
100
AcDbEntity
  8
0
100
AcDbBlockEnd
  0
BLOCK
  5
8394
330
8393
100
AcDbEntity
  8
0
100
AcDbBlockBegin
  2
*D14
 70
     1
 10
0.0
 20
0.0
 30
0.0
  3
*D14
  1

  0
LINE
  5
88C2
330
8393
100
AcDbEntity
  8
30
 62
     0
440
 16777216
370
    -2
100
AcDbLine
 10
96.71546495260759
 20
198.9492939173018
 30
0.0
 11
48.76710189355982
 21
198.9492939173019
 31
0.0
  0
LINE
  5
88C3
330
8393
100
AcDbEntity
  8
30
 62
     0
440
 16777216
370
    -2
100
AcDbLine
 10
127.7091511115247
 20
87.90577250956607
 30
0.0
 11
48.76710189355978
 21
87.90577250956609
 31
0.0
  0
LINE
  5
88C4
330
8393
100
AcDbEntity
  8
30
 62
     0
440
 16777216
370
    -2
100
AcDbLine
 10
49.26710189355983
 20
196.9492939173019
 30
0.0
 11
49.26710189355979
 21
89.9057725095661
 31
0.0
  0
INSERT
  5
88C5
330
8393
100
AcDbEntity
  8
30
 62
     0
440
 16777216
370
    -2
100
AcDbBlockReference
  2
_OPEN
 10
49.26710189355983
 20
198.9492939173019
 30
0.0
 41
2.0
 42
2.0
 43
2.0
 50
90.0
  0
INSERT
  5
88C6
330
8393
100
AcDbEntity
  8
30
 62
     0
440
 16777216
370
    -2
100
AcDbBlockReference
  2
_OPEN
 10
49.26710189355979
 20
87.90577250956609
 30
0.0
 41
2.0
 42
2.0
 43
2.0
 50
270.0
  0
MTEXT
  5
88C7
330
8393
100
AcDbEntity
  8
30
 62
     0
440
 16777216
100
AcDbMText
 10
44.26710189355978
 20
143.427533213434
 30
0.0
 40
6.0
 41
0.0
 46
0.0
 71
     5
 72
     1
  1
\A1;111
 11
0.0000000000000001
 21
1.0
 31
0.0
 73
     1
 44
1.0
 90
        3
 63
     9
421
 13158600
 45
1.1
441
        0
  0
POINT
  5
88C8
330
8393
100
AcDbEntity
  8
Defpoints
 62
     0
440
 16777216
100
AcDbPoint
 10
97.71546495260759
 20
198.9492939173018
 30
0.0
  0
POINT
  5
88C9
330
8393
100
AcDbEntity
  8
Defpoints
 62
     0
440
 16777216
100
AcDbPoint
 10
128.7091511115247
 20
87.90577250956607
 30
0.0
  0
POINT
  5
88CA
330
8393
100
AcDbEntity
  8
Defpoints
 62
     0
440
 16777216
100
AcDbPoint
 10
49.26710189355979
 20
87.90577250956609
 30
0.0
  0
ENDBLK
  5
8395
330
8393
100
AcDbEntity
  8
0
100
AcDbBlockEnd
  0
BLOCK
  5
83A0
330
839F
100
AcDbEntity
  8
0
100
AcDbBlockBegin
  2
*D15
 70
     1
 10
0.0
 20
0.0
 30
0.0
  3
*D15
  1

  0
LINE
  5
88CB
330
839F
100
AcDbEntity
  8
30
 62
     0
440
 16777216
370
    -2
100
AcDbLine
 10
75.3010655000154
 20
347.6895250759363
 30
0.0
 11
75.3010655000154
 21
283.8401158231272
 31
0.0
  0
LINE
  5
88CC
330
839F
100
AcDbEntity
  8
30
 62
     0
440
 16777216
370
    -2
100
AcDbLine
 10
159.3010655000154
 20
347.6895250759363
 30
0.0
 11
159.3010655000154
 21
283.8401158231272
 31
0.0
  0
LINE
  5
88CD
330
839F
100
AcDbEntity
  8
30
 62
     0
440
 16777216
370
    -2
100
AcDbLine
 10
77.3010655000154
 20
284.3401158231273
 30
0.0
 11
157.3010655000154
 21
284.3401158231273
 31
0.0
  0
INSERT
  5
88CE
330
839F
100
AcDbEntity
  8
30
 62
     0
440
 16777216
370
    -2
100
AcDbBlockReference
  2
_OPEN
 10
75.3010655000154
 20
284.3401158231273
 30
0.0
 41
2.0
 42
2.0
 43
2.0
 50
180.0
  0
INSERT
  5
88CF
330
839F
100
AcDbEntity
  8
30
 62
     0
440
 16777216
370
    -2
100
AcDbBlockReference
  2
_OPEN
 10
159.3010655000154
 20
284.3401158231273
 30
0.0
 41
2.0
 42
2.0
 43
2.0
  0
MTEXT
  5
88D0
330
839F
100
AcDbEntity
  8
30
 62
     0
440
 16777216
100
AcDbMText
 10
117.3010655000154
 20
289.3401158231272
 30
0.0
 40
6.0
 41
0.0
 46
0.0
 71
     5
 72
     1
  1
\A1;84
 73
     1
 44
1.0
 90
        3
 63
     9
421
 13158600
 45
1.1
441
        0
  0
POINT
  5
88D1
330
839F
100
AcDbEntity
  8
Defpoints
 62
     0
440
 16777216
100
AcDbPoint
 10
75.3010655000154
 20
348.6895250759364
 30
0.0
  0
POINT
  5
88D2
330
839F
100
AcDbEntity
  8
Defpoints
 62
     0
440
 16777216
100
AcDbPoint
 10
159.3010655000154
 20
348.6895250759364
 30
0.0
  0
POINT
  5
88D3
330
839F
100
AcDbEntity
  8
Defpoints
 62
     0
440
 16777216
100
AcDbPoint
 10
159.3010655000154
 20
284.3401158231273
 30
0.0
  0
ENDBLK
  5
83A1
330
839F
100
AcDbEntity
  8
0
100
AcDbBlockEnd
  0
BLOCK
  5
83AC
330
83AB
100
AcDbEntity
  8
0
100
AcDbBlockBegin
  2
*D16
 70
     1
 10
0.0
 20
0.0
 30
0.0
  3
*D16
  1

  0
LINE
  5
88D4
330
83AB
100
AcDbEntity
  8
30
 62
     0
440
 16777216
370
    -2
100
AcDbLine
 10
102.2435806853535
 20
193.4211781845558
 30
0.0
 11
102.2435806853535
 21
50.88692977880917
 31
0.0
  0
LINE
  5
88D5
330
83AB
100
AcDbEntity
  8
30
 62
     0
440
 16777216
370
    -2
100
AcDbLine
 10
132.2310189036605
 20
82.37765677681997
 30
0.0
 11
132.2310189036605
 21
50.88692977880917
 31
0.0
  0
LINE
  5
88D6
330
83AB
100
AcDbEntity
  8
30
 62
     0
440
 16777216
370
    -2
100
AcDbLine
 10
104.2435806853535
 20
51.38692977880918
 30
0.0
 11
130.2310189036605
 21
51.38692977880918
 31
0.0
  0
INSERT
  5
88D7
330
83AB
100
AcDbEntity
  8
30
 62
     0
440
 16777216
370
    -2
100
AcDbBlockReference
  2
_OPEN
 10
102.2435806853535
 20
51.38692977880918
 30
0.0
 41
2.0
 42
2.0
 43
2.0
 50
180.0
  0
INSERT
  5
88D8
330
83AB
100
AcDbEntity
  8
30
 62
     0
440
 16777216
370
    -2
100
AcDbBlockReference
  2
_OPEN
 10
132.2310189036605
 20
51.38692977880918
 30
0.0
 41
2.0
 42
2.0
 43
2.0
  0
MTEXT
  5
88D9
330
83AB
100
AcDbEntity
  8
30
 62
     0
440
 16777216
100
AcDbMText
 10
117.2372997945071
 20
56.38692977880918
 30
0.0
 40
6.0
 41
0.0
 46
0.0
 71
     5
 72
     1
  1
\A1;30
 73
     1
 44
1.0
 90
        3
 63
     9
421
 13158600
 45
1.1
441
        0
  0
POINT
  5
88DA
330
83AB
100
AcDbEntity
  8
Defpoints
 62
     0
440
 16777216
100
AcDbPoint
 10
102.2435806853535
 20
194.4211781845558
 30
0.0
  0
POINT
  5
88DB
330
83AB
100
AcDbEntity
  8
Defpoints
 62
     0
440
 16777216
100
AcDbPoint
 10
132.2310189036605
 20
83.37765677681998
 30
0.0
  0
POINT
  5
88DC
330
83AB
100
AcDbEntity
  8
Defpoints
 62
     0
440
 16777216
100
AcDbPoint
 10
132.2310189036605
 20
51.38692977880918
 30
0.0
  0
ENDBLK
  5
83AD
330
83AB
100
AcDbEntity
  8
0
100
AcDbBlockEnd
  0
BLOCK
  5
83B8
330
83B7
100
AcDbEntity
  8
0
100
AcDbBlockBegin
  2
*D17
 70
     1
 10
0.0
 20
0.0
 30
0.0
  3
*D17
  1

  0
LINE
  5
8A95
330
83B7
100
AcDbEntity
  8
30
  6
Continuous
 62
     0
440
 16777216
370
    -2
100
AcDbLine
 10
147.2691353345419
 20
621.9858329634368
 30
0.0
 11
147.2691353345419
 21
679.3656336458465
 31
0.0
  0
LINE
  5
8A96
330
83B7
100
AcDbEntity
  8
30
  6
Continuous
 62
     0
440
 16777216
370
    -2
100
AcDbLine
 10
117.1352071747428
 20
663.8647057191882
 30
0.0
 11
117.1352071747428
 21
679.3656336458465
 31
0.0
  0
LINE
  5
8A97
330
83B7
100
AcDbEntity
  8
30
  6
Continuous
 62
     0
440
 16777216
370
    -2
100
AcDbLine
 10
145.2691353345419
 20
678.8656336458465
 30
0.0
 11
119.1352071747428
 21
678.8656336458465
 31
0.0
  0
INSERT
  5
8A98
330
83B7
100
AcDbEntity
  8
30
  6
Continuous
 62
     0
440
 16777216
370
    -2
100
AcDbBlockReference
  2
_OPEN
 10
147.2691353345419
 20
678.8656336458465
 30
0.0
 41
2.0
 42
2.0
 43
2.0
  0
INSERT
  5
8A99
330
83B7
100
AcDbEntity
  8
30
  6
Continuous
 62
     0
440
 16777216
370
    -2
100
AcDbBlockReference
  2
_OPEN
 10
117.1352071747428
 20
678.8656336458465
 30
0.0
 41
2.0
 42
2.0
 43
2.0
 50
180.0
  0
MTEXT
  5
8A9A
330
83B7
100
AcDbEntity
  8
30
  6
Continuous
 62
     0
440
 16777216
100
AcDbMText
 10
129.2602456736827
 20
683.8656336458464
 30
0.0
 40
6.0
 41
0.0
 46
0.0
 71
     5
 72
     1
  1
\A1;30
 73
     1
 44
1.0
 90
        3
 63
     9
421
 13158600
 45
1.1
441
        0
  0
POINT
  5
8A9B
330
83B7
100
AcDbEntity
  8
Defpoints
  6
Continuous
 62
     0
440
 16777216
100
AcDbPoint
 10
147.2691353345419
 20
620.9858329634366
 30
0.0
  0
POINT
  5
8A9C
330
83B7
100
AcDbEntity
  8
Defpoints
  6
Continuous
 62
     0
440
 16777216
100
AcDbPoint
 10
117.1352071747428
 20
662.8647057191884
 30
0.0
  0
POINT
  5
8A9D
330
83B7
100
AcDbEntity
  8
Defpoints
  6
Continuous
 62
     0
440
 16777216
100
AcDbPoint
 10
117.1352071747428
 20
678.8656336458465
 30
0.0
  0
ENDBLK
  5
83B9
330
83B7
100
AcDbEntity
  8
0
100
AcDbBlockEnd
  0
BLOCK
  5
83C4
330
83C3
100
AcDbEntity
  8
0
100
AcDbBlockBegin
  2
*D18
 70
     1
 10
0.0
 20
0.0
 30
0.0
  3
*D18
  1

  0
LINE
  5
88E6
330
83C3
100
AcDbEntity
  8
30
  6
Continuous
 62
     0
440
 16777216
370
    -2
100
AcDbLine
 10
87.05237827737823
 20
613.8741504311332
 30
0.0
 11
87.05237827737823
 21
679.3741504311332
 31
0.0
  0
LINE
  5
88E7
330
83C3
100
AcDbEntity
  8
30
  6
Continuous
 62
     0
440
 16777216
370
    -2
100
AcDbLine
 10
117.1352074367071
 20
663.8647057191882
 30
0.0
 11
117.1352074367071
 21
679.3741504311332
 31
0.0
  0
LINE
  5
88E8
330
83C3
100
AcDbEntity
  8
30
  6
Continuous
 62
     0
440
 16777216
370
    -2
100
AcDbLine
 10
89.05237827737824
 20
678.8741504311332
 30
0.0
 11
115.1352074367071
 21
678.8741504311332
 31
0.0
  0
INSERT
  5
88E9
330
83C3
100
AcDbEntity
  8
30
  6
Continuous
 62
     0
440
 16777216
370
    -2
100
AcDbBlockReference
  2
_OPEN
 10
87.05237827737823
 20
678.8741504311332
 30
0.0
 41
2.0
 42
2.0
 43
2.0
 50
180.0
  0
INSERT
  5
88EA
330
83C3
100
AcDbEntity
  8
30
  6
Continuous
 62
     0
440
 16777216
370
    -2
100
AcDbBlockReference
  2
_OPEN
 10
117.1352074367071
 20
678.8741504311332
 30
0.0
 41
2.0
 42
2.0
 43
2.0
  0
MTEXT
  5
88EB
330
83C3
100
AcDbEntity
  8
30
  6
Continuous
 62
     0
440
 16777216
100
AcDbMText
 10
104.3113462832029
 20
683.8741504311331
 30
0.0
 40
6.0
 41
0.0
 46
0.0
 71
     5
 72
     1
  1
\A1;30
 73
     1
 44
1.0
 90
        3
 63
     9
421
 13158600
 45
1.1
441
        0
  0
POINT
  5
88EC
330
83C3
100
AcDbEntity
  8
Defpoints
  6
Continuous
 62
     0
440
 16777216
100
AcDbPoint
 10
87.05237827737823
 20
612.8741504311332
 30
0.0
  0
POINT
  5
88ED
330
83C3
100
AcDbEntity
  8
Defpoints
  6
Continuous
 62
     0
440
 16777216
100
AcDbPoint
 10
117.1352074367071
 20
662.8647057191884
 30
0.0
  0
POINT
  5
88EE
330
83C3
100
AcDbEntity
  8
Defpoints
  6
Continuous
 62
     0
440
 16777216
100
AcDbPoint
 10
117.1352074367071
 20
678.8741504311332
 30
0.0
  0
ENDBLK
  5
83C5
330
83C3
100
AcDbEntity
  8
0
100
AcDbBlockEnd
  0
BLOCK
  5
83D0
330
83CF
100
AcDbEntity
  8
0
100
AcDbBlockBegin
  2
*D19
 70
     1
 10
0.0
 20
0.0
 30
0.0
  3
*D19
  1

  0
LINE
  5
88EF
330
83CF
100
AcDbEntity
  8
30
  6
Continuous
 62
     0
440
 16777216
370
    -2
100
AcDbLine
 10
76.16209477840289
 20
597.8741504311332
 30
0.0
 11
66.31134628320296
 21
597.8741504311332
 31
0.0
  0
LINE
  5
88F0
330
83CF
100
AcDbEntity
  8
30
  6
Continuous
 62
     0
440
 16777216
370
    -2
100
AcDbLine
 10
78.31134628320295
 20
560.8741504311333
 30
0.0
 11
66.31134628320296
 21
560.8741504311333
 31
0.0
  0
LINE
  5
88F1
330
83CF
100
AcDbEntity
  8
30
  6
Continuous
 62
     0
440
 16777216
370
    -2
100
AcDbLine
 10
66.81134628320297
 20
595.8741504311332
 30
0.0
 11
66.81134628320297
 21
562.8741504311333
 31
0.0
  0
INSERT
  5
88F2
330
83CF
100
AcDbEntity
  8
30
  6
Continuous
 62
     0
440
 16777216
370
    -2
100
AcDbBlockReference
  2
_OPEN
 10
66.81134628320297
 20
597.8741504311332
 30
0.0
 41
2.0
 42
2.0
 43
2.0
 50
90.0
  0
INSERT
  5
88F3
330
83CF
100
AcDbEntity
  8
30
  6
Continuous
 62
     0
440
 16777216
370
    -2
100
AcDbBlockReference
  2
_OPEN
 10
66.81134628320297
 20
560.8741504311333
 30
0.0
 41
2.0
 42
2.0
 43
2.0
 50
270.0
  0
MTEXT
  5
88F4
330
83CF
100
AcDbEntity
  8
30
  6
Continuous
 62
     0
440
 16777216
100
AcDbMText
 10
61.81134628320286
 20
579.3741504311332
 30
0.0
 40
6.0
 41
0.0
 46
0.0
 71
     5
 72
     1
  1
\A1;37
 11
0.0000000000000001
 21
1.0
 31
0.0
 73
     1
 44
1.0
 90
        3
 63
     9
421
 13158600
 45
1.1
441
        0
  0
POINT
  5
88F5
330
83CF
100
AcDbEntity
  8
Defpoints
  6
Continuous
 62
     0
440
 16777216
100
AcDbPoint
 10
77.16209477840289
 20
597.8741504311332
 30
0.0
  0
POINT
  5
88F6
330
83CF
100
AcDbEntity
  8
Defpoints
  6
Continuous
 62
     0
440
 16777216
100
AcDbPoint
 10
79.31134628320297
 20
560.8741504311333
 30
0.0
  0
POINT
  5
88F7
330
83CF
100
AcDbEntity
  8
Defpoints
  6
Continuous
 62
     0
440
 16777216
100
AcDbPoint
 10
66.81134628320297
 20
560.8741504311333
 30
0.0
  0
ENDBLK
  5
83D1
330
83CF
100
AcDbEntity
  8
0
100
AcDbBlockEnd
  0
BLOCK
  5
83DC
330
83DB
100
AcDbEntity
  8
0
100
AcDbBlockBegin
  2
*D20
 70
     1
 10
0.0
 20
0.0
 30
0.0
  3
*D20
  1

  0
LINE
  5
88F8
330
83DB
100
AcDbEntity
  8
30
  6
Continuous
 62
     0
440
 16777216
370
    -2
100
AcDbLine
 10
90.81134628320295
 20
612.8741504311332
 30
0.0
 11
56.31134628320297
 21
612.8741504311332
 31
0.0
  0
LINE
  5
88F9
330
83DB
100
AcDbEntity
  8
30
  6
Continuous
 62
     0
440
 16777216
370
    -2
100
AcDbLine
 10
78.31134628320295
 20
560.8741504311333
 30
0.0
 11
56.31134628320296
 21
560.8741504311333
 31
0.0
  0
LINE
  5
88FA
330
83DB
100
AcDbEntity
  8
30
  6
Continuous
 62
     0
440
 16777216
370
    -2
100
AcDbLine
 10
56.81134628320297
 20
610.8741504311332
 30
0.0
 11
56.81134628320297
 21
562.8741504311333
 31
0.0
  0
INSERT
  5
88FB
330
83DB
100
AcDbEntity
  8
30
  6
Continuous
 62
     0
440
 16777216
370
    -2
100
AcDbBlockReference
  2
_OPEN
 10
56.81134628320297
 20
612.8741504311332
 30
0.0
 41
2.0
 42
2.0
 43
2.0
 50
90.0
  0
INSERT
  5
88FC
330
83DB
100
AcDbEntity
  8
30
  6
Continuous
 62
     0
440
 16777216
370
    -2
100
AcDbBlockReference
  2
_OPEN
 10
56.81134628320297
 20
560.8741504311333
 30
0.0
 41
2.0
 42
2.0
 43
2.0
 50
270.0
  0
MTEXT
  5
88FD
330
83DB
100
AcDbEntity
  8
30
  6
Continuous
 62
     0
440
 16777216
100
AcDbMText
 10
51.81134628320286
 20
586.8741504311332
 30
0.0
 40
6.0
 41
0.0
 46
0.0
 71
     5
 72
     1
  1
\A1;52
 11
0.0000000000000001
 21
1.0
 31
0.0
 73
     1
 44
1.0
 90
        3
 63
     9
421
 13158600
 45
1.1
441
        0
  0
POINT
  5
88FE
330
83DB
100
AcDbEntity
  8
Defpoints
  6
Continuous
 62
     0
440
 16777216
100
AcDbPoint
 10
91.81134628320295
 20
612.8741504311332
 30
0.0
  0
POINT
  5
88FF
330
83DB
100
AcDbEntity
  8
Defpoints
  6
Continuous
 62
     0
440
 16777216
100
AcDbPoint
 10
79.31134628320297
 20
560.8741504311333
 30
0.0
  0
POINT
  5
8900
330
83DB
100
AcDbEntity
  8
Defpoints
  6
Continuous
 62
     0
440
 16777216
100
AcDbPoint
 10
56.81134628320297
 20
560.8741504311333
 30
0.0
  0
ENDBLK
  5
83DD
330
83DB
100
AcDbEntity
  8
0
100
AcDbBlockEnd
  0
BLOCK
  5
83E8
330
83E7
100
AcDbEntity
  8
0
100
AcDbBlockBegin
  2
*D21
 70
     1
 10
0.0
 20
0.0
 30
0.0
  3
*D21
  1

  0
LINE
  5
8AEC
330
83E7
100
AcDbEntity
  8
30
  6
Continuous
 62
     0
440
 16777216
370
    -2
100
AcDbLine
 10
133.2532715273656
 20
567.913814284282
 30
0.0
 11
189.3141081951601
 21
567.913814284282
 31
0.0
  0
LINE
  5
8AED
330
83E7
100
AcDbEntity
  8
30
  6
Continuous
 62
     0
440
 16777216
370
    -2
100
AcDbLine
 10
163.339174269493
 20
560.8741504311333
 30
0.0
 11
189.3141081951601
 21
560.8741504311333
 31
0.0
  0
LINE
  5
8AEE
330
83E7
100
AcDbEntity
  8
30
  6
Continuous
 62
     0
440
 16777216
370
    -2
100
AcDbLine
 10
188.8141081951603
 20
558.8741504311333
 30
0.0
 11
188.8141081951603
 21
556.8741504311333
 31
0.0
  0
LINE
  5
8AEF
330
83E7
100
AcDbEntity
  8
30
  6
Continuous
 62
     0
440
 16777216
370
    -2
100
AcDbLine
 10
188.8141081951603
 20
569.9138142842818
 30
0.0
 11
188.8141081951603
 21
579.1524506479182
 31
0.0
  0
INSERT
  5
8AF0
330
83E7
100
AcDbEntity
  8
30
  6
Continuous
 62
     0
440
 16777216
370
    -2
100
AcDbBlockReference
  2
_OPEN
 10
188.8141081951603
 20
560.8741504311333
 30
0.0
 41
2.0
 42
2.0
 43
2.0
 50
90.0
  0
INSERT
  5
8AF1
330
83E7
100
AcDbEntity
  8
30
  6
Continuous
 62
     0
440
 16777216
370
    -2
100
AcDbBlockReference
  2
_OPEN
 10
188.8141081951603
 20
567.913814284282
 30
0.0
 41
2.0
 42
2.0
 43
2.0
 50
270.0
  0
MTEXT
  5
8AF2
330
83E7
100
AcDbEntity
  8
30
  6
Continuous
 62
     0
440
 16777216
100
AcDbMText
 10
183.8141081951602
 20
575.5331324661001
 30
0.0
 40
6.0
 41
0.0
 46
0.0
 71
     5
 72
     1
  1
\A1;7
 11
0.0000000000000001
 21
1.0
 31
0.0
 73
     1
 44
1.0
 90
        3
 63
     9
421
 13158600
 45
1.1
441
        0
  0
POINT
  5
8AF3
330
83E7
100
AcDbEntity
  8
Defpoints
  6
Continuous
 62
     0
440
 16777216
100
AcDbPoint
 10
132.2532715273656
 20
567.913814284282
 30
0.0
  0
POINT
  5
8AF4
330
83E7
100
AcDbEntity
  8
Defpoints
  6
Continuous
 62
     0
440
 16777216
100
AcDbPoint
 10
162.339174269493
 20
560.8741504311333
 30
0.0
  0
POINT
  5
8AF5
330
83E7
100
AcDbEntity
  8
Defpoints
  6
Continuous
 62
     0
440
 16777216
100
AcDbPoint
 10
188.8141081951603
 20
560.8741504311333
 30
0.0
  0
ENDBLK
  5
83E9
330
83E7
100
AcDbEntity
  8
0
100
AcDbBlockEnd
  0
BLOCK
  5
83F5
330
83F4
100
AcDbEntity
  8
0
100
AcDbBlockBegin
  2
*D22
 70
     1
 10
0.0
 20
0.0
 30
0.0
  3
*D22
  1

  0
LINE
  5
8AF6
330
83F4
100
AcDbEntity
  8
30
  6
Continuous
 62
     0
440
 16777216
370
    -2
100
AcDbLine
 10
146.3240907529337
 20
604.5181236454189
 30
0.0
 11
172.3329217569785
 21
604.5181236454189
 31
0.0
  0
LINE
  5
8AF7
330
83F4
100
AcDbEntity
  8
30
  6
Continuous
 62
     0
440
 16777216
370
    -2
100
AcDbLine
 10
146.4041758493116
 20
591.9659103313947
 30
0.0
 11
172.3329217569785
 21
591.9659103313947
 31
0.0
  0
LINE
  5
8AF8
330
83F4
100
AcDbEntity
  8
30
  6
Continuous
 62
     0
440
 16777216
370
    -2
100
AcDbLine
 10
171.8329217569785
 20
602.518123645419
 30
0.0
 11
171.8329217569785
 21
593.9659103313947
 31
0.0
  0
LINE
  5
8AF9
330
83F4
100
AcDbEntity
  8
30
  6
Continuous
 62
     0
440
 16777216
370
    -2
100
AcDbLine
 10
171.8329217569785
 20
591.9659103313947
 30
0.0
 11
171.8329217569785
 21
572.4659103313947
 31
0.0
  0
INSERT
  5
8AFA
330
83F4
100
AcDbEntity
  8
30
  6
Continuous
 62
     0
440
 16777216
370
    -2
100
AcDbBlockReference
  2
_OPEN
 10
171.8329217569785
 20
604.5181236454189
 30
0.0
 41
2.0
 42
2.0
 43
2.0
 50
90.0
  0
INSERT
  5
8AFB
330
83F4
100
AcDbEntity
  8
30
  6
Continuous
 62
     0
440
 16777216
370
    -2
100
AcDbBlockReference
  2
_OPEN
 10
171.8329217569785
 20
591.9659103313947
 30
0.0
 41
2.0
 42
2.0
 43
2.0
 50
270.0
  0
MTEXT
  5
8AFC
330
83F4
100
AcDbEntity
  8
30
  6
Continuous
 62
     0
440
 16777216
100
AcDbMText
 10
166.8329217569784
 20
581.2159103313947
 30
0.0
 40
6.0
 41
0.0
 46
0.0
 71
     5
 72
     1
  1
\A1;12.5
 11
0.0000000000000001
 21
1.0
 31
0.0
 73
     1
 44
1.0
 90
        3
 63
     9
421
 13158600
 45
1.1
441
        0
  0
POINT
  5
8AFD
330
83F4
100
AcDbEntity
  8
Defpoints
  6
Continuous
 62
     0
440
 16777216
100
AcDbPoint
 10
145.3240907529337
 20
604.5181236454189
 30
0.0
  0
POINT
  5
8AFE
330
83F4
100
AcDbEntity
  8
Defpoints
  6
Continuous
 62
     0
440
 16777216
100
AcDbPoint
 10
145.4041758493116
 20
591.9659103313947
 30
0.0
  0
POINT
  5
8AFF
330
83F4
100
AcDbEntity
  8
Defpoints
  6
Continuous
 62
     0
440
 16777216
100
AcDbPoint
 10
171.8329217569785
 20
591.9659103313947
 30
0.0
  0
ENDBLK
  5
83F6
330
83F4
100
AcDbEntity
  8
0
100
AcDbBlockEnd
  0
BLOCK
  5
8402
330
8401
100
AcDbEntity
  8
0
100
AcDbBlockBegin
  2
*D23
 70
     1
 10
0.0
 20
0.0
 30
0.0
  3
*D23
  1

  0
LINE
  5
8915
330
8401
100
AcDbEntity
  8
30
  6
Continuous
 62
     0
440
 16777216
370
    -2
100
AcDbLine
 10
106.2449239377317
 20
647.8741504311336
 30
0.0
 11
46.31134628320297
 21
647.8741504311336
 31
0.0
  0
LINE
  5
8916
330
8401
100
AcDbEntity
  8
30
  6
Continuous
 62
     0
440
 16777216
370
    -2
100
AcDbLine
 10
78.31134628320295
 20
560.8741504311333
 30
0.0
 11
46.31134628320296
 21
560.8741504311333
 31
0.0
  0
LINE
  5
8917
330
8401
100
AcDbEntity
  8
30
  6
Continuous
 62
     0
440
 16777216
370
    -2
100
AcDbLine
 10
46.81134628320297
 20
645.8741504311332
 30
0.0
 11
46.81134628320296
 21
562.8741504311333
 31
0.0
  0
INSERT
  5
8918
330
8401
100
AcDbEntity
  8
30
  6
Continuous
 62
     0
440
 16777216
370
    -2
100
AcDbBlockReference
  2
_OPEN
 10
46.81134628320297
 20
647.8741504311336
 30
0.0
 41
2.0
 42
2.0
 43
2.0
 50
90.0
  0
INSERT
  5
8919
330
8401
100
AcDbEntity
  8
30
  6
Continuous
 62
     0
440
 16777216
370
    -2
100
AcDbBlockReference
  2
_OPEN
 10
46.81134628320296
 20
560.8741504311333
 30
0.0
 41
2.0
 42
2.0
 43
2.0
 50
270.0
  0
MTEXT
  5
891A
330
8401
100
AcDbEntity
  8
30
  6
Continuous
 62
     0
440
 16777216
100
AcDbMText
 10
41.81134628320285
 20
604.3741504311332
 30
0.0
 40
6.0
 41
0.0
 46
0.0
 71
     5
 72
     1
  1
\A1;87
 11
0.0000000000000001
 21
1.0
 31
0.0
 73
     1
 44
1.0
 90
        3
 63
     9
421
 13158600
 45
1.1
441
        0
  0
POINT
  5
891B
330
8401
100
AcDbEntity
  8
Defpoints
  6
Continuous
 62
     0
440
 16777216
100
AcDbPoint
 10
107.2449239377317
 20
647.8741504311336
 30
0.0
  0
POINT
  5
891C
330
8401
100
AcDbEntity
  8
Defpoints
  6
Continuous
 62
     0
440
 16777216
100
AcDbPoint
 10
79.31134628320297
 20
560.8741504311333
 30
0.0
  0
POINT
  5
891D
330
8401
100
AcDbEntity
  8
Defpoints
  6
Continuous
 62
     0
440
 16777216
100
AcDbPoint
 10
46.81134628320296
 20
560.8741504311333
 30
0.0
  0
ENDBLK
  5
8403
330
8401
100
AcDbEntity
  8
0
100
AcDbBlockEnd
  0
BLOCK
  5
840E
330
840D
100
AcDbEntity
  8
0
100
AcDbBlockBegin
  2
*D24
 70
     1
 10
0.0
 20
0.0
 30
0.0
  3
*D24
  1

  0
LINE
  5
891E
330
840D
100
AcDbEntity
  8
30
  6
Continuous
 62
     0
440
 16777216
370
    -2
100
AcDbLine
 10
115.8113462832029
 20
662.8741504311332
 30
0.0
 11
36.311346283203
 21
662.8741504311332
 31
0.0
  0
LINE
  5
891F
330
840D
100
AcDbEntity
  8
30
  6
Continuous
 62
     0
440
 16777216
370
    -2
100
AcDbLine
 10
78.31134628320295
 20
560.8741504311333
 30
0.0
 11
36.31134628320296
 21
560.8741504311333
 31
0.0
  0
LINE
  5
8920
330
840D
100
AcDbEntity
  8
30
  6
Continuous
 62
     0
440
 16777216
370
    -2
100
AcDbLine
 10
36.81134628320299
 20
660.8741504311336
 30
0.0
 11
36.81134628320297
 21
562.8741504311333
 31
0.0
  0
INSERT
  5
8921
330
840D
100
AcDbEntity
  8
30
  6
Continuous
 62
     0
440
 16777216
370
    -2
100
AcDbBlockReference
  2
_OPEN
 10
36.81134628320299
 20
662.8741504311332
 30
0.0
 41
2.0
 42
2.0
 43
2.0
 50
90.0
  0
INSERT
  5
8922
330
840D
100
AcDbEntity
  8
30
  6
Continuous
 62
     0
440
 16777216
370
    -2
100
AcDbBlockReference
  2
_OPEN
 10
36.81134628320297
 20
560.8741504311333
 30
0.0
 41
2.0
 42
2.0
 43
2.0
 50
270.0
  0
MTEXT
  5
8923
330
840D
100
AcDbEntity
  8
30
  6
Continuous
 62
     0
440
 16777216
100
AcDbMText
 10
31.81134628320288
 20
611.8741504311332
 30
0.0
 40
6.0
 41
0.0
 46
0.0
 71
     5
 72
     1
  1
\A1;102
 11
0.0000000000000001
 21
1.0
 31
0.0
 73
     1
 44
1.0
 90
        3
 63
     9
421
 13158600
 45
1.1
441
        0
  0
POINT
  5
8924
330
840D
100
AcDbEntity
  8
Defpoints
  6
Continuous
 62
     0
440
 16777216
100
AcDbPoint
 10
116.8113462832029
 20
662.8741504311332
 30
0.0
  0
POINT
  5
8925
330
840D
100
AcDbEntity
  8
Defpoints
  6
Continuous
 62
     0
440
 16777216
100
AcDbPoint
 10
79.31134628320297
 20
560.8741504311333
 30
0.0
  0
POINT
  5
8926
330
840D
100
AcDbEntity
  8
Defpoints
  6
Continuous
 62
     0
440
 16777216
100
AcDbPoint
 10
36.81134628320297
 20
560.8741504311333
 30
0.0
  0
ENDBLK
  5
840F
330
840D
100
AcDbEntity
  8
0
100
AcDbBlockEnd
  0
BLOCK
  5
841A
330
8419
100
AcDbEntity
  8
0
100
AcDbBlockBegin
  2
*D25
 70
     1
 10
0.0
 20
0.0
 30
0.0
  3
*D25
  1

  0
LINE
  5
8AE3
330
8419
100
AcDbEntity
  8
30
  6
Continuous
 62
     0
440
 16777216
370
    -2
100
AcDbLine
 10
163.339174269493
 20
560.8741504311333
 30
0.0
 11
189.3141081951601
 21
560.8741504311333
 31
0.0
  0
LINE
  5
8AE4
330
8419
100
AcDbEntity
  8
30
  6
Continuous
 62
     0
440
 16777216
370
    -2
100
AcDbLine
 10
160.3036754574325
 20
487.8926120086346
 30
0.0
 11
189.3141081951601
 21
487.8926120086346
 31
0.0
  0
LINE
  5
8AE5
330
8419
100
AcDbEntity
  8
30
  6
Continuous
 62
     0
440
 16777216
370
    -2
100
AcDbLine
 10
188.8141081951603
 20
558.8741504311333
 30
0.0
 11
188.8141081951603
 21
489.8926120086346
 31
0.0
  0
INSERT
  5
8AE6
330
8419
100
AcDbEntity
  8
30
  6
Continuous
 62
     0
440
 16777216
370
    -2
100
AcDbBlockReference
  2
_OPEN
 10
188.8141081951603
 20
560.8741504311333
 30
0.0
 41
2.0
 42
2.0
 43
2.0
 50
90.0
  0
INSERT
  5
8AE7
330
8419
100
AcDbEntity
  8
30
  6
Continuous
 62
     0
440
 16777216
370
    -2
100
AcDbBlockReference
  2
_OPEN
 10
188.8141081951603
 20
487.8926120086346
 30
0.0
 41
2.0
 42
2.0
 43
2.0
 50
270.0
  0
MTEXT
  5
8AE8
330
8419
100
AcDbEntity
  8
30
  6
Continuous
 62
     0
440
 16777216
100
AcDbMText
 10
183.8141081951602
 20
524.3833812198841
 30
0.0
 40
6.0
 41
0.0
 46
0.0
 71
     5
 72
     1
  1
\A1;73
 11
0.0000000000000001
 21
1.0
 31
0.0
 73
     1
 44
1.0
 90
        3
 63
     9
421
 13158600
 45
1.1
441
        0
  0
POINT
  5
8AE9
330
8419
100
AcDbEntity
  8
Defpoints
  6
Continuous
 62
     0
440
 16777216
100
AcDbPoint
 10
162.339174269493
 20
560.8741504311333
 30
0.0
  0
POINT
  5
8AEA
330
8419
100
AcDbEntity
  8
Defpoints
  6
Continuous
 62
     0
440
 16777216
100
AcDbPoint
 10
159.3036754574325
 20
487.8926120086346
 30
0.0
  0
POINT
  5
8AEB
330
8419
100
AcDbEntity
  8
Defpoints
  6
Continuous
 62
     0
440
 16777216
100
AcDbPoint
 10
188.8141081951603
 20
487.8926120086346
 30
0.0
  0
ENDBLK
  5
841B
330
8419
100
AcDbEntity
  8
0
100
AcDbBlockEnd
  0
BLOCK
  5
8426
330
8425
100
AcDbEntity
  8
0
100
AcDbBlockBegin
  2
*D26
 70
     1
 10
0.0
 20
0.0
 30
0.0
  3
*D26
  1

  0
LINE
  5
8930
330
8425
100
AcDbEntity
  8
30
 62
     0
440
 16777216
370
    -2
100
AcDbLine
 10
74.55237853924064
 20
200.402533213434
 30
0.0
 11
33.69411466684507
 21
200.402533213434
 31
0.0
  0
LINE
  5
8931
330
8425
100
AcDbEntity
  8
30
 62
     0
440
 16777216
370
    -2
100
AcDbLine
 10
74.55237853924064
 20
86.40253122055993
 30
0.0
 11
33.69411466684506
 21
86.40253122055993
 31
0.0
  0
LINE
  5
8932
330
8425
100
AcDbEntity
  8
30
 62
     0
440
 16777216
370
    -2
100
AcDbLine
 10
34.19411466684507
 20
198.402533213434
 30
0.0
 11
34.19411466684505
 21
88.40253122055992
 31
0.0
  0
INSERT
  5
8933
330
8425
100
AcDbEntity
  8
30
 62
     0
440
 16777216
370
    -2
100
AcDbBlockReference
  2
_OPEN
 10
34.19411466684507
 20
200.402533213434
 30
0.0
 41
2.0
 42
2.0
 43
2.0
 50
90.0
  0
INSERT
  5
8934
330
8425
100
AcDbEntity
  8
30
 62
     0
440
 16777216
370
    -2
100
AcDbBlockReference
  2
_OPEN
 10
34.19411466684505
 20
86.40253122055993
 30
0.0
 41
2.0
 42
2.0
 43
2.0
 50
270.0
  0
MTEXT
  5
8935
330
8425
100
AcDbEntity
  8
30
 62
     0
440
 16777216
100
AcDbMText
 10
29.19411466684503
 20
143.402532216997
 30
0.0
 40
6.0
 41
0.0
 46
0.0
 71
     5
 72
     1
  1
\A1;114
 11
0.0000000000000001
 21
1.0
 31
0.0
 73
     1
 44
1.0
 90
        3
 63
     9
421
 13158600
 45
1.1
441
        0
  0
POINT
  5
8936
330
8425
100
AcDbEntity
  8
Defpoints
 62
     0
440
 16777216
100
AcDbPoint
 10
75.55237853924062
 20
200.402533213434
 30
0.0
  0
POINT
  5
8937
330
8425
100
AcDbEntity
  8
Defpoints
 62
     0
440
 16777216
100
AcDbPoint
 10
75.55237853924062
 20
86.40253122055993
 30
0.0
  0
POINT
  5
8938
330
8425
100
AcDbEntity
  8
Defpoints
 62
     0
440
 16777216
100
AcDbPoint
 10
34.19411466684505
 20
86.40253122055993
 30
0.0
  0
ENDBLK
  5
8427
330
8425
100
AcDbEntity
  8
0
100
AcDbBlockEnd
  0
BLOCK
  5
843E
330
843D
100
AcDbEntity
  8
0
100
AcDbBlockBegin
  2
*D27
 70
     1
 10
0.0
 20
0.0
 30
0.0
  3
*D27
  1

  0
LINE
  5
8942
330
843D
100
AcDbEntity
  8
30
 62
     0
440
 16777216
370
    -2
100
AcDbLine
 10
202.1015318586255
 20
117.4025333532258
 30
0.0
 11
202.1015318586255
 21
50.90248380055959
 31
0.0
  0
LINE
  5
8943
330
843D
100
AcDbEntity
  8
30
 62
     0
440
 16777216
370
    -2
100
AcDbLine
 10
288.1015313777419
 20
117.4025333532258
 30
0.0
 11
288.1015313777419
 21
50.90248380055959
 31
0.0
  0
LINE
  5
8944
330
843D
100
AcDbEntity
  8
30
 62
     0
440
 16777216
370
    -2
100
AcDbLine
 10
204.1015318586255
 20
51.40248380055959
 30
0.0
 11
286.1015313777419
 21
51.40248380055959
 31
0.0
  0
INSERT
  5
8945
330
843D
100
AcDbEntity
  8
30
 62
     0
440
 16777216
370
    -2
100
AcDbBlockReference
  2
_OPEN
 10
202.1015318586255
 20
51.40248380055959
 30
0.0
 41
2.0
 42
2.0
 43
2.0
 50
180.0
  0
INSERT
  5
8946
330
843D
100
AcDbEntity
  8
30
 62
     0
440
 16777216
370
    -2
100
AcDbBlockReference
  2
_OPEN
 10
288.1015313777419
 20
51.40248380055959
 30
0.0
 41
2.0
 42
2.0
 43
2.0
  0
MTEXT
  5
8947
330
843D
100
AcDbEntity
  8
30
 62
     0
440
 16777216
100
AcDbMText
 10
245.1015316181839
 20
59.40248380055959
 30
0.0
 40
6.0
 41
0.0
 46
0.0
 71
     2
 72
     1
  1
\A1;86
 73
     1
 44
1.0
 90
        3
 63
     9
421
 13158600
 45
1.1
441
        0
  0
POINT
  5
8948
330
843D
100
AcDbEntity
  8
Defpoints
 62
     0
440
 16777216
100
AcDbPoint
 10
202.1015318586255
 20
118.4025333532258
 30
0.0
  0
POINT
  5
8949
330
843D
100
AcDbEntity
  8
Defpoints
 62
     0
440
 16777216
100
AcDbPoint
 10
288.1015313777419
 20
118.4025333532258
 30
0.0
  0
POINT
  5
894A
330
843D
100
AcDbEntity
  8
Defpoints
 62
     0
440
 16777216
100
AcDbPoint
 10
288.1015313777419
 20
51.40248380055959
 30
0.0
  0
ENDBLK
  5
843F
330
843D
100
AcDbEntity
  8
0
100
AcDbBlockEnd
  0
BLOCK
  5
844A
330
8449
100
AcDbEntity
  8
0
100
AcDbBlockBegin
  2
*D28
 70
     1
 10
0.0
 20
0.0
 30
0.0
  3
*D28
  1

  0
LINE
  5
89ED
330
8449
100
AcDbEntity
  8
30
 62
     0
440
 16777216
370
    -2
100
AcDbLine
 10
289.3474536679784
 20
170.391460688616
 30
0.0
 11
298.7634988476395
 21
178.7300538846975
 31
0.0
  0
LINE
  5
89EE
330
8449
100
AcDbEntity
  8
30
 62
     0
440
 16777216
370
    -2
100
AcDbLine
 10
298.7634988476395
 20
178.7300538846975
 30
0.0
 11
308.2294079385487
 21
178.7300538846975
 31
0.0
  0
LINE
  5
89EF
330
8449
100
AcDbEntity
  8
30
 62
     0
440
 16777216
370
    -2
100
AcDbLine
 10
287.1015313833332
 20
168.402533073642
 30
0.0
 11
287.8501721420759
 21
169.0655089428155
 31
0.0
  0
INSERT
  5
89F0
330
8449
100
AcDbEntity
  8
30
 62
     0
440
 16777216
370
    -2
100
AcDbBlockReference
  2
_OPEN
 10
287.8501721420759
 20
169.0655089428155
 30
0.0
 41
2.0
 42
2.0
 43
2.0
 50
221.527226629479
  0
MTEXT
  5
89F1
330
8449
100
AcDbEntity
  8
30
 62
     0
440
 16777216
100
AcDbMText
 10
300.7634988476396
 20
186.7300538846975
 30
0.0
 40
6.0
 41
0.0
 46
0.0
 71
     1
 72
     1
  1
\A1;R1
 73
     1
 44
1.0
  0
POINT
  5
89F2
330
8449
100
AcDbEntity
  8
Defpoints
 62
     0
440
 16777216
100
AcDbPoint
 10
287.8501721420759
 20
169.0655089428155
 30
0.0
  0
POINT
  5
89F3
330
8449
100
AcDbEntity
  8
Defpoints
 62
     0
440
 16777216
100
AcDbPoint
 10
287.1015313833332
 20
168.402533073642
 30
0.0
  0
ENDBLK
  5
844B
330
8449
100
AcDbEntity
  8
0
100
AcDbBlockEnd
  0
BLOCK
  5
8453
330
8452
100
AcDbEntity
  8
0
100
AcDbBlockBegin
  2
*D29
 70
     1
 10
0.0
 20
0.0
 30
0.0
  3
*D29
  1

  0
LINE
  5
8AD4
330
8452
100
AcDbEntity
  8
30
 62
     0
440
 16777216
370
    -2
100
AcDbLine
 10
410.9323293009346
 20
167.1525332134339
 30
0.0
 11
470.6975069716411
 21
167.1525332134339
 31
0.0
  0
LINE
  5
8AD5
330
8452
100
AcDbEntity
  8
30
 62
     0
440
 16777216
370
    -2
100
AcDbLine
 10
410.9323293009346
 20
119.1525332134342
 30
0.0
 11
470.6975069716411
 21
119.1525332134341
 31
0.0
  0
LINE
  5
8AD6
330
8452
100
AcDbEntity
  8
30
 62
     0
440
 16777216
370
    -2
100
AcDbLine
 10
470.1975069716413
 20
165.1525332134339
 30
0.0
 11
470.1975069716413
 21
121.1525332134341
 31
0.0
  0
INSERT
  5
8AD7
330
8452
100
AcDbEntity
  8
30
 62
     0
440
 16777216
370
    -2
100
AcDbBlockReference
  2
_OPEN
 10
470.1975069716413
 20
167.1525332134339
 30
0.0
 41
2.0
 42
2.0
 43
2.0
 50
90.0
  0
INSERT
  5
8AD8
330
8452
100
AcDbEntity
  8
30
 62
     0
440
 16777216
370
    -2
100
AcDbBlockReference
  2
_OPEN
 10
470.1975069716413
 20
119.1525332134341
 30
0.0
 41
2.0
 42
2.0
 43
2.0
 50
270.0
  0
MTEXT
  5
8AD9
330
8452
100
AcDbEntity
  8
30
 62
     0
440
 16777216
100
AcDbMText
 10
462.1975069716413
 20
144.2907895827318
 30
0.0
 40
6.0
 41
0.0
 46
0.0
 71
     2
 72
     1
  1
\A1;48
 11
0.0000000000000001
 21
1.0
 31
0.0
 73
     1
 44
1.0
 90
        3
 63
     9
421
 13158600
 45
1.1
441
        0
  0
POINT
  5
8ADA
330
8452
100
AcDbEntity
  8
Defpoints
 62
     0
440
 16777216
100
AcDbPoint
 10
409.9323293009346
 20
167.1525332134339
 30
0.0
  0
POINT
  5
8ADB
330
8452
100
AcDbEntity
  8
Defpoints
 62
     0
440
 16777216
100
AcDbPoint
 10
409.9323293009346
 20
119.1525332134342
 30
0.0
  0
POINT
  5
8ADC
330
8452
100
AcDbEntity
  8
Defpoints
 62
     0
440
 16777216
100
AcDbPoint
 10
470.1975069716413
 20
119.1525332134341
 30
0.0
  0
ENDBLK
  5
8454
330
8452
100
AcDbEntity
  8
0
100
AcDbBlockEnd
  0
BLOCK
  5
845F
330
845E
100
AcDbEntity
  8
0
100
AcDbBlockBegin
  2
*D30
 70
     1
 10
0.0
 20
0.0
 30
0.0
  3
*D30
  1

  0
LINE
  5
8AC2
330
845E
100
AcDbEntity
  8
30
 62
     0
440
 16777216
370
    -2
100
AcDbLine
 10
291.9445435544776
 20
169.4025336043886
 30
0.0
 11
315.95921151206
 21
169.4025336043886
 31
0.0
  0
LINE
  5
8AC3
330
845E
100
AcDbEntity
  8
30
 62
     0
440
 16777216
370
    -2
100
AcDbLine
 10
291.9445435542771
 20
117.4025328221556
 30
0.0
 11
315.9592115120599
 21
117.4025328221556
 31
0.0
  0
LINE
  5
8AC4
330
845E
100
AcDbEntity
  8
30
 62
     0
440
 16777216
370
    -2
100
AcDbLine
 10
315.45921151206
 20
167.4025336043886
 30
0.0
 11
315.4592115120599
 21
119.4025328221556
 31
0.0
  0
INSERT
  5
8AC5
330
845E
100
AcDbEntity
  8
30
 62
     0
440
 16777216
370
    -2
100
AcDbBlockReference
  2
_OPEN
 10
315.45921151206
 20
169.4025336043886
 30
0.0
 41
2.0
 42
2.0
 43
2.0
 50
90.0
  0
INSERT
  5
8AC6
330
845E
100
AcDbEntity
  8
30
 62
     0
440
 16777216
370
    -2
100
AcDbBlockReference
  2
_OPEN
 10
315.4592115120599
 20
117.4025328221556
 30
0.0
 41
2.0
 42
2.0
 43
2.0
 50
270.0
  0
MTEXT
  5
8AC7
330
845E
100
AcDbEntity
  8
30
 62
     0
440
 16777216
100
AcDbMText
 10
310.4592115120599
 20
143.4025332132721
 30
0.0
 40
6.0
 41
0.0
 46
0.0
 71
     5
 72
     1
  1
\A1;52
 11
0.0000000000000001
 21
1.0
 31
0.0
 73
     1
 44
1.0
 90
        3
 63
     9
421
 13158600
 45
1.1
441
        0
  0
POINT
  5
8AC8
330
845E
100
AcDbEntity
  8
Defpoints
 62
     0
440
 16777216
100
AcDbPoint
 10
290.9445435544776
 20
169.4025336043886
 30
0.0
  0
POINT
  5
8AC9
330
845E
100
AcDbEntity
  8
Defpoints
 62
     0
440
 16777216
100
AcDbPoint
 10
290.9445435542771
 20
117.4025328221556
 30
0.0
  0
POINT
  5
8ACA
330
845E
100
AcDbEntity
  8
Defpoints
 62
     0
440
 16777216
100
AcDbPoint
 10
315.4592115120599
 20
117.4025328221556
 30
0.0
  0
ENDBLK
  5
8460
330
845E
100
AcDbEntity
  8
0
100
AcDbBlockEnd
  0
BLOCK
  5
846B
330
846A
100
AcDbEntity
  8
0
100
AcDbBlockBegin
  2
*D31
 70
     1
 10
0.0
 20
0.0
 30
0.0
  3
*D31
  1

  0
LINE
  5
895D
330
846A
100
AcDbEntity
  8
30
  6
Continuous
 62
     0
440
 16777216
370
    -2
100
AcDbLine
 10
248.7879233427026
 20
398.597666403155
 30
0.0
 11
211.187923342703
 21
398.597666403155
 31
0.0
  0
LINE
  5
895E
330
846A
100
AcDbEntity
  8
30
  6
Continuous
 62
     0
440
 16777216
370
    -2
100
AcDbLine
 10
248.7879233427026
 20
348.597666403155
 30
0.0
 11
211.187923342703
 21
348.597666403155
 31
0.0
  0
LINE
  5
895F
330
846A
100
AcDbEntity
  8
30
  6
Continuous
 62
     0
440
 16777216
370
    -2
100
AcDbLine
 10
211.687923342703
 20
396.597666403155
 30
0.0
 11
211.687923342703
 21
350.597666403155
 31
0.0
  0
INSERT
  5
8960
330
846A
100
AcDbEntity
  8
30
  6
Continuous
 62
     0
440
 16777216
370
    -2
100
AcDbBlockReference
  2
_OPEN
 10
211.687923342703
 20
398.597666403155
 30
0.0
 41
2.0
 42
2.0
 43
2.0
 50
90.0
  0
INSERT
  5
8961
330
846A
100
AcDbEntity
  8
30
  6
Continuous
 62
     0
440
 16777216
370
    -2
100
AcDbBlockReference
  2
_OPEN
 10
211.687923342703
 20
348.597666403155
 30
0.0
 41
2.0
 42
2.0
 43
2.0
 50
270.0
  0
MTEXT
  5
8962
330
846A
100
AcDbEntity
  8
30
  6
Continuous
 62
     0
440
 16777216
100
AcDbMText
 10
206.6879233427029
 20
376.370109104155
 30
0.0
 40
6.0
 41
0.0
 46
0.0
 71
     5
 72
     1
  1
\A1;50
 11
0.0000000000000001
 21
1.0
 31
0.0
 73
     1
 44
1.0
 90
        3
 63
     9
421
 13158600
 45
1.1
441
        0
  0
POINT
  5
8963
330
846A
100
AcDbEntity
  8
Defpoints
  6
Continuous
 62
     0
440
 16777216
100
AcDbPoint
 10
249.7879233427027
 20
398.597666403155
 30
0.0
  0
POINT
  5
8964
330
846A
100
AcDbEntity
  8
Defpoints
  6
Continuous
 62
     0
440
 16777216
100
AcDbPoint
 10
249.7879233427027
 20
348.597666403155
 30
0.0
  0
POINT
  5
8965
330
846A
100
AcDbEntity
  8
Defpoints
  6
Continuous
 62
     0
440
 16777216
100
AcDbPoint
 10
211.687923342703
 20
348.597666403155
 30
0.0
  0
ENDBLK
  5
846C
330
846A
100
AcDbEntity
  8
0
100
AcDbBlockEnd
  0
BLOCK
  5
8477
330
8476
100
AcDbEntity
  8
0
100
AcDbBlockBegin
  2
*D32
 70
     1
 10
0.0
 20
0.0
 30
0.0
  3
*D32
  1

  0
LINE
  5
8966
330
8476
100
AcDbEntity
  8
30
  6
Continuous
 62
     0
440
 16777216
370
    -2
100
AcDbLine
 10
424.4530443009718
 20
319.097666403155
 30
0.0
 11
442.1879233427027
 21
319.097666403155
 31
0.0
  0
LINE
  5
8967
330
8476
100
AcDbEntity
  8
30
  6
Continuous
 62
     0
440
 16777216
370
    -2
100
AcDbLine
 10
424.5410544483026
 20
314.0976664031549
 30
0.0
 11
442.1879233427027
 21
314.0976664031549
 31
0.0
  0
LINE
  5
8968
330
8476
100
AcDbEntity
  8
30
  6
Continuous
 62
     0
440
 16777216
370
    -2
100
AcDbLine
 10
441.6879233427027
 20
321.097666403155
 30
0.0
 11
441.6879233427027
 21
323.097666403155
 31
0.0
  0
LINE
  5
8969
330
8476
100
AcDbEntity
  8
30
  6
Continuous
 62
     0
440
 16777216
370
    -2
100
AcDbLine
 10
441.6879233427027
 20
312.0976664031549
 30
0.0
 11
441.6879233427027
 21
292.3590300395186
 31
0.0
  0
LINE
  5
896A
330
8476
100
AcDbEntity
  8
30
  6
Continuous
 62
     0
440
 16777216
370
    -2
100
AcDbLine
 10
441.6879233427027
 20
319.097666403155
 30
0.0
 11
441.6879233427027
 21
314.0976664031549
 31
0.0
  0
INSERT
  5
896B
330
8476
100
AcDbEntity
  8
30
  6
Continuous
 62
     0
440
 16777216
370
    -2
100
AcDbBlockReference
  2
_OPEN
 10
441.6879233427027
 20
319.097666403155
 30
0.0
 41
2.0
 42
2.0
 43
2.0
 50
270.0
  0
INSERT
  5
896C
330
8476
100
AcDbEntity
  8
30
  6
Continuous
 62
     0
440
 16777216
370
    -2
100
AcDbBlockReference
  2
_OPEN
 10
441.6879233427027
 20
314.0976664031549
 30
0.0
 41
2.0
 42
2.0
 43
2.0
 50
90.0
  0
MTEXT
  5
896D
330
8476
100
AcDbEntity
  8
30
  6
Continuous
 62
     0
440
 16777216
100
AcDbMText
 10
436.6879233427026
 20
296.0976664031552
 30
0.0
 40
6.0
 41
0.0
 46
0.0
 71
     5
 72
     1
  1
\A1;5
 11
0.0000000000000001
 21
1.0
 31
0.0
 73
     1
 44
1.0
 90
        3
 63
     9
421
 13158600
 45
1.1
441
        0
  0
POINT
  5
896E
330
8476
100
AcDbEntity
  8
Defpoints
  6
Continuous
 62
     0
440
 16777216
100
AcDbPoint
 10
423.4530443009718
 20
319.097666403155
 30
0.0
  0
POINT
  5
896F
330
8476
100
AcDbEntity
  8
Defpoints
  6
Continuous
 62
     0
440
 16777216
100
AcDbPoint
 10
423.5410544483025
 20
314.0976664031549
 30
0.0
  0
POINT
  5
8970
330
8476
100
AcDbEntity
  8
Defpoints
  6
Continuous
 62
     0
440
 16777216
100
AcDbPoint
 10
441.6879233427027
 20
314.0976664031549
 30
0.0
  0
ENDBLK
  5
8478
330
8476
100
AcDbEntity
  8
0
100
AcDbBlockEnd
  0
BLOCK
  5
8567
330
8566
100
AcDbEntity
  8
0
100
AcDbBlockBegin
  2
*D33
 70
     1
 10
0.0
 20
0.0
 30
0.0
  3
*D33
  1

  0
LINE
  5
8939
330
8566
100
AcDbEntity
  8
30
 62
     0
440
 16777216
370
    -2
100
AcDbLine
 10
87.25237853924069
 20
73.90253122055992
 30
0.0
 11
87.25237853924069
 21
40.35506054382971
 31
0.0
  0
LINE
  5
893A
330
8566
100
AcDbEntity
  8
30
 62
     0
440
 16777216
370
    -2
100
AcDbLine
 10
147.29528032539
 20
73.90253122055992
 30
0.0
 11
147.29528032539
 21
40.35506054382971
 31
0.0
  0
LINE
  5
893B
330
8566
100
AcDbEntity
  8
30
 62
     0
440
 16777216
370
    -2
100
AcDbLine
 10
89.25237853924068
 20
40.85506054382971
 30
0.0
 11
145.29528032539
 21
40.85506054382971
 31
0.0
  0
INSERT
  5
893C
330
8566
100
AcDbEntity
  8
30
 62
     0
440
 16777216
370
    -2
100
AcDbBlockReference
  2
_OPEN
 10
87.25237853924069
 20
40.85506054382971
 30
0.0
 41
2.0
 42
2.0
 43
2.0
 50
180.0
  0
INSERT
  5
893D
330
8566
100
AcDbEntity
  8
30
 62
     0
440
 16777216
370
    -2
100
AcDbBlockReference
  2
_OPEN
 10
147.29528032539
 20
40.85506054382971
 30
0.0
 41
2.0
 42
2.0
 43
2.0
  0
MTEXT
  5
893E
330
8566
100
AcDbEntity
  8
30
 62
     0
440
 16777216
100
AcDbMText
 10
117.2738294323154
 20
45.8550605438297
 30
0.0
 40
6.0
 41
0.0
 46
0.0
 71
     5
 72
     1
  1
\A1;60
 73
     1
 44
1.0
 90
        3
 63
     9
421
 13158600
 45
1.1
441
        0
  0
POINT
  5
893F
330
8566
100
AcDbEntity
  8
Defpoints
 62
     0
440
 16777216
100
AcDbPoint
 10
87.25237853924069
 20
74.90253122055992
 30
0.0
  0
POINT
  5
8940
330
8566
100
AcDbEntity
  8
Defpoints
 62
     0
440
 16777216
100
AcDbPoint
 10
147.29528032539
 20
74.90253122055992
 30
0.0
  0
POINT
  5
8941
330
8566
100
AcDbEntity
  8
Defpoints
 62
     0
440
 16777216
100
AcDbPoint
 10
147.29528032539
 20
40.85506054382971
 30
0.0
  0
ENDBLK
  5
8568
330
8566
100
AcDbEntity
  8
0
100
AcDbBlockEnd
  0
BLOCK
  5
859D
330
859C
100
AcDbEntity
  8
0
100
AcDbBlockBegin
  2
*D34
 70
     1
 10
0.0
 20
0.0
 30
0.0
  3
*D34
  1

  0
LINE
  5
8954
330
859C
100
AcDbEntity
  8
30
 62
     0
440
 16777216
370
    -2
100
AcDbLine
 10
106.2780447917498
 20
350.4934479353148
 30
0.0
 11
106.2780447917498
 21
331.8775955610651
 31
0.0
  0
LINE
  5
8955
330
859C
100
AcDbEntity
  8
30
 62
     0
440
 16777216
370
    -2
100
AcDbLine
 10
128.3243486079389
 20
350.4934479353148
 30
0.0
 11
128.3243486079389
 21
331.8775955610651
 31
0.0
  0
LINE
  5
8956
330
859C
100
AcDbEntity
  8
30
 62
     0
440
 16777216
370
    -2
100
AcDbLine
 10
108.2780447917498
 20
332.3775955610652
 30
0.0
 11
126.3243486079389
 21
332.3775955610652
 31
0.0
  0
INSERT
  5
8957
330
859C
100
AcDbEntity
  8
30
 62
     0
440
 16777216
370
    -2
100
AcDbBlockReference
  2
_OPEN
 10
106.2780447917498
 20
332.3775955610652
 30
0.0
 41
2.0
 42
2.0
 43
2.0
 50
180.0
  0
INSERT
  5
8958
330
859C
100
AcDbEntity
  8
30
 62
     0
440
 16777216
370
    -2
100
AcDbBlockReference
  2
_OPEN
 10
128.3243486079389
 20
332.3775955610652
 30
0.0
 41
2.0
 42
2.0
 43
2.0
  0
MTEXT
  5
8959
330
859C
100
AcDbEntity
  8
30
 62
     0
440
 16777216
100
AcDbMText
 10
117.3011966998444
 20
337.3775955610652
 30
0.0
 40
6.0
 41
0.0
 46
0.0
 71
     5
 72
     1
  1
\A1;22
 73
     1
 44
1.0
 90
        3
 63
     9
421
 13158600
 45
1.1
441
        0
  0
POINT
  5
895A
330
859C
100
AcDbEntity
  8
Defpoints
 62
     0
440
 16777216
100
AcDbPoint
 10
106.2780447917498
 20
351.4934479353148
 30
0.0
  0
POINT
  5
895B
330
859C
100
AcDbEntity
  8
Defpoints
 62
     0
440
 16777216
100
AcDbPoint
 10
128.3243486079389
 20
351.4934479353148
 30
0.0
  0
POINT
  5
895C
330
859C
100
AcDbEntity
  8
Defpoints
 62
     0
440
 16777216
100
AcDbPoint
 10
128.3243486079389
 20
332.3775955610652
 30
0.0
  0
ENDBLK
  5
859E
330
859C
100
AcDbEntity
  8
0
100
AcDbBlockEnd
  0
BLOCK
  5
8617
330
8611
100
AcDbEntity
  8
0
100
AcDbBlockBegin
  2
A$C4A823173
 70
     0
 10
0.0
 20
0.0
 30
0.0
  3
A$C4A823173
  1

  0
LINE
  5
8612
330
8611
100
AcDbEntity
  8
0
  6
Continuous
 62
     7
100
AcDbLine
 10
38.75313110560023
 20
-2.5
 30
0.0
 11
0.0
 21
-2.5
 31
0.0
  0
LINE
  5
8613
330
8611
100
AcDbEntity
  8
0
  6
Continuous
 62
     7
100
AcDbLine
 10
0.0
 20
2.5
 30
0.0
 11
38.66512095827
 21
2.5
 31
0.0
  0
ARC
  5
8614
330
8611
100
AcDbEntity
  8
0
  6
Continuous
 62
     7
100
AcDbCircle
 10
23.41191016108906
 20
-0.2692620445087073
 30
0.0
 40
15.50255630192575
100
AcDbArc
 50
351.726712575498
 51
10.29012314721962
  0
ENDBLK
  5
8618
330
8611
100
AcDbEntity
  8
0
100
AcDbBlockEnd
  0
BLOCK
  5
8A02
330
8A01
100
AcDbEntity
  8
0
100
AcDbBlockBegin
  2
SW_CENTERMARKSYMBOL_18
 70
     0
 10
0.0
 20
0.0
 30
0.0
  3
SW_CENTERMARKSYMBOL_18
  1
SW_CENTERMARKSYMBOL_18
  0
LINE
  5
8A03
330
8A01
100
AcDbEntity
  8
SLD-0
 62
     0
100
AcDbLine
 10
0.0
 20
0.0
 30
0.0
 11
0.0
 21
1.0
 31
0.0
  0
LINE
  5
8A04
330
8A01
100
AcDbEntity
  8
SLD-0
 62
     0
100
AcDbLine
 10
0.0
 20
0.0
 30
0.0
 11
-1.0
 21
0.0
 31
0.0
  0
LINE
  5
8A05
330
8A01
100
AcDbEntity
  8
SLD-0
 62
     0
100
AcDbLine
 10
0.0
 20
0.0
 30
0.0
 11
0.0
 21
-1.0
 31
0.0
  0
LINE
  5
8A06
330
8A01
100
AcDbEntity
  8
SLD-0
 62
     0
100
AcDbLine
 10
0.0
 20
0.0
 30
0.0
 11
1.0
 21
0.0
 31
0.0
  0
LINE
  5
8A07
330
8A01
100
AcDbEntity
  8
SLD-0
 62
     0
100
AcDbLine
 10
0.0
 20
1.0
 30
0.0
 11
0.0
 21
1.8
 31
0.0
  0
LINE
  5
8A08
330
8A01
100
AcDbEntity
  8
SLD-0
 62
     0
100
AcDbLine
 10
-1.0
 20
0.0
 30
0.0
 11
-1.8
 21
0.0
 31
0.0
  0
LINE
  5
8A09
330
8A01
100
AcDbEntity
  8
SLD-0
 62
     0
100
AcDbLine
 10
0.0
 20
-1.0
 30
0.0
 11
0.0
 21
-1.8
 31
0.0
  0
LINE
  5
8A0A
330
8A01
100
AcDbEntity
  8
SLD-0
 62
     0
100
AcDbLine
 10
1.0
 20
0.0
 30
0.0
 11
1.8
 21
0.0
 31
0.0
  0
ENDBLK
  5
8A0B
330
8A01
100
AcDbEntity
  8
0
100
AcDbBlockEnd
  0
BLOCK
  5
8A71
330
8A70
100
AcDbEntity
  8
0
100
AcDbBlockBegin
  2
*D37
 70
     1
 10
0.0
 20
0.0
 30
0.0
  3
*D37
  1

  0
LINE
  5
8A85
330
8A70
100
AcDbEntity
  8
30
  6
Continuous
 62
     0
440
 16777216
370
    -2
100
AcDbLine
 10
108.2501633097558
 20
647.8741504311336
 30
0.0
 11
99.43063550435093
 21
647.8741504311336
 31
0.0
  0
LINE
  5
8A86
330
8A70
100
AcDbEntity
  8
30
  6
Continuous
 62
     0
440
 16777216
370
    -2
100
AcDbLine
 10
105.7195805701271
 20
624.8966253874739
 30
0.0
 11
99.43063550435093
 21
624.8966253874739
 31
0.0
  0
LINE
  5
8A87
330
8A70
100
AcDbEntity
  8
30
  6
Continuous
 62
     0
440
 16777216
370
    -2
100
AcDbLine
 10
99.93063550435094
 20
645.8741504311332
 30
0.0
 11
99.93063550435094
 21
626.8966253874739
 31
0.0
  0
INSERT
  5
8A88
330
8A70
100
AcDbEntity
  8
30
  6
Continuous
 62
     0
440
 16777216
370
    -2
100
AcDbBlockReference
  2
_OPEN
 10
99.93063550435094
 20
647.8741504311336
 30
0.0
 41
2.0
 42
2.0
 43
2.0
 50
90.0
  0
INSERT
  5
8A89
330
8A70
100
AcDbEntity
  8
30
  6
Continuous
 62
     0
440
 16777216
370
    -2
100
AcDbBlockReference
  2
_OPEN
 10
99.93063550435094
 20
624.8966253874739
 30
0.0
 41
2.0
 42
2.0
 43
2.0
 50
270.0
  0
MTEXT
  5
8A8A
330
8A70
100
AcDbEntity
  8
30
  6
Continuous
 62
     0
440
 16777216
100
AcDbMText
 10
94.93063550435079
 20
636.3853879093037
 30
0.0
 40
6.0
 41
0.0
 46
0.0
 71
     5
 72
     1
  1
\A1;23
 11
0.0000000000000001
 21
1.0
 31
0.0
 73
     1
 44
1.0
 90
        3
 63
     9
421
 13158600
 45
1.1
441
        0
  0
POINT
  5
8A8B
330
8A70
100
AcDbEntity
  8
Defpoints
  6
Continuous
 62
     0
440
 16777216
100
AcDbPoint
 10
109.2501633097558
 20
647.8741504311336
 30
0.0
  0
POINT
  5
8A8C
330
8A70
100
AcDbEntity
  8
Defpoints
  6
Continuous
 62
     0
440
 16777216
100
AcDbPoint
 10
106.7195805701271
 20
624.8966253874739
 30
0.0
  0
POINT
  5
8A8D
330
8A70
100
AcDbEntity
  8
Defpoints
  6
Continuous
 62
     0
440
 16777216
100
AcDbPoint
 10
99.93063550435094
 20
624.8966253874739
 30
0.0
  0
ENDBLK
  5
8A72
330
8A70
100
AcDbEntity
  8
0
100
AcDbBlockEnd
  0
ENDSEC
  0
SECTION
  2
ENTITIES
  0
MTEXT
  5
6620
330
1F
100
AcDbEntity
  8
19
  6
Continuous
 62
     7
100
AcDbMText
 10
326.3487103694694
 20
587.0387645767682
 30
0.0
 40
8.0
 41
0.0
 46
0.0
 71
     7
 72
     5
  1
PS125-NF (60-125A) 3P RC\PPS50-PF (60-125A) 3P RC\PPS125-PF (60-125A) 3P RC\PPS125-NE (60-125A) 3P RC\PPS125-PE (60-125A) 3P RC
  7
blockfont
 73
     1
 44
1.0
  0
LWPOLYLINE
  5
76D7
330
1F
100
AcDbEntity
  8
10
  6
Continuous
100
AcDbPolyline
 90
        4
 70
     1
 43
0.0
 10
0.0
 20
742.4999999999997
 10
525.0
 20
742.4999999999997
 10
525.0
 20
0.0
 10
0.0
 20
0.0
  0
LINE
  5
81F6
330
1F
100
AcDbEntity
  8
10
100
AcDbLine
 10
162.3036754574325
 20
422.866640983713
 30
0.0
 11
72.34190065151711
 21
422.866640983713
 31
0.0
  0
LINE
  5
81F7
330
1F
100
AcDbEntity
  8
10
100
AcDbLine
 10
162.3036754574325
 20
424.8755698844049
 30
0.0
 11
72.3371576002894
 21
424.8755698844049
 31
0.0
  0
DIMENSION
  5
81F8
330
1F
100
AcDbEntity
  8
30
100
AcDbDimension
280
     0
  2
*D11
 10
162.3036754574325
 20
272.9890575481204
 30
0.0
 11
115.378555106616
 21
272.9890575481204
 31
0.0
 70
   160
  1
90
 71
     2
 42
89.96651785714311
 73
     0
 74
     0
 75
     0
  3
STANDARD
100
AcDbAlignedDimension
 13
72.3371576002894
 23
308.3691576285796
 33
0.0
 14
162.3036754574325
 24
308.3691576285796
 34
0.0
100
AcDbRotatedDimension
  0
LINE
  5
81F9
330
1F
100
AcDbEntity
  8
16
 48
5.0
100
AcDbLine
 10
169.394928227633
 20
373.597666403155
 30
0.0
 11
63.3971857045817
 21
373.597666403155
 31
0.0
  0
DIMENSION
  5
81FA
330
1F
100
AcDbEntity
  8
30
100
AcDbDimension
280
     0
  2
*D12
 10
47.0605016687615
 20
308.3691576285796
 30
0.0
 11
42.06050166876145
 21
373.6691363975582
 31
0.0
 70
    32
  1
130
 71
     5
 42
130.5999575379571
 73
     0
 74
     0
 75
     0
  3
STANDARD
100
AcDbAlignedDimension
 13
75.13634063688552
 23
438.9691151665367
 33
0.0
 14
107.7577785149992
 24
308.3691576285796
 34
0.0
 50
90.0
100
AcDbRotatedDimension
  0
LINE
  5
81FB
330
1F
100
AcDbEntity
  8
17
 48
0.5
100
AcDbLine
 10
117.3036754574325
 20
425.9223432188023
 30
0.0
 11
117.3036754574325
 21
435.922543218802
 31
0.0
  0
LINE
  5
81FE
330
1F
100
AcDbEntity
  8
17
 48
0.5
100
AcDbLine
 10
147.4376033552669
 20
425.9223432188023
 30
0.0
 11
147.4376033552669
 21
435.922543218802
 31
0.0
  0
LINE
  5
81FF
330
1F
100
AcDbEntity
  8
17
 48
0.5
100
AcDbLine
 10
142.4375033552669
 20
430.9224432188023
 30
0.0
 11
152.4377033552668
 21
430.9224432188023
 31
0.0
  0
LWPOLYLINE
  5
8200
330
1F
100
AcDbEntity
  8
10
100
AcDbPolyline
 90
        5
 70
     0
 43
0.0
 10
162.3036754574325
 20
308.3691576285796
 10
162.3036754574325
 20
438.9691151665367
 10
72.3371576002894
 20
438.9691151665367
 10
72.3371576002894
 20
308.3691576285796
 10
162.3036754574325
 20
308.3691576285796
  0
LWPOLYLINE
  5
8201
330
1F
100
AcDbEntity
  8
10
100
AcDbPolyline
 90
        6
 70
     1
 43
0.0
 10
107.7577785149992
 20
438.9691151665367
 10
126.8626577415634
 20
438.9691151665367
 10
126.8626577415634
 20
427.8628714648645
 42
-0.4144445394035128
 10
123.8602921202928
 20
424.8628723975586
 10
110.7554128937286
 20
424.8732061277873
 42
-0.4139826230609387
 10
107.7577785149992
 20
427.8732051950931
  0
LWPOLYLINE
  5
8202
330
1F
100
AcDbEntity
  8
10
100
AcDbPolyline
 90
        6
 70
     1
 43
0.0
 10
137.8917064128336
 20
438.9691151665367
 10
156.9965856393978
 20
438.9691151665367
 10
156.9965856393978
 20
427.8628714648645
 42
-0.4144445394035128
 10
153.9942200181272
 20
424.8628723975586
 10
140.8893407915629
 20
424.8732061277873
 42
-0.4139826230609387
 10
137.8917064128336
 20
427.8732051950931
  0
LWPOLYLINE
  5
8203
330
1F
100
AcDbEntity
  8
10
100
AcDbPolyline
 90
        4
 70
     1
 43
0.0
 10
75.3010655000154
 20
398.6913280866272
 10
159.3010655000154
 20
398.6913280866272
 10
159.3010655000154
 20
348.6895250759364
 10
75.3010655000154
 20
348.6895250759364
  0
LINE
  5
8204
330
1F
100
AcDbEntity
  8
10
100
AcDbLine
 10
162.3036754574325
 20
324.328691822597
 30
0.0
 11
72.34190065151711
 21
324.328691822597
 31
0.0
  0
LINE
  5
8205
330
1F
100
AcDbEntity
  8
10
100
AcDbLine
 10
162.3036754574325
 20
322.3197629219051
 30
0.0
 11
72.3371576002894
 21
322.3197629219051
 31
0.0
  0
CIRCLE
  5
8206
330
1F
100
AcDbEntity
  8
12
  6
CONTINOUS
100
AcDbCircle
 10
132.3706397431467
 20
317.7795860460121
 30
0.0
 40
3.077821902690307
  0
LINE
  5
8207
330
1F
100
AcDbEntity
  8
17
 48
0.5
100
AcDbLine
 10
117.3036754574325
 20
321.2729895875077
 30
0.0
 11
117.3036754574325
 21
311.2727895875078
 31
0.0
  0
LINE
  5
8208
330
1F
100
AcDbEntity
  8
17
 48
0.5
100
AcDbLine
 10
112.3035754574325
 20
316.2728895875077
 30
0.0
 11
122.3037754574325
 21
316.2728895875077
 31
0.0
  0
LINE
  5
8209
330
1F
100
AcDbEntity
  8
12
  6
DASHDOT
 48
0.5
100
AcDbLine
 10
132.3204165288609
 20
322.7796853276193
 30
0.0
 11
132.3204165288609
 21
312.7794853276193
 31
0.0
  0
LINE
  5
820A
330
1F
100
AcDbEntity
  8
12
  6
DASHDOT
 48
0.5
100
AcDbLine
 10
127.3203165288609
 20
317.7795853276193
 30
0.0
 11
137.3205165288609
 21
317.7795853276193
 31
0.0
  0
LINE
  5
820B
330
1F
100
AcDbEntity
  8
17
 48
0.5
100
AcDbLine
 10
147.4376033552669
 20
321.2729895875077
 30
0.0
 11
147.4376033552669
 21
311.2727895875078
 31
0.0
  0
LINE
  5
820C
330
1F
100
AcDbEntity
  8
17
 48
0.5
100
AcDbLine
 10
142.4375033552669
 20
316.2728895875077
 30
0.0
 11
152.4377033552668
 21
316.2728895875077
 31
0.0
  0
LWPOLYLINE
  5
820D
330
1F
100
AcDbEntity
  8
10
100
AcDbPolyline
 90
        6
 70
     1
 43
0.0
 10
107.7577785149992
 20
308.3691576285796
 10
126.8626577415634
 20
308.3691576285796
 10
126.8626577415634
 20
319.3324613414455
 42
0.4144445394035128
 10
123.8602921202928
 20
322.3324604087513
 10
110.7554128937286
 20
322.3221266785226
 42
0.4139826230609387
 10
107.7577785149992
 20
319.3221276112167
  0
LWPOLYLINE
  5
820E
330
1F
100
AcDbEntity
  8
10
100
AcDbPolyline
 90
        6
 70
     1
 43
0.0
 10
137.8917064128336
 20
308.3691576285796
 10
156.9965856393978
 20
308.3691576285796
 10
156.9965856393978
 20
319.3324613414455
 42
0.4144445394035128
 10
153.9942200181272
 20
322.3324604087513
 10
140.8893407915629
 20
322.3221266785226
 42
0.4139826230609387
 10
137.8917064128336
 20
319.3221276112167
  0
CIRCLE
  5
820F
330
1F
100
AcDbEntity
  8
24
  6
CONTINOUS
100
AcDbCircle
 10
117.3036754574325
 20
316.2728895875077
 30
0.0
 40
4.25
  0
CIRCLE
  5
8210
330
1F
100
AcDbEntity
  8
24
  6
CONTINOUS
100
AcDbCircle
 10
147.4376033552669
 20
316.2728895875077
 30
0.0
 40
4.25
  0
CIRCLE
  5
8211
330
1F
100
AcDbEntity
  8
24
  6
CONTINOUS
100
AcDbCircle
 10
147.4376033552669
 20
430.9224432188023
 30
0.0
 40
4.25
  0
LINE
  5
8213
330
1F
100
AcDbEntity
  8
16
 48
5.0
100
AcDbLine
 10
117.3010655000154
 20
294.9850026535592
 30
0.0
 11
117.3010655000154
 21
457.2135998980486
 31
0.0
  0
DIMENSION
  5
8218
330
1F
100
AcDbEntity
  8
30
100
AcDbDimension
280
     0
  2
*D13
 10
410.9323293009346
 20
51.40248380055959
 30
0.0
 11
398.9323293009348
 21
51.40248380055959
 31
0.0
 70
   160
  1
<>
 71
     2
 42
23.99999999999977
 73
     0
 74
     0
 75
     0
  3
STANDARD
100
AcDbAlignedDimension
 13
386.9323293009348
 23
115.6290606198108
 33
0.0
 14
410.9323293009346
 24
116.3845971821354
 34
0.0
100
AcDbRotatedDimension
  0
LINE
  5
8219
330
1F
100
AcDbEntity
  8
16
 48
5.0
100
AcDbLine
 10
398.9323293009348
 20
73.40253360485087
 30
0.0
 11
398.9323293009348
 21
224.9339034633972
 31
0.0
  0
LINE
  5
821A
330
1F
100
AcDbEntity
  8
16
 48
5.0
100
AcDbLine
 10
448.085253936227
 20
143.402533213434
 30
0.0
 11
348.9323295805184
 21
143.402533213434
 31
0.0
  0
LINE
  5
8222
330
1F
100
AcDbEntity
  8
SLD-0
 62
     0
100
AcDbLine
 10
102.2435806853535
 20
205.2383435461158
 30
0.0
 11
102.2435806853535
 21
213.4141080635739
 31
0.0
  0
LINE
  5
8223
330
1F
100
AcDbEntity
  8
SLD-0
 62
     0
100
AcDbLine
 10
95.95453105653971
 20
198.9492939173018
 30
0.0
 11
87.77876653908164
 21
198.9492939173018
 31
0.0
  0
LINE
  5
8224
330
1F
100
AcDbEntity
  8
SLD-0
 62
     0
100
AcDbLine
 10
102.2435806853535
 20
192.6602442884879
 30
0.0
 11
102.2435806853535
 21
184.4844797710298
 31
0.0
  0
LINE
  5
8225
330
1F
100
AcDbEntity
  8
SLD-0
 62
     0
100
AcDbLine
 10
108.5326303141676
 20
198.9492939173018
 30
0.0
 11
116.7083948316257
 21
198.9492939173018
 31
0.0
  0
LINE
  5
822A
330
1F
100
AcDbEntity
  8
SLD-0
 62
     0
100
AcDbLine
 10
125.9419692748465
 20
87.90577250956607
 30
0.0
 11
117.7662047573884
 21
87.90577250956607
 31
0.0
  0
LINE
  5
822B
330
1F
100
AcDbEntity
  8
SLD-0
 62
     0
100
AcDbLine
 10
132.2310189036605
 20
81.61672288075214
 30
0.0
 11
132.2310189036605
 21
73.44095836329398
 31
0.0
  0
LINE
  5
822D
330
1F
100
AcDbEntity
  8
16
 48
5.0
100
AcDbLine
 10
117.2372997945068
 20
68.40253321343403
 30
0.0
 11
117.2372997945068
 21
218.402533213434
 31
0.0
  0
LINE
  5
822E
330
1F
100
AcDbEntity
  8
16
 48
5.0
100
AcDbLine
 10
51.80925327158741
 20
143.402533213434
 30
0.0
 11
164.7372997945068
 21
143.402533213434
 31
0.0
  0
LEADER
  5
8232
330
1F
100
AcDbEntity
  8
30
100
AcDbLeader
  3
STANDARD1
 76
     3
 10
102.2435806853535
 20
198.9492939173018
 30
0.0
 10
93.39543837226186
 20
222.402533213434
 30
0.0
 10
56.29543837226186
 20
222.402533213434
 30
0.0
1001
ACAD
1000
DSTYLE
1002
{
1070
   147
1040
2.0
1070
    77
1070
     0
1002
}
  0
MTEXT
  5
8233
330
1F
100
AcDbEntity
  8
30
100
AcDbMText
 10
60.13450022624841
 20
228.749293917302
 30
0.0
 40
5.0
 41
30.0
 46
0.0
 71
     1
 72
     5
  1
M4x0.7
  7
blockfont
 73
     1
 44
1.0
  0
DIMENSION
  5
8234
330
1F
100
AcDbEntity
  8
30
100
AcDbDimension
280
     0
  2
*D14
 10
49.26710189355979
 20
87.90577250956609
 30
0.0
 11
44.26710189355978
 21
143.427533213434
 31
0.0
 70
    32
 71
     5
 42
111.0435214077358
 73
     0
 74
     0
 75
     0
  3
STANDARD
100
AcDbAlignedDimension
 13
97.71546495260759
 23
198.9492939173018
 33
0.0
 14
128.7091511115247
 24
87.90577250956607
 34
0.0
 50
90.0
100
AcDbRotatedDimension
  0
LINE
  5
8235
330
1F
100
AcDbEntity
  8
17
 48
0.5
100
AcDbLine
 10
117.3018203993032
 20
425.9223435629193
 30
0.0
 11
117.3055305155618
 21
435.9225428746849
 31
0.0
  0
LINE
  5
8236
330
1F
100
AcDbEntity
  8
22
  6
DASHDOT
 48
0.5
100
AcDbLine
 10
102.3150301293857
 20
424.4212135411573
 30
0.0
 11
102.3187402456444
 21
434.4214128529229
 31
0.0
  0
LINE
  5
8237
330
1F
100
AcDbEntity
  8
22
  6
DASHDOT
 48
0.5
100
AcDbLine
 10
107.3169848433979
 20
429.4194581389108
 30
0.0
 11
97.31678553163236
 21
429.4231682551695
 31
0.0
  0
LINE
  5
8238
330
1F
100
AcDbEntity
  8
17
 48
0.5
100
AcDbLine
 10
87.19840333383229
 20
425.9335177174671
 30
0.0
 11
87.2021134500909
 21
435.9337170292326
 31
0.0
  0
LINE
  5
8239
330
1F
100
AcDbEntity
  8
17
 48
0.5
100
AcDbLine
 10
92.20035804784435
 20
430.9317623152207
 30
0.0
 11
82.20015873607882
 21
430.9354724314792
 31
0.0
  0
LWPOLYLINE
  5
823A
330
1F
100
AcDbEntity
  8
10
100
AcDbPolyline
 90
        6
 70
     1
 43
0.0
 10
96.74913070126024
 20
438.9691151665367
 10
77.64425232703786
 20
438.9653100058858
 10
77.6401416517109
 20
427.8775922526086
 42
0.4144445394035128
 10
80.64139405408116
 20
424.8764795014961
 10
93.74627621259801
 20
424.8819512657043
 42
0.4139826230609387
 10
96.7450233972953
 20
427.8808379915822
  0
CIRCLE
  5
823B
330
1F
100
AcDbEntity
  8
24
  6
CONTINOUS
100
AcDbCircle
 10
87.20025839196148
 20
430.9336173733496
 30
0.0
 40
4.25
  0
CIRCLE
  5
823C
330
1F
100
AcDbEntity
  8
24
  6
CONTINOUS
100
AcDbCircle
 10
117.3341842159169
 20
430.9224375593633
 30
0.0
 40
4.25
  0
CIRCLE
  5
823D
330
1F
100
AcDbEntity
  8
22
  6
CONTINOUS
100
AcDbCircle
 10
102.2666619769523
 20
429.4213325484566
 30
0.0
 40
3.077821902690307
  0
LINE
  5
823E
330
1F
100
AcDbEntity
  8
17
 48
0.5
100
AcDbLine
 10
87.16974755959814
 20
321.2729895875077
 30
0.0
 11
87.16974755959814
 21
311.2727895875078
 31
0.0
  0
LINE
  5
823F
330
1F
100
AcDbEntity
  8
17
 48
0.5
100
AcDbLine
 10
82.16964755959816
 20
316.2728895875077
 30
0.0
 11
92.16984755959812
 21
316.2728895875077
 31
0.0
  0
LWPOLYLINE
  5
8240
330
1F
100
AcDbEntity
  8
10
100
AcDbPolyline
 90
        6
 70
     1
 43
0.0
 10
77.62385061716486
 20
308.3691576285796
 10
96.72872984372908
 20
308.3691576285796
 10
96.72872984372908
 20
319.3324613414455
 42
0.4144445394035128
 10
93.7263642224584
 20
322.3324604087513
 10
80.62148499589421
 20
322.3221266785226
 42
0.4139826230609387
 10
77.62385061716486
 20
319.3221276112167
  0
CIRCLE
  5
8241
330
1F
100
AcDbEntity
  8
24
  6
CONTINOUS
100
AcDbCircle
 10
87.16974755959814
 20
316.2728895875077
 30
0.0
 40
4.25
  0
DIMENSION
  5
8245
330
1F
100
AcDbEntity
  8
30
100
AcDbDimension
280
     0
  2
*D15
 10
159.3010655000154
 20
284.3401158231273
 30
0.0
 11
117.3010655000154
 21
289.3401158231272
 31
0.0
 70
    32
 71
     5
 42
84.0
 73
     0
 74
     0
 75
     0
  3
STANDARD
100
AcDbAlignedDimension
 13
75.3010655000154
 23
348.6895250759364
 33
0.0
 14
159.3010655000154
 24
348.6895250759364
 34
0.0
100
AcDbRotatedDimension
  0
LWPOLYLINE
  5
8246
330
1F
100
AcDbEntity
  8
10
100
AcDbPolyline
 90
        4
 70
     1
 43
0.0
 10
109.816795446865
 20
360.3655063556697
 10
124.7853355531657
 20
360.3655063556697
 10
124.7853355531657
 20
387.5241374951796
 10
109.816795446865
 20
387.5241374951796
  0
LWPOLYLINE
  5
8247
330
1F
100
AcDbEntity
  8
10
100
AcDbPolyline
 90
        4
 70
     1
 43
0.0
 10
110.9018269457602
 20
384.7759838615136
 10
123.9018269457602
 20
384.7759838615136
 10
123.9018269457602
 20
379.7759838615136
 10
110.9018269457602
 20
379.7759838615136
  0
LINE
  5
8248
330
1F
100
AcDbEntity
  8
17
 48
0.5
100
AcDbLine
 10
112.3009655000154
 20
430.9223085163051
 30
0.0
 11
122.3011655000153
 21
430.9223085163051
 31
0.0
  0
LWPOLYLINE
  5
8249
102
{ACAD_REACTORS
330
82BD
102
}
330
1F
100
AcDbEntity
  8
10
100
AcDbPolyline
 90
        4
 70
     1
 43
0.0
 10
106.2780522887929
 20
395.7018856411023
 10
128.3243486079057
 20
395.7018856411023
 10
128.3243486079389
 20
351.4934479353148
 10
106.2780447917498
 20
351.4934479353148
  0
DIMENSION
  5
824A
330
1F
100
AcDbEntity
  8
30
100
AcDbDimension
280
     0
  2
*D16
 10
132.2310189036605
 20
51.38692977880918
 30
0.0
 11
117.2372997945071
 21
56.38692977880918
 31
0.0
 70
    32
 71
     5
 42
29.98743821830686
 73
     0
 74
     0
 75
     0
  3
STANDARD
100
AcDbAlignedDimension
 13
102.2435806853535
 23
194.4211781845558
 33
0.0
 14
132.2310189036605
 24
83.37765677681998
 34
0.0
100
AcDbRotatedDimension
  0
LINE
  5
824B
330
1F
100
AcDbEntity
  8
0
  6
Continuous
 62
     7
100
AcDbLine
 10
130.2443430943522
 20
567.4115820590587
 30
0.0
 11
130.7465753195754
 21
567.913814284282
 31
0.0
  0
LINE
  5
824C
330
1F
100
AcDbEntity
  8
0
  6
Continuous
 62
     7
100
AcDbLine
 10
133.7599677351559
 20
567.913814284282
 30
0.0
 11
134.262200895937
 21
567.4115820590587
 31
0.0
  0
LINE
  5
824D
330
1F
100
AcDbEntity
  8
0
  6
Continuous
 62
     7
100
AcDbLine
 10
130.2443430943522
 20
560.8140374668266
 30
0.0
 11
130.2443430943522
 21
567.4115820590587
 31
0.0
  0
LINE
  5
824E
330
1F
100
AcDbEntity
  8
0
  6
Continuous
 62
     7
100
AcDbLine
 10
134.262200895937
 20
567.4115820590587
 30
0.0
 11
134.262200895937
 21
560.8140374668266
 31
0.0
  0
LINE
  5
824F
330
1F
100
AcDbEntity
  8
0
  6
Continuous
 62
     7
100
AcDbLine
 10
100.1104133256021
 20
567.4115820590587
 30
0.0
 11
100.6126464861827
 21
567.913814284282
 31
0.0
  0
LINE
  5
8250
330
1F
100
AcDbEntity
  8
0
  6
Continuous
 62
     7
100
AcDbLine
 10
103.6260389017629
 20
567.913814284282
 30
0.0
 11
104.1282711269862
 21
567.4115820590587
 31
0.0
  0
LINE
  5
8251
330
1F
100
AcDbEntity
  8
0
  6
Continuous
 62
     7
100
AcDbLine
 10
100.1104133256021
 20
560.8140374668266
 30
0.0
 11
100.1104133256021
 21
567.4115820590587
 31
0.0
  0
LINE
  5
8252
330
1F
100
AcDbEntity
  8
0
  6
Continuous
 62
     7
100
AcDbLine
 10
104.1282711269862
 20
567.4115820590587
 30
0.0
 11
104.1282711269862
 21
560.8140374668266
 31
0.0
  0
LINE
  5
8253
330
1F
100
AcDbEntity
  8
0
  6
Continuous
 62
     7
100
AcDbLine
 10
130.2443430943522
 20
567.4115820590587
 30
0.0
 11
134.262200895937
 21
567.4115820590587
 31
0.0
  0
LINE
  5
8254
330
1F
100
AcDbEntity
  8
0
  6
Continuous
 62
     7
100
AcDbLine
 10
130.7465753195754
 20
567.913814284282
 30
0.0
 11
133.7599677351559
 21
567.913814284282
 31
0.0
  0
LINE
  5
8255
330
1F
100
AcDbEntity
  8
0
  6
Continuous
 62
     7
100
AcDbLine
 10
100.1104133256021
 20
567.4115820590587
 30
0.0
 11
104.1282711269862
 21
567.4115820590587
 31
0.0
  0
LINE
  5
8256
330
1F
100
AcDbEntity
  8
0
  6
Continuous
 62
     7
100
AcDbLine
 10
100.6126464861827
 20
567.913814284282
 30
0.0
 11
103.6260389017629
 21
567.913814284282
 31
0.0
  0
LINE
  5
8257
330
1F
100
AcDbEntity
  8
0
  6
SLD-実線
370
    15
100
AcDbLine
 10
159.3036754574325
 20
487.8926120086346
 30
0.0
 11
75.06893876390586
 21
487.8926120086346
 31
0.0
  0
LINE
  5
8258
330
1F
100
AcDbEntity
  8
0
  6
SLD-実線
370
    15
100
AcDbLine
 10
157.8557989744415
 20
491.9104623263579
 30
0.0
 11
76.51681524689684
 21
491.9104623263579
 31
0.0
  0
LINE
  5
8259
330
1F
100
AcDbEntity
  8
24
  6
Continuous
 62
     7
100
AcDbLine
 10
94.9374226224104
 20
583.6287677737907
 30
0.0
 11
79.16733393234608
 21
583.6287677738555
 31
0.0
  0
LWPOLYLINE
  5
825A
330
1F
100
AcDbEntity
  8
24
  6
Continuous
 62
     7
100
AcDbPolyline
 90
        5
 70
     0
 43
0.0
 10
82.78340670207535
 20
600.1890379339022
 10
82.78340670207535
 20
596.1677513462511
 42
0.9995984643691707
 10
91.32135175352642
 20
596.1711802921655
 10
91.32135175352642
 20
600.1890374668264
 42
1.0
 10
82.78340532495484
 20
600.1890374668264
  0
LWPOLYLINE
  5
8267
330
1F
100
AcDbEntity
  8
10
  6
CONTINOUS
100
AcDbPolyline
 90
        5
 70
     0
 43
0.0
 10
162.0374444021554
 20
491.9104623263579
 10
72.13520743670709
 20
491.9104623263579
 10
72.13520743670709
 20
560.8741504311333
 10
162.1352074367071
 20
560.8741504311333
 10
162.0374444021554
 20
491.9104623263579
  0
LWPOLYLINE
  5
8268
330
1F
100
AcDbEntity
  8
10
  6
CONTINOUS
100
AcDbPolyline
 90
        4
 70
     1
 43
0.0
 10
72.13520743670709
 20
491.9104623263579
 10
162.0374444021554
 20
491.9104623263579
 10
162.0374444026154
 20
493.8869599971793
 10
72.13520743670709
 20
493.9104623263578
  0
LWPOLYLINE
  5
8269
330
1F
100
AcDbEntity
  8
10
  6
CONTINOUS
100
AcDbPolyline
 90
        4
 70
     1
 43
0.0
 10
75.06893876390586
 20
491.9104623263579
 10
159.3036754574325
 20
491.9104623263579
 10
159.3036754574325
 20
487.8926120086346
 10
75.06893876390586
 20
487.8926120086346
  0
LWPOLYLINE
  5
826A
330
1F
100
AcDbEntity
  8
10
  6
CONTINOUS
100
AcDbPolyline
 90
        4
 70
     1
 43
0.0
 10
106.1863071106692
 20
487.8926120086346
 10
128.1863071106692
 20
487.8926120086346
 10
128.1863071106692
 20
481.5926177248345
 10
106.1863071106692
 20
481.5926177248345
  0
LWPOLYLINE
  5
826B
330
1F
100
AcDbEntity
  8
10
  6
CONTINOUS
100
AcDbPolyline
 90
        4
 70
     1
 43
0.0
 10
110.6352074367071
 20
465.4659198608345
 10
123.6352074367071
 20
465.4659198608345
 10
123.6352074367071
 20
481.5926177248345
 10
110.6352074367071
 20
481.5926177248345
  0
LWPOLYLINE
  5
826C
330
1F
100
AcDbEntity
  8
24
  6
Continuous
 62
     7
100
AcDbPolyline
 90
        4
 70
     0
 43
0.0
 10
78.96749068502902
 20
560.8741504311333
 10
79.23294103426292
 20
576.0818948672285
 10
94.87181552049056
 20
576.0818948672285
 10
95.13726586972451
 20
560.8741504311333
  0
DIMENSION
  5
826D
330
1F
100
AcDbEntity
  8
30
  6
Continuous
100
AcDbDimension
280
     0
  2
*D17
 10
117.1352071747428
 20
678.8656336458465
 30
0.0
 11
129.2602456736827
 21
678.8656336458465
 31
0.0
 70
   160
  1
30
 71
     5
 42
30.13392815979911
 73
     0
 74
     0
 75
     0
  3
STANDARD
100
AcDbAlignedDimension
 13
147.2691353345419
 23
620.9858329634366
 33
0.0
 14
117.1352071747428
 24
662.8647057191884
 34
0.0
100
AcDbRotatedDimension
1001
ACAD
1000
DSTYLE
1002
{
1070
    79
1070
     3
1002
}
  0
DIMENSION
  5
826E
330
1F
100
AcDbEntity
  8
30
  6
Continuous
100
AcDbDimension
280
     0
  2
*D18
 10
117.1352074367071
 20
678.8741504311332
 30
0.0
 11
104.3113462832029
 21
678.8741504311332
 31
0.0
 70
   160
  1
30
 71
     5
 42
30.08282915932887
 73
     0
 74
     0
 75
     0
  3
STANDARD
100
AcDbAlignedDimension
 13
87.05237827737823
 23
612.8741504311332
 33
0.0
 14
117.1352074367071
 24
662.8647057191884
 34
0.0
 50
180.0
100
AcDbRotatedDimension
1001
ACAD
1000
DSTYLE
1002
{
1070
    79
1070
     3
1002
}
  0
DIMENSION
  5
826F
330
1F
100
AcDbEntity
  8
30
  6
Continuous
100
AcDbDimension
280
     0
  2
*D19
 10
66.81134628320297
 20
560.8741504311333
 30
0.0
 11
61.81134628320286
 21
579.3741504311332
 31
0.0
 70
    32
 71
     5
 42
37.0
 73
     0
 74
     0
 75
     0
  3
STANDARD
100
AcDbAlignedDimension
 13
77.16209477840289
 23
597.8741504311332
 33
0.0
 14
79.31134628320297
 24
560.8741504311333
 34
0.0
 50
90.0
100
AcDbRotatedDimension
1001
ACAD
1000
DSTYLE
1002
{
1070
    79
1070
     3
1002
}
  0
DIMENSION
  5
8270
330
1F
100
AcDbEntity
  8
30
  6
Continuous
100
AcDbDimension
280
     0
  2
*D20
 10
56.81134628320297
 20
560.8741504311333
 30
0.0
 11
51.81134628320286
 21
586.8741504311332
 31
0.0
 70
    32
 71
     5
 42
52.0
 73
     0
 74
     0
 75
     0
  3
STANDARD
100
AcDbAlignedDimension
 13
91.81134628320295
 23
612.8741504311332
 33
0.0
 14
79.31134628320297
 24
560.8741504311333
 34
0.0
 50
90.0
100
AcDbRotatedDimension
1001
ACAD
1000
DSTYLE
1002
{
1070
    79
1070
     3
1002
}
  0
DIMENSION
  5
8271
330
1F
100
AcDbEntity
  8
30
  6
Continuous
100
AcDbDimension
280
     0
  2
*D21
 10
188.8141081951603
 20
560.8741504311333
 30
0.0
 11
188.8141081951602
 21
575.5331324661001
 31
0.0
 70
   160
 71
     5
 42
7.039663853148682
 73
     0
 74
     0
 75
     0
  3
STANDARD
100
AcDbAlignedDimension
 13
132.2532715273656
 23
567.913814284282
 33
0.0
 14
162.339174269493
 24
560.8741504311333
 34
0.0
 50
90.0
100
AcDbRotatedDimension
1001
ACAD
1000
DSTYLE
1002
{
1070
    79
1070
     3
1002
}
  0
DIMENSION
  5
8272
330
1F
100
AcDbEntity
  8
30
  6
Continuous
100
AcDbDimension
280
     0
  2
*D22
 10
171.8329217569785
 20
591.9659103313947
 30
0.0
 11
171.8329217569784
 21
581.2159103313947
 31
0.0
 70
   160
  1
12.5
 71
     5
 42
12.55221331402424
 73
     0
 74
     0
 75
     0
  3
STANDARD
100
AcDbAlignedDimension
 13
145.3240907529337
 23
604.5181236454189
 33
0.0
 14
145.4041758493116
 24
591.9659103313947
 34
0.0
 50
90.0
100
AcDbRotatedDimension
  0
DIMENSION
  5
8273
330
1F
100
AcDbEntity
  8
30
  6
Continuous
100
AcDbDimension
280
     0
  2
*D23
 10
46.81134628320296
 20
560.8741504311333
 30
0.0
 11
41.81134628320285
 21
604.3741504311332
 31
0.0
 70
    32
 71
     5
 42
87.00000000000011
 73
     0
 74
     0
 75
     0
  3
STANDARD
100
AcDbAlignedDimension
 13
107.2449239377317
 23
647.8741504311336
 33
0.0
 14
79.31134628320297
 24
560.8741504311333
 34
0.0
 50
90.0
100
AcDbRotatedDimension
  0
DIMENSION
  5
8274
330
1F
100
AcDbEntity
  8
30
  6
Continuous
100
AcDbDimension
280
     0
  2
*D24
 10
36.81134628320297
 20
560.8741504311333
 30
0.0
 11
31.81134628320288
 21
611.8741504311332
 31
0.0
 70
    32
 71
     5
 42
102.0000000000001
 73
     0
 74
     0
 75
     0
  3
STANDARD
100
AcDbAlignedDimension
 13
116.8113462832029
 23
662.8741504311332
 33
0.0
 14
79.31134628320297
 24
560.8741504311333
 34
0.0
 50
90.0
100
AcDbRotatedDimension
  0
LWPOLYLINE
  5
827C
330
1F
100
AcDbEntity
  8
24
  6
Continuous
 62
     7
100
AcDbPolyline
 90
        4
 70
     0
 43
0.0
 10
109.0503198444597
 20
560.9342633954402
 10
109.3157701936936
 20
576.1420078315352
 10
124.9546446799213
 20
576.1420078315352
 10
125.2200950291552
 20
560.9342633954402
  0
LINE
  5
827D
330
1F
100
AcDbEntity
  8
24
  6
Continuous
 62
     7
100
AcDbLine
 10
155.205280027232
 20
583.6888807380976
 30
0.0
 11
139.4351913371677
 21
583.6888807381624
 31
0.0
  0
LWPOLYLINE
  5
827E
330
1F
100
AcDbEntity
  8
24
  6
Continuous
 62
     7
100
AcDbPolyline
 90
        5
 70
     0
 43
0.0
 10
143.0512641068969
 20
600.2491508982092
 10
143.0512641068969
 20
596.2278643105578
 42
0.9995984643691707
 10
151.589209158348
 20
596.2312932564722
 10
151.589209158348
 20
600.2491504311332
 42
1.0
 10
143.0512627297764
 20
600.2491504311332
  0
LWPOLYLINE
  5
827F
330
1F
100
AcDbEntity
  8
24
  6
Continuous
 62
     7
100
AcDbPolyline
 90
        4
 70
     0
 43
0.0
 10
139.2353480898506
 20
560.9342633954402
 10
139.5007984390845
 20
576.1420078315352
 10
155.1396729253122
 20
576.1420078315352
 10
155.4051232745461
 20
560.9342633954402
  0
DIMENSION
  5
8283
330
1F
100
AcDbEntity
  8
30
  6
Continuous
100
AcDbDimension
280
     0
  2
*D25
 10
188.8141081951603
 20
487.8926120086346
 30
0.0
 11
183.8141081951602
 21
524.3833812198841
 31
0.0
 70
    32
 71
     5
 42
72.9815384224986
 73
     0
 74
     0
 75
     0
  3
STANDARD
100
AcDbAlignedDimension
 13
162.339174269493
 23
560.8741504311333
 33
0.0
 14
159.3036754574325
 24
487.8926120086346
 34
0.0
 50
90.0
100
AcDbRotatedDimension
1001
ACAD
1000
DSTYLE
1002
{
1070
    79
1070
     3
1002
}
  0
CIRCLE
  5
8284
330
1F
100
AcDbEntity
  8
22
  6
Continuous
100
AcDbCircle
 10
87.25237853924056
 20
200.402533213434
 30
0.0
 40
9.0
  0
LINE
  5
8285
330
1F
100
AcDbEntity
  8
17
 48
0.5
100
AcDbLine
 10
87.25237853924056
 20
188.902533213434
 30
0.0
 11
87.25237853924056
 21
211.902533213434
 31
0.0
  0
CIRCLE
  5
8286
330
1F
100
AcDbEntity
  8
22
  6
Continuous
100
AcDbCircle
 10
117.2372997945068
 20
200.402533213434
 30
0.0
 40
9.0
  0
LINE
  5
8287
330
1F
100
AcDbEntity
  8
17
 48
0.5
100
AcDbLine
 10
117.2372997945068
 20
188.902533213434
 30
0.0
 11
117.2372997945068
 21
211.902533213434
 31
0.0
  0
CIRCLE
  5
8288
330
1F
100
AcDbEntity
  8
22
  6
Continuous
100
AcDbCircle
 10
147.0952803253901
 20
200.402533213434
 30
0.0
 40
9.0
  0
LINE
  5
8289
330
1F
100
AcDbEntity
  8
17
 48
0.5
100
AcDbLine
 10
147.0952803253901
 20
188.902533213434
 30
0.0
 11
147.0952803253901
 21
211.902533213434
 31
0.0
  0
CIRCLE
  5
828A
330
1F
100
AcDbEntity
  8
22
  6
Continuous
100
AcDbCircle
 10
87.25237853924069
 20
86.40253122055993
 30
0.0
 40
9.0
  0
LINE
  5
828B
102
{ACAD_REACTORS
330
829F
102
}
330
1F
100
AcDbEntity
  8
17
 48
0.5
100
AcDbLine
 10
87.25237853924069
 20
97.90253122055993
 30
0.0
 11
87.25237853924069
 21
74.90253122055992
 31
0.0
  0
CIRCLE
  5
828C
330
1F
100
AcDbEntity
  8
22
  6
Continuous
100
AcDbCircle
 10
117.2372997945068
 20
86.40253122055993
 30
0.0
 40
9.0
  0
LINE
  5
828D
330
1F
100
AcDbEntity
  8
17
 48
0.5
100
AcDbLine
 10
117.2372997945068
 20
97.90253122055993
 30
0.0
 11
117.2372997945068
 21
74.90253122055992
 31
0.0
  0
CIRCLE
  5
828E
330
1F
100
AcDbEntity
  8
22
  6
Continuous
100
AcDbCircle
 10
147.29528032539
 20
86.40253122055993
 30
0.0
 40
9.0
  0
LINE
  5
828F
102
{ACAD_REACTORS
330
829F
102
}
330
1F
100
AcDbEntity
  8
17
 48
0.5
100
AcDbLine
 10
147.29528032539
 20
97.90253122055993
 30
0.0
 11
147.29528032539
 21
74.90253122055992
 31
0.0
  0
ARC
  5
8290
330
1F
100
AcDbEntity
  8
10
100
AcDbCircle
 10
117.3341848895109
 20
430.6224375294303
 30
0.0
 40
10.04464285714245
100
AcDbArc
 50
56.19728719518988
 51
123.8027128048101
  0
ARC
  5
8291
330
1F
100
AcDbEntity
  8
10
100
AcDbCircle
 10
147.4376040288609
 20
430.6224431888693
 30
0.0
 40
10.04464285714245
100
AcDbArc
 50
56.19722916890149
 51
123.8027708310985
  0
ARC
  5
8292
330
1F
100
AcDbEntity
  8
10
100
AcDbCircle
 10
117.3341848895109
 20
316.715835265686
 30
0.0
 40
10.04464285714245
100
AcDbArc
 50
236.1972871951899
 51
303.8027128048101
  0
ARC
  5
8293
330
1F
100
AcDbEntity
  8
10
100
AcDbCircle
 10
147.4376040288609
 20
316.715829606247
 30
0.0
 40
10.04464285714245
100
AcDbArc
 50
236.1972291689015
 51
303.8027708310985
  0
ARC
  5
8294
330
1F
100
AcDbEntity
  8
10
100
AcDbCircle
 10
87.20025699167662
 20
430.6224375294303
 30
0.0
 40
10.04464285714245
100
AcDbArc
 50
56.19728719518988
 51
123.8027128048101
  0
ARC
  5
8295
330
1F
100
AcDbEntity
  8
10
100
AcDbCircle
 10
87.20025699167662
 20
316.715835265686
 30
0.0
 40
10.04464285714245
100
AcDbArc
 50
236.1972871951899
 51
303.8027128048101
  0
DIMENSION
  5
8296
330
1F
100
AcDbEntity
  8
30
100
AcDbDimension
280
     0
  2
*D26
 10
34.19411466684505
 20
86.40253122055993
 30
0.0
 11
29.19411466684503
 21
143.402532216997
 31
0.0
 70
    32
 71
     5
 42
114.0000019928741
 73
     0
 74
     0
 75
     0
  3
STANDARD
100
AcDbAlignedDimension
 13
75.55237853924062
 23
200.402533213434
 33
0.0
 14
75.55237853924062
 24
86.40253122055993
 34
0.0
 50
90.0
100
AcDbRotatedDimension
  0
LINE
  5
8297
330
1F
100
AcDbEntity
  8
17
 48
0.5
100
AcDbLine
 10
98.75237853924069
 20
86.40253122055993
 30
0.0
 11
75.75237853924068
 21
86.40253122055993
 31
0.0
  0
LINE
  5
8298
330
1F
100
AcDbEntity
  8
17
 48
0.5
100
AcDbLine
 10
128.7372997945068
 20
86.40253122055993
 30
0.0
 11
105.7372997945068
 21
86.40253122055993
 31
0.0
  0
LINE
  5
8299
330
1F
100
AcDbEntity
  8
17
 48
0.5
100
AcDbLine
 10
158.7952803253901
 20
86.40253122055993
 30
0.0
 11
135.79528032539
 21
86.40253122055993
 31
0.0
  0
LINE
  5
829A
330
1F
100
AcDbEntity
  8
17
 48
0.5
100
AcDbLine
 10
158.5952803253901
 20
200.402533213434
 30
0.0
 11
135.5952803253901
 21
200.402533213434
 31
0.0
  0
LINE
  5
829B
330
1F
100
AcDbEntity
  8
17
 48
0.5
100
AcDbLine
 10
128.7372997945068
 20
200.402533213434
 30
0.0
 11
105.7372997945068
 21
200.402533213434
 31
0.0
  0
LINE
  5
829C
330
1F
100
AcDbEntity
  8
17
 48
0.5
100
AcDbLine
 10
98.75237853924057
 20
200.402533213434
 30
0.0
 11
75.75237853924057
 21
200.402533213434
 31
0.0
  0
DIMENSION
  5
829D
102
{ACAD_XDICTIONARY
360
829E
102
}
102
{ACAD_REACTORS
330
829F
102
}
330
1F
100
AcDbEntity
  8
30
100
AcDbDimension
280
     0
  2
*D33
 10
147.29528032539
 20
40.85506054382971
 30
0.0
 11
117.2738294323154
 21
45.8550605438297
 31
0.0
 70
    32
 71
     5
 42
60.04290178614946
 73
     0
 74
     0
 75
     0
  3
STANDARD
100
AcDbAlignedDimension
 13
87.25237853924069
 23
74.90253122055992
 33
0.0
 14
147.29528032539
 24
74.90253122055992
 34
0.0
100
AcDbRotatedDimension
  0
MTEXT
  5
82A0
330
1F
100
AcDbEntity
  8
19
100
AcDbMText
 10
225.665039116813
 20
23.09144723739314
 30
0.0
 40
7.826237649998486
 41
0.0
 46
0.0
 71
     1
 72
     1
  1
[Cutout A]
  7
SLDTEXTSTYLE0
 73
     1
 44
1.0
  0
MTEXT
  5
82A1
330
1F
100
AcDbEntity
  8
19
100
AcDbMText
 10
376.3062212403759
 20
23.09144723739314
 30
0.0
 40
7.826237649998486
 41
0.0
 46
0.0
 71
     1
 72
     1
  1
[Cutout B]
  7
SLDTEXTSTYLE0
 73
     1
 44
1.0
  0
LWPOLYLINE
  5
82A2
330
1F
100
AcDbEntity
  8
10
 62
     1
100
AcDbPolyline
 90
        8
 70
     1
 43
0.0
 10
202.1015303981253
 20
168.4025336045505
 10
202.1015303981253
 20
118.4025328223175
 42
0.4142135623730951
 10
203.1015303981253
 20
117.4025328223175
 10
287.1015328379921
 20
117.4025328223175
 42
0.4142135623730951
 10
288.1015328379921
 20
118.4025328223175
 10
288.1015328379921
 20
168.4025336045505
 42
0.4142135623730951
 10
287.1015328379921
 20
169.4025336045505
 10
203.1015303981253
 20
169.4025336045505
 42
0.4142135623730951
  0
DIMENSION
  5
82A8
330
1F
100
AcDbEntity
  8
30
100
AcDbDimension
280
     0
  2
*D27
 10
288.1015313777419
 20
51.40248380055959
 30
0.0
 11
245.1015316181839
 21
51.40248380055959
 31
0.0
 70
   160
  1
<>
 71
     2
 42
85.99999951911639
 73
     0
 74
     0
 75
     0
  3
STANDARD
100
AcDbAlignedDimension
 13
202.1015318586255
 23
118.4025333532258
 33
0.0
 14
288.1015313777419
 24
118.4025333532258
 34
0.0
100
AcDbRotatedDimension
  0
DIMENSION
  5
82A9
330
1F
100
AcDbEntity
  8
30
100
AcDbDimension
280
     0
  2
*D28
 10
287.1015313833332
 20
168.402533073642
 30
0.0
 11
304.4964533930941
 21
178.7300538846975
 31
0.0
 70
   164
  1
R1
 71
     5
 42
0.9999999943786972
 73
     0
 74
     0
 75
     0
  3
STANDARD1
100
AcDbRadialDimension
 15
287.8501721420759
 25
169.0655089428155
 35
0.0
 40
0.0
  0
LINE
  5
82AA
330
1F
100
AcDbEntity
  8
16
 48
5.0
100
AcDbLine
 10
245.1015316181839
 20
73.40253360485087
 30
0.0
 11
245.1015316181839
 21
224.9339034633972
 31
0.0
  0
LINE
  5
82AB
330
1F
100
AcDbEntity
  8
16
 48
5.0
100
AcDbLine
 10
295.5682666515258
 20
143.402533213434
 30
0.0
 11
195.1015318977673
 21
143.402533213434
 31
0.0
  0
LINE
  5
82AC
330
1F
100
AcDbEntity
  8
10
 62
     1
100
AcDbLine
 10
387.9323293009349
 20
167.1525332134339
 30
0.0
 11
409.9323293009346
 21
167.1525332134339
 31
0.0
  0
LINE
  5
82AD
330
1F
100
AcDbEntity
  8
10
 62
     1
100
AcDbLine
 10
386.9323293009348
 20
166.1525332134339
 30
0.0
 11
386.9323293009348
 21
120.1525332134342
 31
0.0
  0
LINE
  5
82AE
330
1F
100
AcDbEntity
  8
10
 62
     1
100
AcDbLine
 10
387.9323293009349
 20
119.1525332134342
 30
0.0
 11
409.9323293009346
 21
119.1525332134342
 31
0.0
  0
LINE
  5
82AF
330
1F
100
AcDbEntity
  8
10
 62
     1
100
AcDbLine
 10
410.9323293009346
 20
166.1525332134339
 30
0.0
 11
410.9323293009346
 21
120.1525332134342
 31
0.0
  0
ARC
  5
82B0
330
1F
100
AcDbEntity
  8
10
 62
     1
100
AcDbCircle
 10
409.9323293009346
 20
166.1525332134339
 30
0.0
 40
0.9999999999998236
100
AcDbArc
 50
0.0
 51
90.0
  0
ARC
  5
82B1
330
1F
100
AcDbEntity
  8
10
 62
     1
100
AcDbCircle
 10
387.9323293009349
 20
166.1525332134339
 30
0.0
 40
0.9999999999998236
100
AcDbArc
 50
90.0
 51
180.0
  0
ARC
  5
82B2
330
1F
100
AcDbEntity
  8
10
 62
     1
100
AcDbCircle
 10
387.9323293009349
 20
120.1525332134342
 30
0.0
 40
0.9999999999998236
100
AcDbArc
 50
180.0
 51
270.0
  0
ARC
  5
82B3
330
1F
100
AcDbEntity
  8
10
 62
     1
100
AcDbCircle
 10
409.9323293009346
 20
120.1525332134342
 30
0.0
 40
0.9999999999998236
100
AcDbArc
 50
270.0
 51
0.0
  0
DIMENSION
  5
82B4
330
1F
100
AcDbEntity
  8
30
100
AcDbDimension
280
     0
  2
*D29
 10
470.1975069716413
 20
119.1525332134341
 30
0.0
 11
470.1975069716413
 21
144.2907895827318
 31
0.0
 70
   160
 71
     2
 42
47.99999999999971
 73
     0
 74
     0
 75
     0
  3
STANDARD
100
AcDbAlignedDimension
 13
409.9323293009346
 23
167.1525332134339
 33
0.0
 14
409.9323293009346
 24
119.1525332134342
 34
0.0
 50
90.0
100
AcDbRotatedDimension
  0
DIMENSION
  5
82B5
330
1F
100
AcDbEntity
  8
30
100
AcDbDimension
280
     0
  2
*D30
 10
315.4592115120599
 20
117.4025328221556
 30
0.0
 11
310.4592115120599
 21
143.4025332132721
 31
0.0
 70
    32
 71
     5
 42
52.00000078223299
 73
     0
 74
     0
 75
     0
  3
STANDARD
100
AcDbAlignedDimension
 13
290.9445435544776
 23
169.4025336043886
 33
0.0
 14
290.9445435542771
 24
117.4025328221556
 34
0.0
 50
89.99999999977854
100
AcDbRotatedDimension
  0
LINE
  5
82B6
330
1F
100
AcDbEntity
  8
17
 48
0.5
100
AcDbLine
 10
87.05237827737823
 20
588.2824539522844
 30
0.0
 11
87.05237827737823
 21
607.9044813589757
 31
0.0
  0
LINE
  5
82B7
330
1F
100
AcDbEntity
  8
17
 48
0.5
100
AcDbLine
 10
147.3202356821998
 20
585.4045573222787
 30
0.0
 11
147.3202356821998
 21
616.2765467473186
 31
0.0
  0
LINE
  5
82B8
330
1F
100
AcDbEntity
  8
16
 48
0.5
100
AcDbLine
 10
117.1352074367071
 20
461.4565416603111
 30
0.0
 11
117.1352074367071
 21
667.5234680109506
 31
0.0
  0
LINE
  5
82B9
330
1F
100
AcDbEntity
  8
17
 48
0.5
100
AcDbLine
 10
77.16209477840289
 20
597.8741504311332
 30
0.0
 11
98.65771140002188
 21
597.8741504311332
 31
0.0
  0
DIMENSION
  5
82BB
102
{ACAD_XDICTIONARY
360
82BC
102
}
102
{ACAD_REACTORS
330
82BD
102
}
330
1F
100
AcDbEntity
  8
30
100
AcDbDimension
280
     0
  2
*D34
 10
128.3243486079389
 20
332.3775955610652
 30
0.0
 11
117.3011966998444
 21
332.3775955610652
 31
0.0
 70
   160
 71
     5
 42
22.0463038161891
 73
     0
 74
     0
 75
     0
  3
STANDARD
100
AcDbAlignedDimension
 13
106.2780447917498
 23
351.4934479353148
 33
0.0
 14
128.3243486079389
 24
351.4934479353148
 34
0.0
100
AcDbRotatedDimension
  0
LWPOLYLINE
  5
82BE
330
1F
100
AcDbEntity
  8
24
  6
Continuous
 62
     7
100
AcDbPolyline
 90
        6
 70
     0
 43
0.0
 10
82.01434699928736
 20
576.0818946096873
 42
0.1739087674231221
 10
79.16733393234608
 20
582.099629862312
 10
79.16733419420835
 20
610.9253975171042
 42
-0.2471454556482815
 10
94.9374226224104
 20
610.9253976549608
 10
94.9374226224104
 20
582.099629862312
 42
0.1718897542815705
 10
92.09041007919394
 20
576.0818946096876
  0
LWPOLYLINE
  5
82BF
330
1F
100
AcDbEntity
  8
24
  6
Continuous
 62
     7
100
AcDbPolyline
 90
        6
 70
     0
 43
0.0
 10
142.2822044041089
 20
576.1420075739941
 42
0.1739087674231221
 10
139.4351913371677
 20
582.159742826619
 10
139.4351915990299
 20
610.9855104814108
 42
-0.2471454556482815
 10
155.205280027232
 20
610.9855106192676
 10
155.205280027232
 20
582.159742826619
 42
0.1718897542815705
 10
152.3582674840155
 20
576.1420075739944
  0
DIMENSION
  5
82C0
330
1F
100
AcDbEntity
  8
30
  6
Continuous
100
AcDbDimension
280
     0
  2
*D31
 10
211.687923342703
 20
348.597666403155
 30
0.0
 11
211.6879233427029
 21
376.370109104155
 31
0.0
 70
   160
 71
     5
 42
50.0
 73
     0
 74
     0
 75
     0
  3
STANDARD
100
AcDbAlignedDimension
 13
249.7879233427027
 23
398.597666403155
 33
0.0
 14
249.7879233427027
 24
348.597666403155
 34
0.0
 50
270.0
100
AcDbRotatedDimension
1001
ACAD
1000
DSTYLE
1002
{
1070
    79
1070
     3
1002
}
  0
DIMENSION
  5
82C1
330
1F
100
AcDbEntity
  8
30
  6
Continuous
100
AcDbDimension
280
     0
  2
*D32
 10
441.6879233427027
 20
314.0976664031549
 30
0.0
 11
441.6879233427027
 21
296.0976664031552
 31
0.0
 70
   160
 71
     5
 42
5.0
 73
     0
 74
     0
 75
     0
  3
STANDARD
100
AcDbAlignedDimension
 13
423.4530443009718
 23
319.097666403155
 33
0.0
 14
423.5410544483025
 24
314.0976664031549
 34
0.0
 50
270.0
100
AcDbRotatedDimension
1001
ACAD
1000
DSTYLE
1002
{
1070
   172
1070
     1
1070
    79
1070
     3
1002
}
  0
LWPOLYLINE
  5
82C2
330
1F
100
AcDbEntity
  8
18
100
AcDbPolyline
 90
        2
 70
     0
 43
0.001
 10
321.9695069014668
 20
286.5880941771624
 10
321.9695069014668
 20
438.9298979461321
  0
LWPOLYLINE
  5
82C3
330
1F
100
AcDbEntity
  8
18
100
AcDbPolyline
 90
        2
 70
     0
 43
0.001
 10
323.9695069014668
 20
286.5880941771624
 10
323.9695069014668
 20
438.9298979461321
  0
LINE
  5
82C4
330
1F
100
AcDbEntity
  8
10
  6
Continuous
100
AcDbLine
 10
249.9695081382164
 20
348.597666403155
 30
0.0
 11
249.9695081382164
 21
398.597666403155
 31
0.0
  0
LINE
  5
82C5
330
1F
100
AcDbEntity
  8
24
  6
Continuous
 62
     7
100
AcDbLine
 10
337.6879233319028
 20
308.965224233355
 30
0.0
 11
332.6881974843026
 21
308.412865319755
 31
0.0
  0
LINE
  5
82C6
330
1F
100
AcDbEntity
  8
24
  6
Continuous
 62
     7
100
AcDbLine
 10
332.6881974959027
 20
308.412865215755
 30
0.0
 11
321.9695069014668
 21
308.3006152470806
 31
0.0
  0
LINE
  5
82C7
330
1F
100
AcDbEntity
  8
24
  6
Continuous
 62
     7
100
AcDbLine
 10
384.7879233427024
 20
313.3976664031552
 30
0.0
 11
344.7879233427024
 21
313.3976664031552
 31
0.0
  0
LINE
  5
82C8
330
1F
100
AcDbEntity
  8
24
  6
Continuous
 62
     7
100
AcDbLine
 10
423.5410544483025
 20
314.0976664031549
 30
0.0
 11
384.7879233427024
 21
314.0976664031549
 31
0.0
  0
LINE
  5
82C9
330
1F
100
AcDbEntity
  8
16
100
AcDbLine
 10
311.6879233427028
 20
316.597666403155
 30
0.0
 11
431.6879233427028
 21
316.597666403155
 31
0.0
  0
LINE
  5
82CA
330
1F
100
AcDbEntity
  8
24
  6
Continuous
 62
     7
100
AcDbLine
 10
384.7879233427024
 20
319.097666403155
 30
0.0
 11
423.4530443009722
 21
319.097666403155
 31
0.0
  0
LINE
  5
82CB
330
1F
100
AcDbEntity
  8
24
  6
Continuous
 62
     7
100
AcDbLine
 10
344.7879233427024
 20
319.7976664031549
 30
0.0
 11
384.7879233427024
 21
319.7976664031549
 31
0.0
  0
LINE
  5
82CC
330
1F
100
AcDbEntity
  8
24
  6
Continuous
 62
     7
100
AcDbLine
 10
332.6881974959027
 20
324.782467590755
 30
0.0
 11
321.9695069014668
 21
324.8947175592346
 31
0.0
  0
LINE
  5
82CD
330
1F
100
AcDbEntity
  8
24
  6
Continuous
 62
     7
100
AcDbLine
 10
337.6879233319028
 20
324.230108573155
 30
0.0
 11
332.6881974843026
 21
324.7824674867552
 31
0.0
  0
LINE
  5
82CE
330
1F
100
AcDbEntity
  8
24
  6
Continuous
 62
     7
100
AcDbLine
 10
337.6879233427029
 20
308.965224136355
 30
0.0
 11
337.6879233427029
 21
324.230108670155
 31
0.0
  0
LINE
  5
82CF
330
1F
100
AcDbEntity
  8
24
  6
Continuous
 62
     7
100
AcDbLine
 10
337.6879233427029
 20
422.965224136355
 30
0.0
 11
337.6879233427029
 21
438.2301086701549
 31
0.0
  0
LINE
  5
82D0
330
1F
100
AcDbEntity
  8
24
  6
Continuous
 62
     7
100
AcDbLine
 10
337.6879233319028
 20
422.965224233355
 30
0.0
 11
332.6881974843026
 21
422.4128653197547
 31
0.0
  0
LINE
  5
82D1
330
1F
100
AcDbEntity
  8
24
  6
Continuous
 62
     7
100
AcDbLine
 10
332.6881974959027
 20
422.412865215755
 30
0.0
 11
321.9695069014668
 21
422.3006152470802
 31
0.0
  0
LINE
  5
82D2
330
1F
100
AcDbEntity
  8
24
  6
Continuous
 62
     7
100
AcDbLine
 10
344.7879233427024
 20
427.3976664031549
 30
0.0
 11
384.7879233427024
 21
427.3976664031549
 31
0.0
  0
LINE
  5
82D3
330
1F
100
AcDbEntity
  8
24
  6
Continuous
 62
     7
100
AcDbLine
 10
384.7879233427024
 20
433.797666403155
 30
0.0
 11
384.7879233427024
 21
427.3976664031549
 31
0.0
  0
LINE
  5
82D4
330
1F
100
AcDbEntity
  8
24
  6
Continuous
 62
     7
100
AcDbLine
 10
384.7879233427024
 20
313.3976664031552
 30
0.0
 11
384.7879233427024
 21
319.7976664031549
 31
0.0
  0
LINE
  5
82D5
330
1F
100
AcDbEntity
  8
24
  6
Continuous
 62
     7
100
AcDbLine
 10
384.7879233427024
 20
433.797666403155
 30
0.0
 11
344.7879233427024
 21
433.797666403155
 31
0.0
  0
LINE
  5
82D6
330
1F
100
AcDbEntity
  8
24
  6
Continuous
 62
     7
100
AcDbLine
 10
332.6881974959027
 20
438.782467590755
 30
0.0
 11
321.9695069014668
 21
438.9298979461321
 31
0.0
  0
LINE
  5
82D7
330
1F
100
AcDbEntity
  8
24
  6
Continuous
 62
     7
100
AcDbLine
 10
337.6879233319028
 20
438.2301085731548
 30
0.0
 11
332.6881974843026
 21
438.7824674867548
 31
0.0
  0
LWPOLYLINE
  5
82D8
330
1F
100
AcDbEntity
  8
30
  6
Continuous
100
AcDbPolyline
 90
        2
 70
     0
 43
0.0
 10
227.2612311949028
 20
383.3912735243229
 42
0.0918831319801723
 10
226.4695081382166
 20
376.2143947357764
  0
ARC
  5
82D9
330
1F
100
AcDbEntity
  8
24
  6
Continuous
 62
     7
100
AcDbCircle
 10
344.7879233427024
 20
445.0976664031549
 30
0.0
 40
11.3
100
AcDbArc
 50
231.0505796710034
 51
270.0
  0
ARC
  5
82DA
330
1F
100
AcDbEntity
  8
24
  6
Continuous
 62
     7
100
AcDbCircle
 10
344.7879233427024
 20
416.0976664031549
 30
0.0
 40
11.3
100
AcDbArc
 50
90.0
 51
128.9494266960035
  0
ARC
  5
82DB
330
1F
100
AcDbEntity
  8
24
  6
Continuous
 62
     7
100
AcDbCircle
 10
344.7879233427024
 20
302.097666403155
 30
0.0
 40
11.3
100
AcDbArc
 50
90.0
 51
128.9494279204027
  0
ARC
  5
82DC
330
1F
100
AcDbEntity
  8
24
  6
Continuous
 62
     7
100
AcDbCircle
 10
344.7879233427024
 20
331.097666403155
 30
0.0
 40
11.3
100
AcDbArc
 50
231.0505808667993
 51
270.0
  0
ARC
  5
82DD
330
1F
100
AcDbEntity
  8
24
  6
Continuous
 62
     7
100
AcDbCircle
 10
408.1998335037913
 20
316.3284043586463
 30
0.0
 40
15.50255630192575
100
AcDbArc
 50
351.7267125754987
 51
10.29012314721882
  0
LWPOLYLINE
  5
82DE
330
1F
100
AcDbEntity
  8
10
  6
Continuous
100
AcDbPolyline
 90
        4
 70
     1
 43
0.0
 10
319.9695069014668
 20
306.3299404081754
 10
321.9695069014668
 20
306.3299404081754
 10
321.9695069014668
 20
308.3299404081754
 10
319.9695069014668
 20
308.3299404081754
  0
LWPOLYLINE
  5
82DF
330
1F
100
AcDbEntity
  8
10
  6
Continuous
100
AcDbPolyline
 90
        4
 70
     1
 43
0.0
 10
319.9695069014668
 20
440.9298979461324
 10
321.9695069014668
 20
440.9298979461324
 10
321.9695069014668
 20
438.9298979461321
 10
319.9695069014668
 20
438.9298979461321
  0
LWPOLYLINE
  5
82E0
330
1F
100
AcDbEntity
  8
10
  6
Continuous
100
AcDbPolyline
 90
        4
 70
     1
 43
0.0
 10
249.9695081382164
 20
398.597666403155
 10
253.9695081382164
 20
398.597666403155
 10
253.9695081382164
 20
348.597666403155
 10
249.9695081382164
 20
348.597666403155
  0
LWPOLYLINE
  5
82E1
330
1F
100
AcDbEntity
  8
10
  6
Continuous
100
AcDbPolyline
 90
       20
 70
     0
 43
0.0
 10
249.9695081382164
 20
351.097666403155
 10
244.3328632149028
 20
351.097666403155
 10
244.0844441003682
 20
353.7447252266844
 10
243.9401525162493
 20
356.3917840502139
 10
243.804115992962
 20
359.0388428737433
 10
243.6804620609222
 20
361.6859016972727
 10
243.5733182505455
 20
364.3329605208021
 10
243.4868120922478
 20
366.9800193443315
 10
243.4250711164449
 20
369.6270781678609
 10
243.3879233427027
 20
373.597666403155
 10
243.3922228535524
 20
374.9211958149197
 10
243.4250711164449
 20
377.5682546384492
 10
243.4868120922478
 20
380.2153134619786
 10
243.5733182505455
 20
382.862372285508
 10
243.6804620609222
 20
385.5094311090373
 10
243.804115992962
 20
388.1564899325669
 10
243.9401525162493
 20
390.8035487560962
 10
244.0844441003682
 20
393.4506075796256
 10
244.2328632149028
 20
396.097666403155
 10
249.9695081382164
 20
396.097666403155
  0
LINE
  5
82E2
330
1F
100
AcDbEntity
  8
16
100
AcDbLine
 10
311.6879233427028
 20
430.5976664031549
 30
0.0
 11
431.6879233427028
 21
430.5976664031549
 31
0.0
  0
LINE
  5
82E3
330
1F
100
AcDbEntity
  8
24
  6
Continuous
 62
     7
100
AcDbLine
 10
344.1879233427028
 20
314.0976664031549
 30
0.0
 11
373.9310555553026
 21
314.0976664031549
 31
0.0
  0
LINE
  5
82E4
330
1F
100
AcDbEntity
  8
24
  6
Continuous
 62
     7
100
AcDbLine
 10
344.1879233427028
 20
319.097666403155
 30
0.0
 11
373.9310555553026
 21
319.097666403155
 31
0.0
  0
ARC
  5
82E5
330
1F
100
AcDbEntity
  8
24
  6
Continuous
 62
     7
100
AcDbCircle
 10
354.0879233427029
 20
316.597666403155
 30
0.0
 40
20.0
100
AcDbArc
 50
352.8055694888982
 51
7.194430511101937
  0
ARC
  5
82E6
330
1F
100
AcDbEntity
  8
24
  6
Continuous
 62
     7
100
AcDbCircle
 10
343.5418595227023
 20
331.080262179555
 30
0.0
 40
12.0
100
AcDbArc
 50
240.7833294700036
 51
273.0862196937968
  0
ARC
  5
82E7
330
1F
100
AcDbEntity
  8
24
  6
Continuous
 62
     7
100
AcDbCircle
 10
343.5418595227023
 20
302.115070626755
 30
0.0
 40
12.0
100
AcDbArc
 50
86.91378030620315
 51
119.2168251174987
  0
LINE
  5
82E8
330
1F
100
AcDbEntity
  8
24
  6
Continuous
 62
     7
100
AcDbLine
 10
344.1879233427028
 20
428.0976664031548
 30
0.0
 11
373.9310555553028
 21
428.0976664031548
 31
0.0
  0
LINE
  5
82E9
330
1F
100
AcDbEntity
  8
24
  6
Continuous
 62
     7
100
AcDbLine
 10
344.1879233427028
 20
433.0976664031549
 30
0.0
 11
373.9310555553028
 21
433.0976664031549
 31
0.0
  0
ARC
  5
82EA
330
1F
100
AcDbEntity
  8
24
  6
Continuous
 62
     7
100
AcDbCircle
 10
354.087923342703
 20
430.5976664031549
 30
0.0
 40
20.0
100
AcDbArc
 50
352.8055694888982
 51
7.194430511101937
  0
ARC
  5
82EB
330
1F
100
AcDbEntity
  8
24
  6
Continuous
 62
     7
100
AcDbCircle
 10
343.5418595227023
 20
445.0802621795548
 30
0.0
 40
12.0
100
AcDbArc
 50
240.7833294700036
 51
273.0862196937968
  0
ARC
  5
82EC
330
1F
100
AcDbEntity
  8
24
  6
Continuous
 62
     7
100
AcDbCircle
 10
343.5418595227023
 20
416.1150706267548
 30
0.0
 40
12.0
100
AcDbArc
 50
86.91378030620315
 51
119.2168251174987
  0
DIMENSION
  5
82ED
330
1F
100
AcDbEntity
  8
30
  6
Continuous
100
AcDbDimension
280
     0
  2
*D2
 10
450.5763722675418
 20
316.597666403155
 30
0.0
 11
445.5763722675418
 21
373.5976664031551
 31
0.0
 70
    32
 71
     5
 42
114.0
 73
     0
 74
     0
 75
     0
  3
STANDARD
100
AcDbAlignedDimension
 13
430.5763722675417
 23
430.5976664031549
 33
0.0
 14
430.5763722675417
 24
316.597666403155
 34
0.0
 50
90.0
100
AcDbRotatedDimension
  0
LWPOLYLINE
  5
82EE
330
1F
100
AcDbEntity
  8
10
  6
Continuous
100
AcDbPolyline
 90
       31
 70
     0
 43
0.0
 10
261.9896818471454
 20
322.4681414107317
 10
261.9896818471454
 20
322.4681414107317
 10
261.9896818471454
 20
322.4681414107317
 10
261.9896818471454
 20
322.4681414107317
 10
261.9896818471454
 20
322.4681414107317
 42
1.09625752610414
 10
261.9896818471454
 20
322.4681414107317
 10
253.9695081382164
 20
322.4681414107317
 10
253.9695081382164
 20
322.4681414107317
 10
253.9695081382164
 20
323.4955646079805
 10
253.9695081382164
 20
325.2143947357762
 10
253.9695081382164
 20
348.597666403155
 10
253.9695081382164
 20
424.6844217101521
 42
-0.0855072839151511
 10
253.9695081382164
 20
424.8723237433491
 10
261.2519648389828
 20
424.8338504970911
 42
0.3758822830529091
 10
261.7506017694038
 20
425.2642516651985
 10
262.8490795175889
 20
433.0803257187981
 10
262.8490795175889
 20
433.0803257187981
 10
262.8490795175889
 20
433.0803257187981
 10
263.4308915339797
 20
437.2201270973291
 10
263.4308915339797
 20
437.2201270973291
 10
263.4308915339797
 20
437.2201270973291
 42
-0.1294431367931932
 10
264.7366083377444
 20
438.9298979461321
 10
321.5319246575893
 20
438.9298979461321
 42
0.0033336821045917
 10
321.9695069014668
 20
438.9298979461321
 10
321.9695069014668
 20
308.3299404081754
 42
8.931262686279291
 10
321.9695069014668
 20
308.3299404081754
 10
264.8409252453368
 20
308.3299404081753
 42
-0.1953144770907657
 10
263.7662106175439
 20
309.2567638532628
 10
263.4308915339797
 20
309.874580664364
 10
261.9896818471454
 20
322.4681414107317
 42
0.1261397278995533
 10
261.9896818471454
 20
322.4681414107317
  0
LWPOLYLINE
  5
82EF
330
1F
100
AcDbEntity
  8
10
100
AcDbPolyline
 90
        9
 70
     0
 43
0.0
 10
243.4785196473536
 20
386.333698156822
 10
235.3358162050763
 20
388.4730806811887
 10
230.751822672651
 20
389.650050651094
 10
229.1968164833895
 20
389.414877748438
 10
228.2857870235215
 20
388.1329347630297
 10
227.5614034187074
 20
384.8382455362397
 10
227.8507009959988
 20
383.2923933990294
 10
229.1636575260116
 20
382.4266580786849
 10
243.181294299527
 20
379.9710950634405
  0
LINE
  5
82F3
330
1F
100
AcDbEntity
  8
24
  6
CENTER
 62
     0
100
AcDbLine
 10
360.9430703625827
 20
426.4723288648672
 30
0.0
 11
360.9430703625827
 21
434.598829765563
 31
0.0
  0
LINE
  5
82F4
330
1F
100
AcDbEntity
  8
24
  6
CENTER
 62
     0
100
AcDbLine
 10
356.9430703625827
 20
426.2786307521198
 30
0.0
 11
356.9430703625827
 21
434.598829765563
 31
0.0
  0
LINE
  5
82F5
330
1F
100
AcDbEntity
  8
24
  6
CENTER
 62
     0
100
AcDbLine
 10
410.966281654692
 20
426.4723288648672
 30
0.0
 11
410.966281654692
 21
434.598829765563
 31
0.0
  0
LINE
  5
82F6
330
1F
100
AcDbEntity
  8
24
  6
CENTER
 62
     0
100
AcDbLine
 10
406.9662816546918
 20
426.2786307521198
 30
0.0
 11
406.9662816546918
 21
434.598829765563
 31
0.0
  0
LINE
  5
82F7
330
1F
100
AcDbEntity
  8
24
  6
CENTER
 62
     0
100
AcDbLine
 10
360.9430703625827
 20
312.4723288648671
 30
0.0
 11
360.9430703625827
 21
320.5988297655632
 31
0.0
  0
LINE
  5
82F8
330
1F
100
AcDbEntity
  8
24
  6
CENTER
 62
     0
100
AcDbLine
 10
356.9430703625827
 20
312.2786307521199
 30
0.0
 11
356.9430703625827
 21
320.5988297655632
 31
0.0
  0
LINE
  5
82F9
330
1F
100
AcDbEntity
  8
24
  6
CENTER
 62
     0
100
AcDbLine
 10
410.966281654692
 20
312.4723288648671
 30
0.0
 11
410.966281654692
 21
320.5988297655632
 31
0.0
  0
LINE
  5
82FA
330
1F
100
AcDbEntity
  8
24
  6
CENTER
 62
     0
100
AcDbLine
 10
406.9662816546918
 20
312.2786307521199
 30
0.0
 11
406.9662816546918
 21
320.5988297655632
 31
0.0
  0
DIMENSION
  5
82FB
330
1F
100
AcDbEntity
  8
30
  6
Continuous
100
AcDbDimension
280
     0
  2
*D3
 10
321.9695069014668
 20
256.8461373379806
 30
0.0
 11
274.2195075198416
 21
261.8461373379806
 31
0.0
 70
    32
 71
     5
 42
95.49999876325022
 73
     0
 74
     0
 75
     0
  3
STANDARD
100
AcDbAlignedDimension
 13
226.4695081382166
 23
377.2143947357764
 33
0.0
 14
321.9695069014668
 24
306.3299404081754
 34
0.0
 50
180.0
100
AcDbRotatedDimension
1001
ACAD
1000
DSTYLE
1002
{
1070
    79
1070
     3
1002
}
  0
DIMENSION
  5
82FC
330
1F
100
AcDbEntity
  8
30
  6
Continuous
100
AcDbDimension
280
     0
  2
*D4
 10
249.9695081382164
 20
268.2664051045375
 30
0.0
 11
232.6797354109437
 21
268.2664051045375
 31
0.0
 70
   160
 71
     5
 42
6.5
 73
     0
 74
     0
 75
     0
  3
STANDARD
100
AcDbAlignedDimension
 13
243.4695081382164
 23
352.2143947357764
 33
0.0
 14
249.9695081382164
 24
346.1594943710875
 34
0.0
 50
180.0
100
AcDbRotatedDimension
1001
ACAD
1000
DSTYLE
1002
{
1070
    79
1070
     3
1002
}
  0
DIMENSION
  5
82FD
330
1F
100
AcDbEntity
  8
30
  6
Continuous
100
AcDbDimension
280
     0
  2
*D5
 10
321.9695069014668
 20
268.2664051045375
 30
0.0
 11
285.9695075198416
 21
273.2664051045375
 31
0.0
 70
    32
 71
     5
 42
71.99999876325046
 73
     0
 74
     0
 75
     0
  3
STANDARD
100
AcDbAlignedDimension
 13
249.9695081382164
 23
341.0253455632824
 33
0.0
 14
321.9695069014668
 24
306.3299404081754
 34
0.0
 50
180.0
100
AcDbRotatedDimension
1001
ACAD
1000
DSTYLE
1002
{
1070
    79
1070
     3
1002
}
  0
DIMENSION
  5
82FE
330
1F
100
AcDbEntity
  8
30
  6
Continuous
100
AcDbDimension
280
     0
  2
*D6
 10
321.9695069014668
 20
279.1208704928678
 30
0.0
 11
287.9695075198416
 21
284.1208704928678
 31
0.0
 70
    32
 71
     5
 42
67.99999876325045
 73
     0
 74
     0
 75
     0
  3
STANDARD
100
AcDbAlignedDimension
 13
253.9695081382164
 23
315.5741634194892
 33
0.0
 14
321.9695069014668
 24
306.3299404081754
 34
0.0
 50
180.0
100
AcDbRotatedDimension
1001
ACAD
1000
DSTYLE
1002
{
1070
    79
1070
     3
1002
}
  0
DIMENSION
  5
82FF
330
1F
100
AcDbEntity
  8
30
  6
Continuous
100
AcDbDimension
280
     0
  2
*D7
 10
321.9695069014668
 20
289.4210602181128
 30
0.0
 11
291.9695069014668
 21
294.4210602181128
 31
0.0
 70
    32
 71
     5
 42
60.0000000000001
 73
     0
 74
     0
 75
     0
  3
STANDARD
100
AcDbAlignedDimension
 13
261.9695069014667
 23
312.0537613065401
 33
0.0
 14
321.9695069014668
 24
306.3299404081754
 34
0.0
 50
180.0
100
AcDbRotatedDimension
1001
ACAD
1000
DSTYLE
1002
{
1070
    79
1070
     3
1002
}
  0
LINE
  5
8300
330
1F
100
AcDbEntity
  8
17
 48
0.5
100
AcDbLine
 10
137.4299521832245
 20
597.9342633954402
 30
0.0
 11
158.9255688048434
 21
597.9342633954402
 31
0.0
  0
DIMENSION
  5
8301
330
1F
100
AcDbEntity
  8
30
  6
Continuous
100
AcDbDimension
280
     0
  2
*D8
 10
151.589209158348
 20
626.1012030022055
 30
0.0
 11
168.3348941145284
 21
626.1012030022055
 31
0.0
 70
   160
 71
     5
 42
8.537946922364824
 73
     0
 74
     0
 75
     0
  3
STANDARD
100
AcDbAlignedDimension
 13
143.0512622359832
 23
597.9342633954402
 33
0.0
 14
151.589209158348
 24
598.2402218438027
 34
0.0
 50
180.0
100
AcDbRotatedDimension
1001
ACAD
1000
DSTYLE
1002
{
1070
    79
1070
     3
1002
}
  0
DIMENSION
  5
8302
330
1F
100
AcDbEntity
  8
30
  6
Continuous
100
AcDbDimension
280
     0
  2
*D9
 10
155.3405977706012
 20
638.8741504311332
 30
0.0
 11
148.585204714166
 21
638.8741504311332
 31
0.0
 70
   160
 71
     5
 42
15.97008869006413
 73
     0
 74
     0
 75
     0
  3
STANDARD
100
AcDbAlignedDimension
 13
139.3705090805371
 23
610.8855104814113
 33
0.0
 14
155.3405977706012
 24
610.9855104814108
 34
0.0
100
AcDbRotatedDimension
  0
DIMENSION
  5
8303
330
1F
100
AcDbEntity
  8
30
100
AcDbDimension
280
     0
  2
*D10
 10
409.9323278462756
 20
166.1525326825255
 30
0.0
 11
422.8676516461749
 21
177.0148216100009
 31
0.0
 70
   164
  1
R1
 71
     5
 42
0.9999999943785267
 73
     0
 74
     0
 75
     0
  3
STANDARD1
100
AcDbRadialDimension
 15
410.4849463449601
 25
166.9859670132732
 35
0.0
 40
0.0
  0
LINE
  5
85E1
330
1F
100
AcDbEntity
  8
24
  6
Continuous
 62
     7
100
AcDbLine
 10
423.5410544483025
 20
428.0976664031548
 30
0.0
 11
384.7879233427024
 21
428.0976664031548
 31
0.0
  0
LINE
  5
85E2
330
1F
100
AcDbEntity
  8
24
  6
Continuous
 62
     7
100
AcDbLine
 10
384.7879233427024
 20
433.0976664031549
 30
0.0
 11
423.4530443009722
 21
433.0976664031549
 31
0.0
  0
ARC
  5
85E3
330
1F
100
AcDbEntity
  8
24
  6
Continuous
 62
     7
100
AcDbCircle
 10
408.1998335037913
 20
430.3284043586461
 30
0.0
 40
15.50255630192575
100
AcDbArc
 50
351.7267125754978
 51
10.29012314721962
  0
LEADER
  5
862E
330
1F
100
AcDbEntity
  8
30
100
AcDbLeader
  3
STANDARD1
 76
     3
 10
152.6339474509307
 20
207.4964155406549
 30
0.0
 10
164.9311124397081
 20
222.402533213434
 30
0.0
 10
186.1820761981622
 20
222.402533213434
 30
0.0
211
-1.0
221
0.0
231
0.0
1001
ACAD
1000
DSTYLE
1002
{
1070
   147
1040
2.0
1070
    77
1070
     0
1002
}
  0
MTEXT
  5
862F
330
1F
100
AcDbEntity
  8
30
100
AcDbMText
 10
171.4863769830598
 20
228.749293917302
 30
0.0
 40
5.0
 41
30.0
 46
0.0
 71
     1
 72
     5
  1
φ18
  7
blockfont
 73
     1
 44
1.0
  0
LWPOLYLINE
  5
880F
330
1F
100
AcDbEntity
  8
18
 48
5.0
100
AcDbPolyline
 90
        4
 70
     1
 43
0.0
 10
200.1015300815587
 20
78.40253596089258
 10
290.1015331545585
 20
78.40253596089258
 10
290.1015331545585
 20
208.4025304657255
 10
200.1015300815587
 20
208.4025304657255
  0
LWPOLYLINE
  5
8815
330
1F
100
AcDbEntity
  8
18
 48
5.0
100
AcDbPolyline
 90
        4
 70
     1
 43
0.0
 10
71.95614285847693
 20
77.99641660209011
 10
162.5184573634668
 20
77.99641660209011
 10
162.5184573634668
 20
208.8086478319038
 10
71.95614285847693
 20
208.8086478319038
  0
LWPOLYLINE
  5
8819
330
1F
100
AcDbEntity
  8
18
 48
5.0
100
AcDbPolyline
 90
        4
 70
     1
 43
0.0
 10
353.9323277643096
 20
78.40253596089258
 10
443.9323308373093
 20
78.40253596089258
 10
443.9323308373093
 20
208.4025304657255
 10
353.9323277643096
 20
208.4025304657255
  0
CIRCLE
  5
8A1A
330
1F
100
AcDbEntity
  8
22
  6
Continuous
 62
     3
100
AcDbCircle
 10
132.2310189036605
 20
87.90577250956607
 30
0.0
 40
2.012495881220635
  0
CIRCLE
  5
8A1B
330
1F
100
AcDbEntity
  8
22
  6
Continuous
 62
     3
100
AcDbCircle
 10
102.2957820425177
 20
198.9492939173018
 30
0.0
 40
2.000000000000023
  0
INSERT
  5
8A1C
330
1F
100
AcDbEntity
  8
12
  6
Continuous
 62
     3
100
AcDbBlockReference
  2
SW_CENTERMARKSYMBOL_18
 10
102.2435806853535
 20
198.9492939173018
 30
0.0
 41
2.5
 42
2.5
 43
2.5
  0
INSERT
  5
8A1D
330
1F
100
AcDbEntity
  8
12
  6
Continuous
 62
     3
100
AcDbBlockReference
  2
SW_CENTERMARKSYMBOL_18
 10
132.1788175464964
 20
87.90577250956607
 30
0.0
 41
2.5
 42
2.5
 43
2.5
  0
LWPOLYLINE
  5
8A58
330
1F
100
AcDbEntity
  8
24
  6
Continuous
 62
     7
100
AcDbPolyline
 90
        5
 70
     0
 43
0.0
 10
121.4041792740731
 20
650.1795932219572
 10
121.4041792740731
 20
646.158306634306
 42
-0.9995984643691707
 10
112.866234222622
 20
646.1617355802204
 10
112.866234222622
 20
650.1795927548815
 42
-1.0
 10
121.4041806511936
 20
650.1795927548815
  0
LWPOLYLINE
  5
8A59
330
1F
100
AcDbEntity
  8
24
  6
Continuous
 62
     7
100
AcDbPolyline
 90
        4
 70
     0
 43
0.0
 10
125.0202517818935
 20
624.8966253874739
 10
125.02025178194
 20
660.9159528051592
 42
0.2471454556482762
 10
109.2501633537381
 20
660.915952943016
 10
109.24928607914
 20
624.8966253874739
  0
LINE
  5
8A5A
330
1F
100
AcDbEntity
  8
17
 48
0.5
100
AcDbLine
 10
127.0254909358832
 20
647.8741504311336
 30
0.0
 11
105.5298743142642
 21
647.8741504311336
 31
0.0
  0
LINE
  5
8A5B
330
1F
100
AcDbEntity
  8
24
  6
Continuous
 62
     7
100
AcDbLine
 10
108.4959377414056
 20
584.2180548568932
 30
0.0
 11
108.4959377414056
 21
583.2668285885898
 31
0.0
  0
LINE
  5
8A5C
330
1F
100
AcDbEntity
  8
24
  6
Continuous
 62
     7
100
AcDbLine
 10
125.6722777844859
 20
583.2668285885898
 30
0.0
 11
125.6722777844859
 21
584.2180548568932
 31
0.0
  0
LINE
  5
8A5D
330
1F
100
AcDbEntity
  8
24
  6
Continuous
 62
     7
100
AcDbLine
 10
110.0026344168743
 20
624.8966253874739
 30
0.0
 11
124.1655811088165
 21
624.8966253874739
 31
0.0
  0
LINE
  5
8A5E
330
1F
100
AcDbEntity
  8
24
  6
Continuous
 62
     7
100
AcDbLine
 10
108.4959377414056
 20
624.8966253874739
 30
0.0
 11
108.4959377414056
 21
584.2180548568932
 31
0.0
  0
LINE
  5
8A5F
330
1F
100
AcDbEntity
  8
24
  6
Continuous
 62
     7
100
AcDbLine
 10
110.0026344168743
 20
624.8966253874739
 30
0.0
 11
108.4959377414056
 21
624.8966253874739
 31
0.0
  0
LINE
  5
8A60
330
1F
100
AcDbEntity
  8
24
  6
Continuous
 62
     7
100
AcDbLine
 10
125.6722777844859
 20
624.8966253874739
 30
0.0
 11
124.1655811088165
 21
624.8966253874739
 31
0.0
  0
LINE
  5
8A61
330
1F
100
AcDbEntity
  8
24
  6
Continuous
 62
     7
100
AcDbLine
 10
125.6722777844859
 20
584.2180548568932
 30
0.0
 11
125.6722777844859
 21
624.8966253874739
 31
0.0
  0
LINE
  5
8A62
330
1F
100
AcDbEntity
  8
24
  6
Continuous
 62
     7
100
AcDbLine
 10
124.1655811088165
 20
584.2180548568932
 30
0.0
 11
110.0026344168743
 21
584.2180548568932
 31
0.0
  0
LINE
  5
8A63
330
1F
100
AcDbEntity
  8
24
  6
Continuous
 62
     7
100
AcDbLine
 10
108.4959377414056
 20
584.2180548568932
 30
0.0
 11
110.0026344168743
 21
584.2180548568932
 31
0.0
  0
LINE
  5
8A64
330
1F
100
AcDbEntity
  8
24
  6
Continuous
 62
     7
100
AcDbLine
 10
124.1655811088165
 20
584.2180548568932
 30
0.0
 11
125.6722777844859
 21
584.2180548568932
 31
0.0
  0
LINE
  5
8A65
330
1F
100
AcDbEntity
  8
24
  6
Continuous
 62
     7
100
AcDbLine
 10
124.1655811088165
 20
624.8966253874739
 30
0.0
 11
124.1655811088165
 21
584.2180548568932
 31
0.0
  0
LINE
  5
8A66
330
1F
100
AcDbEntity
  8
24
  6
Continuous
 62
     7
100
AcDbLine
 10
110.0026344168743
 20
584.2180548568932
 30
0.0
 11
110.0026344168743
 21
624.8966253874739
 31
0.0
  0
ARC
  5
8A67
330
1F
100
AcDbEntity
  8
24
  6
Continuous
 62
     7
100
AcDbCircle
 10
102.1799479895528
 20
575.1324645732637
 30
0.0
 40
9.968479384627967
100
AcDbArc
 50
5.812510157188596
 51
50.68406185258144
  0
ARC
  5
8A68
330
1F
100
AcDbEntity
  8
24
  6
Continuous
 62
     7
100
AcDbCircle
 10
132.447587633132
 20
575.0431168216878
 30
0.0
 40
10.33294762297491
100
AcDbArc
 50
130.9727204924186
 51
173.8951502389756
  0
LINE
  5
8A69
330
1F
100
AcDbEntity
  8
24
  6
Continuous
 62
     7
100
AcDbLine
 10
108.4959377414056
 20
584.2180548568932
 30
0.0
 11
125.6722777844859
 21
584.2180548568932
 31
0.0
  0
LINE
  5
8A6A
330
1F
100
AcDbEntity
  8
24
  6
Continuous
 62
     7
100
AcDbLine
 10
110.0026344168743
 20
624.8966253874739
 30
0.0
 11
110.0026344168743
 21
584.2180548568932
 31
0.0
  0
LINE
  5
8A6B
330
1F
100
AcDbEntity
  8
24
  6
Continuous
 62
     7
100
AcDbLine
 10
124.1655811088165
 20
624.8966253874739
 30
0.0
 11
124.1655811087645
 21
584.2180548568932
 31
0.0
  0
LINE
  5
8A6C
330
1F
100
AcDbEntity
  8
24
  6
Continuous
 62
     7
100
AcDbLine
 10
125.6722777844859
 20
624.8966253874739
 30
0.0
 11
125.672277757674
 21
582.8447181105682
 31
0.0
  0
LINE
  5
8A6D
330
1F
100
AcDbEntity
  8
24
  6
Continuous
 62
     7
100
AcDbLine
 10
108.4959377414056
 20
624.8966253874739
 30
0.0
 11
108.4959377471493
 21
582.8447181105682
 31
0.0
  0
LINE
  5
8A6E
330
1F
100
AcDbEntity
  8
24
  6
Continuous
 62
     7
100
AcDbLine
 10
125.6722777844859
 20
624.8966253874739
 30
0.0
 11
108.4959377414056
 21
624.8966253874739
 31
0.0
  0
DIMENSION
  5
8A6F
330
1F
100
AcDbEntity
  8
30
  6
Continuous
100
AcDbDimension
280
     0
  2
*D37
 10
99.93063550435094
 20
624.8966253874739
 30
0.0
 11
94.93063550435079
 21
636.3853879093037
 31
0.0
 70
    32
 71
     5
 42
22.97752504365963
 73
     0
 74
     0
 75
     0
  3
STANDARD
100
AcDbAlignedDimension
 13
109.2501633097558
 23
647.8741504311336
 33
0.0
 14
106.7195805701271
 24
624.8966253874739
 34
0.0
 50
90.0
100
AcDbRotatedDimension
1001
ACAD
1000
DSTYLE
1002
{
1070
    79
1070
     3
1002
}
  0
LINE
  5
8B18
330
1F
100
AcDbEntity
  8
16
 48
5.0
100
AcDbLine
 10
338.5482242753787
 20
373.597666403155
 30
0.0
 11
232.5504817523275
 21
373.597666403155
 31
0.0
  0
ENDSEC
  0
SECTION
  2
OBJECTS
  0
DICTIONARY
  5
C
330
0
100
AcDbDictionary
281
     1
  3
ACAD_CIP_PREVIOUS_PRODUCT_INFO
350
8AC1
  3
ACAD_COLOR
350
59A2
  3
ACAD_DETAILVIEWSTYLE
350
599C
  3
ACAD_GROUP
350
D
  3
ACAD_LAYOUT
350
1A
  3
ACAD_MATERIAL
350
43
  3
ACAD_MLEADERSTYLE
350
599B
  3
ACAD_MLINESTYLE
350
17
  3
ACAD_PLOTSETTINGS
350
19
  3
ACAD_PLOTSTYLENAME
350
E
  3
ACAD_SCALELIST
350
47
  3
ACAD_SECTIONVIEWSTYLE
350
599D
  3
ACAD_TABLESTYLE
350
599A
  3
ACAD_VISUALSTYLE
350
2A
  3
ACDB_RECOMPOSE_DATA
350
8B4F
  3
AcDbVariableDictionary
350
5998
  3
AEC_PROPERTY_SET_DEFS
350
65E5
  0
SUN
  5
69
330
29
100
AcDbSun
 90
        1
290
     1
 63
     7
421
 16777215
 40
1.0
291
     1
 91
  2455826
 92
 54000000
292
     0
 70
     0
 71
   256
280
     1
  0
DICTIONARY
  5
5F3B
330
2
100
AcDbDictionary
280
     1
281
     1
  3
ACAD_LAYERSTATES
360
5F3C
  0
DICTIONARY
  5
59A9
330
10
100
AcDbDictionary
280
     1
281
     1
  3
ADSK_XREC_LAYER_RECONCILED
360
59AA
  0
DICTIONARY
  5
59AB
330
71
100
AcDbDictionary
280
     1
281
     1
  3
ADSK_XREC_LAYER_RECONCILED
360
59AC
  0
DICTIONARY
  5
649A
330
6499
100
AcDbDictionary
280
     1
281
     1
  0
DICTIONARY
  5
649C
330
649B
100
AcDbDictionary
280
     1
281
     1
  0
DICTIONARY
  5
649E
330
649D
100
AcDbDictionary
280
     1
281
     1
  0
DICTIONARY
  5
64A0
330
649F
100
AcDbDictionary
280
     1
281
     1
  0
DICTIONARY
  5
64A2
330
64A1
100
AcDbDictionary
280
     1
281
     1
  0
DICTIONARY
  5
7308
330
7307
100
AcDbDictionary
280
     1
281
     1
  0
DICTIONARY
  5
8A0D
330
8A0C
100
AcDbDictionary
280
     1
281
     1
  0
DICTIONARY
  5
72CC
330
1F
100
AcDbDictionary
280
     1
281
     1
  3
ACAD_SORTENTS
360
72CD
  0
DICTIONARY
  5
8615
330
8611
100
AcDbDictionary
280
     1
281
     1
  3
ACAD_SORTENTS
360
8616
  0
DICTIONARY
  5
829E
330
829D
100
AcDbDictionary
280
     1
281
     1
  3
ACAD_DIMASSOC
360
829F
  0
DICTIONARY
  5
82BC
330
82BB
100
AcDbDictionary
280
     1
281
     1
  3
ACAD_DIMASSOC
360
82BD
  0
XRECORD
  5
8AC1
102
{ACAD_REACTORS
330
C
102
}
330
C
100
AcDbXrecord
280
     1
300
ACDLT
300
2014
300
ACDLT_F_S
  0
DICTIONARY
  5
59A2
102
{ACAD_REACTORS
330
C
102
}
330
C
100
AcDbDictionary
281
     1
  0
DICTIONARY
  5
599C
102
{ACAD_REACTORS
330
C
102
}
330
C
100
AcDbDictionary
281
     1
  3
Metric50
350
8ABC
  0
DICTIONARY
  5
D
102
{ACAD_REACTORS
330
C
102
}
330
C
100
AcDbDictionary
281
     1
  0
DICTIONARY
  5
1A
102
{ACAD_REACTORS
330
C
102
}
330
C
100
AcDbDictionary
281
     1
  3
Layout1
350
1E
  3
Layout2
350
26
  3
Model
350
22
  0
DICTIONARY
  5
43
102
{ACAD_REACTORS
330
C
102
}
330
C
100
AcDbDictionary
281
     1
  3
ByBlock
350
45
  3
ByLayer
350
44
  3
Global
350
46
  0
DICTIONARY
  5
599B
102
{ACAD_REACTORS
330
C
102
}
330
C
100
AcDbDictionary
281
     1
  3
Standard
350
59A4
  0
DICTIONARY
  5
17
102
{ACAD_REACTORS
330
C
102
}
330
C
100
AcDbDictionary
281
     1
  3
Standard
350
18
  0
DICTIONARY
  5
19
102
{ACAD_REACTORS
330
C
102
}
330
C
100
AcDbDictionary
281
     1
  0
ACDBDICTIONARYWDFLT
  5
E
102
{ACAD_REACTORS
330
C
102
}
330
C
100
AcDbDictionary
281
     1
  3
Normal
350
F
100
AcDbDictionaryWithDefault
340
F
  0
DICTIONARY
  5
47
102
{ACAD_REACTORS
330
C
102
}
330
C
100
AcDbDictionary
281
     1
  3
A0
350
48
  3
A1
350
49
  3
A2
350
4A
  3
A3
350
4B
  3
A4
350
4C
  3
A5
350
4D
  3
A6
350
4E
  3
A7
350
4F
  3
A8
350
50
  3
A9
350
51
  3
B0
350
52
  3
B1
350
53
  3
B2
350
54
  3
B3
350
55
  3
B4
350
56
  3
B5
350
57
  3
B6
350
58
  3
B7
350
59
  3
B8
350
5A
  3
B9
350
5B
  3
C0
350
5C
  3
C1
350
5D
  3
C2
350
5E
  3
C3
350
5F
  3
C4
350
60
  3
C5
350
61
  3
C6
350
62
  3
C7
350
63
  3
C8
350
64
  3
C9
350
65
  3
D0
350
66
  3
D1
350
67
  3
D2
350
68
  0
DICTIONARY
  5
599D
102
{ACAD_REACTORS
330
C
102
}
330
C
100
AcDbDictionary
281
     1
  3
Metric50
350
8ABB
  0
DICTIONARY
  5
599A
102
{ACAD_REACTORS
330
C
102
}
330
C
100
AcDbDictionary
281
     1
  3
Standard
350
59A3
  0
DICTIONARY
  5
2A
102
{ACAD_REACTORS
330
C
102
}
330
C
100
AcDbDictionary
281
     1
  3
2dWireframe
350
2F
  3
3D Hidden
350
59A1
  3
3dWireframe
350
59A0
  3
Basic
350
32
  3
Brighten
350
36
  3
ColorChange
350
3A
  3
Conceptual
350
34
  3
Dim
350
35
  3
EdgeColorOff
350
3D
  3
Facepattern
350
39
  3
Flat
350
2B
  3
FlatWithEdges
350
2C
  3
Gouraud
350
2D
  3
GouraudWithEdges
350
2E
  3
Hidden
350
31
  3
JitterOff
350
3B
  3
Linepattern
350
38
  3
OverhangOff
350
3C
  3
Realistic
350
33
  3
Shaded
350
42
  3
Shaded with edges
350
41
  3
Shades of Gray
350
3E
  3
Sketchy
350
3F
  3
Thicken
350
37
  3
Wireframe
350
30
  3
X-Ray
350
40
  0
XRECORD
  5
8B4F
102
{ACAD_REACTORS
330
C
102
}
330
C
100
AcDbXrecord
280
     1
 90
        1
330
59A3
330
8ABB
330
8ABC
  0
DICTIONARY
  5
5998
102
{ACAD_REACTORS
330
C
102
}
330
C
100
AcDbDictionary
281
     1
  3
CANNOSCALE
350
5999
  3
CMLEADERSTYLE
350
59B4
  3
CTABLESTYLE
350
59B3
  3
CVIEWDETAILSTYLE
350
8B0A
  3
CVIEWSECTIONSTYLE
350
8B0B
  3
LAYEREVAL
350
59B5
  3
LAYERNOTIFY
350
59B6
  0
DICTIONARY
  5
65E5
102
{ACAD_REACTORS
330
C
102
}
330
C
100
AcDbDictionary
281
     1
  0
DICTIONARY
  5
5F3C
102
{ACAD_REACTORS
330
5F3B
102
}
330
5F3B
100
AcDbDictionary
281
     1
  0
XRECORD
  5
59AA
102
{ACAD_REACTORS
330
59A9
102
}
330
59A9
100
AcDbXrecord
280
     1
290
     1
  0
XRECORD
  5
59AC
102
{ACAD_REACTORS
330
59AB
102
}
330
59AB
100
AcDbXrecord
280
     1
290
     1
  0
SORTENTSTABLE
  5
72CD
102
{ACAD_REACTORS
330
72CC
102
}
330
72CC
100
AcDbSortentsTable
330
1F
331
8270
  5
8278
331
820C
  5
820C
331
828B
  5
8293
331
85E2
  5
8819
331
8290
  5
8298
331
8235
  5
823D
331
8224
  5
8229
331
8245
  5
824D
331
8298
  5
82A2
331
862F
  5
881C
331
82CB
  5
82D7
331
82A8
  5
82B4
331
823C
  5
8244
331
82EE
  5
82FD
331
8254
  5
825C
331
82D3
  5
82DF
331
82B0
  5
82BE
331
82B8
  5
82C6
331
82DB
  5
82E7
331
8249
  5
8251
331
82FE
  5
8812
331
8269
  5
8271
331
82C0
  5
82CC
331
8205
  5
8205
331
82E3
  5
82EF
331
81FE
  5
81FE
331
82F3
  5
82FF
331
8271
  5
8279
331
820D
  5
820D
331
827C
  5
8284
331
85E3
  5
881A
331
828C
  5
8294
331
8291
  5
8299
331
8236
  5
823E
331
8225
  5
822A
331
8246
  5
824E
331
822D
  5
8238
331
8299
  5
82AB
331
82A9
  5
82B5
331
823D
  5
8245
331
82CC
  5
82D8
331
82EF
  5
82FE
331
82B1
  5
82BF
331
8255
  5
825D
331
82D4
  5
82E0
331
82FF
  5
8813
331
82DC
  5
82E8
331
824A
  5
8252
331
81F6
  5
81F6
331
82B9
  5
82C7
331
82E4
  5
82F3
331
826A
  5
8272
331
8206
  5
8206
331
82C1
  5
82CD
331
81FF
  5
81FF
331
827D
  5
8285
331
82F4
  5
8300
331
8272
  5
827A
331
820E
  5
820E
331
828D
  5
8295
331
8292
  5
829A
331
8237
  5
823F
331
829A
  5
82AC
331
8247
  5
824F
331
822E
  5
8239
331
82E8
  5
82F7
331
82CD
  5
82D9
331
82AA
  5
82B6
331
823E
  5
8246
331
82F8
  5
85E1
331
8256
  5
825E
331
82D5
  5
82E1
331
76D7
  5
771B
331
82B2
  5
82C0
331
82DD
  5
82E9
331
824B
  5
8253
331
8300
  5
8814
331
81F7
  5
81F7
331
81F8
  5
81F8
331
826B
  5
8273
331
82C2
  5
82CE
331
8207
  5
8207
331
82E5
  5
82F4
331
82F5
  5
8301
331
8273
  5
827B
331
8218
  5
821D
331
820F
  5
820F
331
827E
  5
8286
331
828E
  5
8296
331
8283
  5
828B
331
8293
  5
829B
331
8240
  5
8248
331
829B
  5
82AD
331
8815
  5
8221
331
6620
  5
6620
331
82AB
  5
82B7
331
823F
  5
8247
331
82CE
  5
82DA
331
82E9
  5
82F8
331
82F9
  5
85E2
331
82B3
  5
82C1
331
8257
  5
825F
331
82D6
  5
82E2
331
8301
  5
8815
331
82DE
  5
82EA
331
824C
  5
8254
331
8200
  5
8200
331
82BB
  5
82C9
331
81F9
  5
81F9
331
8267
  5
826F
331
82E6
  5
82F5
331
826C
  5
8274
331
82C3
  5
82CF
331
8208
  5
8208
331
827F
  5
8287
331
82F6
  5
8302
331
8274
  5
827C
331
8219
  5
821E
331
8210
  5
8210
331
8284
  5
828C
331
828F
  5
8297
331
8294
  5
829C
331
8241
  5
8249
331
829C
  5
82AE
331
8238
  5
8240
331
82EA
  5
82F9
331
82CF
  5
82DB
331
82AC
  5
82B8
331
8250
  5
8258
331
82B4
  5
82C2
331
8258
  5
8260
331
82D7
  5
82E3
331
82FA
  5
85E3
331
8201
  5
8201
331
82DF
  5
82EB
331
824D
  5
8255
331
8302
  5
8816
331
81FA
  5
81FA
331
826D
  5
8275
331
82C4
  5
82D0
331
82E7
  5
82F6
331
8209
  5
8209
331
82F7
  5
8303
331
821A
  5
821F
331
8211
  5
8211
331
8288
  5
8290
331
82A0
  5
82B0
331
8285
  5
828D
331
8232
  5
823A
331
880F
  5
82B3
331
8295
  5
829D
331
829D
  5
82AF
331
8239
  5
8241
331
82C8
  5
82D4
331
82EB
  5
82FA
331
82AD
  5
82B9
331
8251
  5
8259
331
82D0
  5
82DC
331
82FB
  5
862E
331
82D8
  5
82E4
331
82B5
  5
82C3
331
8259
  5
8261
331
82E0
  5
82EC
331
824E
  5
8256
331
8303
  5
8817
331
8202
  5
8202
331
82C5
  5
82D1
331
826E
  5
8276
331
81FB
  5
81FB
331
820A
  5
820A
331
8289
  5
8291
331
8286
  5
828E
331
8233
  5
823B
331
8222
  5
8227
331
82A1
  5
82B1
331
8296
  5
82A0
331
822A
  5
822F
331
82C9
  5
82D5
331
823A
  5
8242
331
82EC
  5
82FB
331
82D1
  5
82DD
331
82AE
  5
82BA
331
8252
  5
825A
331
82B6
  5
82C4
331
825A
  5
8262
331
82D9
  5
82E5
331
82FC
  5
862F
331
82BE
  5
82CA
331
8203
  5
8203
331
82E1
  5
82ED
331
824F
  5
8257
331
826F
  5
8277
331
82C6
  5
82D2
331
820B
  5
820B
331
85E1
  5
8818
331
8213
  5
8213
331
828A
  5
8292
331
82A2
  5
82B2
331
8287
  5
828F
331
8234
  5
823C
331
8223
  5
8228
331
862E
  5
881B
331
822B
  5
8236
331
8297
  5
82A1
331
823B
  5
8243
331
82CA
  5
82D6
331
8819
  5
821B
331
82ED
  5
82FC
331
82AF
  5
82BB
331
8253
  5
825B
331
82D2
  5
82DE
331
82FD
  5
880F
331
82DA
  5
82E6
331
8248
  5
8250
331
82B7
  5
82C5
331
82E2
  5
82EE
331
8268
  5
8270
331
8204
  5
8204
331
82BF
  5
82CB
331
82C7
  5
82D3
  0
SORTENTSTABLE
  5
8616
102
{ACAD_REACTORS
330
8615
102
}
330
8615
100
AcDbSortentsTable
330
8611
  0
DIMASSOC
  5
829F
102
{ACAD_REACTORS
330
829E
102
}
330
829E
100
AcDbDimAssoc
330
829D
 90
        3
 70
     0
 71
     0
  1
AcDbOsnapPointRef
 72
     1
331
828B
 73
     2
 91
        0
 40
1.0
 10
0.0
 20
0.0
 30
2.000000000000000E+50
 75
     0
  1
AcDbOsnapPointRef
 72
     1
331
828F
 73
     2
 91
        0
 40
1.0
 10
0.0
 20
0.0
 30
2.000000000000000E+50
 75
     0
  0
DIMASSOC
  5
82BD
102
{ACAD_REACTORS
330
82BC
102
}
330
82BC
100
AcDbDimAssoc
330
82BB
 90
        3
 70
     0
 71
     0
  1
AcDbOsnapPointRef
 72
     1
331
8249
 73
     2
 91
        3
 40
1.0
 10
0.0
 20
0.0
 30
2.000000000000000E+50
 75
     0
  1
AcDbOsnapPointRef
 72
     1
331
8249
 73
     2
 91
        2
 40
1.0
 10
0.0
 20
0.0
 30
2.000000000000000E+50
 75
     0
  0
ACDBDETAILVIEWSTYLE
  5
8ABC
102
{ACAD_XDICTIONARY
360
8B0F
102
}
102
{ACAD_REACTORS
330
599C
102
}
330
599C
100
AcDbModelDocViewStyle
 70
     0
  3
Metric50
290
     0
100
AcDbDetailViewStyle
 70
     0
 71
     0
 90
        3
 71
     1
340
11
 62
   256
 40
5.0
340
0
 62
   256
 40
5.0
300

 40
0.0
280
     1
 71
     2
340
16
 90
       25
 62
   256
 71
     3
340
11
 62
   256
 40
5.0
 90
        0
 40
15.0
 90
        1
300
%<\AcVar ViewDetailId>% (%<\AcVar ViewScale \f "%sn">%)
 71
     4
340
16
 90
       25
 62
   256
340
16
 90
       25
 62
   256
280
     0
  0
LAYOUT
  5
1E
102
{ACAD_REACTORS
330
1A
102
}
330
1A
100
AcDbPlotSettings
  1

  2
none_device
  4

  6

 40
0.0
 41
0.0
 42
0.0
 43
0.0
 44
0.0
 45
0.0
 46
0.0
 47
0.0
 48
0.0
 49
0.0
140
0.0
141
0.0
142
1.0
143
1.0
 70
   688
 72
     1
 73
     0
 74
     5
  7
monochrome.ctb
 75
    16
147
1.0
 76
     0
 77
     2
 78
   300
148
0.0
149
0.0
100
AcDbLayout
  1
Layout1
 70
     1
 71
     1
 10
0.0
 20
0.0
 11
420.0
 21
297.0
 12
0.0
 22
0.0
 32
0.0
 14
1.000000000000000E+20
 24
1.000000000000000E+20
 34
1.000000000000000E+20
 15
-1.000000000000000E+20
 25
-1.000000000000000E+20
 35
-1.000000000000000E+20
146
0.0
 13
0.0
 23
0.0
 33
0.0
 16
1.0
 26
0.0
 36
0.0
 17
0.0
 27
1.0
 37
0.0
 76
     0
330
1B
  0
LAYOUT
  5
26
102
{ACAD_REACTORS
330
1A
102
}
330
1A
100
AcDbPlotSettings
  1

  2
none_device
  4

  6

 40
0.0
 41
0.0
 42
0.0
 43
0.0
 44
0.0
 45
0.0
 46
0.0
 47
0.0
 48
0.0
 49
0.0
140
0.0
141
0.0
142
1.0
143
1.0
 70
   688
 72
     1
 73
     0
 74
     5
  7
monochrome.ctb
 75
    16
147
1.0
 76
     0
 77
     2
 78
   300
148
0.0
149
0.0
100
AcDbLayout
  1
Layout2
 70
     1
 71
     2
 10
0.0
 20
0.0
 11
0.0
 21
0.0
 12
0.0
 22
0.0
 32
0.0
 14
0.0
 24
0.0
 34
0.0
 15
0.0
 25
0.0
 35
0.0
146
0.0
 13
0.0
 23
0.0
 33
0.0
 16
1.0
 26
0.0
 36
0.0
 17
0.0
 27
1.0
 37
0.0
 76
     0
330
23
  0
LAYOUT
  5
22
102
{ACAD_XDICTIONARY
360
5F41
102
}
102
{ACAD_REACTORS
330
1A
102
}
330
1A
100
AcDbPlotSettings
  1

  2
none_device
  4
Letter_(8.50_x_11.00_Inches)
  6

 40
6.349999999999997
 41
6.349999999999997
 42
6.350005079999997
 43
6.350005079999997
 44
215.9
 45
279.4
 46
0.0
 47
0.0
 48
0.0
 49
0.0
140
0.0
141
0.0
142
1.0
143
1.0
 70
  1712
 72
     1
 73
     0
 74
     0
  7
monochrome.ctb
 75
     0
147
1.0
 76
     0
 77
     2
 78
   300
148
0.0
149
0.0
100
AcDbLayout
  1
Model
 70
     1
 71
     0
 10
0.0
 20
0.0
 11
594.0
 21
420.0
 12
0.0
 22
0.0
 32
0.0
 14
0.0
 24
0.0
 34
0.0
 15
594.0
 25
420.0
 35
0.0
146
0.0
 13
0.0
 23
0.0
 33
0.0
 16
1.0
 26
0.0
 36
0.0
 17
0.0
 27
1.0
 37
0.0
 76
     0
330
1F
331
29
  0
MATERIAL
  5
45
102
{ACAD_REACTORS
330
43
102
}
330
43
100
AcDbMaterial
  1
ByBlock
  0
MATERIAL
  5
44
102
{ACAD_REACTORS
330
43
102
}
330
43
100
AcDbMaterial
  1
ByLayer
  0
MATERIAL
  5
46
102
{ACAD_REACTORS
330
43
102
}
330
43
100
AcDbMaterial
  1
Global
  0
MLEADERSTYLE
  5
59A4
102
{ACAD_REACTORS
330
599B
102
}
330
599B
100
AcDbMLeaderStyle
179
     2
170
     2
171
     1
172
     0
 90
        2
 40
0.0
 41
0.0
173
     1
 91
-1056964608
340
14
 92
       -2
290
     1
 42
2.0
291
     1
 43
0.36
  3
Standard
 44
4.0
300

342
11
174
     1
178
     6
175
     1
176
     0
 93
-1056964608
 45
4.0
292
     0
297
     0
 46
4.0
 94
-1056964608
 47
1.0
 49
1.0
140
1.0
293
     1
141
0.0
294
     1
177
     0
142
1.0
295
     0
296
     0
143
0.125
271
     0
272
     9
273
     9
298
     0
  0
MLINESTYLE
  5
18
102
{ACAD_REACTORS
330
17
102
}
330
17
100
AcDbMlineStyle
  2
STANDARD
 70
     0
  3

 62
   256
 51
90.0
 52
90.0
 71
     2
 49
0.5
 62
   256
  6
BYLAYER
 49
-0.5
 62
   256
  6
BYLAYER
  0
ACDBPLACEHOLDER
  5
F
102
{ACAD_REACTORS
330
E
102
}
330
E
  0
SCALE
  5
48
102
{ACAD_REACTORS
330
47
102
}
330
47
100
AcDbScale
 70
     0
300
1:1
140
1.0
141
1.0
290
     1
  0
SCALE
  5
49
102
{ACAD_REACTORS
330
47
102
}
330
47
100
AcDbScale
 70
     0
300
1:2
140
1.0
141
2.0
290
     0
  0
SCALE
  5
4A
102
{ACAD_REACTORS
330
47
102
}
330
47
100
AcDbScale
 70
     0
300
1:4
140
1.0
141
4.0
290
     0
  0
SCALE
  5
4B
102
{ACAD_REACTORS
330
47
102
}
330
47
100
AcDbScale
 70
     0
300
1:5
140
1.0
141
5.0
290
     0
  0
SCALE
  5
4C
102
{ACAD_REACTORS
330
47
102
}
330
47
100
AcDbScale
 70
     0
300
1:8
140
1.0
141
8.0
290
     0
  0
SCALE
  5
4D
102
{ACAD_REACTORS
330
47
102
}
330
47
100
AcDbScale
 70
     0
300
1:10
140
1.0
141
10.0
290
     0
  0
SCALE
  5
4E
102
{ACAD_REACTORS
330
47
102
}
330
47
100
AcDbScale
 70
     0
300
1:16
140
1.0
141
16.0
290
     0
  0
SCALE
  5
4F
102
{ACAD_REACTORS
330
47
102
}
330
47
100
AcDbScale
 70
     0
300
1:20
140
1.0
141
20.0
290
     0
  0
SCALE
  5
50
102
{ACAD_REACTORS
330
47
102
}
330
47
100
AcDbScale
 70
     0
300
1:30
140
1.0
141
30.0
290
     0
  0
SCALE
  5
51
102
{ACAD_REACTORS
330
47
102
}
330
47
100
AcDbScale
 70
     0
300
1:40
140
1.0
141
40.0
290
     0
  0
SCALE
  5
52
102
{ACAD_REACTORS
330
47
102
}
330
47
100
AcDbScale
 70
     0
300
1:50
140
1.0
141
50.0
290
     0
  0
SCALE
  5
53
102
{ACAD_REACTORS
330
47
102
}
330
47
100
AcDbScale
 70
     0
300
1:100
140
1.0
141
100.0
290
     0
  0
SCALE
  5
54
102
{ACAD_REACTORS
330
47
102
}
330
47
100
AcDbScale
 70
     0
300
2:1
140
2.0
141
1.0
290
     0
  0
SCALE
  5
55
102
{ACAD_REACTORS
330
47
102
}
330
47
100
AcDbScale
 70
     0
300
4:1
140
4.0
141
1.0
290
     0
  0
SCALE
  5
56
102
{ACAD_REACTORS
330
47
102
}
330
47
100
AcDbScale
 70
     0
300
8:1
140
8.0
141
1.0
290
     0
  0
SCALE
  5
57
102
{ACAD_REACTORS
330
47
102
}
330
47
100
AcDbScale
 70
     0
300
10:1
140
10.0
141
1.0
290
     0
  0
SCALE
  5
58
102
{ACAD_REACTORS
330
47
102
}
330
47
100
AcDbScale
 70
     0
300
100:1
140
100.0
141
1.0
290
     0
  0
SCALE
  5
59
102
{ACAD_REACTORS
330
47
102
}
330
47
100
AcDbScale
 70
     0
300
1/128" = 1'-0"
140
0.0078125
141
12.0
290
     0
  0
SCALE
  5
5A
102
{ACAD_REACTORS
330
47
102
}
330
47
100
AcDbScale
 70
     0
300
1/64" = 1'-0"
140
0.015625
141
12.0
290
     0
  0
SCALE
  5
5B
102
{ACAD_REACTORS
330
47
102
}
330
47
100
AcDbScale
 70
     0
300
1/32" = 1'-0"
140
0.03125
141
12.0
290
     0
  0
SCALE
  5
5C
102
{ACAD_REACTORS
330
47
102
}
330
47
100
AcDbScale
 70
     0
300
1/16" = 1'-0"
140
0.0625
141
12.0
290
     0
  0
SCALE
  5
5D
102
{ACAD_REACTORS
330
47
102
}
330
47
100
AcDbScale
 70
     0
300
3/32" = 1'-0"
140
0.09375
141
12.0
290
     0
  0
SCALE
  5
5E
102
{ACAD_REACTORS
330
47
102
}
330
47
100
AcDbScale
 70
     0
300
1/8" = 1'-0"
140
0.125
141
12.0
290
     0
  0
SCALE
  5
5F
102
{ACAD_REACTORS
330
47
102
}
330
47
100
AcDbScale
 70
     0
300
3/16" = 1'-0"
140
0.1875
141
12.0
290
     0
  0
SCALE
  5
60
102
{ACAD_REACTORS
330
47
102
}
330
47
100
AcDbScale
 70
     0
300
1/4" = 1'-0"
140
0.25
141
12.0
290
     0
  0
SCALE
  5
61
102
{ACAD_REACTORS
330
47
102
}
330
47
100
AcDbScale
 70
     0
300
3/8" = 1'-0"
140
0.375
141
12.0
290
     0
  0
SCALE
  5
62
102
{ACAD_REACTORS
330
47
102
}
330
47
100
AcDbScale
 70
     0
300
1/2" = 1'-0"
140
0.5
141
12.0
290
     0
  0
SCALE
  5
63
102
{ACAD_REACTORS
330
47
102
}
330
47
100
AcDbScale
 70
     0
300
3/4" = 1'-0"
140
0.75
141
12.0
290
     0
  0
SCALE
  5
64
102
{ACAD_REACTORS
330
47
102
}
330
47
100
AcDbScale
 70
     0
300
1" = 1'-0"
140
1.0
141
12.0
290
     0
  0
SCALE
  5
65
102
{ACAD_REACTORS
330
47
102
}
330
47
100
AcDbScale
 70
     0
300
1-1/2" = 1'-0"
140
1.5
141
12.0
290
     0
  0
SCALE
  5
66
102
{ACAD_REACTORS
330
47
102
}
330
47
100
AcDbScale
 70
     0
300
3" = 1'-0"
140
3.0
141
12.0
290
     0
  0
SCALE
  5
67
102
{ACAD_REACTORS
330
47
102
}
330
47
100
AcDbScale
 70
     0
300
6" = 1'-0"
140
6.0
141
12.0
290
     0
  0
SCALE
  5
68
102
{ACAD_REACTORS
330
47
102
}
330
47
100
AcDbScale
 70
     0
300
1'-0" = 1'-0"
140
12.0
141
12.0
290
     0
  0
ACDBSECTIONVIEWSTYLE
  5
8ABB
102
{ACAD_XDICTIONARY
360
8B0D
102
}
102
{ACAD_REACTORS
330
599D
102
}
330
599D
100
AcDbModelDocViewStyle
 70
     0
  3
Metric50
290
     0
100
AcDbSectionViewStyle
 70
     0
 71
     0
 90
      102
 71
     1
340
11
 62
   256
 40
5.0
340
0
340
0
 62
   256
 40
5.0
300
I, O, Q, S, X, Z
 40
10.0
 90
        0
 40
2.5
 90
        0
 71
     2
340
16
 90
       25
 62
   256
340
16
 90
       50
 62
   256
 40
5.0
 40
2.5
 40
5.0
 71
     3
340
11
 62
   256
 40
5.0
 90
        0
 40
15.0
 90
        1
300
%<\AcVar ViewSectionStartId>%-%<\AcVar ViewSectionEndId>% (%<\AcVar ViewScale \f "%sn">%)
 71
     4
 62
   256
 62
   257
300
ANSI31
 40
1.0
 90
        0
290
     0
290
     0
 90
        6
 40
0.0
 40
1.570796326794896
 40
0.2617993877991494
 40
1.308996938995747
 40
-0.2617993877991494
 40
1.832595714594044
  0
TABLESTYLE
  5
59A3
102
{ACAD_XDICTIONARY
360
8AB6
102
}
102
{ACAD_REACTORS
330
599A
102
}
330
599A
100
AcDbTableStyle
280
     0
  3
Standard
 70
     0
 71
     0
 40
1.5
 41
1.5
280
     0
281
     0
  7
STANDARD
140
4.5
170
     2
 62
     0
 63
     7
283
     0
 90
      512
 91
        0
  1

274
    -2
284
     1
 64
     0
275
    -2
285
     1
 65
     0
276
    -2
286
     1
 66
     0
277
    -2
287
     1
 67
     0
278
    -2
288
     1
 68
     0
279
    -2
289
     1
 69
     0
  7
STANDARD
140
6.0
170
     5
 62
     0
 63
     7
283
     0
 90
      512
 91
        0
  1

274
    -2
284
     1
 64
     0
275
    -2
285
     1
 65
     0
276
    -2
286
     1
 66
     0
277
    -2
287
     1
 67
     0
278
    -2
288
     1
 68
     0
279
    -2
289
     1
 69
     0
  7
STANDARD
140
4.5
170
     5
 62
     0
 63
     7
283
     0
 90
      512
 91
        0
  1

274
    -2
284
     1
 64
     0
275
    -2
285
     1
 65
     0
276
    -2
286
     1
 66
     0
277
    -2
287
     1
 67
     0
278
    -2
288
     1
 68
     0
279
    -2
289
     1
 69
     0
  0
VISUALSTYLE
  5
2F
102
{ACAD_REACTORS
330
2A
102
}
330
2A
100
AcDbVisualStyle
  2

 70
     4
177
     3
291
     0
 70
    58
 90
        0
176
     1
 90
        2
176
     1
 90
        0
176
     1
 90
        0
176
     1
 40
0.6
176
     1
 40
30.0
176
     1
 62
     7
420
 16777215
176
     1
 90
        1
176
     1
 90
        4
176
     1
 62
     7
176
     1
 62
   257
176
     1
 90
        1
176
     1
 90
        1
176
     1
 40
1.0
176
     1
 90
        0
176
     1
 62
   257
176
     1
 40
1.0
176
     1
 90
        1
176
     1
 90
        6
176
     1
 90
        2
176
     1
 62
     7
176
     1
 90
        5
176
     1
 90
        0
176
     1
 90
        0
176
     1
290
     0
176
     1
 90
        1
176
     1
 40
0.0
176
     1
 90
        0
176
     1
290
     1
176
     1
290
     1
176
     1
290
     0
176
     1
290
     0
176
     1
290
     0
176
     1
290
     0
176
     1
290
     0
176
     1
290
     0
176
     1
290
     0
176
     1
 90
       50
176
     1
 40
0.0
176
     1
 40
1.0
176
     1
 90
        0
176
     1
 62
    18
176
     1
 90
       50
176
     1
 90
        3
176
     1
 62
     5
420
      255
176
     1
290
     0
176
     1
 90
       50
176
     1
 90
       50
176
     1
 90
       50
176
     1
290
     0
176
     1
 90
       50
176
     1
 62
   256
176
     0
 40
1.0
176
     0
 90
        2
176
     1
  1
strokes_ogs.tif
176
     1
290
     0
176
     1
 40
1.0
176
     1
 40
1.0
176
     1
  0
VISUALSTYLE
  5
59A1
102
{ACAD_REACTORS
330
2A
102
}
330
2A
100
AcDbVisualStyle
  2
3D Hidden
 70
     6
177
     3
291
     0
 70
    58
 90
        1
176
     1
 90
        2
176
     1
 90
        2
176
     1
 90
        0
176
     1
 40
0.6
176
     1
 40
30.0
176
     1
 62
     7
420
 16777215
176
     1
 90
        2
176
     1
 90
        2
176
     1
 62
     7
176
     1
 62
   257
176
     1
 90
        2
176
     1
 90
        1
176
     1
 40
179.0
176
     1
 90
        0
176
     1
 62
   257
176
     1
 40
1.0
176
     1
 90
        1
176
     1
 90
        6
176
     1
 90
        2
176
     1
 62
     7
176
     1
 90
        3
176
     1
 90
        0
176
     1
 90
        0
176
     1
290
     0
176
     1
 90
        1
176
     1
 40
0.0
176
     1
 90
        0
176
     1
290
     0
176
     1
290
     1
176
     1
290
     1
176
     1
290
     0
176
     1
290
     0
176
     1
290
     0
176
     1
290
     0
176
     1
290
     0
176
     1
290
     0
176
     1
 90
       50
176
     1
 40
0.0
176
     1
 40
1.0
176
     1
 90
        0
176
     1
 62
    18
176
     1
 90
       50
176
     1
 90
        3
176
     1
 62
     5
420
      255
176
     1
290
     0
176
     1
 90
       50
176
     1
 90
       50
176
     1
 90
       50
176
     1
290
     0
176
     1
 90
       50
176
     1
 62
   256
176
     0
 40
1.0
176
     0
 90
        2
176
     1
  1
strokes_ogs.tif
176
     1
290
     0
176
     1
 40
1.0
176
     1
 40
1.0
176
     1
  0
VISUALSTYLE
  5
59A0
102
{ACAD_REACTORS
330
2A
102
}
330
2A
100
AcDbVisualStyle
  2
3dWireframe
 70
     5
177
     3
291
     0
 70
    58
 90
        0
176
     1
 90
        2
176
     1
 90
        0
176
     1
 90
        0
176
     1
 40
0.6
176
     1
 40
30.0
176
     1
 62
     7
420
 16777215
176
     1
 90
        1
176
     1
 90
        4
176
     1
 62
     7
176
     1
 62
   257
176
     1
 90
        1
176
     1
 90
        1
176
     1
 40
1.0
176
     1
 90
        0
176
     1
 62
   257
176
     1
 40
1.0
176
     1
 90
        1
176
     1
 90
        6
176
     1
 90
        2
176
     1
 62
     7
176
     1
 90
        5
176
     1
 90
        0
176
     1
 90
        0
176
     1
290
     0
176
     1
 90
        1
176
     1
 40
0.0
176
     1
 90
        0
176
     1
290
     0
176
     1
290
     1
176
     1
290
     1
176
     1
290
     0
176
     1
290
     0
176
     1
290
     0
176
     1
290
     0
176
     1
290
     0
176
     1
290
     0
176
     1
 90
       50
176
     1
 40
0.0
176
     1
 40
1.0
176
     1
 90
        0
176
     1
 62
    18
176
     1
 90
       50
176
     1
 90
        3
176
     1
 62
     5
420
      255
176
     1
290
     0
176
     1
 90
       50
176
     1
 90
       50
176
     1
 90
       50
176
     1
290
     0
176
     1
 90
       50
176
     1
 62
   256
176
     0
 40
1.0
176
     0
 90
        2
176
     1
  1
strokes_ogs.tif
176
     1
290
     0
176
     1
 40
1.0
176
     1
 40
1.0
176
     1
  0
VISUALSTYLE
  5
32
102
{ACAD_REACTORS
330
2A
102
}
330
2A
100
AcDbVisualStyle
  2

 70
     7
177
     3
291
     1
 70
    58
 90
        1
176
     1
 90
        0
176
     1
 90
        1
176
     1
 90
        0
176
     1
 40
0.6
176
     1
 40
30.0
176
     1
 62
     7
420
 16777215
176
     1
 90
        0
176
     1
 90
        4
176
     1
 62
     7
176
     1
 62
   257
176
     1
 90
        1
176
     1
 90
        1
176
     1
 40
1.0
176
     1
 90
        8
176
     1
 62
     7
176
     1
 40
1.0
176
     1
 90
        1
176
     1
 90
        6
176
     1
 90
        2
176
     1
 62
     7
176
     1
 90
        5
176
     1
 90
        0
176
     1
 90
        0
176
     1
290
     0
176
     1
 90
        1
176
     1
 40
0.0
176
     1
 90
        0
176
     1
290
     0
176
     1
290
     1
176
     1
290
     1
176
     1
290
     0
176
     1
290
     0
176
     1
290
     0
176
     1
290
     0
176
     1
290
     0
176
     1
290
     0
176
     1
 90
       50
176
     1
 40
0.0
176
     1
 40
1.0
176
     1
 90
        0
176
     1
 62
    18
176
     1
 90
       50
176
     1
 90
        3
176
     1
 62
     5
420
      255
176
     1
290
     0
176
     1
 90
       50
176
     1
 90
       50
176
     1
 90
       50
176
     1
290
     0
176
     1
 90
       50
176
     1
 62
   256
176
     0
 40
1.0
176
     0
 90
        2
176
     1
  1
strokes_ogs.tif
176
     1
290
     0
176
     1
 40
1.0
176
     1
 40
1.0
176
     1
  0
VISUALSTYLE
  5
36
102
{ACAD_REACTORS
330
2A
102
}
330
2A
100
AcDbVisualStyle
  2

 70
    12
177
     3
291
     1
 70
    58
 90
        2
176
     1
 90
        2
176
     1
 90
        0
176
     1
 90
        0
176
     1
 40
0.6
176
     1
 40
30.0
176
     1
 62
     7
420
 16777215
176
     1
 90
        1
176
     1
 90
        4
176
     1
 62
     7
176
     1
 62
   257
176
     1
 90
        1
176
     1
 90
        1
176
     1
 40
1.0
176
     1
 90
        8
176
     1
 62
     7
176
     1
 40
1.0
176
     1
 90
        1
176
     1
 90
        6
176
     1
 90
        2
176
     1
 62
     7
176
     1
 90
        5
176
     1
 90
        0
176
     1
 90
        0
176
     1
290
     0
176
     1
 90
        1
176
     1
 40
50.0
176
     1
 90
        0
176
     1
290
     0
176
     1
290
     1
176
     1
290
     1
176
     1
290
     0
176
     1
290
     0
176
     1
290
     0
176
     1
290
     0
176
     1
290
     0
176
     1
290
     0
176
     1
 90
       50
176
     1
 40
0.0
176
     1
 40
1.0
176
     1
 90
        0
176
     1
 62
    18
176
     1
 90
       50
176
     1
 90
        3
176
     1
 62
     5
420
      255
176
     1
290
     0
176
     1
 90
       50
176
     1
 90
       50
176
     1
 90
       50
176
     1
290
     0
176
     1
 90
       50
176
     1
 62
   256
176
     0
 40
1.0
176
     0
 90
        2
176
     1
  1
strokes_ogs.tif
176
     1
290
     0
176
     1
 40
1.0
176
     1
 40
1.0
176
     1
  0
VISUALSTYLE
  5
3A
102
{ACAD_REACTORS
330
2A
102
}
330
2A
100
AcDbVisualStyle
  2

 70
    16
177
     3
291
     1
 70
    58
 90
        2
176
     1
 90
        2
176
     1
 90
        3
176
     1
 90
        0
176
     1
 40
0.6
176
     1
 40
30.0
176
     1
 62
     8
420
  8421504
176
     1
 90
        1
176
     1
 90
        4
176
     1
 62
     7
176
     1
 62
   257
176
     1
 90
        1
176
     1
 90
        1
176
     1
 40
1.0
176
     1
 90
        8
176
     1
 62
     8
420
  8421504
176
     1
 40
1.0
176
     1
 90
        1
176
     1
 90
        6
176
     1
 90
        2
176
     1
 62
     7
176
     1
 90
        5
176
     1
 90
        0
176
     1
 90
        0
176
     1
290
     0
176
     1
 90
        1
176
     1
 40
0.0
176
     1
 90
        0
176
     1
290
     0
176
     1
290
     1
176
     1
290
     1
176
     1
290
     0
176
     1
290
     0
176
     1
290
     0
176
     1
290
     0
176
     1
290
     0
176
     1
290
     0
176
     1
 90
       50
176
     1
 40
0.0
176
     1
 40
1.0
176
     1
 90
        0
176
     1
 62
    18
176
     1
 90
       50
176
     1
 90
        3
176
     1
 62
     5
420
      255
176
     1
290
     0
176
     1
 90
       50
176
     1
 90
       50
176
     1
 90
       50
176
     1
290
     0
176
     1
 90
       50
176
     1
 62
   256
176
     0
 40
1.0
176
     0
 90
        2
176
     1
  1
strokes_ogs.tif
176
     1
290
     0
176
     1
 40
1.0
176
     1
 40
1.0
176
     1
  0
VISUALSTYLE
  5
34
102
{ACAD_REACTORS
330
2A
102
}
330
2A
100
AcDbVisualStyle
  2

 70
     9
177
     3
291
     0
 70
    58
 90
        3
176
     1
 90
        2
176
     1
 90
        0
176
     1
 90
        0
176
     1
 40
0.6
176
     1
 40
30.0
176
     1
 62
     7
420
 16777215
176
     1
 90
        2
176
     1
 90
        2
176
     1
 62
     7
176
     1
 62
   257
176
     1
 90
        1
176
     1
 90
        1
176
     1
 40
179.0
176
     1
 90
        8
176
     1
 62
     7
176
     1
 40
1.0
176
     1
 90
        1
176
     1
 90
        6
176
     1
 90
        2
176
     1
 62
     7
176
     1
 90
        3
176
     1
 90
        0
176
     1
 90
        0
176
     1
290
     0
176
     1
 90
        1
176
     1
 40
0.0
176
     1
 90
        0
176
     1
290
     0
176
     1
290
     1
176
     1
290
     1
176
     1
290
     0
176
     1
290
     0
176
     1
290
     0
176
     1
290
     0
176
     1
290
     0
176
     1
290
     0
176
     1
 90
       50
176
     1
 40
0.0
176
     1
 40
1.0
176
     1
 90
        0
176
     1
 62
    18
176
     1
 90
       50
176
     1
 90
        3
176
     1
 62
     5
420
      255
176
     1
290
     0
176
     1
 90
       50
176
     1
 90
       50
176
     1
 90
       50
176
     1
290
     0
176
     1
 90
       50
176
     1
 62
   256
176
     0
 40
1.0
176
     0
 90
        2
176
     1
  1
strokes_ogs.tif
176
     1
290
     0
176
     1
 40
1.0
176
     1
 40
1.0
176
     1
  0
VISUALSTYLE
  5
35
102
{ACAD_REACTORS
330
2A
102
}
330
2A
100
AcDbVisualStyle
  2

 70
    11
177
     3
291
     1
 70
    58
 90
        2
176
     1
 90
        2
176
     1
 90
        0
176
     1
 90
        0
176
     1
 40
0.6
176
     1
 40
30.0
176
     1
 62
     7
420
 16777215
176
     1
 90
        1
176
     1
 90
        4
176
     1
 62
     7
176
     1
 62
   257
176
     1
 90
        1
176
     1
 90
        1
176
     1
 40
1.0
176
     1
 90
        8
176
     1
 62
     7
176
     1
 40
1.0
176
     1
 90
        1
176
     1
 90
        6
176
     1
 90
        2
176
     1
 62
     7
176
     1
 90
        5
176
     1
 90
        0
176
     1
 90
        0
176
     1
290
     0
176
     1
 90
        1
176
     1
 40
-50.0
176
     1
 90
        0
176
     1
290
     0
176
     1
290
     1
176
     1
290
     1
176
     1
290
     0
176
     1
290
     0
176
     1
290
     0
176
     1
290
     0
176
     1
290
     0
176
     1
290
     0
176
     1
 90
       50
176
     1
 40
0.0
176
     1
 40
1.0
176
     1
 90
        0
176
     1
 62
    18
176
     1
 90
       50
176
     1
 90
        3
176
     1
 62
     5
420
      255
176
     1
290
     0
176
     1
 90
       50
176
     1
 90
       50
176
     1
 90
       50
176
     1
290
     0
176
     1
 90
       50
176
     1
 62
   256
176
     0
 40
1.0
176
     0
 90
        2
176
     1
  1
strokes_ogs.tif
176
     1
290
     0
176
     1
 40
1.0
176
     1
 40
1.0
176
     1
  0
VISUALSTYLE
  5
3D
102
{ACAD_REACTORS
330
2A
102
}
330
2A
100
AcDbVisualStyle
  2

 70
    22
177
     3
291
     1
 70
    58
 90
        2
176
     1
 90
        2
176
     1
 90
        0
176
     1
 90
        0
176
     1
 40
0.6
176
     1
 40
30.0
176
     1
 62
     7
420
 16777215
176
     1
 90
        1
176
     1
 90
        4
176
     1
 62
     7
176
     1
 62
   257
176
     1
 90
        1
176
     1
 90
        1
176
     1
 40
1.0
176
     1
 90
        8
176
     1
 62
     7
176
     1
 40
1.0
176
     1
 90
        1
176
     1
 90
        6
176
     1
 90
        2
176
     1
 62
     7
176
     1
 90
        5
176
     1
 90
        0
176
     1
 90
        0
176
     1
290
     0
176
     1
 90
        1
176
     1
 40
0.0
176
     1
 90
        0
176
     1
290
     0
176
     1
290
     1
176
     1
290
     1
176
     1
290
     0
176
     1
290
     0
176
     1
290
     0
176
     1
290
     0
176
     1
290
     0
176
     1
290
     0
176
     1
 90
       50
176
     1
 40
0.0
176
     1
 40
1.0
176
     1
 90
        0
176
     1
 62
    18
176
     1
 90
       50
176
     1
 90
        3
176
     1
 62
     5
420
      255
176
     1
290
     0
176
     1
 90
       50
176
     1
 90
       50
176
     1
 90
       50
176
     1
290
     0
176
     1
 90
       50
176
     1
 62
   256
176
     0
 40
1.0
176
     0
 90
        2
176
     1
  1
strokes_ogs.tif
176
     1
290
     0
176
     1
 40
1.0
176
     1
 40
1.0
176
     1
  0
VISUALSTYLE
  5
39
102
{ACAD_REACTORS
330
2A
102
}
330
2A
100
AcDbVisualStyle
  2

 70
    15
177
     3
291
     1
 70
    58
 90
        2
176
     1
 90
        2
176
     1
 90
        0
176
     1
 90
        0
176
     1
 40
0.6
176
     1
 40
30.0
176
     1
 62
     7
420
 16777215
176
     1
 90
        1
176
     1
 90
        4
176
     1
 62
     7
176
     1
 62
   257
176
     1
 90
        1
176
     1
 90
        1
176
     1
 40
1.0
176
     1
 90
        8
176
     1
 62
     7
176
     1
 40
1.0
176
     1
 90
        1
176
     1
 90
        6
176
     1
 90
        2
176
     1
 62
     7
176
     1
 90
        5
176
     1
 90
        0
176
     1
 90
        0
176
     1
290
     0
176
     1
 90
        1
176
     1
 40
0.0
176
     1
 90
        0
176
     1
290
     0
176
     1
290
     1
176
     1
290
     1
176
     1
290
     0
176
     1
290
     0
176
     1
290
     0
176
     1
290
     0
176
     1
290
     0
176
     1
290
     0
176
     1
 90
       50
176
     1
 40
0.0
176
     1
 40
1.0
176
     1
 90
        0
176
     1
 62
    18
176
     1
 90
       50
176
     1
 90
        3
176
     1
 62
     5
420
      255
176
     1
290
     0
176
     1
 90
       50
176
     1
 90
       50
176
     1
 90
       50
176
     1
290
     0
176
     1
 90
       50
176
     1
 62
   256
176
     0
 40
1.0
176
     0
 90
        2
176
     1
  1
strokes_ogs.tif
176
     1
290
     0
176
     1
 40
1.0
176
     1
 40
1.0
176
     1
  0
VISUALSTYLE
  5
2B
102
{ACAD_REACTORS
330
2A
102
}
330
2A
100
AcDbVisualStyle
  2

 70
     0
177
     3
291
     1
 70
    58
 90
        2
176
     1
 90
        1
176
     1
 90
        1
176
     1
 90
        2
176
     1
 40
0.6
176
     1
 40
30.0
176
     1
 62
     7
420
 16777215
176
     1
 90
        0
176
     1
 90
        0
176
     1
 62
     7
176
     1
 62
   257
176
     1
 90
        1
176
     1
 90
        1
176
     1
 40
1.0
176
     1
 90
        8
176
     1
 62
     7
176
     1
 40
1.0
176
     1
 90
        1
176
     1
 90
        6
176
     1
 90
        2
176
     1
 62
     7
176
     1
 90
        5
176
     1
 90
        0
176
     1
 90
        0
176
     1
290
     0
176
     1
 90
       13
176
     1
 40
0.0
176
     1
 90
        0
176
     1
290
     0
176
     1
290
     1
176
     1
290
     1
176
     1
290
     0
176
     1
290
     0
176
     1
290
     0
176
     1
290
     0
176
     1
290
     0
176
     1
290
     0
176
     1
 90
       50
176
     1
 40
0.0
176
     1
 40
1.0
176
     1
 90
        0
176
     1
 62
    18
176
     1
 90
       50
176
     1
 90
        3
176
     1
 62
     5
420
      255
176
     1
290
     0
176
     1
 90
       50
176
     1
 90
       50
176
     1
 90
       50
176
     1
290
     0
176
     1
 90
       50
176
     1
 62
   256
176
     0
 40
1.0
176
     0
 90
        2
176
     1
  1
strokes_ogs.tif
176
     1
290
     0
176
     1
 40
1.0
176
     1
 40
1.0
176
     1
  0
VISUALSTYLE
  5
2C
102
{ACAD_REACTORS
330
2A
102
}
330
2A
100
AcDbVisualStyle
  2

 70
     1
177
     3
291
     1
 70
    58
 90
        2
176
     1
 90
        1
176
     1
 90
        1
176
     1
 90
        2
176
     1
 40
0.6
176
     1
 40
30.0
176
     1
 62
     7
420
 16777215
176
     1
 90
        1
176
     1
 90
        0
176
     1
 62
     7
176
     1
 62
   257
176
     1
 90
        1
176
     1
 90
        1
176
     1
 40
1.0
176
     1
 90
        0
176
     1
 62
   257
176
     1
 40
1.0
176
     1
 90
        1
176
     1
 90
        6
176
     1
 90
        2
176
     1
 62
     7
176
     1
 90
        5
176
     1
 90
        0
176
     1
 90
        0
176
     1
290
     0
176
     1
 90
       13
176
     1
 40
0.0
176
     1
 90
        0
176
     1
290
     0
176
     1
290
     1
176
     1
290
     1
176
     1
290
     0
176
     1
290
     0
176
     1
290
     0
176
     1
290
     0
176
     1
290
     0
176
     1
290
     0
176
     1
 90
       50
176
     1
 40
0.0
176
     1
 40
1.0
176
     1
 90
        0
176
     1
 62
    18
176
     1
 90
       50
176
     1
 90
        3
176
     1
 62
     5
420
      255
176
     1
290
     0
176
     1
 90
       50
176
     1
 90
       50
176
     1
 90
       50
176
     1
290
     0
176
     1
 90
       50
176
     1
 62
   256
176
     0
 40
1.0
176
     0
 90
        2
176
     1
  1
strokes_ogs.tif
176
     1
290
     0
176
     1
 40
1.0
176
     1
 40
1.0
176
     1
  0
VISUALSTYLE
  5
2D
102
{ACAD_REACTORS
330
2A
102
}
330
2A
100
AcDbVisualStyle
  2

 70
     2
177
     3
291
     1
 70
    58
 90
        2
176
     1
 90
        2
176
     1
 90
        1
176
     1
 90
        2
176
     1
 40
0.6
176
     1
 40
30.0
176
     1
 62
     7
420
 16777215
176
     1
 90
        0
176
     1
 90
        0
176
     1
 62
     7
176
     1
 62
   257
176
     1
 90
        1
176
     1
 90
        1
176
     1
 40
1.0
176
     1
 90
        0
176
     1
 62
     7
176
     1
 40
1.0
176
     1
 90
        1
176
     1
 90
        6
176
     1
 90
        2
176
     1
 62
     7
176
     1
 90
        5
176
     1
 90
        0
176
     1
 90
        0
176
     1
290
     0
176
     1
 90
       13
176
     1
 40
0.0
176
     1
 90
        0
176
     1
290
     0
176
     1
290
     1
176
     1
290
     1
176
     1
290
     0
176
     1
290
     0
176
     1
290
     0
176
     1
290
     0
176
     1
290
     0
176
     1
290
     0
176
     1
 90
       50
176
     1
 40
0.0
176
     1
 40
1.0
176
     1
 90
        0
176
     1
 62
    18
176
     1
 90
       50
176
     1
 90
        3
176
     1
 62
     5
420
      255
176
     1
290
     0
176
     1
 90
       50
176
     1
 90
       50
176
     1
 90
       50
176
     1
290
     0
176
     1
 90
       50
176
     1
 62
   256
176
     0
 40
1.0
176
     0
 90
        2
176
     1
  1
strokes_ogs.tif
176
     1
290
     0
176
     1
 40
1.0
176
     1
 40
1.0
176
     1
  0
VISUALSTYLE
  5
2E
102
{ACAD_REACTORS
330
2A
102
}
330
2A
100
AcDbVisualStyle
  2

 70
     3
177
     3
291
     1
 70
    58
 90
        2
176
     1
 90
        2
176
     1
 90
        1
176
     1
 90
        2
176
     1
 40
0.6
176
     1
 40
30.0
176
     1
 62
     7
420
 16777215
176
     1
 90
        1
176
     1
 90
        0
176
     1
 62
     7
176
     1
 62
   257
176
     1
 90
        1
176
     1
 90
        1
176
     1
 40
1.0
176
     1
 90
        0
176
     1
 62
   257
176
     1
 40
1.0
176
     1
 90
        1
176
     1
 90
        6
176
     1
 90
        2
176
     1
 62
     7
176
     1
 90
        5
176
     1
 90
        0
176
     1
 90
        0
176
     1
290
     0
176
     1
 90
       13
176
     1
 40
0.0
176
     1
 90
        0
176
     1
290
     0
176
     1
290
     1
176
     1
290
     1
176
     1
290
     0
176
     1
290
     0
176
     1
290
     0
176
     1
290
     0
176
     1
290
     0
176
     1
290
     0
176
     1
 90
       50
176
     1
 40
0.0
176
     1
 40
1.0
176
     1
 90
        0
176
     1
 62
    18
176
     1
 90
       50
176
     1
 90
        3
176
     1
 62
     5
420
      255
176
     1
290
     0
176
     1
 90
       50
176
     1
 90
       50
176
     1
 90
       50
176
     1
290
     0
176
     1
 90
       50
176
     1
 62
   256
176
     0
 40
1.0
176
     0
 90
        2
176
     1
  1
strokes_ogs.tif
176
     1
290
     0
176
     1
 40
1.0
176
     1
 40
1.0
176
     1
  0
VISUALSTYLE
  5
31
102
{ACAD_REACTORS
330
2A
102
}
330
2A
100
AcDbVisualStyle
  2

 70
     6
177
     3
291
     0
 70
    58
 90
        1
176
     1
 90
        2
176
     1
 90
        2
176
     1
 90
        0
176
     1
 40
0.6
176
     1
 40
30.0
176
     1
 62
     7
420
 16777215
176
     1
 90
        2
176
     1
 90
        2
176
     1
 62
     7
176
     1
 62
   257
176
     1
 90
        2
176
     1
 90
        1
176
     1
 40
40.0
176
     1
 90
        0
176
     1
 62
   257
176
     1
 40
1.0
176
     1
 90
        1
176
     1
 90
        6
176
     1
 90
        2
176
     1
 62
     7
176
     1
 90
        3
176
     1
 90
        0
176
     1
 90
        0
176
     1
290
     0
176
     1
 90
        1
176
     1
 40
0.0
176
     1
 90
        0
176
     1
290
     0
176
     1
290
     1
176
     1
290
     1
176
     1
290
     0
176
     1
290
     0
176
     1
290
     0
176
     1
290
     0
176
     1
290
     0
176
     1
290
     0
176
     1
 90
       50
176
     1
 40
0.0
176
     1
 40
1.0
176
     1
 90
        0
176
     1
 62
    18
176
     1
 90
       50
176
     1
 90
        3
176
     1
 62
     5
420
      255
176
     1
290
     0
176
     1
 90
       50
176
     1
 90
       50
176
     1
 90
       50
176
     1
290
     0
176
     1
 90
       50
176
     1
 62
   256
176
     0
 40
1.0
176
     0
 90
        2
176
     1
  1
strokes_ogs.tif
176
     1
290
     0
176
     1
 40
1.0
176
     1
 40
1.0
176
     1
  0
VISUALSTYLE
  5
3B
102
{ACAD_REACTORS
330
2A
102
}
330
2A
100
AcDbVisualStyle
  2

 70
    20
177
     3
291
     1
 70
    58
 90
        2
176
     1
 90
        2
176
     1
 90
        0
176
     1
 90
        0
176
     1
 40
0.6
176
     1
 40
30.0
176
     1
 62
     7
420
 16777215
176
     1
 90
        1
176
     1
 90
        4
176
     1
 62
     7
176
     1
 62
   257
176
     1
 90
        1
176
     1
 90
        1
176
     1
 40
1.0
176
     1
 90
       10
176
     1
 62
     7
176
     1
 40
1.0
176
     1
 90
        1
176
     1
 90
        6
176
     1
 90
        2
176
     1
 62
     7
176
     1
 90
        5
176
     1
 90
        0
176
     1
 90
        0
176
     1
290
     0
176
     1
 90
        1
176
     1
 40
0.0
176
     1
 90
        0
176
     1
290
     0
176
     1
290
     1
176
     1
290
     1
176
     1
290
     0
176
     1
290
     0
176
     1
290
     0
176
     1
290
     0
176
     1
290
     0
176
     1
290
     0
176
     1
 90
       50
176
     1
 40
0.0
176
     1
 40
1.0
176
     1
 90
        0
176
     1
 62
    18
176
     1
 90
       50
176
     1
 90
        3
176
     1
 62
     5
420
      255
176
     1
290
     0
176
     1
 90
       50
176
     1
 90
       50
176
     1
 90
       50
176
     1
290
     0
176
     1
 90
       50
176
     1
 62
   256
176
     0
 40
1.0
176
     0
 90
        2
176
     1
  1
strokes_ogs.tif
176
     1
290
     0
176
     1
 40
1.0
176
     1
 40
1.0
176
     1
  0
VISUALSTYLE
  5
38
102
{ACAD_REACTORS
330
2A
102
}
330
2A
100
AcDbVisualStyle
  2

 70
    14
177
     3
291
     1
 70
    58
 90
        2
176
     1
 90
        2
176
     1
 90
        0
176
     1
 90
        0
176
     1
 40
0.6
176
     1
 40
30.0
176
     1
 62
     7
420
 16777215
176
     1
 90
        1
176
     1
 90
        4
176
     1
 62
     7
176
     1
 62
   257
176
     1
 90
        7
176
     1
 90
        7
176
     1
 40
1.0
176
     1
 90
        8
176
     1
 62
     7
176
     1
 40
1.0
176
     1
 90
        1
176
     1
 90
        6
176
     1
 90
        2
176
     1
 62
     7
176
     1
 90
        5
176
     1
 90
        0
176
     1
 90
        0
176
     1
290
     0
176
     1
 90
        1
176
     1
 40
0.0
176
     1
 90
        0
176
     1
290
     0
176
     1
290
     1
176
     1
290
     1
176
     1
290
     0
176
     1
290
     0
176
     1
290
     0
176
     1
290
     0
176
     1
290
     0
176
     1
290
     0
176
     1
 90
       50
176
     1
 40
0.0
176
     1
 40
1.0
176
     1
 90
        0
176
     1
 62
    18
176
     1
 90
       50
176
     1
 90
        3
176
     1
 62
     5
420
      255
176
     1
290
     0
176
     1
 90
       50
176
     1
 90
       50
176
     1
 90
       50
176
     1
290
     0
176
     1
 90
       50
176
     1
 62
   256
176
     0
 40
1.0
176
     0
 90
        2
176
     1
  1
strokes_ogs.tif
176
     1
290
     0
176
     1
 40
1.0
176
     1
 40
1.0
176
     1
  0
VISUALSTYLE
  5
3C
102
{ACAD_REACTORS
330
2A
102
}
330
2A
100
AcDbVisualStyle
  2

 70
    21
177
     3
291
     1
 70
    58
 90
        2
176
     1
 90
        2
176
     1
 90
        0
176
     1
 90
        0
176
     1
 40
0.6
176
     1
 40
30.0
176
     1
 62
     7
420
 16777215
176
     1
 90
        1
176
     1
 90
        4
176
     1
 62
     7
176
     1
 62
   257
176
     1
 90
        1
176
     1
 90
        1
176
     1
 40
1.0
176
     1
 90
        9
176
     1
 62
     7
176
     1
 40
1.0
176
     1
 90
        1
176
     1
 90
        6
176
     1
 90
        2
176
     1
 62
     7
176
     1
 90
        5
176
     1
 90
        0
176
     1
 90
        0
176
     1
290
     0
176
     1
 90
        1
176
     1
 40
0.0
176
     1
 90
        0
176
     1
290
     0
176
     1
290
     1
176
     1
290
     1
176
     1
290
     0
176
     1
290
     0
176
     1
290
     0
176
     1
290
     0
176
     1
290
     0
176
     1
290
     0
176
     1
 90
       50
176
     1
 40
0.0
176
     1
 40
1.0
176
     1
 90
        0
176
     1
 62
    18
176
     1
 90
       50
176
     1
 90
        3
176
     1
 62
     5
420
      255
176
     1
290
     0
176
     1
 90
       50
176
     1
 90
       50
176
     1
 90
       50
176
     1
290
     0
176
     1
 90
       50
176
     1
 62
   256
176
     0
 40
1.0
176
     0
 90
        2
176
     1
  1
strokes_ogs.tif
176
     1
290
     0
176
     1
 40
1.0
176
     1
 40
1.0
176
     1
  0
VISUALSTYLE
  5
33
102
{ACAD_REACTORS
330
2A
102
}
330
2A
100
AcDbVisualStyle
  2

 70
     8
177
     3
291
     0
 70
    58
 90
        2
176
     1
 90
        3
176
     1
 90
        0
176
     1
 90
        2
176
     1
 40
0.6
176
     1
 40
30.0
176
     1
 62
     7
420
 16777215
176
     1
 90
        0
176
     1
 90
        0
176
     1
 62
     7
176
     1
 62
   257
176
     1
 90
        1
176
     1
 90
        1
176
     1
 40
1.0
176
     1
 90
        8
176
     1
 62
   257
176
     1
 40
1.0
176
     1
 90
        1
176
     1
 90
        6
176
     1
 90
        2
176
     1
 62
     7
176
     1
 90
        3
176
     1
 90
        0
176
     1
 90
        0
176
     1
290
     0
176
     1
 90
       13
176
     1
 40
0.0
176
     1
 90
        0
176
     1
290
     0
176
     1
290
     1
176
     1
290
     1
176
     1
290
     0
176
     1
290
     0
176
     1
290
     0
176
     1
290
     0
176
     1
290
     0
176
     1
290
     0
176
     1
 90
       50
176
     1
 40
0.0
176
     1
 40
1.0
176
     1
 90
        0
176
     1
 62
    18
176
     1
 90
       50
176
     1
 90
        3
176
     1
 62
     5
420
      255
176
     1
290
     0
176
     1
 90
       50
176
     1
 90
       50
176
     1
 90
       50
176
     1
290
     0
176
     1
 90
       50
176
     1
 62
   256
176
     0
 40
1.0
176
     0
 90
        2
176
     1
  1
strokes_ogs.tif
176
     1
290
     0
176
     1
 40
1.0
176
     1
 40
1.0
176
     1
  0
VISUALSTYLE
  5
42
102
{ACAD_REACTORS
330
2A
102
}
330
2A
100
AcDbVisualStyle
  2

 70
    27
177
     3
291
     0
 70
    58
 90
        2
176
     1
 90
        2
176
     1
 90
        1
176
     1
 90
        2
176
     1
 40
0.6
176
     1
 40
30.0
176
     1
 62
     7
420
 16777215
176
     1
 90
        0
176
     1
 90
        4
176
     1
 62
     7
176
     1
 62
   257
176
     1
 90
        1
176
     1
 90
        1
176
     1
 40
1.0
176
     1
 90
        8
176
     1
 62
   257
176
     1
 40
1.0
176
     1
 90
        1
176
     1
 90
        6
176
     1
 90
        2
176
     1
 62
     8
420
  7895160
176
     1
 90
        3
176
     1
 90
        0
176
     1
 90
        0
176
     1
290
     0
176
     1
 90
        5
176
     1
 40
0.0
176
     1
 90
        0
176
     1
290
     0
176
     1
290
     1
176
     1
290
     1
176
     1
290
     0
176
     1
290
     0
176
     1
290
     0
176
     1
290
     0
176
     1
290
     0
176
     1
290
     0
176
     1
 90
       50
176
     1
 40
0.0
176
     1
 40
1.0
176
     1
 90
        0
176
     1
 62
    18
176
     1
 90
       50
176
     1
 90
        3
176
     1
 62
     5
420
      255
176
     1
290
     0
176
     1
 90
       50
176
     1
 90
       50
176
     1
 90
       50
176
     1
290
     0
176
     1
 90
       50
176
     1
 62
   256
176
     0
 40
1.0
176
     0
 90
        2
176
     1
  1
strokes_ogs.tif
176
     1
290
     0
176
     1
 40
1.0
176
     1
 40
1.0
176
     1
  0
VISUALSTYLE
  5
41
102
{ACAD_REACTORS
330
2A
102
}
330
2A
100
AcDbVisualStyle
  2

 70
    26
177
     3
291
     0
 70
    58
 90
        2
176
     1
 90
        2
176
     1
 90
        1
176
     1
 90
        2
176
     1
 40
0.6
176
     1
 40
30.0
176
     1
 62
     7
420
 16777215
176
     1
 90
        1
176
     1
 90
       10
176
     1
 62
     7
176
     1
 62
   257
176
     1
 90
        2
176
     1
 90
        1
176
     1
 40
1.0
176
     1
 90
        8
176
     1
 62
   257
176
     1
 40
1.0
176
     1
 90
        1
176
     1
 90
        6
176
     1
 90
        2
176
     1
 62
     7
176
     1
 90
        3
176
     1
 90
        0
176
     1
 90
        0
176
     1
290
     0
176
     1
 90
        5
176
     1
 40
0.0
176
     1
 90
        0
176
     1
290
     0
176
     1
290
     1
176
     1
290
     1
176
     1
290
     0
176
     1
290
     0
176
     1
290
     0
176
     1
290
     0
176
     1
290
     0
176
     1
290
     0
176
     1
 90
       50
176
     1
 40
0.0
176
     1
 40
1.0
176
     1
 90
        0
176
     1
 62
    18
176
     1
 90
       50
176
     1
 90
        3
176
     1
 62
     5
420
      255
176
     1
290
     0
176
     1
 90
       50
176
     1
 90
       50
176
     1
 90
       50
176
     1
290
     0
176
     1
 90
       50
176
     1
 62
   256
176
     0
 40
1.0
176
     0
 90
        2
176
     1
  1
strokes_ogs.tif
176
     1
290
     0
176
     1
 40
1.0
176
     1
 40
1.0
176
     1
  0
VISUALSTYLE
  5
3E
102
{ACAD_REACTORS
330
2A
102
}
330
2A
100
AcDbVisualStyle
  2

 70
    23
177
     3
291
     0
 70
    58
 90
        2
176
     1
 90
        2
176
     1
 90
        3
176
     1
 90
        0
176
     1
 40
0.6
176
     1
 40
30.0
176
     1
 62
     7
420
 16777215
176
     1
 90
        2
176
     1
 90
        2
176
     1
 62
     7
176
     1
 62
     7
176
     1
 90
        1
176
     1
 90
        1
176
     1
 40
40.0
176
     1
 90
        8
176
     1
 62
     7
176
     1
 40
1.0
176
     1
 90
        1
176
     1
 90
        6
176
     1
 90
        2
176
     1
 62
     7
176
     1
 90
        3
176
     1
 90
        0
176
     1
 90
        0
176
     1
290
     0
176
     1
 90
        1
176
     1
 40
0.0
176
     1
 90
        0
176
     1
290
     0
176
     1
290
     1
176
     1
290
     1
176
     1
290
     0
176
     1
290
     0
176
     1
290
     0
176
     1
290
     0
176
     1
290
     0
176
     1
290
     0
176
     1
 90
       50
176
     1
 40
0.0
176
     1
 40
1.0
176
     1
 90
        0
176
     1
 62
    18
176
     1
 90
       50
176
     1
 90
        3
176
     1
 62
     5
420
      255
176
     1
290
     0
176
     1
 90
       50
176
     1
 90
       50
176
     1
 90
       50
176
     1
290
     0
176
     1
 90
       50
176
     1
 62
   256
176
     0
 40
1.0
176
     0
 90
        2
176
     1
  1
strokes_ogs.tif
176
     1
290
     0
176
     1
 40
1.0
176
     1
 40
1.0
176
     1
  0
VISUALSTYLE
  5
3F
102
{ACAD_REACTORS
330
2A
102
}
330
2A
100
AcDbVisualStyle
  2

 70
    24
177
     3
291
     0
 70
    58
 90
        1
176
     1
 90
        2
176
     1
 90
        2
176
     1
 90
        0
176
     1
 40
0.6
176
     1
 40
30.0
176
     1
 62
     7
420
 16777215
176
     1
 90
        2
176
     1
 90
        2
176
     1
 62
     7
176
     1
 62
     7
176
     1
 90
        1
176
     1
 90
        1
176
     1
 40
40.0
176
     1
 90
       11
176
     1
 62
     7
176
     1
 40
1.0
176
     1
 90
        1
176
     1
 90
        6
176
     1
 90
        2
176
     1
 62
     7
176
     1
 90
        6
176
     1
 90
        0
176
     1
 90
        0
176
     1
290
     0
176
     1
 90
        1
176
     1
 40
0.0
176
     1
 90
        0
176
     1
290
     0
176
     1
290
     1
176
     1
290
     1
176
     1
290
     0
176
     1
290
     0
176
     1
290
     0
176
     1
290
     0
176
     1
290
     0
176
     1
290
     0
176
     1
 90
       50
176
     1
 40
0.0
176
     1
 40
1.0
176
     1
 90
        0
176
     1
 62
    18
176
     1
 90
       50
176
     1
 90
        3
176
     1
 62
     5
420
      255
176
     1
290
     0
176
     1
 90
       50
176
     1
 90
       50
176
     1
 90
       50
176
     1
290
     0
176
     1
 90
       50
176
     1
 62
   256
176
     0
 40
1.0
176
     0
 90
        2
176
     1
  1
strokes_ogs.tif
176
     1
290
     0
176
     1
 40
1.0
176
     1
 40
1.0
176
     1
  0
VISUALSTYLE
  5
37
102
{ACAD_REACTORS
330
2A
102
}
330
2A
100
AcDbVisualStyle
  2

 70
    13
177
     3
291
     1
 70
    58
 90
        2
176
     1
 90
        2
176
     1
 90
        0
176
     1
 90
        0
176
     1
 40
0.6
176
     1
 40
30.0
176
     1
 62
     7
420
 16777215
176
     1
 90
        1
176
     1
 90
        4
176
     1
 62
     7
176
     1
 62
   257
176
     1
 90
        1
176
     1
 90
        1
176
     1
 40
1.0
176
     1
 90
       12
176
     1
 62
     7
176
     1
 40
1.0
176
     1
 90
        1
176
     1
 90
        6
176
     1
 90
        2
176
     1
 62
     7
176
     1
 90
        5
176
     1
 90
        0
176
     1
 90
        0
176
     1
290
     0
176
     1
 90
        1
176
     1
 40
0.0
176
     1
 90
        0
176
     1
290
     0
176
     1
290
     1
176
     1
290
     1
176
     1
290
     0
176
     1
290
     0
176
     1
290
     0
176
     1
290
     0
176
     1
290
     0
176
     1
290
     0
176
     1
 90
       50
176
     1
 40
0.0
176
     1
 40
1.0
176
     1
 90
        0
176
     1
 62
    18
176
     1
 90
       50
176
     1
 90
        3
176
     1
 62
     5
420
      255
176
     1
290
     0
176
     1
 90
       50
176
     1
 90
       50
176
     1
 90
       50
176
     1
290
     0
176
     1
 90
       50
176
     1
 62
   256
176
     0
 40
1.0
176
     0
 90
        2
176
     1
  1
strokes_ogs.tif
176
     1
290
     0
176
     1
 40
1.0
176
     1
 40
1.0
176
     1
  0
VISUALSTYLE
  5
30
102
{ACAD_REACTORS
330
2A
102
}
330
2A
100
AcDbVisualStyle
  2

 70
     5
177
     3
291
     0
 70
    58
 90
        0
176
     1
 90
        2
176
     1
 90
        0
176
     1
 90
        0
176
     1
 40
0.6
176
     1
 40
30.0
176
     1
 62
     7
420
 16777215
176
     1
 90
        1
176
     1
 90
        4
176
     1
 62
     7
176
     1
 62
   257
176
     1
 90
        1
176
     1
 90
        1
176
     1
 40
1.0
176
     1
 90
        0
176
     1
 62
   257
176
     1
 40
1.0
176
     1
 90
        1
176
     1
 90
        6
176
     1
 90
        2
176
     1
 62
     7
176
     1
 90
        3
176
     1
 90
        0
176
     1
 90
        0
176
     1
290
     0
176
     1
 90
        1
176
     1
 40
0.0
176
     1
 90
        0
176
     1
290
     0
176
     1
290
     1
176
     1
290
     1
176
     1
290
     0
176
     1
290
     0
176
     1
290
     0
176
     1
290
     0
176
     1
290
     0
176
     1
290
     0
176
     1
 90
       50
176
     1
 40
0.0
176
     1
 40
1.0
176
     1
 90
        0
176
     1
 62
    18
176
     1
 90
       50
176
     1
 90
        3
176
     1
 62
     5
420
      255
176
     1
290
     0
176
     1
 90
       50
176
     1
 90
       50
176
     1
 90
       50
176
     1
290
     0
176
     1
 90
       50
176
     1
 62
   256
176
     0
 40
1.0
176
     0
 90
        2
176
     1
  1
strokes_ogs.tif
176
     1
290
     0
176
     1
 40
1.0
176
     1
 40
1.0
176
     1
  0
VISUALSTYLE
  5
40
102
{ACAD_REACTORS
330
2A
102
}
330
2A
100
AcDbVisualStyle
  2

 70
    25
177
     3
291
     0
 70
    58
 90
        2
176
     1
 90
        2
176
     1
 90
        1
176
     1
 90
        1
176
     1
 40
0.5
176
     1
 40
30.0
176
     1
 62
     7
420
 16777215
176
     1
 90
        1
176
     1
 90
        0
176
     1
 62
     7
176
     1
 62
   257
176
     1
 90
        1
176
     1
 90
        1
176
     1
 40
1.0
176
     1
 90
        8
176
     1
 62
     7
176
     1
 40
1.0
176
     1
 90
        1
176
     1
 90
        6
176
     1
 90
        2
176
     1
 62
     7
176
     1
 90
        3
176
     1
 90
        0
176
     1
 90
        0
176
     1
290
     0
176
     1
 90
       13
176
     1
 40
0.0
176
     1
 90
        0
176
     1
290
     0
176
     1
290
     1
176
     1
290
     1
176
     1
290
     0
176
     1
290
     0
176
     1
290
     0
176
     1
290
     0
176
     1
290
     0
176
     1
290
     0
176
     1
 90
       50
176
     1
 40
0.0
176
     1
 40
1.0
176
     1
 90
        0
176
     1
 62
    18
176
     1
 90
       50
176
     1
 90
        3
176
     1
 62
     5
420
      255
176
     1
290
     0
176
     1
 90
       50
176
     1
 90
       50
176
     1
 90
       50
176
     1
290
     0
176
     1
 90
       50
176
     1
 62
   256
176
     0
 40
1.0
176
     0
 90
        2
176
     1
  1
strokes_ogs.tif
176
     1
290
     0
176
     1
 40
1.0
176
     1
 40
1.0
176
     1
  0
DICTIONARYVAR
  5
5999
102
{ACAD_REACTORS
330
5998
102
}
330
5998
100
DictionaryVariables
280
     0
  1
1:1
  0
DICTIONARYVAR
  5
59B4
102
{ACAD_REACTORS
330
5998
102
}
330
5998
100
DictionaryVariables
280
     0
  1
STANDARD
  0
DICTIONARYVAR
  5
59B3
102
{ACAD_REACTORS
330
5998
102
}
330
5998
100
DictionaryVariables
280
     0
  1
STANDARD
  0
DICTIONARYVAR
  5
8B0A
102
{ACAD_REACTORS
330
5998
102
}
330
5998
100
DictionaryVariables
280
     0
  1
Metric50
  0
DICTIONARYVAR
  5
8B0B
102
{ACAD_REACTORS
330
5998
102
}
330
5998
100
DictionaryVariables
280
     0
  1
Metric50
  0
DICTIONARYVAR
  5
59B5
102
{ACAD_REACTORS
330
5998
102
}
330
5998
100
DictionaryVariables
280
     0
  1
1
  0
DICTIONARYVAR
  5
59B6
102
{ACAD_REACTORS
330
5998
102
}
330
5998
100
DictionaryVariables
280
     0
  1
15
  0
DICTIONARY
  5
8B0F
330
8ABC
100
AcDbDictionary
280
     1
281
     1
  3
ACAD_XREC_ROUNDTRIP
360
8B4E
  0
DICTIONARY
  5
5F41
330
22
100
AcDbDictionary
280
     1
281
     1
  0
DICTIONARY
  5
8B0D
330
8ABB
100
AcDbDictionary
280
     1
281
     1
  3
ACAD_XREC_ROUNDTRIP
360
8B4D
  0
DICTIONARY
  5
8AB6
330
59A3
100
AcDbDictionary
280
     1
281
     1
  3
ACAD_ROUNDTRIP_2008_TABLESTYLE_CELLSTYLEMAP
360
8B4C
  0
XRECORD
  5
8B4E
102
{ACAD_REACTORS
330
8B0F
102
}
330
8B0F
100
AcDbXrecord
280
     1
102
DISPLAYNAME
  1
Metric50
102
FLAGS
 90
        0
  0
XRECORD
  5
8B4D
102
{ACAD_REACTORS
330
8B0D
102
}
330
8B0D
100
AcDbXrecord
280
     1
102
DISPLAYNAME
  1
Metric50
102
FLAGS
 90
        0
  0
CELLSTYLEMAP
  5
8B4C
102
{ACAD_REACTORS
330
8AB6
102
}
330
8AB6
100
AcDbCellStyleMap
 90
        3
300
CELLSTYLE
  1
TABLEFORMAT_BEGIN
 90
        5
170
     1
 91
        0
 92
    32768
 62
   257
 93
        1
300
CONTENTFORMAT
  1
CONTENTFORMAT_BEGIN
 90
        0
 91
        0
 92
      512
 93
        0
300

 40
0.0
140
1.0
 94
        5
 62
     0
340
11
144
6.0
309
CONTENTFORMAT_END
171
     1
301
MARGIN
  1
CELLMARGIN_BEGIN
 40
1.5
 40
1.5
 40
1.5
 40
1.5
 40
0.18
 40
0.18
309
CELLMARGIN_END
 94
        6
 95
        1
302
GRIDFORMAT
  1
GRIDFORMAT_BEGIN
 90
        0
 91
        1
 62
     0
 92
       -2
340
0
 93
        0
 40
1.125
309
GRIDFORMAT_END
 95
        2
302
GRIDFORMAT
  1
GRIDFORMAT_BEGIN
 90
        0
 91
        1
 62
     0
 92
       -2
340
0
 93
        0
 40
1.125
309
GRIDFORMAT_END
 95
        4
302
GRIDFORMAT
  1
GRIDFORMAT_BEGIN
 90
        0
 91
        1
 62
     0
 92
       -2
340
0
 93
        0
 40
1.125
309
GRIDFORMAT_END
 95
        8
302
GRIDFORMAT
  1
GRIDFORMAT_BEGIN
 90
        0
 91
        1
 62
     0
 92
       -2
340
0
 93
        0
 40
1.125
309
GRIDFORMAT_END
 95
       16
302
GRIDFORMAT
  1
GRIDFORMAT_BEGIN
 90
        0
 91
        1
 62
     0
 92
       -2
340
0
 93
        0
 40
1.125
309
GRIDFORMAT_END
 95
       32
302
GRIDFORMAT
  1
GRIDFORMAT_BEGIN
 90
        0
 91
        1
 62
     0
 92
       -2
340
0
 93
        0
 40
1.125
309
GRIDFORMAT_END
309
TABLEFORMAT_END
  1
CELLSTYLE_BEGIN
 90
        1
 91
        1
300
_TITLE
309
CELLSTYLE_END
300
CELLSTYLE
  1
TABLEFORMAT_BEGIN
 90
        5
170
     1
 91
        0
 92
        0
 62
   257
 93
        1
300
CONTENTFORMAT
  1
CONTENTFORMAT_BEGIN
 90
        0
 91
        0
 92
      512
 93
        0
300

 40
0.0
140
1.0
 94
        5
 62
     0
340
11
144
4.5
309
CONTENTFORMAT_END
171
     1
301
MARGIN
  1
CELLMARGIN_BEGIN
 40
1.5
 40
1.5
 40
1.5
 40
1.5
 40
0.18
 40
0.18
309
CELLMARGIN_END
 94
        6
 95
        1
302
GRIDFORMAT
  1
GRIDFORMAT_BEGIN
 90
        0
 91
        1
 62
     0
 92
       -2
340
0
 93
        0
 40
1.125
309
GRIDFORMAT_END
 95
        2
302
GRIDFORMAT
  1
GRIDFORMAT_BEGIN
 90
        0
 91
        1
 62
     0
 92
       -2
340
0
 93
        0
 40
1.125
309
GRIDFORMAT_END
 95
        4
302
GRIDFORMAT
  1
GRIDFORMAT_BEGIN
 90
        0
 91
        1
 62
     0
 92
       -2
340
0
 93
        0
 40
1.125
309
GRIDFORMAT_END
 95
        8
302
GRIDFORMAT
  1
GRIDFORMAT_BEGIN
 90
        0
 91
        1
 62
     0
 92
       -2
340
0
 93
        0
 40
1.125
309
GRIDFORMAT_END
 95
       16
302
GRIDFORMAT
  1
GRIDFORMAT_BEGIN
 90
        0
 91
        1
 62
     0
 92
       -2
340
0
 93
        0
 40
1.125
309
GRIDFORMAT_END
 95
       32
302
GRIDFORMAT
  1
GRIDFORMAT_BEGIN
 90
        0
 91
        1
 62
     0
 92
       -2
340
0
 93
        0
 40
1.125
309
GRIDFORMAT_END
309
TABLEFORMAT_END
  1
CELLSTYLE_BEGIN
 90
        2
 91
        1
300
_HEADER
309
CELLSTYLE_END
300
CELLSTYLE
  1
TABLEFORMAT_BEGIN
 90
        5
170
     1
 91
        0
 92
        0
 62
   257
 93
        1
300
CONTENTFORMAT
  1
CONTENTFORMAT_BEGIN
 90
        0
 91
        0
 92
      512
 93
        0
300

 40
0.0
140
1.0
 94
        2
 62
     0
340
11
144
4.5
309
CONTENTFORMAT_END
171
     1
301
MARGIN
  1
CELLMARGIN_BEGIN
 40
1.5
 40
1.5
 40
1.5
 40
1.5
 40
0.18
 40
0.18
309
CELLMARGIN_END
 94
        6
 95
        1
302
GRIDFORMAT
  1
GRIDFORMAT_BEGIN
 90
        0
 91
        1
 62
     0
 92
       -2
340
0
 93
        0
 40
1.125
309
GRIDFORMAT_END
 95
        2
302
GRIDFORMAT
  1
GRIDFORMAT_BEGIN
 90
        0
 91
        1
 62
     0
 92
       -2
340
0
 93
        0
 40
1.125
309
GRIDFORMAT_END
 95
        4
302
GRIDFORMAT
  1
GRIDFORMAT_BEGIN
 90
        0
 91
        1
 62
     0
 92
       -2
340
0
 93
        0
 40
1.125
309
GRIDFORMAT_END
 95
        8
302
GRIDFORMAT
  1
GRIDFORMAT_BEGIN
 90
        0
 91
        1
 62
     0
 92
       -2
340
0
 93
        0
 40
1.125
309
GRIDFORMAT_END
 95
       16
302
GRIDFORMAT
  1
GRIDFORMAT_BEGIN
 90
        0
 91
        1
 62
     0
 92
       -2
340
0
 93
        0
 40
1.125
309
GRIDFORMAT_END
 95
       32
302
GRIDFORMAT
  1
GRIDFORMAT_BEGIN
 90
        0
 91
        1
 62
     0
 92
       -2
340
0
 93
        0
 40
1.125
309
GRIDFORMAT_END
309
TABLEFORMAT_END
  1
CELLSTYLE_BEGIN
 90
        3
 91
        2
300
_DATA
309
CELLSTYLE_END
  0
ENDSEC
  0
SECTION
  2
ACDSDATA
 70
     2
 71
     6
  0
ACDSSCHEMA
 90
        0
  1
AcDb_Thumbnail_Schema
  2
AcDbDs::ID
280
    10
 91
        8
  2
Thumbnail_Data
280
    15
 91
        0
101
ACDSRECORD
 95
        0
 90
        1
  2
AcDbDs::TreatedAsObjectData
280
     1
291
     1
101
ACDSRECORD
 95
        0
 90
        2
  2
AcDbDs::Legacy
280
     1
291
     1
101
ACDSRECORD
  1
AcDbDs::ID
 90
        3
  2
AcDs:Indexable
280
     1
291
     1
101
ACDSRECORD
  1
AcDbDs::ID
 90
        4
  2
AcDbDs::HandleAttribute
280
     7
282
     1
  0
ACDSSCHEMA
 90
        1
  1
AcDbDs::TreatedAsObjectDataSchema
  2
AcDbDs::TreatedAsObjectData
280
     1
 91
        0
  0
ACDSSCHEMA
 90
        2
  1
AcDbDs::LegacySchema
  2
AcDbDs::Legacy
280
     1
 91
        0
  0
ACDSSCHEMA
 90
        3
  1
AcDbDs::IndexedPropertySchema
  2
AcDs:Indexable
280
     1
 91
        0
  0
ACDSSCHEMA
 90
        4
  1
AcDbDs::HandleAttributeSchema
  2
AcDbDs::HandleAttribute
280
     7
 91
        1
284
     1
  0
ACDSRECORD
 90
        0
  2
AcDbDs::ID
280
    10
320
22
  2
Thumbnail_Data
280
    15
 94
     1986
310
89504E470D0A1A0A0000000D4948445200000100000000A408030000004F56001800000300504C5445000000000000FFFFFF0000000000000000000000000000000000000000000000000000330000660000990000CC0000FF0033000033330033660033990033CC0033FF0066000066330066660066990066CC0066FF0099
310
000099330099660099990099CC0099FF00CC0000CC3300CC6600CC9900CCCC00CCFF00FF0000FF3300FF6600FF9900FFCC00FFFF3300003300333300663300993300CC3300FF3333003333333333663333993333CC3333FF3366003366333366663366993366CC3366FF3399003399333399663399993399CC3399FF33CC00
310
33CC3333CC6633CC9933CCCC33CCFF33FF0033FF3333FF6633FF9933FFCC33FFFF6600006600336600666600996600CC6600FF6633006633336633666633996633CC6633FF6666006666336666666666996666CC6666FF6699006699336699666699996699CC6699FF66CC0066CC3366CC6666CC9966CCCC66CCFF66FF0066
310
FF3366FF6666FF9966FFCC66FFFF9900009900339900669900999900CC9900FF9933009933339933669933999933CC9933FF9966009966339966669966999966CC9966FF9999009999339999669999999999CC9999FF99CC0099CC3399CC6699CC9999CCCC99CCFF99FF0099FF3399FF6699FF9999FFCC99FFFFCC0000CC00
310
33CC0066CC0099CC00CCCC00FFCC3300CC3333CC3366CC3399CC33CCCC33FFCC6600CC6633CC6666CC6699CC66CCCC66FFCC9900CC9933CC9966CC9999CC99CCCC99FFCCCC00CCCC33CCCC66CCCC99CCCCCCCCCCFFCCFF00CCFF33CCFF66CCFF99CCFFCCCCFFFFFF0000FF0033FF0066FF0099FF00CCFF00FFFF3300FF3333
310
FF3366FF3399FF33CCFF33FFFF6600FF6633FF6666FF6699FF66CCFF66FFFF9900FF9933FF9966FF9999FF99CCFF99FFFFCC00FFCC33FFCC66FFCC99FFCCCCFFCCFFFFFF00FFFF33FFFF66FFFF99FFFFCCFFFFFF0000000D0D0D1A1A1A2828283535354343435050505D5D5D6B6B6B787878868686939393A1A1A1AEAEAEBB
310
BBBBC9C9C9D6D6D6E4E4E4F1F1F1FFFFFF000000000000000000000000000000000000000000000000000000000000C11FEF660000047D4944415478DAED9DCD96F2200C86E70E7A1B6CB8FFDD6C7A1BAC7205D974FF51A0FC156BFD46CF31E48D0E221C47799A849052FD21E5F20300000000000000000000000000000000
310
00000000000000F007B11F976F07F0E9A305000000000000000000000000007200F0FEC75A01F891FB1BEF0FAC134029350370EA00702D9B1775006A0DB80B608B922B5BAEE41E15001E8B2800B50D382F2FFE9F38DA8445A40970D680E403989FE9C083C37E144201F8DA46EE1E003A5C00B5BE403E007A450306DEB0B800
310
812610E7C1FF3781321BC80A84B89A05A206B87B26506C601BD98008007BD81FE781F8D923806DE3EBF540ADF954FB3F92360D728EFD3747194094270068A8FCF2E28030FD050045031C6F4F34805A0D283A21CD04A213DC23A0CDB904C0F17EBB6D02F243E19800A83460AFDE0270110E090B85B309C4C3EADA98F6592C3C
310
888A2502A064C1A9AA6839CC6521580CFB0D7931693E20ADE6BCF5C7BB2E005C00C452614ACCDACDDF8EBB1E0D78F0612D01000000806E00A41BC01BCE0F02007C0000000000880170DEEAAD0B404F80B52D866A0C9F7C836F07E01B2D01806A005639005A0900000000DE3334391B24424AF8F9457F55E776E7D491A81D22
310
D6BA460600728BEF75EE38159A2BE72D05C2001C046CBC9F5747558B5D68B83552368028EB2313A81B1E99806400BD13BC06B08CFF250000C0843E209F3A9D1D409B0FB0DD364AAB1AC0695A5005203E991A005D0008C11DD34D0D10190AC7F8D57BBF5D7C196BBEAC01DCD2803E8D2A0C406A5B073E606E00379C202B9A05
310
7C20A41440CC0870FAF385B640E8B872784D570FDB765CCC5A00907200C7F5525A01E4D5A04200D6D9FDBE8694981D00B06D46A8DE507C24C444034829C1D585E4E01900E7173449D16D96A428877159E7E3807D7C030055D328297ADE5020EBBC4077666008A0F40E93A262013471FC3A88EB1380AA61A6D5E06B0052B9DC
310
580BC904D03FD600D2F5A47B31238066803C00500D724613E81D19F787B7E14313FA8034BC3CD456B9996B2C1302B814AEB14CAA01D700B29690560DB8F0901A007CD11B00000000C0273EDFD0B3FD79C3BC38007CF2FCE5E9D5F6C1751A13E06A35787390330170E1ABC45CAA6A03B02CC6998543E98BBCE05D92AC47A579
310
4DD7B74804507F93A23365ABE801A03BCA0D805E038402480CFC6137C66CCE101947460F80E8F0163F6A432694A1D00760777F9C9DA04600F14937D23380121ED47DCC5A00F0580302962901FC4659D3631D205600589109942831F6652CA7705A0B80BDEFF768100980540320E5008205AC87F05A248EFB2C791B447AFE9B
310
0BDFC73201BC1607CCE703D43B4100B800D06D1B281B09B5C401FC3412E4B923C191061000CC0960980F5004C03863D8EC65A8EA0150274543694C95149D1F401E8C560D3806B3F8D1C7F3021CAA07802EF7DF00882D7B1FCB3D2F5084D32CC0F571BED200EA35802606401700682A00A41C40BC64E604E0627F58F702E100
310
F8A401BD9C013CDC3626F2172759F34F6E5E1D670D00DE2E0000009300E87E4670DC0700300179003E2E5F0E40A4000000000000000000000000A8957F05BDF25ECAD9A52E0000000049454E44AE426082
  0
ENDSEC
  0
EOF
