  0
SECTION
  2
HEADER
  9
$ACADVER
  1
AC1027
  9
$ACADMAINTVER
 70
    55
  9
$DWGCODEPAGE
  3
ANSI_932
  9
$LASTSAVEDBY
  1
marketing
  9
$REQUIREDVERSIONS
160
                 0
  9
$INSBASE
 10
0.0
 20
0.0
 30
0.0
  9
$EXTMIN
 10
-0.0501380315408824
 20
-0.082936915335722
 30
-0.000000000000013
  9
$EXTMAX
 10
525.0436834305673
 20
742.5000090715352
 30
0.0000000000000023
  9
$LIMMIN
 10
-296.316999476111
 20
-370.7034300441653
  9
$LIMMAX
 10
623.3128432133979
 20
328.6261559379898
  9
$ORTHOMODE
 70
     0
  9
$REGENMODE
 70
     1
  9
$FILLMODE
 70
     1
  9
$QTEXTMODE
 70
     0
  9
$MIRRTEXT
 70
     1
  9
$LTSCALE
 40
10.0
  9
$ATTMODE
 70
     1
  9
$TEXTSIZE
 40
5.0
  9
$TRACEWID
 40
0.05
  9
$TEXTSTYLE
  7
STANDARD1
  9
$CLAYER
  8
10
  9
$CELTYPE
  6
CONTINUOUS
  9
$CECOLOR
 62
   256
  9
$CELTSCALE
 40
1.0
  9
$DISPSILH
 70
     0
  9
$DIMSCALE
 40
1.0
  9
$DIMASZ
 40
2.0
  9
$DIMEXO
 40
1.0
  9
$DIMDLI
 40
0.5
  9
$DIMRND
 40
0.0
  9
$DIMDLE
 40
0.0
  9
$DIMEXE
 40
0.5
  9
$DIMTP
 40
0.0
  9
$DIMTM
 40
0.0
  9
$DIMTXT
 40
6.0
  9
$DIMCEN
 40
0.09
  9
$DIMTSZ
 40
0.0
  9
$DIMTOL
 70
     0
  9
$DIMLIM
 70
     0
  9
$DIMTIH
 70
     0
  9
$DIMTOH
 70
     1
  9
$DIMSE1
 70
     0
  9
$DIMSE2
 70
     0
  9
$DIMTAD
 70
     3
  9
$DIMZIN
 70
    12
  9
$DIMBLK
  1
OPEN
  9
$DIMASO
 70
     1
  9
$DIMSHO
 70
     1
  9
$DIMPOST
  1

  9
$DIMAPOST
  1

  9
$DIMALT
 70
     0
  9
$DIMALTD
 70
     2
  9
$DIMALTF
 40
25.4
  9
$DIMLFAC
 40
1.0
  9
$DIMTOFL
 70
     0
  9
$DIMTVP
 40
0.0
  9
$DIMTIX
 70
     0
  9
$DIMSOXD
 70
     0
  9
$DIMSAH
 70
     0
  9
$DIMBLK1
  1

  9
$DIMBLK2
  1

  9
$DIMSTYLE
  2
STANDARD
  9
$DIMCLRD
 70
     0
  9
$DIMCLRE
 70
     0
  9
$DIMCLRT
 70
     0
  9
$DIMTFAC
 40
1.0
  9
$DIMGAP
 40
2.0
  9
$DIMJUST
 70
     0
  9
$DIMSD1
 70
     0
  9
$DIMSD2
 70
     0
  9
$DIMTOLJ
 70
     1
  9
$DIMTZIN
 70
     0
  9
$DIMALTZ
 70
     0
  9
$DIMALTTZ
 70
     0
  9
$DIMUPT
 70
     0
  9
$DIMDEC
 70
     1
  9
$DIMTDEC
 70
     1
  9
$DIMALTU
 70
     2
  9
$DIMALTTD
 70
     2
  9
$DIMTXSTY
  7
STANDARD
  9
$DIMAUNIT
 70
     0
  9
$DIMADEC
 70
     0
  9
$DIMALTRND
 40
0.0
  9
$DIMAZIN
 70
     0
  9
$DIMDSEP
 70
    46
  9
$DIMATFIT
 70
     3
  9
$DIMFRAC
 70
     0
  9
$DIMLDRBLK
  1
OPEN
  9
$DIMLUNIT
 70
     2
  9
$DIMLWD
 70
    -2
  9
$DIMLWE
 70
    -2
  9
$DIMTMOVE
 70
     0
  9
$DIMFXL
 40
1.0
  9
$DIMFXLON
 70
     0
  9
$DIMJOGANG
 40
0.7853981633974483
  9
$DIMTFILL
 70
     0
  9
$DIMTFILLCLR
 70
     0
  9
$DIMARCSYM
 70
     0
  9
$DIMLTYPE
  6

  9
$DIMLTEX1
  6

  9
$DIMLTEX2
  6

  9
$DIMTXTDIRECTION
 70
     0
  9
$LUNITS
 70
     2
  9
$LUPREC
 70
     4
  9
$SKETCHINC
 40
0.1
  9
$FILLETRAD
 40
0.0
  9
$AUNITS
 70
     0
  9
$AUPREC
 70
     0
  9
$MENU
  1
.
  9
$ELEVATION
 40
0.0
  9
$PELEVATION
 40
0.0
  9
$THICKNESS
 40
0.0
  9
$LIMCHECK
 70
     0
  9
$CHAMFERA
 40
0.0
  9
$CHAMFERB
 40
0.0
  9
$CHAMFERC
 40
0.0
  9
$CHAMFERD
 40
0.0
  9
$SKPOLY
 70
     0
  9
$TDCREATE
 40
2452286.555658658
  9
$TDUCREATE
 40
2452286.180658658
  9
$TDUPDATE
 40
2459243.582038264
  9
$TDUUPDATE
 40
2459243.207038264
  9
$TDINDWG
 40
1.6378458912
  9
$TDUSRTIMER
 40
1.6378444213
  9
$USRTIMER
 70
     1
  9
$ANGBASE
 50
0.0
  9
$ANGDIR
 70
     0
  9
$PDMODE
 70
     0
  9
$PDSIZE
 40
0.0
  9
$PLINEWID
 40
0.0
  9
$SPLFRAME
 70
     0
  9
$SPLINETYPE
 70
     6
  9
$SPLINESEGS
 70
     8
  9
$HANDSEED
  5
10F2B
  9
$SURFTAB1
 70
     6
  9
$SURFTAB2
 70
     6
  9
$SURFTYPE
 70
     6
  9
$SURFU
 70
     6
  9
$SURFV
 70
     6
  9
$UCSBASE
  2

  9
$UCSNAME
  2

  9
$UCSORG
 10
0.0
 20
0.0
 30
0.0
  9
$UCSXDIR
 10
1.0
 20
0.0
 30
0.0
  9
$UCSYDIR
 10
0.0
 20
1.0
 30
0.0
  9
$UCSORTHOREF
  2

  9
$UCSORTHOVIEW
 70
     0
  9
$UCSORGTOP
 10
0.0
 20
0.0
 30
0.0
  9
$UCSORGBOTTOM
 10
0.0
 20
0.0
 30
0.0
  9
$UCSORGLEFT
 10
0.0
 20
0.0
 30
0.0
  9
$UCSORGRIGHT
 10
0.0
 20
0.0
 30
0.0
  9
$UCSORGFRONT
 10
0.0
 20
0.0
 30
0.0
  9
$UCSORGBACK
 10
0.0
 20
0.0
 30
0.0
  9
$PUCSBASE
  2

  9
$PUCSNAME
  2

  9
$PUCSORG
 10
0.0
 20
0.0
 30
0.0
  9
$PUCSXDIR
 10
1.0
 20
0.0
 30
0.0
  9
$PUCSYDIR
 10
0.0
 20
1.0
 30
0.0
  9
$PUCSORTHOREF
  2

  9
$PUCSORTHOVIEW
 70
     0
  9
$PUCSORGTOP
 10
0.0
 20
0.0
 30
0.0
  9
$PUCSORGBOTTOM
 10
0.0
 20
0.0
 30
0.0
  9
$PUCSORGLEFT
 10
0.0
 20
0.0
 30
0.0
  9
$PUCSORGRIGHT
 10
0.0
 20
0.0
 30
0.0
  9
$PUCSORGFRONT
 10
0.0
 20
0.0
 30
0.0
  9
$PUCSORGBACK
 10
0.0
 20
0.0
 30
0.0
  9
$USERI1
 70
     0
  9
$USERI2
 70
     0
  9
$USERI3
 70
     0
  9
$USERI4
 70
     0
  9
$USERI5
 70
     0
  9
$USERR1
 40
0.0
  9
$USERR2
 40
0.0
  9
$USERR3
 40
0.0
  9
$USERR4
 40
0.0
  9
$USERR5
 40
0.0
  9
$WORLDVIEW
 70
     1
  9
$SHADEDGE
 70
     3
  9
$SHADEDIF
 70
    70
  9
$TILEMODE
 70
     1
  9
$MAXACTVP
 70
    48
  9
$PINSBASE
 10
0.0
 20
0.0
 30
0.0
  9
$PLIMCHECK
 70
     0
  9
$PEXTMIN
 10
1.122749993181602
 20
0.7804166500962629
 30
0.0
  9
$PEXTMAX
 10
10.10474993863443
 20
7.023749850866361
 30
0.0
  9
$PLIMMIN
 10
-0.2312499519408218
 20
-0.2312499894870548
  9
$PLIMMAX
 10
11.45874984621061
 20
8.035416452903447
  9
$UNITMODE
 70
     0
  9
$VISRETAIN
 70
     1
  9
$PLINEGEN
 70
     0
  9
$PSLTSCALE
 70
     1
  9
$TREEDEPTH
 70
  3020
  9
$CMLSTYLE
  2
STANDARD
  9
$CMLJUST
 70
     0
  9
$CMLSCALE
 40
1.0
  9
$PROXYGRAPHICS
 70
     1
  9
$MEASUREMENT
 70
     0
  9
$CELWEIGHT
370
    -1
  9
$ENDCAPS
280
     0
  9
$JOINSTYLE
280
     0
  9
$LWDISPLAY
290
     0
  9
$INSUNITS
 70
     0
  9
$HYPERLINKBASE
  1

  9
$STYLESHEET
  1
MONOCHROME.CTB
  9
$XEDIT
290
     1
  9
$CEPSNTYPE
380
     0
  9
$PSTYLEMODE
290
     1
  9
$FINGERPRINTGUID
  2

  9
$VERSIONGUID
  2
{CA64C2F1-4A64-42DC-AEE6-7E198D027616}
  9
$EXTNAMES
290
     1
  9
$PSVPSCALE
 40
0.0
  9
$OLESTARTUP
290
     0
  9
$SORTENTS
280
   127
  9
$INDEXCTL
280
     0
  9
$HIDETEXT
280
     0
  9
$XCLIPFRAME
280
     2
  9
$HALOGAP
280
     0
  9
$OBSCOLOR
 70
   257
  9
$OBSLTYPE
280
     0
  9
$INTERSECTIONDISPLAY
280
     0
  9
$INTERSECTIONCOLOR
 70
   257
  9
$DIMASSOC
280
     1
  9
$PROJECTNAME
  1

  9
$CAMERADISPLAY
290
     0
  9
$LENSLENGTH
 40
50.0
  9
$CAMERAHEIGHT
 40
0.0
  9
$STEPSPERSEC
 40
2.0
  9
$STEPSIZE
 40
6.0
  9
$3DDWFPREC
 40
2.0
  9
$PSOLWIDTH
 40
0.25
  9
$PSOLHEIGHT
 40
4.0
  9
$LOFTANG1
 40
1.570796326794896
  9
$LOFTANG2
 40
1.570796326794896
  9
$LOFTMAG1
 40
0.0
  9
$LOFTMAG2
 40
0.0
  9
$LOFTPARAM
 70
     7
  9
$LOFTNORMALS
280
     1
  9
$LATITUDE
 40
37.795
  9
$LONGITUDE
 40
-122.394
  9
$NORTHDIRECTION
 40
0.0
  9
$TIMEZONE
 70
 -8000
  9
$LIGHTGLYPHDISPLAY
280
     1
  9
$TILEMODELIGHTSYNCH
280
     1
  9
$CMATERIAL
347
627F
  9
$SOLIDHIST
280
     1
  9
$SHOWHIST
280
     1
  9
$DWFFRAME
280
     2
  9
$DGNFRAME
280
     0
  9
$REALWORLDSCALE
290
     1
  9
$INTERFERECOLOR
 62
     1
  9
$INTERFEREOBJVS
345
62A1
  9
$INTERFEREVPVS
346
66D0
  9
$CSHADOW
280
     0
  9
$SHADOWPLANELOCATION
 40
0.0
  0
ENDSEC
  0
SECTION
  2
CLASSES
  0
CLASS
  1
ACDBDICTIONARYWDFLT
  2
AcDbDictionaryWithDefault
  3
ObjectDBX Classes
 90
        0
 91
        1
280
     0
281
     0
  0
CLASS
  1
DICTIONARYVAR
  2
AcDbDictionaryVar
  3
ObjectDBX Classes
 90
        0
 91
       12
280
     0
281
     0
  0
CLASS
  1
MATERIAL
  2
AcDbMaterial
  3
ObjectDBX Classes
 90
     1153
 91
        3
280
     0
281
     0
  0
CLASS
  1
VISUALSTYLE
  2
AcDbVisualStyle
  3
ObjectDBX Classes
 90
     4095
 91
       26
280
     0
281
     0
  0
CLASS
  1
TABLESTYLE
  2
AcDbTableStyle
  3
ObjectDBX Classes
 90
     4095
 91
        1
280
     0
281
     0
  0
CLASS
  1
SCALE
  2
AcDbScale
  3
ObjectDBX Classes
 90
     1153
 91
       17
280
     0
281
     0
  0
CLASS
  1
MLEADERSTYLE
  2
AcDbMLeaderStyle
  3
ACDB_MLEADERSTYLE_CLASS
 90
     4095
 91
        1
280
     0
281
     0
  0
CLASS
  1
ACDBSECTIONVIEWSTYLE
  2
AcDbSectionViewStyle
  3
ObjectDBX Classes
 90
     1025
 91
        2
280
     0
281
     0
  0
CLASS
  1
ACDBDETAILVIEWSTYLE
  2
AcDbDetailViewStyle
  3
ObjectDBX Classes
 90
     1025
 91
        2
280
     0
281
     0
  0
CLASS
  1
CELLSTYLEMAP
  2
AcDbCellStyleMap
  3
ObjectDBX Classes
 90
     1152
 91
        2
280
     0
281
     0
  0
CLASS
  1
SORTENTSTABLE
  2
AcDbSortentsTable
  3
ObjectDBX Classes
 90
        0
 91
        2
280
     0
281
     0
  0
ENDSEC
  0
SECTION
  2
TABLES
  0
TABLE
  2
VPORT
  5
8
330
0
100
AcDbSymbolTable
 70
     1
  0
VPORT
  5
6275
330
8
100
AcDbSymbolTableRecord
100
AcDbViewportTableRecord
  2
*Active
 70
     0
 10
0.0
 20
0.0
 11
1.0
 21
1.0
 12
262.4967726995134
 22
371.2085360780998
 13
0.0
 23
0.0
 14
1.0
 24
1.0
 15
10.0
 25
10.0
 16
0.0
 26
0.0
 36
1.0
 17
0.0
 27
0.0
 37
0.0
 40
749.3337000412971
 41
2.464339908952958
 42
50.0
 43
0.0
 44
0.0
 50
0.0
 51
0.0
 71
     0
 72
   100
 73
     1
 74
     1
 75
     0
 76
     0
 77
     0
 78
     0
281
     0
 65
     1
110
0.0
120
0.0
130
0.0
111
1.0
121
0.0
131
0.0
112
0.0
122
1.0
132
0.0
 79
     0
146
0.0
348
629D
 60
     3
 61
     5
292
     1
282
     1
141
0.0
142
0.0
 63
   250
421
  3355443
1001
ACAD_NAV_VCDISPLAY
1070
     3
  0
ENDTAB
  0
TABLE
  2
LTYPE
  5
5
330
0
100
AcDbSymbolTable
 70
     8
  0
LTYPE
  5
13
330
5
100
AcDbSymbolTableRecord
100
AcDbLinetypeTableRecord
  2
BYBLOCK
 70
     0
  3

 72
    65
 73
     0
 40
0.0
  0
LTYPE
  5
14
330
5
100
AcDbSymbolTableRecord
100
AcDbLinetypeTableRecord
  2
BYLAYER
 70
     0
  3

 72
    65
 73
     0
 40
0.0
  0
LTYPE
  5
15
330
5
100
AcDbSymbolTableRecord
100
AcDbLinetypeTableRecord
  2
CONTINUOUS
 70
     0
  3
Solid line
 72
    65
 73
     0
 40
0.0
  0
LTYPE
  5
22
330
5
100
AcDbSymbolTableRecord
100
AcDbLinetypeTableRecord
  2
CONTINOUS
 70
     0
  3
Solid line
 72
    65
 73
     0
 40
0.0
  0
LTYPE
  5
23
330
5
100
AcDbSymbolTableRecord
100
AcDbLinetypeTableRecord
  2
DASHED
 70
     0
  3
__ __ __ __ __ __ __ __ __ __ __ __ __ __ __
 72
    65
 73
     2
 40
0.75
 49
0.5
 74
     0
 49
-0.25
 74
     0
  0
LTYPE
  5
24
330
5
100
AcDbSymbolTableRecord
100
AcDbLinetypeTableRecord
  2
DASHDOT
 70
     0
  3
__ . __ . __ . __ . __ . __ . __ . __ . __ . __
 72
    65
 73
     4
 40
1.0
 49
0.5
 74
     0
 49
-0.25
 74
     0
 49
0.0
 74
     0
 49
-0.25
 74
     0
  0
LTYPE
  5
4C47
330
5
100
AcDbSymbolTableRecord
100
AcDbLinetypeTableRecord
  2
DIVIDE
 70
     0
  3
Divide ____ . . ____ . . ____ . . ____ . . ____
 72
    65
 73
     6
 40
1.25
 49
0.5
 74
     0
 49
-0.25
 74
     0
 49
0.0
 74
     0
 49
-0.25
 74
     0
 49
0.0
 74
     0
 49
-0.25
 74
     0
  0
LTYPE
  5
6AE6
330
5
100
AcDbSymbolTableRecord
100
AcDbLinetypeTableRecord
  2
SLD-実線
 70
     0
  3
SolidWorks Line Style
 72
    65
 73
     0
 40
0.0
  0
LTYPE
  5
10F0A
330
5
100
AcDbSymbolTableRecord
100
AcDbLinetypeTableRecord
  2
HIDDENX2
 70
     0
  3
Hidden (2x) ____ ____ ____ ____ ____ ____ ____
 72
    65
 73
     2
 40
0.75
 49
0.5
 74
     0
 49
-0.25
 74
     0
  0
ENDTAB
  0
TABLE
  2
LAYER
  5
2
102
{ACAD_XDICTIONARY
360
FF70
102
}
330
0
100
AcDbSymbolTable
 70
    13
  0
LAYER
  5
10
102
{ACAD_XDICTIONARY
360
6368
102
}
330
2
100
AcDbSymbolTableRecord
100
AcDbLayerTableRecord
  2
0
 70
     0
 62
     7
  6
CONTINOUS
370
    -3
390
F
347
628F
348
0
  0
LAYER
  5
2F
102
{ACAD_XDICTIONARY
360
636A
102
}
330
2
100
AcDbSymbolTableRecord
100
AcDbLayerTableRecord
  2
10
 70
     0
 62
     4
  6
CONTINOUS
370
    -3
390
F
347
628F
348
0
  0
LAYER
  5
31
102
{ACAD_XDICTIONARY
360
636C
102
}
330
2
100
AcDbSymbolTableRecord
100
AcDbLayerTableRecord
  2
12
 70
     0
 62
     3
  6
CONTINOUS
370
    -3
390
F
347
628F
348
0
  0
LAYER
  5
35
102
{ACAD_XDICTIONARY
360
636E
102
}
330
2
100
AcDbSymbolTableRecord
100
AcDbLayerTableRecord
  2
16
 70
     0
 62
     6
  6
DASHDOT
370
    -3
390
F
347
628F
348
0
  0
LAYER
  5
3C
102
{ACAD_XDICTIONARY
360
6372
102
}
330
2
100
AcDbSymbolTableRecord
100
AcDbLayerTableRecord
  2
11
 70
     0
 62
     1
  6
CONTINOUS
370
    -3
390
F
347
628F
348
0
  0
LAYER
  5
3D
102
{ACAD_XDICTIONARY
360
6374
102
}
330
2
100
AcDbSymbolTableRecord
100
AcDbLayerTableRecord
  2
24
 70
     0
 62
     7
  6
CONTINOUS
370
    -3
390
F
347
628F
348
0
  0
LAYER
  5
3A2
102
{ACAD_XDICTIONARY
360
6376
102
}
330
2
100
AcDbSymbolTableRecord
100
AcDbLayerTableRecord
  2
30
 70
     0
 62
     9
  6
CONTINUOUS
370
    -3
390
F
347
628F
348
0
  0
LAYER
  5
3A4
330
2
100
AcDbSymbolTableRecord
100
AcDbLayerTableRecord
  2
DEFPOINTS
 70
     0
 62
     7
  6
CONTINUOUS
290
     0
370
    -3
390
F
347
628F
348
0
  0
LAYER
  5
3BBA
102
{ACAD_XDICTIONARY
360
6378
102
}
330
2
100
AcDbSymbolTableRecord
100
AcDbLayerTableRecord
  2
18
 70
     0
 62
     5
  6
DIVIDE
370
    -3
390
F
347
628F
348
0
  0
LAYER
  5
5C47
102
{ACAD_XDICTIONARY
360
637E
102
}
330
2
100
AcDbSymbolTableRecord
100
AcDbLayerTableRecord
  2
17
 70
     0
 62
     2
  6
DASHDOT
370
    -3
390
F
347
628F
348
0
  0
LAYER
  5
6AEB
102
{ACAD_XDICTIONARY
360
6AEC
102
}
330
2
100
AcDbSymbolTableRecord
100
AcDbLayerTableRecord
  2
SLD-0
 70
     0
 62
     7
  6
SLD-実線
370
    -3
390
F
347
628F
348
0
  0
LAYER
  5
10619
102
{ACAD_XDICTIONARY
360
1061A
102
}
330
2
100
AcDbSymbolTableRecord
100
AcDbLayerTableRecord
  2
240
 70
     0
 62
     7
  6
CONTINUOUS
370
    -3
390
F
347
628F
348
0
  0
LAYER
  5
10EF5
330
2
100
AcDbSymbolTableRecord
100
AcDbLayerTableRecord
  2
19
 70
     0
 62
     7
  6
CONTINOUS
370
    -3
390
F
347
628F
348
0
1001
AcAecLayerStandard
1000

1000

1001
AcCmTransparency
1071
        0
  0
ENDTAB
  0
TABLE
  2
STYLE
  5
3
330
0
100
AcDbSymbolTable
 70
     4
  0
STYLE
  5
11
330
3
100
AcDbSymbolTableRecord
100
AcDbTextStyleTableRecord
  2
STANDARD
 70
     0
 40
0.0
 41
1.0
 50
0.0
 71
     0
 42
2.0
  3
txt.shx
  4
bigfont.shx
  0
STYLE
  5
42
330
3
100
AcDbSymbolTableRecord
100
AcDbTextStyleTableRecord
  2
STANDARD1
 70
     0
 40
0.0
 41
1.0
 50
0.0
 71
     0
 42
5.0
  3
MONOTXT
  4
BIGFONT
  0
STYLE
  5
6AED
330
3
100
AcDbSymbolTableRecord
100
AcDbTextStyleTableRecord
  2
SLDTEXTSTYLE0
 70
     0
 40
0.0
 41
1.0
 50
0.0
 71
     0
 42
3.0
  3
@MS UI Gothic.ttf
  4

1001
ACAD
1000
@MS UI Gothic
1071
      306
  0
STYLE
  5
10F09
330
3
100
AcDbSymbolTableRecord
100
AcDbTextStyleTableRecord
  2

 70
     1
 40
0.0
 41
1.0
 50
0.0
 71
     0
 42
5.0
  3
ltypeshp.shx
  4

  0
ENDTAB
  0
TABLE
  2
VIEW
  5
6
330
0
100
AcDbSymbolTable
 70
     3
  0
VIEW
  5
230C
330
6
100
AcDbSymbolTableRecord
100
AcDbViewTableRecord
  2
OLE1
 70
     0
 40
148.912488
 10
429.497628
 20
2.560627
 41
103.145806
 11
0.0
 21
0.0
 31
1.0
 12
0.0
 22
0.0
 32
0.0
 42
50.0
 43
0.0
 44
0.0
 50
0.0
 71
     0
281
     0
 72
     0
 73
     0
348
629D
  0
VIEW
  5
230E
330
6
100
AcDbSymbolTableRecord
100
AcDbViewTableRecord
  2
OLE2
 70
     0
 40
170.778692
 10
322.66497
 20
-5.978304
 41
102.467215
 11
0.0
 21
0.0
 31
1.0
 12
0.0
 22
0.0
 32
0.0
 42
50.0
 43
0.0
 44
0.0
 50
0.0
 71
     0
281
     0
 72
     0
 73
     0
348
629D
  0
VIEW
  5
23AA
330
6
100
AcDbSymbolTableRecord
100
AcDbViewTableRecord
  2
OLE3
 70
     0
 40
591.7897389999998
 10
84.79698199999999
 20
-46.09335999999998
 41
388.792096
 11
0.0
 21
0.0
 31
1.0
 12
0.0
 22
0.0
 32
0.0
 42
50.0
 43
0.0
 44
0.0
 50
0.0
 71
     0
281
     0
 72
     0
 73
     0
348
629D
  0
ENDTAB
  0
TABLE
  2
UCS
  5
7
330
0
100
AcDbSymbolTable
 70
     0
  0
ENDTAB
  0
TABLE
  2
APPID
  5
9
330
0
100
AcDbSymbolTable
 70
     9
  0
APPID
  5
12
330
9
100
AcDbSymbolTableRecord
100
AcDbRegAppTableRecord
  2
ACAD
 70
     0
  0
APPID
  5
ECD
330
9
100
AcDbSymbolTableRecord
100
AcDbRegAppTableRecord
  2
CONTENTBLOCKICON
 70
     0
  0
APPID
  5
630E
330
9
100
AcDbSymbolTableRecord
100
AcDbRegAppTableRecord
  2
ACAD_EXEMPT_FROM_CAD_STANDARDS
 70
     0
  0
APPID
  5
6329
330
9
100
AcDbSymbolTableRecord
100
AcDbRegAppTableRecord
  2
ACAD_NAV_VCDISPLAY
 70
     0
  0
APPID
  5
64DC
330
9
100
AcDbSymbolTableRecord
100
AcDbRegAppTableRecord
  2
ACAD_MLEADERVER
 70
     0
  0
APPID
  5
1061B
330
9
100
AcDbSymbolTableRecord
100
AcDbRegAppTableRecord
  2
ACAD_DSTYLE_DIMJAG
 70
     0
  0
APPID
  5
1061C
330
9
100
AcDbSymbolTableRecord
100
AcDbRegAppTableRecord
  2
ACAD_DSTYLE_DIMTALN
 70
     0
  0
APPID
  5
10EF6
330
9
100
AcDbSymbolTableRecord
100
AcDbRegAppTableRecord
  2
AcAecLayerStandard
 70
     0
  0
APPID
  5
10EF7
330
9
100
AcDbSymbolTableRecord
100
AcDbRegAppTableRecord
  2
AcCmTransparency
 70
     0
  0
ENDTAB
  0
TABLE
  2
DIMSTYLE
  5
A
330
0
100
AcDbSymbolTable
 70
     4
100
AcDbDimStyleTable
 71
     1
340
175
  0
DIMSTYLE
105
175
102
{ACAD_REACTORS
330
54D8
330
5844
330
59D1
330
59D0
330
59B9
330
59D2
330
59C6
330
59BB
330
59BA
330
5847
330
5E68
330
606B
330
6175
330
6186
330
616E
330
100FB
330
101D5
330
1033B
330
1050B
330
1050D
330
1050E
330
10639
330
10A55
330
10A59
330
10A5B
330
10A56
330
105C3
330
10C72
330
61FF
330
10C75
330
10DD0
330
10DD1
102
}
330
A
100
AcDbSymbolTableRecord
100
AcDbDimStyleTableRecord
  2
STANDARD
 70
     0
 41
2.0
 42
1.0
 43
0.5
 44
0.5
 73
     0
 77
     3
 78
    12
140
6.0
147
2.0
271
     1
272
     1
340
11
341
3B2
342
3B2
1001
ACAD_DSTYLE_DIMJAG
1070
   388
1040
1.5
1001
ACAD_DSTYLE_DIMTALN
1070
   392
1070
     0
  0
DIMSTYLE
105
10A43
102
{ACAD_REACTORS
330
10C71
102
}
330
A
100
AcDbSymbolTableRecord
100
AcDbDimStyleTableRecord
  2
STANDARD1
 70
     0
 41
2.0
 42
3.0
 43
0.5
 44
0.5
 73
     0
 74
     0
 77
     3
 78
    12
140
6.0
147
2.0
172
     1
271
     8
272
     8
289
     2
340
11
341
3B2
342
3B2
  0
DIMSTYLE
105
10DCE
330
A
100
AcDbSymbolTableRecord
100
AcDbDimStyleTableRecord
  2
ISO-25
 70
     0
 41
2.5
 42
0.625
 43
3.75
 44
1.25
 73
     0
 74
     0
 77
     1
 78
     8
140
6.0
141
2.5
143
0.0393700787
147
0.625
171
     3
172
     1
271
     2
272
     2
274
     3
278
    44
283
     0
284
     8
340
11
1001
ACAD_DSTYLE_DIMJAG
1070
   388
1040
1.5
1001
ACAD_DSTYLE_DIMTALN
1070
   392
1070
     0
  0
ENDTAB
  0
TABLE
  2
BLOCK_RECORD
  5
1
330
0
100
AcDbSymbolTable
 70
    39
  0
BLOCK_RECORD
  5
1E
102
{ACAD_XDICTIONARY
360
178
102
}
330
1
100
AcDbSymbolTableRecord
100
AcDbBlockTableRecord
  2
*MODEL_SPACE
340
6262
 70
     0
280
     1
281
     0
  0
BLOCK_RECORD
  5
1A
102
{ACAD_XDICTIONARY
360
17A
102
}
330
1
100
AcDbSymbolTableRecord
100
AcDbBlockTableRecord
  2
*PAPER_SPACE
340
6263
 70
     0
280
     1
281
     0
  0
BLOCK_RECORD
  5
3B2
330
1
100
AcDbSymbolTableRecord
100
AcDbBlockTableRecord
  2
_OPEN
340
0
102
{BLKREFS
331
10CA7
331
10CAF
331
10CB0
331
10CB8
331
10CB9
331
10CC1
331
10CC2
331
10CCA
331
10CCB
331
10CD3
331
10CD4
331
10CDC
331
10CDD
331
10CE5
331
10CE6
331
10CEF
331
10CF0
331
10CF8
331
10CF9
331
10E75
331
10E76
331
10E7D
331
10E7E
331
10E86
331
10E87
331
10E95
331
10E96
331
10EA0
331
10EA1
331
10EA9
331
10EAA
331
10DC8
331
10EB2
331
10EB3
331
10D01
331
10D02
331
10D0B
331
10D0C
331
10D14
331
10D15
331
10D1D
331
10D2E
331
10D2F
331
10D40
331
10D41
331
10D52
331
10D53
331
10D5B
331
10D8A
331
10D8B
331
10DAE
331
10DAF
331
10DBA
331
10DBB
331
10DC7
331
10E02
331
10E03
331
10E0C
331
10E0D
331
10E1F
331
10E20
331
10C94
331
10C95
102
}
 70
     0
280
     1
281
     0
  0
BLOCK_RECORD
  5
54D9
330
1
100
AcDbSymbolTableRecord
100
AcDbBlockTableRecord
  2
*D1
340
0
 70
     0
280
     1
281
     0
  0
BLOCK_RECORD
  5
5879
330
1
100
AcDbSymbolTableRecord
100
AcDbBlockTableRecord
  2
*D2
340
0
 70
     0
280
     1
281
     0
  0
BLOCK_RECORD
  5
5885
330
1
100
AcDbSymbolTableRecord
100
AcDbBlockTableRecord
  2
*D3
340
0
 70
     0
280
     1
281
     0
  0
BLOCK_RECORD
  5
5A00
330
1
100
AcDbSymbolTableRecord
100
AcDbBlockTableRecord
  2
*D4
340
0
 70
     0
280
     1
281
     0
  0
BLOCK_RECORD
  5
5A0C
330
1
100
AcDbSymbolTableRecord
100
AcDbBlockTableRecord
  2
*D5
340
0
 70
     0
280
     1
281
     0
  0
BLOCK_RECORD
  5
5A19
330
1
100
AcDbSymbolTableRecord
100
AcDbBlockTableRecord
  2
*D6
340
0
 70
     0
280
     1
281
     0
  0
BLOCK_RECORD
  5
5A31
330
1
100
AcDbSymbolTableRecord
100
AcDbBlockTableRecord
  2
*D7
340
0
 70
     0
280
     1
281
     0
  0
BLOCK_RECORD
  5
5A3D
330
1
100
AcDbSymbolTableRecord
100
AcDbBlockTableRecord
  2
*D8
340
0
 70
     0
280
     1
281
     0
  0
BLOCK_RECORD
  5
5A49
330
1
100
AcDbSymbolTableRecord
100
AcDbBlockTableRecord
  2
*D9
340
0
 70
     0
280
     1
281
     0
  0
BLOCK_RECORD
  5
5A55
330
1
100
AcDbSymbolTableRecord
100
AcDbBlockTableRecord
  2
*D10
340
0
 70
     0
280
     1
281
     0
  0
BLOCK_RECORD
  5
5E69
330
1
100
AcDbSymbolTableRecord
100
AcDbBlockTableRecord
  2
*D11
340
0
 70
     0
280
     1
281
     0
  0
BLOCK_RECORD
  5
606C
330
1
100
AcDbSymbolTableRecord
100
AcDbBlockTableRecord
  2
*D12
340
0
 70
     0
280
     1
281
     0
  0
BLOCK_RECORD
  5
6194
330
1
100
AcDbSymbolTableRecord
100
AcDbBlockTableRecord
  2
*D13
340
0
 70
     0
280
     1
281
     0
  0
BLOCK_RECORD
  5
61A0
330
1
100
AcDbSymbolTableRecord
100
AcDbBlockTableRecord
  2
*D14
340
0
 70
     0
280
     1
281
     0
  0
BLOCK_RECORD
  5
61AB
330
1
100
AcDbSymbolTableRecord
100
AcDbBlockTableRecord
  2
*D15
340
0
 70
     0
280
     1
281
     0
  0
BLOCK_RECORD
  5
68DF
330
1
100
AcDbSymbolTableRecord
100
AcDbBlockTableRecord
  2
SW_CENTERMARKSYMBOL_18
340
0
102
{BLKREFS
331
1014B
102
}
 70
     0
280
     1
281
     0
  0
BLOCK_RECORD
  5
68EA
330
1
100
AcDbSymbolTableRecord
100
AcDbBlockTableRecord
  2
SW_CENTERMARKSYMBOL_19
340
0
102
{BLKREFS
331
1014C
102
}
 70
     0
280
     1
281
     0
  0
BLOCK_RECORD
  5
6ADB
330
1
100
AcDbSymbolTableRecord
100
AcDbBlockTableRecord
  2
SW_CENTERMARKSYMBOL_24
340
0
102
{BLKREFS
331
10C73
102
}
 70
     0
280
     1
281
     0
  0
BLOCK_RECORD
  5
100FC
330
1
100
AcDbSymbolTableRecord
100
AcDbBlockTableRecord
  2
*D19
340
0
 70
     0
280
     1
281
     0
  0
BLOCK_RECORD
  5
101D6
330
1
100
AcDbSymbolTableRecord
100
AcDbBlockTableRecord
  2
*D20
340
0
 70
     0
280
     1
281
     0
  0
BLOCK_RECORD
  5
1033C
330
1
100
AcDbSymbolTableRecord
100
AcDbBlockTableRecord
  2
*D21
340
0
 70
     0
280
     1
281
     0
  0
BLOCK_RECORD
  5
1051C
330
1
100
AcDbSymbolTableRecord
100
AcDbBlockTableRecord
  2
*D22
340
0
 70
     0
280
     1
281
     0
  0
BLOCK_RECORD
  5
10528
330
1
100
AcDbSymbolTableRecord
100
AcDbBlockTableRecord
  2
*D23
340
0
 70
     0
280
     1
281
     0
  0
BLOCK_RECORD
  5
10534
330
1
100
AcDbSymbolTableRecord
100
AcDbBlockTableRecord
  2
*D24
340
0
 70
     0
280
     1
281
     0
  0
BLOCK_RECORD
  5
105C4
330
1
100
AcDbSymbolTableRecord
100
AcDbBlockTableRecord
  2
*D25
340
0
 70
     0
280
     1
281
     0
  0
BLOCK_RECORD
  5
1063A
330
1
100
AcDbSymbolTableRecord
100
AcDbBlockTableRecord
  2
*D26
340
0
 70
     0
280
     1
281
     0
  0
BLOCK_RECORD
  5
10A74
330
1
100
AcDbSymbolTableRecord
100
AcDbBlockTableRecord
  2
*D27
340
0
 70
     0
280
     1
281
     0
  0
BLOCK_RECORD
  5
10A80
330
1
100
AcDbSymbolTableRecord
100
AcDbBlockTableRecord
  2
*D28
340
0
 70
     0
280
     1
281
     0
  0
BLOCK_RECORD
  5
10A8C
330
1
100
AcDbSymbolTableRecord
100
AcDbBlockTableRecord
  2
*D29
340
0
 70
     0
280
     1
281
     0
  0
BLOCK_RECORD
  5
10A99
330
1
100
AcDbSymbolTableRecord
100
AcDbBlockTableRecord
  2
*D30
340
0
 70
     0
280
     1
281
     0
  0
BLOCK_RECORD
  5
10AA6
330
1
100
AcDbSymbolTableRecord
100
AcDbBlockTableRecord
  2
*D31
340
0
 70
     0
280
     1
281
     0
  0
BLOCK_RECORD
  5
10ABF
330
1
100
AcDbSymbolTableRecord
100
AcDbBlockTableRecord
  2
*D32
340
0
 70
     0
280
     1
281
     0
  0
BLOCK_RECORD
  5
10C76
330
1
100
AcDbSymbolTableRecord
100
AcDbBlockTableRecord
  2
*D33
340
0
 70
     0
280
     1
281
     0
  0
BLOCK_RECORD
  5
10C83
330
1
100
AcDbSymbolTableRecord
100
AcDbBlockTableRecord
  2
*D34
340
0
 70
     0
280
     1
281
     0
  0
BLOCK_RECORD
  5
10DB4
330
1
100
AcDbSymbolTableRecord
100
AcDbBlockTableRecord
  2
*D35
340
0
 70
     0
280
     1
281
     0
  0
BLOCK_RECORD
  5
10DC1
330
1
100
AcDbSymbolTableRecord
100
AcDbBlockTableRecord
  2
*D36
340
0
 70
     0
280
     1
281
     0
  0
BLOCK_RECORD
  5
10DCF
102
{ACAD_XDICTIONARY
360
10DD2
102
}
330
1
100
AcDbSymbolTableRecord
100
AcDbBlockTableRecord
  2
A$C27422FFF
340
0
 70
     0
280
     1
281
     0
  0
ENDTAB
  0
ENDSEC
  0
SECTION
  2
BLOCKS
  0
BLOCK
  5
1F
330
1E
100
AcDbEntity
  8
0
100
AcDbBlockBegin
  2
*MODEL_SPACE
 70
     0
 10
0.0
 20
0.0
 30
0.0
  3
*MODEL_SPACE
  1

  0
ENDBLK
  5
20
330
1E
100
AcDbEntity
  8
0
100
AcDbBlockEnd
  0
BLOCK
  5
1B
330
1A
100
AcDbEntity
 67
     1
  8
0
100
AcDbBlockBegin
  2
*PAPER_SPACE
 70
     0
 10
0.0
 20
0.0
 30
0.0
  3
*PAPER_SPACE
  1

  0
ENDBLK
  5
1C
330
1A
100
AcDbEntity
 67
     1
  8
0
100
AcDbBlockEnd
  0
BLOCK
  5
3B6
330
3B2
100
AcDbEntity
  8
0
100
AcDbBlockBegin
  2
_OPEN
 70
     0
 10
0.0
 20
0.0
 30
0.0
  3
_OPEN
  1

  0
LINE
  5
3B3
330
3B2
100
AcDbEntity
  8
30
  6
Continuous
 62
     0
100
AcDbLine
 10
-1.0
 20
0.166667
 30
0.0
 11
0.0
 21
0.0
 31
0.0
  0
LINE
  5
3B4
330
3B2
100
AcDbEntity
  8
30
  6
Continuous
 62
     0
100
AcDbLine
 10
-1.0
 20
-0.166667
 30
0.0
 11
0.0
 21
0.0
 31
0.0
  0
LINE
  5
3B5
330
3B2
100
AcDbEntity
  8
30
  6
Continuous
 62
     0
100
AcDbLine
 10
0.0
 20
0.0
 30
0.0
 11
-1.0
 21
0.0
 31
0.0
  0
ENDBLK
  5
3B7
330
3B2
100
AcDbEntity
  8
0
100
AcDbBlockEnd
  0
BLOCK
  5
54E2
330
54D9
100
AcDbEntity
  8
0
100
AcDbBlockBegin
  2
*D1
 70
     1
 10
0.0
 20
0.0
 30
0.0
  3
*D1
  1

  0
LINE
  5
10CA4
330
54D9
100
AcDbEntity
  8
30
  6
Continuous
 62
     0
440
 16777216
370
    -2
100
AcDbLine
 10
148.9717423220147
 20
242.2620294687267
 30
0.0
 11
116.7717423220147
 21
242.2620294687267
 31
0.0
  0
LINE
  5
10CA5
330
54D9
100
AcDbEntity
  8
30
  6
Continuous
 62
     0
440
 16777216
370
    -2
100
AcDbLine
 10
116.7717423220147
 20
242.2620294687267
 30
0.0
 11
107.7115646203613
 21
216.6404701962403
 31
0.0
  0
MTEXT
  5
10CA6
330
54D9
100
AcDbEntity
  8
30
  6
Continuous
 62
     0
440
 16777216
100
AcDbMText
 10
133.8717423220147
 20
247.2620294687267
 30
0.0
 40
6.0
 41
0.0
 46
0.0
 71
     5
 72
     1
  1
\A1;M4×0.7
 73
     1
 44
1.0
  0
INSERT
  5
10CA7
330
54D9
100
AcDbEntity
  8
30
  6
Continuous
 62
     0
440
 16777216
370
    -2
100
AcDbBlockReference
  2
_OPEN
 10
107.0447940374455
 20
214.7548888562398
 30
0.0
 41
2.0
 42
2.0
 43
2.0
 50
250.5256217693037
  0
LINE
  5
10CA8
330
54D9
100
AcDbEntity
  8
30
  6
Continuous
 62
     0
440
 16777216
370
    -2
100
AcDbLine
 10
105.954638074529
 20
211.926516595846
 30
0.0
 11
106.134638074529
 21
211.9265165958461
 31
0.0
  0
LINE
  5
10CA9
330
54D9
100
AcDbEntity
  8
30
  6
Continuous
 62
     0
440
 16777216
370
    -2
100
AcDbLine
 10
106.0446380745291
 20
211.8365165958461
 30
0.0
 11
106.0446380745291
 21
212.0165165958461
 31
0.0
  0
POINT
  5
10CAA
330
54D9
100
AcDbEntity
  8
DEFPOINTS
  6
Continuous
 62
     0
440
 16777216
100
AcDbPoint
 10
107.0447940374455
 20
214.7548888562398
 30
0.0
  0
POINT
  5
10CAB
330
54D9
100
AcDbEntity
  8
DEFPOINTS
  6
Continuous
 62
     0
440
 16777216
100
AcDbPoint
 10
105.0444821116126
 20
209.0981443354523
 30
0.0
  0
ENDBLK
  5
54E3
330
54D9
100
AcDbEntity
  8
0
100
AcDbBlockEnd
  0
BLOCK
  5
5883
330
5879
100
AcDbEntity
  8
0
100
AcDbBlockBegin
  2
*D2
 70
     1
 10
0.0
 20
0.0
 30
0.0
  3
*D2
  1

  0
LINE
  5
10CAC
330
5879
100
AcDbEntity
  8
30
  6
Continuous
 62
     0
440
 16777216
370
    -2
100
AcDbLine
 10
76.13463807452898
 20
339.2249820348809
 30
0.0
 11
76.13463807452898
 21
304.944971930984
 31
0.0
  0
LINE
  5
10CAD
330
5879
100
AcDbEntity
  8
30
  6
Continuous
 62
     0
440
 16777216
370
    -2
100
AcDbLine
 10
166.134638074529
 20
339.2249820348809
 30
0.0
 11
166.134638074529
 21
304.944971930984
 31
0.0
  0
LINE
  5
10CAE
330
5879
100
AcDbEntity
  8
30
  6
Continuous
 62
     0
440
 16777216
370
    -2
100
AcDbLine
 10
78.13463807452897
 20
305.444971930984
 30
0.0
 11
164.134638074529
 21
305.444971930984
 31
0.0
  0
INSERT
  5
10CAF
330
5879
100
AcDbEntity
  8
30
  6
Continuous
 62
     0
440
 16777216
370
    -2
100
AcDbBlockReference
  2
_OPEN
 10
76.13463807452898
 20
305.444971930984
 30
0.0
 41
2.0
 42
2.0
 43
2.0
 50
180.0
  0
INSERT
  5
10CB0
330
5879
100
AcDbEntity
  8
30
  6
Continuous
 62
     0
440
 16777216
370
    -2
100
AcDbBlockReference
  2
_OPEN
 10
166.134638074529
 20
305.444971930984
 30
0.0
 41
2.0
 42
2.0
 43
2.0
  0
MTEXT
  5
10CB1
330
5879
100
AcDbEntity
  8
30
  6
Continuous
 62
     0
440
 16777216
100
AcDbMText
 10
121.134638074529
 20
310.444971930984
 30
0.0
 40
6.0
 41
0.0
 46
0.0
 71
     5
 72
     1
  1
\A1;90
 73
     1
 44
1.0
  0
POINT
  5
10CB2
330
5879
100
AcDbEntity
  8
DEFPOINTS
  6
Continuous
 62
     0
440
 16777216
100
AcDbPoint
 10
76.13463807452898
 20
340.2249820348809
 30
0.0
  0
POINT
  5
10CB3
330
5879
100
AcDbEntity
  8
DEFPOINTS
  6
Continuous
 62
     0
440
 16777216
100
AcDbPoint
 10
166.134638074529
 20
340.2249820348809
 30
0.0
  0
POINT
  5
10CB4
330
5879
100
AcDbEntity
  8
DEFPOINTS
  6
Continuous
 62
     0
440
 16777216
100
AcDbPoint
 10
166.134638074529
 20
305.444971930984
 30
0.0
  0
ENDBLK
  5
5884
330
5879
100
AcDbEntity
  8
0
100
AcDbBlockEnd
  0
BLOCK
  5
588F
330
5885
100
AcDbEntity
  8
0
100
AcDbBlockBegin
  2
*D3
 70
     1
 10
0.0
 20
0.0
 30
0.0
  3
*D3
  1

  0
LINE
  5
10CF5
330
5885
100
AcDbEntity
  8
30
  6
Continuous
 62
     0
440
 16777216
370
    -2
100
AcDbLine
 10
91.134638074529
 20
347.2249820183809
 30
0.0
 11
91.134638074529
 21
317.0690067985488
 31
0.0
  0
LINE
  5
10CF6
330
5885
100
AcDbEntity
  8
30
  6
Continuous
 62
     0
440
 16777216
370
    -2
100
AcDbLine
 10
151.134638074529
 20
347.2249820183809
 30
0.0
 11
151.134638074529
 21
317.0690067985488
 31
0.0
  0
LINE
  5
10CF7
330
5885
100
AcDbEntity
  8
30
  6
Continuous
 62
     0
440
 16777216
370
    -2
100
AcDbLine
 10
93.13463807452899
 20
317.5690067985488
 30
0.0
 11
149.134638074529
 21
317.5690067985488
 31
0.0
  0
INSERT
  5
10CF8
330
5885
100
AcDbEntity
  8
30
  6
Continuous
 62
     0
440
 16777216
370
    -2
100
AcDbBlockReference
  2
_OPEN
 10
91.134638074529
 20
317.5690067985488
 30
0.0
 41
2.0
 42
2.0
 43
2.0
 50
180.0
  0
INSERT
  5
10CF9
330
5885
100
AcDbEntity
  8
30
  6
Continuous
 62
     0
440
 16777216
370
    -2
100
AcDbBlockReference
  2
_OPEN
 10
151.134638074529
 20
317.5690067985488
 30
0.0
 41
2.0
 42
2.0
 43
2.0
  0
MTEXT
  5
10CFA
330
5885
100
AcDbEntity
  8
30
  6
Continuous
 62
     0
440
 16777216
100
AcDbMText
 10
121.134638074529
 20
322.5690067985488
 30
0.0
 40
6.0
 41
0.0
 46
0.0
 71
     5
 72
     1
  1
\A1;60
 73
     1
 44
1.0
  0
POINT
  5
10CFB
330
5885
100
AcDbEntity
  8
DEFPOINTS
  6
Continuous
 62
     0
440
 16777216
100
AcDbPoint
 10
91.134638074529
 20
348.224982018381
 30
0.0
  0
POINT
  5
10CFC
330
5885
100
AcDbEntity
  8
DEFPOINTS
  6
Continuous
 62
     0
440
 16777216
100
AcDbPoint
 10
151.134638074529
 20
348.2249820183809
 30
0.0
  0
POINT
  5
10CFD
330
5885
100
AcDbEntity
  8
DEFPOINTS
  6
Continuous
 62
     0
440
 16777216
100
AcDbPoint
 10
151.134638074529
 20
317.5690067985488
 30
0.0
  0
ENDBLK
  5
5890
330
5885
100
AcDbEntity
  8
0
100
AcDbBlockEnd
  0
BLOCK
  5
5A0A
330
5A00
100
AcDbEntity
  8
0
100
AcDbBlockBegin
  2
*D4
 70
     1
 10
0.0
 20
0.0
 30
0.0
  3
*D4
  1

  0
LINE
  5
10CC7
330
5A00
100
AcDbEntity
  8
30
  6
Continuous
 62
     0
440
 16777216
370
    -2
100
AcDbLine
 10
258.6346380745291
 20
404.2739106168808
 30
0.0
 11
258.6346380745291
 21
284.4056532190852
 31
0.0
  0
LINE
  5
10CC8
330
5A00
100
AcDbEntity
  8
30
  6
Continuous
 62
     0
440
 16777216
370
    -2
100
AcDbLine
 10
354.1346368377795
 20
339.1132771876447
 30
0.0
 11
354.1346368377795
 21
284.4056532190852
 31
0.0
  0
LINE
  5
10CC9
330
5A00
100
AcDbEntity
  8
30
  6
Continuous
 62
     0
440
 16777216
370
    -2
100
AcDbLine
 10
260.6346380745292
 20
284.9056532190852
 30
0.0
 11
352.1346368377795
 21
284.9056532190852
 31
0.0
  0
INSERT
  5
10CCA
330
5A00
100
AcDbEntity
  8
30
  6
Continuous
 62
     0
440
 16777216
370
    -2
100
AcDbBlockReference
  2
_OPEN
 10
258.6346380745291
 20
284.9056532190852
 30
0.0
 41
2.0
 42
2.0
 43
2.0
 50
180.0
  0
INSERT
  5
10CCB
330
5A00
100
AcDbEntity
  8
30
  6
Continuous
 62
     0
440
 16777216
370
    -2
100
AcDbBlockReference
  2
_OPEN
 10
354.1346368377795
 20
284.9056532190852
 30
0.0
 41
2.0
 42
2.0
 43
2.0
  0
MTEXT
  5
10CCC
330
5A00
100
AcDbEntity
  8
30
  6
Continuous
 62
     0
440
 16777216
100
AcDbMText
 10
306.3846374561543
 20
289.9056532190852
 30
0.0
 40
6.0
 41
0.0
 46
0.0
 71
     5
 72
     1
  1
\A1;95.5
 73
     1
 44
1.0
  0
POINT
  5
10CCD
330
5A00
100
AcDbEntity
  8
DEFPOINTS
  6
Continuous
 62
     0
440
 16777216
100
AcDbPoint
 10
258.6346380745291
 20
405.2739106168806
 30
0.0
  0
POINT
  5
10CCE
330
5A00
100
AcDbEntity
  8
DEFPOINTS
  6
Continuous
 62
     0
440
 16777216
100
AcDbPoint
 10
354.1346368377795
 20
340.1132771876447
 30
0.0
  0
POINT
  5
10CCF
330
5A00
100
AcDbEntity
  8
DEFPOINTS
  6
Continuous
 62
     0
440
 16777216
100
AcDbPoint
 10
354.1346368377795
 20
284.9056532190852
 30
0.0
  0
ENDBLK
  5
5A0B
330
5A00
100
AcDbEntity
  8
0
100
AcDbBlockEnd
  0
BLOCK
  5
5A17
330
5A0C
100
AcDbEntity
  8
0
100
AcDbBlockBegin
  2
*D5
 70
     1
 10
0.0
 20
0.0
 30
0.0
  3
*D5
  1

  0
LINE
  5
10CEB
330
5A0C
100
AcDbEntity
  8
30
  6
Continuous
 62
     0
440
 16777216
370
    -2
100
AcDbLine
 10
275.634638074529
 20
379.2739106168809
 30
0.0
 11
275.634638074529
 21
295.8259209856421
 31
0.0
  0
LINE
  5
10CEC
330
5A0C
100
AcDbEntity
  8
30
  6
Continuous
 62
     0
440
 16777216
370
    -2
100
AcDbLine
 10
282.134638074529
 20
379.2739106168809
 30
0.0
 11
282.134638074529
 21
295.8259209856421
 31
0.0
  0
LINE
  5
10CED
330
5A0C
100
AcDbEntity
  8
30
  6
Continuous
 62
     0
440
 16777216
370
    -2
100
AcDbLine
 10
284.134638074529
 20
296.3259209856421
 30
0.0
 11
286.134638074529
 21
296.3259209856421
 31
0.0
  0
LINE
  5
10CEE
330
5A0C
100
AcDbEntity
  8
30
  6
Continuous
 62
     0
440
 16777216
370
    -2
100
AcDbLine
 10
273.634638074529
 20
296.3259209856421
 30
0.0
 11
255.634638074529
 21
296.3259209856421
 31
0.0
  0
INSERT
  5
10CEF
330
5A0C
100
AcDbEntity
  8
30
  6
Continuous
 62
     0
440
 16777216
370
    -2
100
AcDbBlockReference
  2
_OPEN
 10
282.134638074529
 20
296.3259209856421
 30
0.0
 41
2.0
 42
2.0
 43
2.0
 50
180.0
  0
INSERT
  5
10CF0
330
5A0C
100
AcDbEntity
  8
30
  6
Continuous
 62
     0
440
 16777216
370
    -2
100
AcDbBlockReference
  2
_OPEN
 10
275.634638074529
 20
296.3259209856421
 30
0.0
 41
2.0
 42
2.0
 43
2.0
  0
MTEXT
  5
10CF1
330
5A0C
100
AcDbEntity
  8
30
  6
Continuous
 62
     0
440
 16777216
100
AcDbMText
 10
263.634638074529
 20
301.3259209856422
 30
0.0
 40
6.0
 41
0.0
 46
0.0
 71
     5
 72
     1
  1
\A1;6.5
 73
     1
 44
1.0
  0
POINT
  5
10CF2
330
5A0C
100
AcDbEntity
  8
DEFPOINTS
  6
Continuous
 62
     0
440
 16777216
100
AcDbPoint
 10
275.634638074529
 20
380.2739106168809
 30
0.0
  0
POINT
  5
10CF3
330
5A0C
100
AcDbEntity
  8
DEFPOINTS
  6
Continuous
 62
     0
440
 16777216
100
AcDbPoint
 10
282.134638074529
 20
380.2739106168809
 30
0.0
  0
POINT
  5
10CF4
330
5A0C
100
AcDbEntity
  8
DEFPOINTS
  6
Continuous
 62
     0
440
 16777216
100
AcDbPoint
 10
282.134638074529
 20
296.3259209856421
 30
0.0
  0
ENDBLK
  5
5A18
330
5A0C
100
AcDbEntity
  8
0
100
AcDbBlockEnd
  0
BLOCK
  5
5A23
330
5A19
100
AcDbEntity
  8
0
100
AcDbBlockBegin
  2
*D6
 70
     1
 10
0.0
 20
0.0
 30
0.0
  3
*D6
  1

  0
LINE
  5
10CE2
330
5A19
100
AcDbEntity
  8
30
  6
Continuous
 62
     0
440
 16777216
370
    -2
100
AcDbLine
 10
282.134638074529
 20
379.2739106168809
 30
0.0
 11
282.134638074529
 21
295.8259209856421
 31
0.0
  0
LINE
  5
10CE3
330
5A19
100
AcDbEntity
  8
30
  6
Continuous
 62
     0
440
 16777216
370
    -2
100
AcDbLine
 10
354.1346368377795
 20
339.1132771876447
 30
0.0
 11
354.1346368377795
 21
295.8259209856421
 31
0.0
  0
LINE
  5
10CE4
330
5A19
100
AcDbEntity
  8
30
  6
Continuous
 62
     0
440
 16777216
370
    -2
100
AcDbLine
 10
284.134638074529
 20
296.3259209856421
 30
0.0
 11
352.1346368377795
 21
296.3259209856421
 31
0.0
  0
INSERT
  5
10CE5
330
5A19
100
AcDbEntity
  8
30
  6
Continuous
 62
     0
440
 16777216
370
    -2
100
AcDbBlockReference
  2
_OPEN
 10
282.134638074529
 20
296.3259209856421
 30
0.0
 41
2.0
 42
2.0
 43
2.0
 50
180.0
  0
INSERT
  5
10CE6
330
5A19
100
AcDbEntity
  8
30
  6
Continuous
 62
     0
440
 16777216
370
    -2
100
AcDbBlockReference
  2
_OPEN
 10
354.1346368377795
 20
296.3259209856421
 30
0.0
 41
2.0
 42
2.0
 43
2.0
  0
MTEXT
  5
10CE7
330
5A19
100
AcDbEntity
  8
30
  6
Continuous
 62
     0
440
 16777216
100
AcDbMText
 10
318.1346374561542
 20
301.3259209856422
 30
0.0
 40
6.0
 41
0.0
 46
0.0
 71
     5
 72
     1
  1
\A1;72
 73
     1
 44
1.0
  0
POINT
  5
10CE8
330
5A19
100
AcDbEntity
  8
DEFPOINTS
  6
Continuous
 62
     0
440
 16777216
100
AcDbPoint
 10
282.134638074529
 20
380.2739106168809
 30
0.0
  0
POINT
  5
10CE9
330
5A19
100
AcDbEntity
  8
DEFPOINTS
  6
Continuous
 62
     0
440
 16777216
100
AcDbPoint
 10
354.1346368377795
 20
340.1132771876447
 30
0.0
  0
POINT
  5
10CEA
330
5A19
100
AcDbEntity
  8
DEFPOINTS
  6
Continuous
 62
     0
440
 16777216
100
AcDbPoint
 10
354.1346368377795
 20
296.3259209856421
 30
0.0
  0
ENDBLK
  5
5A24
330
5A19
100
AcDbEntity
  8
0
100
AcDbBlockEnd
  0
BLOCK
  5
5A3B
330
5A31
100
AcDbEntity
  8
0
100
AcDbBlockBegin
  2
*D7
 70
     1
 10
0.0
 20
0.0
 30
0.0
  3
*D7
  1

  0
LINE
  5
10CD9
330
5A31
100
AcDbEntity
  8
30
  6
Continuous
 62
     0
440
 16777216
370
    -2
100
AcDbLine
 10
330.134638074529
 20
471.2239118336309
 30
0.0
 11
330.134638074529
 21
501.4744936896792
 31
0.0
  0
LINE
  5
10CDA
330
5A31
100
AcDbEntity
  8
30
  6
Continuous
 62
     0
440
 16777216
370
    -2
100
AcDbLine
 10
354.1346380745291
 20
471.2239118336309
 30
0.0
 11
354.1346380745291
 21
501.4744936896792
 31
0.0
  0
LINE
  5
10CDB
330
5A31
100
AcDbEntity
  8
30
  6
Continuous
 62
     0
440
 16777216
370
    -2
100
AcDbLine
 10
332.134638074529
 20
500.9744936896792
 30
0.0
 11
352.1346380745291
 21
500.9744936896792
 31
0.0
  0
INSERT
  5
10CDC
330
5A31
100
AcDbEntity
  8
30
  6
Continuous
 62
     0
440
 16777216
370
    -2
100
AcDbBlockReference
  2
_OPEN
 10
330.134638074529
 20
500.9744936896792
 30
0.0
 41
2.0
 42
2.0
 43
2.0
 50
180.0
  0
INSERT
  5
10CDD
330
5A31
100
AcDbEntity
  8
30
  6
Continuous
 62
     0
440
 16777216
370
    -2
100
AcDbBlockReference
  2
_OPEN
 10
354.1346380745291
 20
500.9744936896792
 30
0.0
 41
2.0
 42
2.0
 43
2.0
  0
MTEXT
  5
10CDE
330
5A31
100
AcDbEntity
  8
30
  6
Continuous
 62
     0
440
 16777216
100
AcDbMText
 10
342.1346380745291
 20
505.9744936896792
 30
0.0
 40
6.0
 41
0.0
 46
0.0
 71
     5
 72
     1
  1
\A1;24
 73
     1
 44
1.0
  0
POINT
  5
10CDF
330
5A31
100
AcDbEntity
  8
DEFPOINTS
  6
Continuous
 62
     0
440
 16777216
100
AcDbPoint
 10
330.134638074529
 20
470.2239118336309
 30
0.0
  0
POINT
  5
10CE0
330
5A31
100
AcDbEntity
  8
DEFPOINTS
  6
Continuous
 62
     0
440
 16777216
100
AcDbPoint
 10
354.1346380745291
 20
470.223911833631
 30
0.0
  0
POINT
  5
10CE1
330
5A31
100
AcDbEntity
  8
DEFPOINTS
  6
Continuous
 62
     0
440
 16777216
100
AcDbPoint
 10
354.1346380745291
 20
500.9744936896792
 30
0.0
  0
ENDBLK
  5
5A3C
330
5A31
100
AcDbEntity
  8
0
100
AcDbBlockEnd
  0
BLOCK
  5
5A47
330
5A3D
100
AcDbEntity
  8
0
100
AcDbBlockBegin
  2
*D8
 70
     1
 10
0.0
 20
0.0
 30
0.0
  3
*D8
  1

  0
LINE
  5
10CBE
330
5A3D
100
AcDbEntity
  8
30
  6
Continuous
 62
     0
440
 16777216
370
    -2
100
AcDbLine
 10
286.134638074529
 20
353.2739106168808
 30
0.0
 11
286.134638074529
 21
306.6803863739723
 31
0.0
  0
LINE
  5
10CBF
330
5A3D
100
AcDbEntity
  8
30
  6
Continuous
 62
     0
440
 16777216
370
    -2
100
AcDbLine
 10
354.1346368377795
 20
339.1132771876447
 30
0.0
 11
354.1346368377795
 21
306.6803863739723
 31
0.0
  0
LINE
  5
10CC0
330
5A3D
100
AcDbEntity
  8
30
  6
Continuous
 62
     0
440
 16777216
370
    -2
100
AcDbLine
 10
288.134638074529
 20
307.1803863739723
 30
0.0
 11
352.1346368377795
 21
307.1803863739723
 31
0.0
  0
INSERT
  5
10CC1
330
5A3D
100
AcDbEntity
  8
30
  6
Continuous
 62
     0
440
 16777216
370
    -2
100
AcDbBlockReference
  2
_OPEN
 10
286.134638074529
 20
307.1803863739723
 30
0.0
 41
2.0
 42
2.0
 43
2.0
 50
180.0
  0
INSERT
  5
10CC2
330
5A3D
100
AcDbEntity
  8
30
  6
Continuous
 62
     0
440
 16777216
370
    -2
100
AcDbBlockReference
  2
_OPEN
 10
354.1346368377795
 20
307.1803863739723
 30
0.0
 41
2.0
 42
2.0
 43
2.0
  0
MTEXT
  5
10CC3
330
5A3D
100
AcDbEntity
  8
30
  6
Continuous
 62
     0
440
 16777216
100
AcDbMText
 10
320.1346374561542
 20
312.1803863739724
 30
0.0
 40
6.0
 41
0.0
 46
0.0
 71
     5
 72
     1
  1
\A1;68
 73
     1
 44
1.0
  0
POINT
  5
10CC4
330
5A3D
100
AcDbEntity
  8
DEFPOINTS
  6
Continuous
 62
     0
440
 16777216
100
AcDbPoint
 10
286.134638074529
 20
354.2739106168808
 30
0.0
  0
POINT
  5
10CC5
330
5A3D
100
AcDbEntity
  8
DEFPOINTS
  6
Continuous
 62
     0
440
 16777216
100
AcDbPoint
 10
354.1346368377795
 20
340.1132771876447
 30
0.0
  0
POINT
  5
10CC6
330
5A3D
100
AcDbEntity
  8
DEFPOINTS
  6
Continuous
 62
     0
440
 16777216
100
AcDbPoint
 10
354.1346368377795
 20
307.1803863739723
 30
0.0
  0
ENDBLK
  5
5A48
330
5A3D
100
AcDbEntity
  8
0
100
AcDbBlockEnd
  0
BLOCK
  5
5A53
330
5A49
100
AcDbEntity
  8
0
100
AcDbBlockBegin
  2
*D9
 70
     1
 10
0.0
 20
0.0
 30
0.0
  3
*D9
  1

  0
LINE
  5
10CB5
330
5A49
100
AcDbEntity
  8
30
  6
Continuous
 62
     0
440
 16777216
370
    -2
100
AcDbLine
 10
294.1346368377793
 20
339.1132771876447
 30
0.0
 11
294.1346368377793
 21
316.9805760992174
 31
0.0
  0
LINE
  5
10CB6
330
5A49
100
AcDbEntity
  8
30
  6
Continuous
 62
     0
440
 16777216
370
    -2
100
AcDbLine
 10
354.1346368377795
 20
339.1132771876447
 30
0.0
 11
354.1346368377795
 21
316.9805760992174
 31
0.0
  0
LINE
  5
10CB7
330
5A49
100
AcDbEntity
  8
30
  6
Continuous
 62
     0
440
 16777216
370
    -2
100
AcDbLine
 10
296.1346368377793
 20
317.4805760992174
 30
0.0
 11
352.1346368377795
 21
317.4805760992174
 31
0.0
  0
INSERT
  5
10CB8
330
5A49
100
AcDbEntity
  8
30
  6
Continuous
 62
     0
440
 16777216
370
    -2
100
AcDbBlockReference
  2
_OPEN
 10
294.1346368377793
 20
317.4805760992174
 30
0.0
 41
2.0
 42
2.0
 43
2.0
 50
180.0
  0
INSERT
  5
10CB9
330
5A49
100
AcDbEntity
  8
30
  6
Continuous
 62
     0
440
 16777216
370
    -2
100
AcDbBlockReference
  2
_OPEN
 10
354.1346368377795
 20
317.4805760992174
 30
0.0
 41
2.0
 42
2.0
 43
2.0
  0
MTEXT
  5
10CBA
330
5A49
100
AcDbEntity
  8
30
  6
Continuous
 62
     0
440
 16777216
100
AcDbMText
 10
324.1346368377794
 20
322.4805760992174
 30
0.0
 40
6.0
 41
0.0
 46
0.0
 71
     5
 72
     1
  1
\A1;60
 73
     1
 44
1.0
  0
POINT
  5
10CBB
330
5A49
100
AcDbEntity
  8
DEFPOINTS
  6
Continuous
 62
     0
440
 16777216
100
AcDbPoint
 10
294.1346368377793
 20
340.1132771876447
 30
0.0
  0
POINT
  5
10CBC
330
5A49
100
AcDbEntity
  8
DEFPOINTS
  6
Continuous
 62
     0
440
 16777216
100
AcDbPoint
 10
354.1346368377795
 20
340.1132771876447
 30
0.0
  0
POINT
  5
10CBD
330
5A49
100
AcDbEntity
  8
DEFPOINTS
  6
Continuous
 62
     0
440
 16777216
100
AcDbPoint
 10
354.1346368377795
 20
317.4805760992174
 30
0.0
  0
ENDBLK
  5
5A54
330
5A49
100
AcDbEntity
  8
0
100
AcDbBlockEnd
  0
BLOCK
  5
5A5F
330
5A55
100
AcDbEntity
  8
0
100
AcDbBlockBegin
  2
*D10
 70
     1
 10
0.0
 20
0.0
 30
0.0
  3
*D10
  1

  0
LINE
  5
10CD0
330
5A55
100
AcDbEntity
  8
30
  6
Continuous
 62
     0
440
 16777216
370
    -2
100
AcDbLine
 10
301.1346378827791
 20
346.7239106168809
 30
0.0
 11
301.1346378827791
 21
326.4493554029976
 31
0.0
  0
LINE
  5
10CD1
330
5A55
100
AcDbEntity
  8
30
  6
Continuous
 62
     0
440
 16777216
370
    -2
100
AcDbLine
 10
354.1346368377795
 20
339.1132771876447
 30
0.0
 11
354.1346368377795
 21
326.4493554029976
 31
0.0
  0
LINE
  5
10CD2
330
5A55
100
AcDbEntity
  8
30
  6
Continuous
 62
     0
440
 16777216
370
    -2
100
AcDbLine
 10
303.1346378827791
 20
326.9493554029976
 30
0.0
 11
352.1346368377795
 21
326.9493554029976
 31
0.0
  0
INSERT
  5
10CD3
330
5A55
100
AcDbEntity
  8
30
  6
Continuous
 62
     0
440
 16777216
370
    -2
100
AcDbBlockReference
  2
_OPEN
 10
301.1346378827791
 20
326.9493554029976
 30
0.0
 41
2.0
 42
2.0
 43
2.0
 50
180.0
  0
INSERT
  5
10CD4
330
5A55
100
AcDbEntity
  8
30
  6
Continuous
 62
     0
440
 16777216
370
    -2
100
AcDbBlockReference
  2
_OPEN
 10
354.1346368377795
 20
326.9493554029976
 30
0.0
 41
2.0
 42
2.0
 43
2.0
  0
MTEXT
  5
10CD5
330
5A55
100
AcDbEntity
  8
30
  6
Continuous
 62
     0
440
 16777216
100
AcDbMText
 10
327.6346373602793
 20
331.9493554029977
 30
0.0
 40
6.0
 41
0.0
 46
0.0
 71
     5
 72
     1
  1
\A1;53
 73
     1
 44
1.0
  0
POINT
  5
10CD6
330
5A55
100
AcDbEntity
  8
DEFPOINTS
  6
Continuous
 62
     0
440
 16777216
100
AcDbPoint
 10
301.1346378827791
 20
347.7239106168809
 30
0.0
  0
POINT
  5
10CD7
330
5A55
100
AcDbEntity
  8
DEFPOINTS
  6
Continuous
 62
     0
440
 16777216
100
AcDbPoint
 10
354.1346368377795
 20
340.1132771876447
 30
0.0
  0
POINT
  5
10CD8
330
5A55
100
AcDbEntity
  8
DEFPOINTS
  6
Continuous
 62
     0
440
 16777216
100
AcDbPoint
 10
354.1346368377795
 20
326.9493554029976
 30
0.0
  0
ENDBLK
  5
5A60
330
5A55
100
AcDbEntity
  8
0
100
AcDbBlockEnd
  0
BLOCK
  5
5E73
330
5E69
100
AcDbEntity
  8
0
100
AcDbBlockBegin
  2
*D11
 70
     1
 10
0.0
 20
0.0
 30
0.0
  3
*D11
  1

  0
LINE
  5
10CFE
330
5E69
100
AcDbEntity
  8
30
  6
Continuous
 62
     0
440
 16777216
370
    -2
100
AcDbLine
 10
121.134638074529
 20
645.4088240294937
 30
0.0
 11
121.134638074529
 21
678.7975459602214
 31
0.0
  0
LINE
  5
10CFF
330
5E69
100
AcDbEntity
  8
30
  6
Continuous
 62
     0
440
 16777216
370
    -2
100
AcDbLine
 10
151.134638074529
 20
645.4088240294937
 30
0.0
 11
151.134638074529
 21
678.7975459602214
 31
0.0
  0
LINE
  5
10D00
330
5E69
100
AcDbEntity
  8
30
  6
Continuous
 62
     0
440
 16777216
370
    -2
100
AcDbLine
 10
123.134638074529
 20
678.2975459602214
 30
0.0
 11
149.134638074529
 21
678.2975459602214
 31
0.0
  0
INSERT
  5
10D01
330
5E69
100
AcDbEntity
  8
30
  6
Continuous
 62
     0
440
 16777216
370
    -2
100
AcDbBlockReference
  2
_OPEN
 10
121.134638074529
 20
678.2975459602214
 30
0.0
 41
2.0
 42
2.0
 43
2.0
 50
180.0
  0
INSERT
  5
10D02
330
5E69
100
AcDbEntity
  8
30
  6
Continuous
 62
     0
440
 16777216
370
    -2
100
AcDbBlockReference
  2
_OPEN
 10
151.134638074529
 20
678.2975459602214
 30
0.0
 41
2.0
 42
2.0
 43
2.0
  0
MTEXT
  5
10D03
330
5E69
100
AcDbEntity
  8
30
  6
Continuous
 62
     0
440
 16777216
100
AcDbMText
 10
136.134638074529
 20
683.2975459602214
 30
0.0
 40
6.0
 41
0.0
 46
0.0
 71
     5
 72
     1
  1
\A1;30
 73
     1
 44
1.0
  0
POINT
  5
10D04
330
5E69
100
AcDbEntity
  8
DEFPOINTS
  6
Continuous
 62
     0
440
 16777216
100
AcDbPoint
 10
121.134638074529
 20
644.4088240294937
 30
0.0
  0
POINT
  5
10D05
330
5E69
100
AcDbEntity
  8
DEFPOINTS
  6
Continuous
 62
     0
440
 16777216
100
AcDbPoint
 10
151.134638074529
 20
644.4088240294937
 30
0.0
  0
POINT
  5
10D06
330
5E69
100
AcDbEntity
  8
DEFPOINTS
  6
Continuous
 62
     0
440
 16777216
100
AcDbPoint
 10
151.134638074529
 20
678.2975459602214
 30
0.0
  0
ENDBLK
  5
5E74
330
5E69
100
AcDbEntity
  8
0
100
AcDbBlockEnd
  0
BLOCK
  5
6076
330
606C
100
AcDbEntity
  8
0
100
AcDbBlockBegin
  2
*D12
 70
     1
 10
0.0
 20
0.0
 30
0.0
  3
*D12
  1

  0
LINE
  5
10D07
330
606C
100
AcDbEntity
  8
30
  6
Continuous
 62
     0
440
 16777216
370
    -2
100
AcDbLine
 10
354.1346368377795
 20
339.1132771876447
 30
0.0
 11
354.1346368377795
 21
326.4493554029976
 31
0.0
  0
LINE
  5
10D08
330
606C
100
AcDbEntity
  8
30
  6
Continuous
 62
     0
440
 16777216
370
    -2
100
AcDbLine
 10
361.1346368377795
 20
348.3632771876447
 30
0.0
 11
361.1346368377795
 21
326.4493554029976
 31
0.0
  0
LINE
  5
10D09
330
606C
100
AcDbEntity
  8
30
  6
Continuous
 62
     0
440
 16777216
370
    -2
100
AcDbLine
 10
352.1346368377795
 20
326.9493554029976
 30
0.0
 11
350.1346368377795
 21
326.9493554029976
 31
0.0
  0
LINE
  5
10D0A
330
606C
100
AcDbEntity
  8
30
  6
Continuous
 62
     0
440
 16777216
370
    -2
100
AcDbLine
 10
363.1346368377795
 20
326.9493554029976
 30
0.0
 11
373.1346368377795
 21
326.9493554029976
 31
0.0
  0
INSERT
  5
10D0B
330
606C
100
AcDbEntity
  8
30
  6
Continuous
 62
     0
440
 16777216
370
    -2
100
AcDbBlockReference
  2
_OPEN
 10
354.1346368377795
 20
326.9493554029976
 30
0.0
 41
2.0
 42
2.0
 43
2.0
  0
INSERT
  5
10D0C
330
606C
100
AcDbEntity
  8
30
  6
Continuous
 62
     0
440
 16777216
370
    -2
100
AcDbBlockReference
  2
_OPEN
 10
361.1346368377795
 20
326.9493554029976
 30
0.0
 41
2.0
 42
2.0
 43
2.0
 50
180.0
  0
MTEXT
  5
10D0D
330
606C
100
AcDbEntity
  8
30
  6
Continuous
 62
     0
440
 16777216
100
AcDbMText
 10
369.1346368377795
 20
331.9493554029977
 30
0.0
 40
6.0
 41
0.0
 46
0.0
 71
     5
 72
     1
  1
\A1;7
 73
     1
 44
1.0
  0
POINT
  5
10D0E
330
606C
100
AcDbEntity
  8
DEFPOINTS
  6
Continuous
 62
     0
440
 16777216
100
AcDbPoint
 10
354.1346368377795
 20
340.1132771876447
 30
0.0
  0
POINT
  5
10D0F
330
606C
100
AcDbEntity
  8
DEFPOINTS
  6
Continuous
 62
     0
440
 16777216
100
AcDbPoint
 10
361.1346368377795
 20
349.3632771876447
 30
0.0
  0
POINT
  5
10D10
330
606C
100
AcDbEntity
  8
DEFPOINTS
  6
Continuous
 62
     0
440
 16777216
100
AcDbPoint
 10
361.1346368377795
 20
326.9493554029976
 30
0.0
  0
ENDBLK
  5
6077
330
606C
100
AcDbEntity
  8
0
100
AcDbBlockEnd
  0
BLOCK
  5
619E
330
6194
100
AcDbEntity
  8
0
100
AcDbBlockBegin
  2
*D13
 70
     1
 10
0.0
 20
0.0
 30
0.0
  3
*D13
  1

  0
LINE
  5
10D11
330
6194
100
AcDbEntity
  8
30
  6
Continuous
 62
     0
440
 16777216
370
    -2
100
AcDbLine
 10
248.3375714088633
 20
128.4265162233461
 30
0.0
 11
248.3375714088633
 21
64.46481400005501
 31
0.0
  0
LINE
  5
10D12
330
6194
100
AcDbEntity
  8
30
  6
Continuous
 62
     0
440
 16777216
370
    -2
100
AcDbLine
 10
334.3375743296134
 20
128.4265162233461
 30
0.0
 11
334.3375743296134
 21
64.46481400005501
 31
0.0
  0
LINE
  5
10D13
330
6194
100
AcDbEntity
  8
30
  6
Continuous
 62
     0
440
 16777216
370
    -2
100
AcDbLine
 10
250.3375714088633
 20
64.96481400005501
 30
0.0
 11
332.3375743296134
 21
64.96481400005501
 31
0.0
  0
INSERT
  5
10D14
330
6194
100
AcDbEntity
  8
30
  6
Continuous
 62
     0
440
 16777216
370
    -2
100
AcDbBlockReference
  2
_OPEN
 10
248.3375714088633
 20
64.96481400005501
 30
0.0
 41
2.0
 42
2.0
 43
2.0
 50
180.0
  0
INSERT
  5
10D15
330
6194
100
AcDbEntity
  8
30
  6
Continuous
 62
     0
440
 16777216
370
    -2
100
AcDbBlockReference
  2
_OPEN
 10
334.3375743296134
 20
64.96481400005501
 30
0.0
 41
2.0
 42
2.0
 43
2.0
  0
MTEXT
  5
10D16
330
6194
100
AcDbEntity
  8
30
  6
Continuous
 62
     0
440
 16777216
100
AcDbMText
 10
291.3375728692383
 20
69.96481400005501
 30
0.0
 40
6.0
 41
0.0
 46
0.0
 71
     5
 72
     1
  1
\A1;86
 73
     1
 44
1.0
  0
POINT
  5
10D17
330
6194
100
AcDbEntity
  8
DEFPOINTS
  6
Continuous
 62
     0
440
 16777216
100
AcDbPoint
 10
248.3375714088633
 20
129.4265162233461
 30
0.0
  0
POINT
  5
10D18
330
6194
100
AcDbEntity
  8
DEFPOINTS
  6
Continuous
 62
     0
440
 16777216
100
AcDbPoint
 10
334.3375743296134
 20
129.4265162233461
 30
0.0
  0
POINT
  5
10D19
330
6194
100
AcDbEntity
  8
DEFPOINTS
  6
Continuous
 62
     0
440
 16777216
100
AcDbPoint
 10
334.3375743296134
 20
64.96481400005501
 30
0.0
  0
ENDBLK
  5
619F
330
6194
100
AcDbEntity
  8
0
100
AcDbBlockEnd
  0
BLOCK
  5
61A9
330
61A0
100
AcDbEntity
  8
0
100
AcDbBlockBegin
  2
*D14
 70
     1
 10
0.0
 20
0.0
 30
0.0
  3
*D14
  1

  0
LINE
  5
10D1A
330
61A0
100
AcDbEntity
  8
30
  6
Continuous
 62
     0
440
 16777216
370
    -2
100
AcDbLine
 10
352.2139394467329
 20
186.4708451217971
 30
0.0
 11
342.2139394467329
 21
186.4708451217971
 31
0.0
  0
LINE
  5
10D1B
330
61A0
100
AcDbEntity
  8
30
  6
Continuous
 62
     0
440
 16777216
370
    -2
100
AcDbLine
 10
342.2139394467329
 20
186.4708451217971
 30
0.0
 11
335.6066140028269
 21
181.2798716429496
 31
0.0
  0
MTEXT
  5
10D1C
330
61A0
100
AcDbEntity
  8
30
  6
Continuous
 62
     0
440
 16777216
100
AcDbMText
 10
348.2139394467329
 20
191.4708451217972
 30
0.0
 40
6.0
 41
0.0
 46
0.0
 71
     5
 72
     1
  1
\A1;R1
 73
     1
 44
1.0
  0
INSERT
  5
10D1D
330
61A0
100
AcDbEntity
  8
30
  6
Continuous
 62
     0
440
 16777216
370
    -2
100
AcDbBlockReference
  2
_OPEN
 10
334.0339199138508
 20
180.0443016115471
 30
0.0
 41
2.0
 42
2.0
 43
2.0
 50
218.1545643912847
  0
LINE
  5
10D1E
330
61A0
100
AcDbEntity
  8
30
  6
Continuous
 62
     0
440
 16777216
370
    -2
100
AcDbLine
 10
333.157572869363
 20
179.4265165958459
 30
0.0
 11
333.3375728693629
 21
179.4265165958459
 31
0.0
  0
LINE
  5
10D1F
330
61A0
100
AcDbEntity
  8
30
  6
Continuous
 62
     0
440
 16777216
370
    -2
100
AcDbLine
 10
333.247572869363
 20
179.3365165958459
 30
0.0
 11
333.2475728693631
 21
179.5165165958459
 31
0.0
  0
POINT
  5
10D20
330
61A0
100
AcDbEntity
  8
DEFPOINTS
  6
Continuous
 62
     0
440
 16777216
100
AcDbPoint
 10
334.0339199138508
 20
180.0443016115471
 30
0.0
  0
POINT
  5
10D21
330
61A0
100
AcDbEntity
  8
DEFPOINTS
  6
Continuous
 62
     0
440
 16777216
100
AcDbPoint
 10
333.247572869363
 20
179.4265165958459
 30
0.0
  0
ENDBLK
  5
61AA
330
61A0
100
AcDbEntity
  8
0
100
AcDbBlockEnd
  0
BLOCK
  5
61B5
330
61AB
100
AcDbEntity
  8
0
100
AcDbBlockBegin
  2
*D15
 70
     1
 10
0.0
 20
0.0
 30
0.0
  3
*D15
  1

  0
LINE
  5
10E9D
330
61AB
100
AcDbEntity
  8
30
  6
Continuous
 62
     0
440
 16777216
370
    -2
100
AcDbLine
 10
321.3375728693629
 20
180.4265165958461
 30
0.0
 11
362.7182192602459
 21
180.4265165958461
 31
0.0
  0
LINE
  5
10E9E
330
61AB
100
AcDbEntity
  8
30
  6
Continuous
 62
     0
440
 16777216
370
    -2
100
AcDbLine
 10
321.3375728693629
 20
128.4265165958461
 30
0.0
 11
362.7182192602459
 21
128.4265165958461
 31
0.0
  0
LINE
  5
10E9F
330
61AB
100
AcDbEntity
  8
30
  6
Continuous
 62
     0
440
 16777216
370
    -2
100
AcDbLine
 10
362.2182192602459
 20
178.4265165958461
 30
0.0
 11
362.2182192602459
 21
130.4265165958461
 31
0.0
  0
INSERT
  5
10EA0
330
61AB
100
AcDbEntity
  8
30
  6
Continuous
 62
     0
440
 16777216
370
    -2
100
AcDbBlockReference
  2
_OPEN
 10
362.2182192602459
 20
180.4265165958461
 30
0.0
 41
2.0
 42
2.0
 43
2.0
 50
90.0
  0
INSERT
  5
10EA1
330
61AB
100
AcDbEntity
  8
30
  6
Continuous
 62
     0
440
 16777216
370
    -2
100
AcDbBlockReference
  2
_OPEN
 10
362.2182192602459
 20
128.4265165958461
 30
0.0
 41
2.0
 42
2.0
 43
2.0
 50
270.0
  0
MTEXT
  5
10EA2
330
61AB
100
AcDbEntity
  8
30
  6
Continuous
 62
     0
440
 16777216
100
AcDbMText
 10
357.2182192602458
 20
154.4265165958461
 30
0.0
 40
6.0
 41
0.0
 46
0.0
 71
     5
 72
     1
  1
\A1;52
 11
0.0000000000000001
 21
1.0
 31
0.0
 73
     1
 44
1.0
  0
POINT
  5
10EA3
330
61AB
100
AcDbEntity
  8
DEFPOINTS
  6
Continuous
 62
     0
440
 16777216
100
AcDbPoint
 10
320.3375728693629
 20
180.4265165958461
 30
0.0
  0
POINT
  5
10EA4
330
61AB
100
AcDbEntity
  8
DEFPOINTS
  6
Continuous
 62
     0
440
 16777216
100
AcDbPoint
 10
320.3375728693629
 20
128.4265165958461
 30
0.0
  0
POINT
  5
10EA5
330
61AB
100
AcDbEntity
  8
DEFPOINTS
  6
Continuous
 62
     0
440
 16777216
100
AcDbPoint
 10
362.2182192602459
 20
128.4265165958461
 30
0.0
  0
ENDBLK
  5
61B6
330
61AB
100
AcDbEntity
  8
0
100
AcDbBlockEnd
  0
BLOCK
  5
68E0
330
68DF
100
AcDbEntity
  8
0
100
AcDbBlockBegin
  2
SW_CENTERMARKSYMBOL_18
 70
     0
 10
0.0
 20
0.0
 30
0.0
  3
SW_CENTERMARKSYMBOL_18
  1
SW_CENTERMARKSYMBOL_18
  0
LINE
  5
68E1
330
68DF
100
AcDbEntity
  8
SLD-0
 62
     0
100
AcDbLine
 10
0.0
 20
0.0
 30
0.0
 11
0.0
 21
1.0
 31
0.0
  0
LINE
  5
68E2
330
68DF
100
AcDbEntity
  8
SLD-0
 62
     0
100
AcDbLine
 10
0.0
 20
0.0
 30
0.0
 11
-1.0
 21
0.0
 31
0.0
  0
LINE
  5
68E3
330
68DF
100
AcDbEntity
  8
SLD-0
 62
     0
100
AcDbLine
 10
0.0
 20
0.0
 30
0.0
 11
0.0
 21
-1.0
 31
0.0
  0
LINE
  5
68E4
330
68DF
100
AcDbEntity
  8
SLD-0
 62
     0
100
AcDbLine
 10
0.0
 20
0.0
 30
0.0
 11
1.0
 21
0.0
 31
0.0
  0
LINE
  5
68E5
330
68DF
100
AcDbEntity
  8
SLD-0
 62
     0
100
AcDbLine
 10
0.0
 20
1.0
 30
0.0
 11
0.0
 21
1.8
 31
0.0
  0
LINE
  5
68E6
330
68DF
100
AcDbEntity
  8
SLD-0
 62
     0
100
AcDbLine
 10
-1.0
 20
0.0
 30
0.0
 11
-1.8
 21
0.0
 31
0.0
  0
LINE
  5
68E7
330
68DF
100
AcDbEntity
  8
SLD-0
 62
     0
100
AcDbLine
 10
0.0
 20
-1.0
 30
0.0
 11
0.0
 21
-1.8
 31
0.0
  0
LINE
  5
68E8
330
68DF
100
AcDbEntity
  8
SLD-0
 62
     0
100
AcDbLine
 10
1.0
 20
0.0
 30
0.0
 11
1.8
 21
0.0
 31
0.0
  0
ENDBLK
  5
68E9
330
68DF
100
AcDbEntity
  8
0
100
AcDbBlockEnd
  0
BLOCK
  5
68EB
330
68EA
100
AcDbEntity
  8
0
100
AcDbBlockBegin
  2
SW_CENTERMARKSYMBOL_19
 70
     0
 10
0.0
 20
0.0
 30
0.0
  3
SW_CENTERMARKSYMBOL_19
  1
SW_CENTERMARKSYMBOL_19
  0
LINE
  5
68EC
330
68EA
100
AcDbEntity
  8
SLD-0
 62
     0
100
AcDbLine
 10
0.0
 20
0.0
 30
0.0
 11
0.0
 21
1.0
 31
0.0
  0
LINE
  5
68ED
330
68EA
100
AcDbEntity
  8
SLD-0
 62
     0
100
AcDbLine
 10
0.0
 20
0.0
 30
0.0
 11
-1.0
 21
0.0
 31
0.0
  0
LINE
  5
68EE
330
68EA
100
AcDbEntity
  8
SLD-0
 62
     0
100
AcDbLine
 10
0.0
 20
0.0
 30
0.0
 11
0.0
 21
-1.0
 31
0.0
  0
LINE
  5
68EF
330
68EA
100
AcDbEntity
  8
SLD-0
 62
     0
100
AcDbLine
 10
0.0
 20
0.0
 30
0.0
 11
1.0
 21
0.0
 31
0.0
  0
LINE
  5
68F0
330
68EA
100
AcDbEntity
  8
SLD-0
 62
     0
100
AcDbLine
 10
0.0
 20
1.0
 30
0.0
 11
0.0
 21
1.8
 31
0.0
  0
LINE
  5
68F1
330
68EA
100
AcDbEntity
  8
SLD-0
 62
     0
100
AcDbLine
 10
-1.0
 20
0.0
 30
0.0
 11
-1.8
 21
0.0
 31
0.0
  0
LINE
  5
68F2
330
68EA
100
AcDbEntity
  8
SLD-0
 62
     0
100
AcDbLine
 10
0.0
 20
-1.0
 30
0.0
 11
0.0
 21
-1.8
 31
0.0
  0
LINE
  5
68F3
330
68EA
100
AcDbEntity
  8
SLD-0
 62
     0
100
AcDbLine
 10
1.0
 20
0.0
 30
0.0
 11
1.8
 21
0.0
 31
0.0
  0
ENDBLK
  5
68F4
330
68EA
100
AcDbEntity
  8
0
100
AcDbBlockEnd
  0
BLOCK
  5
6ADC
330
6ADB
100
AcDbEntity
  8
0
100
AcDbBlockBegin
  2
SW_CENTERMARKSYMBOL_24
 70
     0
 10
0.0
 20
0.0
 30
0.0
  3
SW_CENTERMARKSYMBOL_24
  1
SW_CENTERMARKSYMBOL_24
  0
LINE
  5
6ADD
330
6ADB
100
AcDbEntity
  8
SLD-0
 62
     0
100
AcDbLine
 10
0.0
 20
0.0
 30
0.0
 11
0.0
 21
1.0
 31
0.0
  0
LINE
  5
6ADE
330
6ADB
100
AcDbEntity
  8
SLD-0
 62
     0
100
AcDbLine
 10
0.0
 20
0.0
 30
0.0
 11
-1.0
 21
0.0
 31
0.0
  0
LINE
  5
6ADF
330
6ADB
100
AcDbEntity
  8
SLD-0
 62
     0
100
AcDbLine
 10
0.0
 20
0.0
 30
0.0
 11
0.0
 21
-1.0
 31
0.0
  0
LINE
  5
6AE0
330
6ADB
100
AcDbEntity
  8
SLD-0
 62
     0
100
AcDbLine
 10
0.0
 20
0.0
 30
0.0
 11
1.0
 21
0.0
 31
0.0
  0
LINE
  5
6AE1
330
6ADB
100
AcDbEntity
  8
SLD-0
 62
     0
100
AcDbLine
 10
0.0
 20
2.0
 30
0.0
 11
0.0
 21
2.799999999999998
 31
0.0
  0
LINE
  5
6AE2
330
6ADB
100
AcDbEntity
  8
SLD-0
 62
     0
100
AcDbLine
 10
-2.0
 20
0.0
 30
0.0
 11
-2.799999999999998
 21
0.0
 31
0.0
  0
LINE
  5
6AE3
330
6ADB
100
AcDbEntity
  8
SLD-0
 62
     0
100
AcDbLine
 10
0.0
 20
-2.0
 30
0.0
 11
0.0
 21
-2.799999999999998
 31
0.0
  0
LINE
  5
6AE4
330
6ADB
100
AcDbEntity
  8
SLD-0
 62
     0
100
AcDbLine
 10
2.0
 20
0.0
 30
0.0
 11
2.799999999999998
 21
0.0
 31
0.0
  0
ENDBLK
  5
6AE5
330
6ADB
100
AcDbEntity
  8
0
100
AcDbBlockEnd
  0
BLOCK
  5
100FD
330
100FC
100
AcDbEntity
  8
0
100
AcDbBlockBegin
  2
*D19
 70
     1
 10
0.0
 20
0.0
 30
0.0
  3
*D19
  1

  0
LINE
  5
10D2B
330
100FC
100
AcDbEntity
  8
30
  6
Continuous
 62
     0
440
 16777216
370
    -2
100
AcDbLine
 10
91.13463807452902
 20
645.4088240294937
 30
0.0
 11
91.13463807452902
 21
678.7975459602214
 31
0.0
  0
LINE
  5
10D2C
330
100FC
100
AcDbEntity
  8
30
  6
Continuous
 62
     0
440
 16777216
370
    -2
100
AcDbLine
 10
121.134638074529
 20
645.4088240294937
 30
0.0
 11
121.134638074529
 21
678.7975459602214
 31
0.0
  0
LINE
  5
10D2D
330
100FC
100
AcDbEntity
  8
30
  6
Continuous
 62
     0
440
 16777216
370
    -2
100
AcDbLine
 10
93.13463807452903
 20
678.2975459602214
 30
0.0
 11
119.134638074529
 21
678.2975459602214
 31
0.0
  0
INSERT
  5
10D2E
330
100FC
100
AcDbEntity
  8
30
  6
Continuous
 62
     0
440
 16777216
370
    -2
100
AcDbBlockReference
  2
_OPEN
 10
91.13463807452902
 20
678.2975459602214
 30
0.0
 41
2.0
 42
2.0
 43
2.0
 50
180.0
  0
INSERT
  5
10D2F
330
100FC
100
AcDbEntity
  8
30
  6
Continuous
 62
     0
440
 16777216
370
    -2
100
AcDbBlockReference
  2
_OPEN
 10
121.134638074529
 20
678.2975459602214
 30
0.0
 41
2.0
 42
2.0
 43
2.0
  0
MTEXT
  5
10D30
330
100FC
100
AcDbEntity
  8
30
  6
Continuous
 62
     0
440
 16777216
100
AcDbMText
 10
106.134638074529
 20
683.2975459602214
 30
0.0
 40
6.0
 41
0.0
 46
0.0
 71
     5
 72
     1
  1
\A1;30
 73
     1
 44
1.0
  0
POINT
  5
10D31
330
100FC
100
AcDbEntity
  8
DEFPOINTS
  6
Continuous
 62
     0
440
 16777216
100
AcDbPoint
 10
91.13463807452902
 20
644.4088240294937
 30
0.0
  0
POINT
  5
10D32
330
100FC
100
AcDbEntity
  8
DEFPOINTS
  6
Continuous
 62
     0
440
 16777216
100
AcDbPoint
 10
121.134638074529
 20
644.4088240294937
 30
0.0
  0
POINT
  5
10D33
330
100FC
100
AcDbEntity
  8
DEFPOINTS
  6
Continuous
 62
     0
440
 16777216
100
AcDbPoint
 10
121.134638074529
 20
678.2975459602214
 30
0.0
  0
ENDBLK
  5
100FE
330
100FC
100
AcDbEntity
  8
0
100
AcDbBlockEnd
  0
BLOCK
  5
101D7
330
101D6
100
AcDbEntity
  8
0
100
AcDbBlockBegin
  2
*D20
 70
     1
 10
0.0
 20
0.0
 30
0.0
  3
*D20
  1

  0
LINE
  5
10E92
330
101D6
100
AcDbEntity
  8
30
  6
Continuous
 62
     0
440
 16777216
370
    -2
100
AcDbLine
 10
111.634638074529
 20
209.9265165958459
 30
0.0
 11
197.3379238718808
 21
209.9265165958459
 31
0.0
  0
LINE
  5
10E93
330
101D6
100
AcDbEntity
  8
30
  6
Continuous
 62
     0
440
 16777216
370
    -2
100
AcDbLine
 10
141.634638074529
 20
98.92651659584595
 30
0.0
 11
197.3379238718808
 21
98.92651659584593
 31
0.0
  0
LINE
  5
10E94
330
101D6
100
AcDbEntity
  8
30
  6
Continuous
 62
     0
440
 16777216
370
    -2
100
AcDbLine
 10
196.8379238718808
 20
207.9265165958459
 30
0.0
 11
196.8379238718807
 21
100.9265165958459
 31
0.0
  0
INSERT
  5
10E95
330
101D6
100
AcDbEntity
  8
30
  6
Continuous
 62
     0
440
 16777216
370
    -2
100
AcDbBlockReference
  2
_OPEN
 10
196.8379238718808
 20
209.9265165958459
 30
0.0
 41
2.0
 42
2.0
 43
2.0
 50
90.0
  0
INSERT
  5
10E96
330
101D6
100
AcDbEntity
  8
30
  6
Continuous
 62
     0
440
 16777216
370
    -2
100
AcDbBlockReference
  2
_OPEN
 10
196.8379238718807
 20
98.92651659584593
 30
0.0
 41
2.0
 42
2.0
 43
2.0
 50
270.0
  0
MTEXT
  5
10E97
330
101D6
100
AcDbEntity
  8
30
  6
Continuous
 62
     0
440
 16777216
100
AcDbMText
 10
191.8379238718807
 20
154.4265165958459
 30
0.0
 40
6.0
 41
0.0
 46
0.0
 71
     5
 72
     1
  1
\A1;111
 11
0.0000000000000001
 21
1.0
 31
0.0
 73
     1
 44
1.0
  0
POINT
  5
10E98
330
101D6
100
AcDbEntity
  8
DEFPOINTS
  6
Continuous
 62
     0
440
 16777216
100
AcDbPoint
 10
110.634638074529
 20
209.9265165958459
 30
0.0
  0
POINT
  5
10E99
330
101D6
100
AcDbEntity
  8
DEFPOINTS
  6
Continuous
 62
     0
440
 16777216
100
AcDbPoint
 10
140.634638074529
 20
98.92651659584595
 30
0.0
  0
POINT
  5
10E9A
330
101D6
100
AcDbEntity
  8
DEFPOINTS
  6
Continuous
 62
     0
440
 16777216
100
AcDbPoint
 10
196.8379238718807
 20
98.92651659584593
 30
0.0
  0
ENDBLK
  5
101D8
330
101D6
100
AcDbEntity
  8
0
100
AcDbBlockEnd
  0
BLOCK
  5
1033D
330
1033C
100
AcDbEntity
  8
0
100
AcDbBlockBegin
  2
*D21
 70
     1
 10
0.0
 20
0.0
 30
0.0
  3
*D21
  1

  0
LINE
  5
10D3D
330
1033C
100
AcDbEntity
  8
30
  6
Continuous
 62
     0
440
 16777216
370
    -2
100
AcDbLine
 10
281.134638074529
 20
430.2739106168806
 30
0.0
 11
242.6984000910952
 21
430.2739106168806
 31
0.0
  0
LINE
  5
10D3E
330
1033C
100
AcDbEntity
  8
30
  6
Continuous
 62
     0
440
 16777216
370
    -2
100
AcDbLine
 10
281.134638074529
 20
380.2739106168809
 30
0.0
 11
242.6984000910952
 21
380.2739106168809
 31
0.0
  0
LINE
  5
10D3F
330
1033C
100
AcDbEntity
  8
30
  6
Continuous
 62
     0
440
 16777216
370
    -2
100
AcDbLine
 10
243.1984000910952
 20
428.2739106168809
 30
0.0
 11
243.1984000910952
 21
382.2739106168809
 31
0.0
  0
INSERT
  5
10D40
330
1033C
100
AcDbEntity
  8
30
  6
Continuous
 62
     0
440
 16777216
370
    -2
100
AcDbBlockReference
  2
_OPEN
 10
243.1984000910952
 20
430.2739106168806
 30
0.0
 41
2.0
 42
2.0
 43
2.0
 50
90.0
  0
INSERT
  5
10D41
330
1033C
100
AcDbEntity
  8
30
  6
Continuous
 62
     0
440
 16777216
370
    -2
100
AcDbBlockReference
  2
_OPEN
 10
243.1984000910952
 20
380.2739106168809
 30
0.0
 41
2.0
 42
2.0
 43
2.0
 50
270.0
  0
MTEXT
  5
10D42
330
1033C
100
AcDbEntity
  8
30
  6
Continuous
 62
     0
440
 16777216
100
AcDbMText
 10
238.1984000910951
 20
405.2739106168806
 30
0.0
 40
6.0
 41
0.0
 46
0.0
 71
     5
 72
     1
  1
\A1;50
 11
0.0000000000000001
 21
1.0
 31
0.0
 73
     1
 44
1.0
  0
POINT
  5
10D43
330
1033C
100
AcDbEntity
  8
DEFPOINTS
  6
Continuous
 62
     0
440
 16777216
100
AcDbPoint
 10
282.134638074529
 20
430.2739106168806
 30
0.0
  0
POINT
  5
10D44
330
1033C
100
AcDbEntity
  8
DEFPOINTS
  6
Continuous
 62
     0
440
 16777216
100
AcDbPoint
 10
282.134638074529
 20
380.2739106168809
 30
0.0
  0
POINT
  5
10D45
330
1033C
100
AcDbEntity
  8
DEFPOINTS
  6
Continuous
 62
     0
440
 16777216
100
AcDbPoint
 10
243.1984000910952
 20
380.2739106168809
 30
0.0
  0
ENDBLK
  5
1033E
330
1033C
100
AcDbEntity
  8
0
100
AcDbBlockEnd
  0
BLOCK
  5
1051D
330
1051C
100
AcDbEntity
  8
0
100
AcDbBlockBegin
  2
*D22
 70
     1
 10
0.0
 20
0.0
 30
0.0
  3
*D22
  1

  0
LINE
  5
10EA6
330
1051C
100
AcDbEntity
  8
30
  6
Continuous
 62
     0
440
 16777216
370
    -2
100
AcDbLine
 10
438.5405076641971
 20
178.4265165958461
 30
0.0
 11
508.9842107311413
 21
178.426516595846
 31
0.0
  0
LINE
  5
10EA7
330
1051C
100
AcDbEntity
  8
30
  6
Continuous
 62
     0
440
 16777216
370
    -2
100
AcDbLine
 10
438.5405076641971
 20
130.4265165958461
 30
0.0
 11
508.9842107311413
 21
130.426516595846
 31
0.0
  0
LINE
  5
10EA8
330
1051C
100
AcDbEntity
  8
30
  6
Continuous
 62
     0
440
 16777216
370
    -2
100
AcDbLine
 10
508.4842107311413
 20
176.426516595846
 30
0.0
 11
508.4842107311413
 21
132.426516595846
 31
0.0
  0
INSERT
  5
10EA9
330
1051C
100
AcDbEntity
  8
30
  6
Continuous
 62
     0
440
 16777216
370
    -2
100
AcDbBlockReference
  2
_OPEN
 10
508.4842107311413
 20
178.426516595846
 30
0.0
 41
2.0
 42
2.0
 43
2.0
 50
90.0
  0
INSERT
  5
10EAA
330
1051C
100
AcDbEntity
  8
30
  6
Continuous
 62
     0
440
 16777216
370
    -2
100
AcDbBlockReference
  2
_OPEN
 10
508.4842107311413
 20
130.426516595846
 30
0.0
 41
2.0
 42
2.0
 43
2.0
 50
270.0
  0
MTEXT
  5
10EAB
330
1051C
100
AcDbEntity
  8
30
  6
Continuous
 62
     0
440
 16777216
100
AcDbMText
 10
503.4842107311412
 20
154.4265165958461
 30
0.0
 40
6.0
 41
0.0
 46
0.0
 71
     5
 72
     1
  1
\A1;48
 11
0.0000000000000001
 21
1.0
 31
0.0
 73
     1
 44
1.0
  0
POINT
  5
10EAC
330
1051C
100
AcDbEntity
  8
DEFPOINTS
  6
Continuous
 62
     0
440
 16777216
100
AcDbPoint
 10
437.5405076641971
 20
178.4265165958461
 30
0.0
  0
POINT
  5
10EAD
330
1051C
100
AcDbEntity
  8
DEFPOINTS
  6
Continuous
 62
     0
440
 16777216
100
AcDbPoint
 10
437.5405076641971
 20
130.4265165958461
 30
0.0
  0
POINT
  5
10EAE
330
1051C
100
AcDbEntity
  8
DEFPOINTS
  6
Continuous
 62
     0
440
 16777216
100
AcDbPoint
 10
508.4842107311413
 20
130.426516595846
 30
0.0
  0
ENDBLK
  5
1051E
330
1051C
100
AcDbEntity
  8
0
100
AcDbBlockEnd
  0
BLOCK
  5
10529
330
10528
100
AcDbEntity
  8
0
100
AcDbBlockBegin
  2
*D23
 70
     1
 10
0.0
 20
0.0
 30
0.0
  3
*D23
  1

  0
LINE
  5
10D4F
330
10528
100
AcDbEntity
  8
30
  6
Continuous
 62
     0
440
 16777216
370
    -2
100
AcDbLine
 10
427.5405062036975
 20
130.4265162233461
 30
0.0
 11
427.5405062036975
 21
64.46481400005501
 31
0.0
  0
LINE
  5
10D50
330
10528
100
AcDbEntity
  8
30
  6
Continuous
 62
     0
440
 16777216
370
    -2
100
AcDbLine
 10
451.5405091244477
 20
130.4265162233461
 30
0.0
 11
451.5405091244477
 21
64.46481400005501
 31
0.0
  0
LINE
  5
10D51
330
10528
100
AcDbEntity
  8
30
  6
Continuous
 62
     0
440
 16777216
370
    -2
100
AcDbLine
 10
429.5405062036976
 20
64.96481400005501
 30
0.0
 11
449.5405091244476
 21
64.96481400005501
 31
0.0
  0
INSERT
  5
10D52
330
10528
100
AcDbEntity
  8
30
  6
Continuous
 62
     0
440
 16777216
370
    -2
100
AcDbBlockReference
  2
_OPEN
 10
427.5405062036975
 20
64.96481400005501
 30
0.0
 41
2.0
 42
2.0
 43
2.0
 50
180.0
  0
INSERT
  5
10D53
330
10528
100
AcDbEntity
  8
30
  6
Continuous
 62
     0
440
 16777216
370
    -2
100
AcDbBlockReference
  2
_OPEN
 10
451.5405091244477
 20
64.96481400005501
 30
0.0
 41
2.0
 42
2.0
 43
2.0
  0
MTEXT
  5
10D54
330
10528
100
AcDbEntity
  8
30
  6
Continuous
 62
     0
440
 16777216
100
AcDbMText
 10
439.5405076640726
 20
69.96481400005501
 30
0.0
 40
6.0
 41
0.0
 46
0.0
 71
     5
 72
     1
  1
\A1;24
 73
     1
 44
1.0
  0
POINT
  5
10D55
330
10528
100
AcDbEntity
  8
DEFPOINTS
  6
Continuous
 62
     0
440
 16777216
100
AcDbPoint
 10
427.5405062036975
 20
131.4265162233461
 30
0.0
  0
POINT
  5
10D56
330
10528
100
AcDbEntity
  8
DEFPOINTS
  6
Continuous
 62
     0
440
 16777216
100
AcDbPoint
 10
451.5405091244477
 20
131.4265162233461
 30
0.0
  0
POINT
  5
10D57
330
10528
100
AcDbEntity
  8
DEFPOINTS
  6
Continuous
 62
     0
440
 16777216
100
AcDbPoint
 10
451.5405091244477
 20
64.96481400005501
 30
0.0
  0
ENDBLK
  5
1052A
330
10528
100
AcDbEntity
  8
0
100
AcDbBlockEnd
  0
BLOCK
  5
10535
330
10534
100
AcDbEntity
  8
0
100
AcDbBlockBegin
  2
*D24
 70
     1
 10
0.0
 20
0.0
 30
0.0
  3
*D24
  1

  0
LINE
  5
10D58
330
10534
100
AcDbEntity
  8
30
  6
Continuous
 62
     0
440
 16777216
370
    -2
100
AcDbLine
 10
469.4168742415689
 20
184.4708451217962
 30
0.0
 11
459.4168742415688
 21
184.4708451217962
 31
0.0
  0
LINE
  5
10D59
330
10534
100
AcDbEntity
  8
30
  6
Continuous
 62
     0
440
 16777216
370
    -2
100
AcDbLine
 10
459.4168742415688
 20
184.4708451217962
 30
0.0
 11
452.8095487976613
 21
179.2798716429494
 31
0.0
  0
MTEXT
  5
10D5A
330
10534
100
AcDbEntity
  8
30
  6
Continuous
 62
     0
440
 16777216
100
AcDbMText
 10
465.4168742415689
 20
189.4708451217962
 30
0.0
 40
6.0
 41
0.0
 46
0.0
 71
     5
 72
     1
  1
\A1;R1
 73
     1
 44
1.0
  0
INSERT
  5
10D5B
330
10534
100
AcDbEntity
  8
30
  6
Continuous
 62
     0
440
 16777216
370
    -2
100
AcDbBlockReference
  2
_OPEN
 10
451.2368547086853
 20
178.044301611547
 30
0.0
 41
2.0
 42
2.0
 43
2.0
 50
218.154564391275
  0
LINE
  5
10D5C
330
10534
100
AcDbEntity
  8
30
  6
Continuous
 62
     0
440
 16777216
370
    -2
100
AcDbLine
 10
450.3605076641973
 20
177.426516595846
 30
0.0
 11
450.5405076641974
 21
177.426516595846
 31
0.0
  0
LINE
  5
10D5D
330
10534
100
AcDbEntity
  8
30
  6
Continuous
 62
     0
440
 16777216
370
    -2
100
AcDbLine
 10
450.4505076641974
 20
177.3365165958459
 30
0.0
 11
450.4505076641974
 21
177.516516595846
 31
0.0
  0
POINT
  5
10D5E
330
10534
100
AcDbEntity
  8
DEFPOINTS
  6
Continuous
 62
     0
440
 16777216
100
AcDbPoint
 10
451.2368547086853
 20
178.044301611547
 30
0.0
  0
POINT
  5
10D5F
330
10534
100
AcDbEntity
  8
DEFPOINTS
  6
Continuous
 62
     0
440
 16777216
100
AcDbPoint
 10
450.4505076641971
 20
177.426516595846
 30
0.0
  0
ENDBLK
  5
10536
330
10534
100
AcDbEntity
  8
0
100
AcDbBlockEnd
  0
BLOCK
  5
105C5
330
105C4
100
AcDbEntity
  8
0
100
AcDbBlockBegin
  2
*D25
 70
     1
 10
0.0
 20
0.0
 30
0.0
  3
*D25
  1

  0
LINE
  5
10E1B
330
105C4
100
AcDbEntity
  8
30
  6
Continuous
 62
     0
440
 16777216
370
    -2
100
AcDbLine
 10
110.134638074529
 20
428.7739106168809
 30
0.0
 11
110.134638074529
 21
436.2606819633277
 31
0.0
  0
LINE
  5
10E1C
330
105C4
100
AcDbEntity
  8
30
  6
Continuous
 62
     0
440
 16777216
370
    -2
100
AcDbLine
 10
132.134638074529
 20
428.7739106168809
 30
0.0
 11
132.134638074529
 21
436.2606819633277
 31
0.0
  0
LINE
  5
10E1D
330
105C4
100
AcDbEntity
  8
30
  6
Continuous
 62
     0
440
 16777216
370
    -2
100
AcDbLine
 10
112.134638074529
 20
435.7606819633276
 30
0.0
 11
130.134638074529
 21
435.7606819633276
 31
0.0
  0
MTEXT
  5
10E1E
330
105C4
100
AcDbEntity
  8
30
  6
Continuous
 62
     0
440
 16777216
100
AcDbMText
 10
121.134638074529
 20
442.7606819633274
 30
0.0
 40
6.0
 41
0.0
 46
0.0
 71
     5
 72
     1
  1
\A1;22
 73
     1
 44
1.0
 90
        3
 63
     9
421
 13158600
 45
1.25
441
        0
  0
INSERT
  5
10E1F
330
105C4
100
AcDbEntity
  8
30
  6
Continuous
 62
     0
440
 16777216
370
    -2
100
AcDbBlockReference
  2
_OPEN
 10
110.134638074529
 20
435.7606819633276
 30
0.0
 41
2.0
 42
2.0
 43
2.0
 50
180.0
  0
INSERT
  5
10E20
330
105C4
100
AcDbEntity
  8
30
  6
Continuous
 62
     0
440
 16777216
370
    -2
100
AcDbBlockReference
  2
_OPEN
 10
132.134638074529
 20
435.7606819633276
 30
0.0
 41
2.0
 42
2.0
 43
2.0
  0
POINT
  5
10E21
330
105C4
100
AcDbEntity
  8
DEFPOINTS
  6
Continuous
 62
     0
440
 16777216
100
AcDbPoint
 10
110.134638074529
 20
427.7739106168808
 30
0.0
  0
POINT
  5
10E22
330
105C4
100
AcDbEntity
  8
DEFPOINTS
  6
Continuous
 62
     0
440
 16777216
100
AcDbPoint
 10
132.134638074529
 20
427.7739106168808
 30
0.0
  0
POINT
  5
10E23
330
105C4
100
AcDbEntity
  8
DEFPOINTS
  6
Continuous
 62
     0
440
 16777216
100
AcDbPoint
 10
132.134638074529
 20
435.7606819633276
 30
0.0
  0
ENDBLK
  5
105C6
330
105C4
100
AcDbEntity
  8
0
100
AcDbBlockEnd
  0
BLOCK
  5
1063B
330
1063A
100
AcDbEntity
  8
0
100
AcDbBlockBegin
  2
*D26
 70
     1
 10
0.0
 20
0.0
 30
0.0
  3
*D26
  1

  0
LINE
  5
10EAF
330
1063A
100
AcDbEntity
  8
30
  6
Continuous
 62
     0
440
 16777216
370
    -2
100
AcDbLine
 10
106.134638074529
 20
204.4265165958459
 30
0.0
 11
106.134638074529
 21
64.24996900688938
 31
0.0
  0
LINE
  5
10EB0
330
1063A
100
AcDbEntity
  8
30
  6
Continuous
 62
     0
440
 16777216
370
    -2
100
AcDbLine
 10
136.134638074529
 20
93.42651659584593
 30
0.0
 11
136.134638074529
 21
64.24996900688938
 31
0.0
  0
LINE
  5
10EB1
330
1063A
100
AcDbEntity
  8
30
  6
Continuous
 62
     0
440
 16777216
370
    -2
100
AcDbLine
 10
108.134638074529
 20
64.74996900688939
 30
0.0
 11
134.134638074529
 21
64.74996900688939
 31
0.0
  0
INSERT
  5
10EB2
330
1063A
100
AcDbEntity
  8
30
  6
Continuous
 62
     0
440
 16777216
370
    -2
100
AcDbBlockReference
  2
_OPEN
 10
106.134638074529
 20
64.74996900688939
 30
0.0
 41
2.0
 42
2.0
 43
2.0
 50
180.0
  0
INSERT
  5
10EB3
330
1063A
100
AcDbEntity
  8
30
  6
Continuous
 62
     0
440
 16777216
370
    -2
100
AcDbBlockReference
  2
_OPEN
 10
136.134638074529
 20
64.74996900688939
 30
0.0
 41
2.0
 42
2.0
 43
2.0
  0
MTEXT
  5
10EB4
330
1063A
100
AcDbEntity
  8
30
  6
Continuous
 62
     0
440
 16777216
100
AcDbMText
 10
121.134638074529
 20
69.74996900688939
 30
0.0
 40
6.0
 41
0.0
 46
0.0
 71
     5
 72
     1
  1
\A1;30
 73
     1
 44
1.0
  0
POINT
  5
10EB5
330
1063A
100
AcDbEntity
  8
DEFPOINTS
  6
Continuous
 62
     0
440
 16777216
100
AcDbPoint
 10
106.134638074529
 20
205.4265165958459
 30
0.0
  0
POINT
  5
10EB6
330
1063A
100
AcDbEntity
  8
DEFPOINTS
  6
Continuous
 62
     0
440
 16777216
100
AcDbPoint
 10
136.134638074529
 20
94.42651659584596
 30
0.0
  0
POINT
  5
10EB7
330
1063A
100
AcDbEntity
  8
DEFPOINTS
  6
Continuous
 62
     0
440
 16777216
100
AcDbPoint
 10
136.134638074529
 20
64.74996900688939
 30
0.0
  0
ENDBLK
  5
1063C
330
1063A
100
AcDbEntity
  8
0
100
AcDbBlockEnd
  0
BLOCK
  5
10A75
330
10A74
100
AcDbEntity
  8
0
100
AcDbBlockBegin
  2
*D27
 70
     1
 10
0.0
 20
0.0
 30
0.0
  3
*D27
  1

  0
LINE
  5
10E83
330
10A74
100
AcDbEntity
  8
30
  6
Continuous
 62
     0
440
 16777216
370
    -2
100
AcDbLine
 10
138.634638074529
 20
520.2739106168803
 30
0.0
 11
210.4471285990685
 21
520.2739106168803
 31
0.0
  0
LINE
  5
10E84
330
10A74
100
AcDbEntity
  8
30
  6
Continuous
 62
     0
440
 16777216
370
    -2
100
AcDbLine
 10
171.0
 20
470.2239118336309
 30
0.0
 11
210.4471285990685
 21
470.2239118336309
 31
0.0
  0
LINE
  5
10E85
330
10A74
100
AcDbEntity
  8
30
  6
Continuous
 62
     0
440
 16777216
370
    -2
100
AcDbLine
 10
209.9471285990685
 20
518.2739106168803
 30
0.0
 11
209.9471285990685
 21
472.2239118336308
 31
0.0
  0
INSERT
  5
10E86
330
10A74
100
AcDbEntity
  8
30
  6
Continuous
 62
     0
440
 16777216
370
    -2
100
AcDbBlockReference
  2
_OPEN
 10
209.9471285990685
 20
520.2739106168803
 30
0.0
 41
2.0
 42
2.0
 43
2.0
 50
90.0
  0
INSERT
  5
10E87
330
10A74
100
AcDbEntity
  8
30
  6
Continuous
 62
     0
440
 16777216
370
    -2
100
AcDbBlockReference
  2
_OPEN
 10
209.9471285990685
 20
470.2239118336309
 30
0.0
 41
2.0
 42
2.0
 43
2.0
 50
270.0
  0
MTEXT
  5
10E88
330
10A74
100
AcDbEntity
  8
30
  6
Continuous
 62
     0
440
 16777216
100
AcDbMText
 10
204.9471285990684
 20
499.3734827712745
 30
0.0
 40
6.0
 41
0.0
 46
0.0
 71
     5
 72
     1
  1
\A1;50
 11
0.0000000000000001
 21
1.0
 31
0.0
 73
     1
 44
1.0
  0
POINT
  5
10E89
330
10A74
100
AcDbEntity
  8
DEFPOINTS
  6
Continuous
 62
     0
440
 16777216
100
AcDbPoint
 10
137.634638074529
 20
520.2739106168803
 30
0.0
  0
POINT
  5
10E8A
330
10A74
100
AcDbEntity
  8
DEFPOINTS
  6
Continuous
 62
     0
440
 16777216
100
AcDbPoint
 10
170.0
 20
470.2239118336309
 30
0.0
  0
POINT
  5
10E8B
330
10A74
100
AcDbEntity
  8
DEFPOINTS
  6
Continuous
 62
     0
440
 16777216
100
AcDbPoint
 10
209.9471285990685
 20
470.2239118336309
 30
0.0
  0
ENDBLK
  5
10A76
330
10A74
100
AcDbEntity
  8
0
100
AcDbBlockEnd
  0
BLOCK
  5
10A81
330
10A80
100
AcDbEntity
  8
0
100
AcDbBlockBegin
  2
*D28
 70
     1
 10
0.0
 20
0.0
 30
0.0
  3
*D28
  1

  0
LINE
  5
10E71
330
10A80
100
AcDbEntity
  8
30
  6
Continuous
 62
     0
440
 16777216
370
    -2
100
AcDbLine
 10
167.134638074529
 20
470.2239118336309
 30
0.0
 11
210.4471285990685
 21
470.2239118336309
 31
0.0
  0
LINE
  5
10E72
330
10A80
100
AcDbEntity
  8
30
  6
Continuous
 62
     0
440
 16777216
370
    -2
100
AcDbLine
 10
169.0
 20
340.2249820348809
 30
0.0
 11
210.4471285990685
 21
340.2249820348809
 31
0.0
  0
LINE
  5
10E73
330
10A80
100
AcDbEntity
  8
30
  6
Continuous
 62
     0
440
 16777216
370
    -2
100
AcDbLine
 10
209.9471285990685
 20
468.2239118336308
 30
0.0
 11
209.9471285990685
 21
342.2249820348809
 31
0.0
  0
MTEXT
  5
10E74
330
10A80
100
AcDbEntity
  8
30
  6
Continuous
 62
     0
440
 16777216
100
AcDbMText
 10
204.9471285990685
 20
405.2244469342559
 30
0.0
 40
6.0
 41
0.0
 46
0.0
 71
     5
 72
     1
  1
\A1;130
 11
0.0000000000000001
 21
1.0
 31
0.0
 73
     1
 44
1.0
 90
        3
 63
     9
421
 13158600
 45
1.25
441
        0
  0
INSERT
  5
10E75
330
10A80
100
AcDbEntity
  8
30
  6
Continuous
 62
     0
440
 16777216
370
    -2
100
AcDbBlockReference
  2
_OPEN
 10
209.9471285990685
 20
470.2239118336309
 30
0.0
 41
2.0
 42
2.0
 43
2.0
 50
90.0
  0
INSERT
  5
10E76
330
10A80
100
AcDbEntity
  8
30
  6
Continuous
 62
     0
440
 16777216
370
    -2
100
AcDbBlockReference
  2
_OPEN
 10
209.9471285990685
 20
340.2249820348809
 30
0.0
 41
2.0
 42
2.0
 43
2.0
 50
270.0
  0
POINT
  5
10E77
330
10A80
100
AcDbEntity
  8
DEFPOINTS
  6
Continuous
 62
     0
440
 16777216
100
AcDbPoint
 10
166.134638074529
 20
470.2239118336309
 30
0.0
  0
POINT
  5
10E78
330
10A80
100
AcDbEntity
  8
DEFPOINTS
  6
Continuous
 62
     0
440
 16777216
100
AcDbPoint
 10
168.0
 20
340.2249820348809
 30
0.0
  0
POINT
  5
10E79
330
10A80
100
AcDbEntity
  8
DEFPOINTS
  6
Continuous
 62
     0
440
 16777216
100
AcDbPoint
 10
209.9471285990685
 20
340.2249820348809
 30
0.0
  0
ENDBLK
  5
10A82
330
10A80
100
AcDbEntity
  8
0
100
AcDbBlockEnd
  0
BLOCK
  5
10A8D
330
10A8C
100
AcDbEntity
  8
0
100
AcDbBlockBegin
  2
*D29
 70
     1
 10
0.0
 20
0.0
 30
0.0
  3
*D29
  1

  0
LINE
  5
10DFE
330
10A8C
100
AcDbEntity
  8
30
  6
Continuous
 62
     0
370
    -2
100
AcDbLine
 10
136.134638074529
 20
469.3239094001306
 30
0.0
 11
136.134638074529
 21
528.5499987832499
 31
0.0
  0
LINE
  5
10DFF
330
10A8C
100
AcDbEntity
  8
30
  6
Continuous
 62
     0
370
    -2
100
AcDbLine
 10
121.134638074529
 20
468.3239094001306
 30
0.0
 11
121.134638074529
 21
528.5499987832499
 31
0.0
  0
LINE
  5
10E00
330
10A8C
100
AcDbEntity
  8
30
  6
Continuous
 62
     0
370
    -2
100
AcDbLine
 10
123.134638074529
 20
528.0499987832498
 30
0.0
 11
134.134638074529
 21
528.0499987832498
 31
0.0
  0
LINE
  5
10E01
330
10A8C
100
AcDbEntity
  8
30
  6
Continuous
 62
     0
370
    -2
100
AcDbLine
 10
136.134638074529
 20
528.0499987832498
 30
0.0
 11
156.2353562344704
 21
528.0499987832498
 31
0.0
  0
INSERT
  5
10E02
330
10A8C
100
AcDbEntity
  8
30
  6
Continuous
 62
     0
370
    -2
100
AcDbBlockReference
  2
_OPEN
 10
121.134638074529
 20
528.0499987832498
 30
0.0
 41
2.0
 42
2.0
 43
2.0
 50
180.0
  0
INSERT
  5
10E03
330
10A8C
100
AcDbEntity
  8
30
  6
Continuous
 62
     0
370
    -2
100
AcDbBlockReference
  2
_OPEN
 10
136.134638074529
 20
528.0499987832498
 30
0.0
 41
2.0
 42
2.0
 43
2.0
  0
MTEXT
  5
10E04
330
10A8C
100
AcDbEntity
  8
30
  6
Continuous
 62
     0
100
AcDbMText
 10
150.2353562344704
 20
533.0499987832499
 30
0.0
 40
6.0
 41
0.0
 46
0.0
 71
     5
 72
     1
  1
\A1;15
 73
     1
 44
1.0
  0
POINT
  5
10E05
330
10A8C
100
AcDbEntity
  8
DEFPOINTS
  6
Continuous
 62
     0
100
AcDbPoint
 10
136.134638074529
 20
468.3239094001306
 30
0.0
  0
POINT
  5
10E06
330
10A8C
100
AcDbEntity
  8
DEFPOINTS
  6
Continuous
 62
     0
100
AcDbPoint
 10
121.134638074529
 20
467.3239094001304
 30
0.0
  0
POINT
  5
10E07
330
10A8C
100
AcDbEntity
  8
DEFPOINTS
  6
Continuous
 62
     0
100
AcDbPoint
 10
121.134638074529
 20
528.0499987832498
 30
0.0
  0
ENDBLK
  5
10A8E
330
10A8C
100
AcDbEntity
  8
0
100
AcDbBlockEnd
  0
BLOCK
  5
10A9A
330
10A99
100
AcDbEntity
  8
0
100
AcDbBlockBegin
  2
*D30
 70
     1
 10
0.0
 20
0.0
 30
0.0
  3
*D30
  1

  0
LINE
  5
10E08
330
10A99
100
AcDbEntity
  8
30
  6
Continuous
 62
     0
370
    -2
100
AcDbLine
 10
121.8856447785195
 20
529.0499987832498
 30
0.0
 11
121.8856447785195
 21
528.5499987832499
 31
0.0
  0
LINE
  5
10E09
330
10A99
100
AcDbEntity
  8
30
  6
Continuous
 62
     0
370
    -2
100
AcDbLine
 10
106.134638074529
 20
470.7536122879903
 30
0.0
 11
106.134638074529
 21
528.5499987832499
 31
0.0
  0
LINE
  5
10E0A
330
10A99
100
AcDbEntity
  8
30
  6
Continuous
 62
     0
370
    -2
100
AcDbLine
 10
119.8856447785195
 20
528.0499987832498
 30
0.0
 11
108.134638074529
 21
528.0499987832498
 31
0.0
  0
LINE
  5
10E0B
330
10A99
100
AcDbEntity
  8
30
  6
Continuous
 62
     0
370
    -2
100
AcDbLine
 10
106.134638074529
 20
528.0499987832498
 30
0.0
 11
84.13463807452904
 21
528.0499987832498
 31
0.0
  0
INSERT
  5
10E0C
330
10A99
100
AcDbEntity
  8
30
  6
Continuous
 62
     0
370
    -2
100
AcDbBlockReference
  2
_OPEN
 10
121.8856447785195
 20
528.0499987832498
 30
0.0
 41
2.0
 42
2.0
 43
2.0
  0
INSERT
  5
10E0D
330
10A99
100
AcDbEntity
  8
30
  6
Continuous
 62
     0
370
    -2
100
AcDbBlockReference
  2
_OPEN
 10
106.134638074529
 20
528.0499987832498
 30
0.0
 41
2.0
 42
2.0
 43
2.0
 50
180.0
  0
MTEXT
  5
10E0E
330
10A99
100
AcDbEntity
  8
30
  6
Continuous
 62
     0
100
AcDbMText
 10
94.13463807452904
 20
533.0499987832499
 30
0.0
 40
6.0
 41
0.0
 46
0.0
 71
     5
 72
     1
  1
\A1;15.8
 73
     1
 44
1.0
  0
POINT
  5
10E0F
330
10A99
100
AcDbEntity
  8
DEFPOINTS
  6
Continuous
 62
     0
100
AcDbPoint
 10
121.8856447785195
 20
528.0499987832498
 30
0.0
  0
POINT
  5
10E10
330
10A99
100
AcDbEntity
  8
DEFPOINTS
  6
Continuous
 62
     0
100
AcDbPoint
 10
106.134638074529
 20
469.7536122879903
 30
0.0
  0
POINT
  5
10E11
330
10A99
100
AcDbEntity
  8
DEFPOINTS
  6
Continuous
 62
     0
100
AcDbPoint
 10
106.134638074529
 20
528.0499987832498
 30
0.0
  0
ENDBLK
  5
10A9B
330
10A99
100
AcDbEntity
  8
0
100
AcDbBlockEnd
  0
BLOCK
  5
10AA7
330
10AA6
100
AcDbEntity
  8
0
100
AcDbBlockBegin
  2
*D31
 70
     1
 10
0.0
 20
0.0
 30
0.0
  3
*D31
  1

  0
LINE
  5
10D86
330
10AA6
100
AcDbEntity
  8
30
  6
Continuous
 62
     0
440
 16777216
370
    -2
100
AcDbLine
 10
79.13463807452898
 20
379.2739106168809
 30
0.0
 11
79.13463807452898
 21
367.5
 31
0.0
  0
LINE
  5
10D87
330
10AA6
100
AcDbEntity
  8
30
  6
Continuous
 62
     0
440
 16777216
370
    -2
100
AcDbLine
 10
163.134638074529
 20
379.2739106168809
 30
0.0
 11
163.134638074529
 21
367.5
 31
0.0
  0
LINE
  5
10D88
330
10AA6
100
AcDbEntity
  8
30
  6
Continuous
 62
     0
440
 16777216
370
    -2
100
AcDbLine
 10
81.134638074529
 20
368.0
 30
0.0
 11
161.134638074529
 21
368.0
 31
0.0
  0
MTEXT
  5
10D89
330
10AA6
100
AcDbEntity
  8
30
  6
Continuous
 62
     0
440
 16777216
100
AcDbMText
 10
121.134638074529
 20
373.0
 30
0.0
 40
6.0
 41
0.0
 46
0.0
 71
     5
 72
     1
  1
\A1;84
 73
     1
 44
1.0
 90
        3
 63
     9
421
 13158600
 45
1.25
441
        0
  0
INSERT
  5
10D8A
330
10AA6
100
AcDbEntity
  8
30
  6
Continuous
 62
     0
440
 16777216
370
    -2
100
AcDbBlockReference
  2
_OPEN
 10
79.13463807452898
 20
368.0
 30
0.0
 41
2.0
 42
2.0
 43
2.0
 50
180.0
  0
INSERT
  5
10D8B
330
10AA6
100
AcDbEntity
  8
30
  6
Continuous
 62
     0
440
 16777216
370
    -2
100
AcDbBlockReference
  2
_OPEN
 10
163.134638074529
 20
368.0
 30
0.0
 41
2.0
 42
2.0
 43
2.0
  0
POINT
  5
10D8C
330
10AA6
100
AcDbEntity
  8
DEFPOINTS
  6
Continuous
 62
     0
440
 16777216
100
AcDbPoint
 10
79.13463807452898
 20
380.2739106168809
 30
0.0
  0
POINT
  5
10D8D
330
10AA6
100
AcDbEntity
  8
DEFPOINTS
  6
Continuous
 62
     0
440
 16777216
100
AcDbPoint
 10
163.134638074529
 20
380.2739106168809
 30
0.0
  0
POINT
  5
10D8E
330
10AA6
100
AcDbEntity
  8
DEFPOINTS
  6
Continuous
 62
     0
440
 16777216
100
AcDbPoint
 10
163.134638074529
 20
368.0
 30
0.0
  0
ENDBLK
  5
10AA8
330
10AA6
100
AcDbEntity
  8
0
100
AcDbBlockEnd
  0
BLOCK
  5
10AC0
330
10ABF
100
AcDbEntity
  8
0
100
AcDbBlockBegin
  2
*D32
 70
     1
 10
0.0
 20
0.0
 30
0.0
  3
*D32
  1

  0
LINE
  5
10E7A
330
10ABF
100
AcDbEntity
  8
30
  6
Continuous
 62
     0
440
 16777216
370
    -2
100
AcDbLine
 10
159.134638074529
 20
348.224982018381
 30
0.0
 11
193.8179035110379
 21
348.224982018381
 31
0.0
  0
LINE
  5
10E7B
330
10ABF
100
AcDbEntity
  8
30
  6
Continuous
 62
     0
440
 16777216
370
    -2
100
AcDbLine
 10
159.134638074529
 20
462.2739106168808
 30
0.0
 11
193.8179035110379
 21
462.2739106168808
 31
0.0
  0
LINE
  5
10E7C
330
10ABF
100
AcDbEntity
  8
30
  6
Continuous
 62
     0
440
 16777216
370
    -2
100
AcDbLine
 10
193.3179035110379
 20
350.224982018381
 30
0.0
 11
193.3179035110379
 21
460.2739106168808
 31
0.0
  0
INSERT
  5
10E7D
330
10ABF
100
AcDbEntity
  8
30
  6
Continuous
 62
     0
440
 16777216
370
    -2
100
AcDbBlockReference
  2
_OPEN
 10
193.3179035110379
 20
348.224982018381
 30
0.0
 41
2.0
 42
2.0
 43
2.0
 50
270.0
  0
INSERT
  5
10E7E
330
10ABF
100
AcDbEntity
  8
30
  6
Continuous
 62
     0
440
 16777216
370
    -2
100
AcDbBlockReference
  2
_OPEN
 10
193.3179035110379
 20
462.2739106168808
 30
0.0
 41
2.0
 42
2.0
 43
2.0
 50
90.0
  0
MTEXT
  5
10E7F
330
10ABF
100
AcDbEntity
  8
30
  6
Continuous
 62
     0
440
 16777216
100
AcDbMText
 10
188.3179035110378
 20
405.2494463176308
 30
0.0
 40
6.0
 41
0.0
 46
0.0
 71
     5
 72
     1
  1
\A1;114
 11
0.0000000000000001
 21
1.0
 31
0.0
 73
     1
 44
1.0
 90
        3
 63
     9
421
 13158600
 45
1.25
441
        0
  0
POINT
  5
10E80
330
10ABF
100
AcDbEntity
  8
DEFPOINTS
  6
Continuous
 62
     0
440
 16777216
100
AcDbPoint
 10
158.134638074529
 20
348.224982018381
 30
0.0
  0
POINT
  5
10E81
330
10ABF
100
AcDbEntity
  8
DEFPOINTS
  6
Continuous
 62
     0
440
 16777216
100
AcDbPoint
 10
158.134638074529
 20
462.2739106168808
 30
0.0
  0
POINT
  5
10E82
330
10ABF
100
AcDbEntity
  8
DEFPOINTS
  6
Continuous
 62
     0
440
 16777216
100
AcDbPoint
 10
193.3179035110379
 20
462.2739106168808
 30
0.0
  0
ENDBLK
  5
10AC1
330
10ABF
100
AcDbEntity
  8
0
100
AcDbBlockEnd
  0
BLOCK
  5
10C77
330
10C76
100
AcDbEntity
  8
0
100
AcDbBlockBegin
  2
*D33
 70
     1
 10
0.0
 20
0.0
 30
0.0
  3
*D33
  1

  0
LINE
  5
10C90
330
10C76
100
AcDbEntity
  8
30
  6
Continuous
 62
     0
440
 16777216
370
    -2
100
AcDbLine
 10
455.201212853207
 20
459.2056308965878
 30
0.0
 11
472.7704695056099
 21
459.2056308965878
 31
0.0
  0
LINE
  5
10C91
330
10C76
100
AcDbEntity
  8
30
  6
Continuous
 62
     0
440
 16777216
370
    -2
100
AcDbLine
 10
458.201212853207
 20
450.2056308965878
 30
0.0
 11
472.7704695056099
 21
450.2056308965878
 31
0.0
  0
LINE
  5
10C92
330
10C76
100
AcDbEntity
  8
30
  6
Continuous
 62
     0
440
 16777216
370
    -2
100
AcDbLine
 10
472.2704695056099
 20
452.2056308965878
 30
0.0
 11
472.2704695056099
 21
457.2056308965878
 31
0.0
  0
LINE
  5
10C93
330
10C76
100
AcDbEntity
  8
30
  6
Continuous
 62
     0
440
 16777216
370
    -2
100
AcDbLine
 10
472.2704695056099
 20
459.2056308965878
 30
0.0
 11
472.2704695056099
 21
500.8056308965878
 31
0.0
  0
INSERT
  5
10C94
330
10C76
100
AcDbEntity
  8
30
  6
Continuous
 62
     0
440
 16777216
370
    -2
100
AcDbBlockReference
  2
_OPEN
 10
472.2704695056099
 20
450.2056308965878
 30
0.0
 41
2.0
 42
2.0
 43
2.0
 50
270.0
  0
INSERT
  5
10C95
330
10C76
100
AcDbEntity
  8
30
  6
Continuous
 62
     0
440
 16777216
370
    -2
100
AcDbBlockReference
  2
_OPEN
 10
472.2704695056099
 20
459.2056308965878
 30
0.0
 41
2.0
 42
2.0
 43
2.0
 50
90.0
  0
MTEXT
  5
10C96
330
10C76
100
AcDbEntity
  8
30
  6
Continuous
 62
     0
440
 16777216
100
AcDbMText
 10
464.2704695056099
 20
481.0056308965878
 30
0.0
 40
6.0
 41
0.0
 46
0.0
 71
     2
 72
     1
  1
\A1;9 (max.)
 11
0.0000000000000001
 21
1.0
 31
0.0
 73
     1
 44
1.0
  0
POINT
  5
10C97
330
10C76
100
AcDbEntity
  8
DEFPOINTS
  6
Continuous
 62
     0
440
 16777216
100
AcDbPoint
 10
452.2012128532071
 20
459.2056308965878
 30
0.0
  0
POINT
  5
10C98
330
10C76
100
AcDbEntity
  8
DEFPOINTS
  6
Continuous
 62
     0
440
 16777216
100
AcDbPoint
 10
455.201212853207
 20
450.2056308965878
 30
0.0
  0
POINT
  5
10C99
330
10C76
100
AcDbEntity
  8
DEFPOINTS
  6
Continuous
 62
     0
440
 16777216
100
AcDbPoint
 10
472.2704695056099
 20
450.2056308965878
 30
0.0
  0
ENDBLK
  5
10C78
330
10C76
100
AcDbEntity
  8
0
100
AcDbBlockEnd
  0
BLOCK
  5
10C84
330
10C83
100
AcDbEntity
  8
0
100
AcDbBlockBegin
  2
*D34
 70
     1
 10
0.0
 20
0.0
 30
0.0
  3
*D34
  1

  0
LINE
  5
10DAA
330
10C83
100
AcDbEntity
  8
30
  6
Continuous
 62
     0
440
 16777216
370
    -2
100
AcDbLine
 10
435.2012128532071
 20
449.2056308965878
 30
0.0
 11
435.2012128532071
 21
436.4686787924732
 31
0.0
  0
LINE
  5
10DAB
330
10C83
100
AcDbEntity
  8
30
  6
Continuous
 62
     0
440
 16777216
370
    -2
100
AcDbLine
 10
455.201212853207
 20
449.2056308965878
 30
0.0
 11
455.201212853207
 21
436.4686787924732
 31
0.0
  0
LINE
  5
10DAC
330
10C83
100
AcDbEntity
  8
30
  6
Continuous
 62
     0
440
 16777216
370
    -2
100
AcDbLine
 10
453.2012128532072
 20
436.9686787924732
 30
0.0
 11
437.201212853207
 21
436.9686787924732
 31
0.0
  0
LINE
  5
10DAD
330
10C83
100
AcDbEntity
  8
30
  6
Continuous
 62
     0
440
 16777216
370
    -2
100
AcDbLine
 10
435.2012128532071
 20
436.9686787924732
 30
0.0
 11
383.1715122831051
 21
436.9686787924732
 31
0.0
  0
INSERT
  5
10DAE
330
10C83
100
AcDbEntity
  8
30
  6
Continuous
 62
     0
440
 16777216
370
    -2
100
AcDbBlockReference
  2
_OPEN
 10
455.201212853207
 20
436.9686787924732
 30
0.0
 41
2.0
 42
2.0
 43
2.0
  0
INSERT
  5
10DAF
330
10C83
100
AcDbEntity
  8
30
  6
Continuous
 62
     0
440
 16777216
370
    -2
100
AcDbBlockReference
  2
_OPEN
 10
435.2012128532071
 20
436.9686787924732
 30
0.0
 41
2.0
 42
2.0
 43
2.0
 50
180.0
  0
MTEXT
  5
10DB0
330
10C83
100
AcDbEntity
  8
30
  6
Continuous
 62
     0
440
 16777216
100
AcDbMText
 10
405.471512283105
 20
454.9686787924732
 30
0.0
 40
6.0
 41
0.0
 46
0.0
 71
     2
 72
     1
  1
\A1;20 (max.)\Pmax. t6
 73
     1
 44
1.0
  0
POINT
  5
10DB1
330
10C83
100
AcDbEntity
  8
DEFPOINTS
  6
Continuous
 62
     0
440
 16777216
100
AcDbPoint
 10
435.2012128532071
 20
450.2056308965878
 30
0.0
  0
POINT
  5
10DB2
330
10C83
100
AcDbEntity
  8
DEFPOINTS
  6
Continuous
 62
     0
440
 16777216
100
AcDbPoint
 10
455.201212853207
 20
450.2056308965878
 30
0.0
  0
POINT
  5
10DB3
330
10C83
100
AcDbEntity
  8
DEFPOINTS
  6
Continuous
 62
     0
440
 16777216
100
AcDbPoint
 10
455.201212853207
 20
436.9686787924732
 30
0.0
  0
ENDBLK
  5
10C85
330
10C83
100
AcDbEntity
  8
0
100
AcDbBlockEnd
  0
BLOCK
  5
10DB5
330
10DB4
100
AcDbEntity
  8
0
100
AcDbBlockBegin
  2
*D35
 70
     1
 10
0.0
 20
0.0
 30
0.0
  3
*D35
  1

  0
LINE
  5
10DB6
330
10DB4
100
AcDbEntity
  8
30
  6
Continuous
 62
     0
370
    -2
100
AcDbLine
 10
129.3185738189169
 20
448.6964490409324
 30
0.0
 11
129.3185738189169
 21
455.4555101049635
 31
0.0
  0
LINE
  5
10DB7
330
10DB4
100
AcDbEntity
  8
30
  6
Continuous
 62
     0
370
    -2
100
AcDbLine
 10
115.0695805229075
 20
385.7807739366096
 30
0.0
 11
115.0695805229075
 21
455.4555101049635
 31
0.0
  0
LINE
  5
10DB8
330
10DB4
100
AcDbEntity
  8
30
  6
Continuous
 62
     0
370
    -2
100
AcDbLine
 10
117.0695805229075
 20
454.9555101049636
 30
0.0
 11
127.3185738189169
 21
454.9555101049636
 31
0.0
  0
LINE
  5
10DB9
330
10DB4
100
AcDbEntity
  8
30
  6
Continuous
 62
     0
370
    -2
100
AcDbLine
 10
129.3185738189169
 20
454.9555101049636
 30
0.0
 11
153.4192919788584
 21
454.9555101049636
 31
0.0
  0
INSERT
  5
10DBA
330
10DB4
100
AcDbEntity
  8
30
  6
Continuous
 62
     0
370
    -2
100
AcDbBlockReference
  2
_OPEN
 10
115.0695805229075
 20
454.9555101049636
 30
0.0
 41
2.0
 42
2.0
 43
2.0
 50
180.0
  0
INSERT
  5
10DBB
330
10DB4
100
AcDbEntity
  8
30
  6
Continuous
 62
     0
370
    -2
100
AcDbBlockReference
  2
_OPEN
 10
129.3185738189169
 20
454.9555101049636
 30
0.0
 41
2.0
 42
2.0
 43
2.0
  0
MTEXT
  5
10DBC
330
10DB4
100
AcDbEntity
  8
30
  6
Continuous
 62
     0
100
AcDbMText
 10
143.4192919788584
 20
459.9555101049637
 30
0.0
 40
6.0
 41
0.0
 46
0.0
 71
     5
 72
     1
  1
\A1;14.2
 73
     1
 44
1.0
  0
POINT
  5
10DBD
330
10DB4
100
AcDbEntity
  8
DEFPOINTS
  6
Continuous
 62
     0
100
AcDbPoint
 10
129.3185738189169
 20
447.6964490409324
 30
0.0
  0
POINT
  5
10DBE
330
10DB4
100
AcDbEntity
  8
DEFPOINTS
  6
Continuous
 62
     0
100
AcDbPoint
 10
115.0695805229075
 20
384.7807739366097
 30
0.0
  0
POINT
  5
10DBF
330
10DB4
100
AcDbEntity
  8
DEFPOINTS
  6
Continuous
 62
     0
100
AcDbPoint
 10
115.0695805229075
 20
454.9555101049636
 30
0.0
  0
ENDBLK
  5
10DC0
330
10DB4
100
AcDbEntity
  8
0
100
AcDbBlockEnd
  0
BLOCK
  5
10DC2
330
10DC1
100
AcDbEntity
  8
0
100
AcDbBlockBegin
  2
*D36
 70
     1
 10
0.0
 20
0.0
 30
0.0
  3
*D36
  1

  0
LINE
  5
10DC3
330
10DC1
100
AcDbEntity
  8
30
  6
Continuous
 62
     0
370
    -2
100
AcDbLine
 10
115.0695805229075
 20
455.7888431049637
 30
0.0
 11
115.0695805229075
 21
455.2888431049638
 31
0.0
  0
LINE
  5
10DC4
330
10DC1
100
AcDbEntity
  8
30
  6
Continuous
 62
     0
370
    -2
100
AcDbLine
 10
99.31857381891701
 20
437.6797028878597
 30
0.0
 11
99.31857381891701
 21
455.2888431049638
 31
0.0
  0
LINE
  5
10DC5
330
10DC1
100
AcDbEntity
  8
30
  6
Continuous
 62
     0
370
    -2
100
AcDbLine
 10
113.0695805229075
 20
454.7888431049639
 30
0.0
 11
101.318573818917
 21
454.7888431049639
 31
0.0
  0
LINE
  5
10DC6
330
10DC1
100
AcDbEntity
  8
30
  6
Continuous
 62
     0
370
    -2
100
AcDbLine
 10
99.31857381891701
 20
454.7888431049639
 30
0.0
 11
77.31857381891699
 21
454.7888431049639
 31
0.0
  0
INSERT
  5
10DC7
330
10DC1
100
AcDbEntity
  8
30
  6
Continuous
 62
     0
370
    -2
100
AcDbBlockReference
  2
_OPEN
 10
115.0695805229075
 20
454.7888431049639
 30
0.0
 41
2.0
 42
2.0
 43
2.0
  0
INSERT
  5
10DC8
330
10DC1
100
AcDbEntity
  8
30
  6
Continuous
 62
     0
370
    -2
100
AcDbBlockReference
  2
_OPEN
 10
99.31857381891701
 20
454.7888431049639
 30
0.0
 41
2.0
 42
2.0
 43
2.0
 50
180.0
  0
MTEXT
  5
10DC9
330
10DC1
100
AcDbEntity
  8
30
  6
Continuous
 62
     0
100
AcDbMText
 10
87.31857381891698
 20
459.7888431049637
 30
0.0
 40
6.0
 41
0.0
 46
0.0
 71
     5
 72
     1
  1
\A1;15.8
 73
     1
 44
1.0
  0
POINT
  5
10DCA
330
10DC1
100
AcDbEntity
  8
DEFPOINTS
  6
Continuous
 62
     0
100
AcDbPoint
 10
115.0695805229075
 20
454.7888431049639
 30
0.0
  0
POINT
  5
10DCB
330
10DC1
100
AcDbEntity
  8
DEFPOINTS
  6
Continuous
 62
     0
100
AcDbPoint
 10
99.31857381891701
 20
436.6797028878596
 30
0.0
  0
POINT
  5
10DCC
330
10DC1
100
AcDbEntity
  8
DEFPOINTS
  6
Continuous
 62
     0
100
AcDbPoint
 10
99.31857381891701
 20
454.7888431049639
 30
0.0
  0
ENDBLK
  5
10DCD
330
10DC1
100
AcDbEntity
  8
0
100
AcDbBlockEnd
  0
BLOCK
  5
10DD4
330
10DCF
100
AcDbEntity
  8
0
100
AcDbBlockBegin
  2
A$C27422FFF
 70
     0
 10
0.0
 20
0.0
 30
0.0
  3
A$C27422FFF
  1

  0
DIMENSION
  5
10DD0
330
10DCF
100
AcDbEntity
  8
30
  6
Continuous
100
AcDbDimension
280
     0
  2
*D35
 10
15.75100670399051
 20
18.75550888821374
 30
0.0
 11
44.10071815994139
 21
18.75550888821374
 31
0.0
 12
-99.31857381891695
 22
-436.2000012167498
 32
0.0
 70
   128
 71
     5
 42
14.24899329600946
 73
     0
 74
     0
 75
     0
  3
STANDARD
100
AcDbAlignedDimension
 13
29.99999999999997
 23
11.49644782418238
 33
0.0
 14
15.75100670399051
 24
-51.41922728014033
 34
0.0
100
AcDbRotatedDimension
1001
ACAD
1000
DSTYLE
1002
{
1070
    79
1070
     3
1002
}
  0
DIMENSION
  5
10DD1
330
10DCF
100
AcDbEntity
  8
30
  6
Continuous
100
AcDbDimension
280
     0
  2
*D36
 10
0.0000000000000142
 20
18.58884188821378
 30
0.0
 11
-11.99999999999998
 21
23.58884188821378
 31
0.0
 12
-99.31857381891695
 22
-436.2000012167498
 32
0.0
 71
     5
 42
15.7510067039905
 73
     0
 74
     0
 75
     0
  3
STANDARD
100
AcDbAlignedDimension
 13
15.75100670399051
 23
18.58884188821378
 33
0.0
 14
0.0000000000000142
 24
0.4797016711096376
 34
0.0
100
AcDbRotatedDimension
1001
ACAD
1000
DSTYLE
1002
{
1070
    79
1070
     3
1002
}
  0
ENDBLK
  5
10DD5
330
10DCF
100
AcDbEntity
  8
0
100
AcDbBlockEnd
  0
ENDSEC
  0
SECTION
  2
ENTITIES
  0
LINE
  5
1C9B
330
1E
100
AcDbEntity
  8
16
100
AcDbLine
 10
366.116956439103
 20
405.2739106168806
 30
0.0
 11
256.237536709141
 21
405.2739106168806
 31
0.0
  0
LINE
  5
2260
330
1E
100
AcDbEntity
  8
16
100
AcDbLine
 10
177.0
 20
154.4265165958459
 30
0.0
 11
59.71356056957029
 21
154.4265165958459
 31
0.0
  0
LINE
  5
2261
330
1E
100
AcDbEntity
  8
16
100
AcDbLine
 10
121.134638074529
 20
83.09707741253147
 30
0.0
 11
121.134638074529
 21
233.7561355219643
 31
0.0
  0
DIMENSION
  5
54D8
330
1E
100
AcDbEntity
  8
30
  6
Continuous
100
AcDbDimension
280
     0
  2
*D1
 10
105.0444821116126
 20
209.0981443354523
 30
0.0
 11
133.8717423220147
 21
242.2620294687267
 31
0.0
 70
   163
  1
M4×0.7
 71
     5
 42
6.000000531174066
 73
     0
 74
     0
 75
     0
  3
STANDARD
100
AcDbDiametricDimension
 15
107.0447940374455
 25
214.7548888562398
 35
0.0
 40
0.0
1001
ACAD
1000
DSTYLE
1002
{
1070
   288
1070
     1
1002
}
  0
LINE
  5
583B
330
1E
100
AcDbEntity
  8
18
100
AcDbLine
 10
134.634638074529
 20
520.2739106168803
 30
0.0
 11
134.634638074529
 21
470.2239118336309
 31
0.0
  0
LINE
  5
583C
330
1E
100
AcDbEntity
  8
18
100
AcDbLine
 10
137.634638074529
 20
520.2739106168803
 30
0.0
 11
137.634638074529
 21
470.2239118336309
 31
0.0
  0
LINE
  5
5842
330
1E
100
AcDbEntity
  8
10
  6
CONTINOUS
100
AcDbLine
 10
166.134638074529
 20
340.2249820348809
 30
0.0
 11
166.134638074529
 21
470.2239118336309
 31
0.0
  0
LINE
  5
5843
330
1E
100
AcDbEntity
  8
10
  6
CONTINOUS
100
AcDbLine
 10
76.13463807452898
 20
470.2239118336309
 30
0.0
 11
76.13463807452898
 21
340.2249820348809
 31
0.0
  0
DIMENSION
  5
5844
330
1E
100
AcDbEntity
  8
30
  6
Continuous
100
AcDbDimension
280
     0
  2
*D2
 10
166.134638074529
 20
305.444971930984
 30
0.0
 11
121.134638074529
 21
310.444971930984
 31
0.0
 70
    32
 71
     5
 42
90.0
 73
     0
 74
     0
 75
     0
  3
STANDARD
100
AcDbAlignedDimension
 13
76.13463807452898
 23
340.2249820348809
 33
0.0
 14
166.134638074529
 24
340.2249820348809
 34
0.0
 50
180.0
100
AcDbRotatedDimension
1001
ACAD
1000
DSTYLE
1002
{
1070
    79
1070
     3
1002
}
  0
LINE
  5
5845
330
1E
100
AcDbEntity
  8
10
  6
CONTINOUS
100
AcDbLine
 10
76.13463807452902
 20
354.2739106168808
 30
0.0
 11
166.134638074529
 21
354.2739106168808
 31
0.0
  0
LINE
  5
5846
330
1E
100
AcDbEntity
  8
10
  6
CONTINOUS
100
AcDbLine
 10
76.13463807452898
 20
340.2249820348809
 30
0.0
 11
166.134638074529
 21
340.2249820348809
 31
0.0
  0
DIMENSION
  5
5847
330
1E
100
AcDbEntity
  8
30
  6
Continuous
100
AcDbDimension
280
     0
  2
*D3
 10
151.134638074529
 20
317.5690067985488
 30
0.0
 11
121.134638074529
 21
322.5690067985488
 31
0.0
 70
    32
 71
     5
 42
60.0
 73
     0
 74
     0
 75
     0
  3
STANDARD
100
AcDbAlignedDimension
 13
91.134638074529
 23
348.224982018381
 33
0.0
 14
151.134638074529
 24
348.2249820183809
 34
0.0
 50
180.0
100
AcDbRotatedDimension
1001
ACAD
1000
DSTYLE
1002
{
1070
    79
1070
     3
1002
}
  0
CIRCLE
  5
5848
330
1E
100
AcDbEntity
  8
24
  6
CONTINOUS
100
AcDbCircle
 10
151.134638074529
 20
348.224982018381
 30
0.0
 40
3.5
  0
LINE
  5
584A
330
1E
100
AcDbEntity
  8
17
  6
DASHDOT
100
AcDbLine
 10
144.1346380745289
 20
348.224982018381
 30
0.0
 11
158.134638074529
 21
348.224982018381
 31
0.0
  0
LINE
  5
584B
330
1E
100
AcDbEntity
  8
10
  6
CONTINOUS
100
AcDbLine
 10
154.884638074529
 20
354.2249820183808
 30
0.0
 11
147.3846380745289
 21
354.2249820183808
 31
0.0
  0
ARC
  5
584C
330
1E
100
AcDbEntity
  8
10
  6
CONTINOUS
100
AcDbCircle
 10
124.884638074529
 20
349.2249820183809
 30
0.0
 40
5.0
100
AcDbArc
 50
0.0
 51
90.0
  0
CIRCLE
  5
584D
330
1E
100
AcDbEntity
  8
24
  6
CONTINOUS
100
AcDbCircle
 10
121.134638074529
 20
348.2249820183808
 30
0.0
 40
3.5
  0
LINE
  5
584E
330
1E
100
AcDbEntity
  8
17
  6
DASHDOT
100
AcDbLine
 10
121.134638074529
 20
343.2900848506658
 30
0.0
 11
121.134638074529
 21
352.877238218595
 31
0.0
  0
LINE
  5
584F
330
1E
100
AcDbEntity
  8
10
  6
CONTINOUS
100
AcDbLine
 10
112.384638074529
 20
349.2249820183809
 30
0.0
 11
112.384638074529
 21
340.2249820348809
 31
0.0
  0
LINE
  5
5850
330
1E
100
AcDbEntity
  8
10
  6
CONTINOUS
100
AcDbLine
 10
117.384638074529
 20
354.2249820183808
 30
0.0
 11
124.884638074529
 21
354.2249820183808
 31
0.0
  0
LINE
  5
5851
330
1E
100
AcDbEntity
  8
17
  6
DASHDOT
100
AcDbLine
 10
128.134638074529
 20
348.224982018381
 30
0.0
 11
114.134638074529
 21
348.224982018381
 31
0.0
  0
ARC
  5
5852
330
1E
100
AcDbEntity
  8
10
  6
CONTINOUS
100
AcDbCircle
 10
117.384638074529
 20
349.2249820183809
 30
0.0
 40
5.0
100
AcDbArc
 50
90.0
 51
180.0
  0
CIRCLE
  5
5853
330
1E
100
AcDbEntity
  8
12
100
AcDbCircle
 10
136.134638074529
 20
349.2249820183809
 30
0.0
 40
4.0
  0
LINE
  5
5854
330
1E
100
AcDbEntity
  8
10
  6
CONTINOUS
100
AcDbLine
 10
129.884638074529
 20
349.2249820183809
 30
0.0
 11
129.884638074529
 21
340.2249820348809
 31
0.0
  0
LINE
  5
5855
330
1E
100
AcDbEntity
  8
10
  6
CONTINOUS
100
AcDbLine
 10
142.384638074529
 20
349.2249820183809
 30
0.0
 11
142.384638074529
 21
340.2249820348809
 31
0.0
  0
LINE
  5
5856
330
1E
100
AcDbEntity
  8
12
  6
DASHED
100
AcDbLine
 10
130.634638074529
 20
349.2249820183809
 30
0.0
 11
141.634638074529
 21
349.2249820183809
 31
0.0
  0
ARC
  5
5857
330
1E
100
AcDbEntity
  8
10
  6
CONTINOUS
100
AcDbCircle
 10
-147.3846380745289
 20
349.2249820183809
 30
0.0
 40
5.0
210
0.0
220
0.0
230
-1.0
100
AcDbArc
 50
0.0
 51
90.0
  0
LINE
  5
5858
330
1E
100
AcDbEntity
  8
17
  6
DASHDOT
100
AcDbLine
 10
151.134638074529
 20
343.4612855382827
 30
0.0
 11
151.134638074529
 21
352.7916346002237
 31
0.0
  0
LINE
  5
5859
330
1E
100
AcDbEntity
  8
10
  6
CONTINOUS
100
AcDbLine
 10
159.884638074529
 20
349.2249820183809
 30
0.0
 11
159.884638074529
 21
340.2249820348809
 31
0.0
  0
ARC
  5
585A
330
1E
100
AcDbEntity
  8
10
  6
CONTINOUS
100
AcDbCircle
 10
-154.884638074529
 20
349.2249820183809
 30
0.0
 40
5.0
210
0.0
220
0.0
230
-1.0
100
AcDbArc
 50
90.0
 51
180.0
  0
LINE
  5
585B
330
1E
100
AcDbEntity
  8
10
  6
CONTINOUS
100
AcDbLine
 10
76.13463807452902
 20
456.2739106168806
 30
0.0
 11
166.134638074529
 21
456.2739106168806
 31
0.0
  0
LINE
  5
585C
330
1E
100
AcDbEntity
  8
10
  6
CONTINOUS
100
AcDbLine
 10
166.134638074529
 20
470.2239118336309
 30
0.0
 11
76.13463807452898
 21
470.2239118336309
 31
0.0
  0
LINE
  5
5866
330
1E
100
AcDbEntity
  8
10
  6
CONTINOUS
100
AcDbLine
 10
154.884638074529
 20
456.2739106168808
 30
0.0
 11
147.3846380745289
 21
456.2739106168808
 31
0.0
  0
LINE
  5
5867
330
1E
100
AcDbEntity
  8
17
  6
DASHDOT
100
AcDbLine
 10
144.1346380745289
 20
462.2739106168808
 30
0.0
 11
158.134638074529
 21
462.2739106168808
 31
0.0
  0
LINE
  5
5869
330
1E
100
AcDbEntity
  8
17
  6
DASHDOT
100
AcDbLine
 10
121.134638074529
 20
469.2739106168808
 30
0.0
 11
121.134638074529
 21
455.2739106168806
 31
0.0
  0
LINE
  5
586A
330
1E
100
AcDbEntity
  8
10
  6
CONTINOUS
100
AcDbLine
 10
112.384638074529
 20
461.2739106168808
 30
0.0
 11
112.384638074529
 21
470.2239118336309
 31
0.0
  0
LINE
  5
586B
330
1E
100
AcDbEntity
  8
10
  6
CONTINOUS
100
AcDbLine
 10
129.884638074529
 20
461.2739106168808
 30
0.0
 11
129.884638074529
 21
470.2239118336309
 31
0.0
  0
LINE
  5
586C
330
1E
100
AcDbEntity
  8
10
  6
CONTINOUS
100
AcDbLine
 10
142.3846380745289
 20
461.2739106168808
 30
0.0
 11
142.3846380745289
 21
470.2239118336309
 31
0.0
  0
ARC
  5
586D
330
1E
100
AcDbEntity
  8
10
  6
CONTINOUS
100
AcDbCircle
 10
-124.884638074529
 20
461.2739106168808
 30
0.0
 40
5.0
210
0.0
220
0.0
230
-1.0
100
AcDbArc
 50
180.0
 51
270.0
  0
LINE
  5
586E
330
1E
100
AcDbEntity
  8
10
  6
CONTINOUS
100
AcDbLine
 10
117.384638074529
 20
456.2739106168808
 30
0.0
 11
124.884638074529
 21
456.2739106168808
 31
0.0
  0
LINE
  5
586F
330
1E
100
AcDbEntity
  8
17
  6
DASHDOT
100
AcDbLine
 10
128.134638074529
 20
462.2739106168808
 30
0.0
 11
114.134638074529
 21
462.2739106168808
 31
0.0
  0
ARC
  5
5870
330
1E
100
AcDbEntity
  8
10
  6
CONTINOUS
100
AcDbCircle
 10
-117.384638074529
 20
461.2739106168808
 30
0.0
 40
5.0
210
0.0
220
0.0
230
-1.0
100
AcDbArc
 50
270.0
 51
0.0
  0
ARC
  5
5873
330
1E
100
AcDbEntity
  8
10
  6
CONTINOUS
100
AcDbCircle
 10
147.3846380745289
 20
461.2739106168808
 30
0.0
 40
5.0
100
AcDbArc
 50
180.0
 51
270.0
  0
LINE
  5
5875
330
1E
100
AcDbEntity
  8
10
  6
CONTINOUS
100
AcDbLine
 10
159.884638074529
 20
461.2739106168808
 30
0.0
 11
159.884638074529
 21
470.2239118336309
 31
0.0
  0
LINE
  5
5876
330
1E
100
AcDbEntity
  8
17
  6
DASHDOT
100
AcDbLine
 10
151.1346380745289
 20
469.2739106168808
 30
0.0
 11
151.1346380745289
 21
455.2739106168806
 31
0.0
  0
ARC
  5
5877
330
1E
100
AcDbEntity
  8
10
  6
CONTINOUS
100
AcDbCircle
 10
154.884638074529
 20
461.2739106168808
 30
0.0
 40
5.0
100
AcDbArc
 50
270.0
 51
0.0
  0
LINE
  5
5878
330
1E
100
AcDbEntity
  8
18
100
AcDbLine
 10
137.634638074529
 20
520.2739106168803
 30
0.0
 11
134.634638074529
 21
520.2739106168803
 31
0.0
  0
DIMENSION
  5
59B9
330
1E
100
AcDbEntity
  8
30
  6
Continuous
100
AcDbDimension
280
     0
  2
*D4
 10
354.1346368377795
 20
284.9056532190852
 30
0.0
 11
306.3846374561543
 21
289.9056532190852
 31
0.0
 70
    32
 71
     5
 42
95.49999876325022
 73
     0
 74
     0
 75
     0
  3
STANDARD
100
AcDbAlignedDimension
 13
258.6346380745291
 23
405.2739106168806
 33
0.0
 14
354.1346368377795
 24
340.1132771876447
 34
0.0
 50
180.0
100
AcDbRotatedDimension
1001
ACAD
1000
DSTYLE
1002
{
1070
    79
1070
     3
1002
}
  0
DIMENSION
  5
59BA
330
1E
100
AcDbEntity
  8
30
  6
Continuous
100
AcDbDimension
280
     0
  2
*D5
 10
282.134638074529
 20
296.3259209856421
 30
0.0
 11
263.634638074529
 21
296.3259209856421
 31
0.0
 70
   160
 71
     5
 42
6.5
 73
     0
 74
     0
 75
     0
  3
STANDARD
100
AcDbAlignedDimension
 13
275.634638074529
 23
380.2739106168809
 33
0.0
 14
282.134638074529
 24
380.2739106168809
 34
0.0
 50
180.0
100
AcDbRotatedDimension
1001
ACAD
1000
DSTYLE
1002
{
1070
    79
1070
     3
1002
}
  0
DIMENSION
  5
59BB
330
1E
100
AcDbEntity
  8
30
  6
Continuous
100
AcDbDimension
280
     0
  2
*D6
 10
354.1346368377795
 20
296.3259209856421
 30
0.0
 11
318.1346374561542
 21
301.3259209856422
 31
0.0
 70
    32
 71
     5
 42
71.99999876325046
 73
     0
 74
     0
 75
     0
  3
STANDARD
100
AcDbAlignedDimension
 13
282.134638074529
 23
380.2739106168809
 33
0.0
 14
354.1346368377795
 24
340.1132771876447
 34
0.0
 50
180.0
100
AcDbRotatedDimension
1001
ACAD
1000
DSTYLE
1002
{
1070
    79
1070
     3
1002
}
  0
DIMENSION
  5
59C6
330
1E
100
AcDbEntity
  8
30
  6
Continuous
100
AcDbDimension
280
     0
  2
*D7
 10
354.1346380745291
 20
500.9744936896792
 30
0.0
 11
342.1346380745291
 21
505.9744936896792
 31
0.0
 70
    32
 71
     5
 42
24.00000000000011
 73
     0
 74
     0
 75
     0
  3
STANDARD
100
AcDbAlignedDimension
 13
330.134638074529
 23
470.2239118336309
 33
0.0
 14
354.1346380745291
 24
470.223911833631
 34
0.0
100
AcDbRotatedDimension
1001
ACAD
1000
DSTYLE
1002
{
1070
    79
1070
     3
1002
}
  0
LINE
  5
59CA
330
1E
100
AcDbEntity
  8
10
  6
CONTINOUS
100
AcDbLine
 10
275.634638074529
 20
417.8460281131957
 30
0.0
 11
275.634638074529
 21
382.8437308518809
 31
0.0
  0
DIMENSION
  5
59D0
330
1E
100
AcDbEntity
  8
30
  6
Continuous
100
AcDbDimension
280
     0
  2
*D8
 10
354.1346368377795
 20
307.1803863739723
 30
0.0
 11
320.1346374561542
 21
312.1803863739724
 31
0.0
 70
    32
 71
     5
 42
67.99999876325045
 73
     0
 74
     0
 75
     0
  3
STANDARD
100
AcDbAlignedDimension
 13
286.134638074529
 23
354.2739106168808
 33
0.0
 14
354.1346368377795
 24
340.1132771876447
 34
0.0
 50
180.0
100
AcDbRotatedDimension
1001
ACAD
1000
DSTYLE
1002
{
1070
    79
1070
     3
1002
}
  0
DIMENSION
  5
59D1
330
1E
100
AcDbEntity
  8
30
  6
Continuous
100
AcDbDimension
280
     0
  2
*D9
 10
354.1346368377795
 20
317.4805760992174
 30
0.0
 11
324.1346368377794
 21
322.4805760992174
 31
0.0
 70
    32
 71
     5
 42
60.0000000000001
 73
     0
 74
     0
 75
     0
  3
STANDARD
100
AcDbAlignedDimension
 13
294.1346368377793
 23
340.1132771876447
 33
0.0
 14
354.1346368377795
 24
340.1132771876447
 34
0.0
 50
180.0
100
AcDbRotatedDimension
1001
ACAD
1000
DSTYLE
1002
{
1070
    79
1070
     3
1002
}
  0
DIMENSION
  5
59D2
330
1E
100
AcDbEntity
  8
30
  6
Continuous
100
AcDbDimension
280
     0
  2
*D10
 10
354.1346368377795
 20
326.9493554029976
 30
0.0
 11
327.6346373602793
 21
331.9493554029977
 31
0.0
 70
    32
 71
     5
 42
52.99999895500032
 73
     0
 74
     0
 75
     0
  3
STANDARD
100
AcDbAlignedDimension
 13
301.1346378827791
 23
347.7239106168809
 33
0.0
 14
354.1346368377795
 24
340.1132771876447
 34
0.0
 50
180.0
100
AcDbRotatedDimension
1001
ACAD
1000
DSTYLE
1002
{
1070
    79
1070
     3
1002
}
  0
LINE
  5
59D6
330
1E
100
AcDbEntity
  8
10
  6
CONTINOUS
100
AcDbLine
 10
294.1346380745292
 20
354.2739106168809
 30
0.0
 11
294.1346368518556
 21
340.2744457175059
 31
0.0
  0
LINE
  5
59E1
330
1E
100
AcDbEntity
  8
10
  6
CONTINOUS
100
AcDbLine
 10
294.1346368377796
 20
470.2239118336309
 30
0.0
 11
354.1346368377795
 21
470.223911833631
 31
0.0
  0
LINE
  5
59E4
330
1E
100
AcDbEntity
  8
24
  6
HIDDENX2
100
AcDbLine
 10
332.134638074529
 20
470.2239118336309
 30
0.0
 11
332.134638074529
 21
449.2239118336308
 31
0.0
  0
LINE
  5
59E5
330
1E
100
AcDbEntity
  8
24
  6
HIDDENX2
100
AcDbLine
 10
322.934638074529
 20
464.7239118336308
 30
0.0
 11
322.934638074529
 21
454.7239118336309
 31
0.0
  0
LINE
  5
59E6
330
1E
100
AcDbEntity
  8
24
  6
HIDDENX2
100
AcDbLine
 10
328.134638074529
 20
467.4239118336308
 30
0.0
 11
328.134638074529
 21
452.0239118336308
 31
0.0
  0
LINE
  5
59E7
330
1E
100
AcDbEntity
  8
24
  6
HIDDENX2
100
AcDbLine
 10
330.134638074529
 20
470.2239118336309
 30
0.0
 11
330.134638074529
 21
449.2239118336308
 31
0.0
  0
LINE
  5
59E8
330
1E
100
AcDbEntity
  8
24
  6
HIDDENX2
100
AcDbLine
 10
324.934638074529
 20
452.7239118336309
 30
0.0
 11
328.134638074529
 21
452.7239118336309
 31
0.0
  0
LINE
  5
59E9
330
1E
100
AcDbEntity
  8
17
  6
DASHDOT
100
AcDbLine
 10
317.934638074529
 20
459.7239118336308
 30
0.0
 11
335.134638074529
 21
459.7239118336308
 31
0.0
  0
ARC
  5
59EA
330
1E
100
AcDbEntity
  8
24
  6
HIDDENX2
100
AcDbCircle
 10
324.934638074529
 20
454.7239118336309
 30
0.0
 40
2.0
100
AcDbArc
 50
180.0
 51
270.0
  0
LINE
  5
59EB
330
1E
100
AcDbEntity
  8
24
  6
HIDDENX2
100
AcDbLine
 10
330.134638074529
 20
449.2239118336308
 30
0.0
 11
332.134638074529
 21
449.2239118336308
 31
0.0
  0
LINE
  5
59EC
330
1E
100
AcDbEntity
  8
24
  6
HIDDENX2
100
AcDbLine
 10
328.134638074529
 20
452.0239118336308
 30
0.0
 11
330.134638074529
 21
452.0239118336308
 31
0.0
  0
LINE
  5
59ED
330
1E
100
AcDbEntity
  8
24
  6
HIDDENX2
100
AcDbLine
 10
324.934638074529
 20
466.7239118336309
 30
0.0
 11
328.134638074529
 21
466.7239118336309
 31
0.0
  0
ARC
  5
59EE
330
1E
100
AcDbEntity
  8
24
  6
HIDDENX2
100
AcDbCircle
 10
324.934638074529
 20
464.7239118336308
 30
0.0
 40
2.0
100
AcDbArc
 50
90.0
 51
180.0
  0
LINE
  5
59EF
330
1E
100
AcDbEntity
  8
24
  6
HIDDENX2
100
AcDbLine
 10
328.134638074529
 20
467.4239118336308
 30
0.0
 11
330.134638074529
 21
467.4239118336308
 31
0.0
  0
TEXT
  5
5C38
330
1E
100
AcDbEntity
  8
30
  6
Continuous
100
AcDbText
 10
301.4663755198645
 20
487.9364397296351
 30
0.0
 40
5.0
  1
M8
  7
STANDARD1
100
AcDbText
  0
LINE
  5
5C86
330
1E
100
AcDbEntity
  8
10
  6
CONTINOUS
100
AcDbLine
 10
76.13463807452902
 20
602.4088240294937
 30
0.0
 11
76.13463807452889
 21
663.4088240294935
 31
0.0
  0
LINE
  5
5C8A
330
1E
100
AcDbEntity
  8
10
  6
CONTINOUS
100
AcDbLine
 10
166.134638074529
 20
602.4088240294937
 30
0.0
 11
166.134638074529
 21
663.4088240294935
 31
0.0
  0
LINE
  5
5C8E
330
1E
100
AcDbEntity
  8
10
  6
CONTINOUS
100
AcDbLine
 10
110.1167345393577
 20
584.9088240294936
 30
0.0
 11
132.134638074529
 21
584.9088240294936
 31
0.0
  0
LINE
  5
5C98
330
1E
100
AcDbEntity
  8
10
  6
CONTINOUS
100
AcDbLine
 10
76.13463807452889
 20
663.4088240294935
 30
0.0
 11
166.134638074529
 21
663.4088240294935
 31
0.0
  0
LINE
  5
5CA2
330
1E
100
AcDbEntity
  8
17
  6
DASHDOT
100
AcDbLine
 10
121.134638074529
 20
627.2088240294934
 30
0.0
 11
121.134638074529
 21
644.4088240294937
 31
0.0
  0
LINE
  5
5CA3
330
1E
100
AcDbEntity
  8
24
  6
CONTINOUS
100
AcDbLine
 10
110.634638074529
 20
639.4088240294937
 30
0.0
 11
131.6346380745291
 21
639.4088240294937
 31
0.0
  0
LINE
  5
5CA4
330
1E
100
AcDbEntity
  8
24
  6
CONTINOUS
100
AcDbLine
 10
113.434638074529
 20
637.4088240294936
 30
0.0
 11
128.834638074529
 21
637.4088240294936
 31
0.0
  0
LINE
  5
5CA5
330
1E
100
AcDbEntity
  8
24
  6
CONTINOUS
100
AcDbLine
 10
116.134638074529
 20
632.2088240294934
 30
0.0
 11
126.134638074529
 21
632.2088240294934
 31
0.0
  0
LINE
  5
5CA6
330
1E
100
AcDbEntity
  8
24
  6
CONTINOUS
100
AcDbLine
 10
110.634638074529
 20
641.4088240294937
 30
0.0
 11
131.6346380745291
 21
641.4088240294937
 31
0.0
  0
LINE
  5
5CA7
330
1E
100
AcDbEntity
  8
24
  6
CONTINOUS
100
AcDbLine
 10
128.834638074529
 20
637.4088240294936
 30
0.0
 11
128.834638074529
 21
639.4088240294937
 31
0.0
  0
ARC
  5
5CA8
330
1E
100
AcDbEntity
  8
24
  6
CONTINOUS
100
AcDbCircle
 10
126.134638074529
 20
634.2088240294936
 30
0.0
 40
2.0
100
AcDbArc
 50
270.0
 51
0.0
  0
LINE
  5
5CA9
330
1E
100
AcDbEntity
  8
24
  6
CONTINOUS
100
AcDbLine
 10
128.134638074529
 20
634.2088240294936
 30
0.0
 11
128.134638074529
 21
637.4088240294936
 31
0.0
  0
LINE
  5
5CAA
330
1E
100
AcDbEntity
  8
24
  6
CONTINOUS
100
AcDbLine
 10
131.6346380745291
 20
639.4088240294937
 30
0.0
 11
131.6346380745291
 21
641.4088240294937
 31
0.0
  0
LINE
  5
5CAB
330
1E
100
AcDbEntity
  8
24
  6
CONTINOUS
100
AcDbLine
 10
113.434638074529
 20
637.4088240294936
 30
0.0
 11
113.434638074529
 21
639.4088240294937
 31
0.0
  0
ARC
  5
5CAC
330
1E
100
AcDbEntity
  8
24
  6
CONTINOUS
100
AcDbCircle
 10
116.134638074529
 20
634.2088240294936
 30
0.0
 40
2.0
100
AcDbArc
 50
180.0
 51
270.0
  0
LINE
  5
5CAD
330
1E
100
AcDbEntity
  8
24
  6
CONTINOUS
100
AcDbLine
 10
114.134638074529
 20
634.2088240294936
 30
0.0
 11
114.134638074529
 21
637.4088240294936
 31
0.0
  0
LINE
  5
5D3B
330
1E
100
AcDbEntity
  8
24
  6
CONTINOUS
100
AcDbLine
 10
140.634638074529
 20
641.4088240294937
 30
0.0
 11
161.6346380745291
 21
641.4088240294937
 31
0.0
  0
LINE
  5
5D3C
330
1E
100
AcDbEntity
  8
24
  6
CONTINOUS
100
AcDbLine
 10
146.134638074529
 20
632.2088240294934
 30
0.0
 11
156.134638074529
 21
632.2088240294934
 31
0.0
  0
LINE
  5
5D3D
330
1E
100
AcDbEntity
  8
24
  6
CONTINOUS
100
AcDbLine
 10
143.434638074529
 20
637.4088240294936
 30
0.0
 11
158.834638074529
 21
637.4088240294936
 31
0.0
  0
LINE
  5
5D3E
330
1E
100
AcDbEntity
  8
24
  6
CONTINOUS
100
AcDbLine
 10
140.634638074529
 20
639.4088240294937
 30
0.0
 11
161.6346380745291
 21
639.4088240294937
 31
0.0
  0
LINE
  5
5D3F
330
1E
100
AcDbEntity
  8
24
  6
CONTINOUS
100
AcDbLine
 10
143.434638074529
 20
637.4088240294936
 30
0.0
 11
143.434638074529
 21
639.4088240294937
 31
0.0
  0
LINE
  5
5D40
330
1E
100
AcDbEntity
  8
17
  6
DASHDOT
100
AcDbLine
 10
151.134638074529
 20
627.2088240294934
 30
0.0
 11
151.134638074529
 21
644.4088240294937
 31
0.0
  0
ARC
  5
5D41
330
1E
100
AcDbEntity
  8
24
  6
CONTINOUS
100
AcDbCircle
 10
146.134638074529
 20
634.2088240294936
 30
0.0
 40
2.0
100
AcDbArc
 50
180.0
 51
270.0
  0
LINE
  5
5D42
330
1E
100
AcDbEntity
  8
24
  6
CONTINOUS
100
AcDbLine
 10
144.134638074529
 20
634.2088240294936
 30
0.0
 11
144.134638074529
 21
637.4088240294936
 31
0.0
  0
LINE
  5
5D43
330
1E
100
AcDbEntity
  8
24
  6
CONTINOUS
100
AcDbLine
 10
158.834638074529
 20
637.4088240294936
 30
0.0
 11
158.834638074529
 21
639.4088240294937
 31
0.0
  0
LINE
  5
5D44
330
1E
100
AcDbEntity
  8
24
  6
CONTINOUS
100
AcDbLine
 10
158.134638074529
 20
634.2088240294936
 30
0.0
 11
158.134638074529
 21
637.4088240294936
 31
0.0
  0
ARC
  5
5D45
330
1E
100
AcDbEntity
  8
24
  6
CONTINOUS
100
AcDbCircle
 10
156.134638074529
 20
634.2088240294936
 30
0.0
 40
2.0
100
AcDbArc
 50
270.0
 51
0.0
  0
LINE
  5
5D46
330
1E
100
AcDbEntity
  8
24
  6
CONTINOUS
100
AcDbLine
 10
161.6346380745291
 20
639.4088240294937
 30
0.0
 11
161.6346380745291
 21
641.4088240294937
 31
0.0
  0
DIMENSION
  5
5E68
330
1E
100
AcDbEntity
  8
30
  6
Continuous
100
AcDbDimension
280
     0
  2
*D11
 10
151.134638074529
 20
678.2975459602214
 30
0.0
 11
136.134638074529
 21
683.2975459602214
 31
0.0
 70
    32
 71
     5
 42
29.99999999999997
 73
     0
 74
     0
 75
     0
  3
STANDARD
100
AcDbAlignedDimension
 13
121.134638074529
 23
644.4088240294937
 33
0.0
 14
151.134638074529
 24
644.4088240294937
 34
0.0
100
AcDbRotatedDimension
1001
ACAD
1000
DSTYLE
1002
{
1070
    79
1070
     3
1002
}
  0
DIMENSION
  5
606B
330
1E
100
AcDbEntity
  8
30
  6
Continuous
100
AcDbDimension
280
     0
  2
*D12
 10
361.1346368377795
 20
326.9493554029976
 30
0.0
 11
369.1346368377795
 21
331.9493554029977
 31
0.0
 70
    32
 71
     5
 42
7.0
 73
     0
 74
     0
 75
     0
  3
STANDARD
100
AcDbAlignedDimension
 13
354.1346368377795
 23
340.1132771876447
 33
0.0
 14
361.1346368377795
 24
349.3632771876447
 34
0.0
100
AcDbRotatedDimension
1001
ACAD
1000
DSTYLE
1002
{
1070
    79
1070
     3
1002
}
  0
DIMENSION
  5
616E
330
1E
100
AcDbEntity
  8
30
  6
Continuous
100
AcDbDimension
280
     0
  2
*D15
 10
362.2182192602459
 20
128.4265165958461
 30
0.0
 11
357.2182192602458
 21
154.4265165958461
 31
0.0
 70
    32
 71
     5
 42
52.0
 73
     0
 74
     0
 75
     0
  3
STANDARD
100
AcDbAlignedDimension
 13
320.3375728693629
 23
180.4265165958461
 33
0.0
 14
320.3375728693629
 24
128.4265165958461
 34
0.0
 50
90.0
100
AcDbRotatedDimension
1001
ACAD
1000
DSTYLE
1002
{
1070
    79
1070
     3
1002
}
  0
LINE
  5
6173
330
1E
100
AcDbEntity
  8
16
100
AcDbLine
 10
291.3375728693633
 20
82.28993253262521
 30
0.0
 11
291.3375728693633
 21
233.7561355219643
 31
0.0
  0
DIMENSION
  5
6175
330
1E
100
AcDbEntity
  8
30
  6
Continuous
100
AcDbDimension
280
     0
  2
*D13
 10
334.3375743296134
 20
64.96481400005501
 30
0.0
 11
291.3375728692383
 21
69.96481400005501
 31
0.0
 70
    32
 71
     5
 42
86.00000292075012
 73
     0
 74
     0
 75
     0
  3
STANDARD
100
AcDbAlignedDimension
 13
248.3375714088633
 23
129.4265162233461
 33
0.0
 14
334.3375743296134
 24
129.4265162233461
 34
0.0
 50
180.0
100
AcDbRotatedDimension
1001
ACAD
1000
DSTYLE
1002
{
1070
    79
1070
     3
1002
}
  0
LINE
  5
6177
330
1E
100
AcDbEntity
  8
16
100
AcDbLine
 10
343.0
 20
154.4265165958459
 30
0.0
 11
235.0
 21
154.4265165958459
 31
0.0
  0
DIMENSION
  5
6186
330
1E
100
AcDbEntity
  8
30
  6
Continuous
100
AcDbDimension
280
     0
  2
*D14
 10
333.247572869363
 20
179.4265165958459
 30
0.0
 11
348.2139394467329
 21
186.4708451217971
 31
0.0
 70
   164
 71
     5
 42
0.9999999999999431
 73
     0
 74
     0
 75
     0
  3
STANDARD
100
AcDbRadialDimension
 15
334.0339199138508
 25
180.0443016115471
 35
0.0
 40
0.0
1001
ACAD
1000
DSTYLE
1002
{
1070
   288
1070
     1
1002
}
  0
LEADER
  5
61FF
330
1E
100
AcDbEntity
  8
30
  6
Continuous
100
AcDbLeader
  3
STANDARD
 76
     3
 10
322.934638074529
 20
464.7239118336308
 30
0.0
 10
315.0390582139096
 20
485.9616515998342
 30
0.0
 10
297.7636446972965
 20
485.9616515998342
 30
0.0
213
0.0
223
2.0
233
0.0
1001
ACAD
1000
DSTYLE
1002
{
1070
     5
1000
OPEN
1070
    77
1070
     0
1070
    79
1070
     3
1070
   147
1040
1.0
1002
}
  0
MTEXT
  5
6269
330
1E
100
AcDbEntity
  8
19
  6
Continuous
100
AcDbMText
 10
326.3487103694692
 20
648.3720979101017
 30
0.0
 40
8.0
 41
171.7859277050598
 46
0.0
 71
     1
 72
     5
  1
PS125-NF 3P FC\PPS50-PF 3P FC\PPS125-PF 3P FC\PPS125-NE 3P FC\PPS125-PE 3P FC
  7
STANDARD1
 73
     1
 44
1.0
  0
LINE
  5
6317
330
1E
100
AcDbEntity
  8
10
  6
CONTINOUS
100
AcDbLine
 10
76.13463807452902
 20
602.4088240294937
 30
0.0
 11
166.134638074529
 21
602.4088240294937
 31
0.0
  0
LINE
  5
6338
330
1E
100
AcDbEntity
  8
10
  6
CONTINOUS
100
AcDbLine
 10
76.13463807452902
 20
602.4088240294937
 30
0.0
 11
76.13463807452902
 21
595.4088240294937
 31
0.0
  0
LINE
  5
6339
330
1E
100
AcDbEntity
  8
10
  6
CONTINOUS
100
AcDbLine
 10
166.134638074529
 20
602.4088240294937
 30
0.0
 11
166.134638074529
 21
595.4088240294937
 31
0.0
  0
LINE
  5
633A
330
1E
100
AcDbEntity
  8
10
  6
CONTINOUS
100
AcDbLine
 10
76.13463807452902
 20
595.4088240294937
 30
0.0
 11
166.134638074529
 21
595.4088240294937
 31
0.0
  0
LINE
  5
633B
330
1E
100
AcDbEntity
  8
10
  6
CONTINOUS
100
AcDbLine
 10
78.63463807452889
 20
595.4088240294934
 30
0.0
 11
78.63463807452889
 21
591.4088240294934
 31
0.0
  0
LINE
  5
633C
330
1E
100
AcDbEntity
  8
10
  6
CONTINOUS
100
AcDbLine
 10
163.634638074529
 20
595.4088240294934
 30
0.0
 11
163.634638074529
 21
591.4088240294934
 31
0.0
  0
LINE
  5
633D
330
1E
100
AcDbEntity
  8
10
  6
CONTINOUS
100
AcDbLine
 10
78.63463807452889
 20
591.4088240294934
 30
0.0
 11
163.6346380745289
 21
591.4088240294934
 31
0.0
  0
LINE
  5
6366
330
1E
100
AcDbEntity
  8
10
  6
CONTINOUS
100
AcDbLine
 10
110.1167345393577
 20
584.9088240294936
 30
0.0
 11
110.1167345393577
 21
591.4088240294936
 31
0.0
  0
LINE
  5
6367
330
1E
100
AcDbEntity
  8
10
  6
CONTINOUS
100
AcDbLine
 10
132.134638074529
 20
584.9088240294936
 30
0.0
 11
132.134638074529
 21
591.4088240294936
 31
0.0
  0
LINE
  5
6544
330
1E
100
AcDbEntity
  8
10
  6
CONTINOUS
100
AcDbLine
 10
128.134638074529
 20
584.9088240294936
 30
0.0
 11
128.134638074529
 21
567.9088240294935
 31
0.0
  0
LINE
  5
6545
330
1E
100
AcDbEntity
  8
10
  6
CONTINOUS
100
AcDbLine
 10
128.134638074529
 20
567.9088240294935
 30
0.0
 11
114.134638074529
 21
567.9088240294935
 31
0.0
  0
LINE
  5
6546
330
1E
100
AcDbEntity
  8
10
  6
CONTINOUS
100
AcDbLine
 10
114.134638074529
 20
567.9088240294935
 30
0.0
 11
114.134638074529
 21
584.9088240294936
 31
0.0
  0
LINE
  5
663A
330
1E
100
AcDbEntity
  8
16
  6
DASHDOT
100
AcDbLine
 10
121.1346380745289
 20
564.9088240294936
 30
0.0
 11
121.1346380745289
 21
669.3393746714607
 31
0.0
  0
LINE
  5
F77D
330
1E
100
AcDbEntity
  8
10
  6
CONTINOUS
100
AcDbLine
 10
294.1346368518556
 20
340.2744457175059
 30
0.0
 11
354.1346368377795
 21
340.2744457175059
 31
0.0
  0
LINE
  5
FBCB
330
1E
100
AcDbEntity
  8
0
  6
SLD-実線
 62
     7
370
    30
100
AcDbLine
 10
286.1346387302792
 20
450.5686729966306
 30
0.0
 11
286.1332622355289
 21
450.5686506448808
 31
0.0
  0
LINE
  5
FBCC
330
1E
100
AcDbEntity
  8
0
  6
SLD-実線
 62
     7
370
    30
100
AcDbLine
 10
286.1346387302792
 20
436.168673243881
 30
0.0
 11
286.1332622355289
 21
436.1686508921308
 31
0.0
  0
LINE
  5
FC0D
330
1E
100
AcDbEntity
  8
10
  6
Continuous
100
AcDbLine
 10
282.134638074529
 20
430.1540896116308
 30
0.0
 11
282.134638074529
 21
380.2739106168809
 31
0.0
  0
LINE
  5
FDA9
330
1E
100
AcDbEntity
  8
12
  6
DASHED
100
AcDbLine
 10
301.1346378827791
 20
353.723910616881
 30
0.0
 11
295.914637882779
 21
353.723910616881
 31
0.0
  0
LINE
  5
FDAA
330
1E
100
AcDbEntity
  8
12
  6
DASHED
100
AcDbLine
 10
301.1346378827791
 20
345.723910616881
 30
0.0
 11
295.8341487640291
 21
345.723910616881
 31
0.0
  0
LINE
  5
FDAC
330
1E
100
AcDbEntity
  8
12
  6
DASHED
100
AcDbLine
 10
295.914637882779
 20
353.723910616881
 30
0.0
 11
295.914637882779
 21
345.723910616881
 31
0.0
  0
LINE
  5
FDAD
330
1E
100
AcDbEntity
  8
12
  6
DASHED
100
AcDbLine
 10
301.1346378827791
 20
353.723910616881
 30
0.0
 11
301.1346378827791
 21
345.723910616881
 31
0.0
  0
ARC
  5
FDAE
330
1E
100
AcDbEntity
  8
30
100
AcDbCircle
 10
463.4449479555292
 20
381.442429606381
 30
0.0
 40
206.1968630727214
100
AcDbArc
 50
170.3476901732009
 51
173.3517321866994
  0
LINE
  5
FEC2
330
1E
100
AcDbEntity
  8
12
  6
DASHED
100
AcDbLine
 10
301.1346378827791
 20
347.7239106168809
 30
0.0
 11
361.1346378827793
 21
347.7239106168809
 31
0.0
  0
LINE
  5
FEC3
330
1E
100
AcDbEntity
  8
12
  6
DASHED
100
AcDbLine
 10
301.1346378827791
 20
351.7239106168809
 30
0.0
 11
361.1346378827793
 21
351.7239106168809
 31
0.0
  0
LINE
  5
FEC4
330
1E
100
AcDbEntity
  8
10
  6
CONTINOUS
100
AcDbLine
 10
354.1346368377795
 20
340.2744457175059
 30
0.0
 11
354.1346368377795
 21
470.2239118336309
 31
0.0
  0
LINE
  5
FF14
330
1E
100
AcDbEntity
  8
12
  6
DASHED
100
AcDbLine
 10
361.1346378827793
 20
347.7239106168809
 30
0.0
 11
361.1346378827793
 21
351.7239106168809
 31
0.0
  0
LINE
  5
FF42
330
1E
100
AcDbEntity
  8
10
  6
Continuous
100
AcDbLine
 10
294.1346380745292
 20
354.2739106168809
 30
0.0
 11
286.134638074529
 21
354.2739106168808
 31
0.0
  0
LINE
  5
FF43
330
1E
100
AcDbEntity
  8
10
  6
Continuous
100
AcDbLine
 10
286.134638074529
 20
354.2739106168808
 30
0.0
 11
286.134638074529
 21
456.255846286131
 31
0.0
  0
LWPOLYLINE
  5
FF58
330
1E
100
AcDbEntity
  8
10
  6
Continuous
100
AcDbPolyline
 90
       11
 70
     0
 43
0.0
 10
275.634638074529
 20
411.6297800365903
 10
260.5008492761086
 20
414.9084416351459
 10
260.3575614280294
 20
416.4129875418807
 10
260.9332342630291
 20
419.7189274993808
 10
261.8388401570172
 20
420.9925308377117
 10
263.3549709802792
 20
421.1137222876308
 10
275.634638074529
 20
417.8460281131957
 10
276.3922220505917
 20
427.4092810153809
 10
282.134638074529
 20
427.4092810153809
 10
282.134638074529
 20
430.2739106168806
 10
286.134638074529
 20
430.2739106168806
  0
LINE
  5
100EC
330
1E
100
AcDbEntity
  8
24
  6
CONTINOUS
100
AcDbLine
 10
140.634638074529
 20
639.4088240294937
 30
0.0
 11
140.634638074529
 21
641.4088240294937
 31
0.0
  0
LINE
  5
100ED
330
1E
100
AcDbEntity
  8
24
  6
CONTINOUS
100
AcDbLine
 10
110.634638074529
 20
639.4088240294937
 30
0.0
 11
110.634638074529
 21
641.4088240294937
 31
0.0
  0
LINE
  5
100EE
330
1E
100
AcDbEntity
  8
17
  6
DASHDOT
100
AcDbLine
 10
91.13463807452902
 20
627.2088240294934
 30
0.0
 11
91.13463807452902
 21
644.4088240294937
 31
0.0
  0
LINE
  5
100EF
330
1E
100
AcDbEntity
  8
24
  6
CONTINOUS
100
AcDbLine
 10
80.63463807452903
 20
639.4088240294937
 30
0.0
 11
101.6346380745291
 21
639.4088240294937
 31
0.0
  0
LINE
  5
100F0
330
1E
100
AcDbEntity
  8
24
  6
CONTINOUS
100
AcDbLine
 10
83.43463807452906
 20
637.4088240294936
 30
0.0
 11
98.83463807452905
 21
637.4088240294936
 31
0.0
  0
LINE
  5
100F1
330
1E
100
AcDbEntity
  8
24
  6
CONTINOUS
100
AcDbLine
 10
86.134638074529
 20
632.2088240294934
 30
0.0
 11
96.134638074529
 21
632.2088240294934
 31
0.0
  0
LINE
  5
100F2
330
1E
100
AcDbEntity
  8
24
  6
CONTINOUS
100
AcDbLine
 10
80.63463807452903
 20
641.4088240294937
 30
0.0
 11
101.6346380745291
 21
641.4088240294937
 31
0.0
  0
LINE
  5
100F3
330
1E
100
AcDbEntity
  8
24
  6
CONTINOUS
100
AcDbLine
 10
98.83463807452905
 20
637.4088240294936
 30
0.0
 11
98.83463807452905
 21
639.4088240294937
 31
0.0
  0
ARC
  5
100F4
330
1E
100
AcDbEntity
  8
24
  6
CONTINOUS
100
AcDbCircle
 10
96.13463807452903
 20
634.2088240294936
 30
0.0
 40
2.0
100
AcDbArc
 50
270.0
 51
0.0
  0
LINE
  5
100F5
330
1E
100
AcDbEntity
  8
24
  6
CONTINOUS
100
AcDbLine
 10
98.13463807452905
 20
634.2088240294936
 30
0.0
 11
98.13463807452905
 21
637.4088240294936
 31
0.0
  0
LINE
  5
100F6
330
1E
100
AcDbEntity
  8
24
  6
CONTINOUS
100
AcDbLine
 10
101.6346380745291
 20
639.4088240294937
 30
0.0
 11
101.6346380745291
 21
641.4088240294937
 31
0.0
  0
LINE
  5
100F7
330
1E
100
AcDbEntity
  8
24
  6
CONTINOUS
100
AcDbLine
 10
83.43463807452906
 20
637.4088240294936
 30
0.0
 11
83.43463807452906
 21
639.4088240294937
 31
0.0
  0
ARC
  5
100F8
330
1E
100
AcDbEntity
  8
24
  6
CONTINOUS
100
AcDbCircle
 10
86.13463807452903
 20
634.2088240294936
 30
0.0
 40
2.0
100
AcDbArc
 50
180.0
 51
270.0
  0
LINE
  5
100F9
330
1E
100
AcDbEntity
  8
24
  6
CONTINOUS
100
AcDbLine
 10
84.13463807452902
 20
634.2088240294936
 30
0.0
 11
84.13463807452902
 21
637.4088240294936
 31
0.0
  0
LINE
  5
100FA
330
1E
100
AcDbEntity
  8
24
  6
CONTINOUS
100
AcDbLine
 10
80.63463807452903
 20
639.4088240294937
 30
0.0
 11
80.63463807452903
 21
641.4088240294937
 31
0.0
  0
DIMENSION
  5
100FB
330
1E
100
AcDbEntity
  8
30
  6
Continuous
100
AcDbDimension
280
     0
  2
*D19
 10
121.134638074529
 20
678.2975459602214
 30
0.0
 11
106.134638074529
 21
683.2975459602214
 31
0.0
 70
    32
 71
     5
 42
29.99999999999997
 73
     0
 74
     0
 75
     0
  3
STANDARD
100
AcDbAlignedDimension
 13
91.13463807452902
 23
644.4088240294937
 33
0.0
 14
121.134638074529
 24
644.4088240294937
 34
0.0
100
AcDbRotatedDimension
1001
ACAD
1000
DSTYLE
1002
{
1070
    79
1070
     3
1002
}
  0
LINE
  5
10111
330
1E
100
AcDbEntity
  8
12
  6
DASHED
100
AcDbLine
 10
136.134638074529
 20
344.5598074874104
 30
0.0
 11
136.134638074529
 21
353.8901565493513
 31
0.0
  0
CIRCLE
  5
10112
330
1E
100
AcDbEntity
  8
24
  6
CONTINOUS
100
AcDbCircle
 10
151.1346380745289
 20
462.2739106168808
 30
0.0
 40
3.5
  0
CIRCLE
  5
10113
330
1E
100
AcDbEntity
  8
24
  6
CONTINOUS
100
AcDbCircle
 10
121.134638074529
 20
462.2739106168807
 30
0.0
 40
3.5
  0
ARC
  5
10114
330
1E
100
AcDbEntity
  8
10
  6
CONTINOUS
100
AcDbCircle
 10
94.884638074529
 20
349.2249820183809
 30
0.0
 40
5.0
100
AcDbArc
 50
0.0
 51
90.0
  0
CIRCLE
  5
10115
330
1E
100
AcDbEntity
  8
24
  6
CONTINOUS
100
AcDbCircle
 10
91.134638074529
 20
348.2249820183808
 30
0.0
 40
3.5
  0
LINE
  5
10116
330
1E
100
AcDbEntity
  8
17
  6
DASHDOT
100
AcDbLine
 10
91.134638074529
 20
343.2900848506658
 30
0.0
 11
91.134638074529
 21
352.877238218595
 31
0.0
  0
LINE
  5
10117
330
1E
100
AcDbEntity
  8
10
  6
CONTINOUS
100
AcDbLine
 10
82.384638074529
 20
349.2249820183809
 30
0.0
 11
82.384638074529
 21
340.2249820348809
 31
0.0
  0
LINE
  5
10118
330
1E
100
AcDbEntity
  8
10
  6
CONTINOUS
100
AcDbLine
 10
87.384638074529
 20
354.2249820183808
 30
0.0
 11
94.884638074529
 21
354.2249820183808
 31
0.0
  0
LINE
  5
10119
330
1E
100
AcDbEntity
  8
17
  6
DASHDOT
100
AcDbLine
 10
98.13463807452899
 20
348.224982018381
 30
0.0
 11
84.13463807452897
 21
348.224982018381
 31
0.0
  0
ARC
  5
1011A
330
1E
100
AcDbEntity
  8
10
  6
CONTINOUS
100
AcDbCircle
 10
87.384638074529
 20
349.2249820183809
 30
0.0
 40
5.0
100
AcDbArc
 50
90.0
 51
180.0
  0
LINE
  5
1011B
330
1E
100
AcDbEntity
  8
10
  6
CONTINOUS
100
AcDbLine
 10
99.884638074529
 20
349.2249820183809
 30
0.0
 11
99.884638074529
 21
340.2249820348809
 31
0.0
  0
LINE
  5
1011C
330
1E
100
AcDbEntity
  8
17
  6
DASHDOT
100
AcDbLine
 10
91.134638074529
 20
469.2739106168808
 30
0.0
 11
91.134638074529
 21
455.2739106168806
 31
0.0
  0
LINE
  5
1011D
330
1E
100
AcDbEntity
  8
10
  6
CONTINOUS
100
AcDbLine
 10
82.384638074529
 20
461.2739106168808
 30
0.0
 11
82.384638074529
 21
470.2239118336309
 31
0.0
  0
LINE
  5
1011E
330
1E
100
AcDbEntity
  8
10
  6
CONTINOUS
100
AcDbLine
 10
99.88463807452898
 20
461.2739106168808
 30
0.0
 11
99.88463807452898
 21
470.2239118336309
 31
0.0
  0
ARC
  5
1011F
330
1E
100
AcDbEntity
  8
10
  6
CONTINOUS
100
AcDbCircle
 10
-94.884638074529
 20
461.2739106168808
 30
0.0
 40
5.0
210
0.0
220
0.0
230
-1.0
100
AcDbArc
 50
180.0
 51
270.0
  0
LINE
  5
10120
330
1E
100
AcDbEntity
  8
10
  6
CONTINOUS
100
AcDbLine
 10
87.384638074529
 20
456.2739106168808
 30
0.0
 11
94.884638074529
 21
456.2739106168808
 31
0.0
  0
LINE
  5
10121
330
1E
100
AcDbEntity
  8
17
  6
DASHDOT
100
AcDbLine
 10
98.13463807452899
 20
462.2739106168808
 30
0.0
 11
84.13463807452897
 21
462.2739106168808
 31
0.0
  0
ARC
  5
10122
330
1E
100
AcDbEntity
  8
10
  6
CONTINOUS
100
AcDbCircle
 10
-87.384638074529
 20
461.2739106168808
 30
0.0
 40
5.0
210
0.0
220
0.0
230
-1.0
100
AcDbArc
 50
270.0
 51
0.0
  0
CIRCLE
  5
10123
330
1E
100
AcDbEntity
  8
24
  6
CONTINOUS
100
AcDbCircle
 10
91.134638074529
 20
462.2739106168807
 30
0.0
 40
3.5
  0
CIRCLE
  5
10145
330
1E
100
AcDbEntity
  8
12
  6
Continuous
 62
     3
100
AcDbCircle
 10
136.134638074529
 20
98.92651659584595
 30
0.0
 40
2.00000000000017
  0
LINE
  5
10146
330
1E
100
AcDbEntity
  8
18
  6
DIVIDE
100
AcDbLine
 10
166.1346383145287
 20
219.426515084096
 30
0.0
 11
76.13463846352897
 21
219.426515084096
 31
0.0
  0
LINE
  5
10147
330
1E
100
AcDbEntity
  8
18
  6
DIVIDE
100
AcDbLine
 10
166.1346383145287
 20
89.42651612709591
 30
0.0
 11
166.1346383145287
 21
219.426515084096
 31
0.0
  0
LINE
  5
10148
330
1E
100
AcDbEntity
  8
18
  6
DIVIDE
100
AcDbLine
 10
76.13463846352897
 20
89.42651612709591
 30
0.0
 11
166.1346383145287
 21
89.42651612709591
 31
0.0
  0
LINE
  5
10149
330
1E
100
AcDbEntity
  8
18
  6
DIVIDE
100
AcDbLine
 10
76.13463846352897
 20
219.426515084096
 30
0.0
 11
76.13463846352897
 21
89.42651612709591
 31
0.0
  0
CIRCLE
  5
1014A
330
1E
100
AcDbEntity
  8
12
  6
Continuous
 62
     3
100
AcDbCircle
 10
106.134638074529
 20
209.9265165958459
 30
0.0
 40
2.000000000000023
  0
INSERT
  5
1014B
330
1E
100
AcDbEntity
  8
12
  6
Continuous
 62
     3
100
AcDbBlockReference
  2
SW_CENTERMARKSYMBOL_18
 10
106.134638074529
 20
209.9265165958459
 30
0.0
 41
2.5
 42
2.5
 43
2.5
  0
INSERT
  5
1014C
330
1E
100
AcDbEntity
  8
12
  6
Continuous
 62
     3
100
AcDbBlockReference
  2
SW_CENTERMARKSYMBOL_19
 10
136.134638074529
 20
98.92651659584595
 30
0.0
 41
2.5
 42
2.5
 43
2.5
  0
ARC
  5
10168
330
1E
100
AcDbEntity
  8
11
 48
2.0
100
AcDbCircle
 10
249.3375728693635
 20
129.4265165958459
 30
0.0
 40
1.000000000000011
100
AcDbArc
 50
180.0
 51
270.0
  0
LINE
  5
10169
330
1E
100
AcDbEntity
  8
11
 48
2.0
100
AcDbLine
 10
249.3375734356134
 20
128.426516059346
 30
0.0
 11
333.3375723031135
 21
128.426516059346
 31
0.0
  0
ARC
  5
1016A
330
1E
100
AcDbEntity
  8
11
 48
2.0
100
AcDbCircle
 10
333.337572869363
 20
129.4265165958459
 30
0.0
 40
1.000000000000011
100
AcDbArc
 50
270.0
 51
0.0
  0
LINE
  5
1016B
330
1E
100
AcDbEntity
  8
11
 48
2.0
100
AcDbLine
 10
334.3375743296134
 20
129.4265162233461
 30
0.0
 11
334.3375743296134
 21
179.4265169683459
 31
0.0
  0
ARC
  5
1016C
330
1E
100
AcDbEntity
  8
11
 48
2.0
100
AcDbCircle
 10
333.337572869363
 20
179.4265165958459
 30
0.0
 40
1.000000000000011
100
AcDbArc
 50
0.0
 51
90.0
  0
LINE
  5
1016D
330
1E
100
AcDbEntity
  8
11
 48
2.0
100
AcDbLine
 10
333.3375723031135
 20
180.4265171323459
 30
0.0
 11
249.3375734356134
 21
180.4265171323459
 31
0.0
  0
ARC
  5
1016E
330
1E
100
AcDbEntity
  8
11
 48
2.0
100
AcDbCircle
 10
249.3375728693635
 20
179.4265165958459
 30
0.0
 40
1.000000000000011
100
AcDbArc
 50
90.0
 51
180.0
  0
LINE
  5
1016F
330
1E
100
AcDbEntity
  8
11
 48
2.0
100
AcDbLine
 10
248.3375714088633
 20
179.4265169683459
 30
0.0
 11
248.3375714088633
 21
129.4265162233461
 31
0.0
  0
DIMENSION
  5
101D5
330
1E
100
AcDbEntity
  8
30
  6
Continuous
100
AcDbDimension
280
     0
  2
*D20
 10
196.8379238718807
 20
98.92651659584593
 30
0.0
 11
191.8379238718807
 21
154.4265165958459
 31
0.0
 70
    32
 71
     5
 42
110.9999999999999
 73
     0
 74
     0
 75
     0
  3
STANDARD
100
AcDbAlignedDimension
 13
110.634638074529
 23
209.9265165958459
 33
0.0
 14
140.634638074529
 24
98.92651659584595
 34
0.0
 50
90.0
100
AcDbRotatedDimension
1001
ACAD
1000
DSTYLE
1002
{
1070
    79
1070
     3
1002
}
  0
LINE
  5
10233
330
1E
100
AcDbEntity
  8
18
100
AcDbLine
 10
107.6346380745289
 20
520.2739106168803
 30
0.0
 11
107.634638074529
 21
470.2239118336309
 31
0.0
  0
LINE
  5
10234
330
1E
100
AcDbEntity
  8
18
100
AcDbLine
 10
104.6346380745289
 20
520.2739106168803
 30
0.0
 11
104.634638074529
 21
470.2239118336309
 31
0.0
  0
LINE
  5
10235
330
1E
100
AcDbEntity
  8
18
100
AcDbLine
 10
104.6346380745289
 20
520.2739106168803
 30
0.0
 11
107.6346380745289
 21
520.2739106168803
 31
0.0
  0
LINE
  5
1026D
330
1E
100
AcDbEntity
  8
10
  6
Continuous
100
AcDbLine
 10
294.1346368377796
 20
456.255846286131
 30
0.0
 11
286.134638074529
 21
456.255846286131
 31
0.0
  0
LINE
  5
1026E
330
1E
100
AcDbEntity
  8
10
  6
Continuous
100
AcDbLine
 10
294.1346368377796
 20
456.255846286131
 30
0.0
 11
294.1346368377796
 21
470.2239118336309
 31
0.0
  0
LINE
  5
102B4
330
1E
100
AcDbEntity
  8
10
  6
Continuous
100
AcDbLine
 10
282.134638074529
 20
380.2739106168809
 30
0.0
 11
286.134638074529
 21
380.2739106168809
 31
0.0
  0
LINE
  5
102BB
330
1E
100
AcDbEntity
  8
10
  6
Continuous
100
AcDbLine
 10
275.634638074529
 20
382.8437308518809
 30
0.0
 11
282.134638074529
 21
382.8437308518809
 31
0.0
  0
LINE
  5
102DF
330
1E
100
AcDbEntity
  8
16
100
AcDbLine
 10
175.5931801056613
 20
405.2739106168806
 30
0.0
 11
61.16596188446981
 21
405.2739106168806
 31
0.0
  0
LWPOLYLINE
  5
102E2
330
1E
100
AcDbEntity
  8
10
  6
Continuous
100
AcDbPolyline
 90
        4
 70
     1
 43
0.0
 10
110.134638074529
 20
427.7739106168808
 10
132.134638074529
 20
427.7739106168808
 10
132.134638074529
 20
382.7739106168809
 10
110.134638074529
 20
382.7739106168809
  0
LWPOLYLINE
  5
102E3
330
1E
100
AcDbEntity
  8
10
  6
Continuous
100
AcDbPolyline
 90
        4
 70
     1
 43
0.0
 10
113.696974657709
 20
419.1239108256308
 10
128.5725803600289
 20
419.1239108256308
 10
128.5725803600289
 20
392.1239115223809
 10
113.696974657709
 20
392.1239115223809
  0
LWPOLYLINE
  5
102EB
330
1E
100
AcDbEntity
  8
10
  6
Continuous
100
AcDbPolyline
 90
        4
 70
     1
 43
0.0
 10
114.6346376765291
 20
416.378407265881
 10
127.6346416699236
 20
416.378407265881
 10
127.6346416699236
 20
412.0125345577728
 10
114.6346376765291
 20
412.0125345577728
  0
LINE
  5
10305
330
1E
100
AcDbEntity
  8
10
  6
Continuous
100
AcDbLine
 10
163.134638074529
 20
430.2739106168806
 30
0.0
 11
79.13463807452898
 21
430.2739106168806
 31
0.0
  0
LINE
  5
10306
330
1E
100
AcDbEntity
  8
10
  6
Continuous
100
AcDbLine
 10
163.134638074529
 20
380.2739106168809
 30
0.0
 11
79.13463807452898
 21
380.2739106168809
 31
0.0
  0
LINE
  5
10309
330
1E
100
AcDbEntity
  8
10
  6
Continuous
100
AcDbLine
 10
163.134638074529
 20
430.2739106168806
 30
0.0
 11
163.134638074529
 21
380.2739106168809
 31
0.0
  0
LINE
  5
1030A
330
1E
100
AcDbEntity
  8
10
  6
Continuous
100
AcDbLine
 10
79.13463807452898
 20
380.2739106168809
 30
0.0
 11
79.13463807452898
 21
430.2739106168806
 31
0.0
  0
DIMENSION
  5
1033B
330
1E
100
AcDbEntity
  8
30
  6
Continuous
100
AcDbDimension
280
     0
  2
*D21
 10
243.1984000910952
 20
380.2739106168809
 30
0.0
 11
238.1984000910951
 21
405.2739106168806
 31
0.0
 70
    32
 71
     5
 42
50.0
 73
     0
 74
     0
 75
     0
  3
STANDARD
100
AcDbAlignedDimension
 13
282.134638074529
 23
430.2739106168806
 33
0.0
 14
282.134638074529
 24
380.2739106168809
 34
0.0
 50
90.0
100
AcDbRotatedDimension
1001
ACAD
1000
DSTYLE
1002
{
1070
    79
1070
     3
1002
}
  0
LINE
  5
103AB
330
1E
100
AcDbEntity
  8
16
100
AcDbLine
 10
121.134638074529
 20
332.8554053899352
 30
0.0
 11
121.134638074529
 21
485.8212244186402
 31
0.0
  0
LWPOLYLINE
  5
103C3
330
1E
100
AcDbEntity
  8
10
  6
Continuous
100
AcDbPolyline
 90
        4
 70
     1
 43
0.0
 10
0.0
 20
742.4999999999997
 10
525.0
 20
742.4999999999997
 10
525.0
 20
0.0
 10
0.0
 20
0.0
  0
DIMENSION
  5
1050B
330
1E
100
AcDbEntity
  8
30
  6
Continuous
100
AcDbDimension
280
     0
  2
*D22
 10
508.4842107311413
 20
130.426516595846
 30
0.0
 11
508.4842107311413
 21
154.4265165958461
 31
0.0
 70
   160
 71
     5
 42
48.0
 73
     0
 74
     0
 75
     0
  3
STANDARD
100
AcDbAlignedDimension
 13
437.5405076641971
 23
178.4265165958461
 33
0.0
 14
437.5405076641971
 24
130.4265165958461
 34
0.0
 50
90.0
100
AcDbRotatedDimension
1001
ACAD
1000
DSTYLE
1002
{
1070
    79
1070
     3
1002
}
  0
LINE
  5
1050C
330
1E
100
AcDbEntity
  8
16
100
AcDbLine
 10
439.5405076641976
 20
81.87231463771217
 30
0.0
 11
439.5405076641976
 21
233.7561355219643
 31
0.0
  0
DIMENSION
  5
1050D
330
1E
100
AcDbEntity
  8
30
  6
Continuous
100
AcDbDimension
280
     0
  2
*D23
 10
451.5405091244477
 20
64.96481400005501
 30
0.0
 11
439.5405076640726
 21
69.96481400005501
 31
0.0
 70
    32
 71
     5
 42
24.00000292075015
 73
     0
 74
     0
 75
     0
  3
STANDARD
100
AcDbAlignedDimension
 13
427.5405062036975
 23
131.4265162233461
 33
0.0
 14
451.5405091244477
 24
131.4265162233461
 34
0.0
 50
180.0
100
AcDbRotatedDimension
1001
ACAD
1000
DSTYLE
1002
{
1070
    79
1070
     3
1002
}
  0
DIMENSION
  5
1050E
330
1E
100
AcDbEntity
  8
30
  6
Continuous
100
AcDbDimension
280
     0
  2
*D24
 10
450.4505076641971
 20
177.426516595846
 30
0.0
 11
465.4168742415689
 21
184.4708451217962
 31
0.0
 70
   164
 71
     5
 42
0.9999999999998292
 73
     0
 74
     0
 75
     0
  3
STANDARD
100
AcDbRadialDimension
 15
451.2368547086853
 25
178.044301611547
 35
0.0
 40
0.0
1001
ACAD
1000
DSTYLE
1002
{
1070
   288
1070
     1
1002
}
  0
LWPOLYLINE
  5
1050F
330
1E
100
AcDbEntity
  8
11
 48
2.0
100
AcDbPolyline
 90
        2
 70
     0
 43
0.0
 10
427.5405076641978
 20
131.4265165958459
 42
0.4142135623730951
 10
428.5405076641978
 20
130.4265165958459
  0
LWPOLYLINE
  5
10510
330
1E
100
AcDbEntity
  8
11
 48
2.0
100
AcDbPolyline
 90
        2
 70
     0
 43
0.0
 10
428.5405082304476
 20
130.426516059346
 10
450.5405070979477
 20
130.426516059346
  0
LWPOLYLINE
  5
10511
330
1E
100
AcDbEntity
  8
11
 48
2.0
100
AcDbPolyline
 90
        2
 70
     0
 43
0.0
 10
450.5405076641974
 20
130.4265165958459
 42
0.4142135623730951
 10
451.5405076641973
 20
131.4265165958459
  0
LWPOLYLINE
  5
10512
330
1E
100
AcDbEntity
  8
11
 48
2.0
100
AcDbPolyline
 90
        2
 70
     0
 43
0.0
 10
451.5405091244477
 20
131.4265162233461
 10
451.5405091244477
 20
177.4265169683459
  0
LWPOLYLINE
  5
10513
330
1E
100
AcDbEntity
  8
11
 48
2.0
100
AcDbPolyline
 90
        2
 70
     0
 43
0.0
 10
451.5405076641973
 20
177.4265165958459
 42
0.4142135623730951
 10
450.5405076641974
 20
178.4265165958459
  0
LWPOLYLINE
  5
10514
330
1E
100
AcDbEntity
  8
11
 48
2.0
100
AcDbPolyline
 90
        2
 70
     0
 43
0.0
 10
450.5405070979477
 20
178.4265171323459
 10
428.5405082304476
 20
178.4265171323459
  0
LWPOLYLINE
  5
10515
330
1E
100
AcDbEntity
  8
11
 48
2.0
100
AcDbPolyline
 90
        2
 70
     0
 43
0.0
 10
428.5405076641978
 20
178.4265165958459
 42
0.4142135623730951
 10
427.5405076641978
 20
177.4265165958459
  0
LWPOLYLINE
  5
10516
330
1E
100
AcDbEntity
  8
11
 48
2.0
100
AcDbPolyline
 90
        2
 70
     0
 43
0.0
 10
427.5405062036975
 20
177.4265169683459
 10
427.5405062036975
 20
131.4265162233461
  0
LINE
  5
1051B
330
1E
100
AcDbEntity
  8
16
100
AcDbLine
 10
489.314738454065
 20
154.4265165958459
 30
0.0
 11
387.9809812701097
 21
154.4265165958459
 31
0.0
  0
LWPOLYLINE
  5
10559
330
1E
100
AcDbEntity
  8
18
  6
DIVIDE
100
AcDbPolyline
 90
        4
 70
     1
 43
0.0
 10
246.3375710811134
 20
89.42651897984603
 10
336.3375746573632
 20
89.42651897984603
 10
336.3375746573632
 20
219.4265142115961
 10
246.3375710811134
 20
219.4265142115961
  0
LWPOLYLINE
  5
1055D
330
1E
100
AcDbEntity
  8
18
  6
DIVIDE
100
AcDbPolyline
 90
        4
 70
     1
 43
0.0
 10
394.5405058759478
 20
89.42651897984603
 10
484.5405094521975
 20
89.42651897984603
 10
484.5405094521975
 20
219.4265142115961
 10
394.5405058759478
 20
219.4265142115961
  0
DIMENSION
  5
105C3
330
1E
100
AcDbEntity
  8
30
  6
Continuous
100
AcDbDimension
280
     0
  2
*D25
 10
132.134638074529
 20
435.7606819633276
 30
0.0
 11
121.134638074529
 21
437.7606819633276
 31
0.0
 70
   160
 71
     5
 42
22.0
 73
     0
 74
     0
 75
     0
  3
STANDARD
100
AcDbAlignedDimension
 13
110.134638074529
 23
427.7739106168808
 33
0.0
 14
132.134638074529
 24
427.7739106168808
 34
0.0
100
AcDbRotatedDimension
1001
ACAD
1000
DSTYLE
1002
{
1070
    69
1070
     1
1070
    70
1070
     7
1070
    79
1070
     3
1070
   279
1070
     1
1002
}
  0
MTEXT
  5
10625
330
1E
100
AcDbEntity
  8
240
100
AcDbMText
 10
273.1179880548568
 20
34.11543061980501
 30
0.0
 40
7.826237649998486
 41
0.0
 46
0.0
 71
     1
 72
     1
  1
[Cutout A]
  7
SLDTEXTSTYLE0
 73
     1
 44
1.0
  0
MTEXT
  5
10626
330
1E
100
AcDbEntity
  8
240
100
AcDbMText
 10
419.7028029676909
 20
36.31152526554706
 30
0.0
 40
7.826237649998486
 41
0.0
 46
0.0
 71
     1
 72
     1
  1
[Cutout B]
  7
SLDTEXTSTYLE0
 73
     1
 44
1.0
  0
DIMENSION
  5
10639
330
1E
100
AcDbEntity
  8
30
  6
Continuous
100
AcDbDimension
280
     0
  2
*D26
 10
136.134638074529
 20
64.74996900688939
 30
0.0
 11
121.134638074529
 21
69.74996900688939
 31
0.0
 70
    32
 71
     5
 42
30.0
 73
     0
 74
     0
 75
     0
  3
STANDARD
100
AcDbAlignedDimension
 13
106.134638074529
 23
205.4265165958459
 33
0.0
 14
136.134638074529
 24
94.42651659584596
 34
0.0
100
AcDbRotatedDimension
1001
ACAD
1000
DSTYLE
1002
{
1070
    79
1070
     3
1002
}
  0
DIMENSION
  5
10A55
330
1E
100
AcDbEntity
  8
30
  6
Continuous
100
AcDbDimension
280
     0
  2
*D27
 10
209.9471285990685
 20
470.2239118336309
 30
0.0
 11
209.9471285990684
 21
499.3734827712745
 31
0.0
 70
   160
 71
     5
 42
50.04999878324941
 73
     0
 74
     0
 75
     0
  3
STANDARD
100
AcDbAlignedDimension
 13
137.634638074529
 23
520.2739106168803
 33
0.0
 14
170.0
 24
470.2239118336309
 34
0.0
 50
90.0
100
AcDbRotatedDimension
1001
ACAD
1000
DSTYLE
1002
{
1070
    79
1070
     3
1002
}
  0
DIMENSION
  5
10A56
330
1E
100
AcDbEntity
  8
30
  6
Continuous
100
AcDbDimension
280
     0
  2
*D28
 10
209.9471285990685
 20
340.2249820348809
 30
0.0
 11
209.9471285990685
 21
405.2244469342559
 31
0.0
 70
   160
 71
     5
 42
129.99892979875
 73
     0
 74
     0
 75
     0
  3
STANDARD
100
AcDbAlignedDimension
 13
166.134638074529
 23
470.2239118336309
 33
0.0
 14
168.0
 24
340.2249820348809
 34
0.0
 50
90.0
100
AcDbRotatedDimension
1001
ACAD
1000
DSTYLE
1002
{
1070
    69
1070
     1
1070
    70
1070
     7
1070
    79
1070
     3
1070
   279
1070
     1
1002
}
  0
DIMENSION
  5
10A59
330
1E
100
AcDbEntity
  8
30
  6
Continuous
100
AcDbDimension
280
     0
  2
*D31
 10
163.134638074529
 20
368.0
 30
0.0
 11
121.134638074529
 21
368.0
 31
0.0
 70
   160
 71
     5
 42
84.0
 73
     0
 74
     0
 75
     0
  3
STANDARD
100
AcDbAlignedDimension
 13
79.13463807452898
 23
380.2739106168809
 33
0.0
 14
163.134638074529
 24
380.2739106168809
 34
0.0
100
AcDbRotatedDimension
1001
ACAD
1000
DSTYLE
1002
{
1070
    70
1070
     7
1070
    69
1070
     1
1070
    79
1070
     3
1070
   279
1070
     1
1002
}
  0
DIMENSION
  5
10A5B
330
1E
100
AcDbEntity
  8
30
  6
Continuous
100
AcDbDimension
280
     0
  2
*D32
 10
193.3179035110379
 20
462.2739106168808
 30
0.0
 11
188.3179035110378
 21
405.2494463176308
 31
0.0
 70
    32
 71
     5
 42
114.0489285984998
 73
     0
 74
     0
 75
     0
  3
STANDARD
100
AcDbAlignedDimension
 13
158.134638074529
 23
348.224982018381
 33
0.0
 14
158.134638074529
 24
462.2739106168808
 34
0.0
 50
270.0
100
AcDbRotatedDimension
1001
ACAD
1000
DSTYLE
1002
{
1070
    69
1070
     1
1070
    70
1070
     7
1070
    79
1070
     3
1070
   279
1070
     1
1002
}
  0
CIRCLE
  5
10C6C
330
1E
100
AcDbEntity
  8
17
  6
CONTINOUS
100
AcDbCircle
 10
445.2012128532071
 20
459.2056308965878
 30
0.0
 40
4.5
  0
LINE
  5
10C6D
330
1E
100
AcDbEntity
  8
24
  6
Continuous
100
AcDbLine
 10
455.2012130874571
 20
450.2056308618376
 30
0.0
 11
455.2012130874571
 21
474.9543278073377
 31
0.0
  0
LINE
  5
10C6E
330
1E
100
AcDbEntity
  8
24
  6
Continuous
100
AcDbLine
 10
435.201212602957
 20
450.2056308618376
 30
0.0
 11
455.2012130874571
 21
450.2056308618376
 31
0.0
  0
LINE
  5
10C6F
330
1E
100
AcDbEntity
  8
24
  6
Continuous
100
AcDbLine
 10
435.201212602957
 20
474.9543278073377
 30
0.0
 11
435.201212602957
 21
450.2056308618376
 31
0.0
  0
SPLINE
  5
10C70
330
1E
100
AcDbEntity
  8
24
  6
Continuous
100
AcDbSpline
210
0.0
220
0.0
230
1.0
 70
     8
 71
     3
 72
     9
 73
     5
 74
     0
 42
0.000000001
 43
0.0000000001
 40
0.0
 40
0.0
 40
0.0
 40
0.0
 40
0.4831447904732653
 40
1.0
 40
1.0
 40
1.0
 40
1.0
 10
455.2012128530825
 20
474.9543278770747
 30
0.0
 10
451.7867161631281
 20
470.1580850011539
 30
0.0
 10
444.9860997274738
 20
474.598397362299
 30
0.0
 10
438.1249145064129
 20
481.2047454198575
 30
0.0
 10
435.2012128530828
 20
474.9543278770747
 30
0.0
  0
DIMENSION
  5
10C71
330
1E
100
AcDbEntity
  8
30
  6
Continuous
100
AcDbDimension
280
     0
  2
*D33
 10
472.2704695056099
 20
450.2056308965878
 30
0.0
 11
472.2704695056099
 21
481.0056308965878
 31
0.0
 70
   160
  1
<> (max.)
 71
     2
 42
9.0
 73
     0
 74
     0
 75
     0
  3
STANDARD1
100
AcDbAlignedDimension
 13
452.2012128532071
 23
459.2056308965878
 33
0.0
 14
455.201212853207
 24
450.2056308965878
 34
0.0
 50
90.0
100
AcDbRotatedDimension
  0
DIMENSION
  5
10C72
330
1E
100
AcDbEntity
  8
30
  6
Continuous
100
AcDbDimension
280
     0
  2
*D34
 10
455.201212853207
 20
436.9686787924732
 30
0.0
 11
405.471512283105
 21
436.9686787924732
 31
0.0
 70
   160
  1
<> (max.)\Pmax. t6
 71
     2
 42
20.0
 73
     0
 74
     0
 75
     0
  3
STANDARD
100
AcDbAlignedDimension
 13
435.2012128532071
 23
450.2056308965878
 33
0.0
 14
455.201212853207
 24
450.2056308965878
 34
0.0
100
AcDbRotatedDimension
  0
INSERT
  5
10C73
330
1E
100
AcDbEntity
  8
17
  6
DASHDOT
100
AcDbBlockReference
  2
SW_CENTERMARKSYMBOL_24
 10
445.2012128532071
 20
459.2056308965878
 30
0.0
 41
2.5
 42
2.5
 43
2.5
  0
TEXT
  5
10C74
330
1E
100
AcDbEntity
  8
30
  6
Continuous
100
AcDbText
 10
421.6532818667245
 20
482.0884204495532
 30
0.0
 40
5.0
  1
%%c9
  7
STANDARD1
100
AcDbText
  0
LEADER
  5
10C75
330
1E
100
AcDbEntity
  8
30
  6
Continuous
100
AcDbLeader
  3
STANDARD
 76
     3
 10
442.9529698935202
 20
461.0891319704501
 30
0.0
 10
433.6169722649628
 20
480.1961381062506
 30
0.0
 10
420.2798287396952
 20
480.6404865252916
 30
0.0
213
0.0
223
2.0
233
0.0
1001
ACAD
1000
DSTYLE
1002
{
1070
     5
1000
OPEN
1070
    77
1070
     0
1070
    79
1070
     3
1070
   147
1040
1.0
1070
   342
1005
3B2
1002
}
  0
LINE
  5
10E9B
330
1E
100
AcDbEntity
  8
16
100
AcDbLine
 10
177.0
 20
154.4265165958459
 30
0.0
 11
59.71356056957029
 21
154.4265165958459
 31
0.0
  0
LINE
  5
10E9C
330
1E
100
AcDbEntity
  8
16
100
AcDbLine
 10
177.0
 20
154.4265165958459
 30
0.0
 11
59.71356056957029
 21
154.4265165958459
 31
0.0
  0
CIRCLE
  5
10F22
330
1E
100
AcDbEntity
  8
12
100
AcDbCircle
 10
106.134638074529
 20
461.2739106168808
 30
0.0
 40
4.0
  0
LINE
  5
10F23
330
1E
100
AcDbEntity
  8
12
  6
DASHED
100
AcDbLine
 10
111.634638074529
 20
461.2739106168808
 30
0.0
 11
100.6346380745291
 21
461.2739106168808
 31
0.0
  0
LINE
  5
10F24
330
1E
100
AcDbEntity
  8
12
  6
DASHED
100
AcDbLine
 10
106.134638074529
 20
468.2739106168808
 30
0.0
 11
106.134638074529
 21
454.2739106168808
 31
0.0
  0
VIEWPORT
  5
9AC
330
1A
100
AcDbEntity
 67
     1
  8
0
  6
Continuous
348
629D
100
AcDbViewport
 10
5.613749947134903
 20
3.902083231708196
 30
0.0
 40
14.87469589274309
 41
8.746133096049151
 68
     1
 69
     1
 12
5.613749947134903
 22
3.902083231708196
 13
0.0
 23
0.0
 14
10.0
 24
10.0
 15
10.0
 25
10.0
 16
0.0
 26
0.0
 36
1.0
 17
0.0
 27
0.0
 37
0.0
 42
50.0
 43
0.0
 44
0.0
 45
8.746133096049151
 50
0.0
 51
0.0
 72
   100
 90
    32800
  1

281
     0
 71
     1
 74
     0
110
0.0
120
0.0
130
0.0
111
1.0
121
0.0
131
0.0
112
0.0
122
1.0
132
0.0
 79
     0
146
0.0
170
     0
 61
     5
292
     1
282
     1
141
0.0
142
0.0
 63
   250
421
  3355443
  0
VIEWPORT
  5
6267
330
1A
100
AcDbEntity
 67
     1
  8
30
  6
Continuous
348
629D
100
AcDbViewport
 10
5.613749965908018
 20
3.902083250481312
 30
0.0
 40
8.981999945452834
 41
6.243333200770099
 68
     2
 69
     2
 12
107.0904203558153
 22
-39.95474566704796
 13
0.0
 23
0.0
 14
1.0
 24
1.0
 15
10.0
 25
10.0
 16
0.0
 26
0.0
 36
1.0
 17
0.0
 27
0.0
 37
0.0
 42
50.0
 43
0.0
 44
0.0
 45
650.0648328262407
 50
0.0
 51
0.0
 72
   100
 90
    33312
  1

281
     0
 71
     1
 74
     0
110
0.0
120
0.0
130
0.0
111
1.0
121
0.0
131
0.0
112
0.0
122
1.0
132
0.0
 79
     0
146
0.0
170
     0
 61
     5
292
     1
282
     1
141
0.0
142
0.0
 63
   250
421
  3355443
  0
ENDSEC
  0
SECTION
  2
OBJECTS
  0
DICTIONARY
  5
C
330
0
100
AcDbDictionary
281
     1
  3
ACAD_CIP_PREVIOUS_PRODUCT_INFO
350
62CC
  3
ACAD_COLOR
350
62B0
  3
ACAD_DETAILVIEWSTYLE
350
62C9
  3
ACAD_GROUP
350
D
  3
ACAD_LAYOUT
350
19
  3
ACAD_MATERIAL
350
627E
  3
ACAD_MLEADERSTYLE
350
62C5
  3
ACAD_MLINESTYLE
350
16
  3
ACAD_PLOTSETTINGS
350
18
  3
ACAD_PLOTSTYLENAME
350
E
  3
ACAD_SCALELIST
350
62B3
  3
ACAD_SECTIONVIEWSTYLE
350
62C7
  3
ACAD_TABLESTYLE
350
62B1
  3
ACAD_VISUALSTYLE
350
6297
  3
ACADDIM
350
5C76
  3
ACDB_RECOMPOSE_DATA
350
10F2A
  3
ACDBVARIABLEDICTIONARY
350
5697
  0
DICTIONARY
  5
FF70
330
2
100
AcDbDictionary
280
     1
281
     1
  3
ACAD_LAYERSTATES
360
FF71
  0
DICTIONARY
  5
6368
330
10
100
AcDbDictionary
280
     1
281
     1
  3
ADSK_XREC_LAYER_RECONCILED
360
6369
  0
DICTIONARY
  5
636A
330
2F
100
AcDbDictionary
280
     1
281
     1
  3
ADSK_XREC_LAYER_RECONCILED
360
636B
  0
DICTIONARY
  5
636C
330
31
100
AcDbDictionary
280
     1
281
     1
  3
ADSK_XREC_LAYER_RECONCILED
360
636D
  0
DICTIONARY
  5
636E
330
35
100
AcDbDictionary
280
     1
281
     1
  3
ADSK_XREC_LAYER_RECONCILED
360
636F
  0
DICTIONARY
  5
6372
330
3C
100
AcDbDictionary
280
     1
281
     1
  3
ADSK_XREC_LAYER_RECONCILED
360
6373
  0
DICTIONARY
  5
6374
330
3D
100
AcDbDictionary
280
     1
281
     1
  3
ADSK_XREC_LAYER_RECONCILED
360
6375
  0
DICTIONARY
  5
6376
330
3A2
100
AcDbDictionary
280
     1
281
     1
  3
ADSK_XREC_LAYER_RECONCILED
360
6377
  0
DICTIONARY
  5
6378
330
3BBA
100
AcDbDictionary
280
     1
281
     1
  3
ADSK_XREC_LAYER_RECONCILED
360
6379
  0
DICTIONARY
  5
637E
330
5C47
100
AcDbDictionary
280
     1
281
     1
  3
ADSK_XREC_LAYER_RECONCILED
360
637F
  0
DICTIONARY
  5
6AEC
330
6AEB
100
AcDbDictionary
280
     1
281
     1
  0
DICTIONARY
  5
1061A
330
10619
100
AcDbDictionary
280
     1
281
     1
  0
DICTIONARY
  5
178
330
1E
100
AcDbDictionary
280
     1
281
     1
  3
ACAD_LAYOUTSELFREF
360
6251
  3
ACAD_SORTENTS
360
F9D9
  0
DICTIONARY
  5
17A
330
1A
100
AcDbDictionary
280
     1
281
     1
  3
ACAD_LAYOUTSELFREF
360
6250
  0
DICTIONARY
  5
10DD2
330
10DCF
100
AcDbDictionary
280
     1
281
     1
  3
ACAD_SORTENTS
360
10DD3
  0
XRECORD
  5
62CC
102
{ACAD_REACTORS
330
C
102
}
330
C
100
AcDbXrecord
280
     1
300
ACDLT
300
2014
300
ACDLT_F_S
  0
DICTIONARY
  5
62B0
102
{ACAD_REACTORS
330
C
102
}
330
C
100
AcDbDictionary
281
     1
  0
DICTIONARY
  5
62C9
102
{ACAD_REACTORS
330
C
102
}
330
C
100
AcDbDictionary
281
     1
  3
Imperial24
350
62CA
  3
Metric50
350
6AFE
  0
DICTIONARY
  5
D
102
{ACAD_REACTORS
330
C
102
}
330
C
100
AcDbDictionary
281
     1
  0
DICTIONARY
  5
19
102
{ACAD_REACTORS
330
C
102
}
330
C
100
AcDbDictionary
281
     1
  3
Model
350
6262
  3
ﾚｲｱｳﾄ1
350
6263
  0
DICTIONARY
  5
627E
102
{ACAD_REACTORS
330
C
102
}
330
C
100
AcDbDictionary
281
     1
  3
ByBlock
350
6287
  3
ByLayer
350
627F
  3
Global
350
628F
  0
DICTIONARY
  5
62C5
102
{ACAD_REACTORS
330
C
102
}
330
C
100
AcDbDictionary
281
     1
  3
Standard
350
62C6
  0
DICTIONARY
  5
16
102
{ACAD_REACTORS
330
C
102
}
330
C
100
AcDbDictionary
281
     1
  3
STANDARD
350
17
  0
DICTIONARY
  5
18
102
{ACAD_REACTORS
330
C
102
}
330
C
100
AcDbDictionary
281
     1
  0
ACDBDICTIONARYWDFLT
  5
E
102
{ACAD_REACTORS
330
C
102
}
330
C
100
AcDbDictionary
281
     1
  3
Normal
350
F
100
AcDbDictionaryWithDefault
340
F
  0
DICTIONARY
  5
62B3
102
{ACAD_REACTORS
330
C
102
}
330
C
100
AcDbDictionary
281
     1
  3
A0
350
62B4
  3
A1
350
62B5
  3
A2
350
62B6
  3
A3
350
62B7
  3
A4
350
62B8
  3
A5
350
62B9
  3
A6
350
62BA
  3
A7
350
62BB
  3
A8
350
62BC
  3
A9
350
62BD
  3
B0
350
62BE
  3
B1
350
62BF
  3
B2
350
62C0
  3
B3
350
62C1
  3
B4
350
62C2
  3
B5
350
62C3
  3
B6
350
62C4
  0
DICTIONARY
  5
62C7
102
{ACAD_REACTORS
330
C
102
}
330
C
100
AcDbDictionary
281
     1
  3
Imperial24
350
62C8
  3
Metric50
350
6AFD
  0
DICTIONARY
  5
62B1
102
{ACAD_REACTORS
330
C
102
}
330
C
100
AcDbDictionary
281
     1
  3
Standard
350
62B2
  0
DICTIONARY
  5
6297
102
{ACAD_REACTORS
330
C
102
}
330
C
100
AcDbDictionary
281
     1
  3
2dWireframe
350
629D
  3
3D Hidden
350
66D1
  3
3dWireframe
350
66D0
  3
Basic
350
629C
  3
Brighten
350
62A3
  3
ColorChange
350
62A7
  3
Conceptual
350
62A0
  3
Dim
350
62A2
  3
EdgeColorOff
350
62AF
  3
Facepattern
350
62A6
  3
Flat
350
6298
  3
FlatWithEdges
350
6299
  3
Gouraud
350
629A
  3
GouraudWithEdges
350
629B
  3
Hidden
350
629F
  3
JitterOff
350
62AD
  3
Linepattern
350
62A5
  3
OverhangOff
350
62AE
  3
Realistic
350
62A1
  3
Shaded
350
62AC
  3
Shaded with edges
350
62AB
  3
Shades of Gray
350
62A8
  3
Sketchy
350
62A9
  3
Thicken
350
62A4
  3
Wireframe
350
629E
  3
X-Ray
350
62AA
  0
XRECORD
  5
5C76
102
{ACAD_REACTORS
330
C
102
}
330
C
100
AcDbXrecord
280
     1
 90
   990106
  3

 60
     0
 61
     0
 62
     1
 63
     3
 64
     0
 65
     0
 66
     0
 67
     3
 68
     1
 69
     0
 70
     0
 71
     0
 72
     0
 40
0.0
170
     0
340
0
  0
XRECORD
  5
10F2A
102
{ACAD_REACTORS
330
C
102
}
330
C
100
AcDbXrecord
280
     1
 90
        1
330
62B2
330
62C8
330
62CA
330
6AFD
330
6AFE
  0
DICTIONARY
  5
5697
102
{ACAD_REACTORS
330
C
102
}
330
C
100
AcDbDictionary
281
     1
  3
CANNOSCALE
350
6384
  3
CMLEADERSTYLE
350
6381
  3
CTABLESTYLE
350
6380
  3
CVIEWDETAILSTYLE
350
6382
  3
CVIEWSECTIONSTYLE
350
6383
  3
DIMASSOC
350
5698
  3
INDEXCTL
350
6386
  3
LAYEREVAL
350
66D5
  3
LAYERNOTIFY
350
66D6
  3
LIGHTINGUNITS
350
66D4
  3
MSLTSCALE
350
66D3
  3
SORTENTS
350
6385
  0
DICTIONARY
  5
FF71
102
{ACAD_REACTORS
330
FF70
102
}
330
FF70
100
AcDbDictionary
281
     1
  3
19
350
10EF2
  0
XRECORD
  5
6369
102
{ACAD_REACTORS
330
6368
102
}
330
6368
100
AcDbXrecord
280
     1
290
     1
  0
XRECORD
  5
636B
102
{ACAD_REACTORS
330
636A
102
}
330
636A
100
AcDbXrecord
280
     1
290
     1
  0
XRECORD
  5
636D
102
{ACAD_REACTORS
330
636C
102
}
330
636C
100
AcDbXrecord
280
     1
290
     1
  0
XRECORD
  5
636F
102
{ACAD_REACTORS
330
636E
102
}
330
636E
100
AcDbXrecord
280
     1
290
     1
  0
XRECORD
  5
6373
102
{ACAD_REACTORS
330
6372
102
}
330
6372
100
AcDbXrecord
280
     1
290
     1
  0
XRECORD
  5
6375
102
{ACAD_REACTORS
330
6374
102
}
330
6374
100
AcDbXrecord
280
     1
290
     1
  0
XRECORD
  5
6377
102
{ACAD_REACTORS
330
6376
102
}
330
6376
100
AcDbXrecord
280
     1
290
     1
  0
XRECORD
  5
6379
102
{ACAD_REACTORS
330
6378
102
}
330
6378
100
AcDbXrecord
280
     1
290
     1
  0
XRECORD
  5
637F
102
{ACAD_REACTORS
330
637E
102
}
330
637E
100
AcDbXrecord
280
     1
290
     1
  0
XRECORD
  5
6251
102
{ACAD_REACTORS
330
178
102
}
330
178
100
AcDbXrecord
280
     1
340
1E
  0
SORTENTSTABLE
  5
F9D9
102
{ACAD_REACTORS
330
178
102
}
330
178
100
AcDbSortentsTable
330
1E
331
5C8A
  5
5C8A
331
6339
  5
6339
331
10117
  5
10117
331
5CA2
  5
5CA2
331
1011F
  5
1011F
331
5CAA
  5
5CAA
331
10515
  5
10519
331
586B
  5
586B
331
6186
  5
6186
331
5873
  5
5873
331
616E
  5
616E
331
583C
  5
583C
331
5847
  5
5847
331
FF58
  5
FF58
331
59EB
  5
59EB
331
5D42
  5
5D42
331
10147
  5
10147
331
10306
  5
103AB
331
100F0
  5
100F0
331
1016F
  5
1016F
331
59D1
  5
59D1
331
584C
  5
584C
331
5854
  5
5854
331
585C
  5
585C
331
1050E
  5
10512
331
1014B
  5
1014B
331
633A
  5
633A
331
FDA9
  5
FDA9
331
10118
  5
10118
331
5CA3
  5
5CA3
331
10120
  5
10120
331
10516
  5
1051A
331
5CAB
  5
5CAB
331
102DF
  5
10305
331
6177
  5
6177
331
586C
  5
586C
331
54D8
  5
54D8
331
663A
  5
663A
331
59E4
  5
59E4
331
5D3B
  5
5D3B
331
5D43
  5
5D43
331
59EC
  5
59EC
331
10168
  5
10168
331
100F1
  5
100F1
331
59D2
  5
59D2
331
584D
  5
584D
331
5E68
  5
5E68
331
5855
  5
5855
331
1050F
  5
10513
331
1014C
  5
1014C
331
FDAA
  5
FDAA
331
10111
  5
10111
331
633B
  5
633B
331
FEC2
  5
FEC2
331
10119
  5
10119
331
5CA4
  5
5CA4
331
10121
  5
10121
331
5CAC
  5
5CAC
331
FF42
  5
FF42
331
586D
  5
586D
331
5875
  5
5875
331
100F8
  5
100F8
331
59E5
  5
59E5
331
5D3C
  5
5D3C
331
59ED
  5
59ED
331
5D44
  5
5D44
331
FBCB
  5
FBCB
331
10169
  5
10169
331
100F2
  5
100F2
331
59B9
  5
59B9
331
584E
  5
584E
331
5856
  5
5856
331
5866
  5
5866
331
10112
  5
10112
331
633C
  5
633C
331
1011A
  5
1011A
331
FEC3
  5
FEC3
331
10510
  5
10514
331
10122
  5
10122
331
5CA5
  5
5CA5
331
6544
  5
6544
331
FF43
  5
FF43
331
5CAD
  5
5CAD
331
586E
  5
586E
331
5876
  5
5876
331
100F9
  5
100F9
331
5842
  5
5842
331
59E6
  5
59E6
331
5D3D
  5
5D3D
331
5D45
  5
5D45
331
59EE
  5
59EE
331
1016A
  5
1016A
331
FBCC
  5
FBCC
331
5C86
  5
5C86
331
100F3
  5
100F3
331
10309
  5
1050B
331
59BA
  5
59BA
331
584F
  5
584F
331
5857
  5
5857
331
5867
  5
5867
331
FDAC
  5
FDAC
331
10113
  5
10113
331
5C8E
  5
5C8E
331
633D
  5
633D
331
FEC4
  5
FEC4
331
1011B
  5
1011B
331
10123
  5
10123
331
10511
  5
10515
331
6545
  5
6545
331
FF14
  5
FF14
331
5CA6
  5
5CA6
331
10559
  5
10235
331
102E2
  5
10306
331
586F
  5
586F
331
5877
  5
5877
331
2260
  5
2260
331
100FA
  5
100FA
331
5843
  5
5843
331
59E7
  5
59E7
331
5D3E
  5
5D3E
331
F77D
  5
F77D
331
59EF
  5
59EF
331
5D46
  5
5D46
331
100EC
  5
100EC
331
1016B
  5
1016B
331
10233
  5
1026E
331
1030A
  5
103C3
331
FC0D
  5
FC0D
331
100F4
  5
100F4
331
59BB
  5
59BB
331
5848
  5
5848
331
5850
  5
5850
331
5858
  5
5858
331
606B
  5
606B
331
10114
  5
10114
331
FDAD
  5
FDAD
331
1011C
  5
1011C
331
6366
  5
6366
331
10512
  5
10516
331
102BB
  5
102E3
331
5CA7
  5
5CA7
331
6546
  5
6546
331
102E3
  5
10309
331
6173
  5
6173
331
5870
  5
5870
331
2261
  5
2261
331
100FB
  5
100FB
331
5844
  5
5844
331
5878
  5
5878
331
59E8
  5
59E8
331
5D3F
  5
5D3F
331
102EB
  5
1030A
331
5C38
  5
5C38
331
100ED
  5
100ED
331
1016C
  5
1016C
331
100F5
  5
100F5
331
10234
  5
102B3
331
6317
  5
6317
331
103AB
  5
1050D
331
59D6
  5
59D6
331
5851
  5
5851
331
1033B
  5
1050C
331
5859
  5
5859
331
1050B
  5
1050F
331
10148
  5
10148
331
FDAE
  5
FDAE
331
5C98
  5
5C98
331
10115
  5
10115
331
102B4
  5
102EB
331
103C3
  5
1050E
331
6367
  5
6367
331
1011D
  5
1011D
331
5CA8
  5
5CA8
331
10513
  5
10517
331
5869
  5
5869
331
5845
  5
5845
331
1051B
  5
1055C
331
59E1
  5
59E1
331
59E9
  5
59E9
331
5D40
  5
5D40
331
10145
  5
10145
331
100EE
  5
100EE
331
1016D
  5
1016D
331
10235
  5
102BB
331
100F6
  5
100F6
331
1026D
  5
102DF
331
584A
  5
584A
331
5852
  5
5852
331
10149
  5
10149
331
61FF
  5
61FF
331
1050C
  5
10510
331
585A
  5
585A
331
6338
  5
6338
331
10116
  5
10116
331
1011E
  5
1011E
331
10514
  5
10518
331
5CA9
  5
5CA9
331
6175
  5
6175
331
586A
  5
586A
331
1C9B
  5
1C9B
331
59CA
  5
59CA
331
583B
  5
583B
331
5846
  5
5846
331
5D41
  5
5D41
331
59EA
  5
59EA
331
10146
  5
10146
331
6269
  5
6269
331
100EF
  5
100EF
331
1016E
  5
1016E
331
10305
  5
1033B
331
100F7
  5
100F7
331
1026E
  5
102E2
331
59D0
  5
59D0
331
584B
  5
584B
331
101D5
  5
1026D
331
59C6
  5
59C6
331
5853
  5
5853
331
585B
  5
585B
331
1050D
  5
10511
331
1014A
  5
1014A
  0
XRECORD
  5
6250
102
{ACAD_REACTORS
330
17A
102
}
330
17A
100
AcDbXrecord
280
     1
340
1A
  0
SORTENTSTABLE
  5
10DD3
102
{ACAD_REACTORS
330
10DD2
102
}
330
10DD2
100
AcDbSortentsTable
330
10DCF
  0
ACDBDETAILVIEWSTYLE
  5
62CA
102
{ACAD_XDICTIONARY
360
10EBB
102
}
102
{ACAD_REACTORS
330
62C9
102
}
330
62C9
100
AcDbModelDocViewStyle
 70
     0
  3
Imperial24
290
     0
100
AcDbDetailViewStyle
 70
     0
 71
     0
 90
        3
 71
     1
340
11
 62
   256
 40
0.24
340
0
 62
   256
 40
0.24
300

 40
0.36
280
     3
 71
     2
340
15
 90
       25
 62
   256
 71
     3
340
11
 62
   256
 40
0.24
 90
        1
 40
0.75
 90
        1
300
%<\AcVar ViewType \f "%tc1">% %<\AcVar ViewDetailId>%\PSCALE %<\AcVar ViewScale \f "%sn">%
 71
     4
340
15
 90
       25
 62
   256
340
15
 90
       25
 62
   256
280
     0
  0
ACDBDETAILVIEWSTYLE
  5
6AFE
102
{ACAD_XDICTIONARY
360
10EBF
102
}
102
{ACAD_REACTORS
330
62C9
102
}
330
62C9
100
AcDbModelDocViewStyle
 70
     0
  3
Metric50
290
     0
100
AcDbDetailViewStyle
 70
     0
 71
     0
 90
        3
 71
     1
340
11
 62
   256
 40
5.0
340
0
 62
   256
 40
5.0
300

 40
0.0
280
     1
 71
     2
340
15
 90
       25
 62
   256
 71
     3
340
11
 62
   256
 40
5.0
 90
        0
 40
15.0
 90
        1
300
%<\AcVar ViewDetailId>% (%<\AcVar ViewScale \f "%sn">%)
 71
     4
340
15
 90
       25
 62
   256
340
15
 90
       25
 62
   256
280
     0
  0
LAYOUT
  5
6262
102
{ACAD_XDICTIONARY
360
FF76
102
}
102
{ACAD_REACTORS
330
19
102
}
330
19
100
AcDbPlotSettings
  1

  2
Canon LBP3800 LIPSLX
  4
A4
  6
OLE1
 40
5.873749732971191
 41
5.873747825622557
 42
5.873748779296875
 43
5.873748779296875
 44
209.9733276367186
 45
296.9259948730469
 46
13.97
 47
0.0
 48
0.0
 49
0.0
140
0.0
141
0.0
142
1.0
143
57.03989542820892
 70
 11956
 72
     0
 73
     0
 74
     1
  7
monochrome.ctb
 75
     0
147
0.0175315889430164
 76
     0
 77
     2
 78
   300
148
2132.688548548884
149
9148.078143675617
100
AcDbLayout
  1
Model
 70
     1
 71
     0
 10
0.0
 20
0.0
 11
12.0
 21
9.0
 12
0.0
 22
0.0
 32
0.0
 14
0.0
 24
0.0
 34
0.0
 15
0.0
 25
0.0
 35
0.0
146
0.0
 13
0.0
 23
0.0
 33
0.0
 16
1.0
 26
0.0
 36
0.0
 17
0.0
 27
1.0
 37
0.0
 76
     0
330
1E
331
6275
  0
LAYOUT
  5
6263
102
{ACAD_REACTORS
330
19
102
}
330
19
100
AcDbPlotSettings
  1

  2
Canon LBP3800 LIPSLX
  4
A4
  6

 40
5.873749732971191
 41
5.873747825622557
 42
5.873748779296875
 43
5.873748779296875
 44
209.9733276367186
 45
296.9259948730469
 46
0.0
 47
0.0
 48
0.0
 49
0.0
140
0.0
141
0.0
142
1.0
143
1.0
 70
   688
 72
     0
 73
     1
 74
     5
  7
monochrome.ctb
 75
    16
147
1.0
 76
     0
 77
     2
 78
   300
148
0.0
149
0.0
100
AcDbLayout
  1
ﾚｲｱｳﾄ1
 70
     1
 71
     1
 10
-0.2312499519408218
 20
-0.2312499894870548
 11
11.45874984621061
 21
8.035416452903447
 12
0.0
 22
0.0
 32
0.0
 14
1.122749993181602
 24
0.7804166500962629
 34
0.0
 15
10.10474993863443
 25
7.023749850866361
 35
0.0
146
0.0
 13
0.0
 23
0.0
 33
0.0
 16
1.0
 26
0.0
 36
0.0
 17
0.0
 27
1.0
 37
0.0
 76
     0
330
1A
331
9AC
  0
MATERIAL
  5
6287
102
{ACAD_XDICTIONARY
360
6288
102
}
102
{ACAD_REACTORS
330
627E
102
}
330
627E
100
AcDbMaterial
  1
ByBlock
 72
     0
 43
0.0208333333333333
 43
0.0
 43
0.0
 43
0.0
 43
0.0
 43
0.0208333333333333
 43
0.0
 43
0.0
 43
0.0
 43
0.0
 43
1.0
 43
0.0
 43
0.0
 43
0.0
 43
0.0
 43
1.0
 77
     0
 47
0.0208333333333333
 47
0.0
 47
0.0
 47
0.0
 47
0.0
 47
0.0208333333333333
 47
0.0
 47
0.0
 47
0.0
 47
0.0
 47
1.0
 47
0.0
 47
0.0
 47
0.0
 47
0.0
 47
1.0
171
     0
 49
0.0208333333333333
 49
0.0
 49
0.0
 49
0.0
 49
0.0
 49
0.0208333333333333
 49
0.0
 49
0.0
 49
0.0
 49
0.0
 49
1.0
 49
0.0
 49
0.0
 49
0.0
 49
0.0
 49
1.0
175
     0
142
0.0208333333333333
142
0.0
142
0.0
142
0.0
142
0.0
142
0.0208333333333333
142
0.0
142
0.0
142
0.0
142
0.0
142
1.0
142
0.0
142
0.0
142
0.0
142
0.0
142
1.0
179
     0
144
0.0208333333333333
144
0.0
144
0.0
144
0.0
144
0.0
144
0.0208333333333333
144
0.0
144
0.0
144
0.0
144
0.0
144
1.0
144
0.0
144
0.0
144
0.0
144
0.0
144
1.0
147
0.0208333333333333
147
0.0
147
0.0
147
0.0
147
0.0
147
0.0208333333333333
147
0.0
147
0.0
147
0.0
147
0.0
147
1.0
147
0.0
147
0.0
147
0.0
147
0.0
147
1.0
  0
MATERIAL
  5
627F
102
{ACAD_XDICTIONARY
360
6280
102
}
102
{ACAD_REACTORS
330
627E
102
}
330
627E
100
AcDbMaterial
  1
ByLayer
 72
     0
 43
0.0208333333333333
 43
0.0
 43
0.0
 43
0.0
 43
0.0
 43
0.0208333333333333
 43
0.0
 43
0.0
 43
0.0
 43
0.0
 43
1.0
 43
0.0
 43
0.0
 43
0.0
 43
0.0
 43
1.0
 77
     0
 47
0.0208333333333333
 47
0.0
 47
0.0
 47
0.0
 47
0.0
 47
0.0208333333333333
 47
0.0
 47
0.0
 47
0.0
 47
0.0
 47
1.0
 47
0.0
 47
0.0
 47
0.0
 47
0.0
 47
1.0
171
     0
 49
0.0208333333333333
 49
0.0
 49
0.0
 49
0.0
 49
0.0
 49
0.0208333333333333
 49
0.0
 49
0.0
 49
0.0
 49
0.0
 49
1.0
 49
0.0
 49
0.0
 49
0.0
 49
0.0
 49
1.0
175
     0
142
0.0208333333333333
142
0.0
142
0.0
142
0.0
142
0.0
142
0.0208333333333333
142
0.0
142
0.0
142
0.0
142
0.0
142
1.0
142
0.0
142
0.0
142
0.0
142
0.0
142
1.0
179
     0
144
0.0208333333333333
144
0.0
144
0.0
144
0.0
144
0.0
144
0.0208333333333333
144
0.0
144
0.0
144
0.0
144
0.0
144
1.0
144
0.0
144
0.0
144
0.0
144
0.0
144
1.0
147
0.0208333333333333
147
0.0
147
0.0
147
0.0
147
0.0
147
0.0208333333333333
147
0.0
147
0.0
147
0.0
147
0.0
147
1.0
147
0.0
147
0.0
147
0.0
147
0.0
147
1.0
  0
MATERIAL
  5
628F
102
{ACAD_XDICTIONARY
360
6290
102
}
102
{ACAD_REACTORS
330
627E
102
}
330
627E
100
AcDbMaterial
  1
Global
 72
     0
 43
0.0208333333333333
 43
0.0
 43
0.0
 43
0.0
 43
0.0
 43
0.0208333333333333
 43
0.0
 43
0.0
 43
0.0
 43
0.0
 43
1.0
 43
0.0
 43
0.0
 43
0.0
 43
0.0
 43
1.0
 77
     0
 47
0.0208333333333333
 47
0.0
 47
0.0
 47
0.0
 47
0.0
 47
0.0208333333333333
 47
0.0
 47
0.0
 47
0.0
 47
0.0
 47
1.0
 47
0.0
 47
0.0
 47
0.0
 47
0.0
 47
1.0
171
     0
 49
0.0208333333333333
 49
0.0
 49
0.0
 49
0.0
 49
0.0
 49
0.0208333333333333
 49
0.0
 49
0.0
 49
0.0
 49
0.0
 49
1.0
 49
0.0
 49
0.0
 49
0.0
 49
0.0
 49
1.0
175
     0
142
0.0208333333333333
142
0.0
142
0.0
142
0.0
142
0.0
142
0.0208333333333333
142
0.0
142
0.0
142
0.0
142
0.0
142
1.0
142
0.0
142
0.0
142
0.0
142
0.0
142
1.0
179
     0
144
0.0208333333333333
144
0.0
144
0.0
144
0.0
144
0.0
144
0.0208333333333333
144
0.0
144
0.0
144
0.0
144
0.0
144
1.0
144
0.0
144
0.0
144
0.0
144
0.0
144
1.0
147
0.0208333333333333
147
0.0
147
0.0
147
0.0
147
0.0
147
0.0208333333333333
147
0.0
147
0.0
147
0.0
147
0.0
147
1.0
147
0.0
147
0.0
147
0.0
147
0.0
147
1.0
  0
MLEADERSTYLE
  5
62C6
102
{ACAD_REACTORS
330
62C5
102
}
330
62C5
100
AcDbMLeaderStyle
179
     2
170
     2
171
     1
172
     0
 90
        2
 40
0.0
 41
0.0
173
     1
 91
-1056964608
340
13
 92
       -2
290
     1
 42
0.09
291
     1
 43
0.36
  3
Standard
 44
0.18
300

342
11
174
     1
178
     6
175
     1
176
     0
 93
-1056964608
 45
0.18
292
     0
297
     0
 46
0.18
 94
-1056964608
 47
1.0
 49
1.0
140
1.0
293
     1
141
0.0
294
     1
177
     0
142
1.0
295
     0
296
     0
143
0.125
271
     0
272
     9
273
     9
298
     0
1001
ACAD_MLEADERVER
1070
     2
  0
MLINESTYLE
  5
17
102
{ACAD_REACTORS
330
16
102
}
330
16
100
AcDbMlineStyle
  2
STANDARD
 70
     0
  3

 62
   256
 51
90.0
 52
90.0
 71
     2
 49
0.5
 62
   256
  6
BYLAYER
 49
-0.5
 62
   256
  6
BYLAYER
  0
ACDBPLACEHOLDER
  5
F
102
{ACAD_REACTORS
330
E
102
}
330
E
  0
SCALE
  5
62B4
102
{ACAD_REACTORS
330
62B3
102
}
330
62B3
100
AcDbScale
 70
     0
300
1:1
140
1.0
141
1.0
290
     1
  0
SCALE
  5
62B5
102
{ACAD_REACTORS
330
62B3
102
}
330
62B3
100
AcDbScale
 70
     0
300
1/128" = 1'-0"
140
0.0078125
141
12.0
290
     0
  0
SCALE
  5
62B6
102
{ACAD_REACTORS
330
62B3
102
}
330
62B3
100
AcDbScale
 70
     0
300
1/64" = 1'-0"
140
0.015625
141
12.0
290
     0
  0
SCALE
  5
62B7
102
{ACAD_REACTORS
330
62B3
102
}
330
62B3
100
AcDbScale
 70
     0
300
1/32" = 1'-0"
140
0.03125
141
12.0
290
     0
  0
SCALE
  5
62B8
102
{ACAD_REACTORS
330
62B3
102
}
330
62B3
100
AcDbScale
 70
     0
300
1/16" = 1'-0"
140
0.0625
141
12.0
290
     0
  0
SCALE
  5
62B9
102
{ACAD_REACTORS
330
62B3
102
}
330
62B3
100
AcDbScale
 70
     0
300
3/32" = 1'-0"
140
0.09375
141
12.0
290
     0
  0
SCALE
  5
62BA
102
{ACAD_REACTORS
330
62B3
102
}
330
62B3
100
AcDbScale
 70
     0
300
1/8" = 1'-0"
140
0.125
141
12.0
290
     0
  0
SCALE
  5
62BB
102
{ACAD_REACTORS
330
62B3
102
}
330
62B3
100
AcDbScale
 70
     0
300
3/16" = 1'-0"
140
0.1875
141
12.0
290
     0
  0
SCALE
  5
62BC
102
{ACAD_REACTORS
330
62B3
102
}
330
62B3
100
AcDbScale
 70
     0
300
1/4" = 1'-0"
140
0.25
141
12.0
290
     0
  0
SCALE
  5
62BD
102
{ACAD_REACTORS
330
62B3
102
}
330
62B3
100
AcDbScale
 70
     0
300
3/8" = 1'-0"
140
0.375
141
12.0
290
     0
  0
SCALE
  5
62BE
102
{ACAD_REACTORS
330
62B3
102
}
330
62B3
100
AcDbScale
 70
     0
300
1/2" = 1'-0"
140
0.5
141
12.0
290
     0
  0
SCALE
  5
62BF
102
{ACAD_REACTORS
330
62B3
102
}
330
62B3
100
AcDbScale
 70
     0
300
3/4" = 1'-0"
140
0.75
141
12.0
290
     0
  0
SCALE
  5
62C0
102
{ACAD_REACTORS
330
62B3
102
}
330
62B3
100
AcDbScale
 70
     0
300
1" = 1'-0"
140
1.0
141
12.0
290
     0
  0
SCALE
  5
62C1
102
{ACAD_REACTORS
330
62B3
102
}
330
62B3
100
AcDbScale
 70
     0
300
1-1/2" = 1'-0"
140
1.5
141
12.0
290
     0
  0
SCALE
  5
62C2
102
{ACAD_REACTORS
330
62B3
102
}
330
62B3
100
AcDbScale
 70
     0
300
3" = 1'-0"
140
3.0
141
12.0
290
     0
  0
SCALE
  5
62C3
102
{ACAD_REACTORS
330
62B3
102
}
330
62B3
100
AcDbScale
 70
     0
300
6" = 1'-0"
140
6.0
141
12.0
290
     0
  0
SCALE
  5
62C4
102
{ACAD_REACTORS
330
62B3
102
}
330
62B3
100
AcDbScale
 70
     0
300
1'-0" = 1'-0"
140
12.0
141
12.0
290
     0
  0
ACDBSECTIONVIEWSTYLE
  5
62C8
102
{ACAD_XDICTIONARY
360
10EB9
102
}
102
{ACAD_REACTORS
330
62C7
102
}
330
62C7
100
AcDbModelDocViewStyle
 70
     0
  3
Imperial24
290
     0
100
AcDbSectionViewStyle
 70
     0
 71
     0
 90
       78
 71
     1
340
11
 62
   256
 40
0.24
340
0
340
0
 62
   256
 40
0.24
300
I, O, Q, S, X, Z
 40
0.48
 90
        3
 40
0.18
 90
        1
 71
     2
340
15
 90
       25
 62
   256
340
15
 90
       50
 62
   256
 40
0.24
 40
0.0
 40
0.24
 71
     3
340
11
 62
   256
 40
0.24
 90
        1
 40
0.75
 90
        1
300
%<\AcVar ViewType \f "%tc1">% %<\AcVar ViewSectionStartId>%-%<\AcVar ViewSectionEndId>%\PSCALE %<\AcVar ViewScale \f "%sn">%
 71
     4
 62
   256
 62
   257
300
ANSI31
 40
1.0
 90
        0
290
     0
290
     0
 90
        6
 40
0.0
 40
1.570796326794896
 40
0.2617993877991494
 40
1.308996938995747
 40
-0.2617993877991494
 40
1.832595714594044
  0
ACDBSECTIONVIEWSTYLE
  5
6AFD
102
{ACAD_XDICTIONARY
360
10EBD
102
}
102
{ACAD_REACTORS
330
62C7
102
}
330
62C7
100
AcDbModelDocViewStyle
 70
     0
  3
Metric50
290
     0
100
AcDbSectionViewStyle
 70
     0
 71
     0
 90
      102
 71
     1
340
11
 62
   256
 40
5.0
340
0
340
0
 62
   256
 40
5.0
300
I, O, Q, S, X, Z
 40
10.0
 90
        0
 40
2.5
 90
        0
 71
     2
340
15
 90
       25
 62
   256
340
15
 90
       50
 62
   256
 40
5.0
 40
2.5
 40
5.0
 71
     3
340
11
 62
   256
 40
5.0
 90
        0
 40
15.0
 90
        1
300
%<\AcVar ViewSectionStartId>%-%<\AcVar ViewSectionEndId>% (%<\AcVar ViewScale \f "%sn">%)
 71
     4
 62
   256
 62
   257
300
ANSI31
 40
1.0
 90
        0
290
     0
290
     0
 90
        6
 40
0.0
 40
1.570796326794896
 40
0.2617993877991494
 40
1.308996938995747
 40
-0.2617993877991494
 40
1.832595714594044
  0
TABLESTYLE
  5
62B2
102
{ACAD_XDICTIONARY
360
649A
102
}
102
{ACAD_REACTORS
330
62B1
102
}
330
62B1
100
AcDbTableStyle
280
     0
  3
Standard
 70
     0
 71
     0
 40
0.06
 41
0.06
280
     0
281
     0
  7
STANDARD
140
0.18
170
     2
 62
     0
 63
     7
283
     0
 90
      512
 91
        0
  1

274
    -2
284
     1
 64
     0
275
    -2
285
     1
 65
     0
276
    -2
286
     1
 66
     0
277
    -2
287
     1
 67
     0
278
    -2
288
     1
 68
     0
279
    -2
289
     1
 69
     0
  7
STANDARD
140
0.25
170
     5
 62
     0
 63
     7
283
     0
 90
      512
 91
        0
  1

274
    -2
284
     1
 64
     0
275
    -2
285
     1
 65
     0
276
    -2
286
     1
 66
     0
277
    -2
287
     1
 67
     0
278
    -2
288
     1
 68
     0
279
    -2
289
     1
 69
     0
  7
STANDARD
140
0.18
170
     5
 62
     0
 63
     7
283
     0
 90
      512
 91
        0
  1

274
    -2
284
     1
 64
     0
275
    -2
285
     1
 65
     0
276
    -2
286
     1
 66
     0
277
    -2
287
     1
 67
     0
278
    -2
288
     1
 68
     0
279
    -2
289
     1
 69
     0
  0
VISUALSTYLE
  5
629D
102
{ACAD_XDICTIONARY
360
669D
102
}
102
{ACAD_REACTORS
330
6297
102
}
330
6297
100
AcDbVisualStyle
  2

 70
     4
177
     3
291
     0
 70
    58
 90
        0
176
     1
 90
        2
176
     1
 90
        0
176
     1
 90
        0
176
     1
 40
0.6
176
     1
 40
30.0
176
     1
 62
     7
176
     1
 90
        1
176
     1
 90
        4
176
     1
 62
     7
176
     1
 62
   257
176
     1
 90
        1
176
     1
 90
        1
176
     1
 40
1.0
176
     1
 90
        0
176
     1
 62
   257
176
     1
 40
1.0
176
     1
 90
        1
176
     1
 90
        6
176
     1
 90
        2
176
     1
 62
     7
176
     1
 90
        5
176
     1
 90
        0
176
     1
 90
        0
176
     1
290
     0
176
     1
 90
        1
176
     1
 40
0.0
176
     1
 90
        0
176
     1
290
     1
176
     1
290
     1
176
     1
290
     0
176
     1
290
     0
176
     1
290
     0
176
     1
290
     0
176
     1
290
     0
176
     1
290
     0
176
     1
290
     0
176
     1
 90
       50
176
     1
 40
0.0
176
     1
 40
1.0
176
     1
 90
        0
176
     1
 62
    18
176
     1
 90
       50
176
     1
 90
        3
176
     1
 62
     5
420
      255
176
     1
290
     0
176
     1
 90
       50
176
     1
 90
       50
176
     1
 90
       50
176
     1
290
     0
176
     1
 90
       50
176
     1
 62
   256
176
     0
 40
1.0
176
     0
 90
        2
176
     1
  1
strokes_ogs.tif
176
     1
290
     0
176
     1
 40
1.0
176
     1
 40
1.0
176
     1
  0
VISUALSTYLE
  5
66D1
102
{ACAD_REACTORS
330
6297
102
}
330
6297
100
AcDbVisualStyle
  2
3D Hidden
 70
     6
177
     3
291
     0
 70
    58
 90
        1
176
     1
 90
        2
176
     1
 90
        2
176
     1
 90
        0
176
     1
 40
0.6
176
     1
 40
30.0
176
     1
 62
     7
420
 16777215
176
     1
 90
        2
176
     1
 90
        2
176
     1
 62
     7
176
     1
 62
   257
176
     1
 90
        2
176
     1
 90
        1
176
     1
 40
179.0
176
     1
 90
        0
176
     1
 62
   257
176
     1
 40
1.0
176
     1
 90
        1
176
     1
 90
        6
176
     1
 90
        2
176
     1
 62
     7
176
     1
 90
        3
176
     1
 90
        0
176
     1
 90
        0
176
     1
290
     0
176
     1
 90
        1
176
     1
 40
0.0
176
     1
 90
        0
176
     1
290
     0
176
     1
290
     1
176
     1
290
     1
176
     1
290
     0
176
     1
290
     0
176
     1
290
     0
176
     1
290
     0
176
     1
290
     0
176
     1
290
     0
176
     1
 90
       50
176
     1
 40
0.0
176
     1
 40
1.0
176
     1
 90
        0
176
     1
 62
    18
176
     1
 90
       50
176
     1
 90
        3
176
     1
 62
     5
420
      255
176
     1
290
     0
176
     1
 90
       50
176
     1
 90
       50
176
     1
 90
       50
176
     1
290
     0
176
     1
 90
       50
176
     1
 62
   256
176
     0
 40
1.0
176
     0
 90
        2
176
     1
  1
strokes_ogs.tif
176
     1
290
     0
176
     1
 40
1.0
176
     1
 40
1.0
176
     1
  0
VISUALSTYLE
  5
66D0
102
{ACAD_REACTORS
330
6297
102
}
330
6297
100
AcDbVisualStyle
  2
3dWireframe
 70
     5
177
     3
291
     0
 70
    58
 90
        0
176
     1
 90
        2
176
     1
 90
        0
176
     1
 90
        0
176
     1
 40
0.6
176
     1
 40
30.0
176
     1
 62
     7
420
 16777215
176
     1
 90
        1
176
     1
 90
        4
176
     1
 62
     7
176
     1
 62
   257
176
     1
 90
        1
176
     1
 90
        1
176
     1
 40
1.0
176
     1
 90
        0
176
     1
 62
   257
176
     1
 40
1.0
176
     1
 90
        1
176
     1
 90
        6
176
     1
 90
        2
176
     1
 62
     7
176
     1
 90
        5
176
     1
 90
        0
176
     1
 90
        0
176
     1
290
     0
176
     1
 90
        1
176
     1
 40
0.0
176
     1
 90
        0
176
     1
290
     0
176
     1
290
     1
176
     1
290
     1
176
     1
290
     0
176
     1
290
     0
176
     1
290
     0
176
     1
290
     0
176
     1
290
     0
176
     1
290
     0
176
     1
 90
       50
176
     1
 40
0.0
176
     1
 40
1.0
176
     1
 90
        0
176
     1
 62
    18
176
     1
 90
       50
176
     1
 90
        3
176
     1
 62
     5
420
      255
176
     1
290
     0
176
     1
 90
       50
176
     1
 90
       50
176
     1
 90
       50
176
     1
290
     0
176
     1
 90
       50
176
     1
 62
   256
176
     0
 40
1.0
176
     0
 90
        2
176
     1
  1
strokes_ogs.tif
176
     1
290
     0
176
     1
 40
1.0
176
     1
 40
1.0
176
     1
  0
VISUALSTYLE
  5
629C
102
{ACAD_XDICTIONARY
360
669B
102
}
102
{ACAD_REACTORS
330
6297
102
}
330
6297
100
AcDbVisualStyle
  2

 70
     7
177
     3
291
     1
 70
    58
 90
        1
176
     1
 90
        0
176
     1
 90
        1
176
     1
 90
        0
176
     1
 40
0.6
176
     1
 40
30.0
176
     1
 62
     7
176
     1
 90
        0
176
     1
 90
        4
176
     1
 62
     7
176
     1
 62
   257
176
     1
 90
        1
176
     1
 90
        1
176
     1
 40
1.0
176
     1
 90
        8
176
     1
 62
     7
176
     1
 40
1.0
176
     1
 90
        1
176
     1
 90
        6
176
     1
 90
        2
176
     1
 62
     7
176
     1
 90
        5
176
     1
 90
        0
176
     1
 90
        0
176
     1
290
     0
176
     1
 90
        1
176
     1
 40
0.0
176
     1
 90
        0
176
     1
290
     0
176
     1
290
     1
176
     1
290
     1
176
     1
290
     0
176
     1
290
     0
176
     1
290
     0
176
     1
290
     0
176
     1
290
     0
176
     1
290
     0
176
     1
 90
       50
176
     1
 40
0.0
176
     1
 40
1.0
176
     1
 90
        0
176
     1
 62
    18
176
     1
 90
       50
176
     1
 90
        3
176
     1
 62
     5
420
      255
176
     1
290
     0
176
     1
 90
       50
176
     1
 90
       50
176
     1
 90
       50
176
     1
290
     0
176
     1
 90
       50
176
     1
 62
   256
176
     0
 40
1.0
176
     0
 90
        2
176
     1
  1
strokes_ogs.tif
176
     1
290
     0
176
     1
 40
1.0
176
     1
 40
1.0
176
     1
  0
VISUALSTYLE
  5
62A3
102
{ACAD_XDICTIONARY
360
66A9
102
}
102
{ACAD_REACTORS
330
6297
102
}
330
6297
100
AcDbVisualStyle
  2

 70
    12
177
     3
291
     1
 70
    58
 90
        2
176
     1
 90
        2
176
     1
 90
        0
176
     1
 90
        0
176
     1
 40
0.6
176
     1
 40
30.0
176
     1
 62
     7
176
     1
 90
        1
176
     1
 90
        4
176
     1
 62
     7
176
     1
 62
   257
176
     1
 90
        1
176
     1
 90
        1
176
     1
 40
1.0
176
     1
 90
        8
176
     1
 62
     7
176
     1
 40
1.0
176
     1
 90
        1
176
     1
 90
        6
176
     1
 90
        2
176
     1
 62
     7
176
     1
 90
        5
176
     1
 90
        0
176
     1
 90
        0
176
     1
290
     0
176
     1
 90
        1
176
     1
 40
50.0
176
     1
 90
        0
176
     1
290
     0
176
     1
290
     1
176
     1
290
     1
176
     1
290
     0
176
     1
290
     0
176
     1
290
     0
176
     1
290
     0
176
     1
290
     0
176
     1
290
     0
176
     1
 90
       50
176
     1
 40
0.0
176
     1
 40
1.0
176
     1
 90
        0
176
     1
 62
    18
176
     1
 90
       50
176
     1
 90
        3
176
     1
 62
     5
420
      255
176
     1
290
     0
176
     1
 90
       50
176
     1
 90
       50
176
     1
 90
       50
176
     1
290
     0
176
     1
 90
       50
176
     1
 62
   256
176
     0
 40
1.0
176
     0
 90
        2
176
     1
  1
strokes_ogs.tif
176
     1
290
     0
176
     1
 40
1.0
176
     1
 40
1.0
176
     1
  0
VISUALSTYLE
  5
62A7
102
{ACAD_XDICTIONARY
360
66B1
102
}
102
{ACAD_REACTORS
330
6297
102
}
330
6297
100
AcDbVisualStyle
  2

 70
    16
177
     3
291
     1
 70
    58
 90
        2
176
     1
 90
        2
176
     1
 90
        3
176
     1
 90
        0
176
     1
 40
0.6
176
     1
 40
30.0
176
     1
 62
     8
176
     1
 90
        1
176
     1
 90
        4
176
     1
 62
     7
176
     1
 62
   257
176
     1
 90
        1
176
     1
 90
        1
176
     1
 40
1.0
176
     1
 90
        8
176
     1
 62
     8
176
     1
 40
1.0
176
     1
 90
        1
176
     1
 90
        6
176
     1
 90
        2
176
     1
 62
     7
176
     1
 90
        5
176
     1
 90
        0
176
     1
 90
        0
176
     1
290
     0
176
     1
 90
        1
176
     1
 40
0.0
176
     1
 90
        0
176
     1
290
     0
176
     1
290
     1
176
     1
290
     1
176
     1
290
     0
176
     1
290
     0
176
     1
290
     0
176
     1
290
     0
176
     1
290
     0
176
     1
290
     0
176
     1
 90
       50
176
     1
 40
0.0
176
     1
 40
1.0
176
     1
 90
        0
176
     1
 62
    18
176
     1
 90
       50
176
     1
 90
        3
176
     1
 62
     5
420
      255
176
     1
290
     0
176
     1
 90
       50
176
     1
 90
       50
176
     1
 90
       50
176
     1
290
     0
176
     1
 90
       50
176
     1
 62
   256
176
     0
 40
1.0
176
     0
 90
        2
176
     1
  1
strokes_ogs.tif
176
     1
290
     0
176
     1
 40
1.0
176
     1
 40
1.0
176
     1
  0
VISUALSTYLE
  5
62A0
102
{ACAD_XDICTIONARY
360
66A3
102
}
102
{ACAD_REACTORS
330
6297
102
}
330
6297
100
AcDbVisualStyle
  2

 70
     9
177
     3
291
     0
 70
    58
 90
        3
176
     1
 90
        2
176
     1
 90
        0
176
     1
 90
        0
176
     1
 40
0.6
176
     1
 40
30.0
176
     1
 62
     7
176
     1
 90
        2
176
     1
 90
        2
176
     1
 62
     7
176
     1
 62
   257
176
     1
 90
        1
176
     1
 90
        1
176
     1
 40
179.0
176
     1
 90
        8
176
     1
 62
     7
176
     1
 40
1.0
176
     1
 90
        1
176
     1
 90
        6
176
     1
 90
        2
176
     1
 62
     7
176
     1
 90
        3
176
     1
 90
        0
176
     1
 90
        0
176
     1
290
     0
176
     1
 90
        1
176
     1
 40
0.0
176
     1
 90
        0
176
     1
290
     0
176
     1
290
     1
176
     1
290
     1
176
     1
290
     0
176
     1
290
     0
176
     1
290
     0
176
     1
290
     0
176
     1
290
     0
176
     1
290
     0
176
     1
 90
       50
176
     1
 40
0.0
176
     1
 40
1.0
176
     1
 90
        0
176
     1
 62
    18
176
     1
 90
       50
176
     1
 90
        3
176
     1
 62
     5
420
      255
176
     1
290
     0
176
     1
 90
       50
176
     1
 90
       50
176
     1
 90
       50
176
     1
290
     0
176
     1
 90
       50
176
     1
 62
   256
176
     0
 40
1.0
176
     0
 90
        2
176
     1
  1
strokes_ogs.tif
176
     1
290
     0
176
     1
 40
1.0
176
     1
 40
1.0
176
     1
  0
VISUALSTYLE
  5
62A2
102
{ACAD_XDICTIONARY
360
66A7
102
}
102
{ACAD_REACTORS
330
6297
102
}
330
6297
100
AcDbVisualStyle
  2

 70
    11
177
     3
291
     1
 70
    58
 90
        2
176
     1
 90
        2
176
     1
 90
        0
176
     1
 90
        0
176
     1
 40
0.6
176
     1
 40
30.0
176
     1
 62
     7
176
     1
 90
        1
176
     1
 90
        4
176
     1
 62
     7
176
     1
 62
   257
176
     1
 90
        1
176
     1
 90
        1
176
     1
 40
1.0
176
     1
 90
        8
176
     1
 62
     7
176
     1
 40
1.0
176
     1
 90
        1
176
     1
 90
        6
176
     1
 90
        2
176
     1
 62
     7
176
     1
 90
        5
176
     1
 90
        0
176
     1
 90
        0
176
     1
290
     0
176
     1
 90
        1
176
     1
 40
-50.0
176
     1
 90
        0
176
     1
290
     0
176
     1
290
     1
176
     1
290
     1
176
     1
290
     0
176
     1
290
     0
176
     1
290
     0
176
     1
290
     0
176
     1
290
     0
176
     1
290
     0
176
     1
 90
       50
176
     1
 40
0.0
176
     1
 40
1.0
176
     1
 90
        0
176
     1
 62
    18
176
     1
 90
       50
176
     1
 90
        3
176
     1
 62
     5
420
      255
176
     1
290
     0
176
     1
 90
       50
176
     1
 90
       50
176
     1
 90
       50
176
     1
290
     0
176
     1
 90
       50
176
     1
 62
   256
176
     0
 40
1.0
176
     0
 90
        2
176
     1
  1
strokes_ogs.tif
176
     1
290
     0
176
     1
 40
1.0
176
     1
 40
1.0
176
     1
  0
VISUALSTYLE
  5
62AF
102
{ACAD_XDICTIONARY
360
66C1
102
}
102
{ACAD_REACTORS
330
6297
102
}
330
6297
100
AcDbVisualStyle
  2

 70
    22
177
     3
291
     1
 70
    58
 90
        2
176
     0
 90
        2
176
     0
 90
        0
176
     0
 90
        0
176
     0
 40
0.6
176
     0
 40
30.0
176
     0
 62
     7
176
     0
 90
        1
176
     0
 90
        4
176
     0
 62
     7
176
     0
 62
   257
176
     0
 90
        1
176
     0
 90
        1
176
     0
 40
1.0
176
     0
 90
        8
176
     2
 62
     7
176
     0
 40
1.0
176
     0
 90
        1
176
     0
 90
        6
176
     0
 90
        2
176
     0
 62
     7
176
     0
 90
        5
176
     0
 90
        0
176
     0
 90
        0
176
     0
290
     0
176
     0
 90
        1
176
     0
 40
0.0
176
     0
 90
        0
176
     0
290
     0
176
     1
290
     1
176
     1
290
     1
176
     1
290
     0
176
     1
290
     0
176
     1
290
     0
176
     1
290
     0
176
     1
290
     0
176
     1
290
     0
176
     1
 90
       50
176
     0
 40
0.0
176
     0
 40
1.0
176
     0
 90
        0
176
     0
 62
    18
176
     0
 90
       50
176
     0
 90
        3
176
     0
 62
     5
420
      255
176
     0
290
     0
176
     1
 90
       50
176
     0
 90
       50
176
     0
 90
       50
176
     0
290
     0
176
     1
 90
       50
176
     0
 62
   256
176
     0
 40
1.0
176
     0
 90
        2
176
     0
  1
strokes_ogs.tif
176
     0
290
     0
176
     1
 40
1.0
176
     0
 40
1.0
176
     0
  0
VISUALSTYLE
  5
62A6
102
{ACAD_XDICTIONARY
360
66AF
102
}
102
{ACAD_REACTORS
330
6297
102
}
330
6297
100
AcDbVisualStyle
  2

 70
    15
177
     3
291
     1
 70
    58
 90
        2
176
     1
 90
        2
176
     1
 90
        0
176
     1
 90
        0
176
     1
 40
0.6
176
     1
 40
30.0
176
     1
 62
     7
176
     1
 90
        1
176
     1
 90
        4
176
     1
 62
     7
176
     1
 62
   257
176
     1
 90
        1
176
     1
 90
        1
176
     1
 40
1.0
176
     1
 90
        8
176
     1
 62
     7
176
     1
 40
1.0
176
     1
 90
        1
176
     1
 90
        6
176
     1
 90
        2
176
     1
 62
     7
176
     1
 90
        5
176
     1
 90
        0
176
     1
 90
        0
176
     1
290
     0
176
     1
 90
        1
176
     1
 40
0.0
176
     1
 90
        0
176
     1
290
     0
176
     1
290
     1
176
     1
290
     1
176
     1
290
     0
176
     1
290
     0
176
     1
290
     0
176
     1
290
     0
176
     1
290
     0
176
     1
290
     0
176
     1
 90
       50
176
     1
 40
0.0
176
     1
 40
1.0
176
     1
 90
        0
176
     1
 62
    18
176
     1
 90
       50
176
     1
 90
        3
176
     1
 62
     5
420
      255
176
     1
290
     0
176
     1
 90
       50
176
     1
 90
       50
176
     1
 90
       50
176
     1
290
     0
176
     1
 90
       50
176
     1
 62
   256
176
     0
 40
1.0
176
     0
 90
        2
176
     1
  1
strokes_ogs.tif
176
     1
290
     0
176
     1
 40
1.0
176
     1
 40
1.0
176
     1
  0
VISUALSTYLE
  5
6298
102
{ACAD_XDICTIONARY
360
6693
102
}
102
{ACAD_REACTORS
330
6297
102
}
330
6297
100
AcDbVisualStyle
  2

 70
     0
177
     3
291
     1
 70
    58
 90
        2
176
     1
 90
        1
176
     1
 90
        1
176
     1
 90
        2
176
     1
 40
0.6
176
     1
 40
30.0
176
     1
 62
     7
176
     1
 90
        0
176
     1
 90
        0
176
     1
 62
     7
176
     1
 62
   257
176
     1
 90
        1
176
     1
 90
        1
176
     1
 40
1.0
176
     1
 90
        8
176
     1
 62
     7
176
     1
 40
1.0
176
     1
 90
        1
176
     1
 90
        6
176
     1
 90
        2
176
     1
 62
     7
176
     1
 90
        5
176
     1
 90
        0
176
     1
 90
        0
176
     1
290
     0
176
     1
 90
       13
176
     1
 40
0.0
176
     1
 90
        0
176
     1
290
     0
176
     1
290
     1
176
     1
290
     1
176
     1
290
     0
176
     1
290
     0
176
     1
290
     0
176
     1
290
     0
176
     1
290
     0
176
     1
290
     0
176
     1
 90
       50
176
     1
 40
0.0
176
     1
 40
1.0
176
     1
 90
        0
176
     1
 62
    18
176
     1
 90
       50
176
     1
 90
        3
176
     1
 62
     5
420
      255
176
     1
290
     0
176
     1
 90
       50
176
     1
 90
       50
176
     1
 90
       50
176
     1
290
     0
176
     1
 90
       50
176
     1
 62
   256
176
     0
 40
1.0
176
     0
 90
        2
176
     1
  1
strokes_ogs.tif
176
     1
290
     0
176
     1
 40
1.0
176
     1
 40
1.0
176
     1
  0
VISUALSTYLE
  5
6299
102
{ACAD_XDICTIONARY
360
6695
102
}
102
{ACAD_REACTORS
330
6297
102
}
330
6297
100
AcDbVisualStyle
  2

 70
     1
177
     3
291
     1
 70
    58
 90
        2
176
     1
 90
        1
176
     1
 90
        1
176
     1
 90
        2
176
     1
 40
0.6
176
     1
 40
30.0
176
     1
 62
     7
176
     1
 90
        1
176
     1
 90
        0
176
     1
 62
     7
176
     1
 62
   257
176
     1
 90
        1
176
     1
 90
        1
176
     1
 40
1.0
176
     1
 90
        0
176
     1
 62
   257
176
     1
 40
1.0
176
     1
 90
        1
176
     1
 90
        6
176
     1
 90
        2
176
     1
 62
     7
176
     1
 90
        5
176
     1
 90
        0
176
     1
 90
        0
176
     1
290
     0
176
     1
 90
       13
176
     1
 40
0.0
176
     1
 90
        0
176
     1
290
     0
176
     1
290
     1
176
     1
290
     1
176
     1
290
     0
176
     1
290
     0
176
     1
290
     0
176
     1
290
     0
176
     1
290
     0
176
     1
290
     0
176
     1
 90
       50
176
     1
 40
0.0
176
     1
 40
1.0
176
     1
 90
        0
176
     1
 62
    18
176
     1
 90
       50
176
     1
 90
        3
176
     1
 62
     5
420
      255
176
     1
290
     0
176
     1
 90
       50
176
     1
 90
       50
176
     1
 90
       50
176
     1
290
     0
176
     1
 90
       50
176
     1
 62
   256
176
     0
 40
1.0
176
     0
 90
        2
176
     1
  1
strokes_ogs.tif
176
     1
290
     0
176
     1
 40
1.0
176
     1
 40
1.0
176
     1
  0
VISUALSTYLE
  5
629A
102
{ACAD_XDICTIONARY
360
6697
102
}
102
{ACAD_REACTORS
330
6297
102
}
330
6297
100
AcDbVisualStyle
  2

 70
     2
177
     3
291
     1
 70
    58
 90
        2
176
     1
 90
        2
176
     1
 90
        1
176
     1
 90
        2
176
     1
 40
0.6
176
     1
 40
30.0
176
     1
 62
     7
176
     1
 90
        0
176
     1
 90
        0
176
     1
 62
     7
176
     1
 62
   257
176
     1
 90
        1
176
     1
 90
        1
176
     1
 40
1.0
176
     1
 90
        0
176
     1
 62
     7
176
     1
 40
1.0
176
     1
 90
        1
176
     1
 90
        6
176
     1
 90
        2
176
     1
 62
     7
176
     1
 90
        5
176
     1
 90
        0
176
     1
 90
        0
176
     1
290
     0
176
     1
 90
       13
176
     1
 40
0.0
176
     1
 90
        0
176
     1
290
     0
176
     1
290
     1
176
     1
290
     1
176
     1
290
     0
176
     1
290
     0
176
     1
290
     0
176
     1
290
     0
176
     1
290
     0
176
     1
290
     0
176
     1
 90
       50
176
     1
 40
0.0
176
     1
 40
1.0
176
     1
 90
        0
176
     1
 62
    18
176
     1
 90
       50
176
     1
 90
        3
176
     1
 62
     5
420
      255
176
     1
290
     0
176
     1
 90
       50
176
     1
 90
       50
176
     1
 90
       50
176
     1
290
     0
176
     1
 90
       50
176
     1
 62
   256
176
     0
 40
1.0
176
     0
 90
        2
176
     1
  1
strokes_ogs.tif
176
     1
290
     0
176
     1
 40
1.0
176
     1
 40
1.0
176
     1
  0
VISUALSTYLE
  5
629B
102
{ACAD_XDICTIONARY
360
6699
102
}
102
{ACAD_REACTORS
330
6297
102
}
330
6297
100
AcDbVisualStyle
  2

 70
     3
177
     3
291
     1
 70
    58
 90
        2
176
     1
 90
        2
176
     1
 90
        1
176
     1
 90
        2
176
     1
 40
0.6
176
     1
 40
30.0
176
     1
 62
     7
176
     1
 90
        1
176
     1
 90
        0
176
     1
 62
     7
176
     1
 62
   257
176
     1
 90
        1
176
     1
 90
        1
176
     1
 40
1.0
176
     1
 90
        0
176
     1
 62
   257
176
     1
 40
1.0
176
     1
 90
        1
176
     1
 90
        6
176
     1
 90
        2
176
     1
 62
     7
176
     1
 90
        5
176
     1
 90
        0
176
     1
 90
        0
176
     1
290
     0
176
     1
 90
       13
176
     1
 40
0.0
176
     1
 90
        0
176
     1
290
     0
176
     1
290
     1
176
     1
290
     1
176
     1
290
     0
176
     1
290
     0
176
     1
290
     0
176
     1
290
     0
176
     1
290
     0
176
     1
290
     0
176
     1
 90
       50
176
     1
 40
0.0
176
     1
 40
1.0
176
     1
 90
        0
176
     1
 62
    18
176
     1
 90
       50
176
     1
 90
        3
176
     1
 62
     5
420
      255
176
     1
290
     0
176
     1
 90
       50
176
     1
 90
       50
176
     1
 90
       50
176
     1
290
     0
176
     1
 90
       50
176
     1
 62
   256
176
     0
 40
1.0
176
     0
 90
        2
176
     1
  1
strokes_ogs.tif
176
     1
290
     0
176
     1
 40
1.0
176
     1
 40
1.0
176
     1
  0
VISUALSTYLE
  5
629F
102
{ACAD_XDICTIONARY
360
66A1
102
}
102
{ACAD_REACTORS
330
6297
102
}
330
6297
100
AcDbVisualStyle
  2

 70
     6
177
     3
291
     0
 70
    58
 90
        1
176
     1
 90
        2
176
     1
 90
        2
176
     1
 90
        0
176
     1
 40
0.6
176
     1
 40
30.0
176
     1
 62
     7
176
     1
 90
        2
176
     1
 90
        2
176
     1
 62
     7
176
     1
 62
   257
176
     1
 90
        2
176
     1
 90
        1
176
     1
 40
40.0
176
     1
 90
        0
176
     1
 62
   257
176
     1
 40
1.0
176
     1
 90
        1
176
     1
 90
        6
176
     1
 90
        2
176
     1
 62
     7
176
     1
 90
        3
176
     1
 90
        0
176
     1
 90
        0
176
     1
290
     0
176
     1
 90
        1
176
     1
 40
0.0
176
     1
 90
        0
176
     1
290
     0
176
     1
290
     1
176
     1
290
     1
176
     1
290
     0
176
     1
290
     0
176
     1
290
     0
176
     1
290
     0
176
     1
290
     0
176
     1
290
     0
176
     1
 90
       50
176
     1
 40
0.0
176
     1
 40
1.0
176
     1
 90
        0
176
     1
 62
    18
176
     1
 90
       50
176
     1
 90
        3
176
     1
 62
     5
420
      255
176
     1
290
     0
176
     1
 90
       50
176
     1
 90
       50
176
     1
 90
       50
176
     1
290
     0
176
     1
 90
       50
176
     1
 62
   256
176
     0
 40
1.0
176
     0
 90
        2
176
     1
  1
strokes_ogs.tif
176
     1
290
     0
176
     1
 40
1.0
176
     1
 40
1.0
176
     1
  0
VISUALSTYLE
  5
62AD
102
{ACAD_XDICTIONARY
360
66BD
102
}
102
{ACAD_REACTORS
330
6297
102
}
330
6297
100
AcDbVisualStyle
  2

 70
    20
177
     3
291
     1
 70
    58
 90
        2
176
     0
 90
        2
176
     0
 90
        0
176
     0
 90
        0
176
     0
 40
0.6
176
     0
 40
30.0
176
     0
 62
     7
176
     0
 90
        1
176
     0
 90
        4
176
     0
 62
     7
176
     0
 62
   257
176
     0
 90
        1
176
     0
 90
        1
176
     0
 40
1.0
176
     0
 90
       10
176
     2
 62
     7
176
     0
 40
1.0
176
     0
 90
        1
176
     0
 90
        6
176
     0
 90
        2
176
     0
 62
     7
176
     0
 90
        5
176
     0
 90
        0
176
     0
 90
        0
176
     0
290
     0
176
     0
 90
        1
176
     0
 40
0.0
176
     0
 90
        0
176
     0
290
     0
176
     1
290
     1
176
     1
290
     1
176
     1
290
     0
176
     1
290
     0
176
     1
290
     0
176
     1
290
     0
176
     1
290
     0
176
     1
290
     0
176
     1
 90
       50
176
     0
 40
0.0
176
     0
 40
1.0
176
     0
 90
        0
176
     0
 62
    18
176
     0
 90
       50
176
     0
 90
        3
176
     0
 62
     5
420
      255
176
     0
290
     0
176
     1
 90
       50
176
     0
 90
       50
176
     0
 90
       50
176
     0
290
     0
176
     1
 90
       50
176
     0
 62
   256
176
     0
 40
1.0
176
     0
 90
        2
176
     0
  1
strokes_ogs.tif
176
     0
290
     0
176
     1
 40
1.0
176
     0
 40
1.0
176
     0
  0
VISUALSTYLE
  5
62A5
102
{ACAD_XDICTIONARY
360
66AD
102
}
102
{ACAD_REACTORS
330
6297
102
}
330
6297
100
AcDbVisualStyle
  2

 70
    14
177
     3
291
     1
 70
    58
 90
        2
176
     1
 90
        2
176
     1
 90
        0
176
     1
 90
        0
176
     1
 40
0.6
176
     1
 40
30.0
176
     1
 62
     7
176
     1
 90
        1
176
     1
 90
        4
176
     1
 62
     7
176
     1
 62
   257
176
     1
 90
        7
176
     1
 90
        7
176
     1
 40
1.0
176
     1
 90
        8
176
     1
 62
     7
176
     1
 40
1.0
176
     1
 90
        1
176
     1
 90
        6
176
     1
 90
        2
176
     1
 62
     7
176
     1
 90
        5
176
     1
 90
        0
176
     1
 90
        0
176
     1
290
     0
176
     1
 90
        1
176
     1
 40
0.0
176
     1
 90
        0
176
     1
290
     0
176
     1
290
     1
176
     1
290
     1
176
     1
290
     0
176
     1
290
     0
176
     1
290
     0
176
     1
290
     0
176
     1
290
     0
176
     1
290
     0
176
     1
 90
       50
176
     1
 40
0.0
176
     1
 40
1.0
176
     1
 90
        0
176
     1
 62
    18
176
     1
 90
       50
176
     1
 90
        3
176
     1
 62
     5
420
      255
176
     1
290
     0
176
     1
 90
       50
176
     1
 90
       50
176
     1
 90
       50
176
     1
290
     0
176
     1
 90
       50
176
     1
 62
   256
176
     0
 40
1.0
176
     0
 90
        2
176
     1
  1
strokes_ogs.tif
176
     1
290
     0
176
     1
 40
1.0
176
     1
 40
1.0
176
     1
  0
VISUALSTYLE
  5
62AE
102
{ACAD_XDICTIONARY
360
66BF
102
}
102
{ACAD_REACTORS
330
6297
102
}
330
6297
100
AcDbVisualStyle
  2

 70
    21
177
     3
291
     1
 70
    58
 90
        2
176
     0
 90
        2
176
     0
 90
        0
176
     0
 90
        0
176
     0
 40
0.6
176
     0
 40
30.0
176
     0
 62
     7
176
     0
 90
        1
176
     0
 90
        4
176
     0
 62
     7
176
     0
 62
   257
176
     0
 90
        1
176
     0
 90
        1
176
     0
 40
1.0
176
     0
 90
        9
176
     2
 62
     7
176
     0
 40
1.0
176
     0
 90
        1
176
     0
 90
        6
176
     0
 90
        2
176
     0
 62
     7
176
     0
 90
        5
176
     0
 90
        0
176
     0
 90
        0
176
     0
290
     0
176
     0
 90
        1
176
     0
 40
0.0
176
     0
 90
        0
176
     0
290
     0
176
     1
290
     1
176
     1
290
     1
176
     1
290
     0
176
     1
290
     0
176
     1
290
     0
176
     1
290
     0
176
     1
290
     0
176
     1
290
     0
176
     1
 90
       50
176
     0
 40
0.0
176
     0
 40
1.0
176
     0
 90
        0
176
     0
 62
    18
176
     0
 90
       50
176
     0
 90
        3
176
     0
 62
     5
420
      255
176
     0
290
     0
176
     1
 90
       50
176
     0
 90
       50
176
     0
 90
       50
176
     0
290
     0
176
     1
 90
       50
176
     0
 62
   256
176
     0
 40
1.0
176
     0
 90
        2
176
     0
  1
strokes_ogs.tif
176
     0
290
     0
176
     1
 40
1.0
176
     0
 40
1.0
176
     0
  0
VISUALSTYLE
  5
62A1
102
{ACAD_XDICTIONARY
360
66A5
102
}
102
{ACAD_REACTORS
330
6297
102
}
330
6297
100
AcDbVisualStyle
  2

 70
     8
177
     3
291
     0
 70
    58
 90
        2
176
     1
 90
        3
176
     1
 90
        0
176
     1
 90
        2
176
     1
 40
0.6
176
     1
 40
30.0
176
     1
 62
     7
176
     1
 90
        0
176
     1
 90
        0
176
     1
 62
     7
176
     1
 62
   257
176
     1
 90
        1
176
     1
 90
        1
176
     1
 40
1.0
176
     1
 90
        8
176
     1
 62
   257
176
     1
 40
1.0
176
     1
 90
        1
176
     1
 90
        6
176
     1
 90
        2
176
     1
 62
     7
176
     1
 90
        3
176
     1
 90
        0
176
     1
 90
        0
176
     1
290
     0
176
     1
 90
       13
176
     1
 40
0.0
176
     1
 90
        0
176
     1
290
     0
176
     1
290
     1
176
     1
290
     1
176
     1
290
     0
176
     1
290
     0
176
     1
290
     0
176
     1
290
     0
176
     1
290
     0
176
     1
290
     0
176
     1
 90
       50
176
     1
 40
0.0
176
     1
 40
1.0
176
     1
 90
        0
176
     1
 62
    18
176
     1
 90
       50
176
     1
 90
        3
176
     1
 62
     5
420
      255
176
     1
290
     0
176
     1
 90
       50
176
     1
 90
       50
176
     1
 90
       50
176
     1
290
     0
176
     1
 90
       50
176
     1
 62
   256
176
     0
 40
1.0
176
     0
 90
        2
176
     1
  1
strokes_ogs.tif
176
     1
290
     0
176
     1
 40
1.0
176
     1
 40
1.0
176
     1
  0
VISUALSTYLE
  5
62AC
102
{ACAD_XDICTIONARY
360
66BB
102
}
102
{ACAD_REACTORS
330
6297
102
}
330
6297
100
AcDbVisualStyle
  2

 70
    27
177
     3
291
     0
 70
    58
 90
        2
176
     1
 90
        2
176
     1
 90
        1
176
     1
 90
        2
176
     1
 40
0.6
176
     1
 40
30.0
176
     1
 62
     7
176
     1
 90
        0
176
     1
 90
        4
176
     1
 62
     7
176
     1
 62
   257
176
     1
 90
        1
176
     1
 90
        1
176
     1
 40
1.0
176
     1
 90
        8
176
     1
 62
   257
176
     1
 40
1.0
176
     1
 90
        1
176
     1
 90
        6
176
     1
 90
        2
176
     1
 62
     8
176
     1
 90
        3
176
     1
 90
        0
176
     1
 90
        0
176
     1
290
     0
176
     1
 90
        5
176
     1
 40
0.0
176
     1
 90
        0
176
     1
290
     0
176
     1
290
     1
176
     1
290
     1
176
     1
290
     0
176
     1
290
     0
176
     1
290
     0
176
     1
290
     0
176
     1
290
     0
176
     1
290
     0
176
     1
 90
       50
176
     1
 40
0.0
176
     1
 40
1.0
176
     1
 90
        0
176
     1
 62
    18
176
     1
 90
       50
176
     1
 90
        3
176
     1
 62
     5
420
      255
176
     1
290
     0
176
     1
 90
       50
176
     1
 90
       50
176
     1
 90
       50
176
     1
290
     0
176
     1
 90
       50
176
     1
 62
   256
176
     0
 40
1.0
176
     0
 90
        2
176
     1
  1
strokes_ogs.tif
176
     1
290
     0
176
     1
 40
1.0
176
     1
 40
1.0
176
     1
  0
VISUALSTYLE
  5
62AB
102
{ACAD_XDICTIONARY
360
66B9
102
}
102
{ACAD_REACTORS
330
6297
102
}
330
6297
100
AcDbVisualStyle
  2

 70
    26
177
     3
291
     0
 70
    58
 90
        2
176
     1
 90
        2
176
     1
 90
        1
176
     1
 90
        2
176
     1
 40
0.6
176
     1
 40
30.0
176
     1
 62
     7
176
     1
 90
        1
176
     1
 90
        2
176
     1
 62
     7
176
     1
 62
   257
176
     1
 90
        2
176
     1
 90
        1
176
     1
 40
1.0
176
     1
 90
        8
176
     1
 62
   257
176
     1
 40
1.0
176
     1
 90
        1
176
     1
 90
        6
176
     1
 90
        2
176
     1
 62
     7
176
     1
 90
        3
176
     1
 90
        0
176
     1
 90
        0
176
     1
290
     0
176
     1
 90
        5
176
     1
 40
0.0
176
     1
 90
        0
176
     1
290
     0
176
     1
290
     1
176
     1
290
     1
176
     1
290
     0
176
     1
290
     0
176
     1
290
     0
176
     1
290
     0
176
     1
290
     0
176
     1
290
     0
176
     1
 90
       50
176
     1
 40
0.0
176
     1
 40
1.0
176
     1
 90
        0
176
     1
 62
    18
176
     1
 90
       50
176
     1
 90
        3
176
     1
 62
     5
420
      255
176
     1
290
     0
176
     1
 90
       50
176
     1
 90
       50
176
     1
 90
       50
176
     1
290
     0
176
     1
 90
       50
176
     1
 62
   256
176
     0
 40
1.0
176
     0
 90
        2
176
     1
  1
strokes_ogs.tif
176
     1
290
     0
176
     1
 40
1.0
176
     1
 40
1.0
176
     1
  0
VISUALSTYLE
  5
62A8
102
{ACAD_XDICTIONARY
360
66B3
102
}
102
{ACAD_REACTORS
330
6297
102
}
330
6297
100
AcDbVisualStyle
  2

 70
    23
177
     3
291
     0
 70
    58
 90
        2
176
     1
 90
        2
176
     1
 90
        3
176
     1
 90
        0
176
     1
 40
0.6
176
     1
 40
30.0
176
     1
 62
     7
176
     1
 90
        2
176
     1
 90
        2
176
     1
 62
     7
176
     1
 62
     7
176
     1
 90
        1
176
     1
 90
        1
176
     1
 40
40.0
176
     1
 90
        8
176
     1
 62
     7
176
     1
 40
1.0
176
     1
 90
        1
176
     1
 90
        6
176
     1
 90
        2
176
     1
 62
     7
176
     1
 90
        3
176
     1
 90
        0
176
     1
 90
        0
176
     1
290
     0
176
     1
 90
        1
176
     1
 40
0.0
176
     1
 90
        0
176
     1
290
     0
176
     1
290
     1
176
     1
290
     1
176
     1
290
     0
176
     1
290
     0
176
     1
290
     0
176
     1
290
     0
176
     1
290
     0
176
     1
290
     0
176
     1
 90
       50
176
     1
 40
0.0
176
     1
 40
1.0
176
     1
 90
        0
176
     1
 62
    18
176
     1
 90
       50
176
     1
 90
        3
176
     1
 62
     5
420
      255
176
     1
290
     0
176
     1
 90
       50
176
     1
 90
       50
176
     1
 90
       50
176
     1
290
     0
176
     1
 90
       50
176
     1
 62
   256
176
     0
 40
1.0
176
     0
 90
        2
176
     1
  1
strokes_ogs.tif
176
     1
290
     0
176
     1
 40
1.0
176
     1
 40
1.0
176
     1
  0
VISUALSTYLE
  5
62A9
102
{ACAD_XDICTIONARY
360
66B5
102
}
102
{ACAD_REACTORS
330
6297
102
}
330
6297
100
AcDbVisualStyle
  2

 70
    24
177
     3
291
     0
 70
    58
 90
        1
176
     1
 90
        2
176
     1
 90
        2
176
     1
 90
        0
176
     1
 40
0.6
176
     1
 40
30.0
176
     1
 62
     7
176
     1
 90
        2
176
     1
 90
        2
176
     1
 62
     7
176
     1
 62
     7
176
     1
 90
        1
176
     1
 90
        1
176
     1
 40
40.0
176
     1
 90
       11
176
     1
 62
     7
176
     1
 40
1.0
176
     1
 90
        1
176
     1
 90
        6
176
     1
 90
        2
176
     1
 62
     7
176
     1
 90
        6
176
     1
 90
        0
176
     1
 90
        0
176
     1
290
     0
176
     1
 90
        1
176
     1
 40
0.0
176
     1
 90
        0
176
     1
290
     0
176
     1
290
     1
176
     1
290
     1
176
     1
290
     0
176
     1
290
     0
176
     1
290
     0
176
     1
290
     0
176
     1
290
     0
176
     1
290
     0
176
     1
 90
       50
176
     1
 40
0.0
176
     1
 40
1.0
176
     1
 90
        0
176
     1
 62
    18
176
     1
 90
       50
176
     1
 90
        3
176
     1
 62
     5
420
      255
176
     1
290
     0
176
     1
 90
       50
176
     1
 90
       50
176
     1
 90
       50
176
     1
290
     0
176
     1
 90
       50
176
     1
 62
   256
176
     0
 40
1.0
176
     0
 90
        2
176
     1
  1
strokes_ogs.tif
176
     1
290
     0
176
     1
 40
1.0
176
     1
 40
1.0
176
     1
  0
VISUALSTYLE
  5
62A4
102
{ACAD_XDICTIONARY
360
66AB
102
}
102
{ACAD_REACTORS
330
6297
102
}
330
6297
100
AcDbVisualStyle
  2

 70
    13
177
     3
291
     1
 70
    58
 90
        2
176
     1
 90
        2
176
     1
 90
        0
176
     1
 90
        0
176
     1
 40
0.6
176
     1
 40
30.0
176
     1
 62
     7
176
     1
 90
        1
176
     1
 90
        4
176
     1
 62
     7
176
     1
 62
   257
176
     1
 90
        1
176
     1
 90
        1
176
     1
 40
1.0
176
     1
 90
       12
176
     1
 62
     7
176
     1
 40
1.0
176
     1
 90
        1
176
     1
 90
        6
176
     1
 90
        2
176
     1
 62
     7
176
     1
 90
        5
176
     1
 90
        0
176
     1
 90
        0
176
     1
290
     0
176
     1
 90
        1
176
     1
 40
0.0
176
     1
 90
        0
176
     1
290
     0
176
     1
290
     1
176
     1
290
     1
176
     1
290
     0
176
     1
290
     0
176
     1
290
     0
176
     1
290
     0
176
     1
290
     0
176
     1
290
     0
176
     1
 90
       50
176
     1
 40
0.0
176
     1
 40
1.0
176
     1
 90
        0
176
     1
 62
    18
176
     1
 90
       50
176
     1
 90
        3
176
     1
 62
     5
420
      255
176
     1
290
     0
176
     1
 90
       50
176
     1
 90
       50
176
     1
 90
       50
176
     1
290
     0
176
     1
 90
       50
176
     1
 62
   256
176
     0
 40
1.0
176
     0
 90
        2
176
     1
  1
strokes_ogs.tif
176
     1
290
     0
176
     1
 40
1.0
176
     1
 40
1.0
176
     1
  0
VISUALSTYLE
  5
629E
102
{ACAD_XDICTIONARY
360
669F
102
}
102
{ACAD_REACTORS
330
6297
102
}
330
6297
100
AcDbVisualStyle
  2

 70
     5
177
     3
291
     0
 70
    58
 90
        0
176
     1
 90
        2
176
     1
 90
        0
176
     1
 90
        0
176
     1
 40
0.6
176
     1
 40
30.0
176
     1
 62
     7
176
     1
 90
        1
176
     1
 90
        4
176
     1
 62
     7
176
     1
 62
   257
176
     1
 90
        1
176
     1
 90
        1
176
     1
 40
1.0
176
     1
 90
        0
176
     1
 62
   257
176
     1
 40
1.0
176
     1
 90
        1
176
     1
 90
        6
176
     1
 90
        2
176
     1
 62
     7
176
     1
 90
        3
176
     1
 90
        0
176
     1
 90
        0
176
     1
290
     0
176
     1
 90
        1
176
     1
 40
0.0
176
     1
 90
        0
176
     1
290
     0
176
     1
290
     1
176
     1
290
     1
176
     1
290
     0
176
     1
290
     0
176
     1
290
     0
176
     1
290
     0
176
     1
290
     0
176
     1
290
     0
176
     1
 90
       50
176
     1
 40
0.0
176
     1
 40
1.0
176
     1
 90
        0
176
     1
 62
    18
176
     1
 90
       50
176
     1
 90
        3
176
     1
 62
     5
420
      255
176
     1
290
     0
176
     1
 90
       50
176
     1
 90
       50
176
     1
 90
       50
176
     1
290
     0
176
     1
 90
       50
176
     1
 62
   256
176
     0
 40
1.0
176
     0
 90
        2
176
     1
  1
strokes_ogs.tif
176
     1
290
     0
176
     1
 40
1.0
176
     1
 40
1.0
176
     1
  0
VISUALSTYLE
  5
62AA
102
{ACAD_XDICTIONARY
360
66B7
102
}
102
{ACAD_REACTORS
330
6297
102
}
330
6297
100
AcDbVisualStyle
  2

 70
    25
177
     3
291
     0
 70
    58
 90
        2
176
     1
 90
        2
176
     1
 90
        1
176
     1
 90
        1
176
     1
 40
0.5
176
     1
 40
30.0
176
     1
 62
     7
176
     1
 90
        1
176
     1
 90
        0
176
     1
 62
     7
176
     1
 62
   257
176
     1
 90
        1
176
     1
 90
        1
176
     1
 40
1.0
176
     1
 90
        8
176
     1
 62
     7
176
     1
 40
1.0
176
     1
 90
        1
176
     1
 90
        6
176
     1
 90
        2
176
     1
 62
     7
176
     1
 90
        3
176
     1
 90
        0
176
     1
 90
        0
176
     1
290
     0
176
     1
 90
       13
176
     1
 40
0.0
176
     1
 90
        0
176
     1
290
     0
176
     1
290
     1
176
     1
290
     1
176
     1
290
     0
176
     1
290
     0
176
     1
290
     0
176
     1
290
     0
176
     1
290
     0
176
     1
290
     0
176
     1
 90
       50
176
     1
 40
0.0
176
     1
 40
1.0
176
     1
 90
        0
176
     1
 62
    18
176
     1
 90
       50
176
     1
 90
        3
176
     1
 62
     5
420
      255
176
     1
290
     0
176
     1
 90
       50
176
     1
 90
       50
176
     1
 90
       50
176
     1
290
     0
176
     1
 90
       50
176
     1
 62
   256
176
     0
 40
1.0
176
     0
 90
        2
176
     1
  1
strokes_ogs.tif
176
     1
290
     0
176
     1
 40
1.0
176
     1
 40
1.0
176
     1
  0
DICTIONARYVAR
  5
6384
102
{ACAD_REACTORS
330
5697
102
}
330
5697
100
DictionaryVariables
280
     0
  1
1:1
  0
DICTIONARYVAR
  5
6381
102
{ACAD_REACTORS
330
5697
102
}
330
5697
100
DictionaryVariables
280
     0
  1
STANDARD
  0
DICTIONARYVAR
  5
6380
102
{ACAD_REACTORS
330
5697
102
}
330
5697
100
DictionaryVariables
280
     0
  1
STANDARD
  0
DICTIONARYVAR
  5
6382
102
{ACAD_REACTORS
330
5697
102
}
330
5697
100
DictionaryVariables
280
     0
  1
Imperial24
  0
DICTIONARYVAR
  5
6383
102
{ACAD_REACTORS
330
5697
102
}
330
5697
100
DictionaryVariables
280
     0
  1
Imperial24
  0
DICTIONARYVAR
  5
5698
102
{ACAD_REACTORS
330
5697
102
}
330
5697
100
DictionaryVariables
280
     0
  1
1
  0
DICTIONARYVAR
  5
6386
102
{ACAD_REACTORS
330
5697
102
}
330
5697
100
DictionaryVariables
280
     0
  1
0
  0
DICTIONARYVAR
  5
66D5
102
{ACAD_REACTORS
330
5697
102
}
330
5697
100
DictionaryVariables
280
     0
  1
1
  0
DICTIONARYVAR
  5
66D6
102
{ACAD_REACTORS
330
5697
102
}
330
5697
100
DictionaryVariables
280
     0
  1
15
  0
DICTIONARYVAR
  5
66D4
102
{ACAD_REACTORS
330
5697
102
}
330
5697
100
DictionaryVariables
280
     0
  1
0
  0
DICTIONARYVAR
  5
66D3
102
{ACAD_REACTORS
330
5697
102
}
330
5697
100
DictionaryVariables
280
     0
  1
0
  0
DICTIONARYVAR
  5
6385
102
{ACAD_REACTORS
330
5697
102
}
330
5697
100
DictionaryVariables
280
     0
  1
127
  0
XRECORD
  5
10EF2
102
{ACAD_XDICTIONARY
360
10EF3
102
}
102
{ACAD_REACTORS
330
FF71
102
}
330
FF71
100
AcDbXrecord
280
     1
 91
    67583
301

290
     0
302
10
330
10619
 90
        8
 62
     7
370
    -3
331
15
  1
色_7
440
        0
330
6AEB
 90
        8
 62
     7
370
    -3
331
6AE6
  1
色_7
440
        0
330
5C47
 90
        8
 62
     2
370
    -3
331
24
  1
色_2
440
        0
330
3BBA
 90
        8
 62
     5
370
    -3
331
4C47
  1
色_5
440
        0
330
3A4
 90
        0
 62
     7
370
    -3
331
15
  1
色_7
440
        0
330
3A2
 90
        8
 62
     9
370
    -3
331
15
  1
色_9
440
        0
330
3D
 90
        8
 62
     2
370
    -3
331
22
  1
色_2
440
        0
330
3C
 90
        8
 62
     1
370
    -3
331
22
  1
色_1
440
        0
330
35
 90
        8
 62
     6
370
    -3
331
24
  1
色_6
440
        0
330
31
 90
        8
 62
     3
370
    -3
331
22
  1
色_3
440
        0
330
2F
 90
        8
 62
     4
370
    -3
331
22
  1
色_4
440
        0
330
10
 90
        8
 62
     7
370
    -3
331
22
  1
色_7
440
        0
  0
DICTIONARY
  5
10EBB
330
62CA
100
AcDbDictionary
280
     1
281
     1
  3
ACAD_XREC_ROUNDTRIP
360
10F27
  0
DICTIONARY
  5
10EBF
330
6AFE
100
AcDbDictionary
280
     1
281
     1
  3
ACAD_XREC_ROUNDTRIP
360
10F29
  0
DICTIONARY
  5
FF76
330
6262
100
AcDbDictionary
280
     1
281
     1
  0
DICTIONARY
  5
6288
330
6287
100
AcDbDictionary
280
     1
281
     1
  3
ACAD_XREC_ROUNDTRIP
360
64A9
  3
BUMPTILE
360
628A
  3
DIFFUSETILE
360
6289
  3
OPACITYTILE
360
628D
  3
REFLECTIONTILE
360
628C
  3
REFRACTIONTILE
360
628E
  3
SPECULARTILE
360
628B
  0
DICTIONARY
  5
6280
330
627F
100
AcDbDictionary
280
     1
281
     1
  3
ACAD_XREC_ROUNDTRIP
360
64A8
  3
BUMPTILE
360
6282
  3
DIFFUSETILE
360
6281
  3
OPACITYTILE
360
6285
  3
REFLECTIONTILE
360
6284
  3
REFRACTIONTILE
360
6286
  3
SPECULARTILE
360
6283
  0
DICTIONARY
  5
6290
330
628F
100
AcDbDictionary
280
     1
281
     1
  3
ACAD_XREC_ROUNDTRIP
360
64AA
  3
BUMPTILE
360
6292
  3
DIFFUSETILE
360
6291
  3
FBXASSET
360
63D7
  3
OPACITYTILE
360
6295
  3
REFLECTIONTILE
360
6294
  3
REFRACTIONTILE
360
6296
  3
SPECULARTILE
360
6293
  0
DICTIONARY
  5
10EB9
330
62C8
100
AcDbDictionary
280
     1
281
     1
  3
ACAD_XREC_ROUNDTRIP
360
10F26
  0
DICTIONARY
  5
10EBD
330
6AFD
100
AcDbDictionary
280
     1
281
     1
  3
ACAD_XREC_ROUNDTRIP
360
10F28
  0
DICTIONARY
  5
649A
330
62B2
100
AcDbDictionary
280
     1
281
     1
  3
ACAD_ROUNDTRIP_2008_TABLESTYLE_CELLSTYLEMAP
360
10F25
  0
DICTIONARY
  5
669D
330
629D
100
AcDbDictionary
280
     1
281
     1
  3
ACAD_XREC_ROUNDTRIP
360
669E
  0
DICTIONARY
  5
669B
330
629C
100
AcDbDictionary
280
     1
281
     1
  3
ACAD_XREC_ROUNDTRIP
360
669C
  0
DICTIONARY
  5
66A9
330
62A3
100
AcDbDictionary
280
     1
281
     1
  3
ACAD_XREC_ROUNDTRIP
360
66AA
  0
DICTIONARY
  5
66B1
330
62A7
100
AcDbDictionary
280
     1
281
     1
  3
ACAD_XREC_ROUNDTRIP
360
66B2
  0
DICTIONARY
  5
66A3
330
62A0
100
AcDbDictionary
280
     1
281
     1
  3
ACAD_XREC_ROUNDTRIP
360
66A4
  0
DICTIONARY
  5
66A7
330
62A2
100
AcDbDictionary
280
     1
281
     1
  3
ACAD_XREC_ROUNDTRIP
360
66A8
  0
DICTIONARY
  5
66C1
330
62AF
100
AcDbDictionary
280
     1
281
     1
  3
ACAD_XREC_ROUNDTRIP
360
66C2
  0
DICTIONARY
  5
66AF
330
62A6
100
AcDbDictionary
280
     1
281
     1
  3
ACAD_XREC_ROUNDTRIP
360
66B0
  0
DICTIONARY
  5
6693
330
6298
100
AcDbDictionary
280
     1
281
     1
  3
ACAD_XREC_ROUNDTRIP
360
6694
  0
DICTIONARY
  5
6695
330
6299
100
AcDbDictionary
280
     1
281
     1
  3
ACAD_XREC_ROUNDTRIP
360
6696
  0
DICTIONARY
  5
6697
330
629A
100
AcDbDictionary
280
     1
281
     1
  3
ACAD_XREC_ROUNDTRIP
360
6698
  0
DICTIONARY
  5
6699
330
629B
100
AcDbDictionary
280
     1
281
     1
  3
ACAD_XREC_ROUNDTRIP
360
669A
  0
DICTIONARY
  5
66A1
330
629F
100
AcDbDictionary
280
     1
281
     1
  3
ACAD_XREC_ROUNDTRIP
360
66A2
  0
DICTIONARY
  5
66BD
330
62AD
100
AcDbDictionary
280
     1
281
     1
  3
ACAD_XREC_ROUNDTRIP
360
66BE
  0
DICTIONARY
  5
66AD
330
62A5
100
AcDbDictionary
280
     1
281
     1
  3
ACAD_XREC_ROUNDTRIP
360
66AE
  0
DICTIONARY
  5
66BF
330
62AE
100
AcDbDictionary
280
     1
281
     1
  3
ACAD_XREC_ROUNDTRIP
360
66C0
  0
DICTIONARY
  5
66A5
330
62A1
100
AcDbDictionary
280
     1
281
     1
  3
ACAD_XREC_ROUNDTRIP
360
66A6
  0
DICTIONARY
  5
66BB
330
62AC
100
AcDbDictionary
280
     1
281
     1
  3
ACAD_XREC_ROUNDTRIP
360
66BC
  0
DICTIONARY
  5
66B9
330
62AB
100
AcDbDictionary
280
     1
281
     1
  3
ACAD_XREC_ROUNDTRIP
360
66BA
  0
DICTIONARY
  5
66B3
330
62A8
100
AcDbDictionary
280
     1
281
     1
  3
ACAD_XREC_ROUNDTRIP
360
66B4
  0
DICTIONARY
  5
66B5
330
62A9
100
AcDbDictionary
280
     1
281
     1
  3
ACAD_XREC_ROUNDTRIP
360
66B6
  0
DICTIONARY
  5
66AB
330
62A4
100
AcDbDictionary
280
     1
281
     1
  3
ACAD_XREC_ROUNDTRIP
360
66AC
  0
DICTIONARY
  5
669F
330
629E
100
AcDbDictionary
280
     1
281
     1
  3
ACAD_XREC_ROUNDTRIP
360
66A0
  0
DICTIONARY
  5
66B7
330
62AA
100
AcDbDictionary
280
     1
281
     1
  3
ACAD_XREC_ROUNDTRIP
360
66B8
  0
DICTIONARY
  5
10EF3
330
10EF2
100
AcDbDictionary
280
     1
281
     1
  3
AcadLayerStateAnnoScale
360
10EF4
  0
XRECORD
  5
10F27
102
{ACAD_REACTORS
330
10EBB
102
}
330
10EBB
100
AcDbXrecord
280
     1
102
DISPLAYNAME
  1

102
FLAGS
 90
        0
  0
XRECORD
  5
10F29
102
{ACAD_REACTORS
330
10EBF
102
}
330
10EBF
100
AcDbXrecord
280
     1
102
DISPLAYNAME
  1
Metric50
102
FLAGS
 90
        0
  0
XRECORD
  5
64A9
102
{ACAD_REACTORS
330
6288
102
}
330
6288
100
AcDbXrecord
280
     1
102
MATERIAL
148
0.0
149
0.0
149
0.0
 93
        0
 94
      127
282
     0
 72
     0
 77
     0
171
     0
175
     0
179
     0
273
     0
  0
XRECORD
  5
628A
102
{ACAD_REACTORS
330
6288
102
}
330
6288
100
AcDbXrecord
280
     1
270
     1
271
     1
  0
XRECORD
  5
6289
102
{ACAD_REACTORS
330
6288
102
}
330
6288
100
AcDbXrecord
280
     1
270
     1
271
     1
  0
XRECORD
  5
628D
102
{ACAD_REACTORS
330
6288
102
}
330
6288
100
AcDbXrecord
280
     1
270
     1
271
     1
  0
XRECORD
  5
628C
102
{ACAD_REACTORS
330
6288
102
}
330
6288
100
AcDbXrecord
280
     1
270
     1
271
     1
  0
XRECORD
  5
628E
102
{ACAD_REACTORS
330
6288
102
}
330
6288
100
AcDbXrecord
280
     1
270
     1
271
     1
  0
XRECORD
  5
628B
102
{ACAD_REACTORS
330
6288
102
}
330
6288
100
AcDbXrecord
280
     1
270
     1
271
     1
  0
XRECORD
  5
64A8
102
{ACAD_REACTORS
330
6280
102
}
330
6280
100
AcDbXrecord
280
     1
102
MATERIAL
148
0.0
149
0.0
149
0.0
 93
        0
 94
      127
282
     0
 72
     0
 77
     0
171
     0
175
     0
179
     0
273
     0
  0
XRECORD
  5
6282
102
{ACAD_REACTORS
330
6280
102
}
330
6280
100
AcDbXrecord
280
     1
270
     1
271
     1
  0
XRECORD
  5
6281
102
{ACAD_REACTORS
330
6280
102
}
330
6280
100
AcDbXrecord
280
     1
270
     1
271
     1
  0
XRECORD
  5
6285
102
{ACAD_REACTORS
330
6280
102
}
330
6280
100
AcDbXrecord
280
     1
270
     1
271
     1
  0
XRECORD
  5
6284
102
{ACAD_REACTORS
330
6280
102
}
330
6280
100
AcDbXrecord
280
     1
270
     1
271
     1
  0
XRECORD
  5
6286
102
{ACAD_REACTORS
330
6280
102
}
330
6280
100
AcDbXrecord
280
     1
270
     1
271
     1
  0
XRECORD
  5
6283
102
{ACAD_REACTORS
330
6280
102
}
330
6280
100
AcDbXrecord
280
     1
270
     1
271
     1
  0
XRECORD
  5
64AA
102
{ACAD_REACTORS
330
6290
102
}
330
6290
100
AcDbXrecord
280
     1
102
MATERIAL
148
0.0
149
0.0
149
0.0
 93
        0
 94
      127
282
     0
 72
     0
 77
     0
171
     0
175
     0
179
     0
273
     0
  0
XRECORD
  5
6292
102
{ACAD_REACTORS
330
6290
102
}
330
6290
100
AcDbXrecord
280
     1
270
     1
271
     1
  0
XRECORD
  5
6291
102
{ACAD_REACTORS
330
6290
102
}
330
6290
100
AcDbXrecord
280
     1
270
     1
271
     1
  0
XRECORD
  5
63D7
102
{ACAD_REACTORS
330
6290
102
}
330
6290
100
AcDbXrecord
280
     1
 70
     1
 90
652598616
 71
     1
  1
E9D7140A-5182-4D1A-8DAF-B29BB4741B8E
311
504B030414000608080054756A488F956FB8DA000000200100004F00000046353733343737332D383136372D343130432D424146432D4533333435423933463535312F4173736574446174612F446566696E6974696F6E4974657261746F7250726F706572746965732E62696E454E3D6FC23010753B5075E8C03F40ECAE3F
311
B00244404580742A0B9DBAA0C31C6924C741B62375ECD87FDDDA828A93DEBDFB7C773F8490DFABC590DC457C47FF14F9152DBA5AEFF42736407AA962DA0398875BEF3E86295DE3093A13D2D65BED351A0316DBCEF76FA38306429403F39C961E23FE0B3E29549763E9FE3622BD94188EE7FC05BCC73067A7C317DB2C0BB91E
311
97059D8A72495526059D64AB0D559372C5A75C48A10AE6D0B79DD3E899647C7F55DE9F6D85F3A17618FF380E17928B8CF21115FC5DA85CC95C898F190B75838B990FAEB6D5C042F307504B030414000608080054756A4803B7991C25010000300200004500000046353733343737332D383136372D343130432D424146432D
311
4533333435423933463535312F4173736574446174612F496E7374616E636550726F706572746965732E62696EEB606060F80F0540260323103700495E20ED9E9A975A94991C9C9C919A9BA8021470B5743137343170D43535B430D235713174D4B5707174D37532B274723231373174B270654768046931363471713532B5
311
D435353131D635313332D475727372D13534373670367376B67474B5042A03DBCBA019D37FE8ABC6157B20CD04146B0062181F4C03F940F0C11EA29A8141C08141002C0426541C106CAC2CA046088033B02A030AC2157C6006F21A8018AAF50194E6010A610250382264E08660284CD9E98021862280A91564B406929A0FF6
311
2C401E28B6F88038B83CB1243943D7A928312F25350524B3C02C4569470543830283ACF88FBF3DB61C40311088E1284984B018181CCA2FD882D8E5AC3011042D9DFC8661F2C4979ED316F5CD64ADB3B90D930100504B030414000608080054756A4828BB58AF800100009E0500003D00000046353733343737332D38313637
311
2D343130432D424146432D4533333435423933463535312F536368656D61732F436F6D6D6F6E536368656D612E786D6CBD544D4FC23018BEFB2B96DE15493C78601010A34B880709DEDFB52FD0D8B54BD70DF6EFED3AC0B12E6442E2716BFB3CEFF3D18E26FB440405EA8C2B1992E1C323095052C5B8DC842437EBFB673219
311
DF8DA659866649B798C078B48AE6410122242F2A4994AC7F93815DF85C049C8564CA0A901499DD886B2EB9B1E02448F358701A9235880C49A0119892A20C89D1B9FD768815CAD268CB5E0355B40B1E47F3E37A2020464BED06AA57CE8FCC20C3C3446D46761A2632A8C1283D07031EFF2AE7CCB1BFEEE916E406DFAC8E36FF
311
D99A9D60A6944090EEDC3B670C7DC13DE86B6B2C5C240D6E503BB85ACD579D513F1B9F9A69DC9CC22AFA80C426D40AF0B21EA168559156B6276F0F726A6BFF04DCD513A87A62CAD41FB24FCB2858B3952E3D852084DA25B9303C15687973CC8E8AAE11DF2836C38C6A9E765E8C1BA1BFB1DC29CDFE518C8B5A7655A4ED7E77
311
291ABEB80DBD82EC866ADE1B8D05AF9E35CF09D7A061F38A986D9EC412B8F0F65E5D81534D9B231D1E5A8FE577A241F3A5FD01504B030414000608080054756A482CCEBD668A040000E01200003E00000046353733343737332D383136372D343130432D424146432D4533333435423933463535312F536368656D61732F47
311
656E65726963536368656D612E786D6CD5586D6FDB380CFE7EBF42F0F7A649B70E1B90744856B4970F450FCD7A5F05459613EDE4174872DADCAF3F522F8ED3B88D2F1D06AC4050DBA2493EE4438AF2F8EB73AEC8466823CB62928C06C384888297A92C5693A4B6D9D9E7E4EBD51FE3A931C22EF85AE4EC6AFC38BF261BA626
311
C9AD288496DC3F4FCEAFC63366845F7A10452AF41DB320C0D44EC26EAB20918735565582695670811A6A49643A49A6E9069FA4604A64B29016DC4B48552F95E4932463CA888468C1D2B250DB4962750DF7CE273069CE8363F1FF4EDB00E0A21999574AE4A2B00C353B93F3BD4777B8A61ED8F604ABFEDD79CE56A2B7BDFBDB
311
C50996E0ADDE16FED26223C5D30956C29BDF4A55EA686E5E58B112DA45CE67F76F4FA27EFA3FB672FD7372FC388FAECDCA5209E693CAD167BADCD272F943701B3812F8A3D852008B1D2E32DB927B2F833C6EA95879925356D254582695095A3CE982924720BE5774A3CB9CDCDB350427D2DF20DA1B5532EBE2D5D6288D75D4
311
F7E4FD9890A0EF8E3D93EBB8F8BA4758158EF6FB90A6F9520281C93DE7AAC6D24607DA296BB96018123F821A7D6A5C5884050C475DA4865442732C8B95684A50165CBB3A32F25F783A4A480ED59AD7F924B968AEA50131F46303223E6A397B0E52976030DC1DCA81D7E7C1EDEEA42C19FF27635C505E2BD5198A599020DF50
311
A2330FCB3AAF28CB0124108429553EF1B228802E2265D8F7CC2401042B155BCC7070F1E5C55F13B4A9577362CCCE46C32174E010C3C378C44841A4BDA00FE3A12006CE11EE6AEC59894D3526DDE1CD59D503ECC324017F8061B7F162162FA62EDD81AE3308617770796DCBDAD2B2625C5AE8A63DE20B2C8AA5E95E76E57308
311
23955956E33E705425A2187C185D36489A1B44D3DCEC2172F6BA2105C3546287A7194B2331768EBBE64F6E70A9930ABE0ADEA89E9E2C38523B810287AD67A54A039C1606EAFE68F8304610BB9093DBDDABC0B2AE4E290DCDA15376D7E39F72B556F0B32EAB5D3D498B4C41ABADEC3A1434C422D87E8025A84BDCB2B1417ED7
311
50FAE4DA8976863974C577C7F902D3F156AD354DEA3540DE6BEAE2BEA52F7A2EB4CA43802ECE5BF2CE2EDC9347179FFB023CE412E60BE16DA0BE29B374988A553F561DC04615DD35F7D2C8979F60E5955CE93DF29DED8AFA1EE6642D53418086C03C47C377910F75F7E8F5EF665F70B60FFB22AEDF897D119E8423C773E819
311
A3C1E55E550599EE6EDCA34D0C86FD72057DF2CD46F16A470682471C164E4346D5306BF12D7D12D82CFF673D41636C347443FEB51B50D72EA171A8E4A58623A4A16E0FA2B8B10A0D23268D87C33896EE8FB73305A74BF224EDBADFA0BD674AB354D63DB7BD5D83426761C077DE767728235446A552754EB93B755891C3C4CC
311
6CADE37CF0E912A7BB38DBA010F9DE1282EDF470CA69A9CDA482E334C4A6EA4107987980B17E72F31730EBF88BBD39E7C629F56797A3C0009C2C5AE7951D9A05A02773440F02EEB4DE396A3B6A570C72CCFBCD823B0B8ED3F1D5CEDDFED772FA70236C83FB7D86C385D570B87107535572A60A96035F8F7C6A7192F1300724
311
6BBE0521855E6AC46F3E27689CEE7D186A6FD679D98CDCAD13333E04EBE7ED6F55FF01504B030414000608080054756A486180134D5F0100006B0300004500000046353733343737332D383136372D343130432D424146432D4533333435423933463535312F536368656D61732F52656E6465724D6174657269616C536368
311
656D612E786D6CA5934D6FC2300C86EFFB1551EEE343DBA41D1A103009551ADAD40EAE28A4A68D9426284961FCFBE5A340113B2071746D3F765EBF4DC6BFB5407BD0862B49F0B037C0082453059725C18DDD3EBFE3F1E829991803366715D474942CD30FB4A782E00C64017A412D684E454CE3FE28995203B162A6EA5AC94B
311
66997D225E109CD63B0135484BAD1B3C07E9080CA35DB3119C11BCA5C200461A68A1A438126C75E3E230D40FF81FB3F03C91D1E3A3A0AF79FE28E25BC39EC3E17E4C2A2D94A0833A51AF55BCCA7D88572FCBAC529C4140B020FC3AAFA886621DCED7EAD7664CC86024E806DC297DA1BB393E4156543457A4537DB8817349A7
311
0F8ACBF09B3EEE2CB2F33E91B65D60786E4E3B39B77E3FEEEF5650424525DA657FB8B46BE6BF064646F0A0F7327C0BC1BC1B4CBBC1C419FA3CCB23500007872A2580CAAE5461865565294E4EDB4617B62FF579DF9A5B2F54E834076A597573A020912FED777F9B3F504B030414000608080054756A4801B3D6125100000057
311
0000004700000046353733343737332D383136372D343130432D424146432D4533333435423933463535312F4173736574446174612F41737365745461626C654F66436F6E74656E74732E62696E5361606070B5743137343170D43535B430D235713174D4B5707174D37532B274723231373174B2701502AACB4D2C492DCA
311
4CCC492C28484D2C4ACC4B4E050A82012F90744FCD03CA26072767A4E6260200504B030414000608080054756A48F865834058000000680000004500000046353733343737332D383136372D343130432D424146432D4533333435423933463535312F4173736574446174612F53747265616D56657273696F6E5461626C65
311
2E696E66558CBD0A80300C06F73E4B117FB66E451741D041DC5BF98480A492E4FDD18EAEC7DD4555D89EF28DF51A0B1BD8340C4DE7DD848B988C0ACF0649566493F2408C508DDEBB99D5129FF8F1AF8CF5B9503E20FAE5A16B5AF702504B030414000608080054756A48204BF1A8340100009A040000360000004635373334
311
3737332D383136372D343130432D424146432D4533333435423933463535312F4173736574446174612F636E782E786D6CCD94314FC3301085FF4AE43D76522A842AC71582A51348540C6C57E752AC3A76645F10FC7BEC3603A8882943D6F3BBF3F327BF93DBCFDE161F18A2F1AE6135AF58814EFBD6B863C346EACA3B566C
311
950CDED30F192B1CF4D8B05C664A1E831F87A9D46207A3CD556BDC692ADEC788B48783C5A7EEC13B42479115DA428C0D8BFA1D7BE030926F319E780B04BCE601A31F83C634894C8FD3241D10085BA656557D5B5637655DEDEBF566BDDAACEB3729B252C983F776D29B7459F043A12FB7325549918F951C839934F92D4CFDE5
311
911F8C932229958C141293A983BE86D401C3608D064AE884D784542611422FC545ACA4C80C7E9178C4CE38935B76C918900FCFC91E0632B83822FF799D9FCCCE4502A771B93CAE1DCE4FE1E5FC835E2F813C27666939B976C88DEB66488938AF91149ABC55D437504B030414000608080054756A48EB7DE2A2080100004F03
311
00003400000046353733343737332D383136372D343130432D424146432D4533333435423933463535312F536368656D61732F636E782E786D6CCD93BD4E042114855F85D0EF30AC1363360C5B5858D9A8951DC2DD952C7027FC187D7B61A4D84DECB4D80E0E5FC839878BD87F7A473E20268B61A67C182981A0D1D8709C69
311
C987CD1D257B2922623EC32809CAC34C9B4CA538462C4B970C1C54714D75369CBA788FDE6378D6EFE01525DAA994669AD6EDA04A4603E9341895D5C08708094BD4506FC8D643BF414750190C95DB91DF6EC69B0D1F5FF8B49BB6BB89BF0AD64829DE105DE76DC81071211AEB22543BA360ED588A126D675A062ACFBD0DB50D
311
C12A2145CAB176D0C9FCB554522D8BB35AE55A155BC11F460AD6A25E047E8000D1EAEB4C7C61EEDF223F4130101FEB2B45ABDC7526FFCDE3DF0A60EBECD711685F417E03504B030414000608080054756A48410A3D5871000000A40000002C00000046353733343737332D383136372D343130432D424146432D4533333435
311
423933463535312F636E782E786D6C55CC4D0E82301086E1AB34B31774E7A22D31F1069E60020334B633A63FC6E34B0909B07DDE2F9FEE7EC1AB2FC5E4840DDC9A2B28E25E06C7938192C7CB1D54677514C9871928C640062A83D55394F2D968A0118BAFEA1DBF377CA444F98919176EAB9FEAAB9F2960DA5BBB1E2ED3FA6F
311
FF504B030414000608080054756A486F2552EE7E000000A300000007000000636E782E786D6C4D8CD10AC22018465F45FE7B6BA2E60275B491EF319A1B92D361337AFC3476D1D50787EF1CD97D568FDE36BD5C0C0AC8A90164C3234E2E2C0AF23EE31650A7658A71FFBB010AE36A15540C5A2E29E6ED40939DC7EC2BF52E3C
311
0F68B8A04C088A5B7211989166C0FDCD0CF84E29E3FD951ACE4931CE5529F3EB95AD79FD05504B030414000608080054756A4816E99B5DA600000035010000130000005B436F6E74656E745F54797065735D2E786D6C9590410E82301045AFD2740F4517C6180A0BF5065E60AC53688469D30E066F6F91AD9AB89CF9FFFD3F
311
99BA9DC7413C3026E749CB4D59498164FCCD51A7E5C4B6D84BD136F5E5193089ECA5A465CF1C0E4A25D3E308A9F401292BD6C711388FB15301CC1D3A54DBAADA29E38991B8E0254336F5092D4C038BF39CD76B6FC6A538AEBEA54A4B08617006389FA516557DE4AE8E7E70DE30729138228C5F021CD93F02D4FB0DCD0B504B
311
030414000608080054756A483DEE336E64000000790000001B0000006175746F6465736B2D64657369676E2D7061636B6167652E786D6C35CBC10E83200C00D05F21DCA56CA76D41FC96062B120735B69A7DBE268BB7777961F8D5AF396893C2ADB70FE7ADA196782C2DF776D7A97B5933C430F15651E5469C55D70F80A499
311
2A3ADC954792C525AE70A1E4D6AD9816CC044FEFDF01FE3FDE907802504B030414000608080054756A48B1D018FAF8000000960100003700000046353733343737332D383136372D343130432D424146432D4533333435423933463535312F4173736574446174612F636F72652E786D6C8550CB6E833010FC15B47703C66E
311
4191714403F9829E7AB38C43AC041BF951F5F36B27546A4F3DED6A76667677D8F16BBD179FCA796D4D0FB8ACA15046DA599BA587182EA883E2C899B336FCA24161C4AA7AC83070B6381BB71D92D60465326AECAC765078AF0214F29E9A1EBCBCAA55942286C4F0B77213F2261655E2F2C9E32C463DEF523D27377DD1CA016F
311
68DB4E5D8BD1899033A20399D05B3B4E88BC8C434771DD9DA633ABB298B3A0D79FEDD22911D49CF4357E453541B87EC7F4409B03C51FACCA4CCE7C70E9E77D69FE0EF890AF1E4510AC7A4EFFB8C66DFEDF356A1348B3BB3E151E384E473E069C5539A5541E11A69A13E5DF504B030414000608080054756A485F72CBB6F700
311
0000940100003500000046353733343737332D383136372D343130432D424146432D4533333435423933463535312F536368656D61732F636F72652E786D6C8550CB6E833010FC15B47703C66E4191719426E407DA536F9671A89560233FAA7E7E6DA0527BEA6957B333B3BBC38E5FF3A3F854CE6B6B7AC0650D8532D28EDA
311
4C3DC470431D1447CE9CB5E1170D0A2366D5438681B3C9D9B8EC90B4262893516347B583C27B15A0908FD4F4E0E5879A452962480C7F2F1721EF6252252E371E6731EA7197EA31B9E99B560E7843DB76E85A8CCE845C113D9101BDB4970191A7CBA9A3B8EECEC3955559CC59D0F3CF76E994086A4CFA1A3FA39A205CBF617A
311
A0CD81E277566526673EB8F4F3BE347F07FC75BDD3B36A9BFDF18CCBF8BF67D4269066F7DC141E384E27AE03CEAA9C512A6B80A9E63CF937504B030414000608080054756A487484BDB102010000D70100002D00000046353733343737332D383136372D343130432D424146432D4533333435423933463535312F636F7265
311
2E786D6C9551416E833010FC8AB57703C610D2C8386AA2F2829E7A73F186580936C2A6EAF36B072AB5B7F6B4D678667767561C3FC73BF9C0D91B675B605901046DEFB4B1430B4BB8D03D90A314B373E1070D885523B69060906298DD326D50EF6C409B50EB346EA0F21E0390FE1E1F2DF8FE8AA3CAD41222C3DFB249F53735
311
60C6B295274530E3B7B49F5105D420CB82ED68C1292B5E5975A8CA43C5DE449E98522CC6065E6EC3707C474DDC14A22590B5C8D7DFC85A8CDE3846C71DCDC5E00CB2AB1B5E350DA77BB66B68C58A333D3D7767FAC279559F9E7857D72C368962297C9863325B9394C15FE5ABF097B365D2FF74B62A3CC8B4CFC3B214798A39
311
96C70D624D27915F504B030414000608080054756A48ED4D471007010000B201000008000000636F72652E786D6C8D50CB6EC32010FC15B4776C63DCDA8A30519A385FD0536FD41017C506CB40D4FE7D21A1527BEB69D13C768665FBCF654637B5396D4D0FA4A80029335AA9CDD443F017DC01DA73B659EB7FC90019B1A81E
311
120C9C4D9B0D6B86466BBC32093556AA0C0AE7940734CEF1D1831B3FD4220A117C54B86BB18AF12A265590E2A1E3CCEBE5C73A6E4A782581D71579C615C5A47A25CDAEA9770D7963655272168296394ACB98AE2F5A6DD1D2B4EDD0B5041F293DE3E64007FCD29E064C9F4E87AE2155771CCEAC4C66CE9CDFE29FF392D8D323
311
276E2997950F8AB3776BE72C88A524B266FE025EB132117F4A8755FEA3B4369ED679E1C3E1809358E84EC4E074C138EEE78D335D9B7F03504B0102140014000608080054756A488F956FB8DA000000200100004F000000000000000000000000000000000046353733343737332D383136372D343130432D424146432D4533
311
333435423933463535312F4173736574446174612F446566696E6974696F6E4974657261746F7250726F706572746965732E62696E504B0102140014000608080054756A4803B7991C250100003002000045000000000000000000000000004701000046353733343737332D383136372D343130432D424146432D45333334
311
35423933463535312F4173736574446174612F496E7374616E636550726F706572746965732E62696E504B0102140014000608080054756A4828BB58AF800100009E0500003D00000000000000000000000000CF02000046353733343737332D383136372D343130432D424146432D4533333435423933463535312F536368
311
656D61732F436F6D6D6F6E536368656D612E786D6C504B0102140014000608080054756A482CCEBD668A040000E01200003E00000000000000000000000000AA04000046353733343737332D383136372D343130432D424146432D4533333435423933463535312F536368656D61732F47656E65726963536368656D612E78
311
6D6C504B0102140014000608080054756A486180134D5F0100006B03000045000000000000000000000000009009000046353733343737332D383136372D343130432D424146432D4533333435423933463535312F536368656D61732F52656E6465724D6174657269616C536368656D612E786D6C504B0102140014000608
311
080054756A4801B3D61251000000570000004700000000000000000000000000520B000046353733343737332D383136372D343130432D424146432D4533333435423933463535312F4173736574446174612F41737365745461626C654F66436F6E74656E74732E62696E504B0102140014000608080054756A48F8658340
311
58000000680000004500000000000000000000000000080C000046353733343737332D383136372D343130432D424146432D4533333435423933463535312F4173736574446174612F53747265616D56657273696F6E5461626C652E696E66504B0102140014000608080054756A48204BF1A8340100009A04000036000000
311
00000000000000000000C30C000046353733343737332D383136372D343130432D424146432D4533333435423933463535312F4173736574446174612F636E782E786D6C504B0102140014000608080054756A48EB7DE2A2080100004F03000034000000000000000000000000004B0E000046353733343737332D38313637
311
2D343130432D424146432D4533333435423933463535312F536368656D61732F636E782E786D6C504B0102140014000608080054756A48410A3D5871000000A40000002C00000000000000000000000000A50F000046353733343737332D383136372D343130432D424146432D4533333435423933463535312F636E782E78
311
6D6C504B0102140014000608080054756A486F2552EE7E000000A3000000070000000000000000000000000060100000636E782E786D6C504B0102140014000608080054756A4816E99B5DA6000000350100001300000000000000000000000000031100005B436F6E74656E745F54797065735D2E786D6C504B0102140014
311
000608080054756A483DEE336E64000000790000001B00000000000000000000000000DA1100006175746F6465736B2D64657369676E2D7061636B6167652E786D6C504B0102140014000608080054756A48B1D018FAF80000009601000037000000000000000000000000007712000046353733343737332D383136372D34
311
3130432D424146432D4533333435423933463535312F4173736574446174612F636F72652E786D6C504B0102140014000608080054756A485F72CBB6F7000000940100003500000000000000000000000000C413000046353733343737332D383136372D343130432D424146432D4533333435423933463535312F53636865
311
6D61732F636F72652E786D6C504B0102140014000608080054756A487484BDB102010000D70100002D000000000000000000000000000E15000046353733343737332D383136372D343130432D424146432D4533333435423933463535312F636F72652E786D6C504B0102140014000608080054756A48ED4D471007010000
311
B201000008000000000000000000000000005B160000636F72652E786D6C504B050600000000110011005A060000881700000000
310
504B030414000608080054756A48000000000000000000000000370000006662782F43363831343245362D363635422D343444322D414445432D3430463439343138333745452F617474726962757465732E62696E504B030414000608080054756A48000000000000000000000000350000006662782F4336383134324536
310
2D363635422D343444322D414445432D3430463439343138333745452F76657274696365732E62696E504B030414000608080054756A48F270F1330600000004000000360000006662782F43363831343245362D363635422D343444322D414445432D3430463439343138333745452F747269616E676C65732E62696E6366
310
60600000504B030414000608080054756A4851464CB48900000043010000360000006662782F43363831343245362D363635422D343444322D414445432D3430463439343138333745452F6469726563746F72792E786D6C9D8F310EC2300C45AF127987122606C71DD918B841D4B851A43646695A717C52A85029031293A5
310
A76FBF6FACEF7DA7264E43906840EF0FA03836E242F406C6DCEE4EA06AC22492573150D1F66C60C640E8938CB705396EEDD86DE9B5042FE27813D640EA63BB001C722AF6E55CB61E4863F58284D5D3F53DD715CE1C3985E63FD7F1B7EBDD617E9F1E504B030414000608080054756A48F8B497E8320700001A1C0000340000
310
006662782F43363831343245362D363635422D343444322D414445432D3430463439343138333745452F6F626A656374732E786D6CDD59596FDB3810FE2B84F6D93A7C2476E1B8F01107C6226D51A38B7D13688976B8A10E50528EFDF53BA4485954645BE90114EB00B14C51C3996FEED1F4E34BC4D013E1194DE21BCBB35D
310
0B913848421A1F6EAC22DFF7C616FA3843539E24796D9F85621C911B4B2C5BB3E9812745AA9642B2C7056BAEAE177FA32C2031B150C07096DD5859F040226CE3224F42923DDA21CEB17DD8BFD89E5D6E34C91E384E1F1A47A59893380756613D062A8A03CFFC092239B3A9233618DB06DDB6F5CF6C73A4E026A334CE721C07
310
6FB86A1CD73FC155E3B881375CDDF64793DE68381CF486577DAFB7582F563DEF7AE02EAF96CBC9FC7662A1D9749724AC52404AE210B4F86ACDBCA923EE54E22B14DAF80E9238268142B36D4348145D4AB2262606B09E14ADA69052D6DAC2A0A3F027B67502C560C9405B0BA7BFEBD69BECFE0110B22E56CA3322AC3CCB39E8
310
5A615FFA833B75CA55432F344311CE09A7982146771C7350106C2D15649011DE2248218199D4A2A657E7150CFBB22FB571B92F1813FE6BCDA4A7F9E08F24CF2467F45FC28FDCD74F039E40DA82C6F958099BBFA640623275E462796FD057374B20D19EE103580B8829360DFA0DBC9622166C56D6ECCFF5EE652BE243FBE129
310
4F52C2736179D29995DF690DD64C0B8CAF032825AEA6EE8EA87C05E83F01F2152F680A9AE3F465F832D4B2731C67FB8447A01DE4A29E0BFF5C242EDF5C4D9DEAE1194246AC3C8529B8ED4FC2D410C338BB06E96CFA04469FF081126E1B6006367D4F63E1E760288825B004F17EBF7BB1661B08A6B0084F6106D2C3DFD41197
310
08BE4A3A106F1A1A6A0BBF1D14A51DA6E967475DDD81CD701A54AA32643C85EFE8A7E03B5F6DFFDC167C8F0372AF1C7B45F634A63924D376860CD00D97FFB6F9243DF28E253BCC8E4F1B9B0238E69088B8D1A296AD520B927A014E441A2E352357EE29783B6338264991A9F5B63815242CE1FEEED52F5DB8F5ACBFB40D9487
310
2903688D6590DC034E5381893553DAAA02A15D13142C0C7365818752ABFEAE88521F4749118B50FBD6149B7C409C1196085425356DD8DA6B35D990EEF74506C1AB95E4D20052F9B3265C5AF810E2581BBF9CEC3986249AC43E851C0CCED27A82714005DE799E33C2F63E65AC88FC3D659047FC08A727E87794A09EB91EC9EB
310
73C2C35682A665699FD436240057C06A9074B62A63BED229274F549499329FE96C60EC5075A8351B9E48172253B400AA8D519AF9ED6475ED0DDD796FE48DFBBDE1CA9BF7C6ABF9BAB7E84F168BE1F5D05B8C6F9B7CEA6855CF77A04A51E618FE973F14D12EC694C10D21360ED30F1F65F6BC7120343AB7F3457F75BD5EF426
310
DE7A5E566BE3ABE56D6F385E2FDD89EBF5BDE1C2E1244B0A1E90CCE93BAEAF4D328D0FA7B8D2DCBD8DA150D65C4E765A5F4D61FEC731B499130C25FEAE41B48A5D2D0561D7202A1E6D86501C3C8A14E50750F5B5BA4F238836F9688B73EF8CCBAE3D70E5C7F3267D77D21F4FAE2A633F1BA8E5393F1CE7DA2408A0EF2C723F
310
497140F3F684DAC0A5639C7E576EB107DE08013AD5FFEA90F379461DE2D3081F88BFC7A24B68098C972468CD61079664198D4926BBBC37D55F83A66B433165E6DC1623A4991F911C7F8FFDC9B6A161D3109B990FFD682E260217AB82CAA05507728AA2E87E21714BF95FFD0C47292B3BDD4B18787D0D81EE71DA2C4E302D8E
310
78027BF371EEBB2191838B4BD42BF6757DD0AAB526F5C977933F018FAE6B7E213CFA88EEA5933DF226E23386A07235F206D75A1197B0D247E5A28F6305749EC1ABFF4CE8E1A153A1D94D27B592AD2CAA7312411B8BF38277F2D7AB91FBE62015171A0E513BE99DC5A1ECDF740707E8C906EE54795B3B06EA501AC39CAB9320
310
6FA4683561A90B39D313A3AB77F8F55965D7A9FE70BCFCE51573DDF92239FCB98C0354CB650056D1C7A8A95BAB6EA31ECA9E711E4020DDCAEFDE023C2224E1B13133C8B595E8BA3EBD543D6F44408D60628B459CBD1717EC2B065543F79C397765D1E694EB1B91D86C184E1FF9309836697DBEDB36A8C04AE7A7BF088CC873
310
83825A5D8A6EF80CA96F9B63CFDFA0A024FAB639F3F86FD1516805D6C668300DCE124661284F42742009646F183B74E8367844329995C1785590D26F043A3CFD54CE5473BC63FAE9E001C3609AA95EAC0860280A19F3C652EBE80F18838A49A41C4ED98FD086A91866A182D31B0B2C36A7D06DD93B1867C9E1A1A4DE185782
310
63E3F820F27DF954F5FBF8984007A2D251AE6A4F175C9464863341619BCAF70450F5953766D3EF175DB383700E97BB22AF84392E1CA55120E81702A57030F57B54F0BE4041715E2ECF967B0C483A4DE6CFDA4149B597637E90E3F51ADEF3D517474CC6379F51CA8A8350E7B9EED7A0D4135D372BCA29D4140C438999625143
310
2E3F385F7802AF9822B4A66004CE3289A224563FE6EA1515DA3EC00BA7D0D1C33E68E05D6FE4C8FE5F0DF4FD1DCE888DC3EC111640A99C8AA96809AEA1FA2A8ED654AF7521B4008F19FB372BA4AAA2DA6CA41E700530729A8FC085C45B1CE130F50DB5D123780170256F1E2FF4C2D4E130FE9EFD07504B0304140006080800
310
54756A48FEC0F66F3E01000046050000300000006662782F43363831343245362D363635422D343444322D414445432D3430463439343138333745452F636E782E786D6CCD94C14A033110865F65C97D379B5A444A36050F3E8107F196CD4ED7D86CB22413B16F6F52D3AA48C543A1BD85C93FF07F333FC3D7EF93A9DEC007
310
ED6C4758D3920AAC7283B66347226EEA3B52AD05F7CEE13719A9AC9CA023B94C041FBD8B73290DB091D1E4AAD1765B8A12D1EB3E220452292343E848502F30C946467403846D3348940D6B3C0417BD82D48F7A82D2AF3C4884818845CB6EEBF6A666ED235BAE968BD5923D739A9582F7CE99A2D716C1BBB9522E3D6C32D372
310
9ABF058F5E174D2620E2CB59D36BCB69FA173C24B7762C3ADCCD5937CF462B89694CD42904AC9308E4C4E9A758709A797F503FDC3F1D1C5483F6A0D0F9DD8506C04E0DE068AC4949F81FFF5EF837B6EB5F13EEA5B67D12B6D83A1BEA21AD21C5F5F7FE538AA41DCDF585FE68ECFC994FA704B5BA3EE483AF3311D3FDC94B4B
310
CF17507C00504B030414000608080054756A4856BE3CF97F000000A30000000B0000006662782F636E782E786D6C4D8C410EC2201405AF42FE1E6DEB1731011A6DF11E8DA50D9182C1623CBE60BA70F592C99B11ED6771E46DE2CB062FA1DE55408CBF87D1FA59425A27CA81B44AC410D6BF1B103F2C4642C1A0C41C437A6E
310
6834D3905CA1CEFAC7063BC66B6C34A38C1DAF14B16FE8A5D71DC5EA8667ACF9E1A47536F645C9F3EBE52D79F505504B030414000608080054756A48A6D797065F0000008200000007000000636E782E786D6C4DCB3B0E80201045D1AD90E9FD7516806B51190811670C8A61F982B1B0BAC9C97B72CA7B1037C6D3332918DA
310
1E04D2CAC69353902EDB8C20262D23F3F59B81A079470595414B17391D1F19B4730A5583A7ED43BBE4025D9592775E5ADFFA01504B030414000608080054756A484FEB6A7CA0000000F4000000130000005B436F6E74656E745F54797065735D2E786D6C7D8F4B0EC2300C44AF1279DFA6B0400835ED02B8011730C16D239A
310
8F121795DB93D02D6269CFBC19BBED573B8B17C564BC53B0AB1B10E4B47F18372A5878A88E20FAAEBDBD032591BD2E299898C349CAA427B2986A1FC86565F0D122E7318E32A07EE24872DF3407A9BD63725C71C980AEBDD080CBCCE2BAE6F5D69B7110E7CD57AA146008B3D1C8F92C5954F993BB1BF787F39A89ABC491D096
310
00F9FDA2FB00504B030414000608080054756A483DEE336E64000000790000001B0000006175746F6465736B2D64657369676E2D7061636B6167652E786D6C35CBC10E83200C00D05F21DCA56CA76D41FC96062B120735B69A7DBE268BB7777961F8D5AF396893C2ADB70FE7ADA196782C2DF776D7A97B5933C430F15651E5
310
469C55D70F80A4992A3ADC954792C525AE70A1E4D6AD9816CC044FEFDF01FE3FDE907802504B030414000608080054756A482C338BCDF8000000960100003B0000006662782F43363831343245362D363635422D343444322D414445432D3430463439343138333745452F7265736F75726365732F636F72652E786D6C8550
310
CB6E833010FC15B47703063740649C43D27E414FBD596643AC041BF951F5F36B072AB5A79E76353B33BB3BFCF4B53C8A4F745E5B33022D6B28D0283B69338F10C395F4509C0477D6865F34288C5C70840C83E0B3B371DD21654D4093516327DC41E93D0628D42335237875C345963286C4F0F77295EA2E672C69B9F1048F51
310
4FBB544FC94D5F353A1097BE6E3B7A6EC8850E03612D7B257D7FEE4877606C78A1ACAFDF065E65B1E0412F3FDB9543197002D1D4F440EA96D0FA9DB2236B8E8C7EF02A3305F7C1A59FF7A5F93B100EBD8D4EA1E7D536FDE31AD7E97FD7A84D689BDD75537810341DF91C085EE594527946986A4E547C03504B030414000608
310
080054756A482EDAC884F2000000B1010000310000006662782F43363831343245362D363635422D343444322D414445432D3430463439343138333745452F636F72652E786D6C8D50CB6EC32010FC156BEFD8C6A6AE1B61A23CDC2FE8A93704C44189C1E251F5F30BB12BB5B79C16CDCE30B343F7DFF3BDF852CE6B6B06C0
310
650D8532C24A6DA60162B8A01E8A3DA3CEDAF0870685E1B31A20C3C0E8E46C5C3648581394C9A8B1526D20F75E0528C43D3D06F0E2AA665EF21812C3DFCA858B1B9F5489CB95C768D0F3AF5438C58392C09A1A77A86E11AE3F30D9916647F027AD3293D118B5DCACB44CEEFAA2950376EA7A4C9AB1435DF77244849C1B7438
310
8F2744EA77F24670DFBE8E23ADB298511F5CBA79FB245FF7AC7C15FECB1C17F944666D42DB6C86ABC203C329CF63C168950B4CE3D16E9AB96CF603504B030414000608080054756A485AAC720052010000DD0200000C0000006662782F636F72652E786D6C8D52CB8E832014FD15C31E15655A6D902EDA992F98D5EC285287
310
54C120987EFE808F382EE6111324E7DE7BCE3D2790F3B36BA35198416A550114A720128AEB5AAAA602CEDE6101A23325466BFBAD0D448A75A2020106943446BB7E81B85656A8802A5D8B0564C3202C8878EB2F1518F8A7E858CC9CF51DC323EE197FB046C4289EFB28714ED6CBA8AC3D9BBC4B6100BD16697E44970C5E5159
310
429CE357581497233C1E302E5F102ED2B792246198122BBB559D1BC1ACA801CD527480690E51FA8EF00967278C3E48123A2919ACF19E17D1E00ED0FBED499219DFF1B9BEFE9BCF4965F36CE19B270640915F6F2A5092847CFC6F0A6F9FA117F6F959766B570B0F0F8D825B6DB0AFD4DA6DA591B54E78EA349A3E92CC55CF3C
310
11FCC493FDC2F33B870F8AA9C6AFC6ACBFDE9C0DEAFB9D7A61E0689F91D2A663EDB6DCBCE2766E423B4BEB38D7AD36FF995EADAE6126E161D22F504B030414000608080054756A48B811851D06010000B201000008000000636F72652E786D6C8D50C172832014FC15E6DD51501A3583E490B45FD0536F548865A2E00866DA
310
BF2F443AD3DE7A7ACCEEBEB7CBF2D3E73CA1BB5EBD71B6075A1040DA0E4E193BF6B0852B6E019D045F9D0BBF6480AC9C750F0906C1C7D56D4B86066783B609B54EE90C4AEF7500344CF1D1831F3EF42C0BB985A8F0B76291C34D8EBAA0C5AE133C98F9677558B50C5A81A8083D6052634A5E293BB2EAC8E81B2F9352F06D33
310
2A5B1915DDCDD5E815C4A5257543CF15BED0AEC3AC66CFB86DCF0D6E0E8C754F94B5E4A5E3655A16DC8735FE391F893903F2F29E7C79B95382BF3B3765410CA590B3D31708C2CB44FC09BD2DEA1FA18D0D75950FEE1B1E048D811E44344E0DC6F1A837CED4B6F806504B0102140014000608080054756A4800000000000000
310
00000000003700000000000000000000000000000000006662782F43363831343245362D363635422D343444322D414445432D3430463439343138333745452F617474726962757465732E62696E504B0102140014000608080054756A48000000000000000000000000350000000000000000000000000055000000666278
310
2F43363831343245362D363635422D343444322D414445432D3430463439343138333745452F76657274696365732E62696E504B0102140014000608080054756A48F270F13306000000040000003600000000000000000000000000A80000006662782F43363831343245362D363635422D343444322D414445432D343046
310
3439343138333745452F747269616E676C65732E62696E504B0102140014000608080054756A4851464CB489000000430100003600000000000000000000000000020100006662782F43363831343245362D363635422D343444322D414445432D3430463439343138333745452F6469726563746F72792E786D6C504B0102
310
140014000608080054756A48F8B497E8320700001A1C00003400000000000000000000000000DF0100006662782F43363831343245362D363635422D343444322D414445432D3430463439343138333745452F6F626A656374732E786D6C504B0102140014000608080054756A48FEC0F66F3E010000460500003000000000
310
000000000000000000630900006662782F43363831343245362D363635422D343444322D414445432D3430463439343138333745452F636E782E786D6C504B0102140014000608080054756A4856BE3CF97F000000A30000000B00000000000000000000000000EF0A00006662782F636E782E786D6C504B01021400140006
310
08080054756A48A6D797065F000000820000000700000000000000000000000000970B0000636E782E786D6C504B0102140014000608080054756A484FEB6A7CA0000000F400000013000000000000000000000000001B0C00005B436F6E74656E745F54797065735D2E786D6C504B0102140014000608080054756A483DEE
310
336E64000000790000001B00000000000000000000000000EC0C00006175746F6465736B2D64657369676E2D7061636B6167652E786D6C504B0102140014000608080054756A482C338BCDF8000000960100003B00000000000000000000000000890D00006662782F43363831343245362D363635422D343444322D414445
310
432D3430463439343138333745452F7265736F75726365732F636F72652E786D6C504B0102140014000608080054756A482EDAC884F2000000B10100003100000000000000000000000000DA0E00006662782F43363831343245362D363635422D343444322D414445432D3430463439343138333745452F636F72652E786D
310
6C504B0102140014000608080054756A485AAC720052010000DD0200000C000000000000000000000000001B1000006662782F636F72652E786D6C504B0102140014000608080054756A48B811851D06010000B2010000080000000000000000000000000097110000636F72652E786D6C504B0506000000000E000E008004
310
0000C31200000000
  0
XRECORD
  5
6295
102
{ACAD_REACTORS
330
6290
102
}
330
6290
100
AcDbXrecord
280
     1
270
     1
271
     1
  0
XRECORD
  5
6294
102
{ACAD_REACTORS
330
6290
102
}
330
6290
100
AcDbXrecord
280
     1
270
     1
271
     1
  0
XRECORD
  5
6296
102
{ACAD_REACTORS
330
6290
102
}
330
6290
100
AcDbXrecord
280
     1
270
     1
271
     1
  0
XRECORD
  5
6293
102
{ACAD_REACTORS
330
6290
102
}
330
6290
100
AcDbXrecord
280
     1
270
     1
271
     1
  0
XRECORD
  5
10F26
102
{ACAD_REACTORS
330
10EB9
102
}
330
10EB9
100
AcDbXrecord
280
     1
102
DISPLAYNAME
  1

102
FLAGS
 90
        0
  0
XRECORD
  5
10F28
102
{ACAD_REACTORS
330
10EBD
102
}
330
10EBD
100
AcDbXrecord
280
     1
102
DISPLAYNAME
  1
Metric50
102
FLAGS
 90
        0
  0
CELLSTYLEMAP
  5
10F25
102
{ACAD_REACTORS
330
649A
102
}
330
649A
100
AcDbCellStyleMap
 90
        3
300
CELLSTYLE
  1
TABLEFORMAT_BEGIN
 90
        5
170
     1
 91
        0
 92
    32768
 62
   257
 93
        1
300
CONTENTFORMAT
  1
CONTENTFORMAT_BEGIN
 90
        0
 91
        0
 92
      512
 93
        0
300

 40
0.0
140
1.0
 94
        5
 62
     0
340
11
144
0.25
309
CONTENTFORMAT_END
171
     1
301
MARGIN
  1
CELLMARGIN_BEGIN
 40
0.06
 40
0.06
 40
0.06
 40
0.06
 40
0.18
 40
0.18
309
CELLMARGIN_END
 94
        6
 95
        1
302
GRIDFORMAT
  1
GRIDFORMAT_BEGIN
 90
        0
 91
        1
 62
     0
 92
       -2
340
0
 93
        0
 40
0.045
309
GRIDFORMAT_END
 95
        2
302
GRIDFORMAT
  1
GRIDFORMAT_BEGIN
 90
        0
 91
        1
 62
     0
 92
       -2
340
0
 93
        0
 40
0.045
309
GRIDFORMAT_END
 95
        4
302
GRIDFORMAT
  1
GRIDFORMAT_BEGIN
 90
        0
 91
        1
 62
     0
 92
       -2
340
0
 93
        0
 40
0.045
309
GRIDFORMAT_END
 95
        8
302
GRIDFORMAT
  1
GRIDFORMAT_BEGIN
 90
        0
 91
        1
 62
     0
 92
       -2
340
0
 93
        0
 40
0.045
309
GRIDFORMAT_END
 95
       16
302
GRIDFORMAT
  1
GRIDFORMAT_BEGIN
 90
        0
 91
        1
 62
     0
 92
       -2
340
0
 93
        0
 40
0.045
309
GRIDFORMAT_END
 95
       32
302
GRIDFORMAT
  1
GRIDFORMAT_BEGIN
 90
        0
 91
        1
 62
     0
 92
       -2
340
0
 93
        0
 40
0.045
309
GRIDFORMAT_END
309
TABLEFORMAT_END
  1
CELLSTYLE_BEGIN
 90
        1
 91
        1
300
_TITLE
309
CELLSTYLE_END
300
CELLSTYLE
  1
TABLEFORMAT_BEGIN
 90
        5
170
     1
 91
        0
 92
        0
 62
   257
 93
        1
300
CONTENTFORMAT
  1
CONTENTFORMAT_BEGIN
 90
        0
 91
        0
 92
      512
 93
        0
300

 40
0.0
140
1.0
 94
        5
 62
     0
340
11
144
0.18
309
CONTENTFORMAT_END
171
     1
301
MARGIN
  1
CELLMARGIN_BEGIN
 40
0.06
 40
0.06
 40
0.06
 40
0.06
 40
0.18
 40
0.18
309
CELLMARGIN_END
 94
        6
 95
        1
302
GRIDFORMAT
  1
GRIDFORMAT_BEGIN
 90
        0
 91
        1
 62
     0
 92
       -2
340
0
 93
        0
 40
0.045
309
GRIDFORMAT_END
 95
        2
302
GRIDFORMAT
  1
GRIDFORMAT_BEGIN
 90
        0
 91
        1
 62
     0
 92
       -2
340
0
 93
        0
 40
0.045
309
GRIDFORMAT_END
 95
        4
302
GRIDFORMAT
  1
GRIDFORMAT_BEGIN
 90
        0
 91
        1
 62
     0
 92
       -2
340
0
 93
        0
 40
0.045
309
GRIDFORMAT_END
 95
        8
302
GRIDFORMAT
  1
GRIDFORMAT_BEGIN
 90
        0
 91
        1
 62
     0
 92
       -2
340
0
 93
        0
 40
0.045
309
GRIDFORMAT_END
 95
       16
302
GRIDFORMAT
  1
GRIDFORMAT_BEGIN
 90
        0
 91
        1
 62
     0
 92
       -2
340
0
 93
        0
 40
0.045
309
GRIDFORMAT_END
 95
       32
302
GRIDFORMAT
  1
GRIDFORMAT_BEGIN
 90
        0
 91
        1
 62
     0
 92
       -2
340
0
 93
        0
 40
0.045
309
GRIDFORMAT_END
309
TABLEFORMAT_END
  1
CELLSTYLE_BEGIN
 90
        2
 91
        1
300
_HEADER
309
CELLSTYLE_END
300
CELLSTYLE
  1
TABLEFORMAT_BEGIN
 90
        5
170
     1
 91
        0
 92
        0
 62
   257
 93
        1
300
CONTENTFORMAT
  1
CONTENTFORMAT_BEGIN
 90
        0
 91
        0
 92
      512
 93
        0
300

 40
0.0
140
1.0
 94
        2
 62
     0
340
11
144
0.18
309
CONTENTFORMAT_END
171
     1
301
MARGIN
  1
CELLMARGIN_BEGIN
 40
0.06
 40
0.06
 40
0.06
 40
0.06
 40
0.18
 40
0.18
309
CELLMARGIN_END
 94
        6
 95
        1
302
GRIDFORMAT
  1
GRIDFORMAT_BEGIN
 90
        0
 91
        1
 62
     0
 92
       -2
340
0
 93
        0
 40
0.045
309
GRIDFORMAT_END
 95
        2
302
GRIDFORMAT
  1
GRIDFORMAT_BEGIN
 90
        0
 91
        1
 62
     0
 92
       -2
340
0
 93
        0
 40
0.045
309
GRIDFORMAT_END
 95
        4
302
GRIDFORMAT
  1
GRIDFORMAT_BEGIN
 90
        0
 91
        1
 62
     0
 92
       -2
340
0
 93
        0
 40
0.045
309
GRIDFORMAT_END
 95
        8
302
GRIDFORMAT
  1
GRIDFORMAT_BEGIN
 90
        0
 91
        1
 62
     0
 92
       -2
340
0
 93
        0
 40
0.045
309
GRIDFORMAT_END
 95
       16
302
GRIDFORMAT
  1
GRIDFORMAT_BEGIN
 90
        0
 91
        1
 62
     0
 92
       -2
340
0
 93
        0
 40
0.045
309
GRIDFORMAT_END
 95
       32
302
GRIDFORMAT
  1
GRIDFORMAT_BEGIN
 90
        0
 91
        1
 62
     0
 92
       -2
340
0
 93
        0
 40
0.045
309
GRIDFORMAT_END
309
TABLEFORMAT_END
  1
CELLSTYLE_BEGIN
 90
        3
 91
        2
300
_DATA
309
CELLSTYLE_END
  0
XRECORD
  5
669E
102
{ACAD_REACTORS
330
669D
102
}
330
669D
100
AcDbXrecord
280
     1
102
RTVSPropertyOp28
 70
     1
102
RTVSPropertyOp29
 70
     1
102
RTVSPropertyOp30
 70
     1
102
RTVSPropertyOp31
 70
     1
102
RTVSPropertyOp32
 70
     1
102
RTVSPropertyOp33
 70
     1
102
RTVSPropertyOp34
 70
     1
102
RTVSPropertyOp35
 70
     1
102
RTVSPropertyOp36
 70
     1
102
RTVSPropertyOp37
 70
     1
102
RTVSPropertyOp38
 70
     1
102
RTVSPropertyOp39
 70
     1
102
RTVSPropertyOp40
 70
     1
102
RTVSPropertyOp41
 70
     1
102
RTVSPropertyOp42
 70
     1
102
RTVSPropertyOp43
 70
     1
102
RTVSPropertyOp44
 70
     1
102
RTVSPropertyOp45
 70
     1
102
RTVSPropertyOp46
 70
     1
102
RTVSPropertyOp47
 70
     1
102
RTVSPropertyOp48
 70
     1
102
RTVSPropertyOp49
 70
     1
102
RTVSPropertyOp50
 70
     1
102
RTVSPropertyOp51
 70
     0
102
RTVSPropertyOp52
 70
     0
102
RTVSPropertyOp53
 70
     1
102
RTVSPropertyOp54
 70
     1
102
RTVSPropertyOp55
 70
     1
102
RTVSPropertyOp56
 70
     1
102
RTVSPropertyOp57
 70
     1
102
RTVSPropertyOp58
 70
     1
102
RTVSPropertyOp59
 70
     1
102
RTVSPropertyOp60
 70
     1
102
RTVSPropertyOp61
 70
     1
102
RTVSPropertyOp62
 70
     1
  0
XRECORD
  5
669C
102
{ACAD_REACTORS
330
669B
102
}
330
669B
100
AcDbXrecord
280
     1
102
RTVSPropertyOp28
 70
     1
102
RTVSPropertyOp29
 70
     1
102
RTVSPropertyOp30
 70
     1
102
RTVSPropertyOp31
 70
     1
102
RTVSPropertyOp32
 70
     1
102
RTVSPropertyOp33
 70
     1
102
RTVSPropertyOp34
 70
     1
102
RTVSPropertyOp35
 70
     1
102
RTVSPropertyOp36
 70
     1
102
RTVSPropertyOp37
 70
     1
102
RTVSPropertyOp38
 70
     1
102
RTVSPropertyOp39
 70
     1
102
RTVSPropertyOp40
 70
     1
102
RTVSPropertyOp41
 70
     1
102
RTVSPropertyOp42
 70
     1
102
RTVSPropertyOp43
 70
     1
102
RTVSPropertyOp44
 70
     1
102
RTVSPropertyOp45
 70
     1
102
RTVSPropertyOp46
 70
     1
102
RTVSPropertyOp47
 70
     1
102
RTVSPropertyOp48
 70
     1
102
RTVSPropertyOp49
 70
     1
102
RTVSPropertyOp50
 70
     1
102
RTVSPropertyOp51
 70
     0
102
RTVSPropertyOp52
 70
     0
102
RTVSPropertyOp53
 70
     1
102
RTVSPropertyOp54
 70
     1
102
RTVSPropertyOp55
 70
     1
102
RTVSPropertyOp56
 70
     1
102
RTVSPropertyOp57
 70
     1
102
RTVSPropertyOp58
 70
     1
102
RTVSPropertyOp59
 70
     1
102
RTVSPropertyOp60
 70
     1
102
RTVSPropertyOp61
 70
     1
102
RTVSPropertyOp62
 70
     1
  0
XRECORD
  5
66AA
102
{ACAD_REACTORS
330
66A9
102
}
330
66A9
100
AcDbXrecord
280
     1
102
RTVSPropertyOp28
 70
     1
102
RTVSPropertyOp29
 70
     1
102
RTVSPropertyOp30
 70
     1
102
RTVSPropertyOp31
 70
     1
102
RTVSPropertyOp32
 70
     1
102
RTVSPropertyOp33
 70
     1
102
RTVSPropertyOp34
 70
     1
102
RTVSPropertyOp35
 70
     1
102
RTVSPropertyOp36
 70
     1
102
RTVSPropertyOp37
 70
     1
102
RTVSPropertyOp38
 70
     1
102
RTVSPropertyOp39
 70
     1
102
RTVSPropertyOp40
 70
     1
102
RTVSPropertyOp41
 70
     1
102
RTVSPropertyOp42
 70
     1
102
RTVSPropertyOp43
 70
     1
102
RTVSPropertyOp44
 70
     1
102
RTVSPropertyOp45
 70
     1
102
RTVSPropertyOp46
 70
     1
102
RTVSPropertyOp47
 70
     1
102
RTVSPropertyOp48
 70
     1
102
RTVSPropertyOp49
 70
     1
102
RTVSPropertyOp50
 70
     1
102
RTVSPropertyOp51
 70
     0
102
RTVSPropertyOp52
 70
     0
102
RTVSPropertyOp53
 70
     1
102
RTVSPropertyOp54
 70
     1
102
RTVSPropertyOp55
 70
     1
102
RTVSPropertyOp56
 70
     1
102
RTVSPropertyOp57
 70
     1
102
RTVSPropertyOp58
 70
     1
102
RTVSPropertyOp59
 70
     1
102
RTVSPropertyOp60
 70
     1
102
RTVSPropertyOp61
 70
     1
102
RTVSPropertyOp62
 70
     1
  0
XRECORD
  5
66B2
102
{ACAD_REACTORS
330
66B1
102
}
330
66B1
100
AcDbXrecord
280
     1
102
RTVSPropertyOp28
 70
     1
102
RTVSPropertyOp29
 70
     1
102
RTVSPropertyOp30
 70
     1
102
RTVSPropertyOp31
 70
     1
102
RTVSPropertyOp32
 70
     1
102
RTVSPropertyOp33
 70
     1
102
RTVSPropertyOp34
 70
     1
102
RTVSPropertyOp35
 70
     1
102
RTVSPropertyOp36
 70
     1
102
RTVSPropertyOp37
 70
     1
102
RTVSPropertyOp38
 70
     1
102
RTVSPropertyOp39
 70
     1
102
RTVSPropertyOp40
 70
     1
102
RTVSPropertyOp41
 70
     1
102
RTVSPropertyOp42
 70
     1
102
RTVSPropertyOp43
 70
     1
102
RTVSPropertyOp44
 70
     1
102
RTVSPropertyOp45
 70
     1
102
RTVSPropertyOp46
 70
     1
102
RTVSPropertyOp47
 70
     1
102
RTVSPropertyOp48
 70
     1
102
RTVSPropertyOp49
 70
     1
102
RTVSPropertyOp50
 70
     1
102
RTVSPropertyOp51
 70
     0
102
RTVSPropertyOp52
 70
     0
102
RTVSPropertyOp53
 70
     1
102
RTVSPropertyOp54
 70
     1
102
RTVSPropertyOp55
 70
     1
102
RTVSPropertyOp56
 70
     1
102
RTVSPropertyOp57
 70
     1
102
RTVSPropertyOp58
 70
     1
102
RTVSPropertyOp59
 70
     1
102
RTVSPropertyOp60
 70
     1
102
RTVSPropertyOp61
 70
     1
102
RTVSPropertyOp62
 70
     1
  0
XRECORD
  5
66A4
102
{ACAD_REACTORS
330
66A3
102
}
330
66A3
100
AcDbXrecord
280
     1
102
RTVSPropertyOp28
 70
     1
102
RTVSPropertyOp29
 70
     1
102
RTVSPropertyOp30
 70
     1
102
RTVSPropertyOp31
 70
     1
102
RTVSPropertyOp32
 70
     1
102
RTVSPropertyOp33
 70
     1
102
RTVSPropertyOp34
 70
     1
102
RTVSPropertyOp35
 70
     1
102
RTVSPropertyOp36
 70
     1
102
RTVSPropertyOp37
 70
     1
102
RTVSPropertyOp38
 70
     1
102
RTVSPropertyOp39
 70
     1
102
RTVSPropertyOp40
 70
     1
102
RTVSPropertyOp41
 70
     1
102
RTVSPropertyOp42
 70
     1
102
RTVSPropertyOp43
 70
     1
102
RTVSPropertyOp44
 70
     1
102
RTVSPropertyOp45
 70
     1
102
RTVSPropertyOp46
 70
     1
102
RTVSPropertyOp47
 70
     1
102
RTVSPropertyOp48
 70
     1
102
RTVSPropertyOp49
 70
     1
102
RTVSPropertyOp50
 70
     1
102
RTVSPropertyOp51
 70
     0
102
RTVSPropertyOp52
 70
     0
102
RTVSPropertyOp53
 70
     1
102
RTVSPropertyOp54
 70
     1
102
RTVSPropertyOp55
 70
     1
102
RTVSPropertyOp56
 70
     1
102
RTVSPropertyOp57
 70
     1
102
RTVSPropertyOp58
 70
     1
102
RTVSPropertyOp59
 70
     1
102
RTVSPropertyOp60
 70
     1
102
RTVSPropertyOp61
 70
     1
102
RTVSPropertyOp62
 70
     1
  0
XRECORD
  5
66A8
102
{ACAD_REACTORS
330
66A7
102
}
330
66A7
100
AcDbXrecord
280
     1
102
RTVSPropertyOp28
 70
     1
102
RTVSPropertyOp29
 70
     1
102
RTVSPropertyOp30
 70
     1
102
RTVSPropertyOp31
 70
     1
102
RTVSPropertyOp32
 70
     1
102
RTVSPropertyOp33
 70
     1
102
RTVSPropertyOp34
 70
     1
102
RTVSPropertyOp35
 70
     1
102
RTVSPropertyOp36
 70
     1
102
RTVSPropertyOp37
 70
     1
102
RTVSPropertyOp38
 70
     1
102
RTVSPropertyOp39
 70
     1
102
RTVSPropertyOp40
 70
     1
102
RTVSPropertyOp41
 70
     1
102
RTVSPropertyOp42
 70
     1
102
RTVSPropertyOp43
 70
     1
102
RTVSPropertyOp44
 70
     1
102
RTVSPropertyOp45
 70
     1
102
RTVSPropertyOp46
 70
     1
102
RTVSPropertyOp47
 70
     1
102
RTVSPropertyOp48
 70
     1
102
RTVSPropertyOp49
 70
     1
102
RTVSPropertyOp50
 70
     1
102
RTVSPropertyOp51
 70
     0
102
RTVSPropertyOp52
 70
     0
102
RTVSPropertyOp53
 70
     1
102
RTVSPropertyOp54
 70
     1
102
RTVSPropertyOp55
 70
     1
102
RTVSPropertyOp56
 70
     1
102
RTVSPropertyOp57
 70
     1
102
RTVSPropertyOp58
 70
     1
102
RTVSPropertyOp59
 70
     1
102
RTVSPropertyOp60
 70
     1
102
RTVSPropertyOp61
 70
     1
102
RTVSPropertyOp62
 70
     1
  0
XRECORD
  5
66C2
102
{ACAD_REACTORS
330
66C1
102
}
330
66C1
100
AcDbXrecord
280
     1
102
RTVSPropertyOp28
 70
     1
102
RTVSPropertyOp29
 70
     1
102
RTVSPropertyOp30
 70
     1
102
RTVSPropertyOp31
 70
     1
102
RTVSPropertyOp32
 70
     1
102
RTVSPropertyOp33
 70
     1
102
RTVSPropertyOp34
 70
     1
102
RTVSPropertyOp35
 70
     1
102
RTVSPropertyOp36
 70
     1
102
RTVSPropertyOp37
 70
     0
102
RTVSPropertyOp38
 70
     0
102
RTVSPropertyOp39
 70
     0
102
RTVSPropertyOp40
 70
     0
102
RTVSPropertyOp41
 70
     0
102
RTVSPropertyOp42
 70
     0
102
RTVSPropertyOp43
 70
     0
102
RTVSPropertyOp44
 70
     0
102
RTVSPropertyOp45
 70
     1
102
RTVSPropertyOp46
 70
     0
102
RTVSPropertyOp47
 70
     0
102
RTVSPropertyOp48
 70
     0
102
RTVSPropertyOp49
 70
     1
102
RTVSPropertyOp50
 70
     0
102
RTVSPropertyOp51
 70
     0
102
RTVSPropertyOp52
 70
     0
102
RTVSPropertyOp53
 70
     0
102
RTVSPropertyOp54
 70
     0
102
RTVSPropertyOp55
 70
     1
102
RTVSPropertyOp56
 70
     0
102
RTVSPropertyOp57
 70
     0
102
RTVSPropertyOp58
 70
     0
102
RTVSPropertyOp59
 70
     0
102
RTVSPropertyOp60
 70
     0
102
RTVSPropertyOp61
 70
     0
102
RTVSPropertyOp62
 70
     0
  0
XRECORD
  5
66B0
102
{ACAD_REACTORS
330
66AF
102
}
330
66AF
100
AcDbXrecord
280
     1
102
RTVSPropertyOp28
 70
     1
102
RTVSPropertyOp29
 70
     1
102
RTVSPropertyOp30
 70
     1
102
RTVSPropertyOp31
 70
     1
102
RTVSPropertyOp32
 70
     1
102
RTVSPropertyOp33
 70
     1
102
RTVSPropertyOp34
 70
     1
102
RTVSPropertyOp35
 70
     1
102
RTVSPropertyOp36
 70
     1
102
RTVSPropertyOp37
 70
     1
102
RTVSPropertyOp38
 70
     1
102
RTVSPropertyOp39
 70
     1
102
RTVSPropertyOp40
 70
     1
102
RTVSPropertyOp41
 70
     1
102
RTVSPropertyOp42
 70
     1
102
RTVSPropertyOp43
 70
     1
102
RTVSPropertyOp44
 70
     1
102
RTVSPropertyOp45
 70
     1
102
RTVSPropertyOp46
 70
     1
102
RTVSPropertyOp47
 70
     1
102
RTVSPropertyOp48
 70
     1
102
RTVSPropertyOp49
 70
     1
102
RTVSPropertyOp50
 70
     1
102
RTVSPropertyOp51
 70
     0
102
RTVSPropertyOp52
 70
     0
102
RTVSPropertyOp53
 70
     1
102
RTVSPropertyOp54
 70
     1
102
RTVSPropertyOp55
 70
     1
102
RTVSPropertyOp56
 70
     1
102
RTVSPropertyOp57
 70
     1
102
RTVSPropertyOp58
 70
     1
102
RTVSPropertyOp59
 70
     1
102
RTVSPropertyOp60
 70
     1
102
RTVSPropertyOp61
 70
     1
102
RTVSPropertyOp62
 70
     1
  0
XRECORD
  5
6694
102
{ACAD_REACTORS
330
6693
102
}
330
6693
100
AcDbXrecord
280
     1
102
RTVSPropertyOp28
 70
     1
102
RTVSPropertyOp29
 70
     1
102
RTVSPropertyOp30
 70
     1
102
RTVSPropertyOp31
 70
     1
102
RTVSPropertyOp32
 70
     1
102
RTVSPropertyOp33
 70
     1
102
RTVSPropertyOp34
 70
     1
102
RTVSPropertyOp35
 70
     1
102
RTVSPropertyOp36
 70
     1
102
RTVSPropertyOp37
 70
     1
102
RTVSPropertyOp38
 70
     1
102
RTVSPropertyOp39
 70
     1
102
RTVSPropertyOp40
 70
     1
102
RTVSPropertyOp41
 70
     1
102
RTVSPropertyOp42
 70
     1
102
RTVSPropertyOp43
 70
     1
102
RTVSPropertyOp44
 70
     1
102
RTVSPropertyOp45
 70
     1
102
RTVSPropertyOp46
 70
     1
102
RTVSPropertyOp47
 70
     1
102
RTVSPropertyOp48
 70
     1
102
RTVSPropertyOp49
 70
     1
102
RTVSPropertyOp50
 70
     1
102
RTVSPropertyOp51
 70
     0
102
RTVSPropertyOp52
 70
     0
102
RTVSPropertyOp53
 70
     1
102
RTVSPropertyOp54
 70
     1
102
RTVSPropertyOp55
 70
     1
102
RTVSPropertyOp56
 70
     1
102
RTVSPropertyOp57
 70
     1
102
RTVSPropertyOp58
 70
     1
102
RTVSPropertyOp59
 70
     1
102
RTVSPropertyOp60
 70
     1
102
RTVSPropertyOp61
 70
     1
102
RTVSPropertyOp62
 70
     1
  0
XRECORD
  5
6696
102
{ACAD_REACTORS
330
6695
102
}
330
6695
100
AcDbXrecord
280
     1
102
RTVSPropertyOp28
 70
     1
102
RTVSPropertyOp29
 70
     1
102
RTVSPropertyOp30
 70
     1
102
RTVSPropertyOp31
 70
     1
102
RTVSPropertyOp32
 70
     1
102
RTVSPropertyOp33
 70
     1
102
RTVSPropertyOp34
 70
     1
102
RTVSPropertyOp35
 70
     1
102
RTVSPropertyOp36
 70
     1
102
RTVSPropertyOp37
 70
     1
102
RTVSPropertyOp38
 70
     1
102
RTVSPropertyOp39
 70
     1
102
RTVSPropertyOp40
 70
     1
102
RTVSPropertyOp41
 70
     1
102
RTVSPropertyOp42
 70
     1
102
RTVSPropertyOp43
 70
     1
102
RTVSPropertyOp44
 70
     1
102
RTVSPropertyOp45
 70
     1
102
RTVSPropertyOp46
 70
     1
102
RTVSPropertyOp47
 70
     1
102
RTVSPropertyOp48
 70
     1
102
RTVSPropertyOp49
 70
     1
102
RTVSPropertyOp50
 70
     1
102
RTVSPropertyOp51
 70
     0
102
RTVSPropertyOp52
 70
     0
102
RTVSPropertyOp53
 70
     1
102
RTVSPropertyOp54
 70
     1
102
RTVSPropertyOp55
 70
     1
102
RTVSPropertyOp56
 70
     1
102
RTVSPropertyOp57
 70
     1
102
RTVSPropertyOp58
 70
     1
102
RTVSPropertyOp59
 70
     1
102
RTVSPropertyOp60
 70
     1
102
RTVSPropertyOp61
 70
     1
102
RTVSPropertyOp62
 70
     1
  0
XRECORD
  5
6698
102
{ACAD_REACTORS
330
6697
102
}
330
6697
100
AcDbXrecord
280
     1
102
RTVSPropertyOp28
 70
     1
102
RTVSPropertyOp29
 70
     1
102
RTVSPropertyOp30
 70
     1
102
RTVSPropertyOp31
 70
     1
102
RTVSPropertyOp32
 70
     1
102
RTVSPropertyOp33
 70
     1
102
RTVSPropertyOp34
 70
     1
102
RTVSPropertyOp35
 70
     1
102
RTVSPropertyOp36
 70
     1
102
RTVSPropertyOp37
 70
     1
102
RTVSPropertyOp38
 70
     1
102
RTVSPropertyOp39
 70
     1
102
RTVSPropertyOp40
 70
     1
102
RTVSPropertyOp41
 70
     1
102
RTVSPropertyOp42
 70
     1
102
RTVSPropertyOp43
 70
     1
102
RTVSPropertyOp44
 70
     1
102
RTVSPropertyOp45
 70
     1
102
RTVSPropertyOp46
 70
     1
102
RTVSPropertyOp47
 70
     1
102
RTVSPropertyOp48
 70
     1
102
RTVSPropertyOp49
 70
     1
102
RTVSPropertyOp50
 70
     1
102
RTVSPropertyOp51
 70
     0
102
RTVSPropertyOp52
 70
     0
102
RTVSPropertyOp53
 70
     1
102
RTVSPropertyOp54
 70
     1
102
RTVSPropertyOp55
 70
     1
102
RTVSPropertyOp56
 70
     1
102
RTVSPropertyOp57
 70
     1
102
RTVSPropertyOp58
 70
     1
102
RTVSPropertyOp59
 70
     1
102
RTVSPropertyOp60
 70
     1
102
RTVSPropertyOp61
 70
     1
102
RTVSPropertyOp62
 70
     1
  0
XRECORD
  5
669A
102
{ACAD_REACTORS
330
6699
102
}
330
6699
100
AcDbXrecord
280
     1
102
RTVSPropertyOp28
 70
     1
102
RTVSPropertyOp29
 70
     1
102
RTVSPropertyOp30
 70
     1
102
RTVSPropertyOp31
 70
     1
102
RTVSPropertyOp32
 70
     1
102
RTVSPropertyOp33
 70
     1
102
RTVSPropertyOp34
 70
     1
102
RTVSPropertyOp35
 70
     1
102
RTVSPropertyOp36
 70
     1
102
RTVSPropertyOp37
 70
     1
102
RTVSPropertyOp38
 70
     1
102
RTVSPropertyOp39
 70
     1
102
RTVSPropertyOp40
 70
     1
102
RTVSPropertyOp41
 70
     1
102
RTVSPropertyOp42
 70
     1
102
RTVSPropertyOp43
 70
     1
102
RTVSPropertyOp44
 70
     1
102
RTVSPropertyOp45
 70
     1
102
RTVSPropertyOp46
 70
     1
102
RTVSPropertyOp47
 70
     1
102
RTVSPropertyOp48
 70
     1
102
RTVSPropertyOp49
 70
     1
102
RTVSPropertyOp50
 70
     1
102
RTVSPropertyOp51
 70
     0
102
RTVSPropertyOp52
 70
     0
102
RTVSPropertyOp53
 70
     1
102
RTVSPropertyOp54
 70
     1
102
RTVSPropertyOp55
 70
     1
102
RTVSPropertyOp56
 70
     1
102
RTVSPropertyOp57
 70
     1
102
RTVSPropertyOp58
 70
     1
102
RTVSPropertyOp59
 70
     1
102
RTVSPropertyOp60
 70
     1
102
RTVSPropertyOp61
 70
     1
102
RTVSPropertyOp62
 70
     1
  0
XRECORD
  5
66A2
102
{ACAD_REACTORS
330
66A1
102
}
330
66A1
100
AcDbXrecord
280
     1
102
RTVSPropertyOp28
 70
     1
102
RTVSPropertyOp29
 70
     1
102
RTVSPropertyOp30
 70
     1
102
RTVSPropertyOp31
 70
     1
102
RTVSPropertyOp32
 70
     1
102
RTVSPropertyOp33
 70
     1
102
RTVSPropertyOp34
 70
     1
102
RTVSPropertyOp35
 70
     1
102
RTVSPropertyOp36
 70
     1
102
RTVSPropertyOp37
 70
     1
102
RTVSPropertyOp38
 70
     1
102
RTVSPropertyOp39
 70
     1
102
RTVSPropertyOp40
 70
     1
102
RTVSPropertyOp41
 70
     1
102
RTVSPropertyOp42
 70
     1
102
RTVSPropertyOp43
 70
     1
102
RTVSPropertyOp44
 70
     1
102
RTVSPropertyOp45
 70
     1
102
RTVSPropertyOp46
 70
     1
102
RTVSPropertyOp47
 70
     1
102
RTVSPropertyOp48
 70
     1
102
RTVSPropertyOp49
 70
     1
102
RTVSPropertyOp50
 70
     1
102
RTVSPropertyOp51
 70
     0
102
RTVSPropertyOp52
 70
     0
102
RTVSPropertyOp53
 70
     1
102
RTVSPropertyOp54
 70
     1
102
RTVSPropertyOp55
 70
     1
102
RTVSPropertyOp56
 70
     1
102
RTVSPropertyOp57
 70
     1
102
RTVSPropertyOp58
 70
     1
102
RTVSPropertyOp59
 70
     1
102
RTVSPropertyOp60
 70
     1
102
RTVSPropertyOp61
 70
     1
102
RTVSPropertyOp62
 70
     1
  0
XRECORD
  5
66BE
102
{ACAD_REACTORS
330
66BD
102
}
330
66BD
100
AcDbXrecord
280
     1
102
RTVSPropertyOp28
 70
     1
102
RTVSPropertyOp29
 70
     1
102
RTVSPropertyOp30
 70
     1
102
RTVSPropertyOp31
 70
     1
102
RTVSPropertyOp32
 70
     1
102
RTVSPropertyOp33
 70
     1
102
RTVSPropertyOp34
 70
     1
102
RTVSPropertyOp35
 70
     1
102
RTVSPropertyOp36
 70
     1
102
RTVSPropertyOp37
 70
     0
102
RTVSPropertyOp38
 70
     0
102
RTVSPropertyOp39
 70
     0
102
RTVSPropertyOp40
 70
     0
102
RTVSPropertyOp41
 70
     0
102
RTVSPropertyOp42
 70
     0
102
RTVSPropertyOp43
 70
     0
102
RTVSPropertyOp44
 70
     0
102
RTVSPropertyOp45
 70
     1
102
RTVSPropertyOp46
 70
     0
102
RTVSPropertyOp47
 70
     0
102
RTVSPropertyOp48
 70
     0
102
RTVSPropertyOp49
 70
     1
102
RTVSPropertyOp50
 70
     0
102
RTVSPropertyOp51
 70
     0
102
RTVSPropertyOp52
 70
     0
102
RTVSPropertyOp53
 70
     0
102
RTVSPropertyOp54
 70
     0
102
RTVSPropertyOp55
 70
     1
102
RTVSPropertyOp56
 70
     0
102
RTVSPropertyOp57
 70
     0
102
RTVSPropertyOp58
 70
     0
102
RTVSPropertyOp59
 70
     0
102
RTVSPropertyOp60
 70
     0
102
RTVSPropertyOp61
 70
     0
102
RTVSPropertyOp62
 70
     0
  0
XRECORD
  5
66AE
102
{ACAD_REACTORS
330
66AD
102
}
330
66AD
100
AcDbXrecord
280
     1
102
RTVSPropertyOp28
 70
     1
102
RTVSPropertyOp29
 70
     1
102
RTVSPropertyOp30
 70
     1
102
RTVSPropertyOp31
 70
     1
102
RTVSPropertyOp32
 70
     1
102
RTVSPropertyOp33
 70
     1
102
RTVSPropertyOp34
 70
     1
102
RTVSPropertyOp35
 70
     1
102
RTVSPropertyOp36
 70
     1
102
RTVSPropertyOp37
 70
     1
102
RTVSPropertyOp38
 70
     1
102
RTVSPropertyOp39
 70
     1
102
RTVSPropertyOp40
 70
     1
102
RTVSPropertyOp41
 70
     1
102
RTVSPropertyOp42
 70
     1
102
RTVSPropertyOp43
 70
     1
102
RTVSPropertyOp44
 70
     1
102
RTVSPropertyOp45
 70
     1
102
RTVSPropertyOp46
 70
     1
102
RTVSPropertyOp47
 70
     1
102
RTVSPropertyOp48
 70
     1
102
RTVSPropertyOp49
 70
     1
102
RTVSPropertyOp50
 70
     1
102
RTVSPropertyOp51
 70
     0
102
RTVSPropertyOp52
 70
     0
102
RTVSPropertyOp53
 70
     1
102
RTVSPropertyOp54
 70
     1
102
RTVSPropertyOp55
 70
     1
102
RTVSPropertyOp56
 70
     1
102
RTVSPropertyOp57
 70
     1
102
RTVSPropertyOp58
 70
     1
102
RTVSPropertyOp59
 70
     1
102
RTVSPropertyOp60
 70
     1
102
RTVSPropertyOp61
 70
     1
102
RTVSPropertyOp62
 70
     1
  0
XRECORD
  5
66C0
102
{ACAD_REACTORS
330
66BF
102
}
330
66BF
100
AcDbXrecord
280
     1
102
RTVSPropertyOp28
 70
     1
102
RTVSPropertyOp29
 70
     1
102
RTVSPropertyOp30
 70
     1
102
RTVSPropertyOp31
 70
     1
102
RTVSPropertyOp32
 70
     1
102
RTVSPropertyOp33
 70
     1
102
RTVSPropertyOp34
 70
     1
102
RTVSPropertyOp35
 70
     1
102
RTVSPropertyOp36
 70
     1
102
RTVSPropertyOp37
 70
     0
102
RTVSPropertyOp38
 70
     0
102
RTVSPropertyOp39
 70
     0
102
RTVSPropertyOp40
 70
     0
102
RTVSPropertyOp41
 70
     0
102
RTVSPropertyOp42
 70
     0
102
RTVSPropertyOp43
 70
     0
102
RTVSPropertyOp44
 70
     0
102
RTVSPropertyOp45
 70
     1
102
RTVSPropertyOp46
 70
     0
102
RTVSPropertyOp47
 70
     0
102
RTVSPropertyOp48
 70
     0
102
RTVSPropertyOp49
 70
     1
102
RTVSPropertyOp50
 70
     0
102
RTVSPropertyOp51
 70
     0
102
RTVSPropertyOp52
 70
     0
102
RTVSPropertyOp53
 70
     0
102
RTVSPropertyOp54
 70
     0
102
RTVSPropertyOp55
 70
     1
102
RTVSPropertyOp56
 70
     0
102
RTVSPropertyOp57
 70
     0
102
RTVSPropertyOp58
 70
     0
102
RTVSPropertyOp59
 70
     0
102
RTVSPropertyOp60
 70
     0
102
RTVSPropertyOp61
 70
     0
102
RTVSPropertyOp62
 70
     0
  0
XRECORD
  5
66A6
102
{ACAD_REACTORS
330
66A5
102
}
330
66A5
100
AcDbXrecord
280
     1
102
RTVSPropertyOp28
 70
     1
102
RTVSPropertyOp29
 70
     1
102
RTVSPropertyOp30
 70
     1
102
RTVSPropertyOp31
 70
     1
102
RTVSPropertyOp32
 70
     1
102
RTVSPropertyOp33
 70
     1
102
RTVSPropertyOp34
 70
     1
102
RTVSPropertyOp35
 70
     1
102
RTVSPropertyOp36
 70
     1
102
RTVSPropertyOp37
 70
     1
102
RTVSPropertyOp38
 70
     1
102
RTVSPropertyOp39
 70
     1
102
RTVSPropertyOp40
 70
     1
102
RTVSPropertyOp41
 70
     1
102
RTVSPropertyOp42
 70
     1
102
RTVSPropertyOp43
 70
     1
102
RTVSPropertyOp44
 70
     1
102
RTVSPropertyOp45
 70
     1
102
RTVSPropertyOp46
 70
     1
102
RTVSPropertyOp47
 70
     1
102
RTVSPropertyOp48
 70
     1
102
RTVSPropertyOp49
 70
     1
102
RTVSPropertyOp50
 70
     1
102
RTVSPropertyOp51
 70
     0
102
RTVSPropertyOp52
 70
     0
102
RTVSPropertyOp53
 70
     1
102
RTVSPropertyOp54
 70
     1
102
RTVSPropertyOp55
 70
     1
102
RTVSPropertyOp56
 70
     1
102
RTVSPropertyOp57
 70
     1
102
RTVSPropertyOp58
 70
     1
102
RTVSPropertyOp59
 70
     1
102
RTVSPropertyOp60
 70
     1
102
RTVSPropertyOp61
 70
     1
102
RTVSPropertyOp62
 70
     1
  0
XRECORD
  5
66BC
102
{ACAD_REACTORS
330
66BB
102
}
330
66BB
100
AcDbXrecord
280
     1
102
RTVSPropertyOp28
 70
     1
102
RTVSPropertyOp29
 70
     1
102
RTVSPropertyOp30
 70
     1
102
RTVSPropertyOp31
 70
     1
102
RTVSPropertyOp32
 70
     1
102
RTVSPropertyOp33
 70
     1
102
RTVSPropertyOp34
 70
     1
102
RTVSPropertyOp35
 70
     1
102
RTVSPropertyOp36
 70
     1
102
RTVSPropertyOp37
 70
     1
102
RTVSPropertyOp38
 70
     1
102
RTVSPropertyOp39
 70
     1
102
RTVSPropertyOp40
 70
     1
102
RTVSPropertyOp41
 70
     1
102
RTVSPropertyOp42
 70
     1
102
RTVSPropertyOp43
 70
     1
102
RTVSPropertyOp44
 70
     1
102
RTVSPropertyOp45
 70
     1
102
RTVSPropertyOp46
 70
     1
102
RTVSPropertyOp47
 70
     1
102
RTVSPropertyOp48
 70
     1
102
RTVSPropertyOp49
 70
     1
102
RTVSPropertyOp50
 70
     1
102
RTVSPropertyOp51
 70
     0
102
RTVSPropertyOp52
 70
     0
102
RTVSPropertyOp53
 70
     1
102
RTVSPropertyOp54
 70
     1
102
RTVSPropertyOp55
 70
     1
102
RTVSPropertyOp56
 70
     1
102
RTVSPropertyOp57
 70
     1
102
RTVSPropertyOp58
 70
     1
102
RTVSPropertyOp59
 70
     1
102
RTVSPropertyOp60
 70
     1
102
RTVSPropertyOp61
 70
     1
102
RTVSPropertyOp62
 70
     1
  0
XRECORD
  5
66BA
102
{ACAD_REACTORS
330
66B9
102
}
330
66B9
100
AcDbXrecord
280
     1
102
RTVSPropertyOp28
 70
     1
102
RTVSPropertyOp29
 70
     1
102
RTVSPropertyOp30
 70
     1
102
RTVSPropertyOp31
 70
     1
102
RTVSPropertyOp32
 70
     1
102
RTVSPropertyOp33
 70
     1
102
RTVSPropertyOp34
 70
     1
102
RTVSPropertyOp35
 70
     1
102
RTVSPropertyOp36
 70
     1
102
RTVSPropertyOp37
 70
     1
102
RTVSPropertyOp38
 70
     1
102
RTVSPropertyOp39
 70
     1
102
RTVSPropertyOp40
 70
     1
102
RTVSPropertyOp41
 70
     1
102
RTVSPropertyOp42
 70
     1
102
RTVSPropertyOp43
 70
     1
102
RTVSPropertyOp44
 70
     1
102
RTVSPropertyOp45
 70
     1
102
RTVSPropertyOp46
 70
     1
102
RTVSPropertyOp47
 70
     1
102
RTVSPropertyOp48
 70
     1
102
RTVSPropertyOp49
 70
     1
102
RTVSPropertyOp50
 70
     1
102
RTVSPropertyOp51
 70
     0
102
RTVSPropertyOp52
 70
     0
102
RTVSPropertyOp53
 70
     1
102
RTVSPropertyOp54
 70
     1
102
RTVSPropertyOp55
 70
     1
102
RTVSPropertyOp56
 70
     1
102
RTVSPropertyOp57
 70
     1
102
RTVSPropertyOp58
 70
     1
102
RTVSPropertyOp59
 70
     1
102
RTVSPropertyOp60
 70
     1
102
RTVSPropertyOp61
 70
     1
102
RTVSPropertyOp62
 70
     1
  0
XRECORD
  5
66B4
102
{ACAD_REACTORS
330
66B3
102
}
330
66B3
100
AcDbXrecord
280
     1
102
RTVSPropertyOp28
 70
     1
102
RTVSPropertyOp29
 70
     1
102
RTVSPropertyOp30
 70
     1
102
RTVSPropertyOp31
 70
     1
102
RTVSPropertyOp32
 70
     1
102
RTVSPropertyOp33
 70
     1
102
RTVSPropertyOp34
 70
     1
102
RTVSPropertyOp35
 70
     1
102
RTVSPropertyOp36
 70
     1
102
RTVSPropertyOp37
 70
     1
102
RTVSPropertyOp38
 70
     1
102
RTVSPropertyOp39
 70
     1
102
RTVSPropertyOp40
 70
     1
102
RTVSPropertyOp41
 70
     1
102
RTVSPropertyOp42
 70
     1
102
RTVSPropertyOp43
 70
     1
102
RTVSPropertyOp44
 70
     1
102
RTVSPropertyOp45
 70
     1
102
RTVSPropertyOp46
 70
     1
102
RTVSPropertyOp47
 70
     1
102
RTVSPropertyOp48
 70
     1
102
RTVSPropertyOp49
 70
     1
102
RTVSPropertyOp50
 70
     1
102
RTVSPropertyOp51
 70
     0
102
RTVSPropertyOp52
 70
     0
102
RTVSPropertyOp53
 70
     1
102
RTVSPropertyOp54
 70
     1
102
RTVSPropertyOp55
 70
     1
102
RTVSPropertyOp56
 70
     1
102
RTVSPropertyOp57
 70
     1
102
RTVSPropertyOp58
 70
     1
102
RTVSPropertyOp59
 70
     1
102
RTVSPropertyOp60
 70
     1
102
RTVSPropertyOp61
 70
     1
102
RTVSPropertyOp62
 70
     1
  0
XRECORD
  5
66B6
102
{ACAD_REACTORS
330
66B5
102
}
330
66B5
100
AcDbXrecord
280
     1
102
RTVSPropertyOp28
 70
     1
102
RTVSPropertyOp29
 70
     1
102
RTVSPropertyOp30
 70
     1
102
RTVSPropertyOp31
 70
     1
102
RTVSPropertyOp32
 70
     1
102
RTVSPropertyOp33
 70
     1
102
RTVSPropertyOp34
 70
     1
102
RTVSPropertyOp35
 70
     1
102
RTVSPropertyOp36
 70
     1
102
RTVSPropertyOp37
 70
     1
102
RTVSPropertyOp38
 70
     1
102
RTVSPropertyOp39
 70
     1
102
RTVSPropertyOp40
 70
     1
102
RTVSPropertyOp41
 70
     1
102
RTVSPropertyOp42
 70
     1
102
RTVSPropertyOp43
 70
     1
102
RTVSPropertyOp44
 70
     1
102
RTVSPropertyOp45
 70
     1
102
RTVSPropertyOp46
 70
     1
102
RTVSPropertyOp47
 70
     1
102
RTVSPropertyOp48
 70
     1
102
RTVSPropertyOp49
 70
     1
102
RTVSPropertyOp50
 70
     1
102
RTVSPropertyOp51
 70
     0
102
RTVSPropertyOp52
 70
     0
102
RTVSPropertyOp53
 70
     1
102
RTVSPropertyOp54
 70
     1
102
RTVSPropertyOp55
 70
     1
102
RTVSPropertyOp56
 70
     1
102
RTVSPropertyOp57
 70
     1
102
RTVSPropertyOp58
 70
     1
102
RTVSPropertyOp59
 70
     1
102
RTVSPropertyOp60
 70
     1
102
RTVSPropertyOp61
 70
     1
102
RTVSPropertyOp62
 70
     1
  0
XRECORD
  5
66AC
102
{ACAD_REACTORS
330
66AB
102
}
330
66AB
100
AcDbXrecord
280
     1
102
RTVSPropertyOp28
 70
     1
102
RTVSPropertyOp29
 70
     1
102
RTVSPropertyOp30
 70
     1
102
RTVSPropertyOp31
 70
     1
102
RTVSPropertyOp32
 70
     1
102
RTVSPropertyOp33
 70
     1
102
RTVSPropertyOp34
 70
     1
102
RTVSPropertyOp35
 70
     1
102
RTVSPropertyOp36
 70
     1
102
RTVSPropertyOp37
 70
     1
102
RTVSPropertyOp38
 70
     1
102
RTVSPropertyOp39
 70
     1
102
RTVSPropertyOp40
 70
     1
102
RTVSPropertyOp41
 70
     1
102
RTVSPropertyOp42
 70
     1
102
RTVSPropertyOp43
 70
     1
102
RTVSPropertyOp44
 70
     1
102
RTVSPropertyOp45
 70
     1
102
RTVSPropertyOp46
 70
     1
102
RTVSPropertyOp47
 70
     1
102
RTVSPropertyOp48
 70
     1
102
RTVSPropertyOp49
 70
     1
102
RTVSPropertyOp50
 70
     1
102
RTVSPropertyOp51
 70
     0
102
RTVSPropertyOp52
 70
     0
102
RTVSPropertyOp53
 70
     1
102
RTVSPropertyOp54
 70
     1
102
RTVSPropertyOp55
 70
     1
102
RTVSPropertyOp56
 70
     1
102
RTVSPropertyOp57
 70
     1
102
RTVSPropertyOp58
 70
     1
102
RTVSPropertyOp59
 70
     1
102
RTVSPropertyOp60
 70
     1
102
RTVSPropertyOp61
 70
     1
102
RTVSPropertyOp62
 70
     1
  0
XRECORD
  5
66A0
102
{ACAD_REACTORS
330
669F
102
}
330
669F
100
AcDbXrecord
280
     1
102
RTVSPropertyOp28
 70
     1
102
RTVSPropertyOp29
 70
     1
102
RTVSPropertyOp30
 70
     1
102
RTVSPropertyOp31
 70
     1
102
RTVSPropertyOp32
 70
     1
102
RTVSPropertyOp33
 70
     1
102
RTVSPropertyOp34
 70
     1
102
RTVSPropertyOp35
 70
     1
102
RTVSPropertyOp36
 70
     1
102
RTVSPropertyOp37
 70
     1
102
RTVSPropertyOp38
 70
     1
102
RTVSPropertyOp39
 70
     1
102
RTVSPropertyOp40
 70
     1
102
RTVSPropertyOp41
 70
     1
102
RTVSPropertyOp42
 70
     1
102
RTVSPropertyOp43
 70
     1
102
RTVSPropertyOp44
 70
     1
102
RTVSPropertyOp45
 70
     1
102
RTVSPropertyOp46
 70
     1
102
RTVSPropertyOp47
 70
     1
102
RTVSPropertyOp48
 70
     1
102
RTVSPropertyOp49
 70
     1
102
RTVSPropertyOp50
 70
     1
102
RTVSPropertyOp51
 70
     0
102
RTVSPropertyOp52
 70
     0
102
RTVSPropertyOp53
 70
     1
102
RTVSPropertyOp54
 70
     1
102
RTVSPropertyOp55
 70
     1
102
RTVSPropertyOp56
 70
     1
102
RTVSPropertyOp57
 70
     1
102
RTVSPropertyOp58
 70
     1
102
RTVSPropertyOp59
 70
     1
102
RTVSPropertyOp60
 70
     1
102
RTVSPropertyOp61
 70
     1
102
RTVSPropertyOp62
 70
     1
  0
XRECORD
  5
66B8
102
{ACAD_REACTORS
330
66B7
102
}
330
66B7
100
AcDbXrecord
280
     1
102
RTVSPropertyOp28
 70
     1
102
RTVSPropertyOp29
 70
     1
102
RTVSPropertyOp30
 70
     1
102
RTVSPropertyOp31
 70
     1
102
RTVSPropertyOp32
 70
     1
102
RTVSPropertyOp33
 70
     1
102
RTVSPropertyOp34
 70
     1
102
RTVSPropertyOp35
 70
     1
102
RTVSPropertyOp36
 70
     1
102
RTVSPropertyOp37
 70
     1
102
RTVSPropertyOp38
 70
     1
102
RTVSPropertyOp39
 70
     1
102
RTVSPropertyOp40
 70
     1
102
RTVSPropertyOp41
 70
     1
102
RTVSPropertyOp42
 70
     1
102
RTVSPropertyOp43
 70
     1
102
RTVSPropertyOp44
 70
     1
102
RTVSPropertyOp45
 70
     1
102
RTVSPropertyOp46
 70
     1
102
RTVSPropertyOp47
 70
     1
102
RTVSPropertyOp48
 70
     1
102
RTVSPropertyOp49
 70
     1
102
RTVSPropertyOp50
 70
     1
102
RTVSPropertyOp51
 70
     0
102
RTVSPropertyOp52
 70
     0
102
RTVSPropertyOp53
 70
     1
102
RTVSPropertyOp54
 70
     1
102
RTVSPropertyOp55
 70
     1
102
RTVSPropertyOp56
 70
     1
102
RTVSPropertyOp57
 70
     1
102
RTVSPropertyOp58
 70
     1
102
RTVSPropertyOp59
 70
     1
102
RTVSPropertyOp60
 70
     1
102
RTVSPropertyOp61
 70
     1
102
RTVSPropertyOp62
 70
     1
  0
XRECORD
  5
10EF4
102
{ACAD_REACTORS
330
10EF3
102
}
330
10EF3
100
AcDbXrecord
280
     1
330
62B4
  0
ENDSEC
  0
SECTION
  2
ACDSDATA
 70
     2
 71
     6
  0
ACDSSCHEMA
 90
        0
  1
AcDb_Thumbnail_Schema
  2
AcDbDs::ID
280
    10
 91
        8
  2
Thumbnail_Data
280
    15
 91
        0
101
ACDSRECORD
 95
        0
 90
        1
  2
AcDbDs::TreatedAsObjectData
280
     1
291
     1
101
ACDSRECORD
 95
        0
 90
        2
  2
AcDbDs::Legacy
280
     1
291
     1
101
ACDSRECORD
  1
AcDbDs::ID
 90
        3
  2
AcDs:Indexable
280
     1
291
     1
101
ACDSRECORD
  1
AcDbDs::ID
 90
        4
  2
AcDbDs::HandleAttribute
280
     7
282
     1
  0
ACDSSCHEMA
 90
        1
  1
AcDbDs::TreatedAsObjectDataSchema
  2
AcDbDs::TreatedAsObjectData
280
     1
 91
        0
  0
ACDSSCHEMA
 90
        2
  1
AcDbDs::LegacySchema
  2
AcDbDs::Legacy
280
     1
 91
        0
  0
ACDSSCHEMA
 90
        3
  1
AcDbDs::IndexedPropertySchema
  2
AcDs:Indexable
280
     1
 91
        0
  0
ACDSSCHEMA
 90
        4
  1
AcDbDs::HandleAttributeSchema
  2
AcDbDs::HandleAttribute
280
     7
 91
        1
284
     1
  0
ACDSRECORD
 90
        0
  2
AcDbDs::ID
280
    10
320
6262
  2
Thumbnail_Data
280
    15
 94
     2289
310
89504E470D0A1A0A0000000D49484452000001040000010008030000006247F82E00000300504C5445000000000000FFFFFF0000000000000000000000000000000000000000000000000000330000660000990000CC0000FF0033000033330033660033990033CC0033FF0066000066330066660066990066CC0066FF0099
310
000099330099660099990099CC0099FF00CC0000CC3300CC6600CC9900CCCC00CCFF00FF0000FF3300FF6600FF9900FFCC00FFFF3300003300333300663300993300CC3300FF3333003333333333663333993333CC3333FF3366003366333366663366993366CC3366FF3399003399333399663399993399CC3399FF33CC00
310
33CC3333CC6633CC9933CCCC33CCFF33FF0033FF3333FF6633FF9933FFCC33FFFF6600006600336600666600996600CC6600FF6633006633336633666633996633CC6633FF6666006666336666666666996666CC6666FF6699006699336699666699996699CC6699FF66CC0066CC3366CC6666CC9966CCCC66CCFF66FF0066
310
FF3366FF6666FF9966FFCC66FFFF9900009900339900669900999900CC9900FF9933009933339933669933999933CC9933FF9966009966339966669966999966CC9966FF9999009999339999669999999999CC9999FF99CC0099CC3399CC6699CC9999CCCC99CCFF99FF0099FF3399FF6699FF9999FFCC99FFFFCC0000CC00
310
33CC0066CC0099CC00CCCC00FFCC3300CC3333CC3366CC3399CC33CCCC33FFCC6600CC6633CC6666CC6699CC66CCCC66FFCC9900CC9933CC9966CC9999CC99CCCC99FFCCCC00CCCC33CCCC66CCCC99CCCCCCCCCCFFCCFF00CCFF33CCFF66CCFF99CCFFCCCCFFFFFF0000FF0033FF0066FF0099FF00CCFF00FFFF3300FF3333
310
FF3366FF3399FF33CCFF33FFFF6600FF6633FF6666FF6699FF66CCFF66FFFF9900FF9933FF9966FF9999FF99CCFF99FFFFCC00FFCC33FFCC66FFCC99FFCCCCFFCCFFFFFF00FFFF33FFFF66FFFF99FFFFCCFFFFFF0000000D0D0D1A1A1A2828283535354343435050505D5D5D6B6B6B787878868686939393A1A1A1AEAEAEBB
310
BBBBC9C9C9D6D6D6E4E4E4F1F1F1FFFFFF000000000000000000000000000000000000000000000000000000000000C11FEF66000005AC4944415478DAEDDD4B9AAB201006D0BB03B7E1C4FDCF32611B8E6A0535717E1541411E3E924E80FAB98F264AF2C513289180FD8F90E81F0880000420000108400002108000042000
310
01087F8630949CBE8650F0070A04200001084000021080500582020210800004200001087E62E61561CD8845608BC02211D81EBB9B11871026913521950102100421E8517FB6C3FF7E460E42BA260001084000C23B089393E647B4FED08FCC361108FEA16F39A23C410108E39A68C9289B59D26D04A732AC1C640F7FA2D26B
310
82315832CA66962DA262C2A710BC88E08482B38050484C18EDA36D64697C1613F43153404182104C18344180EC8F89AA40A000819ED6049A4C483C9C1D68128260DA011DCF0EF68FA09A304D34C5FA0942100EFD0472FB09629A831F130831C11C7D2531C14BEA9D69A68809D16B87A99698F0F19A50613FC1DF2CB49F4088
310
09470EF5CE407BD84FA82526F825D48F26FA010108400042A908CBD9413AC2EF1210800004200001084000021080000420D484D07536F38369FFE52174873D4000C26D84A78D0708E523DC392C1346190857CA07502D215C6C3EB301371713ACD3558470152E104A43504F10B6409043F08EBB4184AD907804E22C82AE2CE3
310
281BC1ECD04B4A22679CE211F883087A294579FD043D39699CFF759D99AED3DB2D172FA5F745B5E3989FEB34EA571A23503F9FC7A857412D7BE78C9A337DAFB70CDB13F8DAEBB2593F433984329BC37CAC76D5D7A097FFF433C2B2818F67BEB3D71DE9146181A2129B833EF875E5DB3023CC15A1375B06FFCC77F2BAE3B694
310
2A8D30EEBAE5C5046F1EE31613AE2038212052139C3B93B02931961913DC14CC683D45F03FE70802EF17D8A3FDDB2E02A56AC21E5C8A6D0EE9CBE6DB08C96D261072F264D334826D0AEE69462402558570EC1FBE8DC0F15436C27ADBB13F8809EF5ED77CB19FC0BA9FC0DE7A870882F7A9B682E016504EB12482DBE5968DB0
310
54942611FC952F2708BA800C044A20E8724210F4D7243104360DA2418465BD8383E074F6FCCB015B1D5A40504B1A944DC360FF333BD2088AD7127B6927B9DBEAAF0924A1263C690E44C21032A7C88611AEF713DA45B8D16304029A838B30B482C0875B053857D6722EA53935BCC6B94115531D80D0128233F8670745F7AA2E
310
04C1BF9A38EE0202104421C4BF951E4EBE95DE109627F40DD4047F7E025D9A9F6011E69FFDFC0C2FE9290E95213C9AA9D21CC293394B2E42A439708531610CEEB8A5B764BE3C741062BF24BA3204F63E6BE56ECE1D8983101B8E168BC0CE64F7BBAB80DA44A08A11E819423001E1EE82B09210F6B77EBF26ECC75D794C7888
310
400102D588109D537315E1036BAB4B40D81F706A571A211890A91D8181F00481B985E6904939043B1A1756849A9709DF4B4704928AC04E4CF0C283100476262D3710139E2A1C5B065F0BA8AD22D0F1E3171613587673F8700202108000042000010840A801615DDCF09D5B30168DF0F4F6690D217CED5E9C152088AE09088C
310
B381BAFF36D427CA02A12804262000C14445A1085D26255EE8CE532E96FD3582CDF4414D4822A43FDDEE61D94210FABEBF3A78DC2E02E929999177290A8113EF9209084000C2338443240542A2AC29221C811A47E0F3B2DC464D78255377EC5E8508DC484C78E5835D1CC13A6D1DD1CEF16A1021DA1C5E6BD957B42C108000
310
84661152FD841842258131F63DCCC7107E7A7670EF11D6D90C07B70F5B760508CBF6974AA5CE7D86F7F2F9B2A809088C4000021080200241C655E493F104F30517B732C6C8F99A10DF00042000010840A81AA1074264B686C89AD0A78E481002933C049B38C8C899BD46E99A902F1AAD099C7F924A952809C1F9D58640908B
310
707DC147CB08E707122971F9D64CE606656523DC48C99B7EE711324BCC5A42C83525E6C6109EDC44235B022B64810004200001084000826C84C94FED209C1C181080809800042000010840A80BA1E4F42D84261310800004200001084000021080000420000108400002101EA4FFB031455187A599200000000049454E44AE
310
426082
  0
ENDSEC
  0
EOF
