  0
SECTION
  2
HEADER
  9
$ACADVER
  1
AC1027
  9
$ACADMAINTVER
 70
    55
  9
$DWGCODEPAGE
  3
ANSI_932
  9
$LASTSAVEDBY
  1
marketing
  9
$REQUIREDVERSIONS
160
                 0
  9
$INSBASE
 10
0.0
 20
0.0
 30
0.0
  9
$EXTMIN
 10
-0.0090584651927657
 20
-0.0113216981180813
 30
-0.0000000000112498
  9
$EXTMAX
 10
525.0390056620558
 20
742.511332071356
 30
0.0000000000002956
  9
$LIMMIN
 10
0.0
 20
0.0
  9
$LIMMAX
 10
594.0
 20
420.0
  9
$ORTHOMODE
 70
     1
  9
$REGENMODE
 70
     1
  9
$FILLMODE
 70
     1
  9
$QTEXTMODE
 70
     0
  9
$MIRRTEXT
 70
     1
  9
$LTSCALE
 40
1.0
  9
$ATTMODE
 70
     1
  9
$TEXTSIZE
 40
3.0
  9
$TRACEWID
 40
1.0
  9
$TEXTSTYLE
  7
STANDARD
  9
$CLAYER
  8
21
  9
$CELTYPE
  6
ByLayer
  9
$CECOLOR
 62
   256
  9
$CELTSCALE
 40
1.0
  9
$DISPSILH
 70
     0
  9
$DIMSCALE
 40
1.0
  9
$DIMASZ
 40
2.0
  9
$DIMEXO
 40
1.0
  9
$DIMDLI
 40
0.5
  9
$DIMRND
 40
0.0
  9
$DIMDLE
 40
0.0
  9
$DIMEXE
 40
0.5
  9
$DIMTP
 40
0.0
  9
$DIMTM
 40
0.0
  9
$DIMTXT
 40
6.0
  9
$DIMCEN
 40
0.09
  9
$DIMTSZ
 40
0.0
  9
$DIMTOL
 70
     0
  9
$DIMLIM
 70
     0
  9
$DIMTIH
 70
     0
  9
$DIMTOH
 70
     0
  9
$DIMSE1
 70
     0
  9
$DIMSE2
 70
     0
  9
$DIMTAD
 70
     3
  9
$DIMZIN
 70
    12
  9
$DIMBLK
  1
OPEN
  9
$DIMASO
 70
     1
  9
$DIMSHO
 70
     1
  9
$DIMPOST
  1

  9
$DIMAPOST
  1

  9
$DIMALT
 70
     0
  9
$DIMALTD
 70
     2
  9
$DIMALTF
 40
25.4
  9
$DIMLFAC
 40
1.0
  9
$DIMTOFL
 70
     0
  9
$DIMTVP
 40
0.0
  9
$DIMTIX
 70
     0
  9
$DIMSOXD
 70
     0
  9
$DIMSAH
 70
     0
  9
$DIMBLK1
  1

  9
$DIMBLK2
  1

  9
$DIMSTYLE
  2
STANDARD
  9
$DIMCLRD
 70
     0
  9
$DIMCLRE
 70
     0
  9
$DIMCLRT
 70
     0
  9
$DIMTFAC
 40
1.0
  9
$DIMGAP
 40
2.0
  9
$DIMJUST
 70
     0
  9
$DIMSD1
 70
     0
  9
$DIMSD2
 70
     0
  9
$DIMTOLJ
 70
     1
  9
$DIMTZIN
 70
     0
  9
$DIMALTZ
 70
     0
  9
$DIMALTTZ
 70
     0
  9
$DIMUPT
 70
     0
  9
$DIMDEC
 70
     1
  9
$DIMTDEC
 70
     1
  9
$DIMALTU
 70
     2
  9
$DIMALTTD
 70
     2
  9
$DIMTXSTY
  7
STANDARD
  9
$DIMAUNIT
 70
     0
  9
$DIMADEC
 70
     0
  9
$DIMALTRND
 40
0.0
  9
$DIMAZIN
 70
     0
  9
$DIMDSEP
 70
    46
  9
$DIMATFIT
 70
     3
  9
$DIMFRAC
 70
     0
  9
$DIMLDRBLK
  1
OPEN
  9
$DIMLUNIT
 70
     2
  9
$DIMLWD
 70
    -2
  9
$DIMLWE
 70
    -2
  9
$DIMTMOVE
 70
     0
  9
$DIMFXL
 40
1.0
  9
$DIMFXLON
 70
     0
  9
$DIMJOGANG
 40
0.7853981633974483
  9
$DIMTFILL
 70
     1
  9
$DIMTFILLCLR
 70
     0
  9
$DIMARCSYM
 70
     0
  9
$DIMLTYPE
  6

  9
$DIMLTEX1
  6

  9
$DIMLTEX2
  6

  9
$DIMTXTDIRECTION
 70
     0
  9
$LUNITS
 70
     2
  9
$LUPREC
 70
     4
  9
$SKETCHINC
 40
1.0
  9
$FILLETRAD
 40
0.0
  9
$AUNITS
 70
     0
  9
$AUPREC
 70
     0
  9
$MENU
  1
.
  9
$ELEVATION
 40
0.0
  9
$PELEVATION
 40
0.0
  9
$THICKNESS
 40
0.0
  9
$LIMCHECK
 70
     0
  9
$CHAMFERA
 40
0.0
  9
$CHAMFERB
 40
0.0
  9
$CHAMFERC
 40
0.0
  9
$CHAMFERD
 40
0.0
  9
$SKPOLY
 70
     0
  9
$TDCREATE
 40
2458661.367548785
  9
$TDUCREATE
 40
2458660.992548785
  9
$TDUPDATE
 40
2459243.459950695
  9
$TDUUPDATE
 40
2459243.084950695
  9
$TDINDWG
 40
0.5096677662
  9
$TDUSRTIMER
 40
0.5096669213
  9
$USRTIMER
 70
     1
  9
$ANGBASE
 50
0.0
  9
$ANGDIR
 70
     0
  9
$PDMODE
 70
     0
  9
$PDSIZE
 40
-1.0
  9
$PLINEWID
 40
0.0
  9
$SPLFRAME
 70
     0
  9
$SPLINETYPE
 70
     6
  9
$SPLINESEGS
 70
     8
  9
$HANDSEED
  5
85AA
  9
$SURFTAB1
 70
     6
  9
$SURFTAB2
 70
     6
  9
$SURFTYPE
 70
     6
  9
$SURFU
 70
     6
  9
$SURFV
 70
     6
  9
$UCSBASE
  2

  9
$UCSNAME
  2

  9
$UCSORG
 10
0.0
 20
0.0
 30
0.0
  9
$UCSXDIR
 10
1.0
 20
0.0
 30
0.0
  9
$UCSYDIR
 10
0.0
 20
1.0
 30
0.0
  9
$UCSORTHOREF
  2

  9
$UCSORTHOVIEW
 70
     0
  9
$UCSORGTOP
 10
0.0
 20
0.0
 30
0.0
  9
$UCSORGBOTTOM
 10
0.0
 20
0.0
 30
0.0
  9
$UCSORGLEFT
 10
0.0
 20
0.0
 30
0.0
  9
$UCSORGRIGHT
 10
0.0
 20
0.0
 30
0.0
  9
$UCSORGFRONT
 10
0.0
 20
0.0
 30
0.0
  9
$UCSORGBACK
 10
0.0
 20
0.0
 30
0.0
  9
$PUCSBASE
  2

  9
$PUCSNAME
  2

  9
$PUCSORG
 10
0.0
 20
0.0
 30
0.0
  9
$PUCSXDIR
 10
1.0
 20
0.0
 30
0.0
  9
$PUCSYDIR
 10
0.0
 20
1.0
 30
0.0
  9
$PUCSORTHOREF
  2

  9
$PUCSORTHOVIEW
 70
     0
  9
$PUCSORGTOP
 10
0.0
 20
0.0
 30
0.0
  9
$PUCSORGBOTTOM
 10
0.0
 20
0.0
 30
0.0
  9
$PUCSORGLEFT
 10
0.0
 20
0.0
 30
0.0
  9
$PUCSORGRIGHT
 10
0.0
 20
0.0
 30
0.0
  9
$PUCSORGFRONT
 10
0.0
 20
0.0
 30
0.0
  9
$PUCSORGBACK
 10
0.0
 20
0.0
 30
0.0
  9
$USERI1
 70
     0
  9
$USERI2
 70
     0
  9
$USERI3
 70
     0
  9
$USERI4
 70
     0
  9
$USERI5
 70
     0
  9
$USERR1
 40
0.0
  9
$USERR2
 40
0.0
  9
$USERR3
 40
0.0
  9
$USERR4
 40
0.0
  9
$USERR5
 40
0.0
  9
$WORLDVIEW
 70
     1
  9
$SHADEDGE
 70
     3
  9
$SHADEDIF
 70
    70
  9
$TILEMODE
 70
     1
  9
$MAXACTVP
 70
    64
  9
$PINSBASE
 10
0.0
 20
0.0
 30
0.0
  9
$PLIMCHECK
 70
     0
  9
$PEXTMIN
 10
1.000000000000000E+20
 20
1.000000000000000E+20
 30
1.000000000000000E+20
  9
$PEXTMAX
 10
-1.000000000000000E+20
 20
-1.000000000000000E+20
 30
-1.000000000000000E+20
  9
$PLIMMIN
 10
0.0
 20
0.0
  9
$PLIMMAX
 10
420.0
 20
297.0
  9
$UNITMODE
 70
     0
  9
$VISRETAIN
 70
     1
  9
$PLINEGEN
 70
     0
  9
$PSLTSCALE
 70
     1
  9
$TREEDEPTH
 70
  3020
  9
$CMLSTYLE
  2
Standard
  9
$CMLJUST
 70
     0
  9
$CMLSCALE
 40
20.0
  9
$PROXYGRAPHICS
 70
     1
  9
$MEASUREMENT
 70
     1
  9
$CELWEIGHT
370
    -1
  9
$ENDCAPS
280
     0
  9
$JOINSTYLE
280
     0
  9
$LWDISPLAY
290
     1
  9
$INSUNITS
 70
     4
  9
$HYPERLINKBASE
  1

  9
$STYLESHEET
  1
MONOCHROME.CTB
  9
$XEDIT
290
     1
  9
$CEPSNTYPE
380
     0
  9
$PSTYLEMODE
290
     1
  9
$FINGERPRINTGUID
  2
{4F539629-E7AA-4B74-AABF-D3D77F167EDD}
  9
$VERSIONGUID
  2
{B224B410-CC64-4BC5-A4B2-E4736FEB7745}
  9
$EXTNAMES
290
     1
  9
$PSVPSCALE
 40
0.0
  9
$OLESTARTUP
290
     0
  9
$SORTENTS
280
   127
  9
$INDEXCTL
280
     0
  9
$HIDETEXT
280
     1
  9
$XCLIPFRAME
280
     0
  9
$HALOGAP
280
     0
  9
$OBSCOLOR
 70
   257
  9
$OBSLTYPE
280
     0
  9
$INTERSECTIONDISPLAY
280
     0
  9
$INTERSECTIONCOLOR
 70
   257
  9
$DIMASSOC
280
     2
  9
$PROJECTNAME
  1

  9
$CAMERADISPLAY
290
     0
  9
$LENSLENGTH
 40
50.0
  9
$CAMERAHEIGHT
 40
0.0
  9
$STEPSPERSEC
 40
2.0
  9
$STEPSIZE
 40
6.0
  9
$3DDWFPREC
 40
2.0
  9
$PSOLWIDTH
 40
5.0
  9
$PSOLHEIGHT
 40
80.0
  9
$LOFTANG1
 40
1.5707963268
  9
$LOFTANG2
 40
1.5707963268
  9
$LOFTMAG1
 40
0.0
  9
$LOFTMAG2
 40
0.0
  9
$LOFTPARAM
 70
     7
  9
$LOFTNORMALS
280
     1
  9
$LATITUDE
 40
37.795
  9
$LONGITUDE
 40
-122.394
  9
$NORTHDIRECTION
 40
0.0
  9
$TIMEZONE
 70
 -8000
  9
$LIGHTGLYPHDISPLAY
280
     1
  9
$TILEMODELIGHTSYNCH
280
     1
  9
$CMATERIAL
347
44
  9
$SOLIDHIST
280
     1
  9
$SHOWHIST
280
     1
  9
$DWFFRAME
280
     2
  9
$DGNFRAME
280
     2
  9
$REALWORLDSCALE
290
     1
  9
$INTERFERECOLOR
 62
   256
  9
$INTERFEREOBJVS
345
33
  9
$INTERFEREVPVS
346
59A0
  9
$CSHADOW
280
     0
  9
$SHADOWPLANELOCATION
 40
0.0
  0
ENDSEC
  0
SECTION
  2
CLASSES
  0
CLASS
  1
ACDBDICTIONARYWDFLT
  2
AcDbDictionaryWithDefault
  3
ObjectDBX Classes
 90
        0
 91
        1
280
     0
281
     0
  0
CLASS
  1
VISUALSTYLE
  2
AcDbVisualStyle
  3
ObjectDBX Classes
 90
     4095
 91
       26
280
     0
281
     0
  0
CLASS
  1
MATERIAL
  2
AcDbMaterial
  3
ObjectDBX Classes
 90
     1153
 91
        3
280
     0
281
     0
  0
CLASS
  1
SCALE
  2
AcDbScale
  3
ObjectDBX Classes
 90
     1153
 91
       33
280
     0
281
     0
  0
CLASS
  1
SUN
  2
AcDbSun
  3
SCENEOE
 90
     1153
 91
        1
280
     0
281
     0
  0
CLASS
  1
DICTIONARYVAR
  2
AcDbDictionaryVar
  3
ObjectDBX Classes
 90
        0
 91
        7
280
     0
281
     0
  0
CLASS
  1
TABLESTYLE
  2
AcDbTableStyle
  3
ObjectDBX Classes
 90
     4095
 91
        1
280
     0
281
     0
  0
CLASS
  1
MLEADERSTYLE
  2
AcDbMLeaderStyle
  3
ACDB_MLEADERSTYLE_CLASS
 90
     4095
 91
        1
280
     0
281
     0
  0
CLASS
  1
SORTENTSTABLE
  2
AcDbSortentsTable
  3
ObjectDBX Classes
 90
        0
 91
        1
280
     0
281
     0
  0
CLASS
  1
AEC_REFEDIT_STATUS_TRACKER
  2
AecDbRefEditStatusTracker
  3
AecArchBase70|Product Desc: Autodesk Architectural Desktop 2007 |Company: Autodesk,Inc. |WEB Address: www.autodesk.com
 90
      129
 91
        0
280
     0
281
     0
  0
CLASS
  1
NPOCOLLECTION
  2
AcDbImpNonPersistentObjectsCollection
  3
ObjectDBX Classes
 90
     1153
 91
        0
280
     0
281
     0
  0
CLASS
  1
ACDB_MTEXTOBJECTCONTEXTDATA_CLASS
  2
AcDbMTextObjectContextData
  3
ObjectDBX Classes
 90
     1153
 91
        0
280
     0
281
     0
  0
CLASS
  1
DIMASSOC
  2
AcDbDimAssoc
  3
"AcDbDimAssoc|Product Desc:     AcDim ARX App For Dimension|Company:          Autodesk, Inc.|WEB Address:      www.autodesk.com"
 90
        0
 91
        3
280
     0
281
     0
  0
CLASS
  1
CELLSTYLEMAP
  2
AcDbCellStyleMap
  3
ObjectDBX Classes
 90
     1152
 91
        2
280
     0
281
     0
  0
CLASS
  1
ACDBSECTIONVIEWSTYLE
  2
AcDbSectionViewStyle
  3
ObjectDBX Classes
 90
     1025
 91
        1
280
     0
281
     0
  0
CLASS
  1
ACDBDETAILVIEWSTYLE
  2
AcDbDetailViewStyle
  3
ObjectDBX Classes
 90
     1025
 91
        1
280
     0
281
     0
  0
ENDSEC
  0
SECTION
  2
TABLES
  0
TABLE
  2
VPORT
  5
8
330
0
100
AcDbSymbolTable
 70
     1
  0
VPORT
  5
29
330
8
100
AcDbSymbolTableRecord
100
AcDbViewportTableRecord
  2
*Active
 70
     0
 10
0.0
 20
0.0
 11
1.0
 21
1.0
 12
262.5149735984315
 22
371.250005186619
 13
0.0
 23
0.0
 14
10.0
 24
10.0
 15
10.0
 25
10.0
 16
0.0
 26
0.0
 36
1.0
 17
0.0
 27
0.0
 37
0.0
 40
749.272859712833
 41
2.464339908952958
 42
50.0
 43
0.0
 44
0.0
 50
0.0
 51
0.0
 71
     0
 72
  2000
 73
     1
 74
     3
 75
     0
 76
     0
 77
     0
 78
     0
281
     0
 65
     1
110
0.0
120
0.0
130
0.0
111
1.0
121
0.0
131
0.0
112
0.0
122
1.0
132
0.0
 79
     0
146
0.0
348
2F
 60
     3
 61
     5
292
     1
282
     1
141
0.0
142
0.0
 63
   250
361
69
1001
ACAD_NAV_VCDISPLAY
1070
     3
  0
ENDTAB
  0
TABLE
  2
LTYPE
  5
5
330
0
100
AcDbSymbolTable
 70
     6
  0
LTYPE
  5
14
330
5
100
AcDbSymbolTableRecord
100
AcDbLinetypeTableRecord
  2
ByBlock
 70
     0
  3

 72
    65
 73
     0
 40
0.0
  0
LTYPE
  5
15
330
5
100
AcDbSymbolTableRecord
100
AcDbLinetypeTableRecord
  2
ByLayer
 70
     0
  3

 72
    65
 73
     0
 40
0.0
  0
LTYPE
  5
16
330
5
100
AcDbSymbolTableRecord
100
AcDbLinetypeTableRecord
  2
Continuous
 70
     0
  3
Solid line
 72
    65
 73
     0
 40
0.0
  0
LTYPE
  5
6A
330
5
100
AcDbSymbolTableRecord
100
AcDbLinetypeTableRecord
  2
SLD-実線
 70
     0
  3
SolidWorks Line Style
 72
    65
 73
     0
 40
0.0
  0
LTYPE
  5
6496
330
5
100
AcDbSymbolTableRecord
100
AcDbLinetypeTableRecord
  2
CONTINOUS
 70
     0
  3
Solid line
 72
    65
 73
     0
 40
0.0
  0
LTYPE
  5
6497
330
5
100
AcDbSymbolTableRecord
100
AcDbLinetypeTableRecord
  2
DASHDOT
 70
     0
  3
__ . __ . __ . __ . __ . __ . __ . __ . __ . __
 72
    65
 73
     4
 40
1.0
 49
0.5
 74
     0
 49
-0.25
 74
     0
 49
0.0
 74
     0
 49
-0.25
 74
     0
  0
LTYPE
  5
6498
330
5
100
AcDbSymbolTableRecord
100
AcDbLinetypeTableRecord
  2
DIVIDE
 70
     0
  3
Divide ____ . . ____ . . ____ . . ____ . . ____
 72
    65
 73
     6
 40
1.25
 49
0.5
 74
     0
 49
-0.25
 74
     0
 49
0.0
 74
     0
 49
-0.25
 74
     0
 49
0.0
 74
     0
 49
-0.25
 74
     0
  0
LTYPE
  5
6C7D
330
5
100
AcDbSymbolTableRecord
100
AcDbLinetypeTableRecord
  2
CENTER
 70
     0
  3
____ _ ____ _ ____ _ ____ _ ____ _ ____ _ ____
 72
    65
 73
     4
 40
0.6
 49
0.375
 74
     0
 49
-0.075
 74
     0
 49
0.075
 74
     0
 49
-0.075
 74
     0
  0
ENDTAB
  0
TABLE
  2
LAYER
  5
2
102
{ACAD_XDICTIONARY
360
5F3B
102
}
330
0
100
AcDbSymbolTable
 70
    13
  0
LAYER
  5
10
102
{ACAD_XDICTIONARY
360
59A9
102
}
330
2
100
AcDbSymbolTableRecord
100
AcDbLayerTableRecord
  2
0
 70
     0
 62
     7
  6
Continuous
370
    -3
390
F
347
46
348
0
  0
LAYER
  5
71
102
{ACAD_XDICTIONARY
360
59AB
102
}
330
2
100
AcDbSymbolTableRecord
100
AcDbLayerTableRecord
  2
SLD-0
 70
     0
 62
     9
  6
SLD-実線
370
    -3
390
F
347
46
348
0
  0
LAYER
  5
59BD
330
2
100
AcDbSymbolTableRecord
100
AcDbLayerTableRecord
  2
Defpoints
 70
     0
 62
     7
  6
Continuous
290
     0
370
    -3
390
F
347
46
348
0
  0
LAYER
  5
6499
102
{ACAD_XDICTIONARY
360
649A
102
}
330
2
100
AcDbSymbolTableRecord
100
AcDbLayerTableRecord
  2
16
 70
     0
 62
     6
  6
DASHDOT
370
    -3
390
F
347
46
348
0
  0
LAYER
  5
649B
102
{ACAD_XDICTIONARY
360
649C
102
}
330
2
100
AcDbSymbolTableRecord
100
AcDbLayerTableRecord
  2
30
 70
     0
 62
     9
  6
Continuous
370
    -3
390
F
347
46
348
0
  0
LAYER
  5
649D
102
{ACAD_XDICTIONARY
360
649E
102
}
330
2
100
AcDbSymbolTableRecord
100
AcDbLayerTableRecord
  2
18
 70
     0
 62
     5
  6
DIVIDE
370
    -3
390
F
347
46
348
0
  0
LAYER
  5
649F
102
{ACAD_XDICTIONARY
360
64A0
102
}
330
2
100
AcDbSymbolTableRecord
100
AcDbLayerTableRecord
  2
10
 70
     0
 62
     4
  6
Continuous
370
    -3
390
F
347
46
348
0
  0
LAYER
  5
64A1
102
{ACAD_XDICTIONARY
360
64A2
102
}
330
2
100
AcDbSymbolTableRecord
100
AcDbLayerTableRecord
  2
17
 70
     0
 62
     2
  6
DASHDOT
370
    -3
390
F
347
46
348
0
  0
LAYER
  5
64A3
330
2
100
AcDbSymbolTableRecord
100
AcDbLayerTableRecord
  2
22
 70
     0
 62
     3
  6
Continuous
370
    -3
390
F
347
46
348
0
  0
LAYER
  5
7307
102
{ACAD_XDICTIONARY
360
7308
102
}
330
2
100
AcDbSymbolTableRecord
100
AcDbLayerTableRecord
  2
240
 70
     0
 62
     7
  6
Continuous
370
    -3
390
F
347
46
348
0
  0
LAYER
  5
8446
102
{ACAD_XDICTIONARY
360
8447
102
}
330
2
100
AcDbSymbolTableRecord
100
AcDbLayerTableRecord
  2
12
 70
     0
 62
     3
  6
CONTINOUS
370
    -3
390
F
347
46
348
0
  0
LAYER
  5
8594
330
2
100
AcDbSymbolTableRecord
100
AcDbLayerTableRecord
  2
21
 70
     0
 62
     7
  6
Continuous
370
    -3
390
F
347
46
348
0
1001
AcAecLayerStandard
1000

1000

1001
AcCmTransparency
1071
        0
  0
LAYER
  5
8597
330
2
100
AcDbSymbolTableRecord
100
AcDbLayerTableRecord
  2
24
 70
     0
 62
     7
  6
Continuous
370
    -3
390
F
347
46
348
0
1001
AcAecLayerStandard
1000

1000

1001
AcCmTransparency
1071
        0
  0
ENDTAB
  0
TABLE
  2
STYLE
  5
3
330
0
100
AcDbSymbolTable
 70
     4
  0
STYLE
  5
11
330
3
100
AcDbSymbolTableRecord
100
AcDbTextStyleTableRecord
  2
STANDARD
 70
     0
 40
0.0
 41
1.0
 50
0.0
 71
     0
 42
3.0
  3
MS UI Gothic.ttf
  4

1001
ACAD
1000
MS UI GOTHIC
1071
    32818
  0
STYLE
  5
203
330
3
100
AcDbSymbolTableRecord
100
AcDbTextStyleTableRecord
  2
SLDTEXTSTYLE0
 70
     0
 40
0.0
 41
1.0
 50
0.0
 71
     0
 42
3.0
  3
MS UI Gothic.ttf
  4

1001
ACAD
1000
MS UI Gothic
1071
      306
  0
STYLE
  5
64A5
330
3
100
AcDbSymbolTableRecord
100
AcDbTextStyleTableRecord
  2
blockfont
 70
     0
 40
0.0
 41
1.0
 50
0.0
 71
     0
 42
0.2
  3
simplex.shx
  4
bigfont
  0
STYLE
  5
8448
330
3
100
AcDbSymbolTableRecord
100
AcDbTextStyleTableRecord
  2
STANDARD1
 70
     0
 40
0.0
 41
1.0
 50
0.0
 71
     0
 42
5.0
  3
MONOTXT
  4
BIGFONT
  0
ENDTAB
  0
TABLE
  2
VIEW
  5
6
330
0
100
AcDbSymbolTable
 70
     0
  0
ENDTAB
  0
TABLE
  2
UCS
  5
7
330
0
100
AcDbSymbolTable
 70
     0
  0
ENDTAB
  0
TABLE
  2
APPID
  5
9
330
0
100
AcDbSymbolTable
 70
    10
  0
APPID
  5
12
330
9
100
AcDbSymbolTableRecord
100
AcDbRegAppTableRecord
  2
ACAD
 70
     0
  0
APPID
  5
5C7A
330
9
100
AcDbSymbolTableRecord
100
AcDbRegAppTableRecord
  2
ACAD_DSTYLE_DIMJAG
 70
     0
  0
APPID
  5
5C7B
330
9
100
AcDbSymbolTableRecord
100
AcDbRegAppTableRecord
  2
ACAD_DSTYLE_DIMTALN
 70
     0
  0
APPID
  5
64A8
330
9
100
AcDbSymbolTableRecord
100
AcDbRegAppTableRecord
  2
ACAD_NAV_VCDISPLAY
 70
     0
  0
APPID
  5
6C84
330
9
100
AcDbSymbolTableRecord
100
AcDbRegAppTableRecord
  2
ACAD_DSTYLE_DIMRADIAL_EXTENSION
 70
     0
  0
APPID
  5
6C85
330
9
100
AcDbSymbolTableRecord
100
AcDbRegAppTableRecord
  2
AcadAnnotative
 70
     0
  0
APPID
  5
725A
330
9
100
AcDbSymbolTableRecord
100
AcDbRegAppTableRecord
  2
ACAD_EXEMPT_FROM_CAD_STANDARDS
 70
     0
  0
APPID
  5
730B
330
9
100
AcDbSymbolTableRecord
100
AcDbRegAppTableRecord
  2
ACAD_PSEXT
 70
     0
  0
APPID
  5
8595
330
9
100
AcDbSymbolTableRecord
100
AcDbRegAppTableRecord
  2
AcAecLayerStandard
 70
     0
  0
APPID
  5
8596
330
9
100
AcDbSymbolTableRecord
100
AcDbRegAppTableRecord
  2
AcCmTransparency
 70
     0
  0
ENDTAB
  0
TABLE
  2
DIMSTYLE
  5
A
330
0
100
AcDbSymbolTable
 70
     2
100
AcDbDimStyleTable
 71
     2
340
64A6
340
64A7
  0
DIMSTYLE
105
64A6
102
{ACAD_REACTORS
330
66FC
330
6717
330
6623
330
6626
330
6665
330
6676
330
66D9
330
66DC
330
7276
330
7351
330
7433
330
75C1
330
6646
330
66DD
330
66DB
330
66DA
330
66DF
330
66E0
330
7AA4
330
7D06
330
7EE5
330
7EE6
330
7F12
330
7F20
330
7F21
330
7F22
330
7F23
330
7F24
330
8476
330
7414
102
}
330
A
100
AcDbSymbolTableRecord
100
AcDbDimStyleTableRecord
  2
STANDARD
 70
     0
 41
2.0
 42
1.0
 43
0.5
 44
0.5
 69
     1
 73
     0
 74
     0
 77
     3
 78
    12
140
6.0
147
2.0
271
     1
272
     1
340
11
341
629D
342
629D
1001
ACAD_DSTYLE_DIMJAG
1070
   388
1040
1.5
1001
ACAD_DSTYLE_DIMTALN
1070
   392
1070
     0
  0
DIMSTYLE
105
64A7
102
{ACAD_REACTORS
330
7354
330
73F1
330
6663
330
7FD4
102
}
330
A
100
AcDbSymbolTableRecord
100
AcDbDimStyleTableRecord
  2
STANDARD1
 70
     0
 41
2.0
 42
3.0
 43
0.5
 44
0.5
 77
     3
 78
    12
140
6.0
147
2.0
172
     1
271
     8
272
     8
289
     2
340
11
341
629D
342
629D
1001
ACAD_DSTYLE_DIMJAG
1070
   388
1040
1.5
1001
ACAD_DSTYLE_DIMTALN
1070
   392
1070
     0
  0
ENDTAB
  0
TABLE
  2
BLOCK_RECORD
  5
1
330
0
100
AcDbSymbolTable
 70
    35
  0
BLOCK_RECORD
  5
1F
102
{ACAD_XDICTIONARY
360
72CC
102
}
330
1
100
AcDbSymbolTableRecord
100
AcDbBlockTableRecord
  2
*Model_Space
340
22
 70
     0
280
     1
281
     0
  0
BLOCK_RECORD
  5
1B
330
1
100
AcDbSymbolTableRecord
100
AcDbBlockTableRecord
  2
*Paper_Space
340
1E
 70
     0
280
     1
281
     0
  0
BLOCK_RECORD
  5
23
330
1
100
AcDbSymbolTableRecord
100
AcDbBlockTableRecord
  2
*Paper_Space0
340
26
 70
     0
280
     1
281
     0
  0
BLOCK_RECORD
  5
629D
330
1
100
AcDbSymbolTableRecord
100
AcDbBlockTableRecord
  2
_OPEN
340
0
102
{BLKREFS
331
8459
331
845A
331
84B5
331
84B6
331
84D5
331
84D6
331
854F
331
8550
331
828C
331
828D
331
837C
331
837D
331
83B6
331
83BD
331
83CD
331
83CE
331
83DD
331
83DE
331
8413
331
8414
331
82E7
331
82E8
331
8295
331
8296
331
829E
331
829F
331
82B0
331
82B1
331
82B9
331
82BA
331
82C3
331
82C4
331
82CC
331
82CD
331
851B
331
851C
331
8357
331
8358
331
8361
331
8362
331
836A
331
836B
331
8373
331
8374
331
841C
331
841D
331
8425
331
8426
331
8328
331
8329
331
8331
331
8332
331
833A
331
833B
331
8345
331
8346
331
834E
331
834F
331
8512
331
8513
331
8470
331
8471
102
}
 70
     0
280
     1
281
     0
  0
BLOCK_RECORD
  5
671E
330
1
100
AcDbSymbolTableRecord
100
AcDbBlockTableRecord
  2
*D2
340
0
 70
     0
280
     1
281
     0
  0
BLOCK_RECORD
  5
678C
330
1
100
AcDbSymbolTableRecord
100
AcDbBlockTableRecord
  2
*D3
340
0
 70
     0
280
     1
281
     0
  0
BLOCK_RECORD
  5
6814
330
1
100
AcDbSymbolTableRecord
100
AcDbBlockTableRecord
  2
*D4
340
0
 70
     0
280
     1
281
     0
  0
BLOCK_RECORD
  5
682C
330
1
100
AcDbSymbolTableRecord
100
AcDbBlockTableRecord
  2
*D5
340
0
 70
     0
280
     1
281
     0
  0
BLOCK_RECORD
  5
6844
330
1
100
AcDbSymbolTableRecord
100
AcDbBlockTableRecord
  2
*D6
340
0
 70
     0
280
     1
281
     0
  0
BLOCK_RECORD
  5
6871
330
1
100
AcDbSymbolTableRecord
100
AcDbBlockTableRecord
  2
*D7
340
0
 70
     0
280
     1
281
     0
  0
BLOCK_RECORD
  5
687D
330
1
100
AcDbSymbolTableRecord
100
AcDbBlockTableRecord
  2
*D8
340
0
 70
     0
280
     1
281
     0
  0
BLOCK_RECORD
  5
68AE
330
1
100
AcDbSymbolTableRecord
100
AcDbBlockTableRecord
  2
*D9
340
0
 70
     0
280
     1
281
     0
  0
BLOCK_RECORD
  5
68BA
330
1
100
AcDbSymbolTableRecord
100
AcDbBlockTableRecord
  2
*D10
340
0
 70
     0
280
     1
281
     0
  0
BLOCK_RECORD
  5
68C6
330
1
100
AcDbSymbolTableRecord
100
AcDbBlockTableRecord
  2
*D11
340
0
 70
     0
280
     1
281
     0
  0
BLOCK_RECORD
  5
68D2
330
1
100
AcDbSymbolTableRecord
100
AcDbBlockTableRecord
  2
*D12
340
0
 70
     0
280
     1
281
     0
  0
BLOCK_RECORD
  5
68DF
330
1
100
AcDbSymbolTableRecord
100
AcDbBlockTableRecord
  2
*D13
340
0
 70
     0
280
     1
281
     0
  0
BLOCK_RECORD
  5
68F9
330
1
100
AcDbSymbolTableRecord
100
AcDbBlockTableRecord
  2
*D14
340
0
 70
     0
280
     1
281
     0
  0
BLOCK_RECORD
  5
6905
330
1
100
AcDbSymbolTableRecord
100
AcDbBlockTableRecord
  2
*D15
340
0
 70
     0
280
     1
281
     0
  0
BLOCK_RECORD
  5
7277
330
1
100
AcDbSymbolTableRecord
100
AcDbBlockTableRecord
  2
*D16
340
0
 70
     0
280
     1
281
     0
  0
BLOCK_RECORD
  5
7364
330
1
100
AcDbSymbolTableRecord
100
AcDbBlockTableRecord
  2
*D17
340
0
 70
     0
280
     1
281
     0
  0
BLOCK_RECORD
  5
7388
330
1
100
AcDbSymbolTableRecord
100
AcDbBlockTableRecord
  2
*D18
340
0
 70
     0
280
     1
281
     0
  0
BLOCK_RECORD
  5
73F2
330
1
100
AcDbSymbolTableRecord
100
AcDbBlockTableRecord
  2
*D19
340
0
 70
     0
280
     1
281
     0
  0
BLOCK_RECORD
  5
7415
330
1
100
AcDbSymbolTableRecord
100
AcDbBlockTableRecord
  2
*D20
340
0
 70
     0
280
     1
281
     0
  0
BLOCK_RECORD
  5
7434
330
1
100
AcDbSymbolTableRecord
100
AcDbBlockTableRecord
  2
*D21
340
0
 70
     0
280
     1
281
     0
  0
BLOCK_RECORD
  5
75C2
330
1
100
AcDbSymbolTableRecord
100
AcDbBlockTableRecord
  2
*D22
340
0
 70
     0
280
     1
281
     0
  0
BLOCK_RECORD
  5
7AA5
330
1
100
AcDbSymbolTableRecord
100
AcDbBlockTableRecord
  2
*D23
340
0
 70
     0
280
     1
281
     0
  0
BLOCK_RECORD
  5
7D07
330
1
100
AcDbSymbolTableRecord
100
AcDbBlockTableRecord
  2
*D24
340
0
 70
     0
280
     1
281
     0
  0
BLOCK_RECORD
  5
7F25
330
1
100
AcDbSymbolTableRecord
100
AcDbBlockTableRecord
  2
*D25
340
0
 70
     0
280
     1
281
     0
  0
BLOCK_RECORD
  5
7F31
330
1
100
AcDbSymbolTableRecord
100
AcDbBlockTableRecord
  2
*D26
340
0
 70
     0
280
     1
281
     0
  0
BLOCK_RECORD
  5
7F3F
330
1
100
AcDbSymbolTableRecord
100
AcDbBlockTableRecord
  2
*D27
340
0
 70
     0
280
     1
281
     0
  0
BLOCK_RECORD
  5
7F4B
330
1
100
AcDbSymbolTableRecord
100
AcDbBlockTableRecord
  2
*D28
340
0
 70
     0
280
     1
281
     0
  0
BLOCK_RECORD
  5
7F57
330
1
100
AcDbSymbolTableRecord
100
AcDbBlockTableRecord
  2
*D29
340
0
 70
     0
280
     1
281
     0
  0
BLOCK_RECORD
  5
7F64
330
1
100
AcDbSymbolTableRecord
100
AcDbBlockTableRecord
  2
*D30
340
0
 70
     0
280
     1
281
     0
  0
BLOCK_RECORD
  5
7F70
330
1
100
AcDbSymbolTableRecord
100
AcDbBlockTableRecord
  2
*D31
340
0
 70
     0
280
     1
281
     0
  0
BLOCK_RECORD
  5
7F7C
330
1
100
AcDbSymbolTableRecord
100
AcDbBlockTableRecord
  2
*D32
340
0
 70
     0
280
     1
281
     0
  0
BLOCK_RECORD
  5
843B
330
1
100
AcDbSymbolTableRecord
100
AcDbBlockTableRecord
  2
SW_CENTERMARKSYMBOL_18
340
0
102
{BLKREFS
331
8455
102
}
 70
     0
280
     1
281
     0
  0
BLOCK_RECORD
  5
8477
330
1
100
AcDbSymbolTableRecord
100
AcDbBlockTableRecord
  2
*D34
340
0
 70
     0
280
     1
281
     0
  0
ENDTAB
  0
ENDSEC
  0
SECTION
  2
BLOCKS
  0
BLOCK
  5
20
330
1F
100
AcDbEntity
  8
0
100
AcDbBlockBegin
  2
*Model_Space
 70
     0
 10
0.0
 20
0.0
 30
0.0
  3
*Model_Space
  1
*Model_Space
  0
ENDBLK
  5
21
330
1F
100
AcDbEntity
  8
0
100
AcDbBlockEnd
  0
BLOCK
  5
1C
330
1B
100
AcDbEntity
 67
     1
  8
0
100
AcDbBlockBegin
  2
*Paper_Space
 70
     0
 10
0.0
 20
0.0
 30
0.0
  3
*Paper_Space
  1
*Paper_Space
  0
ENDBLK
  5
1D
330
1B
100
AcDbEntity
 67
     1
  8
0
100
AcDbBlockEnd
  0
BLOCK
  5
24
330
23
100
AcDbEntity
 67
     1
  8
0
100
AcDbBlockBegin
  2
*Paper_Space0
 70
     0
 10
0.0
 20
0.0
 30
0.0
  3
*Paper_Space0
  1
*Paper_Space0
  0
ENDBLK
  5
25
330
23
100
AcDbEntity
 67
     1
  8
0
100
AcDbBlockEnd
  0
BLOCK
  5
629E
330
629D
100
AcDbEntity
  8
0
100
AcDbBlockBegin
  2
_OPEN
 70
     0
 10
0.0
 20
0.0
 30
0.0
  3
_OPEN
  1

  0
LINE
  5
629F
330
629D
100
AcDbEntity
  8
30
  6
Continuous
 62
     0
100
AcDbLine
 10
-1.0
 20
0.166667
 30
0.0
 11
0.0
 21
0.0
 31
0.0
  0
LINE
  5
62A0
330
629D
100
AcDbEntity
  8
30
  6
Continuous
 62
     0
100
AcDbLine
 10
-1.0
 20
-0.166667
 30
0.0
 11
0.0
 21
0.0
 31
0.0
  0
LINE
  5
62A1
330
629D
100
AcDbEntity
  8
30
  6
Continuous
 62
     0
100
AcDbLine
 10
0.0
 20
0.0
 30
0.0
 11
-1.0
 21
0.0
 31
0.0
  0
ENDBLK
  5
62A2
330
629D
100
AcDbEntity
  8
0
100
AcDbBlockEnd
  0
BLOCK
  5
671F
330
671E
100
AcDbEntity
  8
0
100
AcDbBlockBegin
  2
*D2
 70
     1
 10
0.0
 20
0.0
 30
0.0
  3
*D2
  1

  0
LINE
  5
8410
330
671E
100
AcDbEntity
  8
30
  6
Continuous
 62
     0
440
 16777216
370
    -2
100
AcDbLine
 10
130.9590590184537
 20
601.0763976003434
 30
0.0
 11
154.2248318365175
 21
601.0763976003434
 31
0.0
  0
LINE
  5
8411
330
671E
100
AcDbEntity
  8
30
  6
Continuous
 62
     0
440
 16777216
370
    -2
100
AcDbLine
 10
127.9235602063931
 20
528.0948591778446
 30
0.0
 11
154.2248318365175
 21
528.0948591778446
 31
0.0
  0
LINE
  5
8412
330
671E
100
AcDbEntity
  8
30
  6
Continuous
 62
     0
440
 16777216
370
    -2
100
AcDbLine
 10
153.7248318365175
 20
599.0763976003433
 30
0.0
 11
153.7248318365175
 21
530.0948591778443
 31
0.0
  0
INSERT
  5
8413
330
671E
100
AcDbEntity
  8
30
  6
Continuous
 62
     0
440
 16777216
370
    -2
100
AcDbBlockReference
  2
_OPEN
 10
153.7248318365175
 20
601.0763976003434
 30
0.0
 41
2.0
 42
2.0
 43
2.0
 50
90.0
  0
INSERT
  5
8414
330
671E
100
AcDbEntity
  8
30
  6
Continuous
 62
     0
440
 16777216
370
    -2
100
AcDbBlockReference
  2
_OPEN
 10
153.7248318365175
 20
528.0948591778446
 30
0.0
 41
2.0
 42
2.0
 43
2.0
 50
270.0
  0
MTEXT
  5
8415
330
671E
100
AcDbEntity
  8
30
  6
Continuous
 62
     0
440
 16777216
100
AcDbMText
 10
148.7248318365174
 20
564.5856283890938
 30
0.0
 40
6.0
 41
0.0
 46
0.0
 71
     5
 72
     1
  1
\A1;73
 11
0.0000000000000001
 21
1.0
 31
0.0
 73
     1
 44
1.0
 90
        3
 63
     9
421
 13158600
 45
1.1
441
        0
  0
POINT
  5
8416
330
671E
100
AcDbEntity
  8
Defpoints
  6
Continuous
 62
     0
440
 16777216
100
AcDbPoint
 10
129.9590590184537
 20
601.0763976003434
 30
0.0
  0
POINT
  5
8417
330
671E
100
AcDbEntity
  8
Defpoints
  6
Continuous
 62
     0
440
 16777216
100
AcDbPoint
 10
126.9235602063931
 20
528.0948591778446
 30
0.0
  0
POINT
  5
8418
330
671E
100
AcDbEntity
  8
Defpoints
  6
Continuous
 62
     0
440
 16777216
100
AcDbPoint
 10
153.7248318365175
 20
528.0948591778446
 30
0.0
  0
ENDBLK
  5
6720
330
671E
100
AcDbEntity
  8
0
100
AcDbBlockEnd
  0
BLOCK
  5
678D
330
678C
100
AcDbEntity
  8
0
100
AcDbBlockBegin
  2
*D3
 70
     1
 10
0.0
 20
0.0
 30
0.0
  3
*D3
  1

  0
LINE
  5
8289
330
678C
100
AcDbEntity
  8
30
 62
     0
440
 16777216
370
    -2
100
AcDbLine
 10
71.76417530527601
 20
201.0569120591351
 30
0.0
 11
37.74561499595839
 21
201.0569120591351
 31
0.0
  0
LINE
  5
828A
330
678C
100
AcDbEntity
  8
30
 62
     0
440
 16777216
370
    -2
100
AcDbLine
 10
71.76417530527601
 20
87.05691006626109
 30
0.0
 11
37.74561499595836
 21
87.05691006626109
 31
0.0
  0
LINE
  5
828B
330
678C
100
AcDbEntity
  8
30
 62
     0
440
 16777216
370
    -2
100
AcDbLine
 10
38.24561499595839
 20
199.0569120591351
 30
0.0
 11
38.24561499595836
 21
89.05691006626108
 31
0.0
  0
INSERT
  5
828C
330
678C
100
AcDbEntity
  8
30
 62
     0
440
 16777216
370
    -2
100
AcDbBlockReference
  2
_OPEN
 10
38.24561499595839
 20
201.0569120591351
 30
0.0
 41
2.0
 42
2.0
 43
2.0
 50
90.0
  0
INSERT
  5
828D
330
678C
100
AcDbEntity
  8
30
 62
     0
440
 16777216
370
    -2
100
AcDbBlockReference
  2
_OPEN
 10
38.24561499595836
 20
87.05691006626109
 30
0.0
 41
2.0
 42
2.0
 43
2.0
 50
270.0
  0
MTEXT
  5
828E
330
678C
100
AcDbEntity
  8
30
 62
     0
440
 16777216
100
AcDbMText
 10
33.24561499595836
 20
144.0569110626981
 30
0.0
 40
6.0
 41
0.0
 46
0.0
 71
     5
 72
     1
  1
\A1;114
 11
0.0000000000000001
 21
1.0
 31
0.0
 73
     1
 44
1.0
 90
        3
 63
     9
421
 13158600
 45
1.1
441
        0
  0
POINT
  5
828F
330
678C
100
AcDbEntity
  8
Defpoints
 62
     0
440
 16777216
100
AcDbPoint
 10
72.76417530527601
 20
201.0569120591351
 30
0.0
  0
POINT
  5
8290
330
678C
100
AcDbEntity
  8
Defpoints
 62
     0
440
 16777216
100
AcDbPoint
 10
72.76417530527601
 20
87.05691006626109
 30
0.0
  0
POINT
  5
8291
330
678C
100
AcDbEntity
  8
Defpoints
 62
     0
440
 16777216
100
AcDbPoint
 10
38.24561499595836
 20
87.05691006626109
 30
0.0
  0
ENDBLK
  5
678E
330
678C
100
AcDbEntity
  8
0
100
AcDbBlockEnd
  0
BLOCK
  5
6815
330
6814
100
AcDbEntity
  8
0
100
AcDbBlockBegin
  2
*D4
 70
     1
 10
0.0
 20
0.0
 30
0.0
  3
*D4
  1

  0
LINE
  5
8292
330
6814
100
AcDbEntity
  8
30
 62
     0
440
 16777216
370
    -2
100
AcDbLine
 10
129.4553789877636
 20
308.0614835929901
 30
0.0
 11
129.4553789877636
 21
273.181383512531
 31
0.0
  0
LINE
  5
8293
330
6814
100
AcDbEntity
  8
30
 62
     0
440
 16777216
370
    -2
100
AcDbLine
 10
69.48886113062052
 20
308.0614835929901
 30
0.0
 11
69.48886113062052
 21
273.181383512531
 31
0.0
  0
LINE
  5
8294
330
6814
100
AcDbEntity
  8
30
 62
     0
440
 16777216
370
    -2
100
AcDbLine
 10
127.4553789877636
 20
273.6813835125309
 30
0.0
 11
71.48886113062054
 21
273.6813835125309
 31
0.0
  0
INSERT
  5
8295
330
6814
100
AcDbEntity
  8
30
 62
     0
440
 16777216
370
    -2
100
AcDbBlockReference
  2
_OPEN
 10
129.4553789877636
 20
273.6813835125309
 30
0.0
 41
2.0
 42
2.0
 43
2.0
  0
INSERT
  5
8296
330
6814
100
AcDbEntity
  8
30
 62
     0
440
 16777216
370
    -2
100
AcDbBlockReference
  2
_OPEN
 10
69.48886113062052
 20
273.6813835125309
 30
0.0
 41
2.0
 42
2.0
 43
2.0
 50
180.0
  0
MTEXT
  5
8297
330
6814
100
AcDbEntity
  8
30
 62
     0
440
 16777216
100
AcDbMText
 10
100.0924161041915
 20
281.681383512531
 30
0.0
 40
6.0
 41
0.0
 46
0.0
 71
     2
 72
     1
  1
\A1;90
 73
     1
 44
1.0
 90
        3
 63
     9
421
 13158600
 45
1.1
441
        0
  0
POINT
  5
8298
330
6814
100
AcDbEntity
  8
Defpoints
 62
     0
440
 16777216
100
AcDbPoint
 10
129.4553789877636
 20
309.0614835929902
 30
0.0
  0
POINT
  5
8299
330
6814
100
AcDbEntity
  8
Defpoints
 62
     0
440
 16777216
100
AcDbPoint
 10
69.48886113062052
 20
309.0614835929902
 30
0.0
  0
POINT
  5
829A
330
6814
100
AcDbEntity
  8
Defpoints
 62
     0
440
 16777216
100
AcDbPoint
 10
69.48886113062052
 20
273.6813835125309
 30
0.0
  0
ENDBLK
  5
6816
330
6814
100
AcDbEntity
  8
0
100
AcDbBlockEnd
  0
BLOCK
  5
682D
330
682C
100
AcDbEntity
  8
0
100
AcDbBlockBegin
  2
*D5
 70
     1
 10
0.0
 20
0.0
 30
0.0
  3
*D5
  1

  0
LINE
  5
829B
330
682C
100
AcDbEntity
  8
30
 62
     0
440
 16777216
370
    -2
100
AcDbLine
 10
125.6561959511675
 20
439.6614411309474
 30
0.0
 11
49.26144336103752
 21
439.6614411309474
 31
0.0
  0
LINE
  5
829C
330
682C
100
AcDbEntity
  8
30
 62
     0
440
 16777216
370
    -2
100
AcDbLine
 10
93.0347580730538
 20
309.0614835929902
 30
0.0
 11
49.2614433610375
 21
309.0614835929902
 31
0.0
  0
LINE
  5
829D
330
682C
100
AcDbEntity
  8
30
 62
     0
440
 16777216
370
    -2
100
AcDbLine
 10
49.76144336103751
 20
437.6614411309473
 30
0.0
 11
49.76144336103747
 21
311.0614835929902
 31
0.0
  0
INSERT
  5
829E
330
682C
100
AcDbEntity
  8
30
 62
     0
440
 16777216
370
    -2
100
AcDbBlockReference
  2
_OPEN
 10
49.76144336103751
 20
439.6614411309474
 30
0.0
 41
2.0
 42
2.0
 43
2.0
 50
90.0
  0
INSERT
  5
829F
330
682C
100
AcDbEntity
  8
30
 62
     0
440
 16777216
370
    -2
100
AcDbBlockReference
  2
_OPEN
 10
49.76144336103747
 20
309.0614835929902
 30
0.0
 41
2.0
 42
2.0
 43
2.0
 50
270.0
  0
MTEXT
  5
82A0
330
682C
100
AcDbEntity
  8
30
 62
     0
440
 16777216
100
AcDbMText
 10
44.76144336103742
 20
366.6502639393037
 30
0.0
 40
6.0
 41
0.0
 46
0.0
 71
     5
 72
     1
  1
\A1;130
 11
0.0000000000000001
 21
1.0
 31
0.0
 73
     1
 44
1.0
 90
        3
 63
     9
421
 13158600
 45
1.1
441
        0
  0
POINT
  5
82A1
330
682C
100
AcDbEntity
  8
Defpoints
 62
     0
440
 16777216
100
AcDbPoint
 10
126.6561959511675
 20
439.6614411309474
 30
0.0
  0
POINT
  5
82A2
330
682C
100
AcDbEntity
  8
Defpoints
 62
     0
440
 16777216
100
AcDbPoint
 10
94.0347580730538
 20
309.0614835929902
 30
0.0
  0
POINT
  5
82A3
330
682C
100
AcDbEntity
  8
Defpoints
 62
     0
440
 16777216
100
AcDbPoint
 10
49.76144336103747
 20
309.0614835929902
 30
0.0
  0
ENDBLK
  5
682E
330
682C
100
AcDbEntity
  8
0
100
AcDbBlockEnd
  0
BLOCK
  5
6845
330
6844
100
AcDbEntity
  8
0
100
AcDbBlockBegin
  2
*D6
 70
     1
 10
0.0
 20
0.0
 30
0.0
  3
*D6
  1

  0
LINE
  5
8518
330
6844
100
AcDbEntity
  8
30
 62
     0
440
 16777216
370
    -2
100
AcDbLine
 10
395.4267872114585
 20
142.9875333617793
 30
0.0
 11
395.4267872114585
 21
51.12386258135439
 31
0.0
  0
LINE
  5
8519
330
6844
100
AcDbEntity
  8
30
 62
     0
440
 16777216
370
    -2
100
AcDbLine
 10
419.4267872114583
 20
122.813050157366
 30
0.0
 11
419.4267872114583
 21
51.12386258135439
 31
0.0
  0
LINE
  5
851A
330
6844
100
AcDbEntity
  8
30
 62
     0
440
 16777216
370
    -2
100
AcDbLine
 10
397.4267872114585
 20
51.62386258135438
 30
0.0
 11
417.4267872114581
 21
51.62386258135438
 31
0.0
  0
INSERT
  5
851B
330
6844
100
AcDbEntity
  8
30
 62
     0
440
 16777216
370
    -2
100
AcDbBlockReference
  2
_OPEN
 10
395.4267872114585
 20
51.62386258135438
 30
0.0
 41
2.0
 42
2.0
 43
2.0
 50
180.0
  0
INSERT
  5
851C
330
6844
100
AcDbEntity
  8
30
 62
     0
440
 16777216
370
    -2
100
AcDbBlockReference
  2
_OPEN
 10
419.4267872114583
 20
51.62386258135438
 30
0.0
 41
2.0
 42
2.0
 43
2.0
  0
MTEXT
  5
851D
330
6844
100
AcDbEntity
  8
30
 62
     0
440
 16777216
100
AcDbMText
 10
408.2195901402483
 20
59.62386258135438
 30
0.0
 40
6.0
 41
0.0
 46
0.0
 71
     2
 72
     1
  1
\A1;24
 73
     1
 44
1.0
 90
        3
 63
     9
421
 13158600
 45
1.1
441
        0
  0
POINT
  5
851E
330
6844
100
AcDbEntity
  8
Defpoints
 62
     0
440
 16777216
100
AcDbPoint
 10
395.4267872114585
 20
143.9875333617793
 30
0.0
  0
POINT
  5
851F
330
6844
100
AcDbEntity
  8
Defpoints
 62
     0
440
 16777216
100
AcDbPoint
 10
419.4267872114583
 20
123.8130501573661
 30
0.0
  0
POINT
  5
8520
330
6844
100
AcDbEntity
  8
Defpoints
 62
     0
440
 16777216
100
AcDbPoint
 10
419.4267872114583
 20
51.62386258135438
 30
0.0
  0
ENDBLK
  5
6846
330
6844
100
AcDbEntity
  8
0
100
AcDbBlockEnd
  0
BLOCK
  5
6872
330
6871
100
AcDbEntity
  8
0
100
AcDbBlockBegin
  2
*D7
 70
     1
 10
0.0
 20
0.0
 30
0.0
  3
*D7
  1

  0
LINE
  5
8456
330
6871
100
AcDbEntity
  8
30
 62
     0
440
 16777216
370
    -2
100
AcDbLine
 10
93.92726171864294
 20
199.603672763003
 30
0.0
 11
56.06056889623996
 21
199.603672763003
 31
0.0
  0
LINE
  5
8457
330
6871
100
AcDbEntity
  8
30
 62
     0
440
 16777216
370
    -2
100
AcDbLine
 10
95.94281566969593
 20
88.56015135526725
 30
0.0
 11
56.06056889623992
 21
88.56015135526725
 31
0.0
  0
LINE
  5
8458
330
6871
100
AcDbEntity
  8
30
 62
     0
440
 16777216
370
    -2
100
AcDbLine
 10
56.56056889623997
 20
197.603672763003
 30
0.0
 11
56.56056889623993
 21
90.56015135526726
 31
0.0
  0
INSERT
  5
8459
330
6871
100
AcDbEntity
  8
30
 62
     0
440
 16777216
370
    -2
100
AcDbBlockReference
  2
_OPEN
 10
56.56056889623997
 20
199.603672763003
 30
0.0
 41
2.0
 42
2.0
 43
2.0
 50
90.0
  0
INSERT
  5
845A
330
6871
100
AcDbEntity
  8
30
 62
     0
440
 16777216
370
    -2
100
AcDbBlockReference
  2
_OPEN
 10
56.56056889623993
 20
88.56015135526725
 30
0.0
 41
2.0
 42
2.0
 43
2.0
 50
270.0
  0
MTEXT
  5
845B
330
6871
100
AcDbEntity
  8
30
 62
     0
440
 16777216
100
AcDbMText
 10
51.56056889623993
 20
144.0819120591351
 30
0.0
 40
6.0
 41
0.0
 46
0.0
 71
     5
 72
     1
  1
\A1;111
 11
0.0000000000000001
 21
1.0
 31
0.0
 73
     1
 44
1.0
 90
        3
 63
     9
421
 13158600
 45
1.1
441
        0
  0
POINT
  5
845C
330
6871
100
AcDbEntity
  8
Defpoints
 62
     0
440
 16777216
100
AcDbPoint
 10
94.92726171864296
 20
199.603672763003
 30
0.0
  0
POINT
  5
845D
330
6871
100
AcDbEntity
  8
Defpoints
 62
     0
440
 16777216
100
AcDbPoint
 10
96.94281566969593
 20
88.56015135526723
 30
0.0
  0
POINT
  5
845E
330
6871
100
AcDbEntity
  8
Defpoints
 62
     0
440
 16777216
100
AcDbPoint
 10
56.56056889623993
 20
88.56015135526725
 30
0.0
  0
ENDBLK
  5
6873
330
6871
100
AcDbEntity
  8
0
100
AcDbBlockEnd
  0
BLOCK
  5
687E
330
687D
100
AcDbEntity
  8
0
100
AcDbBlockBegin
  2
*D8
 70
     1
 10
0.0
 20
0.0
 30
0.0
  3
*D8
  1

  0
LINE
  5
82AD
330
687D
100
AcDbEntity
  8
30
 62
     0
440
 16777216
370
    -2
100
AcDbLine
 10
126.9914710880376
 20
348.381851040347
 30
0.0
 11
126.9914710880376
 21
284.5324417875378
 31
0.0
  0
LINE
  5
82AE
330
687D
100
AcDbEntity
  8
30
 62
     0
440
 16777216
370
    -2
100
AcDbLine
 10
71.99147108803765
 20
348.381851040347
 30
0.0
 11
71.99147108803765
 21
284.5324417875378
 31
0.0
  0
LINE
  5
82AF
330
687D
100
AcDbEntity
  8
30
 62
     0
440
 16777216
370
    -2
100
AcDbLine
 10
124.9914710880376
 20
285.0324417875378
 30
0.0
 11
73.99147108803766
 21
285.0324417875378
 31
0.0
  0
INSERT
  5
82B0
330
687D
100
AcDbEntity
  8
30
 62
     0
440
 16777216
370
    -2
100
AcDbBlockReference
  2
_OPEN
 10
126.9914710880376
 20
285.0324417875378
 30
0.0
 41
2.0
 42
2.0
 43
2.0
  0
INSERT
  5
82B1
330
687D
100
AcDbEntity
  8
30
 62
     0
440
 16777216
370
    -2
100
AcDbBlockReference
  2
_OPEN
 10
71.99147108803765
 20
285.0324417875378
 30
0.0
 41
2.0
 42
2.0
 43
2.0
 50
180.0
  0
MTEXT
  5
82B2
330
687D
100
AcDbEntity
  8
30
 62
     0
440
 16777216
100
AcDbMText
 10
99.49147108803764
 20
290.0324417875378
 30
0.0
 40
6.0
 41
0.0
 46
0.0
 71
     5
 72
     1
  1
\A1;55
 73
     1
 44
1.0
 90
        3
 63
     9
421
 13158600
 45
1.1
441
        0
  0
POINT
  5
82B3
330
687D
100
AcDbEntity
  8
Defpoints
 62
     0
440
 16777216
100
AcDbPoint
 10
126.9914710880376
 20
349.3818510403469
 30
0.0
  0
POINT
  5
82B4
330
687D
100
AcDbEntity
  8
Defpoints
 62
     0
440
 16777216
100
AcDbPoint
 10
71.99147108803765
 20
349.3818510403469
 30
0.0
  0
POINT
  5
82B5
330
687D
100
AcDbEntity
  8
Defpoints
 62
     0
440
 16777216
100
AcDbPoint
 10
71.99147108803765
 20
285.0324417875378
 30
0.0
  0
ENDBLK
  5
687F
330
687D
100
AcDbEntity
  8
0
100
AcDbBlockEnd
  0
BLOCK
  5
68AF
330
68AE
100
AcDbEntity
  8
0
100
AcDbBlockBegin
  2
*D9
 70
     1
 10
0.0
 20
0.0
 30
0.0
  3
*D9
  1

  0
LINE
  5
82B6
330
68AE
100
AcDbEntity
  8
30
  6
Continuous
 62
     0
440
 16777216
370
    -2
100
AcDbLine
 10
114.7401583106748
 20
664.8310149430332
 30
0.0
 11
114.7401583106748
 21
719.5763976003433
 31
0.0
  0
LINE
  5
82B7
330
68AE
100
AcDbEntity
  8
30
  6
Continuous
 62
     0
440
 16777216
370
    -2
100
AcDbLine
 10
84.65732915134593
 20
704.0669528883984
 30
0.0
 11
84.65732915134593
 21
719.5763976003433
 31
0.0
  0
LINE
  5
82B8
330
68AE
100
AcDbEntity
  8
30
  6
Continuous
 62
     0
440
 16777216
370
    -2
100
AcDbLine
 10
112.7401583106748
 20
719.0763976003433
 30
0.0
 11
86.65732915134595
 21
719.0763976003433
 31
0.0
  0
INSERT
  5
82B9
330
68AE
100
AcDbEntity
  8
30
  6
Continuous
 62
     0
440
 16777216
370
    -2
100
AcDbBlockReference
  2
_OPEN
 10
114.7401583106748
 20
719.0763976003433
 30
0.0
 41
2.0
 42
2.0
 43
2.0
  0
INSERT
  5
82BA
330
68AE
100
AcDbEntity
  8
30
  6
Continuous
 62
     0
440
 16777216
370
    -2
100
AcDbBlockReference
  2
_OPEN
 10
84.65732915134593
 20
719.0763976003433
 30
0.0
 41
2.0
 42
2.0
 43
2.0
 50
180.0
  0
MTEXT
  5
82BB
330
68AE
100
AcDbEntity
  8
30
  6
Continuous
 62
     0
440
 16777216
100
AcDbMText
 10
97.48119030485009
 20
724.0763976003433
 30
0.0
 40
6.0
 41
0.0
 46
0.0
 71
     5
 72
     1
  1
\A1;30
 73
     1
 44
1.0
 90
        3
 63
     9
421
 13158600
 45
1.1
441
        0
  0
POINT
  5
82BC
330
68AE
100
AcDbEntity
  8
Defpoints
  6
Continuous
 62
     0
440
 16777216
100
AcDbPoint
 10
114.7401583106748
 20
663.831014943033
 30
0.0
  0
POINT
  5
82BD
330
68AE
100
AcDbEntity
  8
Defpoints
  6
Continuous
 62
     0
440
 16777216
100
AcDbPoint
 10
84.65732915134593
 20
703.0669528883984
 30
0.0
  0
POINT
  5
82BE
330
68AE
100
AcDbEntity
  8
Defpoints
  6
Continuous
 62
     0
440
 16777216
100
AcDbPoint
 10
84.65732915134593
 20
719.0763976003433
 30
0.0
  0
ENDBLK
  5
68B0
330
68AE
100
AcDbEntity
  8
0
100
AcDbBlockEnd
  0
BLOCK
  5
68BB
330
68BA
100
AcDbEntity
  8
0
100
AcDbBlockBegin
  2
*D10
 70
     1
 10
0.0
 20
0.0
 30
0.0
  3
*D10
  1

  0
LINE
  5
8419
330
68BA
100
AcDbEntity
  8
30
  6
Continuous
 62
     0
440
 16777216
370
    -2
100
AcDbLine
 10
125.6304418096501
 20
638.0763976003434
 30
0.0
 11
140.8822296102731
 21
638.0763976003434
 31
0.0
  0
LINE
  5
841A
330
68BA
100
AcDbEntity
  8
30
  6
Continuous
 62
     0
440
 16777216
370
    -2
100
AcDbLine
 10
123.4811903048501
 20
601.0763976003434
 30
0.0
 11
140.8822296102731
 21
601.0763976003434
 31
0.0
  0
LINE
  5
841B
330
68BA
100
AcDbEntity
  8
30
  6
Continuous
 62
     0
440
 16777216
370
    -2
100
AcDbLine
 10
140.3822296102731
 20
636.0763976003434
 30
0.0
 11
140.3822296102731
 21
603.0763976003433
 31
0.0
  0
INSERT
  5
841C
330
68BA
100
AcDbEntity
  8
30
  6
Continuous
 62
     0
440
 16777216
370
    -2
100
AcDbBlockReference
  2
_OPEN
 10
140.3822296102731
 20
638.0763976003434
 30
0.0
 41
2.0
 42
2.0
 43
2.0
 50
90.0
  0
INSERT
  5
841D
330
68BA
100
AcDbEntity
  8
30
  6
Continuous
 62
     0
440
 16777216
370
    -2
100
AcDbBlockReference
  2
_OPEN
 10
140.3822296102731
 20
601.0763976003434
 30
0.0
 41
2.0
 42
2.0
 43
2.0
 50
270.0
  0
MTEXT
  5
841E
330
68BA
100
AcDbEntity
  8
30
  6
Continuous
 62
     0
440
 16777216
100
AcDbMText
 10
135.382229610273
 20
619.5763976003433
 30
0.0
 40
6.0
 41
0.0
 46
0.0
 71
     5
 72
     1
  1
\A1;37
 11
0.0000000000000001
 21
1.0
 31
0.0
 73
     1
 44
1.0
 90
        3
 63
     9
421
 13158600
 45
1.1
441
        0
  0
POINT
  5
841F
330
68BA
100
AcDbEntity
  8
Defpoints
  6
Continuous
 62
     0
440
 16777216
100
AcDbPoint
 10
124.6304418096501
 20
638.0763976003434
 30
0.0
  0
POINT
  5
8420
330
68BA
100
AcDbEntity
  8
Defpoints
  6
Continuous
 62
     0
440
 16777216
100
AcDbPoint
 10
122.4811903048501
 20
601.0763976003434
 30
0.0
  0
POINT
  5
8421
330
68BA
100
AcDbEntity
  8
Defpoints
  6
Continuous
 62
     0
440
 16777216
100
AcDbPoint
 10
140.3822296102731
 20
601.0763976003434
 30
0.0
  0
ENDBLK
  5
68BC
330
68BA
100
AcDbEntity
  8
0
100
AcDbBlockEnd
  0
BLOCK
  5
68C7
330
68C6
100
AcDbEntity
  8
0
100
AcDbBlockBegin
  2
*D11
 70
     1
 10
0.0
 20
0.0
 30
0.0
  3
*D11
  1

  0
LINE
  5
854C
330
68C6
100
AcDbEntity
  8
30
  6
Continuous
 62
     0
440
 16777216
370
    -2
100
AcDbLine
 10
115.7401583106748
 20
653.0763976003433
 30
0.0
 11
154.2248318365175
 21
653.0763976003433
 31
0.0
  0
LINE
  5
854D
330
68C6
100
AcDbEntity
  8
30
  6
Continuous
 62
     0
440
 16777216
370
    -2
100
AcDbLine
 10
123.4811903048501
 20
601.0763976003434
 30
0.0
 11
154.2248318365175
 21
601.0763976003434
 31
0.0
  0
LINE
  5
854E
330
68C6
100
AcDbEntity
  8
30
  6
Continuous
 62
     0
440
 16777216
370
    -2
100
AcDbLine
 10
153.7248318365175
 20
651.076397600343
 30
0.0
 11
153.7248318365175
 21
603.0763976003433
 31
0.0
  0
INSERT
  5
854F
330
68C6
100
AcDbEntity
  8
30
  6
Continuous
 62
     0
440
 16777216
370
    -2
100
AcDbBlockReference
  2
_OPEN
 10
153.7248318365175
 20
653.0763976003433
 30
0.0
 41
2.0
 42
2.0
 43
2.0
 50
90.0
  0
INSERT
  5
8550
330
68C6
100
AcDbEntity
  8
30
  6
Continuous
 62
     0
440
 16777216
370
    -2
100
AcDbBlockReference
  2
_OPEN
 10
153.7248318365175
 20
601.0763976003434
 30
0.0
 41
2.0
 42
2.0
 43
2.0
 50
270.0
  0
MTEXT
  5
8551
330
68C6
100
AcDbEntity
  8
30
  6
Continuous
 62
     0
440
 16777216
100
AcDbMText
 10
148.7248318365174
 20
627.0763976003433
 30
0.0
 40
6.0
 41
0.0
 46
0.0
 71
     5
 72
     1
  1
\A1;52
 11
0.0000000000000001
 21
1.0
 31
0.0
 73
     1
 44
1.0
 90
        3
 63
     9
421
 13158600
 45
1.1
441
        0
  0
POINT
  5
8552
330
68C6
100
AcDbEntity
  8
Defpoints
  6
Continuous
 62
     0
440
 16777216
100
AcDbPoint
 10
114.7401583106748
 20
653.0763976003433
 30
0.0
  0
POINT
  5
8553
330
68C6
100
AcDbEntity
  8
Defpoints
  6
Continuous
 62
     0
440
 16777216
100
AcDbPoint
 10
122.4811903048501
 20
601.0763976003434
 30
0.0
  0
POINT
  5
8554
330
68C6
100
AcDbEntity
  8
Defpoints
  6
Continuous
 62
     0
440
 16777216
100
AcDbPoint
 10
153.7248318365175
 20
601.0763976003434
 30
0.0
  0
ENDBLK
  5
68C8
330
68C6
100
AcDbEntity
  8
0
100
AcDbBlockEnd
  0
BLOCK
  5
68D3
330
68D2
100
AcDbEntity
  8
0
100
AcDbBlockBegin
  2
*D12
 70
     1
 10
0.0
 20
0.0
 30
0.0
  3
*D12
  1

  0
LINE
  5
82BF
330
68D2
100
AcDbEntity
  8
30
  6
Continuous
 62
     0
440
 16777216
370
    -2
100
AcDbLine
 10
93.39099244509032
 20
608.1160614534917
 30
0.0
 11
57.21218165329467
 21
608.1160614534917
 31
0.0
  0
LINE
  5
82C0
330
68D2
100
AcDbEntity
  8
30
  6
Continuous
 62
     0
440
 16777216
370
    -2
100
AcDbLine
 10
68.45336231856004
 20
601.0763976003434
 30
0.0
 11
57.21218165329467
 21
601.0763976003434
 31
0.0
  0
LINE
  5
82C1
330
68D2
100
AcDbEntity
  8
30
  6
Continuous
 62
     0
440
 16777216
370
    -2
100
AcDbLine
 10
57.71218165329468
 20
599.0763976003433
 30
0.0
 11
57.71218165329468
 21
597.0763976003434
 31
0.0
  0
LINE
  5
82C2
330
68D2
100
AcDbEntity
  8
30
  6
Continuous
 62
     0
440
 16777216
370
    -2
100
AcDbLine
 10
57.71218165329468
 20
610.1160614534919
 30
0.0
 11
57.71218165329468
 21
621.3957157821616
 31
0.0
  0
INSERT
  5
82C3
330
68D2
100
AcDbEntity
  8
30
  6
Continuous
 62
     0
440
 16777216
370
    -2
100
AcDbBlockReference
  2
_OPEN
 10
57.71218165329468
 20
601.0763976003434
 30
0.0
 41
2.0
 42
2.0
 43
2.0
 50
90.0
  0
INSERT
  5
82C4
330
68D2
100
AcDbEntity
  8
30
  6
Continuous
 62
     0
440
 16777216
370
    -2
100
AcDbBlockReference
  2
_OPEN
 10
57.71218165329468
 20
608.1160614534917
 30
0.0
 41
2.0
 42
2.0
 43
2.0
 50
270.0
  0
MTEXT
  5
82C5
330
68D2
100
AcDbEntity
  8
30
  6
Continuous
 62
     0
440
 16777216
100
AcDbMText
 10
52.71218165329457
 20
617.7763976003434
 30
0.0
 40
6.0
 41
0.0
 46
0.0
 71
     5
 72
     1
  1
\A1;7
 11
0.0000000000000001
 21
1.0
 31
0.0
 73
     1
 44
1.0
 90
        3
 63
     9
421
 13158600
 45
1.1
441
        0
  0
POINT
  5
82C6
330
68D2
100
AcDbEntity
  8
Defpoints
  6
Continuous
 62
     0
440
 16777216
100
AcDbPoint
 10
94.39099244509032
 20
608.1160614534917
 30
0.0
  0
POINT
  5
82C7
330
68D2
100
AcDbEntity
  8
Defpoints
  6
Continuous
 62
     0
440
 16777216
100
AcDbPoint
 10
69.45336231856003
 20
601.0763976003434
 30
0.0
  0
POINT
  5
82C8
330
68D2
100
AcDbEntity
  8
Defpoints
  6
Continuous
 62
     0
440
 16777216
100
AcDbPoint
 10
57.71218165329468
 20
601.0763976003434
 30
0.0
  0
ENDBLK
  5
68D4
330
68D2
100
AcDbEntity
  8
0
100
AcDbBlockEnd
  0
BLOCK
  5
68E0
330
68DF
100
AcDbEntity
  8
0
100
AcDbBlockBegin
  2
*D13
 70
     1
 10
0.0
 20
0.0
 30
0.0
  3
*D13
  1

  0
LINE
  5
83D9
330
68DF
100
AcDbEntity
  8
30
  6
Continuous
 62
     0
440
 16777216
370
    -2
100
AcDbLine
 10
115.7401580488124
 20
644.6602578503223
 30
0.0
 11
137.4093534683935
 21
644.6602578503223
 31
0.0
  0
LINE
  5
83DA
330
68DF
100
AcDbEntity
  8
30
  6
Continuous
 62
     0
440
 16777216
370
    -2
100
AcDbLine
 10
115.7401583106748
 20
632.1044542788936
 30
0.0
 11
137.4093534683935
 21
632.1044542788936
 31
0.0
  0
LINE
  5
83DB
330
68DF
100
AcDbEntity
  8
30
  6
Continuous
 62
     0
440
 16777216
370
    -2
100
AcDbLine
 10
136.9093534683935
 20
634.1044542788936
 30
0.0
 11
136.9093534683935
 21
642.6602578503223
 31
0.0
  0
LINE
  5
83DC
330
68DF
100
AcDbEntity
  8
30
  6
Continuous
 62
     0
440
 16777216
370
    -2
100
AcDbLine
 10
136.9093534683935
 20
644.6602578503223
 30
0.0
 11
136.9093534683935
 21
671.9449649432191
 31
0.0
  0
INSERT
  5
83DD
330
68DF
100
AcDbEntity
  8
30
  6
Continuous
 62
     0
440
 16777216
370
    -2
100
AcDbBlockReference
  2
_OPEN
 10
136.9093534683935
 20
632.1044542788936
 30
0.0
 41
2.0
 42
2.0
 43
2.0
 50
270.0
  0
INSERT
  5
83DE
330
68DF
100
AcDbEntity
  8
30
  6
Continuous
 62
     0
440
 16777216
370
    -2
100
AcDbBlockReference
  2
_OPEN
 10
136.9093534683935
 20
644.6602578503223
 30
0.0
 41
2.0
 42
2.0
 43
2.0
 50
90.0
  0
MTEXT
  5
83DF
330
68DF
100
AcDbEntity
  8
30
  6
Continuous
 62
     0
440
 16777216
100
AcDbMText
 10
131.9093534683934
 20
663.1949649432191
 30
0.0
 40
6.0
 41
0.0
 46
0.0
 71
     5
 72
     1
  1
\A1;12.5
 11
0.0000000000000001
 21
1.0
 31
0.0
 73
     1
 44
1.0
 90
        3
 63
     9
421
 13158600
 45
1.1
441
        0
  0
POINT
  5
83E0
330
68DF
100
AcDbEntity
  8
Defpoints
  6
Continuous
 62
     0
440
 16777216
100
AcDbPoint
 10
114.7401580488124
 20
644.6602578503223
 30
0.0
  0
POINT
  5
83E1
330
68DF
100
AcDbEntity
  8
Defpoints
  6
Continuous
 62
     0
440
 16777216
100
AcDbPoint
 10
114.7401583106748
 20
632.1044542788936
 30
0.0
  0
POINT
  5
83E2
330
68DF
100
AcDbEntity
  8
Defpoints
  6
Continuous
 62
     0
440
 16777216
100
AcDbPoint
 10
136.9093534683935
 20
632.1044542788936
 30
0.0
  0
ENDBLK
  5
68E1
330
68DF
100
AcDbEntity
  8
0
100
AcDbBlockEnd
  0
BLOCK
  5
68FA
330
68F9
100
AcDbEntity
  8
0
100
AcDbBlockBegin
  2
*D14
 70
     1
 10
0.0
 20
0.0
 30
0.0
  3
*D14
  1

  0
LINE
  5
846D
330
68F9
100
AcDbEntity
  8
30
  6
Continuous
 62
     0
440
 16777216
370
    -2
100
AcDbLine
 10
72.05199602870232
 20
688.0763976003435
 30
0.0
 11
38.93123103216353
 21
688.0763976003435
 31
0.0
  0
LINE
  5
846E
330
68F9
100
AcDbEntity
  8
30
  6
Continuous
 62
     0
440
 16777216
370
    -2
100
AcDbLine
 10
75.93123103216351
 20
601.0763976003434
 30
0.0
 11
38.9312310321635
 21
601.0763976003434
 31
0.0
  0
LINE
  5
846F
330
68F9
100
AcDbEntity
  8
30
  6
Continuous
 62
     0
440
 16777216
370
    -2
100
AcDbLine
 10
39.43123103216353
 20
686.0763976003434
 30
0.0
 11
39.4312310321635
 21
603.0763976003433
 31
0.0
  0
INSERT
  5
8470
330
68F9
100
AcDbEntity
  8
30
  6
Continuous
 62
     0
440
 16777216
370
    -2
100
AcDbBlockReference
  2
_OPEN
 10
39.43123103216353
 20
688.0763976003435
 30
0.0
 41
2.0
 42
2.0
 43
2.0
 50
90.0
  0
INSERT
  5
8471
330
68F9
100
AcDbEntity
  8
30
  6
Continuous
 62
     0
440
 16777216
370
    -2
100
AcDbBlockReference
  2
_OPEN
 10
39.4312310321635
 20
601.0763976003434
 30
0.0
 41
2.0
 42
2.0
 43
2.0
 50
270.0
  0
MTEXT
  5
8472
330
68F9
100
AcDbEntity
  8
30
  6
Continuous
 62
     0
440
 16777216
100
AcDbMText
 10
34.43123103216342
 20
644.5763976003433
 30
0.0
 40
6.0
 41
0.0
 46
0.0
 71
     5
 72
     1
  1
\A1;87
 11
0.0000000000000001
 21
1.0
 31
0.0
 73
     1
 44
1.0
 90
        3
 63
     9
421
 13158600
 45
1.1
441
        0
  0
POINT
  5
8473
330
68F9
100
AcDbEntity
  8
Defpoints
  6
Continuous
 62
     0
440
 16777216
100
AcDbPoint
 10
73.05199602870231
 20
688.0763976003435
 30
0.0
  0
POINT
  5
8474
330
68F9
100
AcDbEntity
  8
Defpoints
  6
Continuous
 62
     0
440
 16777216
100
AcDbPoint
 10
76.9312310321635
 20
601.0763976003434
 30
0.0
  0
POINT
  5
8475
330
68F9
100
AcDbEntity
  8
Defpoints
  6
Continuous
 62
     0
440
 16777216
100
AcDbPoint
 10
39.4312310321635
 20
601.0763976003434
 30
0.0
  0
ENDBLK
  5
68FB
330
68F9
100
AcDbEntity
  8
0
100
AcDbBlockEnd
  0
BLOCK
  5
6906
330
6905
100
AcDbEntity
  8
0
100
AcDbBlockBegin
  2
*D15
 70
     1
 10
0.0
 20
0.0
 30
0.0
  3
*D15
  1

  0
LINE
  5
8422
330
6905
100
AcDbEntity
  8
30
  6
Continuous
 62
     0
440
 16777216
370
    -2
100
AcDbLine
 10
83.65732929931246
 20
703.0669528883984
 30
0.0
 11
28.93123103216353
 21
703.0669528883984
 31
0.0
  0
LINE
  5
8423
330
6905
100
AcDbEntity
  8
30
  6
Continuous
 62
     0
440
 16777216
370
    -2
100
AcDbLine
 10
75.93123103216351
 20
601.0763976003434
 30
0.0
 11
28.93123103216351
 21
601.0763976003434
 31
0.0
  0
LINE
  5
8424
330
6905
100
AcDbEntity
  8
30
  6
Continuous
 62
     0
440
 16777216
370
    -2
100
AcDbLine
 10
29.43123103216353
 20
701.0669528883984
 30
0.0
 11
29.43123103216351
 21
603.0763976003433
 31
0.0
  0
INSERT
  5
8425
330
6905
100
AcDbEntity
  8
30
  6
Continuous
 62
     0
440
 16777216
370
    -2
100
AcDbBlockReference
  2
_OPEN
 10
29.43123103216353
 20
703.0669528883984
 30
0.0
 41
2.0
 42
2.0
 43
2.0
 50
90.0
  0
INSERT
  5
8426
330
6905
100
AcDbEntity
  8
30
  6
Continuous
 62
     0
440
 16777216
370
    -2
100
AcDbBlockReference
  2
_OPEN
 10
29.43123103216351
 20
601.0763976003434
 30
0.0
 41
2.0
 42
2.0
 43
2.0
 50
270.0
  0
MTEXT
  5
8427
330
6905
100
AcDbEntity
  8
30
  6
Continuous
 62
     0
440
 16777216
100
AcDbMText
 10
24.43123103216342
 20
652.0763976003434
 30
0.0
 40
6.0
 41
0.0
 46
0.0
 71
     5
 72
     1
  1
\A1;102
 11
0.0000000000000001
 21
1.0
 31
0.0
 73
     1
 44
1.0
 90
        3
 63
     9
421
 13158600
 45
1.1
441
        0
  0
POINT
  5
8428
330
6905
100
AcDbEntity
  8
Defpoints
  6
Continuous
 62
     0
440
 16777216
100
AcDbPoint
 10
84.65732929931245
 20
703.0669528883984
 30
0.0
  0
POINT
  5
8429
330
6905
100
AcDbEntity
  8
Defpoints
  6
Continuous
 62
     0
440
 16777216
100
AcDbPoint
 10
76.9312310321635
 20
601.0763976003434
 30
0.0
  0
POINT
  5
842A
330
6905
100
AcDbEntity
  8
Defpoints
  6
Continuous
 62
     0
440
 16777216
100
AcDbPoint
 10
29.43123103216351
 20
601.0763976003434
 30
0.0
  0
ENDBLK
  5
6907
330
6905
100
AcDbEntity
  8
0
100
AcDbBlockEnd
  0
BLOCK
  5
7278
330
7277
100
AcDbEntity
  8
0
100
AcDbBlockBegin
  2
*D16
 70
     1
 10
0.0
 20
0.0
 30
0.0
  3
*D16
  1

  0
LINE
  5
82C9
330
7277
100
AcDbEntity
  8
30
 62
     0
440
 16777216
370
    -2
100
AcDbLine
 10
84.46417530527606
 20
74.55691006626108
 30
0.0
 11
84.46417530527606
 21
51.56889146800887
 31
0.0
  0
LINE
  5
82CA
330
7277
100
AcDbEntity
  8
30
 62
     0
440
 16777216
370
    -2
100
AcDbLine
 10
114.4490965605422
 20
76.05691006626108
 30
0.0
 11
114.4490965605422
 21
51.56889146800887
 31
0.0
  0
LINE
  5
82CB
330
7277
100
AcDbEntity
  8
30
 62
     0
440
 16777216
370
    -2
100
AcDbLine
 10
86.46417530527605
 20
52.06889146800887
 30
0.0
 11
112.4490965605422
 21
52.06889146800887
 31
0.0
  0
INSERT
  5
82CC
330
7277
100
AcDbEntity
  8
30
 62
     0
440
 16777216
370
    -2
100
AcDbBlockReference
  2
_OPEN
 10
84.46417530527606
 20
52.06889146800887
 30
0.0
 41
2.0
 42
2.0
 43
2.0
 50
180.0
  0
INSERT
  5
82CD
330
7277
100
AcDbEntity
  8
30
 62
     0
440
 16777216
370
    -2
100
AcDbBlockReference
  2
_OPEN
 10
114.4490965605422
 20
52.06889146800887
 30
0.0
 41
2.0
 42
2.0
 43
2.0
  0
MTEXT
  5
82CE
330
7277
100
AcDbEntity
  8
30
 62
     0
440
 16777216
100
AcDbMText
 10
99.45663593290916
 20
57.06889146800887
 30
0.0
 40
6.0
 41
0.0
 46
0.0
 71
     5
 72
     1
  1
\A1;30
 73
     1
 44
1.0
 90
        3
 63
     9
421
 13158600
 45
1.1
441
        0
  0
POINT
  5
82CF
330
7277
100
AcDbEntity
  8
Defpoints
 62
     0
440
 16777216
100
AcDbPoint
 10
84.46417530527606
 20
75.55691006626108
 30
0.0
  0
POINT
  5
82D0
330
7277
100
AcDbEntity
  8
Defpoints
 62
     0
440
 16777216
100
AcDbPoint
 10
114.4490965605422
 20
77.05691006626108
 30
0.0
  0
POINT
  5
82D1
330
7277
100
AcDbEntity
  8
Defpoints
 62
     0
440
 16777216
100
AcDbPoint
 10
114.4490965605422
 20
52.06889146800887
 30
0.0
  0
ENDBLK
  5
7279
330
7277
100
AcDbEntity
  8
0
100
AcDbBlockEnd
  0
BLOCK
  5
7365
330
7364
100
AcDbEntity
  8
0
100
AcDbBlockBegin
  2
*D17
 70
     1
 10
0.0
 20
0.0
 30
0.0
  3
*D17
  1

  0
LINE
  5
850F
330
7364
100
AcDbEntity
  8
30
 62
     0
440
 16777216
370
    -2
100
AcDbLine
 10
233.4635243453596
 20
117.9875335015711
 30
0.0
 11
233.4635243453596
 21
51.12386258135439
 31
0.0
  0
LINE
  5
8510
330
7364
100
AcDbEntity
  8
30
 62
     0
440
 16777216
370
    -2
100
AcDbLine
 10
290.463523864476
 20
117.9875335015711
 30
0.0
 11
290.463523864476
 21
51.12386258135439
 31
0.0
  0
LINE
  5
8511
330
7364
100
AcDbEntity
  8
30
 62
     0
440
 16777216
370
    -2
100
AcDbLine
 10
235.4635243453596
 20
51.62386258135438
 30
0.0
 11
288.463523864476
 21
51.62386258135438
 31
0.0
  0
INSERT
  5
8512
330
7364
100
AcDbEntity
  8
30
 62
     0
440
 16777216
370
    -2
100
AcDbBlockReference
  2
_OPEN
 10
233.4635243453596
 20
51.62386258135438
 30
0.0
 41
2.0
 42
2.0
 43
2.0
 50
180.0
  0
INSERT
  5
8513
330
7364
100
AcDbEntity
  8
30
 62
     0
440
 16777216
370
    -2
100
AcDbBlockReference
  2
_OPEN
 10
290.463523864476
 20
51.62386258135438
 30
0.0
 41
2.0
 42
2.0
 43
2.0
  0
MTEXT
  5
8514
330
7364
100
AcDbEntity
  8
30
 62
     0
440
 16777216
100
AcDbMText
 10
261.9635241049179
 20
59.62386258135438
 30
0.0
 40
6.0
 41
0.0
 46
0.0
 71
     2
 72
     1
  1
\A1;57
 73
     1
 44
1.0
 90
        3
 63
     9
421
 13158600
 45
1.1
441
        0
  0
POINT
  5
8515
330
7364
100
AcDbEntity
  8
Defpoints
 62
     0
440
 16777216
100
AcDbPoint
 10
233.4635243453596
 20
118.9875335015711
 30
0.0
  0
POINT
  5
8516
330
7364
100
AcDbEntity
  8
Defpoints
 62
     0
440
 16777216
100
AcDbPoint
 10
290.463523864476
 20
118.9875335015711
 30
0.0
  0
POINT
  5
8517
330
7364
100
AcDbEntity
  8
Defpoints
 62
     0
440
 16777216
100
AcDbPoint
 10
290.463523864476
 20
51.62386258135438
 30
0.0
  0
ENDBLK
  5
7366
330
7364
100
AcDbEntity
  8
0
100
AcDbBlockEnd
  0
BLOCK
  5
7389
330
7388
100
AcDbEntity
  8
0
100
AcDbBlockBegin
  2
*D18
 70
     1
 10
0.0
 20
0.0
 30
0.0
  3
*D18
  1

  0
LINE
  5
83B3
330
7388
100
AcDbEntity
  8
30
 62
     0
440
 16777216
370
    -2
100
AcDbLine
 10
290.9635238663913
 20
171.5856094289719
 30
0.0
 11
293.7936508840786
 21
176.4875332192507
 31
0.0
  0
LINE
  5
83B4
330
7388
100
AcDbEntity
  8
30
 62
     0
440
 16777216
370
    -2
100
AcDbLine
 10
293.7936508840786
 20
176.4875332192507
 30
0.0
 11
303.2595599749877
 21
176.4875332192507
 31
0.0
  0
LINE
  5
83B5
330
7388
100
AcDbEntity
  8
30
 62
     0
440
 16777216
370
    -2
100
AcDbLine
 10
289.4635238700674
 20
168.9875332219872
 30
0.0
 11
289.9635238669682
 21
169.8535586210699
 31
0.0
  0
INSERT
  5
83B6
330
7388
100
AcDbEntity
  8
30
 62
     0
440
 16777216
370
    -2
100
AcDbBlockReference
  2
_OPEN
 10
289.9635238669682
 20
169.8535586210699
 30
0.0
 41
2.0
 42
2.0
 43
2.0
 50
240.0000000190858
  0
MTEXT
  5
83B7
330
7388
100
AcDbEntity
  8
30
 62
     0
440
 16777216
100
AcDbMText
 10
295.7936508840788
 20
184.4875332192506
 30
0.0
 40
6.0
 41
0.0
 46
0.0
 71
     1
 72
     1
  1
\A1;R1
 73
     1
 44
1.0
  0
POINT
  5
83B8
330
7388
100
AcDbEntity
  8
Defpoints
 62
     0
440
 16777216
100
AcDbPoint
 10
289.9635238669682
 20
169.8535586210699
 30
0.0
  0
POINT
  5
83B9
330
7388
100
AcDbEntity
  8
Defpoints
 62
     0
440
 16777216
100
AcDbPoint
 10
289.4635238700674
 20
168.9875332219872
 30
0.0
  0
ENDBLK
  5
738A
330
7388
100
AcDbEntity
  8
0
100
AcDbBlockEnd
  0
BLOCK
  5
73F3
330
73F2
100
AcDbEntity
  8
0
100
AcDbBlockBegin
  2
*D19
 70
     1
 10
0.0
 20
0.0
 30
0.0
  3
*D19
  1

  0
LINE
  5
83BA
330
73F2
100
AcDbEntity
  8
30
 62
     0
440
 16777216
370
    -2
100
AcDbLine
 10
420.592408284151
 20
168.8136078715595
 30
0.0
 11
426.3617361767036
 21
174.3443790333848
 31
0.0
  0
LINE
  5
83BB
330
73F2
100
AcDbEntity
  8
30
 62
     0
440
 16777216
370
    -2
100
AcDbLine
 10
426.3617361767036
 20
174.3443790333848
 30
0.0
 11
435.8276452676126
 21
174.3443790333848
 31
0.0
  0
LINE
  5
83BC
330
73F2
100
AcDbEntity
  8
30
 62
     0
440
 16777216
370
    -2
100
AcDbLine
 10
418.4267872114586
 20
166.7375333617797
 30
0.0
 11
419.1486609024082
 21
167.4295581984228
 31
0.0
  0
INSERT
  5
83BD
330
73F2
100
AcDbEntity
  8
30
 62
     0
440
 16777216
370
    -2
100
AcDbBlockReference
  2
_OPEN
 10
419.1486609024082
 20
167.4295581984228
 30
0.0
 41
2.0
 42
2.0
 43
2.0
 50
223.7906067211896
  0
MTEXT
  5
83BE
330
73F2
100
AcDbEntity
  8
30
 62
     0
440
 16777216
100
AcDbMText
 10
428.3617361767036
 20
182.3443790333848
 30
0.0
 40
6.0
 41
0.0
 46
0.0
 71
     1
 72
     1
  1
\A1;R1
 73
     1
 44
1.0
  0
POINT
  5
83BF
330
73F2
100
AcDbEntity
  8
Defpoints
 62
     0
440
 16777216
100
AcDbPoint
 10
419.1486609024082
 20
167.4295581984228
 30
0.0
  0
POINT
  5
83C0
330
73F2
100
AcDbEntity
  8
Defpoints
 62
     0
440
 16777216
100
AcDbPoint
 10
418.4267872114586
 20
166.7375333617797
 30
0.0
  0
ENDBLK
  5
73F4
330
73F2
100
AcDbEntity
  8
0
100
AcDbBlockEnd
  0
BLOCK
  5
7416
330
7415
100
AcDbEntity
  8
0
100
AcDbBlockBegin
  2
*D20
 70
     1
 10
0.0
 20
0.0
 30
0.0
  3
*D20
  1

  0
LINE
  5
84D2
330
7415
100
AcDbEntity
  8
30
  6
Continuous
 62
     0
440
 16777216
370
    -2
100
AcDbLine
 10
419.4267872114584
 20
167.7375333617792
 30
0.0
 11
470.3457262222697
 21
167.7375333617792
 31
0.0
  0
LINE
  5
84D3
330
7415
100
AcDbEntity
  8
30
  6
Continuous
 62
     0
440
 16777216
370
    -2
100
AcDbLine
 10
419.4267872114584
 20
119.7375333617795
 30
0.0
 11
470.3457262222697
 21
119.7375333617795
 31
0.0
  0
LINE
  5
84D4
330
7415
100
AcDbEntity
  8
30
  6
Continuous
 62
     0
440
 16777216
370
    -2
100
AcDbLine
 10
469.8457262222698
 20
165.7375333617792
 30
0.0
 11
469.8457262222698
 21
121.7375333617795
 31
0.0
  0
INSERT
  5
84D5
330
7415
100
AcDbEntity
  8
30
  6
Continuous
 62
     0
440
 16777216
370
    -2
100
AcDbBlockReference
  2
_OPEN
 10
469.8457262222698
 20
167.7375333617792
 30
0.0
 41
2.0
 42
2.0
 43
2.0
 50
90.0
  0
INSERT
  5
84D6
330
7415
100
AcDbEntity
  8
30
  6
Continuous
 62
     0
440
 16777216
370
    -2
100
AcDbBlockReference
  2
_OPEN
 10
469.8457262222698
 20
119.7375333617795
 30
0.0
 41
2.0
 42
2.0
 43
2.0
 50
270.0
  0
MTEXT
  5
84D7
330
7415
100
AcDbEntity
  8
30
  6
Continuous
 62
     0
440
 16777216
100
AcDbMText
 10
461.8457262222698
 20
144.8757897310772
 30
0.0
 40
6.0
 41
0.0
 46
0.0
 71
     2
 72
     1
  1
\A1;48
 11
0.0000000000000001
 21
1.0
 31
0.0
 73
     1
 44
1.0
 90
        3
 63
     9
421
 13158600
 45
1.1
441
        0
  0
POINT
  5
84D8
330
7415
100
AcDbEntity
  8
Defpoints
  6
Continuous
 62
     0
440
 16777216
100
AcDbPoint
 10
418.4267872114583
 20
167.7375333617792
 30
0.0
  0
POINT
  5
84D9
330
7415
100
AcDbEntity
  8
Defpoints
  6
Continuous
 62
     0
440
 16777216
100
AcDbPoint
 10
418.4267872114583
 20
119.7375333617795
 30
0.0
  0
POINT
  5
84DA
330
7415
100
AcDbEntity
  8
Defpoints
  6
Continuous
 62
     0
440
 16777216
100
AcDbPoint
 10
469.8457262222698
 20
119.7375333617795
 30
0.0
  0
ENDBLK
  5
7417
330
7415
100
AcDbEntity
  8
0
100
AcDbBlockEnd
  0
BLOCK
  5
7435
330
7434
100
AcDbEntity
  8
0
100
AcDbBlockBegin
  2
*D21
 70
     1
 10
0.0
 20
0.0
 30
0.0
  3
*D21
  1

  0
LINE
  5
83CA
330
7434
100
AcDbEntity
  8
30
 62
     0
440
 16777216
370
    -2
100
AcDbLine
 10
294.3065360412116
 20
169.9875337527339
 30
0.0
 11
310.1768514964657
 21
169.9875337527339
 31
0.0
  0
LINE
  5
83CB
330
7434
100
AcDbEntity
  8
30
 62
     0
440
 16777216
370
    -2
100
AcDbLine
 10
294.3065360410112
 20
117.9875329705009
 30
0.0
 11
310.1768514964656
 21
117.9875329705009
 31
0.0
  0
LINE
  5
83CC
330
7434
100
AcDbEntity
  8
30
 62
     0
440
 16777216
370
    -2
100
AcDbLine
 10
309.6768514964657
 20
167.9875337527339
 30
0.0
 11
309.6768514964657
 21
119.9875329705009
 31
0.0
  0
INSERT
  5
83CD
330
7434
100
AcDbEntity
  8
30
 62
     0
440
 16777216
370
    -2
100
AcDbBlockReference
  2
_OPEN
 10
309.6768514964657
 20
169.9875337527339
 30
0.0
 41
2.0
 42
2.0
 43
2.0
 50
90.0
  0
INSERT
  5
83CE
330
7434
100
AcDbEntity
  8
30
 62
     0
440
 16777216
370
    -2
100
AcDbBlockReference
  2
_OPEN
 10
309.6768514964657
 20
117.9875329705009
 30
0.0
 41
2.0
 42
2.0
 43
2.0
 50
270.0
  0
MTEXT
  5
83CF
330
7434
100
AcDbEntity
  8
30
 62
     0
440
 16777216
100
AcDbMText
 10
304.6768514964656
 20
143.9875333616174
 30
0.0
 40
6.0
 41
0.0
 46
0.0
 71
     5
 72
     1
  1
\A1;52
 11
0.0000000000000001
 21
1.0
 31
0.0
 73
     1
 44
1.0
 90
        3
 63
     9
421
 13158600
 45
1.1
441
        0
  0
POINT
  5
83D0
330
7434
100
AcDbEntity
  8
Defpoints
 62
     0
440
 16777216
100
AcDbPoint
 10
293.3065360412117
 20
169.9875337527339
 30
0.0
  0
POINT
  5
83D1
330
7434
100
AcDbEntity
  8
Defpoints
 62
     0
440
 16777216
100
AcDbPoint
 10
293.3065360410111
 20
117.9875329705009
 30
0.0
  0
POINT
  5
83D2
330
7434
100
AcDbEntity
  8
Defpoints
 62
     0
440
 16777216
100
AcDbPoint
 10
309.6768514964657
 20
117.9875329705009
 30
0.0
  0
ENDBLK
  5
7436
330
7434
100
AcDbEntity
  8
0
100
AcDbBlockEnd
  0
BLOCK
  5
75C3
330
75C2
100
AcDbEntity
  8
0
100
AcDbBlockBegin
  2
*D22
 70
     1
 10
0.0
 20
0.0
 30
0.0
  3
*D22
  1

  0
LINE
  5
82E4
330
75C2
100
AcDbEntity
  8
30
 62
     0
440
 16777216
370
    -2
100
AcDbLine
 10
95.51449179630322
 20
351.1857738997254
 30
0.0
 11
95.51449179630322
 21
336.5699215254757
 31
0.0
  0
LINE
  5
82E5
330
75C2
100
AcDbEntity
  8
30
 62
     0
440
 16777216
370
    -2
100
AcDbLine
 10
73.46818798011418
 20
351.1857738997254
 30
0.0
 11
73.46818798011418
 21
336.5699215254757
 31
0.0
  0
LINE
  5
82E6
330
75C2
100
AcDbEntity
  8
30
 62
     0
440
 16777216
370
    -2
100
AcDbLine
 10
93.5144917963032
 20
337.0699215254757
 30
0.0
 11
75.46818798011418
 21
337.0699215254757
 31
0.0
  0
INSERT
  5
82E7
330
75C2
100
AcDbEntity
  8
30
 62
     0
440
 16777216
370
    -2
100
AcDbBlockReference
  2
_OPEN
 10
95.51449179630322
 20
337.0699215254757
 30
0.0
 41
2.0
 42
2.0
 43
2.0
  0
INSERT
  5
82E8
330
75C2
100
AcDbEntity
  8
30
 62
     0
440
 16777216
370
    -2
100
AcDbBlockReference
  2
_OPEN
 10
73.46818798011418
 20
337.0699215254757
 30
0.0
 41
2.0
 42
2.0
 43
2.0
 50
180.0
  0
MTEXT
  5
82E9
330
75C2
100
AcDbEntity
  8
30
 62
     0
440
 16777216
100
AcDbMText
 10
84.4913398882087
 20
342.0699215254757
 30
0.0
 40
6.0
 41
0.0
 46
0.0
 71
     5
 72
     1
  1
\A1;22
 73
     1
 44
1.0
 90
        3
 63
     9
421
 13158600
 45
1.1
441
        0
  0
POINT
  5
82EA
330
75C2
100
AcDbEntity
  8
Defpoints
 62
     0
440
 16777216
100
AcDbPoint
 10
95.51449179630322
 20
352.1857738997253
 30
0.0
  0
POINT
  5
82EB
330
75C2
100
AcDbEntity
  8
Defpoints
 62
     0
440
 16777216
100
AcDbPoint
 10
73.46818798011418
 20
352.1857738997253
 30
0.0
  0
POINT
  5
82EC
330
75C2
100
AcDbEntity
  8
Defpoints
 62
     0
440
 16777216
100
AcDbPoint
 10
73.46818798011418
 20
337.0699215254757
 30
0.0
  0
ENDBLK
  5
75C4
330
75C2
100
AcDbEntity
  8
0
100
AcDbBlockEnd
  0
BLOCK
  5
7AA6
330
7AA5
100
AcDbEntity
  8
0
100
AcDbBlockBegin
  2
*D23
 70
     1
 10
0.0
 20
0.0
 30
0.0
  3
*D23
  1

  0
LINE
  5
8324
330
7AA5
100
AcDbEntity
  8
30
  6
Continuous
 62
     0
440
 16777216
370
    -2
100
AcDbLine
 10
110.4711848644597
 20
639.0763976003434
 30
0.0
 11
110.4711848644597
 21
674.2560615225952
 31
0.0
  0
LINE
  5
8325
330
7AA5
100
AcDbEntity
  8
30
  6
Continuous
 62
     0
440
 16777216
370
    -2
100
AcDbLine
 10
119.0091298859777
 20
639.0763976003434
 30
0.0
 11
119.0091298859777
 21
674.2560615225952
 31
0.0
  0
LINE
  5
8326
330
7AA5
100
AcDbEntity
  8
30
  6
Continuous
 62
     0
440
 16777216
370
    -2
100
AcDbLine
 10
112.4711848644597
 20
673.7560615225952
 30
0.0
 11
117.0091298859777
 21
673.7560615225952
 31
0.0
  0
LINE
  5
8327
330
7AA5
100
AcDbEntity
  8
30
  6
Continuous
 62
     0
440
 16777216
370
    -2
100
AcDbLine
 10
119.0091298859777
 20
673.7560615225952
 30
0.0
 11
142.5786803793685
 21
673.7560615225952
 31
0.0
  0
INSERT
  5
8328
330
7AA5
100
AcDbEntity
  8
30
  6
Continuous
 62
     0
440
 16777216
370
    -2
100
AcDbBlockReference
  2
_OPEN
 10
110.4711848644597
 20
673.7560615225952
 30
0.0
 41
2.0
 42
2.0
 43
2.0
 50
180.0
  0
INSERT
  5
8329
330
7AA5
100
AcDbEntity
  8
30
  6
Continuous
 62
     0
440
 16777216
370
    -2
100
AcDbBlockReference
  2
_OPEN
 10
119.0091298859777
 20
673.7560615225952
 30
0.0
 41
2.0
 42
2.0
 43
2.0
  0
MTEXT
  5
832A
330
7AA5
100
AcDbEntity
  8
30
  6
Continuous
 62
     0
440
 16777216
100
AcDbMText
 10
135.7548167430049
 20
678.7560615225952
 30
0.0
 40
6.0
 41
0.0
 46
0.0
 71
     5
 72
     1
  1
\A1;8.5
 73
     1
 44
1.0
 90
        3
 63
     9
421
 13158600
 45
1.1
441
        0
  0
POINT
  5
832B
330
7AA5
100
AcDbEntity
  8
Defpoints
  6
Continuous
 62
     0
440
 16777216
100
AcDbPoint
 10
110.4711848644597
 20
638.0763976003434
 30
0.0
  0
POINT
  5
832C
330
7AA5
100
AcDbEntity
  8
Defpoints
  6
Continuous
 62
     0
440
 16777216
100
AcDbPoint
 10
119.0091298859777
 20
638.0763976003434
 30
0.0
  0
POINT
  5
832D
330
7AA5
100
AcDbEntity
  8
Defpoints
  6
Continuous
 62
     0
440
 16777216
100
AcDbPoint
 10
119.0091298859777
 20
673.7560615225952
 30
0.0
  0
ENDBLK
  5
7AA7
330
7AA5
100
AcDbEntity
  8
0
100
AcDbBlockEnd
  0
BLOCK
  5
7D08
330
7D07
100
AcDbEntity
  8
0
100
AcDbBlockBegin
  2
*D24
 70
     1
 10
0.0
 20
0.0
 30
0.0
  3
*D24
  1

  0
LINE
  5
832E
330
7D07
100
AcDbEntity
  8
30
  6
Continuous
 62
     0
440
 16777216
370
    -2
100
AcDbLine
 10
106.790431709015
 20
652.0276446863142
 30
0.0
 11
106.790431709015
 21
679.5162846360366
 31
0.0
  0
LINE
  5
832F
330
7D07
100
AcDbEntity
  8
30
  6
Continuous
 62
     0
440
 16777216
370
    -2
100
AcDbLine
 10
122.7605203990791
 20
652.1276446863143
 30
0.0
 11
122.7605203990791
 21
679.5162846360366
 31
0.0
  0
LINE
  5
8330
330
7D07
100
AcDbEntity
  8
30
  6
Continuous
 62
     0
440
 16777216
370
    -2
100
AcDbLine
 10
108.790431709015
 20
679.0162846360366
 30
0.0
 11
120.7605203990791
 21
679.0162846360366
 31
0.0
  0
INSERT
  5
8331
330
7D07
100
AcDbEntity
  8
30
  6
Continuous
 62
     0
440
 16777216
370
    -2
100
AcDbBlockReference
  2
_OPEN
 10
106.790431709015
 20
679.0162846360366
 30
0.0
 41
2.0
 42
2.0
 43
2.0
 50
180.0
  0
INSERT
  5
8332
330
7D07
100
AcDbEntity
  8
30
  6
Continuous
 62
     0
440
 16777216
370
    -2
100
AcDbBlockReference
  2
_OPEN
 10
122.7605203990791
 20
679.0162846360366
 30
0.0
 41
2.0
 42
2.0
 43
2.0
  0
MTEXT
  5
8333
330
7D07
100
AcDbEntity
  8
30
  6
Continuous
 62
     0
440
 16777216
100
AcDbMText
 10
116.005127342644
 20
684.0162846360366
 30
0.0
 40
6.0
 41
0.0
 46
0.0
 71
     5
 72
     1
  1
\A1;16
 73
     1
 44
1.0
 90
        3
 63
     9
421
 13158600
 45
1.1
441
        0
  0
POINT
  5
8334
330
7D07
100
AcDbEntity
  8
Defpoints
  6
Continuous
 62
     0
440
 16777216
100
AcDbPoint
 10
106.790431709015
 20
651.0276446863143
 30
0.0
  0
POINT
  5
8335
330
7D07
100
AcDbEntity
  8
Defpoints
  6
Continuous
 62
     0
440
 16777216
100
AcDbPoint
 10
122.7605203990791
 20
651.1276446863142
 30
0.0
  0
POINT
  5
8336
330
7D07
100
AcDbEntity
  8
Defpoints
  6
Continuous
 62
     0
440
 16777216
100
AcDbPoint
 10
122.7605203990791
 20
679.0162846360366
 30
0.0
  0
ENDBLK
  5
7D09
330
7D07
100
AcDbEntity
  8
0
100
AcDbBlockEnd
  0
BLOCK
  5
7F26
330
7F25
100
AcDbEntity
  8
0
100
AcDbBlockBegin
  2
*D25
 70
     1
 10
0.0
 20
0.0
 30
0.0
  3
*D25
  1

  0
LINE
  5
8337
330
7F25
100
AcDbEntity
  8
30
  6
Continuous
 62
     0
440
 16777216
370
    -2
100
AcDbLine
 10
280.9840558237052
 20
399.2899923675656
 30
0.0
 11
243.3840558237054
 21
399.2899923675656
 31
0.0
  0
LINE
  5
8338
330
7F25
100
AcDbEntity
  8
30
  6
Continuous
 62
     0
440
 16777216
370
    -2
100
AcDbLine
 10
280.9840558237052
 20
349.2899923675655
 30
0.0
 11
243.3840558237054
 21
349.2899923675655
 31
0.0
  0
LINE
  5
8339
330
7F25
100
AcDbEntity
  8
30
  6
Continuous
 62
     0
440
 16777216
370
    -2
100
AcDbLine
 10
243.8840558237054
 20
397.2899923675655
 30
0.0
 11
243.8840558237054
 21
351.2899923675655
 31
0.0
  0
INSERT
  5
833A
330
7F25
100
AcDbEntity
  8
30
  6
Continuous
 62
     0
440
 16777216
370
    -2
100
AcDbBlockReference
  2
_OPEN
 10
243.8840558237054
 20
399.2899923675656
 30
0.0
 41
2.0
 42
2.0
 43
2.0
 50
90.0
  0
INSERT
  5
833B
330
7F25
100
AcDbEntity
  8
30
  6
Continuous
 62
     0
440
 16777216
370
    -2
100
AcDbBlockReference
  2
_OPEN
 10
243.8840558237054
 20
349.2899923675655
 30
0.0
 41
2.0
 42
2.0
 43
2.0
 50
270.0
  0
MTEXT
  5
833C
330
7F25
100
AcDbEntity
  8
30
  6
Continuous
 62
     0
440
 16777216
100
AcDbMText
 10
238.8840558237053
 20
377.0624350685655
 30
0.0
 40
6.0
 41
0.0
 46
0.0
 71
     5
 72
     1
  1
\A1;50
 11
0.0000000000000001
 21
1.0
 31
0.0
 73
     1
 44
1.0
 90
        3
 63
     9
421
 13158600
 45
1.1
441
        0
  0
POINT
  5
833D
330
7F25
100
AcDbEntity
  8
Defpoints
  6
Continuous
 62
     0
440
 16777216
100
AcDbPoint
 10
281.9840558237051
 20
399.2899923675656
 30
0.0
  0
POINT
  5
833E
330
7F25
100
AcDbEntity
  8
Defpoints
  6
Continuous
 62
     0
440
 16777216
100
AcDbPoint
 10
281.9840558237051
 20
349.2899923675655
 30
0.0
  0
POINT
  5
833F
330
7F25
100
AcDbEntity
  8
Defpoints
  6
Continuous
 62
     0
440
 16777216
100
AcDbPoint
 10
243.8840558237054
 20
349.2899923675655
 30
0.0
  0
ENDBLK
  5
7F27
330
7F25
100
AcDbEntity
  8
0
100
AcDbBlockEnd
  0
BLOCK
  5
7F32
330
7F31
100
AcDbEntity
  8
0
100
AcDbBlockBegin
  2
*D26
 70
     1
 10
0.0
 20
0.0
 30
0.0
  3
*D26
  1

  0
LINE
  5
8340
330
7F31
100
AcDbEntity
  8
30
  6
Continuous
 62
     0
440
 16777216
370
    -2
100
AcDbLine
 10
456.7371869293046
 20
319.2899923675656
 30
0.0
 11
474.3840558237052
 21
319.2899923675656
 31
0.0
  0
LINE
  5
8341
330
7F31
100
AcDbEntity
  8
30
  6
Continuous
 62
     0
440
 16777216
370
    -2
100
AcDbLine
 10
456.7371869293046
 20
315.2899923675656
 30
0.0
 11
474.3840558237052
 21
315.2899923675656
 31
0.0
  0
LINE
  5
8342
330
7F31
100
AcDbEntity
  8
30
  6
Continuous
 62
     0
440
 16777216
370
    -2
100
AcDbLine
 10
473.8840558237052
 20
321.2899923675656
 30
0.0
 11
473.8840558237052
 21
323.2899923675656
 31
0.0
  0
LINE
  5
8343
330
7F31
100
AcDbEntity
  8
30
  6
Continuous
 62
     0
440
 16777216
370
    -2
100
AcDbLine
 10
473.8840558237052
 20
313.2899923675656
 30
0.0
 11
473.8840558237052
 21
292.8979469130201
 31
0.0
  0
LINE
  5
8344
330
7F31
100
AcDbEntity
  8
30
  6
Continuous
 62
     0
440
 16777216
370
    -2
100
AcDbLine
 10
473.8840558237052
 20
319.2899923675656
 30
0.0
 11
473.8840558237052
 21
315.2899923675656
 31
0.0
  0
INSERT
  5
8345
330
7F31
100
AcDbEntity
  8
30
  6
Continuous
 62
     0
440
 16777216
370
    -2
100
AcDbBlockReference
  2
_OPEN
 10
473.8840558237052
 20
319.2899923675656
 30
0.0
 41
2.0
 42
2.0
 43
2.0
 50
270.0
  0
INSERT
  5
8346
330
7F31
100
AcDbEntity
  8
30
  6
Continuous
 62
     0
440
 16777216
370
    -2
100
AcDbBlockReference
  2
_OPEN
 10
473.8840558237052
 20
315.2899923675656
 30
0.0
 41
2.0
 42
2.0
 43
2.0
 50
90.0
  0
MTEXT
  5
8347
330
7F31
100
AcDbEntity
  8
30
  6
Continuous
 62
     0
440
 16777216
100
AcDbMText
 10
468.8840558237052
 20
296.7899923675656
 30
0.0
 40
6.0
 41
0.0
 46
0.0
 71
     5
 72
     1
  1
\A1;4
 11
0.0000000000000001
 21
1.0
 31
0.0
 73
     1
 44
1.0
 90
        3
 63
     9
421
 13158600
 45
1.1
441
        0
  0
POINT
  5
8348
330
7F31
100
AcDbEntity
  8
Defpoints
  6
Continuous
 62
     0
440
 16777216
100
AcDbPoint
 10
455.7371869293048
 20
319.2899923675656
 30
0.0
  0
POINT
  5
8349
330
7F31
100
AcDbEntity
  8
Defpoints
  6
Continuous
 62
     0
440
 16777216
100
AcDbPoint
 10
455.7371869293048
 20
315.2899923675656
 30
0.0
  0
POINT
  5
834A
330
7F31
100
AcDbEntity
  8
Defpoints
  6
Continuous
 62
     0
440
 16777216
100
AcDbPoint
 10
473.8840558237052
 20
315.2899923675656
 30
0.0
  0
ENDBLK
  5
7F33
330
7F31
100
AcDbEntity
  8
0
100
AcDbBlockEnd
  0
BLOCK
  5
7F40
330
7F3F
100
AcDbEntity
  8
0
100
AcDbBlockBegin
  2
*D27
 70
     1
 10
0.0
 20
0.0
 30
0.0
  3
*D27
  1

  0
LINE
  5
834B
330
7F3F
100
AcDbEntity
  8
30
  6
Continuous
 62
     0
440
 16777216
370
    -2
100
AcDbLine
 10
463.7725047485441
 20
431.2899923675655
 30
0.0
 11
483.2725047485443
 21
431.2899923675655
 31
0.0
  0
LINE
  5
834C
330
7F3F
100
AcDbEntity
  8
30
  6
Continuous
 62
     0
440
 16777216
370
    -2
100
AcDbLine
 10
463.7725047485441
 20
317.2899923675656
 30
0.0
 11
483.2725047485443
 21
317.2899923675656
 31
0.0
  0
LINE
  5
834D
330
7F3F
100
AcDbEntity
  8
30
  6
Continuous
 62
     0
440
 16777216
370
    -2
100
AcDbLine
 10
482.7725047485443
 20
429.2899923675655
 30
0.0
 11
482.7725047485443
 21
319.2899923675656
 31
0.0
  0
INSERT
  5
834E
330
7F3F
100
AcDbEntity
  8
30
  6
Continuous
 62
     0
440
 16777216
370
    -2
100
AcDbBlockReference
  2
_OPEN
 10
482.7725047485443
 20
431.2899923675655
 30
0.0
 41
2.0
 42
2.0
 43
2.0
 50
90.0
  0
INSERT
  5
834F
330
7F3F
100
AcDbEntity
  8
30
  6
Continuous
 62
     0
440
 16777216
370
    -2
100
AcDbBlockReference
  2
_OPEN
 10
482.7725047485443
 20
317.2899923675656
 30
0.0
 41
2.0
 42
2.0
 43
2.0
 50
270.0
  0
MTEXT
  5
8350
330
7F3F
100
AcDbEntity
  8
30
  6
Continuous
 62
     0
440
 16777216
100
AcDbMText
 10
477.7725047485441
 20
374.2899923675656
 30
0.0
 40
6.0
 41
0.0
 46
0.0
 71
     5
 72
     1
  1
\A1;114
 11
0.0000000000000001
 21
1.0
 31
0.0
 73
     1
 44
1.0
 90
        3
 63
     9
421
 13158600
 45
1.1
441
        0
  0
POINT
  5
8351
330
7F3F
100
AcDbEntity
  8
Defpoints
  6
Continuous
 62
     0
440
 16777216
100
AcDbPoint
 10
462.7725047485442
 20
431.2899923675655
 30
0.0
  0
POINT
  5
8352
330
7F3F
100
AcDbEntity
  8
Defpoints
  6
Continuous
 62
     0
440
 16777216
100
AcDbPoint
 10
462.7725047485442
 20
317.2899923675656
 30
0.0
  0
POINT
  5
8353
330
7F3F
100
AcDbEntity
  8
Defpoints
  6
Continuous
 62
     0
440
 16777216
100
AcDbPoint
 10
482.7725047485443
 20
317.2899923675656
 30
0.0
  0
ENDBLK
  5
7F41
330
7F3F
100
AcDbEntity
  8
0
100
AcDbBlockEnd
  0
BLOCK
  5
7F4C
330
7F4B
100
AcDbEntity
  8
0
100
AcDbBlockBegin
  2
*D28
 70
     1
 10
0.0
 20
0.0
 30
0.0
  3
*D28
  1

  0
LINE
  5
8354
330
7F4B
100
AcDbEntity
  8
30
  6
Continuous
 62
     0
440
 16777216
370
    -2
100
AcDbLine
 10
258.6656406192191
 20
376.9067207001868
 30
0.0
 11
258.6656406192191
 21
257.0384633023912
 31
0.0
  0
LINE
  5
8355
330
7F4B
100
AcDbEntity
  8
30
  6
Continuous
 62
     0
440
 16777216
370
    -2
100
AcDbLine
 10
354.1656393824693
 20
311.7460872709506
 30
0.0
 11
354.1656393824693
 21
257.0384633023912
 31
0.0
  0
LINE
  5
8356
330
7F4B
100
AcDbEntity
  8
30
  6
Continuous
 62
     0
440
 16777216
370
    -2
100
AcDbLine
 10
260.6656406192191
 20
257.5384633023912
 30
0.0
 11
352.1656393824693
 21
257.5384633023912
 31
0.0
  0
INSERT
  5
8357
330
7F4B
100
AcDbEntity
  8
30
  6
Continuous
 62
     0
440
 16777216
370
    -2
100
AcDbBlockReference
  2
_OPEN
 10
258.6656406192191
 20
257.5384633023912
 30
0.0
 41
2.0
 42
2.0
 43
2.0
 50
180.0
  0
INSERT
  5
8358
330
7F4B
100
AcDbEntity
  8
30
  6
Continuous
 62
     0
440
 16777216
370
    -2
100
AcDbBlockReference
  2
_OPEN
 10
354.1656393824693
 20
257.5384633023912
 30
0.0
 41
2.0
 42
2.0
 43
2.0
  0
MTEXT
  5
8359
330
7F4B
100
AcDbEntity
  8
30
  6
Continuous
 62
     0
440
 16777216
100
AcDbMText
 10
306.4156400008442
 20
262.5384633023912
 30
0.0
 40
6.0
 41
0.0
 46
0.0
 71
     5
 72
     1
  1
\A1;95.5
 73
     1
 44
1.0
 90
        3
 63
     9
421
 13158600
 45
1.1
441
        0
  0
POINT
  5
835A
330
7F4B
100
AcDbEntity
  8
Defpoints
  6
Continuous
 62
     0
440
 16777216
100
AcDbPoint
 10
258.6656406192191
 20
377.9067207001868
 30
0.0
  0
POINT
  5
835B
330
7F4B
100
AcDbEntity
  8
Defpoints
  6
Continuous
 62
     0
440
 16777216
100
AcDbPoint
 10
354.1656393824693
 20
312.7460872709506
 30
0.0
  0
POINT
  5
835C
330
7F4B
100
AcDbEntity
  8
Defpoints
  6
Continuous
 62
     0
440
 16777216
100
AcDbPoint
 10
354.1656393824693
 20
257.5384633023912
 30
0.0
  0
ENDBLK
  5
7F4D
330
7F4B
100
AcDbEntity
  8
0
100
AcDbBlockEnd
  0
BLOCK
  5
7F58
330
7F57
100
AcDbEntity
  8
0
100
AcDbBlockBegin
  2
*D29
 70
     1
 10
0.0
 20
0.0
 30
0.0
  3
*D29
  1

  0
LINE
  5
835D
330
7F57
100
AcDbEntity
  8
30
  6
Continuous
 62
     0
440
 16777216
370
    -2
100
AcDbLine
 10
275.6656406192188
 20
351.9067207001868
 30
0.0
 11
275.6656406192188
 21
268.458731068948
 31
0.0
  0
LINE
  5
835E
330
7F57
100
AcDbEntity
  8
30
  6
Continuous
 62
     0
440
 16777216
370
    -2
100
AcDbLine
 10
282.1656406192188
 20
345.851820335498
 30
0.0
 11
282.1656406192188
 21
268.458731068948
 31
0.0
  0
LINE
  5
835F
330
7F57
100
AcDbEntity
  8
30
  6
Continuous
 62
     0
440
 16777216
370
    -2
100
AcDbLine
 10
284.1656406192188
 20
268.9587310689481
 30
0.0
 11
286.1656406192188
 21
268.9587310689481
 31
0.0
  0
LINE
  5
8360
330
7F57
100
AcDbEntity
  8
30
  6
Continuous
 62
     0
440
 16777216
370
    -2
100
AcDbLine
 10
273.6656406192188
 20
268.9587310689481
 30
0.0
 11
258.0860951646735
 21
268.9587310689481
 31
0.0
  0
INSERT
  5
8361
330
7F57
100
AcDbEntity
  8
30
  6
Continuous
 62
     0
440
 16777216
370
    -2
100
AcDbBlockReference
  2
_OPEN
 10
282.1656406192188
 20
268.9587310689481
 30
0.0
 41
2.0
 42
2.0
 43
2.0
 50
180.0
  0
INSERT
  5
8362
330
7F57
100
AcDbEntity
  8
30
  6
Continuous
 62
     0
440
 16777216
370
    -2
100
AcDbBlockReference
  2
_OPEN
 10
275.6656406192188
 20
268.9587310689481
 30
0.0
 41
2.0
 42
2.0
 43
2.0
  0
MTEXT
  5
8363
330
7F57
100
AcDbEntity
  8
30
  6
Continuous
 62
     0
440
 16777216
100
AcDbMText
 10
264.8758678919461
 20
273.9587310689481
 30
0.0
 40
6.0
 41
0.0
 46
0.0
 71
     5
 72
     1
  1
\A1;6.5
 73
     1
 44
1.0
 90
        3
 63
     9
421
 13158600
 45
1.1
441
        0
  0
POINT
  5
8364
330
7F57
100
AcDbEntity
  8
Defpoints
  6
Continuous
 62
     0
440
 16777216
100
AcDbPoint
 10
275.6656406192188
 20
352.9067207001868
 30
0.0
  0
POINT
  5
8365
330
7F57
100
AcDbEntity
  8
Defpoints
  6
Continuous
 62
     0
440
 16777216
100
AcDbPoint
 10
282.1656406192188
 20
346.8518203354979
 30
0.0
  0
POINT
  5
8366
330
7F57
100
AcDbEntity
  8
Defpoints
  6
Continuous
 62
     0
440
 16777216
100
AcDbPoint
 10
282.1656406192188
 20
268.9587310689481
 30
0.0
  0
ENDBLK
  5
7F59
330
7F57
100
AcDbEntity
  8
0
100
AcDbBlockEnd
  0
BLOCK
  5
7F65
330
7F64
100
AcDbEntity
  8
0
100
AcDbBlockBegin
  2
*D30
 70
     1
 10
0.0
 20
0.0
 30
0.0
  3
*D30
  1

  0
LINE
  5
8367
330
7F64
100
AcDbEntity
  8
30
  6
Continuous
 62
     0
440
 16777216
370
    -2
100
AcDbLine
 10
282.1656406192188
 20
340.7176715276929
 30
0.0
 11
282.1656406192188
 21
268.458731068948
 31
0.0
  0
LINE
  5
8368
330
7F64
100
AcDbEntity
  8
30
  6
Continuous
 62
     0
440
 16777216
370
    -2
100
AcDbLine
 10
354.1656393824693
 20
311.7460872709506
 30
0.0
 11
354.1656393824693
 21
268.458731068948
 31
0.0
  0
LINE
  5
8369
330
7F64
100
AcDbEntity
  8
30
  6
Continuous
 62
     0
440
 16777216
370
    -2
100
AcDbLine
 10
284.1656406192188
 20
268.9587310689481
 30
0.0
 11
352.1656393824693
 21
268.9587310689481
 31
0.0
  0
INSERT
  5
836A
330
7F64
100
AcDbEntity
  8
30
  6
Continuous
 62
     0
440
 16777216
370
    -2
100
AcDbBlockReference
  2
_OPEN
 10
282.1656406192188
 20
268.9587310689481
 30
0.0
 41
2.0
 42
2.0
 43
2.0
 50
180.0
  0
INSERT
  5
836B
330
7F64
100
AcDbEntity
  8
30
  6
Continuous
 62
     0
440
 16777216
370
    -2
100
AcDbBlockReference
  2
_OPEN
 10
354.1656393824693
 20
268.9587310689481
 30
0.0
 41
2.0
 42
2.0
 43
2.0
  0
MTEXT
  5
836C
330
7F64
100
AcDbEntity
  8
30
  6
Continuous
 62
     0
440
 16777216
100
AcDbMText
 10
318.1656400008441
 20
273.9587310689481
 30
0.0
 40
6.0
 41
0.0
 46
0.0
 71
     5
 72
     1
  1
\A1;72
 73
     1
 44
1.0
 90
        3
 63
     9
421
 13158600
 45
1.1
441
        0
  0
POINT
  5
836D
330
7F64
100
AcDbEntity
  8
Defpoints
  6
Continuous
 62
     0
440
 16777216
100
AcDbPoint
 10
282.1656406192188
 20
341.7176715276929
 30
0.0
  0
POINT
  5
836E
330
7F64
100
AcDbEntity
  8
Defpoints
  6
Continuous
 62
     0
440
 16777216
100
AcDbPoint
 10
354.1656393824693
 20
312.7460872709506
 30
0.0
  0
POINT
  5
836F
330
7F64
100
AcDbEntity
  8
Defpoints
  6
Continuous
 62
     0
440
 16777216
100
AcDbPoint
 10
354.1656393824693
 20
268.9587310689481
 30
0.0
  0
ENDBLK
  5
7F66
330
7F64
100
AcDbEntity
  8
0
100
AcDbBlockEnd
  0
BLOCK
  5
7F71
330
7F70
100
AcDbEntity
  8
0
100
AcDbBlockBegin
  2
*D31
 70
     1
 10
0.0
 20
0.0
 30
0.0
  3
*D31
  1

  0
LINE
  5
8370
330
7F70
100
AcDbEntity
  8
30
  6
Continuous
 62
     0
440
 16777216
370
    -2
100
AcDbLine
 10
286.1656406192188
 20
315.2664893838998
 30
0.0
 11
286.1656406192188
 21
279.3131964572784
 31
0.0
  0
LINE
  5
8371
330
7F70
100
AcDbEntity
  8
30
  6
Continuous
 62
     0
440
 16777216
370
    -2
100
AcDbLine
 10
354.1656393824693
 20
311.7460872709506
 30
0.0
 11
354.1656393824693
 21
279.3131964572784
 31
0.0
  0
LINE
  5
8372
330
7F70
100
AcDbEntity
  8
30
  6
Continuous
 62
     0
440
 16777216
370
    -2
100
AcDbLine
 10
288.1656406192188
 20
279.8131964572784
 30
0.0
 11
352.1656393824693
 21
279.8131964572784
 31
0.0
  0
INSERT
  5
8373
330
7F70
100
AcDbEntity
  8
30
  6
Continuous
 62
     0
440
 16777216
370
    -2
100
AcDbBlockReference
  2
_OPEN
 10
286.1656406192188
 20
279.8131964572784
 30
0.0
 41
2.0
 42
2.0
 43
2.0
 50
180.0
  0
INSERT
  5
8374
330
7F70
100
AcDbEntity
  8
30
  6
Continuous
 62
     0
440
 16777216
370
    -2
100
AcDbBlockReference
  2
_OPEN
 10
354.1656393824693
 20
279.8131964572784
 30
0.0
 41
2.0
 42
2.0
 43
2.0
  0
MTEXT
  5
8375
330
7F70
100
AcDbEntity
  8
30
  6
Continuous
 62
     0
440
 16777216
100
AcDbMText
 10
320.1656400008441
 20
284.8131964572784
 30
0.0
 40
6.0
 41
0.0
 46
0.0
 71
     5
 72
     1
  1
\A1;68
 73
     1
 44
1.0
 90
        3
 63
     9
421
 13158600
 45
1.1
441
        0
  0
POINT
  5
8376
330
7F70
100
AcDbEntity
  8
Defpoints
  6
Continuous
 62
     0
440
 16777216
100
AcDbPoint
 10
286.1656406192188
 20
316.2664893838997
 30
0.0
  0
POINT
  5
8377
330
7F70
100
AcDbEntity
  8
Defpoints
  6
Continuous
 62
     0
440
 16777216
100
AcDbPoint
 10
354.1656393824693
 20
312.7460872709506
 30
0.0
  0
POINT
  5
8378
330
7F70
100
AcDbEntity
  8
Defpoints
  6
Continuous
 62
     0
440
 16777216
100
AcDbPoint
 10
354.1656393824693
 20
279.8131964572784
 30
0.0
  0
ENDBLK
  5
7F72
330
7F70
100
AcDbEntity
  8
0
100
AcDbBlockEnd
  0
BLOCK
  5
7F7D
330
7F7C
100
AcDbEntity
  8
0
100
AcDbBlockBegin
  2
*D32
 70
     1
 10
0.0
 20
0.0
 30
0.0
  3
*D32
  1

  0
LINE
  5
8379
330
7F7C
100
AcDbEntity
  8
30
  6
Continuous
 62
     0
440
 16777216
370
    -2
100
AcDbLine
 10
294.1656393824692
 20
311.7460872709506
 30
0.0
 11
294.1656393824692
 21
289.6133861825234
 31
0.0
  0
LINE
  5
837A
330
7F7C
100
AcDbEntity
  8
30
  6
Continuous
 62
     0
440
 16777216
370
    -2
100
AcDbLine
 10
354.1656393824693
 20
311.7460872709506
 30
0.0
 11
354.1656393824693
 21
289.6133861825234
 31
0.0
  0
LINE
  5
837B
330
7F7C
100
AcDbEntity
  8
30
  6
Continuous
 62
     0
440
 16777216
370
    -2
100
AcDbLine
 10
296.1656393824692
 20
290.1133861825234
 30
0.0
 11
352.1656393824693
 21
290.1133861825234
 31
0.0
  0
INSERT
  5
837C
330
7F7C
100
AcDbEntity
  8
30
  6
Continuous
 62
     0
440
 16777216
370
    -2
100
AcDbBlockReference
  2
_OPEN
 10
294.1656393824692
 20
290.1133861825234
 30
0.0
 41
2.0
 42
2.0
 43
2.0
 50
180.0
  0
INSERT
  5
837D
330
7F7C
100
AcDbEntity
  8
30
  6
Continuous
 62
     0
440
 16777216
370
    -2
100
AcDbBlockReference
  2
_OPEN
 10
354.1656393824693
 20
290.1133861825234
 30
0.0
 41
2.0
 42
2.0
 43
2.0
  0
MTEXT
  5
837E
330
7F7C
100
AcDbEntity
  8
30
  6
Continuous
 62
     0
440
 16777216
100
AcDbMText
 10
324.1656393824692
 20
295.1133861825233
 30
0.0
 40
6.0
 41
0.0
 46
0.0
 71
     5
 72
     1
  1
\A1;60
 73
     1
 44
1.0
 90
        3
 63
     9
421
 13158600
 45
1.1
441
        0
  0
POINT
  5
837F
330
7F7C
100
AcDbEntity
  8
Defpoints
  6
Continuous
 62
     0
440
 16777216
100
AcDbPoint
 10
294.1656393824692
 20
312.7460872709506
 30
0.0
  0
POINT
  5
8380
330
7F7C
100
AcDbEntity
  8
Defpoints
  6
Continuous
 62
     0
440
 16777216
100
AcDbPoint
 10
354.1656393824693
 20
312.7460872709506
 30
0.0
  0
POINT
  5
8381
330
7F7C
100
AcDbEntity
  8
Defpoints
  6
Continuous
 62
     0
440
 16777216
100
AcDbPoint
 10
354.1656393824693
 20
290.1133861825234
 30
0.0
  0
ENDBLK
  5
7F7E
330
7F7C
100
AcDbEntity
  8
0
100
AcDbBlockEnd
  0
BLOCK
  5
843C
330
843B
100
AcDbEntity
  8
0
100
AcDbBlockBegin
  2
SW_CENTERMARKSYMBOL_18
 70
     0
 10
0.0
 20
0.0
 30
0.0
  3
SW_CENTERMARKSYMBOL_18
  1
SW_CENTERMARKSYMBOL_18
  0
LINE
  5
843D
330
843B
100
AcDbEntity
  8
SLD-0
 62
     0
100
AcDbLine
 10
0.0
 20
0.0
 30
0.0
 11
0.0
 21
1.0
 31
0.0
  0
LINE
  5
843E
330
843B
100
AcDbEntity
  8
SLD-0
 62
     0
100
AcDbLine
 10
0.0
 20
0.0
 30
0.0
 11
-1.0
 21
0.0
 31
0.0
  0
LINE
  5
843F
330
843B
100
AcDbEntity
  8
SLD-0
 62
     0
100
AcDbLine
 10
0.0
 20
0.0
 30
0.0
 11
0.0
 21
-1.0
 31
0.0
  0
LINE
  5
8440
330
843B
100
AcDbEntity
  8
SLD-0
 62
     0
100
AcDbLine
 10
0.0
 20
0.0
 30
0.0
 11
1.0
 21
0.0
 31
0.0
  0
LINE
  5
8441
330
843B
100
AcDbEntity
  8
SLD-0
 62
     0
100
AcDbLine
 10
0.0
 20
1.0
 30
0.0
 11
0.0
 21
1.8
 31
0.0
  0
LINE
  5
8442
330
843B
100
AcDbEntity
  8
SLD-0
 62
     0
100
AcDbLine
 10
-1.0
 20
0.0
 30
0.0
 11
-1.8
 21
0.0
 31
0.0
  0
LINE
  5
8443
330
843B
100
AcDbEntity
  8
SLD-0
 62
     0
100
AcDbLine
 10
0.0
 20
-1.0
 30
0.0
 11
0.0
 21
-1.8
 31
0.0
  0
LINE
  5
8444
330
843B
100
AcDbEntity
  8
SLD-0
 62
     0
100
AcDbLine
 10
1.0
 20
0.0
 30
0.0
 11
1.8
 21
0.0
 31
0.0
  0
ENDBLK
  5
8445
330
843B
100
AcDbEntity
  8
0
100
AcDbBlockEnd
  0
BLOCK
  5
8478
330
8477
100
AcDbEntity
  8
0
100
AcDbBlockBegin
  2
*D34
 70
     1
 10
0.0
 20
0.0
 30
0.0
  3
*D34
  1

  0
LINE
  5
84B2
330
8477
100
AcDbEntity
  8
30
  6
Continuous
 62
     0
440
 16777216
370
    -2
100
AcDbLine
 10
75.77228502419386
 20
688.0763976003435
 30
0.0
 11
57.32579666552511
 21
688.0763976003435
 31
0.0
  0
LINE
  5
84B3
330
8477
100
AcDbEntity
  8
30
  6
Continuous
 62
     0
440
 16777216
370
    -2
100
AcDbLine
 10
73.24170228456523
 20
665.0988725566839
 30
0.0
 11
57.3257966655251
 21
665.0988725566839
 31
0.0
  0
LINE
  5
84B4
330
8477
100
AcDbEntity
  8
30
  6
Continuous
 62
     0
440
 16777216
370
    -2
100
AcDbLine
 10
57.82579666552511
 20
686.0763976003434
 30
0.0
 11
57.82579666552511
 21
667.0988725566838
 31
0.0
  0
INSERT
  5
84B5
330
8477
100
AcDbEntity
  8
30
  6
Continuous
 62
     0
440
 16777216
370
    -2
100
AcDbBlockReference
  2
_OPEN
 10
57.82579666552511
 20
688.0763976003435
 30
0.0
 41
2.0
 42
2.0
 43
2.0
 50
90.0
  0
INSERT
  5
84B6
330
8477
100
AcDbEntity
  8
30
  6
Continuous
 62
     0
440
 16777216
370
    -2
100
AcDbBlockReference
  2
_OPEN
 10
57.82579666552511
 20
665.0988725566839
 30
0.0
 41
2.0
 42
2.0
 43
2.0
 50
270.0
  0
MTEXT
  5
84B7
330
8477
100
AcDbEntity
  8
30
  6
Continuous
 62
     0
440
 16777216
100
AcDbMText
 10
52.825796665525
 20
676.5876350785137
 30
0.0
 40
6.0
 41
0.0
 46
0.0
 71
     5
 72
     1
  1
\A1;23
 11
0.0000000000000001
 21
1.0
 31
0.0
 73
     1
 44
1.0
 90
        3
 63
     9
421
 13158600
 45
1.1
441
        0
  0
POINT
  5
84B8
330
8477
100
AcDbEntity
  8
Defpoints
  6
Continuous
 62
     0
440
 16777216
100
AcDbPoint
 10
76.77228502419386
 20
688.0763976003435
 30
0.0
  0
POINT
  5
84B9
330
8477
100
AcDbEntity
  8
Defpoints
  6
Continuous
 62
     0
440
 16777216
100
AcDbPoint
 10
74.24170228456524
 20
665.0988725566839
 30
0.0
  0
POINT
  5
84BA
330
8477
100
AcDbEntity
  8
Defpoints
  6
Continuous
 62
     0
440
 16777216
100
AcDbPoint
 10
57.82579666552511
 20
665.0988725566839
 30
0.0
  0
ENDBLK
  5
8479
330
8477
100
AcDbEntity
  8
0
100
AcDbBlockEnd
  0
ENDSEC
  0
SECTION
  2
ENTITIES
  0
MTEXT
  5
6620
330
1F
100
AcDbEntity
  8
0
  6
Continuous
 62
     7
100
AcDbMText
 10
326.3487103694692
 20
587.0387645767682
 30
0.0
 40
8.0
 41
0.0
 46
0.0
 71
     7
 72
     5
  1
PS125-NF (15-50A) 2P RC\PPS50-PF (15-50A) 2P RC\PPS125-PF (15-50A) 2P RC
  7
blockfont
 73
     1
 44
1.0
  0
LINE
  5
6621
330
1F
100
AcDbEntity
  8
10
100
AcDbLine
 10
69.48886113062052
 20
423.5589669481234
 30
0.0
 11
129.4506359365359
 21
423.5589669481234
 31
0.0
  0
LINE
  5
6622
330
1F
100
AcDbEntity
  8
10
100
AcDbLine
 10
69.48886113062052
 20
425.5678958488155
 30
0.0
 11
129.4553789877636
 21
425.5678958488155
 31
0.0
  0
DIMENSION
  5
6623
330
1F
100
AcDbEntity
  8
30
100
AcDbDimension
280
     0
  2
*D4
 10
69.48886113062052
 20
273.6813835125309
 30
0.0
 11
100.0924161041915
 21
273.6813835125309
 31
0.0
 70
   160
  1
90
 71
     2
 42
59.96651785714312
 73
     0
 74
     0
 75
     0
  3
STANDARD
100
AcDbAlignedDimension
 13
129.4553789877636
 23
309.0614835929902
 33
0.0
 14
69.48886113062052
 24
309.0614835929902
 34
0.0
 50
180.0
100
AcDbRotatedDimension
  0
LINE
  5
6624
330
1F
100
AcDbEntity
  8
16
  6
DASHDOT
 48
5.0
100
AcDbLine
 10
62.39760836042001
 20
374.2899923675655
 30
0.0
 11
134.644326749108
 21
374.2899923675655
 31
0.0
  0
DIMENSION
  5
6626
330
1F
100
AcDbEntity
  8
30
100
AcDbDimension
280
     0
  2
*D5
 10
49.76144336103747
 20
309.0614835929902
 30
0.0
 11
49.76144336103743
 21
366.6502639393037
 31
0.0
 70
   160
  1
130
 71
     5
 42
130.5999575379571
 73
     0
 74
     0
 75
     0
  3
STANDARD
100
AcDbAlignedDimension
 13
126.6561959511675
 23
439.6614411309474
 33
0.0
 14
94.0347580730538
 24
309.0614835929902
 34
0.0
 50
90.0
100
AcDbRotatedDimension
  0
LINE
  5
6627
330
1F
100
AcDbEntity
  8
17
 48
0.5
100
AcDbLine
 10
84.48886113062052
 20
426.6146691832128
 30
0.0
 11
84.48886113062052
 21
436.6148691832128
 31
0.0
  0
LINE
  5
6628
330
1F
100
AcDbEntity
  8
17
 48
0.5
100
AcDbLine
 10
69.47212005919209
 20
425.1079734431009
 30
0.0
 11
69.47212005919209
 21
435.1081734431011
 31
0.0
  0
LWPOLYLINE
  5
662C
330
1F
100
AcDbEntity
  8
10
100
AcDbPolyline
 90
        5
 70
     0
 43
0.0
 10
69.48886113062052
 20
309.0614835929902
 10
69.48886113062052
 20
439.6614411309474
 10
129.4553789877636
 20
439.6614411309474
 10
129.4553789877636
 20
309.0614835929902
 10
69.48886113062052
 20
309.0614835929902
  0
LWPOLYLINE
  5
662D
330
1F
100
AcDbEntity
  8
10
100
AcDbPolyline
 90
        6
 70
     1
 43
0.0
 10
94.0347580730538
 20
439.6614411309474
 10
74.92987884648958
 20
439.6614411309474
 10
74.92987884648958
 20
428.555197429275
 42
0.4144445394035128
 10
77.93224446776027
 20
425.5551983619692
 10
91.03712369432448
 20
425.5655320921978
 42
0.4139826230609387
 10
94.0347580730538
 20
428.5655311595037
  0
LWPOLYLINE
  5
662F
330
1F
100
AcDbEntity
  8
10
100
AcDbPolyline
 90
        4
 70
     1
 43
0.0
 10
126.9914710880376
 20
399.3836540510378
 10
71.99147108803765
 20
399.3836540510378
 10
71.99147108803765
 20
349.3818510403469
 10
126.9914710880376
 20
349.3818510403469
  0
LINE
  5
6630
330
1F
100
AcDbEntity
  8
10
100
AcDbLine
 10
69.48886113062052
 20
325.0210177870075
 30
0.0
 11
129.4506359365359
 21
325.0210177870075
 31
0.0
  0
LINE
  5
6631
330
1F
100
AcDbEntity
  8
10
100
AcDbLine
 10
69.48886113062052
 20
323.0120888863156
 30
0.0
 11
129.4553789877636
 21
323.0120888863156
 31
0.0
  0
LINE
  5
6633
330
1F
100
AcDbEntity
  8
17
 48
0.5
100
AcDbLine
 10
84.48886113062052
 20
321.9653155519182
 30
0.0
 11
84.48886113062052
 21
311.9651155519183
 31
0.0
  0
LINE
  5
6634
330
1F
100
AcDbEntity
  8
17
 48
0.5
100
AcDbLine
 10
89.48896113062053
 20
316.9652155519183
 30
0.0
 11
79.48876113062055
 21
316.9652155519183
 31
0.0
  0
LINE
  5
6635
330
1F
100
AcDbEntity
  8
17
 48
0.5
100
AcDbLine
 10
69.47212005919209
 20
323.4720112920298
 30
0.0
 11
69.47212005919209
 21
313.4718112920299
 31
0.0
  0
LWPOLYLINE
  5
6639
330
1F
100
AcDbEntity
  8
10
100
AcDbPolyline
 90
        6
 70
     1
 43
0.0
 10
94.0347580730538
 20
309.0614835929902
 10
74.92987884648958
 20
309.0614835929902
 10
74.92987884648958
 20
320.024787305856
 42
-0.4144445394035128
 10
77.93224446776027
 20
323.0247863731619
 10
91.03712369432448
 20
323.0144526429332
 42
-0.4139826230609387
 10
94.0347580730538
 20
320.0144535756273
  0
CIRCLE
  5
663B
330
1F
100
AcDbEntity
  8
24
  6
CONTINOUS
100
AcDbCircle
 10
84.48886113062052
 20
316.9652155519183
 30
0.0
 40
4.25
  0
LINE
  5
663F
330
1F
100
AcDbEntity
  8
16
  6
DASHDOT
 48
5.0
100
AcDbLine
 10
84.49147108803765
 20
300.5421740409349
 30
0.0
 11
84.49147108803765
 21
450.8208031432923
 31
0.0
  0
DIMENSION
  5
6646
330
1F
100
AcDbEntity
  8
30
100
AcDbDimension
280
     0
  2
*D6
 10
419.4267872114583
 20
51.62386258135438
 30
0.0
 11
408.2195901402483
 21
51.62386258135438
 31
0.0
 70
   160
  1
<>
 71
     2
 42
23.99999999999977
 73
     0
 74
     0
 75
     0
  3
STANDARD
100
AcDbAlignedDimension
 13
395.4267872114585
 23
143.9875333617793
 33
0.0
 14
419.4267872114583
 24
123.8130501573661
 34
0.0
100
AcDbRotatedDimension
  0
LINE
  5
664A
330
1F
100
AcDbEntity
  8
16
 48
5.0
100
AcDbLine
 10
407.4267872114585
 20
73.9875337531962
 30
0.0
 11
407.4267872114585
 21
225.5189036117425
 31
0.0
  0
LINE
  5
664B
330
1F
100
AcDbEntity
  8
16
 48
5.0
100
AcDbLine
 10
455.1427697687159
 20
143.9875333617793
 30
0.0
 11
362.4924582444983
 21
143.9875333617793
 31
0.0
  0
CIRCLE
  5
664E
330
1F
100
AcDbEntity
  8
12
  6
Continuous
 62
     3
100
AcDbCircle
 10
99.45537745138905
 20
199.603672763003
 30
0.0
 40
2.012495881220488
  0
LINE
  5
664F
330
1F
100
AcDbEntity
  8
12
  6
Continuous
 62
     3
100
AcDbLine
 10
99.45537745138905
 20
196.561941337673
 30
0.0
 11
99.45537745138905
 21
202.74819757741
 31
0.0
  0
LINE
  5
6650
330
1F
100
AcDbEntity
  8
12
  6
Continuous
 62
     3
100
AcDbLine
 10
102.7043049801242
 20
199.603672763003
 30
0.0
 11
96.31085263698208
 21
199.603672763003
 31
0.0
  0
LINE
  5
6653
330
1F
100
AcDbEntity
  8
SLD-0
 62
     0
100
AcDbLine
 10
99.45537745138905
 20
205.892722391817
 30
0.0
 11
99.45537745138905
 21
214.0684869092751
 31
0.0
  0
LINE
  5
6654
330
1F
100
AcDbEntity
  8
SLD-0
 62
     0
100
AcDbLine
 10
93.16632782257512
 20
199.603672763003
 30
0.0
 11
84.99056330511702
 21
199.603672763003
 31
0.0
  0
LINE
  5
6658
330
1F
100
AcDbEntity
  8
SLD-0
 62
     0
100
AcDbLine
 10
99.44281566969593
 20
88.56015135526723
 30
0.0
 11
96.29829085528887
 21
88.56015135526723
 31
0.0
  0
LINE
  5
665B
330
1F
100
AcDbEntity
  8
SLD-0
 62
     0
100
AcDbLine
 10
123.1537660408819
 20
88.56015135526723
 30
0.0
 11
114.9780015234238
 21
88.56015135526723
 31
0.0
  0
LINE
  5
665D
330
1F
100
AcDbEntity
  8
17
 48
0.5
100
AcDbLine
 10
95.35493341096684
 20
88.56015135526723
 30
0.0
 11
103.5306979284249
 21
88.56015135526723
 31
0.0
  0
LINE
  5
665E
330
1F
100
AcDbEntity
  8
16
 48
5.0
100
AcDbLine
 10
99.45537745138905
 20
67.60367276300303
 30
0.0
 11
99.45537745138905
 21
217.603672763003
 31
0.0
  0
LINE
  5
665F
330
1F
100
AcDbEntity
  8
16
 48
5.0
100
AcDbLine
 10
61.45075729613381
 20
143.9875
 30
0.0
 11
140.7277538713747
 21
143.9875333617793
 31
0.0
  0
LEADER
  5
6663
330
1F
100
AcDbEntity
  8
30
100
AcDbLeader
  3
STANDARD1
 76
     3
 10
99.45537745138905
 20
199.603672763003
 30
0.0
 10
90.60723513829726
 20
223.0569120591352
 30
0.0
 10
53.50723513829723
 20
223.0569120591352
 30
0.0
1001
ACAD
1000
DSTYLE
1002
{
1070
   147
1040
2.0
1070
    77
1070
     0
1002
}
  0
MTEXT
  5
6664
330
1F
100
AcDbEntity
  8
30
100
AcDbMText
 10
57.34629699228378
 20
229.4036727630032
 30
0.0
 40
5.0
 41
30.0
 46
0.0
 71
     1
 72
     5
  1
M4x0.7
  7
blockfont
 73
     1
 44
1.0
  0
DIMENSION
  5
6665
330
1F
100
AcDbEntity
  8
30
100
AcDbDimension
280
     0
  2
*D7
 10
56.56056889623993
 20
88.56015135526725
 30
0.0
 11
51.56056889623993
 21
144.0819120591351
 31
0.0
 70
    32
 71
     5
 42
111.0435214077358
 73
     0
 74
     0
 75
     0
  3
STANDARD
100
AcDbAlignedDimension
 13
94.92726171864296
 23
199.603672763003
 33
0.0
 14
96.94281566969593
 24
88.56015135526723
 34
0.0
 50
90.0
100
AcDbRotatedDimension
  0
LINE
  5
6666
330
1F
100
AcDbEntity
  8
17
 48
0.5
100
AcDbLine
 10
84.49071618874985
 20
426.6146695273297
 30
0.0
 11
84.4870060724912
 21
436.6148688390956
 31
0.0
  0
LINE
  5
6667
330
1F
100
AcDbEntity
  8
12
  6
DASHDOT
 48
0.5
100
AcDbLine
 10
99.47750645866733
 20
425.1135395055676
 30
0.0
 11
99.4737963424086
 21
435.1137388173333
 31
0.0
  0
LINE
  5
6668
330
1F
100
AcDbEntity
  8
12
  6
DASHDOT
 48
0.5
100
AcDbLine
 10
94.47555174465515
 20
430.1117841033214
 30
0.0
 11
104.4757510564207
 21
430.1154942195798
 31
0.0
  0
LINE
  5
6669
330
1F
100
AcDbEntity
  8
17
 48
0.5
100
AcDbLine
 10
114.5941332542207
 20
426.6258436818776
 30
0.0
 11
114.5904231379621
 21
436.626042993643
 31
0.0
  0
LINE
  5
666A
330
1F
100
AcDbEntity
  8
17
 48
0.5
100
AcDbLine
 10
109.5921785402087
 20
431.6240882796312
 30
0.0
 11
119.5923778519742
 21
431.6277983958898
 31
0.0
  0
LWPOLYLINE
  5
666B
330
1F
100
AcDbEntity
  8
10
100
AcDbPolyline
 90
        6
 70
     1
 43
0.0
 10
105.0434058867928
 20
439.6614411309474
 10
124.1482842610152
 20
439.6576359702966
 10
124.1523949363421
 20
428.5699182170191
 42
-0.4144445394035128
 10
121.1511425339719
 20
425.5688054659064
 10
108.046260375455
 20
425.5742772301148
 42
-0.4139826230609387
 10
105.0475131907577
 20
428.5731639559926
  0
CIRCLE
  5
666C
330
1F
100
AcDbEntity
  8
24
  6
CONTINOUS
100
AcDbCircle
 10
114.5922781960915
 20
431.6259433377604
 30
0.0
 40
4.25
  0
CIRCLE
  5
666D
330
1F
100
AcDbEntity
  8
24
  6
CONTINOUS
100
AcDbCircle
 10
84.45835237213623
 20
431.6147635237738
 30
0.0
 40
4.25
  0
CIRCLE
  5
666E
330
1F
100
AcDbEntity
  8
12
  6
CONTINOUS
100
AcDbCircle
 10
99.52587461110072
 20
430.1136585128671
 30
0.0
 40
3.077821902690307
  0
LINE
  5
666F
330
1F
100
AcDbEntity
  8
17
 48
0.5
100
AcDbLine
 10
114.6227890284549
 20
321.9653155519182
 30
0.0
 11
114.6227890284549
 21
311.9651155519183
 31
0.0
  0
LINE
  5
6670
330
1F
100
AcDbEntity
  8
17
 48
0.5
100
AcDbLine
 10
119.6228890284549
 20
316.9652155519183
 30
0.0
 11
109.6226890284549
 21
316.9652155519183
 31
0.0
  0
LWPOLYLINE
  5
6671
330
1F
100
AcDbEntity
  8
10
100
AcDbPolyline
 90
        6
 70
     1
 43
0.0
 10
124.1686859708882
 20
309.0614835929902
 10
105.063806744324
 20
309.0614835929902
 10
105.063806744324
 20
320.024787305856
 42
-0.4144445394035128
 10
108.0661723655946
 20
323.0247863731619
 10
121.1710515921588
 20
323.0144526429332
 42
-0.4139826230609387
 10
124.1686859708882
 20
320.0144535756273
  0
CIRCLE
  5
6672
330
1F
100
AcDbEntity
  8
24
  6
CONTINOUS
100
AcDbCircle
 10
114.6227890284549
 20
316.9652155519183
 30
0.0
 40
4.25
  0
CIRCLE
  5
6673
330
1F
100
AcDbEntity
  8
12
  6
CONTINOUS
100
AcDbCircle
 10
99.42542818625213
 20
318.4774777287721
 30
0.0
 40
3.077821902690307
  0
LINE
  5
6674
330
1F
100
AcDbEntity
  8
12
  6
DASHDOT
 48
0.5
100
AcDbLine
 10
99.47565140053793
 20
323.4775770103793
 30
0.0
 11
99.47565140053793
 21
313.4773770103793
 31
0.0
  0
LINE
  5
6675
330
1F
100
AcDbEntity
  8
12
  6
DASHDOT
 48
0.5
100
AcDbLine
 10
104.4757514005379
 20
318.4774770103793
 30
0.0
 11
94.47555140053792
 21
318.4774770103793
 31
0.0
  0
DIMENSION
  5
6676
330
1F
100
AcDbEntity
  8
30
100
AcDbDimension
280
     0
  2
*D8
 10
71.99147108803765
 20
285.0324417875378
 30
0.0
 11
99.49147108803764
 21
290.0324417875378
 31
0.0
 70
    32
 71
     5
 42
55.0
 73
     0
 74
     0
 75
     0
  3
STANDARD
100
AcDbAlignedDimension
 13
126.9914710880376
 23
349.3818510403469
 33
0.0
 14
71.99147108803765
 24
349.3818510403469
 34
0.0
 50
180.0
100
AcDbRotatedDimension
  0
LWPOLYLINE
  5
6677
330
1F
100
AcDbEntity
  8
10
100
AcDbPolyline
 90
        4
 70
     1
 43
0.0
 10
91.97574114118799
 20
361.0578323200802
 10
77.00720103488731
 20
361.0578323200802
 10
77.00720103488731
 20
388.2164634595902
 10
91.97574114118799
 20
388.2164634595902
  0
LWPOLYLINE
  5
6678
330
1F
100
AcDbEntity
  8
10
100
AcDbPolyline
 90
        4
 70
     1
 43
0.0
 10
90.8907096422928
 20
385.4683098259242
 10
77.89070964229279
 20
385.4683098259242
 10
77.89070964229279
 20
380.4683098259242
 10
90.8907096422928
 20
380.4683098259242
  0
LINE
  5
6679
330
1F
100
AcDbEntity
  8
17
 48
0.5
100
AcDbLine
 10
89.49157108803763
 20
431.6146344807155
 30
0.0
 11
79.49137108803769
 21
431.6146344807155
 31
0.0
  0
LWPOLYLINE
  5
667A
102
{ACAD_REACTORS
330
75D8
102
}
330
1F
100
AcDbEntity
  8
10
100
AcDbPolyline
 90
        4
 70
     1
 43
0.0
 10
95.51448429926017
 20
396.3942116055127
 10
73.46818798014737
 20
396.3942116055127
 10
73.46818798011418
 20
352.1857738997253
 10
95.51449179630322
 20
352.1857738997253
  0
LINE
  5
66B1
330
1F
100
AcDbEntity
  8
0
  6
Continuous
 62
     7
100
AcDbLine
 10
101.6821232624509
 20
607.6138292282687
 30
0.0
 11
101.1798901018703
 21
608.1160614534917
 31
0.0
  0
LINE
  5
66B2
330
1F
100
AcDbEntity
  8
0
  6
Continuous
 62
     7
100
AcDbLine
 10
98.16649768629007
 20
608.1160614534917
 30
0.0
 11
97.66426546106686
 21
607.6138292282687
 31
0.0
  0
LINE
  5
66B3
330
1F
100
AcDbEntity
  8
0
  6
Continuous
 62
     7
100
AcDbLine
 10
97.73029807456282
 20
601.0162846360366
 30
0.0
 11
97.73029807456282
 21
607.6138292282687
 31
0.0
  0
LINE
  5
66B4
330
1F
100
AcDbEntity
  8
0
  6
Continuous
 62
     7
100
AcDbLine
 10
101.7481558759468
 20
607.6138292282687
 30
0.0
 11
101.7481558759468
 21
601.0162846360366
 31
0.0
  0
ARC
  5
66B5
330
1F
100
AcDbEntity
  8
24
  6
Continuous
 62
     7
100
AcDbCircle
 10
99.78489886342165
 20
615.2745987781671
 30
0.0
 40
9.968479384627967
100
AcDbArc
 50
5.812510157186486
 51
44.82549432271477
  0
ARC
  5
66B6
330
1F
100
AcDbEntity
  8
24
  6
Continuous
 62
     7
100
AcDbCircle
 10
129.5907690154474
 20
615.3241076267412
 30
0.0
 40
9.859431047390296
100
AcDbArc
 50
134.9498554139903
 51
174.4121319566233
  0
LINE
  5
66B9
330
1F
100
AcDbEntity
  8
0
  6
Continuous
 62
     7
100
AcDbLine
 10
101.6821232624509
 20
607.6138292282687
 30
0.0
 11
97.66426546106686
 21
607.6138292282687
 31
0.0
  0
LINE
  5
66BA
330
1F
100
AcDbEntity
  8
0
  6
Continuous
 62
     7
100
AcDbLine
 10
101.1798901018703
 20
608.1160614534917
 30
0.0
 11
98.16649768629007
 21
608.1160614534917
 31
0.0
  0
LINE
  5
66BB
330
1F
100
AcDbEntity
  8
0
  6
SLD-実線
370
    15
100
AcDbLine
 10
72.48886113062052
 20
528.0948591778446
 30
0.0
 11
126.7235978241472
 21
528.0948591778446
 31
0.0
  0
LINE
  5
66BC
330
1F
100
AcDbEntity
  8
0
  6
SLD-実線
370
    15
100
AcDbLine
 10
73.93673761361151
 20
532.1127094955677
 30
0.0
 11
125.2757213411562
 21
532.1127094955677
 31
0.0
  0
LINE
  5
66BD
330
1F
100
AcDbEntity
  8
24
  6
Continuous
 62
     7
100
AcDbLine
 10
106.8551139656426
 20
623.8310149430007
 30
0.0
 11
122.6252026557069
 21
623.8310149430656
 31
0.0
  0
LINE
  5
66C3
330
1F
100
AcDbEntity
  8
24
  6
Continuous
 62
     7
100
AcDbLine
 10
76.01805945584374
 20
624.4203020261035
 30
0.0
 11
76.01805945584374
 21
623.4690757577999
 31
0.0
  0
LINE
  5
66C4
330
1F
100
AcDbEntity
  8
24
  6
Continuous
 62
     7
100
AcDbLine
 10
93.19439949892398
 20
623.4690757577999
 30
0.0
 11
93.19439949892398
 21
624.4203020261035
 31
0.0
  0
LINE
  5
66C5
330
1F
100
AcDbEntity
  8
24
  6
Continuous
 62
     7
100
AcDbLine
 10
77.52475613131242
 20
665.0988725566839
 30
0.0
 11
91.68770282325452
 21
665.0988725566839
 31
0.0
  0
LINE
  5
66C6
330
1F
100
AcDbEntity
  8
24
  6
Continuous
 62
     7
100
AcDbLine
 10
76.01805945584374
 20
665.0988725566839
 30
0.0
 11
76.01805945584374
 21
624.4203020261035
 31
0.0
  0
LINE
  5
66C7
330
1F
100
AcDbEntity
  8
24
  6
Continuous
 62
     7
100
AcDbLine
 10
77.52475613131242
 20
665.0988725566839
 30
0.0
 11
76.01805945584374
 21
665.0988725566839
 31
0.0
  0
LINE
  5
66C8
330
1F
100
AcDbEntity
  8
24
  6
Continuous
 62
     7
100
AcDbLine
 10
93.19439949892398
 20
665.0988725566839
 30
0.0
 11
91.68770282325452
 21
665.0988725566839
 31
0.0
  0
LINE
  5
66C9
330
1F
100
AcDbEntity
  8
24
  6
Continuous
 62
     7
100
AcDbLine
 10
93.19439949892398
 20
624.4203020261035
 30
0.0
 11
93.19439949892398
 21
665.0988725566839
 31
0.0
  0
LINE
  5
66CB
330
1F
100
AcDbEntity
  8
24
  6
Continuous
 62
     7
100
AcDbLine
 10
91.68770282325452
 20
624.4203020261035
 30
0.0
 11
77.52475613131242
 21
624.4203020261035
 31
0.0
  0
LINE
  5
66CC
330
1F
100
AcDbEntity
  8
24
  6
Continuous
 62
     7
100
AcDbLine
 10
76.01805945584374
 20
624.4203020261035
 30
0.0
 11
77.52475613131242
 21
624.4203020261035
 31
0.0
  0
LINE
  5
66CD
330
1F
100
AcDbEntity
  8
24
  6
Continuous
 62
     7
100
AcDbLine
 10
91.68770282325452
 20
624.4203020261035
 30
0.0
 11
93.19439949892398
 21
624.4203020261035
 31
0.0
  0
LWPOLYLINE
  5
66D0
330
1F
100
AcDbEntity
  8
10
  6
CONTINOUS
100
AcDbPolyline
 90
        5
 70
     0
 43
0.0
 10
69.75509218589763
 20
532.1127094955677
 10
129.6573291513459
 20
532.1127094955677
 10
129.6573291513459
 20
601.0763976003434
 10
69.75509218566765
 20
601.0763976003434
 10
69.75509218589763
 20
532.1127094955677
  0
LWPOLYLINE
  5
66D1
330
1F
100
AcDbEntity
  8
10
  6
CONTINOUS
100
AcDbPolyline
 90
        4
 70
     1
 43
0.0
 10
129.6573291513459
 20
532.1127094955677
 10
69.75509218589763
 20
532.1127094955677
 10
69.75509218543766
 20
534.0892071663893
 10
129.6573291513459
 20
534.1127094955679
  0
LWPOLYLINE
  5
66D2
330
1F
100
AcDbEntity
  8
10
  6
CONTINOUS
100
AcDbPolyline
 90
        4
 70
     1
 43
0.0
 10
126.7235978241472
 20
532.1127094955677
 10
72.48886113062052
 20
532.1127094955677
 10
72.48886113062052
 20
528.0948591778446
 10
126.7235978241472
 20
528.0948591778446
  0
LWPOLYLINE
  5
66D3
330
1F
100
AcDbEntity
  8
10
  6
CONTINOUS
100
AcDbPolyline
 90
        4
 70
     1
 43
0.0
 10
95.60622947738385
 20
528.0948591778446
 10
73.60622947738386
 20
528.0948591778446
 10
73.60622947738386
 20
521.7948648940445
 10
95.60622947738385
 20
521.7948648940445
  0
LWPOLYLINE
  5
66D4
330
1F
100
AcDbEntity
  8
10
  6
CONTINOUS
100
AcDbPolyline
 90
        4
 70
     1
 43
0.0
 10
91.15732915134596
 20
505.6681670300443
 10
78.15732915134595
 20
505.6681670300443
 10
78.15732915134595
 20
521.7948648940445
 10
91.15732915134596
 20
521.7948648940445
  0
LWPOLYLINE
  5
66D6
330
1F
100
AcDbEntity
  8
24
  6
Continuous
 62
     7
100
AcDbPolyline
 90
        4
 70
     0
 43
0.0
 10
122.825045903024
 20
601.0763976003434
 10
122.5595955537901
 20
616.2841420364384
 10
106.9207210675624
 20
616.2841420364384
 10
106.6552707183285
 20
601.0763976003434
  0
DIMENSION
  5
66D9
330
1F
100
AcDbEntity
  8
30
  6
Continuous
100
AcDbDimension
280
     0
  2
*D9
 10
84.65732915134593
 20
719.0763976003433
 30
0.0
 11
97.48119030485009
 21
719.0763976003433
 31
0.0
 70
   160
  1
30
 71
     5
 42
30.08282915932887
 73
     0
 74
     0
 75
     0
  3
STANDARD
100
AcDbAlignedDimension
 13
114.7401583106748
 23
663.831014943033
 33
0.0
 14
84.65732915134593
 24
703.0669528883984
 34
0.0
100
AcDbRotatedDimension
1001
ACAD
1000
DSTYLE
1002
{
1070
    79
1070
     3
1002
}
  0
DIMENSION
  5
66DA
330
1F
100
AcDbEntity
  8
30
  6
Continuous
100
AcDbDimension
280
     0
  2
*D10
 10
140.3822296102731
 20
601.0763976003434
 30
0.0
 11
140.3822296102729
 21
619.5763976003433
 31
0.0
 70
   160
 71
     5
 42
37.0
 73
     0
 74
     0
 75
     0
  3
STANDARD
100
AcDbAlignedDimension
 13
124.6304418096501
 23
638.0763976003434
 33
0.0
 14
122.4811903048501
 24
601.0763976003434
 34
0.0
 50
90.0
100
AcDbRotatedDimension
1001
ACAD
1000
DSTYLE
1002
{
1070
    79
1070
     3
1002
}
  0
DIMENSION
  5
66DB
330
1F
100
AcDbEntity
  8
30
  6
Continuous
100
AcDbDimension
280
     0
  2
*D11
 10
153.7248318365175
 20
601.0763976003434
 30
0.0
 11
148.7248318365174
 21
627.0763976003433
 31
0.0
 70
    32
 71
     5
 42
51.99999999999977
 73
     0
 74
     0
 75
     0
  3
STANDARD
100
AcDbAlignedDimension
 13
114.7401583106748
 23
653.0763976003433
 33
0.0
 14
122.4811903048501
 24
601.0763976003434
 34
0.0
 50
90.0
100
AcDbRotatedDimension
1001
ACAD
1000
DSTYLE
1002
{
1070
    79
1070
     3
1002
}
  0
DIMENSION
  5
66DC
330
1F
100
AcDbEntity
  8
30
  6
Continuous
100
AcDbDimension
280
     0
  2
*D12
 10
57.71218165329468
 20
601.0763976003434
 30
0.0
 11
57.71218165329457
 21
617.7763976003434
 31
0.0
 70
   160
 71
     5
 42
7.039663853148567
 73
     0
 74
     0
 75
     0
  3
STANDARD
100
AcDbAlignedDimension
 13
94.39099244509032
 23
608.1160614534917
 33
0.0
 14
69.45336231856003
 24
601.0763976003434
 34
0.0
 50
90.0
100
AcDbRotatedDimension
1001
ACAD
1000
DSTYLE
1002
{
1070
    79
1070
     3
1002
}
  0
DIMENSION
  5
66DD
330
1F
100
AcDbEntity
  8
30
  6
Continuous
100
AcDbDimension
280
     0
  2
*D13
 10
136.9093534683935
 20
632.1044542788936
 30
0.0
 11
136.9093534683934
 21
663.1949649432191
 31
0.0
 70
   160
  1
12.5
 71
     5
 42
12.55580357142867
 73
     0
 74
     0
 75
     0
  3
STANDARD
100
AcDbAlignedDimension
 13
114.7401580488124
 23
644.6602578503223
 33
0.0
 14
114.7401583106748
 24
632.1044542788936
 34
0.0
 50
90.0
100
AcDbRotatedDimension
1001
ACAD
1000
DSTYLE
1002
{
1070
    79
1070
     3
1002
}
  0
DIMENSION
  5
66DF
330
1F
100
AcDbEntity
  8
30
  6
Continuous
100
AcDbDimension
280
     0
  2
*D14
 10
39.4312310321635
 20
601.0763976003434
 30
0.0
 11
39.43123103216342
 21
644.5763976003433
 31
0.0
 70
   160
 71
     5
 42
87.00000000000011
 73
     0
 74
     0
 75
     0
  3
STANDARD
100
AcDbAlignedDimension
 13
73.05199602870231
 23
688.0763976003435
 33
0.0
 14
76.9312310321635
 24
601.0763976003434
 34
0.0
 50
90.0
100
AcDbRotatedDimension
1001
ACAD
1000
DSTYLE
1002
{
1070
    79
1070
     3
1002
}
  0
DIMENSION
  5
66E0
330
1F
100
AcDbEntity
  8
30
  6
Continuous
100
AcDbDimension
280
     0
  2
*D15
 10
29.43123103216351
 20
601.0763976003434
 30
0.0
 11
29.43123103216342
 21
652.0763976003434
 31
0.0
 70
   160
 71
     5
 42
101.9905552880551
 73
     0
 74
     0
 75
     0
  3
STANDARD
100
AcDbAlignedDimension
 13
84.65732929931245
 23
703.0669528883984
 33
0.0
 14
76.9312310321635
 24
601.0763976003434
 34
0.0
 50
90.0
100
AcDbRotatedDimension
1001
ACAD
1000
DSTYLE
1002
{
1070
    79
1070
     3
1002
}
  0
ARC
  5
66E1
330
1F
100
AcDbEntity
  8
24
  6
Continuous
 62
     7
100
AcDbCircle
 10
69.7020697039909
 20
615.3347117424734
 30
0.0
 40
9.968479384627967
100
AcDbArc
 50
5.812510157186486
 51
50.68406185258119
  0
ARC
  5
66E2
330
1F
100
AcDbEntity
  8
24
  6
Continuous
 62
     7
100
AcDbCircle
 10
99.96970934757008
 20
615.2453639908977
 30
0.0
 40
10.33294762297491
100
AcDbArc
 50
130.9727204924185
 51
173.8951502389745
  0
LINE
  5
66E3
330
1F
100
AcDbEntity
  8
24
  6
Continuous
 62
     7
100
AcDbLine
 10
76.01805945584374
 20
624.4203020261035
 30
0.0
 11
93.19439949892398
 21
624.4203020261035
 31
0.0
  0
LWPOLYLINE
  5
66ED
330
1F
100
AcDbEntity
  8
24
  6
Continuous
 62
     7
100
AcDbPolyline
 90
        4
 70
     0
 43
0.0
 10
92.74221674359328
 20
601.1365105646501
 10
92.4767663943594
 20
616.3442550007451
 10
76.83789190813172
 20
616.3442550007451
 10
76.57244155889781
 20
601.1365105646501
  0
LINE
  5
66F9
330
1F
100
AcDbEntity
  8
24
  6
Continuous
 62
     7
100
AcDbLine
 10
93.19439949892398
 20
665.0988725566839
 30
0.0
 11
93.19439947211208
 21
623.0469652797784
 31
0.0
  0
LINE
  5
66FA
330
1F
100
AcDbEntity
  8
24
  6
Continuous
 62
     7
100
AcDbLine
 10
76.01805945584374
 20
665.0988725566839
 30
0.0
 11
76.01805946158744
 21
623.0469652797784
 31
0.0
  0
LINE
  5
66FB
330
1F
100
AcDbEntity
  8
24
  6
Continuous
 62
     7
100
AcDbLine
 10
93.19439949892398
 20
665.0988725566839
 30
0.0
 11
76.01805945584374
 21
665.0988725566839
 31
0.0
  0
DIMENSION
  5
66FC
330
1F
100
AcDbEntity
  8
30
  6
Continuous
100
AcDbDimension
280
     0
  2
*D2
 10
153.7248318365175
 20
528.0948591778446
 30
0.0
 11
148.7248318365174
 21
564.5856283890938
 31
0.0
 70
    32
 71
     5
 42
72.98153842249883
 73
     0
 74
     0
 75
     0
  3
STANDARD
100
AcDbAlignedDimension
 13
129.9590590184537
 23
601.0763976003434
 33
0.0
 14
126.9235602063931
 24
528.0948591778446
 34
0.0
 50
90.0
100
AcDbRotatedDimension
1001
ACAD
1000
DSTYLE
1002
{
1070
    79
1070
     3
1002
}
  0
CIRCLE
  5
66FF
330
1F
100
AcDbEntity
  8
22
  6
Continuous
100
AcDbCircle
 10
84.46417530527595
 20
201.0569120591351
 30
0.0
 40
9.0
  0
LINE
  5
6700
330
1F
100
AcDbEntity
  8
17
 48
3.0
100
AcDbLine
 10
84.46417530527595
 20
189.5569120591351
 30
0.0
 11
84.46417530527595
 21
212.5569120591352
 31
0.0
  0
CIRCLE
  5
6701
330
1F
100
AcDbEntity
  8
22
  6
Continuous
100
AcDbCircle
 10
114.4490965605422
 20
201.0569120591351
 30
0.0
 40
9.0
  0
LINE
  5
6702
330
1F
100
AcDbEntity
  8
17
 48
3.0
100
AcDbLine
 10
114.4490965605422
 20
189.5569120591351
 30
0.0
 11
114.4490965605422
 21
212.5569120591352
 31
0.0
  0
CIRCLE
  5
6707
330
1F
100
AcDbEntity
  8
22
  6
Continuous
100
AcDbCircle
 10
84.46417530527606
 20
87.05691006626109
 30
0.0
 40
9.0
  0
LINE
  5
6708
102
{ACAD_REACTORS
330
728D
102
}
330
1F
100
AcDbEntity
  8
17
 48
3.0
100
AcDbLine
 10
84.46417530527606
 20
98.55691006626109
 30
0.0
 11
84.46417530527606
 21
75.55691006626108
 31
0.0
  0
CIRCLE
  5
6709
330
1F
100
AcDbEntity
  8
22
  6
Continuous
100
AcDbCircle
 10
114.4490965605422
 20
87.05691006626109
 30
0.0
 40
9.0
  0
LINE
  5
670A
330
1F
100
AcDbEntity
  8
17
 48
3.0
100
AcDbLine
 10
114.4490965605422
 20
98.55691006626109
 30
0.0
 11
114.4490965605422
 21
75.55691006626108
 31
0.0
  0
ARC
  5
6710
330
1F
100
AcDbEntity
  8
10
100
AcDbCircle
 10
84.45835169854218
 20
431.3147634938408
 30
0.0
 40
10.04464285714245
100
AcDbArc
 50
56.19728719518988
 51
123.8027128048101
  0
ARC
  5
6712
330
1F
100
AcDbEntity
  8
10
100
AcDbCircle
 10
84.45835169854218
 20
317.4081612300966
 30
0.0
 40
10.04464285714245
100
AcDbArc
 50
236.1972871951899
 51
303.8027128048101
  0
ARC
  5
6715
330
1F
100
AcDbEntity
  8
10
100
AcDbCircle
 10
114.5922795963764
 20
431.3147634938408
 30
0.0
 40
10.04464285714245
100
AcDbArc
 50
56.19728719518988
 51
123.8027128048101
  0
ARC
  5
6716
330
1F
100
AcDbEntity
  8
10
100
AcDbCircle
 10
114.5922795963764
 20
317.4081612300966
 30
0.0
 40
10.04464285714245
100
AcDbArc
 50
236.1972871951899
 51
303.8027128048101
  0
DIMENSION
  5
6717
330
1F
100
AcDbEntity
  8
30
100
AcDbDimension
280
     0
  2
*D3
 10
38.24561499595836
 20
87.05691006626109
 30
0.0
 11
33.24561499595836
 21
144.0569110626981
 31
0.0
 70
    32
 71
     5
 42
114.0000019928741
 73
     0
 74
     0
 75
     0
  3
STANDARD
100
AcDbAlignedDimension
 13
72.76417530527601
 23
201.0569120591351
 33
0.0
 14
72.76417530527601
 24
87.05691006626109
 34
0.0
 50
90.0
100
AcDbRotatedDimension
  0
LINE
  5
6718
330
1F
100
AcDbEntity
  8
17
 48
3.0
100
AcDbLine
 10
95.96417530527608
 20
87.05691006626109
 30
0.0
 11
72.96417530527604
 21
87.05691006626109
 31
0.0
  0
LINE
  5
6719
330
1F
100
AcDbEntity
  8
17
 48
3.0
100
AcDbLine
 10
125.9490965605422
 20
87.05691006626109
 30
0.0
 11
102.9490965605422
 21
87.05691006626109
 31
0.0
  0
LINE
  5
671C
330
1F
100
AcDbEntity
  8
17
 48
3.0
100
AcDbLine
 10
125.9490965605422
 20
201.0569120591351
 30
0.0
 11
102.9490965605422
 21
201.0569120591351
 31
0.0
  0
LINE
  5
671D
330
1F
100
AcDbEntity
  8
17
 48
3.0
100
AcDbLine
 10
95.96417530527594
 20
201.0569120591351
 30
0.0
 11
72.96417530527596
 21
201.0569120591351
 31
0.0
  0
DIMENSION
  5
7276
102
{ACAD_XDICTIONARY
360
7283
102
}
102
{ACAD_REACTORS
330
728D
102
}
330
1F
100
AcDbEntity
  8
30
100
AcDbDimension
280
     0
  2
*D16
 10
114.4490965605422
 20
52.06889146800887
 30
0.0
 11
99.45663593290916
 21
57.06889146800887
 31
0.0
 70
    32
 71
     5
 42
29.98492125526616
 73
     0
 74
     0
 75
     0
  3
STANDARD
100
AcDbAlignedDimension
 13
84.46417530527606
 23
75.55691006626108
 33
0.0
 14
114.4490965605422
 24
77.05691006626108
 34
0.0
100
AcDbRotatedDimension
  0
LWPOLYLINE
  5
734B
330
1F
100
AcDbEntity
  8
10
 62
     1
100
AcDbPolyline
 90
        8
 70
     1
 43
0.0
 10
233.4635228848593
 20
168.9875337528958
 10
233.4635228848593
 20
118.9875329706628
 42
0.4142135623730951
 10
234.4635228848594
 20
117.9875329706628
 10
289.4635253247262
 20
117.9875329706628
 42
0.4142135623730951
 10
290.4635253247262
 20
118.9875329706628
 10
290.4635253247262
 20
168.9875337528958
 42
0.4142135623730951
 10
289.4635253247262
 20
169.9875337528958
 10
234.4635228848594
 20
169.9875337528958
 42
0.4142135623730951
  0
DIMENSION
  5
7351
330
1F
100
AcDbEntity
  8
30
100
AcDbDimension
280
     0
  2
*D17
 10
290.463523864476
 20
51.62386258135438
 30
0.0
 11
261.9635241049179
 21
51.62386258135438
 31
0.0
 70
   160
  1
<>
 71
     2
 42
56.9999995191164
 73
     0
 74
     0
 75
     0
  3
STANDARD
100
AcDbAlignedDimension
 13
233.4635243453596
 23
118.9875335015711
 33
0.0
 14
290.463523864476
 24
118.9875335015711
 34
0.0
100
AcDbRotatedDimension
  0
DIMENSION
  5
7354
330
1F
100
AcDbEntity
  8
30
100
AcDbDimension
280
     0
  2
*D18
 10
289.4635238700674
 20
168.9875332219872
 30
0.0
 11
299.5266054295333
 21
176.4875332192506
 31
0.0
 70
   164
  1
R1
 71
     5
 42
0.9999999943786406
 73
     0
 74
     0
 75
     0
  3
STANDARD1
100
AcDbRadialDimension
 15
289.9635238669682
 25
169.8535586210699
 35
0.0
 40
0.0
  0
LINE
  5
7355
330
1F
100
AcDbEntity
  8
16
 48
5.0
100
AcDbLine
 10
261.9635241049179
 20
73.9875337531962
 30
0.0
 11
261.9635241049179
 21
225.5189036117425
 31
0.0
  0
LINE
  5
7356
330
1F
100
AcDbEntity
  8
16
 48
5.0
100
AcDbLine
 10
297.9302591382598
 20
143.9875333617793
 30
0.0
 11
226.4635243845014
 21
143.9875333617793
 31
0.0
  0
LINE
  5
73E9
330
1F
100
AcDbEntity
  8
10
 62
     1
100
AcDbLine
 10
396.4267872114585
 20
167.7375333617792
 30
0.0
 11
418.4267872114583
 21
167.7375333617792
 31
0.0
  0
LINE
  5
73EA
330
1F
100
AcDbEntity
  8
10
 62
     1
100
AcDbLine
 10
395.4267872114585
 20
166.7375333617792
 30
0.0
 11
395.4267872114585
 21
120.7375333617795
 31
0.0
  0
LINE
  5
73EB
330
1F
100
AcDbEntity
  8
10
 62
     1
100
AcDbLine
 10
396.4267872114585
 20
119.7375333617795
 30
0.0
 11
418.4267872114583
 21
119.7375333617795
 31
0.0
  0
LINE
  5
73EC
330
1F
100
AcDbEntity
  8
10
 62
     1
100
AcDbLine
 10
419.4267872114583
 20
166.7375333617792
 30
0.0
 11
419.4267872114583
 21
120.7375333617795
 31
0.0
  0
ARC
  5
73ED
330
1F
100
AcDbEntity
  8
10
 62
     1
100
AcDbCircle
 10
418.4267872114583
 20
166.7375333617792
 30
0.0
 40
0.9999999999998236
100
AcDbArc
 50
0.0
 51
90.0
  0
ARC
  5
73EE
330
1F
100
AcDbEntity
  8
10
 62
     1
100
AcDbCircle
 10
396.4267872114585
 20
166.7375333617792
 30
0.0
 40
0.9999999999998236
100
AcDbArc
 50
90.0
 51
180.0
  0
ARC
  5
73EF
330
1F
100
AcDbEntity
  8
10
 62
     1
100
AcDbCircle
 10
396.4267872114585
 20
120.7375333617795
 30
0.0
 40
0.9999999999998236
100
AcDbArc
 50
180.0
 51
270.0
  0
ARC
  5
73F0
330
1F
100
AcDbEntity
  8
10
 62
     1
100
AcDbCircle
 10
418.4267872114583
 20
120.7375333617795
 30
0.0
 40
0.9999999999998236
100
AcDbArc
 50
270.0
 51
0.0
  0
DIMENSION
  5
73F1
330
1F
100
AcDbEntity
  8
30
100
AcDbDimension
280
     0
  2
*D19
 10
418.4267872114586
 20
166.7375333617797
 30
0.0
 11
432.0946907221581
 21
174.3443790333848
 31
0.0
 70
   164
  1
<>
 71
     5
 42
1.000000000108002
 73
     0
 74
     0
 75
     0
  3
STANDARD1
100
AcDbRadialDimension
 15
419.1486609024082
 25
167.4295581984228
 35
0.0
 40
0.0
  0
DIMENSION
  5
7414
330
1F
100
AcDbEntity
  8
30
  6
Continuous
100
AcDbDimension
280
     0
  2
*D20
 10
469.8457262222698
 20
119.7375333617795
 30
0.0
 11
469.8457262222698
 21
144.8757897310772
 31
0.0
 70
   160
 71
     2
 42
47.9999999999997
 73
     0
 74
     0
 75
     0
  3
STANDARD
100
AcDbAlignedDimension
 13
418.4267872114583
 23
167.7375333617792
 33
0.0
 14
418.4267872114583
 24
119.7375333617795
 34
0.0
 50
90.0
100
AcDbRotatedDimension
  0
DIMENSION
  5
7433
330
1F
100
AcDbEntity
  8
30
100
AcDbDimension
280
     0
  2
*D21
 10
309.6768514964657
 20
117.9875329705009
 30
0.0
 11
304.6768514964656
 21
143.9875333616174
 31
0.0
 70
    32
 71
     5
 42
52.00000078223296
 73
     0
 74
     0
 75
     0
  3
STANDARD
100
AcDbAlignedDimension
 13
293.3065360412117
 23
169.9875337527339
 33
0.0
 14
293.3065360410111
 24
117.9875329705009
 34
0.0
 50
89.99999999977854
100
AcDbRotatedDimension
  0
LWPOLYLINE
  5
757D
330
1F
100
AcDbEntity
  8
24
  6
Continuous
 62
     7
100
AcDbPolyline
 90
        5
 70
     0
 43
0.0
 10
88.92630098851126
 20
690.3818403911674
 10
88.92630098851126
 20
686.3605538035161
 42
-0.9995984643691707
 10
80.38835593706016
 20
686.3639827494304
 10
80.38835593706016
 20
690.3818399240915
 42
-1.0
 10
88.92630236563173
 20
690.3818399240915
  0
LINE
  5
7581
330
1F
100
AcDbEntity
  8
16
  6
DASHDOT
 48
0.5
100
AcDbLine
 10
114.7401583106748
 20
628.4536155421087
 30
0.0
 11
114.7401583106748
 21
663.831014943033
 31
0.0
  0
LINE
  5
7583
330
1F
100
AcDbEntity
  8
16
  6
DASHDOT
 48
0.5
100
AcDbLine
 10
84.65732915134593
 20
498.4461438548453
 30
0.0
 11
84.65732915134593
 21
715.8169528883982
 31
0.0
  0
LINE
  5
7585
330
1F
100
AcDbEntity
  8
16
  6
DASHDOT
 48
0.5
100
AcDbLine
 10
124.6304418096501
 20
638.0763976003434
 30
0.0
 11
103.1348251880312
 21
638.0763976003434
 31
0.0
  0
LINE
  5
7590
102
{ACAD_REACTORS
330
848D
102
}
330
1F
100
AcDbEntity
  8
16
 48
0.5
100
AcDbLine
 10
94.5476126503213
 20
688.0763976003435
 30
0.0
 11
73.05199602870231
 21
688.0763976003435
 31
0.0
  0
DIMENSION
  5
75C1
102
{ACAD_XDICTIONARY
360
75CE
102
}
102
{ACAD_REACTORS
330
75D8
102
}
330
1F
100
AcDbEntity
  8
30
100
AcDbDimension
280
     0
  2
*D22
 10
73.46818798011418
 20
337.0699215254757
 30
0.0
 11
84.4913398882087
 21
337.0699215254757
 31
0.0
 70
   160
 71
     5
 42
22.04630381618904
 73
     0
 74
     0
 75
     0
  3
STANDARD
100
AcDbAlignedDimension
 13
95.51449179630322
 23
352.1857738997253
 33
0.0
 14
73.46818798011418
 24
352.1857738997253
 34
0.0
 50
180.0
100
AcDbRotatedDimension
  0
LWPOLYLINE
  5
78BD
330
1F
100
AcDbEntity
  8
10
  6
Continuous
100
AcDbPolyline
 90
        4
 70
     1
 43
0.0
 10
0.0
 20
742.4999999999997
 10
525.0
 20
742.4999999999997
 10
525.0
 20
0.0
 10
0.0
 20
0.0
  0
LWPOLYLINE
  5
7A30
330
1F
100
AcDbEntity
  8
18
 48
5.0
100
AcDbPolyline
 90
        4
 70
     1
 43
0.0
 10
291.9635256412925
 20
78.9875361092379
 10
291.9635256412925
 20
208.9875306140708
 10
231.9635225682928
 20
208.9875306140708
 10
231.9635225682928
 20
78.9875361092379
  0
LWPOLYLINE
  5
7A34
330
1F
100
AcDbEntity
  8
18
 48
5.0
100
AcDbPolyline
 90
        4
 70
     1
 43
0.0
 10
129.4553789877636
 20
79.02161352135201
 10
129.4553789877636
 20
209.0216080261849
 10
69.45537591476386
 20
209.0216080261849
 10
69.45537591476386
 20
79.02161352135201
  0
LWPOLYLINE
  5
7A35
330
1F
100
AcDbEntity
  8
18
 48
5.0
100
AcDbPolyline
 90
        4
 70
     1
 43
0.0
 10
437.4267887478331
 20
78.9875361092379
 10
437.4267887478331
 20
208.9875306140708
 10
377.4267856748334
 20
208.9875306140708
 10
377.4267856748334
 20
78.9875361092379
  0
DIMENSION
  5
7AA4
330
1F
100
AcDbEntity
  8
30
  6
Continuous
100
AcDbDimension
280
     0
  2
*D23
 10
119.0091298859777
 20
673.7560615225952
 30
0.0
 11
135.7548167430049
 21
673.7560615225952
 31
0.0
 70
   160
 71
     5
 42
8.537945021517995
 73
     0
 74
     0
 75
     0
  3
STANDARD
100
AcDbAlignedDimension
 13
110.4711848644597
 23
638.0763976003434
 33
0.0
 14
119.0091298859777
 24
638.0763976003434
 34
0.0
 50
180.0
100
AcDbRotatedDimension
1001
ACAD
1000
DSTYLE
1002
{
1070
    79
1070
     3
1002
}
  0
LWPOLYLINE
  5
7D05
330
1F
100
AcDbEntity
  8
24
  6
Continuous
 62
     7
100
AcDbPolyline
 90
        6
 70
     0
 43
0.0
 10
109.7021270325869
 20
616.2841417788974
 42
0.1739087674231221
 10
106.8551139656456
 20
622.3018770315221
 10
106.8551142275079
 20
651.127644686314
 42
-0.2471454556482815
 10
122.6252026557099
 20
651.1276448241707
 10
122.6252026557099
 20
622.3018770315221
 42
0.1718897542815705
 10
119.7781901124934
 20
616.2841417788976
  0
DIMENSION
  5
7D06
330
1F
100
AcDbEntity
  8
30
  6
Continuous
100
AcDbDimension
280
     0
  2
*D24
 10
122.7605203990791
 20
679.0162846360366
 30
0.0
 11
116.005127342644
 21
679.0162846360366
 31
0.0
 70
   160
 71
     5
 42
15.97008869006413
 73
     0
 74
     0
 75
     0
  3
STANDARD
100
AcDbAlignedDimension
 13
106.790431709015
 23
651.0276446863143
 33
0.0
 14
122.7605203990791
 24
651.1276446863142
 34
0.0
100
AcDbRotatedDimension
  0
LWPOLYLINE
  5
7DFC
102
{ACAD_REACTORS
330
848D
102
}
330
1F
100
AcDbEntity
  8
24
  6
Continuous
 62
     7
100
AcDbPolyline
 90
        4
 70
     0
 43
0.0
 10
92.54237349633092
 20
665.0988725566839
 10
92.5423734963781
 20
701.1181999743691
 42
0.2471454556482762
 10
76.77228506817619
 20
701.1182001122258
 10
76.77228494670419
 20
665.0988725565139
  0
LWPOLYLINE
  5
7E01
330
1F
100
AcDbEntity
  8
24
  6
Continuous
 62
     7
100
AcDbPolyline
 90
        5
 70
     0
 43
0.0
 10
119.0091312630982
 20
640.3912846360364
 42
1.0
 10
110.4711848345266
 20
640.3912846360364
 10
110.4711848345266
 20
636.3734274613753
 42
0.9995984643691707
 10
119.0091298859777
 20
636.3699985154611
 10
119.0091298859777
 20
640.3912851031122
  0
MTEXT
  5
7E2D
330
1F
100
AcDbEntity
  8
240
100
AcDbMText
 10
238.996533933036
 20
23.09144723739314
 30
0.0
 40
7.826237649998486
 41
0.0
 46
0.0
 71
     1
 72
     1
  1
[Cutout A]
  7
SLDTEXTSTYLE0
 73
     1
 44
1.0
  0
MTEXT
  5
7E2E
330
1F
100
AcDbEntity
  8
240
100
AcDbMText
 10
387.7182629906042
 20
23.09144723739314
 30
0.0
 40
7.826237649998486
 41
0.0
 46
0.0
 71
     1
 72
     1
  1
[Cutout B]
  7
SLDTEXTSTYLE0
 73
     1
 44
1.0
  0
DIMENSION
  5
7EE5
330
1F
100
AcDbEntity
  8
30
  6
Continuous
100
AcDbDimension
280
     0
  2
*D25
 10
243.8840558237054
 20
349.2899923675655
 30
0.0
 11
243.8840558237053
 21
377.0624350685655
 31
0.0
 70
   160
 71
     5
 42
50.0
 73
     0
 74
     0
 75
     0
  3
STANDARD
100
AcDbAlignedDimension
 13
281.9840558237051
 23
399.2899923675656
 33
0.0
 14
281.9840558237051
 24
349.2899923675655
 34
0.0
 50
270.0
100
AcDbRotatedDimension
1001
ACAD
1000
DSTYLE
1002
{
1070
    79
1070
     3
1002
}
  0
DIMENSION
  5
7EE6
330
1F
100
AcDbEntity
  8
30
  6
Continuous
100
AcDbDimension
280
     0
  2
*D26
 10
473.8840558237052
 20
315.2899923675656
 30
0.0
 11
473.8840558237052
 21
296.7899923675656
 31
0.0
 70
   160
 71
     5
 42
4.0
 73
     0
 74
     0
 75
     0
  3
STANDARD
100
AcDbAlignedDimension
 13
455.7371869293048
 23
319.2899923675656
 33
0.0
 14
455.7371869293048
 24
315.2899923675656
 34
0.0
 50
270.0
100
AcDbRotatedDimension
1001
ACAD
1000
DSTYLE
1002
{
1070
   172
1070
     1
1070
    79
1070
     3
1002
}
  0
LWPOLYLINE
  5
7EE7
330
1F
100
AcDbEntity
  8
18
100
AcDbPolyline
 90
        2
 70
     0
 43
0.001
 10
354.1656393824693
 20
287.2804201415729
 10
354.1656393824693
 20
439.6222239105429
  0
LWPOLYLINE
  5
7EE8
330
1F
100
AcDbEntity
  8
18
100
AcDbPolyline
 90
        2
 70
     0
 43
0.001
 10
356.1656393824693
 20
287.2804201415729
 10
356.1656393824693
 20
439.6222239105429
  0
LINE
  5
7EE9
330
1F
100
AcDbEntity
  8
10
  6
Continuous
100
AcDbLine
 10
282.1656406192188
 20
349.2899923675655
 30
0.0
 11
282.1656406192188
 21
399.2899923675656
 31
0.0
  0
LINE
  5
7EEA
330
1F
100
AcDbEntity
  8
21
  6
Continuous
 62
     7
100
AcDbLine
 10
369.8840558129052
 20
309.6575501977655
 30
0.0
 11
364.884329965305
 21
309.1051912841656
 31
0.0
  0
LINE
  5
7EEB
330
1F
100
AcDbEntity
  8
21
  6
Continuous
 62
     7
100
AcDbLine
 10
364.8843299769052
 20
309.1051911801657
 30
0.0
 11
354.1656393824693
 21
308.9929412114912
 31
0.0
  0
LINE
  5
7EEC
330
1F
100
AcDbEntity
  8
24
  6
Continuous
 62
     7
100
AcDbLine
 10
416.9840558237048
 20
314.0899923675656
 30
0.0
 11
376.9840558237048
 21
314.0899923675656
 31
0.0
  0
LINE
  5
7EED
330
1F
100
AcDbEntity
  8
24
  6
Continuous
 62
     7
100
AcDbLine
 10
455.7371869293048
 20
315.2899923675656
 30
0.0
 11
416.9840558237048
 21
315.2899923675656
 31
0.0
  0
LINE
  5
7EEE
330
1F
100
AcDbEntity
  8
16
100
AcDbLine
 10
343.8840558237054
 20
317.2899923675656
 30
0.0
 11
463.8840558237053
 21
317.2899923675656
 31
0.0
  0
LINE
  5
7EEF
330
1F
100
AcDbEntity
  8
24
  6
Continuous
 62
     7
100
AcDbLine
 10
416.9840558237048
 20
319.2899923675656
 30
0.0
 11
455.7371869293048
 21
319.2899923675656
 31
0.0
  0
LINE
  5
7EF0
330
1F
100
AcDbEntity
  8
24
  6
Continuous
 62
     7
100
AcDbLine
 10
376.9840558237048
 20
320.4899923675655
 30
0.0
 11
416.9840558237048
 21
320.4899923675655
 31
0.0
  0
LINE
  5
7EF1
330
1F
100
AcDbEntity
  8
24
  6
Continuous
 62
     7
100
AcDbLine
 10
364.8843299769052
 20
325.4747935551657
 30
0.0
 11
354.1656393824693
 21
325.5870435236452
 31
0.0
  0
LINE
  5
7EF2
330
1F
100
AcDbEntity
  8
24
  6
Continuous
 62
     7
100
AcDbLine
 10
369.8840558129052
 20
324.9224345375655
 30
0.0
 11
364.884329965305
 21
325.4747934511656
 31
0.0
  0
LINE
  5
7EF3
330
1F
100
AcDbEntity
  8
24
  6
Continuous
 62
     7
100
AcDbLine
 10
369.8840558237054
 20
309.6575501007655
 30
0.0
 11
369.8840558237054
 21
324.9224346345656
 31
0.0
  0
LINE
  5
7EF4
330
1F
100
AcDbEntity
  8
24
  6
Continuous
 62
     7
100
AcDbLine
 10
369.8840558237054
 20
423.6575501007655
 30
0.0
 11
369.8840558237054
 21
438.9224346345653
 31
0.0
  0
LINE
  5
7EF5
330
1F
100
AcDbEntity
  8
24
  6
Continuous
 62
     7
100
AcDbLine
 10
369.8840558129052
 20
423.6575501977655
 30
0.0
 11
364.884329965305
 21
423.1051912841653
 31
0.0
  0
LINE
  5
7EF6
330
1F
100
AcDbEntity
  8
24
  6
Continuous
 62
     7
100
AcDbLine
 10
364.8843299769052
 20
423.1051911801655
 30
0.0
 11
353.8840558237053
 21
422.9899923675656
 31
0.0
  0
LINE
  5
7EF7
330
1F
100
AcDbEntity
  8
24
  6
Continuous
 62
     7
100
AcDbLine
 10
376.9840558237048
 20
428.0899923675653
 30
0.0
 11
416.9840558237048
 21
428.0899923675653
 31
0.0
  0
LINE
  5
7EF8
330
1F
100
AcDbEntity
  8
24
  6
Continuous
 62
     7
100
AcDbLine
 10
416.9840558237048
 20
434.4899923675655
 30
0.0
 11
416.9840558237048
 21
428.0899923675653
 31
0.0
  0
LINE
  5
7EF9
330
1F
100
AcDbEntity
  8
24
  6
Continuous
 62
     7
100
AcDbLine
 10
416.9840558237048
 20
314.0899923675656
 30
0.0
 11
416.9840558237048
 21
320.4899923675655
 31
0.0
  0
LINE
  5
7EFA
330
1F
100
AcDbEntity
  8
24
  6
Continuous
 62
     7
100
AcDbLine
 10
416.9840558237048
 20
434.4899923675655
 30
0.0
 11
376.9840558237048
 21
434.4899923675655
 31
0.0
  0
LINE
  5
7EFB
330
1F
100
AcDbEntity
  8
24
  6
Continuous
 62
     7
100
AcDbLine
 10
364.8843299769052
 20
439.4747935551655
 30
0.0
 11
354.1656393824693
 21
439.6222239105429
 31
0.0
  0
LINE
  5
7EFC
330
1F
100
AcDbEntity
  8
24
  6
Continuous
 62
     7
100
AcDbLine
 10
369.8840558129052
 20
438.9224345375655
 30
0.0
 11
364.884329965305
 21
439.4747934511654
 31
0.0
  0
LWPOLYLINE
  5
7EFD
330
1F
100
AcDbEntity
  8
30
  6
Continuous
100
AcDbPolyline
 90
        2
 70
     0
 43
0.0
 10
259.7575358997098
 20
385.5305715006501
 42
0.0516079397614834
 10
258.6656393824693
 20
376.5114323485151
  0
ARC
  5
7EFE
330
1F
100
AcDbEntity
  8
24
  6
Continuous
 62
     7
100
AcDbCircle
 10
376.9840558237048
 20
445.7899923675655
 30
0.0
 40
11.3
100
AcDbArc
 50
231.0505796710034
 51
270.0
  0
ARC
  5
7EFF
330
1F
100
AcDbEntity
  8
24
  6
Continuous
 62
     7
100
AcDbCircle
 10
376.9840558237048
 20
416.7899923675655
 30
0.0
 40
11.3
100
AcDbArc
 50
90.0
 51
128.9494266960035
  0
ARC
  5
7F00
330
1F
100
AcDbEntity
  8
24
  6
Continuous
 62
     7
100
AcDbCircle
 10
376.9840558237048
 20
302.7899923675656
 30
0.0
 40
11.3
100
AcDbArc
 50
90.0
 51
128.9494279204027
  0
ARC
  5
7F01
330
1F
100
AcDbEntity
  8
24
  6
Continuous
 62
     7
100
AcDbCircle
 10
376.9840558237048
 20
331.7899923675656
 30
0.0
 40
11.3
100
AcDbArc
 50
231.0505808667996
 51
270.0
  0
ARC
  5
7F02
330
1F
100
AcDbEntity
  8
24
  6
Continuous
 62
     7
100
AcDbCircle
 10
442.9105649174743
 20
317.2899923675656
 30
0.0
 40
12.9816113111731
100
AcDbArc
 50
351.1374800094326
 51
8.862519990567456
  0
LWPOLYLINE
  5
7F03
330
1F
100
AcDbEntity
  8
10
  6
Continuous
100
AcDbPolyline
 90
        4
 70
     1
 43
0.0
 10
352.1656393824693
 20
307.0222663725859
 10
354.1656393824693
 20
307.0222663725859
 10
354.1656393824693
 20
309.0222663725859
 10
352.1656393824693
 20
309.0222663725859
  0
LWPOLYLINE
  5
7F04
330
1F
100
AcDbEntity
  8
10
  6
Continuous
100
AcDbPolyline
 90
        4
 70
     1
 43
0.0
 10
352.1656393824693
 20
441.6222239105429
 10
354.1656393824693
 20
441.6222239105429
 10
354.1656393824693
 20
439.6222239105429
 10
352.1656393824693
 20
439.6222239105429
  0
LWPOLYLINE
  5
7F05
330
1F
100
AcDbEntity
  8
10
  6
Continuous
100
AcDbPolyline
 90
        4
 70
     1
 43
0.0
 10
282.1656406192188
 20
399.2899923675656
 10
286.1656406192188
 20
399.2899923675656
 10
286.1656406192188
 20
349.2899923675655
 10
282.1656406192188
 20
349.2899923675655
  0
LWPOLYLINE
  5
7F06
330
1F
100
AcDbEntity
  8
10
  6
Continuous
100
AcDbPolyline
 90
       20
 70
     0
 43
0.0
 10
282.1656406192188
 20
351.7899923675656
 10
276.5289956959052
 20
351.7899923675656
 10
276.2805765813706
 20
354.4370511910949
 10
276.1362849972518
 20
357.0841100146244
 10
276.0002484739644
 20
359.7311688381538
 10
275.8765945419246
 20
362.3782276616832
 10
275.769450731548
 20
365.0252864852126
 10
275.6829445732502
 20
367.6723453087419
 10
275.6212035974473
 20
370.3194041322714
 10
275.5840558237052
 20
374.2899923675655
 10
275.5883553345549
 20
375.6135217793302
 10
275.6212035974473
 20
378.2605806028596
 10
275.6829445732502
 20
380.9076394263891
 10
275.769450731548
 20
383.5546982499185
 10
275.8765945419246
 20
386.2017570734479
 10
276.0002484739644
 20
388.8488158969773
 10
276.1362849972518
 20
391.4958747205067
 10
276.2805765813706
 20
394.1429335440362
 10
276.4289956959052
 20
396.7899923675656
 10
282.1656406192188
 20
396.7899923675656
  0
LINE
  5
7F07
330
1F
100
AcDbEntity
  8
16
100
AcDbLine
 10
343.8840558237054
 20
431.2899923675655
 30
0.0
 11
463.8840558237053
 21
431.2899923675655
 31
0.0
  0
LINE
  5
7F08
330
1F
100
AcDbEntity
  8
24
  6
Continuous
 62
     7
100
AcDbLine
 10
376.3840558237053
 20
314.7899923675656
 30
0.0
 11
406.1271880363051
 21
314.7899923675656
 31
0.0
  0
LINE
  5
7F09
330
1F
100
AcDbEntity
  8
24
  6
Continuous
 62
     7
100
AcDbLine
 10
376.3840558237053
 20
319.7899923675656
 30
0.0
 11
406.1271880363051
 21
319.7899923675656
 31
0.0
  0
ARC
  5
7F0A
330
1F
100
AcDbEntity
  8
24
  6
Continuous
 62
     7
100
AcDbCircle
 10
386.2840558237053
 20
317.2899923675656
 30
0.0
 40
20.0
100
AcDbArc
 50
352.8055694888977
 51
7.194430511102344
  0
ARC
  5
7F0B
330
1F
100
AcDbEntity
  8
24
  6
Continuous
 62
     7
100
AcDbCircle
 10
375.7379920037049
 20
331.7725881439656
 30
0.0
 40
12.0
100
AcDbArc
 50
240.7833294700036
 51
273.0862196937968
  0
ARC
  5
7F0C
330
1F
100
AcDbEntity
  8
24
  6
Continuous
 62
     7
100
AcDbCircle
 10
375.7379920037049
 20
302.8073965911656
 30
0.0
 40
12.0
100
AcDbArc
 50
86.91378030620315
 51
119.2168251174987
  0
LINE
  5
7F0D
330
1F
100
AcDbEntity
  8
24
  6
Continuous
 62
     7
100
AcDbLine
 10
376.3840558237053
 20
428.7899923675655
 30
0.0
 11
406.1271880363051
 21
428.7899923675655
 31
0.0
  0
LINE
  5
7F0E
330
1F
100
AcDbEntity
  8
24
  6
Continuous
 62
     7
100
AcDbLine
 10
376.3840558237053
 20
433.7899923675656
 30
0.0
 11
406.1271880363051
 21
433.7899923675656
 31
0.0
  0
ARC
  5
7F0F
330
1F
100
AcDbEntity
  8
24
  6
Continuous
 62
     7
100
AcDbCircle
 10
386.2840558237055
 20
431.2899923675655
 30
0.0
 40
20.0
100
AcDbArc
 50
352.8055694888977
 51
7.194430511102344
  0
ARC
  5
7F10
330
1F
100
AcDbEntity
  8
24
  6
Continuous
 62
     7
100
AcDbCircle
 10
375.7379920037049
 20
445.7725881439655
 30
0.0
 40
12.0
100
AcDbArc
 50
240.7833294700036
 51
273.0862196937968
  0
ARC
  5
7F11
330
1F
100
AcDbEntity
  8
24
  6
Continuous
 62
     7
100
AcDbCircle
 10
375.7379920037049
 20
416.8073965911656
 30
0.0
 40
12.0
100
AcDbArc
 50
86.91378030620315
 51
119.2168251174987
  0
DIMENSION
  5
7F12
330
1F
100
AcDbEntity
  8
30
  6
Continuous
100
AcDbDimension
280
     0
  2
*D27
 10
482.7725047485443
 20
317.2899923675656
 30
0.0
 11
477.7725047485441
 21
374.2899923675656
 31
0.0
 70
    32
 71
     5
 42
114.0
 73
     0
 74
     0
 75
     0
  3
STANDARD
100
AcDbAlignedDimension
 13
462.7725047485442
 23
431.2899923675655
 33
0.0
 14
462.7725047485442
 24
317.2899923675656
 34
0.0
 50
90.0
100
AcDbRotatedDimension
  0
LWPOLYLINE
  5
7F13
330
1F
100
AcDbEntity
  8
10
  6
Continuous
100
AcDbPolyline
 90
       31
 70
     0
 43
0.0
 10
294.1858143281478
 20
323.1604673751423
 10
294.1858143281478
 20
323.1604673751423
 10
294.1858143281478
 20
323.1604673751423
 10
294.1858143281478
 20
323.1604673751423
 10
294.1858143281478
 20
323.1604673751423
 42
1.09625752610414
 10
294.1858143281478
 20
323.1604673751423
 10
286.1656406192188
 20
323.1604673751423
 10
286.1656406192188
 20
323.1604673751423
 10
286.1656406192188
 20
324.1878905723912
 10
286.1656406192188
 20
325.9067207001868
 10
286.1656406192188
 20
349.2899923675655
 10
286.1656406192188
 20
425.3767476745629
 42
-0.0855072839151511
 10
286.1656406192188
 20
425.5646497077597
 10
293.4480973199853
 20
425.5261764615016
 42
0.3758822830529091
 10
293.9467342504062
 20
425.9565776296091
 10
295.0452119985913
 20
433.7726516832086
 10
295.0452119985913
 20
433.7726516832086
 10
295.0452119985913
 20
433.7726516832086
 10
295.6270240149822
 20
437.9124530617396
 10
295.6270240149822
 20
437.9124530617396
 10
295.6270240149822
 20
437.9124530617396
 42
-0.1294431367931932
 10
296.9327408187469
 20
439.6222239105429
 10
353.7280571385919
 20
439.6222239105429
 42
0.0033336821045917
 10
354.1656393824693
 20
439.6222239105429
 10
354.1656393824693
 20
309.0222663725859
 42
8.931262686279291
 10
354.1656393824693
 20
309.0222663725859
 10
297.0370577263392
 20
309.0222663725859
 42
-0.1953144770907657
 10
295.9623430985463
 20
309.9490898176735
 10
295.6270240149822
 20
310.5669066287745
 10
294.1858143281478
 20
323.1604673751423
 42
0.1261397278995533
 10
294.1858143281478
 20
323.1604673751423
  0
LWPOLYLINE
  5
7F14
330
1F
100
AcDbEntity
  8
10
100
AcDbPolyline
 90
        9
 70
     0
 43
0.0
 10
275.674652128356
 20
387.0260241212326
 10
267.5319486860787
 20
389.1654066455992
 10
262.9479551536535
 20
390.3423766155047
 10
261.3929489643919
 20
390.1072037128485
 10
260.481919504524
 20
388.8252607274401
 10
259.7575358997098
 20
385.5305715006501
 10
260.0468334770013
 20
383.9847193634398
 10
261.3597900070141
 20
383.1189840430953
 10
275.3774267805294
 20
380.663421027851
  0
LINE
  5
7F15
330
1F
100
AcDbEntity
  8
24
  6
Continuous
 62
     7
100
AcDbLine
 10
455.7371869293048
 20
429.2899923675655
 30
0.0
 11
416.9840558237048
 21
429.2899923675655
 31
0.0
  0
LINE
  5
7F16
330
1F
100
AcDbEntity
  8
24
  6
Continuous
 62
     7
100
AcDbLine
 10
416.9840558237048
 20
433.2899923675655
 30
0.0
 11
455.7371869293048
 21
433.2899923675655
 31
0.0
  0
ARC
  5
7F17
330
1F
100
AcDbEntity
  8
24
  6
Continuous
 62
     7
100
AcDbCircle
 10
442.9105649174743
 20
431.2899923675655
 30
0.0
 40
12.9816113111731
100
AcDbArc
 50
351.1374800094326
 51
8.862519990567456
  0
LINE
  5
7F18
330
1F
100
AcDbEntity
  8
24
  6
CENTER
 62
     0
100
AcDbLine
 10
393.1392028435851
 20
427.1646548292777
 30
0.0
 11
393.1392028435851
 21
435.2911557299735
 31
0.0
  0
LINE
  5
7F19
330
1F
100
AcDbEntity
  8
24
  6
CENTER
 62
     0
100
AcDbLine
 10
389.1392028435851
 20
426.9709567165302
 30
0.0
 11
389.1392028435851
 21
435.2911557299735
 31
0.0
  0
LINE
  5
7F1A
330
1F
100
AcDbEntity
  8
24
  6
CENTER
 62
     0
100
AcDbLine
 10
443.1624141356945
 20
427.1646548292777
 30
0.0
 11
443.1624141356945
 21
435.2911557299735
 31
0.0
  0
LINE
  5
7F1B
330
1F
100
AcDbEntity
  8
24
  6
CENTER
 62
     0
100
AcDbLine
 10
439.1624141356945
 20
426.9709567165302
 30
0.0
 11
439.1624141356945
 21
435.2911557299735
 31
0.0
  0
LINE
  5
7F1C
330
1F
100
AcDbEntity
  8
24
  6
CENTER
 62
     0
100
AcDbLine
 10
393.1392028435851
 20
313.1646548292778
 30
0.0
 11
393.1392028435851
 21
321.2911557299737
 31
0.0
  0
LINE
  5
7F1D
330
1F
100
AcDbEntity
  8
24
  6
CENTER
 62
     0
100
AcDbLine
 10
389.1392028435851
 20
312.9709567165304
 30
0.0
 11
389.1392028435851
 21
321.2911557299737
 31
0.0
  0
LINE
  5
7F1E
330
1F
100
AcDbEntity
  8
24
  6
CENTER
 62
     0
100
AcDbLine
 10
443.1624141356945
 20
313.1646548292778
 30
0.0
 11
443.1624141356945
 21
321.2911557299737
 31
0.0
  0
LINE
  5
7F1F
330
1F
100
AcDbEntity
  8
24
  6
CENTER
 62
     0
100
AcDbLine
 10
439.1624141356945
 20
312.9709567165304
 30
0.0
 11
439.1624141356945
 21
321.2911557299737
 31
0.0
  0
DIMENSION
  5
7F20
330
1F
100
AcDbEntity
  8
30
  6
Continuous
100
AcDbDimension
280
     0
  2
*D28
 10
354.1656393824693
 20
257.5384633023912
 30
0.0
 11
306.4156400008442
 21
262.5384633023912
 31
0.0
 70
    32
 71
     5
 42
95.49999876325022
 73
     0
 74
     0
 75
     0
  3
STANDARD
100
AcDbAlignedDimension
 13
258.6656406192191
 23
377.9067207001868
 33
0.0
 14
354.1656393824693
 24
312.7460872709506
 34
0.0
 50
180.0
100
AcDbRotatedDimension
1001
ACAD
1000
DSTYLE
1002
{
1070
    79
1070
     3
1002
}
  0
DIMENSION
  5
7F21
330
1F
100
AcDbEntity
  8
30
  6
Continuous
100
AcDbDimension
280
     0
  2
*D29
 10
282.1656406192188
 20
268.9587310689481
 30
0.0
 11
264.8758678919461
 21
268.9587310689481
 31
0.0
 70
   160
 71
     5
 42
6.5
 73
     0
 74
     0
 75
     0
  3
STANDARD
100
AcDbAlignedDimension
 13
275.6656406192188
 23
352.9067207001868
 33
0.0
 14
282.1656406192188
 24
346.8518203354979
 34
0.0
 50
180.0
100
AcDbRotatedDimension
1001
ACAD
1000
DSTYLE
1002
{
1070
    79
1070
     3
1002
}
  0
DIMENSION
  5
7F22
330
1F
100
AcDbEntity
  8
30
  6
Continuous
100
AcDbDimension
280
     0
  2
*D30
 10
354.1656393824693
 20
268.9587310689481
 30
0.0
 11
318.1656400008441
 21
273.9587310689481
 31
0.0
 70
    32
 71
     5
 42
71.99999876325046
 73
     0
 74
     0
 75
     0
  3
STANDARD
100
AcDbAlignedDimension
 13
282.1656406192188
 23
341.7176715276929
 33
0.0
 14
354.1656393824693
 24
312.7460872709506
 34
0.0
 50
180.0
100
AcDbRotatedDimension
1001
ACAD
1000
DSTYLE
1002
{
1070
    79
1070
     3
1002
}
  0
DIMENSION
  5
7F23
330
1F
100
AcDbEntity
  8
30
  6
Continuous
100
AcDbDimension
280
     0
  2
*D31
 10
354.1656393824693
 20
279.8131964572784
 30
0.0
 11
320.1656400008441
 21
284.8131964572784
 31
0.0
 70
    32
 71
     5
 42
67.99999876325045
 73
     0
 74
     0
 75
     0
  3
STANDARD
100
AcDbAlignedDimension
 13
286.1656406192188
 23
316.2664893838997
 33
0.0
 14
354.1656393824693
 24
312.7460872709506
 34
0.0
 50
180.0
100
AcDbRotatedDimension
1001
ACAD
1000
DSTYLE
1002
{
1070
    79
1070
     3
1002
}
  0
DIMENSION
  5
7F24
330
1F
100
AcDbEntity
  8
30
  6
Continuous
100
AcDbDimension
280
     0
  2
*D32
 10
354.1656393824693
 20
290.1133861825234
 30
0.0
 11
324.1656393824692
 21
295.1133861825233
 31
0.0
 70
    32
 71
     5
 42
60.0000000000001
 73
     0
 74
     0
 75
     0
  3
STANDARD
100
AcDbAlignedDimension
 13
294.1656393824692
 23
312.7460872709506
 33
0.0
 14
354.1656393824693
 24
312.7460872709506
 34
0.0
 50
180.0
100
AcDbRotatedDimension
1001
ACAD
1000
DSTYLE
1002
{
1070
    79
1070
     3
1002
}
  0
LEADER
  5
7FD4
330
1F
100
AcDbEntity
  8
30
100
AcDbLeader
  3
STANDARD1
 76
     3
 10
114.47206388112
 20
209.7339454425596
 30
0.0
 10
123.3202061942118
 20
233.1871847386917
 30
0.0
 10
141.8702061942118
 20
233.1871847386917
 30
0.0
211
-1.0
221
0.0
231
0.0
1001
ACAD
1000
DSTYLE
1002
{
1070
   147
1040
2.0
1070
    77
1070
     0
1002
}
  0
MTEXT
  5
7FD5
330
1F
100
AcDbEntity
  8
30
100
AcDbMText
 10
127.4685168428046
 20
239.5339454425598
 30
0.0
 40
5.0
 41
30.0
 46
0.0
 71
     1
 72
     5
  1
φ18
  7
blockfont
 73
     1
 44
1.0
  0
CIRCLE
  5
8454
330
1F
100
AcDbEntity
  8
12
  6
Continuous
 62
     3
100
AcDbCircle
 10
99.44281566969593
 20
88.56015135526723
 30
0.0
 40
2.000000000000023
  0
INSERT
  5
8455
330
1F
100
AcDbEntity
  8
12
  6
Continuous
 62
     3
100
AcDbBlockReference
  2
SW_CENTERMARKSYMBOL_18
 10
99.44281566969593
 20
88.56015135526723
 30
0.0
 41
2.5
 42
2.5
 43
2.5
  0
DIMENSION
  5
8476
102
{ACAD_XDICTIONARY
360
8483
102
}
102
{ACAD_REACTORS
330
848D
102
}
330
1F
100
AcDbEntity
  8
30
  6
Continuous
100
AcDbDimension
280
     0
  2
*D34
 10
57.82579666552511
 20
665.0988725566839
 30
0.0
 11
52.825796665525
 21
676.5876350785137
 31
0.0
 70
    32
 71
     5
 42
22.97752504365963
 73
     0
 74
     0
 75
     0
  3
STANDARD
100
AcDbAlignedDimension
 13
76.77228502419386
 23
688.0763976003435
 33
0.0
 14
74.24170228456524
 24
665.0988725566839
 34
0.0
 50
90.0
100
AcDbRotatedDimension
1001
ACAD
1000
DSTYLE
1002
{
1070
    79
1070
     3
1002
}
  0
LINE
  5
8571
330
1F
100
AcDbEntity
  8
16
 48
5.0
100
AcDbLine
 10
266.7678248375255
 20
374.2899923675655
 30
0.0
 11
366.355788138494
 21
374.2899923675655
 31
0.0
  0
ENDSEC
  0
SECTION
  2
OBJECTS
  0
DICTIONARY
  5
C
330
0
100
AcDbDictionary
281
     1
  3
ACAD_CIP_PREVIOUS_PRODUCT_INFO
350
850E
  3
ACAD_COLOR
350
59A2
  3
ACAD_DETAILVIEWSTYLE
350
599C
  3
ACAD_GROUP
350
D
  3
ACAD_LAYOUT
350
1A
  3
ACAD_MATERIAL
350
43
  3
ACAD_MLEADERSTYLE
350
599B
  3
ACAD_MLINESTYLE
350
17
  3
ACAD_PLOTSETTINGS
350
19
  3
ACAD_PLOTSTYLENAME
350
E
  3
ACAD_SCALELIST
350
47
  3
ACAD_SECTIONVIEWSTYLE
350
599D
  3
ACAD_TABLESTYLE
350
599A
  3
ACAD_VISUALSTYLE
350
2A
  3
ACDB_RECOMPOSE_DATA
350
85A9
  3
AcDbVariableDictionary
350
5998
  3
AEC_PROPERTY_SET_DEFS
350
65E5
  0
SUN
  5
69
330
29
100
AcDbSun
 90
        1
290
     1
 63
     7
421
 16777215
 40
1.0
291
     1
 91
  2455826
 92
 54000000
292
     0
 70
     0
 71
   256
280
     1
  0
DICTIONARY
  5
5F3B
330
2
100
AcDbDictionary
280
     1
281
     1
  3
ACAD_LAYERSTATES
360
5F3C
  0
DICTIONARY
  5
59A9
330
10
100
AcDbDictionary
280
     1
281
     1
  3
ADSK_XREC_LAYER_RECONCILED
360
59AA
  0
DICTIONARY
  5
59AB
330
71
100
AcDbDictionary
280
     1
281
     1
  3
ADSK_XREC_LAYER_RECONCILED
360
59AC
  0
DICTIONARY
  5
649A
330
6499
100
AcDbDictionary
280
     1
281
     1
  0
DICTIONARY
  5
649C
330
649B
100
AcDbDictionary
280
     1
281
     1
  0
DICTIONARY
  5
649E
330
649D
100
AcDbDictionary
280
     1
281
     1
  0
DICTIONARY
  5
64A0
330
649F
100
AcDbDictionary
280
     1
281
     1
  0
DICTIONARY
  5
64A2
330
64A1
100
AcDbDictionary
280
     1
281
     1
  0
DICTIONARY
  5
7308
330
7307
100
AcDbDictionary
280
     1
281
     1
  0
DICTIONARY
  5
8447
330
8446
100
AcDbDictionary
280
     1
281
     1
  0
DICTIONARY
  5
72CC
330
1F
100
AcDbDictionary
280
     1
281
     1
  3
ACAD_SORTENTS
360
72CD
  0
DICTIONARY
  5
7283
330
7276
100
AcDbDictionary
280
     1
281
     1
  3
ACAD_DIMASSOC
360
728D
  0
DICTIONARY
  5
75CE
330
75C1
100
AcDbDictionary
280
     1
281
     1
  3
ACAD_DIMASSOC
360
75D8
  0
DICTIONARY
  5
8483
330
8476
100
AcDbDictionary
280
     1
281
     1
  3
ACAD_DIMASSOC
360
848D
  0
XRECORD
  5
850E
102
{ACAD_REACTORS
330
C
102
}
330
C
100
AcDbXrecord
280
     1
300
ACDLT
300
2014
300
ACDLT_F_S
  0
DICTIONARY
  5
59A2
102
{ACAD_REACTORS
330
C
102
}
330
C
100
AcDbDictionary
281
     1
  0
DICTIONARY
  5
599C
102
{ACAD_REACTORS
330
C
102
}
330
C
100
AcDbDictionary
281
     1
  3
Metric50
350
8508
  0
DICTIONARY
  5
D
102
{ACAD_REACTORS
330
C
102
}
330
C
100
AcDbDictionary
281
     1
  0
DICTIONARY
  5
1A
102
{ACAD_REACTORS
330
C
102
}
330
C
100
AcDbDictionary
281
     1
  3
Layout1
350
1E
  3
Layout2
350
26
  3
Model
350
22
  0
DICTIONARY
  5
43
102
{ACAD_REACTORS
330
C
102
}
330
C
100
AcDbDictionary
281
     1
  3
ByBlock
350
45
  3
ByLayer
350
44
  3
Global
350
46
  0
DICTIONARY
  5
599B
102
{ACAD_REACTORS
330
C
102
}
330
C
100
AcDbDictionary
281
     1
  3
Standard
350
59A4
  0
DICTIONARY
  5
17
102
{ACAD_REACTORS
330
C
102
}
330
C
100
AcDbDictionary
281
     1
  3
Standard
350
18
  0
DICTIONARY
  5
19
102
{ACAD_REACTORS
330
C
102
}
330
C
100
AcDbDictionary
281
     1
  0
ACDBDICTIONARYWDFLT
  5
E
102
{ACAD_REACTORS
330
C
102
}
330
C
100
AcDbDictionary
281
     1
  3
Normal
350
F
100
AcDbDictionaryWithDefault
340
F
  0
DICTIONARY
  5
47
102
{ACAD_REACTORS
330
C
102
}
330
C
100
AcDbDictionary
281
     1
  3
A0
350
48
  3
A1
350
49
  3
A2
350
4A
  3
A3
350
4B
  3
A4
350
4C
  3
A5
350
4D
  3
A6
350
4E
  3
A7
350
4F
  3
A8
350
50
  3
A9
350
51
  3
B0
350
52
  3
B1
350
53
  3
B2
350
54
  3
B3
350
55
  3
B4
350
56
  3
B5
350
57
  3
B6
350
58
  3
B7
350
59
  3
B8
350
5A
  3
B9
350
5B
  3
C0
350
5C
  3
C1
350
5D
  3
C2
350
5E
  3
C3
350
5F
  3
C4
350
60
  3
C5
350
61
  3
C6
350
62
  3
C7
350
63
  3
C8
350
64
  3
C9
350
65
  3
D0
350
66
  3
D1
350
67
  3
D2
350
68
  0
DICTIONARY
  5
599D
102
{ACAD_REACTORS
330
C
102
}
330
C
100
AcDbDictionary
281
     1
  3
Metric50
350
8507
  0
DICTIONARY
  5
599A
102
{ACAD_REACTORS
330
C
102
}
330
C
100
AcDbDictionary
281
     1
  3
Standard
350
59A3
  0
DICTIONARY
  5
2A
102
{ACAD_REACTORS
330
C
102
}
330
C
100
AcDbDictionary
281
     1
  3
2dWireframe
350
2F
  3
3D Hidden
350
59A1
  3
3dWireframe
350
59A0
  3
Basic
350
32
  3
Brighten
350
36
  3
ColorChange
350
3A
  3
Conceptual
350
34
  3
Dim
350
35
  3
EdgeColorOff
350
3D
  3
Facepattern
350
39
  3
Flat
350
2B
  3
FlatWithEdges
350
2C
  3
Gouraud
350
2D
  3
GouraudWithEdges
350
2E
  3
Hidden
350
31
  3
JitterOff
350
3B
  3
Linepattern
350
38
  3
OverhangOff
350
3C
  3
Realistic
350
33
  3
Shaded
350
42
  3
Shaded with edges
350
41
  3
Shades of Gray
350
3E
  3
Sketchy
350
3F
  3
Thicken
350
37
  3
Wireframe
350
30
  3
X-Ray
350
40
  0
XRECORD
  5
85A9
102
{ACAD_REACTORS
330
C
102
}
330
C
100
AcDbXrecord
280
     1
 90
        1
330
59A3
330
8507
330
8508
  0
DICTIONARY
  5
5998
102
{ACAD_REACTORS
330
C
102
}
330
C
100
AcDbDictionary
281
     1
  3
CANNOSCALE
350
5999
  3
CMLEADERSTYLE
350
59B4
  3
CTABLESTYLE
350
59B3
  3
CVIEWDETAILSTYLE
350
852E
  3
CVIEWSECTIONSTYLE
350
852F
  3
LAYEREVAL
350
59B5
  3
LAYERNOTIFY
350
59B6
  0
DICTIONARY
  5
65E5
102
{ACAD_REACTORS
330
C
102
}
330
C
100
AcDbDictionary
281
     1
  0
DICTIONARY
  5
5F3C
102
{ACAD_REACTORS
330
5F3B
102
}
330
5F3B
100
AcDbDictionary
281
     1
  0
XRECORD
  5
59AA
102
{ACAD_REACTORS
330
59A9
102
}
330
59A9
100
AcDbXrecord
280
     1
290
     1
  0
XRECORD
  5
59AC
102
{ACAD_REACTORS
330
59AB
102
}
330
59AB
100
AcDbXrecord
280
     1
290
     1
  0
SORTENTSTABLE
  5
72CD
102
{ACAD_REACTORS
330
72CC
102
}
330
72CC
100
AcDbSortentsTable
330
1F
331
73EE
  5
784B
331
6668
  5
6669
331
66E0
  5
66EC
331
66DD
  5
66E3
331
6678
  5
6679
331
6707
  5
671A
331
6631
  5
6631
331
6639
  5
6639
331
7351
  5
7433
331
6716
  5
734E
331
6626
  5
6626
331
6666
  5
6667
331
75C1
  5
7DFC
331
66C8
  5
66CE
331
6676
  5
6677
331
66D0
  5
66D5
331
6669
  5
666A
331
66E1
  5
66EE
331
73EF
  5
784C
331
6679
  5
667A
331
7276
  5
73EE
331
6700
  5
6716
331
66FF
  5
6714
331
66B1
  5
66B2
331
6708
  5
671B
331
6717
  5
734F
331
66B9
  5
66BA
331
6627
  5
6627
331
664A
  5
664A
331
6667
  5
6668
331
66C9
  5
66CF
331
6677
  5
6678
331
66D1
  5
66D9
331
666A
  5
666B
331
66E2
  5
66EF
331
66DF
  5
66E5
331
667A
  5
66AB
331
6701
  5
6718
331
6710
  5
6DC1
331
66B2
  5
66B3
331
6633
  5
6633
331
7590
  5
7D06
331
6620
  5
6620
331
663B
  5
663B
331
66BA
  5
66BB
331
6709
  5
671C
331
671C
  5
73EB
331
664B
  5
664B
331
7433
  5
7A34
331
6653
  5
6654
331
7A30
  5
7414
331
6670
  5
6671
331
66D2
  5
66DA
331
73E9
  5
7583
331
665B
  5
665D
331
666B
  5
666C
331
66E3
  5
66FF
331
7581
  5
7A35
331
66F9
  5
670B
331
662C
  5
662C
331
6702
  5
6719
331
6634
  5
6634
331
66B3
  5
66B4
331
66BB
  5
66BC
331
670A
  5
671D
331
671D
  5
73ED
331
7354
  5
7454
331
6621
  5
6621
331
66C3
  5
66C8
331
6671
  5
6672
331
6654
  5
6655
331
66CB
  5
66D0
331
73EA
  5
7585
331
66D9
  5
66DE
331
66D3
  5
66DB
331
666C
  5
666D
331
7E01
  5
66C7
331
7AA4
  5
7E02
331
662D
  5
662D
331
66FA
  5
670C
331
6712
  5
6DC2
331
66B4
  5
66B5
331
6635
  5
6635
331
6622
  5
6622
331
7355
  5
7455
331
66BC
  5
66BD
331
66C4
  5
66C9
331
66CC
  5
66D1
331
734B
  5
73F1
331
6672
  5
6673
331
66DA
  5
66E0
331
66D4
  5
66DC
331
7414
  5
7A33
331
73EB
  5
7590
331
665D
  5
665E
331
666D
  5
666E
331
7583
  5
7AA4
331
66FB
  5
6710
331
73F0
  5
784E
331
7D05
  5
7E03
331
66B5
  5
66B6
331
66BD
  5
66BE
331
7356
  5
7581
331
6623
  5
6623
331
6663
  5
6664
331
66C5
  5
66CA
331
664E
  5
664F
331
6673
  5
6674
331
66CD
  5
66D2
331
73EC
  5
75C1
331
665E
  5
665F
331
6646
  5
6646
331
66DB
  5
66E1
331
66ED
  5
6708
331
666E
  5
666F
331
66FC
  5
6711
331
7D06
  5
7E04
331
73F1
  5
784F
331
662F
  5
662F
331
66B6
  5
66B9
331
6718
  5
7350
331
663F
  5
663F
331
6624
  5
6624
331
6664
  5
6665
331
664F
  5
6650
331
66C6
  5
66CC
331
7A34
  5
7E00
331
6674
  5
6675
331
7DFC
  5
6701
331
66DC
  5
66E2
331
66D6
  5
66DD
331
73ED
  5
75FA
331
665F
  5
6660
331
666F
  5
6670
331
757D
  5
6700
331
7585
  5
7D05
331
6628
  5
6628
331
6630
  5
6630
331
6719
  5
73EA
331
6715
  5
734C
331
78BD
  5
7DFF
331
6665
  5
6666
331
66C7
  5
66CD
331
6650
  5
6651
331
6658
  5
6659
331
7A35
  5
7E01
331
6675
  5
6676
  0
DIMASSOC
  5
728D
102
{ACAD_REACTORS
330
7283
102
}
330
7283
100
AcDbDimAssoc
330
7276
 90
        1
 70
     0
 71
     0
  1
AcDbOsnapPointRef
 72
     1
331
6708
 73
     2
 91
        0
 40
1.0
 10
0.0
 20
0.0
 30
2.000000000000000E+50
 75
     0
  0
DIMASSOC
  5
75D8
102
{ACAD_REACTORS
330
75CE
102
}
330
75CE
100
AcDbDimAssoc
330
75C1
 90
        3
 70
     0
 71
     0
  1
AcDbOsnapPointRef
 72
     1
331
667A
 73
     2
 91
        3
 40
1.0
 10
0.0
 20
0.0
 30
2.000000000000000E+50
 75
     0
  1
AcDbOsnapPointRef
 72
     1
331
667A
 73
     2
 91
        2
 40
1.0
 10
0.0
 20
0.0
 30
2.000000000000000E+50
 75
     0
  0
DIMASSOC
  5
848D
102
{ACAD_REACTORS
330
8483
102
}
330
8483
100
AcDbDimAssoc
330
8476
 90
        1
 70
     0
 71
     0
  1
AcDbOsnapPointRef
 72
     6
331
7590
 73
     2
 91
        0
 40
0.8269280169263863
 10
0.0
 20
0.0
 30
0.0
332
7DFC
 74
     2
 92
        3
 75
     0
  0
ACDBDETAILVIEWSTYLE
  5
8508
102
{ACAD_XDICTIONARY
360
8533
102
}
102
{ACAD_REACTORS
330
599C
102
}
330
599C
100
AcDbModelDocViewStyle
 70
     0
  3
Metric50
290
     0
100
AcDbDetailViewStyle
 70
     0
 71
     0
 90
        3
 71
     1
340
11
 62
   256
 40
5.0
340
0
 62
   256
 40
5.0
300

 40
0.0
280
     1
 71
     2
340
16
 90
       25
 62
   256
 71
     3
340
11
 62
   256
 40
5.0
 90
        0
 40
15.0
 90
        1
300
%<\AcVar ViewDetailId>% (%<\AcVar ViewScale \f "%sn">%)
 71
     4
340
16
 90
       25
 62
   256
340
16
 90
       25
 62
   256
280
     0
  0
LAYOUT
  5
1E
102
{ACAD_REACTORS
330
1A
102
}
330
1A
100
AcDbPlotSettings
  1

  2
none_device
  4

  6

 40
0.0
 41
0.0
 42
0.0
 43
0.0
 44
0.0
 45
0.0
 46
0.0
 47
0.0
 48
0.0
 49
0.0
140
0.0
141
0.0
142
1.0
143
1.0
 70
   688
 72
     1
 73
     0
 74
     5
  7
monochrome.ctb
 75
    16
147
1.0
 76
     0
 77
     2
 78
   300
148
0.0
149
0.0
100
AcDbLayout
  1
Layout1
 70
     1
 71
     1
 10
0.0
 20
0.0
 11
420.0
 21
297.0
 12
0.0
 22
0.0
 32
0.0
 14
1.000000000000000E+20
 24
1.000000000000000E+20
 34
1.000000000000000E+20
 15
-1.000000000000000E+20
 25
-1.000000000000000E+20
 35
-1.000000000000000E+20
146
0.0
 13
0.0
 23
0.0
 33
0.0
 16
1.0
 26
0.0
 36
0.0
 17
0.0
 27
1.0
 37
0.0
 76
     0
330
1B
  0
LAYOUT
  5
26
102
{ACAD_REACTORS
330
1A
102
}
330
1A
100
AcDbPlotSettings
  1

  2
none_device
  4

  6

 40
0.0
 41
0.0
 42
0.0
 43
0.0
 44
0.0
 45
0.0
 46
0.0
 47
0.0
 48
0.0
 49
0.0
140
0.0
141
0.0
142
1.0
143
1.0
 70
   688
 72
     1
 73
     0
 74
     5
  7
monochrome.ctb
 75
    16
147
1.0
 76
     0
 77
     2
 78
   300
148
0.0
149
0.0
100
AcDbLayout
  1
Layout2
 70
     1
 71
     2
 10
0.0
 20
0.0
 11
0.0
 21
0.0
 12
0.0
 22
0.0
 32
0.0
 14
0.0
 24
0.0
 34
0.0
 15
0.0
 25
0.0
 35
0.0
146
0.0
 13
0.0
 23
0.0
 33
0.0
 16
1.0
 26
0.0
 36
0.0
 17
0.0
 27
1.0
 37
0.0
 76
     0
330
23
  0
LAYOUT
  5
22
102
{ACAD_XDICTIONARY
360
5F41
102
}
102
{ACAD_REACTORS
330
1A
102
}
330
1A
100
AcDbPlotSettings
  1

  2
none_device
  4
Letter_(8.50_x_11.00_Inches)
  6

 40
6.349999999999997
 41
6.349999999999997
 42
6.350005079999997
 43
6.350005079999997
 44
215.9
 45
279.4
 46
0.0
 47
0.0
 48
0.0
 49
0.0
140
0.0
141
0.0
142
1.0
143
1.0
 70
  1712
 72
     1
 73
     0
 74
     0
  7
monochrome.ctb
 75
     0
147
1.0
 76
     0
 77
     2
 78
   300
148
0.0
149
0.0
100
AcDbLayout
  1
Model
 70
     1
 71
     0
 10
0.0
 20
0.0
 11
594.0
 21
420.0
 12
0.0
 22
0.0
 32
0.0
 14
0.0
 24
0.0
 34
0.0
 15
594.0
 25
420.0
 35
0.0
146
0.0
 13
0.0
 23
0.0
 33
0.0
 16
1.0
 26
0.0
 36
0.0
 17
0.0
 27
1.0
 37
0.0
 76
     0
330
1F
331
29
  0
MATERIAL
  5
45
102
{ACAD_REACTORS
330
43
102
}
330
43
100
AcDbMaterial
  1
ByBlock
  0
MATERIAL
  5
44
102
{ACAD_REACTORS
330
43
102
}
330
43
100
AcDbMaterial
  1
ByLayer
  0
MATERIAL
  5
46
102
{ACAD_REACTORS
330
43
102
}
330
43
100
AcDbMaterial
  1
Global
  0
MLEADERSTYLE
  5
59A4
102
{ACAD_REACTORS
330
599B
102
}
330
599B
100
AcDbMLeaderStyle
179
     2
170
     2
171
     1
172
     0
 90
        2
 40
0.0
 41
0.0
173
     1
 91
-1056964608
340
14
 92
       -2
290
     1
 42
2.0
291
     1
 43
0.36
  3
Standard
 44
4.0
300

342
11
174
     1
178
     6
175
     1
176
     0
 93
-1056964608
 45
4.0
292
     0
297
     0
 46
4.0
 94
-1056964608
 47
1.0
 49
1.0
140
1.0
293
     1
141
0.0
294
     1
177
     0
142
1.0
295
     0
296
     0
143
0.125
271
     0
272
     9
273
     9
298
     0
  0
MLINESTYLE
  5
18
102
{ACAD_REACTORS
330
17
102
}
330
17
100
AcDbMlineStyle
  2
STANDARD
 70
     0
  3

 62
   256
 51
90.0
 52
90.0
 71
     2
 49
0.5
 62
   256
  6
BYLAYER
 49
-0.5
 62
   256
  6
BYLAYER
  0
ACDBPLACEHOLDER
  5
F
102
{ACAD_REACTORS
330
E
102
}
330
E
  0
SCALE
  5
48
102
{ACAD_REACTORS
330
47
102
}
330
47
100
AcDbScale
 70
     0
300
1:1
140
1.0
141
1.0
290
     1
  0
SCALE
  5
49
102
{ACAD_REACTORS
330
47
102
}
330
47
100
AcDbScale
 70
     0
300
1:2
140
1.0
141
2.0
290
     0
  0
SCALE
  5
4A
102
{ACAD_REACTORS
330
47
102
}
330
47
100
AcDbScale
 70
     0
300
1:4
140
1.0
141
4.0
290
     0
  0
SCALE
  5
4B
102
{ACAD_REACTORS
330
47
102
}
330
47
100
AcDbScale
 70
     0
300
1:5
140
1.0
141
5.0
290
     0
  0
SCALE
  5
4C
102
{ACAD_REACTORS
330
47
102
}
330
47
100
AcDbScale
 70
     0
300
1:8
140
1.0
141
8.0
290
     0
  0
SCALE
  5
4D
102
{ACAD_REACTORS
330
47
102
}
330
47
100
AcDbScale
 70
     0
300
1:10
140
1.0
141
10.0
290
     0
  0
SCALE
  5
4E
102
{ACAD_REACTORS
330
47
102
}
330
47
100
AcDbScale
 70
     0
300
1:16
140
1.0
141
16.0
290
     0
  0
SCALE
  5
4F
102
{ACAD_REACTORS
330
47
102
}
330
47
100
AcDbScale
 70
     0
300
1:20
140
1.0
141
20.0
290
     0
  0
SCALE
  5
50
102
{ACAD_REACTORS
330
47
102
}
330
47
100
AcDbScale
 70
     0
300
1:30
140
1.0
141
30.0
290
     0
  0
SCALE
  5
51
102
{ACAD_REACTORS
330
47
102
}
330
47
100
AcDbScale
 70
     0
300
1:40
140
1.0
141
40.0
290
     0
  0
SCALE
  5
52
102
{ACAD_REACTORS
330
47
102
}
330
47
100
AcDbScale
 70
     0
300
1:50
140
1.0
141
50.0
290
     0
  0
SCALE
  5
53
102
{ACAD_REACTORS
330
47
102
}
330
47
100
AcDbScale
 70
     0
300
1:100
140
1.0
141
100.0
290
     0
  0
SCALE
  5
54
102
{ACAD_REACTORS
330
47
102
}
330
47
100
AcDbScale
 70
     0
300
2:1
140
2.0
141
1.0
290
     0
  0
SCALE
  5
55
102
{ACAD_REACTORS
330
47
102
}
330
47
100
AcDbScale
 70
     0
300
4:1
140
4.0
141
1.0
290
     0
  0
SCALE
  5
56
102
{ACAD_REACTORS
330
47
102
}
330
47
100
AcDbScale
 70
     0
300
8:1
140
8.0
141
1.0
290
     0
  0
SCALE
  5
57
102
{ACAD_REACTORS
330
47
102
}
330
47
100
AcDbScale
 70
     0
300
10:1
140
10.0
141
1.0
290
     0
  0
SCALE
  5
58
102
{ACAD_REACTORS
330
47
102
}
330
47
100
AcDbScale
 70
     0
300
100:1
140
100.0
141
1.0
290
     0
  0
SCALE
  5
59
102
{ACAD_REACTORS
330
47
102
}
330
47
100
AcDbScale
 70
     0
300
1/128" = 1'-0"
140
0.0078125
141
12.0
290
     0
  0
SCALE
  5
5A
102
{ACAD_REACTORS
330
47
102
}
330
47
100
AcDbScale
 70
     0
300
1/64" = 1'-0"
140
0.015625
141
12.0
290
     0
  0
SCALE
  5
5B
102
{ACAD_REACTORS
330
47
102
}
330
47
100
AcDbScale
 70
     0
300
1/32" = 1'-0"
140
0.03125
141
12.0
290
     0
  0
SCALE
  5
5C
102
{ACAD_REACTORS
330
47
102
}
330
47
100
AcDbScale
 70
     0
300
1/16" = 1'-0"
140
0.0625
141
12.0
290
     0
  0
SCALE
  5
5D
102
{ACAD_REACTORS
330
47
102
}
330
47
100
AcDbScale
 70
     0
300
3/32" = 1'-0"
140
0.09375
141
12.0
290
     0
  0
SCALE
  5
5E
102
{ACAD_REACTORS
330
47
102
}
330
47
100
AcDbScale
 70
     0
300
1/8" = 1'-0"
140
0.125
141
12.0
290
     0
  0
SCALE
  5
5F
102
{ACAD_REACTORS
330
47
102
}
330
47
100
AcDbScale
 70
     0
300
3/16" = 1'-0"
140
0.1875
141
12.0
290
     0
  0
SCALE
  5
60
102
{ACAD_REACTORS
330
47
102
}
330
47
100
AcDbScale
 70
     0
300
1/4" = 1'-0"
140
0.25
141
12.0
290
     0
  0
SCALE
  5
61
102
{ACAD_REACTORS
330
47
102
}
330
47
100
AcDbScale
 70
     0
300
3/8" = 1'-0"
140
0.375
141
12.0
290
     0
  0
SCALE
  5
62
102
{ACAD_REACTORS
330
47
102
}
330
47
100
AcDbScale
 70
     0
300
1/2" = 1'-0"
140
0.5
141
12.0
290
     0
  0
SCALE
  5
63
102
{ACAD_REACTORS
330
47
102
}
330
47
100
AcDbScale
 70
     0
300
3/4" = 1'-0"
140
0.75
141
12.0
290
     0
  0
SCALE
  5
64
102
{ACAD_REACTORS
330
47
102
}
330
47
100
AcDbScale
 70
     0
300
1" = 1'-0"
140
1.0
141
12.0
290
     0
  0
SCALE
  5
65
102
{ACAD_REACTORS
330
47
102
}
330
47
100
AcDbScale
 70
     0
300
1-1/2" = 1'-0"
140
1.5
141
12.0
290
     0
  0
SCALE
  5
66
102
{ACAD_REACTORS
330
47
102
}
330
47
100
AcDbScale
 70
     0
300
3" = 1'-0"
140
3.0
141
12.0
290
     0
  0
SCALE
  5
67
102
{ACAD_REACTORS
330
47
102
}
330
47
100
AcDbScale
 70
     0
300
6" = 1'-0"
140
6.0
141
12.0
290
     0
  0
SCALE
  5
68
102
{ACAD_REACTORS
330
47
102
}
330
47
100
AcDbScale
 70
     0
300
1'-0" = 1'-0"
140
12.0
141
12.0
290
     0
  0
ACDBSECTIONVIEWSTYLE
  5
8507
102
{ACAD_XDICTIONARY
360
8531
102
}
102
{ACAD_REACTORS
330
599D
102
}
330
599D
100
AcDbModelDocViewStyle
 70
     0
  3
Metric50
290
     0
100
AcDbSectionViewStyle
 70
     0
 71
     0
 90
      102
 71
     1
340
11
 62
   256
 40
5.0
340
0
340
0
 62
   256
 40
5.0
300
I, O, Q, S, X, Z
 40
10.0
 90
        0
 40
2.5
 90
        0
 71
     2
340
16
 90
       25
 62
   256
340
16
 90
       50
 62
   256
 40
5.0
 40
2.5
 40
5.0
 71
     3
340
11
 62
   256
 40
5.0
 90
        0
 40
15.0
 90
        1
300
%<\AcVar ViewSectionStartId>%-%<\AcVar ViewSectionEndId>% (%<\AcVar ViewScale \f "%sn">%)
 71
     4
 62
   256
 62
   257
300
ANSI31
 40
1.0
 90
        0
290
     0
290
     0
 90
        6
 40
0.0
 40
1.570796326794896
 40
0.2617993877991494
 40
1.308996938995747
 40
-0.2617993877991494
 40
1.832595714594044
  0
TABLESTYLE
  5
59A3
102
{ACAD_XDICTIONARY
360
8502
102
}
102
{ACAD_REACTORS
330
599A
102
}
330
599A
100
AcDbTableStyle
280
     0
  3
Standard
 70
     0
 71
     0
 40
1.5
 41
1.5
280
     0
281
     0
  7
STANDARD
140
4.5
170
     2
 62
     0
 63
     7
283
     0
 90
      512
 91
        0
  1

274
    -2
284
     1
 64
     0
275
    -2
285
     1
 65
     0
276
    -2
286
     1
 66
     0
277
    -2
287
     1
 67
     0
278
    -2
288
     1
 68
     0
279
    -2
289
     1
 69
     0
  7
STANDARD
140
6.0
170
     5
 62
     0
 63
     7
283
     0
 90
      512
 91
        0
  1

274
    -2
284
     1
 64
     0
275
    -2
285
     1
 65
     0
276
    -2
286
     1
 66
     0
277
    -2
287
     1
 67
     0
278
    -2
288
     1
 68
     0
279
    -2
289
     1
 69
     0
  7
STANDARD
140
4.5
170
     5
 62
     0
 63
     7
283
     0
 90
      512
 91
        0
  1

274
    -2
284
     1
 64
     0
275
    -2
285
     1
 65
     0
276
    -2
286
     1
 66
     0
277
    -2
287
     1
 67
     0
278
    -2
288
     1
 68
     0
279
    -2
289
     1
 69
     0
  0
VISUALSTYLE
  5
2F
102
{ACAD_REACTORS
330
2A
102
}
330
2A
100
AcDbVisualStyle
  2

 70
     4
177
     3
291
     0
 70
    58
 90
        0
176
     1
 90
        2
176
     1
 90
        0
176
     1
 90
        0
176
     1
 40
0.6
176
     1
 40
30.0
176
     1
 62
     7
420
 16777215
176
     1
 90
        1
176
     1
 90
        4
176
     1
 62
     7
176
     1
 62
   257
176
     1
 90
        1
176
     1
 90
        1
176
     1
 40
1.0
176
     1
 90
        0
176
     1
 62
   257
176
     1
 40
1.0
176
     1
 90
        1
176
     1
 90
        6
176
     1
 90
        2
176
     1
 62
     7
176
     1
 90
        5
176
     1
 90
        0
176
     1
 90
        0
176
     1
290
     0
176
     1
 90
        1
176
     1
 40
0.0
176
     1
 90
        0
176
     1
290
     1
176
     1
290
     1
176
     1
290
     0
176
     1
290
     0
176
     1
290
     0
176
     1
290
     0
176
     1
290
     0
176
     1
290
     0
176
     1
290
     0
176
     1
 90
       50
176
     1
 40
0.0
176
     1
 40
1.0
176
     1
 90
        0
176
     1
 62
    18
176
     1
 90
       50
176
     1
 90
        3
176
     1
 62
     5
420
      255
176
     1
290
     0
176
     1
 90
       50
176
     1
 90
       50
176
     1
 90
       50
176
     1
290
     0
176
     1
 90
       50
176
     1
 62
   256
176
     0
 40
1.0
176
     0
 90
        2
176
     1
  1
strokes_ogs.tif
176
     1
290
     0
176
     1
 40
1.0
176
     1
 40
1.0
176
     1
  0
VISUALSTYLE
  5
59A1
102
{ACAD_REACTORS
330
2A
102
}
330
2A
100
AcDbVisualStyle
  2
3D Hidden
 70
     6
177
     3
291
     0
 70
    58
 90
        1
176
     1
 90
        2
176
     1
 90
        2
176
     1
 90
        0
176
     1
 40
0.6
176
     1
 40
30.0
176
     1
 62
     7
420
 16777215
176
     1
 90
        2
176
     1
 90
        2
176
     1
 62
     7
176
     1
 62
   257
176
     1
 90
        2
176
     1
 90
        1
176
     1
 40
179.0
176
     1
 90
        0
176
     1
 62
   257
176
     1
 40
1.0
176
     1
 90
        1
176
     1
 90
        6
176
     1
 90
        2
176
     1
 62
     7
176
     1
 90
        3
176
     1
 90
        0
176
     1
 90
        0
176
     1
290
     0
176
     1
 90
        1
176
     1
 40
0.0
176
     1
 90
        0
176
     1
290
     0
176
     1
290
     1
176
     1
290
     1
176
     1
290
     0
176
     1
290
     0
176
     1
290
     0
176
     1
290
     0
176
     1
290
     0
176
     1
290
     0
176
     1
 90
       50
176
     1
 40
0.0
176
     1
 40
1.0
176
     1
 90
        0
176
     1
 62
    18
176
     1
 90
       50
176
     1
 90
        3
176
     1
 62
     5
420
      255
176
     1
290
     0
176
     1
 90
       50
176
     1
 90
       50
176
     1
 90
       50
176
     1
290
     0
176
     1
 90
       50
176
     1
 62
   256
176
     0
 40
1.0
176
     0
 90
        2
176
     1
  1
strokes_ogs.tif
176
     1
290
     0
176
     1
 40
1.0
176
     1
 40
1.0
176
     1
  0
VISUALSTYLE
  5
59A0
102
{ACAD_REACTORS
330
2A
102
}
330
2A
100
AcDbVisualStyle
  2
3dWireframe
 70
     5
177
     3
291
     0
 70
    58
 90
        0
176
     1
 90
        2
176
     1
 90
        0
176
     1
 90
        0
176
     1
 40
0.6
176
     1
 40
30.0
176
     1
 62
     7
420
 16777215
176
     1
 90
        1
176
     1
 90
        4
176
     1
 62
     7
176
     1
 62
   257
176
     1
 90
        1
176
     1
 90
        1
176
     1
 40
1.0
176
     1
 90
        0
176
     1
 62
   257
176
     1
 40
1.0
176
     1
 90
        1
176
     1
 90
        6
176
     1
 90
        2
176
     1
 62
     7
176
     1
 90
        5
176
     1
 90
        0
176
     1
 90
        0
176
     1
290
     0
176
     1
 90
        1
176
     1
 40
0.0
176
     1
 90
        0
176
     1
290
     0
176
     1
290
     1
176
     1
290
     1
176
     1
290
     0
176
     1
290
     0
176
     1
290
     0
176
     1
290
     0
176
     1
290
     0
176
     1
290
     0
176
     1
 90
       50
176
     1
 40
0.0
176
     1
 40
1.0
176
     1
 90
        0
176
     1
 62
    18
176
     1
 90
       50
176
     1
 90
        3
176
     1
 62
     5
420
      255
176
     1
290
     0
176
     1
 90
       50
176
     1
 90
       50
176
     1
 90
       50
176
     1
290
     0
176
     1
 90
       50
176
     1
 62
   256
176
     0
 40
1.0
176
     0
 90
        2
176
     1
  1
strokes_ogs.tif
176
     1
290
     0
176
     1
 40
1.0
176
     1
 40
1.0
176
     1
  0
VISUALSTYLE
  5
32
102
{ACAD_REACTORS
330
2A
102
}
330
2A
100
AcDbVisualStyle
  2

 70
     7
177
     3
291
     1
 70
    58
 90
        1
176
     1
 90
        0
176
     1
 90
        1
176
     1
 90
        0
176
     1
 40
0.6
176
     1
 40
30.0
176
     1
 62
     7
420
 16777215
176
     1
 90
        0
176
     1
 90
        4
176
     1
 62
     7
176
     1
 62
   257
176
     1
 90
        1
176
     1
 90
        1
176
     1
 40
1.0
176
     1
 90
        8
176
     1
 62
     7
176
     1
 40
1.0
176
     1
 90
        1
176
     1
 90
        6
176
     1
 90
        2
176
     1
 62
     7
176
     1
 90
        5
176
     1
 90
        0
176
     1
 90
        0
176
     1
290
     0
176
     1
 90
        1
176
     1
 40
0.0
176
     1
 90
        0
176
     1
290
     0
176
     1
290
     1
176
     1
290
     1
176
     1
290
     0
176
     1
290
     0
176
     1
290
     0
176
     1
290
     0
176
     1
290
     0
176
     1
290
     0
176
     1
 90
       50
176
     1
 40
0.0
176
     1
 40
1.0
176
     1
 90
        0
176
     1
 62
    18
176
     1
 90
       50
176
     1
 90
        3
176
     1
 62
     5
420
      255
176
     1
290
     0
176
     1
 90
       50
176
     1
 90
       50
176
     1
 90
       50
176
     1
290
     0
176
     1
 90
       50
176
     1
 62
   256
176
     0
 40
1.0
176
     0
 90
        2
176
     1
  1
strokes_ogs.tif
176
     1
290
     0
176
     1
 40
1.0
176
     1
 40
1.0
176
     1
  0
VISUALSTYLE
  5
36
102
{ACAD_REACTORS
330
2A
102
}
330
2A
100
AcDbVisualStyle
  2

 70
    12
177
     3
291
     1
 70
    58
 90
        2
176
     1
 90
        2
176
     1
 90
        0
176
     1
 90
        0
176
     1
 40
0.6
176
     1
 40
30.0
176
     1
 62
     7
420
 16777215
176
     1
 90
        1
176
     1
 90
        4
176
     1
 62
     7
176
     1
 62
   257
176
     1
 90
        1
176
     1
 90
        1
176
     1
 40
1.0
176
     1
 90
        8
176
     1
 62
     7
176
     1
 40
1.0
176
     1
 90
        1
176
     1
 90
        6
176
     1
 90
        2
176
     1
 62
     7
176
     1
 90
        5
176
     1
 90
        0
176
     1
 90
        0
176
     1
290
     0
176
     1
 90
        1
176
     1
 40
50.0
176
     1
 90
        0
176
     1
290
     0
176
     1
290
     1
176
     1
290
     1
176
     1
290
     0
176
     1
290
     0
176
     1
290
     0
176
     1
290
     0
176
     1
290
     0
176
     1
290
     0
176
     1
 90
       50
176
     1
 40
0.0
176
     1
 40
1.0
176
     1
 90
        0
176
     1
 62
    18
176
     1
 90
       50
176
     1
 90
        3
176
     1
 62
     5
420
      255
176
     1
290
     0
176
     1
 90
       50
176
     1
 90
       50
176
     1
 90
       50
176
     1
290
     0
176
     1
 90
       50
176
     1
 62
   256
176
     0
 40
1.0
176
     0
 90
        2
176
     1
  1
strokes_ogs.tif
176
     1
290
     0
176
     1
 40
1.0
176
     1
 40
1.0
176
     1
  0
VISUALSTYLE
  5
3A
102
{ACAD_REACTORS
330
2A
102
}
330
2A
100
AcDbVisualStyle
  2

 70
    16
177
     3
291
     1
 70
    58
 90
        2
176
     1
 90
        2
176
     1
 90
        3
176
     1
 90
        0
176
     1
 40
0.6
176
     1
 40
30.0
176
     1
 62
     8
420
  8421504
176
     1
 90
        1
176
     1
 90
        4
176
     1
 62
     7
176
     1
 62
   257
176
     1
 90
        1
176
     1
 90
        1
176
     1
 40
1.0
176
     1
 90
        8
176
     1
 62
     8
420
  8421504
176
     1
 40
1.0
176
     1
 90
        1
176
     1
 90
        6
176
     1
 90
        2
176
     1
 62
     7
176
     1
 90
        5
176
     1
 90
        0
176
     1
 90
        0
176
     1
290
     0
176
     1
 90
        1
176
     1
 40
0.0
176
     1
 90
        0
176
     1
290
     0
176
     1
290
     1
176
     1
290
     1
176
     1
290
     0
176
     1
290
     0
176
     1
290
     0
176
     1
290
     0
176
     1
290
     0
176
     1
290
     0
176
     1
 90
       50
176
     1
 40
0.0
176
     1
 40
1.0
176
     1
 90
        0
176
     1
 62
    18
176
     1
 90
       50
176
     1
 90
        3
176
     1
 62
     5
420
      255
176
     1
290
     0
176
     1
 90
       50
176
     1
 90
       50
176
     1
 90
       50
176
     1
290
     0
176
     1
 90
       50
176
     1
 62
   256
176
     0
 40
1.0
176
     0
 90
        2
176
     1
  1
strokes_ogs.tif
176
     1
290
     0
176
     1
 40
1.0
176
     1
 40
1.0
176
     1
  0
VISUALSTYLE
  5
34
102
{ACAD_REACTORS
330
2A
102
}
330
2A
100
AcDbVisualStyle
  2

 70
     9
177
     3
291
     0
 70
    58
 90
        3
176
     1
 90
        2
176
     1
 90
        0
176
     1
 90
        0
176
     1
 40
0.6
176
     1
 40
30.0
176
     1
 62
     7
420
 16777215
176
     1
 90
        2
176
     1
 90
        2
176
     1
 62
     7
176
     1
 62
   257
176
     1
 90
        1
176
     1
 90
        1
176
     1
 40
179.0
176
     1
 90
        8
176
     1
 62
     7
176
     1
 40
1.0
176
     1
 90
        1
176
     1
 90
        6
176
     1
 90
        2
176
     1
 62
     7
176
     1
 90
        3
176
     1
 90
        0
176
     1
 90
        0
176
     1
290
     0
176
     1
 90
        1
176
     1
 40
0.0
176
     1
 90
        0
176
     1
290
     0
176
     1
290
     1
176
     1
290
     1
176
     1
290
     0
176
     1
290
     0
176
     1
290
     0
176
     1
290
     0
176
     1
290
     0
176
     1
290
     0
176
     1
 90
       50
176
     1
 40
0.0
176
     1
 40
1.0
176
     1
 90
        0
176
     1
 62
    18
176
     1
 90
       50
176
     1
 90
        3
176
     1
 62
     5
420
      255
176
     1
290
     0
176
     1
 90
       50
176
     1
 90
       50
176
     1
 90
       50
176
     1
290
     0
176
     1
 90
       50
176
     1
 62
   256
176
     0
 40
1.0
176
     0
 90
        2
176
     1
  1
strokes_ogs.tif
176
     1
290
     0
176
     1
 40
1.0
176
     1
 40
1.0
176
     1
  0
VISUALSTYLE
  5
35
102
{ACAD_REACTORS
330
2A
102
}
330
2A
100
AcDbVisualStyle
  2

 70
    11
177
     3
291
     1
 70
    58
 90
        2
176
     1
 90
        2
176
     1
 90
        0
176
     1
 90
        0
176
     1
 40
0.6
176
     1
 40
30.0
176
     1
 62
     7
420
 16777215
176
     1
 90
        1
176
     1
 90
        4
176
     1
 62
     7
176
     1
 62
   257
176
     1
 90
        1
176
     1
 90
        1
176
     1
 40
1.0
176
     1
 90
        8
176
     1
 62
     7
176
     1
 40
1.0
176
     1
 90
        1
176
     1
 90
        6
176
     1
 90
        2
176
     1
 62
     7
176
     1
 90
        5
176
     1
 90
        0
176
     1
 90
        0
176
     1
290
     0
176
     1
 90
        1
176
     1
 40
-50.0
176
     1
 90
        0
176
     1
290
     0
176
     1
290
     1
176
     1
290
     1
176
     1
290
     0
176
     1
290
     0
176
     1
290
     0
176
     1
290
     0
176
     1
290
     0
176
     1
290
     0
176
     1
 90
       50
176
     1
 40
0.0
176
     1
 40
1.0
176
     1
 90
        0
176
     1
 62
    18
176
     1
 90
       50
176
     1
 90
        3
176
     1
 62
     5
420
      255
176
     1
290
     0
176
     1
 90
       50
176
     1
 90
       50
176
     1
 90
       50
176
     1
290
     0
176
     1
 90
       50
176
     1
 62
   256
176
     0
 40
1.0
176
     0
 90
        2
176
     1
  1
strokes_ogs.tif
176
     1
290
     0
176
     1
 40
1.0
176
     1
 40
1.0
176
     1
  0
VISUALSTYLE
  5
3D
102
{ACAD_REACTORS
330
2A
102
}
330
2A
100
AcDbVisualStyle
  2

 70
    22
177
     3
291
     1
 70
    58
 90
        2
176
     1
 90
        2
176
     1
 90
        0
176
     1
 90
        0
176
     1
 40
0.6
176
     1
 40
30.0
176
     1
 62
     7
420
 16777215
176
     1
 90
        1
176
     1
 90
        4
176
     1
 62
     7
176
     1
 62
   257
176
     1
 90
        1
176
     1
 90
        1
176
     1
 40
1.0
176
     1
 90
        8
176
     1
 62
     7
176
     1
 40
1.0
176
     1
 90
        1
176
     1
 90
        6
176
     1
 90
        2
176
     1
 62
     7
176
     1
 90
        5
176
     1
 90
        0
176
     1
 90
        0
176
     1
290
     0
176
     1
 90
        1
176
     1
 40
0.0
176
     1
 90
        0
176
     1
290
     0
176
     1
290
     1
176
     1
290
     1
176
     1
290
     0
176
     1
290
     0
176
     1
290
     0
176
     1
290
     0
176
     1
290
     0
176
     1
290
     0
176
     1
 90
       50
176
     1
 40
0.0
176
     1
 40
1.0
176
     1
 90
        0
176
     1
 62
    18
176
     1
 90
       50
176
     1
 90
        3
176
     1
 62
     5
420
      255
176
     1
290
     0
176
     1
 90
       50
176
     1
 90
       50
176
     1
 90
       50
176
     1
290
     0
176
     1
 90
       50
176
     1
 62
   256
176
     0
 40
1.0
176
     0
 90
        2
176
     1
  1
strokes_ogs.tif
176
     1
290
     0
176
     1
 40
1.0
176
     1
 40
1.0
176
     1
  0
VISUALSTYLE
  5
39
102
{ACAD_REACTORS
330
2A
102
}
330
2A
100
AcDbVisualStyle
  2

 70
    15
177
     3
291
     1
 70
    58
 90
        2
176
     1
 90
        2
176
     1
 90
        0
176
     1
 90
        0
176
     1
 40
0.6
176
     1
 40
30.0
176
     1
 62
     7
420
 16777215
176
     1
 90
        1
176
     1
 90
        4
176
     1
 62
     7
176
     1
 62
   257
176
     1
 90
        1
176
     1
 90
        1
176
     1
 40
1.0
176
     1
 90
        8
176
     1
 62
     7
176
     1
 40
1.0
176
     1
 90
        1
176
     1
 90
        6
176
     1
 90
        2
176
     1
 62
     7
176
     1
 90
        5
176
     1
 90
        0
176
     1
 90
        0
176
     1
290
     0
176
     1
 90
        1
176
     1
 40
0.0
176
     1
 90
        0
176
     1
290
     0
176
     1
290
     1
176
     1
290
     1
176
     1
290
     0
176
     1
290
     0
176
     1
290
     0
176
     1
290
     0
176
     1
290
     0
176
     1
290
     0
176
     1
 90
       50
176
     1
 40
0.0
176
     1
 40
1.0
176
     1
 90
        0
176
     1
 62
    18
176
     1
 90
       50
176
     1
 90
        3
176
     1
 62
     5
420
      255
176
     1
290
     0
176
     1
 90
       50
176
     1
 90
       50
176
     1
 90
       50
176
     1
290
     0
176
     1
 90
       50
176
     1
 62
   256
176
     0
 40
1.0
176
     0
 90
        2
176
     1
  1
strokes_ogs.tif
176
     1
290
     0
176
     1
 40
1.0
176
     1
 40
1.0
176
     1
  0
VISUALSTYLE
  5
2B
102
{ACAD_REACTORS
330
2A
102
}
330
2A
100
AcDbVisualStyle
  2

 70
     0
177
     3
291
     1
 70
    58
 90
        2
176
     1
 90
        1
176
     1
 90
        1
176
     1
 90
        2
176
     1
 40
0.6
176
     1
 40
30.0
176
     1
 62
     7
420
 16777215
176
     1
 90
        0
176
     1
 90
        0
176
     1
 62
     7
176
     1
 62
   257
176
     1
 90
        1
176
     1
 90
        1
176
     1
 40
1.0
176
     1
 90
        8
176
     1
 62
     7
176
     1
 40
1.0
176
     1
 90
        1
176
     1
 90
        6
176
     1
 90
        2
176
     1
 62
     7
176
     1
 90
        5
176
     1
 90
        0
176
     1
 90
        0
176
     1
290
     0
176
     1
 90
       13
176
     1
 40
0.0
176
     1
 90
        0
176
     1
290
     0
176
     1
290
     1
176
     1
290
     1
176
     1
290
     0
176
     1
290
     0
176
     1
290
     0
176
     1
290
     0
176
     1
290
     0
176
     1
290
     0
176
     1
 90
       50
176
     1
 40
0.0
176
     1
 40
1.0
176
     1
 90
        0
176
     1
 62
    18
176
     1
 90
       50
176
     1
 90
        3
176
     1
 62
     5
420
      255
176
     1
290
     0
176
     1
 90
       50
176
     1
 90
       50
176
     1
 90
       50
176
     1
290
     0
176
     1
 90
       50
176
     1
 62
   256
176
     0
 40
1.0
176
     0
 90
        2
176
     1
  1
strokes_ogs.tif
176
     1
290
     0
176
     1
 40
1.0
176
     1
 40
1.0
176
     1
  0
VISUALSTYLE
  5
2C
102
{ACAD_REACTORS
330
2A
102
}
330
2A
100
AcDbVisualStyle
  2

 70
     1
177
     3
291
     1
 70
    58
 90
        2
176
     1
 90
        1
176
     1
 90
        1
176
     1
 90
        2
176
     1
 40
0.6
176
     1
 40
30.0
176
     1
 62
     7
420
 16777215
176
     1
 90
        1
176
     1
 90
        0
176
     1
 62
     7
176
     1
 62
   257
176
     1
 90
        1
176
     1
 90
        1
176
     1
 40
1.0
176
     1
 90
        0
176
     1
 62
   257
176
     1
 40
1.0
176
     1
 90
        1
176
     1
 90
        6
176
     1
 90
        2
176
     1
 62
     7
176
     1
 90
        5
176
     1
 90
        0
176
     1
 90
        0
176
     1
290
     0
176
     1
 90
       13
176
     1
 40
0.0
176
     1
 90
        0
176
     1
290
     0
176
     1
290
     1
176
     1
290
     1
176
     1
290
     0
176
     1
290
     0
176
     1
290
     0
176
     1
290
     0
176
     1
290
     0
176
     1
290
     0
176
     1
 90
       50
176
     1
 40
0.0
176
     1
 40
1.0
176
     1
 90
        0
176
     1
 62
    18
176
     1
 90
       50
176
     1
 90
        3
176
     1
 62
     5
420
      255
176
     1
290
     0
176
     1
 90
       50
176
     1
 90
       50
176
     1
 90
       50
176
     1
290
     0
176
     1
 90
       50
176
     1
 62
   256
176
     0
 40
1.0
176
     0
 90
        2
176
     1
  1
strokes_ogs.tif
176
     1
290
     0
176
     1
 40
1.0
176
     1
 40
1.0
176
     1
  0
VISUALSTYLE
  5
2D
102
{ACAD_REACTORS
330
2A
102
}
330
2A
100
AcDbVisualStyle
  2

 70
     2
177
     3
291
     1
 70
    58
 90
        2
176
     1
 90
        2
176
     1
 90
        1
176
     1
 90
        2
176
     1
 40
0.6
176
     1
 40
30.0
176
     1
 62
     7
420
 16777215
176
     1
 90
        0
176
     1
 90
        0
176
     1
 62
     7
176
     1
 62
   257
176
     1
 90
        1
176
     1
 90
        1
176
     1
 40
1.0
176
     1
 90
        0
176
     1
 62
     7
176
     1
 40
1.0
176
     1
 90
        1
176
     1
 90
        6
176
     1
 90
        2
176
     1
 62
     7
176
     1
 90
        5
176
     1
 90
        0
176
     1
 90
        0
176
     1
290
     0
176
     1
 90
       13
176
     1
 40
0.0
176
     1
 90
        0
176
     1
290
     0
176
     1
290
     1
176
     1
290
     1
176
     1
290
     0
176
     1
290
     0
176
     1
290
     0
176
     1
290
     0
176
     1
290
     0
176
     1
290
     0
176
     1
 90
       50
176
     1
 40
0.0
176
     1
 40
1.0
176
     1
 90
        0
176
     1
 62
    18
176
     1
 90
       50
176
     1
 90
        3
176
     1
 62
     5
420
      255
176
     1
290
     0
176
     1
 90
       50
176
     1
 90
       50
176
     1
 90
       50
176
     1
290
     0
176
     1
 90
       50
176
     1
 62
   256
176
     0
 40
1.0
176
     0
 90
        2
176
     1
  1
strokes_ogs.tif
176
     1
290
     0
176
     1
 40
1.0
176
     1
 40
1.0
176
     1
  0
VISUALSTYLE
  5
2E
102
{ACAD_REACTORS
330
2A
102
}
330
2A
100
AcDbVisualStyle
  2

 70
     3
177
     3
291
     1
 70
    58
 90
        2
176
     1
 90
        2
176
     1
 90
        1
176
     1
 90
        2
176
     1
 40
0.6
176
     1
 40
30.0
176
     1
 62
     7
420
 16777215
176
     1
 90
        1
176
     1
 90
        0
176
     1
 62
     7
176
     1
 62
   257
176
     1
 90
        1
176
     1
 90
        1
176
     1
 40
1.0
176
     1
 90
        0
176
     1
 62
   257
176
     1
 40
1.0
176
     1
 90
        1
176
     1
 90
        6
176
     1
 90
        2
176
     1
 62
     7
176
     1
 90
        5
176
     1
 90
        0
176
     1
 90
        0
176
     1
290
     0
176
     1
 90
       13
176
     1
 40
0.0
176
     1
 90
        0
176
     1
290
     0
176
     1
290
     1
176
     1
290
     1
176
     1
290
     0
176
     1
290
     0
176
     1
290
     0
176
     1
290
     0
176
     1
290
     0
176
     1
290
     0
176
     1
 90
       50
176
     1
 40
0.0
176
     1
 40
1.0
176
     1
 90
        0
176
     1
 62
    18
176
     1
 90
       50
176
     1
 90
        3
176
     1
 62
     5
420
      255
176
     1
290
     0
176
     1
 90
       50
176
     1
 90
       50
176
     1
 90
       50
176
     1
290
     0
176
     1
 90
       50
176
     1
 62
   256
176
     0
 40
1.0
176
     0
 90
        2
176
     1
  1
strokes_ogs.tif
176
     1
290
     0
176
     1
 40
1.0
176
     1
 40
1.0
176
     1
  0
VISUALSTYLE
  5
31
102
{ACAD_REACTORS
330
2A
102
}
330
2A
100
AcDbVisualStyle
  2

 70
     6
177
     3
291
     0
 70
    58
 90
        1
176
     1
 90
        2
176
     1
 90
        2
176
     1
 90
        0
176
     1
 40
0.6
176
     1
 40
30.0
176
     1
 62
     7
420
 16777215
176
     1
 90
        2
176
     1
 90
        2
176
     1
 62
     7
176
     1
 62
   257
176
     1
 90
        2
176
     1
 90
        1
176
     1
 40
40.0
176
     1
 90
        0
176
     1
 62
   257
176
     1
 40
1.0
176
     1
 90
        1
176
     1
 90
        6
176
     1
 90
        2
176
     1
 62
     7
176
     1
 90
        3
176
     1
 90
        0
176
     1
 90
        0
176
     1
290
     0
176
     1
 90
        1
176
     1
 40
0.0
176
     1
 90
        0
176
     1
290
     0
176
     1
290
     1
176
     1
290
     1
176
     1
290
     0
176
     1
290
     0
176
     1
290
     0
176
     1
290
     0
176
     1
290
     0
176
     1
290
     0
176
     1
 90
       50
176
     1
 40
0.0
176
     1
 40
1.0
176
     1
 90
        0
176
     1
 62
    18
176
     1
 90
       50
176
     1
 90
        3
176
     1
 62
     5
420
      255
176
     1
290
     0
176
     1
 90
       50
176
     1
 90
       50
176
     1
 90
       50
176
     1
290
     0
176
     1
 90
       50
176
     1
 62
   256
176
     0
 40
1.0
176
     0
 90
        2
176
     1
  1
strokes_ogs.tif
176
     1
290
     0
176
     1
 40
1.0
176
     1
 40
1.0
176
     1
  0
VISUALSTYLE
  5
3B
102
{ACAD_REACTORS
330
2A
102
}
330
2A
100
AcDbVisualStyle
  2

 70
    20
177
     3
291
     1
 70
    58
 90
        2
176
     1
 90
        2
176
     1
 90
        0
176
     1
 90
        0
176
     1
 40
0.6
176
     1
 40
30.0
176
     1
 62
     7
420
 16777215
176
     1
 90
        1
176
     1
 90
        4
176
     1
 62
     7
176
     1
 62
   257
176
     1
 90
        1
176
     1
 90
        1
176
     1
 40
1.0
176
     1
 90
       10
176
     1
 62
     7
176
     1
 40
1.0
176
     1
 90
        1
176
     1
 90
        6
176
     1
 90
        2
176
     1
 62
     7
176
     1
 90
        5
176
     1
 90
        0
176
     1
 90
        0
176
     1
290
     0
176
     1
 90
        1
176
     1
 40
0.0
176
     1
 90
        0
176
     1
290
     0
176
     1
290
     1
176
     1
290
     1
176
     1
290
     0
176
     1
290
     0
176
     1
290
     0
176
     1
290
     0
176
     1
290
     0
176
     1
290
     0
176
     1
 90
       50
176
     1
 40
0.0
176
     1
 40
1.0
176
     1
 90
        0
176
     1
 62
    18
176
     1
 90
       50
176
     1
 90
        3
176
     1
 62
     5
420
      255
176
     1
290
     0
176
     1
 90
       50
176
     1
 90
       50
176
     1
 90
       50
176
     1
290
     0
176
     1
 90
       50
176
     1
 62
   256
176
     0
 40
1.0
176
     0
 90
        2
176
     1
  1
strokes_ogs.tif
176
     1
290
     0
176
     1
 40
1.0
176
     1
 40
1.0
176
     1
  0
VISUALSTYLE
  5
38
102
{ACAD_REACTORS
330
2A
102
}
330
2A
100
AcDbVisualStyle
  2

 70
    14
177
     3
291
     1
 70
    58
 90
        2
176
     1
 90
        2
176
     1
 90
        0
176
     1
 90
        0
176
     1
 40
0.6
176
     1
 40
30.0
176
     1
 62
     7
420
 16777215
176
     1
 90
        1
176
     1
 90
        4
176
     1
 62
     7
176
     1
 62
   257
176
     1
 90
        7
176
     1
 90
        7
176
     1
 40
1.0
176
     1
 90
        8
176
     1
 62
     7
176
     1
 40
1.0
176
     1
 90
        1
176
     1
 90
        6
176
     1
 90
        2
176
     1
 62
     7
176
     1
 90
        5
176
     1
 90
        0
176
     1
 90
        0
176
     1
290
     0
176
     1
 90
        1
176
     1
 40
0.0
176
     1
 90
        0
176
     1
290
     0
176
     1
290
     1
176
     1
290
     1
176
     1
290
     0
176
     1
290
     0
176
     1
290
     0
176
     1
290
     0
176
     1
290
     0
176
     1
290
     0
176
     1
 90
       50
176
     1
 40
0.0
176
     1
 40
1.0
176
     1
 90
        0
176
     1
 62
    18
176
     1
 90
       50
176
     1
 90
        3
176
     1
 62
     5
420
      255
176
     1
290
     0
176
     1
 90
       50
176
     1
 90
       50
176
     1
 90
       50
176
     1
290
     0
176
     1
 90
       50
176
     1
 62
   256
176
     0
 40
1.0
176
     0
 90
        2
176
     1
  1
strokes_ogs.tif
176
     1
290
     0
176
     1
 40
1.0
176
     1
 40
1.0
176
     1
  0
VISUALSTYLE
  5
3C
102
{ACAD_REACTORS
330
2A
102
}
330
2A
100
AcDbVisualStyle
  2

 70
    21
177
     3
291
     1
 70
    58
 90
        2
176
     1
 90
        2
176
     1
 90
        0
176
     1
 90
        0
176
     1
 40
0.6
176
     1
 40
30.0
176
     1
 62
     7
420
 16777215
176
     1
 90
        1
176
     1
 90
        4
176
     1
 62
     7
176
     1
 62
   257
176
     1
 90
        1
176
     1
 90
        1
176
     1
 40
1.0
176
     1
 90
        9
176
     1
 62
     7
176
     1
 40
1.0
176
     1
 90
        1
176
     1
 90
        6
176
     1
 90
        2
176
     1
 62
     7
176
     1
 90
        5
176
     1
 90
        0
176
     1
 90
        0
176
     1
290
     0
176
     1
 90
        1
176
     1
 40
0.0
176
     1
 90
        0
176
     1
290
     0
176
     1
290
     1
176
     1
290
     1
176
     1
290
     0
176
     1
290
     0
176
     1
290
     0
176
     1
290
     0
176
     1
290
     0
176
     1
290
     0
176
     1
 90
       50
176
     1
 40
0.0
176
     1
 40
1.0
176
     1
 90
        0
176
     1
 62
    18
176
     1
 90
       50
176
     1
 90
        3
176
     1
 62
     5
420
      255
176
     1
290
     0
176
     1
 90
       50
176
     1
 90
       50
176
     1
 90
       50
176
     1
290
     0
176
     1
 90
       50
176
     1
 62
   256
176
     0
 40
1.0
176
     0
 90
        2
176
     1
  1
strokes_ogs.tif
176
     1
290
     0
176
     1
 40
1.0
176
     1
 40
1.0
176
     1
  0
VISUALSTYLE
  5
33
102
{ACAD_REACTORS
330
2A
102
}
330
2A
100
AcDbVisualStyle
  2

 70
     8
177
     3
291
     0
 70
    58
 90
        2
176
     1
 90
        3
176
     1
 90
        0
176
     1
 90
        2
176
     1
 40
0.6
176
     1
 40
30.0
176
     1
 62
     7
420
 16777215
176
     1
 90
        0
176
     1
 90
        0
176
     1
 62
     7
176
     1
 62
   257
176
     1
 90
        1
176
     1
 90
        1
176
     1
 40
1.0
176
     1
 90
        8
176
     1
 62
   257
176
     1
 40
1.0
176
     1
 90
        1
176
     1
 90
        6
176
     1
 90
        2
176
     1
 62
     7
176
     1
 90
        3
176
     1
 90
        0
176
     1
 90
        0
176
     1
290
     0
176
     1
 90
       13
176
     1
 40
0.0
176
     1
 90
        0
176
     1
290
     0
176
     1
290
     1
176
     1
290
     1
176
     1
290
     0
176
     1
290
     0
176
     1
290
     0
176
     1
290
     0
176
     1
290
     0
176
     1
290
     0
176
     1
 90
       50
176
     1
 40
0.0
176
     1
 40
1.0
176
     1
 90
        0
176
     1
 62
    18
176
     1
 90
       50
176
     1
 90
        3
176
     1
 62
     5
420
      255
176
     1
290
     0
176
     1
 90
       50
176
     1
 90
       50
176
     1
 90
       50
176
     1
290
     0
176
     1
 90
       50
176
     1
 62
   256
176
     0
 40
1.0
176
     0
 90
        2
176
     1
  1
strokes_ogs.tif
176
     1
290
     0
176
     1
 40
1.0
176
     1
 40
1.0
176
     1
  0
VISUALSTYLE
  5
42
102
{ACAD_REACTORS
330
2A
102
}
330
2A
100
AcDbVisualStyle
  2

 70
    27
177
     3
291
     0
 70
    58
 90
        2
176
     1
 90
        2
176
     1
 90
        1
176
     1
 90
        2
176
     1
 40
0.6
176
     1
 40
30.0
176
     1
 62
     7
420
 16777215
176
     1
 90
        0
176
     1
 90
        4
176
     1
 62
     7
176
     1
 62
   257
176
     1
 90
        1
176
     1
 90
        1
176
     1
 40
1.0
176
     1
 90
        8
176
     1
 62
   257
176
     1
 40
1.0
176
     1
 90
        1
176
     1
 90
        6
176
     1
 90
        2
176
     1
 62
     8
420
  7895160
176
     1
 90
        3
176
     1
 90
        0
176
     1
 90
        0
176
     1
290
     0
176
     1
 90
        5
176
     1
 40
0.0
176
     1
 90
        0
176
     1
290
     0
176
     1
290
     1
176
     1
290
     1
176
     1
290
     0
176
     1
290
     0
176
     1
290
     0
176
     1
290
     0
176
     1
290
     0
176
     1
290
     0
176
     1
 90
       50
176
     1
 40
0.0
176
     1
 40
1.0
176
     1
 90
        0
176
     1
 62
    18
176
     1
 90
       50
176
     1
 90
        3
176
     1
 62
     5
420
      255
176
     1
290
     0
176
     1
 90
       50
176
     1
 90
       50
176
     1
 90
       50
176
     1
290
     0
176
     1
 90
       50
176
     1
 62
   256
176
     0
 40
1.0
176
     0
 90
        2
176
     1
  1
strokes_ogs.tif
176
     1
290
     0
176
     1
 40
1.0
176
     1
 40
1.0
176
     1
  0
VISUALSTYLE
  5
41
102
{ACAD_REACTORS
330
2A
102
}
330
2A
100
AcDbVisualStyle
  2

 70
    26
177
     3
291
     0
 70
    58
 90
        2
176
     1
 90
        2
176
     1
 90
        1
176
     1
 90
        2
176
     1
 40
0.6
176
     1
 40
30.0
176
     1
 62
     7
420
 16777215
176
     1
 90
        1
176
     1
 90
       10
176
     1
 62
     7
176
     1
 62
   257
176
     1
 90
        2
176
     1
 90
        1
176
     1
 40
1.0
176
     1
 90
        8
176
     1
 62
   257
176
     1
 40
1.0
176
     1
 90
        1
176
     1
 90
        6
176
     1
 90
        2
176
     1
 62
     7
176
     1
 90
        3
176
     1
 90
        0
176
     1
 90
        0
176
     1
290
     0
176
     1
 90
        5
176
     1
 40
0.0
176
     1
 90
        0
176
     1
290
     0
176
     1
290
     1
176
     1
290
     1
176
     1
290
     0
176
     1
290
     0
176
     1
290
     0
176
     1
290
     0
176
     1
290
     0
176
     1
290
     0
176
     1
 90
       50
176
     1
 40
0.0
176
     1
 40
1.0
176
     1
 90
        0
176
     1
 62
    18
176
     1
 90
       50
176
     1
 90
        3
176
     1
 62
     5
420
      255
176
     1
290
     0
176
     1
 90
       50
176
     1
 90
       50
176
     1
 90
       50
176
     1
290
     0
176
     1
 90
       50
176
     1
 62
   256
176
     0
 40
1.0
176
     0
 90
        2
176
     1
  1
strokes_ogs.tif
176
     1
290
     0
176
     1
 40
1.0
176
     1
 40
1.0
176
     1
  0
VISUALSTYLE
  5
3E
102
{ACAD_REACTORS
330
2A
102
}
330
2A
100
AcDbVisualStyle
  2

 70
    23
177
     3
291
     0
 70
    58
 90
        2
176
     1
 90
        2
176
     1
 90
        3
176
     1
 90
        0
176
     1
 40
0.6
176
     1
 40
30.0
176
     1
 62
     7
420
 16777215
176
     1
 90
        2
176
     1
 90
        2
176
     1
 62
     7
176
     1
 62
     7
176
     1
 90
        1
176
     1
 90
        1
176
     1
 40
40.0
176
     1
 90
        8
176
     1
 62
     7
176
     1
 40
1.0
176
     1
 90
        1
176
     1
 90
        6
176
     1
 90
        2
176
     1
 62
     7
176
     1
 90
        3
176
     1
 90
        0
176
     1
 90
        0
176
     1
290
     0
176
     1
 90
        1
176
     1
 40
0.0
176
     1
 90
        0
176
     1
290
     0
176
     1
290
     1
176
     1
290
     1
176
     1
290
     0
176
     1
290
     0
176
     1
290
     0
176
     1
290
     0
176
     1
290
     0
176
     1
290
     0
176
     1
 90
       50
176
     1
 40
0.0
176
     1
 40
1.0
176
     1
 90
        0
176
     1
 62
    18
176
     1
 90
       50
176
     1
 90
        3
176
     1
 62
     5
420
      255
176
     1
290
     0
176
     1
 90
       50
176
     1
 90
       50
176
     1
 90
       50
176
     1
290
     0
176
     1
 90
       50
176
     1
 62
   256
176
     0
 40
1.0
176
     0
 90
        2
176
     1
  1
strokes_ogs.tif
176
     1
290
     0
176
     1
 40
1.0
176
     1
 40
1.0
176
     1
  0
VISUALSTYLE
  5
3F
102
{ACAD_REACTORS
330
2A
102
}
330
2A
100
AcDbVisualStyle
  2

 70
    24
177
     3
291
     0
 70
    58
 90
        1
176
     1
 90
        2
176
     1
 90
        2
176
     1
 90
        0
176
     1
 40
0.6
176
     1
 40
30.0
176
     1
 62
     7
420
 16777215
176
     1
 90
        2
176
     1
 90
        2
176
     1
 62
     7
176
     1
 62
     7
176
     1
 90
        1
176
     1
 90
        1
176
     1
 40
40.0
176
     1
 90
       11
176
     1
 62
     7
176
     1
 40
1.0
176
     1
 90
        1
176
     1
 90
        6
176
     1
 90
        2
176
     1
 62
     7
176
     1
 90
        6
176
     1
 90
        0
176
     1
 90
        0
176
     1
290
     0
176
     1
 90
        1
176
     1
 40
0.0
176
     1
 90
        0
176
     1
290
     0
176
     1
290
     1
176
     1
290
     1
176
     1
290
     0
176
     1
290
     0
176
     1
290
     0
176
     1
290
     0
176
     1
290
     0
176
     1
290
     0
176
     1
 90
       50
176
     1
 40
0.0
176
     1
 40
1.0
176
     1
 90
        0
176
     1
 62
    18
176
     1
 90
       50
176
     1
 90
        3
176
     1
 62
     5
420
      255
176
     1
290
     0
176
     1
 90
       50
176
     1
 90
       50
176
     1
 90
       50
176
     1
290
     0
176
     1
 90
       50
176
     1
 62
   256
176
     0
 40
1.0
176
     0
 90
        2
176
     1
  1
strokes_ogs.tif
176
     1
290
     0
176
     1
 40
1.0
176
     1
 40
1.0
176
     1
  0
VISUALSTYLE
  5
37
102
{ACAD_REACTORS
330
2A
102
}
330
2A
100
AcDbVisualStyle
  2

 70
    13
177
     3
291
     1
 70
    58
 90
        2
176
     1
 90
        2
176
     1
 90
        0
176
     1
 90
        0
176
     1
 40
0.6
176
     1
 40
30.0
176
     1
 62
     7
420
 16777215
176
     1
 90
        1
176
     1
 90
        4
176
     1
 62
     7
176
     1
 62
   257
176
     1
 90
        1
176
     1
 90
        1
176
     1
 40
1.0
176
     1
 90
       12
176
     1
 62
     7
176
     1
 40
1.0
176
     1
 90
        1
176
     1
 90
        6
176
     1
 90
        2
176
     1
 62
     7
176
     1
 90
        5
176
     1
 90
        0
176
     1
 90
        0
176
     1
290
     0
176
     1
 90
        1
176
     1
 40
0.0
176
     1
 90
        0
176
     1
290
     0
176
     1
290
     1
176
     1
290
     1
176
     1
290
     0
176
     1
290
     0
176
     1
290
     0
176
     1
290
     0
176
     1
290
     0
176
     1
290
     0
176
     1
 90
       50
176
     1
 40
0.0
176
     1
 40
1.0
176
     1
 90
        0
176
     1
 62
    18
176
     1
 90
       50
176
     1
 90
        3
176
     1
 62
     5
420
      255
176
     1
290
     0
176
     1
 90
       50
176
     1
 90
       50
176
     1
 90
       50
176
     1
290
     0
176
     1
 90
       50
176
     1
 62
   256
176
     0
 40
1.0
176
     0
 90
        2
176
     1
  1
strokes_ogs.tif
176
     1
290
     0
176
     1
 40
1.0
176
     1
 40
1.0
176
     1
  0
VISUALSTYLE
  5
30
102
{ACAD_REACTORS
330
2A
102
}
330
2A
100
AcDbVisualStyle
  2

 70
     5
177
     3
291
     0
 70
    58
 90
        0
176
     1
 90
        2
176
     1
 90
        0
176
     1
 90
        0
176
     1
 40
0.6
176
     1
 40
30.0
176
     1
 62
     7
420
 16777215
176
     1
 90
        1
176
     1
 90
        4
176
     1
 62
     7
176
     1
 62
   257
176
     1
 90
        1
176
     1
 90
        1
176
     1
 40
1.0
176
     1
 90
        0
176
     1
 62
   257
176
     1
 40
1.0
176
     1
 90
        1
176
     1
 90
        6
176
     1
 90
        2
176
     1
 62
     7
176
     1
 90
        3
176
     1
 90
        0
176
     1
 90
        0
176
     1
290
     0
176
     1
 90
        1
176
     1
 40
0.0
176
     1
 90
        0
176
     1
290
     0
176
     1
290
     1
176
     1
290
     1
176
     1
290
     0
176
     1
290
     0
176
     1
290
     0
176
     1
290
     0
176
     1
290
     0
176
     1
290
     0
176
     1
 90
       50
176
     1
 40
0.0
176
     1
 40
1.0
176
     1
 90
        0
176
     1
 62
    18
176
     1
 90
       50
176
     1
 90
        3
176
     1
 62
     5
420
      255
176
     1
290
     0
176
     1
 90
       50
176
     1
 90
       50
176
     1
 90
       50
176
     1
290
     0
176
     1
 90
       50
176
     1
 62
   256
176
     0
 40
1.0
176
     0
 90
        2
176
     1
  1
strokes_ogs.tif
176
     1
290
     0
176
     1
 40
1.0
176
     1
 40
1.0
176
     1
  0
VISUALSTYLE
  5
40
102
{ACAD_REACTORS
330
2A
102
}
330
2A
100
AcDbVisualStyle
  2

 70
    25
177
     3
291
     0
 70
    58
 90
        2
176
     1
 90
        2
176
     1
 90
        1
176
     1
 90
        1
176
     1
 40
0.5
176
     1
 40
30.0
176
     1
 62
     7
420
 16777215
176
     1
 90
        1
176
     1
 90
        0
176
     1
 62
     7
176
     1
 62
   257
176
     1
 90
        1
176
     1
 90
        1
176
     1
 40
1.0
176
     1
 90
        8
176
     1
 62
     7
176
     1
 40
1.0
176
     1
 90
        1
176
     1
 90
        6
176
     1
 90
        2
176
     1
 62
     7
176
     1
 90
        3
176
     1
 90
        0
176
     1
 90
        0
176
     1
290
     0
176
     1
 90
       13
176
     1
 40
0.0
176
     1
 90
        0
176
     1
290
     0
176
     1
290
     1
176
     1
290
     1
176
     1
290
     0
176
     1
290
     0
176
     1
290
     0
176
     1
290
     0
176
     1
290
     0
176
     1
290
     0
176
     1
 90
       50
176
     1
 40
0.0
176
     1
 40
1.0
176
     1
 90
        0
176
     1
 62
    18
176
     1
 90
       50
176
     1
 90
        3
176
     1
 62
     5
420
      255
176
     1
290
     0
176
     1
 90
       50
176
     1
 90
       50
176
     1
 90
       50
176
     1
290
     0
176
     1
 90
       50
176
     1
 62
   256
176
     0
 40
1.0
176
     0
 90
        2
176
     1
  1
strokes_ogs.tif
176
     1
290
     0
176
     1
 40
1.0
176
     1
 40
1.0
176
     1
  0
DICTIONARYVAR
  5
5999
102
{ACAD_REACTORS
330
5998
102
}
330
5998
100
DictionaryVariables
280
     0
  1
1:1
  0
DICTIONARYVAR
  5
59B4
102
{ACAD_REACTORS
330
5998
102
}
330
5998
100
DictionaryVariables
280
     0
  1
STANDARD
  0
DICTIONARYVAR
  5
59B3
102
{ACAD_REACTORS
330
5998
102
}
330
5998
100
DictionaryVariables
280
     0
  1
STANDARD
  0
DICTIONARYVAR
  5
852E
102
{ACAD_REACTORS
330
5998
102
}
330
5998
100
DictionaryVariables
280
     0
  1
Metric50
  0
DICTIONARYVAR
  5
852F
102
{ACAD_REACTORS
330
5998
102
}
330
5998
100
DictionaryVariables
280
     0
  1
Metric50
  0
DICTIONARYVAR
  5
59B5
102
{ACAD_REACTORS
330
5998
102
}
330
5998
100
DictionaryVariables
280
     0
  1
1
  0
DICTIONARYVAR
  5
59B6
102
{ACAD_REACTORS
330
5998
102
}
330
5998
100
DictionaryVariables
280
     0
  1
15
  0
DICTIONARY
  5
8533
330
8508
100
AcDbDictionary
280
     1
281
     1
  3
ACAD_XREC_ROUNDTRIP
360
85A8
  0
DICTIONARY
  5
5F41
330
22
100
AcDbDictionary
280
     1
281
     1
  0
DICTIONARY
  5
8531
330
8507
100
AcDbDictionary
280
     1
281
     1
  3
ACAD_XREC_ROUNDTRIP
360
85A7
  0
DICTIONARY
  5
8502
330
59A3
100
AcDbDictionary
280
     1
281
     1
  3
ACAD_ROUNDTRIP_2008_TABLESTYLE_CELLSTYLEMAP
360
85A6
  0
XRECORD
  5
85A8
102
{ACAD_REACTORS
330
8533
102
}
330
8533
100
AcDbXrecord
280
     1
102
DISPLAYNAME
  1
Metric50
102
FLAGS
 90
        0
  0
XRECORD
  5
85A7
102
{ACAD_REACTORS
330
8531
102
}
330
8531
100
AcDbXrecord
280
     1
102
DISPLAYNAME
  1
Metric50
102
FLAGS
 90
        0
  0
CELLSTYLEMAP
  5
85A6
102
{ACAD_REACTORS
330
8502
102
}
330
8502
100
AcDbCellStyleMap
 90
        3
300
CELLSTYLE
  1
TABLEFORMAT_BEGIN
 90
        5
170
     1
 91
        0
 92
    32768
 62
   257
 93
        1
300
CONTENTFORMAT
  1
CONTENTFORMAT_BEGIN
 90
        0
 91
        0
 92
      512
 93
        0
300

 40
0.0
140
1.0
 94
        5
 62
     0
340
11
144
6.0
309
CONTENTFORMAT_END
171
     1
301
MARGIN
  1
CELLMARGIN_BEGIN
 40
1.5
 40
1.5
 40
1.5
 40
1.5
 40
0.18
 40
0.18
309
CELLMARGIN_END
 94
        6
 95
        1
302
GRIDFORMAT
  1
GRIDFORMAT_BEGIN
 90
        0
 91
        1
 62
     0
 92
       -2
340
0
 93
        0
 40
1.125
309
GRIDFORMAT_END
 95
        2
302
GRIDFORMAT
  1
GRIDFORMAT_BEGIN
 90
        0
 91
        1
 62
     0
 92
       -2
340
0
 93
        0
 40
1.125
309
GRIDFORMAT_END
 95
        4
302
GRIDFORMAT
  1
GRIDFORMAT_BEGIN
 90
        0
 91
        1
 62
     0
 92
       -2
340
0
 93
        0
 40
1.125
309
GRIDFORMAT_END
 95
        8
302
GRIDFORMAT
  1
GRIDFORMAT_BEGIN
 90
        0
 91
        1
 62
     0
 92
       -2
340
0
 93
        0
 40
1.125
309
GRIDFORMAT_END
 95
       16
302
GRIDFORMAT
  1
GRIDFORMAT_BEGIN
 90
        0
 91
        1
 62
     0
 92
       -2
340
0
 93
        0
 40
1.125
309
GRIDFORMAT_END
 95
       32
302
GRIDFORMAT
  1
GRIDFORMAT_BEGIN
 90
        0
 91
        1
 62
     0
 92
       -2
340
0
 93
        0
 40
1.125
309
GRIDFORMAT_END
309
TABLEFORMAT_END
  1
CELLSTYLE_BEGIN
 90
        1
 91
        1
300
_TITLE
309
CELLSTYLE_END
300
CELLSTYLE
  1
TABLEFORMAT_BEGIN
 90
        5
170
     1
 91
        0
 92
        0
 62
   257
 93
        1
300
CONTENTFORMAT
  1
CONTENTFORMAT_BEGIN
 90
        0
 91
        0
 92
      512
 93
        0
300

 40
0.0
140
1.0
 94
        5
 62
     0
340
11
144
4.5
309
CONTENTFORMAT_END
171
     1
301
MARGIN
  1
CELLMARGIN_BEGIN
 40
1.5
 40
1.5
 40
1.5
 40
1.5
 40
0.18
 40
0.18
309
CELLMARGIN_END
 94
        6
 95
        1
302
GRIDFORMAT
  1
GRIDFORMAT_BEGIN
 90
        0
 91
        1
 62
     0
 92
       -2
340
0
 93
        0
 40
1.125
309
GRIDFORMAT_END
 95
        2
302
GRIDFORMAT
  1
GRIDFORMAT_BEGIN
 90
        0
 91
        1
 62
     0
 92
       -2
340
0
 93
        0
 40
1.125
309
GRIDFORMAT_END
 95
        4
302
GRIDFORMAT
  1
GRIDFORMAT_BEGIN
 90
        0
 91
        1
 62
     0
 92
       -2
340
0
 93
        0
 40
1.125
309
GRIDFORMAT_END
 95
        8
302
GRIDFORMAT
  1
GRIDFORMAT_BEGIN
 90
        0
 91
        1
 62
     0
 92
       -2
340
0
 93
        0
 40
1.125
309
GRIDFORMAT_END
 95
       16
302
GRIDFORMAT
  1
GRIDFORMAT_BEGIN
 90
        0
 91
        1
 62
     0
 92
       -2
340
0
 93
        0
 40
1.125
309
GRIDFORMAT_END
 95
       32
302
GRIDFORMAT
  1
GRIDFORMAT_BEGIN
 90
        0
 91
        1
 62
     0
 92
       -2
340
0
 93
        0
 40
1.125
309
GRIDFORMAT_END
309
TABLEFORMAT_END
  1
CELLSTYLE_BEGIN
 90
        2
 91
        1
300
_HEADER
309
CELLSTYLE_END
300
CELLSTYLE
  1
TABLEFORMAT_BEGIN
 90
        5
170
     1
 91
        0
 92
        0
 62
   257
 93
        1
300
CONTENTFORMAT
  1
CONTENTFORMAT_BEGIN
 90
        0
 91
        0
 92
      512
 93
        0
300

 40
0.0
140
1.0
 94
        2
 62
     0
340
11
144
4.5
309
CONTENTFORMAT_END
171
     1
301
MARGIN
  1
CELLMARGIN_BEGIN
 40
1.5
 40
1.5
 40
1.5
 40
1.5
 40
0.18
 40
0.18
309
CELLMARGIN_END
 94
        6
 95
        1
302
GRIDFORMAT
  1
GRIDFORMAT_BEGIN
 90
        0
 91
        1
 62
     0
 92
       -2
340
0
 93
        0
 40
1.125
309
GRIDFORMAT_END
 95
        2
302
GRIDFORMAT
  1
GRIDFORMAT_BEGIN
 90
        0
 91
        1
 62
     0
 92
       -2
340
0
 93
        0
 40
1.125
309
GRIDFORMAT_END
 95
        4
302
GRIDFORMAT
  1
GRIDFORMAT_BEGIN
 90
        0
 91
        1
 62
     0
 92
       -2
340
0
 93
        0
 40
1.125
309
GRIDFORMAT_END
 95
        8
302
GRIDFORMAT
  1
GRIDFORMAT_BEGIN
 90
        0
 91
        1
 62
     0
 92
       -2
340
0
 93
        0
 40
1.125
309
GRIDFORMAT_END
 95
       16
302
GRIDFORMAT
  1
GRIDFORMAT_BEGIN
 90
        0
 91
        1
 62
     0
 92
       -2
340
0
 93
        0
 40
1.125
309
GRIDFORMAT_END
 95
       32
302
GRIDFORMAT
  1
GRIDFORMAT_BEGIN
 90
        0
 91
        1
 62
     0
 92
       -2
340
0
 93
        0
 40
1.125
309
GRIDFORMAT_END
309
TABLEFORMAT_END
  1
CELLSTYLE_BEGIN
 90
        3
 91
        2
300
_DATA
309
CELLSTYLE_END
  0
ENDSEC
  0
SECTION
  2
ACDSDATA
 70
     2
 71
     6
  0
ACDSSCHEMA
 90
        0
  1
AcDb_Thumbnail_Schema
  2
AcDbDs::ID
280
    10
 91
        8
  2
Thumbnail_Data
280
    15
 91
        0
101
ACDSRECORD
 95
        0
 90
        1
  2
AcDbDs::TreatedAsObjectData
280
     1
291
     1
101
ACDSRECORD
 95
        0
 90
        2
  2
AcDbDs::Legacy
280
     1
291
     1
101
ACDSRECORD
  1
AcDbDs::ID
 90
        3
  2
AcDs:Indexable
280
     1
291
     1
101
ACDSRECORD
  1
AcDbDs::ID
 90
        4
  2
AcDbDs::HandleAttribute
280
     7
282
     1
  0
ACDSSCHEMA
 90
        1
  1
AcDbDs::TreatedAsObjectDataSchema
  2
AcDbDs::TreatedAsObjectData
280
     1
 91
        0
  0
ACDSSCHEMA
 90
        2
  1
AcDbDs::LegacySchema
  2
AcDbDs::Legacy
280
     1
 91
        0
  0
ACDSSCHEMA
 90
        3
  1
AcDbDs::IndexedPropertySchema
  2
AcDs:Indexable
280
     1
 91
        0
  0
ACDSSCHEMA
 90
        4
  1
AcDbDs::HandleAttributeSchema
  2
AcDbDs::HandleAttribute
280
     7
 91
        1
284
     1
  0
ACDSRECORD
 90
        0
  2
AcDbDs::ID
280
    10
320
22
  2
Thumbnail_Data
280
    15
 94
     1685
310
89504E470D0A1A0A0000000D4948445200000100000000CB0803000000B6F4BD9700000300504C5445000000000000FFFFFF0000000000000000000000000000000000000000000000000000330000660000990000CC0000FF0033000033330033660033990033CC0033FF0066000066330066660066990066CC0066FF0099
310
000099330099660099990099CC0099FF00CC0000CC3300CC6600CC9900CCCC00CCFF00FF0000FF3300FF6600FF9900FFCC00FFFF3300003300333300663300993300CC3300FF3333003333333333663333993333CC3333FF3366003366333366663366993366CC3366FF3399003399333399663399993399CC3399FF33CC00
310
33CC3333CC6633CC9933CCCC33CCFF33FF0033FF3333FF6633FF9933FFCC33FFFF6600006600336600666600996600CC6600FF6633006633336633666633996633CC6633FF6666006666336666666666996666CC6666FF6699006699336699666699996699CC6699FF66CC0066CC3366CC6666CC9966CCCC66CCFF66FF0066
310
FF3366FF6666FF9966FFCC66FFFF9900009900339900669900999900CC9900FF9933009933339933669933999933CC9933FF9966009966339966669966999966CC9966FF9999009999339999669999999999CC9999FF99CC0099CC3399CC6699CC9999CCCC99CCFF99FF0099FF3399FF6699FF9999FFCC99FFFFCC0000CC00
310
33CC0066CC0099CC00CCCC00FFCC3300CC3333CC3366CC3399CC33CCCC33FFCC6600CC6633CC6666CC6699CC66CCCC66FFCC9900CC9933CC9966CC9999CC99CCCC99FFCCCC00CCCC33CCCC66CCCC99CCCCCCCCCCFFCCFF00CCFF33CCFF66CCFF99CCFFCCCCFFFFFF0000FF0033FF0066FF0099FF00CCFF00FFFF3300FF3333
310
FF3366FF3399FF33CCFF33FFFF6600FF6633FF6666FF6699FF66CCFF66FFFF9900FF9933FF9966FF9999FF99CCFF99FFFFCC00FFCC33FFCC66FFCC99FFCCCCFFCCFFFFFF00FFFF33FFFF66FFFF99FFFFCCFFFFFF0000000D0D0D1A1A1A2828283535354343435050505D5D5D6B6B6B787878868686939393A1A1A1AEAEAEBB
310
BBBBC9C9C9D6D6D6E4E4E4F1F1F1FFFFFF000000000000000000000000000000000000000000000000000000000000C11FEF66000003504944415478DAEDDC4D92B3201080E1B901D770C3FD776EB8062B4ED01BF623181514FDBE6456E97E996492C1AAA9E2B1F96934F949C6CB0F00000000000000000000000000000000
310
0000000000000000000000000000000000000000000000000000000000000000000000000000803100FFC7F2FD007FFBCF0028028892444C032C4F9B00524B8ED92C407D6319A0747D9118AD0E82524F7C8980F787412D007510C86B2C589C056A0424AB00D200E4773B8132805C05AC0E8265182C006667819CD7B5C0B0E4
310
5C8F1FBFEB3B7D0039DF0C017954744D834BF8E7D209C663C04DFB55E5027EF9897233136E6D3E5AAF08A0AE04FC2935B0D405DAD74700AD83E0FF00E8DF10F19F354821805807A00B5805D82F74D8061011A300E9B3CB5C9A00927500EB11F05901000000D400040000B00B20F274D3D3766CDF08CAFA00928FB5F851F3EB
310
CB722C36FB81AF9C4111800F3E0E23E0582BE6EEB2893680750C7804E8EB01D0D605068360D91DF086002E0DDAABAD02942B46B700BA1642A1CC02212CCFFE1C4BBA03104D0092EEBA801180F22A5E860062640C9075C92B9759E0D825560EB036F4BC27DEDE35A63D028271001F4A323402F0472EA0381992780BB00A2CC7
310
5ED9608CE55E226500DB86C018E075ACCB06B54D830F6380744D56BA12AC33DEE066E9D79DE4E9724CD44580DC9D65D96C8C468015809BD2AE036C02C811002601FE55D401BCFBA1193DF70A6FC99051803DEFBD343F3C57E8FAF074180CF466005C2DE2DA63A5262CCFBEC6B5353A004AF8BBF5DA600FB09E70D7D584D4D6
310
2801581E6E8A53982C035C1A7B00885980799EC33C3753630510311601CD07C95CAA1E6E5F18DBE8021D4048733DA06C3FE019200D00147581BADFE3422DCBCBB1E4D94A330886392C0FB7D7D10500D00C208369D0D42C20DB34D8C444CD98942E85D379296C07604D86A6291A05D812DDA94B7D4B58D47458D4A7C3DBF90E
310
D3E9FE884B04A474DA355106902E00976D3211C500E72D4111B95C0F38FDAD0AC0FA172A7E5400004035C0F17D41773544C0F70358FF66691B05000000000000000000000000000000000000000000000000000000000000000000000000000000000000000000000000000000000000000000000000000000000000000000
310
00000000000000000000E0EBCB2F681FB0038E8464120000000049454E44AE426082
  0
ENDSEC
  0
EOF
