  0
SECTION
  2
HEADER
  9
$ACADVER
  1
AC1027
  9
$ACADMAINTVER
 70
    55
  9
$DWGCODEPAGE
  3
ANSI_932
  9
$LASTSAVEDBY
  1
marketing
  9
$REQUIREDVERSIONS
160
                 0
  9
$INSBASE
 10
0.0
 20
0.0
 30
0.0
  9
$EXTMIN
 10
-0.0090584651927657
 20
-0.0108688301934308
 30
-0.0000000000112498
  9
$EXTMAX
 10
504.0098902476472
 20
712.8108787885024
 30
0.0000000000002956
  9
$LIMMIN
 10
0.0
 20
0.0
  9
$LIMMAX
 10
594.0
 20
420.0
  9
$ORTHOMODE
 70
     1
  9
$REGENMODE
 70
     1
  9
$FILLMODE
 70
     1
  9
$QTEXTMODE
 70
     0
  9
$MIRRTEXT
 70
     1
  9
$LTSCALE
 40
1.0
  9
$ATTMODE
 70
     1
  9
$TEXTSIZE
 40
3.0
  9
$TRACEWID
 40
1.0
  9
$TEXTSTYLE
  7
STANDARD
  9
$CLAYER
  8
0
  9
$CELTYPE
  6
ByLayer
  9
$CECOLOR
 62
   256
  9
$CELTSCALE
 40
1.0
  9
$DISPSILH
 70
     0
  9
$DIMSCALE
 40
1.0
  9
$DIMASZ
 40
2.0
  9
$DIMEXO
 40
1.0
  9
$DIMDLI
 40
0.5
  9
$DIMRND
 40
0.0
  9
$DIMDLE
 40
0.0
  9
$DIMEXE
 40
0.5
  9
$DIMTP
 40
0.0
  9
$DIMTM
 40
0.0
  9
$DIMTXT
 40
6.0
  9
$DIMCEN
 40
0.09
  9
$DIMTSZ
 40
0.0
  9
$DIMTOL
 70
     0
  9
$DIMLIM
 70
     0
  9
$DIMTIH
 70
     0
  9
$DIMTOH
 70
     0
  9
$DIMSE1
 70
     0
  9
$DIMSE2
 70
     0
  9
$DIMTAD
 70
     3
  9
$DIMZIN
 70
    12
  9
$DIMBLK
  1
OPEN
  9
$DIMASO
 70
     1
  9
$DIMSHO
 70
     1
  9
$DIMPOST
  1

  9
$DIMAPOST
  1

  9
$DIMALT
 70
     0
  9
$DIMALTD
 70
     2
  9
$DIMALTF
 40
25.4
  9
$DIMLFAC
 40
1.0
  9
$DIMTOFL
 70
     0
  9
$DIMTVP
 40
0.0
  9
$DIMTIX
 70
     0
  9
$DIMSOXD
 70
     0
  9
$DIMSAH
 70
     0
  9
$DIMBLK1
  1

  9
$DIMBLK2
  1

  9
$DIMSTYLE
  2
STANDARD
  9
$DIMCLRD
 70
     0
  9
$DIMCLRE
 70
     0
  9
$DIMCLRT
 70
     0
  9
$DIMTFAC
 40
1.0
  9
$DIMGAP
 40
2.0
  9
$DIMJUST
 70
     0
  9
$DIMSD1
 70
     0
  9
$DIMSD2
 70
     0
  9
$DIMTOLJ
 70
     1
  9
$DIMTZIN
 70
     0
  9
$DIMALTZ
 70
     0
  9
$DIMALTTZ
 70
     0
  9
$DIMUPT
 70
     0
  9
$DIMDEC
 70
     1
  9
$DIMTDEC
 70
     1
  9
$DIMALTU
 70
     2
  9
$DIMALTTD
 70
     2
  9
$DIMTXSTY
  7
STANDARD
  9
$DIMAUNIT
 70
     0
  9
$DIMADEC
 70
     0
  9
$DIMALTRND
 40
0.0
  9
$DIMAZIN
 70
     0
  9
$DIMDSEP
 70
    46
  9
$DIMATFIT
 70
     3
  9
$DIMFRAC
 70
     0
  9
$DIMLDRBLK
  1
OPEN
  9
$DIMLUNIT
 70
     2
  9
$DIMLWD
 70
    -2
  9
$DIMLWE
 70
    -2
  9
$DIMTMOVE
 70
     0
  9
$DIMFXL
 40
1.0
  9
$DIMFXLON
 70
     0
  9
$DIMJOGANG
 40
0.7853981633974483
  9
$DIMTFILL
 70
     1
  9
$DIMTFILLCLR
 70
     0
  9
$DIMARCSYM
 70
     0
  9
$DIMLTYPE
  6

  9
$DIMLTEX1
  6

  9
$DIMLTEX2
  6

  9
$DIMTXTDIRECTION
 70
     0
  9
$LUNITS
 70
     2
  9
$LUPREC
 70
     4
  9
$SKETCHINC
 40
1.0
  9
$FILLETRAD
 40
0.0
  9
$AUNITS
 70
     0
  9
$AUPREC
 70
     0
  9
$MENU
  1
.
  9
$ELEVATION
 40
0.0
  9
$PELEVATION
 40
0.0
  9
$THICKNESS
 40
0.0
  9
$LIMCHECK
 70
     0
  9
$CHAMFERA
 40
0.0
  9
$CHAMFERB
 40
0.0
  9
$CHAMFERC
 40
0.0
  9
$CHAMFERD
 40
0.0
  9
$SKPOLY
 70
     0
  9
$TDCREATE
 40
2458661.367548785
  9
$TDUCREATE
 40
2458660.992548785
  9
$TDUPDATE
 40
2459243.460554074
  9
$TDUUPDATE
 40
2459243.085554074
  9
$TDINDWG
 40
0.4499626389
  9
$TDUSRTIMER
 40
0.4499619097
  9
$USRTIMER
 70
     1
  9
$ANGBASE
 50
0.0
  9
$ANGDIR
 70
     0
  9
$PDMODE
 70
     0
  9
$PDSIZE
 40
-1.0
  9
$PLINEWID
 40
0.0
  9
$SPLFRAME
 70
     0
  9
$SPLINETYPE
 70
     6
  9
$SPLINESEGS
 70
     8
  9
$HANDSEED
  5
8B3F
  9
$SURFTAB1
 70
     6
  9
$SURFTAB2
 70
     6
  9
$SURFTYPE
 70
     6
  9
$SURFU
 70
     6
  9
$SURFV
 70
     6
  9
$UCSBASE
  2

  9
$UCSNAME
  2

  9
$UCSORG
 10
0.0
 20
0.0
 30
0.0
  9
$UCSXDIR
 10
1.0
 20
0.0
 30
0.0
  9
$UCSYDIR
 10
0.0
 20
1.0
 30
0.0
  9
$UCSORTHOREF
  2

  9
$UCSORTHOVIEW
 70
     0
  9
$UCSORGTOP
 10
0.0
 20
0.0
 30
0.0
  9
$UCSORGBOTTOM
 10
0.0
 20
0.0
 30
0.0
  9
$UCSORGLEFT
 10
0.0
 20
0.0
 30
0.0
  9
$UCSORGRIGHT
 10
0.0
 20
0.0
 30
0.0
  9
$UCSORGFRONT
 10
0.0
 20
0.0
 30
0.0
  9
$UCSORGBACK
 10
0.0
 20
0.0
 30
0.0
  9
$PUCSBASE
  2

  9
$PUCSNAME
  2

  9
$PUCSORG
 10
0.0
 20
0.0
 30
0.0
  9
$PUCSXDIR
 10
1.0
 20
0.0
 30
0.0
  9
$PUCSYDIR
 10
0.0
 20
1.0
 30
0.0
  9
$PUCSORTHOREF
  2

  9
$PUCSORTHOVIEW
 70
     0
  9
$PUCSORGTOP
 10
0.0
 20
0.0
 30
0.0
  9
$PUCSORGBOTTOM
 10
0.0
 20
0.0
 30
0.0
  9
$PUCSORGLEFT
 10
0.0
 20
0.0
 30
0.0
  9
$PUCSORGRIGHT
 10
0.0
 20
0.0
 30
0.0
  9
$PUCSORGFRONT
 10
0.0
 20
0.0
 30
0.0
  9
$PUCSORGBACK
 10
0.0
 20
0.0
 30
0.0
  9
$USERI1
 70
     0
  9
$USERI2
 70
     0
  9
$USERI3
 70
     0
  9
$USERI4
 70
     0
  9
$USERI5
 70
     0
  9
$USERR1
 40
0.0
  9
$USERR2
 40
0.0
  9
$USERR3
 40
0.0
  9
$USERR4
 40
0.0
  9
$USERR5
 40
0.0
  9
$WORLDVIEW
 70
     1
  9
$SHADEDGE
 70
     3
  9
$SHADEDIF
 70
    70
  9
$TILEMODE
 70
     1
  9
$MAXACTVP
 70
    64
  9
$PINSBASE
 10
0.0
 20
0.0
 30
0.0
  9
$PLIMCHECK
 70
     0
  9
$PEXTMIN
 10
1.000000000000000E+20
 20
1.000000000000000E+20
 30
1.000000000000000E+20
  9
$PEXTMAX
 10
-1.000000000000000E+20
 20
-1.000000000000000E+20
 30
-1.000000000000000E+20
  9
$PLIMMIN
 10
0.0
 20
0.0
  9
$PLIMMAX
 10
420.0
 20
297.0
  9
$UNITMODE
 70
     0
  9
$VISRETAIN
 70
     1
  9
$PLINEGEN
 70
     0
  9
$PSLTSCALE
 70
     1
  9
$TREEDEPTH
 70
  3020
  9
$CMLSTYLE
  2
Standard
  9
$CMLJUST
 70
     0
  9
$CMLSCALE
 40
20.0
  9
$PROXYGRAPHICS
 70
     1
  9
$MEASUREMENT
 70
     1
  9
$CELWEIGHT
370
    -1
  9
$ENDCAPS
280
     0
  9
$JOINSTYLE
280
     0
  9
$LWDISPLAY
290
     1
  9
$INSUNITS
 70
     4
  9
$HYPERLINKBASE
  1

  9
$STYLESHEET
  1
MONOCHROME.CTB
  9
$XEDIT
290
     1
  9
$CEPSNTYPE
380
     0
  9
$PSTYLEMODE
290
     1
  9
$FINGERPRINTGUID
  2
{4F539629-E7AA-4B74-AABF-D3D77F167EDD}
  9
$VERSIONGUID
  2
{F2B2EAAC-6383-4B0A-8DBC-6936A20381B7}
  9
$EXTNAMES
290
     1
  9
$PSVPSCALE
 40
0.0
  9
$OLESTARTUP
290
     0
  9
$SORTENTS
280
   127
  9
$INDEXCTL
280
     0
  9
$HIDETEXT
280
     1
  9
$XCLIPFRAME
280
     0
  9
$HALOGAP
280
     0
  9
$OBSCOLOR
 70
   257
  9
$OBSLTYPE
280
     0
  9
$INTERSECTIONDISPLAY
280
     0
  9
$INTERSECTIONCOLOR
 70
   257
  9
$DIMASSOC
280
     2
  9
$PROJECTNAME
  1

  9
$CAMERADISPLAY
290
     0
  9
$LENSLENGTH
 40
50.0
  9
$CAMERAHEIGHT
 40
0.0
  9
$STEPSPERSEC
 40
2.0
  9
$STEPSIZE
 40
6.0
  9
$3DDWFPREC
 40
2.0
  9
$PSOLWIDTH
 40
5.0
  9
$PSOLHEIGHT
 40
80.0
  9
$LOFTANG1
 40
1.5707963268
  9
$LOFTANG2
 40
1.5707963268
  9
$LOFTMAG1
 40
0.0
  9
$LOFTMAG2
 40
0.0
  9
$LOFTPARAM
 70
     7
  9
$LOFTNORMALS
280
     1
  9
$LATITUDE
 40
37.795
  9
$LONGITUDE
 40
-122.394
  9
$NORTHDIRECTION
 40
0.0
  9
$TIMEZONE
 70
 -8000
  9
$LIGHTGLYPHDISPLAY
280
     1
  9
$TILEMODELIGHTSYNCH
280
     1
  9
$CMATERIAL
347
44
  9
$SOLIDHIST
280
     1
  9
$SHOWHIST
280
     1
  9
$DWFFRAME
280
     2
  9
$DGNFRAME
280
     2
  9
$REALWORLDSCALE
290
     1
  9
$INTERFERECOLOR
 62
   256
  9
$INTERFEREOBJVS
345
33
  9
$INTERFEREVPVS
346
59A0
  9
$CSHADOW
280
     0
  9
$SHADOWPLANELOCATION
 40
0.0
  0
ENDSEC
  0
SECTION
  2
CLASSES
  0
CLASS
  1
ACDBDICTIONARYWDFLT
  2
AcDbDictionaryWithDefault
  3
ObjectDBX Classes
 90
        0
 91
        1
280
     0
281
     0
  0
CLASS
  1
VISUALSTYLE
  2
AcDbVisualStyle
  3
ObjectDBX Classes
 90
     4095
 91
       26
280
     0
281
     0
  0
CLASS
  1
MATERIAL
  2
AcDbMaterial
  3
ObjectDBX Classes
 90
     1153
 91
        3
280
     0
281
     0
  0
CLASS
  1
SCALE
  2
AcDbScale
  3
ObjectDBX Classes
 90
     1153
 91
       33
280
     0
281
     0
  0
CLASS
  1
SUN
  2
AcDbSun
  3
SCENEOE
 90
     1153
 91
        1
280
     0
281
     0
  0
CLASS
  1
DICTIONARYVAR
  2
AcDbDictionaryVar
  3
ObjectDBX Classes
 90
        0
 91
        7
280
     0
281
     0
  0
CLASS
  1
TABLESTYLE
  2
AcDbTableStyle
  3
ObjectDBX Classes
 90
     4095
 91
        1
280
     0
281
     0
  0
CLASS
  1
MLEADERSTYLE
  2
AcDbMLeaderStyle
  3
ACDB_MLEADERSTYLE_CLASS
 90
     4095
 91
        1
280
     0
281
     0
  0
CLASS
  1
SORTENTSTABLE
  2
AcDbSortentsTable
  3
ObjectDBX Classes
 90
        0
 91
        1
280
     0
281
     0
  0
CLASS
  1
AEC_REFEDIT_STATUS_TRACKER
  2
AecDbRefEditStatusTracker
  3
AecArchBase70|Product Desc: Autodesk Architectural Desktop 2007 |Company: Autodesk,Inc. |WEB Address: www.autodesk.com
 90
      129
 91
        0
280
     0
281
     0
  0
CLASS
  1
NPOCOLLECTION
  2
AcDbImpNonPersistentObjectsCollection
  3
ObjectDBX Classes
 90
     1153
 91
        0
280
     0
281
     0
  0
CLASS
  1
ACDB_MTEXTOBJECTCONTEXTDATA_CLASS
  2
AcDbMTextObjectContextData
  3
ObjectDBX Classes
 90
     1153
 91
        0
280
     0
281
     0
  0
CLASS
  1
DIMASSOC
  2
AcDbDimAssoc
  3
"AcDbDimAssoc|Product Desc:     AcDim ARX App For Dimension|Company:          Autodesk, Inc.|WEB Address:      www.autodesk.com"
 90
        0
 91
        2
280
     0
281
     0
  0
CLASS
  1
EXACXREFPANELOBJECT
  2
ExAcXREFPanelObject
  3
EXAC_ESW
 90
     1025
 91
        0
280
     0
281
     0
  0
CLASS
  1
CELLSTYLEMAP
  2
AcDbCellStyleMap
  3
ObjectDBX Classes
 90
     1152
 91
        2
280
     0
281
     0
  0
CLASS
  1
ACDBSECTIONVIEWSTYLE
  2
AcDbSectionViewStyle
  3
ObjectDBX Classes
 90
     1025
 91
        1
280
     0
281
     0
  0
CLASS
  1
ACDBDETAILVIEWSTYLE
  2
AcDbDetailViewStyle
  3
ObjectDBX Classes
 90
     1025
 91
        1
280
     0
281
     0
  0
ENDSEC
  0
SECTION
  2
TABLES
  0
TABLE
  2
VPORT
  5
8
330
0
100
AcDbSymbolTable
 70
     1
  0
VPORT
  5
29
330
8
100
AcDbSymbolTableRecord
100
AcDbViewportTableRecord
  2
*Active
 70
     0
 10
0.0
 20
0.0
 11
1.0
 21
1.0
 12
252.0004158912271
 22
356.4000049791545
 13
0.0
 23
0.0
 14
10.0
 24
10.0
 15
10.0
 25
10.0
 16
0.0
 26
0.0
 36
1.0
 17
0.0
 27
0.0
 37
0.0
 40
719.3019453243202
 41
2.464339908952958
 42
50.0
 43
0.0
 44
0.0
 50
0.0
 51
0.0
 71
     0
 72
  2000
 73
     1
 74
     3
 75
     0
 76
     0
 77
     0
 78
     0
281
     0
 65
     1
110
0.0
120
0.0
130
0.0
111
1.0
121
0.0
131
0.0
112
0.0
122
1.0
132
0.0
 79
     0
146
0.0
348
2F
 60
     3
 61
     5
292
     1
282
     1
141
0.0
142
0.0
 63
   250
361
69
1001
ACAD_NAV_VCDISPLAY
1070
     3
  0
ENDTAB
  0
TABLE
  2
LTYPE
  5
5
330
0
100
AcDbSymbolTable
 70
     6
  0
LTYPE
  5
14
330
5
100
AcDbSymbolTableRecord
100
AcDbLinetypeTableRecord
  2
ByBlock
 70
     0
  3

 72
    65
 73
     0
 40
0.0
  0
LTYPE
  5
15
330
5
100
AcDbSymbolTableRecord
100
AcDbLinetypeTableRecord
  2
ByLayer
 70
     0
  3

 72
    65
 73
     0
 40
0.0
  0
LTYPE
  5
16
330
5
100
AcDbSymbolTableRecord
100
AcDbLinetypeTableRecord
  2
Continuous
 70
     0
  3
Solid line
 72
    65
 73
     0
 40
0.0
  0
LTYPE
  5
6A
330
5
100
AcDbSymbolTableRecord
100
AcDbLinetypeTableRecord
  2
SLD-実線
 70
     0
  3
SolidWorks Line Style
 72
    65
 73
     0
 40
0.0
  0
LTYPE
  5
6496
330
5
100
AcDbSymbolTableRecord
100
AcDbLinetypeTableRecord
  2
CONTINOUS
 70
     0
  3
Solid line
 72
    65
 73
     0
 40
0.0
  0
LTYPE
  5
6497
330
5
100
AcDbSymbolTableRecord
100
AcDbLinetypeTableRecord
  2
DASHDOT
 70
     0
  3
__ . __ . __ . __ . __ . __ . __ . __ . __ . __
 72
    65
 73
     4
 40
1.0
 49
0.5
 74
     0
 49
-0.25
 74
     0
 49
0.0
 74
     0
 49
-0.25
 74
     0
  0
LTYPE
  5
6498
330
5
100
AcDbSymbolTableRecord
100
AcDbLinetypeTableRecord
  2
DIVIDE
 70
     0
  3
Divide ____ . . ____ . . ____ . . ____ . . ____
 72
    65
 73
     6
 40
1.25
 49
0.5
 74
     0
 49
-0.25
 74
     0
 49
0.0
 74
     0
 49
-0.25
 74
     0
 49
0.0
 74
     0
 49
-0.25
 74
     0
  0
LTYPE
  5
6C7D
330
5
100
AcDbSymbolTableRecord
100
AcDbLinetypeTableRecord
  2
CENTER
 70
     0
  3
____ _ ____ _ ____ _ ____ _ ____ _ ____ _ ____
 72
    65
 73
     4
 40
0.6
 49
0.375
 74
     0
 49
-0.075
 74
     0
 49
0.075
 74
     0
 49
-0.075
 74
     0
  0
ENDTAB
  0
TABLE
  2
LAYER
  5
2
102
{ACAD_XDICTIONARY
360
5F3B
102
}
330
0
100
AcDbSymbolTable
 70
    13
  0
LAYER
  5
10
102
{ACAD_XDICTIONARY
360
59A9
102
}
330
2
100
AcDbSymbolTableRecord
100
AcDbLayerTableRecord
  2
0
 70
     0
 62
     7
  6
Continuous
370
    -3
390
F
347
46
348
0
  0
LAYER
  5
71
102
{ACAD_XDICTIONARY
360
59AB
102
}
330
2
100
AcDbSymbolTableRecord
100
AcDbLayerTableRecord
  2
SLD-0
 70
     0
 62
     9
  6
SLD-実線
370
    -3
390
F
347
46
348
0
  0
LAYER
  5
59BD
330
2
100
AcDbSymbolTableRecord
100
AcDbLayerTableRecord
  2
Defpoints
 70
     0
 62
     7
  6
Continuous
290
     0
370
    -3
390
F
347
46
348
0
  0
LAYER
  5
6499
102
{ACAD_XDICTIONARY
360
649A
102
}
330
2
100
AcDbSymbolTableRecord
100
AcDbLayerTableRecord
  2
16
 70
     0
 62
     6
  6
DASHDOT
370
    -3
390
F
347
46
348
0
  0
LAYER
  5
649B
102
{ACAD_XDICTIONARY
360
649C
102
}
330
2
100
AcDbSymbolTableRecord
100
AcDbLayerTableRecord
  2
30
 70
     0
 62
     9
  6
Continuous
370
    -3
390
F
347
46
348
0
  0
LAYER
  5
649D
102
{ACAD_XDICTIONARY
360
649E
102
}
330
2
100
AcDbSymbolTableRecord
100
AcDbLayerTableRecord
  2
18
 70
     0
 62
     5
  6
DIVIDE
370
    -3
390
F
347
46
348
0
  0
LAYER
  5
649F
102
{ACAD_XDICTIONARY
360
64A0
102
}
330
2
100
AcDbSymbolTableRecord
100
AcDbLayerTableRecord
  2
10
 70
     0
 62
     4
  6
Continuous
370
    -3
390
F
347
46
348
0
  0
LAYER
  5
64A1
102
{ACAD_XDICTIONARY
360
64A2
102
}
330
2
100
AcDbSymbolTableRecord
100
AcDbLayerTableRecord
  2
17
 70
     0
 62
     2
  6
DASHDOT
370
    -3
390
F
347
46
348
0
  0
LAYER
  5
64A3
330
2
100
AcDbSymbolTableRecord
100
AcDbLayerTableRecord
  2
22
 70
     0
 62
     3
  6
Continuous
370
    -3
390
F
347
46
348
0
  0
LAYER
  5
7307
102
{ACAD_XDICTIONARY
360
7308
102
}
330
2
100
AcDbSymbolTableRecord
100
AcDbLayerTableRecord
  2
240
 70
     0
 62
     7
  6
Continuous
370
    -3
390
F
347
46
348
0
  0
LAYER
  5
8A21
102
{ACAD_XDICTIONARY
360
8A22
102
}
330
2
100
AcDbSymbolTableRecord
100
AcDbLayerTableRecord
  2
12
 70
     0
 62
     3
  6
CONTINOUS
370
    -3
390
F
347
46
348
0
  0
LAYER
  5
8B1E
330
2
100
AcDbSymbolTableRecord
100
AcDbLayerTableRecord
  2
24
 70
     0
 62
     7
  6
Continuous
370
    -3
390
F
347
46
348
0
1001
AcAecLayerStandard
1000

1000

1001
AcCmTransparency
1071
        0
  0
LAYER
  5
8B30
330
2
100
AcDbSymbolTableRecord
100
AcDbLayerTableRecord
  2
19
 70
     0
 62
     7
  6
Continuous
370
    -3
390
F
347
46
348
0
1001
AcAecLayerStandard
1000

1000

1001
AcCmTransparency
1071
        0
  0
ENDTAB
  0
TABLE
  2
STYLE
  5
3
330
0
100
AcDbSymbolTable
 70
     3
  0
STYLE
  5
11
330
3
100
AcDbSymbolTableRecord
100
AcDbTextStyleTableRecord
  2
STANDARD
 70
     0
 40
0.0
 41
1.0
 50
0.0
 71
     0
 42
3.0
  3
MS UI Gothic.ttf
  4

1001
ACAD
1000
MS UI GOTHIC
1071
    32818
  0
STYLE
  5
203
330
3
100
AcDbSymbolTableRecord
100
AcDbTextStyleTableRecord
  2
SLDTEXTSTYLE0
 70
     0
 40
0.0
 41
1.0
 50
0.0
 71
     0
 42
3.0
  3
MS UI Gothic.ttf
  4

1001
ACAD
1000
MS UI Gothic
1071
      306
  0
STYLE
  5
64A5
330
3
100
AcDbSymbolTableRecord
100
AcDbTextStyleTableRecord
  2
blockfont
 70
     0
 40
0.0
 41
1.0
 50
0.0
 71
     0
 42
0.2
  3
simplex.shx
  4
bigfont
  0
ENDTAB
  0
TABLE
  2
VIEW
  5
6
330
0
100
AcDbSymbolTable
 70
     0
  0
ENDTAB
  0
TABLE
  2
UCS
  5
7
330
0
100
AcDbSymbolTable
 70
     0
  0
ENDTAB
  0
TABLE
  2
APPID
  5
9
330
0
100
AcDbSymbolTable
 70
    10
  0
APPID
  5
12
330
9
100
AcDbSymbolTableRecord
100
AcDbRegAppTableRecord
  2
ACAD
 70
     0
  0
APPID
  5
5C7A
330
9
100
AcDbSymbolTableRecord
100
AcDbRegAppTableRecord
  2
ACAD_DSTYLE_DIMJAG
 70
     0
  0
APPID
  5
5C7B
330
9
100
AcDbSymbolTableRecord
100
AcDbRegAppTableRecord
  2
ACAD_DSTYLE_DIMTALN
 70
     0
  0
APPID
  5
64A8
330
9
100
AcDbSymbolTableRecord
100
AcDbRegAppTableRecord
  2
ACAD_NAV_VCDISPLAY
 70
     0
  0
APPID
  5
6C84
330
9
100
AcDbSymbolTableRecord
100
AcDbRegAppTableRecord
  2
ACAD_DSTYLE_DIMRADIAL_EXTENSION
 70
     0
  0
APPID
  5
6C85
330
9
100
AcDbSymbolTableRecord
100
AcDbRegAppTableRecord
  2
AcadAnnotative
 70
     0
  0
APPID
  5
725A
330
9
100
AcDbSymbolTableRecord
100
AcDbRegAppTableRecord
  2
ACAD_EXEMPT_FROM_CAD_STANDARDS
 70
     0
  0
APPID
  5
730B
330
9
100
AcDbSymbolTableRecord
100
AcDbRegAppTableRecord
  2
ACAD_PSEXT
 70
     0
  0
APPID
  5
8B1F
330
9
100
AcDbSymbolTableRecord
100
AcDbRegAppTableRecord
  2
AcAecLayerStandard
 70
     0
  0
APPID
  5
8B20
330
9
100
AcDbSymbolTableRecord
100
AcDbRegAppTableRecord
  2
AcCmTransparency
 70
     0
  0
ENDTAB
  0
TABLE
  2
DIMSTYLE
  5
A
330
0
100
AcDbSymbolTable
 70
     2
100
AcDbDimStyleTable
 71
     2
340
64A6
340
64A7
  0
DIMSTYLE
105
64A6
102
{ACAD_REACTORS
330
8029
330
802B
330
804C
330
805D
330
8080
330
8081
330
8082
330
8083
330
8084
330
8085
330
8086
330
8092
330
809F
330
80A4
330
80BE
330
80C3
330
80C5
330
80C8
330
80C9
330
80F5
330
8103
330
8104
330
8105
330
8106
330
8107
330
859F
330
85A4
330
85B1
330
85B0
330
8A86
102
}
330
A
100
AcDbSymbolTableRecord
100
AcDbDimStyleTableRecord
  2
STANDARD
 70
     0
 41
2.0
 42
1.0
 43
0.5
 44
0.5
 69
     1
 73
     0
 74
     0
 77
     3
 78
    12
140
6.0
147
2.0
271
     1
272
     1
340
11
341
629D
342
629D
1001
ACAD_DSTYLE_DIMJAG
1070
   388
1040
1.5
1001
ACAD_DSTYLE_DIMTALN
1070
   392
1070
     0
  0
DIMSTYLE
105
64A7
102
{ACAD_REACTORS
330
85A5
330
85AF
330
804A
330
8108
102
}
330
A
100
AcDbSymbolTableRecord
100
AcDbDimStyleTableRecord
  2
STANDARD1
 70
     0
 41
2.0
 42
3.0
 43
0.5
 44
0.5
 77
     3
 78
    12
140
6.0
147
2.0
172
     1
271
     8
272
     8
289
     2
340
11
341
629D
342
629D
1001
ACAD_DSTYLE_DIMJAG
1070
   388
1040
1.5
1001
ACAD_DSTYLE_DIMTALN
1070
   392
1070
     0
  0
ENDTAB
  0
TABLE
  2
BLOCK_RECORD
  5
1
330
0
100
AcDbSymbolTable
 70
    35
  0
BLOCK_RECORD
  5
1F
102
{ACAD_XDICTIONARY
360
72CC
102
}
330
1
100
AcDbSymbolTableRecord
100
AcDbBlockTableRecord
  2
*Model_Space
340
22
 70
     0
280
     1
281
     0
  0
BLOCK_RECORD
  5
1B
330
1
100
AcDbSymbolTableRecord
100
AcDbBlockTableRecord
  2
*Paper_Space
340
1E
 70
     0
280
     1
281
     0
  0
BLOCK_RECORD
  5
23
330
1
100
AcDbSymbolTableRecord
100
AcDbBlockTableRecord
  2
*Paper_Space0
340
26
 70
     0
280
     1
281
     0
  0
BLOCK_RECORD
  5
629D
330
1
100
AcDbSymbolTableRecord
100
AcDbBlockTableRecord
  2
_OPEN
340
0
102
{BLKREFS
331
895E
331
895F
331
8977
331
8995
331
89F7
331
8943
331
8944
331
894C
331
894D
331
8955
331
8956
331
89F8
331
8A10
331
8A11
331
8A45
331
8A46
331
8A96
331
8A97
331
89EE
331
89EF
331
8ACF
331
8AD0
331
8B2A
331
8B2B
331
8928
331
8931
331
8932
331
893A
331
893B
331
890A
331
890B
331
8915
331
8916
331
891E
331
891F
331
8927
331
886E
331
886F
331
8889
331
888A
331
88AE
331
88AF
331
88DC
331
88DD
331
88E5
331
88E6
331
88F8
331
88F9
331
89A5
331
89A6
331
89AE
331
89AF
331
89C0
331
89C1
331
89C9
331
89CA
331
89D2
331
89D3
331
89DB
331
89DC
331
89E5
331
89E6
102
}
 70
     0
280
     1
281
     0
  0
BLOCK_RECORD
  5
810A
330
1
100
AcDbSymbolTableRecord
100
AcDbBlockTableRecord
  2
*D2
340
0
 70
     0
280
     1
281
     0
  0
BLOCK_RECORD
  5
8116
330
1
100
AcDbSymbolTableRecord
100
AcDbBlockTableRecord
  2
*D3
340
0
 70
     0
280
     1
281
     0
  0
BLOCK_RECORD
  5
8148
330
1
100
AcDbSymbolTableRecord
100
AcDbBlockTableRecord
  2
*D4
340
0
 70
     0
280
     1
281
     0
  0
BLOCK_RECORD
  5
8154
330
1
100
AcDbSymbolTableRecord
100
AcDbBlockTableRecord
  2
*D5
340
0
 70
     0
280
     1
281
     0
  0
BLOCK_RECORD
  5
8160
330
1
100
AcDbSymbolTableRecord
100
AcDbBlockTableRecord
  2
*D6
340
0
 70
     0
280
     1
281
     0
  0
BLOCK_RECORD
  5
816C
330
1
100
AcDbSymbolTableRecord
100
AcDbBlockTableRecord
  2
*D7
340
0
 70
     0
280
     1
281
     0
  0
BLOCK_RECORD
  5
8178
330
1
100
AcDbSymbolTableRecord
100
AcDbBlockTableRecord
  2
*D8
340
0
 70
     0
280
     1
281
     0
  0
BLOCK_RECORD
  5
8184
330
1
100
AcDbSymbolTableRecord
100
AcDbBlockTableRecord
  2
*D9
340
0
 70
     0
280
     1
281
     0
  0
BLOCK_RECORD
  5
8191
330
1
100
AcDbSymbolTableRecord
100
AcDbBlockTableRecord
  2
*D10
340
0
 70
     0
280
     1
281
     0
  0
BLOCK_RECORD
  5
819E
330
1
100
AcDbSymbolTableRecord
100
AcDbBlockTableRecord
  2
*D11
340
0
 70
     0
280
     1
281
     0
  0
BLOCK_RECORD
  5
81AA
330
1
100
AcDbSymbolTableRecord
100
AcDbBlockTableRecord
  2
*D12
340
0
 70
     0
280
     1
281
     0
  0
BLOCK_RECORD
  5
81B6
330
1
100
AcDbSymbolTableRecord
100
AcDbBlockTableRecord
  2
*D13
340
0
 70
     0
280
     1
281
     0
  0
BLOCK_RECORD
  5
81C2
330
1
100
AcDbSymbolTableRecord
100
AcDbBlockTableRecord
  2
*D14
340
0
 70
     0
280
     1
281
     0
  0
BLOCK_RECORD
  5
821C
330
1
100
AcDbSymbolTableRecord
100
AcDbBlockTableRecord
  2
*D15
340
0
 70
     0
280
     1
281
     0
  0
BLOCK_RECORD
  5
8229
330
1
100
AcDbSymbolTableRecord
100
AcDbBlockTableRecord
  2
*D16
340
0
 70
     0
280
     1
281
     0
  0
BLOCK_RECORD
  5
8235
330
1
100
AcDbSymbolTableRecord
100
AcDbBlockTableRecord
  2
*D17
340
0
 70
     0
280
     1
281
     0
  0
BLOCK_RECORD
  5
8241
330
1
100
AcDbSymbolTableRecord
100
AcDbBlockTableRecord
  2
*D18
340
0
 70
     0
280
     1
281
     0
  0
BLOCK_RECORD
  5
824F
330
1
100
AcDbSymbolTableRecord
100
AcDbBlockTableRecord
  2
*D19
340
0
 70
     0
280
     1
281
     0
  0
BLOCK_RECORD
  5
825B
330
1
100
AcDbSymbolTableRecord
100
AcDbBlockTableRecord
  2
*D20
340
0
 70
     0
280
     1
281
     0
  0
BLOCK_RECORD
  5
8267
330
1
100
AcDbSymbolTableRecord
100
AcDbBlockTableRecord
  2
*D21
340
0
 70
     0
280
     1
281
     0
  0
BLOCK_RECORD
  5
8274
330
1
100
AcDbSymbolTableRecord
100
AcDbBlockTableRecord
  2
*D22
340
0
 70
     0
280
     1
281
     0
  0
BLOCK_RECORD
  5
8280
330
1
100
AcDbSymbolTableRecord
100
AcDbBlockTableRecord
  2
*D23
340
0
 70
     0
280
     1
281
     0
  0
BLOCK_RECORD
  5
828C
330
1
100
AcDbSymbolTableRecord
100
AcDbBlockTableRecord
  2
*D24
340
0
 70
     0
280
     1
281
     0
  0
BLOCK_RECORD
  5
832C
330
1
100
AcDbSymbolTableRecord
100
AcDbBlockTableRecord
  2
*D25
340
0
 70
     0
280
     1
281
     0
  0
BLOCK_RECORD
  5
8371
330
1
100
AcDbSymbolTableRecord
100
AcDbBlockTableRecord
  2
*D26
340
0
 70
     0
280
     1
281
     0
  0
BLOCK_RECORD
  5
85B3
330
1
100
AcDbSymbolTableRecord
100
AcDbBlockTableRecord
  2
*D27
340
0
 70
     0
280
     1
281
     0
  0
BLOCK_RECORD
  5
85C0
330
1
100
AcDbSymbolTableRecord
100
AcDbBlockTableRecord
  2
*D28
340
0
 70
     0
280
     1
281
     0
  0
BLOCK_RECORD
  5
85CC
330
1
100
AcDbSymbolTableRecord
100
AcDbBlockTableRecord
  2
*D29
340
0
 70
     0
280
     1
281
     0
  0
BLOCK_RECORD
  5
85D5
330
1
100
AcDbSymbolTableRecord
100
AcDbBlockTableRecord
  2
*D30
340
0
 70
     0
280
     1
281
     0
  0
BLOCK_RECORD
  5
85DE
330
1
100
AcDbSymbolTableRecord
100
AcDbBlockTableRecord
  2
*D31
340
0
 70
     0
280
     1
281
     0
  0
BLOCK_RECORD
  5
85EA
330
1
100
AcDbSymbolTableRecord
100
AcDbBlockTableRecord
  2
*D32
340
0
 70
     0
280
     1
281
     0
  0
BLOCK_RECORD
  5
8A16
330
1
100
AcDbSymbolTableRecord
100
AcDbBlockTableRecord
  2
SW_CENTERMARKSYMBOL_18
340
0
102
{BLKREFS
331
8A2E
331
8A31
102
}
 70
     0
280
     1
281
     0
  0
BLOCK_RECORD
  5
8A87
330
1
100
AcDbSymbolTableRecord
100
AcDbBlockTableRecord
  2
*D34
340
0
 70
     0
280
     1
281
     0
  0
ENDTAB
  0
ENDSEC
  0
SECTION
  2
BLOCKS
  0
BLOCK
  5
20
330
1F
100
AcDbEntity
  8
0
100
AcDbBlockBegin
  2
*Model_Space
 70
     0
 10
0.0
 20
0.0
 30
0.0
  3
*Model_Space
  1
*Model_Space
  0
ENDBLK
  5
21
330
1F
100
AcDbEntity
  8
0
100
AcDbBlockEnd
  0
BLOCK
  5
1C
330
1B
100
AcDbEntity
 67
     1
  8
0
100
AcDbBlockBegin
  2
*Paper_Space
 70
     0
 10
0.0
 20
0.0
 30
0.0
  3
*Paper_Space
  1
*Paper_Space
  0
ENDBLK
  5
1D
330
1B
100
AcDbEntity
 67
     1
  8
0
100
AcDbBlockEnd
  0
BLOCK
  5
24
330
23
100
AcDbEntity
 67
     1
  8
0
100
AcDbBlockBegin
  2
*Paper_Space0
 70
     0
 10
0.0
 20
0.0
 30
0.0
  3
*Paper_Space0
  1
*Paper_Space0
  0
ENDBLK
  5
25
330
23
100
AcDbEntity
 67
     1
  8
0
100
AcDbBlockEnd
  0
BLOCK
  5
629E
330
629D
100
AcDbEntity
  8
0
100
AcDbBlockBegin
  2
_OPEN
 70
     0
 10
0.0
 20
0.0
 30
0.0
  3
_OPEN
  1

  0
LINE
  5
629F
330
629D
100
AcDbEntity
  8
30
  6
Continuous
 62
     0
100
AcDbLine
 10
-1.0
 20
0.166667
 30
0.0
 11
0.0
 21
0.0
 31
0.0
  0
LINE
  5
62A0
330
629D
100
AcDbEntity
  8
30
  6
Continuous
 62
     0
100
AcDbLine
 10
-1.0
 20
-0.166667
 30
0.0
 11
0.0
 21
0.0
 31
0.0
  0
LINE
  5
62A1
330
629D
100
AcDbEntity
  8
30
  6
Continuous
 62
     0
100
AcDbLine
 10
0.0
 20
0.0
 30
0.0
 11
-1.0
 21
0.0
 31
0.0
  0
ENDBLK
  5
62A2
330
629D
100
AcDbEntity
  8
0
100
AcDbBlockEnd
  0
BLOCK
  5
810B
330
810A
100
AcDbEntity
  8
0
100
AcDbBlockBegin
  2
*D2
 70
     1
 10
0.0
 20
0.0
 30
0.0
  3
*D2
  1

  0
LINE
  5
886B
330
810A
100
AcDbEntity
  8
30
 62
     0
440
 16777216
370
    -2
100
AcDbLine
 10
129.4553789877636
 20
287.5353320570763
 30
0.0
 11
129.4553789877636
 21
252.6552319766171
 31
0.0
  0
LINE
  5
886C
330
810A
100
AcDbEntity
  8
30
 62
     0
440
 16777216
370
    -2
100
AcDbLine
 10
69.48886113062052
 20
287.5353320570763
 30
0.0
 11
69.48886113062052
 21
252.6552319766171
 31
0.0
  0
LINE
  5
886D
330
810A
100
AcDbEntity
  8
30
 62
     0
440
 16777216
370
    -2
100
AcDbLine
 10
127.4553789877636
 20
253.1552319766171
 30
0.0
 11
71.48886113062054
 21
253.1552319766171
 31
0.0
  0
INSERT
  5
886E
330
810A
100
AcDbEntity
  8
30
 62
     0
440
 16777216
370
    -2
100
AcDbBlockReference
  2
_OPEN
 10
129.4553789877636
 20
253.1552319766171
 30
0.0
 41
2.0
 42
2.0
 43
2.0
  0
INSERT
  5
886F
330
810A
100
AcDbEntity
  8
30
 62
     0
440
 16777216
370
    -2
100
AcDbBlockReference
  2
_OPEN
 10
69.48886113062052
 20
253.1552319766171
 30
0.0
 41
2.0
 42
2.0
 43
2.0
 50
180.0
  0
MTEXT
  5
8870
330
810A
100
AcDbEntity
  8
30
 62
     0
440
 16777216
100
AcDbMText
 10
100.0924161041915
 20
261.1552319766171
 30
0.0
 40
6.0
 41
0.0
 46
0.0
 71
     2
 72
     1
  1
\A1;90
 73
     1
 44
1.0
 90
        3
 63
     9
421
 13158600
 45
1.1
441
        0
  0
POINT
  5
8871
330
810A
100
AcDbEntity
  8
Defpoints
 62
     0
440
 16777216
100
AcDbPoint
 10
129.4553789877636
 20
288.5353320570763
 30
0.0
  0
POINT
  5
8872
330
810A
100
AcDbEntity
  8
Defpoints
 62
     0
440
 16777216
100
AcDbPoint
 10
69.48886113062052
 20
288.5353320570763
 30
0.0
  0
POINT
  5
8873
330
810A
100
AcDbEntity
  8
Defpoints
 62
     0
440
 16777216
100
AcDbPoint
 10
69.48886113062052
 20
253.1552319766171
 30
0.0
  0
ENDBLK
  5
810C
330
810A
100
AcDbEntity
  8
0
100
AcDbBlockEnd
  0
BLOCK
  5
8117
330
8116
100
AcDbEntity
  8
0
100
AcDbBlockBegin
  2
*D3
 70
     1
 10
0.0
 20
0.0
 30
0.0
  3
*D3
  1

  0
LINE
  5
89BD
330
8116
100
AcDbEntity
  8
30
 62
     0
440
 16777216
370
    -2
100
AcDbLine
 10
68.48886113062054
 20
419.1352895950333
 30
0.0
 11
49.2614433610375
 21
419.1352895950333
 31
0.0
  0
LINE
  5
89BE
330
8116
100
AcDbEntity
  8
30
 62
     0
440
 16777216
370
    -2
100
AcDbLine
 10
68.48886113062054
 20
288.5353320570763
 30
0.0
 11
49.26144336103746
 21
288.5353320570763
 31
0.0
  0
LINE
  5
89BF
330
8116
100
AcDbEntity
  8
30
 62
     0
440
 16777216
370
    -2
100
AcDbLine
 10
49.7614433610375
 20
417.1352895950333
 30
0.0
 11
49.76144336103747
 21
290.5353320570763
 31
0.0
  0
INSERT
  5
89C0
330
8116
100
AcDbEntity
  8
30
 62
     0
440
 16777216
370
    -2
100
AcDbBlockReference
  2
_OPEN
 10
49.7614433610375
 20
419.1352895950333
 30
0.0
 41
2.0
 42
2.0
 43
2.0
 50
90.0
  0
INSERT
  5
89C1
330
8116
100
AcDbEntity
  8
30
 62
     0
440
 16777216
370
    -2
100
AcDbBlockReference
  2
_OPEN
 10
49.76144336103747
 20
288.5353320570763
 30
0.0
 41
2.0
 42
2.0
 43
2.0
 50
270.0
  0
MTEXT
  5
89C2
330
8116
100
AcDbEntity
  8
30
 62
     0
440
 16777216
100
AcDbMText
 10
44.76144336103742
 20
346.1241124033898
 30
0.0
 40
6.0
 41
0.0
 46
0.0
 71
     5
 72
     1
  1
\A1;130
 11
0.0000000000000001
 21
1.0
 31
0.0
 73
     1
 44
1.0
 90
        3
 63
     9
421
 13158600
 45
1.1
441
        0
  0
POINT
  5
89C3
330
8116
100
AcDbEntity
  8
Defpoints
 62
     0
440
 16777216
100
AcDbPoint
 10
69.48886113062052
 20
419.1352895950333
 30
0.0
  0
POINT
  5
89C4
330
8116
100
AcDbEntity
  8
Defpoints
 62
     0
440
 16777216
100
AcDbPoint
 10
69.48886113062052
 20
288.5353320570763
 30
0.0
  0
POINT
  5
89C5
330
8116
100
AcDbEntity
  8
Defpoints
 62
     0
440
 16777216
100
AcDbPoint
 10
49.76144336103747
 20
288.5353320570763
 30
0.0
  0
ENDBLK
  5
8118
330
8116
100
AcDbEntity
  8
0
100
AcDbBlockEnd
  0
BLOCK
  5
8149
330
8148
100
AcDbEntity
  8
0
100
AcDbBlockBegin
  2
*D4
 70
     1
 10
0.0
 20
0.0
 30
0.0
  3
*D4
  1

  0
LINE
  5
8A0D
330
8148
100
AcDbEntity
  8
30
 62
     0
440
 16777216
370
    -2
100
AcDbLine
 10
93.92726171864294
 20
199.6326433612327
 30
0.0
 11
56.06056889623996
 21
199.6326433612327
 31
0.0
  0
LINE
  5
8A0E
330
8148
100
AcDbEntity
  8
30
 62
     0
440
 16777216
370
    -2
100
AcDbLine
 10
83.46417530527606
 20
88.58912195349693
 30
0.0
 11
56.06056889623992
 21
88.58912195349693
 31
0.0
  0
LINE
  5
8A0F
330
8148
100
AcDbEntity
  8
30
 62
     0
440
 16777216
370
    -2
100
AcDbLine
 10
56.56056889623997
 20
197.6326433612327
 30
0.0
 11
56.56056889623993
 21
90.58912195349691
 31
0.0
  0
INSERT
  5
8A10
330
8148
100
AcDbEntity
  8
30
 62
     0
440
 16777216
370
    -2
100
AcDbBlockReference
  2
_OPEN
 10
56.56056889623997
 20
199.6326433612327
 30
0.0
 41
2.0
 42
2.0
 43
2.0
 50
90.0
  0
INSERT
  5
8A11
330
8148
100
AcDbEntity
  8
30
 62
     0
440
 16777216
370
    -2
100
AcDbBlockReference
  2
_OPEN
 10
56.56056889623993
 20
88.58912195349693
 30
0.0
 41
2.0
 42
2.0
 43
2.0
 50
270.0
  0
MTEXT
  5
8A12
330
8148
100
AcDbEntity
  8
30
 62
     0
440
 16777216
100
AcDbMText
 10
51.56056889623993
 20
144.1108826573648
 30
0.0
 40
6.0
 41
0.0
 46
0.0
 71
     5
 72
     1
  1
\A1;111
 11
0.0000000000000001
 21
1.0
 31
0.0
 73
     1
 44
1.0
 90
        3
 63
     9
421
 13158600
 45
1.1
441
        0
  0
POINT
  5
8A13
330
8148
100
AcDbEntity
  8
Defpoints
 62
     0
440
 16777216
100
AcDbPoint
 10
94.92726171864296
 20
199.6326433612327
 30
0.0
  0
POINT
  5
8A14
330
8148
100
AcDbEntity
  8
Defpoints
 62
     0
440
 16777216
100
AcDbPoint
 10
84.46417530527606
 20
88.58912195349693
 30
0.0
  0
POINT
  5
8A15
330
8148
100
AcDbEntity
  8
Defpoints
 62
     0
440
 16777216
100
AcDbPoint
 10
56.56056889623993
 20
88.58912195349693
 30
0.0
  0
ENDBLK
  5
814A
330
8148
100
AcDbEntity
  8
0
100
AcDbBlockEnd
  0
BLOCK
  5
8155
330
8154
100
AcDbEntity
  8
0
100
AcDbBlockBegin
  2
*D5
 70
     1
 10
0.0
 20
0.0
 30
0.0
  3
*D5
  1

  0
LINE
  5
8886
330
8154
100
AcDbEntity
  8
30
 62
     0
440
 16777216
370
    -2
100
AcDbLine
 10
126.9914710880376
 20
327.855699504433
 30
0.0
 11
126.9914710880376
 21
264.0062902516239
 31
0.0
  0
LINE
  5
8887
330
8154
100
AcDbEntity
  8
30
 62
     0
440
 16777216
370
    -2
100
AcDbLine
 10
71.99147108803765
 20
327.855699504433
 30
0.0
 11
71.99147108803765
 21
264.0062902516239
 31
0.0
  0
LINE
  5
8888
330
8154
100
AcDbEntity
  8
30
 62
     0
440
 16777216
370
    -2
100
AcDbLine
 10
124.9914710880376
 20
264.5062902516239
 30
0.0
 11
73.99147108803766
 21
264.5062902516239
 31
0.0
  0
INSERT
  5
8889
330
8154
100
AcDbEntity
  8
30
 62
     0
440
 16777216
370
    -2
100
AcDbBlockReference
  2
_OPEN
 10
126.9914710880376
 20
264.5062902516239
 30
0.0
 41
2.0
 42
2.0
 43
2.0
  0
INSERT
  5
888A
330
8154
100
AcDbEntity
  8
30
 62
     0
440
 16777216
370
    -2
100
AcDbBlockReference
  2
_OPEN
 10
71.99147108803765
 20
264.5062902516239
 30
0.0
 41
2.0
 42
2.0
 43
2.0
 50
180.0
  0
MTEXT
  5
888B
330
8154
100
AcDbEntity
  8
30
 62
     0
440
 16777216
100
AcDbMText
 10
99.49147108803764
 20
269.5062902516239
 30
0.0
 40
6.0
 41
0.0
 46
0.0
 71
     5
 72
     1
  1
\A1;55
 73
     1
 44
1.0
 90
        3
 63
     9
421
 13158600
 45
1.1
441
        0
  0
POINT
  5
888C
330
8154
100
AcDbEntity
  8
Defpoints
 62
     0
440
 16777216
100
AcDbPoint
 10
126.9914710880376
 20
328.855699504433
 30
0.0
  0
POINT
  5
888D
330
8154
100
AcDbEntity
  8
Defpoints
 62
     0
440
 16777216
100
AcDbPoint
 10
71.99147108803765
 20
328.855699504433
 30
0.0
  0
POINT
  5
888E
330
8154
100
AcDbEntity
  8
Defpoints
 62
     0
440
 16777216
100
AcDbPoint
 10
71.99147108803765
 20
264.5062902516239
 30
0.0
  0
ENDBLK
  5
8156
330
8154
100
AcDbEntity
  8
0
100
AcDbBlockEnd
  0
BLOCK
  5
8161
330
8160
100
AcDbEntity
  8
0
100
AcDbBlockBegin
  2
*D6
 70
     1
 10
0.0
 20
0.0
 30
0.0
  3
*D6
  1

  0
LINE
  5
8B27
330
8160
100
AcDbEntity
  8
30
  6
Continuous
 62
     0
440
 16777216
370
    -2
100
AcDbLine
 10
114.7401583106748
 20
631.6014932882569
 30
0.0
 11
114.7401583106748
 21
699.0502460644295
 31
0.0
  0
LINE
  5
8B28
330
8160
100
AcDbEntity
  8
30
  6
Continuous
 62
     0
440
 16777216
370
    -2
100
AcDbLine
 10
84.65732915134593
 20
683.5408013524845
 30
0.0
 11
84.65732915134593
 21
699.0502460644295
 31
0.0
  0
LINE
  5
8B29
330
8160
100
AcDbEntity
  8
30
  6
Continuous
 62
     0
440
 16777216
370
    -2
100
AcDbLine
 10
112.7401583106748
 20
698.5502460644295
 30
0.0
 11
86.65732915134594
 21
698.5502460644295
 31
0.0
  0
INSERT
  5
8B2A
330
8160
100
AcDbEntity
  8
30
  6
Continuous
 62
     0
440
 16777216
370
    -2
100
AcDbBlockReference
  2
_OPEN
 10
114.7401583106748
 20
698.5502460644295
 30
0.0
 41
2.0
 42
2.0
 43
2.0
  0
INSERT
  5
8B2B
330
8160
100
AcDbEntity
  8
30
  6
Continuous
 62
     0
440
 16777216
370
    -2
100
AcDbBlockReference
  2
_OPEN
 10
84.65732915134593
 20
698.5502460644295
 30
0.0
 41
2.0
 42
2.0
 43
2.0
 50
180.0
  0
MTEXT
  5
8B2C
330
8160
100
AcDbEntity
  8
30
  6
Continuous
 62
     0
440
 16777216
100
AcDbMText
 10
97.48119030485009
 20
703.5502460644295
 30
0.0
 40
6.0
 41
0.0
 46
0.0
 71
     5
 72
     1
  1
\A1;30
 73
     1
 44
1.0
 90
        3
 63
     9
421
 13158600
 45
1.1
441
        0
  0
POINT
  5
8B2D
330
8160
100
AcDbEntity
  8
Defpoints
  6
Continuous
 62
     0
440
 16777216
100
AcDbPoint
 10
114.7401583106748
 20
630.6014932882569
 30
0.0
  0
POINT
  5
8B2E
330
8160
100
AcDbEntity
  8
Defpoints
  6
Continuous
 62
     0
440
 16777216
100
AcDbPoint
 10
84.65732915134593
 20
682.5408013524845
 30
0.0
  0
POINT
  5
8B2F
330
8160
100
AcDbEntity
  8
Defpoints
  6
Continuous
 62
     0
440
 16777216
100
AcDbPoint
 10
84.65732915134593
 20
698.5502460644295
 30
0.0
  0
ENDBLK
  5
8162
330
8160
100
AcDbEntity
  8
0
100
AcDbBlockEnd
  0
BLOCK
  5
816D
330
816C
100
AcDbEntity
  8
0
100
AcDbBlockBegin
  2
*D7
 70
     1
 10
0.0
 20
0.0
 30
0.0
  3
*D7
  1

  0
LINE
  5
89D8
330
816C
100
AcDbEntity
  8
30
  6
Continuous
 62
     0
440
 16777216
370
    -2
100
AcDbLine
 10
125.6304418096501
 20
617.5502460644295
 30
0.0
 11
140.3544382328368
 21
617.5502460644295
 31
0.0
  0
LINE
  5
89D9
330
816C
100
AcDbEntity
  8
30
  6
Continuous
 62
     0
440
 16777216
370
    -2
100
AcDbLine
 10
123.4811903048501
 20
580.5502460644295
 30
0.0
 11
140.3544382328368
 21
580.5502460644295
 31
0.0
  0
LINE
  5
89DA
330
816C
100
AcDbEntity
  8
30
  6
Continuous
 62
     0
440
 16777216
370
    -2
100
AcDbLine
 10
139.8544382328368
 20
615.5502460644295
 30
0.0
 11
139.8544382328368
 21
582.5502460644295
 31
0.0
  0
INSERT
  5
89DB
330
816C
100
AcDbEntity
  8
30
  6
Continuous
 62
     0
440
 16777216
370
    -2
100
AcDbBlockReference
  2
_OPEN
 10
139.8544382328368
 20
617.5502460644295
 30
0.0
 41
2.0
 42
2.0
 43
2.0
 50
90.0
  0
INSERT
  5
89DC
330
816C
100
AcDbEntity
  8
30
  6
Continuous
 62
     0
440
 16777216
370
    -2
100
AcDbBlockReference
  2
_OPEN
 10
139.8544382328368
 20
580.5502460644295
 30
0.0
 41
2.0
 42
2.0
 43
2.0
 50
270.0
  0
MTEXT
  5
89DD
330
816C
100
AcDbEntity
  8
30
  6
Continuous
 62
     0
440
 16777216
100
AcDbMText
 10
134.8544382328367
 20
599.0502460644295
 30
0.0
 40
6.0
 41
0.0
 46
0.0
 71
     5
 72
     1
  1
\A1;37
 11
0.0000000000000001
 21
1.0
 31
0.0
 73
     1
 44
1.0
 90
        3
 63
     9
421
 13158600
 45
1.1
441
        0
  0
POINT
  5
89DE
330
816C
100
AcDbEntity
  8
Defpoints
  6
Continuous
 62
     0
440
 16777216
100
AcDbPoint
 10
124.6304418096501
 20
617.5502460644295
 30
0.0
  0
POINT
  5
89DF
330
816C
100
AcDbEntity
  8
Defpoints
  6
Continuous
 62
     0
440
 16777216
100
AcDbPoint
 10
122.4811903048501
 20
580.5502460644295
 30
0.0
  0
POINT
  5
89E0
330
816C
100
AcDbEntity
  8
Defpoints
  6
Continuous
 62
     0
440
 16777216
100
AcDbPoint
 10
139.8544382328368
 20
580.5502460644295
 30
0.0
  0
ENDBLK
  5
816E
330
816C
100
AcDbEntity
  8
0
100
AcDbBlockEnd
  0
BLOCK
  5
8179
330
8178
100
AcDbEntity
  8
0
100
AcDbBlockBegin
  2
*D8
 70
     1
 10
0.0
 20
0.0
 30
0.0
  3
*D8
  1

  0
LINE
  5
89CF
330
8178
100
AcDbEntity
  8
30
  6
Continuous
 62
     0
440
 16777216
370
    -2
100
AcDbLine
 10
110.9811903048501
 20
632.5502460644295
 30
0.0
 11
152.4919933702408
 21
632.5502460644295
 31
0.0
  0
LINE
  5
89D0
330
8178
100
AcDbEntity
  8
30
  6
Continuous
 62
     0
440
 16777216
370
    -2
100
AcDbLine
 10
123.4811903048501
 20
580.5502460644295
 30
0.0
 11
152.4919933702408
 21
580.5502460644295
 31
0.0
  0
LINE
  5
89D1
330
8178
100
AcDbEntity
  8
30
  6
Continuous
 62
     0
440
 16777216
370
    -2
100
AcDbLine
 10
151.9919933702408
 20
630.5502460644295
 30
0.0
 11
151.9919933702408
 21
582.5502460644295
 31
0.0
  0
INSERT
  5
89D2
330
8178
100
AcDbEntity
  8
30
  6
Continuous
 62
     0
440
 16777216
370
    -2
100
AcDbBlockReference
  2
_OPEN
 10
151.9919933702408
 20
632.5502460644295
 30
0.0
 41
2.0
 42
2.0
 43
2.0
 50
90.0
  0
INSERT
  5
89D3
330
8178
100
AcDbEntity
  8
30
  6
Continuous
 62
     0
440
 16777216
370
    -2
100
AcDbBlockReference
  2
_OPEN
 10
151.9919933702408
 20
580.5502460644295
 30
0.0
 41
2.0
 42
2.0
 43
2.0
 50
270.0
  0
MTEXT
  5
89D4
330
8178
100
AcDbEntity
  8
30
  6
Continuous
 62
     0
440
 16777216
100
AcDbMText
 10
146.9919933702407
 20
606.5502460644295
 30
0.0
 40
6.0
 41
0.0
 46
0.0
 71
     5
 72
     1
  1
\A1;52
 11
0.0000000000000001
 21
1.0
 31
0.0
 73
     1
 44
1.0
 90
        3
 63
     9
421
 13158600
 45
1.1
441
        0
  0
POINT
  5
89D5
330
8178
100
AcDbEntity
  8
Defpoints
  6
Continuous
 62
     0
440
 16777216
100
AcDbPoint
 10
109.9811903048501
 20
632.5502460644295
 30
0.0
  0
POINT
  5
89D6
330
8178
100
AcDbEntity
  8
Defpoints
  6
Continuous
 62
     0
440
 16777216
100
AcDbPoint
 10
122.4811903048501
 20
580.5502460644295
 30
0.0
  0
POINT
  5
89D7
330
8178
100
AcDbEntity
  8
Defpoints
  6
Continuous
 62
     0
440
 16777216
100
AcDbPoint
 10
151.9919933702408
 20
580.5502460644295
 30
0.0
  0
ENDBLK
  5
817A
330
8178
100
AcDbEntity
  8
0
100
AcDbBlockEnd
  0
BLOCK
  5
8185
330
8184
100
AcDbEntity
  8
0
100
AcDbBlockBegin
  2
*D9
 70
     1
 10
0.0
 20
0.0
 30
0.0
  3
*D9
  1

  0
LINE
  5
88AA
330
8184
100
AcDbEntity
  8
30
  6
Continuous
 62
     0
440
 16777216
370
    -2
100
AcDbLine
 10
93.39099244509032
 20
587.589909917578
 30
0.0
 11
57.21218165329467
 21
587.589909917578
 31
0.0
  0
LINE
  5
88AB
330
8184
100
AcDbEntity
  8
30
  6
Continuous
 62
     0
440
 16777216
370
    -2
100
AcDbLine
 10
68.45336231856004
 20
580.5502460644295
 30
0.0
 11
57.21218165329467
 21
580.5502460644295
 31
0.0
  0
LINE
  5
88AC
330
8184
100
AcDbEntity
  8
30
  6
Continuous
 62
     0
440
 16777216
370
    -2
100
AcDbLine
 10
57.71218165329467
 20
578.5502460644295
 30
0.0
 11
57.71218165329467
 21
576.5502460644295
 31
0.0
  0
LINE
  5
88AD
330
8184
100
AcDbEntity
  8
30
  6
Continuous
 62
     0
440
 16777216
370
    -2
100
AcDbLine
 10
57.71218165329467
 20
589.5899099175781
 30
0.0
 11
57.71218165329468
 21
600.8695642462478
 31
0.0
  0
INSERT
  5
88AE
330
8184
100
AcDbEntity
  8
30
  6
Continuous
 62
     0
440
 16777216
370
    -2
100
AcDbBlockReference
  2
_OPEN
 10
57.71218165329467
 20
580.5502460644295
 30
0.0
 41
2.0
 42
2.0
 43
2.0
 50
90.0
  0
INSERT
  5
88AF
330
8184
100
AcDbEntity
  8
30
  6
Continuous
 62
     0
440
 16777216
370
    -2
100
AcDbBlockReference
  2
_OPEN
 10
57.71218165329467
 20
587.589909917578
 30
0.0
 41
2.0
 42
2.0
 43
2.0
 50
270.0
  0
MTEXT
  5
88B0
330
8184
100
AcDbEntity
  8
30
  6
Continuous
 62
     0
440
 16777216
100
AcDbMText
 10
52.71218165329457
 20
597.2502460644292
 30
0.0
 40
6.0
 41
0.0
 46
0.0
 71
     5
 72
     1
  1
\A1;7
 11
0.0000000000000001
 21
1.0
 31
0.0
 73
     1
 44
1.0
 90
        3
 63
     9
421
 13158600
 45
1.1
441
        0
  0
POINT
  5
88B1
330
8184
100
AcDbEntity
  8
Defpoints
  6
Continuous
 62
     0
440
 16777216
100
AcDbPoint
 10
94.39099244509032
 20
587.589909917578
 30
0.0
  0
POINT
  5
88B2
330
8184
100
AcDbEntity
  8
Defpoints
  6
Continuous
 62
     0
440
 16777216
100
AcDbPoint
 10
69.45336231856003
 20
580.5502460644295
 30
0.0
  0
POINT
  5
88B3
330
8184
100
AcDbEntity
  8
Defpoints
  6
Continuous
 62
     0
440
 16777216
100
AcDbPoint
 10
57.71218165329467
 20
580.5502460644295
 30
0.0
  0
ENDBLK
  5
8186
330
8184
100
AcDbEntity
  8
0
100
AcDbBlockEnd
  0
BLOCK
  5
8192
330
8191
100
AcDbEntity
  8
0
100
AcDbBlockBegin
  2
*D10
 70
     1
 10
0.0
 20
0.0
 30
0.0
  3
*D10
  1

  0
LINE
  5
89E1
330
8191
100
AcDbEntity
  8
30
  6
Continuous
 62
     0
440
 16777216
370
    -2
100
AcDbLine
 10
115.7401580488124
 20
624.1341063144083
 30
0.0
 11
136.5176972657374
 21
624.1341063144083
 31
0.0
  0
LINE
  5
89E2
330
8191
100
AcDbEntity
  8
30
  6
Continuous
 62
     0
440
 16777216
370
    -2
100
AcDbLine
 10
115.7401583106748
 20
611.5783027429797
 30
0.0
 11
136.5176972657374
 21
611.5783027429797
 31
0.0
  0
LINE
  5
89E3
330
8191
100
AcDbEntity
  8
30
  6
Continuous
 62
     0
440
 16777216
370
    -2
100
AcDbLine
 10
136.0176972657374
 20
613.5783027429797
 30
0.0
 11
136.0176972657374
 21
622.1341063144083
 31
0.0
  0
LINE
  5
89E4
330
8191
100
AcDbEntity
  8
30
  6
Continuous
 62
     0
440
 16777216
370
    -2
100
AcDbLine
 10
136.0176972657374
 20
624.1341063144083
 30
0.0
 11
136.0176972657374
 21
653.5209232535452
 31
0.0
  0
INSERT
  5
89E5
330
8191
100
AcDbEntity
  8
30
  6
Continuous
 62
     0
440
 16777216
370
    -2
100
AcDbBlockReference
  2
_OPEN
 10
136.0176972657374
 20
611.5783027429797
 30
0.0
 41
2.0
 42
2.0
 43
2.0
 50
270.0
  0
INSERT
  5
89E6
330
8191
100
AcDbEntity
  8
30
  6
Continuous
 62
     0
440
 16777216
370
    -2
100
AcDbBlockReference
  2
_OPEN
 10
136.0176972657374
 20
624.1341063144083
 30
0.0
 41
2.0
 42
2.0
 43
2.0
 50
90.0
  0
MTEXT
  5
89E7
330
8191
100
AcDbEntity
  8
30
  6
Continuous
 62
     0
440
 16777216
100
AcDbMText
 10
131.0176972657373
 20
644.7709232535451
 30
0.0
 40
6.0
 41
0.0
 46
0.0
 71
     5
 72
     1
  1
\A1;12.5
 11
0.0000000000000001
 21
1.0
 31
0.0
 73
     1
 44
1.0
 90
        3
 63
     9
421
 13158600
 45
1.1
441
        0
  0
POINT
  5
89E8
330
8191
100
AcDbEntity
  8
Defpoints
  6
Continuous
 62
     0
440
 16777216
100
AcDbPoint
 10
114.7401580488124
 20
624.1341063144083
 30
0.0
  0
POINT
  5
89E9
330
8191
100
AcDbEntity
  8
Defpoints
  6
Continuous
 62
     0
440
 16777216
100
AcDbPoint
 10
114.7401583106748
 20
611.5783027429797
 30
0.0
  0
POINT
  5
89EA
330
8191
100
AcDbEntity
  8
Defpoints
  6
Continuous
 62
     0
440
 16777216
100
AcDbPoint
 10
136.0176972657374
 20
611.5783027429797
 30
0.0
  0
ENDBLK
  5
8193
330
8191
100
AcDbEntity
  8
0
100
AcDbBlockEnd
  0
BLOCK
  5
819F
330
819E
100
AcDbEntity
  8
0
100
AcDbBlockBegin
  2
*D11
 70
     1
 10
0.0
 20
0.0
 30
0.0
  3
*D11
  1

  0
LINE
  5
8A42
330
819E
100
AcDbEntity
  8
30
  6
Continuous
 62
     0
440
 16777216
370
    -2
100
AcDbLine
 10
68.56323255470624
 20
667.5502460644296
 30
0.0
 11
43.93123103216352
 21
667.5502460644296
 31
0.0
  0
LINE
  5
8A43
330
819E
100
AcDbEntity
  8
30
  6
Continuous
 62
     0
440
 16777216
370
    -2
100
AcDbLine
 10
75.93123103216351
 20
580.5502460644295
 30
0.0
 11
43.93123103216349
 21
580.5502460644295
 31
0.0
  0
LINE
  5
8A44
330
819E
100
AcDbEntity
  8
30
  6
Continuous
 62
     0
440
 16777216
370
    -2
100
AcDbLine
 10
44.43123103216353
 20
665.5502460644296
 30
0.0
 11
44.4312310321635
 21
582.5502460644295
 31
0.0
  0
INSERT
  5
8A45
330
819E
100
AcDbEntity
  8
30
  6
Continuous
 62
     0
440
 16777216
370
    -2
100
AcDbBlockReference
  2
_OPEN
 10
44.43123103216353
 20
667.5502460644296
 30
0.0
 41
2.0
 42
2.0
 43
2.0
 50
90.0
  0
INSERT
  5
8A46
330
819E
100
AcDbEntity
  8
30
  6
Continuous
 62
     0
440
 16777216
370
    -2
100
AcDbBlockReference
  2
_OPEN
 10
44.4312310321635
 20
580.5502460644295
 30
0.0
 41
2.0
 42
2.0
 43
2.0
 50
270.0
  0
MTEXT
  5
8A47
330
819E
100
AcDbEntity
  8
30
  6
Continuous
 62
     0
440
 16777216
100
AcDbMText
 10
39.43123103216342
 20
624.0502460644295
 30
0.0
 40
6.0
 41
0.0
 46
0.0
 71
     5
 72
     1
  1
\A1;87
 11
0.0000000000000001
 21
1.0
 31
0.0
 73
     1
 44
1.0
 90
        3
 63
     9
421
 13158600
 45
1.1
441
        0
  0
POINT
  5
8A48
330
819E
100
AcDbEntity
  8
Defpoints
  6
Continuous
 62
     0
440
 16777216
100
AcDbPoint
 10
69.56323255470625
 20
667.5502460644296
 30
0.0
  0
POINT
  5
8A49
330
819E
100
AcDbEntity
  8
Defpoints
  6
Continuous
 62
     0
440
 16777216
100
AcDbPoint
 10
76.9312310321635
 20
580.5502460644295
 30
0.0
  0
POINT
  5
8A4A
330
819E
100
AcDbEntity
  8
Defpoints
  6
Continuous
 62
     0
440
 16777216
100
AcDbPoint
 10
44.4312310321635
 20
580.5502460644295
 30
0.0
  0
ENDBLK
  5
81A0
330
819E
100
AcDbEntity
  8
0
100
AcDbBlockEnd
  0
BLOCK
  5
81AB
330
81AA
100
AcDbEntity
  8
0
100
AcDbBlockBegin
  2
*D12
 70
     1
 10
0.0
 20
0.0
 30
0.0
  3
*D12
  1

  0
LINE
  5
89F4
330
81AA
100
AcDbEntity
  8
30
  6
Continuous
 62
     0
440
 16777216
370
    -2
100
AcDbLine
 10
83.65732929931246
 20
682.5408013524845
 30
0.0
 11
33.93123103216353
 21
682.5408013524845
 31
0.0
  0
LINE
  5
89F5
330
81AA
100
AcDbEntity
  8
30
  6
Continuous
 62
     0
440
 16777216
370
    -2
100
AcDbLine
 10
75.93123103216351
 20
580.5502460644295
 30
0.0
 11
33.93123103216351
 21
580.5502460644295
 31
0.0
  0
LINE
  5
89F6
330
81AA
100
AcDbEntity
  8
30
  6
Continuous
 62
     0
440
 16777216
370
    -2
100
AcDbLine
 10
34.43123103216353
 20
680.5408013524846
 30
0.0
 11
34.43123103216351
 21
582.5502460644295
 31
0.0
  0
INSERT
  5
89F7
330
81AA
100
AcDbEntity
  8
30
  6
Continuous
 62
     0
440
 16777216
370
    -2
100
AcDbBlockReference
  2
_OPEN
 10
34.43123103216353
 20
682.5408013524845
 30
0.0
 41
2.0
 42
2.0
 43
2.0
 50
90.0
  0
INSERT
  5
89F8
330
81AA
100
AcDbEntity
  8
30
  6
Continuous
 62
     0
440
 16777216
370
    -2
100
AcDbBlockReference
  2
_OPEN
 10
34.43123103216351
 20
580.5502460644295
 30
0.0
 41
2.0
 42
2.0
 43
2.0
 50
270.0
  0
MTEXT
  5
89F9
330
81AA
100
AcDbEntity
  8
30
  6
Continuous
 62
     0
440
 16777216
100
AcDbMText
 10
29.43123103216342
 20
631.545523708457
 30
0.0
 40
6.0
 41
0.0
 46
0.0
 71
     5
 72
     1
  1
\A1;102
 11
0.0000000000000001
 21
1.0
 31
0.0
 73
     1
 44
1.0
 90
        3
 63
     9
421
 13158600
 45
1.1
441
        0
  0
POINT
  5
89FA
330
81AA
100
AcDbEntity
  8
Defpoints
  6
Continuous
 62
     0
440
 16777216
100
AcDbPoint
 10
84.65732929931245
 20
682.5408013524845
 30
0.0
  0
POINT
  5
89FB
330
81AA
100
AcDbEntity
  8
Defpoints
  6
Continuous
 62
     0
440
 16777216
100
AcDbPoint
 10
76.9312310321635
 20
580.5502460644295
 30
0.0
  0
POINT
  5
89FC
330
81AA
100
AcDbEntity
  8
Defpoints
  6
Continuous
 62
     0
440
 16777216
100
AcDbPoint
 10
34.43123103216351
 20
580.5502460644295
 30
0.0
  0
ENDBLK
  5
81AC
330
81AA
100
AcDbEntity
  8
0
100
AcDbBlockEnd
  0
BLOCK
  5
81B7
330
81B6
100
AcDbEntity
  8
0
100
AcDbBlockBegin
  2
*D13
 70
     1
 10
0.0
 20
0.0
 30
0.0
  3
*D13
  1

  0
LINE
  5
89C6
330
81B6
100
AcDbEntity
  8
30
  6
Continuous
 62
     0
440
 16777216
370
    -2
100
AcDbLine
 10
130.9590590184537
 20
580.5502460644295
 30
0.0
 11
152.4919933702408
 21
580.5502460644295
 31
0.0
  0
LINE
  5
89C7
330
81B6
100
AcDbEntity
  8
30
  6
Continuous
 62
     0
440
 16777216
370
    -2
100
AcDbLine
 10
127.9235602063931
 20
507.5687076419306
 30
0.0
 11
152.4919933702408
 21
507.5687076419306
 31
0.0
  0
LINE
  5
89C8
330
81B6
100
AcDbEntity
  8
30
  6
Continuous
 62
     0
440
 16777216
370
    -2
100
AcDbLine
 10
151.9919933702408
 20
578.5502460644295
 30
0.0
 11
151.9919933702408
 21
509.5687076419306
 31
0.0
  0
INSERT
  5
89C9
330
81B6
100
AcDbEntity
  8
30
  6
Continuous
 62
     0
440
 16777216
370
    -2
100
AcDbBlockReference
  2
_OPEN
 10
151.9919933702408
 20
580.5502460644295
 30
0.0
 41
2.0
 42
2.0
 43
2.0
 50
90.0
  0
INSERT
  5
89CA
330
81B6
100
AcDbEntity
  8
30
  6
Continuous
 62
     0
440
 16777216
370
    -2
100
AcDbBlockReference
  2
_OPEN
 10
151.9919933702408
 20
507.5687076419306
 30
0.0
 41
2.0
 42
2.0
 43
2.0
 50
270.0
  0
MTEXT
  5
89CB
330
81B6
100
AcDbEntity
  8
30
  6
Continuous
 62
     0
440
 16777216
100
AcDbMText
 10
146.9919933702407
 20
544.05947685318
 30
0.0
 40
6.0
 41
0.0
 46
0.0
 71
     5
 72
     1
  1
\A1;73
 11
0.0000000000000001
 21
1.0
 31
0.0
 73
     1
 44
1.0
 90
        3
 63
     9
421
 13158600
 45
1.1
441
        0
  0
POINT
  5
89CC
330
81B6
100
AcDbEntity
  8
Defpoints
  6
Continuous
 62
     0
440
 16777216
100
AcDbPoint
 10
129.9590590184537
 20
580.5502460644295
 30
0.0
  0
POINT
  5
89CD
330
81B6
100
AcDbEntity
  8
Defpoints
  6
Continuous
 62
     0
440
 16777216
100
AcDbPoint
 10
126.9235602063931
 20
507.5687076419306
 30
0.0
  0
POINT
  5
89CE
330
81B6
100
AcDbEntity
  8
Defpoints
  6
Continuous
 62
     0
440
 16777216
100
AcDbPoint
 10
151.9919933702408
 20
507.5687076419306
 30
0.0
  0
ENDBLK
  5
81B8
330
81B6
100
AcDbEntity
  8
0
100
AcDbBlockEnd
  0
BLOCK
  5
81C3
330
81C2
100
AcDbEntity
  8
0
100
AcDbBlockBegin
  2
*D14
 70
     1
 10
0.0
 20
0.0
 30
0.0
  3
*D14
  1

  0
LINE
  5
88D9
330
81C2
100
AcDbEntity
  8
30
 62
     0
440
 16777216
370
    -2
100
AcDbLine
 10
71.76417530527601
 20
201.0858826573648
 30
0.0
 11
37.74561499595839
 21
201.0858826573649
 31
0.0
  0
LINE
  5
88DA
330
81C2
100
AcDbEntity
  8
30
 62
     0
440
 16777216
370
    -2
100
AcDbLine
 10
71.76417530527601
 20
87.08588066449076
 30
0.0
 11
37.74561499595836
 21
87.08588066449076
 31
0.0
  0
LINE
  5
88DB
330
81C2
100
AcDbEntity
  8
30
 62
     0
440
 16777216
370
    -2
100
AcDbLine
 10
38.24561499595839
 20
199.0858826573649
 30
0.0
 11
38.24561499595836
 21
89.08588066449075
 31
0.0
  0
INSERT
  5
88DC
330
81C2
100
AcDbEntity
  8
30
 62
     0
440
 16777216
370
    -2
100
AcDbBlockReference
  2
_OPEN
 10
38.24561499595839
 20
201.0858826573649
 30
0.0
 41
2.0
 42
2.0
 43
2.0
 50
90.0
  0
INSERT
  5
88DD
330
81C2
100
AcDbEntity
  8
30
 62
     0
440
 16777216
370
    -2
100
AcDbBlockReference
  2
_OPEN
 10
38.24561499595836
 20
87.08588066449076
 30
0.0
 41
2.0
 42
2.0
 43
2.0
 50
270.0
  0
MTEXT
  5
88DE
330
81C2
100
AcDbEntity
  8
30
 62
     0
440
 16777216
100
AcDbMText
 10
33.24561499595836
 20
144.0858816609278
 30
0.0
 40
6.0
 41
0.0
 46
0.0
 71
     5
 72
     1
  1
\A1;114
 11
0.0000000000000001
 21
1.0
 31
0.0
 73
     1
 44
1.0
 90
        3
 63
     9
421
 13158600
 45
1.1
441
        0
  0
POINT
  5
88DF
330
81C2
100
AcDbEntity
  8
Defpoints
 62
     0
440
 16777216
100
AcDbPoint
 10
72.76417530527601
 20
201.0858826573648
 30
0.0
  0
POINT
  5
88E0
330
81C2
100
AcDbEntity
  8
Defpoints
 62
     0
440
 16777216
100
AcDbPoint
 10
72.76417530527601
 20
87.08588066449076
 30
0.0
  0
POINT
  5
88E1
330
81C2
100
AcDbEntity
  8
Defpoints
 62
     0
440
 16777216
100
AcDbPoint
 10
38.24561499595836
 20
87.08588066449076
 30
0.0
  0
ENDBLK
  5
81C4
330
81C2
100
AcDbEntity
  8
0
100
AcDbBlockEnd
  0
BLOCK
  5
821D
330
821C
100
AcDbEntity
  8
0
100
AcDbBlockBegin
  2
*D15
 70
     1
 10
0.0
 20
0.0
 30
0.0
  3
*D15
  1

  0
LINE
  5
88F4
330
821C
100
AcDbEntity
  8
30
  6
Continuous
 62
     0
440
 16777216
370
    -2
100
AcDbLine
 10
110.4711848644597
 20
618.5502460644295
 30
0.0
 11
110.4711848644597
 21
647.6965532763704
 31
0.0
  0
LINE
  5
88F5
330
821C
100
AcDbEntity
  8
30
  6
Continuous
 62
     0
440
 16777216
370
    -2
100
AcDbLine
 10
119.0091298859777
 20
618.5502460644295
 30
0.0
 11
119.0091298859777
 21
647.6965532763704
 31
0.0
  0
LINE
  5
88F6
330
821C
100
AcDbEntity
  8
30
  6
Continuous
 62
     0
440
 16777216
370
    -2
100
AcDbLine
 10
117.0091298859777
 20
647.1965532763704
 30
0.0
 11
112.4711848644597
 21
647.1965532763704
 31
0.0
  0
LINE
  5
88F7
330
821C
100
AcDbEntity
  8
30
  6
Continuous
 62
     0
440
 16777216
370
    -2
100
AcDbLine
 10
110.4711848644597
 20
647.1965532763704
 30
0.0
 11
92.55728661203407
 21
647.1965532763704
 31
0.0
  0
INSERT
  5
88F8
330
821C
100
AcDbEntity
  8
30
  6
Continuous
 62
     0
440
 16777216
370
    -2
100
AcDbBlockReference
  2
_OPEN
 10
119.0091298859777
 20
647.1965532763704
 30
0.0
 41
2.0
 42
2.0
 43
2.0
  0
INSERT
  5
88F9
330
821C
100
AcDbEntity
  8
30
  6
Continuous
 62
     0
440
 16777216
370
    -2
100
AcDbBlockReference
  2
_OPEN
 10
110.4711848644597
 20
647.1965532763704
 30
0.0
 41
2.0
 42
2.0
 43
2.0
 50
180.0
  0
MTEXT
  5
88FA
330
821C
100
AcDbEntity
  8
30
  6
Continuous
 62
     0
440
 16777216
100
AcDbMText
 10
99.38115024839772
 20
652.1965532763704
 30
0.0
 40
6.0
 41
0.0
 46
0.0
 71
     5
 72
     1
  1
\A1;8.5
 73
     1
 44
1.0
 90
        3
 63
     9
421
 13158600
 45
1.1
441
        0
  0
POINT
  5
88FB
330
821C
100
AcDbEntity
  8
Defpoints
  6
Continuous
 62
     0
440
 16777216
100
AcDbPoint
 10
110.4711848644597
 20
617.5502460644295
 30
0.0
  0
POINT
  5
88FC
330
821C
100
AcDbEntity
  8
Defpoints
  6
Continuous
 62
     0
440
 16777216
100
AcDbPoint
 10
119.0091298859777
 20
617.5502460644295
 30
0.0
  0
POINT
  5
88FD
330
821C
100
AcDbEntity
  8
Defpoints
  6
Continuous
 62
     0
440
 16777216
100
AcDbPoint
 10
119.0091298859777
 20
647.1965532763704
 30
0.0
  0
ENDBLK
  5
821E
330
821C
100
AcDbEntity
  8
0
100
AcDbBlockEnd
  0
BLOCK
  5
822A
330
8229
100
AcDbEntity
  8
0
100
AcDbBlockBegin
  2
*D16
 70
     1
 10
0.0
 20
0.0
 30
0.0
  3
*D16
  1

  0
LINE
  5
89EB
330
8229
100
AcDbEntity
  8
30
  6
Continuous
 62
     0
440
 16777216
370
    -2
100
AcDbLine
 10
106.790431709015
 20
631.5014931504004
 30
0.0
 11
106.790431709015
 21
658.9901331001227
 31
0.0
  0
LINE
  5
89EC
330
8229
100
AcDbEntity
  8
30
  6
Continuous
 62
     0
440
 16777216
370
    -2
100
AcDbLine
 10
122.7605203990791
 20
631.6014931504004
 30
0.0
 11
122.7605203990791
 21
658.9901331001227
 31
0.0
  0
LINE
  5
89ED
330
8229
100
AcDbEntity
  8
30
  6
Continuous
 62
     0
440
 16777216
370
    -2
100
AcDbLine
 10
108.790431709015
 20
658.4901331001227
 30
0.0
 11
120.7605203990791
 21
658.4901331001227
 31
0.0
  0
INSERT
  5
89EE
330
8229
100
AcDbEntity
  8
30
  6
Continuous
 62
     0
440
 16777216
370
    -2
100
AcDbBlockReference
  2
_OPEN
 10
106.790431709015
 20
658.4901331001227
 30
0.0
 41
2.0
 42
2.0
 43
2.0
 50
180.0
  0
INSERT
  5
89EF
330
8229
100
AcDbEntity
  8
30
  6
Continuous
 62
     0
440
 16777216
370
    -2
100
AcDbBlockReference
  2
_OPEN
 10
122.7605203990791
 20
658.4901331001227
 30
0.0
 41
2.0
 42
2.0
 43
2.0
  0
MTEXT
  5
89F0
330
8229
100
AcDbEntity
  8
30
  6
Continuous
 62
     0
440
 16777216
100
AcDbMText
 10
114.7754760540471
 20
663.4901331001227
 30
0.0
 40
6.0
 41
0.0
 46
0.0
 71
     5
 72
     1
  1
\A1;16
 73
     1
 44
1.0
 90
        3
 63
     9
421
 13158600
 45
1.1
441
        0
  0
POINT
  5
89F1
330
8229
100
AcDbEntity
  8
Defpoints
  6
Continuous
 62
     0
440
 16777216
100
AcDbPoint
 10
106.790431709015
 20
630.5014931504004
 30
0.0
  0
POINT
  5
89F2
330
8229
100
AcDbEntity
  8
Defpoints
  6
Continuous
 62
     0
440
 16777216
100
AcDbPoint
 10
122.7605203990791
 20
630.6014931504002
 30
0.0
  0
POINT
  5
89F3
330
8229
100
AcDbEntity
  8
Defpoints
  6
Continuous
 62
     0
440
 16777216
100
AcDbPoint
 10
122.7605203990791
 20
658.4901331001227
 30
0.0
  0
ENDBLK
  5
822B
330
8229
100
AcDbEntity
  8
0
100
AcDbBlockEnd
  0
BLOCK
  5
8236
330
8235
100
AcDbEntity
  8
0
100
AcDbBlockBegin
  2
*D17
 70
     1
 10
0.0
 20
0.0
 30
0.0
  3
*D17
  1

  0
LINE
  5
8907
330
8235
100
AcDbEntity
  8
30
  6
Continuous
 62
     0
440
 16777216
370
    -2
100
AcDbLine
 10
280.9840558237052
 20
378.7638408316517
 30
0.0
 11
243.3840558237054
 21
378.7638408316517
 31
0.0
  0
LINE
  5
8908
330
8235
100
AcDbEntity
  8
30
  6
Continuous
 62
     0
440
 16777216
370
    -2
100
AcDbLine
 10
280.9840558237052
 20
328.7638408316517
 30
0.0
 11
243.3840558237054
 21
328.7638408316517
 31
0.0
  0
LINE
  5
8909
330
8235
100
AcDbEntity
  8
30
  6
Continuous
 62
     0
440
 16777216
370
    -2
100
AcDbLine
 10
243.8840558237054
 20
376.7638408316517
 30
0.0
 11
243.8840558237054
 21
330.7638408316517
 31
0.0
  0
INSERT
  5
890A
330
8235
100
AcDbEntity
  8
30
  6
Continuous
 62
     0
440
 16777216
370
    -2
100
AcDbBlockReference
  2
_OPEN
 10
243.8840558237054
 20
378.7638408316517
 30
0.0
 41
2.0
 42
2.0
 43
2.0
 50
90.0
  0
INSERT
  5
890B
330
8235
100
AcDbEntity
  8
30
  6
Continuous
 62
     0
440
 16777216
370
    -2
100
AcDbBlockReference
  2
_OPEN
 10
243.8840558237054
 20
328.7638408316517
 30
0.0
 41
2.0
 42
2.0
 43
2.0
 50
270.0
  0
MTEXT
  5
890C
330
8235
100
AcDbEntity
  8
30
  6
Continuous
 62
     0
440
 16777216
100
AcDbMText
 10
238.8840558237053
 20
356.5362835326516
 30
0.0
 40
6.0
 41
0.0
 46
0.0
 71
     5
 72
     1
  1
\A1;50
 11
0.0000000000000001
 21
1.0
 31
0.0
 73
     1
 44
1.0
 90
        3
 63
     9
421
 13158600
 45
1.1
441
        0
  0
POINT
  5
890D
330
8235
100
AcDbEntity
  8
Defpoints
  6
Continuous
 62
     0
440
 16777216
100
AcDbPoint
 10
281.9840558237051
 20
378.7638408316517
 30
0.0
  0
POINT
  5
890E
330
8235
100
AcDbEntity
  8
Defpoints
  6
Continuous
 62
     0
440
 16777216
100
AcDbPoint
 10
281.9840558237051
 20
328.7638408316517
 30
0.0
  0
POINT
  5
890F
330
8235
100
AcDbEntity
  8
Defpoints
  6
Continuous
 62
     0
440
 16777216
100
AcDbPoint
 10
243.8840558237054
 20
328.7638408316517
 30
0.0
  0
ENDBLK
  5
8237
330
8235
100
AcDbEntity
  8
0
100
AcDbBlockEnd
  0
BLOCK
  5
8242
330
8241
100
AcDbEntity
  8
0
100
AcDbBlockBegin
  2
*D18
 70
     1
 10
0.0
 20
0.0
 30
0.0
  3
*D18
  1

  0
LINE
  5
8910
330
8241
100
AcDbEntity
  8
30
  6
Continuous
 62
     0
440
 16777216
370
    -2
100
AcDbLine
 10
456.7371869293046
 20
299.2638408316517
 30
0.0
 11
474.3840558237052
 21
299.2638408316517
 31
0.0
  0
LINE
  5
8911
330
8241
100
AcDbEntity
  8
30
  6
Continuous
 62
     0
440
 16777216
370
    -2
100
AcDbLine
 10
456.7371869293046
 20
294.2638408316517
 30
0.0
 11
474.3840558237052
 21
294.2638408316517
 31
0.0
  0
LINE
  5
8912
330
8241
100
AcDbEntity
  8
30
  6
Continuous
 62
     0
440
 16777216
370
    -2
100
AcDbLine
 10
473.8840558237052
 20
301.2638408316517
 30
0.0
 11
473.8840558237052
 21
303.2638408316517
 31
0.0
  0
LINE
  5
8913
330
8241
100
AcDbEntity
  8
30
  6
Continuous
 62
     0
440
 16777216
370
    -2
100
AcDbLine
 10
473.8840558237052
 20
292.2638408316517
 30
0.0
 11
473.8840558237052
 21
272.5252044680153
 31
0.0
  0
LINE
  5
8914
330
8241
100
AcDbEntity
  8
30
  6
Continuous
 62
     0
440
 16777216
370
    -2
100
AcDbLine
 10
473.8840558237052
 20
299.2638408316517
 30
0.0
 11
473.8840558237052
 21
294.2638408316517
 31
0.0
  0
INSERT
  5
8915
330
8241
100
AcDbEntity
  8
30
  6
Continuous
 62
     0
440
 16777216
370
    -2
100
AcDbBlockReference
  2
_OPEN
 10
473.8840558237052
 20
299.2638408316517
 30
0.0
 41
2.0
 42
2.0
 43
2.0
 50
270.0
  0
INSERT
  5
8916
330
8241
100
AcDbEntity
  8
30
  6
Continuous
 62
     0
440
 16777216
370
    -2
100
AcDbBlockReference
  2
_OPEN
 10
473.8840558237052
 20
294.2638408316517
 30
0.0
 41
2.0
 42
2.0
 43
2.0
 50
90.0
  0
MTEXT
  5
8917
330
8241
100
AcDbEntity
  8
30
  6
Continuous
 62
     0
440
 16777216
100
AcDbMText
 10
468.8840558237052
 20
276.2638408316517
 30
0.0
 40
6.0
 41
0.0
 46
0.0
 71
     5
 72
     1
  1
\A1;5
 11
0.0000000000000001
 21
1.0
 31
0.0
 73
     1
 44
1.0
 90
        3
 63
     9
421
 13158600
 45
1.1
441
        0
  0
POINT
  5
8918
330
8241
100
AcDbEntity
  8
Defpoints
  6
Continuous
 62
     0
440
 16777216
100
AcDbPoint
 10
455.7371869293048
 20
299.2638408316517
 30
0.0
  0
POINT
  5
8919
330
8241
100
AcDbEntity
  8
Defpoints
  6
Continuous
 62
     0
440
 16777216
100
AcDbPoint
 10
455.7371869293048
 20
294.2638408316517
 30
0.0
  0
POINT
  5
891A
330
8241
100
AcDbEntity
  8
Defpoints
  6
Continuous
 62
     0
440
 16777216
100
AcDbPoint
 10
473.8840558237052
 20
294.2638408316517
 30
0.0
  0
ENDBLK
  5
8243
330
8241
100
AcDbEntity
  8
0
100
AcDbBlockEnd
  0
BLOCK
  5
8250
330
824F
100
AcDbEntity
  8
0
100
AcDbBlockBegin
  2
*D19
 70
     1
 10
0.0
 20
0.0
 30
0.0
  3
*D19
  1

  0
LINE
  5
891B
330
824F
100
AcDbEntity
  8
30
  6
Continuous
 62
     0
440
 16777216
370
    -2
100
AcDbLine
 10
463.7725047485441
 20
410.7638408316517
 30
0.0
 11
483.2725047485443
 21
410.7638408316517
 31
0.0
  0
LINE
  5
891C
330
824F
100
AcDbEntity
  8
30
  6
Continuous
 62
     0
440
 16777216
370
    -2
100
AcDbLine
 10
463.7725047485441
 20
296.7638408316517
 30
0.0
 11
483.2725047485443
 21
296.7638408316517
 31
0.0
  0
LINE
  5
891D
330
824F
100
AcDbEntity
  8
30
  6
Continuous
 62
     0
440
 16777216
370
    -2
100
AcDbLine
 10
482.7725047485443
 20
408.7638408316516
 30
0.0
 11
482.7725047485443
 21
298.7638408316517
 31
0.0
  0
INSERT
  5
891E
330
824F
100
AcDbEntity
  8
30
  6
Continuous
 62
     0
440
 16777216
370
    -2
100
AcDbBlockReference
  2
_OPEN
 10
482.7725047485443
 20
410.7638408316517
 30
0.0
 41
2.0
 42
2.0
 43
2.0
 50
90.0
  0
INSERT
  5
891F
330
824F
100
AcDbEntity
  8
30
  6
Continuous
 62
     0
440
 16777216
370
    -2
100
AcDbBlockReference
  2
_OPEN
 10
482.7725047485443
 20
296.7638408316517
 30
0.0
 41
2.0
 42
2.0
 43
2.0
 50
270.0
  0
MTEXT
  5
8920
330
824F
100
AcDbEntity
  8
30
  6
Continuous
 62
     0
440
 16777216
100
AcDbMText
 10
477.7725047485441
 20
353.7638408316519
 30
0.0
 40
6.0
 41
0.0
 46
0.0
 71
     5
 72
     1
  1
\A1;114
 11
0.0000000000000001
 21
1.0
 31
0.0
 73
     1
 44
1.0
 90
        3
 63
     9
421
 13158600
 45
1.1
441
        0
  0
POINT
  5
8921
330
824F
100
AcDbEntity
  8
Defpoints
  6
Continuous
 62
     0
440
 16777216
100
AcDbPoint
 10
462.7725047485442
 20
410.7638408316517
 30
0.0
  0
POINT
  5
8922
330
824F
100
AcDbEntity
  8
Defpoints
  6
Continuous
 62
     0
440
 16777216
100
AcDbPoint
 10
462.7725047485442
 20
296.7638408316517
 30
0.0
  0
POINT
  5
8923
330
824F
100
AcDbEntity
  8
Defpoints
  6
Continuous
 62
     0
440
 16777216
100
AcDbPoint
 10
482.7725047485443
 20
296.7638408316517
 30
0.0
  0
ENDBLK
  5
8251
330
824F
100
AcDbEntity
  8
0
100
AcDbBlockEnd
  0
BLOCK
  5
825C
330
825B
100
AcDbEntity
  8
0
100
AcDbBlockBegin
  2
*D20
 70
     1
 10
0.0
 20
0.0
 30
0.0
  3
*D20
  1

  0
LINE
  5
8924
330
825B
100
AcDbEntity
  8
30
  6
Continuous
 62
     0
440
 16777216
370
    -2
100
AcDbLine
 10
258.6656406192191
 20
356.380569164273
 30
0.0
 11
258.6656406192191
 21
236.5123117664773
 31
0.0
  0
LINE
  5
8925
330
825B
100
AcDbEntity
  8
30
  6
Continuous
 62
     0
440
 16777216
370
    -2
100
AcDbLine
 10
354.1656393824693
 20
291.2199357350368
 30
0.0
 11
354.1656393824693
 21
236.5123117664773
 31
0.0
  0
LINE
  5
8926
330
825B
100
AcDbEntity
  8
30
  6
Continuous
 62
     0
440
 16777216
370
    -2
100
AcDbLine
 10
260.6656406192191
 20
237.0123117664773
 30
0.0
 11
352.1656393824693
 21
237.0123117664773
 31
0.0
  0
INSERT
  5
8927
330
825B
100
AcDbEntity
  8
30
  6
Continuous
 62
     0
440
 16777216
370
    -2
100
AcDbBlockReference
  2
_OPEN
 10
258.6656406192191
 20
237.0123117664773
 30
0.0
 41
2.0
 42
2.0
 43
2.0
 50
180.0
  0
INSERT
  5
8928
330
825B
100
AcDbEntity
  8
30
  6
Continuous
 62
     0
440
 16777216
370
    -2
100
AcDbBlockReference
  2
_OPEN
 10
354.1656393824693
 20
237.0123117664773
 30
0.0
 41
2.0
 42
2.0
 43
2.0
  0
MTEXT
  5
8929
330
825B
100
AcDbEntity
  8
30
  6
Continuous
 62
     0
440
 16777216
100
AcDbMText
 10
306.4156400008442
 20
242.0123117664773
 30
0.0
 40
6.0
 41
0.0
 46
0.0
 71
     5
 72
     1
  1
\A1;95.5
 73
     1
 44
1.0
 90
        3
 63
     9
421
 13158600
 45
1.1
441
        0
  0
POINT
  5
892A
330
825B
100
AcDbEntity
  8
Defpoints
  6
Continuous
 62
     0
440
 16777216
100
AcDbPoint
 10
258.6656406192191
 20
357.380569164273
 30
0.0
  0
POINT
  5
892B
330
825B
100
AcDbEntity
  8
Defpoints
  6
Continuous
 62
     0
440
 16777216
100
AcDbPoint
 10
354.1656393824693
 20
292.2199357350367
 30
0.0
  0
POINT
  5
892C
330
825B
100
AcDbEntity
  8
Defpoints
  6
Continuous
 62
     0
440
 16777216
100
AcDbPoint
 10
354.1656393824693
 20
237.0123117664773
 30
0.0
  0
ENDBLK
  5
825D
330
825B
100
AcDbEntity
  8
0
100
AcDbBlockEnd
  0
BLOCK
  5
8268
330
8267
100
AcDbEntity
  8
0
100
AcDbBlockBegin
  2
*D21
 70
     1
 10
0.0
 20
0.0
 30
0.0
  3
*D21
  1

  0
LINE
  5
892D
330
8267
100
AcDbEntity
  8
30
  6
Continuous
 62
     0
440
 16777216
370
    -2
100
AcDbLine
 10
275.6656406192188
 20
331.380569164273
 30
0.0
 11
275.6656406192188
 21
247.9325795330342
 31
0.0
  0
LINE
  5
892E
330
8267
100
AcDbEntity
  8
30
  6
Continuous
 62
     0
440
 16777216
370
    -2
100
AcDbLine
 10
282.1656406192188
 20
325.3256687995842
 30
0.0
 11
282.1656406192188
 21
247.9325795330342
 31
0.0
  0
LINE
  5
892F
330
8267
100
AcDbEntity
  8
30
  6
Continuous
 62
     0
440
 16777216
370
    -2
100
AcDbLine
 10
284.1656406192188
 20
248.4325795330342
 30
0.0
 11
286.1656406192188
 21
248.4325795330342
 31
0.0
  0
LINE
  5
8930
330
8267
100
AcDbEntity
  8
30
  6
Continuous
 62
     0
440
 16777216
370
    -2
100
AcDbLine
 10
273.6656406192188
 20
248.4325795330342
 30
0.0
 11
258.0860951646735
 21
248.4325795330342
 31
0.0
  0
INSERT
  5
8931
330
8267
100
AcDbEntity
  8
30
  6
Continuous
 62
     0
440
 16777216
370
    -2
100
AcDbBlockReference
  2
_OPEN
 10
282.1656406192188
 20
248.4325795330342
 30
0.0
 41
2.0
 42
2.0
 43
2.0
 50
180.0
  0
INSERT
  5
8932
330
8267
100
AcDbEntity
  8
30
  6
Continuous
 62
     0
440
 16777216
370
    -2
100
AcDbBlockReference
  2
_OPEN
 10
275.6656406192188
 20
248.4325795330342
 30
0.0
 41
2.0
 42
2.0
 43
2.0
  0
MTEXT
  5
8933
330
8267
100
AcDbEntity
  8
30
  6
Continuous
 62
     0
440
 16777216
100
AcDbMText
 10
264.8758678919461
 20
253.4325795330342
 30
0.0
 40
6.0
 41
0.0
 46
0.0
 71
     5
 72
     1
  1
\A1;6.5
 73
     1
 44
1.0
 90
        3
 63
     9
421
 13158600
 45
1.1
441
        0
  0
POINT
  5
8934
330
8267
100
AcDbEntity
  8
Defpoints
  6
Continuous
 62
     0
440
 16777216
100
AcDbPoint
 10
275.6656406192188
 20
332.380569164273
 30
0.0
  0
POINT
  5
8935
330
8267
100
AcDbEntity
  8
Defpoints
  6
Continuous
 62
     0
440
 16777216
100
AcDbPoint
 10
282.1656406192188
 20
326.3256687995842
 30
0.0
  0
POINT
  5
8936
330
8267
100
AcDbEntity
  8
Defpoints
  6
Continuous
 62
     0
440
 16777216
100
AcDbPoint
 10
282.1656406192188
 20
248.4325795330342
 30
0.0
  0
ENDBLK
  5
8269
330
8267
100
AcDbEntity
  8
0
100
AcDbBlockEnd
  0
BLOCK
  5
8275
330
8274
100
AcDbEntity
  8
0
100
AcDbBlockBegin
  2
*D22
 70
     1
 10
0.0
 20
0.0
 30
0.0
  3
*D22
  1

  0
LINE
  5
8937
330
8274
100
AcDbEntity
  8
30
  6
Continuous
 62
     0
440
 16777216
370
    -2
100
AcDbLine
 10
282.1656406192188
 20
320.191519991779
 30
0.0
 11
282.1656406192188
 21
247.9325795330342
 31
0.0
  0
LINE
  5
8938
330
8274
100
AcDbEntity
  8
30
  6
Continuous
 62
     0
440
 16777216
370
    -2
100
AcDbLine
 10
354.1656393824693
 20
291.2199357350368
 30
0.0
 11
354.1656393824693
 21
247.9325795330342
 31
0.0
  0
LINE
  5
8939
330
8274
100
AcDbEntity
  8
30
  6
Continuous
 62
     0
440
 16777216
370
    -2
100
AcDbLine
 10
284.1656406192188
 20
248.4325795330342
 30
0.0
 11
352.1656393824693
 21
248.4325795330342
 31
0.0
  0
INSERT
  5
893A
330
8274
100
AcDbEntity
  8
30
  6
Continuous
 62
     0
440
 16777216
370
    -2
100
AcDbBlockReference
  2
_OPEN
 10
282.1656406192188
 20
248.4325795330342
 30
0.0
 41
2.0
 42
2.0
 43
2.0
 50
180.0
  0
INSERT
  5
893B
330
8274
100
AcDbEntity
  8
30
  6
Continuous
 62
     0
440
 16777216
370
    -2
100
AcDbBlockReference
  2
_OPEN
 10
354.1656393824693
 20
248.4325795330342
 30
0.0
 41
2.0
 42
2.0
 43
2.0
  0
MTEXT
  5
893C
330
8274
100
AcDbEntity
  8
30
  6
Continuous
 62
     0
440
 16777216
100
AcDbMText
 10
318.1656400008441
 20
253.4325795330342
 30
0.0
 40
6.0
 41
0.0
 46
0.0
 71
     5
 72
     1
  1
\A1;72
 73
     1
 44
1.0
 90
        3
 63
     9
421
 13158600
 45
1.1
441
        0
  0
POINT
  5
893D
330
8274
100
AcDbEntity
  8
Defpoints
  6
Continuous
 62
     0
440
 16777216
100
AcDbPoint
 10
282.1656406192188
 20
321.1915199917791
 30
0.0
  0
POINT
  5
893E
330
8274
100
AcDbEntity
  8
Defpoints
  6
Continuous
 62
     0
440
 16777216
100
AcDbPoint
 10
354.1656393824693
 20
292.2199357350367
 30
0.0
  0
POINT
  5
893F
330
8274
100
AcDbEntity
  8
Defpoints
  6
Continuous
 62
     0
440
 16777216
100
AcDbPoint
 10
354.1656393824693
 20
248.4325795330342
 30
0.0
  0
ENDBLK
  5
8276
330
8274
100
AcDbEntity
  8
0
100
AcDbBlockEnd
  0
BLOCK
  5
8281
330
8280
100
AcDbEntity
  8
0
100
AcDbBlockBegin
  2
*D23
 70
     1
 10
0.0
 20
0.0
 30
0.0
  3
*D23
  1

  0
LINE
  5
8940
330
8280
100
AcDbEntity
  8
30
  6
Continuous
 62
     0
440
 16777216
370
    -2
100
AcDbLine
 10
286.1656406192188
 20
294.7403378479858
 30
0.0
 11
286.1656406192188
 21
258.7870449213645
 31
0.0
  0
LINE
  5
8941
330
8280
100
AcDbEntity
  8
30
  6
Continuous
 62
     0
440
 16777216
370
    -2
100
AcDbLine
 10
354.1656393824693
 20
291.2199357350368
 30
0.0
 11
354.1656393824693
 21
258.7870449213645
 31
0.0
  0
LINE
  5
8942
330
8280
100
AcDbEntity
  8
30
  6
Continuous
 62
     0
440
 16777216
370
    -2
100
AcDbLine
 10
288.1656406192188
 20
259.2870449213645
 30
0.0
 11
352.1656393824693
 21
259.2870449213645
 31
0.0
  0
INSERT
  5
8943
330
8280
100
AcDbEntity
  8
30
  6
Continuous
 62
     0
440
 16777216
370
    -2
100
AcDbBlockReference
  2
_OPEN
 10
286.1656406192188
 20
259.2870449213645
 30
0.0
 41
2.0
 42
2.0
 43
2.0
 50
180.0
  0
INSERT
  5
8944
330
8280
100
AcDbEntity
  8
30
  6
Continuous
 62
     0
440
 16777216
370
    -2
100
AcDbBlockReference
  2
_OPEN
 10
354.1656393824693
 20
259.2870449213645
 30
0.0
 41
2.0
 42
2.0
 43
2.0
  0
MTEXT
  5
8945
330
8280
100
AcDbEntity
  8
30
  6
Continuous
 62
     0
440
 16777216
100
AcDbMText
 10
320.1656400008441
 20
264.2870449213645
 30
0.0
 40
6.0
 41
0.0
 46
0.0
 71
     5
 72
     1
  1
\A1;68
 73
     1
 44
1.0
 90
        3
 63
     9
421
 13158600
 45
1.1
441
        0
  0
POINT
  5
8946
330
8280
100
AcDbEntity
  8
Defpoints
  6
Continuous
 62
     0
440
 16777216
100
AcDbPoint
 10
286.1656406192188
 20
295.7403378479859
 30
0.0
  0
POINT
  5
8947
330
8280
100
AcDbEntity
  8
Defpoints
  6
Continuous
 62
     0
440
 16777216
100
AcDbPoint
 10
354.1656393824693
 20
292.2199357350367
 30
0.0
  0
POINT
  5
8948
330
8280
100
AcDbEntity
  8
Defpoints
  6
Continuous
 62
     0
440
 16777216
100
AcDbPoint
 10
354.1656393824693
 20
259.2870449213645
 30
0.0
  0
ENDBLK
  5
8282
330
8280
100
AcDbEntity
  8
0
100
AcDbBlockEnd
  0
BLOCK
  5
828D
330
828C
100
AcDbEntity
  8
0
100
AcDbBlockBegin
  2
*D24
 70
     1
 10
0.0
 20
0.0
 30
0.0
  3
*D24
  1

  0
LINE
  5
8949
330
828C
100
AcDbEntity
  8
30
  6
Continuous
 62
     0
440
 16777216
370
    -2
100
AcDbLine
 10
294.1656393824692
 20
291.2199357350368
 30
0.0
 11
294.1656393824692
 21
269.0872346466095
 31
0.0
  0
LINE
  5
894A
330
828C
100
AcDbEntity
  8
30
  6
Continuous
 62
     0
440
 16777216
370
    -2
100
AcDbLine
 10
354.1656393824693
 20
291.2199357350368
 30
0.0
 11
354.1656393824693
 21
269.0872346466095
 31
0.0
  0
LINE
  5
894B
330
828C
100
AcDbEntity
  8
30
  6
Continuous
 62
     0
440
 16777216
370
    -2
100
AcDbLine
 10
296.1656393824692
 20
269.5872346466095
 30
0.0
 11
352.1656393824693
 21
269.5872346466095
 31
0.0
  0
INSERT
  5
894C
330
828C
100
AcDbEntity
  8
30
  6
Continuous
 62
     0
440
 16777216
370
    -2
100
AcDbBlockReference
  2
_OPEN
 10
294.1656393824692
 20
269.5872346466095
 30
0.0
 41
2.0
 42
2.0
 43
2.0
 50
180.0
  0
INSERT
  5
894D
330
828C
100
AcDbEntity
  8
30
  6
Continuous
 62
     0
440
 16777216
370
    -2
100
AcDbBlockReference
  2
_OPEN
 10
354.1656393824693
 20
269.5872346466095
 30
0.0
 41
2.0
 42
2.0
 43
2.0
  0
MTEXT
  5
894E
330
828C
100
AcDbEntity
  8
30
  6
Continuous
 62
     0
440
 16777216
100
AcDbMText
 10
324.1656393824692
 20
274.5872346466095
 30
0.0
 40
6.0
 41
0.0
 46
0.0
 71
     5
 72
     1
  1
\A1;60
 73
     1
 44
1.0
 90
        3
 63
     9
421
 13158600
 45
1.1
441
        0
  0
POINT
  5
894F
330
828C
100
AcDbEntity
  8
Defpoints
  6
Continuous
 62
     0
440
 16777216
100
AcDbPoint
 10
294.1656393824692
 20
292.2199357350367
 30
0.0
  0
POINT
  5
8950
330
828C
100
AcDbEntity
  8
Defpoints
  6
Continuous
 62
     0
440
 16777216
100
AcDbPoint
 10
354.1656393824693
 20
292.2199357350367
 30
0.0
  0
POINT
  5
8951
330
828C
100
AcDbEntity
  8
Defpoints
  6
Continuous
 62
     0
440
 16777216
100
AcDbPoint
 10
354.1656393824693
 20
269.5872346466095
 30
0.0
  0
ENDBLK
  5
828E
330
828C
100
AcDbEntity
  8
0
100
AcDbBlockEnd
  0
BLOCK
  5
832D
330
832C
100
AcDbEntity
  8
0
100
AcDbBlockBegin
  2
*D25
 70
     1
 10
0.0
 20
0.0
 30
0.0
  3
*D25
  1

  0
LINE
  5
88E2
330
832C
100
AcDbEntity
  8
30
 62
     0
440
 16777216
370
    -2
100
AcDbLine
 10
84.46417530527606
 20
74.58588066449078
 30
0.0
 11
84.46417530527606
 21
51.59786206623855
 31
0.0
  0
LINE
  5
88E3
330
832C
100
AcDbEntity
  8
30
 62
     0
440
 16777216
370
    -2
100
AcDbLine
 10
114.4490965605422
 20
76.08588066449077
 30
0.0
 11
114.4490965605422
 21
51.59786206623855
 31
0.0
  0
LINE
  5
88E4
330
832C
100
AcDbEntity
  8
30
 62
     0
440
 16777216
370
    -2
100
AcDbLine
 10
86.46417530527605
 20
52.09786206623855
 30
0.0
 11
112.4490965605422
 21
52.09786206623855
 31
0.0
  0
INSERT
  5
88E5
330
832C
100
AcDbEntity
  8
30
 62
     0
440
 16777216
370
    -2
100
AcDbBlockReference
  2
_OPEN
 10
84.46417530527606
 20
52.09786206623855
 30
0.0
 41
2.0
 42
2.0
 43
2.0
 50
180.0
  0
INSERT
  5
88E6
330
832C
100
AcDbEntity
  8
30
 62
     0
440
 16777216
370
    -2
100
AcDbBlockReference
  2
_OPEN
 10
114.4490965605422
 20
52.09786206623855
 30
0.0
 41
2.0
 42
2.0
 43
2.0
  0
MTEXT
  5
88E7
330
832C
100
AcDbEntity
  8
30
 62
     0
440
 16777216
100
AcDbMText
 10
99.45663593290916
 20
57.09786206623855
 30
0.0
 40
6.0
 41
0.0
 46
0.0
 71
     5
 72
     1
  1
\A1;30
 73
     1
 44
1.0
 90
        3
 63
     9
421
 13158600
 45
1.1
441
        0
  0
POINT
  5
88E8
330
832C
100
AcDbEntity
  8
Defpoints
 62
     0
440
 16777216
100
AcDbPoint
 10
84.46417530527606
 20
75.58588066449074
 30
0.0
  0
POINT
  5
88E9
330
832C
100
AcDbEntity
  8
Defpoints
 62
     0
440
 16777216
100
AcDbPoint
 10
114.4490965605422
 20
77.08588066449078
 30
0.0
  0
POINT
  5
88EA
330
832C
100
AcDbEntity
  8
Defpoints
 62
     0
440
 16777216
100
AcDbPoint
 10
114.4490965605422
 20
52.09786206623855
 30
0.0
  0
ENDBLK
  5
832E
330
832C
100
AcDbEntity
  8
0
100
AcDbBlockEnd
  0
BLOCK
  5
8372
330
8371
100
AcDbEntity
  8
0
100
AcDbBlockBegin
  2
*D26
 70
     1
 10
0.0
 20
0.0
 30
0.0
  3
*D26
  1

  0
LINE
  5
89AB
330
8371
100
AcDbEntity
  8
30
 62
     0
440
 16777216
370
    -2
100
AcDbLine
 10
95.51449179630322
 20
330.6596223638114
 30
0.0
 11
95.51449179630322
 21
316.0437699895618
 31
0.0
  0
LINE
  5
89AC
330
8371
100
AcDbEntity
  8
30
 62
     0
440
 16777216
370
    -2
100
AcDbLine
 10
73.46818798011418
 20
330.6596223638114
 30
0.0
 11
73.46818798011418
 21
316.0437699895618
 31
0.0
  0
LINE
  5
89AD
330
8371
100
AcDbEntity
  8
30
 62
     0
440
 16777216
370
    -2
100
AcDbLine
 10
93.5144917963032
 20
316.5437699895619
 30
0.0
 11
75.46818798011418
 21
316.5437699895619
 31
0.0
  0
INSERT
  5
89AE
330
8371
100
AcDbEntity
  8
30
 62
     0
440
 16777216
370
    -2
100
AcDbBlockReference
  2
_OPEN
 10
95.51449179630322
 20
316.5437699895619
 30
0.0
 41
2.0
 42
2.0
 43
2.0
  0
INSERT
  5
89AF
330
8371
100
AcDbEntity
  8
30
 62
     0
440
 16777216
370
    -2
100
AcDbBlockReference
  2
_OPEN
 10
73.46818798011418
 20
316.5437699895619
 30
0.0
 41
2.0
 42
2.0
 43
2.0
 50
180.0
  0
MTEXT
  5
89B0
330
8371
100
AcDbEntity
  8
30
 62
     0
440
 16777216
100
AcDbMText
 10
84.27063408201048
 20
321.5437699895618
 30
0.0
 40
6.0
 41
0.0
 46
0.0
 71
     5
 72
     1
  1
\A1;22
 73
     1
 44
1.0
 90
        3
 63
     9
421
 13158600
 45
1.1
441
        0
  0
POINT
  5
89B1
330
8371
100
AcDbEntity
  8
Defpoints
 62
     0
440
 16777216
100
AcDbPoint
 10
95.51449179630322
 20
331.6596223638114
 30
0.0
  0
POINT
  5
89B2
330
8371
100
AcDbEntity
  8
Defpoints
 62
     0
440
 16777216
100
AcDbPoint
 10
73.46818798011418
 20
331.6596223638114
 30
0.0
  0
POINT
  5
89B3
330
8371
100
AcDbEntity
  8
Defpoints
 62
     0
440
 16777216
100
AcDbPoint
 10
73.46818798011418
 20
316.5437699895619
 30
0.0
  0
ENDBLK
  5
8373
330
8371
100
AcDbEntity
  8
0
100
AcDbBlockEnd
  0
BLOCK
  5
85B4
330
85B3
100
AcDbEntity
  8
0
100
AcDbBlockBegin
  2
*D27
 70
     1
 10
0.0
 20
0.0
 30
0.0
  3
*D27
  1

  0
LINE
  5
8952
330
85B3
100
AcDbEntity
  8
30
 62
     0
440
 16777216
370
    -2
100
AcDbLine
 10
374.4267872114584
 20
143.0736914487553
 30
0.0
 11
374.4267872114584
 21
51.57364203588088
 31
0.0
  0
LINE
  5
8953
330
85B3
100
AcDbEntity
  8
30
 62
     0
440
 16777216
370
    -2
100
AcDbLine
 10
398.4267872114581
 20
122.899208244342
 30
0.0
 11
398.4267872114581
 21
51.57364203588088
 31
0.0
  0
LINE
  5
8954
330
85B3
100
AcDbEntity
  8
30
 62
     0
440
 16777216
370
    -2
100
AcDbLine
 10
376.4267872114583
 20
52.07364203588088
 30
0.0
 11
396.4267872114581
 21
52.07364203588088
 31
0.0
  0
INSERT
  5
8955
330
85B3
100
AcDbEntity
  8
30
 62
     0
440
 16777216
370
    -2
100
AcDbBlockReference
  2
_OPEN
 10
374.4267872114584
 20
52.07364203588088
 30
0.0
 41
2.0
 42
2.0
 43
2.0
 50
180.0
  0
INSERT
  5
8956
330
85B3
100
AcDbEntity
  8
30
 62
     0
440
 16777216
370
    -2
100
AcDbBlockReference
  2
_OPEN
 10
398.4267872114581
 20
52.07364203588088
 30
0.0
 41
2.0
 42
2.0
 43
2.0
  0
MTEXT
  5
8957
330
85B3
100
AcDbEntity
  8
30
 62
     0
440
 16777216
100
AcDbMText
 10
387.307025201575
 20
60.07364203588088
 30
0.0
 40
6.0
 41
0.0
 46
0.0
 71
     2
 72
     1
  1
\A1;24
 73
     1
 44
1.0
 90
        3
 63
     9
421
 13158600
 45
1.1
441
        0
  0
POINT
  5
8958
330
85B3
100
AcDbEntity
  8
Defpoints
 62
     0
440
 16777216
100
AcDbPoint
 10
374.4267872114584
 20
144.0736914487553
 30
0.0
  0
POINT
  5
8959
330
85B3
100
AcDbEntity
  8
Defpoints
 62
     0
440
 16777216
100
AcDbPoint
 10
398.4267872114581
 20
123.899208244342
 30
0.0
  0
POINT
  5
895A
330
85B3
100
AcDbEntity
  8
Defpoints
 62
     0
440
 16777216
100
AcDbPoint
 10
398.4267872114581
 20
52.07364203588088
 30
0.0
  0
ENDBLK
  5
85B5
330
85B3
100
AcDbEntity
  8
0
100
AcDbBlockEnd
  0
BLOCK
  5
85C1
330
85C0
100
AcDbEntity
  8
0
100
AcDbBlockBegin
  2
*D28
 70
     1
 10
0.0
 20
0.0
 30
0.0
  3
*D28
  1

  0
LINE
  5
895B
330
85C0
100
AcDbEntity
  8
30
 62
     0
440
 16777216
370
    -2
100
AcDbLine
 10
212.4635243453594
 20
118.0736915885471
 30
0.0
 11
212.4635243453594
 21
51.57364203588088
 31
0.0
  0
LINE
  5
895C
330
85C0
100
AcDbEntity
  8
30
 62
     0
440
 16777216
370
    -2
100
AcDbLine
 10
269.4635238644758
 20
118.0736915885471
 30
0.0
 11
269.4635238644758
 21
51.57364203588088
 31
0.0
  0
LINE
  5
895D
330
85C0
100
AcDbEntity
  8
30
 62
     0
440
 16777216
370
    -2
100
AcDbLine
 10
214.4635243453594
 20
52.07364203588088
 30
0.0
 11
267.4635238644758
 21
52.07364203588088
 31
0.0
  0
INSERT
  5
895E
330
85C0
100
AcDbEntity
  8
30
 62
     0
440
 16777216
370
    -2
100
AcDbBlockReference
  2
_OPEN
 10
212.4635243453594
 20
52.07364203588088
 30
0.0
 41
2.0
 42
2.0
 43
2.0
 50
180.0
  0
INSERT
  5
895F
330
85C0
100
AcDbEntity
  8
30
 62
     0
440
 16777216
370
    -2
100
AcDbBlockReference
  2
_OPEN
 10
269.4635238644758
 20
52.07364203588088
 30
0.0
 41
2.0
 42
2.0
 43
2.0
  0
MTEXT
  5
8960
330
85C0
100
AcDbEntity
  8
30
 62
     0
440
 16777216
100
AcDbMText
 10
240.9635241049179
 20
60.07364203588088
 30
0.0
 40
6.0
 41
0.0
 46
0.0
 71
     2
 72
     1
  1
\A1;57
 73
     1
 44
1.0
 90
        3
 63
     9
421
 13158600
 45
1.1
441
        0
  0
POINT
  5
8961
330
85C0
100
AcDbEntity
  8
Defpoints
 62
     0
440
 16777216
100
AcDbPoint
 10
212.4635243453594
 20
119.0736915885471
 30
0.0
  0
POINT
  5
8962
330
85C0
100
AcDbEntity
  8
Defpoints
 62
     0
440
 16777216
100
AcDbPoint
 10
269.4635238644758
 20
119.0736915885471
 30
0.0
  0
POINT
  5
8963
330
85C0
100
AcDbEntity
  8
Defpoints
 62
     0
440
 16777216
100
AcDbPoint
 10
269.4635238644758
 20
52.07364203588088
 30
0.0
  0
ENDBLK
  5
85C2
330
85C0
100
AcDbEntity
  8
0
100
AcDbBlockEnd
  0
BLOCK
  5
85CD
330
85CC
100
AcDbEntity
  8
0
100
AcDbBlockBegin
  2
*D29
 70
     1
 10
0.0
 20
0.0
 30
0.0
  3
*D29
  1

  0
LINE
  5
8992
330
85CC
100
AcDbEntity
  8
30
 62
     0
440
 16777216
370
    -2
100
AcDbLine
 10
270.487604854872
 20
171.287984905852
 30
0.0
 11
277.0510000274964
 21
178.4681738477459
 31
0.0
  0
LINE
  5
8993
330
85CC
100
AcDbEntity
  8
30
 62
     0
440
 16777216
370
    -2
100
AcDbLine
 10
277.0510000274964
 20
178.4681738477459
 30
0.0
 11
286.5169091184055
 21
178.4681738477459
 31
0.0
  0
LINE
  5
8994
330
85CC
100
AcDbEntity
  8
30
 62
     0
440
 16777216
370
    -2
100
AcDbLine
 10
268.4635238700671
 20
169.0736913089632
 30
0.0
 11
269.1382175291403
 21
169.8117891718267
 31
0.0
  0
INSERT
  5
8995
330
85CC
100
AcDbEntity
  8
30
 62
     0
440
 16777216
370
    -2
100
AcDbBlockReference
  2
_OPEN
 10
269.1382175291403
 20
169.8117891718267
 30
0.0
 41
2.0
 42
2.0
 43
2.0
 50
227.5696341159216
  0
MTEXT
  5
8996
330
85CC
100
AcDbEntity
  8
30
 62
     0
440
 16777216
100
AcDbMText
 10
279.0510000274962
 20
186.4681738477461
 30
0.0
 40
6.0
 41
0.0
 46
0.0
 71
     1
 72
     1
  1
\A1;R1
 73
     1
 44
1.0
  0
POINT
  5
8997
330
85CC
100
AcDbEntity
  8
Defpoints
 62
     0
440
 16777216
100
AcDbPoint
 10
269.1382175291403
 20
169.8117891718267
 30
0.0
  0
POINT
  5
8998
330
85CC
100
AcDbEntity
  8
Defpoints
 62
     0
440
 16777216
100
AcDbPoint
 10
268.4635238700671
 20
169.0736913089632
 30
0.0
  0
ENDBLK
  5
85CE
330
85CC
100
AcDbEntity
  8
0
100
AcDbBlockEnd
  0
BLOCK
  5
85D6
330
85D5
100
AcDbEntity
  8
0
100
AcDbBlockBegin
  2
*D30
 70
     1
 10
0.0
 20
0.0
 30
0.0
  3
*D30
  1

  0
LINE
  5
8974
330
85D5
100
AcDbEntity
  8
30
 62
     0
440
 16777216
370
    -2
100
AcDbLine
 10
399.5924082841511
 20
168.8997659585355
 30
0.0
 11
405.3617361767033
 21
174.4305371203608
 31
0.0
  0
LINE
  5
8975
330
85D5
100
AcDbEntity
  8
30
 62
     0
440
 16777216
370
    -2
100
AcDbLine
 10
405.3617361767033
 20
174.4305371203608
 30
0.0
 11
414.8276452676123
 21
174.4305371203608
 31
0.0
  0
LINE
  5
8976
330
85D5
100
AcDbEntity
  8
30
 62
     0
440
 16777216
370
    -2
100
AcDbLine
 10
397.4267872114584
 20
166.8236914487556
 30
0.0
 11
398.1486609024078
 21
167.5157162853988
 31
0.0
  0
INSERT
  5
8977
330
85D5
100
AcDbEntity
  8
30
 62
     0
440
 16777216
370
    -2
100
AcDbBlockReference
  2
_OPEN
 10
398.1486609024078
 20
167.5157162853988
 30
0.0
 41
2.0
 42
2.0
 43
2.0
 50
223.7906067211896
  0
MTEXT
  5
8978
330
85D5
100
AcDbEntity
  8
30
 62
     0
440
 16777216
100
AcDbMText
 10
407.3617361767033
 20
182.4305371203607
 30
0.0
 40
6.0
 41
0.0
 46
0.0
 71
     1
 72
     1
  1
\A1;R1
 73
     1
 44
1.0
  0
POINT
  5
8979
330
85D5
100
AcDbEntity
  8
Defpoints
 62
     0
440
 16777216
100
AcDbPoint
 10
398.1486609024078
 20
167.5157162853988
 30
0.0
  0
POINT
  5
897A
330
85D5
100
AcDbEntity
  8
Defpoints
 62
     0
440
 16777216
100
AcDbPoint
 10
397.4267872114584
 20
166.8236914487556
 30
0.0
  0
ENDBLK
  5
85D7
330
85D5
100
AcDbEntity
  8
0
100
AcDbBlockEnd
  0
BLOCK
  5
85DF
330
85DE
100
AcDbEntity
  8
0
100
AcDbBlockBegin
  2
*D31
 70
     1
 10
0.0
 20
0.0
 30
0.0
  3
*D31
  1

  0
LINE
  5
8ACC
330
85DE
100
AcDbEntity
  8
30
 62
     0
440
 16777216
370
    -2
100
AcDbLine
 10
398.4267872114582
 20
167.8236914487552
 30
0.0
 11
442.6986433432246
 21
167.8236914487552
 31
0.0
  0
LINE
  5
8ACD
330
85DE
100
AcDbEntity
  8
30
 62
     0
440
 16777216
370
    -2
100
AcDbLine
 10
398.4267872114582
 20
119.8236914487555
 30
0.0
 11
442.6986433432246
 21
119.8236914487555
 31
0.0
  0
LINE
  5
8ACE
330
85DE
100
AcDbEntity
  8
30
 62
     0
440
 16777216
370
    -2
100
AcDbLine
 10
442.1986433432246
 20
165.8236914487552
 30
0.0
 11
442.1986433432246
 21
121.8236914487555
 31
0.0
  0
INSERT
  5
8ACF
330
85DE
100
AcDbEntity
  8
30
 62
     0
440
 16777216
370
    -2
100
AcDbBlockReference
  2
_OPEN
 10
442.1986433432246
 20
167.8236914487552
 30
0.0
 41
2.0
 42
2.0
 43
2.0
 50
90.0
  0
INSERT
  5
8AD0
330
85DE
100
AcDbEntity
  8
30
 62
     0
440
 16777216
370
    -2
100
AcDbBlockReference
  2
_OPEN
 10
442.1986433432246
 20
119.8236914487555
 30
0.0
 41
2.0
 42
2.0
 43
2.0
 50
270.0
  0
MTEXT
  5
8AD1
330
85DE
100
AcDbEntity
  8
30
 62
     0
440
 16777216
100
AcDbMText
 10
434.1986433432246
 20
144.9619478180531
 30
0.0
 40
6.0
 41
0.0
 46
0.0
 71
     2
 72
     1
  1
\A1;48
 11
0.0000000000000001
 21
1.0
 31
0.0
 73
     1
 44
1.0
 90
        3
 63
     9
421
 13158600
 45
1.1
441
        0
  0
POINT
  5
8AD2
330
85DE
100
AcDbEntity
  8
Defpoints
 62
     0
440
 16777216
100
AcDbPoint
 10
397.4267872114582
 20
167.8236914487552
 30
0.0
  0
POINT
  5
8AD3
330
85DE
100
AcDbEntity
  8
Defpoints
 62
     0
440
 16777216
100
AcDbPoint
 10
397.4267872114582
 20
119.8236914487555
 30
0.0
  0
POINT
  5
8AD4
330
85DE
100
AcDbEntity
  8
Defpoints
 62
     0
440
 16777216
100
AcDbPoint
 10
442.1986433432246
 20
119.8236914487555
 30
0.0
  0
ENDBLK
  5
85E0
330
85DE
100
AcDbEntity
  8
0
100
AcDbBlockEnd
  0
BLOCK
  5
85EB
330
85EA
100
AcDbEntity
  8
0
100
AcDbBlockBegin
  2
*D32
 70
     1
 10
0.0
 20
0.0
 30
0.0
  3
*D32
  1

  0
LINE
  5
89A2
330
85EA
100
AcDbEntity
  8
30
 62
     0
440
 16777216
370
    -2
100
AcDbLine
 10
273.3065360412114
 20
170.0736918397099
 30
0.0
 11
299.7271538930309
 21
170.0736918397099
 31
0.0
  0
LINE
  5
89A3
330
85EA
100
AcDbEntity
  8
30
 62
     0
440
 16777216
370
    -2
100
AcDbLine
 10
273.306536041011
 20
118.0736910574769
 30
0.0
 11
299.7271538930308
 21
118.0736910574769
 31
0.0
  0
LINE
  5
89A4
330
85EA
100
AcDbEntity
  8
30
 62
     0
440
 16777216
370
    -2
100
AcDbLine
 10
299.2271538930309
 20
168.0736918397099
 30
0.0
 11
299.2271538930308
 21
120.0736910574769
 31
0.0
  0
INSERT
  5
89A5
330
85EA
100
AcDbEntity
  8
30
 62
     0
440
 16777216
370
    -2
100
AcDbBlockReference
  2
_OPEN
 10
299.2271538930309
 20
170.0736918397099
 30
0.0
 41
2.0
 42
2.0
 43
2.0
 50
90.0
  0
INSERT
  5
89A6
330
85EA
100
AcDbEntity
  8
30
 62
     0
440
 16777216
370
    -2
100
AcDbBlockReference
  2
_OPEN
 10
299.2271538930308
 20
118.0736910574769
 30
0.0
 41
2.0
 42
2.0
 43
2.0
 50
270.0
  0
MTEXT
  5
89A7
330
85EA
100
AcDbEntity
  8
30
 62
     0
440
 16777216
100
AcDbMText
 10
294.2271538930309
 20
144.0736914485934
 30
0.0
 40
6.0
 41
0.0
 46
0.0
 71
     5
 72
     1
  1
\A1;52
 11
0.0000000000000001
 21
1.0
 31
0.0
 73
     1
 44
1.0
 90
        3
 63
     9
421
 13158600
 45
1.1
441
        0
  0
POINT
  5
89A8
330
85EA
100
AcDbEntity
  8
Defpoints
 62
     0
440
 16777216
100
AcDbPoint
 10
272.3065360412114
 20
170.0736918397099
 30
0.0
  0
POINT
  5
89A9
330
85EA
100
AcDbEntity
  8
Defpoints
 62
     0
440
 16777216
100
AcDbPoint
 10
272.306536041011
 20
118.0736910574769
 30
0.0
  0
POINT
  5
89AA
330
85EA
100
AcDbEntity
  8
Defpoints
 62
     0
440
 16777216
100
AcDbPoint
 10
299.2271538930308
 20
118.0736910574769
 30
0.0
  0
ENDBLK
  5
85EC
330
85EA
100
AcDbEntity
  8
0
100
AcDbBlockEnd
  0
BLOCK
  5
8A17
330
8A16
100
AcDbEntity
  8
0
100
AcDbBlockBegin
  2
SW_CENTERMARKSYMBOL_18
 70
     0
 10
0.0
 20
0.0
 30
0.0
  3
SW_CENTERMARKSYMBOL_18
  1
SW_CENTERMARKSYMBOL_18
  0
LINE
  5
8A18
330
8A16
100
AcDbEntity
  8
SLD-0
 62
     0
100
AcDbLine
 10
0.0
 20
0.0
 30
0.0
 11
0.0
 21
1.0
 31
0.0
  0
LINE
  5
8A19
330
8A16
100
AcDbEntity
  8
SLD-0
 62
     0
100
AcDbLine
 10
0.0
 20
0.0
 30
0.0
 11
-1.0
 21
0.0
 31
0.0
  0
LINE
  5
8A1A
330
8A16
100
AcDbEntity
  8
SLD-0
 62
     0
100
AcDbLine
 10
0.0
 20
0.0
 30
0.0
 11
0.0
 21
-1.0
 31
0.0
  0
LINE
  5
8A1B
330
8A16
100
AcDbEntity
  8
SLD-0
 62
     0
100
AcDbLine
 10
0.0
 20
0.0
 30
0.0
 11
1.0
 21
0.0
 31
0.0
  0
LINE
  5
8A1C
330
8A16
100
AcDbEntity
  8
SLD-0
 62
     0
100
AcDbLine
 10
0.0
 20
1.0
 30
0.0
 11
0.0
 21
1.8
 31
0.0
  0
LINE
  5
8A1D
330
8A16
100
AcDbEntity
  8
SLD-0
 62
     0
100
AcDbLine
 10
-1.0
 20
0.0
 30
0.0
 11
-1.8
 21
0.0
 31
0.0
  0
LINE
  5
8A1E
330
8A16
100
AcDbEntity
  8
SLD-0
 62
     0
100
AcDbLine
 10
0.0
 20
-1.0
 30
0.0
 11
0.0
 21
-1.8
 31
0.0
  0
LINE
  5
8A1F
330
8A16
100
AcDbEntity
  8
SLD-0
 62
     0
100
AcDbLine
 10
1.0
 20
0.0
 30
0.0
 11
1.8
 21
0.0
 31
0.0
  0
ENDBLK
  5
8A20
330
8A16
100
AcDbEntity
  8
0
100
AcDbBlockEnd
  0
BLOCK
  5
8A88
330
8A87
100
AcDbEntity
  8
0
100
AcDbBlockBegin
  2
*D34
 70
     1
 10
0.0
 20
0.0
 30
0.0
  3
*D34
  1

  0
LINE
  5
8A93
330
8A87
100
AcDbEntity
  8
30
  6
Continuous
 62
     0
440
 16777216
370
    -2
100
AcDbLine
 10
75.77228502419386
 20
667.5502460644296
 30
0.0
 11
57.32579666552511
 21
667.5502460644296
 31
0.0
  0
LINE
  5
8A94
330
8A87
100
AcDbEntity
  8
30
  6
Continuous
 62
     0
440
 16777216
370
    -2
100
AcDbLine
 10
73.24170228456523
 20
644.5727210207699
 30
0.0
 11
57.3257966655251
 21
644.5727210207699
 31
0.0
  0
LINE
  5
8A95
330
8A87
100
AcDbEntity
  8
30
  6
Continuous
 62
     0
440
 16777216
370
    -2
100
AcDbLine
 10
57.82579666552511
 20
665.5502460644296
 30
0.0
 11
57.82579666552511
 21
646.57272102077
 31
0.0
  0
INSERT
  5
8A96
330
8A87
100
AcDbEntity
  8
30
  6
Continuous
 62
     0
440
 16777216
370
    -2
100
AcDbBlockReference
  2
_OPEN
 10
57.82579666552511
 20
667.5502460644296
 30
0.0
 41
2.0
 42
2.0
 43
2.0
 50
90.0
  0
INSERT
  5
8A97
330
8A87
100
AcDbEntity
  8
30
  6
Continuous
 62
     0
440
 16777216
370
    -2
100
AcDbBlockReference
  2
_OPEN
 10
57.82579666552511
 20
644.5727210207699
 30
0.0
 41
2.0
 42
2.0
 43
2.0
 50
270.0
  0
MTEXT
  5
8A98
330
8A87
100
AcDbEntity
  8
30
  6
Continuous
 62
     0
440
 16777216
100
AcDbMText
 10
52.825796665525
 20
656.0614835425996
 30
0.0
 40
6.0
 41
0.0
 46
0.0
 71
     5
 72
     1
  1
\A1;23
 11
0.0000000000000001
 21
1.0
 31
0.0
 73
     1
 44
1.0
 90
        3
 63
     9
421
 13158600
 45
1.1
441
        0
  0
POINT
  5
8A99
330
8A87
100
AcDbEntity
  8
Defpoints
  6
Continuous
 62
     0
440
 16777216
100
AcDbPoint
 10
76.77228502419386
 20
667.5502460644296
 30
0.0
  0
POINT
  5
8A9A
330
8A87
100
AcDbEntity
  8
Defpoints
  6
Continuous
 62
     0
440
 16777216
100
AcDbPoint
 10
74.24170228456524
 20
644.5727210207699
 30
0.0
  0
POINT
  5
8A9B
330
8A87
100
AcDbEntity
  8
Defpoints
  6
Continuous
 62
     0
440
 16777216
100
AcDbPoint
 10
57.82579666552511
 20
644.5727210207699
 30
0.0
  0
ENDBLK
  5
8A89
330
8A87
100
AcDbEntity
  8
0
100
AcDbBlockEnd
  0
ENDSEC
  0
SECTION
  2
ENTITIES
  0
MTEXT
  5
6620
330
1F
100
AcDbEntity
  8
19
  6
Continuous
 62
     7
100
AcDbMText
 10
289.352977982045
 20
557.3387645767685
 30
0.0
 40
8.0
 41
0.0
 46
0.0
 71
     7
 72
     5
  1
PS125-NF (60-125A) 2P RC\PPS50-PF (60-125A) 2P RC\PPS125-PF (60-125A) 2P RC
  7
blockfont
 73
     1
 44
1.0
  0
LWPOLYLINE
  5
790A
330
1F
100
AcDbEntity
  8
10
  6
Continuous
100
AcDbPolyline
 90
        4
 70
     1
 43
0.0
 10
0.0
 20
712.8
 10
503.9999999999998
 20
712.8
 10
503.9999999999998
 20
0.0
 10
0.0
 20
0.0
  0
LINE
  5
8027
330
1F
100
AcDbEntity
  8
10
100
AcDbLine
 10
69.48886113062052
 20
403.0328154122097
 30
0.0
 11
129.4506359365359
 21
403.0328154122097
 31
0.0
  0
LINE
  5
8028
330
1F
100
AcDbEntity
  8
10
100
AcDbLine
 10
69.48886113062052
 20
405.0417443129015
 30
0.0
 11
129.4553789877636
 21
405.0417443129015
 31
0.0
  0
DIMENSION
  5
8029
330
1F
100
AcDbEntity
  8
30
100
AcDbDimension
280
     0
  2
*D2
 10
69.48886113062052
 20
253.1552319766171
 30
0.0
 11
100.0924161041915
 21
253.1552319766171
 31
0.0
 70
   160
  1
90
 71
     2
 42
59.96651785714312
 73
     0
 74
     0
 75
     0
  3
STANDARD
100
AcDbAlignedDimension
 13
129.4553789877636
 23
288.5353320570763
 33
0.0
 14
69.48886113062052
 24
288.5353320570763
 34
0.0
 50
180.0
100
AcDbRotatedDimension
  0
LINE
  5
802A
330
1F
100
AcDbEntity
  8
16
 48
5.0
100
AcDbLine
 10
62.39760836042001
 20
353.7638408316517
 30
0.0
 11
140.3659382213855
 21
353.7638408316517
 31
0.0
  0
DIMENSION
  5
802B
330
1F
100
AcDbEntity
  8
30
100
AcDbDimension
280
     0
  2
*D3
 10
49.76144336103747
 20
288.5353320570763
 30
0.0
 11
49.76144336103743
 21
346.1241124033898
 31
0.0
 70
   160
  1
130
 71
     5
 42
130.5999575379571
 73
     0
 74
     0
 75
     0
  3
STANDARD
100
AcDbAlignedDimension
 13
69.48886113062052
 23
419.1352895950333
 33
0.0
 14
69.48886113062052
 24
288.5353320570763
 34
0.0
 50
90.0
100
AcDbRotatedDimension
  0
LINE
  5
802C
330
1F
100
AcDbEntity
  8
17
 48
0.5
100
AcDbLine
 10
84.48886113062052
 20
406.0885176472988
 30
0.0
 11
84.48886113062052
 21
416.0887176472988
 31
0.0
  0
LINE
  5
802D
330
1F
100
AcDbEntity
  8
17
 48
0.5
100
AcDbLine
 10
69.47212005919209
 20
404.5818219071874
 30
0.0
 11
69.47212005919209
 21
414.5820219071874
 31
0.0
  0
LWPOLYLINE
  5
802E
330
1F
100
AcDbEntity
  8
10
100
AcDbPolyline
 90
        5
 70
     0
 43
0.0
 10
69.48886113062052
 20
288.5353320570763
 10
69.48886113062052
 20
419.1352895950333
 10
129.4553789877636
 20
419.1352895950333
 10
129.4553789877636
 20
288.5353320570763
 10
69.48886113062052
 20
288.5353320570763
  0
LWPOLYLINE
  5
802F
330
1F
100
AcDbEntity
  8
10
100
AcDbPolyline
 90
        6
 70
     1
 43
0.0
 10
94.0347580730538
 20
419.1352895950333
 10
74.92987884648958
 20
419.1352895950333
 10
74.92987884648958
 20
408.0290458933609
 42
0.4144445394035128
 10
77.93224446776027
 20
405.0290468260554
 10
91.03712369432448
 20
405.0393805562841
 42
0.4139826230609387
 10
94.0347580730538
 20
408.0393796235898
  0
LWPOLYLINE
  5
8030
330
1F
100
AcDbEntity
  8
10
100
AcDbPolyline
 90
        4
 70
     1
 43
0.0
 10
126.9914710880376
 20
378.8575025151239
 10
71.99147108803765
 20
378.8575025151239
 10
71.99147108803765
 20
328.855699504433
 10
126.9914710880376
 20
328.855699504433
  0
LINE
  5
8031
330
1F
100
AcDbEntity
  8
10
100
AcDbLine
 10
69.48886113062052
 20
304.4948662510936
 30
0.0
 11
129.4506359365359
 21
304.4948662510936
 31
0.0
  0
LINE
  5
8032
330
1F
100
AcDbEntity
  8
10
100
AcDbLine
 10
69.48886113062052
 20
302.4859373504018
 30
0.0
 11
129.4553789877636
 21
302.4859373504018
 31
0.0
  0
LINE
  5
8033
330
1F
100
AcDbEntity
  8
17
 48
0.5
100
AcDbLine
 10
84.48886113062052
 20
301.4391640160044
 30
0.0
 11
84.48886113062052
 21
291.4389640160044
 31
0.0
  0
LINE
  5
8034
330
1F
100
AcDbEntity
  8
17
 48
0.5
100
AcDbLine
 10
89.48896113062053
 20
296.4390640160043
 30
0.0
 11
79.48876113062055
 21
296.4390640160043
 31
0.0
  0
LWPOLYLINE
  5
8036
330
1F
100
AcDbEntity
  8
10
100
AcDbPolyline
 90
        6
 70
     1
 43
0.0
 10
94.0347580730538
 20
288.5353320570763
 10
74.92987884648958
 20
288.5353320570763
 10
74.92987884648958
 20
299.4986357699422
 42
-0.4144445394035128
 10
77.93224446776027
 20
302.498634837248
 10
91.03712369432448
 20
302.4883011070193
 42
-0.4139826230609387
 10
94.0347580730538
 20
299.4883020397134
  0
CIRCLE
  5
8037
330
1F
100
AcDbEntity
  8
24
  6
CONTINOUS
100
AcDbCircle
 10
84.48886113062052
 20
296.4390640160043
 30
0.0
 40
4.25
  0
LINE
  5
8038
330
1F
100
AcDbEntity
  8
16
  6
DASHDOT
 48
5.0
100
AcDbLine
 10
84.49147108803765
 20
276.7241528656559
 30
0.0
 11
84.49147108803765
 21
431.0131358663773
 31
0.0
  0
LINE
  5
803F
330
1F
100
AcDbEntity
  8
SLD-0
 62
     0
100
AcDbLine
 10
99.45537745138905
 20
199.6326433612327
 30
0.0
 11
99.45537745138905
 21
202.7771681756397
 31
0.0
  0
LINE
  5
8040
330
1F
100
AcDbEntity
  8
0
 62
     0
100
AcDbLine
 10
102.7043049801242
 20
199.6326433612327
 30
0.0
 11
96.31085263698208
 21
199.6326433612327
 31
0.0
  0
LINE
  5
8041
330
1F
100
AcDbEntity
  8
SLD-0
 62
     0
100
AcDbLine
 10
99.45537745138905
 20
199.6326433612327
 30
0.0
 11
99.45537745138905
 21
196.4881185468257
 31
0.0
  0
LINE
  5
8042
330
1F
100
AcDbEntity
  8
SLD-0
 62
     0
100
AcDbLine
 10
99.45537745138905
 20
205.9216929900467
 30
0.0
 11
99.45537745138905
 21
214.0974575075048
 31
0.0
  0
LINE
  5
8043
330
1F
100
AcDbEntity
  8
SLD-0
 62
     0
100
AcDbLine
 10
93.16632782257512
 20
199.6326433612327
 30
0.0
 11
84.99056330511702
 21
199.6326433612327
 31
0.0
  0
LINE
  5
8044
330
1F
100
AcDbEntity
  8
SLD-0
 62
     0
100
AcDbLine
 10
99.45537745138905
 20
193.3435937324188
 30
0.0
 11
99.45537745138905
 21
185.1678292149606
 31
0.0
  0
LINE
  5
8048
330
1F
100
AcDbEntity
  8
16
 48
5.0
100
AcDbLine
 10
99.45537745138905
 20
67.6326433612327
 30
0.0
 11
99.45537745138905
 21
217.6326433612327
 31
0.0
  0
LINE
  5
8049
330
1F
100
AcDbEntity
  8
16
 48
5.0
100
AcDbLine
 10
60.50464024332995
 20
144.1276620469849
 30
0.0
 11
140.7277538713747
 21
144.016503960009
 31
0.0
  0
LEADER
  5
804A
330
1F
100
AcDbEntity
  8
30
100
AcDbLeader
  3
STANDARD1
 76
     3
 10
99.45537745138905
 20
199.6326433612327
 30
0.0
 10
90.60723513829726
 20
223.0858826573649
 30
0.0
 10
53.50723513829723
 20
223.0858826573649
 30
0.0
1001
ACAD
1000
DSTYLE
1002
{
1070
   147
1040
2.0
1070
    77
1070
     0
1002
}
  0
MTEXT
  5
804B
330
1F
100
AcDbEntity
  8
30
100
AcDbMText
 10
57.34629699228378
 20
229.4326433612329
 30
0.0
 40
5.0
 41
30.0
 46
0.0
 71
     1
 72
     5
  1
M4x0.7
  7
blockfont
 73
     1
 44
1.0
  0
DIMENSION
  5
804C
330
1F
100
AcDbEntity
  8
30
100
AcDbDimension
280
     0
  2
*D4
 10
56.56056889623993
 20
88.58912195349693
 30
0.0
 11
51.56056889623993
 21
144.1108826573648
 31
0.0
 70
    32
 71
     5
 42
111.0435214077358
 73
     0
 74
     0
 75
     0
  3
STANDARD
100
AcDbAlignedDimension
 13
94.92726171864296
 23
199.6326433612327
 33
0.0
 14
84.46417530527606
 24
88.58912195349693
 34
0.0
 50
90.0
100
AcDbRotatedDimension
  0
LINE
  5
804D
330
1F
100
AcDbEntity
  8
17
 48
0.5
100
AcDbLine
 10
84.49071618874985
 20
406.088517991416
 30
0.0
 11
84.4870060724912
 21
416.0887173031817
 31
0.0
  0
LINE
  5
804E
330
1F
100
AcDbEntity
  8
22
  6
DASHDOT
 48
0.5
100
AcDbLine
 10
99.47750645866733
 20
404.5873879696538
 30
0.0
 11
99.4737963424086
 21
414.5875872814196
 31
0.0
  0
LINE
  5
804F
330
1F
100
AcDbEntity
  8
22
  6
DASHDOT
 48
0.5
100
AcDbLine
 10
94.47555174465515
 20
409.5856325674075
 30
0.0
 11
104.4757510564207
 21
409.5893426836661
 31
0.0
  0
LINE
  5
8050
330
1F
100
AcDbEntity
  8
17
 48
0.5
100
AcDbLine
 10
114.5941332542207
 20
406.0996921459635
 30
0.0
 11
114.5904231379621
 21
416.0998914577293
 31
0.0
  0
LINE
  5
8051
330
1F
100
AcDbEntity
  8
17
 48
0.5
100
AcDbLine
 10
109.5921785402087
 20
411.0979367437173
 30
0.0
 11
119.5923778519742
 21
411.101646859976
 31
0.0
  0
LWPOLYLINE
  5
8052
330
1F
100
AcDbEntity
  8
10
100
AcDbPolyline
 90
        6
 70
     1
 43
0.0
 10
105.0434058867928
 20
419.1352895950333
 10
124.1482842610152
 20
419.1314844343827
 10
124.1523949363421
 20
408.0437666811051
 42
-0.4144445394035128
 10
121.1511425339719
 20
405.0426539299927
 10
108.046260375455
 20
405.0481256942009
 42
-0.4139826230609387
 10
105.0475131907577
 20
408.0470124200789
  0
CIRCLE
  5
8053
330
1F
100
AcDbEntity
  8
24
  6
CONTINOUS
100
AcDbCircle
 10
114.5922781960915
 20
411.0997918018465
 30
0.0
 40
4.25
  0
CIRCLE
  5
8054
330
1F
100
AcDbEntity
  8
24
  6
CONTINOUS
100
AcDbCircle
 10
84.45835237213623
 20
411.0886119878599
 30
0.0
 40
4.25
  0
CIRCLE
  5
8055
330
1F
100
AcDbEntity
  8
22
  6
CONTINOUS
100
AcDbCircle
 10
99.52587461110072
 20
409.5875069769531
 30
0.0
 40
3.077821902690307
  0
LINE
  5
8056
330
1F
100
AcDbEntity
  8
17
 48
0.5
100
AcDbLine
 10
114.6227890284549
 20
301.4391640160044
 30
0.0
 11
114.6227890284549
 21
291.4389640160044
 31
0.0
  0
LINE
  5
8057
330
1F
100
AcDbEntity
  8
17
 48
0.5
100
AcDbLine
 10
119.6228890284549
 20
296.4390640160043
 30
0.0
 11
109.6226890284549
 21
296.4390640160043
 31
0.0
  0
LWPOLYLINE
  5
8058
330
1F
100
AcDbEntity
  8
10
100
AcDbPolyline
 90
        6
 70
     1
 43
0.0
 10
124.1686859708882
 20
288.5353320570763
 10
105.063806744324
 20
288.5353320570763
 10
105.063806744324
 20
299.4986357699422
 42
-0.4144445394035128
 10
108.0661723655946
 20
302.498634837248
 10
121.1710515921588
 20
302.4883011070193
 42
-0.4139826230609387
 10
124.1686859708882
 20
299.4883020397134
  0
CIRCLE
  5
8059
330
1F
100
AcDbEntity
  8
24
  6
CONTINOUS
100
AcDbCircle
 10
114.6227890284549
 20
296.4390640160043
 30
0.0
 40
4.25
  0
CIRCLE
  5
805A
330
1F
100
AcDbEntity
  8
22
  6
CONTINOUS
100
AcDbCircle
 10
99.42542818625213
 20
297.9513261928582
 30
0.0
 40
3.077821902690307
  0
LINE
  5
805B
330
1F
100
AcDbEntity
  8
22
  6
DASHDOT
 48
0.5
100
AcDbLine
 10
99.47565140053793
 20
302.9514254744654
 30
0.0
 11
99.47565140053793
 21
292.9512254744654
 31
0.0
  0
LINE
  5
805C
330
1F
100
AcDbEntity
  8
22
  6
DASHDOT
 48
0.5
100
AcDbLine
 10
104.4757514005379
 20
297.9513254744654
 30
0.0
 11
94.47555140053792
 21
297.9513254744654
 31
0.0
  0
DIMENSION
  5
805D
330
1F
100
AcDbEntity
  8
30
100
AcDbDimension
280
     0
  2
*D5
 10
71.99147108803765
 20
264.5062902516239
 30
0.0
 11
99.49147108803764
 21
269.5062902516239
 31
0.0
 70
    32
 71
     5
 42
55.0
 73
     0
 74
     0
 75
     0
  3
STANDARD
100
AcDbAlignedDimension
 13
126.9914710880376
 23
328.855699504433
 33
0.0
 14
71.99147108803765
 24
328.855699504433
 34
0.0
 50
180.0
100
AcDbRotatedDimension
  0
LWPOLYLINE
  5
805E
330
1F
100
AcDbEntity
  8
10
100
AcDbPolyline
 90
        4
 70
     1
 43
0.0
 10
91.97574114118799
 20
340.5316807841664
 10
77.00720103488731
 20
340.5316807841664
 10
77.00720103488731
 20
367.6903119236763
 10
91.97574114118799
 20
367.6903119236763
  0
LWPOLYLINE
  5
805F
330
1F
100
AcDbEntity
  8
10
100
AcDbPolyline
 90
        4
 70
     1
 43
0.0
 10
90.8907096422928
 20
364.9421582900103
 10
77.89070964229279
 20
364.9421582900103
 10
77.89070964229279
 20
359.9421582900102
 10
90.8907096422928
 20
359.9421582900102
  0
LINE
  5
8060
330
1F
100
AcDbEntity
  8
17
 48
0.5
100
AcDbLine
 10
89.49157108803763
 20
411.0884829448017
 30
0.0
 11
79.49137108803769
 21
411.0884829448017
 31
0.0
  0
LWPOLYLINE
  5
8061
102
{ACAD_REACTORS
330
80C0
102
}
330
1F
100
AcDbEntity
  8
10
100
AcDbPolyline
 90
        4
 70
     1
 43
0.0
 10
95.51448429926017
 20
375.8680600695989
 10
73.46818798014737
 20
375.8680600695989
 10
73.46818798011418
 20
331.6596223638114
 10
95.51449179630322
 20
331.6596223638114
  0
LINE
  5
8062
330
1F
100
AcDbEntity
  8
0
  6
Continuous
 62
     7
100
AcDbLine
 10
101.6821232624509
 20
587.0876776923547
 30
0.0
 11
101.1798901018703
 21
587.589909917578
 31
0.0
  0
LINE
  5
8063
330
1F
100
AcDbEntity
  8
0
  6
Continuous
 62
     7
100
AcDbLine
 10
98.16649768629007
 20
587.589909917578
 30
0.0
 11
97.66426546106686
 21
587.0876776923547
 31
0.0
  0
LINE
  5
8064
330
1F
100
AcDbEntity
  8
0
  6
Continuous
 62
     7
100
AcDbLine
 10
97.73029807456282
 20
580.4901331001227
 30
0.0
 11
97.73029807456282
 21
587.0876776923547
 31
0.0
  0
LINE
  5
8065
330
1F
100
AcDbEntity
  8
0
  6
Continuous
 62
     7
100
AcDbLine
 10
101.7481558759468
 20
587.0876776923547
 30
0.0
 11
101.7481558759468
 21
580.4901331001227
 31
0.0
  0
ARC
  5
8066
330
1F
100
AcDbEntity
  8
24
  6
Continuous
 62
     7
100
AcDbCircle
 10
99.78489886342165
 20
594.7484472422533
 30
0.0
 40
9.968479384627967
100
AcDbArc
 50
5.812510157186084
 51
44.82549432271477
  0
ARC
  5
8067
330
1F
100
AcDbEntity
  8
24
  6
Continuous
 62
     7
100
AcDbCircle
 10
129.5907690154474
 20
594.7979560908272
 30
0.0
 40
9.859431047390296
100
AcDbArc
 50
134.9498554139903
 51
174.4121319566237
  0
LINE
  5
8068
330
1F
100
AcDbEntity
  8
0
  6
Continuous
 62
     7
100
AcDbLine
 10
101.6821232624509
 20
587.0876776923547
 30
0.0
 11
97.66426546106686
 21
587.0876776923547
 31
0.0
  0
LINE
  5
8069
330
1F
100
AcDbEntity
  8
0
  6
Continuous
 62
     7
100
AcDbLine
 10
101.1798901018703
 20
587.589909917578
 30
0.0
 11
98.16649768629007
 21
587.589909917578
 31
0.0
  0
LINE
  5
806A
330
1F
100
AcDbEntity
  8
0
  6
SLD-実線
370
    15
100
AcDbLine
 10
72.48886113062052
 20
507.5687076419306
 30
0.0
 11
126.7235978241472
 21
507.5687076419306
 31
0.0
  0
LINE
  5
806B
330
1F
100
AcDbEntity
  8
0
  6
SLD-実線
370
    15
100
AcDbLine
 10
73.93673761361151
 20
511.5865579596539
 30
0.0
 11
125.2757213411562
 21
511.5865579596539
 31
0.0
  0
LINE
  5
806C
330
1F
100
AcDbEntity
  8
24
  6
Continuous
 62
     7
100
AcDbLine
 10
106.8551139656426
 20
603.3048634070866
 30
0.0
 11
122.6252026557069
 21
603.3048634071517
 31
0.0
  0
LWPOLYLINE
  5
806D
330
1F
100
AcDbEntity
  8
24
  6
Continuous
 62
     7
100
AcDbPolyline
 90
        5
 70
     0
 43
0.0
 10
119.0091312630982
 20
619.8651331001226
 42
1.0
 10
110.4711848345266
 20
619.8651331001226
 10
110.4711848345266
 20
615.8472759254616
 42
0.9995984643691707
 10
119.0091298859777
 20
615.8438469795473
 10
119.0091298859777
 20
619.8651335671985
  0
LWPOLYLINE
  5
807A
330
1F
100
AcDbEntity
  8
10
  6
CONTINOUS
100
AcDbPolyline
 90
        5
 70
     0
 43
0.0
 10
69.75509218589763
 20
511.5865579596539
 10
129.6573291513459
 20
511.5865579596539
 10
129.6573291513459
 20
580.5502460644295
 10
69.75509218566765
 20
580.5502460644295
 10
69.75509218589763
 20
511.5865579596539
  0
LWPOLYLINE
  5
807B
330
1F
100
AcDbEntity
  8
10
  6
CONTINOUS
100
AcDbPolyline
 90
        4
 70
     1
 43
0.0
 10
129.6573291513459
 20
511.5865579596539
 10
69.75509218589763
 20
511.5865579596539
 10
69.75509218543766
 20
513.5630556304753
 10
129.6573291513459
 20
513.5865579596536
  0
LWPOLYLINE
  5
807C
330
1F
100
AcDbEntity
  8
10
  6
CONTINOUS
100
AcDbPolyline
 90
        4
 70
     1
 43
0.0
 10
126.7235978241472
 20
511.5865579596539
 10
72.48886113062052
 20
511.5865579596539
 10
72.48886113062052
 20
507.5687076419306
 10
126.7235978241472
 20
507.5687076419306
  0
LWPOLYLINE
  5
807D
330
1F
100
AcDbEntity
  8
10
  6
CONTINOUS
100
AcDbPolyline
 90
        4
 70
     1
 43
0.0
 10
95.60622947738385
 20
507.5687076419306
 10
73.60622947738386
 20
507.5687076419306
 10
73.60622947738386
 20
501.2687133581306
 10
95.60622947738385
 20
501.2687133581306
  0
LWPOLYLINE
  5
807E
330
1F
100
AcDbEntity
  8
10
  6
CONTINOUS
100
AcDbPolyline
 90
        4
 70
     1
 43
0.0
 10
91.15732915134596
 20
485.1420154941306
 10
78.15732915134595
 20
485.1420154941306
 10
78.15732915134595
 20
501.2687133581306
 10
91.15732915134596
 20
501.2687133581306
  0
LWPOLYLINE
  5
807F
330
1F
100
AcDbEntity
  8
24
  6
Continuous
 62
     7
100
AcDbPolyline
 90
        4
 70
     0
 43
0.0
 10
122.825045903024
 20
580.5502460644295
 10
122.5595955537901
 20
595.7579905005245
 10
106.9207210675624
 20
595.7579905005245
 10
106.6552707183285
 20
580.5502460644295
  0
DIMENSION
  5
8080
330
1F
100
AcDbEntity
  8
30
  6
Continuous
100
AcDbDimension
280
     0
  2
*D6
 10
84.65732915134593
 20
698.5502460644295
 30
0.0
 11
97.48119030485009
 21
698.5502460644295
 31
0.0
 70
   160
  1
30
 71
     5
 42
30.08282915932885
 73
     0
 74
     0
 75
     0
  3
STANDARD
100
AcDbAlignedDimension
 13
114.7401583106748
 23
630.6014932882569
 33
0.0
 14
84.65732915134593
 24
682.5408013524845
 34
0.0
100
AcDbRotatedDimension
1001
ACAD
1000
DSTYLE
1002
{
1070
    79
1070
     3
1002
}
  0
DIMENSION
  5
8081
330
1F
100
AcDbEntity
  8
30
  6
Continuous
100
AcDbDimension
280
     0
  2
*D7
 10
139.8544382328368
 20
580.5502460644295
 30
0.0
 11
134.8544382328367
 21
599.0502460644295
 31
0.0
 70
    32
 71
     5
 42
37.0
 73
     0
 74
     0
 75
     0
  3
STANDARD
100
AcDbAlignedDimension
 13
124.6304418096501
 23
617.5502460644295
 33
0.0
 14
122.4811903048501
 24
580.5502460644295
 34
0.0
 50
90.0
100
AcDbRotatedDimension
1001
ACAD
1000
DSTYLE
1002
{
1070
    79
1070
     3
1002
}
  0
DIMENSION
  5
8082
330
1F
100
AcDbEntity
  8
30
  6
Continuous
100
AcDbDimension
280
     0
  2
*D8
 10
151.9919933702408
 20
580.5502460644295
 30
0.0
 11
146.9919933702407
 21
606.5502460644295
 31
0.0
 70
    32
 71
     5
 42
52.0
 73
     0
 74
     0
 75
     0
  3
STANDARD
100
AcDbAlignedDimension
 13
109.9811903048501
 23
632.5502460644295
 33
0.0
 14
122.4811903048501
 24
580.5502460644295
 34
0.0
 50
90.0
100
AcDbRotatedDimension
1001
ACAD
1000
DSTYLE
1002
{
1070
    79
1070
     3
1002
}
  0
DIMENSION
  5
8083
330
1F
100
AcDbEntity
  8
30
  6
Continuous
100
AcDbDimension
280
     0
  2
*D9
 10
57.71218165329467
 20
580.5502460644295
 30
0.0
 11
57.71218165329457
 21
597.2502460644292
 31
0.0
 70
   160
 71
     5
 42
7.039663853148567
 73
     0
 74
     0
 75
     0
  3
STANDARD
100
AcDbAlignedDimension
 13
94.39099244509032
 23
587.589909917578
 33
0.0
 14
69.45336231856003
 24
580.5502460644295
 34
0.0
 50
90.0
100
AcDbRotatedDimension
1001
ACAD
1000
DSTYLE
1002
{
1070
    79
1070
     3
1002
}
  0
DIMENSION
  5
8084
330
1F
100
AcDbEntity
  8
30
  6
Continuous
100
AcDbDimension
280
     0
  2
*D10
 10
136.0176972657374
 20
611.5783027429797
 30
0.0
 11
136.0176972657373
 21
644.7709232535451
 31
0.0
 70
   160
  1
12.5
 71
     5
 42
12.55580357142867
 73
     0
 74
     0
 75
     0
  3
STANDARD
100
AcDbAlignedDimension
 13
114.7401580488124
 23
624.1341063144083
 33
0.0
 14
114.7401583106748
 24
611.5783027429797
 34
0.0
 50
90.0
100
AcDbRotatedDimension
1001
ACAD
1000
DSTYLE
1002
{
1070
    79
1070
     3
1002
}
  0
DIMENSION
  5
8085
330
1F
100
AcDbEntity
  8
30
  6
Continuous
100
AcDbDimension
280
     0
  2
*D11
 10
44.4312310321635
 20
580.5502460644295
 30
0.0
 11
39.43123103216342
 21
624.0502460644295
 31
0.0
 70
    32
 71
     5
 42
87.00000000000011
 73
     0
 74
     0
 75
     0
  3
STANDARD
100
AcDbAlignedDimension
 13
69.56323255470625
 23
667.5502460644296
 33
0.0
 14
76.9312310321635
 24
580.5502460644295
 34
0.0
 50
90.0
100
AcDbRotatedDimension
1001
ACAD
1000
DSTYLE
1002
{
1070
    79
1070
     3
1002
}
  0
DIMENSION
  5
8086
330
1F
100
AcDbEntity
  8
30
  6
Continuous
100
AcDbDimension
280
     0
  2
*D12
 10
34.43123103216351
 20
580.5502460644295
 30
0.0
 11
29.43123103216342
 21
631.545523708457
 31
0.0
 70
    32
 71
     5
 42
101.9905552880551
 73
     0
 74
     0
 75
     0
  3
STANDARD
100
AcDbAlignedDimension
 13
84.65732929931245
 23
682.5408013524845
 33
0.0
 14
76.9312310321635
 24
580.5502460644295
 34
0.0
 50
90.0
100
AcDbRotatedDimension
1001
ACAD
1000
DSTYLE
1002
{
1070
    79
1070
     3
1002
}
  0
LWPOLYLINE
  5
808A
330
1F
100
AcDbEntity
  8
24
  6
Continuous
 62
     7
100
AcDbPolyline
 90
        5
 70
     0
 43
0.0
 10
88.92630098851126
 20
669.8556888552535
 10
88.92630098851126
 20
665.8344022676023
 42
-0.9995984643691707
 10
80.38835593706016
 20
665.8378312135166
 10
80.38835593706016
 20
669.8556883881776
 42
-1.0
 10
88.92630236563173
 20
669.8556883881776
  0
LWPOLYLINE
  5
808B
330
1F
100
AcDbEntity
  8
24
  6
Continuous
 62
     7
100
AcDbPolyline
 90
        4
 70
     0
 43
0.0
 10
92.54237349633156
 20
644.5727210207699
 10
92.5423734963781
 20
680.5920484384555
 42
0.2471454556482762
 10
76.77228506817619
 20
680.5920485763119
 10
76.77140779357808
 20
644.5727210207699
  0
LWPOLYLINE
  5
808E
330
1F
100
AcDbEntity
  8
24
  6
Continuous
 62
     7
100
AcDbPolyline
 90
        4
 70
     0
 43
0.0
 10
92.74221674359328
 20
580.6103590287363
 10
92.4767663943594
 20
595.8181034648312
 10
76.83789190813172
 20
595.8181034648312
 10
76.57244155889781
 20
580.6103590287363
  0
DIMENSION
  5
8092
330
1F
100
AcDbEntity
  8
30
  6
Continuous
100
AcDbDimension
280
     0
  2
*D13
 10
151.9919933702408
 20
507.5687076419306
 30
0.0
 11
146.9919933702407
 21
544.05947685318
 31
0.0
 70
    32
 71
     5
 42
72.98153842249883
 73
     0
 74
     0
 75
     0
  3
STANDARD
100
AcDbAlignedDimension
 13
129.9590590184537
 23
580.5502460644295
 33
0.0
 14
126.9235602063931
 24
507.5687076419306
 34
0.0
 50
90.0
100
AcDbRotatedDimension
1001
ACAD
1000
DSTYLE
1002
{
1070
    79
1070
     3
1002
}
  0
CIRCLE
  5
8093
330
1F
100
AcDbEntity
  8
22
  6
Continuous
100
AcDbCircle
 10
84.46417530527595
 20
201.0858826573648
 30
0.0
 40
9.0
  0
LINE
  5
8094
330
1F
100
AcDbEntity
  8
16
 48
3.0
100
AcDbLine
 10
84.46417530527595
 20
189.5858826573648
 30
0.0
 11
84.46417530527595
 21
212.5858826573649
 31
0.0
  0
CIRCLE
  5
8095
330
1F
100
AcDbEntity
  8
22
  6
Continuous
100
AcDbCircle
 10
114.4490965605422
 20
201.0858826573648
 30
0.0
 40
9.0
  0
LINE
  5
8096
330
1F
100
AcDbEntity
  8
16
 48
3.0
100
AcDbLine
 10
114.4490965605422
 20
189.5858826573648
 30
0.0
 11
114.4490965605422
 21
212.5858826573649
 31
0.0
  0
CIRCLE
  5
8097
330
1F
100
AcDbEntity
  8
22
  6
Continuous
100
AcDbCircle
 10
84.46417530527606
 20
87.08588066449076
 30
0.0
 40
9.0
  0
LINE
  5
8098
102
{ACAD_REACTORS
330
80A6
102
}
330
1F
100
AcDbEntity
  8
16
 48
3.0
100
AcDbLine
 10
84.46417530527606
 20
98.58588066449076
 30
0.0
 11
84.46417530527606
 21
75.58588066449074
 31
0.0
  0
CIRCLE
  5
8099
330
1F
100
AcDbEntity
  8
22
  6
Continuous
100
AcDbCircle
 10
114.4490965605422
 20
87.08588066449076
 30
0.0
 40
9.0
  0
LINE
  5
809A
330
1F
100
AcDbEntity
  8
16
 48
3.0
100
AcDbLine
 10
114.4490965605422
 20
98.58588066449076
 30
0.0
 11
114.4490965605422
 21
75.58588066449074
 31
0.0
  0
ARC
  5
809B
330
1F
100
AcDbEntity
  8
10
100
AcDbCircle
 10
84.45835169854218
 20
410.7886119579267
 30
0.0
 40
10.04464285714245
100
AcDbArc
 50
56.19728719518988
 51
123.8027128048101
  0
ARC
  5
809C
330
1F
100
AcDbEntity
  8
10
100
AcDbCircle
 10
84.45835169854218
 20
296.8820096941827
 30
0.0
 40
10.04464285714245
100
AcDbArc
 50
236.1972871951899
 51
303.8027128048101
  0
ARC
  5
809D
330
1F
100
AcDbEntity
  8
10
100
AcDbCircle
 10
114.5922795963764
 20
410.7886119579267
 30
0.0
 40
10.04464285714245
100
AcDbArc
 50
56.19728719518988
 51
123.8027128048101
  0
ARC
  5
809E
330
1F
100
AcDbEntity
  8
10
100
AcDbCircle
 10
114.5922795963764
 20
296.8820096941827
 30
0.0
 40
10.04464285714245
100
AcDbArc
 50
236.1972871951899
 51
303.8027128048101
  0
DIMENSION
  5
809F
330
1F
100
AcDbEntity
  8
30
100
AcDbDimension
280
     0
  2
*D14
 10
38.24561499595836
 20
87.08588066449076
 30
0.0
 11
33.24561499595836
 21
144.0858816609278
 31
0.0
 70
    32
 71
     5
 42
114.0000019928741
 73
     0
 74
     0
 75
     0
  3
STANDARD
100
AcDbAlignedDimension
 13
72.76417530527601
 23
201.0858826573648
 33
0.0
 14
72.76417530527601
 24
87.08588066449076
 34
0.0
 50
90.0
100
AcDbRotatedDimension
  0
LINE
  5
80A0
330
1F
100
AcDbEntity
  8
16
 48
3.0
100
AcDbLine
 10
95.96417530527608
 20
87.08588066449076
 30
0.0
 11
72.96417530527604
 21
87.08588066449076
 31
0.0
  0
LINE
  5
80A1
330
1F
100
AcDbEntity
  8
16
 48
3.0
100
AcDbLine
 10
125.9490965605422
 20
87.08588066449076
 30
0.0
 11
102.9490965605422
 21
87.08588066449076
 31
0.0
  0
LINE
  5
80A2
330
1F
100
AcDbEntity
  8
16
 48
3.0
100
AcDbLine
 10
125.9490965605422
 20
201.0858826573648
 30
0.0
 11
102.9490965605422
 21
201.0858826573648
 31
0.0
  0
LINE
  5
80A3
330
1F
100
AcDbEntity
  8
16
 48
3.0
100
AcDbLine
 10
95.96417530527594
 20
201.0858826573648
 30
0.0
 11
72.96417530527596
 21
201.0858826573648
 31
0.0
  0
DIMENSION
  5
80A4
102
{ACAD_XDICTIONARY
360
80A5
102
}
102
{ACAD_REACTORS
330
80A6
102
}
330
1F
100
AcDbEntity
  8
30
100
AcDbDimension
280
     0
  2
*D25
 10
114.4490965605422
 20
52.09786206623855
 30
0.0
 11
99.45663593290916
 21
57.09786206623855
 31
0.0
 70
    32
 71
     5
 42
29.98492125526616
 73
     0
 74
     0
 75
     0
  3
STANDARD
100
AcDbAlignedDimension
 13
84.46417530527606
 23
75.58588066449074
 33
0.0
 14
114.4490965605422
 24
77.08588066449078
 34
0.0
100
AcDbRotatedDimension
  0
LINE
  5
80BA
330
1F
100
AcDbEntity
  8
17
 48
0.5
100
AcDbLine
 10
114.7401583106748
 20
608.8851688473708
 30
0.0
 11
114.7401583106748
 21
630.6014932882569
 31
0.0
  0
LINE
  5
80BB
330
1F
100
AcDbEntity
  8
16
 48
0.5
100
AcDbLine
 10
84.65732915134593
 20
473.3936443592758
 30
0.0
 11
84.65732915134593
 21
695.2908013524844
 31
0.0
  0
LINE
  5
80BC
330
1F
100
AcDbEntity
  8
17
 48
0.5
100
AcDbLine
 10
125.6304418096501
 20
617.5502460644295
 30
0.0
 11
108.7031367268514
 21
617.5502460644295
 31
0.0
  0
LINE
  5
80BD
330
1F
100
AcDbEntity
  8
17
 48
0.5
100
AcDbLine
 10
94.5476126503213
 20
667.5502460644296
 30
0.0
 11
73.05199602870231
 21
667.5502460644296
 31
0.0
  0
DIMENSION
  5
80BE
102
{ACAD_XDICTIONARY
360
80BF
102
}
102
{ACAD_REACTORS
330
80C0
102
}
330
1F
100
AcDbEntity
  8
30
100
AcDbDimension
280
     0
  2
*D26
 10
73.46818798011418
 20
316.5437699895619
 30
0.0
 11
84.27063408201048
 21
316.5437699895619
 31
0.0
 70
   160
 71
     5
 42
22.04630381618904
 73
     0
 74
     0
 75
     0
  3
STANDARD
100
AcDbAlignedDimension
 13
95.51449179630322
 23
331.6596223638114
 33
0.0
 14
73.46818798011418
 24
331.6596223638114
 34
0.0
 50
180.0
100
AcDbRotatedDimension
  0
LWPOLYLINE
  5
80C1
330
1F
100
AcDbEntity
  8
18
 48
5.0
100
AcDbPolyline
 90
        4
 70
     1
 43
0.0
 10
129.4553789877636
 20
79.05058411958169
 10
129.4553789877636
 20
209.0505786244146
 10
69.45537591476386
 20
209.0505786244146
 10
69.45537591476386
 20
79.05058411958169
  0
DIMENSION
  5
80C3
330
1F
100
AcDbEntity
  8
30
  6
Continuous
100
AcDbDimension
280
     0
  2
*D15
 10
119.0091298859777
 20
647.1965532763704
 30
0.0
 11
99.38115024839772
 21
647.1965532763704
 31
0.0
 70
   160
 71
     5
 42
8.537945021517995
 73
     0
 74
     0
 75
     0
  3
STANDARD
100
AcDbAlignedDimension
 13
110.4711848644597
 23
617.5502460644295
 33
0.0
 14
119.0091298859777
 24
617.5502460644295
 34
0.0
 50
180.0
100
AcDbRotatedDimension
1001
ACAD
1000
DSTYLE
1002
{
1070
    79
1070
     3
1002
}
  0
LWPOLYLINE
  5
80C4
330
1F
100
AcDbEntity
  8
24
  6
Continuous
 62
     7
100
AcDbPolyline
 90
        6
 70
     0
 43
0.0
 10
109.7021270325869
 20
595.7579902429833
 42
0.1739087674231221
 10
106.8551139656456
 20
601.7757254956081
 10
106.8551142275079
 20
630.6014931504002
 42
-0.2471454556482815
 10
122.6252026557099
 20
630.6014932882569
 10
122.6252026557099
 20
601.7757254956081
 42
0.1718897542815705
 10
119.7781901124934
 20
595.7579902429837
  0
DIMENSION
  5
80C5
330
1F
100
AcDbEntity
  8
30
  6
Continuous
100
AcDbDimension
280
     0
  2
*D16
 10
122.7605203990791
 20
658.4901331001227
 30
0.0
 11
114.7754760540471
 21
658.4901331001227
 31
0.0
 70
   160
 71
     5
 42
15.97008869006413
 73
     0
 74
     0
 75
     0
  3
STANDARD
100
AcDbAlignedDimension
 13
106.790431709015
 23
630.5014931504004
 33
0.0
 14
122.7605203990791
 24
630.6014931504002
 34
0.0
100
AcDbRotatedDimension
  0
MTEXT
  5
80C6
330
1F
100
AcDbEntity
  8
240
100
AcDbMText
 10
222.2432927368804
 20
23.97961945312659
 30
0.0
 40
7.826237649998486
 41
0.0
 46
0.0
 71
     1
 72
     1
  1
[Cutout A]
  7
SLDTEXTSTYLE0
 73
     1
 44
1.0
  0
MTEXT
  5
80C7
330
1F
100
AcDbEntity
  8
240
100
AcDbMText
 10
370.9650217944485
 20
23.97961945312659
 30
0.0
 40
7.826237649998486
 41
0.0
 46
0.0
 71
     1
 72
     1
  1
[Cutout B]
  7
SLDTEXTSTYLE0
 73
     1
 44
1.0
  0
DIMENSION
  5
80C8
330
1F
100
AcDbEntity
  8
30
  6
Continuous
100
AcDbDimension
280
     0
  2
*D17
 10
243.8840558237054
 20
328.7638408316517
 30
0.0
 11
243.8840558237053
 21
356.5362835326516
 31
0.0
 70
   160
 71
     5
 42
50.0
 73
     0
 74
     0
 75
     0
  3
STANDARD
100
AcDbAlignedDimension
 13
281.9840558237051
 23
378.7638408316517
 33
0.0
 14
281.9840558237051
 24
328.7638408316517
 34
0.0
 50
270.0
100
AcDbRotatedDimension
1001
ACAD
1000
DSTYLE
1002
{
1070
    79
1070
     3
1002
}
  0
DIMENSION
  5
80C9
330
1F
100
AcDbEntity
  8
30
  6
Continuous
100
AcDbDimension
280
     0
  2
*D18
 10
473.8840558237052
 20
294.2638408316517
 30
0.0
 11
473.8840558237052
 21
276.2638408316517
 31
0.0
 70
   160
 71
     5
 42
5.0
 73
     0
 74
     0
 75
     0
  3
STANDARD
100
AcDbAlignedDimension
 13
455.7371869293048
 23
299.2638408316517
 33
0.0
 14
455.7371869293048
 24
294.2638408316517
 34
0.0
 50
270.0
100
AcDbRotatedDimension
1001
ACAD
1000
DSTYLE
1002
{
1070
   172
1070
     1
1070
    79
1070
     3
1002
}
  0
LWPOLYLINE
  5
80CA
330
1F
100
AcDbEntity
  8
18
100
AcDbPolyline
 90
        2
 70
     0
 43
0.001
 10
354.1656393824693
 20
266.754268605659
 10
354.1656393824693
 20
419.096072374629
  0
LWPOLYLINE
  5
80CB
330
1F
100
AcDbEntity
  8
18
100
AcDbPolyline
 90
        2
 70
     0
 43
0.001
 10
356.1656393824693
 20
266.754268605659
 10
356.1656393824693
 20
419.096072374629
  0
LINE
  5
80CC
330
1F
100
AcDbEntity
  8
10
  6
Continuous
100
AcDbLine
 10
282.1656406192188
 20
328.7638408316517
 30
0.0
 11
282.1656406192188
 21
378.7638408316517
 31
0.0
  0
LINE
  5
80CD
330
1F
100
AcDbEntity
  8
24
  6
Continuous
 62
     7
100
AcDbLine
 10
369.8840558129052
 20
289.1313986618517
 30
0.0
 11
364.884329965305
 21
288.5790397482517
 31
0.0
  0
LINE
  5
80CE
330
1F
100
AcDbEntity
  8
24
  6
Continuous
 62
     7
100
AcDbLine
 10
364.8843299769052
 20
288.5790396442517
 30
0.0
 11
354.1656393824693
 21
288.4667896755773
 31
0.0
  0
LINE
  5
80CF
330
1F
100
AcDbEntity
  8
24
  6
Continuous
 62
     7
100
AcDbLine
 10
416.9840558237048
 20
293.5638408316517
 30
0.0
 11
376.9840558237048
 21
293.5638408316517
 31
0.0
  0
LINE
  5
80D0
330
1F
100
AcDbEntity
  8
24
  6
Continuous
 62
     7
100
AcDbLine
 10
455.7371869293048
 20
294.2638408316517
 30
0.0
 11
416.9840558237048
 21
294.2638408316517
 31
0.0
  0
LINE
  5
80D1
330
1F
100
AcDbEntity
  8
17
100
AcDbLine
 10
343.8840558237054
 20
296.7638408316517
 30
0.0
 11
463.8840558237053
 21
296.7638408316517
 31
0.0
  0
LINE
  5
80D2
330
1F
100
AcDbEntity
  8
24
  6
Continuous
 62
     7
100
AcDbLine
 10
416.9840558237048
 20
299.2638408316517
 30
0.0
 11
455.7371869293048
 21
299.2638408316517
 31
0.0
  0
LINE
  5
80D3
330
1F
100
AcDbEntity
  8
24
  6
Continuous
 62
     7
100
AcDbLine
 10
376.9840558237048
 20
299.9638408316516
 30
0.0
 11
416.9840558237048
 21
299.9638408316516
 31
0.0
  0
LINE
  5
80D4
330
1F
100
AcDbEntity
  8
24
  6
Continuous
 62
     7
100
AcDbLine
 10
364.8843299769052
 20
304.9486420192517
 30
0.0
 11
354.1656393824693
 21
305.0608919877313
 31
0.0
  0
LINE
  5
80D5
330
1F
100
AcDbEntity
  8
24
  6
Continuous
 62
     7
100
AcDbLine
 10
369.8840558129052
 20
304.3962830016517
 30
0.0
 11
364.884329965305
 21
304.9486419152517
 31
0.0
  0
LINE
  5
80D6
330
1F
100
AcDbEntity
  8
24
  6
Continuous
 62
     7
100
AcDbLine
 10
369.8840558237054
 20
289.1313985648517
 30
0.0
 11
369.8840558237054
 21
304.3962830986517
 31
0.0
  0
LINE
  5
80D7
330
1F
100
AcDbEntity
  8
24
  6
Continuous
 62
     7
100
AcDbLine
 10
369.8840558237054
 20
403.1313985648516
 30
0.0
 11
369.8840558237054
 21
418.3962830986517
 31
0.0
  0
LINE
  5
80D8
330
1F
100
AcDbEntity
  8
24
  6
Continuous
 62
     7
100
AcDbLine
 10
369.8840558129052
 20
403.1313986618516
 30
0.0
 11
364.884329965305
 21
402.5790397482515
 31
0.0
  0
LINE
  5
80D9
330
1F
100
AcDbEntity
  8
24
  6
Continuous
 62
     7
100
AcDbLine
 10
364.8843299769052
 20
402.5790396442515
 30
0.0
 11
354.1656393824693
 21
402.4667896755771
 31
0.0
  0
LINE
  5
80DA
330
1F
100
AcDbEntity
  8
24
  6
Continuous
 62
     7
100
AcDbLine
 10
376.9840558237048
 20
407.5638408316516
 30
0.0
 11
416.9840558237048
 21
407.5638408316516
 31
0.0
  0
LINE
  5
80DB
330
1F
100
AcDbEntity
  8
24
  6
Continuous
 62
     7
100
AcDbLine
 10
416.9840558237048
 20
413.9638408316517
 30
0.0
 11
416.9840558237048
 21
407.5638408316516
 31
0.0
  0
LINE
  5
80DC
330
1F
100
AcDbEntity
  8
24
  6
Continuous
 62
     7
100
AcDbLine
 10
416.9840558237048
 20
293.5638408316517
 30
0.0
 11
416.9840558237048
 21
299.9638408316516
 31
0.0
  0
LINE
  5
80DD
330
1F
100
AcDbEntity
  8
24
  6
Continuous
 62
     7
100
AcDbLine
 10
416.9840558237048
 20
413.9638408316517
 30
0.0
 11
376.9840558237048
 21
413.9638408316517
 31
0.0
  0
LINE
  5
80DE
330
1F
100
AcDbEntity
  8
24
  6
Continuous
 62
     7
100
AcDbLine
 10
364.8843299769052
 20
418.9486420192515
 30
0.0
 11
354.1656393824693
 21
419.096072374629
 31
0.0
  0
LINE
  5
80DF
330
1F
100
AcDbEntity
  8
24
  6
Continuous
 62
     7
100
AcDbLine
 10
369.8840558129052
 20
418.3962830016517
 30
0.0
 11
364.884329965305
 21
418.9486419152516
 31
0.0
  0
LWPOLYLINE
  5
80E0
330
1F
100
AcDbEntity
  8
30
  6
Continuous
100
AcDbPolyline
 90
        2
 70
     0
 43
0.0
 10
259.4573636759052
 20
363.5574479528196
 42
0.0941531552727129
 10
258.6656406192191
 20
356.380569164273
  0
ARC
  5
80E1
330
1F
100
AcDbEntity
  8
24
  6
Continuous
 62
     7
100
AcDbCircle
 10
376.9840558237048
 20
425.2638408316516
 30
0.0
 40
11.3
100
AcDbArc
 50
231.0505796710034
 51
270.0
  0
ARC
  5
80E2
330
1F
100
AcDbEntity
  8
24
  6
Continuous
 62
     7
100
AcDbCircle
 10
376.9840558237048
 20
396.2638408316517
 30
0.0
 40
11.3
100
AcDbArc
 50
90.0
 51
128.9494266960035
  0
ARC
  5
80E3
330
1F
100
AcDbEntity
  8
24
  6
Continuous
 62
     7
100
AcDbCircle
 10
376.9840558237048
 20
282.2638408316517
 30
0.0
 40
11.3
100
AcDbArc
 50
90.0
 51
128.9494279204027
  0
ARC
  5
80E4
330
1F
100
AcDbEntity
  8
24
  6
Continuous
 62
     7
100
AcDbCircle
 10
376.9840558237048
 20
311.2638408316517
 30
0.0
 40
11.3
100
AcDbArc
 50
231.0505808667993
 51
270.0
  0
ARC
  5
80E5
330
1F
100
AcDbEntity
  8
24
  6
Continuous
 62
     7
100
AcDbCircle
 10
436.0998446807589
 20
296.7638408316517
 30
0.0
 40
19.79583821378964
100
AcDbArc
 50
352.7447901228466
 51
7.255209877153371
  0
LWPOLYLINE
  5
80E6
330
1F
100
AcDbEntity
  8
10
  6
Continuous
100
AcDbPolyline
 90
        4
 70
     1
 43
0.0
 10
352.1656393824693
 20
286.4961148366721
 10
354.1656393824693
 20
286.4961148366721
 10
354.1656393824693
 20
288.4961148366721
 10
352.1656393824693
 20
288.4961148366721
  0
LWPOLYLINE
  5
80E7
330
1F
100
AcDbEntity
  8
10
  6
Continuous
100
AcDbPolyline
 90
        4
 70
     1
 43
0.0
 10
352.1656393824693
 20
421.0960723746291
 10
354.1656393824693
 20
421.0960723746291
 10
354.1656393824693
 20
419.096072374629
 10
352.1656393824693
 20
419.096072374629
  0
LWPOLYLINE
  5
80E8
330
1F
100
AcDbEntity
  8
10
  6
Continuous
100
AcDbPolyline
 90
        4
 70
     1
 43
0.0
 10
282.1656406192188
 20
378.7638408316517
 10
286.1656406192188
 20
378.7638408316517
 10
286.1656406192188
 20
328.7638408316517
 10
282.1656406192188
 20
328.7638408316517
  0
LWPOLYLINE
  5
80E9
330
1F
100
AcDbEntity
  8
10
  6
Continuous
100
AcDbPolyline
 90
       20
 70
     0
 43
0.0
 10
282.1656406192188
 20
331.2638408316517
 10
276.5289956959052
 20
331.2638408316517
 10
276.2805765813706
 20
333.9108996551811
 10
276.1362849972518
 20
336.5579584787105
 10
276.0002484739644
 20
339.2050173022399
 10
275.8765945419246
 20
341.8520761257694
 10
275.769450731548
 20
344.4991349492988
 10
275.6829445732502
 20
347.1461937728282
 10
275.6212035974473
 20
349.7932525963575
 10
275.5840558237052
 20
353.7638408316517
 10
275.5883553345549
 20
355.0873702434164
 10
275.6212035974473
 20
357.7344290669458
 10
275.6829445732502
 20
360.3814878904752
 10
275.769450731548
 20
363.0285467140046
 10
275.8765945419246
 20
365.675605537534
 10
276.0002484739644
 20
368.3226643610634
 10
276.1362849972518
 20
370.9697231845928
 10
276.2805765813706
 20
373.6167820081224
 10
276.4289956959052
 20
376.2638408316517
 10
282.1656406192188
 20
376.2638408316517
  0
LINE
  5
80EA
330
1F
100
AcDbEntity
  8
17
100
AcDbLine
 10
343.8840558237054
 20
410.7638408316517
 30
0.0
 11
463.8840558237053
 21
410.7638408316517
 31
0.0
  0
LINE
  5
80EB
330
1F
100
AcDbEntity
  8
24
  6
Continuous
 62
     7
100
AcDbLine
 10
376.3840558237053
 20
294.2638408316517
 30
0.0
 11
406.1271880363051
 21
294.2638408316517
 31
0.0
  0
LINE
  5
80EC
330
1F
100
AcDbEntity
  8
24
  6
Continuous
 62
     7
100
AcDbLine
 10
376.3840558237053
 20
299.2638408316517
 30
0.0
 11
406.1271880363051
 21
299.2638408316517
 31
0.0
  0
ARC
  5
80ED
330
1F
100
AcDbEntity
  8
24
  6
Continuous
 62
     7
100
AcDbCircle
 10
386.2840558237053
 20
296.7638408316517
 30
0.0
 40
20.0
100
AcDbArc
 50
352.8055694888973
 51
7.194430511102744
  0
ARC
  5
80EE
330
1F
100
AcDbEntity
  8
24
  6
Continuous
 62
     7
100
AcDbCircle
 10
375.7379920037049
 20
311.2464366080517
 30
0.0
 40
12.0
100
AcDbArc
 50
240.7833294700036
 51
273.0862196937968
  0
ARC
  5
80EF
330
1F
100
AcDbEntity
  8
24
  6
Continuous
 62
     7
100
AcDbCircle
 10
375.7379920037049
 20
282.2812450552517
 30
0.0
 40
12.0
100
AcDbArc
 50
86.91378030620315
 51
119.2168251174987
  0
LINE
  5
80F0
330
1F
100
AcDbEntity
  8
24
  6
Continuous
 62
     7
100
AcDbLine
 10
376.3840558237053
 20
408.2638408316516
 30
0.0
 11
406.1271880363051
 21
408.2638408316516
 31
0.0
  0
LINE
  5
80F1
330
1F
100
AcDbEntity
  8
24
  6
Continuous
 62
     7
100
AcDbLine
 10
376.3840558237053
 20
413.2638408316516
 30
0.0
 11
406.1271880363051
 21
413.2638408316516
 31
0.0
  0
ARC
  5
80F2
330
1F
100
AcDbEntity
  8
24
  6
Continuous
 62
     7
100
AcDbCircle
 10
386.2840558237055
 20
410.7638408316517
 30
0.0
 40
20.0
100
AcDbArc
 50
352.8055694888973
 51
7.194430511102744
  0
ARC
  5
80F3
330
1F
100
AcDbEntity
  8
24
  6
Continuous
 62
     7
100
AcDbCircle
 10
375.7379920037049
 20
425.2464366080515
 30
0.0
 40
12.0
100
AcDbArc
 50
240.7833294700036
 51
273.0862196937968
  0
ARC
  5
80F4
330
1F
100
AcDbEntity
  8
24
  6
Continuous
 62
     7
100
AcDbCircle
 10
375.7379920037049
 20
396.2812450552517
 30
0.0
 40
12.0
100
AcDbArc
 50
86.91378030620315
 51
119.2168251174987
  0
DIMENSION
  5
80F5
330
1F
100
AcDbEntity
  8
30
  6
Continuous
100
AcDbDimension
280
     0
  2
*D19
 10
482.7725047485443
 20
296.7638408316517
 30
0.0
 11
477.7725047485441
 21
353.7638408316519
 31
0.0
 70
    32
 71
     5
 42
114.0
 73
     0
 74
     0
 75
     0
  3
STANDARD
100
AcDbAlignedDimension
 13
462.7725047485442
 23
410.7638408316517
 33
0.0
 14
462.7725047485442
 24
296.7638408316517
 34
0.0
 50
90.0
100
AcDbRotatedDimension
  0
LWPOLYLINE
  5
80F6
330
1F
100
AcDbEntity
  8
10
  6
Continuous
100
AcDbPolyline
 90
       31
 70
     0
 43
0.0
 10
294.1858143281478
 20
302.6343158392283
 10
294.1858143281478
 20
302.6343158392283
 10
294.1858143281478
 20
302.6343158392283
 10
294.1858143281478
 20
302.6343158392283
 10
294.1858143281478
 20
302.6343158392283
 42
1.09625752610414
 10
294.1858143281478
 20
302.6343158392283
 10
286.1656406192188
 20
302.6343158392283
 10
286.1656406192188
 20
302.6343158392283
 10
286.1656406192188
 20
303.6617390364772
 10
286.1656406192188
 20
305.3805691642728
 10
286.1656406192188
 20
328.7638408316517
 10
286.1656406192188
 20
404.8505961386491
 42
-0.0855072839151511
 10
286.1656406192188
 20
405.0384981718456
 10
293.4480973199853
 20
405.0000249255877
 42
0.3758822830529091
 10
293.9467342504062
 20
405.4304260936953
 10
295.0452119985913
 20
413.2465001472946
 10
295.0452119985913
 20
413.2465001472946
 10
295.0452119985913
 20
413.2465001472946
 10
295.6270240149822
 20
417.3863015258256
 10
295.6270240149822
 20
417.3863015258256
 10
295.6270240149822
 20
417.3863015258256
 42
-0.1294431367931932
 10
296.9327408187469
 20
419.096072374629
 10
353.7280571385919
 20
419.096072374629
 42
0.0033336821045917
 10
354.1656393824693
 20
419.096072374629
 10
354.1656393824693
 20
288.4961148366721
 42
8.931262686279291
 10
354.1656393824693
 20
288.4961148366721
 10
297.0370577263392
 20
288.496114836672
 42
-0.1953144770907657
 10
295.9623430985463
 20
289.4229382817595
 10
295.6270240149822
 20
290.0407550928607
 10
294.1858143281478
 20
302.6343158392283
 42
0.1261397278995533
 10
294.1858143281478
 20
302.6343158392283
  0
LWPOLYLINE
  5
80F7
330
1F
100
AcDbEntity
  8
10
100
AcDbPolyline
 90
        9
 70
     0
 43
0.0
 10
275.674652128356
 20
366.4998725853187
 10
267.5319486860787
 20
368.6392551096853
 10
262.9479551536535
 20
369.8162250795907
 10
261.3929489643919
 20
369.5810521769346
 10
260.481919504524
 20
368.2991091915261
 10
259.7575358997098
 20
365.0044199647362
 10
260.0468334770013
 20
363.4585678275261
 10
261.3597900070141
 20
362.5928325071815
 10
275.3774267805294
 20
360.1372694919372
  0
LINE
  5
80F8
330
1F
100
AcDbEntity
  8
24
  6
Continuous
 62
     7
100
AcDbLine
 10
455.7371869293048
 20
408.2638408316516
 30
0.0
 11
416.9840558237048
 21
408.2638408316516
 31
0.0
  0
LINE
  5
80F9
330
1F
100
AcDbEntity
  8
24
  6
Continuous
 62
     7
100
AcDbLine
 10
416.9840558237048
 20
413.2638408316516
 30
0.0
 11
455.7371869293048
 21
413.2638408316516
 31
0.0
  0
ARC
  5
80FA
330
1F
100
AcDbEntity
  8
24
  6
Continuous
 62
     7
100
AcDbCircle
 10
436.0998446807573
 20
410.7638408316518
 30
0.0
 40
19.79583821379117
100
AcDbArc
 50
352.7447901228466
 51
7.255209877152561
  0
LINE
  5
80FB
330
1F
100
AcDbEntity
  8
24
  6
CENTER
 62
     0
100
AcDbLine
 10
393.1392028435851
 20
406.6385032933639
 30
0.0
 11
393.1392028435851
 21
414.7650041940598
 31
0.0
  0
LINE
  5
80FC
330
1F
100
AcDbEntity
  8
24
  6
CENTER
 62
     0
100
AcDbLine
 10
389.1392028435851
 20
406.4448051806165
 30
0.0
 11
389.1392028435851
 21
414.7650041940598
 31
0.0
  0
LINE
  5
80FD
330
1F
100
AcDbEntity
  8
24
  6
CENTER
 62
     0
100
AcDbLine
 10
443.1624141356945
 20
406.6385032933639
 30
0.0
 11
443.1624141356945
 21
414.7650041940598
 31
0.0
  0
LINE
  5
80FE
330
1F
100
AcDbEntity
  8
24
  6
CENTER
 62
     0
100
AcDbLine
 10
439.1624141356945
 20
406.4448051806165
 30
0.0
 11
439.1624141356945
 21
414.7650041940598
 31
0.0
  0
LINE
  5
80FF
330
1F
100
AcDbEntity
  8
24
  6
CENTER
 62
     0
100
AcDbLine
 10
393.1392028435851
 20
292.6385032933639
 30
0.0
 11
393.1392028435851
 21
300.7650041940598
 31
0.0
  0
LINE
  5
8100
330
1F
100
AcDbEntity
  8
24
  6
CENTER
 62
     0
100
AcDbLine
 10
389.1392028435851
 20
292.4448051806166
 30
0.0
 11
389.1392028435851
 21
300.7650041940598
 31
0.0
  0
LINE
  5
8101
330
1F
100
AcDbEntity
  8
24
  6
CENTER
 62
     0
100
AcDbLine
 10
443.1624141356945
 20
292.6385032933639
 30
0.0
 11
443.1624141356945
 21
300.7650041940598
 31
0.0
  0
LINE
  5
8102
330
1F
100
AcDbEntity
  8
24
  6
CENTER
 62
     0
100
AcDbLine
 10
439.1624141356945
 20
292.4448051806166
 30
0.0
 11
439.1624141356945
 21
300.7650041940598
 31
0.0
  0
DIMENSION
  5
8103
330
1F
100
AcDbEntity
  8
30
  6
Continuous
100
AcDbDimension
280
     0
  2
*D20
 10
354.1656393824693
 20
237.0123117664773
 30
0.0
 11
306.4156400008442
 21
242.0123117664773
 31
0.0
 70
    32
 71
     5
 42
95.49999876325022
 73
     0
 74
     0
 75
     0
  3
STANDARD
100
AcDbAlignedDimension
 13
258.6656406192191
 23
357.380569164273
 33
0.0
 14
354.1656393824693
 24
292.2199357350367
 34
0.0
 50
180.0
100
AcDbRotatedDimension
1001
ACAD
1000
DSTYLE
1002
{
1070
    79
1070
     3
1002
}
  0
DIMENSION
  5
8104
330
1F
100
AcDbEntity
  8
30
  6
Continuous
100
AcDbDimension
280
     0
  2
*D21
 10
282.1656406192188
 20
248.4325795330342
 30
0.0
 11
264.8758678919461
 21
248.4325795330342
 31
0.0
 70
   160
 71
     5
 42
6.5
 73
     0
 74
     0
 75
     0
  3
STANDARD
100
AcDbAlignedDimension
 13
275.6656406192188
 23
332.380569164273
 33
0.0
 14
282.1656406192188
 24
326.3256687995842
 34
0.0
 50
180.0
100
AcDbRotatedDimension
1001
ACAD
1000
DSTYLE
1002
{
1070
    79
1070
     3
1002
}
  0
DIMENSION
  5
8105
330
1F
100
AcDbEntity
  8
30
  6
Continuous
100
AcDbDimension
280
     0
  2
*D22
 10
354.1656393824693
 20
248.4325795330342
 30
0.0
 11
318.1656400008441
 21
253.4325795330342
 31
0.0
 70
    32
 71
     5
 42
71.99999876325046
 73
     0
 74
     0
 75
     0
  3
STANDARD
100
AcDbAlignedDimension
 13
282.1656406192188
 23
321.1915199917791
 33
0.0
 14
354.1656393824693
 24
292.2199357350367
 34
0.0
 50
180.0
100
AcDbRotatedDimension
1001
ACAD
1000
DSTYLE
1002
{
1070
    79
1070
     3
1002
}
  0
DIMENSION
  5
8106
330
1F
100
AcDbEntity
  8
30
  6
Continuous
100
AcDbDimension
280
     0
  2
*D23
 10
354.1656393824693
 20
259.2870449213645
 30
0.0
 11
320.1656400008441
 21
264.2870449213645
 31
0.0
 70
    32
 71
     5
 42
67.99999876325045
 73
     0
 74
     0
 75
     0
  3
STANDARD
100
AcDbAlignedDimension
 13
286.1656406192188
 23
295.7403378479859
 33
0.0
 14
354.1656393824693
 24
292.2199357350367
 34
0.0
 50
180.0
100
AcDbRotatedDimension
1001
ACAD
1000
DSTYLE
1002
{
1070
    79
1070
     3
1002
}
  0
DIMENSION
  5
8107
330
1F
100
AcDbEntity
  8
30
  6
Continuous
100
AcDbDimension
280
     0
  2
*D24
 10
354.1656393824693
 20
269.5872346466095
 30
0.0
 11
324.1656393824692
 21
274.5872346466095
 31
0.0
 70
    32
 71
     5
 42
60.0000000000001
 73
     0
 74
     0
 75
     0
  3
STANDARD
100
AcDbAlignedDimension
 13
294.1656393824692
 23
292.2199357350367
 33
0.0
 14
354.1656393824693
 24
292.2199357350367
 34
0.0
 50
180.0
100
AcDbRotatedDimension
1001
ACAD
1000
DSTYLE
1002
{
1070
    79
1070
     3
1002
}
  0
LEADER
  5
8108
330
1F
100
AcDbEntity
  8
30
100
AcDbLeader
  3
STANDARD1
 76
     3
 10
114.47206388112
 20
209.7629160407893
 30
0.0
 10
123.3202061942118
 20
233.2161553369215
 30
0.0
 10
141.8702061942118
 20
233.2161553369215
 30
0.0
211
-1.0
221
0.0
231
0.0
1001
ACAD
1000
DSTYLE
1002
{
1070
   147
1040
2.0
1070
    77
1070
     0
1002
}
  0
MTEXT
  5
8109
330
1F
100
AcDbEntity
  8
30
100
AcDbMText
 10
127.4685168428046
 20
239.5629160407895
 30
0.0
 40
5.0
 41
30.0
 46
0.0
 71
     1
 72
     5
  1
φ18
  7
blockfont
 73
     1
 44
1.0
  0
DIMENSION
  5
859F
330
1F
100
AcDbEntity
  8
30
100
AcDbDimension
280
     0
  2
*D27
 10
398.4267872114581
 20
52.07364203588088
 30
0.0
 11
387.307025201575
 21
52.07364203588088
 31
0.0
 70
   160
  1
<>
 71
     2
 42
23.99999999999977
 73
     0
 74
     0
 75
     0
  3
STANDARD
100
AcDbAlignedDimension
 13
374.4267872114584
 23
144.0736914487553
 33
0.0
 14
398.4267872114581
 24
123.899208244342
 34
0.0
100
AcDbRotatedDimension
  0
LINE
  5
85A0
330
1F
100
AcDbEntity
  8
16
 48
5.0
100
AcDbLine
 10
386.4267872114584
 20
74.07369184017216
 30
0.0
 11
386.4267872114584
 21
225.6050616987185
 31
0.0
  0
LINE
  5
85A1
330
1F
100
AcDbEntity
  8
16
 48
5.0
100
AcDbLine
 10
429.1884670138214
 20
144.0736914487553
 30
0.0
 11
347.4606943975859
 21
144.0736914487553
 31
0.0
  0
LWPOLYLINE
  5
85A2
330
1F
100
AcDbEntity
  8
10
 62
     1
100
AcDbPolyline
 90
        8
 70
     1
 43
0.0
 10
212.4635228848592
 20
169.0736918398718
 10
212.4635228848592
 20
119.0736910576388
 42
0.4142135623730951
 10
213.4635228848592
 20
118.0736910576388
 10
268.4635253247259
 20
118.0736910576388
 42
0.4142135623730951
 10
269.4635253247259
 20
119.0736910576388
 10
269.4635253247259
 20
169.0736918398718
 42
0.4142135623730951
 10
268.4635253247259
 20
170.0736918398718
 10
213.4635228848592
 20
170.0736918398718
 42
0.4142135623730951
  0
LWPOLYLINE
  5
85A3
330
1F
100
AcDbEntity
  8
18
 48
5.0
100
AcDbPolyline
 90
        4
 70
     1
 43
0.0
 10
270.9635256412924
 20
79.07369419621385
 10
270.9635256412924
 20
209.0736887010468
 10
210.9635225682926
 20
209.0736887010468
 10
210.9635225682926
 20
79.07369419621385
  0
DIMENSION
  5
85A4
330
1F
100
AcDbEntity
  8
30
100
AcDbDimension
280
     0
  2
*D28
 10
269.4635238644758
 20
52.07364203588088
 30
0.0
 11
240.9635241049179
 21
52.07364203588088
 31
0.0
 70
   160
  1
<>
 71
     2
 42
56.99999951911639
 73
     0
 74
     0
 75
     0
  3
STANDARD
100
AcDbAlignedDimension
 13
212.4635243453594
 23
119.0736915885471
 33
0.0
 14
269.4635238644758
 24
119.0736915885471
 34
0.0
100
AcDbRotatedDimension
  0
DIMENSION
  5
85A5
330
1F
100
AcDbEntity
  8
30
100
AcDbDimension
280
     0
  2
*D29
 10
268.4635238700671
 20
169.0736913089632
 30
0.0
 11
282.7839545729507
 21
178.468173847746
 31
0.0
 70
   164
  1
R1
 71
     5
 42
0.9999999943784699
 73
     0
 74
     0
 75
     0
  3
STANDARD1
100
AcDbRadialDimension
 15
269.1382175291403
 25
169.8117891718267
 35
0.0
 40
0.0
  0
LINE
  5
85A6
330
1F
100
AcDbEntity
  8
16
 48
5.0
100
AcDbLine
 10
240.9635241049179
 20
74.07369184017216
 30
0.0
 11
240.9635241049179
 21
225.6050616987185
 31
0.0
  0
LINE
  5
85A7
330
1F
100
AcDbEntity
  8
10
 62
     1
100
AcDbLine
 10
375.4267872114584
 20
167.8236914487552
 30
0.0
 11
397.4267872114581
 21
167.8236914487552
 31
0.0
  0
LINE
  5
85A8
330
1F
100
AcDbEntity
  8
10
 62
     1
100
AcDbLine
 10
374.4267872114584
 20
166.8236914487552
 30
0.0
 11
374.4267872114584
 21
120.8236914487555
 31
0.0
  0
LINE
  5
85A9
330
1F
100
AcDbEntity
  8
10
 62
     1
100
AcDbLine
 10
375.4267872114584
 20
119.8236914487555
 30
0.0
 11
397.4267872114581
 21
119.8236914487555
 31
0.0
  0
LINE
  5
85AA
330
1F
100
AcDbEntity
  8
10
 62
     1
100
AcDbLine
 10
398.4267872114581
 20
166.8236914487552
 30
0.0
 11
398.4267872114581
 21
120.8236914487555
 31
0.0
  0
ARC
  5
85AB
330
1F
100
AcDbEntity
  8
10
 62
     1
100
AcDbCircle
 10
397.4267872114581
 20
166.8236914487552
 30
0.0
 40
0.9999999999998236
100
AcDbArc
 50
0.0
 51
90.0
  0
ARC
  5
85AC
330
1F
100
AcDbEntity
  8
10
 62
     1
100
AcDbCircle
 10
375.4267872114584
 20
166.8236914487552
 30
0.0
 40
0.9999999999998236
100
AcDbArc
 50
90.0
 51
180.0
  0
ARC
  5
85AD
330
1F
100
AcDbEntity
  8
10
 62
     1
100
AcDbCircle
 10
375.4267872114584
 20
120.8236914487555
 30
0.0
 40
0.9999999999998236
100
AcDbArc
 50
180.0
 51
270.0
  0
ARC
  5
85AE
330
1F
100
AcDbEntity
  8
10
 62
     1
100
AcDbCircle
 10
397.4267872114581
 20
120.8236914487555
 30
0.0
 40
0.9999999999998236
100
AcDbArc
 50
270.0
 51
0.0
  0
DIMENSION
  5
85AF
330
1F
100
AcDbEntity
  8
30
100
AcDbDimension
280
     0
  2
*D30
 10
397.4267872114584
 20
166.8236914487556
 30
0.0
 11
411.0946907221578
 21
174.4305371203607
 31
0.0
 70
   164
  1
<>
 71
     5
 42
1.000000000108002
 73
     0
 74
     0
 75
     0
  3
STANDARD1
100
AcDbRadialDimension
 15
398.1486609024078
 25
167.5157162853988
 35
0.0
 40
0.0
  0
DIMENSION
  5
85B0
330
1F
100
AcDbEntity
  8
30
100
AcDbDimension
280
     0
  2
*D31
 10
442.1986433432246
 20
119.8236914487555
 30
0.0
 11
442.1986433432246
 21
144.9619478180531
 31
0.0
 70
   160
 71
     2
 42
47.9999999999997
 73
     0
 74
     0
 75
     0
  3
STANDARD
100
AcDbAlignedDimension
 13
397.4267872114582
 23
167.8236914487552
 33
0.0
 14
397.4267872114582
 24
119.8236914487555
 34
0.0
 50
90.0
100
AcDbRotatedDimension
  0
DIMENSION
  5
85B1
330
1F
100
AcDbEntity
  8
30
100
AcDbDimension
280
     0
  2
*D32
 10
299.2271538930308
 20
118.0736910574769
 30
0.0
 11
294.2271538930309
 21
144.0736914485934
 31
0.0
 70
    32
 71
     5
 42
52.000000782233
 73
     0
 74
     0
 75
     0
  3
STANDARD
100
AcDbAlignedDimension
 13
272.3065360412114
 23
170.0736918397099
 33
0.0
 14
272.306536041011
 24
118.0736910574769
 34
0.0
 50
89.99999999977854
100
AcDbRotatedDimension
  0
LWPOLYLINE
  5
85B2
330
1F
100
AcDbEntity
  8
18
 48
5.0
100
AcDbPolyline
 90
        4
 70
     1
 43
0.0
 10
416.4267887478327
 20
79.07369419621385
 10
416.4267887478327
 20
209.0736887010468
 10
356.4267856748332
 20
209.0736887010468
 10
356.4267856748332
 20
79.07369419621385
  0
LINE
  5
8832
330
1F
100
AcDbEntity
  8
16
 48
5.0
100
AcDbLine
 10
202.012786896861
 20
144.1276620469849
 30
0.0
 11
282.2359005249058
 21
144.016503960009
 31
0.0
  0
CIRCLE
  5
8A2D
330
1F
100
AcDbEntity
  8
12
  6
Continuous
 62
     3
100
AcDbCircle
 10
99.50757880855316
 20
199.6326433612327
 30
0.0
 40
2.000000000000023
  0
INSERT
  5
8A2E
330
1F
100
AcDbEntity
  8
12
  6
DASHDOT
 62
     3
100
AcDbBlockReference
  2
SW_CENTERMARKSYMBOL_18
 10
99.45537745138905
 20
199.6326433612327
 30
0.0
 41
2.5
 42
2.5
 43
2.5
  0
LINE
  5
8A2F
330
1F
100
AcDbEntity
  8
0
 62
     0
100
AcDbLine
 10
102.7043049801242
 20
88.6326433612327
 30
0.0
 11
96.31085263698208
 21
88.6326433612327
 31
0.0
  0
CIRCLE
  5
8A30
330
1F
100
AcDbEntity
  8
12
  6
Continuous
 62
     3
100
AcDbCircle
 10
99.50757880855316
 20
88.6326433612327
 30
0.0
 40
2.000000000000023
  0
INSERT
  5
8A31
330
1F
100
AcDbEntity
  8
12
  6
DASHDOT
 62
     3
100
AcDbBlockReference
  2
SW_CENTERMARKSYMBOL_18
 10
99.45537745138905
 20
88.6326433612327
 30
0.0
 41
2.5
 42
2.5
 43
2.5
  0
LINE
  5
8A72
330
1F
100
AcDbEntity
  8
24
  6
Continuous
 62
     7
100
AcDbLine
 10
76.01805945584374
 20
603.8941504901896
 30
0.0
 11
76.01805945584374
 21
602.9429242218859
 31
0.0
  0
LINE
  5
8A73
330
1F
100
AcDbEntity
  8
24
  6
Continuous
 62
     7
100
AcDbLine
 10
93.19439949892398
 20
602.9429242218859
 30
0.0
 11
93.19439949892398
 21
603.8941504901896
 31
0.0
  0
LINE
  5
8A74
330
1F
100
AcDbEntity
  8
24
  6
Continuous
 62
     7
100
AcDbLine
 10
77.52475613131242
 20
644.5727210207699
 30
0.0
 11
91.68770282325452
 21
644.5727210207699
 31
0.0
  0
LINE
  5
8A75
330
1F
100
AcDbEntity
  8
24
  6
Continuous
 62
     7
100
AcDbLine
 10
76.01805945584374
 20
644.5727210207699
 30
0.0
 11
76.01805945584374
 21
603.8941504901896
 31
0.0
  0
LINE
  5
8A76
330
1F
100
AcDbEntity
  8
24
  6
Continuous
 62
     7
100
AcDbLine
 10
77.52475613131242
 20
644.5727210207699
 30
0.0
 11
76.01805945584374
 21
644.5727210207699
 31
0.0
  0
LINE
  5
8A77
330
1F
100
AcDbEntity
  8
24
  6
Continuous
 62
     7
100
AcDbLine
 10
93.19439949892398
 20
644.5727210207699
 30
0.0
 11
91.68770282325452
 21
644.5727210207699
 31
0.0
  0
LINE
  5
8A78
330
1F
100
AcDbEntity
  8
24
  6
Continuous
 62
     7
100
AcDbLine
 10
93.19439949892398
 20
603.8941504901896
 30
0.0
 11
93.19439949892398
 21
644.5727210207699
 31
0.0
  0
LINE
  5
8A79
330
1F
100
AcDbEntity
  8
24
  6
Continuous
 62
     7
100
AcDbLine
 10
91.68770282325452
 20
603.8941504901896
 30
0.0
 11
77.52475613131242
 21
603.8941504901896
 31
0.0
  0
LINE
  5
8A7A
330
1F
100
AcDbEntity
  8
24
  6
Continuous
 62
     7
100
AcDbLine
 10
76.01805945584374
 20
603.8941504901896
 30
0.0
 11
77.52475613131242
 21
603.8941504901896
 31
0.0
  0
LINE
  5
8A7B
330
1F
100
AcDbEntity
  8
24
  6
Continuous
 62
     7
100
AcDbLine
 10
91.68770282325452
 20
603.8941504901896
 30
0.0
 11
93.19439949892398
 21
603.8941504901896
 31
0.0
  0
LINE
  5
8A7C
330
1F
100
AcDbEntity
  8
24
  6
Continuous
 62
     7
100
AcDbLine
 10
91.68770282325452
 20
644.5727210207699
 30
0.0
 11
91.68770282325452
 21
603.8941504901896
 31
0.0
  0
LINE
  5
8A7D
330
1F
100
AcDbEntity
  8
24
  6
Continuous
 62
     7
100
AcDbLine
 10
77.52475613131242
 20
603.8941504901896
 30
0.0
 11
77.52475613131242
 21
644.5727210207699
 31
0.0
  0
ARC
  5
8A7E
330
1F
100
AcDbEntity
  8
24
  6
Continuous
 62
     7
100
AcDbCircle
 10
69.7020697039909
 20
594.8085602065599
 30
0.0
 40
9.968479384627967
100
AcDbArc
 50
5.812510157188596
 51
50.68406185258144
  0
ARC
  5
8A7F
330
1F
100
AcDbEntity
  8
24
  6
Continuous
 62
     7
100
AcDbCircle
 10
99.96970934757008
 20
594.7192124549839
 30
0.0
 40
10.33294762297491
100
AcDbArc
 50
130.9727204924186
 51
173.8951502389756
  0
LINE
  5
8A80
330
1F
100
AcDbEntity
  8
24
  6
Continuous
 62
     7
100
AcDbLine
 10
76.01805945584374
 20
603.8941504901896
 30
0.0
 11
93.19439949892398
 21
603.8941504901896
 31
0.0
  0
LINE
  5
8A81
330
1F
100
AcDbEntity
  8
24
  6
Continuous
 62
     7
100
AcDbLine
 10
77.52475613131242
 20
644.5727210207699
 30
0.0
 11
77.52475613131242
 21
603.8941504901896
 31
0.0
  0
LINE
  5
8A82
330
1F
100
AcDbEntity
  8
24
  6
Continuous
 62
     7
100
AcDbLine
 10
91.68770282325452
 20
644.5727210207699
 30
0.0
 11
91.68770282320258
 21
603.8941504901896
 31
0.0
  0
LINE
  5
8A83
330
1F
100
AcDbEntity
  8
24
  6
Continuous
 62
     7
100
AcDbLine
 10
93.19439949892398
 20
644.5727210207699
 30
0.0
 11
93.19439947211208
 21
602.5208137438645
 31
0.0
  0
LINE
  5
8A84
330
1F
100
AcDbEntity
  8
24
  6
Continuous
 62
     7
100
AcDbLine
 10
76.01805945584374
 20
644.5727210207699
 30
0.0
 11
76.01805946158744
 21
602.5208137438645
 31
0.0
  0
LINE
  5
8A85
330
1F
100
AcDbEntity
  8
24
  6
Continuous
 62
     7
100
AcDbLine
 10
93.19439949892398
 20
644.5727210207699
 30
0.0
 11
76.01805945584374
 21
644.5727210207699
 31
0.0
  0
DIMENSION
  5
8A86
330
1F
100
AcDbEntity
  8
30
  6
Continuous
100
AcDbDimension
280
     0
  2
*D34
 10
57.82579666552511
 20
644.5727210207699
 30
0.0
 11
52.825796665525
 21
656.0614835425996
 31
0.0
 70
    32
 71
     5
 42
22.97752504365963
 73
     0
 74
     0
 75
     0
  3
STANDARD
100
AcDbAlignedDimension
 13
76.77228502419386
 23
667.5502460644296
 33
0.0
 14
74.24170228456524
 24
644.5727210207699
 34
0.0
 50
90.0
100
AcDbRotatedDimension
1001
ACAD
1000
DSTYLE
1002
{
1070
    79
1070
     3
1002
}
  0
LINE
  5
8B03
330
1F
100
AcDbEntity
  8
16
 48
5.0
100
AcDbLine
 10
266.347748521368
 20
353.7638408316517
 30
0.0
 11
365.8690742220997
 21
353.7638408316517
 31
0.0
  0
ENDSEC
  0
SECTION
  2
OBJECTS
  0
DICTIONARY
  5
C
330
0
100
AcDbDictionary
281
     1
  3
ACAD_CIP_PREVIOUS_PRODUCT_INFO
350
8AC5
  3
ACAD_COLOR
350
59A2
  3
ACAD_DETAILVIEWSTYLE
350
599C
  3
ACAD_GROUP
350
D
  3
ACAD_LAYOUT
350
1A
  3
ACAD_MATERIAL
350
43
  3
ACAD_MLEADERSTYLE
350
599B
  3
ACAD_MLINESTYLE
350
17
  3
ACAD_PLOTSETTINGS
350
19
  3
ACAD_PLOTSTYLENAME
350
E
  3
ACAD_SCALELIST
350
47
  3
ACAD_SECTIONVIEWSTYLE
350
599D
  3
ACAD_TABLESTYLE
350
599A
  3
ACAD_VISUALSTYLE
350
2A
  3
ACDB_RECOMPOSE_DATA
350
8B3E
  3
AcDbVariableDictionary
350
5998
  3
AEC_PROPERTY_SET_DEFS
350
65E5
  0
SUN
  5
69
330
29
100
AcDbSun
 90
        1
290
     1
 63
     7
421
 16777215
 40
1.0
291
     1
 91
  2455826
 92
 54000000
292
     0
 70
     0
 71
   256
280
     1
  0
DICTIONARY
  5
5F3B
330
2
100
AcDbDictionary
280
     1
281
     1
  3
ACAD_LAYERSTATES
360
5F3C
  0
DICTIONARY
  5
59A9
330
10
100
AcDbDictionary
280
     1
281
     1
  3
ADSK_XREC_LAYER_RECONCILED
360
59AA
  0
DICTIONARY
  5
59AB
330
71
100
AcDbDictionary
280
     1
281
     1
  3
ADSK_XREC_LAYER_RECONCILED
360
59AC
  0
DICTIONARY
  5
649A
330
6499
100
AcDbDictionary
280
     1
281
     1
  0
DICTIONARY
  5
649C
330
649B
100
AcDbDictionary
280
     1
281
     1
  0
DICTIONARY
  5
649E
330
649D
100
AcDbDictionary
280
     1
281
     1
  0
DICTIONARY
  5
64A0
330
649F
100
AcDbDictionary
280
     1
281
     1
  0
DICTIONARY
  5
64A2
330
64A1
100
AcDbDictionary
280
     1
281
     1
  0
DICTIONARY
  5
7308
330
7307
100
AcDbDictionary
280
     1
281
     1
  0
DICTIONARY
  5
8A22
330
8A21
100
AcDbDictionary
280
     1
281
     1
  0
DICTIONARY
  5
72CC
330
1F
100
AcDbDictionary
280
     1
281
     1
  3
ACAD_SORTENTS
360
72CD
  0
DICTIONARY
  5
80A5
330
80A4
100
AcDbDictionary
280
     1
281
     1
  3
ACAD_DIMASSOC
360
80A6
  0
DICTIONARY
  5
80BF
330
80BE
100
AcDbDictionary
280
     1
281
     1
  3
ACAD_DIMASSOC
360
80C0
  0
XRECORD
  5
8AC5
102
{ACAD_REACTORS
330
C
102
}
330
C
100
AcDbXrecord
280
     1
300
ACDLT
300
2014
300
ACDLT_F_S
  0
DICTIONARY
  5
59A2
102
{ACAD_REACTORS
330
C
102
}
330
C
100
AcDbDictionary
281
     1
  0
DICTIONARY
  5
599C
102
{ACAD_REACTORS
330
C
102
}
330
C
100
AcDbDictionary
281
     1
  3
Metric50
350
8AC0
  0
DICTIONARY
  5
D
102
{ACAD_REACTORS
330
C
102
}
330
C
100
AcDbDictionary
281
     1
  0
DICTIONARY
  5
1A
102
{ACAD_REACTORS
330
C
102
}
330
C
100
AcDbDictionary
281
     1
  3
Layout1
350
1E
  3
Layout2
350
26
  3
Model
350
22
  0
DICTIONARY
  5
43
102
{ACAD_REACTORS
330
C
102
}
330
C
100
AcDbDictionary
281
     1
  3
ByBlock
350
45
  3
ByLayer
350
44
  3
Global
350
46
  0
DICTIONARY
  5
599B
102
{ACAD_REACTORS
330
C
102
}
330
C
100
AcDbDictionary
281
     1
  3
Standard
350
59A4
  0
DICTIONARY
  5
17
102
{ACAD_REACTORS
330
C
102
}
330
C
100
AcDbDictionary
281
     1
  3
Standard
350
18
  0
DICTIONARY
  5
19
102
{ACAD_REACTORS
330
C
102
}
330
C
100
AcDbDictionary
281
     1
  0
ACDBDICTIONARYWDFLT
  5
E
102
{ACAD_REACTORS
330
C
102
}
330
C
100
AcDbDictionary
281
     1
  3
Normal
350
F
100
AcDbDictionaryWithDefault
340
F
  0
DICTIONARY
  5
47
102
{ACAD_REACTORS
330
C
102
}
330
C
100
AcDbDictionary
281
     1
  3
A0
350
48
  3
A1
350
49
  3
A2
350
4A
  3
A3
350
4B
  3
A4
350
4C
  3
A5
350
4D
  3
A6
350
4E
  3
A7
350
4F
  3
A8
350
50
  3
A9
350
51
  3
B0
350
52
  3
B1
350
53
  3
B2
350
54
  3
B3
350
55
  3
B4
350
56
  3
B5
350
57
  3
B6
350
58
  3
B7
350
59
  3
B8
350
5A
  3
B9
350
5B
  3
C0
350
5C
  3
C1
350
5D
  3
C2
350
5E
  3
C3
350
5F
  3
C4
350
60
  3
C5
350
61
  3
C6
350
62
  3
C7
350
63
  3
C8
350
64
  3
C9
350
65
  3
D0
350
66
  3
D1
350
67
  3
D2
350
68
  0
DICTIONARY
  5
599D
102
{ACAD_REACTORS
330
C
102
}
330
C
100
AcDbDictionary
281
     1
  3
Metric50
350
8ABF
  0
DICTIONARY
  5
599A
102
{ACAD_REACTORS
330
C
102
}
330
C
100
AcDbDictionary
281
     1
  3
Standard
350
59A3
  0
DICTIONARY
  5
2A
102
{ACAD_REACTORS
330
C
102
}
330
C
100
AcDbDictionary
281
     1
  3
2dWireframe
350
2F
  3
3D Hidden
350
59A1
  3
3dWireframe
350
59A0
  3
Basic
350
32
  3
Brighten
350
36
  3
ColorChange
350
3A
  3
Conceptual
350
34
  3
Dim
350
35
  3
EdgeColorOff
350
3D
  3
Facepattern
350
39
  3
Flat
350
2B
  3
FlatWithEdges
350
2C
  3
Gouraud
350
2D
  3
GouraudWithEdges
350
2E
  3
Hidden
350
31
  3
JitterOff
350
3B
  3
Linepattern
350
38
  3
OverhangOff
350
3C
  3
Realistic
350
33
  3
Shaded
350
42
  3
Shaded with edges
350
41
  3
Shades of Gray
350
3E
  3
Sketchy
350
3F
  3
Thicken
350
37
  3
Wireframe
350
30
  3
X-Ray
350
40
  0
XRECORD
  5
8B3E
102
{ACAD_REACTORS
330
C
102
}
330
C
100
AcDbXrecord
280
     1
 90
        1
330
59A3
330
8ABF
330
8AC0
  0
DICTIONARY
  5
5998
102
{ACAD_REACTORS
330
C
102
}
330
C
100
AcDbDictionary
281
     1
  3
CANNOSCALE
350
5999
  3
CMLEADERSTYLE
350
59B4
  3
CTABLESTYLE
350
59B3
  3
CVIEWDETAILSTYLE
350
8AD5
  3
CVIEWSECTIONSTYLE
350
8AD6
  3
LAYEREVAL
350
59B5
  3
LAYERNOTIFY
350
59B6
  0
DICTIONARY
  5
65E5
102
{ACAD_REACTORS
330
C
102
}
330
C
100
AcDbDictionary
281
     1
  0
DICTIONARY
  5
5F3C
102
{ACAD_REACTORS
330
5F3B
102
}
330
5F3B
100
AcDbDictionary
281
     1
  0
XRECORD
  5
59AA
102
{ACAD_REACTORS
330
59A9
102
}
330
59A9
100
AcDbXrecord
280
     1
290
     1
  0
XRECORD
  5
59AC
102
{ACAD_REACTORS
330
59AB
102
}
330
59AB
100
AcDbXrecord
280
     1
290
     1
  0
SORTENTSTABLE
  5
72CD
102
{ACAD_REACTORS
330
72CC
102
}
330
72CC
100
AcDbSortentsTable
330
1F
331
790A
  5
7A21
331
6620
  5
6620
  0
DIMASSOC
  5
80A6
102
{ACAD_REACTORS
330
80A5
102
}
330
80A5
100
AcDbDimAssoc
330
80A4
 90
        1
 70
     0
 71
     0
  1
AcDbOsnapPointRef
 72
     1
331
8098
 73
     2
 91
        0
 40
1.0
 10
0.0
 20
0.0
 30
2.000000000000000E+50
 75
     0
  0
DIMASSOC
  5
80C0
102
{ACAD_REACTORS
330
80BF
102
}
330
80BF
100
AcDbDimAssoc
330
80BE
 90
        3
 70
     0
 71
     0
  1
AcDbOsnapPointRef
 72
     1
331
8061
 73
     2
 91
        3
 40
1.0
 10
0.0
 20
0.0
 30
2.000000000000000E+50
 75
     0
  1
AcDbOsnapPointRef
 72
     1
331
8061
 73
     2
 91
        2
 40
1.0
 10
0.0
 20
0.0
 30
2.000000000000000E+50
 75
     0
  0
ACDBDETAILVIEWSTYLE
  5
8AC0
102
{ACAD_XDICTIONARY
360
8ADA
102
}
102
{ACAD_REACTORS
330
599C
102
}
330
599C
100
AcDbModelDocViewStyle
 70
     0
  3
Metric50
290
     0
100
AcDbDetailViewStyle
 70
     0
 71
     0
 90
        3
 71
     1
340
11
 62
   256
 40
5.0
340
0
 62
   256
 40
5.0
300

 40
0.0
280
     1
 71
     2
340
16
 90
       25
 62
   256
 71
     3
340
11
 62
   256
 40
5.0
 90
        0
 40
15.0
 90
        1
300
%<\AcVar ViewDetailId>% (%<\AcVar ViewScale \f "%sn">%)
 71
     4
340
16
 90
       25
 62
   256
340
16
 90
       25
 62
   256
280
     0
  0
LAYOUT
  5
1E
102
{ACAD_REACTORS
330
1A
102
}
330
1A
100
AcDbPlotSettings
  1

  2
none_device
  4

  6

 40
0.0
 41
0.0
 42
0.0
 43
0.0
 44
0.0
 45
0.0
 46
0.0
 47
0.0
 48
0.0
 49
0.0
140
0.0
141
0.0
142
1.0
143
1.0
 70
   688
 72
     1
 73
     0
 74
     5
  7
monochrome.ctb
 75
    16
147
1.0
 76
     0
 77
     2
 78
   300
148
0.0
149
0.0
100
AcDbLayout
  1
Layout1
 70
     1
 71
     1
 10
0.0
 20
0.0
 11
420.0
 21
297.0
 12
0.0
 22
0.0
 32
0.0
 14
1.000000000000000E+20
 24
1.000000000000000E+20
 34
1.000000000000000E+20
 15
-1.000000000000000E+20
 25
-1.000000000000000E+20
 35
-1.000000000000000E+20
146
0.0
 13
0.0
 23
0.0
 33
0.0
 16
1.0
 26
0.0
 36
0.0
 17
0.0
 27
1.0
 37
0.0
 76
     0
330
1B
  0
LAYOUT
  5
26
102
{ACAD_REACTORS
330
1A
102
}
330
1A
100
AcDbPlotSettings
  1

  2
none_device
  4

  6

 40
0.0
 41
0.0
 42
0.0
 43
0.0
 44
0.0
 45
0.0
 46
0.0
 47
0.0
 48
0.0
 49
0.0
140
0.0
141
0.0
142
1.0
143
1.0
 70
   688
 72
     1
 73
     0
 74
     5
  7
monochrome.ctb
 75
    16
147
1.0
 76
     0
 77
     2
 78
   300
148
0.0
149
0.0
100
AcDbLayout
  1
Layout2
 70
     1
 71
     2
 10
0.0
 20
0.0
 11
0.0
 21
0.0
 12
0.0
 22
0.0
 32
0.0
 14
0.0
 24
0.0
 34
0.0
 15
0.0
 25
0.0
 35
0.0
146
0.0
 13
0.0
 23
0.0
 33
0.0
 16
1.0
 26
0.0
 36
0.0
 17
0.0
 27
1.0
 37
0.0
 76
     0
330
23
  0
LAYOUT
  5
22
102
{ACAD_XDICTIONARY
360
5F41
102
}
102
{ACAD_REACTORS
330
1A
102
}
330
1A
100
AcDbPlotSettings
  1

  2
none_device
  4
Letter_(8.50_x_11.00_Inches)
  6

 40
6.349999999999997
 41
6.349999999999997
 42
6.350005079999997
 43
6.350005079999997
 44
215.9
 45
279.4
 46
0.0
 47
0.0
 48
0.0
 49
0.0
140
0.0
141
0.0
142
1.0
143
1.0
 70
  1712
 72
     1
 73
     0
 74
     0
  7
monochrome.ctb
 75
     0
147
1.0
 76
     0
 77
     2
 78
   300
148
0.0
149
0.0
100
AcDbLayout
  1
Model
 70
     1
 71
     0
 10
0.0
 20
0.0
 11
594.0
 21
420.0
 12
0.0
 22
0.0
 32
0.0
 14
0.0
 24
0.0
 34
0.0
 15
594.0
 25
420.0
 35
0.0
146
0.0
 13
0.0
 23
0.0
 33
0.0
 16
1.0
 26
0.0
 36
0.0
 17
0.0
 27
1.0
 37
0.0
 76
     0
330
1F
331
29
  0
MATERIAL
  5
45
102
{ACAD_REACTORS
330
43
102
}
330
43
100
AcDbMaterial
  1
ByBlock
  0
MATERIAL
  5
44
102
{ACAD_REACTORS
330
43
102
}
330
43
100
AcDbMaterial
  1
ByLayer
  0
MATERIAL
  5
46
102
{ACAD_REACTORS
330
43
102
}
330
43
100
AcDbMaterial
  1
Global
  0
MLEADERSTYLE
  5
59A4
102
{ACAD_REACTORS
330
599B
102
}
330
599B
100
AcDbMLeaderStyle
179
     2
170
     2
171
     1
172
     0
 90
        2
 40
0.0
 41
0.0
173
     1
 91
-1056964608
340
14
 92
       -2
290
     1
 42
2.0
291
     1
 43
0.36
  3
Standard
 44
4.0
300

342
11
174
     1
178
     6
175
     1
176
     0
 93
-1056964608
 45
4.0
292
     0
297
     0
 46
4.0
 94
-1056964608
 47
1.0
 49
1.0
140
1.0
293
     1
141
0.0
294
     1
177
     0
142
1.0
295
     0
296
     0
143
0.125
271
     0
272
     9
273
     9
298
     0
  0
MLINESTYLE
  5
18
102
{ACAD_REACTORS
330
17
102
}
330
17
100
AcDbMlineStyle
  2
STANDARD
 70
     0
  3

 62
   256
 51
90.0
 52
90.0
 71
     2
 49
0.5
 62
   256
  6
BYLAYER
 49
-0.5
 62
   256
  6
BYLAYER
  0
ACDBPLACEHOLDER
  5
F
102
{ACAD_REACTORS
330
E
102
}
330
E
  0
SCALE
  5
48
102
{ACAD_REACTORS
330
47
102
}
330
47
100
AcDbScale
 70
     0
300
1:1
140
1.0
141
1.0
290
     1
  0
SCALE
  5
49
102
{ACAD_REACTORS
330
47
102
}
330
47
100
AcDbScale
 70
     0
300
1:2
140
1.0
141
2.0
290
     0
  0
SCALE
  5
4A
102
{ACAD_REACTORS
330
47
102
}
330
47
100
AcDbScale
 70
     0
300
1:4
140
1.0
141
4.0
290
     0
  0
SCALE
  5
4B
102
{ACAD_REACTORS
330
47
102
}
330
47
100
AcDbScale
 70
     0
300
1:5
140
1.0
141
5.0
290
     0
  0
SCALE
  5
4C
102
{ACAD_REACTORS
330
47
102
}
330
47
100
AcDbScale
 70
     0
300
1:8
140
1.0
141
8.0
290
     0
  0
SCALE
  5
4D
102
{ACAD_REACTORS
330
47
102
}
330
47
100
AcDbScale
 70
     0
300
1:10
140
1.0
141
10.0
290
     0
  0
SCALE
  5
4E
102
{ACAD_REACTORS
330
47
102
}
330
47
100
AcDbScale
 70
     0
300
1:16
140
1.0
141
16.0
290
     0
  0
SCALE
  5
4F
102
{ACAD_REACTORS
330
47
102
}
330
47
100
AcDbScale
 70
     0
300
1:20
140
1.0
141
20.0
290
     0
  0
SCALE
  5
50
102
{ACAD_REACTORS
330
47
102
}
330
47
100
AcDbScale
 70
     0
300
1:30
140
1.0
141
30.0
290
     0
  0
SCALE
  5
51
102
{ACAD_REACTORS
330
47
102
}
330
47
100
AcDbScale
 70
     0
300
1:40
140
1.0
141
40.0
290
     0
  0
SCALE
  5
52
102
{ACAD_REACTORS
330
47
102
}
330
47
100
AcDbScale
 70
     0
300
1:50
140
1.0
141
50.0
290
     0
  0
SCALE
  5
53
102
{ACAD_REACTORS
330
47
102
}
330
47
100
AcDbScale
 70
     0
300
1:100
140
1.0
141
100.0
290
     0
  0
SCALE
  5
54
102
{ACAD_REACTORS
330
47
102
}
330
47
100
AcDbScale
 70
     0
300
2:1
140
2.0
141
1.0
290
     0
  0
SCALE
  5
55
102
{ACAD_REACTORS
330
47
102
}
330
47
100
AcDbScale
 70
     0
300
4:1
140
4.0
141
1.0
290
     0
  0
SCALE
  5
56
102
{ACAD_REACTORS
330
47
102
}
330
47
100
AcDbScale
 70
     0
300
8:1
140
8.0
141
1.0
290
     0
  0
SCALE
  5
57
102
{ACAD_REACTORS
330
47
102
}
330
47
100
AcDbScale
 70
     0
300
10:1
140
10.0
141
1.0
290
     0
  0
SCALE
  5
58
102
{ACAD_REACTORS
330
47
102
}
330
47
100
AcDbScale
 70
     0
300
100:1
140
100.0
141
1.0
290
     0
  0
SCALE
  5
59
102
{ACAD_REACTORS
330
47
102
}
330
47
100
AcDbScale
 70
     0
300
1/128" = 1'-0"
140
0.0078125
141
12.0
290
     0
  0
SCALE
  5
5A
102
{ACAD_REACTORS
330
47
102
}
330
47
100
AcDbScale
 70
     0
300
1/64" = 1'-0"
140
0.015625
141
12.0
290
     0
  0
SCALE
  5
5B
102
{ACAD_REACTORS
330
47
102
}
330
47
100
AcDbScale
 70
     0
300
1/32" = 1'-0"
140
0.03125
141
12.0
290
     0
  0
SCALE
  5
5C
102
{ACAD_REACTORS
330
47
102
}
330
47
100
AcDbScale
 70
     0
300
1/16" = 1'-0"
140
0.0625
141
12.0
290
     0
  0
SCALE
  5
5D
102
{ACAD_REACTORS
330
47
102
}
330
47
100
AcDbScale
 70
     0
300
3/32" = 1'-0"
140
0.09375
141
12.0
290
     0
  0
SCALE
  5
5E
102
{ACAD_REACTORS
330
47
102
}
330
47
100
AcDbScale
 70
     0
300
1/8" = 1'-0"
140
0.125
141
12.0
290
     0
  0
SCALE
  5
5F
102
{ACAD_REACTORS
330
47
102
}
330
47
100
AcDbScale
 70
     0
300
3/16" = 1'-0"
140
0.1875
141
12.0
290
     0
  0
SCALE
  5
60
102
{ACAD_REACTORS
330
47
102
}
330
47
100
AcDbScale
 70
     0
300
1/4" = 1'-0"
140
0.25
141
12.0
290
     0
  0
SCALE
  5
61
102
{ACAD_REACTORS
330
47
102
}
330
47
100
AcDbScale
 70
     0
300
3/8" = 1'-0"
140
0.375
141
12.0
290
     0
  0
SCALE
  5
62
102
{ACAD_REACTORS
330
47
102
}
330
47
100
AcDbScale
 70
     0
300
1/2" = 1'-0"
140
0.5
141
12.0
290
     0
  0
SCALE
  5
63
102
{ACAD_REACTORS
330
47
102
}
330
47
100
AcDbScale
 70
     0
300
3/4" = 1'-0"
140
0.75
141
12.0
290
     0
  0
SCALE
  5
64
102
{ACAD_REACTORS
330
47
102
}
330
47
100
AcDbScale
 70
     0
300
1" = 1'-0"
140
1.0
141
12.0
290
     0
  0
SCALE
  5
65
102
{ACAD_REACTORS
330
47
102
}
330
47
100
AcDbScale
 70
     0
300
1-1/2" = 1'-0"
140
1.5
141
12.0
290
     0
  0
SCALE
  5
66
102
{ACAD_REACTORS
330
47
102
}
330
47
100
AcDbScale
 70
     0
300
3" = 1'-0"
140
3.0
141
12.0
290
     0
  0
SCALE
  5
67
102
{ACAD_REACTORS
330
47
102
}
330
47
100
AcDbScale
 70
     0
300
6" = 1'-0"
140
6.0
141
12.0
290
     0
  0
SCALE
  5
68
102
{ACAD_REACTORS
330
47
102
}
330
47
100
AcDbScale
 70
     0
300
1'-0" = 1'-0"
140
12.0
141
12.0
290
     0
  0
ACDBSECTIONVIEWSTYLE
  5
8ABF
102
{ACAD_XDICTIONARY
360
8AD8
102
}
102
{ACAD_REACTORS
330
599D
102
}
330
599D
100
AcDbModelDocViewStyle
 70
     0
  3
Metric50
290
     0
100
AcDbSectionViewStyle
 70
     0
 71
     0
 90
      102
 71
     1
340
11
 62
   256
 40
5.0
340
0
340
0
 62
   256
 40
5.0
300
I, O, Q, S, X, Z
 40
10.0
 90
        0
 40
2.5
 90
        0
 71
     2
340
16
 90
       25
 62
   256
340
16
 90
       50
 62
   256
 40
5.0
 40
2.5
 40
5.0
 71
     3
340
11
 62
   256
 40
5.0
 90
        0
 40
15.0
 90
        1
300
%<\AcVar ViewSectionStartId>%-%<\AcVar ViewSectionEndId>% (%<\AcVar ViewScale \f "%sn">%)
 71
     4
 62
   256
 62
   257
300
ANSI31
 40
1.0
 90
        0
290
     0
290
     0
 90
        6
 40
0.0
 40
1.570796326794896
 40
0.2617993877991494
 40
1.308996938995747
 40
-0.2617993877991494
 40
1.832595714594044
  0
TABLESTYLE
  5
59A3
102
{ACAD_XDICTIONARY
360
8ABA
102
}
102
{ACAD_REACTORS
330
599A
102
}
330
599A
100
AcDbTableStyle
280
     0
  3
Standard
 70
     0
 71
     0
 40
1.5
 41
1.5
280
     0
281
     0
  7
STANDARD
140
4.5
170
     2
 62
     0
 63
     7
283
     0
 90
      512
 91
        0
  1

274
    -2
284
     1
 64
     0
275
    -2
285
     1
 65
     0
276
    -2
286
     1
 66
     0
277
    -2
287
     1
 67
     0
278
    -2
288
     1
 68
     0
279
    -2
289
     1
 69
     0
  7
STANDARD
140
6.0
170
     5
 62
     0
 63
     7
283
     0
 90
      512
 91
        0
  1

274
    -2
284
     1
 64
     0
275
    -2
285
     1
 65
     0
276
    -2
286
     1
 66
     0
277
    -2
287
     1
 67
     0
278
    -2
288
     1
 68
     0
279
    -2
289
     1
 69
     0
  7
STANDARD
140
4.5
170
     5
 62
     0
 63
     7
283
     0
 90
      512
 91
        0
  1

274
    -2
284
     1
 64
     0
275
    -2
285
     1
 65
     0
276
    -2
286
     1
 66
     0
277
    -2
287
     1
 67
     0
278
    -2
288
     1
 68
     0
279
    -2
289
     1
 69
     0
  0
VISUALSTYLE
  5
2F
102
{ACAD_REACTORS
330
2A
102
}
330
2A
100
AcDbVisualStyle
  2

 70
     4
177
     3
291
     0
 70
    58
 90
        0
176
     1
 90
        2
176
     1
 90
        0
176
     1
 90
        0
176
     1
 40
0.6
176
     1
 40
30.0
176
     1
 62
     7
420
 16777215
176
     1
 90
        1
176
     1
 90
        4
176
     1
 62
     7
176
     1
 62
   257
176
     1
 90
        1
176
     1
 90
        1
176
     1
 40
1.0
176
     1
 90
        0
176
     1
 62
   257
176
     1
 40
1.0
176
     1
 90
        1
176
     1
 90
        6
176
     1
 90
        2
176
     1
 62
     7
176
     1
 90
        5
176
     1
 90
        0
176
     1
 90
        0
176
     1
290
     0
176
     1
 90
        1
176
     1
 40
0.0
176
     1
 90
        0
176
     1
290
     1
176
     1
290
     1
176
     1
290
     0
176
     1
290
     0
176
     1
290
     0
176
     1
290
     0
176
     1
290
     0
176
     1
290
     0
176
     1
290
     0
176
     1
 90
       50
176
     1
 40
0.0
176
     1
 40
1.0
176
     1
 90
        0
176
     1
 62
    18
176
     1
 90
       50
176
     1
 90
        3
176
     1
 62
     5
420
      255
176
     1
290
     0
176
     1
 90
       50
176
     1
 90
       50
176
     1
 90
       50
176
     1
290
     0
176
     1
 90
       50
176
     1
 62
   256
176
     0
 40
1.0
176
     0
 90
        2
176
     1
  1
strokes_ogs.tif
176
     1
290
     0
176
     1
 40
1.0
176
     1
 40
1.0
176
     1
  0
VISUALSTYLE
  5
59A1
102
{ACAD_REACTORS
330
2A
102
}
330
2A
100
AcDbVisualStyle
  2
3D Hidden
 70
     6
177
     3
291
     0
 70
    58
 90
        1
176
     1
 90
        2
176
     1
 90
        2
176
     1
 90
        0
176
     1
 40
0.6
176
     1
 40
30.0
176
     1
 62
     7
420
 16777215
176
     1
 90
        2
176
     1
 90
        2
176
     1
 62
     7
176
     1
 62
   257
176
     1
 90
        2
176
     1
 90
        1
176
     1
 40
179.0
176
     1
 90
        0
176
     1
 62
   257
176
     1
 40
1.0
176
     1
 90
        1
176
     1
 90
        6
176
     1
 90
        2
176
     1
 62
     7
176
     1
 90
        3
176
     1
 90
        0
176
     1
 90
        0
176
     1
290
     0
176
     1
 90
        1
176
     1
 40
0.0
176
     1
 90
        0
176
     1
290
     0
176
     1
290
     1
176
     1
290
     1
176
     1
290
     0
176
     1
290
     0
176
     1
290
     0
176
     1
290
     0
176
     1
290
     0
176
     1
290
     0
176
     1
 90
       50
176
     1
 40
0.0
176
     1
 40
1.0
176
     1
 90
        0
176
     1
 62
    18
176
     1
 90
       50
176
     1
 90
        3
176
     1
 62
     5
420
      255
176
     1
290
     0
176
     1
 90
       50
176
     1
 90
       50
176
     1
 90
       50
176
     1
290
     0
176
     1
 90
       50
176
     1
 62
   256
176
     0
 40
1.0
176
     0
 90
        2
176
     1
  1
strokes_ogs.tif
176
     1
290
     0
176
     1
 40
1.0
176
     1
 40
1.0
176
     1
  0
VISUALSTYLE
  5
59A0
102
{ACAD_REACTORS
330
2A
102
}
330
2A
100
AcDbVisualStyle
  2
3dWireframe
 70
     5
177
     3
291
     0
 70
    58
 90
        0
176
     1
 90
        2
176
     1
 90
        0
176
     1
 90
        0
176
     1
 40
0.6
176
     1
 40
30.0
176
     1
 62
     7
420
 16777215
176
     1
 90
        1
176
     1
 90
        4
176
     1
 62
     7
176
     1
 62
   257
176
     1
 90
        1
176
     1
 90
        1
176
     1
 40
1.0
176
     1
 90
        0
176
     1
 62
   257
176
     1
 40
1.0
176
     1
 90
        1
176
     1
 90
        6
176
     1
 90
        2
176
     1
 62
     7
176
     1
 90
        5
176
     1
 90
        0
176
     1
 90
        0
176
     1
290
     0
176
     1
 90
        1
176
     1
 40
0.0
176
     1
 90
        0
176
     1
290
     0
176
     1
290
     1
176
     1
290
     1
176
     1
290
     0
176
     1
290
     0
176
     1
290
     0
176
     1
290
     0
176
     1
290
     0
176
     1
290
     0
176
     1
 90
       50
176
     1
 40
0.0
176
     1
 40
1.0
176
     1
 90
        0
176
     1
 62
    18
176
     1
 90
       50
176
     1
 90
        3
176
     1
 62
     5
420
      255
176
     1
290
     0
176
     1
 90
       50
176
     1
 90
       50
176
     1
 90
       50
176
     1
290
     0
176
     1
 90
       50
176
     1
 62
   256
176
     0
 40
1.0
176
     0
 90
        2
176
     1
  1
strokes_ogs.tif
176
     1
290
     0
176
     1
 40
1.0
176
     1
 40
1.0
176
     1
  0
VISUALSTYLE
  5
32
102
{ACAD_REACTORS
330
2A
102
}
330
2A
100
AcDbVisualStyle
  2

 70
     7
177
     3
291
     1
 70
    58
 90
        1
176
     1
 90
        0
176
     1
 90
        1
176
     1
 90
        0
176
     1
 40
0.6
176
     1
 40
30.0
176
     1
 62
     7
420
 16777215
176
     1
 90
        0
176
     1
 90
        4
176
     1
 62
     7
176
     1
 62
   257
176
     1
 90
        1
176
     1
 90
        1
176
     1
 40
1.0
176
     1
 90
        8
176
     1
 62
     7
176
     1
 40
1.0
176
     1
 90
        1
176
     1
 90
        6
176
     1
 90
        2
176
     1
 62
     7
176
     1
 90
        5
176
     1
 90
        0
176
     1
 90
        0
176
     1
290
     0
176
     1
 90
        1
176
     1
 40
0.0
176
     1
 90
        0
176
     1
290
     0
176
     1
290
     1
176
     1
290
     1
176
     1
290
     0
176
     1
290
     0
176
     1
290
     0
176
     1
290
     0
176
     1
290
     0
176
     1
290
     0
176
     1
 90
       50
176
     1
 40
0.0
176
     1
 40
1.0
176
     1
 90
        0
176
     1
 62
    18
176
     1
 90
       50
176
     1
 90
        3
176
     1
 62
     5
420
      255
176
     1
290
     0
176
     1
 90
       50
176
     1
 90
       50
176
     1
 90
       50
176
     1
290
     0
176
     1
 90
       50
176
     1
 62
   256
176
     0
 40
1.0
176
     0
 90
        2
176
     1
  1
strokes_ogs.tif
176
     1
290
     0
176
     1
 40
1.0
176
     1
 40
1.0
176
     1
  0
VISUALSTYLE
  5
36
102
{ACAD_REACTORS
330
2A
102
}
330
2A
100
AcDbVisualStyle
  2

 70
    12
177
     3
291
     1
 70
    58
 90
        2
176
     1
 90
        2
176
     1
 90
        0
176
     1
 90
        0
176
     1
 40
0.6
176
     1
 40
30.0
176
     1
 62
     7
420
 16777215
176
     1
 90
        1
176
     1
 90
        4
176
     1
 62
     7
176
     1
 62
   257
176
     1
 90
        1
176
     1
 90
        1
176
     1
 40
1.0
176
     1
 90
        8
176
     1
 62
     7
176
     1
 40
1.0
176
     1
 90
        1
176
     1
 90
        6
176
     1
 90
        2
176
     1
 62
     7
176
     1
 90
        5
176
     1
 90
        0
176
     1
 90
        0
176
     1
290
     0
176
     1
 90
        1
176
     1
 40
50.0
176
     1
 90
        0
176
     1
290
     0
176
     1
290
     1
176
     1
290
     1
176
     1
290
     0
176
     1
290
     0
176
     1
290
     0
176
     1
290
     0
176
     1
290
     0
176
     1
290
     0
176
     1
 90
       50
176
     1
 40
0.0
176
     1
 40
1.0
176
     1
 90
        0
176
     1
 62
    18
176
     1
 90
       50
176
     1
 90
        3
176
     1
 62
     5
420
      255
176
     1
290
     0
176
     1
 90
       50
176
     1
 90
       50
176
     1
 90
       50
176
     1
290
     0
176
     1
 90
       50
176
     1
 62
   256
176
     0
 40
1.0
176
     0
 90
        2
176
     1
  1
strokes_ogs.tif
176
     1
290
     0
176
     1
 40
1.0
176
     1
 40
1.0
176
     1
  0
VISUALSTYLE
  5
3A
102
{ACAD_REACTORS
330
2A
102
}
330
2A
100
AcDbVisualStyle
  2

 70
    16
177
     3
291
     1
 70
    58
 90
        2
176
     1
 90
        2
176
     1
 90
        3
176
     1
 90
        0
176
     1
 40
0.6
176
     1
 40
30.0
176
     1
 62
     8
420
  8421504
176
     1
 90
        1
176
     1
 90
        4
176
     1
 62
     7
176
     1
 62
   257
176
     1
 90
        1
176
     1
 90
        1
176
     1
 40
1.0
176
     1
 90
        8
176
     1
 62
     8
420
  8421504
176
     1
 40
1.0
176
     1
 90
        1
176
     1
 90
        6
176
     1
 90
        2
176
     1
 62
     7
176
     1
 90
        5
176
     1
 90
        0
176
     1
 90
        0
176
     1
290
     0
176
     1
 90
        1
176
     1
 40
0.0
176
     1
 90
        0
176
     1
290
     0
176
     1
290
     1
176
     1
290
     1
176
     1
290
     0
176
     1
290
     0
176
     1
290
     0
176
     1
290
     0
176
     1
290
     0
176
     1
290
     0
176
     1
 90
       50
176
     1
 40
0.0
176
     1
 40
1.0
176
     1
 90
        0
176
     1
 62
    18
176
     1
 90
       50
176
     1
 90
        3
176
     1
 62
     5
420
      255
176
     1
290
     0
176
     1
 90
       50
176
     1
 90
       50
176
     1
 90
       50
176
     1
290
     0
176
     1
 90
       50
176
     1
 62
   256
176
     0
 40
1.0
176
     0
 90
        2
176
     1
  1
strokes_ogs.tif
176
     1
290
     0
176
     1
 40
1.0
176
     1
 40
1.0
176
     1
  0
VISUALSTYLE
  5
34
102
{ACAD_REACTORS
330
2A
102
}
330
2A
100
AcDbVisualStyle
  2

 70
     9
177
     3
291
     0
 70
    58
 90
        3
176
     1
 90
        2
176
     1
 90
        0
176
     1
 90
        0
176
     1
 40
0.6
176
     1
 40
30.0
176
     1
 62
     7
420
 16777215
176
     1
 90
        2
176
     1
 90
        2
176
     1
 62
     7
176
     1
 62
   257
176
     1
 90
        1
176
     1
 90
        1
176
     1
 40
179.0
176
     1
 90
        8
176
     1
 62
     7
176
     1
 40
1.0
176
     1
 90
        1
176
     1
 90
        6
176
     1
 90
        2
176
     1
 62
     7
176
     1
 90
        3
176
     1
 90
        0
176
     1
 90
        0
176
     1
290
     0
176
     1
 90
        1
176
     1
 40
0.0
176
     1
 90
        0
176
     1
290
     0
176
     1
290
     1
176
     1
290
     1
176
     1
290
     0
176
     1
290
     0
176
     1
290
     0
176
     1
290
     0
176
     1
290
     0
176
     1
290
     0
176
     1
 90
       50
176
     1
 40
0.0
176
     1
 40
1.0
176
     1
 90
        0
176
     1
 62
    18
176
     1
 90
       50
176
     1
 90
        3
176
     1
 62
     5
420
      255
176
     1
290
     0
176
     1
 90
       50
176
     1
 90
       50
176
     1
 90
       50
176
     1
290
     0
176
     1
 90
       50
176
     1
 62
   256
176
     0
 40
1.0
176
     0
 90
        2
176
     1
  1
strokes_ogs.tif
176
     1
290
     0
176
     1
 40
1.0
176
     1
 40
1.0
176
     1
  0
VISUALSTYLE
  5
35
102
{ACAD_REACTORS
330
2A
102
}
330
2A
100
AcDbVisualStyle
  2

 70
    11
177
     3
291
     1
 70
    58
 90
        2
176
     1
 90
        2
176
     1
 90
        0
176
     1
 90
        0
176
     1
 40
0.6
176
     1
 40
30.0
176
     1
 62
     7
420
 16777215
176
     1
 90
        1
176
     1
 90
        4
176
     1
 62
     7
176
     1
 62
   257
176
     1
 90
        1
176
     1
 90
        1
176
     1
 40
1.0
176
     1
 90
        8
176
     1
 62
     7
176
     1
 40
1.0
176
     1
 90
        1
176
     1
 90
        6
176
     1
 90
        2
176
     1
 62
     7
176
     1
 90
        5
176
     1
 90
        0
176
     1
 90
        0
176
     1
290
     0
176
     1
 90
        1
176
     1
 40
-50.0
176
     1
 90
        0
176
     1
290
     0
176
     1
290
     1
176
     1
290
     1
176
     1
290
     0
176
     1
290
     0
176
     1
290
     0
176
     1
290
     0
176
     1
290
     0
176
     1
290
     0
176
     1
 90
       50
176
     1
 40
0.0
176
     1
 40
1.0
176
     1
 90
        0
176
     1
 62
    18
176
     1
 90
       50
176
     1
 90
        3
176
     1
 62
     5
420
      255
176
     1
290
     0
176
     1
 90
       50
176
     1
 90
       50
176
     1
 90
       50
176
     1
290
     0
176
     1
 90
       50
176
     1
 62
   256
176
     0
 40
1.0
176
     0
 90
        2
176
     1
  1
strokes_ogs.tif
176
     1
290
     0
176
     1
 40
1.0
176
     1
 40
1.0
176
     1
  0
VISUALSTYLE
  5
3D
102
{ACAD_REACTORS
330
2A
102
}
330
2A
100
AcDbVisualStyle
  2

 70
    22
177
     3
291
     1
 70
    58
 90
        2
176
     1
 90
        2
176
     1
 90
        0
176
     1
 90
        0
176
     1
 40
0.6
176
     1
 40
30.0
176
     1
 62
     7
420
 16777215
176
     1
 90
        1
176
     1
 90
        4
176
     1
 62
     7
176
     1
 62
   257
176
     1
 90
        1
176
     1
 90
        1
176
     1
 40
1.0
176
     1
 90
        8
176
     1
 62
     7
176
     1
 40
1.0
176
     1
 90
        1
176
     1
 90
        6
176
     1
 90
        2
176
     1
 62
     7
176
     1
 90
        5
176
     1
 90
        0
176
     1
 90
        0
176
     1
290
     0
176
     1
 90
        1
176
     1
 40
0.0
176
     1
 90
        0
176
     1
290
     0
176
     1
290
     1
176
     1
290
     1
176
     1
290
     0
176
     1
290
     0
176
     1
290
     0
176
     1
290
     0
176
     1
290
     0
176
     1
290
     0
176
     1
 90
       50
176
     1
 40
0.0
176
     1
 40
1.0
176
     1
 90
        0
176
     1
 62
    18
176
     1
 90
       50
176
     1
 90
        3
176
     1
 62
     5
420
      255
176
     1
290
     0
176
     1
 90
       50
176
     1
 90
       50
176
     1
 90
       50
176
     1
290
     0
176
     1
 90
       50
176
     1
 62
   256
176
     0
 40
1.0
176
     0
 90
        2
176
     1
  1
strokes_ogs.tif
176
     1
290
     0
176
     1
 40
1.0
176
     1
 40
1.0
176
     1
  0
VISUALSTYLE
  5
39
102
{ACAD_REACTORS
330
2A
102
}
330
2A
100
AcDbVisualStyle
  2

 70
    15
177
     3
291
     1
 70
    58
 90
        2
176
     1
 90
        2
176
     1
 90
        0
176
     1
 90
        0
176
     1
 40
0.6
176
     1
 40
30.0
176
     1
 62
     7
420
 16777215
176
     1
 90
        1
176
     1
 90
        4
176
     1
 62
     7
176
     1
 62
   257
176
     1
 90
        1
176
     1
 90
        1
176
     1
 40
1.0
176
     1
 90
        8
176
     1
 62
     7
176
     1
 40
1.0
176
     1
 90
        1
176
     1
 90
        6
176
     1
 90
        2
176
     1
 62
     7
176
     1
 90
        5
176
     1
 90
        0
176
     1
 90
        0
176
     1
290
     0
176
     1
 90
        1
176
     1
 40
0.0
176
     1
 90
        0
176
     1
290
     0
176
     1
290
     1
176
     1
290
     1
176
     1
290
     0
176
     1
290
     0
176
     1
290
     0
176
     1
290
     0
176
     1
290
     0
176
     1
290
     0
176
     1
 90
       50
176
     1
 40
0.0
176
     1
 40
1.0
176
     1
 90
        0
176
     1
 62
    18
176
     1
 90
       50
176
     1
 90
        3
176
     1
 62
     5
420
      255
176
     1
290
     0
176
     1
 90
       50
176
     1
 90
       50
176
     1
 90
       50
176
     1
290
     0
176
     1
 90
       50
176
     1
 62
   256
176
     0
 40
1.0
176
     0
 90
        2
176
     1
  1
strokes_ogs.tif
176
     1
290
     0
176
     1
 40
1.0
176
     1
 40
1.0
176
     1
  0
VISUALSTYLE
  5
2B
102
{ACAD_REACTORS
330
2A
102
}
330
2A
100
AcDbVisualStyle
  2

 70
     0
177
     3
291
     1
 70
    58
 90
        2
176
     1
 90
        1
176
     1
 90
        1
176
     1
 90
        2
176
     1
 40
0.6
176
     1
 40
30.0
176
     1
 62
     7
420
 16777215
176
     1
 90
        0
176
     1
 90
        0
176
     1
 62
     7
176
     1
 62
   257
176
     1
 90
        1
176
     1
 90
        1
176
     1
 40
1.0
176
     1
 90
        8
176
     1
 62
     7
176
     1
 40
1.0
176
     1
 90
        1
176
     1
 90
        6
176
     1
 90
        2
176
     1
 62
     7
176
     1
 90
        5
176
     1
 90
        0
176
     1
 90
        0
176
     1
290
     0
176
     1
 90
       13
176
     1
 40
0.0
176
     1
 90
        0
176
     1
290
     0
176
     1
290
     1
176
     1
290
     1
176
     1
290
     0
176
     1
290
     0
176
     1
290
     0
176
     1
290
     0
176
     1
290
     0
176
     1
290
     0
176
     1
 90
       50
176
     1
 40
0.0
176
     1
 40
1.0
176
     1
 90
        0
176
     1
 62
    18
176
     1
 90
       50
176
     1
 90
        3
176
     1
 62
     5
420
      255
176
     1
290
     0
176
     1
 90
       50
176
     1
 90
       50
176
     1
 90
       50
176
     1
290
     0
176
     1
 90
       50
176
     1
 62
   256
176
     0
 40
1.0
176
     0
 90
        2
176
     1
  1
strokes_ogs.tif
176
     1
290
     0
176
     1
 40
1.0
176
     1
 40
1.0
176
     1
  0
VISUALSTYLE
  5
2C
102
{ACAD_REACTORS
330
2A
102
}
330
2A
100
AcDbVisualStyle
  2

 70
     1
177
     3
291
     1
 70
    58
 90
        2
176
     1
 90
        1
176
     1
 90
        1
176
     1
 90
        2
176
     1
 40
0.6
176
     1
 40
30.0
176
     1
 62
     7
420
 16777215
176
     1
 90
        1
176
     1
 90
        0
176
     1
 62
     7
176
     1
 62
   257
176
     1
 90
        1
176
     1
 90
        1
176
     1
 40
1.0
176
     1
 90
        0
176
     1
 62
   257
176
     1
 40
1.0
176
     1
 90
        1
176
     1
 90
        6
176
     1
 90
        2
176
     1
 62
     7
176
     1
 90
        5
176
     1
 90
        0
176
     1
 90
        0
176
     1
290
     0
176
     1
 90
       13
176
     1
 40
0.0
176
     1
 90
        0
176
     1
290
     0
176
     1
290
     1
176
     1
290
     1
176
     1
290
     0
176
     1
290
     0
176
     1
290
     0
176
     1
290
     0
176
     1
290
     0
176
     1
290
     0
176
     1
 90
       50
176
     1
 40
0.0
176
     1
 40
1.0
176
     1
 90
        0
176
     1
 62
    18
176
     1
 90
       50
176
     1
 90
        3
176
     1
 62
     5
420
      255
176
     1
290
     0
176
     1
 90
       50
176
     1
 90
       50
176
     1
 90
       50
176
     1
290
     0
176
     1
 90
       50
176
     1
 62
   256
176
     0
 40
1.0
176
     0
 90
        2
176
     1
  1
strokes_ogs.tif
176
     1
290
     0
176
     1
 40
1.0
176
     1
 40
1.0
176
     1
  0
VISUALSTYLE
  5
2D
102
{ACAD_REACTORS
330
2A
102
}
330
2A
100
AcDbVisualStyle
  2

 70
     2
177
     3
291
     1
 70
    58
 90
        2
176
     1
 90
        2
176
     1
 90
        1
176
     1
 90
        2
176
     1
 40
0.6
176
     1
 40
30.0
176
     1
 62
     7
420
 16777215
176
     1
 90
        0
176
     1
 90
        0
176
     1
 62
     7
176
     1
 62
   257
176
     1
 90
        1
176
     1
 90
        1
176
     1
 40
1.0
176
     1
 90
        0
176
     1
 62
     7
176
     1
 40
1.0
176
     1
 90
        1
176
     1
 90
        6
176
     1
 90
        2
176
     1
 62
     7
176
     1
 90
        5
176
     1
 90
        0
176
     1
 90
        0
176
     1
290
     0
176
     1
 90
       13
176
     1
 40
0.0
176
     1
 90
        0
176
     1
290
     0
176
     1
290
     1
176
     1
290
     1
176
     1
290
     0
176
     1
290
     0
176
     1
290
     0
176
     1
290
     0
176
     1
290
     0
176
     1
290
     0
176
     1
 90
       50
176
     1
 40
0.0
176
     1
 40
1.0
176
     1
 90
        0
176
     1
 62
    18
176
     1
 90
       50
176
     1
 90
        3
176
     1
 62
     5
420
      255
176
     1
290
     0
176
     1
 90
       50
176
     1
 90
       50
176
     1
 90
       50
176
     1
290
     0
176
     1
 90
       50
176
     1
 62
   256
176
     0
 40
1.0
176
     0
 90
        2
176
     1
  1
strokes_ogs.tif
176
     1
290
     0
176
     1
 40
1.0
176
     1
 40
1.0
176
     1
  0
VISUALSTYLE
  5
2E
102
{ACAD_REACTORS
330
2A
102
}
330
2A
100
AcDbVisualStyle
  2

 70
     3
177
     3
291
     1
 70
    58
 90
        2
176
     1
 90
        2
176
     1
 90
        1
176
     1
 90
        2
176
     1
 40
0.6
176
     1
 40
30.0
176
     1
 62
     7
420
 16777215
176
     1
 90
        1
176
     1
 90
        0
176
     1
 62
     7
176
     1
 62
   257
176
     1
 90
        1
176
     1
 90
        1
176
     1
 40
1.0
176
     1
 90
        0
176
     1
 62
   257
176
     1
 40
1.0
176
     1
 90
        1
176
     1
 90
        6
176
     1
 90
        2
176
     1
 62
     7
176
     1
 90
        5
176
     1
 90
        0
176
     1
 90
        0
176
     1
290
     0
176
     1
 90
       13
176
     1
 40
0.0
176
     1
 90
        0
176
     1
290
     0
176
     1
290
     1
176
     1
290
     1
176
     1
290
     0
176
     1
290
     0
176
     1
290
     0
176
     1
290
     0
176
     1
290
     0
176
     1
290
     0
176
     1
 90
       50
176
     1
 40
0.0
176
     1
 40
1.0
176
     1
 90
        0
176
     1
 62
    18
176
     1
 90
       50
176
     1
 90
        3
176
     1
 62
     5
420
      255
176
     1
290
     0
176
     1
 90
       50
176
     1
 90
       50
176
     1
 90
       50
176
     1
290
     0
176
     1
 90
       50
176
     1
 62
   256
176
     0
 40
1.0
176
     0
 90
        2
176
     1
  1
strokes_ogs.tif
176
     1
290
     0
176
     1
 40
1.0
176
     1
 40
1.0
176
     1
  0
VISUALSTYLE
  5
31
102
{ACAD_REACTORS
330
2A
102
}
330
2A
100
AcDbVisualStyle
  2

 70
     6
177
     3
291
     0
 70
    58
 90
        1
176
     1
 90
        2
176
     1
 90
        2
176
     1
 90
        0
176
     1
 40
0.6
176
     1
 40
30.0
176
     1
 62
     7
420
 16777215
176
     1
 90
        2
176
     1
 90
        2
176
     1
 62
     7
176
     1
 62
   257
176
     1
 90
        2
176
     1
 90
        1
176
     1
 40
40.0
176
     1
 90
        0
176
     1
 62
   257
176
     1
 40
1.0
176
     1
 90
        1
176
     1
 90
        6
176
     1
 90
        2
176
     1
 62
     7
176
     1
 90
        3
176
     1
 90
        0
176
     1
 90
        0
176
     1
290
     0
176
     1
 90
        1
176
     1
 40
0.0
176
     1
 90
        0
176
     1
290
     0
176
     1
290
     1
176
     1
290
     1
176
     1
290
     0
176
     1
290
     0
176
     1
290
     0
176
     1
290
     0
176
     1
290
     0
176
     1
290
     0
176
     1
 90
       50
176
     1
 40
0.0
176
     1
 40
1.0
176
     1
 90
        0
176
     1
 62
    18
176
     1
 90
       50
176
     1
 90
        3
176
     1
 62
     5
420
      255
176
     1
290
     0
176
     1
 90
       50
176
     1
 90
       50
176
     1
 90
       50
176
     1
290
     0
176
     1
 90
       50
176
     1
 62
   256
176
     0
 40
1.0
176
     0
 90
        2
176
     1
  1
strokes_ogs.tif
176
     1
290
     0
176
     1
 40
1.0
176
     1
 40
1.0
176
     1
  0
VISUALSTYLE
  5
3B
102
{ACAD_REACTORS
330
2A
102
}
330
2A
100
AcDbVisualStyle
  2

 70
    20
177
     3
291
     1
 70
    58
 90
        2
176
     1
 90
        2
176
     1
 90
        0
176
     1
 90
        0
176
     1
 40
0.6
176
     1
 40
30.0
176
     1
 62
     7
420
 16777215
176
     1
 90
        1
176
     1
 90
        4
176
     1
 62
     7
176
     1
 62
   257
176
     1
 90
        1
176
     1
 90
        1
176
     1
 40
1.0
176
     1
 90
       10
176
     1
 62
     7
176
     1
 40
1.0
176
     1
 90
        1
176
     1
 90
        6
176
     1
 90
        2
176
     1
 62
     7
176
     1
 90
        5
176
     1
 90
        0
176
     1
 90
        0
176
     1
290
     0
176
     1
 90
        1
176
     1
 40
0.0
176
     1
 90
        0
176
     1
290
     0
176
     1
290
     1
176
     1
290
     1
176
     1
290
     0
176
     1
290
     0
176
     1
290
     0
176
     1
290
     0
176
     1
290
     0
176
     1
290
     0
176
     1
 90
       50
176
     1
 40
0.0
176
     1
 40
1.0
176
     1
 90
        0
176
     1
 62
    18
176
     1
 90
       50
176
     1
 90
        3
176
     1
 62
     5
420
      255
176
     1
290
     0
176
     1
 90
       50
176
     1
 90
       50
176
     1
 90
       50
176
     1
290
     0
176
     1
 90
       50
176
     1
 62
   256
176
     0
 40
1.0
176
     0
 90
        2
176
     1
  1
strokes_ogs.tif
176
     1
290
     0
176
     1
 40
1.0
176
     1
 40
1.0
176
     1
  0
VISUALSTYLE
  5
38
102
{ACAD_REACTORS
330
2A
102
}
330
2A
100
AcDbVisualStyle
  2

 70
    14
177
     3
291
     1
 70
    58
 90
        2
176
     1
 90
        2
176
     1
 90
        0
176
     1
 90
        0
176
     1
 40
0.6
176
     1
 40
30.0
176
     1
 62
     7
420
 16777215
176
     1
 90
        1
176
     1
 90
        4
176
     1
 62
     7
176
     1
 62
   257
176
     1
 90
        7
176
     1
 90
        7
176
     1
 40
1.0
176
     1
 90
        8
176
     1
 62
     7
176
     1
 40
1.0
176
     1
 90
        1
176
     1
 90
        6
176
     1
 90
        2
176
     1
 62
     7
176
     1
 90
        5
176
     1
 90
        0
176
     1
 90
        0
176
     1
290
     0
176
     1
 90
        1
176
     1
 40
0.0
176
     1
 90
        0
176
     1
290
     0
176
     1
290
     1
176
     1
290
     1
176
     1
290
     0
176
     1
290
     0
176
     1
290
     0
176
     1
290
     0
176
     1
290
     0
176
     1
290
     0
176
     1
 90
       50
176
     1
 40
0.0
176
     1
 40
1.0
176
     1
 90
        0
176
     1
 62
    18
176
     1
 90
       50
176
     1
 90
        3
176
     1
 62
     5
420
      255
176
     1
290
     0
176
     1
 90
       50
176
     1
 90
       50
176
     1
 90
       50
176
     1
290
     0
176
     1
 90
       50
176
     1
 62
   256
176
     0
 40
1.0
176
     0
 90
        2
176
     1
  1
strokes_ogs.tif
176
     1
290
     0
176
     1
 40
1.0
176
     1
 40
1.0
176
     1
  0
VISUALSTYLE
  5
3C
102
{ACAD_REACTORS
330
2A
102
}
330
2A
100
AcDbVisualStyle
  2

 70
    21
177
     3
291
     1
 70
    58
 90
        2
176
     1
 90
        2
176
     1
 90
        0
176
     1
 90
        0
176
     1
 40
0.6
176
     1
 40
30.0
176
     1
 62
     7
420
 16777215
176
     1
 90
        1
176
     1
 90
        4
176
     1
 62
     7
176
     1
 62
   257
176
     1
 90
        1
176
     1
 90
        1
176
     1
 40
1.0
176
     1
 90
        9
176
     1
 62
     7
176
     1
 40
1.0
176
     1
 90
        1
176
     1
 90
        6
176
     1
 90
        2
176
     1
 62
     7
176
     1
 90
        5
176
     1
 90
        0
176
     1
 90
        0
176
     1
290
     0
176
     1
 90
        1
176
     1
 40
0.0
176
     1
 90
        0
176
     1
290
     0
176
     1
290
     1
176
     1
290
     1
176
     1
290
     0
176
     1
290
     0
176
     1
290
     0
176
     1
290
     0
176
     1
290
     0
176
     1
290
     0
176
     1
 90
       50
176
     1
 40
0.0
176
     1
 40
1.0
176
     1
 90
        0
176
     1
 62
    18
176
     1
 90
       50
176
     1
 90
        3
176
     1
 62
     5
420
      255
176
     1
290
     0
176
     1
 90
       50
176
     1
 90
       50
176
     1
 90
       50
176
     1
290
     0
176
     1
 90
       50
176
     1
 62
   256
176
     0
 40
1.0
176
     0
 90
        2
176
     1
  1
strokes_ogs.tif
176
     1
290
     0
176
     1
 40
1.0
176
     1
 40
1.0
176
     1
  0
VISUALSTYLE
  5
33
102
{ACAD_REACTORS
330
2A
102
}
330
2A
100
AcDbVisualStyle
  2

 70
     8
177
     3
291
     0
 70
    58
 90
        2
176
     1
 90
        3
176
     1
 90
        0
176
     1
 90
        2
176
     1
 40
0.6
176
     1
 40
30.0
176
     1
 62
     7
420
 16777215
176
     1
 90
        0
176
     1
 90
        0
176
     1
 62
     7
176
     1
 62
   257
176
     1
 90
        1
176
     1
 90
        1
176
     1
 40
1.0
176
     1
 90
        8
176
     1
 62
   257
176
     1
 40
1.0
176
     1
 90
        1
176
     1
 90
        6
176
     1
 90
        2
176
     1
 62
     7
176
     1
 90
        3
176
     1
 90
        0
176
     1
 90
        0
176
     1
290
     0
176
     1
 90
       13
176
     1
 40
0.0
176
     1
 90
        0
176
     1
290
     0
176
     1
290
     1
176
     1
290
     1
176
     1
290
     0
176
     1
290
     0
176
     1
290
     0
176
     1
290
     0
176
     1
290
     0
176
     1
290
     0
176
     1
 90
       50
176
     1
 40
0.0
176
     1
 40
1.0
176
     1
 90
        0
176
     1
 62
    18
176
     1
 90
       50
176
     1
 90
        3
176
     1
 62
     5
420
      255
176
     1
290
     0
176
     1
 90
       50
176
     1
 90
       50
176
     1
 90
       50
176
     1
290
     0
176
     1
 90
       50
176
     1
 62
   256
176
     0
 40
1.0
176
     0
 90
        2
176
     1
  1
strokes_ogs.tif
176
     1
290
     0
176
     1
 40
1.0
176
     1
 40
1.0
176
     1
  0
VISUALSTYLE
  5
42
102
{ACAD_REACTORS
330
2A
102
}
330
2A
100
AcDbVisualStyle
  2

 70
    27
177
     3
291
     0
 70
    58
 90
        2
176
     1
 90
        2
176
     1
 90
        1
176
     1
 90
        2
176
     1
 40
0.6
176
     1
 40
30.0
176
     1
 62
     7
420
 16777215
176
     1
 90
        0
176
     1
 90
        4
176
     1
 62
     7
176
     1
 62
   257
176
     1
 90
        1
176
     1
 90
        1
176
     1
 40
1.0
176
     1
 90
        8
176
     1
 62
   257
176
     1
 40
1.0
176
     1
 90
        1
176
     1
 90
        6
176
     1
 90
        2
176
     1
 62
     8
420
  7895160
176
     1
 90
        3
176
     1
 90
        0
176
     1
 90
        0
176
     1
290
     0
176
     1
 90
        5
176
     1
 40
0.0
176
     1
 90
        0
176
     1
290
     0
176
     1
290
     1
176
     1
290
     1
176
     1
290
     0
176
     1
290
     0
176
     1
290
     0
176
     1
290
     0
176
     1
290
     0
176
     1
290
     0
176
     1
 90
       50
176
     1
 40
0.0
176
     1
 40
1.0
176
     1
 90
        0
176
     1
 62
    18
176
     1
 90
       50
176
     1
 90
        3
176
     1
 62
     5
420
      255
176
     1
290
     0
176
     1
 90
       50
176
     1
 90
       50
176
     1
 90
       50
176
     1
290
     0
176
     1
 90
       50
176
     1
 62
   256
176
     0
 40
1.0
176
     0
 90
        2
176
     1
  1
strokes_ogs.tif
176
     1
290
     0
176
     1
 40
1.0
176
     1
 40
1.0
176
     1
  0
VISUALSTYLE
  5
41
102
{ACAD_REACTORS
330
2A
102
}
330
2A
100
AcDbVisualStyle
  2

 70
    26
177
     3
291
     0
 70
    58
 90
        2
176
     1
 90
        2
176
     1
 90
        1
176
     1
 90
        2
176
     1
 40
0.6
176
     1
 40
30.0
176
     1
 62
     7
420
 16777215
176
     1
 90
        1
176
     1
 90
       10
176
     1
 62
     7
176
     1
 62
   257
176
     1
 90
        2
176
     1
 90
        1
176
     1
 40
1.0
176
     1
 90
        8
176
     1
 62
   257
176
     1
 40
1.0
176
     1
 90
        1
176
     1
 90
        6
176
     1
 90
        2
176
     1
 62
     7
176
     1
 90
        3
176
     1
 90
        0
176
     1
 90
        0
176
     1
290
     0
176
     1
 90
        5
176
     1
 40
0.0
176
     1
 90
        0
176
     1
290
     0
176
     1
290
     1
176
     1
290
     1
176
     1
290
     0
176
     1
290
     0
176
     1
290
     0
176
     1
290
     0
176
     1
290
     0
176
     1
290
     0
176
     1
 90
       50
176
     1
 40
0.0
176
     1
 40
1.0
176
     1
 90
        0
176
     1
 62
    18
176
     1
 90
       50
176
     1
 90
        3
176
     1
 62
     5
420
      255
176
     1
290
     0
176
     1
 90
       50
176
     1
 90
       50
176
     1
 90
       50
176
     1
290
     0
176
     1
 90
       50
176
     1
 62
   256
176
     0
 40
1.0
176
     0
 90
        2
176
     1
  1
strokes_ogs.tif
176
     1
290
     0
176
     1
 40
1.0
176
     1
 40
1.0
176
     1
  0
VISUALSTYLE
  5
3E
102
{ACAD_REACTORS
330
2A
102
}
330
2A
100
AcDbVisualStyle
  2

 70
    23
177
     3
291
     0
 70
    58
 90
        2
176
     1
 90
        2
176
     1
 90
        3
176
     1
 90
        0
176
     1
 40
0.6
176
     1
 40
30.0
176
     1
 62
     7
420
 16777215
176
     1
 90
        2
176
     1
 90
        2
176
     1
 62
     7
176
     1
 62
     7
176
     1
 90
        1
176
     1
 90
        1
176
     1
 40
40.0
176
     1
 90
        8
176
     1
 62
     7
176
     1
 40
1.0
176
     1
 90
        1
176
     1
 90
        6
176
     1
 90
        2
176
     1
 62
     7
176
     1
 90
        3
176
     1
 90
        0
176
     1
 90
        0
176
     1
290
     0
176
     1
 90
        1
176
     1
 40
0.0
176
     1
 90
        0
176
     1
290
     0
176
     1
290
     1
176
     1
290
     1
176
     1
290
     0
176
     1
290
     0
176
     1
290
     0
176
     1
290
     0
176
     1
290
     0
176
     1
290
     0
176
     1
 90
       50
176
     1
 40
0.0
176
     1
 40
1.0
176
     1
 90
        0
176
     1
 62
    18
176
     1
 90
       50
176
     1
 90
        3
176
     1
 62
     5
420
      255
176
     1
290
     0
176
     1
 90
       50
176
     1
 90
       50
176
     1
 90
       50
176
     1
290
     0
176
     1
 90
       50
176
     1
 62
   256
176
     0
 40
1.0
176
     0
 90
        2
176
     1
  1
strokes_ogs.tif
176
     1
290
     0
176
     1
 40
1.0
176
     1
 40
1.0
176
     1
  0
VISUALSTYLE
  5
3F
102
{ACAD_REACTORS
330
2A
102
}
330
2A
100
AcDbVisualStyle
  2

 70
    24
177
     3
291
     0
 70
    58
 90
        1
176
     1
 90
        2
176
     1
 90
        2
176
     1
 90
        0
176
     1
 40
0.6
176
     1
 40
30.0
176
     1
 62
     7
420
 16777215
176
     1
 90
        2
176
     1
 90
        2
176
     1
 62
     7
176
     1
 62
     7
176
     1
 90
        1
176
     1
 90
        1
176
     1
 40
40.0
176
     1
 90
       11
176
     1
 62
     7
176
     1
 40
1.0
176
     1
 90
        1
176
     1
 90
        6
176
     1
 90
        2
176
     1
 62
     7
176
     1
 90
        6
176
     1
 90
        0
176
     1
 90
        0
176
     1
290
     0
176
     1
 90
        1
176
     1
 40
0.0
176
     1
 90
        0
176
     1
290
     0
176
     1
290
     1
176
     1
290
     1
176
     1
290
     0
176
     1
290
     0
176
     1
290
     0
176
     1
290
     0
176
     1
290
     0
176
     1
290
     0
176
     1
 90
       50
176
     1
 40
0.0
176
     1
 40
1.0
176
     1
 90
        0
176
     1
 62
    18
176
     1
 90
       50
176
     1
 90
        3
176
     1
 62
     5
420
      255
176
     1
290
     0
176
     1
 90
       50
176
     1
 90
       50
176
     1
 90
       50
176
     1
290
     0
176
     1
 90
       50
176
     1
 62
   256
176
     0
 40
1.0
176
     0
 90
        2
176
     1
  1
strokes_ogs.tif
176
     1
290
     0
176
     1
 40
1.0
176
     1
 40
1.0
176
     1
  0
VISUALSTYLE
  5
37
102
{ACAD_REACTORS
330
2A
102
}
330
2A
100
AcDbVisualStyle
  2

 70
    13
177
     3
291
     1
 70
    58
 90
        2
176
     1
 90
        2
176
     1
 90
        0
176
     1
 90
        0
176
     1
 40
0.6
176
     1
 40
30.0
176
     1
 62
     7
420
 16777215
176
     1
 90
        1
176
     1
 90
        4
176
     1
 62
     7
176
     1
 62
   257
176
     1
 90
        1
176
     1
 90
        1
176
     1
 40
1.0
176
     1
 90
       12
176
     1
 62
     7
176
     1
 40
1.0
176
     1
 90
        1
176
     1
 90
        6
176
     1
 90
        2
176
     1
 62
     7
176
     1
 90
        5
176
     1
 90
        0
176
     1
 90
        0
176
     1
290
     0
176
     1
 90
        1
176
     1
 40
0.0
176
     1
 90
        0
176
     1
290
     0
176
     1
290
     1
176
     1
290
     1
176
     1
290
     0
176
     1
290
     0
176
     1
290
     0
176
     1
290
     0
176
     1
290
     0
176
     1
290
     0
176
     1
 90
       50
176
     1
 40
0.0
176
     1
 40
1.0
176
     1
 90
        0
176
     1
 62
    18
176
     1
 90
       50
176
     1
 90
        3
176
     1
 62
     5
420
      255
176
     1
290
     0
176
     1
 90
       50
176
     1
 90
       50
176
     1
 90
       50
176
     1
290
     0
176
     1
 90
       50
176
     1
 62
   256
176
     0
 40
1.0
176
     0
 90
        2
176
     1
  1
strokes_ogs.tif
176
     1
290
     0
176
     1
 40
1.0
176
     1
 40
1.0
176
     1
  0
VISUALSTYLE
  5
30
102
{ACAD_REACTORS
330
2A
102
}
330
2A
100
AcDbVisualStyle
  2

 70
     5
177
     3
291
     0
 70
    58
 90
        0
176
     1
 90
        2
176
     1
 90
        0
176
     1
 90
        0
176
     1
 40
0.6
176
     1
 40
30.0
176
     1
 62
     7
420
 16777215
176
     1
 90
        1
176
     1
 90
        4
176
     1
 62
     7
176
     1
 62
   257
176
     1
 90
        1
176
     1
 90
        1
176
     1
 40
1.0
176
     1
 90
        0
176
     1
 62
   257
176
     1
 40
1.0
176
     1
 90
        1
176
     1
 90
        6
176
     1
 90
        2
176
     1
 62
     7
176
     1
 90
        3
176
     1
 90
        0
176
     1
 90
        0
176
     1
290
     0
176
     1
 90
        1
176
     1
 40
0.0
176
     1
 90
        0
176
     1
290
     0
176
     1
290
     1
176
     1
290
     1
176
     1
290
     0
176
     1
290
     0
176
     1
290
     0
176
     1
290
     0
176
     1
290
     0
176
     1
290
     0
176
     1
 90
       50
176
     1
 40
0.0
176
     1
 40
1.0
176
     1
 90
        0
176
     1
 62
    18
176
     1
 90
       50
176
     1
 90
        3
176
     1
 62
     5
420
      255
176
     1
290
     0
176
     1
 90
       50
176
     1
 90
       50
176
     1
 90
       50
176
     1
290
     0
176
     1
 90
       50
176
     1
 62
   256
176
     0
 40
1.0
176
     0
 90
        2
176
     1
  1
strokes_ogs.tif
176
     1
290
     0
176
     1
 40
1.0
176
     1
 40
1.0
176
     1
  0
VISUALSTYLE
  5
40
102
{ACAD_REACTORS
330
2A
102
}
330
2A
100
AcDbVisualStyle
  2

 70
    25
177
     3
291
     0
 70
    58
 90
        2
176
     1
 90
        2
176
     1
 90
        1
176
     1
 90
        1
176
     1
 40
0.5
176
     1
 40
30.0
176
     1
 62
     7
420
 16777215
176
     1
 90
        1
176
     1
 90
        0
176
     1
 62
     7
176
     1
 62
   257
176
     1
 90
        1
176
     1
 90
        1
176
     1
 40
1.0
176
     1
 90
        8
176
     1
 62
     7
176
     1
 40
1.0
176
     1
 90
        1
176
     1
 90
        6
176
     1
 90
        2
176
     1
 62
     7
176
     1
 90
        3
176
     1
 90
        0
176
     1
 90
        0
176
     1
290
     0
176
     1
 90
       13
176
     1
 40
0.0
176
     1
 90
        0
176
     1
290
     0
176
     1
290
     1
176
     1
290
     1
176
     1
290
     0
176
     1
290
     0
176
     1
290
     0
176
     1
290
     0
176
     1
290
     0
176
     1
290
     0
176
     1
 90
       50
176
     1
 40
0.0
176
     1
 40
1.0
176
     1
 90
        0
176
     1
 62
    18
176
     1
 90
       50
176
     1
 90
        3
176
     1
 62
     5
420
      255
176
     1
290
     0
176
     1
 90
       50
176
     1
 90
       50
176
     1
 90
       50
176
     1
290
     0
176
     1
 90
       50
176
     1
 62
   256
176
     0
 40
1.0
176
     0
 90
        2
176
     1
  1
strokes_ogs.tif
176
     1
290
     0
176
     1
 40
1.0
176
     1
 40
1.0
176
     1
  0
DICTIONARYVAR
  5
5999
102
{ACAD_REACTORS
330
5998
102
}
330
5998
100
DictionaryVariables
280
     0
  1
1:1
  0
DICTIONARYVAR
  5
59B4
102
{ACAD_REACTORS
330
5998
102
}
330
5998
100
DictionaryVariables
280
     0
  1
STANDARD
  0
DICTIONARYVAR
  5
59B3
102
{ACAD_REACTORS
330
5998
102
}
330
5998
100
DictionaryVariables
280
     0
  1
STANDARD
  0
DICTIONARYVAR
  5
8AD5
102
{ACAD_REACTORS
330
5998
102
}
330
5998
100
DictionaryVariables
280
     0
  1
Metric50
  0
DICTIONARYVAR
  5
8AD6
102
{ACAD_REACTORS
330
5998
102
}
330
5998
100
DictionaryVariables
280
     0
  1
Metric50
  0
DICTIONARYVAR
  5
59B5
102
{ACAD_REACTORS
330
5998
102
}
330
5998
100
DictionaryVariables
280
     0
  1
1
  0
DICTIONARYVAR
  5
59B6
102
{ACAD_REACTORS
330
5998
102
}
330
5998
100
DictionaryVariables
280
     0
  1
15
  0
DICTIONARY
  5
8ADA
330
8AC0
100
AcDbDictionary
280
     1
281
     1
  3
ACAD_XREC_ROUNDTRIP
360
8B3D
  0
DICTIONARY
  5
5F41
330
22
100
AcDbDictionary
280
     1
281
     1
  0
DICTIONARY
  5
8AD8
330
8ABF
100
AcDbDictionary
280
     1
281
     1
  3
ACAD_XREC_ROUNDTRIP
360
8B3C
  0
DICTIONARY
  5
8ABA
330
59A3
100
AcDbDictionary
280
     1
281
     1
  3
ACAD_ROUNDTRIP_2008_TABLESTYLE_CELLSTYLEMAP
360
8B3B
  0
XRECORD
  5
8B3D
102
{ACAD_REACTORS
330
8ADA
102
}
330
8ADA
100
AcDbXrecord
280
     1
102
DISPLAYNAME
  1
Metric50
102
FLAGS
 90
        0
  0
XRECORD
  5
8B3C
102
{ACAD_REACTORS
330
8AD8
102
}
330
8AD8
100
AcDbXrecord
280
     1
102
DISPLAYNAME
  1
Metric50
102
FLAGS
 90
        0
  0
CELLSTYLEMAP
  5
8B3B
102
{ACAD_REACTORS
330
8ABA
102
}
330
8ABA
100
AcDbCellStyleMap
 90
        3
300
CELLSTYLE
  1
TABLEFORMAT_BEGIN
 90
        5
170
     1
 91
        0
 92
    32768
 62
   257
 93
        1
300
CONTENTFORMAT
  1
CONTENTFORMAT_BEGIN
 90
        0
 91
        0
 92
      512
 93
        0
300

 40
0.0
140
1.0
 94
        5
 62
     0
340
11
144
6.0
309
CONTENTFORMAT_END
171
     1
301
MARGIN
  1
CELLMARGIN_BEGIN
 40
1.5
 40
1.5
 40
1.5
 40
1.5
 40
0.18
 40
0.18
309
CELLMARGIN_END
 94
        6
 95
        1
302
GRIDFORMAT
  1
GRIDFORMAT_BEGIN
 90
        0
 91
        1
 62
     0
 92
       -2
340
0
 93
        0
 40
1.125
309
GRIDFORMAT_END
 95
        2
302
GRIDFORMAT
  1
GRIDFORMAT_BEGIN
 90
        0
 91
        1
 62
     0
 92
       -2
340
0
 93
        0
 40
1.125
309
GRIDFORMAT_END
 95
        4
302
GRIDFORMAT
  1
GRIDFORMAT_BEGIN
 90
        0
 91
        1
 62
     0
 92
       -2
340
0
 93
        0
 40
1.125
309
GRIDFORMAT_END
 95
        8
302
GRIDFORMAT
  1
GRIDFORMAT_BEGIN
 90
        0
 91
        1
 62
     0
 92
       -2
340
0
 93
        0
 40
1.125
309
GRIDFORMAT_END
 95
       16
302
GRIDFORMAT
  1
GRIDFORMAT_BEGIN
 90
        0
 91
        1
 62
     0
 92
       -2
340
0
 93
        0
 40
1.125
309
GRIDFORMAT_END
 95
       32
302
GRIDFORMAT
  1
GRIDFORMAT_BEGIN
 90
        0
 91
        1
 62
     0
 92
       -2
340
0
 93
        0
 40
1.125
309
GRIDFORMAT_END
309
TABLEFORMAT_END
  1
CELLSTYLE_BEGIN
 90
        1
 91
        1
300
_TITLE
309
CELLSTYLE_END
300
CELLSTYLE
  1
TABLEFORMAT_BEGIN
 90
        5
170
     1
 91
        0
 92
        0
 62
   257
 93
        1
300
CONTENTFORMAT
  1
CONTENTFORMAT_BEGIN
 90
        0
 91
        0
 92
      512
 93
        0
300

 40
0.0
140
1.0
 94
        5
 62
     0
340
11
144
4.5
309
CONTENTFORMAT_END
171
     1
301
MARGIN
  1
CELLMARGIN_BEGIN
 40
1.5
 40
1.5
 40
1.5
 40
1.5
 40
0.18
 40
0.18
309
CELLMARGIN_END
 94
        6
 95
        1
302
GRIDFORMAT
  1
GRIDFORMAT_BEGIN
 90
        0
 91
        1
 62
     0
 92
       -2
340
0
 93
        0
 40
1.125
309
GRIDFORMAT_END
 95
        2
302
GRIDFORMAT
  1
GRIDFORMAT_BEGIN
 90
        0
 91
        1
 62
     0
 92
       -2
340
0
 93
        0
 40
1.125
309
GRIDFORMAT_END
 95
        4
302
GRIDFORMAT
  1
GRIDFORMAT_BEGIN
 90
        0
 91
        1
 62
     0
 92
       -2
340
0
 93
        0
 40
1.125
309
GRIDFORMAT_END
 95
        8
302
GRIDFORMAT
  1
GRIDFORMAT_BEGIN
 90
        0
 91
        1
 62
     0
 92
       -2
340
0
 93
        0
 40
1.125
309
GRIDFORMAT_END
 95
       16
302
GRIDFORMAT
  1
GRIDFORMAT_BEGIN
 90
        0
 91
        1
 62
     0
 92
       -2
340
0
 93
        0
 40
1.125
309
GRIDFORMAT_END
 95
       32
302
GRIDFORMAT
  1
GRIDFORMAT_BEGIN
 90
        0
 91
        1
 62
     0
 92
       -2
340
0
 93
        0
 40
1.125
309
GRIDFORMAT_END
309
TABLEFORMAT_END
  1
CELLSTYLE_BEGIN
 90
        2
 91
        1
300
_HEADER
309
CELLSTYLE_END
300
CELLSTYLE
  1
TABLEFORMAT_BEGIN
 90
        5
170
     1
 91
        0
 92
        0
 62
   257
 93
        1
300
CONTENTFORMAT
  1
CONTENTFORMAT_BEGIN
 90
        0
 91
        0
 92
      512
 93
        0
300

 40
0.0
140
1.0
 94
        2
 62
     0
340
11
144
4.5
309
CONTENTFORMAT_END
171
     1
301
MARGIN
  1
CELLMARGIN_BEGIN
 40
1.5
 40
1.5
 40
1.5
 40
1.5
 40
0.18
 40
0.18
309
CELLMARGIN_END
 94
        6
 95
        1
302
GRIDFORMAT
  1
GRIDFORMAT_BEGIN
 90
        0
 91
        1
 62
     0
 92
       -2
340
0
 93
        0
 40
1.125
309
GRIDFORMAT_END
 95
        2
302
GRIDFORMAT
  1
GRIDFORMAT_BEGIN
 90
        0
 91
        1
 62
     0
 92
       -2
340
0
 93
        0
 40
1.125
309
GRIDFORMAT_END
 95
        4
302
GRIDFORMAT
  1
GRIDFORMAT_BEGIN
 90
        0
 91
        1
 62
     0
 92
       -2
340
0
 93
        0
 40
1.125
309
GRIDFORMAT_END
 95
        8
302
GRIDFORMAT
  1
GRIDFORMAT_BEGIN
 90
        0
 91
        1
 62
     0
 92
       -2
340
0
 93
        0
 40
1.125
309
GRIDFORMAT_END
 95
       16
302
GRIDFORMAT
  1
GRIDFORMAT_BEGIN
 90
        0
 91
        1
 62
     0
 92
       -2
340
0
 93
        0
 40
1.125
309
GRIDFORMAT_END
 95
       32
302
GRIDFORMAT
  1
GRIDFORMAT_BEGIN
 90
        0
 91
        1
 62
     0
 92
       -2
340
0
 93
        0
 40
1.125
309
GRIDFORMAT_END
309
TABLEFORMAT_END
  1
CELLSTYLE_BEGIN
 90
        3
 91
        2
300
_DATA
309
CELLSTYLE_END
  0
ENDSEC
  0
SECTION
  2
ACDSDATA
 70
     2
 71
     6
  0
ACDSSCHEMA
 90
        0
  1
AcDb_Thumbnail_Schema
  2
AcDbDs::ID
280
    10
 91
        8
  2
Thumbnail_Data
280
    15
 91
        0
101
ACDSRECORD
 95
        0
 90
        1
  2
AcDbDs::TreatedAsObjectData
280
     1
291
     1
101
ACDSRECORD
 95
        0
 90
        2
  2
AcDbDs::Legacy
280
     1
291
     1
101
ACDSRECORD
  1
AcDbDs::ID
 90
        3
  2
AcDs:Indexable
280
     1
291
     1
101
ACDSRECORD
  1
AcDbDs::ID
 90
        4
  2
AcDbDs::HandleAttribute
280
     7
282
     1
  0
ACDSSCHEMA
 90
        1
  1
AcDbDs::TreatedAsObjectDataSchema
  2
AcDbDs::TreatedAsObjectData
280
     1
 91
        0
  0
ACDSSCHEMA
 90
        2
  1
AcDbDs::LegacySchema
  2
AcDbDs::Legacy
280
     1
 91
        0
  0
ACDSSCHEMA
 90
        3
  1
AcDbDs::IndexedPropertySchema
  2
AcDs:Indexable
280
     1
 91
        0
  0
ACDSSCHEMA
 90
        4
  1
AcDbDs::HandleAttributeSchema
  2
AcDbDs::HandleAttribute
280
     7
 91
        1
284
     1
  0
ACDSRECORD
 90
        0
  2
AcDbDs::ID
280
    10
320
22
  2
Thumbnail_Data
280
    15
 94
     1825
310
89504E470D0A1A0A0000000D4948445200000100000000A408030000004F56001800000300504C5445000000000000FFFFFF0000000000000000000000000000000000000000000000000000330000660000990000CC0000FF0033000033330033660033990033CC0033FF0066000066330066660066990066CC0066FF0099
310
000099330099660099990099CC0099FF00CC0000CC3300CC6600CC9900CCCC00CCFF00FF0000FF3300FF6600FF9900FFCC00FFFF3300003300333300663300993300CC3300FF3333003333333333663333993333CC3333FF3366003366333366663366993366CC3366FF3399003399333399663399993399CC3399FF33CC00
310
33CC3333CC6633CC9933CCCC33CCFF33FF0033FF3333FF6633FF9933FFCC33FFFF6600006600336600666600996600CC6600FF6633006633336633666633996633CC6633FF6666006666336666666666996666CC6666FF6699006699336699666699996699CC6699FF66CC0066CC3366CC6666CC9966CCCC66CCFF66FF0066
310
FF3366FF6666FF9966FFCC66FFFF9900009900339900669900999900CC9900FF9933009933339933669933999933CC9933FF9966009966339966669966999966CC9966FF9999009999339999669999999999CC9999FF99CC0099CC3399CC6699CC9999CCCC99CCFF99FF0099FF3399FF6699FF9999FFCC99FFFFCC0000CC00
310
33CC0066CC0099CC00CCCC00FFCC3300CC3333CC3366CC3399CC33CCCC33FFCC6600CC6633CC6666CC6699CC66CCCC66FFCC9900CC9933CC9966CC9999CC99CCCC99FFCCCC00CCCC33CCCC66CCCC99CCCCCCCCCCFFCCFF00CCFF33CCFF66CCFF99CCFFCCCCFFFFFF0000FF0033FF0066FF0099FF00CCFF00FFFF3300FF3333
310
FF3366FF3399FF33CCFF33FFFF6600FF6633FF6666FF6699FF66CCFF66FFFF9900FF9933FF9966FF9999FF99CCFF99FFFFCC00FFCC33FFCC66FFCC99FFCCCCFFCCFFFFFF00FFFF33FFFF66FFFF99FFFFCCFFFFFF0000000D0D0D1A1A1A2828283535354343435050505D5D5D6B6B6B787878868686939393A1A1A1AEAEAEBB
310
BBBBC9C9C9D6D6D6E4E4E4F1F1F1FFFFFF000000000000000000000000000000000000000000000000000000000000C11FEF66000003DC4944415478DAEDDD3B96EA300C06E0D901DBA0F1FE3B1A6FC39556A0C6FDF52B0F87D881B99942D2EF1918489873F017DB9195407EC878F901000000000000000000000000000000
310
000000000000000000BE28EEAF8A18803F7A5752019839DD0C0384A200007300DC4A0CD128407B0600BB00AD0F84104CEE06B96DF5D202986F6803025B400520E3004B6FB0D805CA6E306682708380B840A83680483601B80788B1EE124C01D006100347E6FF0C07C485C20700B206B0EB02A1B600360B60B30B5482587683
310
291C8C35356230145E0098C65D20C606D53F58978B9D0C9548B000B488700A302AC223C1FC7305D0516C0F7564845C742E06370D843E6900127382BC7FD36E9217597B3E7563417D2E1880BE02D80D821AC6805F00E81A04BF02E82CB687C2A7C3BF0350940F00C011C056288C1600000000A03F5DC624C026602D2BDC01DC
310
F3AE849E21E26E7BE352019C7180FB0A0000000000004020800700000000009B0069FAFBE9275E762F8BC783A2820172C5422B1700ED6F7A5D08ED80D0F237B644826200D767CE4E0E8D090670FEBA0B7449B4D32E2017601B043F05387D05000020770C98ED064BA6B85FA50E20B500771CE9A96B23CA01966D3F00786B1C
310
00503517F0350EF0A99C00B4D3A73F0060B193A10A306801CA016AFC3E0368E78E6AED020B80BB0340EE2098F7F23C0760DD00546A9814868110B36A80E583323CAC997A00B60DB04C86CC02A4DD60CE73B929803B2644D6A448DCED516402045F536233003ECD09461539C10CE0025D00F0FE43167402203314CE155B13E3
310
1700DBD964A394A0CCB9006F8320CF000E75B509C02300B15D60A9365F03D47061702EA56C8059CDB6BDC026C4AA1222346FDBDD84606D07BA00AE6AC64CDD10A0AD055C167E2B5A0106555B7AFEBA5633009B6B01FB1A99FB22A5DDE61DD67F78F68C57D5054A306815E0D10AA75BF7A2B2D4977B7A5FD18A0680E7333C39
310
DF3D0F00EB863E026C2D403840E9FE8F9C0B49F54FC51E40FE7D50DAF8945B005905C85FABEBF39D5980F38AEE01D838401FFDAD2BD200A21AE0958ACF778700780160435DA00B14D3D385E5D14F0D0C01E415AFBA4630C06E1C330AC0FC3900A903A85755F00FBF96F4709BECF4655FCD07F9575EF6CAFF21780C689795B0
310
DB02300802600EC09340C8441CC0EB727E1B03D842240800330083848811002E39C1E7494ED002C034276800A0566794E4E6352D7E04D09516AF5BD8BF1F1719B6001A1E495108402300520640C6017800303A6C7AFE1F922FB87872D47F7642C06031BE4607000000802680B70B285CAD0100BA0000840058BFF6B8820200
310
0000000000000000000000000000000000000000000000182BFF00AFE6586F21114B800000000049454E44AE426082
  0
ENDSEC
  0
EOF
