  0
SECTION
  2
HEADER
  9
$ACADVER
  1
AC1015
  9
$ACADMAINTVER
 70
    20
  9
$DWGCODEPAGE
  3
ANSI_932
  9
$INSBASE
 10
0.0
 20
0.0
 30
0.0
  9
$EXTMIN
 10
256.9354575943394
 20
-540.0487846181522
 30
-0.0000000000000058
  9
$EXTMAX
 10
910.5884157465311
 20
532.3731262404785
 30
0.0000000000000104
  9
$LIMMIN
 10
-296.316999476111
 20
-370.7034300441653
  9
$LIMMAX
 10
623.3128432133979
 20
328.6261559379898
  9
$ORTHOMODE
 70
     1
  9
$REGENMODE
 70
     1
  9
$FILLMODE
 70
     1
  9
$QTEXTMODE
 70
     0
  9
$MIRRTEXT
 70
     1
  9
$LTSCALE
 40
10.0
  9
$ATTMODE
 70
     1
  9
$TEXTSIZE
 40
2.0
  9
$TRACEWID
 40
0.05
  9
$TEXTSTYLE
  7
STANDARD
  9
$CLAYER
  8
0
  9
$CELTYPE
  6
CONTINUOUS
  9
$CECOLOR
 62
   256
  9
$CELTSCALE
 40
1.0
  9
$DISPSILH
 70
     0
  9
$DIMSCALE
 40
1.0
  9
$DIMASZ
 40
2.0
  9
$DIMEXO
 40
1.0
  9
$DIMDLI
 40
0.5
  9
$DIMRND
 40
0.0
  9
$DIMDLE
 40
0.0
  9
$DIMEXE
 40
0.5
  9
$DIMTP
 40
0.0
  9
$DIMTM
 40
0.0
  9
$DIMTXT
 40
6.0
  9
$DIMCEN
 40
0.09
  9
$DIMTSZ
 40
0.0
  9
$DIMTOL
 70
     0
  9
$DIMLIM
 70
     0
  9
$DIMTIH
 70
     0
  9
$DIMTOH
 70
     1
  9
$DIMSE1
 70
     0
  9
$DIMSE2
 70
     0
  9
$DIMTAD
 70
     3
  9
$DIMZIN
 70
    12
  9
$DIMBLK
  1
OPEN
  9
$DIMASO
 70
     1
  9
$DIMSHO
 70
     1
  9
$DIMPOST
  1

  9
$DIMAPOST
  1

  9
$DIMALT
 70
     0
  9
$DIMALTD
 70
     2
  9
$DIMALTF
 40
25.4
  9
$DIMLFAC
 40
1.0
  9
$DIMTOFL
 70
     0
  9
$DIMTVP
 40
0.0
  9
$DIMTIX
 70
     0
  9
$DIMSOXD
 70
     0
  9
$DIMSAH
 70
     0
  9
$DIMBLK1
  1

  9
$DIMBLK2
  1

  9
$DIMSTYLE
  2
STANDARD
  9
$DIMCLRD
 70
     0
  9
$DIMCLRE
 70
     0
  9
$DIMCLRT
 70
     0
  9
$DIMTFAC
 40
1.0
  9
$DIMGAP
 40
1.0
  9
$DIMJUST
 70
     0
  9
$DIMSD1
 70
     0
  9
$DIMSD2
 70
     0
  9
$DIMTOLJ
 70
     1
  9
$DIMTZIN
 70
     0
  9
$DIMALTZ
 70
     0
  9
$DIMALTTZ
 70
     0
  9
$DIMUPT
 70
     0
  9
$DIMDEC
 70
     1
  9
$DIMTDEC
 70
     1
  9
$DIMALTU
 70
     2
  9
$DIMALTTD
 70
     2
  9
$DIMTXSTY
  7
STANDARD
  9
$DIMAUNIT
 70
     0
  9
$DIMADEC
 70
     0
  9
$DIMALTRND
 40
0.0
  9
$DIMAZIN
 70
     0
  9
$DIMDSEP
 70
    46
  9
$DIMATFIT
 70
     3
  9
$DIMFRAC
 70
     0
  9
$DIMLDRBLK
  1
OPEN
  9
$DIMLUNIT
 70
     2
  9
$DIMLWD
 70
    -2
  9
$DIMLWE
 70
    -2
  9
$DIMTMOVE
 70
     0
  9
$LUNITS
 70
     2
  9
$LUPREC
 70
     4
  9
$SKETCHINC
 40
0.1
  9
$FILLETRAD
 40
0.0
  9
$AUNITS
 70
     0
  9
$AUPREC
 70
     0
  9
$MENU
  1
.
  9
$ELEVATION
 40
0.0
  9
$PELEVATION
 40
0.0
  9
$THICKNESS
 40
0.0
  9
$LIMCHECK
 70
     0
  9
$CHAMFERA
 40
0.0
  9
$CHAMFERB
 40
0.0
  9
$CHAMFERC
 40
0.0
  9
$CHAMFERD
 40
0.0
  9
$SKPOLY
 70
     0
  9
$TDCREATE
 40
2452286.555658658
  9
$TDUCREATE
 40
2452286.180658658
  9
$TDUPDATE
 40
2457256.549895220
  9
$TDUUPDATE
 40
2457256.174895220
  9
$TDINDWG
 40
1.4089627083
  9
$TDUSRTIMER
 40
1.4089590625
  9
$USRTIMER
 70
     1
  9
$ANGBASE
 50
0.0
  9
$ANGDIR
 70
     0
  9
$PDMODE
 70
     0
  9
$PDSIZE
 40
0.0
  9
$PLINEWID
 40
0.0
  9
$SPLFRAME
 70
     0
  9
$SPLINETYPE
 70
     6
  9
$SPLINESEGS
 70
     8
  9
$HANDSEED
  5
A1A5
  9
$SURFTAB1
 70
     6
  9
$SURFTAB2
 70
     6
  9
$SURFTYPE
 70
     6
  9
$SURFU
 70
     6
  9
$SURFV
 70
     6
  9
$UCSBASE
  2

  9
$UCSNAME
  2

  9
$UCSORG
 10
0.0
 20
0.0
 30
0.0
  9
$UCSXDIR
 10
1.0
 20
0.0
 30
0.0
  9
$UCSYDIR
 10
0.0
 20
1.0
 30
0.0
  9
$UCSORTHOREF
  2

  9
$UCSORTHOVIEW
 70
     0
  9
$UCSORGTOP
 10
0.0
 20
0.0
 30
0.0
  9
$UCSORGBOTTOM
 10
0.0
 20
0.0
 30
0.0
  9
$UCSORGLEFT
 10
0.0
 20
0.0
 30
0.0
  9
$UCSORGRIGHT
 10
0.0
 20
0.0
 30
0.0
  9
$UCSORGFRONT
 10
0.0
 20
0.0
 30
0.0
  9
$UCSORGBACK
 10
0.0
 20
0.0
 30
0.0
  9
$PUCSBASE
  2

  9
$PUCSNAME
  2

  9
$PUCSORG
 10
0.0
 20
0.0
 30
0.0
  9
$PUCSXDIR
 10
1.0
 20
0.0
 30
0.0
  9
$PUCSYDIR
 10
0.0
 20
1.0
 30
0.0
  9
$PUCSORTHOREF
  2

  9
$PUCSORTHOVIEW
 70
     0
  9
$PUCSORGTOP
 10
0.0
 20
0.0
 30
0.0
  9
$PUCSORGBOTTOM
 10
0.0
 20
0.0
 30
0.0
  9
$PUCSORGLEFT
 10
0.0
 20
0.0
 30
0.0
  9
$PUCSORGRIGHT
 10
0.0
 20
0.0
 30
0.0
  9
$PUCSORGFRONT
 10
0.0
 20
0.0
 30
0.0
  9
$PUCSORGBACK
 10
0.0
 20
0.0
 30
0.0
  9
$USERI1
 70
     0
  9
$USERI2
 70
     0
  9
$USERI3
 70
     0
  9
$USERI4
 70
     0
  9
$USERI5
 70
     0
  9
$USERR1
 40
0.0
  9
$USERR2
 40
0.0
  9
$USERR3
 40
0.0
  9
$USERR4
 40
0.0
  9
$USERR5
 40
0.0
  9
$WORLDVIEW
 70
     1
  9
$SHADEDGE
 70
     3
  9
$SHADEDIF
 70
    70
  9
$TILEMODE
 70
     1
  9
$MAXACTVP
 70
    48
  9
$PINSBASE
 10
0.0
 20
0.0
 30
0.0
  9
$PLIMCHECK
 70
     0
  9
$PEXTMIN
 10
4.273573
 20
5.205245999999998
 30
0.0
  9
$PEXTMAX
 10
194.610095
 20
283.0697009999996
 30
0.0
  9
$PLIMMIN
 10
-5.873749
 20
-5.87375
  9
$PLIMMAX
 10
204.099579
 20
291.1369009999999
  9
$UNITMODE
 70
     0
  9
$VISRETAIN
 70
     1
  9
$PLINEGEN
 70
     0
  9
$PSLTSCALE
 70
     1
  9
$TREEDEPTH
 70
  3020
  9
$CMLSTYLE
  2
STANDARD
  9
$CMLJUST
 70
     0
  9
$CMLSCALE
 40
1.0
  9
$PROXYGRAPHICS
 70
     1
  9
$MEASUREMENT
 70
     0
  9
$CELWEIGHT
370
    -1
  9
$ENDCAPS
280
     0
  9
$JOINSTYLE
280
     0
  9
$LWDISPLAY
290
     0
  9
$INSUNITS
 70
     0
  9
$HYPERLINKBASE
  1

  9
$STYLESHEET
  1
monochrome.ctb
  9
$XEDIT
290
     1
  9
$CEPSNTYPE
380
     0
  9
$PSTYLEMODE
290
     1
  9
$FINGERPRINTGUID
  2

  9
$VERSIONGUID
  2
{43447258-7878-4ACE-BC3C-6760B61FD3E1}
  9
$EXTNAMES
290
     1
  9
$PSVPSCALE
 40
0.0
  9
$OLESTARTUP
290
     0
  0
ENDSEC
  0
SECTION
  2
CLASSES
  0
CLASS
  1
ACDBDICTIONARYWDFLT
  2
AcDbDictionaryWithDefault
  3
ObjectDBX Classes
 90
        0
280
     0
281
     0
  0
CLASS
  1
DICTIONARYVAR
  2
AcDbDictionaryVar
  3
ObjectDBX Classes
 90
        0
280
     0
281
     0
  0
CLASS
  1
MATERIAL
  2
AcDbMaterial
  3
ObjectDBX Classes
 90
     1153
280
     0
281
     0
  0
CLASS
  1
VISUALSTYLE
  2
AcDbVisualStyle
  3
ObjectDBX Classes
 90
     4095
280
     0
281
     0
  0
CLASS
  1
TABLESTYLE
  2
AcDbTableStyle
  3
ObjectDBX Classes
 90
     4095
280
     0
281
     0
  0
CLASS
  1
SCALE
  2
AcDbScale
  3
ObjectDBX Classes
 90
     1153
280
     0
281
     0
  0
CLASS
  1
MLEADERSTYLE
  2
AcDbMLeaderStyle
  3
ACDB_MLEADERSTYLE_CLASS
 90
     4095
280
     0
281
     0
  0
CLASS
  1
ACDBSECTIONVIEWSTYLE
  2
AcDbSectionViewStyle
  3
ObjectDBX Classes
 90
     1025
280
     0
281
     0
  0
CLASS
  1
ACDBDETAILVIEWSTYLE
  2
AcDbDetailViewStyle
  3
ObjectDBX Classes
 90
     1025
280
     0
281
     0
  0
CLASS
  1
CELLSTYLEMAP
  2
AcDbCellStyleMap
  3
ObjectDBX Classes
 90
     1152
280
     0
281
     0
  0
CLASS
  1
AEC_REFEDIT_STATUS_TRACKER
  2
AecDbRefEditStatusTracker
  3
AecArchBase60|Product Desc: Autodesk Architectural Desktop 2007 |Company: Autodesk,Inc. |WEB Address: www.autodesk.com
 90
    32897
280
     0
281
     0
  0
CLASS
  1
NPOCOLLECTION
  2
AcDbImpNonPersistentObjectsCollection
  3
ObjectDBX Classes
 90
    33921
280
     0
281
     0
  0
CLASS
  1
ACDBPLACEHOLDER
  2
AcDbPlaceHolder
  3
ObjectDBX Classes
 90
        0
280
     0
281
     0
  0
CLASS
  1
LAYOUT
  2
AcDbLayout
  3
ObjectDBX Classes
 90
        0
280
     0
281
     0
  0
ENDSEC
  0
SECTION
  2
TABLES
  0
TABLE
  2
VPORT
  5
8
330
0
100
AcDbSymbolTable
 70
     1
  0
VPORT
  5
94B8
330
8
100
AcDbSymbolTableRecord
100
AcDbViewportTableRecord
  2
*Active
 70
     0
 10
0.0
 20
0.0
 11
1.0
 21
1.0
 12
583.7619366704354
 22
-3.837829188836849
 13
0.0
 23
0.0
 14
1.0
 24
1.0
 15
10.0
 25
10.0
 16
0.0
 26
0.0
 36
1.0
 17
0.0
 27
0.0
 37
0.0
 40
1079.792508184119
 41
1.752293577981651
 42
50.0
 43
0.0
 44
0.0
 50
0.0
 51
0.0
 71
     0
 72
   100
 73
     1
 74
     1
 75
     1
 76
     1
 77
     0
 78
     0
281
     0
 65
     1
110
0.0
120
0.0
130
0.0
111
1.0
121
0.0
131
0.0
112
0.0
122
1.0
132
0.0
 79
     0
146
0.0
1001
ACAD_NAV_VCDISPLAY
1070
     3
  0
ENDTAB
  0
TABLE
  2
LTYPE
  5
5
330
0
100
AcDbSymbolTable
 70
     7
  0
LTYPE
  5
13
330
5
100
AcDbSymbolTableRecord
100
AcDbLinetypeTableRecord
  2
BYBLOCK
 70
     0
  3

 72
    65
 73
     0
 40
0.0
  0
LTYPE
  5
14
330
5
100
AcDbSymbolTableRecord
100
AcDbLinetypeTableRecord
  2
BYLAYER
 70
     0
  3

 72
    65
 73
     0
 40
0.0
  0
LTYPE
  5
15
330
5
100
AcDbSymbolTableRecord
100
AcDbLinetypeTableRecord
  2
CONTINUOUS
 70
     0
  3
Solid line
 72
    65
 73
     0
 40
0.0
  0
LTYPE
  5
22
330
5
100
AcDbSymbolTableRecord
100
AcDbLinetypeTableRecord
  2
CONTINOUS
 70
     0
  3
Solid line
 72
    65
 73
     0
 40
0.0
  0
LTYPE
  5
23
330
5
100
AcDbSymbolTableRecord
100
AcDbLinetypeTableRecord
  2
DASHED
 70
     0
  3
__ __ __ __ __ __ __ __ __ __ __ __ __ __ __
 72
    65
 73
     2
 40
0.75
 49
0.5
 74
     0
 49
-0.25
 74
     0
  0
LTYPE
  5
24
330
5
100
AcDbSymbolTableRecord
100
AcDbLinetypeTableRecord
  2
DASHDOT
 70
     0
  3
__ . __ . __ . __ . __ . __ . __ . __ . __ . __
 72
    65
 73
     4
 40
1.0
 49
0.5
 74
     0
 49
-0.25
 74
     0
 49
0.0
 74
     0
 49
-0.25
 74
     0
  0
LTYPE
  5
4C47
330
5
100
AcDbSymbolTableRecord
100
AcDbLinetypeTableRecord
  2
DIVIDE
 70
     0
  3
Divide ____ . . ____ . . ____ . . ____ . . ____
 72
    65
 73
     6
 40
1.25
 49
0.5
 74
     0
 49
-0.25
 74
     0
 49
0.0
 74
     0
 49
-0.25
 74
     0
 49
0.0
 74
     0
 49
-0.25
 74
     0
  0
LTYPE
  5
685F
330
5
100
AcDbSymbolTableRecord
100
AcDbLinetypeTableRecord
  2
PHANTOM
 70
     0
  3
Phantom ______  __  __  ______  __  __  ______
 72
    65
 73
     6
 40
63.5
 49
31.75
 74
     0
 49
-6.349999999999997
 74
     0
 49
6.349999999999997
 74
     0
 49
-6.349999999999997
 74
     0
 49
6.349999999999997
 74
     0
 49
-6.349999999999997
 74
     0
  0
ENDTAB
  0
TABLE
  2
LAYER
  5
2
102
{ACAD_XDICTIONARY
360
9692
102
}
330
0
100
AcDbSymbolTable
 70
    13
  0
LAYER
  5
10
102
{ACAD_XDICTIONARY
360
9627
102
}
330
2
100
AcDbSymbolTableRecord
100
AcDbLayerTableRecord
  2
0
 70
     0
 62
     7
  6
CONTINOUS
370
    -3
390
F
  0
LAYER
  5
2F
102
{ACAD_XDICTIONARY
360
9629
102
}
330
2
100
AcDbSymbolTableRecord
100
AcDbLayerTableRecord
  2
10
 70
     0
 62
     4
  6
CONTINOUS
370
    -3
390
F
  0
LAYER
  5
31
102
{ACAD_XDICTIONARY
360
962B
102
}
330
2
100
AcDbSymbolTableRecord
100
AcDbLayerTableRecord
  2
12
 70
     0
 62
     3
  6
CONTINOUS
370
    -3
390
F
  0
LAYER
  5
35
102
{ACAD_XDICTIONARY
360
962D
102
}
330
2
100
AcDbSymbolTableRecord
100
AcDbLayerTableRecord
  2
16
 70
     0
 62
     6
  6
DASHDOT
370
    -3
390
F
  0
LAYER
  5
3D
102
{ACAD_XDICTIONARY
360
9631
102
}
330
2
100
AcDbSymbolTableRecord
100
AcDbLayerTableRecord
  2
24
 70
     0
 62
     2
  6
CONTINOUS
370
    -3
390
F
  0
LAYER
  5
3A2
102
{ACAD_XDICTIONARY
360
9633
102
}
330
2
100
AcDbSymbolTableRecord
100
AcDbLayerTableRecord
  2
30
 70
     0
 62
     9
  6
CONTINUOUS
370
    -3
390
F
  0
LAYER
  5
3A4
330
2
100
AcDbSymbolTableRecord
100
AcDbLayerTableRecord
  2
DEFPOINTS
 70
     0
 62
     7
  6
CONTINUOUS
290
     0
370
    -3
390
F
  0
LAYER
  5
3BBA
102
{ACAD_XDICTIONARY
360
9635
102
}
330
2
100
AcDbSymbolTableRecord
100
AcDbLayerTableRecord
  2
18
 70
     0
 62
     5
  6
DIVIDE
370
    -3
390
F
  0
LAYER
  5
7837
102
{ACAD_XDICTIONARY
360
9639
102
}
330
2
100
AcDbSymbolTableRecord
100
AcDbLayerTableRecord
  2
17
 70
     0
 62
     2
  6
DASHDOT
370
    -3
390
F
  0
LAYER
  5
8A0F
102
{ACAD_XDICTIONARY
360
9641
102
}
330
2
100
AcDbSymbolTableRecord
100
AcDbLayerTableRecord
  2
21
 70
     0
 62
     7
  6
CONTINUOUS
370
    -3
390
F
  0
LAYER
  5
8CDE
102
{ACAD_XDICTIONARY
360
9643
102
}
330
2
100
AcDbSymbolTableRecord
100
AcDbLayerTableRecord
  2
22
 70
     0
 62
     3
  6
CONTINUOUS
370
    -3
390
F
  0
LAYER
  5
9934
330
2
100
AcDbSymbolTableRecord
100
AcDbLayerTableRecord
  2
240
 70
     0
 62
     7
  6
CONTINUOUS
370
    -3
390
F
  0
LAYER
  5
A0F0
102
{ACAD_XDICTIONARY
360
A0F1
102
}
330
2
100
AcDbSymbolTableRecord
100
AcDbLayerTableRecord
  2
11
 70
     0
 62
     1
  6
CONTINOUS
370
    -3
390
F
  0
ENDTAB
  0
TABLE
  2
STYLE
  5
3
330
0
100
AcDbSymbolTable
 70
     3
  0
STYLE
  5
11
330
3
100
AcDbSymbolTableRecord
100
AcDbTextStyleTableRecord
  2
STANDARD
 70
     0
 40
0.0
 41
1.0
 50
0.0
 71
     0
 42
2.0
  3
txt.shx
  4
bigfont.shx
  0
STYLE
  5
9935
330
3
100
AcDbSymbolTableRecord
100
AcDbTextStyleTableRecord
  2
blockfont
 70
     0
 40
0.0
 41
1.0
 50
0.0
 71
     0
 42
0.2
  3
simplex.shx
  4
bigfont
  0
ENDTAB
  0
TABLE
  2
VIEW
  5
6
330
0
100
AcDbSymbolTable
 70
     3
  0
VIEW
  5
230C
330
6
100
AcDbSymbolTableRecord
100
AcDbViewTableRecord
  2
OLE1
 70
     0
 40
148.912488
 10
429.497628
 20
2.560627
 41
103.145806
 11
0.0
 21
0.0
 31
1.0
 12
0.0
 22
0.0
 32
0.0
 42
50.0
 43
0.0
 44
0.0
 50
0.0
 71
     0
281
     0
 72
     0
  0
VIEW
  5
230E
330
6
100
AcDbSymbolTableRecord
100
AcDbViewTableRecord
  2
OLE2
 70
     0
 40
170.778692
 10
322.66497
 20
-5.978304
 41
102.467215
 11
0.0
 21
0.0
 31
1.0
 12
0.0
 22
0.0
 32
0.0
 42
50.0
 43
0.0
 44
0.0
 50
0.0
 71
     0
281
     0
 72
     0
  0
VIEW
  5
23AA
330
6
100
AcDbSymbolTableRecord
100
AcDbViewTableRecord
  2
OLE3
 70
     0
 40
591.7897389999998
 10
84.79698199999999
 20
-46.09335999999998
 41
388.792096
 11
0.0
 21
0.0
 31
1.0
 12
0.0
 22
0.0
 32
0.0
 42
50.0
 43
0.0
 44
0.0
 50
0.0
 71
     0
281
     0
 72
     0
  0
ENDTAB
  0
TABLE
  2
UCS
  5
7
330
0
100
AcDbSymbolTable
 70
     0
  0
ENDTAB
  0
TABLE
  2
APPID
  5
9
330
0
100
AcDbSymbolTable
 70
     9
  0
APPID
  5
12
330
9
100
AcDbSymbolTableRecord
100
AcDbRegAppTableRecord
  2
ACAD
 70
     0
  0
APPID
  5
ECD
330
9
100
AcDbSymbolTableRecord
100
AcDbRegAppTableRecord
  2
CONTENTBLOCKICON
 70
     0
  0
APPID
  5
95C2
330
9
100
AcDbSymbolTableRecord
100
AcDbRegAppTableRecord
  2
ACAD_NAV_VCDISPLAY
 70
     0
  0
APPID
  5
9685
330
9
100
AcDbSymbolTableRecord
100
AcDbRegAppTableRecord
  2
ACAD_PSEXT
 70
     0
  0
APPID
  5
9937
330
9
100
AcDbSymbolTableRecord
100
AcDbRegAppTableRecord
  2
ACAD_DSTYLE_DIMJAG
 70
     0
  0
APPID
  5
9938
330
9
100
AcDbSymbolTableRecord
100
AcDbRegAppTableRecord
  2
ACAD_DSTYLE_DIMTALN
 70
     0
  0
APPID
  5
9939
330
9
100
AcDbSymbolTableRecord
100
AcDbRegAppTableRecord
  2
DCO15
 70
     0
  0
APPID
  5
9FFE
330
9
100
AcDbSymbolTableRecord
100
AcDbRegAppTableRecord
  2
ACAD_MLEADERVER
 70
     0
  0
APPID
  5
A184
330
9
100
AcDbSymbolTableRecord
100
AcDbRegAppTableRecord
  2
ACAD_EXEMPT_FROM_CAD_STANDARDS
 70
     0
  0
ENDTAB
  0
TABLE
  2
DIMSTYLE
  5
A
330
0
100
AcDbSymbolTable
 70
     3
100
AcDbDimStyleTable
 71
     1
340
175
  0
DIMSTYLE
105
175
102
{ACAD_REACTORS
330
9ACE
330
9ACF
330
9AD0
330
9AD1
330
9AD2
330
9AD3
330
9AD4
330
9AD5
330
9AD6
330
9B11
330
9B18
330
9B19
330
9B3D
330
9B3E
330
9B3F
330
9B40
330
9B5A
330
A11A
102
}
330
A
100
AcDbSymbolTableRecord
100
AcDbDimStyleTableRecord
  2
STANDARD
 70
     0
 41
2.0
 42
1.0
 43
0.5
 44
0.5
 73
     0
 77
     3
 78
    12
140
6.0
147
1.0
271
     1
272
     1
340
11
341
3B2
342
3B2
  0
DIMSTYLE
105
9936
102
{ACAD_REACTORS
330
9A8A
330
9A8D
330
9A8E
330
9A8F
330
9A9D
330
9A9E
330
9AA0
330
9AA2
330
9AA5
330
9AA6
330
9AA7
330
9AA8
330
9BA7
330
A049
330
A04A
330
A04B
330
A04C
330
A11B
330
A11C
102
}
330
A
100
AcDbSymbolTableRecord
100
AcDbDimStyleTableRecord
  2
STANDARD1
 70
     0
 41
2.0
 42
3.0
 43
0.5
 44
0.5
 73
     0
 74
     0
 77
     3
 78
    12
140
6.0
147
2.0
172
     1
271
     8
272
     8
289
     2
340
11
341
3B2
342
3B2
1001
ACAD_DSTYLE_DIMJAG
1070
   388
1040
1.5
1001
ACAD_DSTYLE_DIMTALN
1070
   392
1070
     0
  0
ENDTAB
  0
TABLE
  2
BLOCK_RECORD
  5
1
330
0
100
AcDbSymbolTable
 70
    54
  0
BLOCK_RECORD
  5
1E
102
{ACAD_XDICTIONARY
360
178
102
}
330
1
100
AcDbSymbolTableRecord
100
AcDbBlockTableRecord
  2
*MODEL_SPACE
340
94B3
  0
BLOCK_RECORD
  5
1A
102
{ACAD_XDICTIONARY
360
17A
102
}
330
1
100
AcDbSymbolTableRecord
100
AcDbBlockTableRecord
  2
*PAPER_SPACE
340
94B4
  0
BLOCK_RECORD
  5
3B2
330
1
100
AcDbSymbolTableRecord
100
AcDbBlockTableRecord
  2
_OPEN
340
0
102
{BLKREFS
331
9DB9
331
9DBA
331
9DC2
331
9DC3
331
9DF1
331
9DF2
331
9DFA
331
9DFB
331
9E15
331
9E16
331
9E1E
331
9E1F
331
9E27
331
9E28
331
9E39
331
9E3A
331
9E42
331
9E43
331
9E54
331
9E5C
331
9E5D
331
9E70
331
9E71
331
9E79
331
9E7A
331
9E82
331
9E8A
331
9E92
331
9E93
331
9E9B
331
9E9C
331
9EA4
331
9EA5
331
9EC4
331
9EC5
331
9EE7
331
9EE8
331
9EF0
331
9EF1
331
9EF9
331
9EFA
331
9F02
331
9F03
331
9F0B
331
9F0C
331
9F14
331
9F15
331
9F77
331
9F78
331
9F80
331
9F81
331
9F89
331
9F8A
331
9F92
331
9F93
331
9F9B
331
9F9C
331
9FA4
331
9FA5
331
9FAD
331
9FAE
331
A013
331
A014
331
A01F
331
A020
331
A02B
331
A02C
331
A037
331
A038
331
A0A4
331
A0A5
331
A0AD
331
A0AE
331
A0B6
331
A0B7
331
A0BF
331
A0C0
331
A0D2
331
A0DD
331
A0DE
331
A0E9
331
A0EA
331
A147
331
A14F
331
A150
331
A158
331
A159
102
}
  0
BLOCK_RECORD
  5
9767
330
1
100
AcDbSymbolTableRecord
100
AcDbBlockTableRecord
  2
*U1
340
0
102
{BLKREFS
331
9A97
331
9A99
102
}
  0
BLOCK_RECORD
  5
976B
330
1
100
AcDbSymbolTableRecord
100
AcDbBlockTableRecord
  2
*U2
340
0
102
{BLKREFS
331
9A98
331
9A9A
102
}
  0
BLOCK_RECORD
  5
976F
330
1
100
AcDbSymbolTableRecord
100
AcDbBlockTableRecord
  2
*U3
340
0
102
{BLKREFS
331
9B43
102
}
  0
BLOCK_RECORD
  5
9773
330
1
100
AcDbSymbolTableRecord
100
AcDbBlockTableRecord
  2
*U4
340
0
102
{BLKREFS
331
9B44
102
}
  0
BLOCK_RECORD
  5
9BB4
330
1
100
AcDbSymbolTableRecord
100
AcDbBlockTableRecord
  2
*D5
340
0
  0
BLOCK_RECORD
  5
9BCC
330
1
100
AcDbSymbolTableRecord
100
AcDbBlockTableRecord
  2
*D6
340
0
  0
BLOCK_RECORD
  5
9BD8
330
1
100
AcDbSymbolTableRecord
100
AcDbBlockTableRecord
  2
*D7
340
0
  0
BLOCK_RECORD
  5
9BE4
330
1
100
AcDbSymbolTableRecord
100
AcDbBlockTableRecord
  2
*D8
340
0
  0
BLOCK_RECORD
  5
9BF0
330
1
100
AcDbSymbolTableRecord
100
AcDbBlockTableRecord
  2
*D9
340
0
  0
BLOCK_RECORD
  5
9BFC
330
1
100
AcDbSymbolTableRecord
100
AcDbBlockTableRecord
  2
*D10
340
0
  0
BLOCK_RECORD
  5
9C14
330
1
100
AcDbSymbolTableRecord
100
AcDbBlockTableRecord
  2
*D11
340
0
  0
BLOCK_RECORD
  5
9C20
330
1
100
AcDbSymbolTableRecord
100
AcDbBlockTableRecord
  2
*D12
340
0
  0
BLOCK_RECORD
  5
9C38
330
1
100
AcDbSymbolTableRecord
100
AcDbBlockTableRecord
  2
*D13
340
0
  0
BLOCK_RECORD
  5
9C52
330
1
100
AcDbSymbolTableRecord
100
AcDbBlockTableRecord
  2
*D14
340
0
  0
BLOCK_RECORD
  5
9C5E
330
1
100
AcDbSymbolTableRecord
100
AcDbBlockTableRecord
  2
*D15
340
0
  0
BLOCK_RECORD
  5
9C6A
330
1
100
AcDbSymbolTableRecord
100
AcDbBlockTableRecord
  2
*D16
340
0
  0
BLOCK_RECORD
  5
9C76
330
1
100
AcDbSymbolTableRecord
100
AcDbBlockTableRecord
  2
*D17
340
0
  0
BLOCK_RECORD
  5
9C82
330
1
100
AcDbSymbolTableRecord
100
AcDbBlockTableRecord
  2
*D18
340
0
  0
BLOCK_RECORD
  5
9C8E
330
1
100
AcDbSymbolTableRecord
100
AcDbBlockTableRecord
  2
*D19
340
0
  0
BLOCK_RECORD
  5
9C9A
330
1
100
AcDbSymbolTableRecord
100
AcDbBlockTableRecord
  2
*D20
340
0
  0
BLOCK_RECORD
  5
9CA6
330
1
100
AcDbSymbolTableRecord
100
AcDbBlockTableRecord
  2
*D21
340
0
  0
BLOCK_RECORD
  5
9CB2
330
1
100
AcDbSymbolTableRecord
100
AcDbBlockTableRecord
  2
*D22
340
0
  0
BLOCK_RECORD
  5
9CBE
330
1
100
AcDbSymbolTableRecord
100
AcDbBlockTableRecord
  2
*D23
340
0
  0
BLOCK_RECORD
  5
9CCA
330
1
100
AcDbSymbolTableRecord
100
AcDbBlockTableRecord
  2
*D24
340
0
  0
BLOCK_RECORD
  5
9CD6
330
1
100
AcDbSymbolTableRecord
100
AcDbBlockTableRecord
  2
*D25
340
0
  0
BLOCK_RECORD
  5
9CE2
330
1
100
AcDbSymbolTableRecord
100
AcDbBlockTableRecord
  2
*D26
340
0
  0
BLOCK_RECORD
  5
9CED
330
1
100
AcDbSymbolTableRecord
100
AcDbBlockTableRecord
  2
*D27
340
0
  0
BLOCK_RECORD
  5
9CF9
330
1
100
AcDbSymbolTableRecord
100
AcDbBlockTableRecord
  2
*D28
340
0
  0
BLOCK_RECORD
  5
9D07
330
1
100
AcDbSymbolTableRecord
100
AcDbBlockTableRecord
  2
*D29
340
0
  0
BLOCK_RECORD
  5
9D13
330
1
100
AcDbSymbolTableRecord
100
AcDbBlockTableRecord
  2
*D30
340
0
  0
BLOCK_RECORD
  5
9D1F
330
1
100
AcDbSymbolTableRecord
100
AcDbBlockTableRecord
  2
*D31
340
0
  0
BLOCK_RECORD
  5
9D2A
330
1
100
AcDbSymbolTableRecord
100
AcDbBlockTableRecord
  2
*D32
340
0
  0
BLOCK_RECORD
  5
9D35
330
1
100
AcDbSymbolTableRecord
100
AcDbBlockTableRecord
  2
*D33
340
0
  0
BLOCK_RECORD
  5
9D41
330
1
100
AcDbSymbolTableRecord
100
AcDbBlockTableRecord
  2
*D34
340
0
  0
BLOCK_RECORD
  5
9D4D
330
1
100
AcDbSymbolTableRecord
100
AcDbBlockTableRecord
  2
*D35
340
0
  0
BLOCK_RECORD
  5
9D59
330
1
100
AcDbSymbolTableRecord
100
AcDbBlockTableRecord
  2
*D36
340
0
  0
BLOCK_RECORD
  5
A00E
330
1
100
AcDbSymbolTableRecord
100
AcDbBlockTableRecord
  2
*D37
340
0
  0
BLOCK_RECORD
  5
A01A
330
1
100
AcDbSymbolTableRecord
100
AcDbBlockTableRecord
  2
*D38
340
0
  0
BLOCK_RECORD
  5
A026
330
1
100
AcDbSymbolTableRecord
100
AcDbBlockTableRecord
  2
*D39
340
0
  0
BLOCK_RECORD
  5
A032
330
1
100
AcDbSymbolTableRecord
100
AcDbBlockTableRecord
  2
*D40
340
0
  0
BLOCK_RECORD
  5
A04D
330
1
100
AcDbSymbolTableRecord
100
AcDbBlockTableRecord
  2
*D41
340
0
  0
BLOCK_RECORD
  5
A059
330
1
100
AcDbSymbolTableRecord
100
AcDbBlockTableRecord
  2
*D42
340
0
  0
BLOCK_RECORD
  5
A065
330
1
100
AcDbSymbolTableRecord
100
AcDbBlockTableRecord
  2
*D43
340
0
  0
BLOCK_RECORD
  5
A071
330
1
100
AcDbSymbolTableRecord
100
AcDbBlockTableRecord
  2
*D44
340
0
  0
BLOCK_RECORD
  5
A0C5
330
1
100
AcDbSymbolTableRecord
100
AcDbBlockTableRecord
  2
*U45
340
0
102
{BLKREFS
331
A11D
102
}
  0
BLOCK_RECORD
  5
A0C9
330
1
100
AcDbSymbolTableRecord
100
AcDbBlockTableRecord
  2
*U46
340
0
102
{BLKREFS
331
A11E
102
}
  0
BLOCK_RECORD
  5
A0CD
330
1
100
AcDbSymbolTableRecord
100
AcDbBlockTableRecord
  2
*D47
340
0
  0
BLOCK_RECORD
  5
A0D8
330
1
100
AcDbSymbolTableRecord
100
AcDbBlockTableRecord
  2
*D48
340
0
  0
BLOCK_RECORD
  5
A0E4
330
1
100
AcDbSymbolTableRecord
100
AcDbBlockTableRecord
  2
*D49
340
0
  0
BLOCK_RECORD
  5
A121
330
1
100
AcDbSymbolTableRecord
100
AcDbBlockTableRecord
  2
*D50
340
0
  0
BLOCK_RECORD
  5
A12C
330
1
100
AcDbSymbolTableRecord
100
AcDbBlockTableRecord
  2
*D51
340
0
  0
BLOCK_RECORD
  5
A138
330
1
100
AcDbSymbolTableRecord
100
AcDbBlockTableRecord
  2
*D52
340
0
  0
ENDTAB
  0
ENDSEC
  0
SECTION
  2
BLOCKS
  0
BLOCK
  5
1F
330
1E
100
AcDbEntity
  8
0
100
AcDbBlockBegin
  2
*MODEL_SPACE
 70
     0
 10
0.0
 20
0.0
 30
0.0
  3
*MODEL_SPACE
  1

  0
ENDBLK
  5
20
330
1E
100
AcDbEntity
  8
0
100
AcDbBlockEnd
  0
BLOCK
  5
1B
330
1A
100
AcDbEntity
 67
     1
  8
0
100
AcDbBlockBegin
  2
*PAPER_SPACE
 70
     0
 10
0.0
 20
0.0
 30
0.0
  3
*PAPER_SPACE
  1

  0
ENDBLK
  5
1C
330
1A
100
AcDbEntity
 67
     1
  8
0
100
AcDbBlockEnd
  0
BLOCK
  5
3B6
330
3B2
100
AcDbEntity
  8
0
100
AcDbBlockBegin
  2
_OPEN
 70
     0
 10
0.0
 20
0.0
 30
0.0
  3
_OPEN
  1

  0
LINE
  5
3B3
330
3B2
100
AcDbEntity
  8
30
  6
Continuous
 62
     0
100
AcDbLine
 10
-1.0
 20
0.166667
 30
0.0
 11
0.0
 21
0.0
 31
0.0
  0
LINE
  5
3B4
330
3B2
100
AcDbEntity
  8
30
  6
Continuous
 62
     0
100
AcDbLine
 10
-1.0
 20
-0.166667
 30
0.0
 11
0.0
 21
0.0
 31
0.0
  0
LINE
  5
3B5
330
3B2
100
AcDbEntity
  8
30
  6
Continuous
 62
     0
100
AcDbLine
 10
0.0
 20
0.0
 30
0.0
 11
-1.0
 21
0.0
 31
0.0
  0
ENDBLK
  5
3B7
330
3B2
100
AcDbEntity
  8
0
100
AcDbBlockEnd
  0
BLOCK
  5
9768
330
9767
100
AcDbEntity
  8
0
100
AcDbBlockBegin
  2
*U1
 70
     1
 10
0.0
 20
0.0
 30
0.0
  3
*U1
  1

  0
TEXT
  5
9769
330
9767
100
AcDbEntity
  8
16
100
AcDbText
 10
351.6754600000002
 20
69.06337833333329
 30
0.0
 40
6.25
  1
C
  7
blockfont
100
AcDbText
  0
ENDBLK
  5
976A
330
9767
100
AcDbEntity
  8
0
100
AcDbBlockEnd
  0
BLOCK
  5
976C
330
976B
100
AcDbEntity
  8
0
100
AcDbBlockBegin
  2
*U2
 70
     1
 10
0.0
 20
0.0
 30
0.0
  3
*U2
  1

  0
TEXT
  5
976D
330
976B
100
AcDbEntity
  8
16
100
AcDbText
 10
353.3824625
 20
66.65349083333332
 30
0.0
 40
6.25
  1
L
  7
blockfont
100
AcDbText
  0
ENDBLK
  5
976E
330
976B
100
AcDbEntity
  8
0
100
AcDbBlockEnd
  0
BLOCK
  5
9770
330
976F
100
AcDbEntity
  8
0
100
AcDbBlockBegin
  2
*U3
 70
     1
 10
0.0
 20
0.0
 30
0.0
  3
*U3
  1

  0
TEXT
  5
9771
330
976F
100
AcDbEntity
  8
16
100
AcDbText
 10
351.6754600000002
 20
69.06337833333329
 30
0.0
 40
6.25
  1
C
  7
blockfont
100
AcDbText
  0
ENDBLK
  5
9772
330
976F
100
AcDbEntity
  8
0
100
AcDbBlockEnd
  0
BLOCK
  5
9774
330
9773
100
AcDbEntity
  8
0
100
AcDbBlockBegin
  2
*U4
 70
     1
 10
0.0
 20
0.0
 30
0.0
  3
*U4
  1

  0
TEXT
  5
9775
330
9773
100
AcDbEntity
  8
16
100
AcDbText
 10
353.3824625
 20
66.65349083333332
 30
0.0
 40
6.25
  1
L
  7
blockfont
100
AcDbText
  0
ENDBLK
  5
9776
330
9773
100
AcDbEntity
  8
0
100
AcDbBlockEnd
  0
BLOCK
  5
9BB5
330
9BB4
100
AcDbEntity
  8
0
100
AcDbBlockBegin
  2
*D5
 70
     1
 10
0.0
 20
0.0
 30
0.0
  3
*D5
  1

  0
LINE
  5
9F08
330
9BB4
100
AcDbEntity
  8
30
  6
Continuous
 62
     0
370
    -2
100
AcDbLine
 10
297.0000000000009
 20
140.0
 30
0.0
 11
264.5
 21
140.0
 31
0.0
  0
LINE
  5
9F09
330
9BB4
100
AcDbEntity
  8
30
  6
Continuous
 62
     0
370
    -2
100
AcDbLine
 10
297.0000000000009
 20
-120.0
 30
0.0
 11
264.5
 21
-120.0
 31
0.0
  0
LINE
  5
9F0A
330
9BB4
100
AcDbEntity
  8
30
  6
Continuous
 62
     0
370
    -2
100
AcDbLine
 10
265.0000000000001
 20
138.0
 30
0.0
 11
265.0
 21
-118.0
 31
0.0
  0
INSERT
  5
9F0B
330
9BB4
100
AcDbEntity
  8
30
  6
Continuous
 62
     0
370
    -2
100
AcDbBlockReference
  2
_OPEN
 10
265.0000000000001
 20
140.0
 30
0.0
 41
2.0
 42
2.0
 43
2.0
 50
90.0
  0
INSERT
  5
9F0C
330
9BB4
100
AcDbEntity
  8
30
  6
Continuous
 62
     0
370
    -2
100
AcDbBlockReference
  2
_OPEN
 10
265.0
 20
-120.0
 30
0.0
 41
2.0
 42
2.0
 43
2.0
 50
270.0
  0
MTEXT
  5
9F0D
330
9BB4
100
AcDbEntity
  8
30
  6
Continuous
 62
     0
100
AcDbMText
 10
260.0
 20
10.00000000000005
 30
0.0
 40
6.0
 41
0.0
 71
     5
 72
     1
  1
\A1;260
 11
0.0000000000000001
 21
1.0
 31
0.0
 73
     1
 44
1.0
1001
ACAD
1000
MTEXTBEGIN
1070
    73
1070
     1
1070
    44
1040
1.0
1070
    74
1070
     0
1000
MTEXTEND
  0
POINT
  5
9F0E
330
9BB4
100
AcDbEntity
  8
DEFPOINTS
  6
Continuous
 62
     0
100
AcDbPoint
 10
300.0000000000008
 20
140.0
 30
0.0
  0
POINT
  5
9F0F
330
9BB4
100
AcDbEntity
  8
DEFPOINTS
  6
Continuous
 62
     0
100
AcDbPoint
 10
300.0000000000008
 20
-120.0
 30
0.0
  0
POINT
  5
9F10
330
9BB4
100
AcDbEntity
  8
DEFPOINTS
  6
Continuous
 62
     0
100
AcDbPoint
 10
265.0
 20
-120.0
 30
0.0
  0
ENDBLK
  5
9BB6
330
9BB4
100
AcDbEntity
  8
0
100
AcDbBlockEnd
  0
BLOCK
  5
9BCD
330
9BCC
100
AcDbEntity
  8
0
100
AcDbBlockBegin
  2
*D6
 70
     1
 10
0.0
 20
0.0
 30
0.0
  3
*D6
  1

  0
LINE
  5
9EE4
330
9BCC
100
AcDbEntity
  8
30
  6
Continuous
 62
     0
370
    -2
100
AcDbLine
 10
325.0
 20
-116.0000000000002
 30
0.0
 11
325.0
 21
-140.5
 31
0.0
  0
LINE
  5
9EE5
330
9BCC
100
AcDbEntity
  8
30
  6
Continuous
 62
     0
370
    -2
100
AcDbLine
 10
415.0
 20
-116.0000000000002
 30
0.0
 11
415.0
 21
-140.5
 31
0.0
  0
LINE
  5
9EE6
330
9BCC
100
AcDbEntity
  8
30
  6
Continuous
 62
     0
370
    -2
100
AcDbLine
 10
327.0
 20
-140.0
 30
0.0
 11
413.0
 21
-140.0
 31
0.0
  0
INSERT
  5
9EE7
330
9BCC
100
AcDbEntity
  8
30
  6
Continuous
 62
     0
370
    -2
100
AcDbBlockReference
  2
_OPEN
 10
325.0
 20
-140.0
 30
0.0
 41
2.0
 42
2.0
 43
2.0
 50
180.0
  0
INSERT
  5
9EE8
330
9BCC
100
AcDbEntity
  8
30
  6
Continuous
 62
     0
370
    -2
100
AcDbBlockReference
  2
_OPEN
 10
415.0
 20
-140.0
 30
0.0
 41
2.0
 42
2.0
 43
2.0
  0
MTEXT
  5
9EE9
330
9BCC
100
AcDbEntity
  8
30
  6
Continuous
 62
     0
100
AcDbMText
 10
370.0
 20
-135.0
 30
0.0
 40
6.0
 41
0.0
 71
     5
 72
     1
  1
\A1;90
 73
     1
 44
1.0
1001
ACAD
1000
MTEXTBEGIN
1070
    73
1070
     1
1070
    44
1040
1.0
1070
    74
1070
     0
1000
MTEXTEND
  0
POINT
  5
9EEA
330
9BCC
100
AcDbEntity
  8
DEFPOINTS
  6
Continuous
 62
     0
100
AcDbPoint
 10
325.0
 20
-113.0000000000002
 30
0.0
  0
POINT
  5
9EEB
330
9BCC
100
AcDbEntity
  8
DEFPOINTS
  6
Continuous
 62
     0
100
AcDbPoint
 10
415.0
 20
-113.0000000000002
 30
0.0
  0
POINT
  5
9EEC
330
9BCC
100
AcDbEntity
  8
DEFPOINTS
  6
Continuous
 62
     0
100
AcDbPoint
 10
415.0
 20
-140.0
 30
0.0
  0
ENDBLK
  5
9BCE
330
9BCC
100
AcDbEntity
  8
0
100
AcDbBlockEnd
  0
BLOCK
  5
9BD9
330
9BD8
100
AcDbEntity
  8
0
100
AcDbBlockBegin
  2
*D7
 70
     1
 10
0.0
 20
0.0
 30
0.0
  3
*D7
  1

  0
LINE
  5
9F74
330
9BD8
100
AcDbEntity
  8
30
  6
Continuous
 62
     0
370
    -2
100
AcDbLine
 10
667.0
 20
-152.8060655566291
 30
0.0
 11
667.0
 21
-150.5
 31
0.0
  0
LINE
  5
9F75
330
9BD8
100
AcDbEntity
  8
30
  6
Continuous
 62
     0
370
    -2
100
AcDbLine
 10
770.0
 20
-143.0
 30
0.0
 11
770.0
 21
-150.5
 31
0.0
  0
LINE
  5
9F76
330
9BD8
100
AcDbEntity
  8
30
  6
Continuous
 62
     0
370
    -2
100
AcDbLine
 10
669.0
 20
-150.0
 30
0.0
 11
768.0
 21
-150.0
 31
0.0
  0
INSERT
  5
9F77
330
9BD8
100
AcDbEntity
  8
30
  6
Continuous
 62
     0
370
    -2
100
AcDbBlockReference
  2
_OPEN
 10
667.0
 20
-150.0
 30
0.0
 41
2.0
 42
2.0
 43
2.0
 50
180.0
  0
INSERT
  5
9F78
330
9BD8
100
AcDbEntity
  8
30
  6
Continuous
 62
     0
370
    -2
100
AcDbBlockReference
  2
_OPEN
 10
770.0
 20
-150.0
 30
0.0
 41
2.0
 42
2.0
 43
2.0
  0
MTEXT
  5
9F79
330
9BD8
100
AcDbEntity
  8
30
  6
Continuous
 62
     0
100
AcDbMText
 10
718.5
 20
-145.0
 30
0.0
 40
6.0
 41
0.0
 71
     5
 72
     1
  1
\A1;103
 73
     1
 44
1.0
1001
ACAD
1000
MTEXTBEGIN
1070
    73
1070
     1
1070
    44
1040
1.0
1070
    74
1070
     0
1000
MTEXTEND
  0
POINT
  5
9F7A
330
9BD8
100
AcDbEntity
  8
DEFPOINTS
  6
Continuous
 62
     0
100
AcDbPoint
 10
667.0
 20
-149.806065556629
 30
0.0
  0
POINT
  5
9F7B
330
9BD8
100
AcDbEntity
  8
DEFPOINTS
  6
Continuous
 62
     0
100
AcDbPoint
 10
770.0
 20
-140.0
 30
0.0
  0
POINT
  5
9F7C
330
9BD8
100
AcDbEntity
  8
DEFPOINTS
  6
Continuous
 62
     0
100
AcDbPoint
 10
770.0
 20
-150.0
 30
0.0
  0
ENDBLK
  5
9BDA
330
9BD8
100
AcDbEntity
  8
0
100
AcDbBlockEnd
  0
BLOCK
  5
9BE5
330
9BE4
100
AcDbEntity
  8
0
100
AcDbBlockBegin
  2
*D8
 70
     1
 10
0.0
 20
0.0
 30
0.0
  3
*D8
  1

  0
LINE
  5
9F7D
330
9BE4
100
AcDbEntity
  8
30
  6
Continuous
 62
     0
370
    -2
100
AcDbLine
 10
659.0
 20
-38.00000000000011
 30
0.0
 11
659.0
 21
-150.5
 31
0.0
  0
LINE
  5
9F7E
330
9BE4
100
AcDbEntity
  8
30
  6
Continuous
 62
     0
370
    -2
100
AcDbLine
 10
667.0
 20
-44.00000000000011
 30
0.0
 11
667.0
 21
-150.5
 31
0.0
  0
LINE
  5
9F7F
330
9BE4
100
AcDbEntity
  8
30
  6
Continuous
 62
     0
370
    -2
100
AcDbLine
 10
661.0
 20
-150.0
 30
0.0
 11
665.0
 21
-150.0
 31
0.0
  0
INSERT
  5
9F80
330
9BE4
100
AcDbEntity
  8
30
  6
Continuous
 62
     0
370
    -2
100
AcDbBlockReference
  2
_OPEN
 10
659.0
 20
-150.0
 30
0.0
 41
2.0
 42
2.0
 43
2.0
 50
180.0
  0
INSERT
  5
9F81
330
9BE4
100
AcDbEntity
  8
30
  6
Continuous
 62
     0
370
    -2
100
AcDbBlockReference
  2
_OPEN
 10
667.0
 20
-150.0
 30
0.0
 41
2.0
 42
2.0
 43
2.0
  0
MTEXT
  5
9F82
330
9BE4
100
AcDbEntity
  8
30
  6
Continuous
 62
     0
100
AcDbMText
 10
663.0
 20
-145.0
 30
0.0
 40
6.0
 41
0.0
 71
     5
 72
     1
  1
\A1;8
 73
     1
 44
1.0
1001
ACAD
1000
MTEXTBEGIN
1070
    73
1070
     1
1070
    44
1040
1.0
1070
    74
1070
     0
1000
MTEXTEND
  0
POINT
  5
9F83
330
9BE4
100
AcDbEntity
  8
DEFPOINTS
  6
Continuous
 62
     0
100
AcDbPoint
 10
659.0
 20
-35.00000000000011
 30
0.0
  0
POINT
  5
9F84
330
9BE4
100
AcDbEntity
  8
DEFPOINTS
  6
Continuous
 62
     0
100
AcDbPoint
 10
667.0
 20
-41.00000000000011
 30
0.0
  0
POINT
  5
9F85
330
9BE4
100
AcDbEntity
  8
DEFPOINTS
  6
Continuous
 62
     0
100
AcDbPoint
 10
667.0
 20
-150.0
 30
0.0
  0
ENDBLK
  5
9BE6
330
9BE4
100
AcDbEntity
  8
0
100
AcDbBlockEnd
  0
BLOCK
  5
9BF1
330
9BF0
100
AcDbEntity
  8
0
100
AcDbBlockBegin
  2
*D9
 70
     1
 10
0.0
 20
0.0
 30
0.0
  3
*D9
  1

  0
LINE
  5
9F86
330
9BF0
100
AcDbEntity
  8
30
  6
Continuous
 62
     0
370
    -2
100
AcDbLine
 10
625.0
 20
6.999999999999772
 30
0.0
 11
625.0
 21
-170.5
 31
0.0
  0
LINE
  5
9F87
330
9BF0
100
AcDbEntity
  8
30
  6
Continuous
 62
     0
370
    -2
100
AcDbLine
 10
770.0
 20
-123.0
 30
0.0
 11
770.0
 21
-170.5
 31
0.0
  0
LINE
  5
9F88
330
9BF0
100
AcDbEntity
  8
30
  6
Continuous
 62
     0
370
    -2
100
AcDbLine
 10
627.0
 20
-170.0
 30
0.0
 11
768.0
 21
-170.0
 31
0.0
  0
INSERT
  5
9F89
330
9BF0
100
AcDbEntity
  8
30
  6
Continuous
 62
     0
370
    -2
100
AcDbBlockReference
  2
_OPEN
 10
625.0
 20
-170.0
 30
0.0
 41
2.0
 42
2.0
 43
2.0
 50
180.0
  0
INSERT
  5
9F8A
330
9BF0
100
AcDbEntity
  8
30
  6
Continuous
 62
     0
370
    -2
100
AcDbBlockReference
  2
_OPEN
 10
770.0
 20
-170.0
 30
0.0
 41
2.0
 42
2.0
 43
2.0
  0
MTEXT
  5
9F8B
330
9BF0
100
AcDbEntity
  8
30
  6
Continuous
 62
     0
100
AcDbMText
 10
697.5
 20
-165.0
 30
0.0
 40
6.0
 41
0.0
 71
     5
 72
     1
  1
\A1;145
 73
     1
 44
1.0
1001
ACAD
1000
MTEXTBEGIN
1070
    73
1070
     1
1070
    44
1040
1.0
1070
    74
1070
     0
1000
MTEXTEND
  0
POINT
  5
9F8C
330
9BF0
100
AcDbEntity
  8
DEFPOINTS
  6
Continuous
 62
     0
100
AcDbPoint
 10
625.0
 20
9.999999999999772
 30
0.0
  0
POINT
  5
9F8D
330
9BF0
100
AcDbEntity
  8
DEFPOINTS
  6
Continuous
 62
     0
100
AcDbPoint
 10
770.0
 20
-120.0
 30
0.0
  0
POINT
  5
9F8E
330
9BF0
100
AcDbEntity
  8
DEFPOINTS
  6
Continuous
 62
     0
100
AcDbPoint
 10
770.0
 20
-170.0
 30
0.0
  0
ENDBLK
  5
9BF2
330
9BF0
100
AcDbEntity
  8
0
100
AcDbBlockEnd
  0
BLOCK
  5
9BFD
330
9BFC
100
AcDbEntity
  8
0
100
AcDbBlockBegin
  2
*D10
 70
     1
 10
0.0
 20
0.0
 30
0.0
  3
*D10
  1

  0
LINE
  5
9EED
330
9BFC
100
AcDbEntity
  8
30
  6
Continuous
 62
     0
370
    -2
100
AcDbLine
 10
300.0000000000008
 20
-123.0
 30
0.0
 11
300.0000000000008
 21
-150.5
 31
0.0
  0
LINE
  5
9EEE
330
9BFC
100
AcDbEntity
  8
30
  6
Continuous
 62
     0
370
    -2
100
AcDbLine
 10
440.0
 20
-123.0
 30
0.0
 11
440.0
 21
-150.5
 31
0.0
  0
LINE
  5
9EEF
330
9BFC
100
AcDbEntity
  8
30
  6
Continuous
 62
     0
370
    -2
100
AcDbLine
 10
302.0000000000008
 20
-150.0
 30
0.0
 11
438.0
 21
-150.0
 31
0.0
  0
INSERT
  5
9EF0
330
9BFC
100
AcDbEntity
  8
30
  6
Continuous
 62
     0
370
    -2
100
AcDbBlockReference
  2
_OPEN
 10
300.0000000000008
 20
-150.0
 30
0.0
 41
2.0
 42
2.0
 43
2.0
 50
180.0
  0
INSERT
  5
9EF1
330
9BFC
100
AcDbEntity
  8
30
  6
Continuous
 62
     0
370
    -2
100
AcDbBlockReference
  2
_OPEN
 10
440.0
 20
-150.0
 30
0.0
 41
2.0
 42
2.0
 43
2.0
  0
MTEXT
  5
9EF2
330
9BFC
100
AcDbEntity
  8
30
  6
Continuous
 62
     0
100
AcDbMText
 10
370.0000000000005
 20
-145.0
 30
0.0
 40
6.0
 41
0.0
 71
     5
 72
     1
  1
\A1;140
 73
     1
 44
1.0
1001
ACAD
1000
MTEXTBEGIN
1070
    73
1070
     1
1070
    44
1040
1.0
1070
    74
1070
     0
1000
MTEXTEND
  0
POINT
  5
9EF3
330
9BFC
100
AcDbEntity
  8
DEFPOINTS
  6
Continuous
 62
     0
100
AcDbPoint
 10
300.0000000000008
 20
-120.0
 30
0.0
  0
POINT
  5
9EF4
330
9BFC
100
AcDbEntity
  8
DEFPOINTS
  6
Continuous
 62
     0
100
AcDbPoint
 10
440.0
 20
-120.0
 30
0.0
  0
POINT
  5
9EF5
330
9BFC
100
AcDbEntity
  8
DEFPOINTS
  6
Continuous
 62
     0
100
AcDbPoint
 10
440.0
 20
-150.0
 30
0.0
  0
ENDBLK
  5
9BFE
330
9BFC
100
AcDbEntity
  8
0
100
AcDbBlockEnd
  0
BLOCK
  5
9C15
330
9C14
100
AcDbEntity
  8
0
100
AcDbBlockBegin
  2
*D11
 70
     1
 10
0.0
 20
0.0
 30
0.0
  3
*D11
  1

  0
LINE
  5
9DB6
330
9C14
100
AcDbEntity
  8
30
 62
     0
370
    -2
100
AcDbLine
 10
656.0
 20
-35.00000000000011
 30
0.0
 11
599.5
 21
-35.00000000000009
 31
0.0
  0
LINE
  5
9DB7
330
9C14
100
AcDbEntity
  8
30
 62
     0
370
    -2
100
AcDbLine
 10
656.0
 20
55.0
 30
0.0
 11
599.5
 21
55.00000000000002
 31
0.0
  0
LINE
  5
9DB8
330
9C14
100
AcDbEntity
  8
30
 62
     0
370
    -2
100
AcDbLine
 10
600.0
 20
-33.0000000000001
 30
0.0
 11
600.0
 21
53.00000000000002
 31
0.0
  0
INSERT
  5
9DB9
330
9C14
100
AcDbEntity
  8
30
 62
     0
370
    -2
100
AcDbBlockReference
  2
_OPEN
 10
600.0
 20
-35.00000000000009
 30
0.0
 41
2.0
 42
2.0
 43
2.0
 50
270.0
  0
INSERT
  5
9DBA
330
9C14
100
AcDbEntity
  8
30
 62
     0
370
    -2
100
AcDbBlockReference
  2
_OPEN
 10
600.0
 20
55.00000000000002
 30
0.0
 41
2.0
 42
2.0
 43
2.0
 50
90.0
  0
MTEXT
  5
9DBB
330
9C14
100
AcDbEntity
  8
30
 62
     0
100
AcDbMText
 10
595.0
 20
10.00000000000006
 30
0.0
 40
6.0
 41
0.0
 71
     5
 72
     1
  1
\A1; 90 
 11
0.0000000000000001
 21
1.0
 31
0.0
 73
     1
 44
1.0
1001
ACAD
1000
MTEXTBEGIN
1070
    73
1070
     1
1070
    44
1040
1.0
1070
    74
1070
     0
1000
MTEXTEND
  0
POINT
  5
9DBC
330
9C14
100
AcDbEntity
  8
DEFPOINTS
 62
     0
100
AcDbPoint
 10
659.0
 20
-35.00000000000011
 30
0.0
  0
POINT
  5
9DBD
330
9C14
100
AcDbEntity
  8
DEFPOINTS
 62
     0
100
AcDbPoint
 10
659.0
 20
55.0
 30
0.0
  0
POINT
  5
9DBE
330
9C14
100
AcDbEntity
  8
DEFPOINTS
 62
     0
100
AcDbPoint
 10
600.0
 20
55.00000000000002
 30
0.0
  0
ENDBLK
  5
9C16
330
9C14
100
AcDbEntity
  8
0
100
AcDbBlockEnd
  0
BLOCK
  5
9C21
330
9C20
100
AcDbEntity
  8
0
100
AcDbBlockBegin
  2
*D12
 70
     1
 10
0.0
 20
0.0
 30
0.0
  3
*D12
  1

  0
LINE
  5
9DBF
330
9C20
100
AcDbEntity
  8
30
 62
     0
370
    -2
100
AcDbLine
 10
664.0
 20
-41.0
 30
0.0
 11
589.5
 21
-40.99999999999996
 31
0.0
  0
LINE
  5
9DC0
330
9C20
100
AcDbEntity
  8
30
 62
     0
370
    -2
100
AcDbLine
 10
664.0
 20
61.0
 30
0.0
 11
589.5
 21
61.00000000000003
 31
0.0
  0
LINE
  5
9DC1
330
9C20
100
AcDbEntity
  8
30
 62
     0
370
    -2
100
AcDbLine
 10
590.0
 20
-38.99999999999997
 30
0.0
 11
590.0
 21
59.00000000000003
 31
0.0
  0
INSERT
  5
9DC2
330
9C20
100
AcDbEntity
  8
30
 62
     0
370
    -2
100
AcDbBlockReference
  2
_OPEN
 10
590.0
 20
-40.99999999999996
 30
0.0
 41
2.0
 42
2.0
 43
2.0
 50
270.0
  0
INSERT
  5
9DC3
330
9C20
100
AcDbEntity
  8
30
 62
     0
370
    -2
100
AcDbBlockReference
  2
_OPEN
 10
590.0
 20
61.00000000000003
 30
0.0
 41
2.0
 42
2.0
 43
2.0
 50
90.0
  0
MTEXT
  5
9DC4
330
9C20
100
AcDbEntity
  8
30
 62
     0
100
AcDbMText
 10
585.0
 20
10.00000000000012
 30
0.0
 40
6.0
 41
0.0
 71
     5
 72
     1
  1
\A1; 102 
 11
0.0000000000000001
 21
1.0
 31
0.0
 73
     1
 44
1.0
1001
ACAD
1000
MTEXTBEGIN
1070
    73
1070
     1
1070
    44
1040
1.0
1070
    74
1070
     0
1000
MTEXTEND
  0
POINT
  5
9DC5
330
9C20
100
AcDbEntity
  8
DEFPOINTS
 62
     0
100
AcDbPoint
 10
667.0
 20
-41.0
 30
0.0
  0
POINT
  5
9DC6
330
9C20
100
AcDbEntity
  8
DEFPOINTS
 62
     0
100
AcDbPoint
 10
667.0
 20
61.0
 30
0.0
  0
POINT
  5
9DC7
330
9C20
100
AcDbEntity
  8
DEFPOINTS
 62
     0
100
AcDbPoint
 10
590.0
 20
61.00000000000003
 30
0.0
  0
ENDBLK
  5
9C22
330
9C20
100
AcDbEntity
  8
0
100
AcDbBlockEnd
  0
BLOCK
  5
9C39
330
9C38
100
AcDbEntity
  8
0
100
AcDbBlockBegin
  2
*D13
 70
     1
 10
0.0
 20
0.0
 30
0.0
  3
*D13
  1

  0
LINE
  5
9F8F
330
9C38
100
AcDbEntity
  8
30
  6
Continuous
 62
     0
370
    -2
100
AcDbLine
 10
672.9999999999997
 20
-123.0
 30
0.0
 11
672.9999999999997
 21
-140.5
 31
0.0
  0
LINE
  5
9F90
330
9C38
100
AcDbEntity
  8
30
  6
Continuous
 62
     0
370
    -2
100
AcDbLine
 10
770.0
 20
-137.0
 30
0.0
 11
770.0
 21
-139.5
 31
0.0
  0
LINE
  5
9F91
330
9C38
100
AcDbEntity
  8
30
  6
Continuous
 62
     0
370
    -2
100
AcDbLine
 10
674.9999999999998
 20
-140.0
 30
0.0
 11
768.0
 21
-140.0
 31
0.0
  0
INSERT
  5
9F92
330
9C38
100
AcDbEntity
  8
30
  6
Continuous
 62
     0
370
    -2
100
AcDbBlockReference
  2
_OPEN
 10
672.9999999999997
 20
-140.0
 30
0.0
 41
2.0
 42
2.0
 43
2.0
 50
180.0
  0
INSERT
  5
9F93
330
9C38
100
AcDbEntity
  8
30
  6
Continuous
 62
     0
370
    -2
100
AcDbBlockReference
  2
_OPEN
 10
770.0
 20
-140.0
 30
0.0
 41
2.0
 42
2.0
 43
2.0
  0
MTEXT
  5
9F94
330
9C38
100
AcDbEntity
  8
30
  6
Continuous
 62
     0
100
AcDbMText
 10
721.4999999999996
 20
-135.0
 30
0.0
 40
6.0
 41
0.0
 71
     5
 72
     1
  1
\A1;97
 73
     1
 44
1.0
1001
ACAD
1000
MTEXTBEGIN
1070
    73
1070
     1
1070
    44
1040
1.0
1070
    74
1070
     0
1000
MTEXTEND
  0
POINT
  5
9F95
330
9C38
100
AcDbEntity
  8
DEFPOINTS
  6
Continuous
 62
     0
100
AcDbPoint
 10
672.9999999999997
 20
-120.0
 30
0.0
  0
POINT
  5
9F96
330
9C38
100
AcDbEntity
  8
DEFPOINTS
  6
Continuous
 62
     0
100
AcDbPoint
 10
770.0
 20
-140.0
 30
0.0
  0
POINT
  5
9F97
330
9C38
100
AcDbEntity
  8
DEFPOINTS
  6
Continuous
 62
     0
100
AcDbPoint
 10
770.0
 20
-140.0
 30
0.0
  0
ENDBLK
  5
9C3A
330
9C38
100
AcDbEntity
  8
0
100
AcDbBlockEnd
  0
BLOCK
  5
9C53
330
9C52
100
AcDbEntity
  8
0
100
AcDbBlockBegin
  2
*D14
 70
     1
 10
0.0
 20
0.0
 30
0.0
  3
*D14
  1

  0
LINE
  5
9F98
330
9C52
100
AcDbEntity
  8
30
  6
Continuous
 62
     0
370
    -2
100
AcDbLine
 10
642.4999999999998
 20
6.999999999999886
 30
0.0
 11
642.4999999999998
 21
-160.5
 31
0.0
  0
LINE
  5
9F99
330
9C52
100
AcDbEntity
  8
30
  6
Continuous
 62
     0
370
    -2
100
AcDbLine
 10
770.0
 20
-123.0
 30
0.0
 11
770.0
 21
-160.5
 31
0.0
  0
LINE
  5
9F9A
330
9C52
100
AcDbEntity
  8
30
  6
Continuous
 62
     0
370
    -2
100
AcDbLine
 10
644.5
 20
-160.0
 30
0.0
 11
768.0
 21
-160.0
 31
0.0
  0
INSERT
  5
9F9B
330
9C52
100
AcDbEntity
  8
30
  6
Continuous
 62
     0
370
    -2
100
AcDbBlockReference
  2
_OPEN
 10
642.4999999999998
 20
-160.0
 30
0.0
 41
2.0
 42
2.0
 43
2.0
 50
180.0
  0
INSERT
  5
9F9C
330
9C52
100
AcDbEntity
  8
30
  6
Continuous
 62
     0
370
    -2
100
AcDbBlockReference
  2
_OPEN
 10
770.0
 20
-160.0
 30
0.0
 41
2.0
 42
2.0
 43
2.0
  0
MTEXT
  5
9F9D
330
9C52
100
AcDbEntity
  8
30
  6
Continuous
 62
     0
100
AcDbMText
 10
706.25
 20
-155.0
 30
0.0
 40
6.0
 41
0.0
 71
     5
 72
     1
  1
\A1;127.5
 73
     1
 44
1.0
1001
ACAD
1000
MTEXTBEGIN
1070
    73
1070
     1
1070
    44
1040
1.0
1070
    74
1070
     0
1000
MTEXTEND
  0
POINT
  5
9F9E
330
9C52
100
AcDbEntity
  8
DEFPOINTS
  6
Continuous
 62
     0
100
AcDbPoint
 10
642.4999999999998
 20
9.999999999999886
 30
0.0
  0
POINT
  5
9F9F
330
9C52
100
AcDbEntity
  8
DEFPOINTS
  6
Continuous
 62
     0
100
AcDbPoint
 10
770.0
 20
-120.0
 30
0.0
  0
POINT
  5
9FA0
330
9C52
100
AcDbEntity
  8
DEFPOINTS
  6
Continuous
 62
     0
100
AcDbPoint
 10
770.0
 20
-160.0
 30
0.0
  0
ENDBLK
  5
9C54
330
9C52
100
AcDbEntity
  8
0
100
AcDbBlockEnd
  0
BLOCK
  5
9C5F
330
9C5E
100
AcDbEntity
  8
0
100
AcDbBlockBegin
  2
*D15
 70
     1
 10
0.0
 20
0.0
 30
0.0
  3
*D15
  1

  0
LINE
  5
9DEE
330
9C5E
100
AcDbEntity
  8
30
 62
     0
370
    -2
100
AcDbLine
 10
312.0000000000008
 20
53.0
 30
0.0
 11
312.0000000000008
 21
70.5
 31
0.0
  0
LINE
  5
9DEF
330
9C5E
100
AcDbEntity
  8
30
 62
     0
370
    -2
100
AcDbLine
 10
428.0
 20
53.0
 30
0.0
 11
428.0
 21
70.5
 31
0.0
  0
LINE
  5
9DF0
330
9C5E
100
AcDbEntity
  8
30
 62
     0
370
    -2
100
AcDbLine
 10
314.0000000000009
 20
70.0
 30
0.0
 11
426.0
 21
70.0
 31
0.0
  0
INSERT
  5
9DF1
330
9C5E
100
AcDbEntity
  8
30
 62
     0
370
    -2
100
AcDbBlockReference
  2
_OPEN
 10
312.0000000000008
 20
70.0
 30
0.0
 41
2.0
 42
2.0
 43
2.0
 50
180.0
  0
INSERT
  5
9DF2
330
9C5E
100
AcDbEntity
  8
30
 62
     0
370
    -2
100
AcDbBlockReference
  2
_OPEN
 10
428.0
 20
70.0
 30
0.0
 41
2.0
 42
2.0
 43
2.0
  0
MTEXT
  5
9DF3
330
9C5E
100
AcDbEntity
  8
30
 62
     0
100
AcDbMText
 10
390.0000000000005
 20
75.0
 30
0.0
 40
6.0
 41
0.0
 71
     5
 72
     1
  1
\A1; 116 
 73
     1
 44
1.0
1001
ACAD
1000
MTEXTBEGIN
1070
    73
1070
     1
1070
    44
1040
1.0
1070
    74
1070
     0
1000
MTEXTEND
  0
POINT
  5
9DF4
330
9C5E
100
AcDbEntity
  8
DEFPOINTS
 62
     0
100
AcDbPoint
 10
312.0000000000008
 20
50.0
 30
0.0
  0
POINT
  5
9DF5
330
9C5E
100
AcDbEntity
  8
DEFPOINTS
 62
     0
100
AcDbPoint
 10
428.0
 20
50.0
 30
0.0
  0
POINT
  5
9DF6
330
9C5E
100
AcDbEntity
  8
DEFPOINTS
 62
     0
100
AcDbPoint
 10
428.0
 20
70.0
 30
0.0
  0
ENDBLK
  5
9C60
330
9C5E
100
AcDbEntity
  8
0
100
AcDbBlockEnd
  0
BLOCK
  5
9C6B
330
9C6A
100
AcDbEntity
  8
0
100
AcDbBlockBegin
  2
*D16
 70
     1
 10
0.0
 20
0.0
 30
0.0
  3
*D16
  1

  0
LINE
  5
9DF7
330
9C6A
100
AcDbEntity
  8
30
 62
     0
370
    -2
100
AcDbLine
 10
344.5000000000009
 20
-38.0
 30
0.0
 11
344.5000000000009
 21
-60.5
 31
0.0
  0
LINE
  5
9DF8
330
9C6A
100
AcDbEntity
  8
30
 62
     0
370
    -2
100
AcDbLine
 10
395.5
 20
-38.0
 30
0.0
 11
395.5
 21
-60.5
 31
0.0
  0
LINE
  5
9DF9
330
9C6A
100
AcDbEntity
  8
30
 62
     0
370
    -2
100
AcDbLine
 10
346.5000000000009
 20
-60.0
 30
0.0
 11
393.5
 21
-60.0
 31
0.0
  0
INSERT
  5
9DFA
330
9C6A
100
AcDbEntity
  8
30
 62
     0
370
    -2
100
AcDbBlockReference
  2
_OPEN
 10
344.5000000000009
 20
-60.0
 30
0.0
 41
2.0
 42
2.0
 43
2.0
 50
180.0
  0
INSERT
  5
9DFB
330
9C6A
100
AcDbEntity
  8
30
 62
     0
370
    -2
100
AcDbBlockReference
  2
_OPEN
 10
395.5
 20
-60.0
 30
0.0
 41
2.0
 42
2.0
 43
2.0
  0
MTEXT
  5
9DFC
330
9C6A
100
AcDbEntity
  8
30
 62
     0
100
AcDbMText
 10
380.0000000000005
 20
-55.0
 30
0.0
 40
6.0
 41
0.0
 71
     5
 72
     1
  1
\A1; 51 
 73
     1
 44
1.0
1001
ACAD
1000
MTEXTBEGIN
1070
    73
1070
     1
1070
    44
1040
1.0
1070
    74
1070
     0
1000
MTEXTEND
  0
POINT
  5
9DFD
330
9C6A
100
AcDbEntity
  8
DEFPOINTS
 62
     0
100
AcDbPoint
 10
344.5000000000009
 20
-35.0
 30
0.0
  0
POINT
  5
9DFE
330
9C6A
100
AcDbEntity
  8
DEFPOINTS
 62
     0
100
AcDbPoint
 10
395.5
 20
-35.0
 30
0.0
  0
POINT
  5
9DFF
330
9C6A
100
AcDbEntity
  8
DEFPOINTS
 62
     0
100
AcDbPoint
 10
395.5
 20
-60.0
 30
0.0
  0
ENDBLK
  5
9C6C
330
9C6A
100
AcDbEntity
  8
0
100
AcDbBlockEnd
  0
BLOCK
  5
9C77
330
9C76
100
AcDbEntity
  8
0
100
AcDbBlockBegin
  2
*D17
 70
     1
 10
0.0
 20
0.0
 30
0.0
  3
*D17
  1

  0
LINE
  5
9EF6
330
9C76
100
AcDbEntity
  8
30
  6
Continuous
 62
     0
370
    -2
100
AcDbLine
 10
443.0
 20
140.0
 30
0.0
 11
500.4999999999998
 21
139.9999999999999
 31
0.0
  0
LINE
  5
9EF7
330
9C76
100
AcDbEntity
  8
30
  6
Continuous
 62
     0
370
    -2
100
AcDbLine
 10
443.0
 20
-120.0
 30
0.0
 11
500.4999999999998
 21
-120.0
 31
0.0
  0
LINE
  5
9EF8
330
9C76
100
AcDbEntity
  8
30
  6
Continuous
 62
     0
370
    -2
100
AcDbLine
 10
500.0
 20
137.9999999999999
 30
0.0
 11
500.0
 21
-118.0
 31
0.0
  0
INSERT
  5
9EF9
330
9C76
100
AcDbEntity
  8
30
  6
Continuous
 62
     0
370
    -2
100
AcDbBlockReference
  2
_OPEN
 10
500.0
 20
139.9999999999999
 30
0.0
 41
2.0
 42
2.0
 43
2.0
 50
90.0
  0
INSERT
  5
9EFA
330
9C76
100
AcDbEntity
  8
30
  6
Continuous
 62
     0
370
    -2
100
AcDbBlockReference
  2
_OPEN
 10
500.0
 20
-120.0
 30
0.0
 41
2.0
 42
2.0
 43
2.0
 50
270.0
  0
MTEXT
  5
9EFB
330
9C76
100
AcDbEntity
  8
30
  6
Continuous
 62
     0
100
AcDbMText
 10
495.0
 20
10.00000000000006
 30
0.0
 40
6.0
 41
0.0
 71
     5
 72
     1
  1
\A1;260
 11
0.0000000000000001
 21
1.0
 31
0.0
 73
     1
 44
1.0
1001
ACAD
1000
MTEXTBEGIN
1070
    73
1070
     1
1070
    44
1040
1.0
1070
    74
1070
     0
1000
MTEXTEND
  0
POINT
  5
9EFC
330
9C76
100
AcDbEntity
  8
DEFPOINTS
  6
Continuous
 62
     0
100
AcDbPoint
 10
440.0
 20
140.0
 30
0.0
  0
POINT
  5
9EFD
330
9C76
100
AcDbEntity
  8
DEFPOINTS
  6
Continuous
 62
     0
100
AcDbPoint
 10
440.0
 20
-120.0
 30
0.0
  0
POINT
  5
9EFE
330
9C76
100
AcDbEntity
  8
DEFPOINTS
  6
Continuous
 62
     0
100
AcDbPoint
 10
500.0
 20
-120.0
 30
0.0
  0
ENDBLK
  5
9C78
330
9C76
100
AcDbEntity
  8
0
100
AcDbBlockEnd
  0
BLOCK
  5
9C83
330
9C82
100
AcDbEntity
  8
0
100
AcDbBlockBegin
  2
*D18
 70
     1
 10
0.0
 20
0.0
 30
0.0
  3
*D18
  1

  0
LINE
  5
9EFF
330
9C82
100
AcDbEntity
  8
30
  6
Continuous
 62
     0
370
    -2
100
AcDbLine
 10
397.5000000000008
 20
250.0
 30
0.0
 11
500.4999999999998
 21
250.0
 31
0.0
  0
LINE
  5
9F00
330
9C82
100
AcDbEntity
  8
30
  6
Continuous
 62
     0
370
    -2
100
AcDbLine
 10
443.0
 20
140.0
 30
0.0
 11
500.4999999999998
 21
139.9999999999999
 31
0.0
  0
LINE
  5
9F01
330
9C82
100
AcDbEntity
  8
30
  6
Continuous
 62
     0
370
    -2
100
AcDbLine
 10
500.0
 20
248.0
 30
0.0
 11
500.0
 21
141.9999999999999
 31
0.0
  0
INSERT
  5
9F02
330
9C82
100
AcDbEntity
  8
30
  6
Continuous
 62
     0
370
    -2
100
AcDbBlockReference
  2
_OPEN
 10
500.0
 20
250.0
 30
0.0
 41
2.0
 42
2.0
 43
2.0
 50
90.0
  0
INSERT
  5
9F03
330
9C82
100
AcDbEntity
  8
30
  6
Continuous
 62
     0
370
    -2
100
AcDbBlockReference
  2
_OPEN
 10
500.0
 20
139.9999999999999
 30
0.0
 41
2.0
 42
2.0
 43
2.0
 50
270.0
  0
MTEXT
  5
9F04
330
9C82
100
AcDbEntity
  8
30
  6
Continuous
 62
     0
100
AcDbMText
 10
494.9999999999998
 20
195.0
 30
0.0
 40
6.0
 41
0.0
 71
     5
 72
     1
  1
\A1;110
 11
0.0000000000000001
 21
1.0
 31
0.0
 73
     1
 44
1.0
1001
ACAD
1000
MTEXTBEGIN
1070
    73
1070
     1
1070
    44
1040
1.0
1070
    74
1070
     0
1000
MTEXTEND
  0
POINT
  5
9F05
330
9C82
100
AcDbEntity
  8
DEFPOINTS
  6
Continuous
 62
     0
100
AcDbPoint
 10
394.5000000000009
 20
250.0
 30
0.0
  0
POINT
  5
9F06
330
9C82
100
AcDbEntity
  8
DEFPOINTS
  6
Continuous
 62
     0
100
AcDbPoint
 10
440.0
 20
140.0
 30
0.0
  0
POINT
  5
9F07
330
9C82
100
AcDbEntity
  8
DEFPOINTS
  6
Continuous
 62
     0
100
AcDbPoint
 10
500.0
 20
139.9999999999999
 30
0.0
  0
ENDBLK
  5
9C84
330
9C82
100
AcDbEntity
  8
0
100
AcDbBlockEnd
  0
BLOCK
  5
9C8F
330
9C8E
100
AcDbEntity
  8
0
100
AcDbBlockBegin
  2
*D19
 70
     1
 10
0.0
 20
0.0
 30
0.0
  3
*D19
  1

  0
LINE
  5
9E12
330
9C8E
100
AcDbEntity
  8
30
 62
     0
370
    -2
100
AcDbLine
 10
864.9999999999991
 20
-92.50000000000046
 30
0.0
 11
864.9999999999991
 21
-69.5
 31
0.0
  0
LINE
  5
9E13
330
9C8E
100
AcDbEntity
  8
30
 62
     0
370
    -2
100
AcDbLine
 10
824.9999999999992
 20
-92.49999999999898
 30
0.0
 11
824.9999999999992
 21
-69.5
 31
0.0
  0
LINE
  5
9E14
330
9C8E
100
AcDbEntity
  8
30
 62
     0
370
    -2
100
AcDbLine
 10
862.9999999999991
 20
-70.0
 30
0.0
 11
826.9999999999992
 21
-70.0
 31
0.0
  0
INSERT
  5
9E15
330
9C8E
100
AcDbEntity
  8
30
 62
     0
370
    -2
100
AcDbBlockReference
  2
_OPEN
 10
864.9999999999991
 20
-70.0
 30
0.0
 41
2.0
 42
2.0
 43
2.0
  0
INSERT
  5
9E16
330
9C8E
100
AcDbEntity
  8
30
 62
     0
370
    -2
100
AcDbBlockReference
  2
_OPEN
 10
824.9999999999992
 20
-70.0
 30
0.0
 41
2.0
 42
2.0
 43
2.0
 50
180.0
  0
MTEXT
  5
9E17
330
9C8E
100
AcDbEntity
  8
30
 62
     0
100
AcDbMText
 10
844.9999999999992
 20
-66.0
 30
0.0
 40
6.0
 41
0.0
 71
     5
 72
     1
  1
\A1;40
 73
     1
 44
1.0
1001
ACAD
1000
MTEXTBEGIN
1070
    73
1070
     1
1070
    44
1040
1.0
1070
    74
1070
     0
1000
MTEXTEND
  0
POINT
  5
9E18
330
9C8E
100
AcDbEntity
  8
DEFPOINTS
 62
     0
100
AcDbPoint
 10
864.9999999999991
 20
-93.50000000000044
 30
0.0
  0
POINT
  5
9E19
330
9C8E
100
AcDbEntity
  8
DEFPOINTS
 62
     0
100
AcDbPoint
 10
824.9999999999992
 20
-93.499999999999
 30
0.0
  0
POINT
  5
9E1A
330
9C8E
100
AcDbEntity
  8
DEFPOINTS
 62
     0
100
AcDbPoint
 10
824.9999999999992
 20
-70.0
 30
0.0
  0
ENDBLK
  5
9C90
330
9C8E
100
AcDbEntity
  8
0
100
AcDbBlockEnd
  0
BLOCK
  5
9C9B
330
9C9A
100
AcDbEntity
  8
0
100
AcDbBlockBegin
  2
*D20
 70
     1
 10
0.0
 20
0.0
 30
0.0
  3
*D20
  1

  0
LINE
  5
9E1B
330
9C9A
100
AcDbEntity
  8
30
  6
Continuous
 62
     0
370
    -2
100
AcDbLine
 10
880.9999999999991
 20
-89.00000000000067
 30
0.0
 11
900.5
 21
-89.00000000000067
 31
0.0
  0
LINE
  5
9E1C
330
9C9A
100
AcDbEntity
  8
30
  6
Continuous
 62
     0
370
    -2
100
AcDbLine
 10
880.9999999999991
 20
-119.0000000000005
 30
0.0
 11
900.5
 21
-119.0000000000005
 31
0.0
  0
LINE
  5
9E1D
330
9C9A
100
AcDbEntity
  8
30
  6
Continuous
 62
     0
370
    -2
100
AcDbLine
 10
900.0
 20
-91.00000000000068
 30
0.0
 11
900.0
 21
-117.0000000000005
 31
0.0
  0
INSERT
  5
9E1E
330
9C9A
100
AcDbEntity
  8
30
  6
Continuous
 62
     0
370
    -2
100
AcDbBlockReference
  2
_OPEN
 10
900.0
 20
-89.00000000000067
 30
0.0
 41
2.0
 42
2.0
 43
2.0
 50
90.0
  0
INSERT
  5
9E1F
330
9C9A
100
AcDbEntity
  8
30
  6
Continuous
 62
     0
370
    -2
100
AcDbBlockReference
  2
_OPEN
 10
900.0
 20
-119.0000000000005
 30
0.0
 41
2.0
 42
2.0
 43
2.0
 50
270.0
  0
MTEXT
  5
9E20
330
9C9A
100
AcDbEntity
  8
30
  6
Continuous
 62
     0
100
AcDbMText
 10
896.0
 20
-104.0000000000005
 30
0.0
 40
6.0
 41
0.0
 71
     5
 72
     1
  1
\A1;30
 11
0.0000000000000001
 21
1.0
 31
0.0
 73
     1
 44
1.0
1001
ACAD
1000
MTEXTBEGIN
1070
    73
1070
     1
1070
    44
1040
1.0
1070
    74
1070
     0
1000
MTEXTEND
  0
POINT
  5
9E21
330
9C9A
100
AcDbEntity
  8
DEFPOINTS
  6
Continuous
 62
     0
100
AcDbPoint
 10
879.9999999999991
 20
-89.00000000000067
 30
0.0
  0
POINT
  5
9E22
330
9C9A
100
AcDbEntity
  8
DEFPOINTS
  6
Continuous
 62
     0
100
AcDbPoint
 10
879.9999999999991
 20
-119.0000000000005
 30
0.0
  0
POINT
  5
9E23
330
9C9A
100
AcDbEntity
  8
DEFPOINTS
  6
Continuous
 62
     0
100
AcDbPoint
 10
900.0
 20
-119.0000000000005
 30
0.0
  0
ENDBLK
  5
9C9C
330
9C9A
100
AcDbEntity
  8
0
100
AcDbBlockEnd
  0
BLOCK
  5
9CA7
330
9CA6
100
AcDbEntity
  8
0
100
AcDbBlockBegin
  2
*D21
 70
     1
 10
0.0
 20
0.0
 30
0.0
  3
*D21
  1

  0
LINE
  5
9E24
330
9CA6
100
AcDbEntity
  8
30
  6
Continuous
 62
     0
370
    -2
100
AcDbLine
 10
900.7499999999994
 20
124.0
 30
0.0
 11
910.5
 21
124.0
 31
0.0
  0
LINE
  5
9E25
330
9CA6
100
AcDbEntity
  8
30
  6
Continuous
 62
     0
370
    -2
100
AcDbLine
 10
888.9999999999991
 20
-104.0000000000007
 30
0.0
 11
910.5
 21
-104.0000000000007
 31
0.0
  0
LINE
  5
9E26
330
9CA6
100
AcDbEntity
  8
30
  6
Continuous
 62
     0
370
    -2
100
AcDbLine
 10
910.0
 20
122.0
 30
0.0
 11
910.0
 21
-102.0000000000007
 31
0.0
  0
INSERT
  5
9E27
330
9CA6
100
AcDbEntity
  8
30
  6
Continuous
 62
     0
370
    -2
100
AcDbBlockReference
  2
_OPEN
 10
910.0
 20
124.0
 30
0.0
 41
2.0
 42
2.0
 43
2.0
 50
90.0
  0
INSERT
  5
9E28
330
9CA6
100
AcDbEntity
  8
30
  6
Continuous
 62
     0
370
    -2
100
AcDbBlockReference
  2
_OPEN
 10
910.0
 20
-104.0000000000007
 30
0.0
 41
2.0
 42
2.0
 43
2.0
 50
270.0
  0
MTEXT
  5
9E29
330
9CA6
100
AcDbEntity
  8
30
  6
Continuous
 62
     0
100
AcDbMText
 10
906.0
 20
9.999999999999802
 30
0.0
 40
6.0
 41
0.0
 71
     5
 72
     1
  1
\A1;228
 11
0.0000000000000001
 21
1.0
 31
0.0
 73
     1
 44
1.0
1001
ACAD
1000
MTEXTBEGIN
1070
    73
1070
     1
1070
    44
1040
1.0
1070
    74
1070
     0
1000
MTEXTEND
  0
POINT
  5
9E2A
330
9CA6
100
AcDbEntity
  8
DEFPOINTS
  6
Continuous
 62
     0
100
AcDbPoint
 10
899.7499999999995
 20
124.0
 30
0.0
  0
POINT
  5
9E2B
330
9CA6
100
AcDbEntity
  8
DEFPOINTS
  6
Continuous
 62
     0
100
AcDbPoint
 10
887.9999999999991
 20
-104.0000000000007
 30
0.0
  0
POINT
  5
9E2C
330
9CA6
100
AcDbEntity
  8
DEFPOINTS
  6
Continuous
 62
     0
100
AcDbPoint
 10
910.0
 20
-104.0000000000007
 30
0.0
  0
ENDBLK
  5
9CA8
330
9CA6
100
AcDbEntity
  8
0
100
AcDbBlockEnd
  0
BLOCK
  5
9CB3
330
9CB2
100
AcDbEntity
  8
0
100
AcDbBlockBegin
  2
*D22
 70
     1
 10
0.0
 20
0.0
 30
0.0
  3
*D22
  1

  0
LINE
  5
9FA1
330
9CB2
100
AcDbEntity
  8
30
  6
Continuous
 62
     0
370
    -2
100
AcDbLine
 10
770.0
 20
-121.0
 30
0.0
 11
770.0
 21
-160.5
 31
0.0
  0
LINE
  5
9FA2
330
9CB2
100
AcDbEntity
  8
30
  6
Continuous
 62
     0
370
    -2
100
AcDbLine
 10
839.9999999999991
 20
-119.9999999999992
 30
0.0
 11
839.9999999999991
 21
-160.5
 31
0.0
  0
LINE
  5
9FA3
330
9CB2
100
AcDbEntity
  8
30
  6
Continuous
 62
     0
370
    -2
100
AcDbLine
 10
772.0
 20
-160.0
 30
0.0
 11
837.9999999999991
 21
-160.0
 31
0.0
  0
INSERT
  5
9FA4
330
9CB2
100
AcDbEntity
  8
30
  6
Continuous
 62
     0
370
    -2
100
AcDbBlockReference
  2
_OPEN
 10
770.0
 20
-160.0
 30
0.0
 41
2.0
 42
2.0
 43
2.0
 50
180.0
  0
INSERT
  5
9FA5
330
9CB2
100
AcDbEntity
  8
30
  6
Continuous
 62
     0
370
    -2
100
AcDbBlockReference
  2
_OPEN
 10
839.9999999999991
 20
-160.0
 30
0.0
 41
2.0
 42
2.0
 43
2.0
  0
MTEXT
  5
9FA6
330
9CB2
100
AcDbEntity
  8
30
  6
Continuous
 62
     0
100
AcDbMText
 10
804.9999999999997
 20
-156.0
 30
0.0
 40
6.0
 41
0.0
 71
     5
 72
     1
  1
\A1;70
 73
     1
 44
1.0
1001
ACAD
1000
MTEXTBEGIN
1070
    73
1070
     1
1070
    44
1040
1.0
1070
    74
1070
     0
1000
MTEXTEND
  0
POINT
  5
9FA7
330
9CB2
100
AcDbEntity
  8
DEFPOINTS
  6
Continuous
 62
     0
100
AcDbPoint
 10
770.0
 20
-120.0
 30
0.0
  0
POINT
  5
9FA8
330
9CB2
100
AcDbEntity
  8
DEFPOINTS
  6
Continuous
 62
     0
100
AcDbPoint
 10
839.9999999999991
 20
-118.9999999999992
 30
0.0
  0
POINT
  5
9FA9
330
9CB2
100
AcDbEntity
  8
DEFPOINTS
  6
Continuous
 62
     0
100
AcDbPoint
 10
839.9999999999991
 20
-160.0
 30
0.0
  0
ENDBLK
  5
9CB4
330
9CB2
100
AcDbEntity
  8
0
100
AcDbBlockEnd
  0
BLOCK
  5
9CBF
330
9CBE
100
AcDbEntity
  8
0
100
AcDbBlockBegin
  2
*D23
 70
     1
 10
0.0
 20
0.0
 30
0.0
  3
*D23
  1

  0
LINE
  5
9E36
330
9CBE
100
AcDbEntity
  8
30
  6
Continuous
 62
     0
370
    -2
100
AcDbLine
 10
824.9999999999992
 20
-115.4999999999992
 30
0.0
 11
824.9999999999992
 21
-130.5
 31
0.0
  0
LINE
  5
9E37
330
9CBE
100
AcDbEntity
  8
30
  6
Continuous
 62
     0
370
    -2
100
AcDbLine
 10
839.9999999999991
 20
-119.9999999999992
 30
0.0
 11
839.9999999999991
 21
-130.5
 31
0.0
  0
LINE
  5
9E38
330
9CBE
100
AcDbEntity
  8
30
  6
Continuous
 62
     0
370
    -2
100
AcDbLine
 10
826.9999999999992
 20
-130.0
 30
0.0
 11
837.9999999999991
 21
-130.0
 31
0.0
  0
INSERT
  5
9E39
330
9CBE
100
AcDbEntity
  8
30
  6
Continuous
 62
     0
370
    -2
100
AcDbBlockReference
  2
_OPEN
 10
824.9999999999992
 20
-130.0
 30
0.0
 41
2.0
 42
2.0
 43
2.0
 50
180.0
  0
INSERT
  5
9E3A
330
9CBE
100
AcDbEntity
  8
30
  6
Continuous
 62
     0
370
    -2
100
AcDbBlockReference
  2
_OPEN
 10
839.9999999999991
 20
-130.0
 30
0.0
 41
2.0
 42
2.0
 43
2.0
  0
MTEXT
  5
9E3B
330
9CBE
100
AcDbEntity
  8
30
  6
Continuous
 62
     0
100
AcDbMText
 10
832.4999999999992
 20
-126.0
 30
0.0
 40
6.0
 41
0.0
 71
     5
 72
     1
  1
\A1;15
 73
     1
 44
1.0
1001
ACAD
1000
MTEXTBEGIN
1070
    73
1070
     1
1070
    44
1040
1.0
1070
    74
1070
     0
1000
MTEXTEND
  0
POINT
  5
9E3C
330
9CBE
100
AcDbEntity
  8
DEFPOINTS
  6
Continuous
 62
     0
100
AcDbPoint
 10
824.9999999999992
 20
-114.4999999999992
 30
0.0
  0
POINT
  5
9E3D
330
9CBE
100
AcDbEntity
  8
DEFPOINTS
  6
Continuous
 62
     0
100
AcDbPoint
 10
839.9999999999991
 20
-118.9999999999992
 30
0.0
  0
POINT
  5
9E3E
330
9CBE
100
AcDbEntity
  8
DEFPOINTS
  6
Continuous
 62
     0
100
AcDbPoint
 10
839.9999999999991
 20
-130.0
 30
0.0
  0
ENDBLK
  5
9CC0
330
9CBE
100
AcDbEntity
  8
0
100
AcDbBlockEnd
  0
BLOCK
  5
9CCB
330
9CCA
100
AcDbEntity
  8
0
100
AcDbBlockBegin
  2
*D24
 70
     1
 10
0.0
 20
0.0
 30
0.0
  3
*D24
  1

  0
LINE
  5
9E3F
330
9CCA
100
AcDbEntity
  8
30
  6
Continuous
 62
     0
370
    -2
100
AcDbLine
 10
864.9999999999991
 20
-115.5000000000006
 30
0.0
 11
864.9999999999991
 21
-130.5
 31
0.0
  0
LINE
  5
9E40
330
9CCA
100
AcDbEntity
  8
30
  6
Continuous
 62
     0
370
    -2
100
AcDbLine
 10
879.9999999999991
 20
-120.0000000000005
 30
0.0
 11
879.9999999999991
 21
-130.5
 31
0.0
  0
LINE
  5
9E41
330
9CCA
100
AcDbEntity
  8
30
  6
Continuous
 62
     0
370
    -2
100
AcDbLine
 10
866.9999999999992
 20
-130.0
 30
0.0
 11
877.9999999999992
 21
-130.0
 31
0.0
  0
INSERT
  5
9E42
330
9CCA
100
AcDbEntity
  8
30
  6
Continuous
 62
     0
370
    -2
100
AcDbBlockReference
  2
_OPEN
 10
864.9999999999991
 20
-130.0
 30
0.0
 41
2.0
 42
2.0
 43
2.0
 50
180.0
  0
INSERT
  5
9E43
330
9CCA
100
AcDbEntity
  8
30
  6
Continuous
 62
     0
370
    -2
100
AcDbBlockReference
  2
_OPEN
 10
879.9999999999991
 20
-130.0
 30
0.0
 41
2.0
 42
2.0
 43
2.0
  0
MTEXT
  5
9E44
330
9CCA
100
AcDbEntity
  8
30
  6
Continuous
 62
     0
100
AcDbMText
 10
872.4999999999992
 20
-126.0
 30
0.0
 40
6.0
 41
0.0
 71
     5
 72
     1
  1
\A1;15
 73
     1
 44
1.0
1001
ACAD
1000
MTEXTBEGIN
1070
    73
1070
     1
1070
    44
1040
1.0
1070
    74
1070
     0
1000
MTEXTEND
  0
POINT
  5
9E45
330
9CCA
100
AcDbEntity
  8
DEFPOINTS
  6
Continuous
 62
     0
100
AcDbPoint
 10
864.9999999999991
 20
-114.5000000000006
 30
0.0
  0
POINT
  5
9E46
330
9CCA
100
AcDbEntity
  8
DEFPOINTS
  6
Continuous
 62
     0
100
AcDbPoint
 10
879.9999999999991
 20
-119.0000000000005
 30
0.0
  0
POINT
  5
9E47
330
9CCA
100
AcDbEntity
  8
DEFPOINTS
  6
Continuous
 62
     0
100
AcDbPoint
 10
879.9999999999991
 20
-130.0
 30
0.0
  0
ENDBLK
  5
9CCC
330
9CCA
100
AcDbEntity
  8
0
100
AcDbBlockEnd
  0
BLOCK
  5
9CD7
330
9CD6
100
AcDbEntity
  8
0
100
AcDbBlockBegin
  2
*D25
 70
     1
 10
0.0
 20
0.0
 30
0.0
  3
*D25
  1

  0
LINE
  5
9FAA
330
9CD6
100
AcDbEntity
  8
30
  6
Continuous
 62
     0
370
    -2
100
AcDbLine
 10
770.0
 20
-169.0
 30
0.0
 11
770.0
 21
-169.5
 31
0.0
  0
LINE
  5
9FAB
330
9CD6
100
AcDbEntity
  8
30
  6
Continuous
 62
     0
370
    -2
100
AcDbLine
 10
879.9999999999991
 20
-120.0000000000005
 30
0.0
 11
879.9999999999991
 21
-170.5
 31
0.0
  0
LINE
  5
9FAC
330
9CD6
100
AcDbEntity
  8
30
  6
Continuous
 62
     0
370
    -2
100
AcDbLine
 10
772.0
 20
-170.0
 30
0.0
 11
877.9999999999992
 21
-170.0
 31
0.0
  0
INSERT
  5
9FAD
330
9CD6
100
AcDbEntity
  8
30
  6
Continuous
 62
     0
370
    -2
100
AcDbBlockReference
  2
_OPEN
 10
770.0
 20
-170.0
 30
0.0
 41
2.0
 42
2.0
 43
2.0
 50
180.0
  0
INSERT
  5
9FAE
330
9CD6
100
AcDbEntity
  8
30
  6
Continuous
 62
     0
370
    -2
100
AcDbBlockReference
  2
_OPEN
 10
879.9999999999991
 20
-170.0
 30
0.0
 41
2.0
 42
2.0
 43
2.0
  0
MTEXT
  5
9FAF
330
9CD6
100
AcDbEntity
  8
30
  6
Continuous
 62
     0
100
AcDbMText
 10
824.9999999999996
 20
-166.0
 30
0.0
 40
6.0
 41
0.0
 71
     5
 72
     1
  1
\A1;110
 73
     1
 44
1.0
1001
ACAD
1000
MTEXTBEGIN
1070
    73
1070
     1
1070
    44
1040
1.0
1070
    74
1070
     0
1000
MTEXTEND
  0
POINT
  5
9FB0
330
9CD6
100
AcDbEntity
  8
DEFPOINTS
  6
Continuous
 62
     0
100
AcDbPoint
 10
770.0
 20
-170.0
 30
0.0
  0
POINT
  5
9FB1
330
9CD6
100
AcDbEntity
  8
DEFPOINTS
  6
Continuous
 62
     0
100
AcDbPoint
 10
879.9999999999991
 20
-119.0000000000005
 30
0.0
  0
POINT
  5
9FB2
330
9CD6
100
AcDbEntity
  8
DEFPOINTS
  6
Continuous
 62
     0
100
AcDbPoint
 10
879.9999999999991
 20
-170.0
 30
0.0
  0
ENDBLK
  5
9CD8
330
9CD6
100
AcDbEntity
  8
0
100
AcDbBlockEnd
  0
BLOCK
  5
9CE3
330
9CE2
100
AcDbEntity
  8
0
100
AcDbBlockBegin
  2
*D26
 70
     1
 10
0.0
 20
0.0
 30
0.0
  3
*D26
  1

  0
LINE
  5
9E51
330
9CE2
100
AcDbEntity
  8
30
  6
Continuous
 62
     0
370
    -2
100
AcDbLine
 10
897.0130359896456
 20
-65.39838118329139
 30
0.0
 11
882.0130359896451
 21
-65.39838118329135
 31
0.0
  0
LINE
  5
9E52
330
9CE2
100
AcDbEntity
  8
30
  6
Continuous
 62
     0
370
    -2
100
AcDbLine
 10
882.0130359896451
 20
-65.39838118329135
 30
0.0
 11
868.4280590047803
 21
-96.22192752285471
 31
0.0
  0
MTEXT
  5
9E53
102
{ACAD_XDICTIONARY
360
A1A1
102
}
330
9CE2
100
AcDbEntity
  8
30
  6
Continuous
 62
     0
100
AcDbMText
 10
890.0130359896456
 20
-61.39838118329135
 30
0.0
 40
6.0
 41
0.0
 71
     5
 72
     1
  1
\A1;\U+220513
 73
     1
 44
1.0
1001
ACAD
1000
MTEXTBEGIN
1070
    73
1070
     1
1070
    44
1040
1.0
1070
    74
1070
     0
1000
MTEXTEND
  0
INSERT
  5
9E54
330
9CE2
100
AcDbEntity
  8
30
  6
Continuous
 62
     0
370
    -2
100
AcDbBlockReference
  2
_OPEN
 10
867.6214568860084
 20
-98.05206222335966
 30
0.0
 41
2.0
 42
2.0
 43
2.0
 50
246.2152934870915
  0
LINE
  5
9E55
330
9CE2
100
AcDbEntity
  8
30
  6
Continuous
 62
     0
370
    -2
100
AcDbLine
 10
864.909999999999
 20
-104.0000000000008
 30
0.0
 11
865.0899999999991
 21
-104.0000000000007
 31
0.0
  0
LINE
  5
9E56
330
9CE2
100
AcDbEntity
  8
30
  6
Continuous
 62
     0
370
    -2
100
AcDbLine
 10
864.9999999999991
 20
-104.0900000000008
 30
0.0
 11
864.9999999999991
 21
-103.9100000000008
 31
0.0
  0
POINT
  5
9E57
330
9CE2
100
AcDbEntity
  8
DEFPOINTS
  6
Continuous
 62
     0
100
AcDbPoint
 10
867.6214568860084
 20
-98.05206222335966
 30
0.0
  0
POINT
  5
9E58
330
9CE2
100
AcDbEntity
  8
DEFPOINTS
  6
Continuous
 62
     0
100
AcDbPoint
 10
862.3785431139895
 20
-109.9479377766419
 30
0.0
  0
ENDBLK
  5
9CE4
330
9CE2
100
AcDbEntity
  8
0
100
AcDbBlockEnd
  0
BLOCK
  5
9CEE
330
9CED
100
AcDbEntity
  8
0
100
AcDbBlockBegin
  2
*D27
 70
     1
 10
0.0
 20
0.0
 30
0.0
  3
*D27
  1

  0
LINE
  5
9E59
330
9CED
100
AcDbEntity
  8
30
  6
Continuous
 62
     0
370
    -2
100
AcDbLine
 10
880.9999999999991
 20
128.0
 30
0.0
 11
900.5
 21
128.0
 31
0.0
  0
LINE
  5
9E5A
330
9CED
100
AcDbEntity
  8
30
  6
Continuous
 62
     0
370
    -2
100
AcDbLine
 10
880.9999999999991
 20
120.0
 30
0.0
 11
900.5
 21
120.0
 31
0.0
  0
LINE
  5
9E5B
330
9CED
100
AcDbEntity
  8
30
  6
Continuous
 62
     0
370
    -2
100
AcDbLine
 10
900.0
 20
126.0
 30
0.0
 11
900.0
 21
122.0
 31
0.0
  0
INSERT
  5
9E5C
330
9CED
100
AcDbEntity
  8
30
  6
Continuous
 62
     0
370
    -2
100
AcDbBlockReference
  2
_OPEN
 10
900.0
 20
128.0
 30
0.0
 41
2.0
 42
2.0
 43
2.0
 50
90.0
  0
INSERT
  5
9E5D
330
9CED
100
AcDbEntity
  8
30
  6
Continuous
 62
     0
370
    -2
100
AcDbBlockReference
  2
_OPEN
 10
900.0
 20
120.0
 30
0.0
 41
2.0
 42
2.0
 43
2.0
 50
270.0
  0
MTEXT
  5
9E5E
330
9CED
100
AcDbEntity
  8
30
  6
Continuous
 62
     0
100
AcDbMText
 10
896.0
 20
124.0000000000001
 30
0.0
 40
6.0
 41
0.0
 71
     5
 72
     1
  1
\A1;8
 11
0.0000000000000001
 21
1.0
 31
0.0
 73
     1
 44
1.0
1001
ACAD
1000
MTEXTBEGIN
1070
    73
1070
     1
1070
    44
1040
1.0
1070
    74
1070
     0
1000
MTEXTEND
  0
POINT
  5
9E5F
330
9CED
100
AcDbEntity
  8
DEFPOINTS
  6
Continuous
 62
     0
100
AcDbPoint
 10
879.9999999999991
 20
128.0
 30
0.0
  0
POINT
  5
9E60
330
9CED
100
AcDbEntity
  8
DEFPOINTS
  6
Continuous
 62
     0
100
AcDbPoint
 10
879.9999999999991
 20
120.0
 30
0.0
  0
POINT
  5
9E61
330
9CED
100
AcDbEntity
  8
DEFPOINTS
  6
Continuous
 62
     0
100
AcDbPoint
 10
900.0
 20
120.0
 30
0.0
  0
ENDBLK
  5
9CEF
330
9CED
100
AcDbEntity
  8
0
100
AcDbBlockEnd
  0
BLOCK
  5
9CFA
330
9CF9
100
AcDbEntity
  8
0
100
AcDbBlockBegin
  2
*D28
 70
     1
 10
0.0
 20
0.0
 30
0.0
  3
*D28
  1

  0
LINE
  5
9EBE
330
9CF9
100
AcDbEntity
  8
30
 62
     0
370
    -2
100
AcDbLine
 10
396.5000201860275
 20
414.1999586737894
 30
0.0
 11
500.4999999999998
 21
414.1999586737894
 31
0.0
  0
LINE
  5
9EBF
330
9CF9
100
AcDbEntity
  8
30
 62
     0
370
    -2
100
AcDbLine
 10
486.0
 20
399.5
 30
0.0
 11
500.4999999999998
 21
399.5
 31
0.0
  0
LINE
  5
9EC0
330
9CF9
100
AcDbEntity
  8
30
 62
     0
370
    -2
100
AcDbLine
 10
500.0
 20
412.1999586737895
 30
0.0
 11
500.0
 21
401.4999999999998
 31
0.0
  0
LINE
  5
9EC1
330
9CF9
100
AcDbEntity
  8
30
 62
     0
370
    -2
100
AcDbLine
 10
500.0
 20
406.8499793368947
 30
0.0
 11
513.0
 21
406.8499793368947
 31
0.0
  0
LINE
  5
9EC2
330
9CF9
100
AcDbEntity
  8
30
 62
     0
370
    -2
100
AcDbLine
 10
513.0
 20
406.8499793368947
 30
0.0
 11
531.0
 21
406.8499793368947
 31
0.0
  0
MTEXT
  5
9EC3
330
9CF9
100
AcDbEntity
  8
30
 62
     0
100
AcDbMText
 10
521.9999999999998
 20
410.8499793368948
 30
0.0
 40
6.0
 41
0.0
 71
     5
 72
     1
  1
\A1;14.7
 73
     1
 44
1.0
1001
ACAD
1000
MTEXTBEGIN
1070
    73
1070
     1
1070
    44
1040
1.0
1070
    74
1070
     0
1000
MTEXTEND
  0
INSERT
  5
9EC4
330
9CF9
100
AcDbEntity
  8
30
 62
     0
370
    -2
100
AcDbBlockReference
  2
_OPEN
 10
500.0
 20
414.1999586737894
 30
0.0
 41
2.0
 42
2.0
 43
2.0
 50
90.0
  0
INSERT
  5
9EC5
330
9CF9
100
AcDbEntity
  8
30
 62
     0
370
    -2
100
AcDbBlockReference
  2
_OPEN
 10
500.0
 20
399.5
 30
0.0
 41
2.0
 42
2.0
 43
2.0
 50
270.0
  0
POINT
  5
9EC6
330
9CF9
100
AcDbEntity
  8
DEFPOINTS
 62
     0
100
AcDbPoint
 10
395.5000201860276
 20
414.1999586737894
 30
0.0
  0
POINT
  5
9EC7
330
9CF9
100
AcDbEntity
  8
DEFPOINTS
 62
     0
100
AcDbPoint
 10
485.0
 20
399.5
 30
0.0
  0
POINT
  5
9EC8
330
9CF9
100
AcDbEntity
  8
DEFPOINTS
 62
     0
100
AcDbPoint
 10
500.0
 20
399.5
 30
0.0
  0
ENDBLK
  5
9CFB
330
9CF9
100
AcDbEntity
  8
0
100
AcDbBlockEnd
  0
BLOCK
  5
9D08
330
9D07
100
AcDbEntity
  8
0
100
AcDbBlockBegin
  2
*D29
 70
     1
 10
0.0
 20
0.0
 30
0.0
  3
*D29
  1

  0
LINE
  5
9E6D
330
9D07
100
AcDbEntity
  8
30
  6
Continuous
 62
     0
370
    -2
100
AcDbLine
 10
325.0
 20
465.9999999999997
 30
0.0
 11
325.0
 21
515.5
 31
0.0
  0
LINE
  5
9E6E
330
9D07
100
AcDbEntity
  8
30
  6
Continuous
 62
     0
370
    -2
100
AcDbLine
 10
370.0
 20
506.0000000000001
 30
0.0
 11
370.0
 21
515.5
 31
0.0
  0
LINE
  5
9E6F
330
9D07
100
AcDbEntity
  8
30
  6
Continuous
 62
     0
370
    -2
100
AcDbLine
 10
327.0
 20
515.0
 30
0.0
 11
368.0
 21
515.0
 31
0.0
  0
INSERT
  5
9E70
330
9D07
100
AcDbEntity
  8
30
  6
Continuous
 62
     0
370
    -2
100
AcDbBlockReference
  2
_OPEN
 10
325.0
 20
515.0
 30
0.0
 41
2.0
 42
2.0
 43
2.0
 50
180.0
  0
INSERT
  5
9E71
330
9D07
100
AcDbEntity
  8
30
  6
Continuous
 62
     0
370
    -2
100
AcDbBlockReference
  2
_OPEN
 10
370.0
 20
515.0
 30
0.0
 41
2.0
 42
2.0
 43
2.0
  0
MTEXT
  5
9E72
330
9D07
100
AcDbEntity
  8
30
  6
Continuous
 62
     0
100
AcDbMText
 10
347.5
 20
519.0
 30
0.0
 40
6.0
 41
0.0
 71
     5
 72
     1
  1
\A1;45
 73
     1
 44
1.0
1001
ACAD
1000
MTEXTBEGIN
1070
    73
1070
     1
1070
    44
1040
1.0
1070
    74
1070
     0
1000
MTEXTEND
  0
POINT
  5
9E73
330
9D07
100
AcDbEntity
  8
DEFPOINTS
  6
Continuous
 62
     0
100
AcDbPoint
 10
325.0
 20
464.9999999999997
 30
0.0
  0
POINT
  5
9E74
330
9D07
100
AcDbEntity
  8
DEFPOINTS
  6
Continuous
 62
     0
100
AcDbPoint
 10
370.0
 20
505.0000000000001
 30
0.0
  0
POINT
  5
9E75
330
9D07
100
AcDbEntity
  8
DEFPOINTS
  6
Continuous
 62
     0
100
AcDbPoint
 10
370.0
 20
515.0
 30
0.0
  0
ENDBLK
  5
9D09
330
9D07
100
AcDbEntity
  8
0
100
AcDbBlockEnd
  0
BLOCK
  5
9D14
330
9D13
100
AcDbEntity
  8
0
100
AcDbBlockBegin
  2
*D30
 70
     1
 10
0.0
 20
0.0
 30
0.0
  3
*D30
  1

  0
LINE
  5
9E76
330
9D13
100
AcDbEntity
  8
30
  6
Continuous
 62
     0
370
    -2
100
AcDbLine
 10
370.0
 20
506.0000000000001
 30
0.0
 11
370.0
 21
515.5
 31
0.0
  0
LINE
  5
9E77
330
9D13
100
AcDbEntity
  8
30
  6
Continuous
 62
     0
370
    -2
100
AcDbLine
 10
415.0
 20
465.9999999999997
 30
0.0
 11
415.0
 21
515.5
 31
0.0
  0
LINE
  5
9E78
330
9D13
100
AcDbEntity
  8
30
  6
Continuous
 62
     0
370
    -2
100
AcDbLine
 10
372.0
 20
515.0
 30
0.0
 11
413.0
 21
515.0
 31
0.0
  0
INSERT
  5
9E79
330
9D13
100
AcDbEntity
  8
30
  6
Continuous
 62
     0
370
    -2
100
AcDbBlockReference
  2
_OPEN
 10
370.0
 20
515.0
 30
0.0
 41
2.0
 42
2.0
 43
2.0
 50
180.0
  0
INSERT
  5
9E7A
330
9D13
100
AcDbEntity
  8
30
  6
Continuous
 62
     0
370
    -2
100
AcDbBlockReference
  2
_OPEN
 10
415.0
 20
515.0
 30
0.0
 41
2.0
 42
2.0
 43
2.0
  0
MTEXT
  5
9E7B
330
9D13
100
AcDbEntity
  8
30
  6
Continuous
 62
     0
100
AcDbMText
 10
392.5
 20
519.0
 30
0.0
 40
6.0
 41
0.0
 71
     5
 72
     1
  1
\A1;45
 73
     1
 44
1.0
1001
ACAD
1000
MTEXTBEGIN
1070
    73
1070
     1
1070
    44
1040
1.0
1070
    74
1070
     0
1000
MTEXTEND
  0
POINT
  5
9E7C
330
9D13
100
AcDbEntity
  8
DEFPOINTS
  6
Continuous
 62
     0
100
AcDbPoint
 10
370.0
 20
505.0000000000001
 30
0.0
  0
POINT
  5
9E7D
330
9D13
100
AcDbEntity
  8
DEFPOINTS
  6
Continuous
 62
     0
100
AcDbPoint
 10
415.0
 20
464.9999999999997
 30
0.0
  0
POINT
  5
9E7E
330
9D13
100
AcDbEntity
  8
DEFPOINTS
  6
Continuous
 62
     0
100
AcDbPoint
 10
415.0
 20
515.0
 30
0.0
  0
ENDBLK
  5
9D15
330
9D13
100
AcDbEntity
  8
0
100
AcDbBlockEnd
  0
BLOCK
  5
9D20
330
9D1F
100
AcDbEntity
  8
0
100
AcDbBlockBegin
  2
*D31
 70
     1
 10
0.0
 20
0.0
 30
0.0
  3
*D31
  1

  0
LINE
  5
9E7F
330
9D1F
100
AcDbEntity
  8
30
  6
Continuous
 62
     0
370
    -2
100
AcDbLine
 10
273.0000000000006
 20
-490.0000000000002
 30
0.0
 11
290.0000000000006
 21
-490.0
 31
0.0
  0
LINE
  5
9E80
330
9D1F
100
AcDbEntity
  8
30
  6
Continuous
 62
     0
370
    -2
100
AcDbLine
 10
290.0000000000006
 20
-490.0
 30
0.0
 11
308.5054229630808
 21
-502.6894328889693
 31
0.0
  0
MTEXT
  5
9E81
102
{ACAD_XDICTIONARY
360
A1A3
102
}
330
9D1F
100
AcDbEntity
  8
30
  6
Continuous
 62
     0
100
AcDbMText
 10
281.0000000000006
 20
-486.0000000000002
 30
0.0
 40
6.0
 41
0.0
 71
     5
 72
     1
  1
\A1;\U+220536
 73
     1
 44
1.0
1001
ACAD
1000
MTEXTBEGIN
1070
    73
1070
     1
1070
    44
1040
1.0
1070
    74
1070
     0
1000
MTEXTEND
  0
INSERT
  5
9E82
330
9D1F
100
AcDbEntity
  8
30
  6
Continuous
 62
     0
370
    -2
100
AcDbBlockReference
  2
_OPEN
 10
310.1548806667727
 20
-503.8204896000725
 30
0.0
 41
2.0
 42
2.0
 43
2.0
 50
325.5610106911961
  0
LINE
  5
9E83
330
9D1F
100
AcDbEntity
  8
30
  6
Continuous
 62
     0
370
    -2
100
AcDbLine
 10
324.9100000000006
 20
-514.0000000000001
 30
0.0
 11
325.0900000000005
 21
-514.0000000000001
 31
0.0
  0
LINE
  5
9E84
330
9D1F
100
AcDbEntity
  8
30
  6
Continuous
 62
     0
370
    -2
100
AcDbLine
 10
325.0000000000006
 20
-514.0900000000001
 30
0.0
 11
325.0000000000006
 21
-513.9100000000003
 31
0.0
  0
POINT
  5
9E85
330
9D1F
100
AcDbEntity
  8
DEFPOINTS
  6
Continuous
 62
     0
100
AcDbPoint
 10
310.1548806667727
 20
-503.8204896000725
 30
0.0
  0
POINT
  5
9E86
330
9D1F
100
AcDbEntity
  8
DEFPOINTS
  6
Continuous
 62
     0
100
AcDbPoint
 10
339.8451193332283
 20
-524.1795103999279
 30
0.0
  0
ENDBLK
  5
9D21
330
9D1F
100
AcDbEntity
  8
0
100
AcDbBlockEnd
  0
BLOCK
  5
9D2B
330
9D2A
100
AcDbEntity
  8
0
100
AcDbBlockBegin
  2
*D32
 70
     1
 10
0.0
 20
0.0
 30
0.0
  3
*D32
  1

  0
LINE
  5
9E87
330
9D2A
100
AcDbEntity
  8
30
  6
Continuous
 62
     0
370
    -2
100
AcDbLine
 10
327.2525591661079
 20
-254.0023890902475
 30
0.0
 11
338.2525591661079
 21
-254.0023890902475
 31
0.0
  0
LINE
  5
9E88
330
9D2A
100
AcDbEntity
  8
30
  6
Continuous
 62
     0
370
    -2
100
AcDbLine
 10
338.2525591661079
 20
-254.0023890902475
 30
0.0
 11
346.3463492833783
 21
-288.1349110980334
 31
0.0
  0
MTEXT
  5
9E89
330
9D2A
100
AcDbEntity
  8
30
  6
Continuous
 62
     0
100
AcDbMText
 10
332.2525591661078
 20
-250.0023890902475
 30
0.0
 40
6.0
 41
0.0
 71
     5
 72
     1
  1
\A1;M6
 73
     1
 44
1.0
1001
ACAD
1000
MTEXTBEGIN
1070
    73
1070
     1
1070
    44
1040
1.0
1070
    74
1070
     0
1000
MTEXTEND
  0
INSERT
  5
9E8A
330
9D2A
100
AcDbEntity
  8
30
  6
Continuous
 62
     0
370
    -2
100
AcDbBlockReference
  2
_OPEN
 10
346.807809570027
 20
-290.08094665882
 30
0.0
 41
2.0
 42
2.0
 43
2.0
 50
283.3400621368931
  0
LINE
  5
9E8B
330
9D2A
100
AcDbEntity
  8
30
  6
Continuous
 62
     0
370
    -2
100
AcDbLine
 10
347.4099999999999
 20
-292.9999999999999
 30
0.0
 11
347.5899999999997
 21
-292.9999999999999
 31
0.0
  0
LINE
  5
9E8C
330
9D2A
100
AcDbEntity
  8
30
  6
Continuous
 62
     0
370
    -2
100
AcDbLine
 10
347.4999999999998
 20
-293.0899999999999
 30
0.0
 11
347.4999999999998
 21
-292.9099999999999
 31
0.0
  0
POINT
  5
9E8D
330
9D2A
100
AcDbEntity
  8
DEFPOINTS
  6
Continuous
 62
     0
100
AcDbPoint
 10
346.807809570027
 20
-290.08094665882
 30
0.0
  0
POINT
  5
9E8E
330
9D2A
100
AcDbEntity
  8
DEFPOINTS
  6
Continuous
 62
     0
100
AcDbPoint
 10
348.1921904299727
 20
-295.9190533411798
 30
0.0
  0
ENDBLK
  5
9D2C
330
9D2A
100
AcDbEntity
  8
0
100
AcDbBlockEnd
  0
BLOCK
  5
9D36
330
9D35
100
AcDbEntity
  8
0
100
AcDbBlockBegin
  2
*D33
 70
     1
 10
0.0
 20
0.0
 30
0.0
  3
*D33
  1

  0
LINE
  5
9E8F
330
9D35
100
AcDbEntity
  8
30
  6
Continuous
 62
     0
370
    -2
100
AcDbLine
 10
483.0000000000004
 20
-286.0
 30
0.0
 11
535.5
 21
-286.0
 31
0.0
  0
LINE
  5
9E90
330
9D35
100
AcDbEntity
  8
30
  6
Continuous
 62
     0
370
    -2
100
AcDbLine
 10
483.0000000000004
 20
-514.0
 30
0.0
 11
535.5
 21
-514.0
 31
0.0
  0
LINE
  5
9E91
330
9D35
100
AcDbEntity
  8
30
  6
Continuous
 62
     0
370
    -2
100
AcDbLine
 10
535.0
 20
-288.0
 30
0.0
 11
535.0
 21
-512.0
 31
0.0
  0
INSERT
  5
9E92
330
9D35
100
AcDbEntity
  8
30
  6
Continuous
 62
     0
370
    -2
100
AcDbBlockReference
  2
_OPEN
 10
535.0
 20
-286.0
 30
0.0
 41
2.0
 42
2.0
 43
2.0
 50
90.0
  0
INSERT
  5
9E93
330
9D35
100
AcDbEntity
  8
30
  6
Continuous
 62
     0
370
    -2
100
AcDbBlockReference
  2
_OPEN
 10
535.0
 20
-514.0
 30
0.0
 41
2.0
 42
2.0
 43
2.0
 50
270.0
  0
MTEXT
  5
9E94
330
9D35
100
AcDbEntity
  8
30
  6
Continuous
 62
     0
100
AcDbMText
 10
531.0000000000001
 20
-400.0
 30
0.0
 40
6.0
 41
0.0
 71
     5
 72
     1
  1
\A1;228
 11
0.0000000000000001
 21
1.0
 31
0.0
 73
     1
 44
1.0
1001
ACAD
1000
MTEXTBEGIN
1070
    73
1070
     1
1070
    44
1040
1.0
1070
    74
1070
     0
1000
MTEXTEND
  0
POINT
  5
9E95
330
9D35
100
AcDbEntity
  8
DEFPOINTS
  6
Continuous
 62
     0
100
AcDbPoint
 10
482.0000000000002
 20
-286.0
 30
0.0
  0
POINT
  5
9E96
330
9D35
100
AcDbEntity
  8
DEFPOINTS
  6
Continuous
 62
     0
100
AcDbPoint
 10
482.0000000000002
 20
-514.0
 30
0.0
  0
POINT
  5
9E97
330
9D35
100
AcDbEntity
  8
DEFPOINTS
  6
Continuous
 62
     0
100
AcDbPoint
 10
535.0
 20
-514.0
 30
0.0
  0
ENDBLK
  5
9D37
330
9D35
100
AcDbEntity
  8
0
100
AcDbBlockEnd
  0
BLOCK
  5
9D42
330
9D41
100
AcDbEntity
  8
0
100
AcDbBlockBegin
  2
*D34
 70
     1
 10
0.0
 20
0.0
 30
0.0
  3
*D34
  1

  0
LINE
  5
9E98
330
9D41
100
AcDbEntity
  8
30
  6
Continuous
 62
     0
370
    -2
100
AcDbLine
 10
400.4999999999998
 20
-293.0
 30
0.0
 11
515.5
 21
-293.0
 31
0.0
  0
LINE
  5
9E99
330
9D41
100
AcDbEntity
  8
30
  6
Continuous
 62
     0
370
    -2
100
AcDbLine
 10
400.4999999999998
 20
-507.0
 30
0.0
 11
515.5
 21
-507.0
 31
0.0
  0
LINE
  5
9E9A
330
9D41
100
AcDbEntity
  8
30
  6
Continuous
 62
     0
370
    -2
100
AcDbLine
 10
515.0
 20
-295.0
 30
0.0
 11
515.0
 21
-505.0
 31
0.0
  0
INSERT
  5
9E9B
330
9D41
100
AcDbEntity
  8
30
  6
Continuous
 62
     0
370
    -2
100
AcDbBlockReference
  2
_OPEN
 10
515.0
 20
-293.0
 30
0.0
 41
2.0
 42
2.0
 43
2.0
 50
90.0
  0
INSERT
  5
9E9C
330
9D41
100
AcDbEntity
  8
30
  6
Continuous
 62
     0
370
    -2
100
AcDbBlockReference
  2
_OPEN
 10
515.0
 20
-507.0
 30
0.0
 41
2.0
 42
2.0
 43
2.0
 50
270.0
  0
MTEXT
  5
9E9D
330
9D41
100
AcDbEntity
  8
30
  6
Continuous
 62
     0
100
AcDbMText
 10
511.0000000000002
 20
-400.0
 30
0.0
 40
6.0
 41
0.0
 71
     5
 72
     1
  1
\A1;214
 11
0.0000000000000001
 21
1.0
 31
0.0
 73
     1
 44
1.0
1001
ACAD
1000
MTEXTBEGIN
1070
    73
1070
     1
1070
    44
1040
1.0
1070
    74
1070
     0
1000
MTEXTEND
  0
POINT
  5
9E9E
330
9D41
100
AcDbEntity
  8
DEFPOINTS
  6
Continuous
 62
     0
100
AcDbPoint
 10
399.5
 20
-293.0
 30
0.0
  0
POINT
  5
9E9F
330
9D41
100
AcDbEntity
  8
DEFPOINTS
  6
Continuous
 62
     0
100
AcDbPoint
 10
399.5
 20
-507.0
 30
0.0
  0
POINT
  5
9EA0
330
9D41
100
AcDbEntity
  8
DEFPOINTS
  6
Continuous
 62
     0
100
AcDbPoint
 10
515.0
 20
-507.0
 30
0.0
  0
ENDBLK
  5
9D43
330
9D41
100
AcDbEntity
  8
0
100
AcDbBlockEnd
  0
BLOCK
  5
9D4E
330
9D4D
100
AcDbEntity
  8
0
100
AcDbBlockBegin
  2
*D35
 70
     1
 10
0.0
 20
0.0
 30
0.0
  3
*D35
  1

  0
LINE
  5
9EA1
330
9D4D
100
AcDbEntity
  8
30
  6
Continuous
 62
     0
370
    -2
100
AcDbLine
 10
415.0
 20
465.9999999999997
 30
0.0
 11
415.0
 21
515.5
 31
0.0
  0
LINE
  5
9EA2
330
9D4D
100
AcDbEntity
  8
30
  6
Continuous
 62
     0
370
    -2
100
AcDbLine
 10
460.0
 20
506.0000000000001
 30
0.0
 11
460.0
 21
515.5
 31
0.0
  0
LINE
  5
9EA3
330
9D4D
100
AcDbEntity
  8
30
  6
Continuous
 62
     0
370
    -2
100
AcDbLine
 10
417.0
 20
515.0
 30
0.0
 11
458.0
 21
515.0
 31
0.0
  0
INSERT
  5
9EA4
330
9D4D
100
AcDbEntity
  8
30
  6
Continuous
 62
     0
370
    -2
100
AcDbBlockReference
  2
_OPEN
 10
415.0
 20
515.0
 30
0.0
 41
2.0
 42
2.0
 43
2.0
 50
180.0
  0
INSERT
  5
9EA5
330
9D4D
100
AcDbEntity
  8
30
  6
Continuous
 62
     0
370
    -2
100
AcDbBlockReference
  2
_OPEN
 10
460.0
 20
515.0
 30
0.0
 41
2.0
 42
2.0
 43
2.0
  0
MTEXT
  5
9EA6
330
9D4D
100
AcDbEntity
  8
30
  6
Continuous
 62
     0
100
AcDbMText
 10
437.5
 20
519.0
 30
0.0
 40
6.0
 41
0.0
 71
     5
 72
     1
  1
\A1;45
 73
     1
 44
1.0
1001
ACAD
1000
MTEXTBEGIN
1070
    73
1070
     1
1070
    44
1040
1.0
1070
    74
1070
     0
1000
MTEXTEND
  0
POINT
  5
9EA7
330
9D4D
100
AcDbEntity
  8
DEFPOINTS
  6
Continuous
 62
     0
100
AcDbPoint
 10
415.0
 20
464.9999999999997
 30
0.0
  0
POINT
  5
9EA8
330
9D4D
100
AcDbEntity
  8
DEFPOINTS
  6
Continuous
 62
     0
100
AcDbPoint
 10
460.0
 20
505.0000000000001
 30
0.0
  0
POINT
  5
9EA9
330
9D4D
100
AcDbEntity
  8
DEFPOINTS
  6
Continuous
 62
     0
100
AcDbPoint
 10
460.0
 20
515.0
 30
0.0
  0
ENDBLK
  5
9D4F
330
9D4D
100
AcDbEntity
  8
0
100
AcDbBlockEnd
  0
BLOCK
  5
9D5A
330
9D59
100
AcDbEntity
  8
0
100
AcDbBlockBegin
  2
*D36
 70
     1
 10
0.0
 20
0.0
 30
0.0
  3
*D36
  1

  0
LINE
  5
9F11
330
9D59
100
AcDbEntity
  8
30
  6
Continuous
 62
     0
370
    -2
100
AcDbLine
 10
313.0
 20
124.0
 30
0.0
 11
274.5
 21
124.0
 31
0.0
  0
LINE
  5
9F12
330
9D59
100
AcDbEntity
  8
30
  6
Continuous
 62
     0
370
    -2
100
AcDbLine
 10
313.0
 20
-104.0000000000004
 30
0.0
 11
274.5
 21
-104.0000000000004
 31
0.0
  0
LINE
  5
9F13
330
9D59
100
AcDbEntity
  8
30
  6
Continuous
 62
     0
370
    -2
100
AcDbLine
 10
275.0
 20
122.0
 30
0.0
 11
275.0
 21
-102.0000000000004
 31
0.0
  0
INSERT
  5
9F14
330
9D59
100
AcDbEntity
  8
30
  6
Continuous
 62
     0
370
    -2
100
AcDbBlockReference
  2
_OPEN
 10
275.0
 20
124.0
 30
0.0
 41
2.0
 42
2.0
 43
2.0
 50
90.0
  0
INSERT
  5
9F15
330
9D59
100
AcDbEntity
  8
30
  6
Continuous
 62
     0
370
    -2
100
AcDbBlockReference
  2
_OPEN
 10
275.0
 20
-104.0000000000004
 30
0.0
 41
2.0
 42
2.0
 43
2.0
 50
270.0
  0
MTEXT
  5
9F16
330
9D59
100
AcDbEntity
  8
30
  6
Continuous
 62
     0
100
AcDbMText
 10
270.0
 20
9.999999999999827
 30
0.0
 40
6.0
 41
0.0
 71
     5
 72
     1
  1
\A1;228
 11
0.0000000000000001
 21
1.0
 31
0.0
 73
     1
 44
1.0
1001
ACAD
1000
MTEXTBEGIN
1070
    73
1070
     1
1070
    44
1040
1.0
1070
    74
1070
     0
1000
MTEXTEND
  0
POINT
  5
9F17
330
9D59
100
AcDbEntity
  8
DEFPOINTS
  6
Continuous
 62
     0
100
AcDbPoint
 10
316.0
 20
124.0
 30
0.0
  0
POINT
  5
9F18
330
9D59
100
AcDbEntity
  8
DEFPOINTS
  6
Continuous
 62
     0
100
AcDbPoint
 10
316.0
 20
-104.0000000000004
 30
0.0
  0
POINT
  5
9F19
330
9D59
100
AcDbEntity
  8
DEFPOINTS
  6
Continuous
 62
     0
100
AcDbPoint
 10
275.0
 20
-104.0000000000004
 30
0.0
  0
ENDBLK
  5
9D5B
330
9D59
100
AcDbEntity
  8
0
100
AcDbBlockEnd
  0
BLOCK
  5
A00F
330
A00E
100
AcDbEntity
  8
0
100
AcDbBlockBegin
  2
*D37
 70
     1
 10
0.0
 20
0.0
 30
0.0
  3
*D37
  1

  0
LINE
  5
A010
330
A00E
100
AcDbEntity
  8
30
  6
Continuous
 62
     0
370
    -2
100
AcDbLine
 10
300.0
 20
-123.0
 30
0.0
 11
300.0
 21
-220.5
 31
0.0
  0
LINE
  5
A011
330
A00E
100
AcDbEntity
  8
30
  6
Continuous
 62
     0
370
    -2
100
AcDbLine
 10
484.9999999999986
 20
-123.0
 30
0.0
 11
484.9999999999986
 21
-220.5
 31
0.0
  0
LINE
  5
A012
330
A00E
100
AcDbEntity
  8
30
  6
Continuous
 62
     0
370
    -2
100
AcDbLine
 10
302.0
 20
-220.0
 30
0.0
 11
482.9999999999986
 21
-220.0
 31
0.0
  0
INSERT
  5
A013
330
A00E
100
AcDbEntity
  8
30
  6
Continuous
 62
     0
370
    -2
100
AcDbBlockReference
  2
_OPEN
 10
300.0
 20
-220.0
 30
0.0
 41
2.0
 42
2.0
 43
2.0
 50
180.0
  0
INSERT
  5
A014
330
A00E
100
AcDbEntity
  8
30
  6
Continuous
 62
     0
370
    -2
100
AcDbBlockReference
  2
_OPEN
 10
484.9999999999986
 20
-220.0
 30
0.0
 41
2.0
 42
2.0
 43
2.0
  0
MTEXT
  5
A015
330
A00E
100
AcDbEntity
  8
30
  6
Continuous
 62
     0
100
AcDbMText
 10
392.4999999999993
 20
-215.0
 30
0.0
 40
6.0
 41
0.0
 71
     5
 72
     1
  1
\A1;185
 73
     1
 44
1.0
1001
ACAD
1000
MTEXTBEGIN
1070
    73
1070
     1
1070
    44
1040
1.0
1070
    74
1070
     0
1000
MTEXTEND
  0
POINT
  5
A016
330
A00E
100
AcDbEntity
  8
DEFPOINTS
  6
Continuous
 62
     0
100
AcDbPoint
 10
300.0
 20
-120.0
 30
0.0
  0
POINT
  5
A017
330
A00E
100
AcDbEntity
  8
DEFPOINTS
  6
Continuous
 62
     0
100
AcDbPoint
 10
484.9999999999986
 20
-120.0
 30
0.0
  0
POINT
  5
A018
330
A00E
100
AcDbEntity
  8
DEFPOINTS
  6
Continuous
 62
     0
100
AcDbPoint
 10
484.9999999999986
 20
-220.0
 30
0.0
  0
ENDBLK
  5
A019
330
A00E
100
AcDbEntity
  8
0
100
AcDbBlockEnd
  0
BLOCK
  5
A01B
330
A01A
100
AcDbEntity
  8
0
100
AcDbBlockBegin
  2
*D38
 70
     1
 10
0.0
 20
0.0
 30
0.0
  3
*D38
  1

  0
LINE
  5
A01C
330
A01A
100
AcDbEntity
  8
30
  6
Continuous
 62
     0
370
    -2
100
AcDbLine
 10
324.9999999999992
 20
-116.0000000000002
 30
0.0
 11
324.9999999999992
 21
-210.5
 31
0.0
  0
LINE
  5
A01D
330
A01A
100
AcDbEntity
  8
30
  6
Continuous
 62
     0
370
    -2
100
AcDbLine
 10
369.9999999999992
 20
-205.0
 30
0.0
 11
369.9999999999992
 21
-210.5
 31
0.0
  0
LINE
  5
A01E
330
A01A
100
AcDbEntity
  8
30
  6
Continuous
 62
     0
370
    -2
100
AcDbLine
 10
326.9999999999992
 20
-210.0
 30
0.0
 11
367.9999999999992
 21
-210.0
 31
0.0
  0
INSERT
  5
A01F
330
A01A
100
AcDbEntity
  8
30
  6
Continuous
 62
     0
370
    -2
100
AcDbBlockReference
  2
_OPEN
 10
324.9999999999992
 20
-210.0
 30
0.0
 41
2.0
 42
2.0
 43
2.0
 50
180.0
  0
INSERT
  5
A020
330
A01A
100
AcDbEntity
  8
30
  6
Continuous
 62
     0
370
    -2
100
AcDbBlockReference
  2
_OPEN
 10
369.9999999999992
 20
-210.0
 30
0.0
 41
2.0
 42
2.0
 43
2.0
  0
MTEXT
  5
A021
330
A01A
100
AcDbEntity
  8
30
  6
Continuous
 62
     0
100
AcDbMText
 10
347.4999999999992
 20
-205.0
 30
0.0
 40
6.0
 41
0.0
 71
     5
 72
     1
  1
\A1;45
 73
     1
 44
1.0
1001
ACAD
1000
MTEXTBEGIN
1070
    73
1070
     1
1070
    44
1040
1.0
1070
    74
1070
     0
1000
MTEXTEND
  0
POINT
  5
A022
330
A01A
100
AcDbEntity
  8
DEFPOINTS
  6
Continuous
 62
     0
100
AcDbPoint
 10
324.9999999999992
 20
-113.0000000000002
 30
0.0
  0
POINT
  5
A023
330
A01A
100
AcDbEntity
  8
DEFPOINTS
  6
Continuous
 62
     0
100
AcDbPoint
 10
369.9999999999992
 20
-202.0
 30
0.0
  0
POINT
  5
A024
330
A01A
100
AcDbEntity
  8
DEFPOINTS
  6
Continuous
 62
     0
100
AcDbPoint
 10
369.9999999999992
 20
-210.0
 30
0.0
  0
ENDBLK
  5
A025
330
A01A
100
AcDbEntity
  8
0
100
AcDbBlockEnd
  0
BLOCK
  5
A027
330
A026
100
AcDbEntity
  8
0
100
AcDbBlockBegin
  2
*D39
 70
     1
 10
0.0
 20
0.0
 30
0.0
  3
*D39
  1

  0
LINE
  5
A028
330
A026
100
AcDbEntity
  8
30
  6
Continuous
 62
     0
370
    -2
100
AcDbLine
 10
370.0
 20
-203.0
 30
0.0
 11
370.0
 21
-210.5
 31
0.0
  0
LINE
  5
A029
330
A026
100
AcDbEntity
  8
30
  6
Continuous
 62
     0
370
    -2
100
AcDbLine
 10
414.9999999999991
 20
-116.0000000000002
 30
0.0
 11
414.9999999999991
 21
-210.5
 31
0.0
  0
LINE
  5
A02A
330
A026
100
AcDbEntity
  8
30
  6
Continuous
 62
     0
370
    -2
100
AcDbLine
 10
372.0
 20
-210.0
 30
0.0
 11
412.9999999999991
 21
-210.0
 31
0.0
  0
INSERT
  5
A02B
330
A026
100
AcDbEntity
  8
30
  6
Continuous
 62
     0
370
    -2
100
AcDbBlockReference
  2
_OPEN
 10
370.0
 20
-210.0
 30
0.0
 41
2.0
 42
2.0
 43
2.0
 50
180.0
  0
INSERT
  5
A02C
330
A026
100
AcDbEntity
  8
30
  6
Continuous
 62
     0
370
    -2
100
AcDbBlockReference
  2
_OPEN
 10
414.9999999999991
 20
-210.0
 30
0.0
 41
2.0
 42
2.0
 43
2.0
  0
MTEXT
  5
A02D
330
A026
100
AcDbEntity
  8
30
  6
Continuous
 62
     0
100
AcDbMText
 10
392.4999999999995
 20
-205.0
 30
0.0
 40
6.0
 41
0.0
 71
     5
 72
     1
  1
\A1;45
 73
     1
 44
1.0
1001
ACAD
1000
MTEXTBEGIN
1070
    73
1070
     1
1070
    44
1040
1.0
1070
    74
1070
     0
1000
MTEXTEND
  0
POINT
  5
A02E
330
A026
100
AcDbEntity
  8
DEFPOINTS
  6
Continuous
 62
     0
100
AcDbPoint
 10
370.0
 20
-200.0
 30
0.0
  0
POINT
  5
A02F
330
A026
100
AcDbEntity
  8
DEFPOINTS
  6
Continuous
 62
     0
100
AcDbPoint
 10
414.9999999999991
 20
-113.0000000000002
 30
0.0
  0
POINT
  5
A030
330
A026
100
AcDbEntity
  8
DEFPOINTS
  6
Continuous
 62
     0
100
AcDbPoint
 10
414.9999999999991
 20
-210.0
 30
0.0
  0
ENDBLK
  5
A031
330
A026
100
AcDbEntity
  8
0
100
AcDbBlockEnd
  0
BLOCK
  5
A033
330
A032
100
AcDbEntity
  8
0
100
AcDbBlockBegin
  2
*D40
 70
     1
 10
0.0
 20
0.0
 30
0.0
  3
*D40
  1

  0
LINE
  5
A034
330
A032
100
AcDbEntity
  8
30
  6
Continuous
 62
     0
370
    -2
100
AcDbLine
 10
414.9999999999991
 20
-116.0000000000002
 30
0.0
 11
414.9999999999991
 21
-210.5
 31
0.0
  0
LINE
  5
A035
330
A032
100
AcDbEntity
  8
30
  6
Continuous
 62
     0
370
    -2
100
AcDbLine
 10
460.0
 20
-116.0000000000002
 30
0.0
 11
460.0
 21
-210.5
 31
0.0
  0
LINE
  5
A036
330
A032
100
AcDbEntity
  8
30
  6
Continuous
 62
     0
370
    -2
100
AcDbLine
 10
416.9999999999991
 20
-210.0
 30
0.0
 11
458.0
 21
-210.0
 31
0.0
  0
INSERT
  5
A037
330
A032
100
AcDbEntity
  8
30
  6
Continuous
 62
     0
370
    -2
100
AcDbBlockReference
  2
_OPEN
 10
414.9999999999991
 20
-210.0
 30
0.0
 41
2.0
 42
2.0
 43
2.0
 50
180.0
  0
INSERT
  5
A038
330
A032
100
AcDbEntity
  8
30
  6
Continuous
 62
     0
370
    -2
100
AcDbBlockReference
  2
_OPEN
 10
460.0
 20
-210.0
 30
0.0
 41
2.0
 42
2.0
 43
2.0
  0
MTEXT
  5
A039
330
A032
100
AcDbEntity
  8
30
  6
Continuous
 62
     0
100
AcDbMText
 10
437.4999999999994
 20
-205.0
 30
0.0
 40
6.0
 41
0.0
 71
     5
 72
     1
  1
\A1;45
 73
     1
 44
1.0
1001
ACAD
1000
MTEXTBEGIN
1070
    73
1070
     1
1070
    44
1040
1.0
1070
    74
1070
     0
1000
MTEXTEND
  0
POINT
  5
A03A
330
A032
100
AcDbEntity
  8
DEFPOINTS
  6
Continuous
 62
     0
100
AcDbPoint
 10
414.9999999999991
 20
-113.0000000000002
 30
0.0
  0
POINT
  5
A03B
330
A032
100
AcDbEntity
  8
DEFPOINTS
  6
Continuous
 62
     0
100
AcDbPoint
 10
460.0
 20
-113.0000000000002
 30
0.0
  0
POINT
  5
A03C
330
A032
100
AcDbEntity
  8
DEFPOINTS
  6
Continuous
 62
     0
100
AcDbPoint
 10
460.0
 20
-210.0
 30
0.0
  0
ENDBLK
  5
A03D
330
A032
100
AcDbEntity
  8
0
100
AcDbBlockEnd
  0
BLOCK
  5
A04E
330
A04D
100
AcDbEntity
  8
0
100
AcDbBlockBegin
  2
*D41
 70
     1
 10
0.0
 20
0.0
 30
0.0
  3
*D41
  1

  0
LINE
  5
A0A1
330
A04D
100
AcDbEntity
  8
30
  6
Continuous
 62
     0
370
    -2
100
AcDbLine
 10
300.0
 20
-123.0
 30
0.0
 11
300.0
 21
-150.5
 31
0.0
  0
LINE
  5
A0A2
330
A04D
100
AcDbEntity
  8
30
  6
Continuous
 62
     0
370
    -2
100
AcDbLine
 10
484.9999999999986
 20
-123.0
 30
0.0
 11
484.9999999999986
 21
-150.5
 31
0.0
  0
LINE
  5
A0A3
330
A04D
100
AcDbEntity
  8
30
  6
Continuous
 62
     0
370
    -2
100
AcDbLine
 10
302.0
 20
-150.0
 30
0.0
 11
482.9999999999986
 21
-150.0
 31
0.0
  0
INSERT
  5
A0A4
330
A04D
100
AcDbEntity
  8
30
  6
Continuous
 62
     0
370
    -2
100
AcDbBlockReference
  2
_OPEN
 10
300.0
 20
-150.0
 30
0.0
 41
2.0
 42
2.0
 43
2.0
 50
180.0
  0
INSERT
  5
A0A5
330
A04D
100
AcDbEntity
  8
30
  6
Continuous
 62
     0
370
    -2
100
AcDbBlockReference
  2
_OPEN
 10
484.9999999999986
 20
-150.0
 30
0.0
 41
2.0
 42
2.0
 43
2.0
  0
MTEXT
  5
A0A6
330
A04D
100
AcDbEntity
  8
30
  6
Continuous
 62
     0
100
AcDbMText
 10
392.4999999999993
 20
-145.0
 30
0.0
 40
6.0
 41
0.0
 71
     5
 72
     1
  1
\A1;185
 73
     1
 44
1.0
1001
ACAD
1000
MTEXTBEGIN
1070
    73
1070
     1
1070
    44
1040
1.0
1070
    74
1070
     0
1000
MTEXTEND
  0
POINT
  5
A0A7
330
A04D
100
AcDbEntity
  8
DEFPOINTS
  6
Continuous
 62
     0
100
AcDbPoint
 10
300.0
 20
-120.0
 30
0.0
  0
POINT
  5
A0A8
330
A04D
100
AcDbEntity
  8
DEFPOINTS
  6
Continuous
 62
     0
100
AcDbPoint
 10
484.9999999999986
 20
-120.0
 30
0.0
  0
POINT
  5
A0A9
330
A04D
100
AcDbEntity
  8
DEFPOINTS
  6
Continuous
 62
     0
100
AcDbPoint
 10
484.9999999999986
 20
-150.0
 30
0.0
  0
ENDBLK
  5
A04F
330
A04D
100
AcDbEntity
  8
0
100
AcDbBlockEnd
  0
BLOCK
  5
A05A
330
A059
100
AcDbEntity
  8
0
100
AcDbBlockBegin
  2
*D42
 70
     1
 10
0.0
 20
0.0
 30
0.0
  3
*D42
  1

  0
LINE
  5
A0AA
330
A059
100
AcDbEntity
  8
30
  6
Continuous
 62
     0
370
    -2
100
AcDbLine
 10
324.9999999999992
 20
-116.0000000000002
 30
0.0
 11
324.9999999999992
 21
-140.5
 31
0.0
  0
LINE
  5
A0AB
330
A059
100
AcDbEntity
  8
30
  6
Continuous
 62
     0
370
    -2
100
AcDbLine
 10
369.9999999999992
 20
-135.0
 30
0.0
 11
369.9999999999992
 21
-140.5
 31
0.0
  0
LINE
  5
A0AC
330
A059
100
AcDbEntity
  8
30
  6
Continuous
 62
     0
370
    -2
100
AcDbLine
 10
326.9999999999992
 20
-140.0
 30
0.0
 11
367.9999999999992
 21
-140.0
 31
0.0
  0
INSERT
  5
A0AD
330
A059
100
AcDbEntity
  8
30
  6
Continuous
 62
     0
370
    -2
100
AcDbBlockReference
  2
_OPEN
 10
324.9999999999992
 20
-140.0
 30
0.0
 41
2.0
 42
2.0
 43
2.0
 50
180.0
  0
INSERT
  5
A0AE
330
A059
100
AcDbEntity
  8
30
  6
Continuous
 62
     0
370
    -2
100
AcDbBlockReference
  2
_OPEN
 10
369.9999999999992
 20
-140.0
 30
0.0
 41
2.0
 42
2.0
 43
2.0
  0
MTEXT
  5
A0AF
330
A059
100
AcDbEntity
  8
30
  6
Continuous
 62
     0
100
AcDbMText
 10
347.4999999999992
 20
-135.0
 30
0.0
 40
6.0
 41
0.0
 71
     5
 72
     1
  1
\A1;45
 73
     1
 44
1.0
1001
ACAD
1000
MTEXTBEGIN
1070
    73
1070
     1
1070
    44
1040
1.0
1070
    74
1070
     0
1000
MTEXTEND
  0
POINT
  5
A0B0
330
A059
100
AcDbEntity
  8
DEFPOINTS
  6
Continuous
 62
     0
100
AcDbPoint
 10
324.9999999999992
 20
-113.0000000000002
 30
0.0
  0
POINT
  5
A0B1
330
A059
100
AcDbEntity
  8
DEFPOINTS
  6
Continuous
 62
     0
100
AcDbPoint
 10
369.9999999999992
 20
-132.0
 30
0.0
  0
POINT
  5
A0B2
330
A059
100
AcDbEntity
  8
DEFPOINTS
  6
Continuous
 62
     0
100
AcDbPoint
 10
369.9999999999992
 20
-140.0
 30
0.0
  0
ENDBLK
  5
A05B
330
A059
100
AcDbEntity
  8
0
100
AcDbBlockEnd
  0
BLOCK
  5
A066
330
A065
100
AcDbEntity
  8
0
100
AcDbBlockBegin
  2
*D43
 70
     1
 10
0.0
 20
0.0
 30
0.0
  3
*D43
  1

  0
LINE
  5
A0B3
330
A065
100
AcDbEntity
  8
30
  6
Continuous
 62
     0
370
    -2
100
AcDbLine
 10
370.0
 20
-133.0
 30
0.0
 11
370.0
 21
-140.5
 31
0.0
  0
LINE
  5
A0B4
330
A065
100
AcDbEntity
  8
30
  6
Continuous
 62
     0
370
    -2
100
AcDbLine
 10
414.9999999999991
 20
-116.0000000000002
 30
0.0
 11
414.9999999999991
 21
-140.5
 31
0.0
  0
LINE
  5
A0B5
330
A065
100
AcDbEntity
  8
30
  6
Continuous
 62
     0
370
    -2
100
AcDbLine
 10
372.0
 20
-140.0
 30
0.0
 11
412.9999999999991
 21
-140.0
 31
0.0
  0
INSERT
  5
A0B6
330
A065
100
AcDbEntity
  8
30
  6
Continuous
 62
     0
370
    -2
100
AcDbBlockReference
  2
_OPEN
 10
370.0
 20
-140.0
 30
0.0
 41
2.0
 42
2.0
 43
2.0
 50
180.0
  0
INSERT
  5
A0B7
330
A065
100
AcDbEntity
  8
30
  6
Continuous
 62
     0
370
    -2
100
AcDbBlockReference
  2
_OPEN
 10
414.9999999999991
 20
-140.0
 30
0.0
 41
2.0
 42
2.0
 43
2.0
  0
MTEXT
  5
A0B8
330
A065
100
AcDbEntity
  8
30
  6
Continuous
 62
     0
100
AcDbMText
 10
392.4999999999995
 20
-135.0
 30
0.0
 40
6.0
 41
0.0
 71
     5
 72
     1
  1
\A1;45
 73
     1
 44
1.0
1001
ACAD
1000
MTEXTBEGIN
1070
    73
1070
     1
1070
    44
1040
1.0
1070
    74
1070
     0
1000
MTEXTEND
  0
POINT
  5
A0B9
330
A065
100
AcDbEntity
  8
DEFPOINTS
  6
Continuous
 62
     0
100
AcDbPoint
 10
370.0
 20
-130.0
 30
0.0
  0
POINT
  5
A0BA
330
A065
100
AcDbEntity
  8
DEFPOINTS
  6
Continuous
 62
     0
100
AcDbPoint
 10
414.9999999999991
 20
-113.0000000000002
 30
0.0
  0
POINT
  5
A0BB
330
A065
100
AcDbEntity
  8
DEFPOINTS
  6
Continuous
 62
     0
100
AcDbPoint
 10
414.9999999999991
 20
-140.0
 30
0.0
  0
ENDBLK
  5
A067
330
A065
100
AcDbEntity
  8
0
100
AcDbBlockEnd
  0
BLOCK
  5
A072
330
A071
100
AcDbEntity
  8
0
100
AcDbBlockBegin
  2
*D44
 70
     1
 10
0.0
 20
0.0
 30
0.0
  3
*D44
  1

  0
LINE
  5
A0BC
330
A071
100
AcDbEntity
  8
30
  6
Continuous
 62
     0
370
    -2
100
AcDbLine
 10
414.9999999999991
 20
-116.0000000000002
 30
0.0
 11
414.9999999999991
 21
-140.5
 31
0.0
  0
LINE
  5
A0BD
330
A071
100
AcDbEntity
  8
30
  6
Continuous
 62
     0
370
    -2
100
AcDbLine
 10
460.0
 20
-116.0000000000002
 30
0.0
 11
460.0
 21
-140.5
 31
0.0
  0
LINE
  5
A0BE
330
A071
100
AcDbEntity
  8
30
  6
Continuous
 62
     0
370
    -2
100
AcDbLine
 10
416.9999999999991
 20
-140.0
 30
0.0
 11
458.0
 21
-140.0
 31
0.0
  0
INSERT
  5
A0BF
330
A071
100
AcDbEntity
  8
30
  6
Continuous
 62
     0
370
    -2
100
AcDbBlockReference
  2
_OPEN
 10
414.9999999999991
 20
-140.0
 30
0.0
 41
2.0
 42
2.0
 43
2.0
 50
180.0
  0
INSERT
  5
A0C0
330
A071
100
AcDbEntity
  8
30
  6
Continuous
 62
     0
370
    -2
100
AcDbBlockReference
  2
_OPEN
 10
460.0
 20
-140.0
 30
0.0
 41
2.0
 42
2.0
 43
2.0
  0
MTEXT
  5
A0C1
330
A071
100
AcDbEntity
  8
30
  6
Continuous
 62
     0
100
AcDbMText
 10
437.4999999999994
 20
-135.0
 30
0.0
 40
6.0
 41
0.0
 71
     5
 72
     1
  1
\A1;45
 73
     1
 44
1.0
1001
ACAD
1000
MTEXTBEGIN
1070
    73
1070
     1
1070
    44
1040
1.0
1070
    74
1070
     0
1000
MTEXTEND
  0
POINT
  5
A0C2
330
A071
100
AcDbEntity
  8
DEFPOINTS
  6
Continuous
 62
     0
100
AcDbPoint
 10
414.9999999999991
 20
-113.0000000000002
 30
0.0
  0
POINT
  5
A0C3
330
A071
100
AcDbEntity
  8
DEFPOINTS
  6
Continuous
 62
     0
100
AcDbPoint
 10
460.0
 20
-113.0000000000002
 30
0.0
  0
POINT
  5
A0C4
330
A071
100
AcDbEntity
  8
DEFPOINTS
  6
Continuous
 62
     0
100
AcDbPoint
 10
460.0
 20
-140.0
 30
0.0
  0
ENDBLK
  5
A073
330
A071
100
AcDbEntity
  8
0
100
AcDbBlockEnd
  0
BLOCK
  5
A0C6
330
A0C5
100
AcDbEntity
  8
0
100
AcDbBlockBegin
  2
*U45
 70
     1
 10
0.0
 20
0.0
 30
0.0
  3
*U45
  1

  0
TEXT
  5
A0C7
330
A0C5
100
AcDbEntity
  8
16
100
AcDbText
 10
351.6754600000002
 20
69.06337833333329
 30
0.0
 40
6.25
  1
C
  7
blockfont
100
AcDbText
  0
ENDBLK
  5
A0C8
330
A0C5
100
AcDbEntity
  8
0
100
AcDbBlockEnd
  0
BLOCK
  5
A0CA
330
A0C9
100
AcDbEntity
  8
0
100
AcDbBlockBegin
  2
*U46
 70
     1
 10
0.0
 20
0.0
 30
0.0
  3
*U46
  1

  0
TEXT
  5
A0CB
330
A0C9
100
AcDbEntity
  8
16
100
AcDbText
 10
353.3824625
 20
66.65349083333332
 30
0.0
 40
6.25
  1
L
  7
blockfont
100
AcDbText
  0
ENDBLK
  5
A0CC
330
A0C9
100
AcDbEntity
  8
0
100
AcDbBlockEnd
  0
BLOCK
  5
A0CE
330
A0CD
100
AcDbEntity
  8
0
100
AcDbBlockBegin
  2
*D47
 70
     1
 10
0.0
 20
0.0
 30
0.0
  3
*D47
  1

  0
LINE
  5
A0CF
330
A0CD
100
AcDbEntity
  8
30
  6
Continuous
 62
     0
370
    -2
100
AcDbLine
 10
804.9930829734
 20
-346.0312994595852
 30
0.0
 11
793.9930829733992
 21
-346.0312994595852
 31
0.0
  0
LINE
  5
A0D0
330
A0CD
100
AcDbEntity
  8
30
  6
Continuous
 62
     0
370
    -2
100
AcDbLine
 10
793.9930829733992
 20
-346.0312994595852
 30
0.0
 11
770.2934498468414
 21
-356.7128143752428
 31
0.0
  0
MTEXT
  5
A0D1
330
A0CD
100
AcDbEntity
  8
30
  6
Continuous
 62
     0
100
AcDbMText
 10
799.9930829733998
 20
-342.0312994595851
 30
0.0
 40
6.0
 41
0.0
 71
     5
 72
     1
  1
\A1;R6
 73
     1
 44
1.0
1001
ACAD
1000
MTEXTBEGIN
1070
    73
1070
     1
1070
    44
1040
1.0
1070
    74
1070
     0
1000
MTEXTEND
  0
INSERT
  5
A0D2
330
A0CD
100
AcDbEntity
  8
30
  6
Continuous
 62
     0
370
    -2
100
AcDbBlockReference
  2
_OPEN
 10
768.4700873851312
 20
-357.5346107814322
 30
0.0
 41
2.0
 42
2.0
 43
2.0
 50
204.2612710120847
  0
LINE
  5
A0D3
330
A0CD
100
AcDbEntity
  8
30
  6
Continuous
 62
     0
370
    -2
100
AcDbLine
 10
762.9099999999997
 20
-360.0000000000004
 30
0.0
 11
763.0899999999996
 21
-360.0000000000004
 31
0.0
  0
LINE
  5
A0D4
330
A0CD
100
AcDbEntity
  8
30
  6
Continuous
 62
     0
370
    -2
100
AcDbLine
 10
762.9999999999995
 20
-360.0900000000004
 30
0.0
 11
762.9999999999995
 21
-359.9100000000005
 31
0.0
  0
POINT
  5
A0D5
330
A0CD
100
AcDbEntity
  8
DEFPOINTS
  6
Continuous
 62
     0
100
AcDbPoint
 10
768.4700873851312
 20
-357.5346107814322
 30
0.0
  0
POINT
  5
A0D6
330
A0CD
100
AcDbEntity
  8
DEFPOINTS
  6
Continuous
 62
     0
100
AcDbPoint
 10
762.9999999999995
 20
-360.0000000000004
 30
0.0
  0
ENDBLK
  5
A0D7
330
A0CD
100
AcDbEntity
  8
0
100
AcDbBlockEnd
  0
BLOCK
  5
A0D9
330
A0D8
100
AcDbEntity
  8
0
100
AcDbBlockBegin
  2
*D48
 70
     1
 10
0.0
 20
0.0
 30
0.0
  3
*D48
  1

  0
LINE
  5
A0DA
330
A0D8
100
AcDbEntity
  8
30
  6
Continuous
 62
     0
370
    -2
100
AcDbLine
 10
651.0
 20
-443.0
 30
0.0
 11
651.0
 21
-470.5
 31
0.0
  0
LINE
  5
A0DB
330
A0D8
100
AcDbEntity
  8
30
  6
Continuous
 62
     0
370
    -2
100
AcDbLine
 10
769.0
 20
-443.0
 30
0.0
 11
769.0
 21
-470.5
 31
0.0
  0
LINE
  5
A0DC
330
A0D8
100
AcDbEntity
  8
30
  6
Continuous
 62
     0
370
    -2
100
AcDbLine
 10
653.0
 20
-470.0
 30
0.0
 11
767.0
 21
-470.0
 31
0.0
  0
INSERT
  5
A0DD
330
A0D8
100
AcDbEntity
  8
30
  6
Continuous
 62
     0
370
    -2
100
AcDbBlockReference
  2
_OPEN
 10
651.0
 20
-470.0
 30
0.0
 41
2.0
 42
2.0
 43
2.0
 50
180.0
  0
INSERT
  5
A0DE
330
A0D8
100
AcDbEntity
  8
30
  6
Continuous
 62
     0
370
    -2
100
AcDbBlockReference
  2
_OPEN
 10
769.0
 20
-470.0
 30
0.0
 41
2.0
 42
2.0
 43
2.0
  0
MTEXT
  5
A0DF
330
A0D8
100
AcDbEntity
  8
30
  6
Continuous
 62
     0
100
AcDbMText
 10
710.0
 20
-465.0
 30
0.0
 40
6.0
 41
0.0
 71
     5
 72
     1
  1
\A1;118
 73
     1
 44
1.0
1001
ACAD
1000
MTEXTBEGIN
1070
    73
1070
     1
1070
    44
1040
1.0
1070
    74
1070
     0
1000
MTEXTEND
  0
POINT
  5
A0E0
330
A0D8
100
AcDbEntity
  8
DEFPOINTS
  6
Continuous
 62
     0
100
AcDbPoint
 10
651.0
 20
-440.0
 30
0.0
  0
POINT
  5
A0E1
330
A0D8
100
AcDbEntity
  8
DEFPOINTS
  6
Continuous
 62
     0
100
AcDbPoint
 10
769.0
 20
-440.0
 30
0.0
  0
POINT
  5
A0E2
330
A0D8
100
AcDbEntity
  8
DEFPOINTS
  6
Continuous
 62
     0
100
AcDbPoint
 10
769.0
 20
-470.0
 30
0.0
  0
ENDBLK
  5
A0E3
330
A0D8
100
AcDbEntity
  8
0
100
AcDbBlockEnd
  0
BLOCK
  5
A0E5
330
A0E4
100
AcDbEntity
  8
0
100
AcDbBlockBegin
  2
*D49
 70
     1
 10
0.0
 20
0.0
 30
0.0
  3
*D49
  1

  0
LINE
  5
A0E6
330
A0E4
100
AcDbEntity
  8
30
  6
Continuous
 62
     0
370
    -2
100
AcDbLine
 10
766.0
 20
-353.9999999999998
 30
0.0
 11
845.5
 21
-353.9999999999998
 31
0.0
  0
LINE
  5
A0E7
330
A0E4
100
AcDbEntity
  8
30
  6
Continuous
 62
     0
370
    -2
100
AcDbLine
 10
766.0
 20
-446.0
 30
0.0
 11
845.5
 21
-446.0
 31
0.0
  0
LINE
  5
A0E8
330
A0E4
100
AcDbEntity
  8
30
  6
Continuous
 62
     0
370
    -2
100
AcDbLine
 10
845.0
 20
-355.9999999999998
 30
0.0
 11
845.0
 21
-444.0
 31
0.0
  0
INSERT
  5
A0E9
330
A0E4
100
AcDbEntity
  8
30
  6
Continuous
 62
     0
370
    -2
100
AcDbBlockReference
  2
_OPEN
 10
845.0
 20
-353.9999999999998
 30
0.0
 41
2.0
 42
2.0
 43
2.0
 50
90.0
  0
INSERT
  5
A0EA
330
A0E4
100
AcDbEntity
  8
30
  6
Continuous
 62
     0
370
    -2
100
AcDbBlockReference
  2
_OPEN
 10
845.0
 20
-446.0
 30
0.0
 41
2.0
 42
2.0
 43
2.0
 50
270.0
  0
MTEXT
  5
A0EB
330
A0E4
100
AcDbEntity
  8
30
  6
Continuous
 62
     0
100
AcDbMText
 10
840.0000000000003
 20
-399.9999999999998
 30
0.0
 40
6.0
 41
0.0
 71
     5
 72
     1
  1
\A1;92
 11
0.0000000000000001
 21
1.0
 31
0.0
 73
     1
 44
1.0
1001
ACAD
1000
MTEXTBEGIN
1070
    73
1070
     1
1070
    44
1040
1.0
1070
    74
1070
     0
1000
MTEXTEND
  0
POINT
  5
A0EC
330
A0E4
100
AcDbEntity
  8
DEFPOINTS
  6
Continuous
 62
     0
100
AcDbPoint
 10
763.0
 20
-353.9999999999998
 30
0.0
  0
POINT
  5
A0ED
330
A0E4
100
AcDbEntity
  8
DEFPOINTS
  6
Continuous
 62
     0
100
AcDbPoint
 10
763.0
 20
-446.0
 30
0.0
  0
POINT
  5
A0EE
330
A0E4
100
AcDbEntity
  8
DEFPOINTS
  6
Continuous
 62
     0
100
AcDbPoint
 10
845.0
 20
-446.0
 30
0.0
  0
ENDBLK
  5
A0EF
330
A0E4
100
AcDbEntity
  8
0
100
AcDbBlockEnd
  0
BLOCK
  5
A122
330
A121
100
AcDbEntity
  8
0
100
AcDbBlockBegin
  2
*D50
 70
     1
 10
0.0
 20
0.0
 30
0.0
  3
*D50
  1

  0
LINE
  5
A144
330
A121
100
AcDbEntity
  8
30
  6
Continuous
 62
     0
370
    -2
100
AcDbLine
 10
804.9930829734
 20
-346.0312994595852
 30
0.0
 11
793.9930829733987
 21
-346.0312994595851
 31
0.0
  0
LINE
  5
A145
330
A121
100
AcDbEntity
  8
30
  6
Continuous
 62
     0
370
    -2
100
AcDbLine
 10
793.9930829733987
 20
-346.0312994595851
 30
0.0
 11
770.2934498468414
 21
-356.7128143752428
 31
0.0
  0
MTEXT
  5
A146
330
A121
100
AcDbEntity
  8
30
  6
Continuous
 62
     0
100
AcDbMText
 10
799.9930829733998
 20
-342.0312994595852
 30
0.0
 40
6.0
 41
0.0
 71
     5
 72
     1
  1
\A1;R6
 73
     1
 44
1.0
1001
ACAD
1000
MTEXTBEGIN
1070
    73
1070
     1
1070
    44
1040
1.0
1070
    74
1070
     0
1000
MTEXTEND
  0
INSERT
  5
A147
330
A121
100
AcDbEntity
  8
30
  6
Continuous
 62
     0
370
    -2
100
AcDbBlockReference
  2
_OPEN
 10
768.470087385131
 20
-357.5346107814322
 30
0.0
 41
2.0
 42
2.0
 43
2.0
 50
204.2612710120853
  0
LINE
  5
A148
330
A121
100
AcDbEntity
  8
30
  6
Continuous
 62
     0
370
    -2
100
AcDbLine
 10
762.9099999999997
 20
-360.0000000000004
 30
0.0
 11
763.0899999999996
 21
-360.0000000000004
 31
0.0
  0
LINE
  5
A149
330
A121
100
AcDbEntity
  8
30
  6
Continuous
 62
     0
370
    -2
100
AcDbLine
 10
762.9999999999995
 20
-360.0900000000004
 30
0.0
 11
762.9999999999995
 21
-359.9100000000003
 31
0.0
  0
POINT
  5
A14A
330
A121
100
AcDbEntity
  8
DEFPOINTS
  6
Continuous
 62
     0
100
AcDbPoint
 10
768.470087385131
 20
-357.5346107814322
 30
0.0
  0
POINT
  5
A14B
330
A121
100
AcDbEntity
  8
DEFPOINTS
  6
Continuous
 62
     0
100
AcDbPoint
 10
762.9999999999995
 20
-360.0000000000004
 30
0.0
  0
ENDBLK
  5
A123
330
A121
100
AcDbEntity
  8
0
100
AcDbBlockEnd
  0
BLOCK
  5
A12D
330
A12C
100
AcDbEntity
  8
0
100
AcDbBlockBegin
  2
*D51
 70
     1
 10
0.0
 20
0.0
 30
0.0
  3
*D51
  1

  0
LINE
  5
A14C
330
A12C
100
AcDbEntity
  8
30
  6
Continuous
 62
     0
370
    -2
100
AcDbLine
 10
651.0
 20
-443.0
 30
0.0
 11
651.0
 21
-470.5
 31
0.0
  0
LINE
  5
A14D
330
A12C
100
AcDbEntity
  8
30
  6
Continuous
 62
     0
370
    -2
100
AcDbLine
 10
769.0
 20
-443.0
 30
0.0
 11
769.0
 21
-470.5
 31
0.0
  0
LINE
  5
A14E
330
A12C
100
AcDbEntity
  8
30
  6
Continuous
 62
     0
370
    -2
100
AcDbLine
 10
653.0
 20
-470.0
 30
0.0
 11
767.0
 21
-470.0
 31
0.0
  0
INSERT
  5
A14F
330
A12C
100
AcDbEntity
  8
30
  6
Continuous
 62
     0
370
    -2
100
AcDbBlockReference
  2
_OPEN
 10
651.0
 20
-470.0
 30
0.0
 41
2.0
 42
2.0
 43
2.0
 50
180.0
  0
INSERT
  5
A150
330
A12C
100
AcDbEntity
  8
30
  6
Continuous
 62
     0
370
    -2
100
AcDbBlockReference
  2
_OPEN
 10
769.0
 20
-470.0
 30
0.0
 41
2.0
 42
2.0
 43
2.0
  0
MTEXT
  5
A151
330
A12C
100
AcDbEntity
  8
30
  6
Continuous
 62
     0
100
AcDbMText
 10
710.0
 20
-465.0
 30
0.0
 40
6.0
 41
0.0
 71
     5
 72
     1
  1
\A1;118
 73
     1
 44
1.0
1001
ACAD
1000
MTEXTBEGIN
1070
    73
1070
     1
1070
    44
1040
1.0
1070
    74
1070
     0
1000
MTEXTEND
  0
POINT
  5
A152
330
A12C
100
AcDbEntity
  8
DEFPOINTS
  6
Continuous
 62
     0
100
AcDbPoint
 10
651.0
 20
-440.0
 30
0.0
  0
POINT
  5
A153
330
A12C
100
AcDbEntity
  8
DEFPOINTS
  6
Continuous
 62
     0
100
AcDbPoint
 10
769.0
 20
-440.0
 30
0.0
  0
POINT
  5
A154
330
A12C
100
AcDbEntity
  8
DEFPOINTS
  6
Continuous
 62
     0
100
AcDbPoint
 10
769.0
 20
-470.0
 30
0.0
  0
ENDBLK
  5
A12E
330
A12C
100
AcDbEntity
  8
0
100
AcDbBlockEnd
  0
BLOCK
  5
A139
330
A138
100
AcDbEntity
  8
0
100
AcDbBlockBegin
  2
*D52
 70
     1
 10
0.0
 20
0.0
 30
0.0
  3
*D52
  1

  0
LINE
  5
A155
330
A138
100
AcDbEntity
  8
30
  6
Continuous
 62
     0
370
    -2
100
AcDbLine
 10
766.0
 20
-353.9999999999998
 30
0.0
 11
845.5
 21
-353.9999999999998
 31
0.0
  0
LINE
  5
A156
330
A138
100
AcDbEntity
  8
30
  6
Continuous
 62
     0
370
    -2
100
AcDbLine
 10
766.0
 20
-446.0
 30
0.0
 11
845.5
 21
-446.0
 31
0.0
  0
LINE
  5
A157
330
A138
100
AcDbEntity
  8
30
  6
Continuous
 62
     0
370
    -2
100
AcDbLine
 10
845.0
 20
-355.9999999999998
 30
0.0
 11
845.0
 21
-444.0
 31
0.0
  0
INSERT
  5
A158
330
A138
100
AcDbEntity
  8
30
  6
Continuous
 62
     0
370
    -2
100
AcDbBlockReference
  2
_OPEN
 10
845.0
 20
-353.9999999999998
 30
0.0
 41
2.0
 42
2.0
 43
2.0
 50
90.0
  0
INSERT
  5
A159
330
A138
100
AcDbEntity
  8
30
  6
Continuous
 62
     0
370
    -2
100
AcDbBlockReference
  2
_OPEN
 10
845.0
 20
-446.0
 30
0.0
 41
2.0
 42
2.0
 43
2.0
 50
270.0
  0
MTEXT
  5
A15A
330
A138
100
AcDbEntity
  8
30
  6
Continuous
 62
     0
100
AcDbMText
 10
840.0000000000003
 20
-399.9999999999998
 30
0.0
 40
6.0
 41
0.0
 71
     5
 72
     1
  1
\A1;92
 11
0.0000000000000001
 21
1.0
 31
0.0
 73
     1
 44
1.0
1001
ACAD
1000
MTEXTBEGIN
1070
    73
1070
     1
1070
    44
1040
1.0
1070
    74
1070
     0
1000
MTEXTEND
  0
POINT
  5
A15B
330
A138
100
AcDbEntity
  8
DEFPOINTS
  6
Continuous
 62
     0
100
AcDbPoint
 10
763.0
 20
-353.9999999999998
 30
0.0
  0
POINT
  5
A15C
330
A138
100
AcDbEntity
  8
DEFPOINTS
  6
Continuous
 62
     0
100
AcDbPoint
 10
763.0
 20
-446.0
 30
0.0
  0
POINT
  5
A15D
330
A138
100
AcDbEntity
  8
DEFPOINTS
  6
Continuous
 62
     0
100
AcDbPoint
 10
845.0
 20
-446.0
 30
0.0
  0
ENDBLK
  5
A13A
330
A138
100
AcDbEntity
  8
0
100
AcDbBlockEnd
  0
ENDSEC
  0
SECTION
  2
ENTITIES
  0
LINE
  5
9A75
330
1E
100
AcDbEntity
  8
16
100
AcDbLine
 10
798.0096179068367
 20
9.999999999999886
 30
0.0
 11
614.2286236157302
 21
9.999999999999886
 31
0.0
  0
LINE
  5
9A76
330
1E
100
AcDbEntity
  8
10
  6
CONTINOUS
100
AcDbLine
 10
659.0
 20
11.49999999999988
 30
0.0
 11
659.0
 21
-35.00000000000011
 31
0.0
  0
LINE
  5
9A77
330
1E
100
AcDbEntity
  8
10
  6
CONTINOUS
100
AcDbLine
 10
770.0
 20
140.0
 30
0.0
 11
770.0
 21
-120.0
 31
0.0
  0
LINE
  5
9A78
330
1E
100
AcDbEntity
  8
10
  6
CONTINOUS
100
AcDbLine
 10
663.0
 20
55.0
 30
0.0
 11
663.0
 21
-35.00000000000011
 31
0.0
  0
LINE
  5
9A79
330
1E
100
AcDbEntity
  8
10
  6
CONTINOUS
100
AcDbLine
 10
667.0
 20
61.0
 30
0.0
 11
667.0
 21
-41.00000000000011
 31
0.0
  0
LINE
  5
9A7A
330
1E
100
AcDbEntity
  8
10
  6
CONTINOUS
100
AcDbLine
 10
672.9999999999997
 20
-120.0
 30
0.0
 11
770.0
 21
-120.0
 31
0.0
  0
LINE
  5
9A7B
330
1E
100
AcDbEntity
  8
10
  6
CONTINOUS
100
AcDbLine
 10
667.0
 20
-41.00000000000011
 30
0.0
 11
672.9999999999997
 21
-41.00000000000011
 31
0.0
  0
LINE
  5
9A7C
330
1E
100
AcDbEntity
  8
10
  6
CONTINOUS
100
AcDbLine
 10
659.0
 20
-35.00000000000011
 30
0.0
 11
667.0
 21
-35.00000000000011
 31
0.0
  0
LINE
  5
9A7D
330
1E
100
AcDbEntity
  8
10
  6
CONTINOUS
100
AcDbLine
 10
672.9999999999997
 20
-41.00000000000011
 30
0.0
 11
672.9999999999997
 21
-120.0
 31
0.0
  0
LINE
  5
9A7E
330
1E
100
AcDbEntity
  8
10
  6
CONTINOUS
100
AcDbLine
 10
770.0
 20
140.0
 30
0.0
 11
672.9999999999997
 21
140.0
 31
0.0
  0
LINE
  5
9A7F
330
1E
100
AcDbEntity
  8
10
  6
CONTINOUS
100
AcDbLine
 10
659.0
 20
27.03370272535199
 30
0.0
 11
628.3490118975477
 21
38.03853193396594
 31
0.0
  0
LINE
  5
9A80
330
1E
100
AcDbEntity
  8
10
  6
CONTINOUS
100
AcDbLine
 10
659.0
 20
39.78370889367911
 30
0.0
 11
632.4040125135873
 21
49.33264411704192
 31
0.0
  0
LINE
  5
9A81
330
1E
100
AcDbEntity
  8
10
  6
CONTINOUS
100
AcDbLine
 10
632.4040125135873
 20
49.33264411704192
 30
0.0
 11
628.3490118975472
 21
38.0385319339656
 31
0.0
  0
LINE
  5
9A82
330
1E
100
AcDbEntity
  8
10
  6
CONTINOUS
100
AcDbLine
 10
648.1987593445673
 20
41.53674952147139
 30
0.0
 11
645.4954256005404
 21
34.00734139942028
 31
0.0
  0
LINE
  5
9A83
330
1E
100
AcDbEntity
  8
10
  6
CONTINOUS
100
AcDbLine
 10
659.0
 20
55.0
 30
0.0
 11
659.0
 21
9.999999999999886
 31
0.0
  0
LINE
  5
9A84
330
1E
100
AcDbEntity
  8
10
  6
CONTINOUS
100
AcDbLine
 10
659.0
 20
29.15870375340671
 30
0.0
 11
645.4954256005404
 21
34.00734139942006
 31
0.0
  0
LINE
  5
9A85
330
1E
100
AcDbEntity
  8
10
  6
CONTINOUS
100
AcDbLine
 10
659.0
 20
37.65870786562459
 30
0.0
 11
648.1987593445673
 21
41.53674952147081
 31
0.0
  0
LINE
  5
9A86
330
1E
100
AcDbEntity
  8
10
  6
CONTINOUS
100
AcDbLine
 10
659.0
 20
55.0
 30
0.0
 11
667.0
 21
55.0
 31
0.0
  0
LINE
  5
9A87
330
1E
100
AcDbEntity
  8
10
  6
CONTINOUS
100
AcDbLine
 10
667.0
 20
61.0
 30
0.0
 11
672.9999999999997
 21
61.0
 31
0.0
  0
LINE
  5
9A88
330
1E
100
AcDbEntity
  8
10
  6
CONTINOUS
100
AcDbLine
 10
672.9999999999997
 20
140.0
 30
0.0
 11
672.9999999999997
 21
61.0
 31
0.0
  0
DIMENSION
  5
9A8A
330
1E
100
AcDbEntity
  8
30
  6
Continuous
100
AcDbDimension
  2
*D5
 10
265.0
 20
-120.0
 30
0.0
 11
260.0
 21
10.00000000000005
 31
0.0
 70
    32
 71
     5
 42
260.0
  3
STANDARD1
100
AcDbAlignedDimension
 13
300.0000000000008
 23
140.0
 33
0.0
 14
300.0000000000008
 24
-120.0
 34
0.0
 50
90.0
100
AcDbRotatedDimension
  0
DIMENSION
  5
9A8D
330
1E
100
AcDbEntity
  8
30
  6
Continuous
100
AcDbDimension
  2
*D7
 10
770.0
 20
-150.0
 30
0.0
 11
718.5
 21
-145.0
 31
0.0
 70
    32
 71
     5
 42
103.0
  3
STANDARD1
100
AcDbAlignedDimension
 13
667.0
 23
-149.806065556629
 33
0.0
 14
770.0
 24
-140.0
 34
0.0
100
AcDbRotatedDimension
  0
DIMENSION
  5
9A8E
330
1E
100
AcDbEntity
  8
30
  6
Continuous
100
AcDbDimension
  2
*D8
 10
667.0
 20
-150.0
 30
0.0
 11
663.0
 21
-150.0
 31
0.0
 70
   160
 71
     5
 42
8.0
  3
STANDARD1
100
AcDbAlignedDimension
 13
659.0
 23
-35.00000000000011
 33
0.0
 14
667.0
 24
-41.00000000000011
 34
0.0
100
AcDbRotatedDimension
  0
DIMENSION
  5
9A8F
330
1E
100
AcDbEntity
  8
30
  6
Continuous
100
AcDbDimension
  2
*D9
 10
770.0
 20
-170.0
 30
0.0
 11
697.5
 21
-165.0
 31
0.0
 70
    32
 71
     5
 42
145.0
  3
STANDARD1
100
AcDbAlignedDimension
 13
625.0
 23
9.999999999999772
 33
0.0
 14
770.0
 24
-120.0
 34
0.0
100
AcDbRotatedDimension
  0
ARC
  5
9A90
330
1E
100
AcDbEntity
  8
30
  6
Continuous
100
AcDbCircle
 10
-70.05586445147582
 20
107.2389689581607
 30
0.0
 40
701.8248156003281
100
AcDbArc
 50
352.0359562820045
 51
354.3414001886372
  0
LINE
  5
9A91
330
1E
100
AcDbEntity
  8
16
100
AcDbLine
 10
295.0
 20
10.0
 30
0.0
 11
490.0
 21
10.0
 31
0.0
  0
LINE
  5
9A92
330
1E
100
AcDbEntity
  8
16
100
AcDbLine
 10
370.0
 20
155.0
 30
0.0
 11
370.0
 21
-130.0
 31
0.0
  0
MTEXT
  5
9A96
330
1E
100
AcDbEntity
  8
30
  6
Continuous
100
AcDbMText
 10
720.0000000000003
 20
290.5
 30
0.0
 40
6.0
 41
0.0
 71
     7
 72
     5
  1
PVS400-NNL 4P RC\PPVS400-NNH 4P RC
 73
     1
 44
1.0
1001
ACAD
1000
MTEXTBEGIN
1070
    73
1070
     1
1070
    44
1040
1.0
1070
    74
1070
     0
1000
MTEXTEND
  0
INSERT
  5
9A97
330
1E
100
AcDbEntity
  8
30
100
AcDbBlockReference
  2
*U1
 10
-67.5
 20
-60.0
 30
0.0
  0
INSERT
  5
9A98
330
1E
100
AcDbEntity
  8
30
100
AcDbBlockReference
  2
*U2
 10
-67.5
 20
-60.0
 30
0.0
  0
INSERT
  5
9A99
330
1E
100
AcDbEntity
  8
30
100
AcDbBlockReference
  2
*U1
 10
251.7286236157303
 20
-60.0000000000001
 30
0.0
  0
INSERT
  5
9A9A
330
1E
100
AcDbEntity
  8
30
100
AcDbBlockReference
  2
*U2
 10
251.7286236157303
 20
-60.0000000000001
 30
0.0
  0
MTEXT
  5
9A9B
330
1E
100
AcDbEntity
  8
16
100
AcDbMText
 10
370.8825424999993
 20
154.3995025000001
 30
0.0
 40
8.0
 41
0.0
 71
     7
 72
     5
  1
\W01.000;\fsimplex.shx;L
  7
blockfont
 73
     2
 44
0.9036139999999999
1001
ACAD
1000
MTEXTBEGIN
1070
    73
1070
     2
1070
    44
1040
0.9036139999999999
1070
    74
1070
     0
1000
MTEXTEND
  0
MTEXT
  5
9A9C
330
1E
100
AcDbEntity
  8
16
100
AcDbMText
 10
368.1117099999992
 20
158.6758200000001
 30
0.0
 40
8.0
 41
0.0
 71
     7
 72
     5
  1
\W01.000;\fsimplex.shx;H
  7
blockfont
 73
     2
 44
0.9036139999999999
1001
ACAD
1000
MTEXTBEGIN
1070
    73
1070
     2
1070
    44
1040
0.9036139999999999
1070
    74
1070
     0
1000
MTEXTEND
  0
DIMENSION
  5
9A9D
330
1E
100
AcDbEntity
  8
30
100
AcDbDimension
  2
*D11
 10
600.0
 20
55.00000000000002
 30
0.0
 11
595.0
 21
10.00000000000006
 31
0.0
 70
    32
  1
 <> 
 71
     5
 42
90.00000000000012
  3
STANDARD1
100
AcDbAlignedDimension
 13
659.0
 23
-35.00000000000011
 33
0.0
 14
659.0
 24
55.0
 34
0.0
 50
90.0
100
AcDbRotatedDimension
  0
DIMENSION
  5
9A9E
330
1E
100
AcDbEntity
  8
30
100
AcDbDimension
  2
*D12
 10
590.0
 20
61.00000000000003
 30
0.0
 11
585.0
 21
10.00000000000012
 31
0.0
 70
    32
  1
 <> 
 71
     5
 42
102.0
  3
STANDARD1
100
AcDbAlignedDimension
 13
667.0
 23
-41.0
 33
0.0
 14
667.0
 24
61.0
 34
0.0
 50
90.0
100
AcDbRotatedDimension
  0
DIMENSION
  5
9AA0
330
1E
100
AcDbEntity
  8
30
  6
Continuous
100
AcDbDimension
  2
*D13
 10
770.0
 20
-140.0
 30
0.0
 11
721.4999999999996
 21
-135.0
 31
0.0
 70
    32
 71
     5
 42
97.00000000000024
  3
STANDARD1
100
AcDbAlignedDimension
 13
672.9999999999997
 23
-120.0
 33
0.0
 14
770.0
 24
-140.0
 34
0.0
100
AcDbRotatedDimension
  0
DIMENSION
  5
9AA2
330
1E
100
AcDbEntity
  8
30
  6
Continuous
100
AcDbDimension
  2
*D14
 10
770.0
 20
-160.0
 30
0.0
 11
706.25
 21
-155.0
 31
0.0
 70
    32
 71
     5
 42
127.5
  3
STANDARD1
100
AcDbAlignedDimension
 13
642.4999999999998
 23
9.999999999999886
 33
0.0
 14
770.0
 24
-120.0
 34
0.0
100
AcDbRotatedDimension
  0
ARC
  5
9AA3
330
1E
100
AcDbEntity
  8
30
  6
Continuous
100
AcDbCircle
 10
-395.1754247083853
 20
151.6625849334405
 30
0.0
 40
1047.300613488674
100
AcDbArc
 50
352.2260855765429
 51
353.5496938535667
  0
LINE
  5
9AA4
330
1E
100
AcDbEntity
  8
16
100
AcDbLine
 10
370.0
 20
155.0
 30
0.0
 11
370.0
 21
-130.0
 31
0.0
  0
DIMENSION
  5
9AA5
330
1E
100
AcDbEntity
  8
30
100
AcDbDimension
  2
*D15
 10
428.0
 20
70.0
 30
0.0
 11
390.0000000000005
 21
70.0
 31
0.0
 70
   160
  1
 <> 
 71
     5
 42
115.9999999999991
  3
STANDARD1
100
AcDbAlignedDimension
 13
312.0000000000008
 23
50.0
 33
0.0
 14
428.0
 24
50.0
 34
0.0
100
AcDbRotatedDimension
  0
DIMENSION
  5
9AA6
330
1E
100
AcDbEntity
  8
30
100
AcDbDimension
  2
*D16
 10
395.5
 20
-60.0
 30
0.0
 11
380.0000000000005
 21
-60.0
 31
0.0
 70
   160
  1
 <> 
 71
     5
 42
50.99999999999909
  3
STANDARD1
100
AcDbAlignedDimension
 13
344.5000000000009
 23
-35.0
 33
0.0
 14
395.5
 24
-35.0
 34
0.0
100
AcDbRotatedDimension
  0
DIMENSION
  5
9AA7
330
1E
100
AcDbEntity
  8
30
  6
Continuous
100
AcDbDimension
  2
*D17
 10
500.0
 20
-120.0
 30
0.0
 11
495.0
 21
10.00000000000006
 31
0.0
 70
    32
 71
     5
 42
260.0
  3
STANDARD1
100
AcDbAlignedDimension
 13
440.0
 23
140.0
 33
0.0
 14
440.0
 24
-120.0
 34
0.0
 50
90.0
100
AcDbRotatedDimension
  0
DIMENSION
  5
9AA8
330
1E
100
AcDbEntity
  8
30
  6
Continuous
100
AcDbDimension
  2
*D18
 10
500.0
 20
139.9999999999999
 30
0.0
 11
494.9999999999998
 21
195.0
 31
0.0
 70
    32
 71
     5
 42
110.0
  3
STANDARD1
100
AcDbAlignedDimension
 13
394.5000000000009
 23
250.0
 33
0.0
 14
440.0
 24
140.0
 34
0.0
 50
90.0
100
AcDbRotatedDimension
  0
LINE
  5
9AA9
330
1E
100
AcDbEntity
  8
17
100
AcDbLine
 10
762.0
 20
-103.9999999999991
 30
0.0
 11
887.9999999999991
 21
-104.0000000000007
 31
0.0
  0
LINE
  5
9AAA
330
1E
100
AcDbEntity
  8
24
100
AcDbLine
 10
843.9999999999994
 20
-89.00000000000067
 30
0.0
 11
879.9999999999991
 21
-89.00000000000067
 31
0.0
  0
LINE
  5
9AAB
330
1E
100
AcDbEntity
  8
24
100
AcDbLine
 10
843.9999999999994
 20
-119.0000000000005
 30
0.0
 11
879.9999999999991
 21
-119.0000000000005
 31
0.0
  0
LINE
  5
9AAC
330
1E
100
AcDbEntity
  8
24
100
AcDbLine
 10
769.9999999999995
 20
-91.99999999999901
 30
0.0
 11
799.9999999999995
 21
-91.99999999999901
 31
0.0
  0
LINE
  5
9AAD
330
1E
100
AcDbEntity
  8
24
100
AcDbLine
 10
769.9999999999995
 20
-115.9999999999992
 30
0.0
 11
799.9999999999995
 21
-115.9999999999992
 31
0.0
  0
LINE
  5
9AAE
330
1E
100
AcDbEntity
  8
21
100
AcDbLine
 10
769.9999999999995
 20
-115.9999999999992
 30
0.0
 11
769.9999999999995
 21
-91.99999999999901
 31
0.0
  0
LINE
  5
9AAF
330
1E
100
AcDbEntity
  8
24
100
AcDbLine
 10
807.4999999999992
 20
-88.99999999999909
 30
0.0
 11
839.9999999999991
 21
-88.99999999999909
 31
0.0
  0
LINE
  5
9AB0
330
1E
100
AcDbEntity
  8
21
100
AcDbLine
 10
807.4999999999992
 20
-118.9999999999992
 30
0.0
 11
839.9999999999991
 21
-118.9999999999992
 31
0.0
  0
LINE
  5
9AB1
330
1E
100
AcDbEntity
  8
24
100
AcDbLine
 10
807.4999999999995
 20
-88.99999999999909
 30
0.0
 11
839.9999999999991
 21
-88.99999999999909
 31
0.0
  0
LINE
  5
9AB2
330
1E
100
AcDbEntity
  8
24
100
AcDbLine
 10
807.4999999999995
 20
-118.9999999999992
 30
0.0
 11
839.9999999999991
 21
-118.9999999999992
 31
0.0
  0
CIRCLE
  5
9AB3
330
1E
100
AcDbEntity
  8
17
100
AcDbCircle
 10
824.9999999999992
 20
-103.9999999999991
 30
0.0
 40
6.5
  0
LINE
  5
9AB4
330
1E
100
AcDbEntity
  8
24
100
AcDbLine
 10
799.9999999999995
 20
-115.9999999999992
 30
0.0
 11
799.9999999999995
 21
-91.99999999999901
 31
0.0
  0
LINE
  5
9AB5
330
1E
100
AcDbEntity
  8
24
100
AcDbLine
 10
799.9999999999995
 20
-112.499999999999
 30
0.0
 11
800.9999999999996
 21
-112.499999999999
 31
0.0
  0
ARC
  5
9AB6
330
1E
100
AcDbEntity
  8
24
100
AcDbCircle
 10
807.4999999999995
 20
-112.499999999999
 30
0.0
 40
6.5
100
AcDbArc
 50
180.0
 51
270.0
  0
LINE
  5
9AB7
330
1E
100
AcDbEntity
  8
21
100
AcDbLine
 10
799.9999999999995
 20
-95.49999999999895
 30
0.0
 11
800.9999999999996
 21
-95.49999999999895
 31
0.0
  0
ARC
  5
9AB8
330
1E
100
AcDbEntity
  8
24
100
AcDbCircle
 10
807.4999999999995
 20
-95.49999999999895
 30
0.0
 40
6.5
100
AcDbArc
 50
90.0
 51
180.0
  0
LINE
  5
9AB9
330
1E
100
AcDbEntity
  8
17
100
AcDbLine
 10
824.9999999999992
 20
-93.499999999999
 30
0.0
 11
824.9999999999992
 21
-114.4999999999992
 31
0.0
  0
LINE
  5
9ABA
330
1E
100
AcDbEntity
  8
24
100
AcDbLine
 10
839.9999999999991
 20
-118.9999999999992
 30
0.0
 11
839.9999999999991
 21
-88.99999999999909
 31
0.0
  0
LINE
  5
9ABB
330
1E
100
AcDbEntity
  8
17
100
AcDbLine
 10
864.9999999999991
 20
-93.50000000000044
 30
0.0
 11
864.9999999999991
 21
-114.5000000000006
 31
0.0
  0
LINE
  5
9ABC
330
1E
100
AcDbEntity
  8
24
100
AcDbLine
 10
879.9999999999991
 20
-119.0000000000005
 30
0.0
 11
879.9999999999991
 21
-89.00000000000067
 31
0.0
  0
CIRCLE
  5
9ABD
330
1E
100
AcDbEntity
  8
17
100
AcDbCircle
 10
864.9999999999991
 20
-104.0000000000004
 30
0.0
 40
6.5
  0
LINE
  5
9ABE
330
1E
100
AcDbEntity
  8
17
100
AcDbLine
 10
762.0000000000012
 20
124.0000000000009
 30
0.0
 11
887.9999999999991
 21
124.0
 31
0.0
  0
LINE
  5
9ABF
330
1E
100
AcDbEntity
  8
24
100
AcDbLine
 10
843.9999999999994
 20
128.0
 30
0.0
 11
879.9999999999991
 21
128.0
 31
0.0
  0
LINE
  5
9AC0
330
1E
100
AcDbEntity
  8
24
100
AcDbLine
 10
843.9999999999994
 20
120.0
 30
0.0
 11
879.9999999999991
 21
120.0
 31
0.0
  0
LINE
  5
9AC1
330
1E
100
AcDbEntity
  8
17
100
AcDbLine
 10
824.9999999999992
 20
136.0
 30
0.0
 11
824.9999999999992
 21
112.0
 31
0.0
  0
LINE
  5
9AC2
330
1E
100
AcDbEntity
  8
24
100
AcDbLine
 10
839.9999999999991
 20
120.0
 30
0.0
 11
839.9999999999991
 21
128.0
 31
0.0
  0
LINE
  5
9AC3
330
1E
100
AcDbEntity
  8
24
100
AcDbLine
 10
799.9999999999995
 20
112.0000000000009
 30
0.0
 11
799.9999999999995
 21
136.0000000000009
 31
0.0
  0
LINE
  5
9AC4
330
1E
100
AcDbEntity
  8
24
100
AcDbLine
 10
769.9999999999995
 20
112.0000000000009
 30
0.0
 11
799.9999999999995
 21
112.0000000000009
 31
0.0
  0
LINE
  5
9AC5
330
1E
100
AcDbEntity
  8
24
100
AcDbLine
 10
800.9999999999996
 20
120.0
 30
0.0
 11
839.9999999999991
 21
120.0
 31
0.0
  0
LINE
  5
9AC6
330
1E
100
AcDbEntity
  8
24
100
AcDbLine
 10
800.9999999999996
 20
115.5000000000009
 30
0.0
 11
800.9999999999996
 21
120.0
 31
0.0
  0
LINE
  5
9AC7
330
1E
100
AcDbEntity
  8
24
100
AcDbLine
 10
799.9999999999995
 20
115.5000000000009
 30
0.0
 11
800.9999999999996
 21
115.5000000000009
 31
0.0
  0
LINE
  5
9AC8
330
1E
100
AcDbEntity
  8
24
100
AcDbLine
 10
769.9999999999995
 20
136.0000000000009
 30
0.0
 11
799.9999999999995
 21
136.0000000000009
 31
0.0
  0
LINE
  5
9AC9
330
1E
100
AcDbEntity
  8
24
100
AcDbLine
 10
800.9999999999996
 20
128.0
 30
0.0
 11
839.9999999999991
 21
128.0
 31
0.0
  0
LINE
  5
9ACA
330
1E
100
AcDbEntity
  8
24
100
AcDbLine
 10
800.9999999999996
 20
132.5000000000009
 30
0.0
 11
800.9999999999996
 21
128.0
 31
0.0
  0
LINE
  5
9ACB
330
1E
100
AcDbEntity
  8
24
100
AcDbLine
 10
799.9999999999995
 20
132.5000000000009
 30
0.0
 11
800.9999999999996
 21
132.5000000000009
 31
0.0
  0
LINE
  5
9ACC
330
1E
100
AcDbEntity
  8
17
100
AcDbLine
 10
864.9999999999991
 20
136.0
 30
0.0
 11
864.9999999999991
 21
112.0
 31
0.0
  0
LINE
  5
9ACD
330
1E
100
AcDbEntity
  8
24
100
AcDbLine
 10
879.9999999999991
 20
120.0
 30
0.0
 11
879.9999999999991
 21
128.0
 31
0.0
  0
DIMENSION
  5
9ACE
330
1E
100
AcDbEntity
  8
30
100
AcDbDimension
  2
*D19
 10
824.9999999999992
 20
-70.0
 30
0.0
 11
844.9999999999992
 21
-66.0
 31
0.0
 70
    32
 71
     5
 42
40.00000000000009
  3
STANDARD
100
AcDbAlignedDimension
 13
864.9999999999991
 23
-93.50000000000044
 33
0.0
 14
824.9999999999992
 24
-93.499999999999
 34
0.0
100
AcDbRotatedDimension
  0
DIMENSION
  5
9ACF
330
1E
100
AcDbEntity
  8
30
  6
Continuous
100
AcDbDimension
  2
*D20
 10
900.0
 20
-119.0000000000005
 30
0.0
 11
896.0
 21
-104.0000000000005
 31
0.0
 70
    32
 71
     5
 42
29.99999999999989
  3
STANDARD
100
AcDbAlignedDimension
 13
879.9999999999991
 23
-89.00000000000067
 33
0.0
 14
879.9999999999991
 24
-119.0000000000005
 34
0.0
 50
90.0
100
AcDbRotatedDimension
1001
ACAD
1000
DSTYLE
1002
{
1070
    79
1070
     3
1002
}
  0
DIMENSION
  5
9AD0
330
1E
100
AcDbEntity
  8
30
  6
Continuous
100
AcDbDimension
  2
*D21
 10
910.0
 20
-104.0000000000007
 30
0.0
 11
906.0
 21
9.999999999999802
 31
0.0
 70
    32
 71
     5
 42
228.0000000000007
  3
STANDARD
100
AcDbAlignedDimension
 13
899.7499999999995
 23
124.0
 33
0.0
 14
887.9999999999991
 24
-104.0000000000007
 34
0.0
 50
90.0
100
AcDbRotatedDimension
1001
ACAD
1000
DSTYLE
1002
{
1070
    79
1070
     3
1002
}
  0
DIMENSION
  5
9AD1
330
1E
100
AcDbEntity
  8
30
  6
Continuous
100
AcDbDimension
  2
*D22
 10
839.9999999999991
 20
-160.0
 30
0.0
 11
804.9999999999997
 21
-156.0
 31
0.0
 70
    32
 71
     5
 42
69.99999999999932
  3
STANDARD
100
AcDbAlignedDimension
 13
770.0
 23
-120.0
 33
0.0
 14
839.9999999999991
 24
-118.9999999999992
 34
0.0
100
AcDbRotatedDimension
1001
ACAD
1000
DSTYLE
1002
{
1070
    79
1070
     3
1002
}
  0
DIMENSION
  5
9AD2
330
1E
100
AcDbEntity
  8
30
  6
Continuous
100
AcDbDimension
  2
*D23
 10
839.9999999999991
 20
-130.0
 30
0.0
 11
832.4999999999992
 21
-126.0
 31
0.0
 70
    32
 71
     5
 42
15.00000000000011
  3
STANDARD
100
AcDbAlignedDimension
 13
824.9999999999992
 23
-114.4999999999992
 33
0.0
 14
839.9999999999991
 24
-118.9999999999992
 34
0.0
100
AcDbRotatedDimension
1001
ACAD
1000
DSTYLE
1002
{
1070
    79
1070
     3
1002
}
  0
DIMENSION
  5
9AD3
330
1E
100
AcDbEntity
  8
30
  6
Continuous
100
AcDbDimension
  2
*D24
 10
879.9999999999991
 20
-130.0
 30
0.0
 11
872.4999999999992
 21
-126.0
 31
0.0
 70
    32
 71
     5
 42
14.99999999999988
  3
STANDARD
100
AcDbAlignedDimension
 13
864.9999999999991
 23
-114.5000000000006
 33
0.0
 14
879.9999999999991
 24
-119.0000000000005
 34
0.0
100
AcDbRotatedDimension
1001
ACAD
1000
DSTYLE
1002
{
1070
    79
1070
     3
1002
}
  0
DIMENSION
  5
9AD4
330
1E
100
AcDbEntity
  8
30
  6
Continuous
100
AcDbDimension
  2
*D25
 10
879.9999999999991
 20
-170.0
 30
0.0
 11
824.9999999999996
 21
-166.0
 31
0.0
 70
    32
 71
     5
 42
109.9999999999992
  3
STANDARD
100
AcDbAlignedDimension
 13
770.0
 23
-170.0
 33
0.0
 14
879.9999999999991
 24
-119.0000000000005
 34
0.0
100
AcDbRotatedDimension
1001
ACAD
1000
DSTYLE
1002
{
1070
    79
1070
     3
1002
}
  0
DIMENSION
  5
9AD5
330
1E
100
AcDbEntity
  8
30
  6
Continuous
100
AcDbDimension
  2
*D26
 10
862.3785431139895
 20
-109.9479377766419
 30
0.0
 11
890.0130359896456
 21
-65.39838118329135
 31
0.0
 70
   163
 71
     5
 42
13.00000000000006
  3
STANDARD
100
AcDbDiametricDimension
 15
867.6214568860084
 25
-98.05206222335966
 35
0.0
 40
0.0
1001
ACAD
1000
DSTYLE
1002
{
1070
    79
1070
     3
1070
   288
1070
     1
1002
}
  0
DIMENSION
  5
9AD6
330
1E
100
AcDbEntity
  8
30
  6
Continuous
100
AcDbDimension
  2
*D27
 10
900.0
 20
120.0
 30
0.0
 11
896.0
 21
124.0000000000001
 31
0.0
 70
    32
 71
     5
 42
8.0
  3
STANDARD
100
AcDbAlignedDimension
 13
879.9999999999991
 23
128.0
 33
0.0
 14
879.9999999999991
 24
120.0
 34
0.0
 50
90.0
100
AcDbRotatedDimension
1001
ACAD
1000
DSTYLE
1002
{
1070
    79
1070
     3
1002
}
  0
LINE
  5
9AD7
330
1E
100
AcDbEntity
  8
16
100
AcDbLine
 10
369.9999694824198
 20
253.2950414536303
 30
0.0
 11
370.0000305175799
 21
507.0
 31
0.0
  0
LINE
  5
9AD8
330
1E
100
AcDbEntity
  8
24
100
AcDbLine
 10
403.0
 20
399.5
 30
0.0
 11
403.0
 21
429.4999999999998
 31
0.0
  0
LINE
  5
9AD9
330
1E
100
AcDbEntity
  8
24
100
AcDbLine
 10
427.0
 20
399.5
 30
0.0
 11
427.0
 21
429.4999999999998
 31
0.0
  0
LINE
  5
9ADA
330
1E
100
AcDbEntity
  8
24
100
AcDbLine
 10
337.0
 20
399.5
 30
0.0
 11
337.0
 21
429.4999999999998
 31
0.0
  0
LINE
  5
9ADB
330
1E
100
AcDbEntity
  8
24
100
AcDbLine
 10
357.0
 20
399.5
 30
0.0
 11
357.0
 21
432.3095842401767
 31
0.0
  0
LINE
  5
9ADC
330
1E
100
AcDbEntity
  8
24
100
AcDbLine
 10
383.0
 20
399.5
 30
0.0
 11
383.0
 21
432.3095842401767
 31
0.0
  0
LINE
  5
9ADD
330
1E
100
AcDbEntity
  8
24
100
AcDbLine
 10
313.0
 20
399.5
 30
0.0
 11
313.0
 21
429.4999999999998
 31
0.0
  0
LINE
  5
9ADE
330
1E
100
AcDbEntity
  8
10
  6
CONTINOUS
100
AcDbLine
 10
300.0
 20
302.5
 30
0.0
 11
485.0
 21
302.5
 31
0.0
  0
LINE
  5
9ADF
330
1E
100
AcDbEntity
  8
10
  6
CONTINOUS
100
AcDbLine
 10
300.0
 20
296.5
 30
0.0
 11
485.0
 21
296.5
 31
0.0
  0
LINE
  5
9AE0
330
1E
100
AcDbEntity
  8
10
  6
CONTINOUS
100
AcDbLine
 10
312.0
 20
292.5
 30
0.0
 11
428.0
 21
292.5
 31
0.0
  0
LINE
  5
9AE1
330
1E
100
AcDbEntity
  8
10
  6
CONTINOUS
100
AcDbLine
 10
300.0
 20
399.5
 30
0.0
 11
485.0
 21
399.5
 31
0.0
  0
LINE
  5
9AE2
330
1E
100
AcDbEntity
  8
10
  6
CONTINOUS
100
AcDbLine
 10
300.0
 20
296.5
 30
0.0
 11
300.0
 21
399.5
 31
0.0
  0
LINE
  5
9AE3
330
1E
100
AcDbEntity
  8
10
  6
CONTINOUS
100
AcDbLine
 10
312.0
 20
292.5
 30
0.0
 11
312.0
 21
296.5
 31
0.0
  0
LINE
  5
9AE4
330
1E
100
AcDbEntity
  8
10
  6
CONTINOUS
100
AcDbLine
 10
353.0
 20
260.0
 30
0.0
 11
387.0
 21
260.0
 31
0.0
  0
LINE
  5
9AE5
330
1E
100
AcDbEntity
  8
10
  6
CONTINOUS
100
AcDbLine
 10
352.0
 20
288.5
 30
0.0
 11
388.0
 21
288.5
 31
0.0
  0
LINE
  5
9AE6
330
1E
100
AcDbEntity
  8
10
  6
CONTINOUS
100
AcDbLine
 10
353.0
 20
260.0
 30
0.0
 11
353.0
 21
288.5
 31
0.0
  0
LINE
  5
9AE7
330
1E
100
AcDbEntity
  8
10
  6
CONTINOUS
100
AcDbLine
 10
352.0
 20
288.5
 30
0.0
 11
352.0
 21
292.5
 31
0.0
  0
LINE
  5
9AE8
330
1E
100
AcDbEntity
  8
10
  6
CONTINOUS
100
AcDbLine
 10
387.0
 20
260.0
 30
0.0
 11
387.0
 21
288.5
 31
0.0
  0
LINE
  5
9AE9
330
1E
100
AcDbEntity
  8
10
  6
CONTINOUS
100
AcDbLine
 10
388.0
 20
288.5
 30
0.0
 11
388.0
 21
292.5
 31
0.0
  0
LINE
  5
9AEA
330
1E
100
AcDbEntity
  8
10
  6
CONTINOUS
100
AcDbLine
 10
485.0
 20
296.5
 30
0.0
 11
485.0
 21
399.5
 31
0.0
  0
LINE
  5
9AEB
330
1E
100
AcDbEntity
  8
10
  6
CONTINOUS
100
AcDbLine
 10
428.0
 20
292.5
 30
0.0
 11
428.0
 21
296.5
 31
0.0
  0
LINE
  5
9AEC
330
1E
100
AcDbEntity
  8
24
100
AcDbLine
 10
313.0
 20
429.4999999999998
 30
0.0
 11
337.0
 21
429.4999999999998
 31
0.0
  0
LINE
  5
9AED
330
1E
100
AcDbEntity
  8
17
100
AcDbLine
 10
314.5
 20
454.4999999999998
 30
0.0
 11
335.5
 21
454.4999999999998
 31
0.0
  0
LINE
  5
9AEE
330
1E
100
AcDbEntity
  8
24
100
AcDbLine
 10
310.0
 20
469.5
 30
0.0
 11
340.0
 21
469.5
 31
0.0
  0
CIRCLE
  5
9AEF
330
1E
100
AcDbEntity
  8
17
100
AcDbCircle
 10
325.0
 20
454.4999999999998
 30
0.0
 40
6.5
  0
LINE
  5
9AF0
330
1E
100
AcDbEntity
  8
24
100
AcDbLine
 10
310.0
 20
436.9999999999997
 30
0.0
 11
310.0
 21
469.5
 31
0.0
  0
LINE
  5
9AF1
330
1E
100
AcDbEntity
  8
24
100
AcDbLine
 10
310.0
 20
436.9999999999997
 30
0.0
 11
310.0
 21
469.5
 31
0.0
  0
LINE
  5
9AF2
330
1E
100
AcDbEntity
  8
17
100
AcDbLine
 10
325.0
 20
444.0
 30
0.0
 11
325.0
 21
464.9999999999997
 31
0.0
  0
ARC
  5
9AF3
330
1E
100
AcDbEntity
  8
24
100
AcDbCircle
 10
316.5
 20
436.9999999999997
 30
0.0
 40
6.5
100
AcDbArc
 50
180.0
 51
270.0
  0
LINE
  5
9AF4
330
1E
100
AcDbEntity
  8
24
100
AcDbLine
 10
316.5
 20
429.4999999999998
 30
0.0
 11
316.5
 21
430.4999999999998
 31
0.0
  0
LINE
  5
9AF5
330
1E
100
AcDbEntity
  8
24
100
AcDbLine
 10
340.0
 20
436.9999999999997
 30
0.0
 11
340.0
 21
469.5
 31
0.0
  0
LINE
  5
9AF6
330
1E
100
AcDbEntity
  8
24
100
AcDbLine
 10
340.0
 20
436.9999999999997
 30
0.0
 11
340.0
 21
469.5
 31
0.0
  0
LINE
  5
9AF7
330
1E
100
AcDbEntity
  8
24
100
AcDbLine
 10
355.0
 20
436.9999999999997
 30
0.0
 11
355.0
 21
509.4999999999997
 31
0.0
  0
LINE
  5
9AF8
330
1E
100
AcDbEntity
  8
24
100
AcDbLine
 10
385.0
 20
436.9999999999997
 30
0.0
 11
385.0
 21
509.4999999999997
 31
0.0
  0
LINE
  5
9AF9
330
1E
100
AcDbEntity
  8
24
100
AcDbLine
 10
355.0
 20
436.9999999999997
 30
0.0
 11
355.0
 21
509.4999999999997
 31
0.0
  0
LINE
  5
9AFA
330
1E
100
AcDbEntity
  8
24
100
AcDbLine
 10
385.0
 20
436.9999999999997
 30
0.0
 11
385.0
 21
509.4999999999997
 31
0.0
  0
LINE
  5
9AFB
330
1E
100
AcDbEntity
  8
24
100
AcDbLine
 10
333.5
 20
429.4999999999998
 30
0.0
 11
333.5
 21
430.4999999999998
 31
0.0
  0
ARC
  5
9AFC
330
1E
100
AcDbEntity
  8
24
100
AcDbCircle
 10
333.5
 20
436.9999999999997
 30
0.0
 40
6.5
100
AcDbArc
 50
270.0
 51
0.0
  0
ARC
  5
9AFD
330
1E
100
AcDbEntity
  8
24
100
AcDbCircle
 10
361.5
 20
436.9999999999997
 30
0.0
 40
6.5
100
AcDbArc
 50
180.0
 51
226.186938539589
  0
ARC
  5
9AFE
330
1E
100
AcDbEntity
  8
24
100
AcDbCircle
 10
378.5
 20
436.9999999999997
 30
0.0
 40
6.5
100
AcDbArc
 50
313.813061460411
 51
0.0
  0
LINE
  5
9AFF
330
1E
100
AcDbEntity
  8
24
100
AcDbLine
 10
355.0
 20
470.5
 30
0.0
 11
385.0
 21
470.5
 31
0.0
  0
LINE
  5
9B00
330
1E
100
AcDbEntity
  8
24
100
AcDbLine
 10
355.0
 20
509.4999999999997
 30
0.0
 11
385.0
 21
509.4999999999997
 31
0.0
  0
CIRCLE
  5
9B01
330
1E
100
AcDbEntity
  8
17
100
AcDbCircle
 10
370.0
 20
494.5
 30
0.0
 40
6.5
  0
LINE
  5
9B02
330
1E
100
AcDbEntity
  8
17
100
AcDbLine
 10
370.0
 20
484.0
 30
0.0
 11
370.0
 21
505.0000000000001
 31
0.0
  0
LINE
  5
9B03
330
1E
100
AcDbEntity
  8
17
100
AcDbLine
 10
359.5
 20
494.5
 30
0.0
 11
380.5
 21
494.5
 31
0.0
  0
LINE
  5
9B04
330
1E
100
AcDbEntity
  8
24
100
AcDbLine
 10
400.0
 20
436.9999999999997
 30
0.0
 11
400.0
 21
469.5
 31
0.0
  0
LINE
  5
9B05
330
1E
100
AcDbEntity
  8
24
100
AcDbLine
 10
430.0
 20
436.9999999999997
 30
0.0
 11
430.0
 21
469.5
 31
0.0
  0
LINE
  5
9B06
330
1E
100
AcDbEntity
  8
24
100
AcDbLine
 10
400.0
 20
436.9999999999997
 30
0.0
 11
400.0
 21
469.5
 31
0.0
  0
LINE
  5
9B07
330
1E
100
AcDbEntity
  8
24
100
AcDbLine
 10
430.0
 20
436.9999999999997
 30
0.0
 11
430.0
 21
469.5
 31
0.0
  0
LINE
  5
9B08
330
1E
100
AcDbEntity
  8
24
100
AcDbLine
 10
403.0
 20
429.4999999999998
 30
0.0
 11
427.0
 21
429.4999999999998
 31
0.0
  0
LINE
  5
9B09
330
1E
100
AcDbEntity
  8
17
100
AcDbLine
 10
404.4999999999998
 20
454.4999999999998
 30
0.0
 11
425.4999999999998
 21
454.4999999999998
 31
0.0
  0
LINE
  5
9B0A
330
1E
100
AcDbEntity
  8
17
100
AcDbLine
 10
415.0
 20
444.0
 30
0.0
 11
415.0
 21
464.9999999999997
 31
0.0
  0
LINE
  5
9B0B
330
1E
100
AcDbEntity
  8
24
100
AcDbLine
 10
406.5
 20
429.4999999999998
 30
0.0
 11
406.5
 21
430.4999999999998
 31
0.0
  0
ARC
  5
9B0C
330
1E
100
AcDbEntity
  8
24
100
AcDbCircle
 10
406.5
 20
436.9999999999997
 30
0.0
 40
6.5
100
AcDbArc
 50
180.0
 51
270.0
  0
CIRCLE
  5
9B0D
330
1E
100
AcDbEntity
  8
17
100
AcDbCircle
 10
415.0
 20
454.4999999999998
 30
0.0
 40
6.5
  0
LINE
  5
9B0E
330
1E
100
AcDbEntity
  8
24
100
AcDbLine
 10
423.5
 20
429.4999999999998
 30
0.0
 11
423.5
 21
430.4999999999998
 31
0.0
  0
ARC
  5
9B0F
330
1E
100
AcDbEntity
  8
24
100
AcDbCircle
 10
423.5
 20
436.9999999999997
 30
0.0
 40
6.5
100
AcDbArc
 50
270.0
 51
0.0
  0
LINE
  5
9B10
330
1E
100
AcDbEntity
  8
24
100
AcDbLine
 10
400.0
 20
469.5
 30
0.0
 11
430.0
 21
469.5
 31
0.0
  0
DIMENSION
  5
9B11
330
1E
100
AcDbEntity
  8
30
100
AcDbDimension
  2
*D28
 10
500.0
 20
399.5
 30
0.0
 11
513.9999999999998
 21
410.8499793368948
 31
0.0
 70
    32
 71
     5
 42
14.69995867378952
  3
STANDARD
100
AcDbAlignedDimension
 13
395.5000201860276
 23
414.1999586737894
 33
0.0
 14
485.0
 24
399.5
 34
0.0
 50
90.0
100
AcDbRotatedDimension
1001
ACAD
1000
DSTYLE
1002
{
1070
   287
1070
     4
1070
   287
1070
     4
1070
   287
1070
     4
1070
   287
1070
     4
1070
   287
1070
     4
1070
    79
1070
     3
1070
   279
1070
     1
1002
}
  0
LINE
  5
9B12
330
1E
100
AcDbEntity
  8
12
100
AcDbLine
 10
345.5000408491326
 20
399.5
 30
0.0
 11
345.5000408491326
 21
414.1999586737894
 31
0.0
  0
LINE
  5
9B13
330
1E
100
AcDbEntity
  8
12
100
AcDbLine
 10
349.5000201860275
 20
399.5
 30
0.0
 11
349.5000201860275
 21
414.1999586737894
 31
0.0
  0
LINE
  5
9B14
330
1E
100
AcDbEntity
  8
12
100
AcDbLine
 10
349.5000201860275
 20
414.1999586737894
 30
0.0
 11
345.5000408491326
 21
414.1999586737894
 31
0.0
  0
LINE
  5
9B15
330
1E
100
AcDbEntity
  8
12
100
AcDbLine
 10
391.5000408491323
 20
399.5
 30
0.0
 11
391.5000408491323
 21
414.1999586737894
 31
0.0
  0
LINE
  5
9B16
330
1E
100
AcDbEntity
  8
12
100
AcDbLine
 10
395.5000201860276
 20
399.5
 30
0.0
 11
395.5000201860276
 21
414.1999586737894
 31
0.0
  0
LINE
  5
9B17
330
1E
100
AcDbEntity
  8
12
100
AcDbLine
 10
395.5000201860276
 20
414.1999586737894
 30
0.0
 11
391.5000408491323
 21
414.1999586737894
 31
0.0
  0
DIMENSION
  5
9B18
330
1E
100
AcDbEntity
  8
30
  6
Continuous
100
AcDbDimension
  2
*D29
 10
370.0
 20
515.0
 30
0.0
 11
347.5
 21
519.0
 31
0.0
 70
    32
 71
     5
 42
45.0
  3
STANDARD
100
AcDbAlignedDimension
 13
325.0
 23
464.9999999999997
 33
0.0
 14
370.0
 24
505.0000000000001
 34
0.0
100
AcDbRotatedDimension
1001
ACAD
1000
DSTYLE
1002
{
1070
    79
1070
     3
1002
}
  0
DIMENSION
  5
9B19
330
1E
100
AcDbEntity
  8
30
  6
Continuous
100
AcDbDimension
  2
*D30
 10
415.0
 20
515.0
 30
0.0
 11
392.5
 21
519.0
 31
0.0
 70
    32
 71
     5
 42
45.0
  3
STANDARD
100
AcDbAlignedDimension
 13
370.0
 23
505.0000000000001
 33
0.0
 14
415.0
 24
464.9999999999997
 34
0.0
100
AcDbRotatedDimension
1001
ACAD
1000
DSTYLE
1002
{
1070
   287
1070
     4
1070
   287
1070
     4
1070
   287
1070
     4
1070
   287
1070
     4
1070
   287
1070
     4
1070
   279
1070
     1
1070
    79
1070
     3
1002
}
  0
MTEXT
  5
9B1B
330
1E
100
AcDbEntity
  8
16
100
AcDbMText
 10
370.8825424999993
 20
517.3995025000001
 30
0.0
 40
8.0
 41
0.0
 71
     7
 72
     5
  1
\W01.000;\fsimplex.shx;L
  7
blockfont
 73
     2
 44
0.9036139999999999
1001
ACAD
1000
MTEXTBEGIN
1070
    73
1070
     2
1070
    44
1040
0.9036139999999999
1070
    74
1070
     0
1000
MTEXTEND
  0
MTEXT
  5
9B1C
330
1E
100
AcDbEntity
  8
16
100
AcDbMText
 10
368.1117099999992
 20
521.6758200000001
 30
0.0
 40
8.0
 41
0.0
 71
     7
 72
     5
  1
\W01.000;\fsimplex.shx;H
  7
blockfont
 73
     2
 44
0.9036139999999999
1001
ACAD
1000
MTEXTBEGIN
1070
    73
1070
     2
1070
    44
1040
0.9036139999999999
1070
    74
1070
     0
1000
MTEXTEND
  0
LINE
  5
9B1D
330
1E
100
AcDbEntity
  8
17
100
AcDbLine
 10
348.0000000000004
 20
-514.0
 30
0.0
 11
392.0000000000005
 21
-514.0
 31
0.0
  0
LINE
  5
9B1E
330
1E
100
AcDbEntity
  8
17
100
AcDbLine
 10
348.0000000000004
 20
-286.0
 30
0.0
 11
392.0000000000005
 21
-286.0
 31
0.0
  0
LINE
  5
9B1F
330
1E
100
AcDbEntity
  8
12
  6
DASHED
100
AcDbLine
 10
388.0000000000005
 20
-514.0
 30
0.0
 11
397.0000000000005
 21
-514.0
 31
0.0
  0
LINE
  5
9B20
330
1E
100
AcDbEntity
  8
22
100
AcDbLine
 10
388.0000000000005
 20
-286.0
 30
0.0
 11
397.0000000000005
 21
-286.0
 31
0.0
  0
LINE
  5
9B21
330
1E
100
AcDbEntity
  8
12
  6
DASHED
100
AcDbLine
 10
385.5
 20
-507.0
 30
0.0
 11
399.5
 21
-507.0
 31
0.0
  0
LINE
  5
9B22
330
1E
100
AcDbEntity
  8
12
  6
DASHED
100
AcDbLine
 10
385.5
 20
-293.0
 30
0.0
 11
399.5
 21
-293.0
 31
0.0
  0
LINE
  5
9B23
330
1E
100
AcDbEntity
  8
18
  6
DIVIDE
100
AcDbLine
 10
485.0
 20
-270.0
 30
0.0
 11
300.0
 21
-270.0
 31
0.0
  0
LINE
  5
9B24
330
1E
100
AcDbEntity
  8
18
  6
DIVIDE
100
AcDbLine
 10
300.0
 20
-530.0000000000001
 30
0.0
 11
485.0
 21
-530.0000000000001
 31
0.0
  0
CIRCLE
  5
9B25
330
1E
100
AcDbEntity
  8
12
  6
DASHED
100
AcDbCircle
 10
-392.5
 20
-293.0
 30
0.0
 40
3.0
210
0.0
220
0.0
230
-1.0
  0
CIRCLE
  5
9B26
330
1E
100
AcDbEntity
  8
12
  6
DASHED
100
AcDbCircle
 10
392.5
 20
-507.0
 30
0.0
 40
3.0
  0
LINE
  5
9B27
330
1E
100
AcDbEntity
  8
18
  6
DIVIDE
100
AcDbLine
 10
300.0
 20
-270.0
 30
0.0
 11
300.0
 21
-530.0000000000001
 31
0.0
  0
LINE
  5
9B28
330
1E
100
AcDbEntity
  8
17
100
AcDbLine
 10
303.0000000000002
 20
-514.0
 30
0.0
 11
347.0000000000005
 21
-514.0
 31
0.0
  0
LINE
  5
9B29
330
1E
100
AcDbEntity
  8
17
100
AcDbLine
 10
325.0000000000002
 20
-492.0
 30
0.0
 11
325.0000000000002
 21
-536.0
 31
0.0
  0
LINE
  5
9B2A
330
1E
100
AcDbEntity
  8
17
100
AcDbLine
 10
370.0000000000005
 20
-492.0
 30
0.0
 11
370.0000000000005
 21
-536.0
 31
0.0
  0
LINE
  5
9B2B
330
1E
100
AcDbEntity
  8
12
  6
DASHED
100
AcDbLine
 10
340.5
 20
-507.0
 30
0.0
 11
354.5
 21
-507.0
 31
0.0
  0
LINE
  5
9B2C
330
1E
100
AcDbEntity
  8
12
  6
DASHED
100
AcDbLine
 10
343.0000000000005
 20
-514.0
 30
0.0
 11
352.0000000000004
 21
-514.0
 31
0.0
  0
LINE
  5
9B2D
330
1E
100
AcDbEntity
  8
12
  6
DASHED
100
AcDbLine
 10
347.5
 20
-500.0
 30
0.0
 11
347.5
 21
-514.0
 31
0.0
  0
CIRCLE
  5
9B2E
330
1E
100
AcDbEntity
  8
12
  6
DASHED
100
AcDbCircle
 10
-347.5
 20
-507.0
 30
0.0
 40
3.0
210
0.0
220
0.0
230
-1.0
  0
LINE
  5
9B2F
330
1E
100
AcDbEntity
  8
17
100
AcDbLine
 10
370.0000000000005
 20
-264.0
 30
0.0
 11
370.0000000000005
 21
-308.0
 31
0.0
  0
LINE
  5
9B30
330
1E
100
AcDbEntity
  8
17
100
AcDbLine
 10
325.0000000000002
 20
-264.0
 30
0.0
 11
325.0000000000002
 21
-308.0
 31
0.0
  0
LINE
  5
9B31
330
1E
100
AcDbEntity
  8
17
100
AcDbLine
 10
303.0000000000002
 20
-286.0
 30
0.0
 11
347.0000000000005
 21
-286.0
 31
0.0
  0
LINE
  5
9B32
330
1E
100
AcDbEntity
  8
12
  6
DASHED
100
AcDbLine
 10
340.5
 20
-293.0
 30
0.0
 11
354.5
 21
-293.0
 31
0.0
  0
LINE
  5
9B33
330
1E
100
AcDbEntity
  8
22
100
AcDbLine
 10
343.0000000000005
 20
-286.0
 30
0.0
 11
352.0000000000004
 21
-286.0
 31
0.0
  0
LINE
  5
9B34
330
1E
100
AcDbEntity
  8
12
  6
DASHED
100
AcDbLine
 10
347.5
 20
-286.0
 30
0.0
 11
347.5
 21
-300.0
 31
0.0
  0
CIRCLE
  5
9B35
330
1E
100
AcDbEntity
  8
12
  6
DASHED
100
AcDbCircle
 10
347.5
 20
-293.0
 30
0.0
 40
3.0
  0
LINE
  5
9B36
330
1E
100
AcDbEntity
  8
18
  6
DIVIDE
100
AcDbLine
 10
485.0
 20
-530.0000000000001
 30
0.0
 11
485.0
 21
-270.0
 31
0.0
  0
LINE
  5
9B37
330
1E
100
AcDbEntity
  8
17
100
AcDbLine
 10
415.0000000000003
 20
-492.0
 30
0.0
 11
415.0000000000003
 21
-536.0
 31
0.0
  0
LINE
  5
9B38
330
1E
100
AcDbEntity
  8
17
100
AcDbLine
 10
393.0000000000005
 20
-514.0
 30
0.0
 11
437.0000000000002
 21
-514.0
 31
0.0
  0
LINE
  5
9B39
330
1E
100
AcDbEntity
  8
12
  6
DASHED
100
AcDbLine
 10
392.5
 20
-500.0
 30
0.0
 11
392.5
 21
-514.0
 31
0.0
  0
LINE
  5
9B3A
330
1E
100
AcDbEntity
  8
17
100
AcDbLine
 10
415.0000000000003
 20
-264.0
 30
0.0
 11
415.0000000000003
 21
-308.0
 31
0.0
  0
LINE
  5
9B3B
330
1E
100
AcDbEntity
  8
17
100
AcDbLine
 10
393.0000000000005
 20
-286.0
 30
0.0
 11
437.0000000000002
 21
-286.0
 31
0.0
  0
LINE
  5
9B3C
330
1E
100
AcDbEntity
  8
12
  6
DASHED
100
AcDbLine
 10
392.5
 20
-286.0
 30
0.0
 11
392.5
 21
-300.0
 31
0.0
  0
DIMENSION
  5
9B3D
330
1E
100
AcDbEntity
  8
30
  6
Continuous
100
AcDbDimension
  2
*D31
 10
339.8451193332283
 20
-524.1795103999279
 30
0.0
 11
290.0000000000006
 21
-490.0000000000002
 31
0.0
 70
   163
 71
     5
 42
36.00000000000058
  3
STANDARD
100
AcDbDiametricDimension
 15
310.1548806667727
 25
-503.8204896000725
 35
0.0
 40
0.0
1001
ACAD
1000
DSTYLE
1002
{
1070
    79
1070
     3
1070
   279
1070
     1
1070
   288
1070
     1
1002
}
  0
DIMENSION
  5
9B3E
330
1E
100
AcDbEntity
  8
30
  6
Continuous
100
AcDbDimension
  2
*D32
 10
348.1921904299727
 20
-295.9190533411798
 30
0.0
 11
338.2525591661078
 21
-254.0023890902476
 31
0.0
 70
   163
  1
M6
 71
     5
 42
5.999999999999886
  3
STANDARD
100
AcDbDiametricDimension
 15
346.807809570027
 25
-290.08094665882
 35
0.0
 40
0.0
1001
ACAD
1000
DSTYLE
1002
{
1070
    79
1070
     3
1070
   279
1070
     1
1070
   288
1070
     1
1002
}
  0
DIMENSION
  5
9B3F
330
1E
100
AcDbEntity
  8
30
  6
Continuous
100
AcDbDimension
  2
*D33
 10
535.0
 20
-514.0
 30
0.0
 11
531.0000000000001
 21
-400.0
 31
0.0
 70
    32
 71
     5
 42
228.0
  3
STANDARD
100
AcDbAlignedDimension
 13
482.0000000000002
 23
-286.0
 33
0.0
 14
482.0000000000002
 24
-514.0
 34
0.0
 50
90.0
100
AcDbRotatedDimension
1001
ACAD
1000
DSTYLE
1002
{
1070
    79
1070
     3
1002
}
  0
DIMENSION
  5
9B40
330
1E
100
AcDbEntity
  8
30
  6
Continuous
100
AcDbDimension
  2
*D34
 10
515.0
 20
-507.0
 30
0.0
 11
511.0000000000002
 21
-400.0
 31
0.0
 70
    32
 71
     5
 42
214.0
  3
STANDARD
100
AcDbAlignedDimension
 13
399.5
 23
-293.0
 33
0.0
 14
399.5
 24
-507.0
 34
0.0
 50
90.0
100
AcDbRotatedDimension
1001
ACAD
1000
DSTYLE
1002
{
1070
    79
1070
     3
1002
}
  0
LINE
  5
9B41
330
1E
100
AcDbEntity
  8
16
100
AcDbLine
 10
370.0
 20
-540.0
 30
0.0
 11
370.0
 21
-260.0
 31
0.0
  0
LINE
  5
9B42
330
1E
100
AcDbEntity
  8
16
100
AcDbLine
 10
495.0
 20
-400.0
 30
0.0
 11
290.0
 21
-400.0
 31
0.0
  0
INSERT
  5
9B43
330
1E
100
AcDbEntity
  8
30
100
AcDbBlockReference
  2
*U3
 10
-72.5
 20
-470.0
 30
0.0
  0
INSERT
  5
9B44
330
1E
100
AcDbEntity
  8
30
100
AcDbBlockReference
  2
*U4
 10
-72.5
 20
-470.0
 30
0.0
  0
MTEXT
  5
9B45
330
1E
100
AcDbEntity
  8
16
100
AcDbMText
 10
370.8825424999993
 20
-260.6004974999998
 30
0.0
 40
8.0
 41
0.0
 71
     7
 72
     5
  1
\W01.000;\fsimplex.shx;L
  7
blockfont
 73
     2
 44
0.9036139999999999
1001
ACAD
1000
MTEXTBEGIN
1070
    73
1070
     2
1070
    44
1040
0.9036139999999999
1070
    74
1070
     0
1000
MTEXTEND
  0
MTEXT
  5
9B46
330
1E
100
AcDbEntity
  8
16
100
AcDbMText
 10
368.1117099999992
 20
-256.3241799999998
 30
0.0
 40
8.0
 41
0.0
 71
     7
 72
     5
  1
\W01.000;\fsimplex.shx;H
  7
blockfont
 73
     2
 44
0.9036139999999999
1001
ACAD
1000
MTEXTBEGIN
1070
    73
1070
     2
1070
    44
1040
0.9036139999999999
1070
    74
1070
     0
1000
MTEXTEND
  0
CIRCLE
  5
9B47
330
1E
100
AcDbEntity
  8
24
100
AcDbCircle
 10
415.0000000000003
 20
-286.0
 30
0.0
 40
18.0
  0
CIRCLE
  5
9B48
330
1E
100
AcDbEntity
  8
24
100
AcDbCircle
 10
370.0000000000005
 20
-286.0
 30
0.0
 40
18.0
  0
CIRCLE
  5
9B49
330
1E
100
AcDbEntity
  8
24
100
AcDbCircle
 10
325.0000000000003
 20
-286.0
 30
0.0
 40
18.0
  0
CIRCLE
  5
9B4A
330
1E
100
AcDbEntity
  8
24
100
AcDbCircle
 10
415.0000000000003
 20
-514.0
 30
0.0
 40
18.0
  0
CIRCLE
  5
9B4B
330
1E
100
AcDbEntity
  8
24
100
AcDbCircle
 10
370.0
 20
-514.0
 30
0.0
 40
18.0
  0
CIRCLE
  5
9B4C
330
1E
100
AcDbEntity
  8
24
100
AcDbCircle
 10
325.0000000000002
 20
-514.0
 30
0.0
 40
18.0
  0
LINE
  5
9B4D
330
1E
100
AcDbEntity
  8
24
100
AcDbLine
 10
447.0
 20
399.5
 30
0.0
 11
447.0
 21
432.3095842401767
 31
0.0
  0
LINE
  5
9B4E
330
1E
100
AcDbEntity
  8
24
100
AcDbLine
 10
473.0
 20
399.5
 30
0.0
 11
473.0
 21
432.3095842401767
 31
0.0
  0
LINE
  5
9B4F
330
1E
100
AcDbEntity
  8
24
100
AcDbLine
 10
445.0
 20
436.9999999999997
 30
0.0
 11
445.0
 21
509.4999999999997
 31
0.0
  0
LINE
  5
9B50
330
1E
100
AcDbEntity
  8
24
100
AcDbLine
 10
475.0
 20
436.9999999999997
 30
0.0
 11
475.0
 21
509.4999999999997
 31
0.0
  0
LINE
  5
9B51
330
1E
100
AcDbEntity
  8
24
100
AcDbLine
 10
445.0
 20
436.9999999999997
 30
0.0
 11
445.0
 21
509.4999999999997
 31
0.0
  0
LINE
  5
9B52
330
1E
100
AcDbEntity
  8
24
100
AcDbLine
 10
475.0
 20
436.9999999999997
 30
0.0
 11
475.0
 21
509.4999999999997
 31
0.0
  0
ARC
  5
9B53
330
1E
100
AcDbEntity
  8
24
100
AcDbCircle
 10
451.4999999999998
 20
436.9999999999997
 30
0.0
 40
6.5
100
AcDbArc
 50
180.0
 51
226.186938539589
  0
ARC
  5
9B54
330
1E
100
AcDbEntity
  8
24
100
AcDbCircle
 10
468.5
 20
436.9999999999997
 30
0.0
 40
6.5
100
AcDbArc
 50
313.813061460411
 51
0.0
  0
LINE
  5
9B55
330
1E
100
AcDbEntity
  8
24
100
AcDbLine
 10
445.0
 20
470.5
 30
0.0
 11
475.0
 21
470.5
 31
0.0
  0
LINE
  5
9B56
330
1E
100
AcDbEntity
  8
24
100
AcDbLine
 10
445.0
 20
509.4999999999997
 30
0.0
 11
475.0
 21
509.4999999999997
 31
0.0
  0
CIRCLE
  5
9B57
330
1E
100
AcDbEntity
  8
17
100
AcDbCircle
 10
460.0
 20
494.5
 30
0.0
 40
6.5
  0
LINE
  5
9B58
330
1E
100
AcDbEntity
  8
17
100
AcDbLine
 10
460.0
 20
484.0
 30
0.0
 11
460.0
 21
505.0000000000001
 31
0.0
  0
LINE
  5
9B59
330
1E
100
AcDbEntity
  8
17
100
AcDbLine
 10
449.5
 20
494.5
 30
0.0
 11
470.5
 21
494.5
 31
0.0
  0
DIMENSION
  5
9B5A
330
1E
100
AcDbEntity
  8
30
  6
Continuous
100
AcDbDimension
  2
*D35
 10
460.0
 20
515.0
 30
0.0
 11
437.5
 21
519.0
 31
0.0
 70
    32
 71
     5
 42
45.0
  3
STANDARD
100
AcDbAlignedDimension
 13
415.0
 23
464.9999999999997
 33
0.0
 14
460.0
 24
505.0000000000001
 34
0.0
100
AcDbRotatedDimension
1001
ACAD
1000
DSTYLE
1002
{
1070
    79
1070
     3
1002
}
  0
LINE
  5
9B5B
330
1E
100
AcDbEntity
  8
17
100
AcDbLine
 10
460.0000000000004
 20
-492.0
 30
0.0
 11
460.0000000000004
 21
-536.0
 31
0.0
  0
LINE
  5
9B5C
330
1E
100
AcDbEntity
  8
17
100
AcDbLine
 10
438.0000000000004
 20
-514.0
 30
0.0
 11
482.0000000000002
 21
-514.0
 31
0.0
  0
LINE
  5
9B5D
330
1E
100
AcDbEntity
  8
17
100
AcDbLine
 10
460.0000000000004
 20
-264.0
 30
0.0
 11
460.0000000000004
 21
-308.0
 31
0.0
  0
LINE
  5
9B5E
330
1E
100
AcDbEntity
  8
17
100
AcDbLine
 10
438.0000000000004
 20
-286.0
 30
0.0
 11
482.0000000000002
 21
-286.0
 31
0.0
  0
CIRCLE
  5
9B5F
330
1E
100
AcDbEntity
  8
24
100
AcDbCircle
 10
460.0000000000004
 20
-286.0
 30
0.0
 40
18.0
  0
CIRCLE
  5
9B60
330
1E
100
AcDbEntity
  8
24
100
AcDbCircle
 10
460.0000000000004
 20
-514.0
 30
0.0
 40
18.0
  0
LINE
  5
9B61
330
1E
100
AcDbEntity
  8
10
  6
CONTINOUS
100
AcDbLine
 10
460.0
 20
115.0
 30
0.0
 11
460.0
 21
133.0
 31
0.0
  0
LINE
  5
9B62
330
1E
100
AcDbEntity
  8
10
  6
CONTINOUS
100
AcDbLine
 10
300.0
 20
140.0
 30
0.0
 11
300.0
 21
-120.0
 31
0.0
  0
LINE
  5
9B63
330
1E
100
AcDbEntity
  8
10
  6
CONTINOUS
100
AcDbLine
 10
428.0000000000008
 20
50.0
 30
0.0
 11
428.0000000000008
 21
-30.0
 31
0.0
  0
LINE
  5
9B64
330
1E
100
AcDbEntity
  8
10
  6
CONTINOUS
100
AcDbLine
 10
352.0
 20
-24.00000000000046
 30
0.0
 11
352.0
 21
44.0
 31
0.0
  0
LINE
  5
9B65
330
1E
100
AcDbEntity
  8
10
  6
CONTINOUS
100
AcDbLine
 10
388.0000000000009
 20
44.0
 30
0.0
 11
352.0
 21
44.0
 31
0.0
  0
LINE
  5
9B66
330
1E
100
AcDbEntity
  8
240
  6
PHANTOM
 62
     5
 48
0.05
100
AcDbLine
 10
394.5
 20
140.0
 30
0.0
 11
394.5
 21
250.0
 31
0.0
  0
LINE
  5
9B67
330
1E
100
AcDbEntity
  8
10
  6
CONTINOUS
100
AcDbLine
 10
316.0
 20
-104.0000000000004
 30
0.0
 11
333.9999999999991
 21
-104.0000000000004
 31
0.0
  0
LINE
  5
9B68
330
1E
100
AcDbEntity
  8
10
  6
CONTINOUS
100
AcDbLine
 10
317.0
 20
-35.0
 30
0.0
 11
423.0000000000008
 21
-35.0
 31
0.0
  0
LINE
  5
9B69
330
1E
100
AcDbEntity
  8
10
  6
CONTINOUS
100
AcDbLine
 10
387.0
 20
32.97883499999989
 30
0.0
 11
353.0000000000009
 21
32.97883499999989
 31
0.0
  0
LINE
  5
9B6A
330
1E
100
AcDbEntity
  8
240
  6
PHANTOM
 62
     5
 48
0.05
100
AcDbLine
 10
442.4999999999998
 20
140.0
 30
0.0
 11
442.4999999999998
 21
250.0
 31
0.0
  0
LINE
  5
9B6B
330
1E
100
AcDbEntity
  8
240
  6
PHANTOM
 62
     5
 48
0.05
100
AcDbLine
 10
346.4999999999991
 20
140.0
 30
0.0
 11
346.4999999999991
 21
250.0
 31
0.0
  0
LINE
  5
9B6C
330
1E
100
AcDbEntity
  8
12
  6
DASHED
100
AcDbLine
 10
392.5
 20
-89.00000000000046
 30
0.0
 11
392.5
 21
-105.0
 31
0.0
  0
LINE
  5
9B6D
330
1E
100
AcDbEntity
  8
10
  6
CONTINOUS
100
AcDbLine
 10
485.0
 20
140.0
 30
0.0
 11
300.0
 21
140.0
 31
0.0
  0
LINE
  5
9B6E
330
1E
100
AcDbEntity
  8
10
  6
CONTINOUS
100
AcDbLine
 10
388.0000000000009
 20
-24.00000000000046
 30
0.0
 11
352.0
 21
-24.00000000000046
 31
0.0
  0
LINE
  5
9B6F
330
1E
100
AcDbEntity
  8
10
  6
CONTINOUS
100
AcDbLine
 10
406.0
 20
-104.0000000000004
 30
0.0
 11
423.9999999999991
 21
-104.0000000000004
 31
0.0
  0
LINE
  5
9B70
330
1E
100
AcDbEntity
  8
12
  6
DASHED
100
AcDbLine
 10
400.5000000000008
 20
116.9999999999995
 30
0.0
 11
384.5
 21
116.9999999999995
 31
0.0
  0
LINE
  5
9B71
330
1E
100
AcDbEntity
  8
240
  6
PHANTOM
 62
     5
 48
0.05
100
AcDbLine
 10
390.5000000000009
 20
250.0
 30
0.0
 11
394.5
 21
250.0
 31
0.0
  0
LINE
  5
9B72
330
1E
100
AcDbEntity
  8
240
  6
PHANTOM
 62
     5
 48
0.05
100
AcDbLine
 10
342.5
 20
140.0
 30
0.0
 11
342.5
 21
250.0
 31
0.0
  0
LINE
  5
9B73
330
1E
100
AcDbEntity
  8
12
  6
DASHED
100
AcDbLine
 10
392.5
 20
125.0
 30
0.0
 11
392.5
 21
109.0
 31
0.0
  0
LINE
  5
9B74
330
1E
100
AcDbEntity
  8
10
  6
CONTINOUS
100
AcDbLine
 10
312.0
 20
50.0
 30
0.0
 11
312.0
 21
-30.0
 31
0.0
  0
LINE
  5
9B75
330
1E
100
AcDbEntity
  8
10
  6
CONTINOUS
100
AcDbLine
 10
388.0000000000009
 20
-24.00000000000046
 30
0.0
 11
388.0000000000009
 21
44.0
 31
0.0
  0
LINE
  5
9B76
330
1E
100
AcDbEntity
  8
10
  6
CONTINOUS
100
AcDbLine
 10
317.0
 20
55.0
 30
0.0
 11
423.0000000000008
 21
55.0
 31
0.0
  0
LINE
  5
9B77
330
1E
100
AcDbEntity
  8
10
  6
CONTINOUS
100
AcDbLine
 10
460.0
 20
-113.0000000000004
 30
0.0
 11
460.0
 21
-95.0
 31
0.0
  0
LINE
  5
9B78
330
1E
100
AcDbEntity
  8
10
  6
CONTINOUS
100
AcDbLine
 10
370.0
 20
-113.0000000000004
 30
0.0
 11
370.0
 21
-95.0
 31
0.0
  0
LINE
  5
9B79
330
1E
100
AcDbEntity
  8
10
  6
CONTINOUS
100
AcDbLine
 10
395.5000000000008
 20
-35.0
 30
0.0
 11
395.5000000000008
 21
55.0
 31
0.0
  0
LINE
  5
9B7A
330
1E
100
AcDbEntity
  8
10
  6
CONTINOUS
100
AcDbLine
 10
370.0
 20
115.0
 30
0.0
 11
370.0
 21
133.0
 31
0.0
  0
LINE
  5
9B7B
330
1E
100
AcDbEntity
  8
10
  6
CONTINOUS
100
AcDbLine
 10
406.0
 20
124.0
 30
0.0
 11
423.9999999999991
 21
124.0
 31
0.0
  0
LINE
  5
9B7C
330
1E
100
AcDbEntity
  8
12
  6
DASHED
100
AcDbLine
 10
355.5000000000009
 20
116.9999999999995
 30
0.0
 11
339.5
 21
116.9999999999995
 31
0.0
  0
LINE
  5
9B7D
330
1E
100
AcDbEntity
  8
10
  6
CONTINOUS
100
AcDbLine
 10
415.0
 20
115.0
 30
0.0
 11
415.0
 21
133.0
 31
0.0
  0
LINE
  5
9B7E
330
1E
100
AcDbEntity
  8
10
  6
CONTINOUS
100
AcDbLine
 10
325.0
 20
115.0
 30
0.0
 11
325.0
 21
133.0
 31
0.0
  0
LINE
  5
9B7F
330
1E
100
AcDbEntity
  8
12
  6
DASHED
100
AcDbLine
 10
347.5
 20
-89.00000000000046
 30
0.0
 11
347.5
 21
-105.0
 31
0.0
  0
LINE
  5
9B80
330
1E
100
AcDbEntity
  8
12
  6
DASHED
100
AcDbLine
 10
347.5
 20
125.0
 30
0.0
 11
347.5
 21
109.0
 31
0.0
  0
LINE
  5
9B81
330
1E
100
AcDbEntity
  8
12
  6
DASHED
100
AcDbLine
 10
355.5000000000009
 20
-97.0
 30
0.0
 11
339.5
 21
-97.0
 31
0.0
  0
LINE
  5
9B82
330
1E
100
AcDbEntity
  8
10
  6
CONTINOUS
100
AcDbLine
 10
387.0
 20
32.97883499999989
 30
0.0
 11
387.0
 21
42.80865999999968
 31
0.0
  0
LINE
  5
9B83
330
1E
100
AcDbEntity
  8
240
  6
PHANTOM
 62
     5
 48
0.05
100
AcDbLine
 10
390.5000000000009
 20
140.0
 30
0.0
 11
390.5000000000009
 21
250.0
 31
0.0
  0
LINE
  5
9B84
330
1E
100
AcDbEntity
  8
10
  6
CONTINOUS
100
AcDbLine
 10
361.0
 20
-104.0000000000004
 30
0.0
 11
378.9999999999992
 21
-104.0000000000004
 31
0.0
  0
LINE
  5
9B85
330
1E
100
AcDbEntity
  8
10
  6
CONTINOUS
100
AcDbLine
 10
344.5
 20
-35.0
 30
0.0
 11
344.5
 21
55.0
 31
0.0
  0
LINE
  5
9B86
330
1E
100
AcDbEntity
  8
10
  6
CONTINOUS
100
AcDbLine
 10
316.0
 20
124.0
 30
0.0
 11
333.9999999999991
 21
124.0
 31
0.0
  0
LINE
  5
9B87
330
1E
100
AcDbEntity
  8
10
  6
CONTINOUS
100
AcDbLine
 10
300.0
 20
-41.0
 30
0.0
 11
485.0
 21
-41.0
 31
0.0
  0
LINE
  5
9B88
330
1E
100
AcDbEntity
  8
10
  6
CONTINOUS
100
AcDbLine
 10
353.0000000000009
 20
32.97883499999989
 30
0.0
 11
353.0000000000009
 21
42.80865999999968
 31
0.0
  0
LINE
  5
9B89
330
1E
100
AcDbEntity
  8
10
  6
CONTINOUS
100
AcDbLine
 10
300.0
 20
-120.0
 30
0.0
 11
485.0
 21
-120.0
 31
0.0
  0
LINE
  5
9B8A
330
1E
100
AcDbEntity
  8
10
  6
CONTINOUS
100
AcDbLine
 10
451.0
 20
124.0
 30
0.0
 11
468.999999999999
 21
124.0
 31
0.0
  0
LINE
  5
9B8B
330
1E
100
AcDbEntity
  8
240
  6
PHANTOM
 62
     5
 48
0.05
100
AcDbLine
 10
342.5
 20
250.0
 30
0.0
 11
346.4999999999991
 21
250.0
 31
0.0
  0
LINE
  5
9B8C
330
1E
100
AcDbEntity
  8
240
  6
PHANTOM
 62
     5
 48
0.05
100
AcDbLine
 10
438.4999999999998
 20
250.0
 30
0.0
 11
442.4999999999998
 21
250.0
 31
0.0
  0
LINE
  5
9B8D
330
1E
100
AcDbEntity
  8
10
  6
CONTINOUS
100
AcDbLine
 10
361.0
 20
124.0
 30
0.0
 11
378.9999999999992
 21
124.0
 31
0.0
  0
LINE
  5
9B8E
330
1E
100
AcDbEntity
  8
10
  6
CONTINOUS
100
AcDbLine
 10
387.0
 20
42.80865999999968
 30
0.0
 11
353.0000000000009
 21
42.80865999999968
 31
0.0
  0
LINE
  5
9B8F
330
1E
100
AcDbEntity
  8
12
  6
DASHED
100
AcDbLine
 10
400.5000000000008
 20
-97.0
 30
0.0
 11
384.5
 21
-97.0
 31
0.0
  0
LINE
  5
9B90
330
1E
100
AcDbEntity
  8
10
  6
CONTINOUS
100
AcDbLine
 10
325.0
 20
-113.0000000000004
 30
0.0
 11
325.0
 21
-95.0
 31
0.0
  0
LINE
  5
9B91
330
1E
100
AcDbEntity
  8
10
  6
CONTINOUS
100
AcDbLine
 10
300.0
 20
60.99999999999955
 30
0.0
 11
485.0
 21
60.99999999999955
 31
0.0
  0
LINE
  5
9B92
330
1E
100
AcDbEntity
  8
10
  6
CONTINOUS
100
AcDbLine
 10
485.0
 20
140.0
 30
0.0
 11
485.0
 21
-120.0
 31
0.0
  0
LINE
  5
9B93
330
1E
100
AcDbEntity
  8
240
  6
PHANTOM
 62
     5
 48
0.05
100
AcDbLine
 10
438.4999999999998
 20
140.0
 30
0.0
 11
438.4999999999998
 21
250.0
 31
0.0
  0
LINE
  5
9B94
330
1E
100
AcDbEntity
  8
10
  6
CONTINOUS
100
AcDbLine
 10
451.0
 20
-104.0000000000004
 30
0.0
 11
468.999999999999
 21
-104.0000000000004
 31
0.0
  0
LINE
  5
9B95
330
1E
100
AcDbEntity
  8
10
  6
CONTINOUS
100
AcDbLine
 10
415.0
 20
-113.0000000000004
 30
0.0
 11
415.0
 21
-95.0
 31
0.0
  0
ARC
  5
9B96
330
1E
100
AcDbEntity
  8
10
  6
CONTINOUS
100
AcDbCircle
 10
317.0
 20
50.0
 30
0.0
 40
5.0
100
AcDbArc
 50
90.0
 51
180.0
  0
CIRCLE
  5
9B97
330
1E
100
AcDbEntity
  8
12
  6
DASHED
100
AcDbCircle
 10
347.5
 20
-97.0
 30
0.0
 40
4.0
  0
ARC
  5
9B98
330
1E
100
AcDbEntity
  8
10
  6
CONTINOUS
100
AcDbCircle
 10
423.0000000000008
 20
50.0
 30
0.0
 40
5.0
100
AcDbArc
 50
0.0
 51
90.0
  0
CIRCLE
  5
9B99
330
1E
100
AcDbEntity
  8
10
  6
CONTINOUS
100
AcDbCircle
 10
-325.0
 20
124.0
 30
0.0
 40
5.0
210
0.0
220
0.0
230
-1.0
  0
CIRCLE
  5
9B9A
330
1E
100
AcDbEntity
  8
12
  6
DASHED
100
AcDbCircle
 10
-347.5
 20
116.9999999999995
 30
0.0
 40
4.0
210
0.0
220
0.0
230
-1.0
  0
ARC
  5
9B9B
330
1E
100
AcDbEntity
  8
10
  6
CONTINOUS
100
AcDbCircle
 10
317.0
 20
-30.0
 30
0.0
 40
5.0
100
AcDbArc
 50
180.0
 51
270.0
  0
CIRCLE
  5
9B9C
330
1E
100
AcDbEntity
  8
10
  6
CONTINOUS
100
AcDbCircle
 10
-370.0
 20
124.0
 30
0.0
 40
5.0
210
0.0
220
0.0
230
-1.0
  0
CIRCLE
  5
9B9D
330
1E
100
AcDbEntity
  8
10
  6
CONTINOUS
100
AcDbCircle
 10
-415.0
 20
124.0
 30
0.0
 40
5.0
210
0.0
220
0.0
230
-1.0
  0
CIRCLE
  5
9B9E
330
1E
100
AcDbEntity
  8
10
  6
CONTINOUS
100
AcDbCircle
 10
325.0
 20
-104.0000000000004
 30
0.0
 40
5.0
  0
CIRCLE
  5
9B9F
330
1E
100
AcDbEntity
  8
10
  6
CONTINOUS
100
AcDbCircle
 10
-460.0
 20
-104.0000000000004
 30
0.0
 40
5.0
210
0.0
220
0.0
230
-1.0
  0
ARC
  5
9BA0
330
1E
100
AcDbEntity
  8
10
  6
CONTINOUS
100
AcDbCircle
 10
423.0000000000008
 20
-30.0
 30
0.0
 40
5.0
100
AcDbArc
 50
270.0
 51
0.0
  0
CIRCLE
  5
9BA1
330
1E
100
AcDbEntity
  8
10
  6
CONTINOUS
100
AcDbCircle
 10
460.0
 20
124.0
 30
0.0
 40
5.0
  0
CIRCLE
  5
9BA2
330
1E
100
AcDbEntity
  8
10
  6
CONTINOUS
100
AcDbCircle
 10
370.0
 20
-104.0000000000004
 30
0.0
 40
5.0
  0
CIRCLE
  5
9BA3
330
1E
100
AcDbEntity
  8
12
  6
DASHED
100
AcDbCircle
 10
392.5
 20
-97.0
 30
0.0
 40
4.0
  0
CIRCLE
  5
9BA4
330
1E
100
AcDbEntity
  8
10
  6
CONTINOUS
100
AcDbCircle
 10
415.0
 20
-104.0000000000004
 30
0.0
 40
5.0
  0
CIRCLE
  5
9BA5
330
1E
100
AcDbEntity
  8
12
  6
DASHED
100
AcDbCircle
 10
-392.5
 20
116.9999999999995
 30
0.0
 40
4.0
210
0.0
220
0.0
230
-1.0
  0
DIMENSION
  5
9BA7
330
1E
100
AcDbEntity
  8
30
  6
Continuous
100
AcDbDimension
  2
*D36
 10
275.0
 20
-104.0000000000004
 30
0.0
 11
270.0
 21
9.999999999999827
 31
0.0
 70
    32
 71
     5
 42
228.0000000000005
  3
STANDARD1
100
AcDbAlignedDimension
 13
316.0
 23
124.0
 33
0.0
 14
316.0
 24
-104.0000000000004
 34
0.0
 50
90.0
100
AcDbRotatedDimension
  0
DIMENSION
  5
A049
330
1E
100
AcDbEntity
  8
30
  6
Continuous
100
AcDbDimension
  2
*D41
 10
484.9999999999986
 20
-150.0
 30
0.0
 11
392.4999999999993
 21
-145.0
 31
0.0
 70
    32
 71
     5
 42
184.9999999999986
  3
STANDARD1
100
AcDbAlignedDimension
 13
300.0
 23
-120.0
 33
0.0
 14
484.9999999999986
 24
-120.0
 34
0.0
100
AcDbRotatedDimension
  0
DIMENSION
  5
A04A
330
1E
100
AcDbEntity
  8
30
  6
Continuous
100
AcDbDimension
  2
*D42
 10
369.9999999999992
 20
-140.0
 30
0.0
 11
347.4999999999992
 21
-135.0
 31
0.0
 70
    32
 71
     5
 42
45.0
  3
STANDARD1
100
AcDbAlignedDimension
 13
324.9999999999992
 23
-113.0000000000002
 33
0.0
 14
369.9999999999992
 24
-132.0
 34
0.0
100
AcDbRotatedDimension
  0
DIMENSION
  5
A04B
330
1E
100
AcDbEntity
  8
30
  6
Continuous
100
AcDbDimension
  2
*D43
 10
414.9999999999991
 20
-140.0
 30
0.0
 11
392.4999999999995
 21
-135.0
 31
0.0
 70
    32
 71
     5
 42
44.99999999999913
  3
STANDARD1
100
AcDbAlignedDimension
 13
370.0
 23
-130.0
 33
0.0
 14
414.9999999999991
 24
-113.0000000000002
 34
0.0
100
AcDbRotatedDimension
  0
DIMENSION
  5
A04C
330
1E
100
AcDbEntity
  8
30
  6
Continuous
100
AcDbDimension
  2
*D44
 10
460.0
 20
-140.0
 30
0.0
 11
437.4999999999994
 21
-135.0
 31
0.0
 70
    32
 71
     5
 42
45.00000000000084
  3
STANDARD1
100
AcDbAlignedDimension
 13
414.9999999999991
 23
-113.0000000000002
 33
0.0
 14
460.0
 24
-113.0000000000002
 34
0.0
100
AcDbRotatedDimension
  0
LINE
  5
A10C
330
1E
100
AcDbEntity
  8
16
100
AcDbLine
 10
835.0
 20
-400.0
 30
0.0
 11
630.0
 21
-400.0
 31
0.0
  0
LINE
  5
A10D
330
1E
100
AcDbEntity
  8
16
100
AcDbLine
 10
710.0
 20
-540.0
 30
0.0
 11
710.0
 21
-260.0
 31
0.0
  0
ARC
  5
A10E
330
1E
100
AcDbEntity
  8
11
 48
2.0
100
AcDbCircle
 10
763.0
 20
-440.0
 30
0.0
 40
6.0
100
AcDbArc
 50
270.0
 51
0.0
  0
ARC
  5
A10F
330
1E
100
AcDbEntity
  8
11
 48
2.0
100
AcDbCircle
 10
657.0
 20
-440.0
 30
0.0
 40
6.0
100
AcDbArc
 50
180.0
 51
270.0
  0
LINE
  5
A110
330
1E
100
AcDbEntity
  8
18
  6
DIVIDE
100
AcDbLine
 10
640.0
 20
-269.9999999999999
 30
0.0
 11
640.0
 21
-530.0
 31
0.0
  0
LINE
  5
A111
330
1E
100
AcDbEntity
  8
18
  6
DIVIDE
100
AcDbLine
 10
825.0
 20
-530.0
 30
0.0
 11
825.0
 21
-269.9999999999999
 31
0.0
  0
LINE
  5
A112
330
1E
100
AcDbEntity
  8
11
 48
2.0
100
AcDbLine
 10
657.0
 20
-446.0
 30
0.0
 11
763.0
 21
-446.0
 31
0.0
  0
LINE
  5
A113
330
1E
100
AcDbEntity
  8
18
  6
DIVIDE
100
AcDbLine
 10
640.0
 20
-530.0
 30
0.0
 11
825.0
 21
-530.0
 31
0.0
  0
LINE
  5
A114
330
1E
100
AcDbEntity
  8
11
 48
2.0
100
AcDbLine
 10
657.0
 20
-353.9999999999998
 30
0.0
 11
763.0
 21
-353.9999999999998
 31
0.0
  0
LINE
  5
A115
330
1E
100
AcDbEntity
  8
18
  6
DIVIDE
100
AcDbLine
 10
825.0
 20
-269.9999999999999
 30
0.0
 11
640.0
 21
-269.9999999999999
 31
0.0
  0
LINE
  5
A116
330
1E
100
AcDbEntity
  8
11
 48
2.0
100
AcDbLine
 10
651.0
 20
-359.9999999999998
 30
0.0
 11
651.0
 21
-440.0
 31
0.0
  0
ARC
  5
A117
330
1E
100
AcDbEntity
  8
11
 48
2.0
100
AcDbCircle
 10
657.0
 20
-359.9999999999998
 30
0.0
 40
6.0
100
AcDbArc
 50
90.0
 51
180.0
  0
LINE
  5
A118
330
1E
100
AcDbEntity
  8
11
 48
2.0
100
AcDbLine
 10
769.0
 20
-359.9999999999998
 30
0.0
 11
769.0
 21
-440.0
 31
0.0
  0
ARC
  5
A119
330
1E
100
AcDbEntity
  8
11
 48
2.0
100
AcDbCircle
 10
763.0
 20
-359.9999999999998
 30
0.0
 40
6.0
100
AcDbArc
 50
0.0
 51
90.0
  0
DIMENSION
  5
A11A
330
1E
100
AcDbEntity
  8
30
  6
Continuous
100
AcDbDimension
  2
*D50
 10
762.9999999999995
 20
-360.0000000000004
 30
0.0
 11
799.9930829733998
 21
-346.0312994595852
 31
0.0
 70
   164
 71
     5
 42
6.000000000000683
  3
STANDARD
100
AcDbRadialDimension
 15
768.470087385131
 25
-357.5346107814322
 35
0.0
 40
0.0
1001
ACAD
1000
DSTYLE
1002
{
1070
   140
1040
6.0
1070
    79
1070
     3
1070
   288
1070
     1
1002
}
  0
DIMENSION
  5
A11B
330
1E
100
AcDbEntity
  8
30
  6
Continuous
100
AcDbDimension
  2
*D51
 10
769.0
 20
-470.0
 30
0.0
 11
710.0
 21
-465.0
 31
0.0
 70
    32
 71
     5
 42
118.0
  3
STANDARD1
100
AcDbAlignedDimension
 13
651.0
 23
-440.0
 33
0.0
 14
769.0
 24
-440.0
 34
0.0
100
AcDbRotatedDimension
  0
DIMENSION
  5
A11C
330
1E
100
AcDbEntity
  8
30
  6
Continuous
100
AcDbDimension
  2
*D52
 10
845.0
 20
-446.0
 30
0.0
 11
840.0000000000003
 21
-399.9999999999998
 31
0.0
 70
    32
 71
     5
 42
92.00000000000015
  3
STANDARD1
100
AcDbAlignedDimension
 13
763.0
 23
-353.9999999999998
 33
0.0
 14
763.0
 24
-446.0
 34
0.0
 50
90.0
100
AcDbRotatedDimension
  0
INSERT
  5
A11D
330
1E
100
AcDbEntity
  8
30
100
AcDbBlockReference
  2
*U45
 10
267.5
 20
-470.0
 30
0.0
  0
INSERT
  5
A11E
330
1E
100
AcDbEntity
  8
30
100
AcDbBlockReference
  2
*U46
 10
267.5
 20
-470.0
 30
0.0
  0
MTEXT
  5
A11F
330
1E
100
AcDbEntity
  8
16
100
AcDbMText
 10
710.8825424999992
 20
-260.6004974999998
 30
0.0
 40
8.0
 41
0.0
 71
     7
 72
     5
  1
\W01.000;\fsimplex.shx;L
  7
blockfont
 73
     2
 44
0.9036139999999999
1001
ACAD
1000
MTEXTBEGIN
1070
    73
1070
     2
1070
    44
1040
0.9036139999999999
1070
    74
1070
     0
1000
MTEXTEND
  0
MTEXT
  5
A120
330
1E
100
AcDbEntity
  8
16
100
AcDbMText
 10
708.1117099999992
 20
-256.3241799999998
 30
0.0
 40
8.0
 41
0.0
 71
     7
 72
     5
  1
\W01.000;\fsimplex.shx;H
  7
blockfont
 73
     2
 44
0.9036139999999999
1001
ACAD
1000
MTEXTBEGIN
1070
    73
1070
     2
1070
    44
1040
0.9036139999999999
1070
    74
1070
     0
1000
MTEXTEND
  0
VIEWPORT
  5
9AC
102
{ACAD_XDICTIONARY
360
A196
102
}
330
1A
100
AcDbEntity
 67
     1
  8
0
  6
Continuous
100
AcDbViewport
 10
171.999535
 20
144.1384739999999
 30
0.0
 40
488.867686
 41
292.351491
 68
    -1
 69
     1
 12
171.999535
 22
144.1384739999999
 13
0.0
 23
0.0
 14
10.0
 24
10.0
 15
10.0
 25
10.0
 16
0.0
 26
0.0
 36
1.0
 17
0.0
 27
0.0
 37
0.0
 42
50.0
 43
0.0
 44
0.0
 45
292.351491
 50
0.0
 51
0.0
 72
   100
 90
    32800
  1

281
     0
 71
     1
 74
     0
110
0.0
120
0.0
130
0.0
111
1.0
121
0.0
131
0.0
112
0.0
122
1.0
132
0.0
 79
     0
146
0.0
  0
ENDSEC
  0
SECTION
  2
OBJECTS
  0
DICTIONARY
  5
C
330
0
100
AcDbDictionary
281
     1
  3
ACAD_2007HEADERVARS_RT
350
A194
  3
ACAD_CIP_PREVIOUS_PRODUCT_INFO
350
950F
  3
ACAD_COLOR
350
94F1
  3
ACAD_DETAILVIEWSTYLE
350
950A
  3
ACAD_GROUP
350
D
  3
ACAD_LAYOUT
350
19
  3
ACAD_MATERIAL
350
94BF
  3
ACAD_MLEADERSTYLE
350
9506
  3
ACAD_MLINESTYLE
350
16
  3
ACAD_PLOTSETTINGS
350
18
  3
ACAD_PLOTSTYLENAME
350
E
  3
ACAD_SCALELIST
350
94F4
  3
ACAD_SECTIONVIEWSTYLE
350
9508
  3
ACAD_TABLESTYLE
350
94F2
  3
ACAD_VISUALSTYLE
350
94D8
  3
ACADDIM
350
6D5E
  3
ACDB_RECOMPOSE_DATA
350
A192
  3
ACDBVARIABLEDICTIONARY
350
5697
  3
AcDsDecomposeData
350
9725
  3
AEC_PROPERTY_SET_DEFS
350
9A71
  3
ASE_INDEX_DICTIONARY
350
9FB4
  3
DWGPROPS
350
A193
  0
DICTIONARY
  5
9692
330
2
100
AcDbDictionary
280
     1
281
     1
  3
ACAD_LAYERSTATES
360
9693
  0
DICTIONARY
  5
9627
330
10
100
AcDbDictionary
280
     1
281
     1
  3
ADSK_XREC_LAYER_RECONCILED
360
9628
  0
DICTIONARY
  5
9629
330
2F
100
AcDbDictionary
280
     1
281
     1
  3
ADSK_XREC_LAYER_RECONCILED
360
962A
  0
DICTIONARY
  5
962B
330
31
100
AcDbDictionary
280
     1
281
     1
  3
ADSK_XREC_LAYER_RECONCILED
360
962C
  0
DICTIONARY
  5
962D
330
35
100
AcDbDictionary
280
     1
281
     1
  3
ADSK_XREC_LAYER_RECONCILED
360
962E
  0
DICTIONARY
  5
9631
330
3D
100
AcDbDictionary
280
     1
281
     1
  3
ADSK_XREC_LAYER_RECONCILED
360
9632
  0
DICTIONARY
  5
9633
330
3A2
100
AcDbDictionary
280
     1
281
     1
  3
ADSK_XREC_LAYER_RECONCILED
360
9634
  0
DICTIONARY
  5
9635
330
3BBA
100
AcDbDictionary
280
     1
281
     1
  3
ADSK_XREC_LAYER_RECONCILED
360
9636
  0
DICTIONARY
  5
9639
330
7837
100
AcDbDictionary
280
     1
281
     1
  3
ADSK_XREC_LAYER_RECONCILED
360
963A
  0
DICTIONARY
  5
9641
330
8A0F
100
AcDbDictionary
280
     1
281
     1
  3
ADSK_XREC_LAYER_RECONCILED
360
9642
  0
DICTIONARY
  5
9643
330
8CDE
100
AcDbDictionary
280
     1
281
     1
  3
ADSK_XREC_LAYER_RECONCILED
360
9644
  0
DICTIONARY
  5
A0F1
330
A0F0
100
AcDbDictionary
280
     1
281
     1
  0
DICTIONARY
  5
178
330
1E
100
AcDbDictionary
280
     1
281
     1
  3
ACAD_LAYOUTSELFREF
360
9490
  0
DICTIONARY
  5
17A
330
1A
100
AcDbDictionary
280
     1
281
     1
  3
ACAD_LAYOUTSELFREF
360
948F
  0
DICTIONARY
  5
A1A1
330
9E53
100
AcDbDictionary
280
     1
281
     1
  3
ACAD_MTEXT_RT
360
A1A2
  0
DICTIONARY
  5
A1A3
330
9E81
100
AcDbDictionary
280
     1
281
     1
  3
ACAD_MTEXT_RT
360
A1A4
  0
DICTIONARY
  5
A196
330
9AC
100
AcDbDictionary
280
     1
281
     1
  3
ACAD_XREC_ROUNDTRIP
360
A197
  0
DICTIONARY
  5
A194
102
{ACAD_REACTORS
330
C
102
}
330
C
100
AcDbDictionary
281
     1
  3
INTERFEREVPVS
350
A195
  0
XRECORD
  5
950F
102
{ACAD_REACTORS
330
C
102
}
330
C
100
AcDbXrecord
280
     1
300
ACDLT
300
2015
300
ACDLT_F_S
  0
DICTIONARY
  5
94F1
102
{ACAD_REACTORS
330
C
102
}
330
C
100
AcDbDictionary
281
     1
  0
DICTIONARY
  5
950A
102
{ACAD_REACTORS
330
C
102
}
330
C
100
AcDbDictionary
281
     1
  3
Imperial24
350
950B
  0
DICTIONARY
  5
D
102
{ACAD_REACTORS
330
C
102
}
330
C
100
AcDbDictionary
281
     1
  0
DICTIONARY
  5
19
102
{ACAD_REACTORS
330
C
102
}
330
C
100
AcDbDictionary
281
     1
  3
Model
350
94B3
  3
ﾚｲｱｳﾄ1
350
94B4
  0
DICTIONARY
  5
94BF
102
{ACAD_REACTORS
330
C
102
}
330
C
100
AcDbDictionary
281
     1
  3
ByBlock
350
94C8
  3
ByLayer
350
94C0
  3
Global
350
94D0
  0
DICTIONARY
  5
9506
102
{ACAD_REACTORS
330
C
102
}
330
C
100
AcDbDictionary
281
     1
  3
Standard
350
9507
  0
DICTIONARY
  5
16
102
{ACAD_REACTORS
330
C
102
}
330
C
100
AcDbDictionary
281
     1
  3
STANDARD
350
17
  0
DICTIONARY
  5
18
102
{ACAD_REACTORS
330
C
102
}
330
C
100
AcDbDictionary
281
     1
  0
ACDBDICTIONARYWDFLT
  5
E
102
{ACAD_REACTORS
330
C
102
}
330
C
100
AcDbDictionary
281
     1
  3
Normal
350
F
100
AcDbDictionaryWithDefault
340
F
  0
DICTIONARY
  5
94F4
102
{ACAD_REACTORS
330
C
102
}
330
C
100
AcDbDictionary
281
     1
  3
A0
350
94F5
  3
A1
350
94F6
  3
A2
350
94F7
  3
A3
350
94F8
  3
A4
350
94F9
  3
A5
350
94FA
  3
A6
350
94FB
  3
A7
350
94FC
  3
A8
350
94FD
  3
A9
350
94FE
  3
B0
350
94FF
  3
B1
350
9500
  3
B2
350
9501
  3
B3
350
9502
  3
B4
350
9503
  3
B5
350
9504
  3
B6
350
9505
  0
DICTIONARY
  5
9508
102
{ACAD_REACTORS
330
C
102
}
330
C
100
AcDbDictionary
281
     1
  3
Imperial24
350
9509
  0
DICTIONARY
  5
94F2
102
{ACAD_REACTORS
330
C
102
}
330
C
100
AcDbDictionary
281
     1
  3
Standard
350
94F3
  0
DICTIONARY
  5
94D8
102
{ACAD_REACTORS
330
C
102
}
330
C
100
AcDbDictionary
281
     1
  3
2dWireframe
350
94DE
  3
3D Hidden
350
9763
  3
3dWireframe
350
9762
  3
Basic
350
94DD
  3
Brighten
350
94E4
  3
ColorChange
350
94E8
  3
Conceptual
350
94E1
  3
Dim
350
94E3
  3
EdgeColorOff
350
94F0
  3
Facepattern
350
94E7
  3
Flat
350
94D9
  3
FlatWithEdges
350
94DA
  3
Gouraud
350
94DB
  3
GouraudWithEdges
350
94DC
  3
Hidden
350
94E0
  3
JitterOff
350
94EE
  3
Linepattern
350
94E6
  3
OverhangOff
350
94EF
  3
Realistic
350
94E2
  3
Shaded
350
94ED
  3
Shaded with edges
350
94EC
  3
Shades of Gray
350
94E9
  3
Sketchy
350
94EA
  3
Thicken
350
94E5
  3
Wireframe
350
94DF
  3
X-Ray
350
94EB
  0
XRECORD
  5
6D5E
102
{ACAD_REACTORS
330
C
102
}
330
C
100
AcDbXrecord
280
     1
 90
   990106
  3

 60
     0
 61
     0
 62
     1
 63
     3
 64
     0
 65
     0
 66
     0
 67
     3
 68
     1
 69
     0
 70
     0
 71
     0
 72
     0
 40
0.0
170
     0
340
7CA9
  0
XRECORD
  5
A192
102
{ACAD_REACTORS
330
C
102
}
330
C
100
AcDbXrecord
280
     1
 90
        1
330
94F3
  0
DICTIONARY
  5
5697
102
{ACAD_REACTORS
330
C
102
}
330
C
100
AcDbDictionary
281
     1
  3
CANNOSCALE
350
964A
  3
CMLEADERSTYLE
350
9646
  3
CTABLESTYLE
350
9645
  3
CVIEWDETAILSTYLE
350
9647
  3
CVIEWSECTIONSTYLE
350
9648
  3
DIMASSOC
350
5698
  3
INDEXCTL
350
9FB7
  3
LAYEREVAL
350
964C
  3
LAYERNOTIFY
350
964D
  3
LIGHTINGUNITS
350
964B
  3
LOFTANG1
350
A18E
  3
LOFTANG2
350
A18F
  3
MSLTSCALE
350
9649
  3
SOLIDHIST
350
9FB8
  3
SORTENTS
350
9FB6
  3
XCLIPFRAME
350
A190
  0
DICTIONARY
  5
9725
102
{ACAD_REACTORS
330
C
102
}
330
C
100
AcDbDictionary
281
     1
  3
AcDsRecords
350
9727
  3
AcDsSchemas
350
9726
1001
ACAD
1070
     2
  0
DICTIONARY
  5
9A71
102
{ACAD_REACTORS
330
C
102
}
330
C
100
AcDbDictionary
281
     1
  0
DICTIONARY
  5
9FB4
102
{ACAD_REACTORS
330
C
102
}
330
C
100
AcDbDictionary
281
     1
  3
ASEBlockHierarchyIndexRecord
350
9FB5
1001
DCO15
1040
1853561563.082
  0
XRECORD
  5
A193
102
{ACAD_REACTORS
330
C
102
}
330
C
100
AcDbXrecord
280
     1
  1
DWGPROPS COOKIE
  2

  3

  4

  6

  7

  8
CAD-PC
  9

300
=
301
=
302
=
303
=
304
=
305
=
306
=
307
=
308
=
309
=
 40
1.40896224537037
 41
2452286.555658658
 42
2457256.54989522
  1

 90
        0
  0
DICTIONARY
  5
9693
102
{ACAD_REACTORS
330
9692
102
}
330
9692
100
AcDbDictionary
281
     1
  0
XRECORD
  5
9628
102
{ACAD_REACTORS
330
9627
102
}
330
9627
100
AcDbXrecord
280
     1
290
     1
  0
XRECORD
  5
962A
102
{ACAD_REACTORS
330
9629
102
}
330
9629
100
AcDbXrecord
280
     1
290
     1
  0
XRECORD
  5
962C
102
{ACAD_REACTORS
330
962B
102
}
330
962B
100
AcDbXrecord
280
     1
290
     1
  0
XRECORD
  5
962E
102
{ACAD_REACTORS
330
962D
102
}
330
962D
100
AcDbXrecord
280
     1
290
     1
  0
XRECORD
  5
9632
102
{ACAD_REACTORS
330
9631
102
}
330
9631
100
AcDbXrecord
280
     1
290
     1
  0
XRECORD
  5
9634
102
{ACAD_REACTORS
330
9633
102
}
330
9633
100
AcDbXrecord
280
     1
290
     1
  0
XRECORD
  5
9636
102
{ACAD_REACTORS
330
9635
102
}
330
9635
100
AcDbXrecord
280
     1
290
     1
  0
XRECORD
  5
963A
102
{ACAD_REACTORS
330
9639
102
}
330
9639
100
AcDbXrecord
280
     1
290
     1
  0
XRECORD
  5
9642
102
{ACAD_REACTORS
330
9641
102
}
330
9641
100
AcDbXrecord
280
     1
290
     1
  0
XRECORD
  5
9644
102
{ACAD_REACTORS
330
9643
102
}
330
9643
100
AcDbXrecord
280
     1
290
     1
  0
XRECORD
  5
9490
102
{ACAD_REACTORS
330
178
102
}
330
178
100
AcDbXrecord
280
     1
340
1E
  0
XRECORD
  5
948F
102
{ACAD_REACTORS
330
17A
102
}
330
17A
100
AcDbXrecord
280
     1
340
1A
  0
XRECORD
  5
A1A2
102
{ACAD_REACTORS
330
A1A1
102
}
330
A1A1
100
AcDbXrecord
280
     1
 40
5040.0
  1
\A1;\U+220513
  0
XRECORD
  5
A1A4
102
{ACAD_REACTORS
330
A1A3
102
}
330
A1A3
100
AcDbXrecord
280
     1
 40
5103.0
  1
\A1;\U+220536
  0
XRECORD
  5
A197
102
{ACAD_REACTORS
330
A196
102
}
330
A196
100
AcDbXrecord
280
     1
102
SHADEPLOT
 70
     0
  0
XRECORD
  5
A195
102
{ACAD_REACTORS
330
A194
102
}
330
A194
100
AcDbXrecord
280
     1
340
94DF
  0
ACAD_PROXY_OBJECT
  5
950B
102
{ACAD_XDICTIONARY
360
975A
102
}
102
{ACAD_REACTORS
330
950A
102
}
330
950A
100
AcDbProxyObject
 90
      499
 91
      508
 95
 11993117
 70
     1
100
AcDbModelDocViewStyle
 70
     0
  3
Imperial24
290
     0
100
AcDbDetailViewStyle
 70
     0
 71
     0
 90
        3
 71
     1
340
11
 62
   256
 40
0.24
340
0
 62
   256
 40
0.24
300

 40
0.36
280
     3
 71
     2
340
15
 90
       25
 62
   256
 71
     3
340
11
 62
   256
 40
0.24
 90
        1
 40
0.75
 90
        1
300
%<\AcVar ViewType \f "%tc1">% %<\AcVar ViewDetailId>%\PSCALE %<\AcVar ViewScale \f "%sn">%
 71
     4
340
15
 90
       25
 62
   256
340
15
 90
       25
 62
   256
280
     0
1001
ACAD
1001
ACAD
1001
ACAD
1000
AcRTDxfName
1000
ACDBDETAILVIEWSTYLE
  0
LAYOUT
  5
94B3
102
{ACAD_XDICTIONARY
360
A198
102
}
102
{ACAD_REACTORS
330
19
102
}
330
19
100
AcDbPlotSettings
  1

  2
none_device
  4
Letter_(8.50_x_11.00_Inches)
  6

 40
6.349999904632567
 41
6.349999904632567
 42
6.350006103515625
 43
6.350006103515625
 44
215.8999938964844
 45
279.3999938964844
 46
0.0
 47
0.0
 48
0.0
 49
0.0
140
0.0
141
0.0
142
1.0
143
325.7716048762696
 70
 11952
 72
     0
 73
     1
 74
     0
  7
monochrome.ctb
 75
     0
147
0.0030696352445444
148
34768.49506986582
149
19718.74110115026
100
AcDbLayout
  1
Model
 70
     1
 71
     0
 10
0.0
 20
0.0
 11
12.0
 21
9.0
 12
0.0
 22
0.0
 32
0.0
 14
0.0
 24
0.0
 34
0.0
 15
0.0
 25
0.0
 35
0.0
146
0.0
 13
0.0
 23
0.0
 33
0.0
 16
1.0
 26
0.0
 36
0.0
 17
0.0
 27
1.0
 37
0.0
 76
     0
330
1E
331
94B8
1001
ACAD_PSEXT
1000
なし
1000
なし
1000
適切ではありません
1000
新しいプロッタ環境設定名を選択しない限り、レイアウトは印刷されません。
1070
     0
  0
LAYOUT
  5
94B4
102
{ACAD_XDICTIONARY
360
A19A
102
}
102
{ACAD_REACTORS
330
19
102
}
330
19
100
AcDbPlotSettings
  1

  2
Canon LBP3800 LIPSLX
  4

  6

 40
0.0
 41
0.0
 42
0.0
 43
0.0
 44
0.0
 45
0.0
 46
0.0
 47
0.0
 48
0.0
 49
0.0
140
0.0
141
0.0
142
1.0
143
1.0
 70
   688
 72
     0
 73
     0
 74
     5
  7
monochrome.ctb
 75
    16
147
1.0
148
0.0
149
0.0
100
AcDbLayout
  1
ﾚｲｱｳﾄ1
 70
     1
 71
     1
 10
-5.873749
 20
-5.87375
 11
204.099579
 21
291.1369009999999
 12
0.0
 22
0.0
 32
0.0
 14
4.273573
 24
5.205245999999998
 34
0.0
 15
194.610095
 25
283.0697009999996
 35
0.0
146
0.0
 13
0.0
 23
0.0
 33
0.0
 16
1.0
 26
0.0
 36
0.0
 17
0.0
 27
1.0
 37
0.0
 76
     0
330
1A
  0
MATERIAL
  5
94C8
102
{ACAD_XDICTIONARY
360
94C9
102
}
102
{ACAD_REACTORS
330
94BF
102
}
330
94BF
100
AcDbMaterial
  1
ByBlock
 72
     0
 43
0.0208333333333333
 43
0.0
 43
0.0
 43
0.0
 43
0.0
 43
0.0208333333333333
 43
0.0
 43
0.0
 43
0.0
 43
0.0
 43
1.0
 43
0.0
 43
0.0
 43
0.0
 43
0.0
 43
1.0
 77
     0
 47
0.0208333333333333
 47
0.0
 47
0.0
 47
0.0
 47
0.0
 47
0.0208333333333333
 47
0.0
 47
0.0
 47
0.0
 47
0.0
 47
1.0
 47
0.0
 47
0.0
 47
0.0
 47
0.0
 47
1.0
171
     0
 49
0.0208333333333333
 49
0.0
 49
0.0
 49
0.0
 49
0.0
 49
0.0208333333333333
 49
0.0
 49
0.0
 49
0.0
 49
0.0
 49
1.0
 49
0.0
 49
0.0
 49
0.0
 49
0.0
 49
1.0
175
     0
142
0.0208333333333333
142
0.0
142
0.0
142
0.0
142
0.0
142
0.0208333333333333
142
0.0
142
0.0
142
0.0
142
0.0
142
1.0
142
0.0
142
0.0
142
0.0
142
0.0
142
1.0
179
     0
144
0.0208333333333333
144
0.0
144
0.0
144
0.0
144
0.0
144
0.0208333333333333
144
0.0
144
0.0
144
0.0
144
0.0
144
1.0
144
0.0
144
0.0
144
0.0
144
0.0
144
1.0
147
0.0208333333333333
147
0.0
147
0.0
147
0.0
147
0.0
147
0.0208333333333333
147
0.0
147
0.0
147
0.0
147
0.0
147
1.0
147
0.0
147
0.0
147
0.0
147
0.0
147
1.0
  0
MATERIAL
  5
94C0
102
{ACAD_XDICTIONARY
360
94C1
102
}
102
{ACAD_REACTORS
330
94BF
102
}
330
94BF
100
AcDbMaterial
  1
ByLayer
 72
     0
 43
0.0208333333333333
 43
0.0
 43
0.0
 43
0.0
 43
0.0
 43
0.0208333333333333
 43
0.0
 43
0.0
 43
0.0
 43
0.0
 43
1.0
 43
0.0
 43
0.0
 43
0.0
 43
0.0
 43
1.0
 77
     0
 47
0.0208333333333333
 47
0.0
 47
0.0
 47
0.0
 47
0.0
 47
0.0208333333333333
 47
0.0
 47
0.0
 47
0.0
 47
0.0
 47
1.0
 47
0.0
 47
0.0
 47
0.0
 47
0.0
 47
1.0
171
     0
 49
0.0208333333333333
 49
0.0
 49
0.0
 49
0.0
 49
0.0
 49
0.0208333333333333
 49
0.0
 49
0.0
 49
0.0
 49
0.0
 49
1.0
 49
0.0
 49
0.0
 49
0.0
 49
0.0
 49
1.0
175
     0
142
0.0208333333333333
142
0.0
142
0.0
142
0.0
142
0.0
142
0.0208333333333333
142
0.0
142
0.0
142
0.0
142
0.0
142
1.0
142
0.0
142
0.0
142
0.0
142
0.0
142
1.0
179
     0
144
0.0208333333333333
144
0.0
144
0.0
144
0.0
144
0.0
144
0.0208333333333333
144
0.0
144
0.0
144
0.0
144
0.0
144
1.0
144
0.0
144
0.0
144
0.0
144
0.0
144
1.0
147
0.0208333333333333
147
0.0
147
0.0
147
0.0
147
0.0
147
0.0208333333333333
147
0.0
147
0.0
147
0.0
147
0.0
147
1.0
147
0.0
147
0.0
147
0.0
147
0.0
147
1.0
  0
MATERIAL
  5
94D0
102
{ACAD_XDICTIONARY
360
94D1
102
}
102
{ACAD_REACTORS
330
94BF
102
}
330
94BF
100
AcDbMaterial
  1
Global
 72
     0
 43
0.0208333333333333
 43
0.0
 43
0.0
 43
0.0
 43
0.0
 43
0.0208333333333333
 43
0.0
 43
0.0
 43
0.0
 43
0.0
 43
1.0
 43
0.0
 43
0.0
 43
0.0
 43
0.0
 43
1.0
 77
     0
 47
0.0208333333333333
 47
0.0
 47
0.0
 47
0.0
 47
0.0
 47
0.0208333333333333
 47
0.0
 47
0.0
 47
0.0
 47
0.0
 47
1.0
 47
0.0
 47
0.0
 47
0.0
 47
0.0
 47
1.0
171
     0
 49
0.0208333333333333
 49
0.0
 49
0.0
 49
0.0
 49
0.0
 49
0.0208333333333333
 49
0.0
 49
0.0
 49
0.0
 49
0.0
 49
1.0
 49
0.0
 49
0.0
 49
0.0
 49
0.0
 49
1.0
175
     0
142
0.0208333333333333
142
0.0
142
0.0
142
0.0
142
0.0
142
0.0208333333333333
142
0.0
142
0.0
142
0.0
142
0.0
142
1.0
142
0.0
142
0.0
142
0.0
142
0.0
142
1.0
179
     0
144
0.0208333333333333
144
0.0
144
0.0
144
0.0
144
0.0
144
0.0208333333333333
144
0.0
144
0.0
144
0.0
144
0.0
144
1.0
144
0.0
144
0.0
144
0.0
144
0.0
144
1.0
147
0.0208333333333333
147
0.0
147
0.0
147
0.0
147
0.0
147
0.0208333333333333
147
0.0
147
0.0
147
0.0
147
0.0
147
1.0
147
0.0
147
0.0
147
0.0
147
0.0
147
1.0
  0
MLEADERSTYLE
  5
9507
102
{ACAD_REACTORS
330
9506
102
}
330
9506
100
AcDbMLeaderStyle
170
     2
171
     1
172
     0
 90
        2
 40
0.0
 41
0.0
173
     1
 91
-1056964608
340
13
 92
       -2
290
     1
 42
0.09
291
     1
 43
0.36
  3
Standard
 44
0.18
300

342
11
174
     1
178
     6
175
     1
176
     0
 93
-1056964608
 45
0.18
292
     0
297
     0
 46
0.18
 94
-1056964608
 47
1.0
 49
1.0
140
1.0
293
     1
141
0.0
294
     1
177
     0
142
1.0
295
     0
296
     0
143
0.125
1001
ACAD_MLEADERVER
1070
     2
  0
MLINESTYLE
  5
17
102
{ACAD_REACTORS
330
16
102
}
330
16
100
AcDbMlineStyle
  2
STANDARD
 70
     0
  3

 62
   256
 51
90.0
 52
90.0
 71
     2
 49
0.5
 62
   256
  6
BYLAYER
 49
-0.5
 62
   256
  6
BYLAYER
  0
ACDBPLACEHOLDER
  5
F
102
{ACAD_REACTORS
330
E
102
}
330
E
  0
SCALE
  5
94F5
102
{ACAD_REACTORS
330
94F4
102
}
330
94F4
100
AcDbScale
 70
     0
300
1:1
140
1.0
141
1.0
290
     1
  0
SCALE
  5
94F6
102
{ACAD_REACTORS
330
94F4
102
}
330
94F4
100
AcDbScale
 70
     0
300
1/128" = 1'-0"
140
0.0078125
141
12.0
290
     0
  0
SCALE
  5
94F7
102
{ACAD_REACTORS
330
94F4
102
}
330
94F4
100
AcDbScale
 70
     0
300
1/64" = 1'-0"
140
0.015625
141
12.0
290
     0
  0
SCALE
  5
94F8
102
{ACAD_REACTORS
330
94F4
102
}
330
94F4
100
AcDbScale
 70
     0
300
1/32" = 1'-0"
140
0.03125
141
12.0
290
     0
  0
SCALE
  5
94F9
102
{ACAD_REACTORS
330
94F4
102
}
330
94F4
100
AcDbScale
 70
     0
300
1/16" = 1'-0"
140
0.0625
141
12.0
290
     0
  0
SCALE
  5
94FA
102
{ACAD_REACTORS
330
94F4
102
}
330
94F4
100
AcDbScale
 70
     0
300
3/32" = 1'-0"
140
0.09375
141
12.0
290
     0
  0
SCALE
  5
94FB
102
{ACAD_REACTORS
330
94F4
102
}
330
94F4
100
AcDbScale
 70
     0
300
1/8" = 1'-0"
140
0.125
141
12.0
290
     0
  0
SCALE
  5
94FC
102
{ACAD_REACTORS
330
94F4
102
}
330
94F4
100
AcDbScale
 70
     0
300
3/16" = 1'-0"
140
0.1875
141
12.0
290
     0
  0
SCALE
  5
94FD
102
{ACAD_REACTORS
330
94F4
102
}
330
94F4
100
AcDbScale
 70
     0
300
1/4" = 1'-0"
140
0.25
141
12.0
290
     0
  0
SCALE
  5
94FE
102
{ACAD_REACTORS
330
94F4
102
}
330
94F4
100
AcDbScale
 70
     0
300
3/8" = 1'-0"
140
0.375
141
12.0
290
     0
  0
SCALE
  5
94FF
102
{ACAD_REACTORS
330
94F4
102
}
330
94F4
100
AcDbScale
 70
     0
300
1/2" = 1'-0"
140
0.5
141
12.0
290
     0
  0
SCALE
  5
9500
102
{ACAD_REACTORS
330
94F4
102
}
330
94F4
100
AcDbScale
 70
     0
300
3/4" = 1'-0"
140
0.75
141
12.0
290
     0
  0
SCALE
  5
9501
102
{ACAD_REACTORS
330
94F4
102
}
330
94F4
100
AcDbScale
 70
     0
300
1" = 1'-0"
140
1.0
141
12.0
290
     0
  0
SCALE
  5
9502
102
{ACAD_REACTORS
330
94F4
102
}
330
94F4
100
AcDbScale
 70
     0
300
1-1/2" = 1'-0"
140
1.5
141
12.0
290
     0
  0
SCALE
  5
9503
102
{ACAD_REACTORS
330
94F4
102
}
330
94F4
100
AcDbScale
 70
     0
300
3" = 1'-0"
140
3.0
141
12.0
290
     0
  0
SCALE
  5
9504
102
{ACAD_REACTORS
330
94F4
102
}
330
94F4
100
AcDbScale
 70
     0
300
6" = 1'-0"
140
6.0
141
12.0
290
     0
  0
SCALE
  5
9505
102
{ACAD_REACTORS
330
94F4
102
}
330
94F4
100
AcDbScale
 70
     0
300
1'-0" = 1'-0"
140
12.0
141
12.0
290
     0
  0
ACAD_PROXY_OBJECT
  5
9509
102
{ACAD_XDICTIONARY
360
9758
102
}
102
{ACAD_REACTORS
330
9508
102
}
330
9508
100
AcDbProxyObject
 90
      499
 91
      507
 95
 11993117
 70
     1
100
AcDbModelDocViewStyle
 70
     0
  3
Imperial24
290
     0
100
AcDbSectionViewStyle
 70
     0
 71
     0
 90
       78
 71
     1
340
11
 62
   256
 40
0.24
340
0
340
0
 62
   256
 40
0.24
300
I, O, Q, S, X, Z
 40
0.48
 90
        3
 40
0.18
 90
        1
 71
     2
340
15
 90
       25
 62
   256
340
15
 90
       50
 62
   256
 40
0.24
 40
0.0
 40
0.24
 71
     3
340
11
 62
   256
 40
0.24
 90
        1
 40
0.75
 90
        1
300
%<\AcVar ViewType \f "%tc1">% %<\AcVar ViewSectionStartId>%-%<\AcVar ViewSectionEndId>%\PSCALE %<\AcVar ViewScale \f "%sn">%
 71
     4
 62
   256
 62
   257
300
ANSI31
 40
1.0
 90
        0
290
     0
290
     0
 90
        6
 40
0.0
 40
1.570796326794896
 40
0.2617993877991494
 40
1.308996938995747
 40
-0.2617993877991494
 40
1.832595714594044
1001
ACAD
1001
ACAD
1001
ACAD
1000
AcRTDxfName
1000
ACDBSECTIONVIEWSTYLE
  0
TABLESTYLE
  5
94F3
102
{ACAD_XDICTIONARY
360
971D
102
}
102
{ACAD_REACTORS
330
94F2
102
}
330
94F2
100
AcDbTableStyle
  3
Standard
 70
     0
 71
     0
 40
0.06
 41
0.06
280
     0
281
     0
  7
STANDARD
140
0.18
170
     2
 62
     0
 63
     7
283
     0
274
    -2
284
     1
 64
     0
275
    -2
285
     1
 65
     0
276
    -2
286
     1
 66
     0
277
    -2
287
     1
 67
     0
278
    -2
288
     1
 68
     0
279
    -2
289
     1
 69
     0
  7
STANDARD
140
0.25
170
     5
 62
     0
 63
     7
283
     0
274
    -2
284
     1
 64
     0
275
    -2
285
     1
 65
     0
276
    -2
286
     1
 66
     0
277
    -2
287
     1
 67
     0
278
    -2
288
     1
 68
     0
279
    -2
289
     1
 69
     0
  7
STANDARD
140
0.18
170
     5
 62
     0
 63
     7
283
     0
274
    -2
284
     1
 64
     0
275
    -2
285
     1
 65
     0
276
    -2
286
     1
 66
     0
277
    -2
287
     1
 67
     0
278
    -2
288
     1
 68
     0
279
    -2
289
     1
 69
     0
  0
VISUALSTYLE
  5
94DE
102
{ACAD_XDICTIONARY
360
9732
102
}
102
{ACAD_REACTORS
330
94D8
102
}
330
94D8
100
AcDbVisualStyle
  2

 70
     4
 71
     0
 72
     2
 73
     0
 90
        0
 40
-0.6
 41
-30.0
 62
     5
 63
     7
 74
     1
 91
        4
 64
     7
 65
   257
 75
     1
175
     1
 42
1.0
 92
        0
 66
   257
 43
1.0
 76
     1
 77
     6
 78
     2
 67
     7
 79
     5
170
     0
171
     0
290
     0
174
     0
 93
        1
 44
0.0
173
     0
291
     0
 45
0.0
1001
ACAD
1000
AcDbSavedByObjectVersion
1070
     0
  0
VISUALSTYLE
  5
9763
102
{ACAD_XDICTIONARY
360
A19F
102
}
102
{ACAD_REACTORS
330
94D8
102
}
330
94D8
100
AcDbVisualStyle
  2

 70
     6
 71
     1
 72
     2
 73
     2
 90
        0
 40
-0.6
 41
-30.0
 62
     5
 63
     7
 74
     2
 91
        2
 64
     7
 65
   257
 75
     2
175
     1
 42
179.0
 92
        0
 66
   257
 43
1.0
 76
     1
 77
     6
 78
     2
 67
     7
 79
     3
170
     0
171
     0
290
     0
174
     0
 93
        1
 44
0.0
173
     0
291
     0
 45
0.0
1001
ACAD
1000
AcDbSavedByObjectVersion
1070
     0
  0
VISUALSTYLE
  5
9762
102
{ACAD_XDICTIONARY
360
A19D
102
}
102
{ACAD_REACTORS
330
94D8
102
}
330
94D8
100
AcDbVisualStyle
  2

 70
     5
 71
     0
 72
     2
 73
     0
 90
        0
 40
-0.6
 41
-30.0
 62
     5
 63
     7
 74
     1
 91
        4
 64
     7
 65
   257
 75
     1
175
     1
 42
1.0
 92
        0
 66
   257
 43
1.0
 76
     1
 77
     6
 78
     2
 67
     7
 79
     5
170
     0
171
     0
290
     0
174
     0
 93
        1
 44
0.0
173
     0
291
     0
 45
0.0
1001
ACAD
1000
AcDbSavedByObjectVersion
1070
     0
  0
VISUALSTYLE
  5
94DD
102
{ACAD_XDICTIONARY
360
9730
102
}
102
{ACAD_REACTORS
330
94D8
102
}
330
94D8
100
AcDbVisualStyle
  2

 70
     7
 71
     1
 72
     0
 73
     1
 90
        0
 40
-0.6
 41
-30.0
 62
     5
 63
     7
 74
     0
 91
        4
 64
     7
 65
   257
 75
     1
175
     1
 42
1.0
 92
        8
 66
     7
 43
1.0
 76
     1
 77
     6
 78
     2
 67
     7
 79
     5
170
     0
171
     0
290
     0
174
     0
 93
        1
 44
0.0
173
     0
291
     1
 45
0.0
1001
ACAD
1000
AcDbSavedByObjectVersion
1070
     0
  0
VISUALSTYLE
  5
94E4
102
{ACAD_XDICTIONARY
360
973E
102
}
102
{ACAD_REACTORS
330
94D8
102
}
330
94D8
100
AcDbVisualStyle
  2

 70
    12
 71
     2
 72
     2
 73
     0
 90
        0
 40
-0.6
 41
-30.0
 62
     5
 63
     7
 74
     1
 91
        4
 64
     7
 65
   257
 75
     1
175
     1
 42
1.0
 92
        8
 66
     7
 43
1.0
 76
     1
 77
     6
 78
     2
 67
     7
 79
     5
170
     0
171
     0
290
     0
174
     0
 93
        1
 44
50.0
173
     0
291
     1
 45
0.0
1001
ACAD
1000
AcDbSavedByObjectVersion
1070
     0
  0
VISUALSTYLE
  5
94E8
102
{ACAD_XDICTIONARY
360
9746
102
}
102
{ACAD_REACTORS
330
94D8
102
}
330
94D8
100
AcDbVisualStyle
  2

 70
    16
 71
     2
 72
     2
 73
     3
 90
        0
 40
-0.6
 41
-30.0
 62
     5
 63
     8
 74
     1
 91
        4
 64
     7
 65
   257
 75
     1
175
     1
 42
1.0
 92
        8
 66
     8
 43
1.0
 76
     1
 77
     6
 78
     2
 67
     7
 79
     5
170
     0
171
     0
290
     0
174
     0
 93
        1
 44
0.0
173
     0
291
     1
 45
0.0
1001
ACAD
1000
AcDbSavedByObjectVersion
1070
     0
  0
VISUALSTYLE
  5
94E1
102
{ACAD_XDICTIONARY
360
9738
102
}
102
{ACAD_REACTORS
330
94D8
102
}
330
94D8
100
AcDbVisualStyle
  2

 70
     9
 71
     3
 72
     2
 73
     0
 90
        0
 40
-0.6
 41
-30.0
 62
     5
 63
     7
 74
     2
 91
        2
 64
     7
 65
   257
 75
     1
175
     1
 42
179.0
 92
        8
 66
     7
 43
1.0
 76
     1
 77
     6
 78
     2
 67
     7
 79
     3
170
     0
171
     0
290
     0
174
     0
 93
        1
 44
0.0
173
     0
291
     0
 45
0.0
1001
ACAD
1000
AcDbSavedByObjectVersion
1070
     0
  0
VISUALSTYLE
  5
94E3
102
{ACAD_XDICTIONARY
360
973C
102
}
102
{ACAD_REACTORS
330
94D8
102
}
330
94D8
100
AcDbVisualStyle
  2

 70
    11
 71
     2
 72
     2
 73
     0
 90
        0
 40
-0.6
 41
-30.0
 62
     5
 63
     7
 74
     1
 91
        4
 64
     7
 65
   257
 75
     1
175
     1
 42
1.0
 92
        8
 66
     7
 43
1.0
 76
     1
 77
     6
 78
     2
 67
     7
 79
     5
170
     0
171
     0
290
     0
174
     0
 93
        1
 44
-50.0
173
     0
291
     1
 45
0.0
1001
ACAD
1000
AcDbSavedByObjectVersion
1070
     0
  0
VISUALSTYLE
  5
94F0
102
{ACAD_XDICTIONARY
360
9756
102
}
102
{ACAD_REACTORS
330
94D8
102
}
330
94D8
100
AcDbVisualStyle
  2

 70
    22
 71
     2
 72
     2
 73
     0
 90
        0
 40
-0.6
 41
-30.0
 62
     5
 63
     7
 74
     1
 91
        4
 64
     7
 65
   257
 75
     1
175
     1
 42
1.0
 92
        8
 66
     7
 43
1.0
 76
     1
 77
     6
 78
     2
 67
     7
 79
     5
170
     0
171
     0
290
     0
174
     0
 93
        1
 44
0.0
173
     0
291
     1
 45
0.0
1001
ACAD
1000
AcDbSavedByObjectVersion
1070
     0
  0
VISUALSTYLE
  5
94E7
102
{ACAD_XDICTIONARY
360
9744
102
}
102
{ACAD_REACTORS
330
94D8
102
}
330
94D8
100
AcDbVisualStyle
  2

 70
    15
 71
     2
 72
     2
 73
     0
 90
        0
 40
-0.6
 41
-30.0
 62
     5
 63
     7
 74
     1
 91
        4
 64
     7
 65
   257
 75
     1
175
     1
 42
1.0
 92
        8
 66
     7
 43
1.0
 76
     1
 77
     6
 78
     2
 67
     7
 79
     5
170
     0
171
     0
290
     0
174
     0
 93
        1
 44
0.0
173
     0
291
     1
 45
0.0
1001
ACAD
1000
AcDbSavedByObjectVersion
1070
     0
  0
VISUALSTYLE
  5
94D9
102
{ACAD_XDICTIONARY
360
9728
102
}
102
{ACAD_REACTORS
330
94D8
102
}
330
94D8
100
AcDbVisualStyle
  2

 70
     0
 71
     2
 72
     1
 73
     1
 90
        2
 40
-0.6
 41
30.0
 62
     5
 63
     7
 74
     0
 91
        0
 64
     7
 65
   257
 75
     1
175
     1
 42
1.0
 92
        8
 66
     7
 43
1.0
 76
     1
 77
     6
 78
     2
 67
     7
 79
     5
170
     0
171
     0
290
     0
174
     0
 93
       13
 44
0.0
173
     0
291
     1
 45
0.0
1001
ACAD
1000
AcDbSavedByObjectVersion
1070
     0
  0
VISUALSTYLE
  5
94DA
102
{ACAD_XDICTIONARY
360
972A
102
}
102
{ACAD_REACTORS
330
94D8
102
}
330
94D8
100
AcDbVisualStyle
  2

 70
     1
 71
     2
 72
     1
 73
     1
 90
        2
 40
-0.6
 41
30.0
 62
     5
 63
     7
 74
     1
 91
        0
 64
     7
 65
   257
 75
     1
175
     1
 42
1.0
 92
        0
 66
   257
 43
1.0
 76
     1
 77
     6
 78
     2
 67
     7
 79
     5
170
     0
171
     0
290
     0
174
     0
 93
       13
 44
0.0
173
     0
291
     1
 45
0.0
1001
ACAD
1000
AcDbSavedByObjectVersion
1070
     0
  0
VISUALSTYLE
  5
94DB
102
{ACAD_XDICTIONARY
360
972C
102
}
102
{ACAD_REACTORS
330
94D8
102
}
330
94D8
100
AcDbVisualStyle
  2

 70
     2
 71
     2
 72
     2
 73
     1
 90
        2
 40
-0.6
 41
30.0
 62
     5
 63
     7
 74
     0
 91
        0
 64
     7
 65
   257
 75
     1
175
     1
 42
1.0
 92
        0
 66
     7
 43
1.0
 76
     1
 77
     6
 78
     2
 67
     7
 79
     5
170
     0
171
     0
290
     0
174
     0
 93
       13
 44
0.0
173
     0
291
     1
 45
0.0
1001
ACAD
1000
AcDbSavedByObjectVersion
1070
     0
  0
VISUALSTYLE
  5
94DC
102
{ACAD_XDICTIONARY
360
972E
102
}
102
{ACAD_REACTORS
330
94D8
102
}
330
94D8
100
AcDbVisualStyle
  2

 70
     3
 71
     2
 72
     2
 73
     1
 90
        2
 40
-0.6
 41
30.0
 62
     5
 63
     7
 74
     1
 91
        0
 64
     7
 65
   257
 75
     1
175
     1
 42
1.0
 92
        0
 66
   257
 43
1.0
 76
     1
 77
     6
 78
     2
 67
     7
 79
     5
170
     0
171
     0
290
     0
174
     0
 93
       13
 44
0.0
173
     0
291
     1
 45
0.0
1001
ACAD
1000
AcDbSavedByObjectVersion
1070
     0
  0
VISUALSTYLE
  5
94E0
102
{ACAD_XDICTIONARY
360
9736
102
}
102
{ACAD_REACTORS
330
94D8
102
}
330
94D8
100
AcDbVisualStyle
  2

 70
     6
 71
     1
 72
     2
 73
     2
 90
        0
 40
-0.6
 41
-30.0
 62
     5
 63
     7
 74
     2
 91
        2
 64
     7
 65
   257
 75
     2
175
     1
 42
40.0
 92
        0
 66
   257
 43
1.0
 76
     1
 77
     6
 78
     2
 67
     7
 79
     3
170
     0
171
     0
290
     0
174
     0
 93
        1
 44
0.0
173
     0
291
     0
 45
0.0
1001
ACAD
1000
AcDbSavedByObjectVersion
1070
     0
  0
VISUALSTYLE
  5
94EE
102
{ACAD_XDICTIONARY
360
9752
102
}
102
{ACAD_REACTORS
330
94D8
102
}
330
94D8
100
AcDbVisualStyle
  2

 70
    20
 71
     2
 72
     2
 73
     0
 90
        0
 40
-0.6
 41
-30.0
 62
     5
 63
     7
 74
     1
 91
        4
 64
     7
 65
   257
 75
     1
175
     1
 42
1.0
 92
       10
 66
     7
 43
1.0
 76
     1
 77
     6
 78
     2
 67
     7
 79
     5
170
     0
171
     0
290
     0
174
     0
 93
        1
 44
0.0
173
     0
291
     1
 45
0.0
1001
ACAD
1000
AcDbSavedByObjectVersion
1070
     0
  0
VISUALSTYLE
  5
94E6
102
{ACAD_XDICTIONARY
360
9742
102
}
102
{ACAD_REACTORS
330
94D8
102
}
330
94D8
100
AcDbVisualStyle
  2

 70
    14
 71
     2
 72
     2
 73
     0
 90
        0
 40
-0.6
 41
-30.0
 62
     5
 63
     7
 74
     1
 91
        4
 64
     7
 65
   257
 75
     7
175
     7
 42
1.0
 92
        8
 66
     7
 43
1.0
 76
     1
 77
     6
 78
     2
 67
     7
 79
     5
170
     0
171
     0
290
     0
174
     0
 93
        1
 44
0.0
173
     0
291
     1
 45
0.0
1001
ACAD
1000
AcDbSavedByObjectVersion
1070
     0
  0
VISUALSTYLE
  5
94EF
102
{ACAD_XDICTIONARY
360
9754
102
}
102
{ACAD_REACTORS
330
94D8
102
}
330
94D8
100
AcDbVisualStyle
  2

 70
    21
 71
     2
 72
     2
 73
     0
 90
        0
 40
-0.6
 41
-30.0
 62
     5
 63
     7
 74
     1
 91
        4
 64
     7
 65
   257
 75
     1
175
     1
 42
1.0
 92
        9
 66
     7
 43
1.0
 76
     1
 77
     6
 78
     2
 67
     7
 79
     5
170
     0
171
     0
290
     0
174
     0
 93
        1
 44
0.0
173
     0
291
     1
 45
0.0
1001
ACAD
1000
AcDbSavedByObjectVersion
1070
     0
  0
VISUALSTYLE
  5
94E2
102
{ACAD_XDICTIONARY
360
973A
102
}
102
{ACAD_REACTORS
330
94D8
102
}
330
94D8
100
AcDbVisualStyle
  2

 70
     8
 71
     2
 72
     3
 73
     0
 90
        2
 40
-0.6
 41
30.0
 62
     5
 63
     7
 74
     0
 91
        0
 64
     7
 65
   257
 75
     1
175
     1
 42
1.0
 92
        8
 66
   257
 43
1.0
 76
     1
 77
     6
 78
     2
 67
     7
 79
     3
170
     0
171
     0
290
     0
174
     0
 93
       13
 44
0.0
173
     0
291
     0
 45
0.0
1001
ACAD
1000
AcDbSavedByObjectVersion
1070
     0
  0
VISUALSTYLE
  5
94ED
102
{ACAD_XDICTIONARY
360
9750
102
}
102
{ACAD_REACTORS
330
94D8
102
}
330
94D8
100
AcDbVisualStyle
  2

 70
    27
 71
     2
 72
     2
 73
     1
 90
        2
 40
-0.6
 41
30.0
 62
     5
 63
     7
 74
     0
 91
        4
 64
     7
 65
   257
 75
     1
175
     1
 42
1.0
 92
        8
 66
   257
 43
1.0
 76
     1
 77
     6
 78
     2
 67
     8
 79
     3
170
     0
171
     0
290
     0
174
     0
 93
        5
 44
0.0
173
     0
291
     0
 45
0.0
1001
ACAD
1000
AcDbSavedByObjectVersion
1070
     0
  0
VISUALSTYLE
  5
94EC
102
{ACAD_XDICTIONARY
360
974E
102
}
102
{ACAD_REACTORS
330
94D8
102
}
330
94D8
100
AcDbVisualStyle
  2

 70
    26
 71
     2
 72
     2
 73
     1
 90
        2
 40
-0.6
 41
30.0
 62
     5
 63
     7
 74
     1
 91
       10
 64
     7
 65
   257
 75
     2
175
     1
 42
1.0
 92
        8
 66
   257
 43
1.0
 76
     1
 77
     6
 78
     2
 67
     7
 79
     3
170
     0
171
     0
290
     0
174
     0
 93
        5
 44
0.0
173
     0
291
     0
 45
0.0
1001
ACAD
1000
AcDbSavedByObjectVersion
1070
     0
  0
VISUALSTYLE
  5
94E9
102
{ACAD_XDICTIONARY
360
9748
102
}
102
{ACAD_REACTORS
330
94D8
102
}
330
94D8
100
AcDbVisualStyle
  2

 70
    23
 71
     2
 72
     2
 73
     3
 90
        0
 40
-0.6
 41
-30.0
 62
     5
 63
     7
 74
     2
 91
        2
 64
     7
 65
     7
 75
     1
175
     1
 42
40.0
 92
        8
 66
     7
 43
1.0
 76
     1
 77
     6
 78
     2
 67
     7
 79
     3
170
     0
171
     0
290
     0
174
     0
 93
        1
 44
0.0
173
     0
291
     0
 45
0.0
1001
ACAD
1000
AcDbSavedByObjectVersion
1070
     0
  0
VISUALSTYLE
  5
94EA
102
{ACAD_XDICTIONARY
360
974A
102
}
102
{ACAD_REACTORS
330
94D8
102
}
330
94D8
100
AcDbVisualStyle
  2

 70
    24
 71
     1
 72
     2
 73
     2
 90
        0
 40
-0.6
 41
-30.0
 62
     5
 63
     7
 74
     2
 91
        2
 64
     7
 65
     7
 75
     1
175
     1
 42
40.0
 92
       11
 66
     7
 43
1.0
 76
     1
 77
     6
 78
     2
 67
     7
 79
     6
170
     0
171
     0
290
     0
174
     0
 93
        1
 44
0.0
173
     0
291
     0
 45
0.0
1001
ACAD
1000
AcDbSavedByObjectVersion
1070
     0
  0
VISUALSTYLE
  5
94E5
102
{ACAD_XDICTIONARY
360
9740
102
}
102
{ACAD_REACTORS
330
94D8
102
}
330
94D8
100
AcDbVisualStyle
  2

 70
    13
 71
     2
 72
     2
 73
     0
 90
        0
 40
-0.6
 41
-30.0
 62
     5
 63
     7
 74
     1
 91
        4
 64
     7
 65
   257
 75
     1
175
     1
 42
1.0
 92
       12
 66
     7
 43
1.0
 76
     1
 77
     6
 78
     2
 67
     7
 79
     5
170
     0
171
     0
290
     0
174
     0
 93
        1
 44
0.0
173
     0
291
     1
 45
0.0
1001
ACAD
1000
AcDbSavedByObjectVersion
1070
     0
  0
VISUALSTYLE
  5
94DF
102
{ACAD_XDICTIONARY
360
9734
102
}
102
{ACAD_REACTORS
330
94D8
102
}
330
94D8
100
AcDbVisualStyle
  2

 70
     5
 71
     0
 72
     2
 73
     0
 90
        0
 40
-0.6
 41
-30.0
 62
     5
 63
     7
 74
     1
 91
        4
 64
     7
 65
   257
 75
     1
175
     1
 42
1.0
 92
        0
 66
   257
 43
1.0
 76
     1
 77
     6
 78
     2
 67
     7
 79
     3
170
     0
171
     0
290
     0
174
     0
 93
        1
 44
0.0
173
     0
291
     0
 45
0.0
1001
ACAD
1000
AcDbSavedByObjectVersion
1070
     0
  0
VISUALSTYLE
  5
94EB
102
{ACAD_XDICTIONARY
360
974C
102
}
102
{ACAD_REACTORS
330
94D8
102
}
330
94D8
100
AcDbVisualStyle
  2

 70
    25
 71
     2
 72
     2
 73
     1
 90
        1
 40
0.5
 41
-30.0
 62
     5
 63
     7
 74
     1
 91
        0
 64
     7
 65
   257
 75
     1
175
     1
 42
1.0
 92
        8
 66
     7
 43
1.0
 76
     1
 77
     6
 78
     2
 67
     7
 79
     3
170
     0
171
     0
290
     0
174
     0
 93
       13
 44
0.0
173
     0
291
     0
 45
0.0
1001
ACAD
1000
AcDbSavedByObjectVersion
1070
     0
  0
DICTIONARYVAR
  5
964A
102
{ACAD_REACTORS
330
5697
102
}
330
5697
100
DictionaryVariables
280
     0
  1
1:1
  0
DICTIONARYVAR
  5
9646
102
{ACAD_REACTORS
330
5697
102
}
330
5697
100
DictionaryVariables
280
     0
  1
STANDARD
  0
DICTIONARYVAR
  5
9645
102
{ACAD_REACTORS
330
5697
102
}
330
5697
100
DictionaryVariables
280
     0
  1
STANDARD
  0
DICTIONARYVAR
  5
9647
102
{ACAD_REACTORS
330
5697
102
}
330
5697
100
DictionaryVariables
280
     0
  1
Imperial24
  0
DICTIONARYVAR
  5
9648
102
{ACAD_REACTORS
330
5697
102
}
330
5697
100
DictionaryVariables
280
     0
  1
Imperial24
  0
DICTIONARYVAR
  5
5698
102
{ACAD_REACTORS
330
5697
102
}
330
5697
100
DictionaryVariables
280
     0
  1
1
  0
DICTIONARYVAR
  5
9FB7
102
{ACAD_REACTORS
330
5697
102
}
330
5697
100
DictionaryVariables
280
     0
  1
0
  0
DICTIONARYVAR
  5
964C
102
{ACAD_REACTORS
330
5697
102
}
330
5697
100
DictionaryVariables
280
     0
  1
1
  0
DICTIONARYVAR
  5
964D
102
{ACAD_REACTORS
330
5697
102
}
330
5697
100
DictionaryVariables
280
     0
  1
15
  0
DICTIONARYVAR
  5
964B
102
{ACAD_REACTORS
330
5697
102
}
330
5697
100
DictionaryVariables
280
     0
  1
0
  0
DICTIONARYVAR
  5
A18E
102
{ACAD_REACTORS
330
5697
102
}
330
5697
100
DictionaryVariables
280
     0
  1
1.570796
  0
DICTIONARYVAR
  5
A18F
102
{ACAD_REACTORS
330
5697
102
}
330
5697
100
DictionaryVariables
280
     0
  1
1.570796
  0
DICTIONARYVAR
  5
9649
102
{ACAD_REACTORS
330
5697
102
}
330
5697
100
DictionaryVariables
280
     0
  1
0
  0
DICTIONARYVAR
  5
9FB8
102
{ACAD_REACTORS
330
5697
102
}
330
5697
100
DictionaryVariables
280
     0
  1
0
  0
DICTIONARYVAR
  5
9FB6
102
{ACAD_REACTORS
330
5697
102
}
330
5697
100
DictionaryVariables
280
     0
  1
127
  0
DICTIONARYVAR
  5
A190
102
{ACAD_REACTORS
330
5697
102
}
330
5697
100
DictionaryVariables
280
     0
  1
2
  0
DICTIONARY
  5
9727
102
{ACAD_REACTORS
330
9725
102
}
330
9725
100
AcDbDictionary
281
     1
  0
DICTIONARY
  5
9726
102
{ACAD_REACTORS
330
9725
102
}
330
9725
100
AcDbDictionary
281
     1
  3
2130076544
350
9720
  3
2130076552
350
9721
  3
2130076560
350
9722
  3
2130076568
350
9723
  3
2130076576
350
9724
  0
XRECORD
  5
9FB5
102
{ACAD_REACTORS
330
9FB4
102
}
330
9FB4
100
AcDbXrecord
280
     1
330
9A97
330
9A98
330
9A99
330
9A9A
330
9B43
330
9B44
330
9F0B
330
9F0C
330
9EE7
330
9EE8
330
9F77
330
9F78
330
9F80
330
9F81
330
9F89
330
9F8A
330
9EF0
330
9EF1
330
9DB9
330
9DBA
330
9DC2
330
9DC3
330
9F92
330
9F93
330
9F9B
330
9F9C
330
9DF1
330
9DF2
330
9DFA
330
9DFB
330
9EF9
330
9EFA
330
9F02
330
9F03
330
9E15
330
9E16
330
9E1E
330
9E1F
330
9E27
330
9E28
330
9FA4
330
9FA5
330
9E39
330
9E3A
330
9E42
330
9E43
330
9FAD
330
9FAE
330
9E54
330
9E5C
330
9E5D
330
9EC4
330
9EC5
330
9E70
330
9E71
330
9E79
330
9E7A
330
9E82
330
9E8A
330
9E92
330
9E93
330
9E9B
330
9E9C
330
9EA4
330
9EA5
330
9F14
330
9F15
  0
DICTIONARY
  5
975A
330
950B
100
AcDbDictionary
280
     1
281
     1
  3
ACAD_XREC_ROUNDTRIP
360
975B
  0
DICTIONARY
  5
A198
330
94B3
100
AcDbDictionary
280
     1
281
     1
  3
ACAD_XREC_ROUNDTRIP
360
A199
  0
DICTIONARY
  5
A19A
330
94B4
100
AcDbDictionary
280
     1
281
     1
  3
ACAD_XREC_ROUNDTRIP
360
A19B
  0
DICTIONARY
  5
94C9
330
94C8
100
AcDbDictionary
280
     1
281
     1
  3
ACAD_XREC_ROUNDTRIP
360
9FFB
  3
BUMPTILE
360
94CB
  3
DIFFUSETILE
360
94CA
  3
OPACITYTILE
360
94CE
  3
REFLECTIONTILE
360
94CD
  3
REFRACTIONTILE
360
94CF
  3
SPECULARTILE
360
94CC
  0
DICTIONARY
  5
94C1
330
94C0
100
AcDbDictionary
280
     1
281
     1
  3
ACAD_XREC_ROUNDTRIP
360
9FFA
  3
BUMPTILE
360
94C3
  3
DIFFUSETILE
360
94C2
  3
OPACITYTILE
360
94C6
  3
REFLECTIONTILE
360
94C5
  3
REFRACTIONTILE
360
94C7
  3
SPECULARTILE
360
94C4
  0
DICTIONARY
  5
94D1
330
94D0
100
AcDbDictionary
280
     1
281
     1
  3
ACAD_XREC_ROUNDTRIP
360
9FFC
  3
BUMPTILE
360
94D3
  3
DIFFUSETILE
360
94D2
  3
FBXASSET
360
968E
  3
OPACITYTILE
360
94D6
  3
REFLECTIONTILE
360
94D5
  3
REFRACTIONTILE
360
94D7
  3
SPECULARTILE
360
94D4
  0
DICTIONARY
  5
9758
330
9509
100
AcDbDictionary
280
     1
281
     1
  3
ACAD_XREC_ROUNDTRIP
360
9759
  0
DICTIONARY
  5
971D
330
94F3
100
AcDbDictionary
280
     1
281
     1
  3
ACAD_ROUNDTRIP_2008_TABLESTYLE_CELLSTYLEMAP
360
A191
  3
ACAD_XREC_ROUNDTRIP
360
A19C
  0
DICTIONARY
  5
9732
330
94DE
100
AcDbDictionary
280
     1
281
     1
  3
ACAD_XREC_ROUNDTRIP
360
9733
  0
DICTIONARY
  5
A19F
330
9763
100
AcDbDictionary
280
     1
281
     1
  3
ACAD_XREC_ROUNDTRIP
360
A1A0
  0
DICTIONARY
  5
A19D
330
9762
100
AcDbDictionary
280
     1
281
     1
  3
ACAD_XREC_ROUNDTRIP
360
A19E
  0
DICTIONARY
  5
9730
330
94DD
100
AcDbDictionary
280
     1
281
     1
  3
ACAD_XREC_ROUNDTRIP
360
9731
  0
DICTIONARY
  5
973E
330
94E4
100
AcDbDictionary
280
     1
281
     1
  3
ACAD_XREC_ROUNDTRIP
360
973F
  0
DICTIONARY
  5
9746
330
94E8
100
AcDbDictionary
280
     1
281
     1
  3
ACAD_XREC_ROUNDTRIP
360
9747
  0
DICTIONARY
  5
9738
330
94E1
100
AcDbDictionary
280
     1
281
     1
  3
ACAD_XREC_ROUNDTRIP
360
9739
  0
DICTIONARY
  5
973C
330
94E3
100
AcDbDictionary
280
     1
281
     1
  3
ACAD_XREC_ROUNDTRIP
360
973D
  0
DICTIONARY
  5
9756
330
94F0
100
AcDbDictionary
280
     1
281
     1
  3
ACAD_XREC_ROUNDTRIP
360
9757
  0
DICTIONARY
  5
9744
330
94E7
100
AcDbDictionary
280
     1
281
     1
  3
ACAD_XREC_ROUNDTRIP
360
9745
  0
DICTIONARY
  5
9728
330
94D9
100
AcDbDictionary
280
     1
281
     1
  3
ACAD_XREC_ROUNDTRIP
360
9729
  0
DICTIONARY
  5
972A
330
94DA
100
AcDbDictionary
280
     1
281
     1
  3
ACAD_XREC_ROUNDTRIP
360
972B
  0
DICTIONARY
  5
972C
330
94DB
100
AcDbDictionary
280
     1
281
     1
  3
ACAD_XREC_ROUNDTRIP
360
972D
  0
DICTIONARY
  5
972E
330
94DC
100
AcDbDictionary
280
     1
281
     1
  3
ACAD_XREC_ROUNDTRIP
360
972F
  0
DICTIONARY
  5
9736
330
94E0
100
AcDbDictionary
280
     1
281
     1
  3
ACAD_XREC_ROUNDTRIP
360
9737
  0
DICTIONARY
  5
9752
330
94EE
100
AcDbDictionary
280
     1
281
     1
  3
ACAD_XREC_ROUNDTRIP
360
9753
  0
DICTIONARY
  5
9742
330
94E6
100
AcDbDictionary
280
     1
281
     1
  3
ACAD_XREC_ROUNDTRIP
360
9743
  0
DICTIONARY
  5
9754
330
94EF
100
AcDbDictionary
280
     1
281
     1
  3
ACAD_XREC_ROUNDTRIP
360
9755
  0
DICTIONARY
  5
973A
330
94E2
100
AcDbDictionary
280
     1
281
     1
  3
ACAD_XREC_ROUNDTRIP
360
973B
  0
DICTIONARY
  5
9750
330
94ED
100
AcDbDictionary
280
     1
281
     1
  3
ACAD_XREC_ROUNDTRIP
360
9751
  0
DICTIONARY
  5
974E
330
94EC
100
AcDbDictionary
280
     1
281
     1
  3
ACAD_XREC_ROUNDTRIP
360
974F
  0
DICTIONARY
  5
9748
330
94E9
100
AcDbDictionary
280
     1
281
     1
  3
ACAD_XREC_ROUNDTRIP
360
9749
  0
DICTIONARY
  5
974A
330
94EA
100
AcDbDictionary
280
     1
281
     1
  3
ACAD_XREC_ROUNDTRIP
360
974B
  0
DICTIONARY
  5
9740
330
94E5
100
AcDbDictionary
280
     1
281
     1
  3
ACAD_XREC_ROUNDTRIP
360
9741
  0
DICTIONARY
  5
9734
330
94DF
100
AcDbDictionary
280
     1
281
     1
  3
ACAD_XREC_ROUNDTRIP
360
9735
  0
DICTIONARY
  5
974C
330
94EB
100
AcDbDictionary
280
     1
281
     1
  3
ACAD_XREC_ROUNDTRIP
360
974D
  0
XRECORD
  5
9720
102
{ACAD_REACTORS
330
9726
102
}
330
9726
100
AcDbXrecord
280
     1
  1
AcDb_Thumbnail_Schema
102
{ATTRRECORD
341
9721
  2
AcDbDs::TreatedAsObjectData
280
     1
291
     1
102
ATTRRECORD}
102
{ATTRRECORD
341
9722
  2
AcDbDs::Legacy
280
     1
291
     1
102
ATTRRECORD}
  2
AcDbDs::ID
280
    10
 91
        8
102
{ATTRRECORD
341
9723
  2
AcDs:Indexable
280
     1
291
     1
102
ATTRRECORD}
102
{ATTRRECORD
341
9724
  2
AcDbDs::HandleAttribute
280
     7
282
     1
102
ATTRRECORD}
  2
Thumbnail_Data
280
    15
 91
        0
  0
XRECORD
  5
9721
102
{ACAD_REACTORS
330
9726
102
}
330
9726
100
AcDbXrecord
280
     1
  1
AcDbDs::TreatedAsObjectDataSchema
  2
AcDbDs::TreatedAsObjectData
280
     1
 91
        0
  0
XRECORD
  5
9722
102
{ACAD_REACTORS
330
9726
102
}
330
9726
100
AcDbXrecord
280
     1
  1
AcDbDs::LegacySchema
  2
AcDbDs::Legacy
280
     1
 91
        0
  0
XRECORD
  5
9723
102
{ACAD_REACTORS
330
9726
102
}
330
9726
100
AcDbXrecord
280
     1
  1
AcDbDs::IndexedPropertySchema
  2
AcDs:Indexable
280
     1
 91
        0
  0
XRECORD
  5
9724
102
{ACAD_REACTORS
330
9726
102
}
330
9726
100
AcDbXrecord
280
     1
  1
AcDbDs::HandleAttributeSchema
  2
AcDbDs::HandleAttribute
280
     7
 91
        1
284
     1
  0
XRECORD
  5
975B
102
{ACAD_REACTORS
330
975A
102
}
330
975A
100
AcDbXrecord
280
     1
102
DISPLAYNAME
  1
Imperial24
102
FLAGS
 90
        0
  0
XRECORD
  5
A199
102
{ACAD_REACTORS
330
A198
102
}
330
A198
100
AcDbXrecord
280
     1
102
SHADEPLOT
 70
     0
102
SHADEPLOTRESLEVEL
 70
     2
102
SHADEPLOTCUSTOMDPI
 70
   300
  0
XRECORD
  5
A19B
102
{ACAD_REACTORS
330
A19A
102
}
330
A19A
100
AcDbXrecord
280
     1
102
SHADEPLOT
 70
     0
102
SHADEPLOTRESLEVEL
 70
     2
102
SHADEPLOTCUSTOMDPI
 70
   300
  0
XRECORD
  5
9FFB
102
{ACAD_REACTORS
330
94C9
102
}
330
94C9
100
AcDbXrecord
280
     1
102
MATERIAL
148
0.0
149
0.0
149
0.0
 93
        0
 94
      127
282
     0
 72
     0
 77
     0
171
     0
175
     0
179
     0
273
     0
  0
XRECORD
  5
94CB
102
{ACAD_REACTORS
330
94C9
102
}
330
94C9
100
AcDbXrecord
280
     1
270
     1
271
     1
  0
XRECORD
  5
94CA
102
{ACAD_REACTORS
330
94C9
102
}
330
94C9
100
AcDbXrecord
280
     1
270
     1
271
     1
  0
XRECORD
  5
94CE
102
{ACAD_REACTORS
330
94C9
102
}
330
94C9
100
AcDbXrecord
280
     1
270
     1
271
     1
  0
XRECORD
  5
94CD
102
{ACAD_REACTORS
330
94C9
102
}
330
94C9
100
AcDbXrecord
280
     1
270
     1
271
     1
  0
XRECORD
  5
94CF
102
{ACAD_REACTORS
330
94C9
102
}
330
94C9
100
AcDbXrecord
280
     1
270
     1
271
     1
  0
XRECORD
  5
94CC
102
{ACAD_REACTORS
330
94C9
102
}
330
94C9
100
AcDbXrecord
280
     1
270
     1
271
     1
  0
XRECORD
  5
9FFA
102
{ACAD_REACTORS
330
94C1
102
}
330
94C1
100
AcDbXrecord
280
     1
102
MATERIAL
148
0.0
149
0.0
149
0.0
 93
        0
 94
      127
282
     0
 72
     0
 77
     0
171
     0
175
     0
179
     0
273
     0
  0
XRECORD
  5
94C3
102
{ACAD_REACTORS
330
94C1
102
}
330
94C1
100
AcDbXrecord
280
     1
270
     1
271
     1
  0
XRECORD
  5
94C2
102
{ACAD_REACTORS
330
94C1
102
}
330
94C1
100
AcDbXrecord
280
     1
270
     1
271
     1
  0
XRECORD
  5
94C6
102
{ACAD_REACTORS
330
94C1
102
}
330
94C1
100
AcDbXrecord
280
     1
270
     1
271
     1
  0
XRECORD
  5
94C5
102
{ACAD_REACTORS
330
94C1
102
}
330
94C1
100
AcDbXrecord
280
     1
270
     1
271
     1
  0
XRECORD
  5
94C7
102
{ACAD_REACTORS
330
94C1
102
}
330
94C1
100
AcDbXrecord
280
     1
270
     1
271
     1
  0
XRECORD
  5
94C4
102
{ACAD_REACTORS
330
94C1
102
}
330
94C1
100
AcDbXrecord
280
     1
270
     1
271
     1
  0
XRECORD
  5
9FFC
102
{ACAD_REACTORS
330
94D1
102
}
330
94D1
100
AcDbXrecord
280
     1
102
MATERIAL
148
0.0
149
0.0
149
0.0
 93
        0
 94
      127
282
     0
 72
     0
 77
     0
171
     0
175
     0
179
     0
273
     0
  0
XRECORD
  5
94D3
102
{ACAD_REACTORS
330
94D1
102
}
330
94D1
100
AcDbXrecord
280
     1
270
     1
271
     1
  0
XRECORD
  5
94D2
102
{ACAD_REACTORS
330
94D1
102
}
330
94D1
100
AcDbXrecord
280
     1
270
     1
271
     1
  0
XRECORD
  5
968E
102
{ACAD_REACTORS
330
94D1
102
}
330
94D1
100
AcDbXrecord
280
     1
 70
     1
 90
1959938040
 71
     1
  1
B78794D6-3706-4F16-A23C-ECFA132E3C12
311
504B0304140006080800B2731447274C5A8BDB000000200100004F00000031384433313136422D353538382D343644432D414233382D4443313343444333444231342F4173736574446174612F446566696E6974696F6E4974657261746F7250726F706572746965732E62696E454E3D4FC33010350CAD1818F8075577633B
311
A46912B545B8244CB0C0D4A572DD6B88E43895ED488C8CFC6B7A16453DE9DDBBCF77F74308F93D1B86E40AF18DFE16F9052CB856BFEB4FE81419C58AE977CA8C2FBD6B0C63FA0C07359810B75E5BAFC11865A11FFCDD6574D2A98072CADCC7A51BC47FC14785E6EF58BCFF86882F4556FB63F9A8BC87B06487DD179BA7B2AE
311
4456D3A2984B9AA619A752E615AD247F12B558E733B9660E7C3F380D9E258C6FCFCADBA36D6039D50EF08FFD74957031A33CA709FF10699914E543B659B0D076B05AF8E05ADB4CACEA4E504B0304140006080800B2731447B91E4F7E08010000300200004500000031384433313136422D353538382D343644432D41423338
311
2D4443313343444333444231342F4173736574446174612F496E7374616E636550726F706572746965732E62696EEB606060F80F0540260323103700495E20ED9E9A975A94991C9C9C919A9BA802147032B730B7347131D335363730D335713334D375343276D6757576733434367235763634624768046931363471713532
311
B5D435353131D635313332D475727372D13534373670367376B67474B5042A03DBCBA019D37FE8ABC6157B20CD04146B0062181F4C03F940F0C11EA29A8141C08141002C0426541C106CAC2CA046088033B02A030AC2157C6006F21A8018AAF50194E6010A610250382264E08660284CD9E98021862280A91564B406929A0F
311
F62C401E28B6F88038B83CB1243943D7A928312F2535052403033A4086231027F0883068704BC384516890D9300164F5CFD897C384E13400504B0304140006080800B273144728BB58AF800100009E0500003D00000031384433313136422D353538382D343644432D414233382D4443313343444333444231342F53636865
311
6D61732F436F6D6D6F6E536368656D612E786D6CBD544D4FC23018BEFB2B96DE15493C78601010A34B880709DEDFB52FD0D8B54BD70DF6EFED3AC0B12E6442E2716BFB3CEFF3D18E26FB440405EA8C2B1992E1C323095052C5B8DC842437EBFB673219DF8DA659866649B798C078B48AE6410122242F2A4994AC7F93815DF8
311
5C049C8564CA0A901499DD886B2EB9B1E02448F358701A9235880C49A0119892A20C89D1B9FD768815CAD268CB5E0355B40B1E47F3E37A2020464BED06AA57CE8FCC20C3C3446D46761A2632A8C1283D07031EFF2AE7CCB1BFEEE916E406DFAC8E36FFD99A9D60A6944090EEDC3B670C7DC13DE86B6B2C5C240D6E503BB85A
311
CD579D513F1B9F9A69DC9CC22AFA80C426D40AF0B21EA168559156B6276F0F726A6BFF04DCD513A87A62CAD41FB24FCB2858B3952E3D852084DA25B9303C15687973CC8E8AAE11DF2836C38C6A9E765E8C1BA1BFB1DC29CDFE518C8B5A7655A4ED7E77291ABEB80DBD82EC866ADE1B8D05AF9E35CF09D7A061F38A986D9EC4
311
12B8F0F65E5D81534D9B231D1E5A8FE577A241F3A5FD01504B0304140006080800B27314472CCEBD668A040000E01200003E00000031384433313136422D353538382D343644432D414233382D4443313343444333444231342F536368656D61732F47656E65726963536368656D612E786D6CD5586D6FDB380CFE7EBF42F0
311
F7A649B70E1B90744856B4970F450FCD7A5F05459613EDE4174872DADCAF3F522F8ED3B88D2F1D06AC4050DBA2493EE4438AF2F8EB73AEC8466823CB62928C06C384888297A92C5693A4B6D9D9E7E4EBD51FE3A931C22EF85AE4EC6AFC38BF261BA626C9AD288496DC3F4FCEAFC63366845F7A10452AF41DB320C0D44EC26E
311
AB20918735565582695670811A6A49643A49A6E9069FA4604A64B29016DC4B48552F95E4932463CA888468C1D2B250DB4962750DF7CE273069CE8363F1FF4EDB00E0A21999574AE4A2B00C353B93F3BD4777B8A61ED8F604ABFEDD79CE56A2B7BDFBDBC50996E0ADDE16FED26223C5D30956C29BDF4A55EA686E5E58B112DA
311
45CE67F76F4FA27EFA3FB672FD7372FC388FAECDCA5209E693CAD167BADCD272F943701B3812F8A3D852008B1D2E32DB927B2F833C6EA95879925356D254582695095A3CE982924720BE5774A3CB9CDCDB350427D2DF20DA1B5532EBE2D5D6288D75D4F7E4FD9890A0EF8E3D93EBB8F8BA4758158EF6FB90A6F9520281C93D
311
E7AAC6D24607DA296BB96018123F821A7D6A5C5884050C475DA4865442732C8B95684A50165CBB3A32F25F783A4A480ED59AD7F924B968AEA50131F46303223E6A397B0E52976030DC1DCA81D7E7C1EDEEA42C19FF27635C505E2BD5198A599020DF50A2330FCB3AAF28CB0124108429553EF1B228802E2265D8F7CC240104
311
2B155BCC7070F1E5C55F13B4A9577362CCCE46C32174E010C3C378C44841A4BDA00FE3A12006CE11EE6AEC59894D3526DDE1CD59D503ECC324017F8061B7F162162FA62EDD81AE3308617770796DCBDAD2B2625C5AE8A63DE20B2C8AA5E95E76E5730823955956E33E705425A2187C185D36489A1B44D3DCEC2172F6BA2105
311
C3546287A7194B2331768EBBE64F6E70A9930ABE0ADEA89E9E2C38523B810287AD67A54A039C1606EAFE68F8304610BB9093DBDDABC0B2AE4E290DCDA15376D7E39F72B556F0B32EAB5D3D498B4C41ABADEC3A1434C422D87E8025A84BDCB2B1417ED750FAE4DA8976863974C577C7F902D3F156AD354DEA3540DE6BEAE2BE
311
A52F7A2EB4CA43802ECE5BF2CE2EDC9347179FFB023CE412E60BE16DA0BE29B374988A553F561DC04615DD35F7D2C8979F60E5955CE93DF29DED8AFA1EE6642D53418086C03C47C377910F75F7E8F5EF665F70B60FFB22AEDF897D119E8423C773E819A3C1E55E550599EE6EDCA34D0C86FD72057DF2CD46F16A470682471C
311
164E4346D5306BF12D7D12D82CFF673D41636C347443FEB51B50D72EA171A8E4A58623A4A16E0FA2B8B10A0D23268D87C33896EE8FB73305A74BF224EDBADFA0BD674AB354D63DB7BD5D83426761C077DE767728235446A552754EB93B755891C3C4CC6CADE37CF0E912A7BB38DBA010F9DE1282EDF470CA69A9CDA482E334
311
C4A6EA4107987980B17E72F31730EBF88BBD39E7C629F56797A3C0009C2C5AE7951D9A05A02773440F02EEB4DE396A3B6A570C72CCFBCD823B0B8ED3F1D5CEDDFED772FA70236C83FB7D86C385D570B87107535572A60A96035F8F7C6A7192F13007246BBE0521855E6AC46F3E27689CEE7D186A6FD679D98CDCAD13333E04
311
EBE7ED6F55FF01504B0304140006080800B27314476180134D5F0100006B0300004500000031384433313136422D353538382D343644432D414233382D4443313343444333444231342F536368656D61732F52656E6465724D6174657269616C536368656D612E786D6CA5934D6FC2300C86EFFB1551EEE343DBA41D1A1030
311
09551ADAD40EAE28A4A68D9426284961FCFBE5A340113B2071746D3F765EBF4DC6BFB5407BD0862B49F0B037C0082453059725C18DDD3EBFE3F1E829991803366715D474942CD30FB4A782E00C64017A412D684E454CE3FE28995203B162A6EA5AC94B66997D225E109CD63B0135484BAD1B3C07E9080CA35DB3119C11BCA5
311
C200461A68A1A438126C75E3E230D40FF81FB3F03C91D1E3A3A0AF79FE28E25BC39EC3E17E4C2A2D94A0833A51AF55BCCA7D88572FCBAC529C4140B020FC3AAFA886621DCED7EAD7664CC86024E806DC297DA1BB393E4156543457A4537DB8817349A70F8ACBF09B3EEE2CB2F33E91B65D60786E4E3B39B77E3FEEEF565042
311
4525DA657FB8B46BE6BF064646F0A0F7327C0BC1BC1B4CBBC1C419FA3CCB23500007872A2580CAAE5461865565294E4EDB4617B62FF579DF9A5B2F54E834076A597573A020912FED777F9B3F504B0304140006080800B2731447FAFABCDA51000000570000004700000031384433313136422D353538382D343644432D4142
311
33382D4443313343444333444231342F4173736574446174612F41737365745461626C654F66436F6E74656E74732E62696E536160607032B730B7347131D335363730D335713334D375343276D67575767334343672357636341202AACB4D2C492DCA4CCC492C28484D2C4ACC4B4E050A82012F90744FCD03CA26072767A4
311
E6260200504B0304140006080800B2731447F865834058000000680000004500000031384433313136422D353538382D343644432D414233382D4443313343444333444231342F4173736574446174612F53747265616D56657273696F6E5461626C652E696E66558CBD0A80300C06F73E4B117FB66E451741D041DC5BF984
311
80A492E4FDD18EAEC7DD4555D89EF28DF51A0B1BD8340C4DE7DD848B988C0ACF0649566493F2408C508DDEBB99D5129FF8F1AF8CF5B9503E20FAE5A16B5AF702504B0304140006080800B273144720D4EF37350100009A0400003600000031384433313136422D353538382D343644432D414233382D444331334344433344
311
4231342F4173736574446174612F636E782E786D6CCD943F4FC33010C5BF4AE43D7652FEA8548E2B044B2790A818D8AECEA55875ECC8BE20F8F6D86D0650115387ACE777E7E79FFC4EAE3F7B5B7C6088C6BB86D5BC62053AED5BE3F60D1BA92B97AC582B19BCA71F325638E8B161B9CC94DC073F0E53A9C50E469BABD6B8C3
311
54BC8F11690B3B8B4FDD8377848E222BB485181B16F53BF6C06124DF623CF0160878CD03463F068D6912991EA7493A2010B64C2DAAFAA6AC96E5A2DAD6D7ABC5DDEAEAF64D8AAC5472E7BD9DF4265D16FC50E8D3AD4C5552E46325C760264D7E0B537F79E43BE3A4484A252385C464EAA0AF2175C03058A381123AE1352195
311
4984D04B71122B2932835F241EB133CEE4964D3206E4C373B287810CCE8EC87F5E2F4F66E32281D3385F1EE70E2F4FE1E5F8835E4F813C26666E393977C88DEB2E9012715C23293479ABA86F504B0304140006080800B27314475850197E090100004F0300003400000031384433313136422D353538382D343644432D4142
311
33382D4443313343444333444231342F536368656D61732F636E782E786D6CCD93BD4E042114855F85D00FCC8C3F59370C5B5858D9A8951DC2DD952C7027C0187D7B61A4D84DECB4D80E0E5FC839878BD87D7A473E20268B61A203EB2981A0D1D87098E892F7DD86929D1411319F609404E561A255A6521C222E73930CECD5
311
E2AAEA6C3836F11EBDC7F0ACDFC12B4AB453294D34AD5BA6968C06D2911995151B5884844BD4506EC8D643BB414750190C95633FDC74FDA61BFB97E17A3BDE6DAF6E5F05AFA4146F88AEF136648838138D65118A9D5EF07A2CC5126D636A062A4FBDB1D286E0859022E5583A6864FE9A0BA9E6D959AD72A98AAFE00F2305AF
311
51CF023F408068F565263E33F76F919F2018888FE595A255EE3293FFE6F16F05F075F6CB08D4AF20BF01504B0304140006080800B2731447410A3D5871000000A40000002C00000031384433313136422D353538382D343644432D414233382D4443313343444333444231342F636E782E786D6C55CC4D0E82301086E1AB34
311
B31774E7A22D31F1069E60020334B633A63FC6E34B0909B07DDE2F9FEE7EC1AB2FC5E4840DDC9A2B28E25E06C7938192C7CB1D54677514C9871928C640062A83D55394F2D968A0118BAFEA1DBF377CA444F98919176EAB9FEAAB9F2960DA5BBB1E2ED3FA6FFF504B0304140006080800B27314471B3B603B7C000000A30000
311
0007000000636E782E786D6C4D8C410AC3201405AF227F6FDB8F4970A186AA17098D0952A3C1C6D2E3574B165D3D18DE8C183F5B206F975F3E450978B90171F191661F5709E5582807322A91533AFE6E40E2B439090D83126B4E653FD1EC96A98446838FCF1322B70C71D0B4EF39A7DD600DBD6BC6A935C88C35CC6AECAA71
311
6D4A9D5FAF6ECBAB2F504B0304140006080800B273144716E99B5DA600000035010000130000005B436F6E74656E745F54797065735D2E786D6C9590410E82301045AFD2740F4517C6180A0BF5065E60AC53688469D30E066F6F91AD9AB89CF9FFFD3F99BA9DC7413C3026E749CB4D59498164FCCD51A7E5C4B6D84BD136F5
311
E5193089ECA5A465CF1C0E4A25D3E308A9F401292BD6C711388FB15301CC1D3A54DBAADA29E38991B8E0254336F5092D4C038BF39CD76B6FC6A538AEBEA54A4B08617006389FA516557DE4AE8E7E70DE30729138228C5F021CD93F02D4FB0DCD0B504B0304140006080800B27314473DEE336E64000000790000001B000000
311
6175746F6465736B2D64657369676E2D7061636B6167652E786D6C35CBC10E83200C00D05F21DCA56CA76D41FC96062B120735B69A7DBE268BB7777961F8D5AF396893C2ADB70FE7ADA196782C2DF776D7A97B5933C430F15651E5469C55D70F80A4992A3ADC954792C525AE70A1E4D6AD9816CC044FEFDF01FE3FDE907802
311
504B0304140006080800B2731447DE9BA3B1F9000000960100003700000031384433313136422D353538382D343644432D414233382D4443313343444333444231342F4173736574446174612F636F72652E786D6C8550CB6E833010FC15B477836D4803917194A4E40B7AEACD320EB5126CE447D5CFAF1DA8D49E7ADAD5EC
311
CCECEEB0E3D7FC283E95F3DA9A1E4889A15046DA519BA987186EA885E2C899B336FCA24161C4AC7AC8307036391B970D92D60465326AECA8365078AF0214F2919A1EBCFC50B328450C89E1EFE522E45D4CAA24E5CAE32C463D6E523D26377DD3CA01A7DD70C6F8B24757B26B50D3B5149D067A45F852D3A16E697B6EF6ACCA
311
62CE829E7FB64BA7445063D263B243B84514BF91E640BB43FDF2CEAACCE4CC07977EDE96E6EF809FF2D5AF220856ADD33FAE7119FF778DDA849A6EAEABC20327E9C8E780B32AA794CA33C25473A2FC1B504B0304140006080800B2731447C6841640F8000000940100003500000031384433313136422D353538382D343644
311
432D414233382D4443313343444333444231342F536368656D61732F636F72652E786D6C8550CB6E833010FC15B477836D484322E3A889C80FB4A7DE2CE3102BC1467E54FDFCDA40A5F6D4D3AE66676677879DBEA667F1A99CD7D674404A0C8532D20EDA8C1DC470432D1427CE9CB5E1170D0A2326D5418681B3D1D9386F90
311
B4262893516307B581C27B15A090CFD474E0E55D4DA2143124867F94B3900F31AA92942B8FB318F5B049F590DCF44D2B079C1EFA33C6973DBA925D839A434BD16B4FAF085F6ADAD72D6DCFCD9E5559CC59D0D3CF76E994086A487A4C7608B788E277D21CE9E158BF7CB02A3339F3C1A59FB7A5F93BE06FCB9D9E55EBEC8F67
311
9C87FF3DA336A1A69BE7AAF0C0493A71197056E58C5259024C35E7C9BF01504B0304140006080800B27314470215E82DFF000000D70100002D00000031384433313136422D353538382D343644432D414233382D4443313343444333444231342F636F72652E786D6C9591C16E842010865FC5CC1D15D18DDD209BAA8FD053
311
6F54662DD9150C60D3C72F549BB6B7F604F9F9FE19FE197E795FEED91B3AAFADE980E625646826ABB4993BD8C295B4905D0477D6861F1864462ED8419241F0D9D96D3DA4C99A8026A9C62A3C44E93D06C8A67BBC74E0A7575C642EB710097FCB5739DDE48C39CD774EF0A0972FEBE450065420AA9236A46C49553ED1FA5C3D
311
9CD9E9991789147CD326B0EA6886CB0BAACCAE214602D1F0627F8DD4A6D5C16815FFA8AF1A1D08DA8E8CD2534F9AA66D497D1A07F2D8B3968C0365C338B0B1A7752C12CD82FBE0E2648E2269067FB5EFC65FC9B655FD33D9EEF0B1E777A8228D59F0E27307F14C2B111F504B0304140006080800B27314475B71D978070100
311
00B201000008000000636F72652E786D6C8D504B6EC32014BC0A628F8DB1D3D811266A22E7045D75470D71506CB0F844EDED0B3195DA5D570FCDE7CDF0E8F17399C1435AA78CEE61556008A41E8D507AEA61F057D4427064D41AE37FC920D07C913D4C306474B226AC191A8DF65227541B2133C89D931E82718E8F1EBAF126
311
175EF0E0A3C2DD8B958F773EC9A22A361DA35E2D3FD6D14AEEA5808CE06A87708B087EAB9A03E90EF5CB3B2D9392D11094C8514AC4747555D2464B379C303EEFD1A5DA35A8E95A825E077241F85C93A16E497B6AF6B44C66469DB7F1CF7949ECE981E38F944BCB8D62F4C398390B6229018C9EBF20C3B44CC49FD26115FF28
311
ADB4AF495EB8391C64552CF4246270BA601CCFF3C699AECDBE01504B01021400140006080800B2731447274C5A8BDB000000200100004F000000000000000000000000000000000031384433313136422D353538382D343644432D414233382D4443313343444333444231342F4173736574446174612F446566696E697469
311
6F6E4974657261746F7250726F706572746965732E62696E504B01021400140006080800B2731447B91E4F7E080100003002000045000000000000000000000000004801000031384433313136422D353538382D343644432D414233382D4443313343444333444231342F4173736574446174612F496E7374616E63655072
311
6F706572746965732E62696E504B01021400140006080800B273144728BB58AF800100009E0500003D00000000000000000000000000B302000031384433313136422D353538382D343644432D414233382D4443313343444333444231342F536368656D61732F436F6D6D6F6E536368656D612E786D6C504B010214001400
311
06080800B27314472CCEBD668A040000E01200003E000000000000000000000000008E04000031384433313136422D353538382D343644432D414233382D4443313343444333444231342F536368656D61732F47656E65726963536368656D612E786D6C504B01021400140006080800B27314476180134D5F0100006B0300
311
0045000000000000000000000000007409000031384433313136422D353538382D343644432D414233382D4443313343444333444231342F536368656D61732F52656E6465724D6174657269616C536368656D612E786D6C504B01021400140006080800B2731447FAFABCDA51000000570000004700000000000000000000
311
000000360B000031384433313136422D353538382D343644432D414233382D4443313343444333444231342F4173736574446174612F41737365745461626C654F66436F6E74656E74732E62696E504B01021400140006080800B2731447F865834058000000680000004500000000000000000000000000EC0B0000313844
311
33313136422D353538382D343644432D414233382D4443313343444333444231342F4173736574446174612F53747265616D56657273696F6E5461626C652E696E66504B01021400140006080800B273144720D4EF37350100009A0400003600000000000000000000000000A70C000031384433313136422D353538382D34
311
3644432D414233382D4443313343444333444231342F4173736574446174612F636E782E786D6C504B01021400140006080800B27314475850197E090100004F0300003400000000000000000000000000300E000031384433313136422D353538382D343644432D414233382D4443313343444333444231342F536368656D
311
61732F636E782E786D6C504B01021400140006080800B2731447410A3D5871000000A40000002C000000000000000000000000008B0F000031384433313136422D353538382D343644432D414233382D4443313343444333444231342F636E782E786D6C504B01021400140006080800B27314471B3B603B7C000000A30000
311
00070000000000000000000000000046100000636E782E786D6C504B01021400140006080800B273144716E99B5DA6000000350100001300000000000000000000000000E71000005B436F6E74656E745F54797065735D2E786D6C504B01021400140006080800B27314473DEE336E64000000790000001B00000000000000
311
000000000000BE1100006175746F6465736B2D64657369676E2D7061636B6167652E786D6C504B01021400140006080800B2731447DE9BA3B1F90000009601000037000000000000000000000000005B12000031384433313136422D353538382D343644432D414233382D4443313343444333444231342F41737365744461
311
74612F636F72652E786D6C504B01021400140006080800B2731447C6841640F8000000940100003500000000000000000000000000A913000031384433313136422D353538382D343644432D414233382D4443313343444333444231342F536368656D61732F636F72652E786D6C504B01021400140006080800B273144702
311
15E82DFF000000D70100002D00000000000000000000000000F414000031384433313136422D353538382D343644432D414233382D4443313343444333444231342F636F72652E786D6C504B01021400140006080800B27314475B71D97807010000B201000008000000000000000000000000003E160000636F72652E786D
311
6C504B050600000000110011005A0600006B1700000000
310
504B0304140006080800B2731447000000000000000000000000370000006662782F37444232363938382D333236432D343038312D414635342D3233464244343334303545392F617474726962757465732E62696E504B0304140006080800B2731447000000000000000000000000350000006662782F3744423236393838
310
2D333236432D343038312D414635342D3233464244343334303545392F76657274696365732E62696E504B0304140006080800B2731447F270F1330600000004000000360000006662782F37444232363938382D333236432D343038312D414635342D3233464244343334303545392F747269616E676C65732E62696E6366
310
60600000504B0304140006080800B273144751464CB48900000043010000360000006662782F37444232363938382D333236432D343038312D414635342D3233464244343334303545392F6469726563746F72792E786D6C9D8F310EC2300C45AF127987122606C71DD918B841D4B851A43646695A717C52A85029031293A5
310
A76FBF6FACEF7DA7264E43906840EF0FA03836E242F406C6DCEE4EA06AC22492573150D1F66C60C640E8938CB705396EEDD86DE9B5042FE27813D640EA63BB001C722AF6E55CB61E4863F58284D5D3F53DD715CE1C3985E63FD7F1B7EBDD617E9F1E504B0304140006080800B273144761666D84340700001A1C0000340000
310
006662782F37444232363938382D333236432D343038312D414635342D3233464244343334303545392F6F626A656374732E786D6CDD59E96FE23814FF57ACECE75C5C2D23CAA840A9D0AA33A341B3DA6F9109867AEB1C72921EFBD7EFB36387380448E790464BA5121CE7F9BDDFBB5F261F5F23869E09CF6812DF58BEE359
310
88C461B2A5F1FEC62AF29D7D6DA18F5334E14992D7F65928C611B9B1C4B2359DEC7952A46A694B76B860CDD5E5EC6F94852426160A19CEB21B2B0B1F49841D5CE4C996644FCE16E7D8D9EF5E1DDF29379A64F71CA78F8DA352CC499C03ABB01E0315C5816FFE0491DCE9C4151B8C6DFD6EDB7A67B6B9527093511A67398EC3
310
23AE1AC7F54E70D538AEEF0F1677BDE1D81E0E067D7B30EAF9F66C395BD8FE55DF9B8FE6F3F1EDDDD842D3C9264958A58094C45BD0E29B35F527AEB85389AF5068E33B4CE298840ACDB60D5BA2E8529235313180F5A568358594B2D616FA1D853FB1AD1328064B06DA5A38FD5DB7DE64F30F809075B1529E1161E559CE41D7
310
0AFBD21FBC895BAE1A7AA1198A704E38C50C31BAE1988382606BA920838CF016410A09CCA41635BD3AAF60D8977DA98DCB5DC198F05F6B2A3D2D007F24792639A3FF127EE0BE7E1AF004D21634CEAF95B0F95B0A24C613572E96F7FA3D75B30412ED18DE83B580986253BFD7C06B2E62C16A614DFF5C6E5ED7223EB41F9EF2
310
24253C1796279D59F99DD660CDB4C0F83A8052E26AEAEE80CA5780FE13205FF18226A0394E5F07AF032D3BC771B64B7804DA411EB23DF8E7217179743571AB87A70819B1F214A6E0B63F0953430CE3EC1AA4D3C933187DC2FB4AB8758819D8F4038D859F83A12096C012C4FBDDE6D59AAE2098C2223C8519480F7F13575C22
310
F82AE940BC6968A82DFC7650947698A69F1D74750F36C36958A9CA90F114BEC39F82EFED62FDE7BAE03B1C9207E5D80BB2A331CD2199B63364806EB8FCB7D527E991F72CD9607678DAD814C231FB44C48D16B5AC955A90D40B7022D270A919B9F240C1DB19C331498A4CADB7C5A93061090F366F41E9C2AD67FDA56DA03C4C
310
19406B2C83E41E729A0A4CACA9D25615089D9AA06061982B0BDC975A0D36459406384A8A5884DA63536CF201714658225095D4B4616BAFD564B774B72B32085EAD24E70690CA9F35E1D2C20710C7DAF8E564C73124D1240E28E4607096D6138C032AF0CEF39C11B60B28634514EC28833C1244383D41BFA304F5CCF544DE5E
310
12BE6D25685A96F6496D43027005AC064967AB32E62B9D72F24C459929F399CE06C60E55875AD3C189742132450BA0DA18A599CFAEAEAFC683C5C8EE5F79237BB0F447F66DAF3FB7EFE6CB5BBFDFBBEBCFFD5E934F1DADEAF90E5429CA1CC3FFF2C722DAC49832B821C4C6DBF4C347993D6F5C088DEED560B6BCF3474B7B3C
310
BE9AD983C1C8B367B3EB3BFB6EE6DDFA4B7F7E3D9CCD5D4EB2A4E021C9DC9EEB05DA24D3787F8A2BCDDD710C85B2E672B2D3FA6A0AF33F8EA1CD9C6028F1770DA255EC6A2908BB0651F1683384E2F049A4A82084AAAFD57D1A41B4C9475B9C7B675CF69CBE273FBE3FEE79E3DEF5785419FBD9402DCFF9E138D72641087D67
310
9107498A439AB727D4062E1DE3F4BB728BD3F78708D0A9FE57879CCF33EA908046784F821D165D424B60BC24416B0EDBB324CB684C32D9E51D557F0D9A9E03C59499735B8C9066414472FC3DF627DB86864D436C6601F4A3B998085CAC0A2A83561DC8298AA2FB85C42DE57F0B321CA5ACEC742F61704828BAC769B338C1B4
310
38E219EC2DC079E06D891C5C5CA25EB1AFEB8356AD35A98FBF9BFC0978745DF30BE1D147742F9D9CA13F169F6B082AA3A1DFBF6ADAE229ACF451B9E8E358019D67F816BC10BA7FEC546876D349AD642B8BEA9C44D0C6E2BCE09DFC7534F48E0E5271A1E110B593DE591CCAFE4D7770809E6CE04E95B7B563A00EA531CCB93A
310
09722445AB5AA42EE44C4F8CAEDEE1D7671DA34EF587E3E52FAF98EBCE17C9E1CF651CA05A2E03B08A3E464DDD5A751BF550F682F31002E95A7EDB33F0882DD91E1A33835C5B89AEEBD34BD5F34A04D40826B658C4D90771C1BE62503574CF997B5F166D6EB9BE1289CD81E1F4810F836993D6E7FB75830AAC747EFA8BC088
310
BC3428A8D5B9E886CF90FAB63AF4FC0D0A4AA26FAB338FFF161D8556606D8C06D3E02C611486F2648BF62481EC0D63870EDD068F4826B33218AF0A52FA8D4087A79FCB996A8E374C3F1D3E62184C33D58B15210C452163DE586A1DFD016350318994C329E709DA3015C32C54707A6381C5E614BA2D6703E32C393C94D41BE3
310
4A706C1CEF45BE2F9FAA7E1F1E13E840543AC855EDE9828B92CC7026286C53F99E00AABEF2C674F2FDA26B7610CEE17253E49530878583340A04FD42A0140EA67E4F0ADE572828CECBE53B728F0149A7C9FC593B28A9DA39E67B395EAFE17DBBF8E28AC9F8EA334A59B117EA3CD7FD1A946CD175B3A29C424DC03094982916
310
35E4FC83FB8527F08A29424B0A46E0CE93284A62F5E356BDA242EB4778E1B475F5B00F1A78CF1FBAB2FF5703FD608333E2E06DF6040BA0544EC554B404D7507D15476BAAD7BA105A80C78CFDAB055255516D36520FB8021839CD47E042E22D8E7098FA86DAE811BC00B892370F177A61E272187F4FFF03504B030414000608
310
0800B273144786B73F8A3E01000046050000300000006662782F37444232363938382D333236432D343038312D414635342D3233464244343334303545392F636E782E786D6CCD94CB4EC33010457FC5F23E4F1E2A95E34A2CF80216889DE34C8369E289EC09A27F8F5DDC0242452C2AB53B6B7C47BA67E66AC4EA7D1CD81B
310
386FD036BCCA4BCEC06AEC8CED1B3ED33A5B70B692C221D2371967568DD0F058E652F40EE729953A58AB7988D5C1D84D2A2A2267DA99C073A607E57DC3BD7E8151E56A26ECC06FF24E91CAABDC81C7D96908FD644648FDDA8122E8B8ACCBEA262B17595D3E56D7CBFA6E7975FB2C8AA894A2451C92DE58028713D3181E3698
310
294511BFA5989D499A48C0E597B3BC355614E15F0A1FDCDA3EE9683B45DD340D462B0A632A5013501644A046517C8AA52822EF0FEA87FBA7BD03D619079AD06DCF3480EAD8000EC6F29084FFF1EF847F6363FB1A70CFB5EDA3B0C9D6C950F769F521AEBFF71F52A46C3F5C5EE80FC64E9FF9704AC8E8CB43DEFB3A1171B13B
310
7961E9F102CA0F504B0304140006080800B2731447596175D87F000000A30000000B0000006662782F636E782E786D6C4D8CD10E822018465F85FDF714021A6E80CBCCF77089CE89D0485A8F1F342FBAFAB6B3EF1CD97C368BDE26BC16EF14142702C8B8871F17372B88FB8405A046CBE0FDFE7703E486CD28C818B49C838F
310
CF038D661AA2CDD42E6E3DE0A56B69550B8119AD6E981351E06B5F724C59DF769C7152DEEB649CB392E6D74B9BF3FA0B504B0304140006080800B2731447A6D797065F0000008200000007000000636E782E786D6C4DCB3B0E80201045D1AD90E9FD7516806B51190811670C8A61F982B1B0BAC9C97B72CA7B1037C6D33329
310
18DA1E04D2CAC69353902EDB8C20262D23F3F59B81A079470595414B17391D1F19B4730A5583A7ED43BBE4025D9592775E5ADFFA01504B0304140006080800B27314474FEB6A7CA0000000F4000000130000005B436F6E74656E745F54797065735D2E786D6C7D8F4B0EC2300C44AF1279DFA6B0400835ED02B8011730C16D
310
239A8F121795DB93D02D6269CFBC19BBED573B8B17C564BC53B0AB1B10E4B47F18372A5878A88E20FAAEBDBD032591BD2E299898C349CAA427B2986A1FC86565F0D122E7318E32A07EE24872DF3407A9BD63725C71C980AEBDD080CBCCE2BAE6F5D69B7110E7CD57AA146008B3D1C8F92C5954F993BB1BF787F39A89ABC491
310
D09600F9FDA2FB00504B0304140006080800B27314473DEE336E64000000790000001B0000006175746F6465736B2D64657369676E2D7061636B6167652E786D6C35CBC10E83200C00D05F21DCA56CA76D41FC96062B120735B69A7DBE268BB7777961F8D5AF396893C2ADB70FE7ADA196782C2DF776D7A97B5933C430F156
310
51E5469C55D70F80A4992A3ADC954792C525AE70A1E4D6AD9816CC044FEFDF01FE3FDE907802504B0304140006080800B2731447DE2265BBF9000000960100003B0000006662782F37444232363938382D333236432D343038312D414635342D3233464244343334303545392F7265736F75726365732F636F72652E786D6C
310
8550CB6E833010FC15B47703C6D042641CA54AFB053DF566990DB1126CE447D5CFAF1DA8D49E7ADAD5ECCCECEEF0E3D7722F3ED1796DCD08B4ACA140A3ECA4CD3C420C17D2437114DC591B7ED1A03072C111320C82CFCEC675879435014D468D9D7007A5F718A050F7D48CE0D5151759CA1812C3DFCA55AA9B9CB1A4E5C613
310
3C463DED523D25377DD1E840BCB66F03656D4B5E1A7622EDB9EEC830742D19187DEE1B76A6DD89F12A8B050F7AF9D9AE1CCA801388A6A61DA97BD2D4EFB43D34C3813D7DF02A3305F7C1A59FF7A5F93B100EBD8D4EA1E7D536FDE31AD7E97FD7A84D60CDEEBA293C089A8E7C0C04AF724AA93C224C35272ABE01504B030414
310
0006080800B27314478D9055F4F3000000B1010000310000006662782F37444232363938382D333236432D343038312D414635342D3233464244343334303545392F636F72652E786D6C8D50CB6EC32010FC156BEFD8801F75224CD434CD17F4D41B02E2A0C46019A8FAF985D895DA5B4E8B666798D96187EFE95E7CE9C51B
310
6707202586425BE994B1E300315C500FC581B3C5B9F087068515931E20C3C0D9B8B8386F907436689B51EB94DE40E1BD0E50C87B7A0CE0E5554FA214312486BF95B3903731EA92942B8FB360A65FA95CB4085A01A798B408F788E20FD2ECE96E5F779FACCA4CCE62346AB3322AB99B8BD10BF097D39176BBBE4735EDDE5083
310
7B825ECF6D83687D3E9E9ABAC1EDFB8E5559CC990F4BBA79FB245FF7AC7C15FECB1C67F5446663434D37C355E1819394E7B1E0ACCA05A6F16837CD5C36FF01504B0304140006080800B2731447B46FACFA53010000DD0200000C0000006662782F636F72652E786D6C8D52DB6E842014FC15C33B2AA8EDBA4136DB6CFB057D
310
EA1B8BAC25AB6010CC7E7EC14BAC0FBDC404C99C7366CE4C20A747D746A33083D4AA02284E412414D7B5544D059CBDC103884E9418ADEDB7361029D6890A041850D218EDFA05E25A59A102AA742D16900D83B020E2ADBF5460E09FA2633173D6770CF7B867FCCE1A11A378EEA3C439592FA3B2F66CF2268501F4357F2B5196
310
E7F0056767985FD202966591C33243CF079C5D5071CE48128629B1B25BD5B911CC8A1A509CA202A60788D377941F7179CC9E3E48123A2919ACF19E17D1E00ED0DBF5419219DFF1B9BEFE9BCF496533BCF0CD1303A0C8AF37152849423EFE3785B7CFD00BFBFC2CBBB6AB85BB8746C1AD36B9AFD4DA6DA591B54E78EA349A3E
310
92CC55CF3C11FCC4837FE1F99DC307C554E35763D65FAFCE06F5FD4EBD3070B48F4869D3B1765B6E5E713B37A19DA5759CEB569BFF4CAF56D73093F030E917504B0304140006080800B27314479B51333807010000B201000008000000636F72652E786D6C8D50CB6EC32010FC15B4776C63ECD68E3051AAB45FD0536FD410
310
17C5068B47D4FE7D2176A5F6D6D3A299D99D61D8F17399D14D39AFAD198014152065462BB5990688E1823B4047CE9CB5E1970C90118B1A20C3C0D9E46C5C7768B42628935163A5DA41E1BD0A80C6393D06F0E3875A442162480A7F2D56315EC5A40A526C3ACE825E7E5647A7445012785D9116571DAEAB57D21CEAFE401FDE
310
5899959CC5A8E56EA56572D717AD1CF0E7E6A527B469F0534D4FB839572DEEFBB6C13D258F5D4DCFA43D5156E665CE7C70E9CFFB919433202F6ED997951BC5D9BBB5F32E48A124B266FE025EB132137F42C755FE23B43681D6FBC16DC3032729D09D48C6B9C134EEF5A699DBE6DF504B01021400140006080800B273144700
310
00000000000000000000003700000000000000000000000000000000006662782F37444232363938382D333236432D343038312D414635342D3233464244343334303545392F617474726962757465732E62696E504B01021400140006080800B2731447000000000000000000000000350000000000000000000000000055
310
0000006662782F37444232363938382D333236432D343038312D414635342D3233464244343334303545392F76657274696365732E62696E504B01021400140006080800B2731447F270F13306000000040000003600000000000000000000000000A80000006662782F37444232363938382D333236432D343038312D4146
310
35342D3233464244343334303545392F747269616E676C65732E62696E504B01021400140006080800B273144751464CB489000000430100003600000000000000000000000000020100006662782F37444232363938382D333236432D343038312D414635342D3233464244343334303545392F6469726563746F72792E78
310
6D6C504B01021400140006080800B273144761666D84340700001A1C00003400000000000000000000000000DF0100006662782F37444232363938382D333236432D343038312D414635342D3233464244343334303545392F6F626A656374732E786D6C504B01021400140006080800B273144786B73F8A3E010000460500
310
003000000000000000000000000000650900006662782F37444232363938382D333236432D343038312D414635342D3233464244343334303545392F636E782E786D6C504B01021400140006080800B2731447596175D87F000000A30000000B00000000000000000000000000F10A00006662782F636E782E786D6C504B01
310
021400140006080800B2731447A6D797065F000000820000000700000000000000000000000000990B0000636E782E786D6C504B01021400140006080800B27314474FEB6A7CA0000000F400000013000000000000000000000000001D0C00005B436F6E74656E745F54797065735D2E786D6C504B01021400140006080800
310
B27314473DEE336E64000000790000001B00000000000000000000000000EE0C00006175746F6465736B2D64657369676E2D7061636B6167652E786D6C504B01021400140006080800B2731447DE2265BBF9000000960100003B000000000000000000000000008B0D00006662782F37444232363938382D333236432D3430
310
38312D414635342D3233464244343334303545392F7265736F75726365732F636F72652E786D6C504B01021400140006080800B27314478D9055F4F3000000B10100003100000000000000000000000000DD0E00006662782F37444232363938382D333236432D343038312D414635342D3233464244343334303545392F63
310
6F72652E786D6C504B01021400140006080800B2731447B46FACFA53010000DD0200000C000000000000000000000000001F1000006662782F636F72652E786D6C504B01021400140006080800B27314479B51333807010000B201000008000000000000000000000000009C110000636F72652E786D6C504B050600000000
310
0E000E0080040000C91200000000
  0
XRECORD
  5
94D6
102
{ACAD_REACTORS
330
94D1
102
}
330
94D1
100
AcDbXrecord
280
     1
270
     1
271
     1
  0
XRECORD
  5
94D5
102
{ACAD_REACTORS
330
94D1
102
}
330
94D1
100
AcDbXrecord
280
     1
270
     1
271
     1
  0
XRECORD
  5
94D7
102
{ACAD_REACTORS
330
94D1
102
}
330
94D1
100
AcDbXrecord
280
     1
270
     1
271
     1
  0
XRECORD
  5
94D4
102
{ACAD_REACTORS
330
94D1
102
}
330
94D1
100
AcDbXrecord
280
     1
270
     1
271
     1
  0
XRECORD
  5
9759
102
{ACAD_REACTORS
330
9758
102
}
330
9758
100
AcDbXrecord
280
     1
102
DISPLAYNAME
  1
Imperial24
102
FLAGS
 90
        0
  0
CELLSTYLEMAP
  5
A191
102
{ACAD_REACTORS
330
971D
102
}
330
971D
100
AcDbCellStyleMap
 90
        3
300
CELLSTYLE
  1
TABLEFORMAT_BEGIN
 90
        5
170
     1
 91
        0
 92
    32768
 62
   257
 93
        1
300
CONTENTFORMAT
  1
CONTENTFORMAT_BEGIN
 90
        0
 91
        0
 92
      512
 93
        0
300

 40
0.0
140
1.0
 94
        5
 62
     0
340
11
144
0.25
309
CONTENTFORMAT_END
171
     1
301
MARGIN
  1
CELLMARGIN_BEGIN
 40
0.06
 40
0.06
 40
0.06
 40
0.06
 40
0.18
 40
0.18
309
CELLMARGIN_END
 94
        6
 95
        1
302
GRIDFORMAT
  1
GRIDFORMAT_BEGIN
 90
        0
 91
        1
 62
     0
 92
       -2
340
0
 93
        0
 40
0.045
309
GRIDFORMAT_END
 95
        2
302
GRIDFORMAT
  1
GRIDFORMAT_BEGIN
 90
        0
 91
        1
 62
     0
 92
       -2
340
0
 93
        0
 40
0.045
309
GRIDFORMAT_END
 95
        4
302
GRIDFORMAT
  1
GRIDFORMAT_BEGIN
 90
        0
 91
        1
 62
     0
 92
       -2
340
0
 93
        0
 40
0.045
309
GRIDFORMAT_END
 95
        8
302
GRIDFORMAT
  1
GRIDFORMAT_BEGIN
 90
        0
 91
        1
 62
     0
 92
       -2
340
0
 93
        0
 40
0.045
309
GRIDFORMAT_END
 95
       16
302
GRIDFORMAT
  1
GRIDFORMAT_BEGIN
 90
        0
 91
        1
 62
     0
 92
       -2
340
0
 93
        0
 40
0.045
309
GRIDFORMAT_END
 95
       32
302
GRIDFORMAT
  1
GRIDFORMAT_BEGIN
 90
        0
 91
        1
 62
     0
 92
       -2
340
0
 93
        0
 40
0.045
309
GRIDFORMAT_END
309
TABLEFORMAT_END
  1
CELLSTYLE_BEGIN
 90
        1
 91
        1
300
_TITLE
309
CELLSTYLE_END
300
CELLSTYLE
  1
TABLEFORMAT_BEGIN
 90
        5
170
     1
 91
        0
 92
        0
 62
   257
 93
        1
300
CONTENTFORMAT
  1
CONTENTFORMAT_BEGIN
 90
        0
 91
        0
 92
      512
 93
        0
300

 40
0.0
140
1.0
 94
        5
 62
     0
340
11
144
0.18
309
CONTENTFORMAT_END
171
     1
301
MARGIN
  1
CELLMARGIN_BEGIN
 40
0.06
 40
0.06
 40
0.06
 40
0.06
 40
0.18
 40
0.18
309
CELLMARGIN_END
 94
        6
 95
        1
302
GRIDFORMAT
  1
GRIDFORMAT_BEGIN
 90
        0
 91
        1
 62
     0
 92
       -2
340
0
 93
        0
 40
0.045
309
GRIDFORMAT_END
 95
        2
302
GRIDFORMAT
  1
GRIDFORMAT_BEGIN
 90
        0
 91
        1
 62
     0
 92
       -2
340
0
 93
        0
 40
0.045
309
GRIDFORMAT_END
 95
        4
302
GRIDFORMAT
  1
GRIDFORMAT_BEGIN
 90
        0
 91
        1
 62
     0
 92
       -2
340
0
 93
        0
 40
0.045
309
GRIDFORMAT_END
 95
        8
302
GRIDFORMAT
  1
GRIDFORMAT_BEGIN
 90
        0
 91
        1
 62
     0
 92
       -2
340
0
 93
        0
 40
0.045
309
GRIDFORMAT_END
 95
       16
302
GRIDFORMAT
  1
GRIDFORMAT_BEGIN
 90
        0
 91
        1
 62
     0
 92
       -2
340
0
 93
        0
 40
0.045
309
GRIDFORMAT_END
 95
       32
302
GRIDFORMAT
  1
GRIDFORMAT_BEGIN
 90
        0
 91
        1
 62
     0
 92
       -2
340
0
 93
        0
 40
0.045
309
GRIDFORMAT_END
309
TABLEFORMAT_END
  1
CELLSTYLE_BEGIN
 90
        2
 91
        1
300
_HEADER
309
CELLSTYLE_END
300
CELLSTYLE
  1
TABLEFORMAT_BEGIN
 90
        5
170
     1
 91
        0
 92
        0
 62
   257
 93
        1
300
CONTENTFORMAT
  1
CONTENTFORMAT_BEGIN
 90
        0
 91
        0
 92
      512
 93
        0
300

 40
0.0
140
1.0
 94
        2
 62
     0
340
11
144
0.18
309
CONTENTFORMAT_END
171
     1
301
MARGIN
  1
CELLMARGIN_BEGIN
 40
0.06
 40
0.06
 40
0.06
 40
0.06
 40
0.18
 40
0.18
309
CELLMARGIN_END
 94
        6
 95
        1
302
GRIDFORMAT
  1
GRIDFORMAT_BEGIN
 90
        0
 91
        1
 62
     0
 92
       -2
340
0
 93
        0
 40
0.045
309
GRIDFORMAT_END
 95
        2
302
GRIDFORMAT
  1
GRIDFORMAT_BEGIN
 90
        0
 91
        1
 62
     0
 92
       -2
340
0
 93
        0
 40
0.045
309
GRIDFORMAT_END
 95
        4
302
GRIDFORMAT
  1
GRIDFORMAT_BEGIN
 90
        0
 91
        1
 62
     0
 92
       -2
340
0
 93
        0
 40
0.045
309
GRIDFORMAT_END
 95
        8
302
GRIDFORMAT
  1
GRIDFORMAT_BEGIN
 90
        0
 91
        1
 62
     0
 92
       -2
340
0
 93
        0
 40
0.045
309
GRIDFORMAT_END
 95
       16
302
GRIDFORMAT
  1
GRIDFORMAT_BEGIN
 90
        0
 91
        1
 62
     0
 92
       -2
340
0
 93
        0
 40
0.045
309
GRIDFORMAT_END
 95
       32
302
GRIDFORMAT
  1
GRIDFORMAT_BEGIN
 90
        0
 91
        1
 62
     0
 92
       -2
340
0
 93
        0
 40
0.045
309
GRIDFORMAT_END
309
TABLEFORMAT_END
  1
CELLSTYLE_BEGIN
 90
        3
 91
        2
300
_DATA
309
CELLSTYLE_END
  0
XRECORD
  5
A19C
102
{ACAD_REACTORS
330
971D
102
}
330
971D
100
AcDbXrecord
280
     1
102
ACAD_ROUNDTRIP_PRE2007_TABLESTYLE
 90
      512
 91
        0
  1

 92
      512
 93
        0
  2

 94
      512
 95
        0
  3

  0
XRECORD
  5
9733
102
{ACAD_REACTORS
330
9732
102
}
330
9732
100
AcDbXrecord
280
     1
102
RTVSPost2010Prop28
280
     1
102
RTVSPost2010PropOp28
 70
     1
102
RTVSPost2010Prop29
280
     1
102
RTVSPost2010PropOp29
 70
     1
102
RTVSPost2010Prop30
280
     0
102
RTVSPost2010PropOp30
 70
     1
102
RTVSPost2010Prop31
280
     0
102
RTVSPost2010PropOp31
 70
     1
102
RTVSPost2010Prop32
280
     0
102
RTVSPost2010PropOp32
 70
     1
102
RTVSPost2010Prop33
280
     0
102
RTVSPost2010PropOp33
 70
     1
102
RTVSPost2010Prop34
280
     0
102
RTVSPost2010PropOp34
 70
     1
102
RTVSPost2010Prop35
280
     0
102
RTVSPost2010PropOp35
 70
     1
102
RTVSPost2010Prop36
280
     0
102
RTVSPost2010PropOp36
 70
     1
102
RTVSPost2010Prop37
 90
       50
102
RTVSPost2010PropOp37
 70
     1
102
RTVSPost2010Prop38
140
0.0
102
RTVSPost2010PropOp38
 70
     1
102
RTVSPost2010Prop39
140
1.0
102
RTVSPost2010PropOp39
 70
     1
102
RTVSPost2010Prop40
 90
        0
102
RTVSPost2010PropOp40
 70
     1
102
RTVSPost2010Prop41ColorIndex
 90
       18
102
RTVSPost2010Prop41ColorRGB
 90
        0
102
RTVSPost2010PropOp41
 70
     1
102
RTVSPost2010Prop42
 90
       50
102
RTVSPost2010PropOp42
 70
     1
102
RTVSPost2010Prop43
 90
        3
102
RTVSPost2010PropOp43
 70
     1
102
RTVSPost2010Prop44ColorIndex
 90
        5
102
RTVSPost2010Prop44ColorRGB
 90
      255
102
RTVSPost2010PropOp44
 70
     1
102
RTVSPost2010Prop45
280
     0
102
RTVSPost2010PropOp45
 70
     1
102
RTVSPost2010Prop46
 90
       50
102
RTVSPost2010PropOp46
 70
     1
102
RTVSPost2010Prop47
 90
       50
102
RTVSPost2010PropOp47
 70
     1
102
RTVSPost2010Prop48
 90
       50
102
RTVSPost2010PropOp48
 70
     1
102
RTVSPost2010Prop49
280
     0
102
RTVSPost2010PropOp49
 70
     1
102
RTVSPost2010Prop50
 90
       50
102
RTVSPost2010PropOp50
 70
     1
102
RTVSPost2010Prop51ColorIndex
 90
      256
102
RTVSPost2010Prop51ColorRGB
 90
-16777216
102
RTVSPost2010PropOp51
 70
     0
102
RTVSPost2010Prop52
140
1.0
102
RTVSPost2010PropOp52
 70
     0
102
RTVSPost2010Prop53
 90
        2
102
RTVSPost2010PropOp53
 70
     1
102
RTVSPost2010Prop54
  1
strokes_ogs.tif
102
RTVSPost2010PropOp54
 70
     1
102
RTVSPost2010Prop55
280
     0
102
RTVSPost2010PropOp55
 70
     1
102
RTVSPost2010Prop56
140
1.0
102
RTVSPost2010PropOp56
 70
     1
102
RTVSPost2010Prop57
140
1.0
102
RTVSPost2010PropOp57
 70
     1
102
RTVSPropertyOp0
 70
     1
102
RTVSPropertyOp1
 70
     1
102
RTVSPropertyOp2
 70
     1
102
RTVSPropertyOp3
 70
     1
102
RTVSPropertyOp4
 70
     1
102
RTVSPropertyOp5
 70
     1
102
RTVSPropertyOp6
 70
     1
102
RTVSPropertyOp7
 70
     1
102
RTVSPropertyOp8
 70
     1
102
RTVSPropertyOp9
 70
     1
102
RTVSPropertyOp10
 70
     1
102
RTVSPropertyOp11
 70
     1
102
RTVSPropertyOp12
 70
     1
102
RTVSPropertyOp13
 70
     1
102
RTVSPropertyOp14
 70
     1
102
RTVSPropertyOp15
 70
     1
102
RTVSPropertyOp16
 70
     1
102
RTVSPropertyOp17
 70
     1
102
RTVSPropertyOp18
 70
     1
102
RTVSPropertyOp19
 70
     1
102
RTVSPropertyOp20
 70
     1
102
RTVSPropertyOp21
 70
     1
102
RTVSPropertyOp22
 70
     1
102
RTVSPropertyOp23
 70
     1
102
RTVSPropertyOp24
 70
     1
102
RTVSPropertyOp25
 70
     1
102
RTVSPropertyOp26
 70
     1
102
RTVSPropertyOp27
 70
     1
  0
XRECORD
  5
A1A0
102
{ACAD_REACTORS
330
A19F
102
}
330
A19F
100
AcDbXrecord
280
     1
102
RTVSPropertyOp0
 70
     1
102
RTVSPropertyOp1
 70
     1
102
RTVSPropertyOp2
 70
     1
102
RTVSPropertyOp3
 70
     1
102
RTVSPropertyOp4
 70
     1
102
RTVSPropertyOp5
 70
     1
102
RTVSPropertyOp6
 70
     1
102
RTVSPropertyOp7
 70
     1
102
RTVSPropertyOp8
 70
     1
102
RTVSPropertyOp9
 70
     1
102
RTVSPropertyOp10
 70
     1
102
RTVSPropertyOp11
 70
     1
102
RTVSPropertyOp12
 70
     1
102
RTVSPropertyOp13
 70
     1
102
RTVSPropertyOp14
 70
     1
102
RTVSPropertyOp15
 70
     1
102
RTVSPropertyOp16
 70
     1
102
RTVSPropertyOp17
 70
     1
102
RTVSPropertyOp18
 70
     1
102
RTVSPropertyOp19
 70
     1
102
RTVSPropertyOp20
 70
     1
102
RTVSPropertyOp21
 70
     1
102
RTVSPropertyOp22
 70
     1
102
RTVSPropertyOp23
 70
     1
102
RTVSPropertyOp24
 70
     1
102
RTVSPropertyOp25
 70
     1
102
RTVSPropertyOp26
 70
     1
102
RTVSPropertyOp27
 70
     1
  0
XRECORD
  5
A19E
102
{ACAD_REACTORS
330
A19D
102
}
330
A19D
100
AcDbXrecord
280
     1
102
RTVSPropertyOp0
 70
     1
102
RTVSPropertyOp1
 70
     1
102
RTVSPropertyOp2
 70
     1
102
RTVSPropertyOp3
 70
     1
102
RTVSPropertyOp4
 70
     1
102
RTVSPropertyOp5
 70
     1
102
RTVSPropertyOp6
 70
     1
102
RTVSPropertyOp7
 70
     1
102
RTVSPropertyOp8
 70
     1
102
RTVSPropertyOp9
 70
     1
102
RTVSPropertyOp10
 70
     1
102
RTVSPropertyOp11
 70
     1
102
RTVSPropertyOp12
 70
     1
102
RTVSPropertyOp13
 70
     1
102
RTVSPropertyOp14
 70
     1
102
RTVSPropertyOp15
 70
     1
102
RTVSPropertyOp16
 70
     1
102
RTVSPropertyOp17
 70
     1
102
RTVSPropertyOp18
 70
     1
102
RTVSPropertyOp19
 70
     1
102
RTVSPropertyOp20
 70
     1
102
RTVSPropertyOp21
 70
     1
102
RTVSPropertyOp22
 70
     1
102
RTVSPropertyOp23
 70
     1
102
RTVSPropertyOp24
 70
     1
102
RTVSPropertyOp25
 70
     1
102
RTVSPropertyOp26
 70
     1
102
RTVSPropertyOp27
 70
     1
  0
XRECORD
  5
9731
102
{ACAD_REACTORS
330
9730
102
}
330
9730
100
AcDbXrecord
280
     1
102
RTVSPost2010Prop28
280
     0
102
RTVSPost2010PropOp28
 70
     1
102
RTVSPost2010Prop29
280
     1
102
RTVSPost2010PropOp29
 70
     1
102
RTVSPost2010Prop30
280
     1
102
RTVSPost2010PropOp30
 70
     1
102
RTVSPost2010Prop31
280
     0
102
RTVSPost2010PropOp31
 70
     1
102
RTVSPost2010Prop32
280
     0
102
RTVSPost2010PropOp32
 70
     1
102
RTVSPost2010Prop33
280
     0
102
RTVSPost2010PropOp33
 70
     1
102
RTVSPost2010Prop34
280
     0
102
RTVSPost2010PropOp34
 70
     1
102
RTVSPost2010Prop35
280
     0
102
RTVSPost2010PropOp35
 70
     1
102
RTVSPost2010Prop36
280
     0
102
RTVSPost2010PropOp36
 70
     1
102
RTVSPost2010Prop37
 90
       50
102
RTVSPost2010PropOp37
 70
     1
102
RTVSPost2010Prop38
140
0.0
102
RTVSPost2010PropOp38
 70
     1
102
RTVSPost2010Prop39
140
1.0
102
RTVSPost2010PropOp39
 70
     1
102
RTVSPost2010Prop40
 90
        0
102
RTVSPost2010PropOp40
 70
     1
102
RTVSPost2010Prop41ColorIndex
 90
       18
102
RTVSPost2010Prop41ColorRGB
 90
        0
102
RTVSPost2010PropOp41
 70
     1
102
RTVSPost2010Prop42
 90
       50
102
RTVSPost2010PropOp42
 70
     1
102
RTVSPost2010Prop43
 90
        3
102
RTVSPost2010PropOp43
 70
     1
102
RTVSPost2010Prop44ColorIndex
 90
        5
102
RTVSPost2010Prop44ColorRGB
 90
      255
102
RTVSPost2010PropOp44
 70
     1
102
RTVSPost2010Prop45
280
     0
102
RTVSPost2010PropOp45
 70
     1
102
RTVSPost2010Prop46
 90
       50
102
RTVSPost2010PropOp46
 70
     1
102
RTVSPost2010Prop47
 90
       50
102
RTVSPost2010PropOp47
 70
     1
102
RTVSPost2010Prop48
 90
       50
102
RTVSPost2010PropOp48
 70
     1
102
RTVSPost2010Prop49
280
     0
102
RTVSPost2010PropOp49
 70
     1
102
RTVSPost2010Prop50
 90
       50
102
RTVSPost2010PropOp50
 70
     1
102
RTVSPost2010Prop51ColorIndex
 90
      256
102
RTVSPost2010Prop51ColorRGB
 90
-16777216
102
RTVSPost2010PropOp51
 70
     0
102
RTVSPost2010Prop52
140
1.0
102
RTVSPost2010PropOp52
 70
     0
102
RTVSPost2010Prop53
 90
        2
102
RTVSPost2010PropOp53
 70
     1
102
RTVSPost2010Prop54
  1
strokes_ogs.tif
102
RTVSPost2010PropOp54
 70
     1
102
RTVSPost2010Prop55
280
     0
102
RTVSPost2010PropOp55
 70
     1
102
RTVSPost2010Prop56
140
1.0
102
RTVSPost2010PropOp56
 70
     1
102
RTVSPost2010Prop57
140
1.0
102
RTVSPost2010PropOp57
 70
     1
102
RTVSPropertyOp0
 70
     1
102
RTVSPropertyOp1
 70
     1
102
RTVSPropertyOp2
 70
     1
102
RTVSPropertyOp3
 70
     1
102
RTVSPropertyOp4
 70
     1
102
RTVSPropertyOp5
 70
     1
102
RTVSPropertyOp6
 70
     1
102
RTVSPropertyOp7
 70
     1
102
RTVSPropertyOp8
 70
     1
102
RTVSPropertyOp9
 70
     1
102
RTVSPropertyOp10
 70
     1
102
RTVSPropertyOp11
 70
     1
102
RTVSPropertyOp12
 70
     1
102
RTVSPropertyOp13
 70
     1
102
RTVSPropertyOp14
 70
     1
102
RTVSPropertyOp15
 70
     1
102
RTVSPropertyOp16
 70
     1
102
RTVSPropertyOp17
 70
     1
102
RTVSPropertyOp18
 70
     1
102
RTVSPropertyOp19
 70
     1
102
RTVSPropertyOp20
 70
     1
102
RTVSPropertyOp21
 70
     1
102
RTVSPropertyOp22
 70
     1
102
RTVSPropertyOp23
 70
     1
102
RTVSPropertyOp24
 70
     1
102
RTVSPropertyOp25
 70
     1
102
RTVSPropertyOp26
 70
     1
102
RTVSPropertyOp27
 70
     1
  0
XRECORD
  5
973F
102
{ACAD_REACTORS
330
973E
102
}
330
973E
100
AcDbXrecord
280
     1
102
RTVSPost2010Prop28
280
     0
102
RTVSPost2010PropOp28
 70
     1
102
RTVSPost2010Prop29
280
     1
102
RTVSPost2010PropOp29
 70
     1
102
RTVSPost2010Prop30
280
     1
102
RTVSPost2010PropOp30
 70
     1
102
RTVSPost2010Prop31
280
     0
102
RTVSPost2010PropOp31
 70
     1
102
RTVSPost2010Prop32
280
     0
102
RTVSPost2010PropOp32
 70
     1
102
RTVSPost2010Prop33
280
     0
102
RTVSPost2010PropOp33
 70
     1
102
RTVSPost2010Prop34
280
     0
102
RTVSPost2010PropOp34
 70
     1
102
RTVSPost2010Prop35
280
     0
102
RTVSPost2010PropOp35
 70
     1
102
RTVSPost2010Prop36
280
     0
102
RTVSPost2010PropOp36
 70
     1
102
RTVSPost2010Prop37
 90
       50
102
RTVSPost2010PropOp37
 70
     1
102
RTVSPost2010Prop38
140
0.0
102
RTVSPost2010PropOp38
 70
     1
102
RTVSPost2010Prop39
140
1.0
102
RTVSPost2010PropOp39
 70
     1
102
RTVSPost2010Prop40
 90
        0
102
RTVSPost2010PropOp40
 70
     1
102
RTVSPost2010Prop41ColorIndex
 90
       18
102
RTVSPost2010Prop41ColorRGB
 90
        0
102
RTVSPost2010PropOp41
 70
     1
102
RTVSPost2010Prop42
 90
       50
102
RTVSPost2010PropOp42
 70
     1
102
RTVSPost2010Prop43
 90
        3
102
RTVSPost2010PropOp43
 70
     1
102
RTVSPost2010Prop44ColorIndex
 90
        5
102
RTVSPost2010Prop44ColorRGB
 90
      255
102
RTVSPost2010PropOp44
 70
     1
102
RTVSPost2010Prop45
280
     0
102
RTVSPost2010PropOp45
 70
     1
102
RTVSPost2010Prop46
 90
       50
102
RTVSPost2010PropOp46
 70
     1
102
RTVSPost2010Prop47
 90
       50
102
RTVSPost2010PropOp47
 70
     1
102
RTVSPost2010Prop48
 90
       50
102
RTVSPost2010PropOp48
 70
     1
102
RTVSPost2010Prop49
280
     0
102
RTVSPost2010PropOp49
 70
     1
102
RTVSPost2010Prop50
 90
       50
102
RTVSPost2010PropOp50
 70
     1
102
RTVSPost2010Prop51ColorIndex
 90
      256
102
RTVSPost2010Prop51ColorRGB
 90
-16777216
102
RTVSPost2010PropOp51
 70
     0
102
RTVSPost2010Prop52
140
1.0
102
RTVSPost2010PropOp52
 70
     0
102
RTVSPost2010Prop53
 90
        2
102
RTVSPost2010PropOp53
 70
     1
102
RTVSPost2010Prop54
  1
strokes_ogs.tif
102
RTVSPost2010PropOp54
 70
     1
102
RTVSPost2010Prop55
280
     0
102
RTVSPost2010PropOp55
 70
     1
102
RTVSPost2010Prop56
140
1.0
102
RTVSPost2010PropOp56
 70
     1
102
RTVSPost2010Prop57
140
1.0
102
RTVSPost2010PropOp57
 70
     1
102
RTVSPropertyOp0
 70
     1
102
RTVSPropertyOp1
 70
     1
102
RTVSPropertyOp2
 70
     1
102
RTVSPropertyOp3
 70
     1
102
RTVSPropertyOp4
 70
     1
102
RTVSPropertyOp5
 70
     1
102
RTVSPropertyOp6
 70
     1
102
RTVSPropertyOp7
 70
     1
102
RTVSPropertyOp8
 70
     1
102
RTVSPropertyOp9
 70
     1
102
RTVSPropertyOp10
 70
     1
102
RTVSPropertyOp11
 70
     1
102
RTVSPropertyOp12
 70
     1
102
RTVSPropertyOp13
 70
     1
102
RTVSPropertyOp14
 70
     1
102
RTVSPropertyOp15
 70
     1
102
RTVSPropertyOp16
 70
     1
102
RTVSPropertyOp17
 70
     1
102
RTVSPropertyOp18
 70
     1
102
RTVSPropertyOp19
 70
     1
102
RTVSPropertyOp20
 70
     1
102
RTVSPropertyOp21
 70
     1
102
RTVSPropertyOp22
 70
     1
102
RTVSPropertyOp23
 70
     1
102
RTVSPropertyOp24
 70
     1
102
RTVSPropertyOp25
 70
     1
102
RTVSPropertyOp26
 70
     1
102
RTVSPropertyOp27
 70
     1
  0
XRECORD
  5
9747
102
{ACAD_REACTORS
330
9746
102
}
330
9746
100
AcDbXrecord
280
     1
102
RTVSPost2010Prop28
280
     0
102
RTVSPost2010PropOp28
 70
     1
102
RTVSPost2010Prop29
280
     1
102
RTVSPost2010PropOp29
 70
     1
102
RTVSPost2010Prop30
280
     1
102
RTVSPost2010PropOp30
 70
     1
102
RTVSPost2010Prop31
280
     0
102
RTVSPost2010PropOp31
 70
     1
102
RTVSPost2010Prop32
280
     0
102
RTVSPost2010PropOp32
 70
     1
102
RTVSPost2010Prop33
280
     0
102
RTVSPost2010PropOp33
 70
     1
102
RTVSPost2010Prop34
280
     0
102
RTVSPost2010PropOp34
 70
     1
102
RTVSPost2010Prop35
280
     0
102
RTVSPost2010PropOp35
 70
     1
102
RTVSPost2010Prop36
280
     0
102
RTVSPost2010PropOp36
 70
     1
102
RTVSPost2010Prop37
 90
       50
102
RTVSPost2010PropOp37
 70
     1
102
RTVSPost2010Prop38
140
0.0
102
RTVSPost2010PropOp38
 70
     1
102
RTVSPost2010Prop39
140
1.0
102
RTVSPost2010PropOp39
 70
     1
102
RTVSPost2010Prop40
 90
        0
102
RTVSPost2010PropOp40
 70
     1
102
RTVSPost2010Prop41ColorIndex
 90
       18
102
RTVSPost2010Prop41ColorRGB
 90
        0
102
RTVSPost2010PropOp41
 70
     1
102
RTVSPost2010Prop42
 90
       50
102
RTVSPost2010PropOp42
 70
     1
102
RTVSPost2010Prop43
 90
        3
102
RTVSPost2010PropOp43
 70
     1
102
RTVSPost2010Prop44ColorIndex
 90
        5
102
RTVSPost2010Prop44ColorRGB
 90
      255
102
RTVSPost2010PropOp44
 70
     1
102
RTVSPost2010Prop45
280
     0
102
RTVSPost2010PropOp45
 70
     1
102
RTVSPost2010Prop46
 90
       50
102
RTVSPost2010PropOp46
 70
     1
102
RTVSPost2010Prop47
 90
       50
102
RTVSPost2010PropOp47
 70
     1
102
RTVSPost2010Prop48
 90
       50
102
RTVSPost2010PropOp48
 70
     1
102
RTVSPost2010Prop49
280
     0
102
RTVSPost2010PropOp49
 70
     1
102
RTVSPost2010Prop50
 90
       50
102
RTVSPost2010PropOp50
 70
     1
102
RTVSPost2010Prop51ColorIndex
 90
      256
102
RTVSPost2010Prop51ColorRGB
 90
-16777216
102
RTVSPost2010PropOp51
 70
     0
102
RTVSPost2010Prop52
140
1.0
102
RTVSPost2010PropOp52
 70
     0
102
RTVSPost2010Prop53
 90
        2
102
RTVSPost2010PropOp53
 70
     1
102
RTVSPost2010Prop54
  1
strokes_ogs.tif
102
RTVSPost2010PropOp54
 70
     1
102
RTVSPost2010Prop55
280
     0
102
RTVSPost2010PropOp55
 70
     1
102
RTVSPost2010Prop56
140
1.0
102
RTVSPost2010PropOp56
 70
     1
102
RTVSPost2010Prop57
140
1.0
102
RTVSPost2010PropOp57
 70
     1
102
RTVSPropertyOp0
 70
     1
102
RTVSPropertyOp1
 70
     1
102
RTVSPropertyOp2
 70
     1
102
RTVSPropertyOp3
 70
     1
102
RTVSPropertyOp4
 70
     1
102
RTVSPropertyOp5
 70
     1
102
RTVSPropertyOp6
 70
     1
102
RTVSPropertyOp7
 70
     1
102
RTVSPropertyOp8
 70
     1
102
RTVSPropertyOp9
 70
     1
102
RTVSPropertyOp10
 70
     1
102
RTVSPropertyOp11
 70
     1
102
RTVSPropertyOp12
 70
     1
102
RTVSPropertyOp13
 70
     1
102
RTVSPropertyOp14
 70
     1
102
RTVSPropertyOp15
 70
     1
102
RTVSPropertyOp16
 70
     1
102
RTVSPropertyOp17
 70
     1
102
RTVSPropertyOp18
 70
     1
102
RTVSPropertyOp19
 70
     1
102
RTVSPropertyOp20
 70
     1
102
RTVSPropertyOp21
 70
     1
102
RTVSPropertyOp22
 70
     1
102
RTVSPropertyOp23
 70
     1
102
RTVSPropertyOp24
 70
     1
102
RTVSPropertyOp25
 70
     1
102
RTVSPropertyOp26
 70
     1
102
RTVSPropertyOp27
 70
     1
  0
XRECORD
  5
9739
102
{ACAD_REACTORS
330
9738
102
}
330
9738
100
AcDbXrecord
280
     1
102
RTVSPost2010Prop28
280
     0
102
RTVSPost2010PropOp28
 70
     1
102
RTVSPost2010Prop29
280
     1
102
RTVSPost2010PropOp29
 70
     1
102
RTVSPost2010Prop30
280
     1
102
RTVSPost2010PropOp30
 70
     1
102
RTVSPost2010Prop31
280
     0
102
RTVSPost2010PropOp31
 70
     1
102
RTVSPost2010Prop32
280
     0
102
RTVSPost2010PropOp32
 70
     1
102
RTVSPost2010Prop33
280
     0
102
RTVSPost2010PropOp33
 70
     1
102
RTVSPost2010Prop34
280
     0
102
RTVSPost2010PropOp34
 70
     1
102
RTVSPost2010Prop35
280
     0
102
RTVSPost2010PropOp35
 70
     1
102
RTVSPost2010Prop36
280
     0
102
RTVSPost2010PropOp36
 70
     1
102
RTVSPost2010Prop37
 90
       50
102
RTVSPost2010PropOp37
 70
     1
102
RTVSPost2010Prop38
140
0.0
102
RTVSPost2010PropOp38
 70
     1
102
RTVSPost2010Prop39
140
1.0
102
RTVSPost2010PropOp39
 70
     1
102
RTVSPost2010Prop40
 90
        0
102
RTVSPost2010PropOp40
 70
     1
102
RTVSPost2010Prop41ColorIndex
 90
       18
102
RTVSPost2010Prop41ColorRGB
 90
        0
102
RTVSPost2010PropOp41
 70
     1
102
RTVSPost2010Prop42
 90
       50
102
RTVSPost2010PropOp42
 70
     1
102
RTVSPost2010Prop43
 90
        3
102
RTVSPost2010PropOp43
 70
     1
102
RTVSPost2010Prop44ColorIndex
 90
        5
102
RTVSPost2010Prop44ColorRGB
 90
      255
102
RTVSPost2010PropOp44
 70
     1
102
RTVSPost2010Prop45
280
     0
102
RTVSPost2010PropOp45
 70
     1
102
RTVSPost2010Prop46
 90
       50
102
RTVSPost2010PropOp46
 70
     1
102
RTVSPost2010Prop47
 90
       50
102
RTVSPost2010PropOp47
 70
     1
102
RTVSPost2010Prop48
 90
       50
102
RTVSPost2010PropOp48
 70
     1
102
RTVSPost2010Prop49
280
     0
102
RTVSPost2010PropOp49
 70
     1
102
RTVSPost2010Prop50
 90
       50
102
RTVSPost2010PropOp50
 70
     1
102
RTVSPost2010Prop51ColorIndex
 90
      256
102
RTVSPost2010Prop51ColorRGB
 90
-16777216
102
RTVSPost2010PropOp51
 70
     0
102
RTVSPost2010Prop52
140
1.0
102
RTVSPost2010PropOp52
 70
     0
102
RTVSPost2010Prop53
 90
        2
102
RTVSPost2010PropOp53
 70
     1
102
RTVSPost2010Prop54
  1
strokes_ogs.tif
102
RTVSPost2010PropOp54
 70
     1
102
RTVSPost2010Prop55
280
     0
102
RTVSPost2010PropOp55
 70
     1
102
RTVSPost2010Prop56
140
1.0
102
RTVSPost2010PropOp56
 70
     1
102
RTVSPost2010Prop57
140
1.0
102
RTVSPost2010PropOp57
 70
     1
102
RTVSPropertyOp0
 70
     1
102
RTVSPropertyOp1
 70
     1
102
RTVSPropertyOp2
 70
     1
102
RTVSPropertyOp3
 70
     1
102
RTVSPropertyOp4
 70
     1
102
RTVSPropertyOp5
 70
     1
102
RTVSPropertyOp6
 70
     1
102
RTVSPropertyOp7
 70
     1
102
RTVSPropertyOp8
 70
     1
102
RTVSPropertyOp9
 70
     1
102
RTVSPropertyOp10
 70
     1
102
RTVSPropertyOp11
 70
     1
102
RTVSPropertyOp12
 70
     1
102
RTVSPropertyOp13
 70
     1
102
RTVSPropertyOp14
 70
     1
102
RTVSPropertyOp15
 70
     1
102
RTVSPropertyOp16
 70
     1
102
RTVSPropertyOp17
 70
     1
102
RTVSPropertyOp18
 70
     1
102
RTVSPropertyOp19
 70
     1
102
RTVSPropertyOp20
 70
     1
102
RTVSPropertyOp21
 70
     1
102
RTVSPropertyOp22
 70
     1
102
RTVSPropertyOp23
 70
     1
102
RTVSPropertyOp24
 70
     1
102
RTVSPropertyOp25
 70
     1
102
RTVSPropertyOp26
 70
     1
102
RTVSPropertyOp27
 70
     1
  0
XRECORD
  5
973D
102
{ACAD_REACTORS
330
973C
102
}
330
973C
100
AcDbXrecord
280
     1
102
RTVSPost2010Prop28
280
     0
102
RTVSPost2010PropOp28
 70
     1
102
RTVSPost2010Prop29
280
     1
102
RTVSPost2010PropOp29
 70
     1
102
RTVSPost2010Prop30
280
     1
102
RTVSPost2010PropOp30
 70
     1
102
RTVSPost2010Prop31
280
     0
102
RTVSPost2010PropOp31
 70
     1
102
RTVSPost2010Prop32
280
     0
102
RTVSPost2010PropOp32
 70
     1
102
RTVSPost2010Prop33
280
     0
102
RTVSPost2010PropOp33
 70
     1
102
RTVSPost2010Prop34
280
     0
102
RTVSPost2010PropOp34
 70
     1
102
RTVSPost2010Prop35
280
     0
102
RTVSPost2010PropOp35
 70
     1
102
RTVSPost2010Prop36
280
     0
102
RTVSPost2010PropOp36
 70
     1
102
RTVSPost2010Prop37
 90
       50
102
RTVSPost2010PropOp37
 70
     1
102
RTVSPost2010Prop38
140
0.0
102
RTVSPost2010PropOp38
 70
     1
102
RTVSPost2010Prop39
140
1.0
102
RTVSPost2010PropOp39
 70
     1
102
RTVSPost2010Prop40
 90
        0
102
RTVSPost2010PropOp40
 70
     1
102
RTVSPost2010Prop41ColorIndex
 90
       18
102
RTVSPost2010Prop41ColorRGB
 90
        0
102
RTVSPost2010PropOp41
 70
     1
102
RTVSPost2010Prop42
 90
       50
102
RTVSPost2010PropOp42
 70
     1
102
RTVSPost2010Prop43
 90
        3
102
RTVSPost2010PropOp43
 70
     1
102
RTVSPost2010Prop44ColorIndex
 90
        5
102
RTVSPost2010Prop44ColorRGB
 90
      255
102
RTVSPost2010PropOp44
 70
     1
102
RTVSPost2010Prop45
280
     0
102
RTVSPost2010PropOp45
 70
     1
102
RTVSPost2010Prop46
 90
       50
102
RTVSPost2010PropOp46
 70
     1
102
RTVSPost2010Prop47
 90
       50
102
RTVSPost2010PropOp47
 70
     1
102
RTVSPost2010Prop48
 90
       50
102
RTVSPost2010PropOp48
 70
     1
102
RTVSPost2010Prop49
280
     0
102
RTVSPost2010PropOp49
 70
     1
102
RTVSPost2010Prop50
 90
       50
102
RTVSPost2010PropOp50
 70
     1
102
RTVSPost2010Prop51ColorIndex
 90
      256
102
RTVSPost2010Prop51ColorRGB
 90
-16777216
102
RTVSPost2010PropOp51
 70
     0
102
RTVSPost2010Prop52
140
1.0
102
RTVSPost2010PropOp52
 70
     0
102
RTVSPost2010Prop53
 90
        2
102
RTVSPost2010PropOp53
 70
     1
102
RTVSPost2010Prop54
  1
strokes_ogs.tif
102
RTVSPost2010PropOp54
 70
     1
102
RTVSPost2010Prop55
280
     0
102
RTVSPost2010PropOp55
 70
     1
102
RTVSPost2010Prop56
140
1.0
102
RTVSPost2010PropOp56
 70
     1
102
RTVSPost2010Prop57
140
1.0
102
RTVSPost2010PropOp57
 70
     1
102
RTVSPropertyOp0
 70
     1
102
RTVSPropertyOp1
 70
     1
102
RTVSPropertyOp2
 70
     1
102
RTVSPropertyOp3
 70
     1
102
RTVSPropertyOp4
 70
     1
102
RTVSPropertyOp5
 70
     1
102
RTVSPropertyOp6
 70
     1
102
RTVSPropertyOp7
 70
     1
102
RTVSPropertyOp8
 70
     1
102
RTVSPropertyOp9
 70
     1
102
RTVSPropertyOp10
 70
     1
102
RTVSPropertyOp11
 70
     1
102
RTVSPropertyOp12
 70
     1
102
RTVSPropertyOp13
 70
     1
102
RTVSPropertyOp14
 70
     1
102
RTVSPropertyOp15
 70
     1
102
RTVSPropertyOp16
 70
     1
102
RTVSPropertyOp17
 70
     1
102
RTVSPropertyOp18
 70
     1
102
RTVSPropertyOp19
 70
     1
102
RTVSPropertyOp20
 70
     1
102
RTVSPropertyOp21
 70
     1
102
RTVSPropertyOp22
 70
     1
102
RTVSPropertyOp23
 70
     1
102
RTVSPropertyOp24
 70
     1
102
RTVSPropertyOp25
 70
     1
102
RTVSPropertyOp26
 70
     1
102
RTVSPropertyOp27
 70
     1
  0
XRECORD
  5
9757
102
{ACAD_REACTORS
330
9756
102
}
330
9756
100
AcDbXrecord
280
     1
102
RTVSPost2010Prop28
280
     0
102
RTVSPost2010PropOp28
 70
     1
102
RTVSPost2010Prop29
280
     1
102
RTVSPost2010PropOp29
 70
     1
102
RTVSPost2010Prop30
280
     1
102
RTVSPost2010PropOp30
 70
     1
102
RTVSPost2010Prop31
280
     0
102
RTVSPost2010PropOp31
 70
     1
102
RTVSPost2010Prop32
280
     0
102
RTVSPost2010PropOp32
 70
     1
102
RTVSPost2010Prop33
280
     0
102
RTVSPost2010PropOp33
 70
     1
102
RTVSPost2010Prop34
280
     0
102
RTVSPost2010PropOp34
 70
     1
102
RTVSPost2010Prop35
280
     0
102
RTVSPost2010PropOp35
 70
     1
102
RTVSPost2010Prop36
280
     0
102
RTVSPost2010PropOp36
 70
     1
102
RTVSPost2010Prop37
 90
       50
102
RTVSPost2010PropOp37
 70
     0
102
RTVSPost2010Prop38
140
0.0
102
RTVSPost2010PropOp38
 70
     0
102
RTVSPost2010Prop39
140
1.0
102
RTVSPost2010PropOp39
 70
     0
102
RTVSPost2010Prop40
 90
        0
102
RTVSPost2010PropOp40
 70
     0
102
RTVSPost2010Prop41ColorIndex
 90
       18
102
RTVSPost2010Prop41ColorRGB
 90
        0
102
RTVSPost2010PropOp41
 70
     0
102
RTVSPost2010Prop42
 90
       50
102
RTVSPost2010PropOp42
 70
     0
102
RTVSPost2010Prop43
 90
        3
102
RTVSPost2010PropOp43
 70
     0
102
RTVSPost2010Prop44ColorIndex
 90
        5
102
RTVSPost2010Prop44ColorRGB
 90
      255
102
RTVSPost2010PropOp44
 70
     0
102
RTVSPost2010Prop45
280
     0
102
RTVSPost2010PropOp45
 70
     1
102
RTVSPost2010Prop46
 90
       50
102
RTVSPost2010PropOp46
 70
     0
102
RTVSPost2010Prop47
 90
       50
102
RTVSPost2010PropOp47
 70
     0
102
RTVSPost2010Prop48
 90
       50
102
RTVSPost2010PropOp48
 70
     0
102
RTVSPost2010Prop49
280
     0
102
RTVSPost2010PropOp49
 70
     1
102
RTVSPost2010Prop50
 90
       50
102
RTVSPost2010PropOp50
 70
     0
102
RTVSPost2010Prop51ColorIndex
 90
      256
102
RTVSPost2010Prop51ColorRGB
 90
-16777216
102
RTVSPost2010PropOp51
 70
     0
102
RTVSPost2010Prop52
140
1.0
102
RTVSPost2010PropOp52
 70
     0
102
RTVSPost2010Prop53
 90
        2
102
RTVSPost2010PropOp53
 70
     0
102
RTVSPost2010Prop54
  1
strokes_ogs.tif
102
RTVSPost2010PropOp54
 70
     0
102
RTVSPost2010Prop55
280
     0
102
RTVSPost2010PropOp55
 70
     1
102
RTVSPost2010Prop56
140
1.0
102
RTVSPost2010PropOp56
 70
     0
102
RTVSPost2010Prop57
140
1.0
102
RTVSPost2010PropOp57
 70
     0
102
RTVSPropertyOp0
 70
     0
102
RTVSPropertyOp1
 70
     0
102
RTVSPropertyOp2
 70
     0
102
RTVSPropertyOp3
 70
     0
102
RTVSPropertyOp4
 70
     0
102
RTVSPropertyOp5
 70
     0
102
RTVSPropertyOp6
 70
     0
102
RTVSPropertyOp7
 70
     0
102
RTVSPropertyOp8
 70
     0
102
RTVSPropertyOp9
 70
     0
102
RTVSPropertyOp10
 70
     0
102
RTVSPropertyOp11
 70
     0
102
RTVSPropertyOp12
 70
     0
102
RTVSPropertyOp13
 70
     0
102
RTVSPropertyOp14
 70
     2
102
RTVSPropertyOp15
 70
     0
102
RTVSPropertyOp16
 70
     0
102
RTVSPropertyOp17
 70
     0
102
RTVSPropertyOp18
 70
     0
102
RTVSPropertyOp19
 70
     0
102
RTVSPropertyOp20
 70
     0
102
RTVSPropertyOp21
 70
     0
102
RTVSPropertyOp22
 70
     0
102
RTVSPropertyOp23
 70
     0
102
RTVSPropertyOp24
 70
     0
102
RTVSPropertyOp25
 70
     0
102
RTVSPropertyOp26
 70
     0
102
RTVSPropertyOp27
 70
     0
  0
XRECORD
  5
9745
102
{ACAD_REACTORS
330
9744
102
}
330
9744
100
AcDbXrecord
280
     1
102
RTVSPost2010Prop28
280
     0
102
RTVSPost2010PropOp28
 70
     1
102
RTVSPost2010Prop29
280
     1
102
RTVSPost2010PropOp29
 70
     1
102
RTVSPost2010Prop30
280
     1
102
RTVSPost2010PropOp30
 70
     1
102
RTVSPost2010Prop31
280
     0
102
RTVSPost2010PropOp31
 70
     1
102
RTVSPost2010Prop32
280
     0
102
RTVSPost2010PropOp32
 70
     1
102
RTVSPost2010Prop33
280
     0
102
RTVSPost2010PropOp33
 70
     1
102
RTVSPost2010Prop34
280
     0
102
RTVSPost2010PropOp34
 70
     1
102
RTVSPost2010Prop35
280
     0
102
RTVSPost2010PropOp35
 70
     1
102
RTVSPost2010Prop36
280
     0
102
RTVSPost2010PropOp36
 70
     1
102
RTVSPost2010Prop37
 90
       50
102
RTVSPost2010PropOp37
 70
     1
102
RTVSPost2010Prop38
140
0.0
102
RTVSPost2010PropOp38
 70
     1
102
RTVSPost2010Prop39
140
1.0
102
RTVSPost2010PropOp39
 70
     1
102
RTVSPost2010Prop40
 90
        0
102
RTVSPost2010PropOp40
 70
     1
102
RTVSPost2010Prop41ColorIndex
 90
       18
102
RTVSPost2010Prop41ColorRGB
 90
        0
102
RTVSPost2010PropOp41
 70
     1
102
RTVSPost2010Prop42
 90
       50
102
RTVSPost2010PropOp42
 70
     1
102
RTVSPost2010Prop43
 90
        3
102
RTVSPost2010PropOp43
 70
     1
102
RTVSPost2010Prop44ColorIndex
 90
        5
102
RTVSPost2010Prop44ColorRGB
 90
      255
102
RTVSPost2010PropOp44
 70
     1
102
RTVSPost2010Prop45
280
     0
102
RTVSPost2010PropOp45
 70
     1
102
RTVSPost2010Prop46
 90
       50
102
RTVSPost2010PropOp46
 70
     1
102
RTVSPost2010Prop47
 90
       50
102
RTVSPost2010PropOp47
 70
     1
102
RTVSPost2010Prop48
 90
       50
102
RTVSPost2010PropOp48
 70
     1
102
RTVSPost2010Prop49
280
     0
102
RTVSPost2010PropOp49
 70
     1
102
RTVSPost2010Prop50
 90
       50
102
RTVSPost2010PropOp50
 70
     1
102
RTVSPost2010Prop51ColorIndex
 90
      256
102
RTVSPost2010Prop51ColorRGB
 90
-16777216
102
RTVSPost2010PropOp51
 70
     0
102
RTVSPost2010Prop52
140
1.0
102
RTVSPost2010PropOp52
 70
     0
102
RTVSPost2010Prop53
 90
        2
102
RTVSPost2010PropOp53
 70
     1
102
RTVSPost2010Prop54
  1
strokes_ogs.tif
102
RTVSPost2010PropOp54
 70
     1
102
RTVSPost2010Prop55
280
     0
102
RTVSPost2010PropOp55
 70
     1
102
RTVSPost2010Prop56
140
1.0
102
RTVSPost2010PropOp56
 70
     1
102
RTVSPost2010Prop57
140
1.0
102
RTVSPost2010PropOp57
 70
     1
102
RTVSPropertyOp0
 70
     1
102
RTVSPropertyOp1
 70
     1
102
RTVSPropertyOp2
 70
     1
102
RTVSPropertyOp3
 70
     1
102
RTVSPropertyOp4
 70
     1
102
RTVSPropertyOp5
 70
     1
102
RTVSPropertyOp6
 70
     1
102
RTVSPropertyOp7
 70
     1
102
RTVSPropertyOp8
 70
     1
102
RTVSPropertyOp9
 70
     1
102
RTVSPropertyOp10
 70
     1
102
RTVSPropertyOp11
 70
     1
102
RTVSPropertyOp12
 70
     1
102
RTVSPropertyOp13
 70
     1
102
RTVSPropertyOp14
 70
     1
102
RTVSPropertyOp15
 70
     1
102
RTVSPropertyOp16
 70
     1
102
RTVSPropertyOp17
 70
     1
102
RTVSPropertyOp18
 70
     1
102
RTVSPropertyOp19
 70
     1
102
RTVSPropertyOp20
 70
     1
102
RTVSPropertyOp21
 70
     1
102
RTVSPropertyOp22
 70
     1
102
RTVSPropertyOp23
 70
     1
102
RTVSPropertyOp24
 70
     1
102
RTVSPropertyOp25
 70
     1
102
RTVSPropertyOp26
 70
     1
102
RTVSPropertyOp27
 70
     1
  0
XRECORD
  5
9729
102
{ACAD_REACTORS
330
9728
102
}
330
9728
100
AcDbXrecord
280
     1
102
RTVSPost2010Prop28
280
     0
102
RTVSPost2010PropOp28
 70
     1
102
RTVSPost2010Prop29
280
     1
102
RTVSPost2010PropOp29
 70
     1
102
RTVSPost2010Prop30
280
     1
102
RTVSPost2010PropOp30
 70
     1
102
RTVSPost2010Prop31
280
     0
102
RTVSPost2010PropOp31
 70
     1
102
RTVSPost2010Prop32
280
     0
102
RTVSPost2010PropOp32
 70
     1
102
RTVSPost2010Prop33
280
     0
102
RTVSPost2010PropOp33
 70
     1
102
RTVSPost2010Prop34
280
     0
102
RTVSPost2010PropOp34
 70
     1
102
RTVSPost2010Prop35
280
     0
102
RTVSPost2010PropOp35
 70
     1
102
RTVSPost2010Prop36
280
     0
102
RTVSPost2010PropOp36
 70
     1
102
RTVSPost2010Prop37
 90
       50
102
RTVSPost2010PropOp37
 70
     1
102
RTVSPost2010Prop38
140
0.0
102
RTVSPost2010PropOp38
 70
     1
102
RTVSPost2010Prop39
140
1.0
102
RTVSPost2010PropOp39
 70
     1
102
RTVSPost2010Prop40
 90
        0
102
RTVSPost2010PropOp40
 70
     1
102
RTVSPost2010Prop41ColorIndex
 90
       18
102
RTVSPost2010Prop41ColorRGB
 90
        0
102
RTVSPost2010PropOp41
 70
     1
102
RTVSPost2010Prop42
 90
       50
102
RTVSPost2010PropOp42
 70
     1
102
RTVSPost2010Prop43
 90
        3
102
RTVSPost2010PropOp43
 70
     1
102
RTVSPost2010Prop44ColorIndex
 90
        5
102
RTVSPost2010Prop44ColorRGB
 90
      255
102
RTVSPost2010PropOp44
 70
     1
102
RTVSPost2010Prop45
280
     0
102
RTVSPost2010PropOp45
 70
     1
102
RTVSPost2010Prop46
 90
       50
102
RTVSPost2010PropOp46
 70
     1
102
RTVSPost2010Prop47
 90
       50
102
RTVSPost2010PropOp47
 70
     1
102
RTVSPost2010Prop48
 90
       50
102
RTVSPost2010PropOp48
 70
     1
102
RTVSPost2010Prop49
280
     0
102
RTVSPost2010PropOp49
 70
     1
102
RTVSPost2010Prop50
 90
       50
102
RTVSPost2010PropOp50
 70
     1
102
RTVSPost2010Prop51ColorIndex
 90
      256
102
RTVSPost2010Prop51ColorRGB
 90
-16777216
102
RTVSPost2010PropOp51
 70
     0
102
RTVSPost2010Prop52
140
1.0
102
RTVSPost2010PropOp52
 70
     0
102
RTVSPost2010Prop53
 90
        2
102
RTVSPost2010PropOp53
 70
     1
102
RTVSPost2010Prop54
  1
strokes_ogs.tif
102
RTVSPost2010PropOp54
 70
     1
102
RTVSPost2010Prop55
280
     0
102
RTVSPost2010PropOp55
 70
     1
102
RTVSPost2010Prop56
140
1.0
102
RTVSPost2010PropOp56
 70
     1
102
RTVSPost2010Prop57
140
1.0
102
RTVSPost2010PropOp57
 70
     1
102
RTVSPropertyOp0
 70
     1
102
RTVSPropertyOp1
 70
     1
102
RTVSPropertyOp2
 70
     1
102
RTVSPropertyOp3
 70
     1
102
RTVSPropertyOp4
 70
     1
102
RTVSPropertyOp5
 70
     1
102
RTVSPropertyOp6
 70
     1
102
RTVSPropertyOp7
 70
     1
102
RTVSPropertyOp8
 70
     1
102
RTVSPropertyOp9
 70
     1
102
RTVSPropertyOp10
 70
     1
102
RTVSPropertyOp11
 70
     1
102
RTVSPropertyOp12
 70
     1
102
RTVSPropertyOp13
 70
     1
102
RTVSPropertyOp14
 70
     1
102
RTVSPropertyOp15
 70
     1
102
RTVSPropertyOp16
 70
     1
102
RTVSPropertyOp17
 70
     1
102
RTVSPropertyOp18
 70
     1
102
RTVSPropertyOp19
 70
     1
102
RTVSPropertyOp20
 70
     1
102
RTVSPropertyOp21
 70
     1
102
RTVSPropertyOp22
 70
     1
102
RTVSPropertyOp23
 70
     1
102
RTVSPropertyOp24
 70
     1
102
RTVSPropertyOp25
 70
     1
102
RTVSPropertyOp26
 70
     1
102
RTVSPropertyOp27
 70
     1
  0
XRECORD
  5
972B
102
{ACAD_REACTORS
330
972A
102
}
330
972A
100
AcDbXrecord
280
     1
102
RTVSPost2010Prop28
280
     0
102
RTVSPost2010PropOp28
 70
     1
102
RTVSPost2010Prop29
280
     1
102
RTVSPost2010PropOp29
 70
     1
102
RTVSPost2010Prop30
280
     1
102
RTVSPost2010PropOp30
 70
     1
102
RTVSPost2010Prop31
280
     0
102
RTVSPost2010PropOp31
 70
     1
102
RTVSPost2010Prop32
280
     0
102
RTVSPost2010PropOp32
 70
     1
102
RTVSPost2010Prop33
280
     0
102
RTVSPost2010PropOp33
 70
     1
102
RTVSPost2010Prop34
280
     0
102
RTVSPost2010PropOp34
 70
     1
102
RTVSPost2010Prop35
280
     0
102
RTVSPost2010PropOp35
 70
     1
102
RTVSPost2010Prop36
280
     0
102
RTVSPost2010PropOp36
 70
     1
102
RTVSPost2010Prop37
 90
       50
102
RTVSPost2010PropOp37
 70
     1
102
RTVSPost2010Prop38
140
0.0
102
RTVSPost2010PropOp38
 70
     1
102
RTVSPost2010Prop39
140
1.0
102
RTVSPost2010PropOp39
 70
     1
102
RTVSPost2010Prop40
 90
        0
102
RTVSPost2010PropOp40
 70
     1
102
RTVSPost2010Prop41ColorIndex
 90
       18
102
RTVSPost2010Prop41ColorRGB
 90
        0
102
RTVSPost2010PropOp41
 70
     1
102
RTVSPost2010Prop42
 90
       50
102
RTVSPost2010PropOp42
 70
     1
102
RTVSPost2010Prop43
 90
        3
102
RTVSPost2010PropOp43
 70
     1
102
RTVSPost2010Prop44ColorIndex
 90
        5
102
RTVSPost2010Prop44ColorRGB
 90
      255
102
RTVSPost2010PropOp44
 70
     1
102
RTVSPost2010Prop45
280
     0
102
RTVSPost2010PropOp45
 70
     1
102
RTVSPost2010Prop46
 90
       50
102
RTVSPost2010PropOp46
 70
     1
102
RTVSPost2010Prop47
 90
       50
102
RTVSPost2010PropOp47
 70
     1
102
RTVSPost2010Prop48
 90
       50
102
RTVSPost2010PropOp48
 70
     1
102
RTVSPost2010Prop49
280
     0
102
RTVSPost2010PropOp49
 70
     1
102
RTVSPost2010Prop50
 90
       50
102
RTVSPost2010PropOp50
 70
     1
102
RTVSPost2010Prop51ColorIndex
 90
      256
102
RTVSPost2010Prop51ColorRGB
 90
-16777216
102
RTVSPost2010PropOp51
 70
     0
102
RTVSPost2010Prop52
140
1.0
102
RTVSPost2010PropOp52
 70
     0
102
RTVSPost2010Prop53
 90
        2
102
RTVSPost2010PropOp53
 70
     1
102
RTVSPost2010Prop54
  1
strokes_ogs.tif
102
RTVSPost2010PropOp54
 70
     1
102
RTVSPost2010Prop55
280
     0
102
RTVSPost2010PropOp55
 70
     1
102
RTVSPost2010Prop56
140
1.0
102
RTVSPost2010PropOp56
 70
     1
102
RTVSPost2010Prop57
140
1.0
102
RTVSPost2010PropOp57
 70
     1
102
RTVSPropertyOp0
 70
     1
102
RTVSPropertyOp1
 70
     1
102
RTVSPropertyOp2
 70
     1
102
RTVSPropertyOp3
 70
     1
102
RTVSPropertyOp4
 70
     1
102
RTVSPropertyOp5
 70
     1
102
RTVSPropertyOp6
 70
     1
102
RTVSPropertyOp7
 70
     1
102
RTVSPropertyOp8
 70
     1
102
RTVSPropertyOp9
 70
     1
102
RTVSPropertyOp10
 70
     1
102
RTVSPropertyOp11
 70
     1
102
RTVSPropertyOp12
 70
     1
102
RTVSPropertyOp13
 70
     1
102
RTVSPropertyOp14
 70
     1
102
RTVSPropertyOp15
 70
     1
102
RTVSPropertyOp16
 70
     1
102
RTVSPropertyOp17
 70
     1
102
RTVSPropertyOp18
 70
     1
102
RTVSPropertyOp19
 70
     1
102
RTVSPropertyOp20
 70
     1
102
RTVSPropertyOp21
 70
     1
102
RTVSPropertyOp22
 70
     1
102
RTVSPropertyOp23
 70
     1
102
RTVSPropertyOp24
 70
     1
102
RTVSPropertyOp25
 70
     1
102
RTVSPropertyOp26
 70
     1
102
RTVSPropertyOp27
 70
     1
  0
XRECORD
  5
972D
102
{ACAD_REACTORS
330
972C
102
}
330
972C
100
AcDbXrecord
280
     1
102
RTVSPost2010Prop28
280
     0
102
RTVSPost2010PropOp28
 70
     1
102
RTVSPost2010Prop29
280
     1
102
RTVSPost2010PropOp29
 70
     1
102
RTVSPost2010Prop30
280
     1
102
RTVSPost2010PropOp30
 70
     1
102
RTVSPost2010Prop31
280
     0
102
RTVSPost2010PropOp31
 70
     1
102
RTVSPost2010Prop32
280
     0
102
RTVSPost2010PropOp32
 70
     1
102
RTVSPost2010Prop33
280
     0
102
RTVSPost2010PropOp33
 70
     1
102
RTVSPost2010Prop34
280
     0
102
RTVSPost2010PropOp34
 70
     1
102
RTVSPost2010Prop35
280
     0
102
RTVSPost2010PropOp35
 70
     1
102
RTVSPost2010Prop36
280
     0
102
RTVSPost2010PropOp36
 70
     1
102
RTVSPost2010Prop37
 90
       50
102
RTVSPost2010PropOp37
 70
     1
102
RTVSPost2010Prop38
140
0.0
102
RTVSPost2010PropOp38
 70
     1
102
RTVSPost2010Prop39
140
1.0
102
RTVSPost2010PropOp39
 70
     1
102
RTVSPost2010Prop40
 90
        0
102
RTVSPost2010PropOp40
 70
     1
102
RTVSPost2010Prop41ColorIndex
 90
       18
102
RTVSPost2010Prop41ColorRGB
 90
        0
102
RTVSPost2010PropOp41
 70
     1
102
RTVSPost2010Prop42
 90
       50
102
RTVSPost2010PropOp42
 70
     1
102
RTVSPost2010Prop43
 90
        3
102
RTVSPost2010PropOp43
 70
     1
102
RTVSPost2010Prop44ColorIndex
 90
        5
102
RTVSPost2010Prop44ColorRGB
 90
      255
102
RTVSPost2010PropOp44
 70
     1
102
RTVSPost2010Prop45
280
     0
102
RTVSPost2010PropOp45
 70
     1
102
RTVSPost2010Prop46
 90
       50
102
RTVSPost2010PropOp46
 70
     1
102
RTVSPost2010Prop47
 90
       50
102
RTVSPost2010PropOp47
 70
     1
102
RTVSPost2010Prop48
 90
       50
102
RTVSPost2010PropOp48
 70
     1
102
RTVSPost2010Prop49
280
     0
102
RTVSPost2010PropOp49
 70
     1
102
RTVSPost2010Prop50
 90
       50
102
RTVSPost2010PropOp50
 70
     1
102
RTVSPost2010Prop51ColorIndex
 90
      256
102
RTVSPost2010Prop51ColorRGB
 90
-16777216
102
RTVSPost2010PropOp51
 70
     0
102
RTVSPost2010Prop52
140
1.0
102
RTVSPost2010PropOp52
 70
     0
102
RTVSPost2010Prop53
 90
        2
102
RTVSPost2010PropOp53
 70
     1
102
RTVSPost2010Prop54
  1
strokes_ogs.tif
102
RTVSPost2010PropOp54
 70
     1
102
RTVSPost2010Prop55
280
     0
102
RTVSPost2010PropOp55
 70
     1
102
RTVSPost2010Prop56
140
1.0
102
RTVSPost2010PropOp56
 70
     1
102
RTVSPost2010Prop57
140
1.0
102
RTVSPost2010PropOp57
 70
     1
102
RTVSPropertyOp0
 70
     1
102
RTVSPropertyOp1
 70
     1
102
RTVSPropertyOp2
 70
     1
102
RTVSPropertyOp3
 70
     1
102
RTVSPropertyOp4
 70
     1
102
RTVSPropertyOp5
 70
     1
102
RTVSPropertyOp6
 70
     1
102
RTVSPropertyOp7
 70
     1
102
RTVSPropertyOp8
 70
     1
102
RTVSPropertyOp9
 70
     1
102
RTVSPropertyOp10
 70
     1
102
RTVSPropertyOp11
 70
     1
102
RTVSPropertyOp12
 70
     1
102
RTVSPropertyOp13
 70
     1
102
RTVSPropertyOp14
 70
     1
102
RTVSPropertyOp15
 70
     1
102
RTVSPropertyOp16
 70
     1
102
RTVSPropertyOp17
 70
     1
102
RTVSPropertyOp18
 70
     1
102
RTVSPropertyOp19
 70
     1
102
RTVSPropertyOp20
 70
     1
102
RTVSPropertyOp21
 70
     1
102
RTVSPropertyOp22
 70
     1
102
RTVSPropertyOp23
 70
     1
102
RTVSPropertyOp24
 70
     1
102
RTVSPropertyOp25
 70
     1
102
RTVSPropertyOp26
 70
     1
102
RTVSPropertyOp27
 70
     1
  0
XRECORD
  5
972F
102
{ACAD_REACTORS
330
972E
102
}
330
972E
100
AcDbXrecord
280
     1
102
RTVSPost2010Prop28
280
     0
102
RTVSPost2010PropOp28
 70
     1
102
RTVSPost2010Prop29
280
     1
102
RTVSPost2010PropOp29
 70
     1
102
RTVSPost2010Prop30
280
     1
102
RTVSPost2010PropOp30
 70
     1
102
RTVSPost2010Prop31
280
     0
102
RTVSPost2010PropOp31
 70
     1
102
RTVSPost2010Prop32
280
     0
102
RTVSPost2010PropOp32
 70
     1
102
RTVSPost2010Prop33
280
     0
102
RTVSPost2010PropOp33
 70
     1
102
RTVSPost2010Prop34
280
     0
102
RTVSPost2010PropOp34
 70
     1
102
RTVSPost2010Prop35
280
     0
102
RTVSPost2010PropOp35
 70
     1
102
RTVSPost2010Prop36
280
     0
102
RTVSPost2010PropOp36
 70
     1
102
RTVSPost2010Prop37
 90
       50
102
RTVSPost2010PropOp37
 70
     1
102
RTVSPost2010Prop38
140
0.0
102
RTVSPost2010PropOp38
 70
     1
102
RTVSPost2010Prop39
140
1.0
102
RTVSPost2010PropOp39
 70
     1
102
RTVSPost2010Prop40
 90
        0
102
RTVSPost2010PropOp40
 70
     1
102
RTVSPost2010Prop41ColorIndex
 90
       18
102
RTVSPost2010Prop41ColorRGB
 90
        0
102
RTVSPost2010PropOp41
 70
     1
102
RTVSPost2010Prop42
 90
       50
102
RTVSPost2010PropOp42
 70
     1
102
RTVSPost2010Prop43
 90
        3
102
RTVSPost2010PropOp43
 70
     1
102
RTVSPost2010Prop44ColorIndex
 90
        5
102
RTVSPost2010Prop44ColorRGB
 90
      255
102
RTVSPost2010PropOp44
 70
     1
102
RTVSPost2010Prop45
280
     0
102
RTVSPost2010PropOp45
 70
     1
102
RTVSPost2010Prop46
 90
       50
102
RTVSPost2010PropOp46
 70
     1
102
RTVSPost2010Prop47
 90
       50
102
RTVSPost2010PropOp47
 70
     1
102
RTVSPost2010Prop48
 90
       50
102
RTVSPost2010PropOp48
 70
     1
102
RTVSPost2010Prop49
280
     0
102
RTVSPost2010PropOp49
 70
     1
102
RTVSPost2010Prop50
 90
       50
102
RTVSPost2010PropOp50
 70
     1
102
RTVSPost2010Prop51ColorIndex
 90
      256
102
RTVSPost2010Prop51ColorRGB
 90
-16777216
102
RTVSPost2010PropOp51
 70
     0
102
RTVSPost2010Prop52
140
1.0
102
RTVSPost2010PropOp52
 70
     0
102
RTVSPost2010Prop53
 90
        2
102
RTVSPost2010PropOp53
 70
     1
102
RTVSPost2010Prop54
  1
strokes_ogs.tif
102
RTVSPost2010PropOp54
 70
     1
102
RTVSPost2010Prop55
280
     0
102
RTVSPost2010PropOp55
 70
     1
102
RTVSPost2010Prop56
140
1.0
102
RTVSPost2010PropOp56
 70
     1
102
RTVSPost2010Prop57
140
1.0
102
RTVSPost2010PropOp57
 70
     1
102
RTVSPropertyOp0
 70
     1
102
RTVSPropertyOp1
 70
     1
102
RTVSPropertyOp2
 70
     1
102
RTVSPropertyOp3
 70
     1
102
RTVSPropertyOp4
 70
     1
102
RTVSPropertyOp5
 70
     1
102
RTVSPropertyOp6
 70
     1
102
RTVSPropertyOp7
 70
     1
102
RTVSPropertyOp8
 70
     1
102
RTVSPropertyOp9
 70
     1
102
RTVSPropertyOp10
 70
     1
102
RTVSPropertyOp11
 70
     1
102
RTVSPropertyOp12
 70
     1
102
RTVSPropertyOp13
 70
     1
102
RTVSPropertyOp14
 70
     1
102
RTVSPropertyOp15
 70
     1
102
RTVSPropertyOp16
 70
     1
102
RTVSPropertyOp17
 70
     1
102
RTVSPropertyOp18
 70
     1
102
RTVSPropertyOp19
 70
     1
102
RTVSPropertyOp20
 70
     1
102
RTVSPropertyOp21
 70
     1
102
RTVSPropertyOp22
 70
     1
102
RTVSPropertyOp23
 70
     1
102
RTVSPropertyOp24
 70
     1
102
RTVSPropertyOp25
 70
     1
102
RTVSPropertyOp26
 70
     1
102
RTVSPropertyOp27
 70
     1
  0
XRECORD
  5
9737
102
{ACAD_REACTORS
330
9736
102
}
330
9736
100
AcDbXrecord
280
     1
102
RTVSPost2010Prop28
280
     0
102
RTVSPost2010PropOp28
 70
     1
102
RTVSPost2010Prop29
280
     1
102
RTVSPost2010PropOp29
 70
     1
102
RTVSPost2010Prop30
280
     1
102
RTVSPost2010PropOp30
 70
     1
102
RTVSPost2010Prop31
280
     0
102
RTVSPost2010PropOp31
 70
     1
102
RTVSPost2010Prop32
280
     0
102
RTVSPost2010PropOp32
 70
     1
102
RTVSPost2010Prop33
280
     0
102
RTVSPost2010PropOp33
 70
     1
102
RTVSPost2010Prop34
280
     0
102
RTVSPost2010PropOp34
 70
     1
102
RTVSPost2010Prop35
280
     0
102
RTVSPost2010PropOp35
 70
     1
102
RTVSPost2010Prop36
280
     0
102
RTVSPost2010PropOp36
 70
     1
102
RTVSPost2010Prop37
 90
       50
102
RTVSPost2010PropOp37
 70
     1
102
RTVSPost2010Prop38
140
0.0
102
RTVSPost2010PropOp38
 70
     1
102
RTVSPost2010Prop39
140
1.0
102
RTVSPost2010PropOp39
 70
     1
102
RTVSPost2010Prop40
 90
        0
102
RTVSPost2010PropOp40
 70
     1
102
RTVSPost2010Prop41ColorIndex
 90
       18
102
RTVSPost2010Prop41ColorRGB
 90
        0
102
RTVSPost2010PropOp41
 70
     1
102
RTVSPost2010Prop42
 90
       50
102
RTVSPost2010PropOp42
 70
     1
102
RTVSPost2010Prop43
 90
        3
102
RTVSPost2010PropOp43
 70
     1
102
RTVSPost2010Prop44ColorIndex
 90
        5
102
RTVSPost2010Prop44ColorRGB
 90
      255
102
RTVSPost2010PropOp44
 70
     1
102
RTVSPost2010Prop45
280
     0
102
RTVSPost2010PropOp45
 70
     1
102
RTVSPost2010Prop46
 90
       50
102
RTVSPost2010PropOp46
 70
     1
102
RTVSPost2010Prop47
 90
       50
102
RTVSPost2010PropOp47
 70
     1
102
RTVSPost2010Prop48
 90
       50
102
RTVSPost2010PropOp48
 70
     1
102
RTVSPost2010Prop49
280
     0
102
RTVSPost2010PropOp49
 70
     1
102
RTVSPost2010Prop50
 90
       50
102
RTVSPost2010PropOp50
 70
     1
102
RTVSPost2010Prop51ColorIndex
 90
      256
102
RTVSPost2010Prop51ColorRGB
 90
-16777216
102
RTVSPost2010PropOp51
 70
     0
102
RTVSPost2010Prop52
140
1.0
102
RTVSPost2010PropOp52
 70
     0
102
RTVSPost2010Prop53
 90
        2
102
RTVSPost2010PropOp53
 70
     1
102
RTVSPost2010Prop54
  1
strokes_ogs.tif
102
RTVSPost2010PropOp54
 70
     1
102
RTVSPost2010Prop55
280
     0
102
RTVSPost2010PropOp55
 70
     1
102
RTVSPost2010Prop56
140
1.0
102
RTVSPost2010PropOp56
 70
     1
102
RTVSPost2010Prop57
140
1.0
102
RTVSPost2010PropOp57
 70
     1
102
RTVSPropertyOp0
 70
     1
102
RTVSPropertyOp1
 70
     1
102
RTVSPropertyOp2
 70
     1
102
RTVSPropertyOp3
 70
     1
102
RTVSPropertyOp4
 70
     1
102
RTVSPropertyOp5
 70
     1
102
RTVSPropertyOp6
 70
     1
102
RTVSPropertyOp7
 70
     1
102
RTVSPropertyOp8
 70
     1
102
RTVSPropertyOp9
 70
     1
102
RTVSPropertyOp10
 70
     1
102
RTVSPropertyOp11
 70
     1
102
RTVSPropertyOp12
 70
     1
102
RTVSPropertyOp13
 70
     1
102
RTVSPropertyOp14
 70
     1
102
RTVSPropertyOp15
 70
     1
102
RTVSPropertyOp16
 70
     1
102
RTVSPropertyOp17
 70
     1
102
RTVSPropertyOp18
 70
     1
102
RTVSPropertyOp19
 70
     1
102
RTVSPropertyOp20
 70
     1
102
RTVSPropertyOp21
 70
     1
102
RTVSPropertyOp22
 70
     1
102
RTVSPropertyOp23
 70
     1
102
RTVSPropertyOp24
 70
     1
102
RTVSPropertyOp25
 70
     1
102
RTVSPropertyOp26
 70
     1
102
RTVSPropertyOp27
 70
     1
  0
XRECORD
  5
9753
102
{ACAD_REACTORS
330
9752
102
}
330
9752
100
AcDbXrecord
280
     1
102
RTVSPost2010Prop28
280
     0
102
RTVSPost2010PropOp28
 70
     1
102
RTVSPost2010Prop29
280
     1
102
RTVSPost2010PropOp29
 70
     1
102
RTVSPost2010Prop30
280
     1
102
RTVSPost2010PropOp30
 70
     1
102
RTVSPost2010Prop31
280
     0
102
RTVSPost2010PropOp31
 70
     1
102
RTVSPost2010Prop32
280
     0
102
RTVSPost2010PropOp32
 70
     1
102
RTVSPost2010Prop33
280
     0
102
RTVSPost2010PropOp33
 70
     1
102
RTVSPost2010Prop34
280
     0
102
RTVSPost2010PropOp34
 70
     1
102
RTVSPost2010Prop35
280
     0
102
RTVSPost2010PropOp35
 70
     1
102
RTVSPost2010Prop36
280
     0
102
RTVSPost2010PropOp36
 70
     1
102
RTVSPost2010Prop37
 90
       50
102
RTVSPost2010PropOp37
 70
     0
102
RTVSPost2010Prop38
140
0.0
102
RTVSPost2010PropOp38
 70
     0
102
RTVSPost2010Prop39
140
1.0
102
RTVSPost2010PropOp39
 70
     0
102
RTVSPost2010Prop40
 90
        0
102
RTVSPost2010PropOp40
 70
     0
102
RTVSPost2010Prop41ColorIndex
 90
       18
102
RTVSPost2010Prop41ColorRGB
 90
        0
102
RTVSPost2010PropOp41
 70
     0
102
RTVSPost2010Prop42
 90
       50
102
RTVSPost2010PropOp42
 70
     0
102
RTVSPost2010Prop43
 90
        3
102
RTVSPost2010PropOp43
 70
     0
102
RTVSPost2010Prop44ColorIndex
 90
        5
102
RTVSPost2010Prop44ColorRGB
 90
      255
102
RTVSPost2010PropOp44
 70
     0
102
RTVSPost2010Prop45
280
     0
102
RTVSPost2010PropOp45
 70
     1
102
RTVSPost2010Prop46
 90
       50
102
RTVSPost2010PropOp46
 70
     0
102
RTVSPost2010Prop47
 90
       50
102
RTVSPost2010PropOp47
 70
     0
102
RTVSPost2010Prop48
 90
       50
102
RTVSPost2010PropOp48
 70
     0
102
RTVSPost2010Prop49
280
     0
102
RTVSPost2010PropOp49
 70
     1
102
RTVSPost2010Prop50
 90
       50
102
RTVSPost2010PropOp50
 70
     0
102
RTVSPost2010Prop51ColorIndex
 90
      256
102
RTVSPost2010Prop51ColorRGB
 90
-16777216
102
RTVSPost2010PropOp51
 70
     0
102
RTVSPost2010Prop52
140
1.0
102
RTVSPost2010PropOp52
 70
     0
102
RTVSPost2010Prop53
 90
        2
102
RTVSPost2010PropOp53
 70
     0
102
RTVSPost2010Prop54
  1
strokes_ogs.tif
102
RTVSPost2010PropOp54
 70
     0
102
RTVSPost2010Prop55
280
     0
102
RTVSPost2010PropOp55
 70
     1
102
RTVSPost2010Prop56
140
1.0
102
RTVSPost2010PropOp56
 70
     0
102
RTVSPost2010Prop57
140
1.0
102
RTVSPost2010PropOp57
 70
     0
102
RTVSPropertyOp0
 70
     0
102
RTVSPropertyOp1
 70
     0
102
RTVSPropertyOp2
 70
     0
102
RTVSPropertyOp3
 70
     0
102
RTVSPropertyOp4
 70
     0
102
RTVSPropertyOp5
 70
     0
102
RTVSPropertyOp6
 70
     0
102
RTVSPropertyOp7
 70
     0
102
RTVSPropertyOp8
 70
     0
102
RTVSPropertyOp9
 70
     0
102
RTVSPropertyOp10
 70
     0
102
RTVSPropertyOp11
 70
     0
102
RTVSPropertyOp12
 70
     0
102
RTVSPropertyOp13
 70
     0
102
RTVSPropertyOp14
 70
     2
102
RTVSPropertyOp15
 70
     0
102
RTVSPropertyOp16
 70
     0
102
RTVSPropertyOp17
 70
     0
102
RTVSPropertyOp18
 70
     0
102
RTVSPropertyOp19
 70
     0
102
RTVSPropertyOp20
 70
     0
102
RTVSPropertyOp21
 70
     0
102
RTVSPropertyOp22
 70
     0
102
RTVSPropertyOp23
 70
     0
102
RTVSPropertyOp24
 70
     0
102
RTVSPropertyOp25
 70
     0
102
RTVSPropertyOp26
 70
     0
102
RTVSPropertyOp27
 70
     0
  0
XRECORD
  5
9743
102
{ACAD_REACTORS
330
9742
102
}
330
9742
100
AcDbXrecord
280
     1
102
RTVSPost2010Prop28
280
     0
102
RTVSPost2010PropOp28
 70
     1
102
RTVSPost2010Prop29
280
     1
102
RTVSPost2010PropOp29
 70
     1
102
RTVSPost2010Prop30
280
     1
102
RTVSPost2010PropOp30
 70
     1
102
RTVSPost2010Prop31
280
     0
102
RTVSPost2010PropOp31
 70
     1
102
RTVSPost2010Prop32
280
     0
102
RTVSPost2010PropOp32
 70
     1
102
RTVSPost2010Prop33
280
     0
102
RTVSPost2010PropOp33
 70
     1
102
RTVSPost2010Prop34
280
     0
102
RTVSPost2010PropOp34
 70
     1
102
RTVSPost2010Prop35
280
     0
102
RTVSPost2010PropOp35
 70
     1
102
RTVSPost2010Prop36
280
     0
102
RTVSPost2010PropOp36
 70
     1
102
RTVSPost2010Prop37
 90
       50
102
RTVSPost2010PropOp37
 70
     1
102
RTVSPost2010Prop38
140
0.0
102
RTVSPost2010PropOp38
 70
     1
102
RTVSPost2010Prop39
140
1.0
102
RTVSPost2010PropOp39
 70
     1
102
RTVSPost2010Prop40
 90
        0
102
RTVSPost2010PropOp40
 70
     1
102
RTVSPost2010Prop41ColorIndex
 90
       18
102
RTVSPost2010Prop41ColorRGB
 90
        0
102
RTVSPost2010PropOp41
 70
     1
102
RTVSPost2010Prop42
 90
       50
102
RTVSPost2010PropOp42
 70
     1
102
RTVSPost2010Prop43
 90
        3
102
RTVSPost2010PropOp43
 70
     1
102
RTVSPost2010Prop44ColorIndex
 90
        5
102
RTVSPost2010Prop44ColorRGB
 90
      255
102
RTVSPost2010PropOp44
 70
     1
102
RTVSPost2010Prop45
280
     0
102
RTVSPost2010PropOp45
 70
     1
102
RTVSPost2010Prop46
 90
       50
102
RTVSPost2010PropOp46
 70
     1
102
RTVSPost2010Prop47
 90
       50
102
RTVSPost2010PropOp47
 70
     1
102
RTVSPost2010Prop48
 90
       50
102
RTVSPost2010PropOp48
 70
     1
102
RTVSPost2010Prop49
280
     0
102
RTVSPost2010PropOp49
 70
     1
102
RTVSPost2010Prop50
 90
       50
102
RTVSPost2010PropOp50
 70
     1
102
RTVSPost2010Prop51ColorIndex
 90
      256
102
RTVSPost2010Prop51ColorRGB
 90
-16777216
102
RTVSPost2010PropOp51
 70
     0
102
RTVSPost2010Prop52
140
1.0
102
RTVSPost2010PropOp52
 70
     0
102
RTVSPost2010Prop53
 90
        2
102
RTVSPost2010PropOp53
 70
     1
102
RTVSPost2010Prop54
  1
strokes_ogs.tif
102
RTVSPost2010PropOp54
 70
     1
102
RTVSPost2010Prop55
280
     0
102
RTVSPost2010PropOp55
 70
     1
102
RTVSPost2010Prop56
140
1.0
102
RTVSPost2010PropOp56
 70
     1
102
RTVSPost2010Prop57
140
1.0
102
RTVSPost2010PropOp57
 70
     1
102
RTVSPropertyOp0
 70
     1
102
RTVSPropertyOp1
 70
     1
102
RTVSPropertyOp2
 70
     1
102
RTVSPropertyOp3
 70
     1
102
RTVSPropertyOp4
 70
     1
102
RTVSPropertyOp5
 70
     1
102
RTVSPropertyOp6
 70
     1
102
RTVSPropertyOp7
 70
     1
102
RTVSPropertyOp8
 70
     1
102
RTVSPropertyOp9
 70
     1
102
RTVSPropertyOp10
 70
     1
102
RTVSPropertyOp11
 70
     1
102
RTVSPropertyOp12
 70
     1
102
RTVSPropertyOp13
 70
     1
102
RTVSPropertyOp14
 70
     1
102
RTVSPropertyOp15
 70
     1
102
RTVSPropertyOp16
 70
     1
102
RTVSPropertyOp17
 70
     1
102
RTVSPropertyOp18
 70
     1
102
RTVSPropertyOp19
 70
     1
102
RTVSPropertyOp20
 70
     1
102
RTVSPropertyOp21
 70
     1
102
RTVSPropertyOp22
 70
     1
102
RTVSPropertyOp23
 70
     1
102
RTVSPropertyOp24
 70
     1
102
RTVSPropertyOp25
 70
     1
102
RTVSPropertyOp26
 70
     1
102
RTVSPropertyOp27
 70
     1
  0
XRECORD
  5
9755
102
{ACAD_REACTORS
330
9754
102
}
330
9754
100
AcDbXrecord
280
     1
102
RTVSPost2010Prop28
280
     0
102
RTVSPost2010PropOp28
 70
     1
102
RTVSPost2010Prop29
280
     1
102
RTVSPost2010PropOp29
 70
     1
102
RTVSPost2010Prop30
280
     1
102
RTVSPost2010PropOp30
 70
     1
102
RTVSPost2010Prop31
280
     0
102
RTVSPost2010PropOp31
 70
     1
102
RTVSPost2010Prop32
280
     0
102
RTVSPost2010PropOp32
 70
     1
102
RTVSPost2010Prop33
280
     0
102
RTVSPost2010PropOp33
 70
     1
102
RTVSPost2010Prop34
280
     0
102
RTVSPost2010PropOp34
 70
     1
102
RTVSPost2010Prop35
280
     0
102
RTVSPost2010PropOp35
 70
     1
102
RTVSPost2010Prop36
280
     0
102
RTVSPost2010PropOp36
 70
     1
102
RTVSPost2010Prop37
 90
       50
102
RTVSPost2010PropOp37
 70
     0
102
RTVSPost2010Prop38
140
0.0
102
RTVSPost2010PropOp38
 70
     0
102
RTVSPost2010Prop39
140
1.0
102
RTVSPost2010PropOp39
 70
     0
102
RTVSPost2010Prop40
 90
        0
102
RTVSPost2010PropOp40
 70
     0
102
RTVSPost2010Prop41ColorIndex
 90
       18
102
RTVSPost2010Prop41ColorRGB
 90
        0
102
RTVSPost2010PropOp41
 70
     0
102
RTVSPost2010Prop42
 90
       50
102
RTVSPost2010PropOp42
 70
     0
102
RTVSPost2010Prop43
 90
        3
102
RTVSPost2010PropOp43
 70
     0
102
RTVSPost2010Prop44ColorIndex
 90
        5
102
RTVSPost2010Prop44ColorRGB
 90
      255
102
RTVSPost2010PropOp44
 70
     0
102
RTVSPost2010Prop45
280
     0
102
RTVSPost2010PropOp45
 70
     1
102
RTVSPost2010Prop46
 90
       50
102
RTVSPost2010PropOp46
 70
     0
102
RTVSPost2010Prop47
 90
       50
102
RTVSPost2010PropOp47
 70
     0
102
RTVSPost2010Prop48
 90
       50
102
RTVSPost2010PropOp48
 70
     0
102
RTVSPost2010Prop49
280
     0
102
RTVSPost2010PropOp49
 70
     1
102
RTVSPost2010Prop50
 90
       50
102
RTVSPost2010PropOp50
 70
     0
102
RTVSPost2010Prop51ColorIndex
 90
      256
102
RTVSPost2010Prop51ColorRGB
 90
-16777216
102
RTVSPost2010PropOp51
 70
     0
102
RTVSPost2010Prop52
140
1.0
102
RTVSPost2010PropOp52
 70
     0
102
RTVSPost2010Prop53
 90
        2
102
RTVSPost2010PropOp53
 70
     0
102
RTVSPost2010Prop54
  1
strokes_ogs.tif
102
RTVSPost2010PropOp54
 70
     0
102
RTVSPost2010Prop55
280
     0
102
RTVSPost2010PropOp55
 70
     1
102
RTVSPost2010Prop56
140
1.0
102
RTVSPost2010PropOp56
 70
     0
102
RTVSPost2010Prop57
140
1.0
102
RTVSPost2010PropOp57
 70
     0
102
RTVSPropertyOp0
 70
     0
102
RTVSPropertyOp1
 70
     0
102
RTVSPropertyOp2
 70
     0
102
RTVSPropertyOp3
 70
     0
102
RTVSPropertyOp4
 70
     0
102
RTVSPropertyOp5
 70
     0
102
RTVSPropertyOp6
 70
     0
102
RTVSPropertyOp7
 70
     0
102
RTVSPropertyOp8
 70
     0
102
RTVSPropertyOp9
 70
     0
102
RTVSPropertyOp10
 70
     0
102
RTVSPropertyOp11
 70
     0
102
RTVSPropertyOp12
 70
     0
102
RTVSPropertyOp13
 70
     0
102
RTVSPropertyOp14
 70
     2
102
RTVSPropertyOp15
 70
     0
102
RTVSPropertyOp16
 70
     0
102
RTVSPropertyOp17
 70
     0
102
RTVSPropertyOp18
 70
     0
102
RTVSPropertyOp19
 70
     0
102
RTVSPropertyOp20
 70
     0
102
RTVSPropertyOp21
 70
     0
102
RTVSPropertyOp22
 70
     0
102
RTVSPropertyOp23
 70
     0
102
RTVSPropertyOp24
 70
     0
102
RTVSPropertyOp25
 70
     0
102
RTVSPropertyOp26
 70
     0
102
RTVSPropertyOp27
 70
     0
  0
XRECORD
  5
973B
102
{ACAD_REACTORS
330
973A
102
}
330
973A
100
AcDbXrecord
280
     1
102
RTVSPost2010Prop28
280
     0
102
RTVSPost2010PropOp28
 70
     1
102
RTVSPost2010Prop29
280
     1
102
RTVSPost2010PropOp29
 70
     1
102
RTVSPost2010Prop30
280
     1
102
RTVSPost2010PropOp30
 70
     1
102
RTVSPost2010Prop31
280
     0
102
RTVSPost2010PropOp31
 70
     1
102
RTVSPost2010Prop32
280
     0
102
RTVSPost2010PropOp32
 70
     1
102
RTVSPost2010Prop33
280
     0
102
RTVSPost2010PropOp33
 70
     1
102
RTVSPost2010Prop34
280
     0
102
RTVSPost2010PropOp34
 70
     1
102
RTVSPost2010Prop35
280
     0
102
RTVSPost2010PropOp35
 70
     1
102
RTVSPost2010Prop36
280
     0
102
RTVSPost2010PropOp36
 70
     1
102
RTVSPost2010Prop37
 90
       50
102
RTVSPost2010PropOp37
 70
     1
102
RTVSPost2010Prop38
140
0.0
102
RTVSPost2010PropOp38
 70
     1
102
RTVSPost2010Prop39
140
1.0
102
RTVSPost2010PropOp39
 70
     1
102
RTVSPost2010Prop40
 90
        0
102
RTVSPost2010PropOp40
 70
     1
102
RTVSPost2010Prop41ColorIndex
 90
       18
102
RTVSPost2010Prop41ColorRGB
 90
        0
102
RTVSPost2010PropOp41
 70
     1
102
RTVSPost2010Prop42
 90
       50
102
RTVSPost2010PropOp42
 70
     1
102
RTVSPost2010Prop43
 90
        3
102
RTVSPost2010PropOp43
 70
     1
102
RTVSPost2010Prop44ColorIndex
 90
        5
102
RTVSPost2010Prop44ColorRGB
 90
      255
102
RTVSPost2010PropOp44
 70
     1
102
RTVSPost2010Prop45
280
     0
102
RTVSPost2010PropOp45
 70
     1
102
RTVSPost2010Prop46
 90
       50
102
RTVSPost2010PropOp46
 70
     1
102
RTVSPost2010Prop47
 90
       50
102
RTVSPost2010PropOp47
 70
     1
102
RTVSPost2010Prop48
 90
       50
102
RTVSPost2010PropOp48
 70
     1
102
RTVSPost2010Prop49
280
     0
102
RTVSPost2010PropOp49
 70
     1
102
RTVSPost2010Prop50
 90
       50
102
RTVSPost2010PropOp50
 70
     1
102
RTVSPost2010Prop51ColorIndex
 90
      256
102
RTVSPost2010Prop51ColorRGB
 90
-16777216
102
RTVSPost2010PropOp51
 70
     0
102
RTVSPost2010Prop52
140
1.0
102
RTVSPost2010PropOp52
 70
     0
102
RTVSPost2010Prop53
 90
        2
102
RTVSPost2010PropOp53
 70
     1
102
RTVSPost2010Prop54
  1
strokes_ogs.tif
102
RTVSPost2010PropOp54
 70
     1
102
RTVSPost2010Prop55
280
     0
102
RTVSPost2010PropOp55
 70
     1
102
RTVSPost2010Prop56
140
1.0
102
RTVSPost2010PropOp56
 70
     1
102
RTVSPost2010Prop57
140
1.0
102
RTVSPost2010PropOp57
 70
     1
102
RTVSPropertyOp0
 70
     1
102
RTVSPropertyOp1
 70
     1
102
RTVSPropertyOp2
 70
     1
102
RTVSPropertyOp3
 70
     1
102
RTVSPropertyOp4
 70
     1
102
RTVSPropertyOp5
 70
     1
102
RTVSPropertyOp6
 70
     1
102
RTVSPropertyOp7
 70
     1
102
RTVSPropertyOp8
 70
     1
102
RTVSPropertyOp9
 70
     1
102
RTVSPropertyOp10
 70
     1
102
RTVSPropertyOp11
 70
     1
102
RTVSPropertyOp12
 70
     1
102
RTVSPropertyOp13
 70
     1
102
RTVSPropertyOp14
 70
     1
102
RTVSPropertyOp15
 70
     1
102
RTVSPropertyOp16
 70
     1
102
RTVSPropertyOp17
 70
     1
102
RTVSPropertyOp18
 70
     1
102
RTVSPropertyOp19
 70
     1
102
RTVSPropertyOp20
 70
     1
102
RTVSPropertyOp21
 70
     1
102
RTVSPropertyOp22
 70
     1
102
RTVSPropertyOp23
 70
     1
102
RTVSPropertyOp24
 70
     1
102
RTVSPropertyOp25
 70
     1
102
RTVSPropertyOp26
 70
     1
102
RTVSPropertyOp27
 70
     1
  0
XRECORD
  5
9751
102
{ACAD_REACTORS
330
9750
102
}
330
9750
100
AcDbXrecord
280
     1
102
RTVSPost2010Prop28
280
     0
102
RTVSPost2010PropOp28
 70
     1
102
RTVSPost2010Prop29
280
     1
102
RTVSPost2010PropOp29
 70
     1
102
RTVSPost2010Prop30
280
     1
102
RTVSPost2010PropOp30
 70
     1
102
RTVSPost2010Prop31
280
     0
102
RTVSPost2010PropOp31
 70
     1
102
RTVSPost2010Prop32
280
     0
102
RTVSPost2010PropOp32
 70
     1
102
RTVSPost2010Prop33
280
     0
102
RTVSPost2010PropOp33
 70
     1
102
RTVSPost2010Prop34
280
     0
102
RTVSPost2010PropOp34
 70
     1
102
RTVSPost2010Prop35
280
     0
102
RTVSPost2010PropOp35
 70
     1
102
RTVSPost2010Prop36
280
     0
102
RTVSPost2010PropOp36
 70
     1
102
RTVSPost2010Prop37
 90
       50
102
RTVSPost2010PropOp37
 70
     1
102
RTVSPost2010Prop38
140
0.0
102
RTVSPost2010PropOp38
 70
     1
102
RTVSPost2010Prop39
140
1.0
102
RTVSPost2010PropOp39
 70
     1
102
RTVSPost2010Prop40
 90
        0
102
RTVSPost2010PropOp40
 70
     1
102
RTVSPost2010Prop41ColorIndex
 90
       18
102
RTVSPost2010Prop41ColorRGB
 90
        0
102
RTVSPost2010PropOp41
 70
     1
102
RTVSPost2010Prop42
 90
       50
102
RTVSPost2010PropOp42
 70
     1
102
RTVSPost2010Prop43
 90
        3
102
RTVSPost2010PropOp43
 70
     1
102
RTVSPost2010Prop44ColorIndex
 90
        5
102
RTVSPost2010Prop44ColorRGB
 90
      255
102
RTVSPost2010PropOp44
 70
     1
102
RTVSPost2010Prop45
280
     0
102
RTVSPost2010PropOp45
 70
     1
102
RTVSPost2010Prop46
 90
       50
102
RTVSPost2010PropOp46
 70
     1
102
RTVSPost2010Prop47
 90
       50
102
RTVSPost2010PropOp47
 70
     1
102
RTVSPost2010Prop48
 90
       50
102
RTVSPost2010PropOp48
 70
     1
102
RTVSPost2010Prop49
280
     0
102
RTVSPost2010PropOp49
 70
     1
102
RTVSPost2010Prop50
 90
       50
102
RTVSPost2010PropOp50
 70
     1
102
RTVSPost2010Prop51ColorIndex
 90
      256
102
RTVSPost2010Prop51ColorRGB
 90
-16777216
102
RTVSPost2010PropOp51
 70
     0
102
RTVSPost2010Prop52
140
1.0
102
RTVSPost2010PropOp52
 70
     0
102
RTVSPost2010Prop53
 90
        2
102
RTVSPost2010PropOp53
 70
     1
102
RTVSPost2010Prop54
  1
strokes_ogs.tif
102
RTVSPost2010PropOp54
 70
     1
102
RTVSPost2010Prop55
280
     0
102
RTVSPost2010PropOp55
 70
     1
102
RTVSPost2010Prop56
140
1.0
102
RTVSPost2010PropOp56
 70
     1
102
RTVSPost2010Prop57
140
1.0
102
RTVSPost2010PropOp57
 70
     1
102
RTVSPropertyOp0
 70
     1
102
RTVSPropertyOp1
 70
     1
102
RTVSPropertyOp2
 70
     1
102
RTVSPropertyOp3
 70
     1
102
RTVSPropertyOp4
 70
     1
102
RTVSPropertyOp5
 70
     1
102
RTVSPropertyOp6
 70
     1
102
RTVSPropertyOp7
 70
     1
102
RTVSPropertyOp8
 70
     1
102
RTVSPropertyOp9
 70
     1
102
RTVSPropertyOp10
 70
     1
102
RTVSPropertyOp11
 70
     1
102
RTVSPropertyOp12
 70
     1
102
RTVSPropertyOp13
 70
     1
102
RTVSPropertyOp14
 70
     1
102
RTVSPropertyOp15
 70
     1
102
RTVSPropertyOp16
 70
     1
102
RTVSPropertyOp17
 70
     1
102
RTVSPropertyOp18
 70
     1
102
RTVSPropertyOp19
 70
     1
102
RTVSPropertyOp20
 70
     1
102
RTVSPropertyOp21
 70
     1
102
RTVSPropertyOp22
 70
     1
102
RTVSPropertyOp23
 70
     1
102
RTVSPropertyOp24
 70
     1
102
RTVSPropertyOp25
 70
     1
102
RTVSPropertyOp26
 70
     1
102
RTVSPropertyOp27
 70
     1
  0
XRECORD
  5
974F
102
{ACAD_REACTORS
330
974E
102
}
330
974E
100
AcDbXrecord
280
     1
102
RTVSPost2010Prop28
280
     0
102
RTVSPost2010PropOp28
 70
     1
102
RTVSPost2010Prop29
280
     1
102
RTVSPost2010PropOp29
 70
     1
102
RTVSPost2010Prop30
280
     1
102
RTVSPost2010PropOp30
 70
     1
102
RTVSPost2010Prop31
280
     0
102
RTVSPost2010PropOp31
 70
     1
102
RTVSPost2010Prop32
280
     0
102
RTVSPost2010PropOp32
 70
     1
102
RTVSPost2010Prop33
280
     0
102
RTVSPost2010PropOp33
 70
     1
102
RTVSPost2010Prop34
280
     0
102
RTVSPost2010PropOp34
 70
     1
102
RTVSPost2010Prop35
280
     0
102
RTVSPost2010PropOp35
 70
     1
102
RTVSPost2010Prop36
280
     0
102
RTVSPost2010PropOp36
 70
     1
102
RTVSPost2010Prop37
 90
       50
102
RTVSPost2010PropOp37
 70
     1
102
RTVSPost2010Prop38
140
0.0
102
RTVSPost2010PropOp38
 70
     1
102
RTVSPost2010Prop39
140
1.0
102
RTVSPost2010PropOp39
 70
     1
102
RTVSPost2010Prop40
 90
        0
102
RTVSPost2010PropOp40
 70
     1
102
RTVSPost2010Prop41ColorIndex
 90
       18
102
RTVSPost2010Prop41ColorRGB
 90
        0
102
RTVSPost2010PropOp41
 70
     1
102
RTVSPost2010Prop42
 90
       50
102
RTVSPost2010PropOp42
 70
     1
102
RTVSPost2010Prop43
 90
        3
102
RTVSPost2010PropOp43
 70
     1
102
RTVSPost2010Prop44ColorIndex
 90
        5
102
RTVSPost2010Prop44ColorRGB
 90
      255
102
RTVSPost2010PropOp44
 70
     1
102
RTVSPost2010Prop45
280
     0
102
RTVSPost2010PropOp45
 70
     1
102
RTVSPost2010Prop46
 90
       50
102
RTVSPost2010PropOp46
 70
     1
102
RTVSPost2010Prop47
 90
       50
102
RTVSPost2010PropOp47
 70
     1
102
RTVSPost2010Prop48
 90
       50
102
RTVSPost2010PropOp48
 70
     1
102
RTVSPost2010Prop49
280
     0
102
RTVSPost2010PropOp49
 70
     1
102
RTVSPost2010Prop50
 90
       50
102
RTVSPost2010PropOp50
 70
     1
102
RTVSPost2010Prop51ColorIndex
 90
      256
102
RTVSPost2010Prop51ColorRGB
 90
-16777216
102
RTVSPost2010PropOp51
 70
     0
102
RTVSPost2010Prop52
140
1.0
102
RTVSPost2010PropOp52
 70
     0
102
RTVSPost2010Prop53
 90
        2
102
RTVSPost2010PropOp53
 70
     1
102
RTVSPost2010Prop54
  1
strokes_ogs.tif
102
RTVSPost2010PropOp54
 70
     1
102
RTVSPost2010Prop55
280
     0
102
RTVSPost2010PropOp55
 70
     1
102
RTVSPost2010Prop56
140
1.0
102
RTVSPost2010PropOp56
 70
     1
102
RTVSPost2010Prop57
140
1.0
102
RTVSPost2010PropOp57
 70
     1
102
RTVSPropertyOp0
 70
     1
102
RTVSPropertyOp1
 70
     1
102
RTVSPropertyOp2
 70
     1
102
RTVSPropertyOp3
 70
     1
102
RTVSPropertyOp4
 70
     1
102
RTVSPropertyOp5
 70
     1
102
RTVSPropertyOp6
 70
     1
102
RTVSPropertyOp7
 70
     1
102
RTVSPropertyOp8
 70
     1
102
RTVSPropertyOp9
 70
     1
102
RTVSPropertyOp10
 70
     1
102
RTVSPropertyOp11
 70
     1
102
RTVSPropertyOp12
 70
     1
102
RTVSPropertyOp13
 70
     1
102
RTVSPropertyOp14
 70
     1
102
RTVSPropertyOp15
 70
     1
102
RTVSPropertyOp16
 70
     1
102
RTVSPropertyOp17
 70
     1
102
RTVSPropertyOp18
 70
     1
102
RTVSPropertyOp19
 70
     1
102
RTVSPropertyOp20
 70
     1
102
RTVSPropertyOp21
 70
     1
102
RTVSPropertyOp22
 70
     1
102
RTVSPropertyOp23
 70
     1
102
RTVSPropertyOp24
 70
     1
102
RTVSPropertyOp25
 70
     1
102
RTVSPropertyOp26
 70
     1
102
RTVSPropertyOp27
 70
     1
  0
XRECORD
  5
9749
102
{ACAD_REACTORS
330
9748
102
}
330
9748
100
AcDbXrecord
280
     1
102
RTVSPost2010Prop28
280
     0
102
RTVSPost2010PropOp28
 70
     1
102
RTVSPost2010Prop29
280
     1
102
RTVSPost2010PropOp29
 70
     1
102
RTVSPost2010Prop30
280
     1
102
RTVSPost2010PropOp30
 70
     1
102
RTVSPost2010Prop31
280
     0
102
RTVSPost2010PropOp31
 70
     1
102
RTVSPost2010Prop32
280
     0
102
RTVSPost2010PropOp32
 70
     1
102
RTVSPost2010Prop33
280
     0
102
RTVSPost2010PropOp33
 70
     1
102
RTVSPost2010Prop34
280
     0
102
RTVSPost2010PropOp34
 70
     1
102
RTVSPost2010Prop35
280
     0
102
RTVSPost2010PropOp35
 70
     1
102
RTVSPost2010Prop36
280
     0
102
RTVSPost2010PropOp36
 70
     1
102
RTVSPost2010Prop37
 90
       50
102
RTVSPost2010PropOp37
 70
     1
102
RTVSPost2010Prop38
140
0.0
102
RTVSPost2010PropOp38
 70
     1
102
RTVSPost2010Prop39
140
1.0
102
RTVSPost2010PropOp39
 70
     1
102
RTVSPost2010Prop40
 90
        0
102
RTVSPost2010PropOp40
 70
     1
102
RTVSPost2010Prop41ColorIndex
 90
       18
102
RTVSPost2010Prop41ColorRGB
 90
        0
102
RTVSPost2010PropOp41
 70
     1
102
RTVSPost2010Prop42
 90
       50
102
RTVSPost2010PropOp42
 70
     1
102
RTVSPost2010Prop43
 90
        3
102
RTVSPost2010PropOp43
 70
     1
102
RTVSPost2010Prop44ColorIndex
 90
        5
102
RTVSPost2010Prop44ColorRGB
 90
      255
102
RTVSPost2010PropOp44
 70
     1
102
RTVSPost2010Prop45
280
     0
102
RTVSPost2010PropOp45
 70
     1
102
RTVSPost2010Prop46
 90
       50
102
RTVSPost2010PropOp46
 70
     1
102
RTVSPost2010Prop47
 90
       50
102
RTVSPost2010PropOp47
 70
     1
102
RTVSPost2010Prop48
 90
       50
102
RTVSPost2010PropOp48
 70
     1
102
RTVSPost2010Prop49
280
     0
102
RTVSPost2010PropOp49
 70
     1
102
RTVSPost2010Prop50
 90
       50
102
RTVSPost2010PropOp50
 70
     1
102
RTVSPost2010Prop51ColorIndex
 90
      256
102
RTVSPost2010Prop51ColorRGB
 90
-16777216
102
RTVSPost2010PropOp51
 70
     0
102
RTVSPost2010Prop52
140
1.0
102
RTVSPost2010PropOp52
 70
     0
102
RTVSPost2010Prop53
 90
        2
102
RTVSPost2010PropOp53
 70
     1
102
RTVSPost2010Prop54
  1
strokes_ogs.tif
102
RTVSPost2010PropOp54
 70
     1
102
RTVSPost2010Prop55
280
     0
102
RTVSPost2010PropOp55
 70
     1
102
RTVSPost2010Prop56
140
1.0
102
RTVSPost2010PropOp56
 70
     1
102
RTVSPost2010Prop57
140
1.0
102
RTVSPost2010PropOp57
 70
     1
102
RTVSPropertyOp0
 70
     1
102
RTVSPropertyOp1
 70
     1
102
RTVSPropertyOp2
 70
     1
102
RTVSPropertyOp3
 70
     1
102
RTVSPropertyOp4
 70
     1
102
RTVSPropertyOp5
 70
     1
102
RTVSPropertyOp6
 70
     1
102
RTVSPropertyOp7
 70
     1
102
RTVSPropertyOp8
 70
     1
102
RTVSPropertyOp9
 70
     1
102
RTVSPropertyOp10
 70
     1
102
RTVSPropertyOp11
 70
     1
102
RTVSPropertyOp12
 70
     1
102
RTVSPropertyOp13
 70
     1
102
RTVSPropertyOp14
 70
     1
102
RTVSPropertyOp15
 70
     1
102
RTVSPropertyOp16
 70
     1
102
RTVSPropertyOp17
 70
     1
102
RTVSPropertyOp18
 70
     1
102
RTVSPropertyOp19
 70
     1
102
RTVSPropertyOp20
 70
     1
102
RTVSPropertyOp21
 70
     1
102
RTVSPropertyOp22
 70
     1
102
RTVSPropertyOp23
 70
     1
102
RTVSPropertyOp24
 70
     1
102
RTVSPropertyOp25
 70
     1
102
RTVSPropertyOp26
 70
     1
102
RTVSPropertyOp27
 70
     1
  0
XRECORD
  5
974B
102
{ACAD_REACTORS
330
974A
102
}
330
974A
100
AcDbXrecord
280
     1
102
RTVSPost2010Prop28
280
     0
102
RTVSPost2010PropOp28
 70
     1
102
RTVSPost2010Prop29
280
     1
102
RTVSPost2010PropOp29
 70
     1
102
RTVSPost2010Prop30
280
     1
102
RTVSPost2010PropOp30
 70
     1
102
RTVSPost2010Prop31
280
     0
102
RTVSPost2010PropOp31
 70
     1
102
RTVSPost2010Prop32
280
     0
102
RTVSPost2010PropOp32
 70
     1
102
RTVSPost2010Prop33
280
     0
102
RTVSPost2010PropOp33
 70
     1
102
RTVSPost2010Prop34
280
     0
102
RTVSPost2010PropOp34
 70
     1
102
RTVSPost2010Prop35
280
     0
102
RTVSPost2010PropOp35
 70
     1
102
RTVSPost2010Prop36
280
     0
102
RTVSPost2010PropOp36
 70
     1
102
RTVSPost2010Prop37
 90
       50
102
RTVSPost2010PropOp37
 70
     1
102
RTVSPost2010Prop38
140
0.0
102
RTVSPost2010PropOp38
 70
     1
102
RTVSPost2010Prop39
140
1.0
102
RTVSPost2010PropOp39
 70
     1
102
RTVSPost2010Prop40
 90
        0
102
RTVSPost2010PropOp40
 70
     1
102
RTVSPost2010Prop41ColorIndex
 90
       18
102
RTVSPost2010Prop41ColorRGB
 90
        0
102
RTVSPost2010PropOp41
 70
     1
102
RTVSPost2010Prop42
 90
       50
102
RTVSPost2010PropOp42
 70
     1
102
RTVSPost2010Prop43
 90
        3
102
RTVSPost2010PropOp43
 70
     1
102
RTVSPost2010Prop44ColorIndex
 90
        5
102
RTVSPost2010Prop44ColorRGB
 90
      255
102
RTVSPost2010PropOp44
 70
     1
102
RTVSPost2010Prop45
280
     0
102
RTVSPost2010PropOp45
 70
     1
102
RTVSPost2010Prop46
 90
       50
102
RTVSPost2010PropOp46
 70
     1
102
RTVSPost2010Prop47
 90
       50
102
RTVSPost2010PropOp47
 70
     1
102
RTVSPost2010Prop48
 90
       50
102
RTVSPost2010PropOp48
 70
     1
102
RTVSPost2010Prop49
280
     0
102
RTVSPost2010PropOp49
 70
     1
102
RTVSPost2010Prop50
 90
       50
102
RTVSPost2010PropOp50
 70
     1
102
RTVSPost2010Prop51ColorIndex
 90
      256
102
RTVSPost2010Prop51ColorRGB
 90
-16777216
102
RTVSPost2010PropOp51
 70
     0
102
RTVSPost2010Prop52
140
1.0
102
RTVSPost2010PropOp52
 70
     0
102
RTVSPost2010Prop53
 90
        2
102
RTVSPost2010PropOp53
 70
     1
102
RTVSPost2010Prop54
  1
strokes_ogs.tif
102
RTVSPost2010PropOp54
 70
     1
102
RTVSPost2010Prop55
280
     0
102
RTVSPost2010PropOp55
 70
     1
102
RTVSPost2010Prop56
140
1.0
102
RTVSPost2010PropOp56
 70
     1
102
RTVSPost2010Prop57
140
1.0
102
RTVSPost2010PropOp57
 70
     1
102
RTVSPropertyOp0
 70
     1
102
RTVSPropertyOp1
 70
     1
102
RTVSPropertyOp2
 70
     1
102
RTVSPropertyOp3
 70
     1
102
RTVSPropertyOp4
 70
     1
102
RTVSPropertyOp5
 70
     1
102
RTVSPropertyOp6
 70
     1
102
RTVSPropertyOp7
 70
     1
102
RTVSPropertyOp8
 70
     1
102
RTVSPropertyOp9
 70
     1
102
RTVSPropertyOp10
 70
     1
102
RTVSPropertyOp11
 70
     1
102
RTVSPropertyOp12
 70
     1
102
RTVSPropertyOp13
 70
     1
102
RTVSPropertyOp14
 70
     1
102
RTVSPropertyOp15
 70
     1
102
RTVSPropertyOp16
 70
     1
102
RTVSPropertyOp17
 70
     1
102
RTVSPropertyOp18
 70
     1
102
RTVSPropertyOp19
 70
     1
102
RTVSPropertyOp20
 70
     1
102
RTVSPropertyOp21
 70
     1
102
RTVSPropertyOp22
 70
     1
102
RTVSPropertyOp23
 70
     1
102
RTVSPropertyOp24
 70
     1
102
RTVSPropertyOp25
 70
     1
102
RTVSPropertyOp26
 70
     1
102
RTVSPropertyOp27
 70
     1
  0
XRECORD
  5
9741
102
{ACAD_REACTORS
330
9740
102
}
330
9740
100
AcDbXrecord
280
     1
102
RTVSPost2010Prop28
280
     0
102
RTVSPost2010PropOp28
 70
     1
102
RTVSPost2010Prop29
280
     1
102
RTVSPost2010PropOp29
 70
     1
102
RTVSPost2010Prop30
280
     1
102
RTVSPost2010PropOp30
 70
     1
102
RTVSPost2010Prop31
280
     0
102
RTVSPost2010PropOp31
 70
     1
102
RTVSPost2010Prop32
280
     0
102
RTVSPost2010PropOp32
 70
     1
102
RTVSPost2010Prop33
280
     0
102
RTVSPost2010PropOp33
 70
     1
102
RTVSPost2010Prop34
280
     0
102
RTVSPost2010PropOp34
 70
     1
102
RTVSPost2010Prop35
280
     0
102
RTVSPost2010PropOp35
 70
     1
102
RTVSPost2010Prop36
280
     0
102
RTVSPost2010PropOp36
 70
     1
102
RTVSPost2010Prop37
 90
       50
102
RTVSPost2010PropOp37
 70
     1
102
RTVSPost2010Prop38
140
0.0
102
RTVSPost2010PropOp38
 70
     1
102
RTVSPost2010Prop39
140
1.0
102
RTVSPost2010PropOp39
 70
     1
102
RTVSPost2010Prop40
 90
        0
102
RTVSPost2010PropOp40
 70
     1
102
RTVSPost2010Prop41ColorIndex
 90
       18
102
RTVSPost2010Prop41ColorRGB
 90
        0
102
RTVSPost2010PropOp41
 70
     1
102
RTVSPost2010Prop42
 90
       50
102
RTVSPost2010PropOp42
 70
     1
102
RTVSPost2010Prop43
 90
        3
102
RTVSPost2010PropOp43
 70
     1
102
RTVSPost2010Prop44ColorIndex
 90
        5
102
RTVSPost2010Prop44ColorRGB
 90
      255
102
RTVSPost2010PropOp44
 70
     1
102
RTVSPost2010Prop45
280
     0
102
RTVSPost2010PropOp45
 70
     1
102
RTVSPost2010Prop46
 90
       50
102
RTVSPost2010PropOp46
 70
     1
102
RTVSPost2010Prop47
 90
       50
102
RTVSPost2010PropOp47
 70
     1
102
RTVSPost2010Prop48
 90
       50
102
RTVSPost2010PropOp48
 70
     1
102
RTVSPost2010Prop49
280
     0
102
RTVSPost2010PropOp49
 70
     1
102
RTVSPost2010Prop50
 90
       50
102
RTVSPost2010PropOp50
 70
     1
102
RTVSPost2010Prop51ColorIndex
 90
      256
102
RTVSPost2010Prop51ColorRGB
 90
-16777216
102
RTVSPost2010PropOp51
 70
     0
102
RTVSPost2010Prop52
140
1.0
102
RTVSPost2010PropOp52
 70
     0
102
RTVSPost2010Prop53
 90
        2
102
RTVSPost2010PropOp53
 70
     1
102
RTVSPost2010Prop54
  1
strokes_ogs.tif
102
RTVSPost2010PropOp54
 70
     1
102
RTVSPost2010Prop55
280
     0
102
RTVSPost2010PropOp55
 70
     1
102
RTVSPost2010Prop56
140
1.0
102
RTVSPost2010PropOp56
 70
     1
102
RTVSPost2010Prop57
140
1.0
102
RTVSPost2010PropOp57
 70
     1
102
RTVSPropertyOp0
 70
     1
102
RTVSPropertyOp1
 70
     1
102
RTVSPropertyOp2
 70
     1
102
RTVSPropertyOp3
 70
     1
102
RTVSPropertyOp4
 70
     1
102
RTVSPropertyOp5
 70
     1
102
RTVSPropertyOp6
 70
     1
102
RTVSPropertyOp7
 70
     1
102
RTVSPropertyOp8
 70
     1
102
RTVSPropertyOp9
 70
     1
102
RTVSPropertyOp10
 70
     1
102
RTVSPropertyOp11
 70
     1
102
RTVSPropertyOp12
 70
     1
102
RTVSPropertyOp13
 70
     1
102
RTVSPropertyOp14
 70
     1
102
RTVSPropertyOp15
 70
     1
102
RTVSPropertyOp16
 70
     1
102
RTVSPropertyOp17
 70
     1
102
RTVSPropertyOp18
 70
     1
102
RTVSPropertyOp19
 70
     1
102
RTVSPropertyOp20
 70
     1
102
RTVSPropertyOp21
 70
     1
102
RTVSPropertyOp22
 70
     1
102
RTVSPropertyOp23
 70
     1
102
RTVSPropertyOp24
 70
     1
102
RTVSPropertyOp25
 70
     1
102
RTVSPropertyOp26
 70
     1
102
RTVSPropertyOp27
 70
     1
  0
XRECORD
  5
9735
102
{ACAD_REACTORS
330
9734
102
}
330
9734
100
AcDbXrecord
280
     1
102
RTVSPost2010Prop28
280
     0
102
RTVSPost2010PropOp28
 70
     1
102
RTVSPost2010Prop29
280
     1
102
RTVSPost2010PropOp29
 70
     1
102
RTVSPost2010Prop30
280
     1
102
RTVSPost2010PropOp30
 70
     1
102
RTVSPost2010Prop31
280
     0
102
RTVSPost2010PropOp31
 70
     1
102
RTVSPost2010Prop32
280
     0
102
RTVSPost2010PropOp32
 70
     1
102
RTVSPost2010Prop33
280
     0
102
RTVSPost2010PropOp33
 70
     1
102
RTVSPost2010Prop34
280
     0
102
RTVSPost2010PropOp34
 70
     1
102
RTVSPost2010Prop35
280
     0
102
RTVSPost2010PropOp35
 70
     1
102
RTVSPost2010Prop36
280
     0
102
RTVSPost2010PropOp36
 70
     1
102
RTVSPost2010Prop37
 90
       50
102
RTVSPost2010PropOp37
 70
     1
102
RTVSPost2010Prop38
140
0.0
102
RTVSPost2010PropOp38
 70
     1
102
RTVSPost2010Prop39
140
1.0
102
RTVSPost2010PropOp39
 70
     1
102
RTVSPost2010Prop40
 90
        0
102
RTVSPost2010PropOp40
 70
     1
102
RTVSPost2010Prop41ColorIndex
 90
       18
102
RTVSPost2010Prop41ColorRGB
 90
        0
102
RTVSPost2010PropOp41
 70
     1
102
RTVSPost2010Prop42
 90
       50
102
RTVSPost2010PropOp42
 70
     1
102
RTVSPost2010Prop43
 90
        3
102
RTVSPost2010PropOp43
 70
     1
102
RTVSPost2010Prop44ColorIndex
 90
        5
102
RTVSPost2010Prop44ColorRGB
 90
      255
102
RTVSPost2010PropOp44
 70
     1
102
RTVSPost2010Prop45
280
     0
102
RTVSPost2010PropOp45
 70
     1
102
RTVSPost2010Prop46
 90
       50
102
RTVSPost2010PropOp46
 70
     1
102
RTVSPost2010Prop47
 90
       50
102
RTVSPost2010PropOp47
 70
     1
102
RTVSPost2010Prop48
 90
       50
102
RTVSPost2010PropOp48
 70
     1
102
RTVSPost2010Prop49
280
     0
102
RTVSPost2010PropOp49
 70
     1
102
RTVSPost2010Prop50
 90
       50
102
RTVSPost2010PropOp50
 70
     1
102
RTVSPost2010Prop51ColorIndex
 90
      256
102
RTVSPost2010Prop51ColorRGB
 90
-16777216
102
RTVSPost2010PropOp51
 70
     0
102
RTVSPost2010Prop52
140
1.0
102
RTVSPost2010PropOp52
 70
     0
102
RTVSPost2010Prop53
 90
        2
102
RTVSPost2010PropOp53
 70
     1
102
RTVSPost2010Prop54
  1
strokes_ogs.tif
102
RTVSPost2010PropOp54
 70
     1
102
RTVSPost2010Prop55
280
     0
102
RTVSPost2010PropOp55
 70
     1
102
RTVSPost2010Prop56
140
1.0
102
RTVSPost2010PropOp56
 70
     1
102
RTVSPost2010Prop57
140
1.0
102
RTVSPost2010PropOp57
 70
     1
102
RTVSPropertyOp0
 70
     1
102
RTVSPropertyOp1
 70
     1
102
RTVSPropertyOp2
 70
     1
102
RTVSPropertyOp3
 70
     1
102
RTVSPropertyOp4
 70
     1
102
RTVSPropertyOp5
 70
     1
102
RTVSPropertyOp6
 70
     1
102
RTVSPropertyOp7
 70
     1
102
RTVSPropertyOp8
 70
     1
102
RTVSPropertyOp9
 70
     1
102
RTVSPropertyOp10
 70
     1
102
RTVSPropertyOp11
 70
     1
102
RTVSPropertyOp12
 70
     1
102
RTVSPropertyOp13
 70
     1
102
RTVSPropertyOp14
 70
     1
102
RTVSPropertyOp15
 70
     1
102
RTVSPropertyOp16
 70
     1
102
RTVSPropertyOp17
 70
     1
102
RTVSPropertyOp18
 70
     1
102
RTVSPropertyOp19
 70
     1
102
RTVSPropertyOp20
 70
     1
102
RTVSPropertyOp21
 70
     1
102
RTVSPropertyOp22
 70
     1
102
RTVSPropertyOp23
 70
     1
102
RTVSPropertyOp24
 70
     1
102
RTVSPropertyOp25
 70
     1
102
RTVSPropertyOp26
 70
     1
102
RTVSPropertyOp27
 70
     1
  0
XRECORD
  5
974D
102
{ACAD_REACTORS
330
974C
102
}
330
974C
100
AcDbXrecord
280
     1
102
RTVSPost2010Prop28
280
     0
102
RTVSPost2010PropOp28
 70
     1
102
RTVSPost2010Prop29
280
     1
102
RTVSPost2010PropOp29
 70
     1
102
RTVSPost2010Prop30
280
     1
102
RTVSPost2010PropOp30
 70
     1
102
RTVSPost2010Prop31
280
     0
102
RTVSPost2010PropOp31
 70
     1
102
RTVSPost2010Prop32
280
     0
102
RTVSPost2010PropOp32
 70
     1
102
RTVSPost2010Prop33
280
     0
102
RTVSPost2010PropOp33
 70
     1
102
RTVSPost2010Prop34
280
     0
102
RTVSPost2010PropOp34
 70
     1
102
RTVSPost2010Prop35
280
     0
102
RTVSPost2010PropOp35
 70
     1
102
RTVSPost2010Prop36
280
     0
102
RTVSPost2010PropOp36
 70
     1
102
RTVSPost2010Prop37
 90
       50
102
RTVSPost2010PropOp37
 70
     1
102
RTVSPost2010Prop38
140
0.0
102
RTVSPost2010PropOp38
 70
     1
102
RTVSPost2010Prop39
140
1.0
102
RTVSPost2010PropOp39
 70
     1
102
RTVSPost2010Prop40
 90
        0
102
RTVSPost2010PropOp40
 70
     1
102
RTVSPost2010Prop41ColorIndex
 90
       18
102
RTVSPost2010Prop41ColorRGB
 90
        0
102
RTVSPost2010PropOp41
 70
     1
102
RTVSPost2010Prop42
 90
       50
102
RTVSPost2010PropOp42
 70
     1
102
RTVSPost2010Prop43
 90
        3
102
RTVSPost2010PropOp43
 70
     1
102
RTVSPost2010Prop44ColorIndex
 90
        5
102
RTVSPost2010Prop44ColorRGB
 90
      255
102
RTVSPost2010PropOp44
 70
     1
102
RTVSPost2010Prop45
280
     0
102
RTVSPost2010PropOp45
 70
     1
102
RTVSPost2010Prop46
 90
       50
102
RTVSPost2010PropOp46
 70
     1
102
RTVSPost2010Prop47
 90
       50
102
RTVSPost2010PropOp47
 70
     1
102
RTVSPost2010Prop48
 90
       50
102
RTVSPost2010PropOp48
 70
     1
102
RTVSPost2010Prop49
280
     0
102
RTVSPost2010PropOp49
 70
     1
102
RTVSPost2010Prop50
 90
       50
102
RTVSPost2010PropOp50
 70
     1
102
RTVSPost2010Prop51ColorIndex
 90
      256
102
RTVSPost2010Prop51ColorRGB
 90
-16777216
102
RTVSPost2010PropOp51
 70
     0
102
RTVSPost2010Prop52
140
1.0
102
RTVSPost2010PropOp52
 70
     0
102
RTVSPost2010Prop53
 90
        2
102
RTVSPost2010PropOp53
 70
     1
102
RTVSPost2010Prop54
  1
strokes_ogs.tif
102
RTVSPost2010PropOp54
 70
     1
102
RTVSPost2010Prop55
280
     0
102
RTVSPost2010PropOp55
 70
     1
102
RTVSPost2010Prop56
140
1.0
102
RTVSPost2010PropOp56
 70
     1
102
RTVSPost2010Prop57
140
1.0
102
RTVSPost2010PropOp57
 70
     1
102
RTVSPropertyOp0
 70
     1
102
RTVSPropertyOp1
 70
     1
102
RTVSPropertyOp2
 70
     1
102
RTVSPropertyOp3
 70
     1
102
RTVSPropertyOp4
 70
     1
102
RTVSPropertyOp5
 70
     1
102
RTVSPropertyOp6
 70
     1
102
RTVSPropertyOp7
 70
     1
102
RTVSPropertyOp8
 70
     1
102
RTVSPropertyOp9
 70
     1
102
RTVSPropertyOp10
 70
     1
102
RTVSPropertyOp11
 70
     1
102
RTVSPropertyOp12
 70
     1
102
RTVSPropertyOp13
 70
     1
102
RTVSPropertyOp14
 70
     1
102
RTVSPropertyOp15
 70
     1
102
RTVSPropertyOp16
 70
     1
102
RTVSPropertyOp17
 70
     1
102
RTVSPropertyOp18
 70
     1
102
RTVSPropertyOp19
 70
     1
102
RTVSPropertyOp20
 70
     1
102
RTVSPropertyOp21
 70
     1
102
RTVSPropertyOp22
 70
     1
102
RTVSPropertyOp23
 70
     1
102
RTVSPropertyOp24
 70
     1
102
RTVSPropertyOp25
 70
     1
102
RTVSPropertyOp26
 70
     1
102
RTVSPropertyOp27
 70
     1
  0
ENDSEC
  0
EOF
