  0
SECTION
  2
HEADER
  9
$ACADVER
  1
AC1032
  9
$ACADMAINTVER
 90
      228
  9
$DWGCODEPAGE
  3
ANSI_932
  9
$LASTSAVEDBY
  1
松田智彦
  9
$REQUIREDVERSIONS
160
                 0
  9
$INSBASE
 10
0.0
 20
0.0
 30
0.0
  9
$EXTMIN
 10
-316.9866695515056
 20
-887.1349570446026
 30
-0.0015258207003583
  9
$EXTMAX
 10
884.4245993899384
 20
740.7870497770818
 30
0.0000000349246037
  9
$LIMMIN
 10
-184.0
 20
-675.0
  9
$LIMMAX
 10
509.0
 20
453.0
  9
$ORTHOMODE
 70
     1
  9
$REGENMODE
 70
     1
  9
$FILLMODE
 70
     1
  9
$QTEXTMODE
 70
     0
  9
$MIRRTEXT
 70
     1
  9
$LTSCALE
 40
30.0
  9
$ATTMODE
 70
     1
  9
$TEXTSIZE
 40
5.0
  9
$TRACEWID
 40
0.05
  9
$TEXTSTYLE
  7
STANDARD1
  9
$CLAYER
  8
30
  9
$CELTYPE
  6
CONTINUOUS
  9
$CECOLOR
 62
   256
  9
$CELTSCALE
 40
1.0
  9
$DISPSILH
 70
     0
  9
$DIMSCALE
 40
1.0
  9
$DIMASZ
 40
2.0
  9
$DIMEXO
 40
10.0
  9
$DIMDLI
 40
0.5
  9
$DIMRND
 40
0.0
  9
$DIMDLE
 40
0.0
  9
$DIMEXE
 40
0.5
  9
$DIMTP
 40
0.0
  9
$DIMTM
 40
0.0
  9
$DIMTXT
 40
10.0
  9
$DIMCEN
 40
0.09
  9
$DIMTSZ
 40
0.0
  9
$DIMTOL
 70
     0
  9
$DIMLIM
 70
     0
  9
$DIMTIH
 70
     0
  9
$DIMTOH
 70
     1
  9
$DIMSE1
 70
     0
  9
$DIMSE2
 70
     0
  9
$DIMTAD
 70
     3
  9
$DIMZIN
 70
    12
  9
$DIMBLK
  1
OPEN
  9
$DIMASO
 70
     1
  9
$DIMSHO
 70
     1
  9
$DIMPOST
  1

  9
$DIMAPOST
  1

  9
$DIMALT
 70
     0
  9
$DIMALTD
 70
     2
  9
$DIMALTF
 40
25.4
  9
$DIMLFAC
 40
1.0
  9
$DIMTOFL
 70
     0
  9
$DIMTVP
 40
0.0
  9
$DIMTIX
 70
     0
  9
$DIMSOXD
 70
     0
  9
$DIMSAH
 70
     0
  9
$DIMBLK1
  1

  9
$DIMBLK2
  1

  9
$DIMSTYLE
  2
STANDARD
  9
$DIMCLRD
 70
     0
  9
$DIMCLRE
 70
     0
  9
$DIMCLRT
 70
     0
  9
$DIMTFAC
 40
1.0
  9
$DIMGAP
 40
1.0
  9
$DIMJUST
 70
     0
  9
$DIMSD1
 70
     0
  9
$DIMSD2
 70
     0
  9
$DIMTOLJ
 70
     1
  9
$DIMTZIN
 70
     0
  9
$DIMALTZ
 70
     0
  9
$DIMALTTZ
 70
     0
  9
$DIMUPT
 70
     0
  9
$DIMDEC
 70
     1
  9
$DIMTDEC
 70
     1
  9
$DIMALTU
 70
     2
  9
$DIMALTTD
 70
     2
  9
$DIMTXSTY
  7
STANDARD
  9
$DIMAUNIT
 70
     0
  9
$DIMADEC
 70
     0
  9
$DIMALTRND
 40
0.0
  9
$DIMAZIN
 70
     0
  9
$DIMDSEP
 70
    46
  9
$DIMATFIT
 70
     3
  9
$DIMFRAC
 70
     0
  9
$DIMLDRBLK
  1
OPEN
  9
$DIMLUNIT
 70
     2
  9
$DIMLWD
 70
    -2
  9
$DIMLWE
 70
    -2
  9
$DIMTMOVE
 70
     0
  9
$DIMFXL
 40
1.0
  9
$DIMFXLON
 70
     0
  9
$DIMJOGANG
 40
0.7853981633974483
  9
$DIMTFILL
 70
     0
  9
$DIMTFILLCLR
 70
     0
  9
$DIMARCSYM
 70
     0
  9
$DIMLTYPE
  6

  9
$DIMLTEX1
  6

  9
$DIMLTEX2
  6

  9
$DIMTXTDIRECTION
 70
     0
  9
$LUNITS
 70
     2
  9
$LUPREC
 70
     4
  9
$SKETCHINC
 40
0.1
  9
$FILLETRAD
 40
6.5
  9
$AUNITS
 70
     0
  9
$AUPREC
 70
     0
  9
$MENU
  1
.
  9
$ELEVATION
 40
0.0
  9
$PELEVATION
 40
0.0
  9
$THICKNESS
 40
0.0
  9
$LIMCHECK
 70
     0
  9
$CHAMFERA
 40
0.0
  9
$CHAMFERB
 40
0.0
  9
$CHAMFERC
 40
0.0
  9
$CHAMFERD
 40
0.0
  9
$SKPOLY
 70
     0
  9
$TDCREATE
 40
2452286.555648148
  9
$TDUCREATE
 40
2452286.180658658
  9
$TDUPDATE
 40
2459933.544270834
  9
$TDUUPDATE
 40
2459933.169270834
  9
$TDINDWG
 40
1.5457404514
  9
$TDUSRTIMER
 40
1.5457393634
  9
$USRTIMER
 70
     1
  9
$ANGBASE
 50
0.0
  9
$ANGDIR
 70
     0
  9
$PDMODE
 70
     0
  9
$PDSIZE
 40
0.0
  9
$PLINEWID
 40
0.0
  9
$SPLFRAME
 70
     0
  9
$SPLINETYPE
 70
     6
  9
$SPLINESEGS
 70
     8
  9
$HANDSEED
  5
7A27
  9
$SURFTAB1
 70
     6
  9
$SURFTAB2
 70
     6
  9
$SURFTYPE
 70
     6
  9
$SURFU
 70
     6
  9
$SURFV
 70
     6
  9
$UCSBASE
  2

  9
$UCSNAME
  2

  9
$UCSORG
 10
0.0
 20
0.0
 30
0.0
  9
$UCSXDIR
 10
1.0
 20
0.0
 30
0.0
  9
$UCSYDIR
 10
0.0
 20
1.0
 30
0.0
  9
$UCSORTHOREF
  2

  9
$UCSORTHOVIEW
 70
     0
  9
$UCSORGTOP
 10
0.0
 20
0.0
 30
0.0
  9
$UCSORGBOTTOM
 10
0.0
 20
0.0
 30
0.0
  9
$UCSORGLEFT
 10
0.0
 20
0.0
 30
0.0
  9
$UCSORGRIGHT
 10
0.0
 20
0.0
 30
0.0
  9
$UCSORGFRONT
 10
0.0
 20
0.0
 30
0.0
  9
$UCSORGBACK
 10
0.0
 20
0.0
 30
0.0
  9
$PUCSBASE
  2

  9
$PUCSNAME
  2

  9
$PUCSORG
 10
0.0
 20
0.0
 30
0.0
  9
$PUCSXDIR
 10
1.0
 20
0.0
 30
0.0
  9
$PUCSYDIR
 10
0.0
 20
1.0
 30
0.0
  9
$PUCSORTHOREF
  2

  9
$PUCSORTHOVIEW
 70
     0
  9
$PUCSORGTOP
 10
0.0
 20
0.0
 30
0.0
  9
$PUCSORGBOTTOM
 10
0.0
 20
0.0
 30
0.0
  9
$PUCSORGLEFT
 10
0.0
 20
0.0
 30
0.0
  9
$PUCSORGRIGHT
 10
0.0
 20
0.0
 30
0.0
  9
$PUCSORGFRONT
 10
0.0
 20
0.0
 30
0.0
  9
$PUCSORGBACK
 10
0.0
 20
0.0
 30
0.0
  9
$USERI1
 70
     0
  9
$USERI2
 70
     0
  9
$USERI3
 70
     0
  9
$USERI4
 70
     0
  9
$USERI5
 70
     0
  9
$USERR1
 40
0.0
  9
$USERR2
 40
0.0
  9
$USERR3
 40
0.0
  9
$USERR4
 40
0.0
  9
$USERR5
 40
0.0
  9
$WORLDVIEW
 70
     1
  9
$SHADEDGE
 70
     3
  9
$SHADEDIF
 70
    70
  9
$TILEMODE
 70
     1
  9
$MAXACTVP
 70
    48
  9
$PINSBASE
 10
0.0
 20
0.0
 30
0.0
  9
$PLIMCHECK
 70
     0
  9
$PEXTMIN
 10
4.273573370203961
 20
5.205246163471485
 30
0.0
  9
$PEXTMAX
 10
194.6100952986349
 20
283.0697008572913
 30
0.0
  9
$PLIMMIN
 10
-5.873748779296875
 20
-5.873749732971191
  9
$PLIMMAX
 10
204.0995788574218
 20
291.1369009017943
  9
$UNITMODE
 70
     0
  9
$VISRETAIN
 70
     1
  9
$PLINEGEN
 70
     0
  9
$PSLTSCALE
 70
     1
  9
$TREEDEPTH
 70
  3020
  9
$CMLSTYLE
  2
STANDARD
  9
$CMLJUST
 70
     0
  9
$CMLSCALE
 40
1.0
  9
$PROXYGRAPHICS
 70
     1
  9
$MEASUREMENT
 70
     0
  9
$CELWEIGHT
370
    -1
  9
$ENDCAPS
280
     0
  9
$JOINSTYLE
280
     0
  9
$LWDISPLAY
290
     0
  9
$INSUNITS
 70
     0
  9
$HYPERLINKBASE
  1

  9
$STYLESHEET
  1

  9
$XEDIT
290
     1
  9
$CEPSNTYPE
380
     0
  9
$PSTYLEMODE
290
     1
  9
$FINGERPRINTGUID
  2
{D60878D9-A946-424B-B144-8FEEDE8ED81A}
  9
$VERSIONGUID
  2
{A8FF9B99-4CAA-9D4A-BF8A-1FB10C5D1ADB}
  9
$EXTNAMES
290
     1
  9
$PSVPSCALE
 40
0.0
  9
$OLESTARTUP
290
     0
  9
$SORTENTS
280
   127
  9
$INDEXCTL
280
     0
  9
$HIDETEXT
280
     0
  9
$XCLIPFRAME
280
     2
  9
$HALOGAP
280
     0
  9
$OBSCOLOR
 70
   257
  9
$OBSLTYPE
280
     0
  9
$INTERSECTIONDISPLAY
280
     0
  9
$INTERSECTIONCOLOR
 70
   257
  9
$DIMASSOC
280
     1
  9
$PROJECTNAME
  1

  9
$CAMERADISPLAY
290
     0
  9
$LENSLENGTH
 40
50.0
  9
$CAMERAHEIGHT
 40
0.0
  9
$STEPSPERSEC
 40
2.0
  9
$STEPSIZE
 40
6.0
  9
$3DDWFPREC
 40
2.0
  9
$PSOLWIDTH
 40
0.25
  9
$PSOLHEIGHT
 40
4.0
  9
$LOFTANG1
 40
1.570796326794896
  9
$LOFTANG2
 40
1.570796326794896
  9
$LOFTMAG1
 40
0.0
  9
$LOFTMAG2
 40
0.0
  9
$LOFTPARAM
 70
     7
  9
$LOFTNORMALS
280
     1
  9
$LATITUDE
 40
37.795
  9
$LONGITUDE
 40
-122.394
  9
$NORTHDIRECTION
 40
0.0
  9
$TIMEZONE
 70
 -8000
  9
$LIGHTGLYPHDISPLAY
280
     1
  9
$TILEMODELIGHTSYNCH
280
     1
  9
$CMATERIAL
347
799B
  9
$SOLIDHIST
280
     0
  9
$SHOWHIST
280
     1
  9
$DWFFRAME
280
     2
  9
$DGNFRAME
280
     0
  9
$REALWORLDSCALE
290
     1
  9
$INTERFERECOLOR
 62
     1
  9
$INTERFEREOBJVS
345
79BD
  9
$INTERFEREVPVS
346
79BA
  9
$CSHADOW
280
     0
  9
$SHADOWPLANELOCATION
 40
0.0
  0
ENDSEC
  0
SECTION
  2
CLASSES
  0
CLASS
  1
ACDBDICTIONARYWDFLT
  2
AcDbDictionaryWithDefault
  3
ObjectDBX Classes
 90
        0
 91
        1
280
     0
281
     0
  0
CLASS
  1
DICTIONARYVAR
  2
AcDbDictionaryVar
  3
ObjectDBX Classes
 90
        0
 91
       10
280
     0
281
     0
  0
CLASS
  1
MATERIAL
  2
AcDbMaterial
  3
ObjectDBX Classes
 90
     1153
 91
        3
280
     0
281
     0
  0
CLASS
  1
VISUALSTYLE
  2
AcDbVisualStyle
  3
ObjectDBX Classes
 90
     4095
 91
       24
280
     0
281
     0
  0
CLASS
  1
TABLESTYLE
  2
AcDbTableStyle
  3
ObjectDBX Classes
 90
     4095
 91
        1
280
     0
281
     0
  0
CLASS
  1
SCALE
  2
AcDbScale
  3
ObjectDBX Classes
 90
     1153
 91
       17
280
     0
281
     0
  0
CLASS
  1
MLEADERSTYLE
  2
AcDbMLeaderStyle
  3
ACDB_MLEADERSTYLE_CLASS
 90
     4095
 91
        1
280
     0
281
     0
  0
CLASS
  1
ACDBSECTIONVIEWSTYLE
  2
AcDbSectionViewStyle
  3
ObjectDBX Classes
 90
     1025
 91
        1
280
     0
281
     0
  0
CLASS
  1
ACDBDETAILVIEWSTYLE
  2
AcDbDetailViewStyle
  3
ObjectDBX Classes
 90
     1025
 91
        1
280
     0
281
     0
  0
CLASS
  1
CELLSTYLEMAP
  2
AcDbCellStyleMap
  3
ObjectDBX Classes
 90
     1152
 91
        1
280
     0
281
     0
  0
ENDSEC
  0
SECTION
  2
TABLES
  0
TABLE
  2
VPORT
  5
8
330
0
100
AcDbSymbolTable
 70
     1
  0
VPORT
  5
7992
330
8
100
AcDbSymbolTableRecord
100
AcDbViewportTableRecord
  2
*Active
 70
     0
 10
0.0
 20
0.0
 11
1.0
 21
1.0
 12
283.7189649192164
 22
-73.17395363376045
 13
0.0
 23
0.0
 14
1.0
 24
1.0
 15
10.0
 25
10.0
 16
0.0
 26
0.0
 36
1.0
 17
0.0
 27
0.0
 37
0.0
 40
1640.223684455097
 41
2.404791929382093
 42
50.0
 43
0.0
 44
0.0
 50
0.0
 51
0.0
 71
     0
 72
   100
 73
     1
 74
     1
 75
     0
 76
     0
 77
     0
 78
     0
281
     0
 65
     1
110
0.0
120
0.0
130
0.0
111
1.0
121
0.0
131
0.0
112
0.0
122
1.0
132
0.0
 79
     0
146
0.0
348
79B9
 60
     3
 61
     5
292
     1
282
     1
141
0.0
142
0.0
 63
   250
421
  3355443
1001
ACAD_NAV_VCDISPLAY
1070
     3
  0
ENDTAB
  0
TABLE
  2
LTYPE
  5
5
330
0
100
AcDbSymbolTable
 70
     9
  0
LTYPE
  5
13
330
5
100
AcDbSymbolTableRecord
100
AcDbLinetypeTableRecord
  2
BYBLOCK
 70
     0
  3

 72
    65
 73
     0
 40
0.0
  0
LTYPE
  5
14
330
5
100
AcDbSymbolTableRecord
100
AcDbLinetypeTableRecord
  2
BYLAYER
 70
     0
  3

 72
    65
 73
     0
 40
0.0
  0
LTYPE
  5
15
330
5
100
AcDbSymbolTableRecord
100
AcDbLinetypeTableRecord
  2
CONTINUOUS
 70
     0
  3
Solid line
 72
    65
 73
     0
 40
0.0
  0
LTYPE
  5
22
330
5
100
AcDbSymbolTableRecord
100
AcDbLinetypeTableRecord
  2
CONTINOUS
 70
     0
  3
Solid line
 72
    65
 73
     0
 40
0.0
  0
LTYPE
  5
23
330
5
100
AcDbSymbolTableRecord
100
AcDbLinetypeTableRecord
  2
DASHED
 70
     0
  3
__ __ __ __ __ __ __ __ __ __ __ __ __ __ __
 72
    65
 73
     2
 40
0.75
 49
0.5
 74
     0
 49
-0.25
 74
     0
  0
LTYPE
  5
24
330
5
100
AcDbSymbolTableRecord
100
AcDbLinetypeTableRecord
  2
DASHDOT
 70
     0
  3
__ . __ . __ . __ . __ . __ . __ . __ . __ . __
 72
    65
 73
     4
 40
1.0
 49
0.5
 74
     0
 49
-0.25
 74
     0
 49
0.0
 74
     0
 49
-0.25
 74
     0
  0
LTYPE
  5
3932
330
5
100
AcDbSymbolTableRecord
100
AcDbLinetypeTableRecord
  2
DIVIDE
 70
     0
  3
Divide ____ . . ____ . . ____ . . ____ . . ____
 72
    65
 73
     6
 40
1.25
 49
0.5
 74
     0
 49
-0.25
 74
     0
 49
0.0
 74
     0
 49
-0.25
 74
     0
 49
0.0
 74
     0
 49
-0.25
 74
     0
  0
LTYPE
  5
6614
330
5
100
AcDbSymbolTableRecord
100
AcDbLinetypeTableRecord
  2
D1101
 70
     0
  3
IGESIN-LineFont-D1101
 72
    65
 73
     6
 40
11.29999999999999
 49
8.0
 74
     0
 49
-0.6
 74
     0
 49
0.75
 74
     0
 49
-0.6
 74
     0
 49
0.75
 74
     0
 49
-0.6
 74
     0
  0
LTYPE
  5
6A90
330
5
100
AcDbSymbolTableRecord
100
AcDbLinetypeTableRecord
  2
D533
 70
     0
  3
IGESIN-LineFont-D533
 72
    65
 73
     2
 40
1.35
 49
0.75
 74
     0
 49
-0.6
 74
     0
  0
LTYPE
  5
7052
330
5
100
AcDbSymbolTableRecord
100
AcDbLinetypeTableRecord
  2
D125
 70
     0
  3
IGESIN-LineFont-D125
 72
    65
 73
     2
 40
1.35
 49
0.75
 74
     0
 49
-0.6
 74
     0
  0
ENDTAB
  0
TABLE
  2
LAYER
  5
2
330
0
100
AcDbSymbolTable
 70
    20
  0
LAYER
  5
10
102
{ACAD_XDICTIONARY
360
79F4
102
}
330
2
100
AcDbSymbolTableRecord
100
AcDbLayerTableRecord
  2
0
 70
     0
 62
     7
  6
CONTINOUS
370
    -3
390
798E
347
79AB
348
0
  0
LAYER
  5
2F
102
{ACAD_XDICTIONARY
360
79F6
102
}
330
2
100
AcDbSymbolTableRecord
100
AcDbLayerTableRecord
  2
10
 70
     0
 62
     4
  6
CONTINOUS
370
    -3
390
798E
347
79AB
348
0
  0
LAYER
  5
31
102
{ACAD_XDICTIONARY
360
79F8
102
}
330
2
100
AcDbSymbolTableRecord
100
AcDbLayerTableRecord
  2
12
 70
     0
 62
     3
  6
CONTINOUS
370
    -3
390
798E
347
79AB
348
0
  0
LAYER
  5
35
102
{ACAD_XDICTIONARY
360
79FA
102
}
330
2
100
AcDbSymbolTableRecord
100
AcDbLayerTableRecord
  2
16
 70
     0
 62
     6
  6
DASHDOT
370
    -3
390
798E
347
79AB
348
0
  0
LAYER
  5
36
102
{ACAD_XDICTIONARY
360
79FC
102
}
330
2
100
AcDbSymbolTableRecord
100
AcDbLayerTableRecord
  2
17
 70
     0
 62
     2
  6
DASHDOT
370
    -3
390
798E
347
79AB
348
0
  0
LAYER
  5
38
102
{ACAD_XDICTIONARY
360
79FE
102
}
330
2
100
AcDbSymbolTableRecord
100
AcDbLayerTableRecord
  2
19
 70
     0
 62
     7
  6
CONTINOUS
370
    -3
390
798E
347
79AB
348
0
  0
LAYER
  5
3C
102
{ACAD_XDICTIONARY
360
7A00
102
}
330
2
100
AcDbSymbolTableRecord
100
AcDbLayerTableRecord
  2
11
 70
     0
 62
     1
  6
CONTINOUS
370
    -3
390
798E
347
79AB
348
0
  0
LAYER
  5
3D
102
{ACAD_XDICTIONARY
360
7A02
102
}
330
2
100
AcDbSymbolTableRecord
100
AcDbLayerTableRecord
  2
24
 70
     0
 62
     2
  6
CONTINOUS
370
    -3
390
798E
347
79AB
348
0
  0
LAYER
  5
3A2
102
{ACAD_XDICTIONARY
360
7A04
102
}
330
2
100
AcDbSymbolTableRecord
100
AcDbLayerTableRecord
  2
30
 70
     0
 62
     9
  6
CONTINUOUS
370
    -3
390
798E
347
79AB
348
0
  0
LAYER
  5
3A4
330
2
100
AcDbSymbolTableRecord
100
AcDbLayerTableRecord
  2
DEFPOINTS
 70
     0
 62
     7
  6
CONTINUOUS
290
     0
370
    -3
390
798E
347
79AB
348
0
  0
LAYER
  5
3933
102
{ACAD_XDICTIONARY
360
7A06
102
}
330
2
100
AcDbSymbolTableRecord
100
AcDbLayerTableRecord
  2
18
 70
     0
 62
     5
  6
DIVIDE
370
    -3
390
798E
347
79AB
348
0
  0
LAYER
  5
4709
102
{ACAD_XDICTIONARY
360
7A08
102
}
330
2
100
AcDbSymbolTableRecord
100
AcDbLayerTableRecord
  2
L0_
 70
     0
 62
     7
  6
CONTINUOUS
370
    -3
390
798E
347
79AB
348
0
  0
LAYER
  5
470B
102
{ACAD_XDICTIONARY
360
7A0A
102
}
330
2
100
AcDbSymbolTableRecord
100
AcDbLayerTableRecord
  2
L210_
 70
     0
 62
     7
  6
CONTINUOUS
370
    -3
390
798E
347
79AB
348
0
  0
LAYER
  5
6615
102
{ACAD_XDICTIONARY
360
7A0C
102
}
330
2
100
AcDbSymbolTableRecord
100
AcDbLayerTableRecord
  2
L150_
 70
     0
 62
     7
  6
CONTINUOUS
370
    -3
390
798E
347
79AB
348
0
  0
LAYER
  5
6616
102
{ACAD_XDICTIONARY
360
7A0E
102
}
330
2
100
AcDbSymbolTableRecord
100
AcDbLayerTableRecord
  2
L225_
 70
     0
 62
     7
  6
CONTINUOUS
370
    -3
390
798E
347
79AB
348
0
  0
LAYER
  5
6617
102
{ACAD_XDICTIONARY
360
7A10
102
}
330
2
100
AcDbSymbolTableRecord
100
AcDbLayerTableRecord
  2
L230_
 70
     0
 62
     7
  6
CONTINUOUS
370
    -3
390
798E
347
79AB
348
0
  0
LAYER
  5
6691
102
{ACAD_XDICTIONARY
360
7A12
102
}
330
2
100
AcDbSymbolTableRecord
100
AcDbLayerTableRecord
  2
21
 70
     0
 62
     7
  6
CONTINUOUS
370
    -3
390
798E
347
79AB
348
0
  0
LAYER
  5
678F
102
{ACAD_XDICTIONARY
360
7A14
102
}
330
2
100
AcDbSymbolTableRecord
100
AcDbLayerTableRecord
  2
L10_
 70
     0
 62
     7
  6
CONTINUOUS
370
    -3
390
798E
347
79AB
348
0
  0
LAYER
  5
6790
102
{ACAD_XDICTIONARY
360
7A16
102
}
330
2
100
AcDbSymbolTableRecord
100
AcDbLayerTableRecord
  2
L170_
 70
     0
 62
     7
  6
CONTINUOUS
370
    -3
390
798E
347
79AB
348
0
  0
LAYER
  5
680B
102
{ACAD_XDICTIONARY
360
7A18
102
}
330
2
100
AcDbSymbolTableRecord
100
AcDbLayerTableRecord
  2
22
 70
     0
 62
     3
  6
CONTINUOUS
370
    -3
390
798E
347
79AB
348
0
  0
ENDTAB
  0
TABLE
  2
STYLE
  5
3
330
0
100
AcDbSymbolTable
 70
     3
  0
STYLE
  5
11
330
3
100
AcDbSymbolTableRecord
100
AcDbTextStyleTableRecord
  2
STANDARD
 70
     0
 40
0.0
 41
1.0
 50
0.0
 71
     0
 42
2.0
  3
txt.shx
  4
bigfont.shx
  0
STYLE
  5
42
330
3
100
AcDbSymbolTableRecord
100
AcDbTextStyleTableRecord
  2
STANDARD1
 70
     0
 40
0.0
 41
1.0
 50
0.0
 71
     0
 42
5.0
  3
MONOTXT
  4
BIGFONT
  0
STYLE
  5
3ACF
330
3
100
AcDbSymbolTableRecord
100
AcDbTextStyleTableRecord
  2
SYMBOL3
 70
     0
 40
0.0
 41
1.0
 50
0.0
 71
     0
 42
0.2
  3
iges1003
  4

  0
ENDTAB
  0
TABLE
  2
VIEW
  5
6
330
0
100
AcDbSymbolTable
 70
     3
  0
VIEW
  5
230C
330
6
100
AcDbSymbolTableRecord
100
AcDbViewTableRecord
  2
OLE1
 70
     0
 40
148.9124878027714
 10
429.4976280407222
 20
2.560626997828478
 41
103.1458057716444
 11
0.0
 21
0.0
 31
1.0
 12
0.0
 22
0.0
 32
0.0
 42
50.0
 43
0.0
 44
0.0
 50
0.0
 71
     0
281
     0
 72
     0
 73
     0
348
79B9
  0
VIEW
  5
230E
330
6
100
AcDbSymbolTableRecord
100
AcDbViewTableRecord
  2
OLE2
 70
     0
 40
170.7786920545775
 10
322.664969958371
 20
-5.978304054290276
 41
102.4672152327465
 11
0.0
 21
0.0
 31
1.0
 12
0.0
 22
0.0
 32
0.0
 42
50.0
 43
0.0
 44
0.0
 50
0.0
 71
     0
281
     0
 72
     0
 73
     0
348
79B9
  0
VIEW
  5
23AA
330
6
100
AcDbSymbolTableRecord
100
AcDbViewTableRecord
  2
OLE3
 70
     0
 40
591.7897393182231
 10
84.79698158148218
 20
-46.09336010803995
 41
388.7920961799953
 11
0.0
 21
0.0
 31
1.0
 12
0.0
 22
0.0
 32
0.0
 42
50.0
 43
0.0
 44
0.0
 50
0.0
 71
     0
281
     0
 72
     0
 73
     0
348
79B9
  0
ENDTAB
  0
TABLE
  2
UCS
  5
7
330
0
100
AcDbSymbolTable
 70
     0
  0
ENDTAB
  0
TABLE
  2
APPID
  5
9
330
0
100
AcDbSymbolTable
 70
     4
  0
APPID
  5
12
330
9
100
AcDbSymbolTableRecord
100
AcDbRegAppTableRecord
  2
ACAD
 70
     0
  0
APPID
  5
ECD
330
9
100
AcDbSymbolTableRecord
100
AcDbRegAppTableRecord
  2
CONTENTBLOCKICON
 70
     0
  0
APPID
  5
79EC
330
9
100
AcDbSymbolTableRecord
100
AcDbRegAppTableRecord
  2
ACAD_EXEMPT_FROM_CAD_STANDARDS
 70
     0
  0
APPID
  5
7A23
330
9
100
AcDbSymbolTableRecord
100
AcDbRegAppTableRecord
  2
ACAD_NAV_VCDISPLAY
 70
     0
  0
ENDTAB
  0
TABLE
  2
DIMSTYLE
  5
A
330
0
100
AcDbSymbolTable
 70
     2
100
AcDbDimStyleTable
 71
     1
340
175
  0
DIMSTYLE
105
175
102
{ACAD_REACTORS
330
6CC0
330
6D31
330
6D3E
330
6D4B
330
6E3A
330
6E3B
330
6E3E
330
6E50
330
6E57
330
6E5A
330
6E5C
330
6F2A
330
6F37
330
71A4
330
71B3
330
71C0
330
71CD
330
71DA
330
71E7
330
71F4
330
7207
330
7214
330
72D7
330
72E4
330
72F1
330
7350
330
735D
330
736A
330
7392
330
739F
330
73EF
330
6E4B
330
71B2
330
681B
330
681C
330
760A
102
}
330
A
100
AcDbSymbolTableRecord
100
AcDbDimStyleTableRecord
  2
STANDARD
 70
     0
 41
2.0
 42
10.0
 43
0.5
 44
0.5
 73
     0
 77
     3
 78
    12
140
10.0
147
1.0
271
     1
272
     1
340
11
341
3B2
342
3B2
  0
ENDTAB
  0
TABLE
  2
BLOCK_RECORD
  5
1
330
0
100
AcDbSymbolTable
 70
    48
  0
BLOCK_RECORD
  5
1E
102
{ACAD_XDICTIONARY
360
178
102
}
330
1
100
AcDbSymbolTableRecord
100
AcDbBlockTableRecord
  2
*MODEL_SPACE
340
798F
 70
     0
280
     1
281
     0
  0
BLOCK_RECORD
  5
1A
102
{ACAD_XDICTIONARY
360
17A
102
}
330
1
100
AcDbSymbolTableRecord
100
AcDbBlockTableRecord
  2
*PAPER_SPACE
340
7990
 70
     0
280
     1
281
     0
  0
BLOCK_RECORD
  5
3B2
330
1
100
AcDbSymbolTableRecord
100
AcDbBlockTableRecord
  2
_OPEN
340
0
102
{BLKREFS
331
78E4
331
78E5
331
78ED
331
78EE
331
758F
331
7590
331
7586
331
7587
331
78F6
331
78F7
331
75B3
331
75B4
331
75E7
331
75E8
331
75DF
331
75D6
331
75D7
331
7598
331
7599
331
75AA
331
75AB
331
7604
331
7605
331
74CF
331
796E
331
796F
331
754E
331
754F
331
7977
331
7978
331
7980
331
7981
331
75F2
331
75F3
331
7574
331
7575
331
757D
331
757E
331
7610
331
76A7
331
76A8
331
76B3
331
76B4
331
76BF
331
76C0
331
76CB
331
76CC
331
74D0
331
74D8
331
74D9
331
74E1
331
74E2
331
74EB
331
74EC
331
791F
331
7920
331
7928
331
7929
331
7506
331
7507
331
750F
331
7510
331
7518
331
7519
331
795C
331
795D
331
752A
331
752B
331
7533
331
7534
331
7965
331
7966
331
760F
331
7452
331
7453
331
77A4
331
77A5
331
7787
331
7788
331
7790
331
7791
331
7799
331
779A
331
777E
331
777F
102
}
 70
     0
280
     1
281
     0
  0
BLOCK_RECORD
  5
46F7
330
1
100
AcDbSymbolTableRecord
100
AcDbBlockTableRecord
  2
B837
340
0
 70
     0
280
     1
281
     0
  0
BLOCK_RECORD
  5
67FE
330
1
100
AcDbSymbolTableRecord
100
AcDbBlockTableRecord
  2
A$C33A80D96
340
0
 70
     0
280
     1
281
     0
  0
BLOCK_RECORD
  5
6818
330
1
100
AcDbSymbolTableRecord
100
AcDbBlockTableRecord
  2
A$C02AA2CCA
340
0
 70
     0
280
     1
281
     0
  0
BLOCK_RECORD
  5
6CD3
330
1
100
AcDbSymbolTableRecord
100
AcDbBlockTableRecord
  2
*D4
340
0
 70
     0
280
     1
281
     0
  0
BLOCK_RECORD
  5
6D32
330
1
100
AcDbSymbolTableRecord
100
AcDbBlockTableRecord
  2
*D5
340
0
 70
     0
280
     1
281
     0
  0
BLOCK_RECORD
  5
6D3F
330
1
100
AcDbSymbolTableRecord
100
AcDbBlockTableRecord
  2
*D6
340
0
 70
     0
280
     1
281
     0
  0
BLOCK_RECORD
  5
6D4C
330
1
100
AcDbSymbolTableRecord
100
AcDbBlockTableRecord
  2
*D7
340
0
 70
     0
280
     1
281
     0
  0
BLOCK_RECORD
  5
6E64
330
1
100
AcDbSymbolTableRecord
100
AcDbBlockTableRecord
  2
*D8
340
0
 70
     0
280
     1
281
     0
  0
BLOCK_RECORD
  5
6E70
330
1
100
AcDbSymbolTableRecord
100
AcDbBlockTableRecord
  2
*D9
340
0
 70
     0
280
     1
281
     0
  0
BLOCK_RECORD
  5
6E7C
330
1
100
AcDbSymbolTableRecord
100
AcDbBlockTableRecord
  2
*D10
340
0
 70
     0
280
     1
281
     0
  0
BLOCK_RECORD
  5
6E88
330
1
100
AcDbSymbolTableRecord
100
AcDbBlockTableRecord
  2
*D11
340
0
 70
     0
280
     1
281
     0
  0
BLOCK_RECORD
  5
6E94
330
1
100
AcDbSymbolTableRecord
100
AcDbBlockTableRecord
  2
*D12
340
0
 70
     0
280
     1
281
     0
  0
BLOCK_RECORD
  5
6EA0
330
1
100
AcDbSymbolTableRecord
100
AcDbBlockTableRecord
  2
*D13
340
0
 70
     0
280
     1
281
     0
  0
BLOCK_RECORD
  5
6EAB
330
1
100
AcDbSymbolTableRecord
100
AcDbBlockTableRecord
  2
*D14
340
0
 70
     0
280
     1
281
     0
  0
BLOCK_RECORD
  5
6F2B
330
1
100
AcDbSymbolTableRecord
100
AcDbBlockTableRecord
  2
*D15
340
0
 70
     0
280
     1
281
     0
  0
BLOCK_RECORD
  5
6F38
330
1
100
AcDbSymbolTableRecord
100
AcDbBlockTableRecord
  2
*D16
340
0
 70
     0
280
     1
281
     0
  0
BLOCK_RECORD
  5
71A5
330
1
100
AcDbSymbolTableRecord
100
AcDbBlockTableRecord
  2
*D17
340
0
 70
     0
280
     1
281
     0
  0
BLOCK_RECORD
  5
71B4
330
1
100
AcDbSymbolTableRecord
100
AcDbBlockTableRecord
  2
*D18
340
0
 70
     0
280
     1
281
     0
  0
BLOCK_RECORD
  5
71C1
330
1
100
AcDbSymbolTableRecord
100
AcDbBlockTableRecord
  2
*D19
340
0
 70
     0
280
     1
281
     0
  0
BLOCK_RECORD
  5
71CE
330
1
100
AcDbSymbolTableRecord
100
AcDbBlockTableRecord
  2
*D20
340
0
 70
     0
280
     1
281
     0
  0
BLOCK_RECORD
  5
71DB
330
1
100
AcDbSymbolTableRecord
100
AcDbBlockTableRecord
  2
*D21
340
0
 70
     0
280
     1
281
     0
  0
BLOCK_RECORD
  5
71E8
330
1
100
AcDbSymbolTableRecord
100
AcDbBlockTableRecord
  2
*D22
340
0
 70
     0
280
     1
281
     0
  0
BLOCK_RECORD
  5
71F5
330
1
100
AcDbSymbolTableRecord
100
AcDbBlockTableRecord
  2
*D23
340
0
 70
     0
280
     1
281
     0
  0
BLOCK_RECORD
  5
7208
330
1
100
AcDbSymbolTableRecord
100
AcDbBlockTableRecord
  2
*D24
340
0
 70
     0
280
     1
281
     0
  0
BLOCK_RECORD
  5
7215
330
1
100
AcDbSymbolTableRecord
100
AcDbBlockTableRecord
  2
*D25
340
0
 70
     0
280
     1
281
     0
  0
BLOCK_RECORD
  5
72D8
330
1
100
AcDbSymbolTableRecord
100
AcDbBlockTableRecord
  2
*D26
340
0
 70
     0
280
     1
281
     0
  0
BLOCK_RECORD
  5
72E5
330
1
100
AcDbSymbolTableRecord
100
AcDbBlockTableRecord
  2
*D27
340
0
 70
     0
280
     1
281
     0
  0
BLOCK_RECORD
  5
72F2
330
1
100
AcDbSymbolTableRecord
100
AcDbBlockTableRecord
  2
*D28
340
0
 70
     0
280
     1
281
     0
  0
BLOCK_RECORD
  5
7351
330
1
100
AcDbSymbolTableRecord
100
AcDbBlockTableRecord
  2
*D29
340
0
 70
     0
280
     1
281
     0
  0
BLOCK_RECORD
  5
735E
330
1
100
AcDbSymbolTableRecord
100
AcDbBlockTableRecord
  2
*D30
340
0
 70
     0
280
     1
281
     0
  0
BLOCK_RECORD
  5
736B
330
1
100
AcDbSymbolTableRecord
100
AcDbBlockTableRecord
  2
*D31
340
0
 70
     0
280
     1
281
     0
  0
BLOCK_RECORD
  5
7393
330
1
100
AcDbSymbolTableRecord
100
AcDbBlockTableRecord
  2
*D32
340
0
 70
     0
280
     1
281
     0
  0
BLOCK_RECORD
  5
73A0
330
1
100
AcDbSymbolTableRecord
100
AcDbBlockTableRecord
  2
*D33
340
0
 70
     0
280
     1
281
     0
  0
BLOCK_RECORD
  5
73F0
330
1
100
AcDbSymbolTableRecord
100
AcDbBlockTableRecord
  2
*D34
340
0
 70
     0
280
     1
281
     0
  0
BLOCK_RECORD
  5
7423
330
1
100
AcDbSymbolTableRecord
100
AcDbBlockTableRecord
  2
*D35
340
0
 70
     0
280
     1
281
     0
  0
BLOCK_RECORD
  5
7430
330
1
100
AcDbSymbolTableRecord
100
AcDbBlockTableRecord
  2
*D36
340
0
 70
     0
280
     1
281
     0
  0
BLOCK_RECORD
  5
743D
330
1
100
AcDbSymbolTableRecord
100
AcDbBlockTableRecord
  2
*D37
340
0
 70
     0
280
     1
281
     0
  0
BLOCK_RECORD
  5
760B
330
1
100
AcDbSymbolTableRecord
100
AcDbBlockTableRecord
  2
*D38
340
0
 70
     0
280
     1
281
     0
  0
BLOCK_RECORD
  5
76A3
330
1
100
AcDbSymbolTableRecord
100
AcDbBlockTableRecord
  2
*D39
340
0
 70
     0
280
     1
281
     0
  0
BLOCK_RECORD
  5
76AF
330
1
100
AcDbSymbolTableRecord
100
AcDbBlockTableRecord
  2
*D40
340
0
 70
     0
280
     1
281
     0
  0
BLOCK_RECORD
  5
76BB
330
1
100
AcDbSymbolTableRecord
100
AcDbBlockTableRecord
  2
*D41
340
0
 70
     0
280
     1
281
     0
  0
BLOCK_RECORD
  5
76C7
330
1
100
AcDbSymbolTableRecord
100
AcDbBlockTableRecord
  2
*D42
340
0
 70
     0
280
     1
281
     0
  0
BLOCK_RECORD
  5
7703
330
1
100
AcDbSymbolTableRecord
100
AcDbBlockTableRecord
  2
*D43
340
0
 70
     0
280
     1
281
     0
  0
BLOCK_RECORD
  5
770F
330
1
100
AcDbSymbolTableRecord
100
AcDbBlockTableRecord
  2
*D44
340
0
 70
     0
280
     1
281
     0
  0
BLOCK_RECORD
  5
771B
330
1
100
AcDbSymbolTableRecord
100
AcDbBlockTableRecord
  2
*D45
340
0
 70
     0
280
     1
281
     0
  0
BLOCK_RECORD
  5
7727
330
1
100
AcDbSymbolTableRecord
100
AcDbBlockTableRecord
  2
*D46
340
0
 70
     0
280
     1
281
     0
  0
ENDTAB
  0
ENDSEC
  0
SECTION
  2
BLOCKS
  0
BLOCK
  5
1F
330
1E
100
AcDbEntity
  8
0
100
AcDbBlockBegin
  2
*MODEL_SPACE
 70
     0
 10
0.0
 20
0.0
 30
0.0
  3
*MODEL_SPACE
  1

  0
ENDBLK
  5
20
330
1E
100
AcDbEntity
  8
0
100
AcDbBlockEnd
  0
BLOCK
  5
1B
330
1A
100
AcDbEntity
 67
     1
  8
0
100
AcDbBlockBegin
  2
*PAPER_SPACE
 70
     0
 10
0.0
 20
0.0
 30
0.0
  3
*PAPER_SPACE
  1

  0
ENDBLK
  5
1C
330
1A
100
AcDbEntity
 67
     1
  8
0
100
AcDbBlockEnd
  0
BLOCK
  5
3B6
330
3B2
100
AcDbEntity
  8
0
100
AcDbBlockBegin
  2
_OPEN
 70
     0
 10
0.0
 20
0.0
 30
0.0
  3
_OPEN
  1

  0
LINE
  5
3B3
330
3B2
100
AcDbEntity
  8
30
  6
Continuous
 62
     0
100
AcDbLine
 10
-1.0
 20
0.1666666666666666
 30
0.0
 11
0.0
 21
0.0
 31
0.0
  0
LINE
  5
3B4
330
3B2
100
AcDbEntity
  8
30
  6
Continuous
 62
     0
100
AcDbLine
 10
-1.0
 20
-0.1666666666666666
 30
0.0
 11
0.0
 21
0.0
 31
0.0
  0
LINE
  5
3B5
330
3B2
100
AcDbEntity
  8
30
  6
Continuous
 62
     0
100
AcDbLine
 10
0.0
 20
0.0
 30
0.0
 11
-1.0
 21
0.0
 31
0.0
  0
ENDBLK
  5
3B7
330
3B2
100
AcDbEntity
  8
0
100
AcDbBlockEnd
  0
BLOCK
  5
46FA
330
46F7
100
AcDbEntity
  8
0
100
AcDbBlockBegin
  2
B837
 70
     0
 10
0.0
 20
0.0
 30
0.0
  3
B837
  1

  0
TEXT
  5
46F8
330
46F7
100
AcDbEntity
  8
L0_
  6
Continuous
100
AcDbText
 10
1984.080078125
 20
1307.4332275391
 30
0.0
 40
12.0
  1
n
 41
1.5
  7
SYMBOL3
 72
     5
 11
2002.080078125
 21
1307.4332275391
 31
0.0
100
AcDbText
 73
     2
  0
TEXT
  5
46F9
330
46F7
100
AcDbEntity
  8
L0_
  6
Continuous
100
AcDbText
 10
2002.080078125
 20
1307.4332275391
 30
0.0
 40
12.0
  1
11
 41
0.9483870967741909
  7
SYMBOL3
 72
     5
 11
2018.880078125
 21
1307.4332275391
 31
0.0
100
AcDbText
 73
     2
  0
ENDBLK
  5
46FB
330
46F7
100
AcDbEntity
  8
0
100
AcDbBlockEnd
  0
BLOCK
  5
6809
330
67FE
100
AcDbEntity
  8
0
100
AcDbBlockBegin
  2
A$C33A80D96
 70
     0
 10
0.0
 20
0.0
 30
0.0
  3
A$C33A80D96
  1

  0
LINE
  5
67FF
330
67FE
100
AcDbEntity
  8
L170_
  6
D1101
100
AcDbLine
 10
-105.0
 20
141.0
 30
0.0
 11
-105.0
 21
-135.9997558594
 31
0.0
  0
LINE
  5
6800
330
67FE
100
AcDbEntity
  8
L10_
  6
Continuous
100
AcDbLine
 10
31.99975585940001
 20
39.5
 30
0.0
 11
31.99975585940001
 21
-39.49975585940001
 31
0.0
  0
LINE
  5
6801
330
67FE
100
AcDbEntity
  8
L10_
  6
Continuous
100
AcDbLine
 10
-32.0
 20
39.5
 30
0.0
 11
-32.0
 21
-39.49975585940001
 31
0.0
  0
ARC
  5
6802
330
67FE
100
AcDbEntity
  8
L10_
  6
Continuous
100
AcDbCircle
 10
-25.5
 20
-39.49975585940001
 30
0.0
 40
6.5
100
AcDbArc
 50
180.0
 51
270.0
  0
ARC
  5
6803
330
67FE
100
AcDbEntity
  8
L10_
  6
Continuous
100
AcDbCircle
 10
25.5
 20
-39.49975585940001
 30
0.0
 40
6.5
100
AcDbArc
 50
270.0
 51
0.0
  0
LINE
  5
6804
330
67FE
100
AcDbEntity
  8
L10_
  6
Continuous
100
AcDbLine
 10
-25.5
 20
-45.9997558594
 30
0.0
 11
25.5
 21
-45.9997558594
 31
0.0
  0
ARC
  5
6805
330
67FE
100
AcDbEntity
  8
L10_
  6
Continuous
100
AcDbCircle
 10
-25.5
 20
39.5
 30
0.0
 40
6.5
100
AcDbArc
 50
90.0
 51
180.0
  0
ARC
  5
6806
330
67FE
100
AcDbEntity
  8
L10_
  6
Continuous
100
AcDbCircle
 10
25.5
 20
39.5
 30
0.0
 40
6.5
100
AcDbArc
 50
0.0
 51
90.0
  0
LINE
  5
6807
330
67FE
100
AcDbEntity
  8
L10_
  6
Continuous
100
AcDbLine
 10
-25.5
 20
46.0
 30
0.0
 11
25.5
 21
46.0
 31
0.0
  0
LINE
  5
6808
330
67FE
100
AcDbEntity
  8
L170_
  6
D1101
100
AcDbLine
 10
104.9997558594
 20
141.0
 30
0.0
 11
104.9997558594
 21
-135.9997558594
 31
0.0
  0
ENDBLK
  5
680A
330
67FE
100
AcDbEntity
  8
0
100
AcDbBlockEnd
  0
BLOCK
  5
681D
330
6818
100
AcDbEntity
  8
0
100
AcDbBlockBegin
  2
A$C02AA2CCA
 70
     0
 10
0.0
 20
0.0
 30
0.0
  3
A$C02AA2CCA
  1

  0
TEXT
  5
6819
330
6818
100
AcDbEntity
  8
30
  6
Continuous
100
AcDbText
 10
-16.26575368057832
 20
20.24771181220211
 30
0.0
 40
5.0
  1
M6
100
AcDbText
  0
TEXT
  5
681A
330
6818
100
AcDbEntity
  8
30
  6
Continuous
100
AcDbText
 10
24.62249335110151
 20
29.24046914997386
 30
0.0
 40
5.0
  1
%%c36
100
AcDbText
  0
LEADER
  5
681B
330
6818
100
AcDbEntity
  8
30
  6
Continuous
100
AcDbLeader
  3
STANDARD
 76
     3
 10
0.0
 20
0.0
 30
0.0
 10
12.63699972768687
 20
27.54131258563637
 30
0.0
 10
43.4097028642327
 20
27.48495877369673
 30
0.0
1001
ACAD
1000
DSTYLE
1002
{
1070
     5
1000
OPEN
1070
   342
1005
3B2
1002
}
1000
LEANOF
1010
0.0
1020
0.0
1030
0.0
  0
LEADER
  5
681C
330
6818
100
AcDbEntity
  8
30
  6
Continuous
100
AcDbLeader
  3
STANDARD
 76
     3
 10
-30.0066066714519
 20
-6.901172279919307
 30
0.0
 10
-25.40981255440478
 20
18.07525179299744
 30
0.0
 10
5.362890582141047
 20
18.0188979810578
 30
0.0
1001
ACAD
1000
DSTYLE
1002
{
1070
     5
1000
OPEN
1070
   342
1005
3B2
1002
}
1000
LEANOF
1010
0.0
1020
0.0
1030
0.0
  0
ENDBLK
  5
681E
330
6818
100
AcDbEntity
  8
0
100
AcDbBlockEnd
  0
BLOCK
  5
6CDD
330
6CD3
100
AcDbEntity
  8
0
100
AcDbBlockBegin
  2
*D4
 70
     1
 10
0.0
 20
0.0
 30
0.0
  3
*D4
  1

  0
LINE
  5
744F
330
6CD3
100
AcDbEntity
  8
30
  6
Continuous
 62
     0
440
 16777216
100
AcDbLine
 10
-170.0
 20
518.4831426686018
 30
0.0
 11
-174.4999999999999
 21
518.4831426686018
 31
0.0
  0
LINE
  5
7450
330
6CD3
100
AcDbEntity
  8
30
  6
Continuous
 62
     0
440
 16777216
100
AcDbLine
 10
-170.0
 20
333.4826543873018
 30
0.0
 11
-174.5
 21
333.4826543873018
 31
0.0
  0
LINE
  5
7451
330
6CD3
100
AcDbEntity
  8
30
  6
Continuous
 62
     0
440
 16777216
100
AcDbLine
 10
-173.9999999999999
 20
516.4831426686019
 30
0.0
 11
-174.0
 21
335.4826543873018
 31
0.0
  0
INSERT
  5
7452
330
6CD3
100
AcDbEntity
  8
30
  6
Continuous
 62
     0
440
 16777216
100
AcDbBlockReference
  2
_OPEN
 10
-173.9999999999999
 20
518.4831426686018
 30
0.0
 41
2.0
 42
2.0
 43
2.0
 50
90.0
  0
INSERT
  5
7453
330
6CD3
100
AcDbEntity
  8
30
  6
Continuous
 62
     0
440
 16777216
100
AcDbBlockReference
  2
_OPEN
 10
-174.0
 20
333.4826543873018
 30
0.0
 41
2.0
 42
2.0
 43
2.0
 50
270.0
  0
MTEXT
  5
7454
330
6CD3
100
AcDbEntity
  8
30
  6
Continuous
 62
     0
440
 16777216
100
AcDbMText
 10
-180.0
 20
425.9828985279519
 30
0.0
 40
10.0
 41
0.0
 46
0.0
 71
     5
 72
     5
  1
\A1;185
 11
0.0000000000000001
 21
1.0
 31
0.0
 73
     1
 44
1.0
1001
ACAD
1000
MTEXTBEGIN
1070
    73
1070
     1
1070
    44
1040
1.0
1070
    74
1070
     0
1000
MTEXTEND
1000
MTEXTBEGIN
1070
    73
1070
     1
1070
    44
1040
1.0
1070
    74
1070
     0
1000
MTEXTEND
1000
MTEXTBEGIN
1070
    73
1070
     1
1070
    44
1040
1.0
1070
    74
1070
     0
1000
MTEXTEND
  0
POINT
  5
7455
330
6CD3
100
AcDbEntity
  8
DEFPOINTS
  6
Continuous
 62
     0
440
 16777216
100
AcDbPoint
 10
-160.0
 20
518.4831426686018
 30
0.0
  0
POINT
  5
7456
330
6CD3
100
AcDbEntity
  8
DEFPOINTS
  6
Continuous
 62
     0
440
 16777216
100
AcDbPoint
 10
-160.0
 20
333.4826543873018
 30
0.0
  0
POINT
  5
7457
330
6CD3
100
AcDbEntity
  8
DEFPOINTS
  6
Continuous
 62
     0
440
 16777216
100
AcDbPoint
 10
-174.0
 20
333.4826543873018
 30
0.0
  0
ENDBLK
  5
6CDE
330
6CD3
100
AcDbEntity
  8
0
100
AcDbBlockEnd
  0
BLOCK
  5
6D3C
330
6D32
100
AcDbEntity
  8
0
100
AcDbBlockBegin
  2
*D5
 70
     1
 10
0.0
 20
0.0
 30
0.0
  3
*D5
  1

  0
LINE
  5
77A1
330
6D32
100
AcDbEntity
  8
30
  6
Continuous
 62
     0
440
 16777216
100
AcDbLine
 10
-105.0002441405998
 20
678.4831426686017
 30
0.0
 11
-105.0002441405998
 21
730.2373687819852
 31
0.0
  0
LINE
  5
77A2
330
6D32
100
AcDbEntity
  8
30
  6
Continuous
 62
     0
440
 16777216
100
AcDbLine
 10
0.0000000000000006
 20
678.4831426686017
 30
0.0
 11
0.0000000000000038
 21
730.2373687819852
 31
0.0
  0
LINE
  5
77A3
330
6D32
100
AcDbEntity
  8
30
  6
Continuous
 62
     0
440
 16777216
100
AcDbLine
 10
-103.0002441405998
 20
729.7373687819852
 30
0.0
 11
-1.999999999999995
 21
729.7373687819852
 31
0.0
  0
INSERT
  5
77A4
330
6D32
100
AcDbEntity
  8
30
  6
Continuous
 62
     0
440
 16777216
100
AcDbBlockReference
  2
_OPEN
 10
-105.0002441405998
 20
729.7373687819852
 30
0.0
 41
2.0
 42
2.0
 43
2.0
 50
180.0
  0
INSERT
  5
77A5
330
6D32
100
AcDbEntity
  8
30
  6
Continuous
 62
     0
440
 16777216
100
AcDbBlockReference
  2
_OPEN
 10
0.0000000000000038
 20
729.7373687819852
 30
0.0
 41
2.0
 42
2.0
 43
2.0
  0
MTEXT
  5
77A6
330
6D32
100
AcDbEntity
  8
30
  6
Continuous
 62
     0
440
 16777216
100
AcDbMText
 10
-52.50012207029995
 20
735.7373687819853
 30
0.0
 40
10.0
 41
0.0
 46
0.0
 71
     5
 72
     5
  1
\A1;105
 73
     1
 44
1.0
1001
ACAD
1000
MTEXTBEGIN
1070
    73
1070
     1
1070
    44
1040
1.0
1070
    74
1070
     0
1000
MTEXTEND
1000
MTEXTBEGIN
1070
    73
1070
     1
1070
    44
1040
1.0
1070
    74
1070
     0
1000
MTEXTEND
  0
POINT
  5
77A7
330
6D32
100
AcDbEntity
  8
DEFPOINTS
  6
Continuous
 62
     0
440
 16777216
100
AcDbPoint
 10
-105.0002441405998
 20
668.4831426686018
 30
0.0
  0
POINT
  5
77A8
330
6D32
100
AcDbEntity
  8
DEFPOINTS
  6
Continuous
 62
     0
440
 16777216
100
AcDbPoint
 10
0.0
 20
668.4831426686018
 30
0.0
  0
POINT
  5
77A9
330
6D32
100
AcDbEntity
  8
DEFPOINTS
  6
Continuous
 62
     0
440
 16777216
100
AcDbPoint
 10
0.0000000000000038
 20
729.7373687819852
 30
0.0
  0
ENDBLK
  5
6D3D
330
6D32
100
AcDbEntity
  8
0
100
AcDbBlockEnd
  0
BLOCK
  5
6D49
330
6D3F
100
AcDbEntity
  8
0
100
AcDbBlockBegin
  2
*D6
 70
     1
 10
0.0
 20
0.0
 30
0.0
  3
*D6
  1

  0
LINE
  5
78E1
330
6D3F
100
AcDbEntity
  8
30
  6
Continuous
 62
     0
440
 16777216
100
AcDbLine
 10
0.0000000000000006
 20
488.6507035126525
 30
0.0
 11
0.0000000000000154
 21
730.2373687819852
 31
0.0
  0
LINE
  5
78E2
330
6D3F
100
AcDbEntity
  8
30
  6
Continuous
 62
     0
440
 16777216
100
AcDbLine
 10
105.0
 20
678.4831426686017
 30
0.0
 11
105.0
 21
730.2373687819852
 31
0.0
  0
LINE
  5
78E3
330
6D3F
100
AcDbEntity
  8
30
  6
Continuous
 62
     0
440
 16777216
100
AcDbLine
 10
2.000000000000015
 20
729.7373687819852
 30
0.0
 11
103.0
 21
729.7373687819852
 31
0.0
  0
INSERT
  5
78E4
330
6D3F
100
AcDbEntity
  8
30
  6
Continuous
 62
     0
440
 16777216
100
AcDbBlockReference
  2
_OPEN
 10
0.0000000000000154
 20
729.7373687819852
 30
0.0
 41
2.0
 42
2.0
 43
2.0
 50
180.0
  0
INSERT
  5
78E5
330
6D3F
100
AcDbEntity
  8
30
  6
Continuous
 62
     0
440
 16777216
100
AcDbBlockReference
  2
_OPEN
 10
105.0
 20
729.7373687819852
 30
0.0
 41
2.0
 42
2.0
 43
2.0
  0
MTEXT
  5
78E6
330
6D3F
100
AcDbEntity
  8
30
  6
Continuous
 62
     0
440
 16777216
100
AcDbMText
 10
52.5
 20
735.7373687819853
 30
0.0
 40
10.0
 41
0.0
 46
0.0
 71
     5
 72
     5
  1
\A1;105
 73
     1
 44
1.0
  0
POINT
  5
78E7
330
6D3F
100
AcDbEntity
  8
DEFPOINTS
  6
Continuous
 62
     0
440
 16777216
100
AcDbPoint
 10
0.0
 20
478.6507035126525
 30
0.0
  0
POINT
  5
78E8
330
6D3F
100
AcDbEntity
  8
DEFPOINTS
  6
Continuous
 62
     0
440
 16777216
100
AcDbPoint
 10
105.0
 20
668.4831426686018
 30
0.0
  0
POINT
  5
78E9
330
6D3F
100
AcDbEntity
  8
DEFPOINTS
  6
Continuous
 62
     0
440
 16777216
100
AcDbPoint
 10
105.0
 20
729.7373687819852
 30
0.0
  0
ENDBLK
  5
6D4A
330
6D3F
100
AcDbEntity
  8
0
100
AcDbBlockEnd
  0
BLOCK
  5
6D56
330
6D4C
100
AcDbEntity
  8
0
100
AcDbBlockBegin
  2
*D7
 70
     1
 10
0.0
 20
0.0
 30
0.0
  3
*D7
  1

  0
LINE
  5
78EA
330
6D4C
100
AcDbEntity
  8
30
  6
Continuous
 62
     0
440
 16777216
100
AcDbLine
 10
105.0
 20
678.4831426686017
 30
0.0
 11
105.0
 21
730.2373687819852
 31
0.0
  0
LINE
  5
78EB
330
6D4C
100
AcDbEntity
  8
30
  6
Continuous
 62
     0
440
 16777216
100
AcDbLine
 10
215.0
 20
678.4831426686017
 30
0.0
 11
215.0
 21
730.2373687819852
 31
0.0
  0
LINE
  5
78EC
330
6D4C
100
AcDbEntity
  8
30
  6
Continuous
 62
     0
440
 16777216
100
AcDbLine
 10
107.0
 20
729.7373687819852
 30
0.0
 11
213.0
 21
729.7373687819852
 31
0.0
  0
INSERT
  5
78ED
330
6D4C
100
AcDbEntity
  8
30
  6
Continuous
 62
     0
440
 16777216
100
AcDbBlockReference
  2
_OPEN
 10
105.0
 20
729.7373687819852
 30
0.0
 41
2.0
 42
2.0
 43
2.0
 50
180.0
  0
INSERT
  5
78EE
330
6D4C
100
AcDbEntity
  8
30
  6
Continuous
 62
     0
440
 16777216
100
AcDbBlockReference
  2
_OPEN
 10
215.0
 20
729.7373687819852
 30
0.0
 41
2.0
 42
2.0
 43
2.0
  0
MTEXT
  5
78EF
330
6D4C
100
AcDbEntity
  8
30
  6
Continuous
 62
     0
440
 16777216
100
AcDbMText
 10
160.0
 20
735.7373687819853
 30
0.0
 40
10.0
 41
0.0
 46
0.0
 71
     5
 72
     5
  1
\A1;110
 73
     1
 44
1.0
  0
POINT
  5
78F0
330
6D4C
100
AcDbEntity
  8
DEFPOINTS
  6
Continuous
 62
     0
440
 16777216
100
AcDbPoint
 10
105.0
 20
668.4831426686018
 30
0.0
  0
POINT
  5
78F1
330
6D4C
100
AcDbEntity
  8
DEFPOINTS
  6
Continuous
 62
     0
440
 16777216
100
AcDbPoint
 10
215.0
 20
668.4831426686018
 30
0.0
  0
POINT
  5
78F2
330
6D4C
100
AcDbEntity
  8
DEFPOINTS
  6
Continuous
 62
     0
440
 16777216
100
AcDbPoint
 10
215.0
 20
729.7373687819852
 30
0.0
  0
ENDBLK
  5
6D57
330
6D4C
100
AcDbEntity
  8
0
100
AcDbBlockEnd
  0
BLOCK
  5
6E6E
330
6E64
100
AcDbEntity
  8
0
100
AcDbBlockBegin
  2
*D8
 70
     1
 10
0.0
 20
0.0
 30
0.0
  3
*D8
  1

  0
LINE
  5
758C
330
6E64
100
AcDbEntity
  8
30
  6
Continuous
 62
     0
440
 16777216
100
AcDbLine
 10
-86.6962890625
 20
-418.0
 30
0.0
 11
-306.4500104239523
 21
-417.9999999999997
 31
0.0
  0
LINE
  5
758D
330
6E64
100
AcDbEntity
  8
30
  6
Continuous
 62
     0
440
 16777216
100
AcDbLine
 10
-176.0
 20
-650.0
 30
0.0
 11
-306.4500104239523
 21
-649.9999999999999
 31
0.0
  0
LINE
  5
758E
330
6E64
100
AcDbEntity
  8
30
  6
Continuous
 62
     0
440
 16777216
100
AcDbLine
 10
-305.9500104239524
 20
-419.9999999999998
 30
0.0
 11
-305.9500104239524
 21
-647.9999999999997
 31
0.0
  0
INSERT
  5
758F
330
6E64
100
AcDbEntity
  8
30
  6
Continuous
 62
     0
440
 16777216
100
AcDbBlockReference
  2
_OPEN
 10
-305.9500104239524
 20
-417.9999999999997
 30
0.0
 41
2.0
 42
2.0
 43
2.0
 50
90.0
  0
INSERT
  5
7590
330
6E64
100
AcDbEntity
  8
30
  6
Continuous
 62
     0
440
 16777216
100
AcDbBlockReference
  2
_OPEN
 10
-305.9500104239524
 20
-649.9999999999999
 30
0.0
 41
2.0
 42
2.0
 43
2.0
 50
270.0
  0
MTEXT
  5
7591
330
6E64
100
AcDbEntity
  8
30
  6
Continuous
 62
     0
440
 16777216
100
AcDbMText
 10
-311.9500104239522
 20
-534.0
 30
0.0
 40
10.0
 41
0.0
 46
0.0
 71
     5
 72
     5
  1
\A1;232
 11
0.0000000000000001
 21
1.0
 31
0.0
 73
     1
 44
1.0
1001
ACAD
1000
MTEXTBEGIN
1070
    73
1070
     1
1070
    44
1040
1.0
1070
    74
1070
     0
1000
MTEXTEND
1000
MTEXTBEGIN
1070
    73
1070
     1
1070
    44
1040
1.0
1070
    74
1070
     0
1000
MTEXTEND
1000
MTEXTBEGIN
1070
    73
1070
     1
1070
    44
1040
1.0
1070
    74
1070
     0
1000
MTEXTEND
  0
POINT
  5
7592
330
6E64
100
AcDbEntity
  8
DEFPOINTS
  6
Continuous
 62
     0
440
 16777216
100
AcDbPoint
 10
-76.6962890625
 20
-418.0
 30
0.0
  0
POINT
  5
7593
330
6E64
100
AcDbEntity
  8
DEFPOINTS
  6
Continuous
 62
     0
440
 16777216
100
AcDbPoint
 10
-166.0
 20
-650.0
 30
0.0
  0
POINT
  5
7594
330
6E64
100
AcDbEntity
  8
DEFPOINTS
  6
Continuous
 62
     0
440
 16777216
100
AcDbPoint
 10
-305.9500104239524
 20
-649.9999999999999
 30
0.0
  0
ENDBLK
  5
6E6F
330
6E64
100
AcDbEntity
  8
0
100
AcDbBlockEnd
  0
BLOCK
  5
6E7A
330
6E70
100
AcDbEntity
  8
0
100
AcDbBlockBegin
  2
*D9
 70
     1
 10
0.0
 20
0.0
 30
0.0
  3
*D9
  1

  0
LINE
  5
7583
330
6E70
100
AcDbEntity
  8
30
  6
Continuous
 62
     0
440
 16777216
100
AcDbLine
 10
-151.0
 20
-758.8425854357208
 30
0.0
 11
-151.0
 21
-786.4304743781599
 31
0.0
  0
LINE
  5
7584
330
6E70
100
AcDbEntity
  8
30
  6
Continuous
 62
     0
440
 16777216
100
AcDbLine
 10
151.0
 20
-758.8425854357208
 30
0.0
 11
151.0
 21
-786.4304743781599
 31
0.0
  0
LINE
  5
7585
330
6E70
100
AcDbEntity
  8
30
  6
Continuous
 62
     0
440
 16777216
100
AcDbLine
 10
-149.0
 20
-785.9304743781599
 30
0.0
 11
149.0
 21
-785.9304743781599
 31
0.0
  0
INSERT
  5
7586
330
6E70
100
AcDbEntity
  8
30
  6
Continuous
 62
     0
440
 16777216
100
AcDbBlockReference
  2
_OPEN
 10
-151.0
 20
-785.9304743781599
 30
0.0
 41
2.0
 42
2.0
 43
2.0
 50
180.0
  0
INSERT
  5
7587
330
6E70
100
AcDbEntity
  8
30
  6
Continuous
 62
     0
440
 16777216
100
AcDbBlockReference
  2
_OPEN
 10
151.0
 20
-785.9304743781599
 30
0.0
 41
2.0
 42
2.0
 43
2.0
  0
MTEXT
  5
7588
330
6E70
100
AcDbEntity
  8
30
  6
Continuous
 62
     0
440
 16777216
100
AcDbMText
 10
0.0000000000000004
 20
-779.9304743781599
 30
0.0
 40
10.0
 41
0.0
 46
0.0
 71
     5
 72
     5
  1
\A1;302
 73
     1
 44
1.0
1001
ACAD
1000
MTEXTBEGIN
1070
    73
1070
     1
1070
    44
1040
1.0
1070
    74
1070
     0
1000
MTEXTEND
1000
MTEXTBEGIN
1070
    73
1070
     1
1070
    44
1040
1.0
1070
    74
1070
     0
1000
MTEXTEND
1000
MTEXTBEGIN
1070
    73
1070
     1
1070
    44
1040
1.0
1070
    74
1070
     0
1000
MTEXTEND
  0
POINT
  5
7589
330
6E70
100
AcDbEntity
  8
DEFPOINTS
  6
Continuous
 62
     0
440
 16777216
100
AcDbPoint
 10
-151.0
 20
-748.8425854357203
 30
0.0
  0
POINT
  5
758A
330
6E70
100
AcDbEntity
  8
DEFPOINTS
  6
Continuous
 62
     0
440
 16777216
100
AcDbPoint
 10
151.0
 20
-748.8425854357203
 30
0.0
  0
POINT
  5
758B
330
6E70
100
AcDbEntity
  8
DEFPOINTS
  6
Continuous
 62
     0
440
 16777216
100
AcDbPoint
 10
151.0
 20
-785.9304743781599
 30
0.0
  0
ENDBLK
  5
6E7B
330
6E70
100
AcDbEntity
  8
0
100
AcDbBlockEnd
  0
BLOCK
  5
6E86
330
6E7C
100
AcDbEntity
  8
0
100
AcDbBlockBegin
  2
*D10
 70
     1
 10
0.0
 20
0.0
 30
0.0
  3
*D10
  1

  0
LINE
  5
78F3
330
6E7C
100
AcDbEntity
  8
30
  6
Continuous
 62
     0
440
 16777216
100
AcDbLine
 10
-176.0
 20
-650.0
 30
0.0
 11
-306.4500104239523
 21
-649.9999999999999
 31
0.0
  0
LINE
  5
78F4
330
6E7C
100
AcDbEntity
  8
30
  6
Continuous
 62
     0
440
 16777216
100
AcDbLine
 10
-175.3988960500464
 20
-729.0
 30
0.0
 11
-306.4500104239523
 21
-728.9999999999999
 31
0.0
  0
LINE
  5
78F5
330
6E7C
100
AcDbEntity
  8
30
  6
Continuous
 62
     0
440
 16777216
100
AcDbLine
 10
-305.9500104239524
 20
-651.9999999999997
 30
0.0
 11
-305.9500104239524
 21
-726.9999999999996
 31
0.0
  0
INSERT
  5
78F6
330
6E7C
100
AcDbEntity
  8
30
  6
Continuous
 62
     0
440
 16777216
100
AcDbBlockReference
  2
_OPEN
 10
-305.9500104239524
 20
-649.9999999999999
 30
0.0
 41
2.0
 42
2.0
 43
2.0
 50
90.0
  0
INSERT
  5
78F7
330
6E7C
100
AcDbEntity
  8
30
  6
Continuous
 62
     0
440
 16777216
100
AcDbBlockReference
  2
_OPEN
 10
-305.9500104239524
 20
-728.9999999999999
 30
0.0
 41
2.0
 42
2.0
 43
2.0
 50
270.0
  0
MTEXT
  5
78F8
330
6E7C
100
AcDbEntity
  8
30
  6
Continuous
 62
     0
440
 16777216
100
AcDbMText
 10
-311.9500104239522
 20
-689.5
 30
0.0
 40
10.0
 41
0.0
 46
0.0
 71
     5
 72
     5
  1
\A1;79
 11
0.0000000000000001
 21
1.0
 31
0.0
 73
     1
 44
1.0
  0
POINT
  5
78F9
330
6E7C
100
AcDbEntity
  8
DEFPOINTS
  6
Continuous
 62
     0
440
 16777216
100
AcDbPoint
 10
-166.0
 20
-650.0
 30
0.0
  0
POINT
  5
78FA
330
6E7C
100
AcDbEntity
  8
DEFPOINTS
  6
Continuous
 62
     0
440
 16777216
100
AcDbPoint
 10
-165.3988960500464
 20
-729.0
 30
0.0
  0
POINT
  5
78FB
330
6E7C
100
AcDbEntity
  8
DEFPOINTS
  6
Continuous
 62
     0
440
 16777216
100
AcDbPoint
 10
-305.9500104239524
 20
-728.9999999999999
 30
0.0
  0
ENDBLK
  5
6E87
330
6E7C
100
AcDbEntity
  8
0
100
AcDbBlockEnd
  0
BLOCK
  5
6E92
330
6E88
100
AcDbEntity
  8
0
100
AcDbBlockBegin
  2
*D11
 70
     1
 10
0.0
 20
0.0
 30
0.0
  3
*D11
  1

  0
LINE
  5
75B0
330
6E88
100
AcDbEntity
  8
30
  6
Continuous
 62
     0
440
 16777216
100
AcDbLine
 10
-52.5
 20
-447.8425854357205
 30
0.0
 11
-52.5
 21
-496.9905511136339
 31
0.0
  0
LINE
  5
75B1
330
6E88
100
AcDbEntity
  8
30
  6
Continuous
 62
     0
440
 16777216
100
AcDbLine
 10
52.5
 20
-447.8425854357205
 30
0.0
 11
52.5
 21
-496.9905511136339
 31
0.0
  0
LINE
  5
75B2
330
6E88
100
AcDbEntity
  8
30
  6
Continuous
 62
     0
440
 16777216
100
AcDbLine
 10
-50.5
 20
-496.4905511136339
 30
0.0
 11
50.49999999999999
 21
-496.4905511136339
 31
0.0
  0
INSERT
  5
75B3
330
6E88
100
AcDbEntity
  8
30
  6
Continuous
 62
     0
440
 16777216
100
AcDbBlockReference
  2
_OPEN
 10
-52.5
 20
-496.4905511136339
 30
0.0
 41
2.0
 42
2.0
 43
2.0
 50
180.0
  0
INSERT
  5
75B4
330
6E88
100
AcDbEntity
  8
30
  6
Continuous
 62
     0
440
 16777216
100
AcDbBlockReference
  2
_OPEN
 10
52.5
 20
-496.4905511136339
 30
0.0
 41
2.0
 42
2.0
 43
2.0
  0
MTEXT
  5
75B5
330
6E88
100
AcDbEntity
  8
30
  6
Continuous
 62
     0
440
 16777216
100
AcDbMText
 10
-0.0000000000000067
 20
-490.4905511136337
 30
0.0
 40
10.0
 41
0.0
 46
0.0
 71
     5
 72
     5
  1
\A1;105
 73
     1
 44
1.0
1001
ACAD
1000
MTEXTBEGIN
1070
    73
1070
     1
1070
    44
1040
1.0
1070
    74
1070
     0
1000
MTEXTEND
1000
MTEXTBEGIN
1070
    73
1070
     1
1070
    44
1040
1.0
1070
    74
1070
     0
1000
MTEXTEND
1000
MTEXTBEGIN
1070
    73
1070
     1
1070
    44
1040
1.0
1070
    74
1070
     0
1000
MTEXTEND
  0
POINT
  5
75B6
330
6E88
100
AcDbEntity
  8
DEFPOINTS
  6
Continuous
 62
     0
440
 16777216
100
AcDbPoint
 10
-52.5
 20
-437.8425854357206
 30
0.0
  0
POINT
  5
75B7
330
6E88
100
AcDbEntity
  8
DEFPOINTS
  6
Continuous
 62
     0
440
 16777216
100
AcDbPoint
 10
52.5
 20
-437.8425854357206
 30
0.0
  0
POINT
  5
75B8
330
6E88
100
AcDbEntity
  8
DEFPOINTS
  6
Continuous
 62
     0
440
 16777216
100
AcDbPoint
 10
52.5
 20
-496.4905511136339
 30
0.0
  0
ENDBLK
  5
6E93
330
6E88
100
AcDbEntity
  8
0
100
AcDbBlockEnd
  0
BLOCK
  5
6E9E
330
6E94
100
AcDbEntity
  8
0
100
AcDbBlockBegin
  2
*D12
 70
     1
 10
0.0
 20
0.0
 30
0.0
  3
*D12
  1

  0
LINE
  5
75E4
330
6E94
100
AcDbEntity
  8
30
  6
Continuous
 62
     0
440
 16777216
100
AcDbLine
 10
490.4999999999998
 20
-722.0
 30
0.0
 11
490.4999999999998
 21
-750.6030481124437
 31
0.0
  0
LINE
  5
75E5
330
6E94
100
AcDbEntity
  8
30
  6
Continuous
 62
     0
440
 16777216
100
AcDbLine
 10
609.4999999999997
 20
-722.0
 30
0.0
 11
609.4999999999997
 21
-750.6030481124437
 31
0.0
  0
LINE
  5
75E6
330
6E94
100
AcDbEntity
  8
30
  6
Continuous
 62
     0
440
 16777216
100
AcDbLine
 10
492.4999999999998
 20
-750.1030481124437
 30
0.0
 11
607.5
 21
-750.1030481124437
 31
0.0
  0
INSERT
  5
75E7
330
6E94
100
AcDbEntity
  8
30
  6
Continuous
 62
     0
440
 16777216
100
AcDbBlockReference
  2
_OPEN
 10
490.4999999999998
 20
-750.1030481124437
 30
0.0
 41
2.0
 42
2.0
 43
2.0
 50
180.0
  0
INSERT
  5
75E8
330
6E94
100
AcDbEntity
  8
30
  6
Continuous
 62
     0
440
 16777216
100
AcDbBlockReference
  2
_OPEN
 10
609.4999999999997
 20
-750.1030481124437
 30
0.0
 41
2.0
 42
2.0
 43
2.0
  0
MTEXT
  5
75E9
330
6E94
100
AcDbEntity
  8
30
  6
Continuous
 62
     0
440
 16777216
100
AcDbMText
 10
550.0
 20
-744.1030481124437
 30
0.0
 40
10.0
 41
0.0
 46
0.0
 71
     5
 72
     5
  1
\A1;119
 73
     1
 44
1.0
1001
ACAD
1000
MTEXTBEGIN
1070
    73
1070
     1
1070
    44
1040
1.0
1070
    74
1070
     0
1000
MTEXTEND
1000
MTEXTBEGIN
1070
    73
1070
     1
1070
    44
1040
1.0
1070
    74
1070
     0
1000
MTEXTEND
1000
MTEXTBEGIN
1070
    73
1070
     1
1070
    44
1040
1.0
1070
    74
1070
     0
1000
MTEXTEND
  0
POINT
  5
75EA
330
6E94
100
AcDbEntity
  8
DEFPOINTS
  6
Continuous
 62
     0
440
 16777216
100
AcDbPoint
 10
490.4999999999998
 20
-712.0
 30
0.0
  0
POINT
  5
75EB
330
6E94
100
AcDbEntity
  8
DEFPOINTS
  6
Continuous
 62
     0
440
 16777216
100
AcDbPoint
 10
609.4999999999997
 20
-712.0
 30
0.0
  0
POINT
  5
75EC
330
6E94
100
AcDbEntity
  8
DEFPOINTS
  6
Continuous
 62
     0
440
 16777216
100
AcDbPoint
 10
609.4999999999997
 20
-750.1030481124437
 30
0.0
  0
ENDBLK
  5
6E9F
330
6E94
100
AcDbEntity
  8
0
100
AcDbBlockEnd
  0
BLOCK
  5
6EA9
330
6EA0
100
AcDbEntity
  8
0
100
AcDbBlockBegin
  2
*D13
 70
     1
 10
0.0
 20
0.0
 30
0.0
  3
*D13
  1

  0
LINE
  5
75DC
330
6EA0
100
AcDbEntity
  8
30
  6
Continuous
 62
     0
440
 16777216
100
AcDbLine
 10
628.1985257044322
 20
-555.4099999999998
 30
0.0
 11
605.5318590377652
 21
-555.4099999999998
 31
0.0
  0
LINE
  5
75DD
330
6EA0
100
AcDbEntity
  8
30
  6
Continuous
 62
     0
440
 16777216
100
AcDbLine
 10
605.5318590377652
 20
-555.4099999999998
 30
0.0
 11
599.8639844615807
 21
-586.0334000631221
 31
0.0
  0
MTEXT
  5
75DE
330
6EA0
100
AcDbEntity
  8
30
  6
Continuous
 62
     0
440
 16777216
100
AcDbMText
 10
617.3651923710988
 20
-549.4099999999998
 30
0.0
 40
10.0
 41
0.0
 46
0.0
 71
     5
 72
     5
  1
\A1;R10
 73
     1
 44
1.0
1001
ACAD
1000
MTEXTBEGIN
1070
    73
1070
     1
1070
    44
1040
1.0
1070
    74
1070
     0
1000
MTEXTEND
1000
MTEXTBEGIN
1070
    73
1070
     1
1070
    44
1040
1.0
1070
    74
1070
     0
1000
MTEXTEND
1000
MTEXTBEGIN
1070
    73
1070
     1
1070
    44
1040
1.0
1070
    74
1070
     0
1000
MTEXTEND
  0
INSERT
  5
75DF
330
6EA0
100
AcDbEntity
  8
30
  6
Continuous
 62
     0
440
 16777216
100
AcDbBlockReference
  2
_OPEN
 10
599.4999999999997
 20
-587.9999999999999
 30
0.0
 41
2.0
 42
2.0
 43
2.0
 50
259.5141768324705
  0
LINE
  5
75E0
330
6EA0
100
AcDbEntity
  8
30
  6
Continuous
 62
     0
440
 16777216
100
AcDbLine
 10
595.918121308915
 20
-606.8665427739512
 30
0.0
 11
596.098121308915
 21
-606.8665427739512
 31
0.0
  0
LINE
  5
75E1
330
6EA0
100
AcDbEntity
  8
30
  6
Continuous
 62
     0
440
 16777216
100
AcDbLine
 10
596.008121308915
 20
-606.9565427739512
 30
0.0
 11
596.008121308915
 21
-606.7765427739512
 31
0.0
  0
POINT
  5
75E2
330
6EA0
100
AcDbEntity
  8
DEFPOINTS
  6
Continuous
 62
     0
440
 16777216
100
AcDbPoint
 10
599.4999999999997
 20
-587.9999999999999
 30
0.0
  0
POINT
  5
75E3
330
6EA0
100
AcDbEntity
  8
DEFPOINTS
  6
Continuous
 62
     0
440
 16777216
100
AcDbPoint
 10
596.0081213089146
 20
-606.8665427739512
 30
0.0
  0
ENDBLK
  5
6EAA
330
6EA0
100
AcDbEntity
  8
0
100
AcDbBlockEnd
  0
BLOCK
  5
6EB5
330
6EAB
100
AcDbEntity
  8
0
100
AcDbBlockBegin
  2
*D14
 70
     1
 10
0.0
 20
0.0
 30
0.0
  3
*D14
  1

  0
LINE
  5
75D3
330
6EAB
100
AcDbEntity
  8
30
  6
Continuous
 62
     0
440
 16777216
100
AcDbLine
 10
490.5
 20
-578.0
 30
0.0
 11
437.6887971310578
 21
-578.0
 31
0.0
  0
LINE
  5
75D4
330
6EAB
100
AcDbEntity
  8
30
  6
Continuous
 62
     0
440
 16777216
100
AcDbLine
 10
490.4999999999998
 20
-722.0
 30
0.0
 11
437.6887971310578
 21
-722.0
 31
0.0
  0
LINE
  5
75D5
330
6EAB
100
AcDbEntity
  8
30
  6
Continuous
 62
     0
440
 16777216
100
AcDbLine
 10
438.188797131058
 20
-580.0
 30
0.0
 11
438.188797131058
 21
-720.0
 31
0.0
  0
INSERT
  5
75D6
330
6EAB
100
AcDbEntity
  8
30
  6
Continuous
 62
     0
440
 16777216
100
AcDbBlockReference
  2
_OPEN
 10
438.188797131058
 20
-578.0
 30
0.0
 41
2.0
 42
2.0
 43
2.0
 50
90.0
  0
INSERT
  5
75D7
330
6EAB
100
AcDbEntity
  8
30
  6
Continuous
 62
     0
440
 16777216
100
AcDbBlockReference
  2
_OPEN
 10
438.188797131058
 20
-722.0
 30
0.0
 41
2.0
 42
2.0
 43
2.0
 50
270.0
  0
MTEXT
  5
75D8
330
6EAB
100
AcDbEntity
  8
30
  6
Continuous
 62
     0
440
 16777216
100
AcDbMText
 10
432.1887971310578
 20
-649.9999999999999
 30
0.0
 40
10.0
 41
0.0
 46
0.0
 71
     5
 72
     5
  1
\A1;144
 11
0.0000000000000001
 21
1.0
 31
0.0
 73
     1
 44
1.0
1001
ACAD
1000
MTEXTBEGIN
1070
    73
1070
     1
1070
    44
1040
1.0
1070
    74
1070
     0
1000
MTEXTEND
1000
MTEXTBEGIN
1070
    73
1070
     1
1070
    44
1040
1.0
1070
    74
1070
     0
1000
MTEXTEND
1000
MTEXTBEGIN
1070
    73
1070
     1
1070
    44
1040
1.0
1070
    74
1070
     0
1000
MTEXTEND
  0
POINT
  5
75D9
330
6EAB
100
AcDbEntity
  8
DEFPOINTS
  6
Continuous
 62
     0
440
 16777216
100
AcDbPoint
 10
500.4999999999998
 20
-578.0
 30
0.0
  0
POINT
  5
75DA
330
6EAB
100
AcDbEntity
  8
DEFPOINTS
  6
Continuous
 62
     0
440
 16777216
100
AcDbPoint
 10
500.4999999999998
 20
-722.0
 30
0.0
  0
POINT
  5
75DB
330
6EAB
100
AcDbEntity
  8
DEFPOINTS
  6
Continuous
 62
     0
440
 16777216
100
AcDbPoint
 10
438.188797131058
 20
-722.0
 30
0.0
  0
ENDBLK
  5
6EB6
330
6EAB
100
AcDbEntity
  8
0
100
AcDbBlockEnd
  0
BLOCK
  5
6F35
330
6F2B
100
AcDbEntity
  8
0
100
AcDbBlockBegin
  2
*D15
 70
     1
 10
0.0
 20
0.0
 30
0.0
  3
*D15
  1

  0
LINE
  5
7595
330
6F2B
100
AcDbEntity
  8
30
  6
Continuous
 62
     0
440
 16777216
100
AcDbLine
 10
-268.2792968749999
 20
-699.0
 30
0.0
 11
-286.7243577752428
 21
-699.0
 31
0.0
  0
LINE
  5
7596
330
6F2B
100
AcDbEntity
  8
30
  6
Continuous
 62
     0
440
 16777216
100
AcDbLine
 10
-267.4864377247959
 20
-728.9999999999999
 30
0.0
 11
-286.7243577752428
 21
-728.9999999999999
 31
0.0
  0
LINE
  5
7597
330
6F2B
100
AcDbEntity
  8
30
  6
Continuous
 62
     0
440
 16777216
100
AcDbLine
 10
-286.2243577752428
 20
-701.0
 30
0.0
 11
-286.2243577752428
 21
-726.9999999999996
 31
0.0
  0
INSERT
  5
7598
330
6F2B
100
AcDbEntity
  8
30
  6
Continuous
 62
     0
440
 16777216
100
AcDbBlockReference
  2
_OPEN
 10
-286.2243577752428
 20
-699.0
 30
0.0
 41
2.0
 42
2.0
 43
2.0
 50
90.0
  0
INSERT
  5
7599
330
6F2B
100
AcDbEntity
  8
30
  6
Continuous
 62
     0
440
 16777216
100
AcDbBlockReference
  2
_OPEN
 10
-286.2243577752428
 20
-728.9999999999999
 30
0.0
 41
2.0
 42
2.0
 43
2.0
 50
270.0
  0
MTEXT
  5
759A
330
6F2B
100
AcDbEntity
  8
30
  6
Continuous
 62
     0
440
 16777216
100
AcDbMText
 10
-292.2243577752427
 20
-714.0
 30
0.0
 40
10.0
 41
0.0
 46
0.0
 71
     5
 72
     5
  1
\A1;30
 11
0.0000000000000001
 21
1.0
 31
0.0
 73
     1
 44
1.0
1001
ACAD
1000
MTEXTBEGIN
1070
    73
1070
     1
1070
    44
1040
1.0
1070
    74
1070
     0
1000
MTEXTEND
1000
MTEXTBEGIN
1070
    73
1070
     1
1070
    44
1040
1.0
1070
    74
1070
     0
1000
MTEXTEND
1000
MTEXTBEGIN
1070
    73
1070
     1
1070
    44
1040
1.0
1070
    74
1070
     0
1000
MTEXTEND
  0
POINT
  5
759B
330
6F2B
100
AcDbEntity
  8
DEFPOINTS
  6
Continuous
 62
     0
440
 16777216
100
AcDbPoint
 10
-258.279296875
 20
-699.0
 30
0.0
  0
POINT
  5
759C
330
6F2B
100
AcDbEntity
  8
DEFPOINTS
  6
Continuous
 62
     0
440
 16777216
100
AcDbPoint
 10
-257.4864377247958
 20
-728.9999999999999
 30
0.0
  0
POINT
  5
759D
330
6F2B
100
AcDbEntity
  8
DEFPOINTS
  6
Continuous
 62
     0
440
 16777216
100
AcDbPoint
 10
-286.2243577752428
 20
-728.9999999999999
 30
0.0
  0
ENDBLK
  5
6F36
330
6F2B
100
AcDbEntity
  8
0
100
AcDbBlockEnd
  0
BLOCK
  5
6F42
330
6F38
100
AcDbEntity
  8
0
100
AcDbBlockBegin
  2
*D16
 70
     1
 10
0.0
 20
0.0
 30
0.0
  3
*D16
  1

  0
LINE
  5
75A7
330
6F38
100
AcDbEntity
  8
30
  6
Continuous
 62
     0
440
 16777216
100
AcDbLine
 10
-270.2860800635139
 20
-417.9999999999997
 30
0.0
 11
-282.0735031517423
 21
-417.9999999999997
 31
0.0
  0
LINE
  5
75A8
330
6F38
100
AcDbEntity
  8
30
  6
Continuous
 62
     0
440
 16777216
100
AcDbLine
 10
-268.6958007811999
 20
-448.0
 30
0.0
 11
-282.0735031517423
 21
-448.0
 31
0.0
  0
LINE
  5
75A9
330
6F38
100
AcDbEntity
  8
30
  6
Continuous
 62
     0
440
 16777216
100
AcDbLine
 10
-281.5735031517423
 20
-419.9999999999998
 30
0.0
 11
-281.5735031517423
 21
-446.0
 31
0.0
  0
INSERT
  5
75AA
330
6F38
100
AcDbEntity
  8
30
  6
Continuous
 62
     0
440
 16777216
100
AcDbBlockReference
  2
_OPEN
 10
-281.5735031517423
 20
-417.9999999999997
 30
0.0
 41
2.0
 42
2.0
 43
2.0
 50
90.0
  0
INSERT
  5
75AB
330
6F38
100
AcDbEntity
  8
30
  6
Continuous
 62
     0
440
 16777216
100
AcDbBlockReference
  2
_OPEN
 10
-281.5735031517423
 20
-448.0
 30
0.0
 41
2.0
 42
2.0
 43
2.0
 50
270.0
  0
MTEXT
  5
75AC
330
6F38
100
AcDbEntity
  8
30
  6
Continuous
 62
     0
440
 16777216
100
AcDbMText
 10
-287.5735031517423
 20
-433.0
 30
0.0
 40
10.0
 41
0.0
 46
0.0
 71
     5
 72
     5
  1
\A1;30
 11
0.0000000000000001
 21
1.0
 31
0.0
 73
     1
 44
1.0
1001
ACAD
1000
MTEXTBEGIN
1070
    73
1070
     1
1070
    44
1040
1.0
1070
    74
1070
     0
1000
MTEXTEND
1000
MTEXTBEGIN
1070
    73
1070
     1
1070
    44
1040
1.0
1070
    74
1070
     0
1000
MTEXTEND
1000
MTEXTBEGIN
1070
    73
1070
     1
1070
    44
1040
1.0
1070
    74
1070
     0
1000
MTEXTEND
  0
POINT
  5
75AD
330
6F38
100
AcDbEntity
  8
DEFPOINTS
  6
Continuous
 62
     0
440
 16777216
100
AcDbPoint
 10
-260.2860800635139
 20
-417.9999999999997
 30
0.0
  0
POINT
  5
75AE
330
6F38
100
AcDbEntity
  8
DEFPOINTS
  6
Continuous
 62
     0
440
 16777216
100
AcDbPoint
 10
-258.6958007812
 20
-448.0
 30
0.0
  0
POINT
  5
75AF
330
6F38
100
AcDbEntity
  8
DEFPOINTS
  6
Continuous
 62
     0
440
 16777216
100
AcDbPoint
 10
-281.5735031517423
 20
-448.0
 30
0.0
  0
ENDBLK
  5
6F43
330
6F38
100
AcDbEntity
  8
0
100
AcDbBlockEnd
  0
BLOCK
  5
71AF
330
71A5
100
AcDbEntity
  8
0
100
AcDbBlockBegin
  2
*D17
 70
     1
 10
0.0
 20
0.0
 30
0.0
  3
*D17
  1

  0
LINE
  5
7601
330
71A5
100
AcDbEntity
  8
30
  6
Continuous
 62
     0
440
 16777216
100
AcDbLine
 10
731.3330945803736
 20
-0.0000000000000028
 30
0.0
 11
884.3879346682186
 21
-0.0000000000000462
 31
0.0
  0
LINE
  5
7602
330
71A5
100
AcDbEntity
  8
30
  6
Continuous
 62
     0
440
 16777216
100
AcDbLine
 10
821.3330030276187
 20
-178.0002441406
 30
0.0
 11
884.3879346682186
 21
-178.0002441406
 31
0.0
  0
LINE
  5
7603
330
71A5
100
AcDbEntity
  8
30
  6
Continuous
 62
     0
440
 16777216
100
AcDbLine
 10
883.8879346682187
 20
-2.000000000000043
 30
0.0
 11
883.8879346682187
 21
-176.0002441406
 31
0.0
  0
INSERT
  5
7604
330
71A5
100
AcDbEntity
  8
30
  6
Continuous
 62
     0
440
 16777216
100
AcDbBlockReference
  2
_OPEN
 10
883.8879346682187
 20
-0.000000000000046
 30
0.0
 41
2.0
 42
2.0
 43
2.0
 50
90.0
  0
INSERT
  5
7605
330
71A5
100
AcDbEntity
  8
30
  6
Continuous
 62
     0
440
 16777216
100
AcDbBlockReference
  2
_OPEN
 10
883.8879346682187
 20
-178.0002441406
 30
0.0
 41
2.0
 42
2.0
 43
2.0
 50
270.0
  0
MTEXT
  5
7606
330
71A5
100
AcDbEntity
  8
30
  6
Continuous
 62
     0
440
 16777216
100
AcDbMText
 10
877.8879346682186
 20
-89.00012207029991
 30
0.0
 40
10.0
 41
0.0
 46
0.0
 71
     5
 72
     5
  1
\A1;178
 11
0.0000000000000001
 21
1.0
 31
0.0
 73
     1
 44
1.0
1001
ACAD
1000
MTEXTBEGIN
1070
    73
1070
     1
1070
    44
1040
1.0
1070
    74
1070
     0
1000
MTEXTEND
1000
MTEXTBEGIN
1070
    73
1070
     1
1070
    44
1040
1.0
1070
    74
1070
     0
1000
MTEXTEND
1000
MTEXTBEGIN
1070
    73
1070
     1
1070
    44
1040
1.0
1070
    74
1070
     0
1000
MTEXTEND
  0
POINT
  5
7607
330
71A5
100
AcDbEntity
  8
DEFPOINTS
  6
Continuous
 62
     0
440
 16777216
100
AcDbPoint
 10
721.3330945803736
 20
0.0
 30
0.0
  0
POINT
  5
7608
330
71A5
100
AcDbEntity
  8
DEFPOINTS
  6
Continuous
 62
     0
440
 16777216
100
AcDbPoint
 10
811.3330030276186
 20
-178.0002441406
 30
0.0
  0
POINT
  5
7609
330
71A5
100
AcDbEntity
  8
DEFPOINTS
  6
Continuous
 62
     0
440
 16777216
100
AcDbPoint
 10
883.8879346682187
 20
-178.0002441406
 30
0.0
  0
ENDBLK
  5
71B0
330
71A5
100
AcDbEntity
  8
0
100
AcDbBlockEnd
  0
BLOCK
  5
71BE
330
71B4
100
AcDbEntity
  8
0
100
AcDbBlockBegin
  2
*D18
 70
     1
 10
0.0
 20
0.0
 30
0.0
  3
*D18
  1

  0
LINE
  5
74CC
330
71B4
100
AcDbEntity
  8
30
  6
Continuous
 62
     0
440
 16777216
100
AcDbLine
 10
821.3330030276187
 20
-133.0
 30
0.0
 11
863.8368570654142
 21
-133.0
 31
0.0
  0
LINE
  5
74CD
330
71B4
100
AcDbEntity
  8
30
  6
Continuous
 62
     0
440
 16777216
100
AcDbLine
 10
821.3330030276187
 20
-223.0002441406
 30
0.0
 11
863.8368570654142
 21
-223.0002441406
 31
0.0
  0
LINE
  5
74CE
330
71B4
100
AcDbEntity
  8
30
  6
Continuous
 62
     0
440
 16777216
100
AcDbLine
 10
863.3368570654141
 20
-135.0
 30
0.0
 11
863.3368570654141
 21
-221.0002441406
 31
0.0
  0
INSERT
  5
74CF
330
71B4
100
AcDbEntity
  8
30
  6
Continuous
 62
     0
440
 16777216
100
AcDbBlockReference
  2
_OPEN
 10
863.3368570654141
 20
-133.0
 30
0.0
 41
2.0
 42
2.0
 43
2.0
 50
90.0
  0
INSERT
  5
74D0
330
71B4
100
AcDbEntity
  8
30
  6
Continuous
 62
     0
440
 16777216
100
AcDbBlockReference
  2
_OPEN
 10
863.3368570654141
 20
-223.0002441406
 30
0.0
 41
2.0
 42
2.0
 43
2.0
 50
270.0
  0
MTEXT
  5
74D1
330
71B4
100
AcDbEntity
  8
30
  6
Continuous
 62
     0
440
 16777216
100
AcDbMText
 10
857.3368570654141
 20
-178.0001220702999
 30
0.0
 40
10.0
 41
0.0
 46
0.0
 71
     5
 72
     5
  1
\A1;90
 11
0.0000000000000001
 21
1.0
 31
0.0
 73
     1
 44
1.0
1001
ACAD
1000
MTEXTBEGIN
1070
    73
1070
     1
1070
    44
1040
1.0
1070
    74
1070
     0
1000
MTEXTEND
1000
MTEXTBEGIN
1070
    73
1070
     1
1070
    44
1040
1.0
1070
    74
1070
     0
1000
MTEXTEND
1000
MTEXTBEGIN
1070
    73
1070
     1
1070
    44
1040
1.0
1070
    74
1070
     0
1000
MTEXTEND
  0
POINT
  5
74D2
330
71B4
100
AcDbEntity
  8
DEFPOINTS
  6
Continuous
 62
     0
440
 16777216
100
AcDbPoint
 10
811.3330030276186
 20
-133.0
 30
0.0
  0
POINT
  5
74D3
330
71B4
100
AcDbEntity
  8
DEFPOINTS
  6
Continuous
 62
     0
440
 16777216
100
AcDbPoint
 10
811.3330030276186
 20
-223.0002441406
 30
0.0
  0
POINT
  5
74D4
330
71B4
100
AcDbEntity
  8
DEFPOINTS
  6
Continuous
 62
     0
440
 16777216
100
AcDbPoint
 10
863.3368570654141
 20
-223.0002441406
 30
0.0
  0
ENDBLK
  5
71BF
330
71B4
100
AcDbEntity
  8
0
100
AcDbBlockEnd
  0
BLOCK
  5
71CB
330
71C1
100
AcDbEntity
  8
0
100
AcDbBlockBegin
  2
*D19
 70
     1
 10
0.0
 20
0.0
 30
0.0
  3
*D19
  1

  0
LINE
  5
74D5
330
71C1
100
AcDbEntity
  8
30
  6
Continuous
 62
     0
440
 16777216
100
AcDbLine
 10
815.5615186526187
 20
-158.0
 30
0.0
 11
836.4658562942308
 21
-158.0
 31
0.0
  0
LINE
  5
74D6
330
71C1
100
AcDbEntity
  8
30
  6
Continuous
 62
     0
440
 16777216
100
AcDbLine
 10
815.5615186526187
 20
-198.0
 30
0.0
 11
836.4658562942308
 21
-198.0
 31
0.0
  0
LINE
  5
74D7
330
71C1
100
AcDbEntity
  8
30
  6
Continuous
 62
     0
440
 16777216
100
AcDbLine
 10
835.9658562942307
 20
-160.0
 30
0.0
 11
835.9658562942307
 21
-196.0
 31
0.0
  0
INSERT
  5
74D8
330
71C1
100
AcDbEntity
  8
30
  6
Continuous
 62
     0
440
 16777216
100
AcDbBlockReference
  2
_OPEN
 10
835.9658562942307
 20
-158.0
 30
0.0
 41
2.0
 42
2.0
 43
2.0
 50
90.0
  0
INSERT
  5
74D9
330
71C1
100
AcDbEntity
  8
30
  6
Continuous
 62
     0
440
 16777216
100
AcDbBlockReference
  2
_OPEN
 10
835.9658562942307
 20
-198.0
 30
0.0
 41
2.0
 42
2.0
 43
2.0
 50
270.0
  0
MTEXT
  5
74DA
330
71C1
100
AcDbEntity
  8
30
  6
Continuous
 62
     0
440
 16777216
100
AcDbMText
 10
829.9658562942308
 20
-177.9999999999999
 30
0.0
 40
10.0
 41
0.0
 46
0.0
 71
     5
 72
     5
  1
\A1;40
 11
0.0000000000000001
 21
1.0
 31
0.0
 73
     1
 44
1.0
1001
ACAD
1000
MTEXTBEGIN
1070
    73
1070
     1
1070
    44
1040
1.0
1070
    74
1070
     0
1000
MTEXTEND
1000
MTEXTBEGIN
1070
    73
1070
     1
1070
    44
1040
1.0
1070
    74
1070
     0
1000
MTEXTEND
1000
MTEXTBEGIN
1070
    73
1070
     1
1070
    44
1040
1.0
1070
    74
1070
     0
1000
MTEXTEND
  0
POINT
  5
74DB
330
71C1
100
AcDbEntity
  8
DEFPOINTS
  6
Continuous
 62
     0
440
 16777216
100
AcDbPoint
 10
805.5615186526187
 20
-158.0
 30
0.0
  0
POINT
  5
74DC
330
71C1
100
AcDbEntity
  8
DEFPOINTS
  6
Continuous
 62
     0
440
 16777216
100
AcDbPoint
 10
805.5615186526187
 20
-198.0
 30
0.0
  0
POINT
  5
74DD
330
71C1
100
AcDbEntity
  8
DEFPOINTS
  6
Continuous
 62
     0
440
 16777216
100
AcDbPoint
 10
835.9658562942307
 20
-198.0
 30
0.0
  0
ENDBLK
  5
71CC
330
71C1
100
AcDbEntity
  8
0
100
AcDbBlockEnd
  0
BLOCK
  5
71D8
330
71CE
100
AcDbEntity
  8
0
100
AcDbBlockBegin
  2
*D20
 70
     1
 10
0.0
 20
0.0
 30
0.0
  3
*D20
  1

  0
LINE
  5
74DE
330
71CE
100
AcDbEntity
  8
30
  6
Continuous
 62
     0
440
 16777216
100
AcDbLine
 10
791.3330030276187
 20
-215.0002441406
 30
0.0
 11
791.3330030276187
 21
-237.4930275793513
 31
0.0
  0
LINE
  5
74DF
330
71CE
100
AcDbEntity
  8
30
  6
Continuous
 62
     0
440
 16777216
100
AcDbLine
 10
751.3330030276185
 20
-215.0002441406
 30
0.0
 11
751.3330030276185
 21
-237.4930275793513
 31
0.0
  0
LINE
  5
74E0
330
71CE
100
AcDbEntity
  8
30
  6
Continuous
 62
     0
440
 16777216
100
AcDbLine
 10
789.3330030276187
 20
-236.9930275793513
 30
0.0
 11
753.3330030276187
 21
-236.9930275793513
 31
0.0
  0
INSERT
  5
74E1
330
71CE
100
AcDbEntity
  8
30
  6
Continuous
 62
     0
440
 16777216
100
AcDbBlockReference
  2
_OPEN
 10
791.3330030276187
 20
-236.9930275793513
 30
0.0
 41
2.0
 42
2.0
 43
2.0
  0
INSERT
  5
74E2
330
71CE
100
AcDbEntity
  8
30
  6
Continuous
 62
     0
440
 16777216
100
AcDbBlockReference
  2
_OPEN
 10
751.3330030276185
 20
-236.9930275793513
 30
0.0
 41
2.0
 42
2.0
 43
2.0
 50
180.0
  0
MTEXT
  5
74E3
330
71CE
100
AcDbEntity
  8
30
  6
Continuous
 62
     0
440
 16777216
100
AcDbMText
 10
771.3330030276186
 20
-230.9930275793513
 30
0.0
 40
10.0
 41
0.0
 46
0.0
 71
     5
 72
     5
  1
\A1;40
 73
     1
 44
1.0
1001
ACAD
1000
MTEXTBEGIN
1070
    73
1070
     1
1070
    44
1040
1.0
1070
    74
1070
     0
1000
MTEXTEND
1000
MTEXTBEGIN
1070
    73
1070
     1
1070
    44
1040
1.0
1070
    74
1070
     0
1000
MTEXTEND
1000
MTEXTBEGIN
1070
    73
1070
     1
1070
    44
1040
1.0
1070
    74
1070
     0
1000
MTEXTEND
  0
POINT
  5
74E4
330
71CE
100
AcDbEntity
  8
DEFPOINTS
  6
Continuous
 62
     0
440
 16777216
100
AcDbPoint
 10
791.3330030276187
 20
-205.0002441406
 30
0.0
  0
POINT
  5
74E5
330
71CE
100
AcDbEntity
  8
DEFPOINTS
  6
Continuous
 62
     0
440
 16777216
100
AcDbPoint
 10
751.3330030276185
 20
-205.0002441406
 30
0.0
  0
POINT
  5
74E6
330
71CE
100
AcDbEntity
  8
DEFPOINTS
  6
Continuous
 62
     0
440
 16777216
100
AcDbPoint
 10
751.3330030276185
 20
-236.9930275793513
 30
0.0
  0
ENDBLK
  5
71D9
330
71CE
100
AcDbEntity
  8
0
100
AcDbBlockEnd
  0
BLOCK
  5
71E5
330
71DB
100
AcDbEntity
  8
0
100
AcDbBlockBegin
  2
*D21
 70
     1
 10
0.0
 20
0.0
 30
0.0
  3
*D21
  1

  0
LINE
  5
74E7
330
71DB
100
AcDbEntity
  8
30
  6
Continuous
 62
     0
440
 16777216
100
AcDbLine
 10
466.3330030276176
 20
-15.0
 30
0.0
 11
466.3330030276176
 21
-264.9617236011327
 31
0.0
  0
LINE
  5
74E8
330
71DB
100
AcDbEntity
  8
30
  6
Continuous
 62
     0
440
 16777216
100
AcDbLine
 10
476.3330030276186
 20
-203.0002441406
 30
0.0
 11
476.3330030276186
 21
-264.9617236011327
 31
0.0
  0
LINE
  5
74E9
330
71DB
100
AcDbEntity
  8
30
  6
Continuous
 62
     0
440
 16777216
100
AcDbLine
 10
468.3330030276176
 20
-264.4617236011327
 30
0.0
 11
474.3330030276187
 21
-264.4617236011327
 31
0.0
  0
LINE
  5
74EA
330
71DB
100
AcDbEntity
  8
30
  6
Continuous
 62
     0
440
 16777216
100
AcDbLine
 10
476.3330030276186
 20
-264.4617236011327
 30
0.0
 11
491.9996696942853
 21
-264.4617236011327
 31
0.0
  0
INSERT
  5
74EB
330
71DB
100
AcDbEntity
  8
30
  6
Continuous
 62
     0
440
 16777216
100
AcDbBlockReference
  2
_OPEN
 10
466.3330030276176
 20
-264.4617236011327
 30
0.0
 41
2.0
 42
2.0
 43
2.0
 50
180.0
  0
INSERT
  5
74EC
330
71DB
100
AcDbEntity
  8
30
  6
Continuous
 62
     0
440
 16777216
100
AcDbBlockReference
  2
_OPEN
 10
476.3330030276186
 20
-264.4617236011327
 30
0.0
 41
2.0
 42
2.0
 43
2.0
  0
MTEXT
  5
74ED
330
71DB
100
AcDbEntity
  8
30
  6
Continuous
 62
     0
440
 16777216
100
AcDbMText
 10
485.166336360952
 20
-258.4617236011327
 30
0.0
 40
10.0
 41
0.0
 46
0.0
 71
     5
 72
     5
  1
\A1;10
 73
     1
 44
1.0
1001
ACAD
1000
MTEXTBEGIN
1070
    73
1070
     1
1070
    44
1040
1.0
1070
    74
1070
     0
1000
MTEXTEND
1000
MTEXTBEGIN
1070
    73
1070
     1
1070
    44
1040
1.0
1070
    74
1070
     0
1000
MTEXTEND
1000
MTEXTBEGIN
1070
    73
1070
     1
1070
    44
1040
1.0
1070
    74
1070
     0
1000
MTEXTEND
  0
POINT
  5
74EE
330
71DB
100
AcDbEntity
  8
DEFPOINTS
  6
Continuous
 62
     0
440
 16777216
100
AcDbPoint
 10
466.3330030276176
 20
-5.000000000000004
 30
0.0
  0
POINT
  5
74EF
330
71DB
100
AcDbEntity
  8
DEFPOINTS
  6
Continuous
 62
     0
440
 16777216
100
AcDbPoint
 10
476.3330030276186
 20
-193.0002441406
 30
0.0
  0
POINT
  5
74F0
330
71DB
100
AcDbEntity
  8
DEFPOINTS
  6
Continuous
 62
     0
440
 16777216
100
AcDbPoint
 10
476.3330030276186
 20
-264.4617236011327
 30
0.0
  0
ENDBLK
  5
71E6
330
71DB
100
AcDbEntity
  8
0
100
AcDbBlockEnd
  0
BLOCK
  5
71F2
330
71E8
100
AcDbEntity
  8
0
100
AcDbBlockBegin
  2
*D22
 70
     1
 10
0.0
 20
0.0
 30
0.0
  3
*D22
  1

  0
LINE
  5
791C
330
71E8
100
AcDbEntity
  8
30
  6
Continuous
 62
     0
440
 16777216
100
AcDbLine
 10
476.3330030276186
 20
-203.0002441406
 30
0.0
 11
476.3330030276186
 21
-264.9617236011327
 31
0.0
  0
LINE
  5
791D
330
71E8
100
AcDbEntity
  8
30
  6
Continuous
 62
     0
440
 16777216
100
AcDbLine
 10
661.3330030276187
 20
-203.0002441406
 30
0.0
 11
661.3330030276187
 21
-264.9617236011327
 31
0.0
  0
LINE
  5
791E
330
71E8
100
AcDbEntity
  8
30
  6
Continuous
 62
     0
440
 16777216
100
AcDbLine
 10
478.3330030276186
 20
-264.4617236011327
 30
0.0
 11
659.3330030276185
 21
-264.4617236011327
 31
0.0
  0
INSERT
  5
791F
330
71E8
100
AcDbEntity
  8
30
  6
Continuous
 62
     0
440
 16777216
100
AcDbBlockReference
  2
_OPEN
 10
476.3330030276186
 20
-264.4617236011327
 30
0.0
 41
2.0
 42
2.0
 43
2.0
 50
180.0
  0
INSERT
  5
7920
330
71E8
100
AcDbEntity
  8
30
  6
Continuous
 62
     0
440
 16777216
100
AcDbBlockReference
  2
_OPEN
 10
661.3330030276187
 20
-264.4617236011327
 30
0.0
 41
2.0
 42
2.0
 43
2.0
  0
MTEXT
  5
7921
330
71E8
100
AcDbEntity
  8
30
  6
Continuous
 62
     0
440
 16777216
100
AcDbMText
 10
568.8330030276187
 20
-258.4617236011327
 30
0.0
 40
10.0
 41
0.0
 46
0.0
 71
     5
 72
     5
  1
\A1;185
 73
     1
 44
1.0
  0
POINT
  5
7922
330
71E8
100
AcDbEntity
  8
DEFPOINTS
  6
Continuous
 62
     0
440
 16777216
100
AcDbPoint
 10
476.3330030276186
 20
-193.0002441406
 30
0.0
  0
POINT
  5
7923
330
71E8
100
AcDbEntity
  8
DEFPOINTS
  6
Continuous
 62
     0
440
 16777216
100
AcDbPoint
 10
661.3330030276187
 20
-193.0002441406
 30
0.0
  0
POINT
  5
7924
330
71E8
100
AcDbEntity
  8
DEFPOINTS
  6
Continuous
 62
     0
440
 16777216
100
AcDbPoint
 10
661.3330030276187
 20
-264.4617236011327
 30
0.0
  0
ENDBLK
  5
71F3
330
71E8
100
AcDbEntity
  8
0
100
AcDbBlockEnd
  0
BLOCK
  5
71FF
330
71F5
100
AcDbEntity
  8
0
100
AcDbBlockBegin
  2
*D23
 70
     1
 10
0.0
 20
0.0
 30
0.0
  3
*D23
  1

  0
LINE
  5
7925
330
71F5
100
AcDbEntity
  8
30
  6
Continuous
 62
     0
440
 16777216
100
AcDbLine
 10
661.3330030276187
 20
-203.0002441406
 30
0.0
 11
661.3330030276187
 21
-264.9617236011327
 31
0.0
  0
LINE
  5
7926
330
71F5
100
AcDbEntity
  8
30
  6
Continuous
 62
     0
440
 16777216
100
AcDbLine
 10
811.3330030276186
 20
-233.0002441406
 30
0.0
 11
811.3330030276186
 21
-264.9617236011327
 31
0.0
  0
LINE
  5
7927
330
71F5
100
AcDbEntity
  8
30
  6
Continuous
 62
     0
440
 16777216
100
AcDbLine
 10
663.3330030276185
 20
-264.4617236011327
 30
0.0
 11
809.3330030276186
 21
-264.4617236011327
 31
0.0
  0
INSERT
  5
7928
330
71F5
100
AcDbEntity
  8
30
  6
Continuous
 62
     0
440
 16777216
100
AcDbBlockReference
  2
_OPEN
 10
661.3330030276187
 20
-264.4617236011327
 30
0.0
 41
2.0
 42
2.0
 43
2.0
 50
180.0
  0
INSERT
  5
7929
330
71F5
100
AcDbEntity
  8
30
  6
Continuous
 62
     0
440
 16777216
100
AcDbBlockReference
  2
_OPEN
 10
811.3330030276186
 20
-264.4617236011327
 30
0.0
 41
2.0
 42
2.0
 43
2.0
  0
MTEXT
  5
792A
330
71F5
100
AcDbEntity
  8
30
  6
Continuous
 62
     0
440
 16777216
100
AcDbMText
 10
736.3330030276186
 20
-258.4617236011327
 30
0.0
 40
10.0
 41
0.0
 46
0.0
 71
     5
 72
     5
  1
\A1;150
 73
     1
 44
1.0
  0
POINT
  5
792B
330
71F5
100
AcDbEntity
  8
DEFPOINTS
  6
Continuous
 62
     0
440
 16777216
100
AcDbPoint
 10
661.3330030276187
 20
-193.0002441406
 30
0.0
  0
POINT
  5
792C
330
71F5
100
AcDbEntity
  8
DEFPOINTS
  6
Continuous
 62
     0
440
 16777216
100
AcDbPoint
 10
811.3330030276186
 20
-223.0002441406
 30
0.0
  0
POINT
  5
792D
330
71F5
100
AcDbEntity
  8
DEFPOINTS
  6
Continuous
 62
     0
440
 16777216
100
AcDbPoint
 10
811.3330030276186
 20
-264.4617236011327
 30
0.0
  0
ENDBLK
  5
7200
330
71F5
100
AcDbEntity
  8
0
100
AcDbBlockEnd
  0
BLOCK
  5
7212
330
7208
100
AcDbEntity
  8
0
100
AcDbBlockBegin
  2
*D24
 70
     1
 10
0.0
 20
0.0
 30
0.0
  3
*D24
  1

  0
LINE
  5
7503
330
7208
100
AcDbEntity
  8
30
  6
Continuous
 62
     0
440
 16777216
100
AcDbLine
 10
321.3329877687958
 20
-8.000000000000008
 30
0.0
 11
321.3329877687958
 21
-304.9454946722466
 31
0.0
  0
LINE
  5
7504
330
7208
100
AcDbEntity
  8
30
  6
Continuous
 62
     0
440
 16777216
100
AcDbLine
 10
661.3330030276187
 20
-234.0002441406
 30
0.0
 11
661.3330030276187
 21
-304.9454946722466
 31
0.0
  0
LINE
  5
7505
330
7208
100
AcDbEntity
  8
30
  6
Continuous
 62
     0
440
 16777216
100
AcDbLine
 10
323.3329877687958
 20
-304.4454946722467
 30
0.0
 11
659.3330030276185
 21
-304.4454946722467
 31
0.0
  0
INSERT
  5
7506
330
7208
100
AcDbEntity
  8
30
  6
Continuous
 62
     0
440
 16777216
100
AcDbBlockReference
  2
_OPEN
 10
321.3329877687958
 20
-304.4454946722467
 30
0.0
 41
2.0
 42
2.0
 43
2.0
 50
180.0
  0
INSERT
  5
7507
330
7208
100
AcDbEntity
  8
30
  6
Continuous
 62
     0
440
 16777216
100
AcDbBlockReference
  2
_OPEN
 10
661.3330030276187
 20
-304.4454946722467
 30
0.0
 41
2.0
 42
2.0
 43
2.0
  0
MTEXT
  5
7508
330
7208
100
AcDbEntity
  8
30
  6
Continuous
 62
     0
440
 16777216
100
AcDbMText
 10
491.3329953982073
 20
-298.4454946722467
 30
0.0
 40
10.0
 41
0.0
 46
0.0
 71
     5
 72
     5
  1
\A1;340
 73
     1
 44
1.0
1001
ACAD
1000
MTEXTBEGIN
1070
    73
1070
     1
1070
    44
1040
1.0
1070
    74
1070
     0
1000
MTEXTEND
1000
MTEXTBEGIN
1070
    73
1070
     1
1070
    44
1040
1.0
1070
    74
1070
     0
1000
MTEXTEND
1000
MTEXTBEGIN
1070
    73
1070
     1
1070
    44
1040
1.0
1070
    74
1070
     0
1000
MTEXTEND
  0
POINT
  5
7509
330
7208
100
AcDbEntity
  8
DEFPOINTS
  6
Continuous
 62
     0
440
 16777216
100
AcDbPoint
 10
321.3329877687958
 20
1.999999999999992
 30
0.0
  0
POINT
  5
750A
330
7208
100
AcDbEntity
  8
DEFPOINTS
  6
Continuous
 62
     0
440
 16777216
100
AcDbPoint
 10
661.3330030276187
 20
-224.0002441406
 30
0.0
  0
POINT
  5
750B
330
7208
100
AcDbEntity
  8
DEFPOINTS
  6
Continuous
 62
     0
440
 16777216
100
AcDbPoint
 10
661.3330030276187
 20
-304.4454946722467
 30
0.0
  0
ENDBLK
  5
7213
330
7208
100
AcDbEntity
  8
0
100
AcDbBlockEnd
  0
BLOCK
  5
721F
330
7215
100
AcDbEntity
  8
0
100
AcDbBlockBegin
  2
*D25
 70
     1
 10
0.0
 20
0.0
 30
0.0
  3
*D25
  1

  0
LINE
  5
750C
330
7215
100
AcDbEntity
  8
30
  6
Continuous
 62
     0
440
 16777216
100
AcDbLine
 10
416.3329114748636
 20
-8.000000000000019
 30
0.0
 11
416.3329114748636
 21
-286.0041273832248
 31
0.0
  0
LINE
  5
750D
330
7215
100
AcDbEntity
  8
30
  6
Continuous
 62
     0
440
 16777216
100
AcDbLine
 10
661.3330030276187
 20
-233.0002441406
 30
0.0
 11
661.3330030276187
 21
-286.0041273832248
 31
0.0
  0
LINE
  5
750E
330
7215
100
AcDbEntity
  8
30
  6
Continuous
 62
     0
440
 16777216
100
AcDbLine
 10
418.3329114748636
 20
-285.5041273832248
 30
0.0
 11
659.3330030276185
 21
-285.5041273832248
 31
0.0
  0
INSERT
  5
750F
330
7215
100
AcDbEntity
  8
30
  6
Continuous
 62
     0
440
 16777216
100
AcDbBlockReference
  2
_OPEN
 10
416.3329114748636
 20
-285.5041273832248
 30
0.0
 41
2.0
 42
2.0
 43
2.0
 50
180.0
  0
INSERT
  5
7510
330
7215
100
AcDbEntity
  8
30
  6
Continuous
 62
     0
440
 16777216
100
AcDbBlockReference
  2
_OPEN
 10
661.3330030276187
 20
-285.5041273832248
 30
0.0
 41
2.0
 42
2.0
 43
2.0
  0
MTEXT
  5
7511
330
7215
100
AcDbEntity
  8
30
  6
Continuous
 62
     0
440
 16777216
100
AcDbMText
 10
538.8329572512411
 20
-279.5041273832249
 30
0.0
 40
10.0
 41
0.0
 46
0.0
 71
     5
 72
     5
  1
\A1;245
 73
     1
 44
1.0
1001
ACAD
1000
MTEXTBEGIN
1070
    73
1070
     1
1070
    44
1040
1.0
1070
    74
1070
     0
1000
MTEXTEND
1000
MTEXTBEGIN
1070
    73
1070
     1
1070
    44
1040
1.0
1070
    74
1070
     0
1000
MTEXTEND
1000
MTEXTBEGIN
1070
    73
1070
     1
1070
    44
1040
1.0
1070
    74
1070
     0
1000
MTEXTEND
  0
POINT
  5
7512
330
7215
100
AcDbEntity
  8
DEFPOINTS
  6
Continuous
 62
     0
440
 16777216
100
AcDbPoint
 10
416.3329114748636
 20
1.99999999999998
 30
0.0
  0
POINT
  5
7513
330
7215
100
AcDbEntity
  8
DEFPOINTS
  6
Continuous
 62
     0
440
 16777216
100
AcDbPoint
 10
661.3330030276187
 20
-223.0002441406
 30
0.0
  0
POINT
  5
7514
330
7215
100
AcDbEntity
  8
DEFPOINTS
  6
Continuous
 62
     0
440
 16777216
100
AcDbPoint
 10
661.3330030276187
 20
-285.5041273832248
 30
0.0
  0
ENDBLK
  5
7220
330
7215
100
AcDbEntity
  8
0
100
AcDbBlockEnd
  0
BLOCK
  5
72E2
330
72D8
100
AcDbEntity
  8
0
100
AcDbBlockBegin
  2
*D26
 70
     1
 10
0.0
 20
0.0
 30
0.0
  3
*D26
  1

  0
LINE
  5
7515
330
72D8
100
AcDbEntity
  8
30
  6
Continuous
 62
     0
440
 16777216
100
AcDbLine
 10
-160.0
 20
-203.0002441405998
 30
0.0
 11
-160.0
 21
-302.7470477013541
 31
0.0
  0
LINE
  5
7516
330
72D8
100
AcDbEntity
  8
30
  6
Continuous
 62
     0
440
 16777216
100
AcDbLine
 10
-0.0000000000000027
 20
-241.0
 30
0.0
 11
-0.0000000000000065
 21
-302.7470477013541
 31
0.0
  0
LINE
  5
7517
330
72D8
100
AcDbEntity
  8
30
  6
Continuous
 62
     0
440
 16777216
100
AcDbLine
 10
-158.0
 20
-302.2470477013543
 30
0.0
 11
-2.000000000000003
 21
-302.2470477013543
 31
0.0
  0
INSERT
  5
7518
330
72D8
100
AcDbEntity
  8
30
  6
Continuous
 62
     0
440
 16777216
100
AcDbBlockReference
  2
_OPEN
 10
-160.0
 20
-302.2470477013543
 30
0.0
 41
2.0
 42
2.0
 43
2.0
 50
180.0
  0
INSERT
  5
7519
330
72D8
100
AcDbEntity
  8
30
  6
Continuous
 62
     0
440
 16777216
100
AcDbBlockReference
  2
_OPEN
 10
-0.0000000000000064
 20
-302.2470477013543
 30
0.0
 41
2.0
 42
2.0
 43
2.0
  0
MTEXT
  5
751A
330
72D8
100
AcDbEntity
  8
30
  6
Continuous
 62
     0
440
 16777216
100
AcDbMText
 10
-80.0
 20
-296.2470477013543
 30
0.0
 40
10.0
 41
0.0
 46
0.0
 71
     5
 72
     5
  1
\A1;160
 73
     1
 44
1.0
1001
ACAD
1000
MTEXTBEGIN
1070
    73
1070
     1
1070
    44
1040
1.0
1070
    74
1070
     0
1000
MTEXTEND
1000
MTEXTBEGIN
1070
    73
1070
     1
1070
    44
1040
1.0
1070
    74
1070
     0
1000
MTEXTEND
1000
MTEXTBEGIN
1070
    73
1070
     1
1070
    44
1040
1.0
1070
    74
1070
     0
1000
MTEXTEND
  0
POINT
  5
751B
330
72D8
100
AcDbEntity
  8
DEFPOINTS
  6
Continuous
 62
     0
440
 16777216
100
AcDbPoint
 10
-160.0
 20
-193.0002441405999
 30
0.0
  0
POINT
  5
751C
330
72D8
100
AcDbEntity
  8
DEFPOINTS
  6
Continuous
 62
     0
440
 16777216
100
AcDbPoint
 10
-0.0000000000000021
 20
-231.0
 30
0.0
  0
POINT
  5
751D
330
72D8
100
AcDbEntity
  8
DEFPOINTS
  6
Continuous
 62
     0
440
 16777216
100
AcDbPoint
 10
-0.0000000000000064
 20
-302.2470477013543
 30
0.0
  0
ENDBLK
  5
72E3
330
72D8
100
AcDbEntity
  8
0
100
AcDbBlockEnd
  0
BLOCK
  5
72EF
330
72E5
100
AcDbEntity
  8
0
100
AcDbBlockBegin
  2
*D27
 70
     1
 10
0.0
 20
0.0
 30
0.0
  3
*D27
  1

  0
LINE
  5
7959
330
72E5
100
AcDbEntity
  8
30
  6
Continuous
 62
     0
440
 16777216
100
AcDbLine
 10
-0.0000000000000027
 20
-241.0
 30
0.0
 11
-0.0000000000000065
 21
-302.7470477013541
 31
0.0
  0
LINE
  5
795A
330
72E5
100
AcDbEntity
  8
30
  6
Continuous
 62
     0
440
 16777216
100
AcDbLine
 10
269.0
 20
-203.0002441405998
 30
0.0
 11
269.0
 21
-302.7470477013541
 31
0.0
  0
LINE
  5
795B
330
72E5
100
AcDbEntity
  8
30
  6
Continuous
 62
     0
440
 16777216
100
AcDbLine
 10
1.999999999999993
 20
-302.2470477013543
 30
0.0
 11
267.0
 21
-302.2470477013543
 31
0.0
  0
INSERT
  5
795C
330
72E5
100
AcDbEntity
  8
30
  6
Continuous
 62
     0
440
 16777216
100
AcDbBlockReference
  2
_OPEN
 10
-0.0000000000000065
 20
-302.2470477013543
 30
0.0
 41
2.0
 42
2.0
 43
2.0
 50
180.0
  0
INSERT
  5
795D
330
72E5
100
AcDbEntity
  8
30
  6
Continuous
 62
     0
440
 16777216
100
AcDbBlockReference
  2
_OPEN
 10
269.0
 20
-302.2470477013543
 30
0.0
 41
2.0
 42
2.0
 43
2.0
  0
MTEXT
  5
795E
330
72E5
100
AcDbEntity
  8
30
  6
Continuous
 62
     0
440
 16777216
100
AcDbMText
 10
134.4999999999999
 20
-296.2470477013543
 30
0.0
 40
10.0
 41
0.0
 46
0.0
 71
     5
 72
     5
  1
\A1;269
 73
     1
 44
1.0
  0
POINT
  5
795F
330
72E5
100
AcDbEntity
  8
DEFPOINTS
  6
Continuous
 62
     0
440
 16777216
100
AcDbPoint
 10
-0.0000000000000021
 20
-231.0
 30
0.0
  0
POINT
  5
7960
330
72E5
100
AcDbEntity
  8
DEFPOINTS
  6
Continuous
 62
     0
440
 16777216
100
AcDbPoint
 10
269.0
 20
-193.0002441405999
 30
0.0
  0
POINT
  5
7961
330
72E5
100
AcDbEntity
  8
DEFPOINTS
  6
Continuous
 62
     0
440
 16777216
100
AcDbPoint
 10
269.0
 20
-302.2470477013543
 30
0.0
  0
ENDBLK
  5
72F0
330
72E5
100
AcDbEntity
  8
0
100
AcDbBlockEnd
  0
BLOCK
  5
72FC
330
72F2
100
AcDbEntity
  8
0
100
AcDbBlockBegin
  2
*D28
 70
     1
 10
0.0
 20
0.0
 30
0.0
  3
*D28
  1

  0
LINE
  5
7527
330
72F2
100
AcDbEntity
  8
30
  6
Continuous
 62
     0
440
 16777216
100
AcDbLine
 10
-160.0
 20
-203.0002441405998
 30
0.0
 11
-160.0
 21
-334.8666137431486
 31
0.0
  0
LINE
  5
7528
330
72F2
100
AcDbEntity
  8
30
  6
Continuous
 62
     0
440
 16777216
100
AcDbLine
 10
269.0
 20
-204.0002441406
 30
0.0
 11
269.0
 21
-334.8666137431486
 31
0.0
  0
LINE
  5
7529
330
72F2
100
AcDbEntity
  8
30
  6
Continuous
 62
     0
440
 16777216
100
AcDbLine
 10
-158.0
 20
-334.3666137431485
 30
0.0
 11
267.0
 21
-334.3666137431485
 31
0.0
  0
INSERT
  5
752A
330
72F2
100
AcDbEntity
  8
30
  6
Continuous
 62
     0
440
 16777216
100
AcDbBlockReference
  2
_OPEN
 10
-160.0
 20
-334.3666137431485
 30
0.0
 41
2.0
 42
2.0
 43
2.0
 50
180.0
  0
INSERT
  5
752B
330
72F2
100
AcDbEntity
  8
30
  6
Continuous
 62
     0
440
 16777216
100
AcDbBlockReference
  2
_OPEN
 10
269.0
 20
-334.3666137431485
 30
0.0
 41
2.0
 42
2.0
 43
2.0
  0
MTEXT
  5
752C
330
72F2
100
AcDbEntity
  8
30
  6
Continuous
 62
     0
440
 16777216
100
AcDbMText
 10
54.5
 20
-328.3666137431485
 30
0.0
 40
10.0
 41
0.0
 46
0.0
 71
     5
 72
     5
  1
\A1;429
 73
     1
 44
1.0
1001
ACAD
1000
MTEXTBEGIN
1070
    73
1070
     1
1070
    44
1040
1.0
1070
    74
1070
     0
1000
MTEXTEND
1000
MTEXTBEGIN
1070
    73
1070
     1
1070
    44
1040
1.0
1070
    74
1070
     0
1000
MTEXTEND
1000
MTEXTBEGIN
1070
    73
1070
     1
1070
    44
1040
1.0
1070
    74
1070
     0
1000
MTEXTEND
  0
POINT
  5
752D
330
72F2
100
AcDbEntity
  8
DEFPOINTS
  6
Continuous
 62
     0
440
 16777216
100
AcDbPoint
 10
-160.0
 20
-193.0002441405999
 30
0.0
  0
POINT
  5
752E
330
72F2
100
AcDbEntity
  8
DEFPOINTS
  6
Continuous
 62
     0
440
 16777216
100
AcDbPoint
 10
269.0
 20
-194.0002441405999
 30
0.0
  0
POINT
  5
752F
330
72F2
100
AcDbEntity
  8
DEFPOINTS
  6
Continuous
 62
     0
440
 16777216
100
AcDbPoint
 10
269.0
 20
-334.3666137431485
 30
0.0
  0
ENDBLK
  5
72FD
330
72F2
100
AcDbEntity
  8
0
100
AcDbBlockEnd
  0
BLOCK
  5
735B
330
7351
100
AcDbEntity
  8
0
100
AcDbBlockBegin
  2
*D29
 70
     1
 10
0.0
 20
0.0
 30
0.0
  3
*D29
  1

  0
LINE
  5
7530
330
7351
100
AcDbEntity
  8
30
  6
Continuous
 62
     0
440
 16777216
100
AcDbLine
 10
-105.0
 20
-175.7812724788081
 30
0.0
 11
-105.0
 21
-258.0058619334863
 31
0.0
  0
LINE
  5
7531
330
7351
100
AcDbEntity
  8
30
  6
Continuous
 62
     0
440
 16777216
100
AcDbLine
 10
-0.0000000000000027
 20
-233.0002441406
 30
0.0
 11
-0.0000000000000042
 21
-258.0058619334863
 31
0.0
  0
LINE
  5
7532
330
7351
100
AcDbEntity
  8
30
  6
Continuous
 62
     0
440
 16777216
100
AcDbLine
 10
-103.0
 20
-257.5058619334863
 30
0.0
 11
-2.000000000000003
 21
-257.5058619334863
 31
0.0
  0
INSERT
  5
7533
330
7351
100
AcDbEntity
  8
30
  6
Continuous
 62
     0
440
 16777216
100
AcDbBlockReference
  2
_OPEN
 10
-105.0
 20
-257.5058619334863
 30
0.0
 41
2.0
 42
2.0
 43
2.0
 50
180.0
  0
INSERT
  5
7534
330
7351
100
AcDbEntity
  8
30
  6
Continuous
 62
     0
440
 16777216
100
AcDbBlockReference
  2
_OPEN
 10
-0.0000000000000042
 20
-257.5058619334863
 30
0.0
 41
2.0
 42
2.0
 43
2.0
  0
MTEXT
  5
7535
330
7351
100
AcDbEntity
  8
30
  6
Continuous
 62
     0
440
 16777216
100
AcDbMText
 10
-52.5
 20
-251.5058619334863
 30
0.0
 40
10.0
 41
0.0
 46
0.0
 71
     5
 72
     5
  1
\A1;105
 73
     1
 44
1.0
1001
ACAD
1000
MTEXTBEGIN
1070
    73
1070
     1
1070
    44
1040
1.0
1070
    74
1070
     0
1000
MTEXTEND
1000
MTEXTBEGIN
1070
    73
1070
     1
1070
    44
1040
1.0
1070
    74
1070
     0
1000
MTEXTEND
1000
MTEXTBEGIN
1070
    73
1070
     1
1070
    44
1040
1.0
1070
    74
1070
     0
1000
MTEXTEND
  0
POINT
  5
7536
330
7351
100
AcDbEntity
  8
DEFPOINTS
  6
Continuous
 62
     0
440
 16777216
100
AcDbPoint
 10
-105.0
 20
-165.7812724788082
 30
0.0
  0
POINT
  5
7537
330
7351
100
AcDbEntity
  8
DEFPOINTS
  6
Continuous
 62
     0
440
 16777216
100
AcDbPoint
 10
-0.000000000000002
 20
-223.0002441406
 30
0.0
  0
POINT
  5
7538
330
7351
100
AcDbEntity
  8
DEFPOINTS
  6
Continuous
 62
     0
440
 16777216
100
AcDbPoint
 10
-0.0000000000000042
 20
-257.5058619334863
 30
0.0
  0
ENDBLK
  5
735C
330
7351
100
AcDbEntity
  8
0
100
AcDbBlockEnd
  0
BLOCK
  5
7368
330
735E
100
AcDbEntity
  8
0
100
AcDbBlockBegin
  2
*D30
 70
     1
 10
0.0
 20
0.0
 30
0.0
  3
*D30
  1

  0
LINE
  5
7962
330
735E
100
AcDbEntity
  8
30
  6
Continuous
 62
     0
440
 16777216
100
AcDbLine
 10
-0.0000000000000026
 20
-233.0002441406
 30
0.0
 11
-0.0000000000000041
 21
-258.0058619334863
 31
0.0
  0
LINE
  5
7963
330
735E
100
AcDbEntity
  8
30
  6
Continuous
 62
     0
440
 16777216
100
AcDbLine
 10
105.0
 20
-175.7812724788081
 30
0.0
 11
105.0
 21
-258.0058619334863
 31
0.0
  0
LINE
  5
7964
330
735E
100
AcDbEntity
  8
30
  6
Continuous
 62
     0
440
 16777216
100
AcDbLine
 10
1.999999999999995
 20
-257.5058619334863
 30
0.0
 11
103.0
 21
-257.5058619334863
 31
0.0
  0
INSERT
  5
7965
330
735E
100
AcDbEntity
  8
30
  6
Continuous
 62
     0
440
 16777216
100
AcDbBlockReference
  2
_OPEN
 10
-0.0000000000000041
 20
-257.5058619334863
 30
0.0
 41
2.0
 42
2.0
 43
2.0
 50
180.0
  0
INSERT
  5
7966
330
735E
100
AcDbEntity
  8
30
  6
Continuous
 62
     0
440
 16777216
100
AcDbBlockReference
  2
_OPEN
 10
105.0
 20
-257.5058619334863
 30
0.0
 41
2.0
 42
2.0
 43
2.0
  0
MTEXT
  5
7967
330
735E
100
AcDbEntity
  8
30
  6
Continuous
 62
     0
440
 16777216
100
AcDbMText
 10
52.5
 20
-251.5058619334863
 30
0.0
 40
10.0
 41
0.0
 46
0.0
 71
     5
 72
     5
  1
\A1;105
 73
     1
 44
1.0
  0
POINT
  5
7968
330
735E
100
AcDbEntity
  8
DEFPOINTS
  6
Continuous
 62
     0
440
 16777216
100
AcDbPoint
 10
-0.000000000000002
 20
-223.0002441406
 30
0.0
  0
POINT
  5
7969
330
735E
100
AcDbEntity
  8
DEFPOINTS
  6
Continuous
 62
     0
440
 16777216
100
AcDbPoint
 10
105.0
 20
-165.7812724788082
 30
0.0
  0
POINT
  5
796A
330
735E
100
AcDbEntity
  8
DEFPOINTS
  6
Continuous
 62
     0
440
 16777216
100
AcDbPoint
 10
105.0
 20
-257.5058619334863
 30
0.0
  0
ENDBLK
  5
7369
330
735E
100
AcDbEntity
  8
0
100
AcDbBlockEnd
  0
BLOCK
  5
7375
330
736B
100
AcDbEntity
  8
0
100
AcDbBlockBegin
  2
*D31
 70
     1
 10
0.0
 20
0.0
 30
0.0
  3
*D31
  1

  0
LINE
  5
796B
330
736B
100
AcDbEntity
  8
30
  6
Continuous
 62
     0
440
 16777216
100
AcDbLine
 10
105.0
 20
-233.0002441406
 30
0.0
 11
105.0
 21
-258.0058619334863
 31
0.0
  0
LINE
  5
796C
330
736B
100
AcDbEntity
  8
30
  6
Continuous
 62
     0
440
 16777216
100
AcDbLine
 10
215.0
 20
-176.6436054805299
 30
0.0
 11
215.0
 21
-258.0058619334863
 31
0.0
  0
LINE
  5
796D
330
736B
100
AcDbEntity
  8
30
  6
Continuous
 62
     0
440
 16777216
100
AcDbLine
 10
107.0
 20
-257.5058619334863
 30
0.0
 11
213.0
 21
-257.5058619334863
 31
0.0
  0
INSERT
  5
796E
330
736B
100
AcDbEntity
  8
30
  6
Continuous
 62
     0
440
 16777216
100
AcDbBlockReference
  2
_OPEN
 10
105.0
 20
-257.5058619334863
 30
0.0
 41
2.0
 42
2.0
 43
2.0
 50
180.0
  0
INSERT
  5
796F
330
736B
100
AcDbEntity
  8
30
  6
Continuous
 62
     0
440
 16777216
100
AcDbBlockReference
  2
_OPEN
 10
215.0
 20
-257.5058619334863
 30
0.0
 41
2.0
 42
2.0
 43
2.0
  0
MTEXT
  5
7970
330
736B
100
AcDbEntity
  8
30
  6
Continuous
 62
     0
440
 16777216
100
AcDbMText
 10
160.0
 20
-251.5058619334863
 30
0.0
 40
10.0
 41
0.0
 46
0.0
 71
     5
 72
     5
  1
\A1;110
 73
     1
 44
1.0
  0
POINT
  5
7971
330
736B
100
AcDbEntity
  8
DEFPOINTS
  6
Continuous
 62
     0
440
 16777216
100
AcDbPoint
 10
105.0
 20
-223.0002441406
 30
0.0
  0
POINT
  5
7972
330
736B
100
AcDbEntity
  8
DEFPOINTS
  6
Continuous
 62
     0
440
 16777216
100
AcDbPoint
 10
215.0
 20
-166.6436054805299
 30
0.0
  0
POINT
  5
7973
330
736B
100
AcDbEntity
  8
DEFPOINTS
  6
Continuous
 62
     0
440
 16777216
100
AcDbPoint
 10
215.0
 20
-257.5058619334863
 30
0.0
  0
ENDBLK
  5
7376
330
736B
100
AcDbEntity
  8
0
100
AcDbBlockEnd
  0
BLOCK
  5
739D
330
7393
100
AcDbEntity
  8
0
100
AcDbBlockBegin
  2
*D32
 70
     1
 10
0.0
 20
0.0
 30
0.0
  3
*D32
  1

  0
LINE
  5
754B
330
7393
100
AcDbEntity
  8
30
  6
Continuous
 62
     0
440
 16777216
100
AcDbLine
 10
-170.0
 20
257.0
 30
0.0
 11
-221.6360311003208
 21
257.0
 31
0.0
  0
LINE
  5
754C
330
7393
100
AcDbEntity
  8
30
  6
Continuous
 62
     0
440
 16777216
100
AcDbLine
 10
-170.0
 20
0.0000000000000028
 30
0.0
 11
-221.6360311003209
 21
0.0000000000000175
 31
0.0
  0
LINE
  5
754D
330
7393
100
AcDbEntity
  8
30
  6
Continuous
 62
     0
440
 16777216
100
AcDbLine
 10
-221.1360311003208
 20
255.0
 30
0.0
 11
-221.1360311003208
 21
2.000000000000015
 31
0.0
  0
INSERT
  5
754E
330
7393
100
AcDbEntity
  8
30
  6
Continuous
 62
     0
440
 16777216
100
AcDbBlockReference
  2
_OPEN
 10
-221.1360311003208
 20
257.0
 30
0.0
 41
2.0
 42
2.0
 43
2.0
 50
90.0
  0
INSERT
  5
754F
330
7393
100
AcDbEntity
  8
30
  6
Continuous
 62
     0
440
 16777216
100
AcDbBlockReference
  2
_OPEN
 10
-221.1360311003208
 20
0.0000000000000173
 30
0.0
 41
2.0
 42
2.0
 43
2.0
 50
270.0
  0
MTEXT
  5
7550
330
7393
100
AcDbEntity
  8
30
  6
Continuous
 62
     0
440
 16777216
100
AcDbMText
 10
-227.1360311003209
 20
128.4999999999999
 30
0.0
 40
10.0
 41
0.0
 46
0.0
 71
     5
 72
     5
  1
\A1;257
 11
0.0000000000000001
 21
1.0
 31
0.0
 73
     1
 44
1.0
1001
ACAD
1000
MTEXTBEGIN
1070
    73
1070
     1
1070
    44
1040
1.0
1070
    74
1070
     0
1000
MTEXTEND
1000
MTEXTBEGIN
1070
    73
1070
     1
1070
    44
1040
1.0
1070
    74
1070
     0
1000
MTEXTEND
1000
MTEXTBEGIN
1070
    73
1070
     1
1070
    44
1040
1.0
1070
    74
1070
     0
1000
MTEXTEND
  0
POINT
  5
7551
330
7393
100
AcDbEntity
  8
DEFPOINTS
  6
Continuous
 62
     0
440
 16777216
100
AcDbPoint
 10
-160.0
 20
257.0
 30
0.0
  0
POINT
  5
7552
330
7393
100
AcDbEntity
  8
DEFPOINTS
  6
Continuous
 62
     0
440
 16777216
100
AcDbPoint
 10
-160.0
 20
0.0
 30
0.0
  0
POINT
  5
7553
330
7393
100
AcDbEntity
  8
DEFPOINTS
  6
Continuous
 62
     0
440
 16777216
100
AcDbPoint
 10
-221.1360311003208
 20
0.0000000000000173
 30
0.0
  0
ENDBLK
  5
739E
330
7393
100
AcDbEntity
  8
0
100
AcDbBlockEnd
  0
BLOCK
  5
73AA
330
73A0
100
AcDbEntity
  8
0
100
AcDbBlockBegin
  2
*D33
 70
     1
 10
0.0
 20
0.0
 30
0.0
  3
*D33
  1

  0
LINE
  5
7974
330
73A0
100
AcDbEntity
  8
30
  6
Continuous
 62
     0
440
 16777216
100
AcDbLine
 10
-170.0
 20
0.0000000000000028
 30
0.0
 11
-221.6360311003207
 21
0.0000000000000175
 31
0.0
  0
LINE
  5
7975
330
73A0
100
AcDbEntity
  8
30
  6
Continuous
 62
     0
440
 16777216
100
AcDbLine
 10
-170.0
 20
-193.0002441405999
 30
0.0
 11
-221.6360311003208
 21
-193.0002441405998
 31
0.0
  0
LINE
  5
7976
330
73A0
100
AcDbEntity
  8
30
  6
Continuous
 62
     0
440
 16777216
100
AcDbLine
 10
-221.1360311003207
 20
-1.99999999999998
 30
0.0
 11
-221.1360311003208
 21
-191.0002441405998
 31
0.0
  0
INSERT
  5
7977
330
73A0
100
AcDbEntity
  8
30
  6
Continuous
 62
     0
440
 16777216
100
AcDbBlockReference
  2
_OPEN
 10
-221.1360311003207
 20
0.0000000000000173
 30
0.0
 41
2.0
 42
2.0
 43
2.0
 50
90.0
  0
INSERT
  5
7978
330
73A0
100
AcDbEntity
  8
30
  6
Continuous
 62
     0
440
 16777216
100
AcDbBlockReference
  2
_OPEN
 10
-221.1360311003208
 20
-193.0002441405998
 30
0.0
 41
2.0
 42
2.0
 43
2.0
 50
270.0
  0
MTEXT
  5
7979
330
73A0
100
AcDbEntity
  8
30
  6
Continuous
 62
     0
440
 16777216
100
AcDbMText
 10
-227.1360311003207
 20
-96.50012207029995
 30
0.0
 40
10.0
 41
0.0
 46
0.0
 71
     5
 72
     5
  1
\A1;193
 11
0.0000000000000001
 21
1.0
 31
0.0
 73
     1
 44
1.0
  0
POINT
  5
797A
330
73A0
100
AcDbEntity
  8
DEFPOINTS
  6
Continuous
 62
     0
440
 16777216
100
AcDbPoint
 10
-160.0
 20
0.0
 30
0.0
  0
POINT
  5
797B
330
73A0
100
AcDbEntity
  8
DEFPOINTS
  6
Continuous
 62
     0
440
 16777216
100
AcDbPoint
 10
-160.0
 20
-193.0002441405999
 30
0.0
  0
POINT
  5
797C
330
73A0
100
AcDbEntity
  8
DEFPOINTS
  6
Continuous
 62
     0
440
 16777216
100
AcDbPoint
 10
-221.1360311003208
 20
-193.0002441405998
 30
0.0
  0
ENDBLK
  5
73AB
330
73A0
100
AcDbEntity
  8
0
100
AcDbBlockEnd
  0
BLOCK
  5
73FA
330
73F0
100
AcDbEntity
  8
0
100
AcDbBlockBegin
  2
*D34
 70
     1
 10
0.0
 20
0.0
 30
0.0
  3
*D34
  1

  0
LINE
  5
797D
330
73F0
100
AcDbEntity
  8
30
  6
Continuous
 62
     0
440
 16777216
100
AcDbLine
 10
791.3330030276187
 20
-215.0002441406
 30
0.0
 11
791.3330030276187
 21
-237.4930275793513
 31
0.0
  0
LINE
  5
797E
330
73F0
100
AcDbEntity
  8
30
  6
Continuous
 62
     0
440
 16777216
100
AcDbLine
 10
811.3330030276186
 20
-208.0
 30
0.0
 11
811.3330030276186
 21
-237.4930275793513
 31
0.0
  0
LINE
  5
797F
330
73F0
100
AcDbEntity
  8
30
  6
Continuous
 62
     0
440
 16777216
100
AcDbLine
 10
793.3330030276187
 20
-236.9930275793513
 30
0.0
 11
809.3330030276186
 21
-236.9930275793513
 31
0.0
  0
INSERT
  5
7980
330
73F0
100
AcDbEntity
  8
30
  6
Continuous
 62
     0
440
 16777216
100
AcDbBlockReference
  2
_OPEN
 10
791.3330030276187
 20
-236.9930275793513
 30
0.0
 41
2.0
 42
2.0
 43
2.0
 50
180.0
  0
INSERT
  5
7981
330
73F0
100
AcDbEntity
  8
30
  6
Continuous
 62
     0
440
 16777216
100
AcDbBlockReference
  2
_OPEN
 10
811.3330030276186
 20
-236.9930275793513
 30
0.0
 41
2.0
 42
2.0
 43
2.0
  0
MTEXT
  5
7982
330
73F0
100
AcDbEntity
  8
30
  6
Continuous
 62
     0
440
 16777216
100
AcDbMText
 10
801.3330030276186
 20
-230.9930275793513
 30
0.0
 40
10.0
 41
0.0
 46
0.0
 71
     5
 72
     5
  1
\A1;20
 73
     1
 44
1.0
  0
POINT
  5
7983
330
73F0
100
AcDbEntity
  8
DEFPOINTS
  6
Continuous
 62
     0
440
 16777216
100
AcDbPoint
 10
791.3330030276187
 20
-205.0002441406
 30
0.0
  0
POINT
  5
7984
330
73F0
100
AcDbEntity
  8
DEFPOINTS
  6
Continuous
 62
     0
440
 16777216
100
AcDbPoint
 10
811.3330030276186
 20
-198.0
 30
0.0
  0
POINT
  5
7985
330
73F0
100
AcDbEntity
  8
DEFPOINTS
  6
Continuous
 62
     0
440
 16777216
100
AcDbPoint
 10
811.3330030276186
 20
-236.9930275793513
 30
0.0
  0
ENDBLK
  5
73FB
330
73F0
100
AcDbEntity
  8
0
100
AcDbBlockEnd
  0
BLOCK
  5
742D
330
7423
100
AcDbEntity
  8
0
100
AcDbBlockBegin
  2
*D35
 70
     1
 10
0.0
 20
0.0
 30
0.0
  3
*D35
  1

  0
LINE
  5
75ED
330
7423
100
AcDbEntity
  8
30
  6
Continuous
 62
     0
100
AcDbLine
 10
235.0
 20
648.4831426686017
 30
0.0
 11
257.5322780068431
 21
648.4831426686017
 31
0.0
  0
LINE
  5
75EE
330
7423
100
AcDbEntity
  8
30
  6
Continuous
 62
     0
100
AcDbLine
 10
235.0
 20
633.4831426686019
 30
0.0
 11
257.532278006843
 21
633.4831426686017
 31
0.0
  0
LINE
  5
75EF
330
7423
100
AcDbEntity
  8
30
  6
Continuous
 62
     0
100
AcDbLine
 10
257.0322780068429
 20
635.4831426686017
 30
0.0
 11
257.0322780068431
 21
646.4831426686018
 31
0.0
  0
LINE
  5
75F0
330
7423
100
AcDbEntity
  8
30
  6
Continuous
 62
     0
100
AcDbLine
 10
257.0322780068431
 20
648.4831426686017
 30
0.0
 11
257.0322780068431
 21
658.0994391106003
 31
0.0
  0
LINE
  5
75F1
330
7423
100
AcDbEntity
  8
30
  6
Continuous
 62
     0
100
AcDbLine
 10
257.0322780068431
 20
658.0994391106003
 30
0.0
 11
271.3656113401763
 21
658.0994391106003
 31
0.0
  0
INSERT
  5
75F2
330
7423
100
AcDbEntity
  8
30
  6
Continuous
 62
     0
100
AcDbBlockReference
  2
_OPEN
 10
257.0322780068429
 20
633.4831426686017
 30
0.0
 41
2.0
 42
2.0
 43
2.0
 50
270.0
  0
INSERT
  5
75F3
330
7423
100
AcDbEntity
  8
30
  6
Continuous
 62
     0
100
AcDbBlockReference
  2
_OPEN
 10
257.0322780068431
 20
648.4831426686017
 30
0.0
 41
2.0
 42
2.0
 43
2.0
 50
90.0
  0
MTEXT
  5
75F4
330
7423
100
AcDbEntity
  8
30
  6
Continuous
 62
     0
100
AcDbMText
 10
264.6989446735094
 20
664.0994391106005
 30
0.0
 40
10.0
 41
0.0
 46
0.0
 71
     5
 72
     5
  1
\A1;15
 73
     1
 44
1.0
1001
ACAD
1000
MTEXTBEGIN
1070
    73
1070
     1
1070
    44
1040
1.0
1070
    74
1070
     0
1000
MTEXTEND
1000
MTEXTBEGIN
1070
    73
1070
     1
1070
    44
1040
1.0
1070
    74
1070
     0
1000
MTEXTEND
1000
MTEXTBEGIN
1070
    73
1070
     1
1070
    44
1040
1.0
1070
    74
1070
     0
1000
MTEXTEND
  0
POINT
  5
75F5
330
7423
100
AcDbEntity
  8
DEFPOINTS
  6
Continuous
 62
     0
100
AcDbPoint
 10
225.0
 20
648.4831426686017
 30
0.0
  0
POINT
  5
75F6
330
7423
100
AcDbEntity
  8
DEFPOINTS
  6
Continuous
 62
     0
100
AcDbPoint
 10
225.0
 20
633.4831426686019
 30
0.0
  0
POINT
  5
75F7
330
7423
100
AcDbEntity
  8
DEFPOINTS
  6
Continuous
 62
     0
100
AcDbPoint
 10
257.0322780068429
 20
633.4831426686017
 30
0.0
  0
ENDBLK
  5
742E
330
7423
100
AcDbEntity
  8
0
100
AcDbBlockEnd
  0
BLOCK
  5
743A
330
7430
100
AcDbEntity
  8
0
100
AcDbBlockBegin
  2
*D36
 70
     1
 10
0.0
 20
0.0
 30
0.0
  3
*D36
  1

  0
LINE
  5
7571
330
7430
100
AcDbEntity
  8
30
  6
Continuous
 62
     0
100
AcDbLine
 10
235.0
 20
633.4831426686019
 30
0.0
 11
257.5985918793239
 21
633.4831426686017
 31
0.0
  0
LINE
  5
7572
330
7430
100
AcDbEntity
  8
30
  6
Continuous
 62
     0
100
AcDbLine
 10
246.2827148438
 20
603.4831426686017
 30
0.0
 11
257.5985918793239
 21
603.4831426686017
 31
0.0
  0
LINE
  5
7573
330
7430
100
AcDbEntity
  8
30
  6
Continuous
 62
     0
100
AcDbLine
 10
257.098591879324
 20
631.4831426686017
 30
0.0
 11
257.098591879324
 21
605.4831426686018
 31
0.0
  0
INSERT
  5
7574
330
7430
100
AcDbEntity
  8
30
  6
Continuous
 62
     0
100
AcDbBlockReference
  2
_OPEN
 10
257.098591879324
 20
633.4831426686017
 30
0.0
 41
2.0
 42
2.0
 43
2.0
 50
90.0
  0
INSERT
  5
7575
330
7430
100
AcDbEntity
  8
30
  6
Continuous
 62
     0
100
AcDbBlockReference
  2
_OPEN
 10
257.098591879324
 20
603.4831426686017
 30
0.0
 41
2.0
 42
2.0
 43
2.0
 50
270.0
  0
MTEXT
  5
7576
330
7430
100
AcDbEntity
  8
30
  6
Continuous
 62
     0
100
AcDbMText
 10
251.0985918793239
 20
618.4831426686018
 30
0.0
 40
10.0
 41
0.0
 46
0.0
 71
     5
 72
     5
  1
\A1;30
 11
0.0000000000000001
 21
1.0
 31
0.0
 73
     1
 44
1.0
1001
ACAD
1000
MTEXTBEGIN
1070
    73
1070
     1
1070
    44
1040
1.0
1070
    74
1070
     0
1000
MTEXTEND
1000
MTEXTBEGIN
1070
    73
1070
     1
1070
    44
1040
1.0
1070
    74
1070
     0
1000
MTEXTEND
1000
MTEXTBEGIN
1070
    73
1070
     1
1070
    44
1040
1.0
1070
    74
1070
     0
1000
MTEXTEND
  0
POINT
  5
7577
330
7430
100
AcDbEntity
  8
DEFPOINTS
  6
Continuous
 62
     0
100
AcDbPoint
 10
225.0
 20
633.4831426686019
 30
0.0
  0
POINT
  5
7578
330
7430
100
AcDbEntity
  8
DEFPOINTS
  6
Continuous
 62
     0
100
AcDbPoint
 10
236.2827148438
 20
603.4831426686017
 30
0.0
  0
POINT
  5
7579
330
7430
100
AcDbEntity
  8
DEFPOINTS
  6
Continuous
 62
     0
100
AcDbPoint
 10
257.098591879324
 20
603.4831426686017
 30
0.0
  0
ENDBLK
  5
743B
330
7430
100
AcDbEntity
  8
0
100
AcDbBlockEnd
  0
BLOCK
  5
7447
330
743D
100
AcDbEntity
  8
0
100
AcDbBlockBegin
  2
*D37
 70
     1
 10
0.0
 20
0.0
 30
0.0
  3
*D37
  1

  0
LINE
  5
757A
330
743D
100
AcDbEntity
  8
30
  6
Continuous
 62
     0
100
AcDbLine
 10
246.2827148438
 20
603.4831426686017
 30
0.0
 11
257.5985918793239
 21
603.4831426686017
 31
0.0
  0
LINE
  5
757B
330
743D
100
AcDbEntity
  8
30
  6
Continuous
 62
     0
100
AcDbLine
 10
234.0002441405999
 20
518.4831426686018
 30
0.0
 11
257.5985918793239
 21
518.4831426686018
 31
0.0
  0
LINE
  5
757C
330
743D
100
AcDbEntity
  8
30
  6
Continuous
 62
     0
100
AcDbLine
 10
257.098591879324
 20
601.4831426686018
 30
0.0
 11
257.098591879324
 21
520.4831426686016
 31
0.0
  0
INSERT
  5
757D
330
743D
100
AcDbEntity
  8
30
  6
Continuous
 62
     0
100
AcDbBlockReference
  2
_OPEN
 10
257.098591879324
 20
603.4831426686017
 30
0.0
 41
2.0
 42
2.0
 43
2.0
 50
90.0
  0
INSERT
  5
757E
330
743D
100
AcDbEntity
  8
30
  6
Continuous
 62
     0
100
AcDbBlockReference
  2
_OPEN
 10
257.098591879324
 20
518.4831426686018
 30
0.0
 41
2.0
 42
2.0
 43
2.0
 50
270.0
  0
MTEXT
  5
757F
330
743D
100
AcDbEntity
  8
30
  6
Continuous
 62
     0
100
AcDbMText
 10
251.0985918793239
 20
560.9831426686018
 30
0.0
 40
10.0
 41
0.0
 46
0.0
 71
     5
 72
     5
  1
\A1;85
 11
0.0000000000000001
 21
1.0
 31
0.0
 73
     1
 44
1.0
1001
ACAD
1000
MTEXTBEGIN
1070
    73
1070
     1
1070
    44
1040
1.0
1070
    74
1070
     0
1000
MTEXTEND
1000
MTEXTBEGIN
1070
    73
1070
     1
1070
    44
1040
1.0
1070
    74
1070
     0
1000
MTEXTEND
1000
MTEXTBEGIN
1070
    73
1070
     1
1070
    44
1040
1.0
1070
    74
1070
     0
1000
MTEXTEND
  0
POINT
  5
7580
330
743D
100
AcDbEntity
  8
DEFPOINTS
  6
Continuous
 62
     0
100
AcDbPoint
 10
236.2827148438
 20
603.4831426686017
 30
0.0
  0
POINT
  5
7581
330
743D
100
AcDbEntity
  8
DEFPOINTS
  6
Continuous
 62
     0
100
AcDbPoint
 10
224.0002441405998
 20
518.4831426686018
 30
0.0
  0
POINT
  5
7582
330
743D
100
AcDbEntity
  8
DEFPOINTS
  6
Continuous
 62
     0
100
AcDbPoint
 10
257.098591879324
 20
518.4831426686018
 30
0.0
  0
ENDBLK
  5
7448
330
743D
100
AcDbEntity
  8
0
100
AcDbBlockEnd
  0
BLOCK
  5
7615
330
760B
100
AcDbEntity
  8
0
100
AcDbBlockBegin
  2
*D38
 70
     1
 10
0.0
 20
0.0
 30
0.0
  3
*D38
  1

  0
LINE
  5
760C
330
760B
100
AcDbEntity
  8
30
  6
Continuous
 62
     0
440
 16777216
100
AcDbLine
 10
821.3330030276187
 20
112.9999999999999
 30
0.0
 11
884.3879346682186
 21
112.9999999999999
 31
0.0
  0
LINE
  5
760D
330
760B
100
AcDbEntity
  8
30
  6
Continuous
 62
     0
440
 16777216
100
AcDbLine
 10
741.3330945803736
 20
-0.0000000000000057
 30
0.0
 11
884.3879346682186
 21
-0.0000000000000462
 31
0.0
  0
LINE
  5
760E
330
760B
100
AcDbEntity
  8
30
  6
Continuous
 62
     0
440
 16777216
100
AcDbLine
 10
883.8879346682187
 20
110.9999999999996
 30
0.0
 11
883.8879346682187
 21
1.999999999999953
 31
0.0
  0
INSERT
  5
760F
330
760B
100
AcDbEntity
  8
30
  6
Continuous
 62
     0
440
 16777216
100
AcDbBlockReference
  2
_OPEN
 10
883.8879346682187
 20
112.9999999999999
 30
0.0
 41
2.0
 42
2.0
 43
2.0
 50
90.0
  0
INSERT
  5
7610
330
760B
100
AcDbEntity
  8
30
  6
Continuous
 62
     0
440
 16777216
100
AcDbBlockReference
  2
_OPEN
 10
883.8879346682187
 20
-0.000000000000046
 30
0.0
 41
2.0
 42
2.0
 43
2.0
 50
270.0
  0
MTEXT
  5
7611
330
760B
100
AcDbEntity
  8
30
  6
Continuous
 62
     0
440
 16777216
100
AcDbMText
 10
877.8879346682186
 20
56.50000000000009
 30
0.0
 40
10.0
 41
0.0
 46
0.0
 71
     5
 72
     5
  1
\A1;113
 11
0.0000000000000001
 21
1.0
 31
0.0
 73
     1
 44
1.0
1001
ACAD
1000
MTEXTBEGIN
1070
    73
1070
     1
1070
    44
1040
1.0
1070
    74
1070
     0
1000
MTEXTEND
1000
MTEXTBEGIN
1070
    73
1070
     1
1070
    44
1040
1.0
1070
    74
1070
     0
1000
MTEXTEND
1000
MTEXTBEGIN
1070
    73
1070
     1
1070
    44
1040
1.0
1070
    74
1070
     0
1000
MTEXTEND
  0
POINT
  5
7612
330
760B
100
AcDbEntity
  8
DEFPOINTS
  6
Continuous
 62
     0
440
 16777216
100
AcDbPoint
 10
811.3330030276186
 20
112.9999999999999
 30
0.0
  0
POINT
  5
7613
330
760B
100
AcDbEntity
  8
DEFPOINTS
  6
Continuous
 62
     0
440
 16777216
100
AcDbPoint
 10
731.3330945803736
 20
-0.0000000000000028
 30
0.0
  0
POINT
  5
7614
330
760B
100
AcDbEntity
  8
DEFPOINTS
  6
Continuous
 62
     0
440
 16777216
100
AcDbPoint
 10
883.8879346682187
 20
-0.000000000000046
 30
0.0
  0
ENDBLK
  5
7616
330
760B
100
AcDbEntity
  8
0
100
AcDbBlockEnd
  0
BLOCK
  5
76AD
330
76A3
100
AcDbEntity
  8
0
100
AcDbBlockBegin
  2
*D39
 70
     1
 10
0.0
 20
0.0
 30
0.0
  3
*D39
  1

  0
LINE
  5
76A4
330
76A3
100
AcDbEntity
  8
30
  6
Continuous
 62
     0
100
AcDbLine
 10
821.3330030276187
 20
-133.0
 30
0.0
 11
863.8368570654142
 21
-133.0
 31
0.0
  0
LINE
  5
76A5
330
76A3
100
AcDbEntity
  8
30
  6
Continuous
 62
     0
100
AcDbLine
 10
821.3330030276187
 20
-223.0002441406
 30
0.0
 11
863.8368570654142
 21
-223.0002441406
 31
0.0
  0
LINE
  5
76A6
330
76A3
100
AcDbEntity
  8
30
  6
Continuous
 62
     0
100
AcDbLine
 10
863.3368570654141
 20
-135.0
 30
0.0
 11
863.3368570654141
 21
-221.0002441406
 31
0.0
  0
INSERT
  5
76A7
330
76A3
100
AcDbEntity
  8
30
  6
Continuous
 62
     0
100
AcDbBlockReference
  2
_OPEN
 10
863.3368570654141
 20
-133.0
 30
0.0
 41
2.0
 42
2.0
 43
2.0
 50
90.0
  0
INSERT
  5
76A8
330
76A3
100
AcDbEntity
  8
30
  6
Continuous
 62
     0
100
AcDbBlockReference
  2
_OPEN
 10
863.3368570654141
 20
-223.0002441406
 30
0.0
 41
2.0
 42
2.0
 43
2.0
 50
270.0
  0
MTEXT
  5
76A9
330
76A3
100
AcDbEntity
  8
30
  6
Continuous
 62
     0
100
AcDbMText
 10
857.3368570654141
 20
-178.0001220702999
 30
0.0
 40
10.0
 41
0.0
 46
0.0
 71
     5
 72
     5
  1
\A1;90
 11
0.0000000000000001
 21
1.0
 31
0.0
 73
     1
 44
1.0
1001
ACAD
1000
MTEXTBEGIN
1070
    73
1070
     1
1070
    44
1040
1.0
1070
    74
1070
     0
1000
MTEXTEND
1000
MTEXTBEGIN
1070
    73
1070
     1
1070
    44
1040
1.0
1070
    74
1070
     0
1000
MTEXTEND
1000
MTEXTBEGIN
1070
    73
1070
     1
1070
    44
1040
1.0
1070
    74
1070
     0
1000
MTEXTEND
  0
POINT
  5
76AA
330
76A3
100
AcDbEntity
  8
DEFPOINTS
  6
Continuous
 62
     0
100
AcDbPoint
 10
811.3330030276186
 20
-133.0
 30
0.0
  0
POINT
  5
76AB
330
76A3
100
AcDbEntity
  8
DEFPOINTS
  6
Continuous
 62
     0
100
AcDbPoint
 10
811.3330030276186
 20
-223.0002441406
 30
0.0
  0
POINT
  5
76AC
330
76A3
100
AcDbEntity
  8
DEFPOINTS
  6
Continuous
 62
     0
100
AcDbPoint
 10
863.3368570654141
 20
-223.0002441406
 30
0.0
  0
ENDBLK
  5
76AE
330
76A3
100
AcDbEntity
  8
0
100
AcDbBlockEnd
  0
BLOCK
  5
76B9
330
76AF
100
AcDbEntity
  8
0
100
AcDbBlockBegin
  2
*D40
 70
     1
 10
0.0
 20
0.0
 30
0.0
  3
*D40
  1

  0
LINE
  5
76B0
330
76AF
100
AcDbEntity
  8
30
  6
Continuous
 62
     0
100
AcDbLine
 10
815.5615186526187
 20
-158.0
 30
0.0
 11
836.4658562942308
 21
-158.0
 31
0.0
  0
LINE
  5
76B1
330
76AF
100
AcDbEntity
  8
30
  6
Continuous
 62
     0
100
AcDbLine
 10
815.5615186526187
 20
-198.0
 30
0.0
 11
836.4658562942308
 21
-198.0
 31
0.0
  0
LINE
  5
76B2
330
76AF
100
AcDbEntity
  8
30
  6
Continuous
 62
     0
100
AcDbLine
 10
835.9658562942307
 20
-160.0
 30
0.0
 11
835.9658562942307
 21
-196.0
 31
0.0
  0
INSERT
  5
76B3
330
76AF
100
AcDbEntity
  8
30
  6
Continuous
 62
     0
100
AcDbBlockReference
  2
_OPEN
 10
835.9658562942307
 20
-158.0
 30
0.0
 41
2.0
 42
2.0
 43
2.0
 50
90.0
  0
INSERT
  5
76B4
330
76AF
100
AcDbEntity
  8
30
  6
Continuous
 62
     0
100
AcDbBlockReference
  2
_OPEN
 10
835.9658562942307
 20
-198.0
 30
0.0
 41
2.0
 42
2.0
 43
2.0
 50
270.0
  0
MTEXT
  5
76B5
330
76AF
100
AcDbEntity
  8
30
  6
Continuous
 62
     0
100
AcDbMText
 10
829.9658562942308
 20
-177.9999999999999
 30
0.0
 40
10.0
 41
0.0
 46
0.0
 71
     5
 72
     5
  1
\A1;40
 11
0.0000000000000001
 21
1.0
 31
0.0
 73
     1
 44
1.0
1001
ACAD
1000
MTEXTBEGIN
1070
    73
1070
     1
1070
    44
1040
1.0
1070
    74
1070
     0
1000
MTEXTEND
1000
MTEXTBEGIN
1070
    73
1070
     1
1070
    44
1040
1.0
1070
    74
1070
     0
1000
MTEXTEND
1000
MTEXTBEGIN
1070
    73
1070
     1
1070
    44
1040
1.0
1070
    74
1070
     0
1000
MTEXTEND
  0
POINT
  5
76B6
330
76AF
100
AcDbEntity
  8
DEFPOINTS
  6
Continuous
 62
     0
100
AcDbPoint
 10
805.5615186526187
 20
-158.0
 30
0.0
  0
POINT
  5
76B7
330
76AF
100
AcDbEntity
  8
DEFPOINTS
  6
Continuous
 62
     0
100
AcDbPoint
 10
805.5615186526187
 20
-198.0
 30
0.0
  0
POINT
  5
76B8
330
76AF
100
AcDbEntity
  8
DEFPOINTS
  6
Continuous
 62
     0
100
AcDbPoint
 10
835.9658562942307
 20
-198.0
 30
0.0
  0
ENDBLK
  5
76BA
330
76AF
100
AcDbEntity
  8
0
100
AcDbBlockEnd
  0
BLOCK
  5
76C5
330
76BB
100
AcDbEntity
  8
0
100
AcDbBlockBegin
  2
*D41
 70
     1
 10
0.0
 20
0.0
 30
0.0
  3
*D41
  1

  0
LINE
  5
76BC
330
76BB
100
AcDbEntity
  8
30
  6
Continuous
 62
     0
100
AcDbLine
 10
791.3330030276187
 20
-215.0002441406
 30
0.0
 11
791.3330030276187
 21
-237.4930275793513
 31
0.0
  0
LINE
  5
76BD
330
76BB
100
AcDbEntity
  8
30
  6
Continuous
 62
     0
100
AcDbLine
 10
751.3330030276185
 20
-215.0002441406
 30
0.0
 11
751.3330030276185
 21
-237.4930275793513
 31
0.0
  0
LINE
  5
76BE
330
76BB
100
AcDbEntity
  8
30
  6
Continuous
 62
     0
100
AcDbLine
 10
789.3330030276187
 20
-236.9930275793513
 30
0.0
 11
753.3330030276187
 21
-236.9930275793513
 31
0.0
  0
INSERT
  5
76BF
330
76BB
100
AcDbEntity
  8
30
  6
Continuous
 62
     0
100
AcDbBlockReference
  2
_OPEN
 10
791.3330030276187
 20
-236.9930275793513
 30
0.0
 41
2.0
 42
2.0
 43
2.0
  0
INSERT
  5
76C0
330
76BB
100
AcDbEntity
  8
30
  6
Continuous
 62
     0
100
AcDbBlockReference
  2
_OPEN
 10
751.3330030276185
 20
-236.9930275793513
 30
0.0
 41
2.0
 42
2.0
 43
2.0
 50
180.0
  0
MTEXT
  5
76C1
330
76BB
100
AcDbEntity
  8
30
  6
Continuous
 62
     0
100
AcDbMText
 10
771.3330030276186
 20
-230.9930275793513
 30
0.0
 40
10.0
 41
0.0
 46
0.0
 71
     5
 72
     5
  1
\A1;40
 73
     1
 44
1.0
1001
ACAD
1000
MTEXTBEGIN
1070
    73
1070
     1
1070
    44
1040
1.0
1070
    74
1070
     0
1000
MTEXTEND
1000
MTEXTBEGIN
1070
    73
1070
     1
1070
    44
1040
1.0
1070
    74
1070
     0
1000
MTEXTEND
1000
MTEXTBEGIN
1070
    73
1070
     1
1070
    44
1040
1.0
1070
    74
1070
     0
1000
MTEXTEND
  0
POINT
  5
76C2
330
76BB
100
AcDbEntity
  8
DEFPOINTS
  6
Continuous
 62
     0
100
AcDbPoint
 10
791.3330030276187
 20
-205.0002441406
 30
0.0
  0
POINT
  5
76C3
330
76BB
100
AcDbEntity
  8
DEFPOINTS
  6
Continuous
 62
     0
100
AcDbPoint
 10
751.3330030276185
 20
-205.0002441406
 30
0.0
  0
POINT
  5
76C4
330
76BB
100
AcDbEntity
  8
DEFPOINTS
  6
Continuous
 62
     0
100
AcDbPoint
 10
751.3330030276185
 20
-236.9930275793513
 30
0.0
  0
ENDBLK
  5
76C6
330
76BB
100
AcDbEntity
  8
0
100
AcDbBlockEnd
  0
BLOCK
  5
76D1
330
76C7
100
AcDbEntity
  8
0
100
AcDbBlockBegin
  2
*D42
 70
     1
 10
0.0
 20
0.0
 30
0.0
  3
*D42
  1

  0
LINE
  5
76C8
330
76C7
100
AcDbEntity
  8
30
  6
Continuous
 62
     0
100
AcDbLine
 10
791.3330030276187
 20
-215.0002441406
 30
0.0
 11
791.3330030276187
 21
-237.4930275793513
 31
0.0
  0
LINE
  5
76C9
330
76C7
100
AcDbEntity
  8
30
  6
Continuous
 62
     0
100
AcDbLine
 10
811.3330030276186
 20
-208.0
 30
0.0
 11
811.3330030276186
 21
-237.4930275793513
 31
0.0
  0
LINE
  5
76CA
330
76C7
100
AcDbEntity
  8
30
  6
Continuous
 62
     0
100
AcDbLine
 10
793.3330030276187
 20
-236.9930275793513
 30
0.0
 11
809.3330030276186
 21
-236.9930275793513
 31
0.0
  0
INSERT
  5
76CB
330
76C7
100
AcDbEntity
  8
30
  6
Continuous
 62
     0
100
AcDbBlockReference
  2
_OPEN
 10
791.3330030276187
 20
-236.9930275793513
 30
0.0
 41
2.0
 42
2.0
 43
2.0
 50
180.0
  0
INSERT
  5
76CC
330
76C7
100
AcDbEntity
  8
30
  6
Continuous
 62
     0
100
AcDbBlockReference
  2
_OPEN
 10
811.3330030276186
 20
-236.9930275793513
 30
0.0
 41
2.0
 42
2.0
 43
2.0
  0
MTEXT
  5
76CD
330
76C7
100
AcDbEntity
  8
30
  6
Continuous
 62
     0
100
AcDbMText
 10
801.3330030276186
 20
-230.9930275793513
 30
0.0
 40
10.0
 41
0.0
 46
0.0
 71
     5
 72
     5
  1
\A1;20
 73
     1
 44
1.0
1001
ACAD
1000
MTEXTBEGIN
1070
    73
1070
     1
1070
    44
1040
1.0
1070
    74
1070
     0
1000
MTEXTEND
1000
MTEXTBEGIN
1070
    73
1070
     1
1070
    44
1040
1.0
1070
    74
1070
     0
1000
MTEXTEND
  0
POINT
  5
76CE
330
76C7
100
AcDbEntity
  8
DEFPOINTS
  6
Continuous
 62
     0
100
AcDbPoint
 10
791.3330030276187
 20
-205.0002441406
 30
0.0
  0
POINT
  5
76CF
330
76C7
100
AcDbEntity
  8
DEFPOINTS
  6
Continuous
 62
     0
100
AcDbPoint
 10
811.3330030276186
 20
-198.0
 30
0.0
  0
POINT
  5
76D0
330
76C7
100
AcDbEntity
  8
DEFPOINTS
  6
Continuous
 62
     0
100
AcDbPoint
 10
811.3330030276186
 20
-236.9930275793513
 30
0.0
  0
ENDBLK
  5
76D2
330
76C7
100
AcDbEntity
  8
0
100
AcDbBlockEnd
  0
BLOCK
  5
770D
330
7703
100
AcDbEntity
  8
0
100
AcDbBlockBegin
  2
*D43
 70
     1
 10
0.0
 20
0.0
 30
0.0
  3
*D43
  1

  0
LINE
  5
7784
330
7703
100
AcDbEntity
  8
30
  6
Continuous
 62
     0
100
AcDbLine
 10
269.0002441405998
 20
678.4831426686017
 30
0.0
 11
269.0002441405998
 21
720.9869967063972
 31
0.0
  0
LINE
  5
7785
330
7703
100
AcDbEntity
  8
30
  6
Continuous
 62
     0
100
AcDbLine
 10
359.0004882811998
 20
678.4831426686017
 30
0.0
 11
359.0004882811998
 21
720.9869967063972
 31
0.0
  0
LINE
  5
7786
330
7703
100
AcDbEntity
  8
30
  6
Continuous
 62
     0
100
AcDbLine
 10
271.0002441405998
 20
720.4869967063972
 30
0.0
 11
357.0004882811998
 21
720.4869967063972
 31
0.0
  0
INSERT
  5
7787
330
7703
100
AcDbEntity
  8
30
  6
Continuous
 62
     0
100
AcDbBlockReference
  2
_OPEN
 10
269.0002441405998
 20
720.4869967063972
 30
0.0
 41
2.0
 42
2.0
 43
2.0
 50
180.0
  0
INSERT
  5
7788
330
7703
100
AcDbEntity
  8
30
  6
Continuous
 62
     0
100
AcDbBlockReference
  2
_OPEN
 10
359.0004882811998
 20
720.4869967063972
 30
0.0
 41
2.0
 42
2.0
 43
2.0
  0
MTEXT
  5
7789
330
7703
100
AcDbEntity
  8
30
  6
Continuous
 62
     0
100
AcDbMText
 10
314.0003662108998
 20
726.4869967063972
 30
0.0
 40
10.0
 41
0.0
 46
0.0
 71
     5
 72
     5
  1
\A1;90
 73
     1
 44
1.0
1001
ACAD
1000
MTEXTBEGIN
1070
    73
1070
     1
1070
    44
1040
1.0
1070
    74
1070
     0
1000
MTEXTEND
1000
MTEXTBEGIN
1070
    73
1070
     1
1070
    44
1040
1.0
1070
    74
1070
     0
1000
MTEXTEND
  0
POINT
  5
778A
330
7703
100
AcDbEntity
  8
DEFPOINTS
  6
Continuous
 62
     0
100
AcDbPoint
 10
269.0002441405998
 20
668.4831426686018
 30
0.0
  0
POINT
  5
778B
330
7703
100
AcDbEntity
  8
DEFPOINTS
  6
Continuous
 62
     0
100
AcDbPoint
 10
359.0004882811998
 20
668.4831426686018
 30
0.0
  0
POINT
  5
778C
330
7703
100
AcDbEntity
  8
DEFPOINTS
  6
Continuous
 62
     0
100
AcDbPoint
 10
359.0004882811998
 20
720.4869967063972
 30
0.0
  0
ENDBLK
  5
770E
330
7703
100
AcDbEntity
  8
0
100
AcDbBlockEnd
  0
BLOCK
  5
7719
330
770F
100
AcDbEntity
  8
0
100
AcDbBlockBegin
  2
*D44
 70
     1
 10
0.0
 20
0.0
 30
0.0
  3
*D44
  1

  0
LINE
  5
778D
330
770F
100
AcDbEntity
  8
30
  6
Continuous
 62
     0
100
AcDbLine
 10
351.0004882811998
 20
648.4831426686017
 30
0.0
 11
373.4932717199511
 21
648.4831426686017
 31
0.0
  0
LINE
  5
778E
330
770F
100
AcDbEntity
  8
30
  6
Continuous
 62
     0
100
AcDbLine
 10
351.0004882811998
 20
608.4831426686017
 30
0.0
 11
373.4932717199511
 21
608.4831426686017
 31
0.0
  0
LINE
  5
778F
330
770F
100
AcDbEntity
  8
30
  6
Continuous
 62
     0
100
AcDbLine
 10
372.9932717199511
 20
646.4831426686019
 30
0.0
 11
372.9932717199511
 21
610.4831426686017
 31
0.0
  0
INSERT
  5
7790
330
770F
100
AcDbEntity
  8
30
  6
Continuous
 62
     0
100
AcDbBlockReference
  2
_OPEN
 10
372.9932717199511
 20
648.4831426686017
 30
0.0
 41
2.0
 42
2.0
 43
2.0
 50
90.0
  0
INSERT
  5
7791
330
770F
100
AcDbEntity
  8
30
  6
Continuous
 62
     0
100
AcDbBlockReference
  2
_OPEN
 10
372.9932717199511
 20
608.4831426686017
 30
0.0
 41
2.0
 42
2.0
 43
2.0
 50
270.0
  0
MTEXT
  5
7792
330
770F
100
AcDbEntity
  8
30
  6
Continuous
 62
     0
100
AcDbMText
 10
366.9932717199511
 20
628.4831426686017
 30
0.0
 40
10.0
 41
0.0
 46
0.0
 71
     5
 72
     5
  1
\A1;40
 11
0.0000000000000001
 21
1.0
 31
0.0
 73
     1
 44
1.0
1001
ACAD
1000
MTEXTBEGIN
1070
    73
1070
     1
1070
    44
1040
1.0
1070
    74
1070
     0
1000
MTEXTEND
1000
MTEXTBEGIN
1070
    73
1070
     1
1070
    44
1040
1.0
1070
    74
1070
     0
1000
MTEXTEND
  0
POINT
  5
7793
330
770F
100
AcDbEntity
  8
DEFPOINTS
  6
Continuous
 62
     0
100
AcDbPoint
 10
341.0004882811997
 20
648.4831426686017
 30
0.0
  0
POINT
  5
7794
330
770F
100
AcDbEntity
  8
DEFPOINTS
  6
Continuous
 62
     0
100
AcDbPoint
 10
341.0004882811997
 20
608.4831426686017
 30
0.0
  0
POINT
  5
7795
330
770F
100
AcDbEntity
  8
DEFPOINTS
  6
Continuous
 62
     0
100
AcDbPoint
 10
372.9932717199511
 20
608.4831426686017
 30
0.0
  0
ENDBLK
  5
771A
330
770F
100
AcDbEntity
  8
0
100
AcDbBlockEnd
  0
BLOCK
  5
7725
330
771B
100
AcDbEntity
  8
0
100
AcDbBlockBegin
  2
*D45
 70
     1
 10
0.0
 20
0.0
 30
0.0
  3
*D45
  1

  0
LINE
  5
7796
330
771B
100
AcDbEntity
  8
30
  6
Continuous
 62
     0
100
AcDbLine
 10
351.0004882811998
 20
648.4831426686017
 30
0.0
 11
373.4932717199511
 21
648.4831426686017
 31
0.0
  0
LINE
  5
7797
330
771B
100
AcDbEntity
  8
30
  6
Continuous
 62
     0
100
AcDbLine
 10
344.0002441405998
 20
668.4831426686018
 30
0.0
 11
373.4932717199511
 21
668.4831426686018
 31
0.0
  0
LINE
  5
7798
330
771B
100
AcDbEntity
  8
30
  6
Continuous
 62
     0
100
AcDbLine
 10
372.9932717199511
 20
650.4831426686019
 30
0.0
 11
372.9932717199511
 21
666.4831426686017
 31
0.0
  0
INSERT
  5
7799
330
771B
100
AcDbEntity
  8
30
  6
Continuous
 62
     0
100
AcDbBlockReference
  2
_OPEN
 10
372.9932717199511
 20
648.4831426686017
 30
0.0
 41
2.0
 42
2.0
 43
2.0
 50
270.0
  0
INSERT
  5
779A
330
771B
100
AcDbEntity
  8
30
  6
Continuous
 62
     0
100
AcDbBlockReference
  2
_OPEN
 10
372.9932717199511
 20
668.4831426686018
 30
0.0
 41
2.0
 42
2.0
 43
2.0
 50
90.0
  0
MTEXT
  5
779B
330
771B
100
AcDbEntity
  8
30
  6
Continuous
 62
     0
100
AcDbMText
 10
366.993271719951
 20
658.4831426686019
 30
0.0
 40
10.0
 41
0.0
 46
0.0
 71
     5
 72
     5
  1
\A1;20
 11
0.0000000000000001
 21
1.0
 31
0.0
 73
     1
 44
1.0
1001
ACAD
1000
MTEXTBEGIN
1070
    73
1070
     1
1070
    44
1040
1.0
1070
    74
1070
     0
1000
MTEXTEND
1000
MTEXTBEGIN
1070
    73
1070
     1
1070
    44
1040
1.0
1070
    74
1070
     0
1000
MTEXTEND
  0
POINT
  5
779C
330
771B
100
AcDbEntity
  8
DEFPOINTS
  6
Continuous
 62
     0
100
AcDbPoint
 10
341.0004882811997
 20
648.4831426686017
 30
0.0
  0
POINT
  5
779D
330
771B
100
AcDbEntity
  8
DEFPOINTS
  6
Continuous
 62
     0
100
AcDbPoint
 10
334.0002441405999
 20
668.4831426686018
 30
0.0
  0
POINT
  5
779E
330
771B
100
AcDbEntity
  8
DEFPOINTS
  6
Continuous
 62
     0
100
AcDbPoint
 10
372.9932717199511
 20
668.4831426686018
 30
0.0
  0
ENDBLK
  5
7726
330
771B
100
AcDbEntity
  8
0
100
AcDbBlockEnd
  0
BLOCK
  5
7731
330
7727
100
AcDbEntity
  8
0
100
AcDbBlockBegin
  2
*D46
 70
     1
 10
0.0
 20
0.0
 30
0.0
  3
*D46
  1

  0
LINE
  5
777B
330
7727
100
AcDbEntity
  8
30
  6
Continuous
 62
     0
100
AcDbLine
 10
294.0002441405998
 20
672.7116582936019
 30
0.0
 11
294.0002441405998
 21
693.6159959352139
 31
0.0
  0
LINE
  5
777C
330
7727
100
AcDbEntity
  8
30
  6
Continuous
 62
     0
100
AcDbLine
 10
334.0002441405999
 20
672.7116582936019
 30
0.0
 11
334.0002441405999
 21
693.6159959352139
 31
0.0
  0
LINE
  5
777D
330
7727
100
AcDbEntity
  8
30
  6
Continuous
 62
     0
100
AcDbLine
 10
296.0002441405998
 20
693.115995935214
 30
0.0
 11
332.0002441405998
 21
693.115995935214
 31
0.0
  0
INSERT
  5
777E
330
7727
100
AcDbEntity
  8
30
  6
Continuous
 62
     0
100
AcDbBlockReference
  2
_OPEN
 10
294.0002441405998
 20
693.115995935214
 30
0.0
 41
2.0
 42
2.0
 43
2.0
 50
180.0
  0
INSERT
  5
777F
330
7727
100
AcDbEntity
  8
30
  6
Continuous
 62
     0
100
AcDbBlockReference
  2
_OPEN
 10
334.0002441405999
 20
693.115995935214
 30
0.0
 41
2.0
 42
2.0
 43
2.0
  0
MTEXT
  5
7780
330
7727
100
AcDbEntity
  8
30
  6
Continuous
 62
     0
100
AcDbMText
 10
314.0002441405998
 20
699.1159959352139
 30
0.0
 40
10.0
 41
0.0
 46
0.0
 71
     5
 72
     5
  1
\A1;40
 73
     1
 44
1.0
1001
ACAD
1000
MTEXTBEGIN
1070
    73
1070
     1
1070
    44
1040
1.0
1070
    74
1070
     0
1000
MTEXTEND
1000
MTEXTBEGIN
1070
    73
1070
     1
1070
    44
1040
1.0
1070
    74
1070
     0
1000
MTEXTEND
  0
POINT
  5
7781
330
7727
100
AcDbEntity
  8
DEFPOINTS
  6
Continuous
 62
     0
100
AcDbPoint
 10
294.0002441405998
 20
662.7116582936017
 30
0.0
  0
POINT
  5
7782
330
7727
100
AcDbEntity
  8
DEFPOINTS
  6
Continuous
 62
     0
100
AcDbPoint
 10
334.0002441405999
 20
662.7116582936017
 30
0.0
  0
POINT
  5
7783
330
7727
100
AcDbEntity
  8
DEFPOINTS
  6
Continuous
 62
     0
100
AcDbPoint
 10
334.0002441405999
 20
693.115995935214
 30
0.0
  0
ENDBLK
  5
7732
330
7727
100
AcDbEntity
  8
0
100
AcDbBlockEnd
  0
ENDSEC
  0
SECTION
  2
ENTITIES
  0
LINE
  5
B4
330
1E
100
AcDbEntity
  8
16
100
AcDbLine
 10
-0.0000000000000021
 20
-231.0
 30
0.0
 11
0.0
 21
260.2817373766102
 31
0.0
  0
LINE
  5
B5
330
1E
100
AcDbEntity
  8
16
100
AcDbLine
 10
277.171104594311
 20
0.0000000000000107
 30
0.0
 11
-189.1661476100052
 21
0.0
 31
0.0
  0
MTEXT
  5
BF3
330
1E
100
AcDbEntity
  8
24
  6
Continuous
100
AcDbMText
 10
142.1181906098743
 20
177.5
 30
0.0
 40
3.0
 41
0.0
 46
0.0
 71
     1
 72
     5
  1
\A1;
 73
     1
 44
1.0
1001
ACAD
1000
MTEXTBEGIN
1070
    73
1070
     1
1070
    44
1040
1.0
1070
    74
1070
     0
1000
MTEXTEND
1000
MTEXTBEGIN
1070
    73
1070
     1
1070
    44
1040
1.0
1070
    74
1070
     0
1000
MTEXTEND
1000
MTEXTBEGIN
1070
    73
1070
     1
1070
    44
1040
1.0
1070
    74
1070
     0
1000
MTEXTEND
  0
LINE
  5
1C9A
330
1E
100
AcDbEntity
  8
16
100
AcDbLine
 10
0.0
 20
284.4603198874711
 30
0.0
 11
0.0
 21
727.8004738743933
 31
0.0
  0
LINE
  5
1C9B
330
1E
100
AcDbEntity
  8
16
100
AcDbLine
 10
721.3330945803736
 20
0.0
 30
0.0
 11
296.0
 21
0.0
 31
0.0
  0
LINE
  5
2261
330
1E
100
AcDbEntity
  8
16
100
AcDbLine
 10
0.0
 20
-662.3645093449662
 30
0.0
 11
0.0
 21
-352.3645093449662
 31
0.0
  0
MTEXT
  5
5D8A
330
1E
100
AcDbEntity
  8
19
  6
Continuous
100
AcDbMText
 10
515.4563110512408
 20
461.1671669675801
 30
0.0
 40
9.0
 41
134.6578
 46
0.0
 71
     1
 72
     5
  1
XS2500NE 4P RC\PXS2500NN 4P RC
  7
STANDARD1
 73
     1
 44
1.0
1001
ACAD
1000
MTEXTBEGIN
1070
    73
1070
     1
1070
    44
1040
1.0
1070
    74
1070
     0
1000
MTEXTEND
1000
MTEXTBEGIN
1070
    73
1070
     1
1070
    44
1040
1.0
1070
    74
1070
     0
1000
MTEXTEND
1000
MTEXTBEGIN
1070
    73
1070
     1
1070
    44
1040
1.0
1070
    74
1070
     0
1000
MTEXTEND
  0
DIMENSION
  5
6CC0
330
1E
100
AcDbEntity
  8
30
  6
Continuous
100
AcDbDimension
280
     0
  2
*D4
 10
-174.0
 20
333.4826543873018
 30
0.0
 11
-180.0
 21
425.9828985279519
 31
0.0
 70
    32
 71
     5
 42
-1.0
 73
     0
 74
     0
 75
     0
  3
STANDARD
100
AcDbAlignedDimension
 13
-160.0
 23
518.4831426686018
 33
0.0
 14
-160.0
 24
333.4826543873018
 34
0.0
 50
90.0
100
AcDbRotatedDimension
  0
LWPOLYLINE
  5
6CC9
330
1E
100
AcDbEntity
  8
10
  6
Continuous
100
AcDbPolyline
 90
        4
 70
     0
 43
0.0
 10
-33.0
 20
329.4826543873018
 10
-33.0
 20
297.4826543873017
 10
33.0
 20
297.4826543873017
 10
33.0
 20
329.4826543873018
  0
LWPOLYLINE
  5
6CCA
330
1E
100
AcDbEntity
  8
10
  6
Continuous
100
AcDbPolyline
 90
        3
 70
     0
 43
0.0
 10
-57.5
 20
333.4826543873018
 10
-57.5
 20
329.4826543873018
 10
57.5
 20
329.4826543873018
  0
LINE
  5
6CCB
330
1E
100
AcDbEntity
  8
10
  6
Continuous
100
AcDbLine
 10
-51.0
 20
333.4826543873018
 30
0.0
 11
-51.0
 21
333.4826543873018
 31
0.0
  0
LINE
  5
6CCC
330
1E
100
AcDbEntity
  8
10
  6
Continuous
100
AcDbLine
 10
57.5
 20
333.4826543873018
 30
0.0
 11
57.5
 21
333.4826543873018
 31
0.0
  0
LINE
  5
6CCD
330
1E
100
AcDbEntity
  8
10
  6
Continuous
100
AcDbLine
 10
57.5
 20
329.4826543873018
 30
0.0
 11
57.5
 21
333.4826543873018
 31
0.0
  0
LINE
  5
6D0F
330
1E
100
AcDbEntity
  8
21
100
AcDbLine
 10
10.0
 20
668.4831426686018
 30
0.0
 11
10.00000000000011
 21
518.4831426686018
 31
0.0
  0
LINE
  5
6D10
330
1E
100
AcDbEntity
  8
21
100
AcDbLine
 10
-9.999999999999886
 20
518.4831426686018
 30
0.0
 11
-10.0
 21
668.4831426686018
 31
0.0
  0
LINE
  5
6D11
330
1E
100
AcDbEntity
  8
21
100
AcDbLine
 10
-95.00024414059998
 20
668.4831426686018
 30
0.0
 11
-95.00024414059998
 21
518.4831426686018
 31
0.0
  0
LINE
  5
6D12
330
1E
100
AcDbEntity
  8
21
100
AcDbLine
 10
-115.0002441405999
 20
518.4831426686018
 30
0.0
 11
-115.0002441405999
 21
668.4831426686018
 31
0.0
  0
LINE
  5
6D13
330
1E
100
AcDbEntity
  8
21
100
AcDbLine
 10
115.0
 20
668.4831426686018
 30
0.0
 11
115.0000000000001
 21
518.4831426686018
 31
0.0
  0
LINE
  5
6D14
330
1E
100
AcDbEntity
  8
21
100
AcDbLine
 10
95.00000000000012
 20
518.4831426686018
 30
0.0
 11
95.0
 21
668.4831426686018
 31
0.0
  0
LINE
  5
6D15
330
1E
100
AcDbEntity
  8
21
100
AcDbLine
 10
225.0
 20
668.4831426686018
 30
0.0
 11
225.0
 21
518.4831426686018
 31
0.0
  0
LINE
  5
6D16
330
1E
100
AcDbEntity
  8
21
100
AcDbLine
 10
205.0
 20
518.4831426686018
 30
0.0
 11
205.0
 21
668.4831426686018
 31
0.0
  0
LINE
  5
6D17
330
1E
100
AcDbEntity
  8
24
  6
CONTINOUS
100
AcDbLine
 10
-126.3793945311999
 20
648.4831426686017
 30
0.0
 11
-84.79736328119996
 21
648.4831426686017
 31
0.0
  0
LINE
  5
6D18
330
1E
100
AcDbEntity
  8
21
100
AcDbLine
 10
-115.0002441405999
 20
668.4831426686018
 30
0.0
 11
-95.00024414059998
 21
668.4831426686018
 31
0.0
  0
LINE
  5
6D19
330
1E
100
AcDbEntity
  8
24
  6
CONTINOUS
100
AcDbLine
 10
-21.37939453119996
 20
648.4831426686017
 30
0.0
 11
20.20263671880001
 21
648.4831426686017
 31
0.0
  0
LINE
  5
6D1A
330
1E
100
AcDbEntity
  8
21
100
AcDbLine
 10
-10.0
 20
668.4831426686018
 30
0.0
 11
10.0
 21
668.4831426686018
 31
0.0
  0
LINE
  5
6D1B
330
1E
100
AcDbEntity
  8
24
  6
CONTINOUS
100
AcDbLine
 10
83.62060546880002
 20
648.4831426686017
 30
0.0
 11
125.2026367187999
 21
648.4831426686017
 31
0.0
  0
LINE
  5
6D1C
330
1E
100
AcDbEntity
  8
21
100
AcDbLine
 10
95.0
 20
668.4831426686018
 30
0.0
 11
115.0
 21
668.4831426686018
 31
0.0
  0
LINE
  5
6D1D
330
1E
100
AcDbEntity
  8
24
  6
CONTINOUS
100
AcDbLine
 10
193.6206054688
 20
648.4831426686017
 30
0.0
 11
235.2026367188
 21
648.4831426686017
 31
0.0
  0
LINE
  5
6D1E
330
1E
100
AcDbEntity
  8
21
100
AcDbLine
 10
205.0
 20
668.4831426686018
 30
0.0
 11
225.0
 21
668.4831426686018
 31
0.0
  0
LINE
  5
6D21
330
1E
100
AcDbEntity
  8
24
  6
CONTINOUS
100
AcDbLine
 10
-125.8393554686997
 20
608.4831426686017
 30
0.0
 11
-83.71752929679994
 21
608.4831426686017
 31
0.0
  0
LINE
  5
6D24
330
1E
100
AcDbEntity
  8
24
  6
CONTINOUS
100
AcDbLine
 10
-20.83935546869985
 20
608.4831426686017
 30
0.0
 11
21.28271484380012
 21
608.4831426686017
 31
0.0
  0
LINE
  5
6D27
330
1E
100
AcDbEntity
  8
24
  6
CONTINOUS
100
AcDbLine
 10
84.1606445313001
 20
608.4831426686017
 30
0.0
 11
126.2827148438
 21
608.4831426686017
 31
0.0
  0
LINE
  5
6D29
330
1E
100
AcDbEntity
  8
24
  6
CONTINOUS
100
AcDbLine
 10
194.1606445313
 20
608.4831426686017
 30
0.0
 11
236.2827148438
 21
608.4831426686017
 31
0.0
  0
LWPOLYLINE
  5
6D30
330
1E
100
AcDbEntity
  8
10
  6
Continuous
100
AcDbPolyline
 90
       10
 70
     1
 43
0.0
 10
-160.0
 20
518.4831426686018
 10
-6.000000000000111
 20
518.4831426686018
 10
13.99999999999988
 20
518.4831426686018
 10
98.99999999999987
 20
518.4831426686018
 10
118.9999999999997
 20
518.4831426686018
 10
204.0002441406
 20
518.4831426686018
 10
224.0002441405998
 20
518.4831426686018
 10
269.0002441405998
 20
518.4831426686018
 10
269.0002441405998
 20
333.4826543873018
 10
-160.0
 20
333.4826543873018
  0
DIMENSION
  5
6D31
330
1E
100
AcDbEntity
  8
30
  6
Continuous
100
AcDbDimension
280
     0
  2
*D5
 10
0.0000000000000038
 20
729.7373687819852
 30
0.0
 11
-52.50012207029995
 21
735.7373687819853
 31
0.0
 70
    32
 71
     5
 42
-1.0
 73
     0
 74
     0
 75
     0
  3
STANDARD
100
AcDbAlignedDimension
 13
-105.0002441405998
 23
668.4831426686018
 33
0.0
 14
0.0
 24
668.4831426686018
 34
0.0
100
AcDbRotatedDimension
  0
DIMENSION
  5
6D3E
330
1E
100
AcDbEntity
  8
30
  6
Continuous
100
AcDbDimension
280
     0
  2
*D6
 10
105.0
 20
729.7373687819852
 30
0.0
 11
52.5
 21
735.7373687819853
 31
0.0
 70
    32
 71
     5
 42
-1.0
 73
     0
 74
     0
 75
     0
  3
STANDARD
100
AcDbAlignedDimension
 13
0.0
 23
478.6507035126525
 33
0.0
 14
105.0
 24
668.4831426686018
 34
0.0
100
AcDbRotatedDimension
1001
ACAD
1000
DSTYLE
1002
{
1070
   287
1070
     4
1070
   287
1070
     4
1070
   287
1070
     4
1070
   279
1070
     1
1002
}
  0
DIMENSION
  5
6D4B
330
1E
100
AcDbEntity
  8
30
  6
Continuous
100
AcDbDimension
280
     0
  2
*D7
 10
215.0
 20
729.7373687819852
 30
0.0
 11
160.0
 21
735.7373687819853
 31
0.0
 70
    32
 71
     5
 42
-1.0
 73
     0
 74
     0
 75
     0
  3
STANDARD
100
AcDbAlignedDimension
 13
105.0
 23
668.4831426686018
 33
0.0
 14
215.0
 24
668.4831426686018
 34
0.0
100
AcDbRotatedDimension
1001
ACAD
1000
DSTYLE
1002
{
1070
   287
1070
     4
1070
   287
1070
     4
1070
   287
1070
     4
1070
   279
1070
     1
1002
}
  0
LINE
  5
6E32
330
1E
100
AcDbEntity
  8
17
  6
CONTINOUS
100
AcDbLine
 10
-258.279296875
 20
-699.0
 30
0.0
 11
302.4724121094
 21
-699.0
 31
0.0
  0
LINE
  5
6E33
330
1E
100
AcDbEntity
  8
17
  6
DASHED
 62
     7
 48
2.0
100
AcDbLine
 10
-254.4172363281
 20
-705.0
 30
0.0
 11
306.3344726563
 21
-705.0
 31
0.0
  0
LINE
  5
6E34
330
1E
100
AcDbEntity
  8
17
  6
CONTINOUS
100
AcDbLine
 10
-252.2651367186999
 20
-749.0
 30
0.0
 11
306.4819335938
 21
-749.0
 31
0.0
  0
LINE
  5
6E35
330
1E
100
AcDbEntity
  8
17
  6
CONTINOUS
100
AcDbLine
 10
-258.6958007812
 20
-448.0
 30
0.0
 11
302.1948242188
 21
-448.0
 31
0.0
  0
LINE
  5
6E36
330
1E
100
AcDbEntity
  8
17
  6
DASHED
 62
     7
 48
2.0
100
AcDbLine
 10
-260.4106445311999
 20
-442.0
 30
0.0
 11
300.3413085938
 21
-442.0
 31
0.0
  0
LINE
  5
6E37
330
1E
100
AcDbEntity
  8
17
  6
CONTINOUS
100
AcDbLine
 10
-263.2861328125
 20
-398.0
 30
0.0
 11
297.4658203125
 21
-398.0
 31
0.0
  0
LINE
  5
6E38
330
1E
100
AcDbEntity
  8
18
100
AcDbLine
 10
-160.0
 20
-843.0
 30
0.0
 11
262.5
 21
-842.9999999999999
 31
0.0
  0
LINE
  5
6E39
330
1E
100
AcDbEntity
  8
18
100
AcDbLine
 10
269.0
 20
-393.0
 30
0.0
 11
-160.0
 21
-393.0
 31
0.0
  0
DIMENSION
  5
6E3A
330
1E
100
AcDbEntity
  8
30
  6
Continuous
100
AcDbDimension
280
     0
  2
*D8
 10
-305.9500104239524
 20
-649.9999999999999
 30
0.0
 11
-311.9500104239522
 21
-534.0
 31
0.0
 70
    32
 71
     5
 42
-1.0
 73
     0
 74
     0
 75
     0
  3
STANDARD
100
AcDbAlignedDimension
 13
-76.6962890625
 23
-418.0
 33
0.0
 14
-166.0
 24
-650.0
 34
0.0
 50
90.0
100
AcDbRotatedDimension
  0
DIMENSION
  5
6E3B
330
1E
100
AcDbEntity
  8
30
  6
Continuous
100
AcDbDimension
280
     0
  2
*D9
 10
151.0
 20
-785.9304743781599
 30
0.0
 11
0.0000000000000004
 21
-779.9304743781599
 31
0.0
 70
    32
 71
     5
 42
-1.0
 73
     0
 74
     0
 75
     0
  3
STANDARD
100
AcDbAlignedDimension
 13
-151.0
 23
-748.8425854357203
 33
0.0
 14
151.0
 24
-748.8425854357203
 34
0.0
100
AcDbRotatedDimension
  0
LINE
  5
6E3C
330
1E
100
AcDbEntity
  8
16
100
AcDbLine
 10
202.1634296945399
 20
-650.0
 30
0.0
 11
-166.0
 21
-650.0
 31
0.0
  0
LINE
  5
6E3D
330
1E
100
AcDbEntity
  8
18
100
AcDbLine
 10
-160.0
 20
-393.0
 30
0.0
 11
-160.0
 21
-843.0
 31
0.0
  0
DIMENSION
  5
6E3E
330
1E
100
AcDbEntity
  8
30
  6
Continuous
100
AcDbDimension
280
     0
  2
*D10
 10
-305.9500104239524
 20
-728.9999999999999
 30
0.0
 11
-311.9500104239522
 21
-689.5
 31
0.0
 70
    32
 71
     5
 42
-1.0
 73
     0
 74
     0
 75
     0
  3
STANDARD
100
AcDbAlignedDimension
 13
-166.0
 23
-650.0
 33
0.0
 14
-165.3988960500464
 24
-729.0
 34
0.0
 50
90.0
100
AcDbRotatedDimension
1001
ACAD
1000
DSTYLE
1002
{
1070
   287
1070
     4
1070
   287
1070
     4
1070
   287
1070
     4
1070
   279
1070
     1
1002
}
  0
LINE
  5
6E3F
330
1E
100
AcDbEntity
  8
17
  6
CONTINOUS
100
AcDbLine
 10
-258.279296875
 20
-699.0
 30
0.0
 11
-251.1611328124998
 21
-717.7048339844
 31
0.0
  0
LINE
  5
6E40
330
1E
100
AcDbEntity
  8
17
  6
CONTINOUS
100
AcDbLine
 10
-251.1611328124998
 20
-717.7048339844
 30
0.0
 11
-261.5048828124999
 21
-736.17578125
 31
0.0
  0
LINE
  5
6E41
330
1E
100
AcDbEntity
  8
17
  6
CONTINOUS
100
AcDbLine
 10
-261.5048828124999
 20
-736.17578125
 30
0.0
 11
-252.2651367186999
 21
-749.0
 31
0.0
  0
LINE
  5
6E42
330
1E
100
AcDbEntity
  8
L225_
  6
Continuous
 62
     3
100
AcDbLine
 10
-151.0
 20
-711.7419144169661
 30
0.0
 11
-151.0
 21
-748.8425854357203
 31
0.0
  0
LINE
  5
6E43
330
1E
100
AcDbEntity
  8
12
100
AcDbLine
 10
-165.3988960500464
 20
-729.0
 30
0.0
 11
-131.2623136680812
 21
-729.0
 31
0.0
  0
CIRCLE
  5
6E44
330
1E
100
AcDbEntity
  8
12
100
AcDbCircle
 10
-151.0
 20
-729.0
 30
0.0
 40
6.0
  0
LINE
  5
6E45
330
1E
100
AcDbEntity
  8
12
100
AcDbLine
 10
-160.0
 20
-729.0
 30
0.0
 11
-133.544921875
 21
-729.0
 31
0.0
  0
LINE
  5
6E46
330
1E
100
AcDbEntity
  8
17
  6
CONTINOUS
100
AcDbLine
 10
-268.8933105467999
 20
-430.2958984375
 30
0.0
 11
-258.5495605467999
 21
-415.5192871094
 31
0.0
  0
LINE
  5
6E47
330
1E
100
AcDbEntity
  8
17
  6
CONTINOUS
100
AcDbLine
 10
-258.6958007812
 20
-448.0
 30
0.0
 11
-268.8933105467999
 21
-430.2958984375
 31
0.0
  0
LINE
  5
6E48
330
1E
100
AcDbEntity
  8
17
  6
CONTINOUS
100
AcDbLine
 10
-258.5495605467999
 20
-415.5192871094
 30
0.0
 11
-263.2861328125
 21
-398.0
 31
0.0
  0
LINE
  5
6E49
330
1E
100
AcDbEntity
  8
18
100
AcDbLine
 10
269.0
 20
-836.4999999999996
 30
0.0
 11
269.0
 21
-393.0
 31
0.0
  0
LINE
  5
6E4A
330
1E
100
AcDbEntity
  8
16
100
AcDbLine
 10
-0.0000000000000011
 20
-887.0852836296467
 30
0.0
 11
-0.0000000000000011
 21
-377.7109542159318
 31
0.0
  0
LEADER
  5
6E4B
330
1E
100
AcDbEntity
  8
30
  6
Continuous
100
AcDbLeader
  3
STANDARD
 76
     3
 10
153.9976892556788
 20
-723.9419380557055
 30
0.0
 10
189.1060660123457
 20
-671.5125236015301
 30
0.0
 10
219.8787691488916
 20
-671.5688774134697
 30
0.0
1001
ACAD
1000
DSTYLE
1002
{
1070
     5
1000
OPEN
1070
   342
1005
3B2
1002
}
1000
LEANOF
1010
0.0
1020
0.0
1030
0.0
  0
LINE
  5
6E4C
330
1E
100
AcDbEntity
  8
12
100
AcDbLine
 10
136.6011039499535
 20
-729.0
 30
0.0
 11
170.7376863319186
 21
-729.0
 31
0.0
  0
LINE
  5
6E4D
330
1E
100
AcDbEntity
  8
L225_
  6
Continuous
 62
     3
100
AcDbLine
 10
151.0
 20
-711.7419144169661
 30
0.0
 11
151.0
 21
-748.8425854357203
 31
0.0
  0
CIRCLE
  5
6E4E
330
1E
100
AcDbEntity
  8
12
100
AcDbCircle
 10
151.0
 20
-729.0
 30
0.0
 40
6.0
  0
TEXT
  5
6E4F
330
1E
100
AcDbEntity
  8
30
  6
Continuous
100
AcDbText
 10
201.0915596357603
 20
-671.2332757408529
 30
0.0
 40
10.0
  1
%%C12
100
AcDbText
  0
DIMENSION
  5
6E50
330
1E
100
AcDbEntity
  8
30
  6
Continuous
100
AcDbDimension
280
     0
  2
*D11
 10
52.5
 20
-496.4905511136339
 30
0.0
 11
-0.0000000000000067
 21
-490.4905511136337
 31
0.0
 70
    32
 71
     5
 42
-1.0
 73
     0
 74
     0
 75
     0
  3
STANDARD
100
AcDbAlignedDimension
 13
-52.5
 23
-437.8425854357206
 33
0.0
 14
52.5
 24
-437.8425854357206
 34
0.0
100
AcDbRotatedDimension
  0
LINE
  5
6E51
330
1E
100
AcDbEntity
  8
12
100
AcDbLine
 10
-76.6962890625
 20
-418.0
 30
0.0
 11
-27.314453125
 21
-418.0
 31
0.0
  0
LINE
  5
6E52
330
1E
100
AcDbEntity
  8
L225_
  6
Continuous
 62
     3
100
AcDbLine
 10
-52.5
 20
-400.741914416966
 30
0.0
 11
-52.5
 21
-437.8425854357206
 31
0.0
  0
CIRCLE
  5
6E53
330
1E
100
AcDbEntity
  8
12
100
AcDbCircle
 10
-52.5
 20
-418.0
 30
0.0
 40
6.0
  0
LINE
  5
6E54
330
1E
100
AcDbEntity
  8
12
100
AcDbLine
 10
38.10110394995353
 20
-418.0
 30
0.0
 11
72.23768633191865
 21
-418.0
 31
0.0
  0
CIRCLE
  5
6E55
330
1E
100
AcDbEntity
  8
12
100
AcDbCircle
 10
52.5
 20
-418.0
 30
0.0
 40
6.0
  0
LINE
  5
6E56
330
1E
100
AcDbEntity
  8
L225_
  6
Continuous
 62
     3
100
AcDbLine
 10
52.5
 20
-400.741914416966
 30
0.0
 11
52.5
 21
-437.8425854357206
 31
0.0
  0
DIMENSION
  5
6E57
330
1E
100
AcDbEntity
  8
30
  6
Continuous
100
AcDbDimension
280
     0
  2
*D12
 10
609.4999999999997
 20
-750.1030481124437
 30
0.0
 11
550.0
 21
-744.1030481124437
 31
0.0
 70
    32
 71
     5
 42
-1.0
 73
     0
 74
     0
 75
     0
  3
STANDARD
100
AcDbAlignedDimension
 13
490.4999999999998
 23
-712.0
 33
0.0
 14
609.4999999999997
 24
-712.0
 34
0.0
100
AcDbRotatedDimension
  0
LWPOLYLINE
  5
6E58
330
1E
100
AcDbEntity
  8
11
  6
Continuous
100
AcDbPolyline
 90
        8
 70
     1
 43
0.0
 10
490.5
 20
-712.0
 42
0.4142135623730951
 10
500.4999999999998
 20
-722.0
 10
599.5
 20
-722.0
 42
0.4142135623730951
 10
609.4999999999997
 20
-712.0
 10
609.4999999999997
 20
-588.0
 42
0.4142135623730951
 10
599.5
 20
-578.0
 10
500.4999999999998
 20
-578.0
 42
0.4142135623730951
 10
490.5
 20
-588.0
  0
LWPOLYLINE
  5
6E59
330
1E
100
AcDbEntity
  8
18
100
AcDbPolyline
 90
        6
 70
     1
 43
0.0
 10
819.0
 20
-843.0
 10
390.0
 20
-843.0
 10
390.0
 20
-392.9995117186998
 10
819.0
 20
-392.9995117186998
 10
819.0
 20
-392.9995117186998
 10
819.0
 20
-843.0
  0
DIMENSION
  5
6E5A
330
1E
100
AcDbEntity
  8
30
  6
Continuous
100
AcDbDimension
280
     0
  2
*D13
 10
596.0081213089146
 20
-606.8665427739512
 30
0.0
 11
617.3651923710988
 21
-555.4099999999998
 31
0.0
 70
   164
  1
R10
 71
     5
 42
-1.0
 73
     0
 74
     0
 75
     0
  3
STANDARD
100
AcDbRadialDimension
 15
599.4999999999997
 25
-587.9999999999999
 35
0.0
 40
0.0
1001
ACAD
1000
DSTYLE
1002
{
1070
   288
1070
     1
1002
}
  0
LINE
  5
6E5B
330
1E
100
AcDbEntity
  8
16
100
AcDbLine
 10
837.3650554061057
 20
-650.0
 30
0.0
 11
373.5383822643398
 21
-650.0
 31
0.0
  0
DIMENSION
  5
6E5C
330
1E
100
AcDbEntity
  8
30
  6
Continuous
100
AcDbDimension
280
     0
  2
*D14
 10
438.188797131058
 20
-722.0
 30
0.0
 11
432.1887971310578
 21
-649.9999999999999
 31
0.0
 70
    32
 71
     5
 42
-1.0
 73
     0
 74
     0
 75
     0
  3
STANDARD
100
AcDbAlignedDimension
 13
500.4999999999998
 23
-578.0
 33
0.0
 14
500.4999999999998
 24
-722.0
 34
0.0
 50
90.0
100
AcDbRotatedDimension
  0
LINE
  5
6E5D
330
1E
100
AcDbEntity
  8
16
100
AcDbLine
 10
550.0
 20
-885.3603056821796
 30
0.0
 11
550.0
 21
-372.7109542159317
 31
0.0
  0
LINE
  5
6E5E
330
1E
100
AcDbEntity
  8
17
  6
CONTINOUS
100
AcDbLine
 10
302.4724121094
 20
-699.0
 30
0.0
 11
312.5739746094
 21
-721.3991699219
 31
0.0
  0
LINE
  5
6E5F
330
1E
100
AcDbEntity
  8
17
  6
CONTINOUS
100
AcDbLine
 10
299.2749023438
 20
-728.0485839844
 30
0.0
 11
306.4819335938
 21
-749.0
 31
0.0
  0
LINE
  5
6E60
330
1E
100
AcDbEntity
  8
17
  6
CONTINOUS
100
AcDbLine
 10
312.5739746094
 20
-721.3991699219
 30
0.0
 11
299.2749023438
 21
-728.0485839844
 31
0.0
  0
LINE
  5
6E61
330
1E
100
AcDbEntity
  8
17
  6
CONTINOUS
100
AcDbLine
 10
302.1948242188
 20
-448.0
 30
0.0
 11
293.3642578125
 21
-428.0795898437999
 31
0.0
  0
LINE
  5
6E62
330
1E
100
AcDbEntity
  8
17
  6
CONTINOUS
100
AcDbLine
 10
302.9692382813
 20
-413.302734375
 30
0.0
 11
297.4658203125
 21
-398.0
 31
0.0
  0
LINE
  5
6E63
330
1E
100
AcDbEntity
  8
17
  6
CONTINOUS
100
AcDbLine
 10
293.3642578125
 20
-428.0795898437999
 30
0.0
 11
302.9692382813
 21
-413.302734375
 31
0.0
  0
ARC
  5
6F29
330
1E
100
AcDbEntity
  8
18
100
AcDbCircle
 10
262.5
 20
-836.4999999999996
 30
0.0
 40
6.5
100
AcDbArc
 50
270.0
 51
0.0
  0
DIMENSION
  5
6F2A
330
1E
100
AcDbEntity
  8
30
  6
Continuous
100
AcDbDimension
280
     0
  2
*D15
 10
-286.2243577752428
 20
-728.9999999999999
 30
0.0
 11
-292.2243577752427
 21
-714.0
 31
0.0
 70
    32
 71
     5
 42
-1.0
 73
     0
 74
     0
 75
     0
  3
STANDARD
100
AcDbAlignedDimension
 13
-258.279296875
 23
-699.0
 33
0.0
 14
-257.4864377247958
 24
-728.9999999999999
 34
0.0
 50
90.0
100
AcDbRotatedDimension
  0
DIMENSION
  5
6F37
330
1E
100
AcDbEntity
  8
30
  6
Continuous
100
AcDbDimension
280
     0
  2
*D16
 10
-281.5735031517423
 20
-448.0
 30
0.0
 11
-287.5735031517423
 21
-433.0
 31
0.0
 70
    32
 71
     5
 42
-1.0
 73
     0
 74
     0
 75
     0
  3
STANDARD
100
AcDbAlignedDimension
 13
-260.2860800635139
 23
-417.9999999999997
 33
0.0
 14
-258.6958007812
 24
-448.0
 34
0.0
 50
90.0
100
AcDbRotatedDimension
  0
LINE
  5
70C7
330
1E
100
AcDbEntity
  8
18
100
AcDbLine
 10
410.7551221682187
 20
30.73339843749996
 30
0.0
 11
368.7629346682186
 21
51.46874999999997
 31
0.0
  0
ARC
  5
70C8
330
1E
100
AcDbEntity
  8
10
  6
Continuous
100
AcDbCircle
 10
561.3330030276187
 20
1.999999999999971
 30
0.0
 40
240.0000152588225
100
AcDbArc
 50
166.4795499242519
 51
180.0
  0
ARC
  5
70C9
330
1E
100
AcDbEntity
  8
18
100
AcDbCircle
 10
355.3030145206625
 20
70.12154677695065
 30
0.0
 40
23.00000000004116
100
AcDbArc
 50
17.64105276142776
 51
305.7583761049976
  0
ARC
  5
70CC
330
1E
100
AcDbEntity
  8
10
  6
Continuous
100
AcDbCircle
 10
561.3330030276187
 20
1.999999999999971
 30
0.0
 40
145.0000915527549
100
AcDbArc
 50
165.6881085843864
 51
180.0
  0
ARC
  5
70CE
330
1E
100
AcDbEntity
  8
10
  6
Continuous
100
AcDbCircle
 10
726.3330030276185
 20
-5.000000000000056
 30
0.0
 40
260.0000000000346
100
AcDbArc
 50
169.9367321349441
 51
178.8980905901466
  0
LINE
  5
70D0
330
1E
100
AcDbEntity
  8
10
  6
Continuous
100
AcDbLine
 10
470.3330030276187
 20
-70.00000000000007
 30
0.0
 11
470.3330030276187
 21
-50.43164062500006
 31
0.0
  0
LINE
  5
70D1
330
1E
100
AcDbEntity
  8
10
  6
Continuous
100
AcDbLine
 10
476.3330030276186
 20
-70.00000000000007
 30
0.0
 11
470.3330030276187
 21
-70.00000000000007
 31
0.0
  0
ARC
  5
70D2
330
1E
100
AcDbEntity
  8
10
  6
Continuous
100
AcDbCircle
 10
726.3330030276185
 20
-5.000000000000056
 30
0.0
 40
260.0
100
AcDbArc
 50
180.0
 51
190.0632778829626
  0
ARC
  5
70D3
330
1E
100
AcDbEntity
  8
L0_
  6
Continuous
 62
     2
100
AcDbCircle
 10
726.3330030276185
 20
-5.000000000000056
 30
0.0
 40
260.0000000000008
100
AcDbArc
 50
178.8980905901466
 51
180.0
  0
LINE
  5
70D4
330
1E
100
AcDbEntity
  8
21
100
AcDbLine
 10
811.3330030276186
 20
-133.0
 30
0.0
 11
811.3330030276186
 21
-223.0002441406
 31
0.0
  0
LINE
  5
70D8
330
1E
100
AcDbEntity
  8
21
100
AcDbLine
 10
811.3330030276186
 20
-223.0002441406
 30
0.0
 11
633.3330030276187
 21
-223.0002441406
 31
0.0
  0
LINE
  5
70D9
330
1E
100
AcDbEntity
  8
10
  6
Continuous
100
AcDbLine
 10
618.3330030276184
 20
-223.0002441406
 30
0.0
 11
618.3330030276184
 21
-193.0002441405999
 31
0.0
  0
LINE
  5
70DA
330
1E
100
AcDbEntity
  8
10
  6
Continuous
100
AcDbLine
 10
633.3330030276187
 20
-223.0002441406
 30
0.0
 11
633.3330030276187
 21
-193.0002441405999
 31
0.0
  0
CIRCLE
  5
70DE
330
1E
100
AcDbEntity
  8
24
  6
CONTINOUS
100
AcDbCircle
 10
751.3330030276185
 20
-198.0002441406
 30
0.0
 40
7.0
  0
CIRCLE
  5
70DF
330
1E
100
AcDbEntity
  8
24
  6
CONTINOUS
100
AcDbCircle
 10
751.3330030276185
 20
-158.0
 30
0.0
 40
7.0
  0
CIRCLE
  5
70E0
330
1E
100
AcDbEntity
  8
24
  6
CONTINOUS
100
AcDbCircle
 10
791.3330030276187
 20
-158.0
 30
0.0
 40
7.0
  0
CIRCLE
  5
70E1
330
1E
100
AcDbEntity
  8
24
  6
CONTINOUS
100
AcDbCircle
 10
791.3330030276187
 20
-198.0002441406
 30
0.0
 40
7.0
  0
LINE
  5
70E3
330
1E
100
AcDbEntity
  8
21
100
AcDbLine
 10
661.3330030276187
 20
-133.0
 30
0.0
 11
811.3330030276186
 21
-133.0
 31
0.0
  0
ARC
  5
70E4
330
1E
100
AcDbEntity
  8
12
  6
DASHED
100
AcDbCircle
 10
-706.8330030276187
 20
-50.50000000000006
 30
0.0
 40
4.5
210
0.0
220
0.0
230
-1.0
100
AcDbArc
 50
180.0
 51
270.0
  0
LINE
  5
70E5
330
1E
100
AcDbEntity
  8
12
  6
DASHED
100
AcDbLine
 10
661.3330030276187
 20
-49.00000000000005
 30
0.0
 11
711.3330030276187
 21
-49.00000000000005
 31
0.0
  0
LINE
  5
70E6
330
1E
100
AcDbEntity
  8
12
  6
DASHED
100
AcDbLine
 10
740.1330518557187
 20
-79.00000000000004
 30
0.0
 11
638.3913526369187
 21
-79.00000000000004
 31
0.0
  0
LINE
  5
70E8
330
1E
100
AcDbEntity
  8
12
  6
DASHED
100
AcDbLine
 10
661.3330030276187
 20
-99.00000000000005
 30
0.0
 11
661.3330030276187
 21
-49.00000000000005
 31
0.0
  0
LINE
  5
70E9
330
1E
100
AcDbEntity
  8
12
  6
DASHED
100
AcDbLine
 10
667.3330030276185
 20
-94.50000000000006
 30
0.0
 11
667.3330030276185
 21
-61.50000000000005
 31
0.0
  0
LINE
  5
70EA
330
1E
100
AcDbEntity
  8
12
  6
DASHED
100
AcDbLine
 10
661.3330030276187
 20
-70.00000000000007
 30
0.0
 11
661.3330030276187
 21
-88.00000000000006
 31
0.0
  0
LINE
  5
70EB
330
1E
100
AcDbEntity
  8
12
  6
DASHED
100
AcDbLine
 10
662.8330030276186
 20
-99.00000000000005
 30
0.0
 11
661.3330030276187
 21
-99.00000000000005
 31
0.0
  0
ARC
  5
70EC
330
1E
100
AcDbEntity
  8
12
  6
DASHED
100
AcDbCircle
 10
-662.8330030276186
 20
-94.50000000000006
 30
0.0
 40
4.5
210
0.0
220
0.0
230
-1.0
100
AcDbArc
 50
180.0
 51
270.0
  0
LINE
  5
70ED
330
1E
100
AcDbEntity
  8
12
  6
DASHED
100
AcDbLine
 10
679.0329541994187
 20
-68.00000000000007
 30
0.0
 11
679.0329541994187
 21
-90.00000000000005
 31
0.0
  0
LINE
  5
70EE
330
1E
100
AcDbEntity
  8
12
  6
DASHED
100
AcDbLine
 10
679.0329541994187
 20
-90.00000000000005
 30
0.0
 11
667.3330030276185
 21
-90.00000000000005
 31
0.0
  0
LINE
  5
70EF
330
1E
100
AcDbEntity
  8
12
  6
DASHED
100
AcDbLine
 10
679.0329541994187
 20
-68.00000000000007
 30
0.0
 11
667.3330030276185
 21
-68.00000000000007
 31
0.0
  0
LINE
  5
70F0
330
1E
100
AcDbEntity
  8
12
  6
DASHED
100
AcDbLine
 10
690.1330518557187
 20
-84.00000000000003
 30
0.0
 11
667.3330030276185
 21
-84.00000000000003
 31
0.0
  0
LINE
  5
70F1
330
1E
100
AcDbEntity
  8
12
  6
DASHED
100
AcDbLine
 10
690.1330518557187
 20
-74.00000000000004
 30
0.0
 11
690.1330518557187
 21
-84.00000000000003
 31
0.0
  0
LINE
  5
70F2
330
1E
100
AcDbEntity
  8
12
  6
DASHED
100
AcDbLine
 10
667.3330030276185
 20
-74.00000000000004
 30
0.0
 11
690.1330518557187
 21
-74.00000000000004
 31
0.0
  0
ARC
  5
70F5
330
1E
100
AcDbEntity
  8
12
  6
DASHED
100
AcDbCircle
 10
-673.8330030276187
 20
-61.50000000000005
 30
0.0
 40
6.5
210
0.0
220
0.0
230
-1.0
100
AcDbArc
 50
0.0
 51
90.0
  0
LINE
  5
70F6
330
1E
100
AcDbEntity
  8
12
  6
DASHED
100
AcDbLine
 10
673.8330030276187
 20
-55.00000000000007
 30
0.0
 11
706.8330030276187
 21
-55.00000000000007
 31
0.0
  0
LINE
  5
70F7
330
1E
100
AcDbEntity
  8
12
  6
DASHED
100
AcDbLine
 10
711.3330030276187
 20
-50.50000000000006
 30
0.0
 11
711.3330030276187
 21
-49.00000000000005
 31
0.0
  0
LINE
  5
70F9
330
1E
100
AcDbEntity
  8
12
  6
DASHED
100
AcDbLine
 10
531.3330030276187
 20
225.9999999999999
 30
0.0
 11
661.3330030276187
 21
225.9999999999999
 31
0.0
  0
LINE
  5
70FA
330
1E
100
AcDbEntity
  8
12
  6
DASHED
100
AcDbLine
 10
531.3330030276187
 20
237.9999999999999
 30
0.0
 11
661.3330030276187
 21
237.9999999999999
 31
0.0
  0
LINE
  5
70FB
330
1E
100
AcDbEntity
  8
12
  6
DASHED
100
AcDbLine
 10
466.3330030276187
 20
231.9999999999999
 30
0.0
 11
740.1330518557187
 21
231.9999999999999
 31
0.0
  0
LINE
  5
70FE
330
1E
100
AcDbEntity
  8
10
  6
Continuous
100
AcDbLine
 10
424.2451124026187
 20
36.54101562499997
 30
0.0
 11
458.7055616213183
 21
23.38085937499996
 31
0.0
  0
LINE
  5
70FF
330
1E
100
AcDbEntity
  8
10
  6
Continuous
100
AcDbLine
 10
430.6821241213182
 20
56.00390624999997
 30
0.0
 11
466.1943311526187
 21
46.02441406249996
 31
0.0
  0
LINE
  5
7100
330
1E
100
AcDbEntity
  8
10
  6
Continuous
100
AcDbLine
 10
421.7617139651187
 20
41.77050781249996
 30
0.0
 11
425.5703077151187
 21
53.28613281249997
 31
0.0
  0
ARC
  5
7101
330
1E
100
AcDbEntity
  8
10
  6
Continuous
100
AcDbCircle
 10
429.4247999026187
 20
52.20214843749997
 30
0.0
 40
4.004088401747021
100
AcDbArc
 50
71.69926877440268
 51
164.2919086348789
  0
ARC
  5
7102
330
1E
100
AcDbEntity
  8
10
  6
Continuous
100
AcDbCircle
 10
425.5024366213183
 20
40.34277343749996
 30
0.0
 40
4.003967761941156
100
AcDbArc
 50
159.1086829798233
 51
251.6992737836257
  0
LINE
  5
7104
330
1E
100
AcDbEntity
  8
10
  6
Continuous
100
AcDbLine
 10
460.2490186526186
 20
22.79101562499997
 30
0.0
 11
467.4057569338183
 21
18.59374999999996
 31
0.0
  0
LINE
  5
7105
330
1E
100
AcDbEntity
  8
10
  6
Continuous
100
AcDbLine
 10
458.7055616213183
 20
23.38085937499996
 30
0.0
 11
460.2490186526186
 21
22.79101562499997
 31
0.0
  0
LINE
  5
7106
330
1E
100
AcDbEntity
  8
10
  6
Continuous
100
AcDbLine
 10
466.1943311526187
 20
46.02441406249996
 30
0.0
 11
467.7846631838185
 21
45.57714843749997
 31
0.0
  0
LINE
  5
7107
330
1E
100
AcDbEntity
  8
10
  6
Continuous
100
AcDbLine
 10
467.7846631838185
 20
45.57714843749997
 30
0.0
 11
470.3330030276187
 21
45.29980468749997
 31
0.0
  0
LINE
  5
7108
330
1E
100
AcDbEntity
  8
10
  6
Continuous
100
AcDbLine
 10
470.3330030276187
 20
69.99999999999992
 30
0.0
 11
470.3330030276187
 21
40.43164062499996
 31
0.0
  0
LINE
  5
7109
330
1E
100
AcDbEntity
  8
10
  6
Continuous
100
AcDbLine
 10
476.3330030276186
 20
69.99999999999992
 30
0.0
 11
470.3330030276187
 21
69.99999999999992
 31
0.0
  0
LINE
  5
710A
330
1E
100
AcDbEntity
  8
12
  6
DASHED
100
AcDbLine
 10
476.3330030276186
 20
241.7499999999999
 30
0.0
 11
531.3330030276187
 21
241.7499999999999
 31
0.0
  0
LINE
  5
710B
330
1E
100
AcDbEntity
  8
12
  6
DASHED
100
AcDbLine
 10
476.3330030276186
 20
222.2499999999999
 30
0.0
 11
531.3330030276187
 21
222.2499999999999
 31
0.0
  0
LINE
  5
710C
330
1E
100
AcDbEntity
  8
12
  6
DASHED
100
AcDbLine
 10
531.3330030276187
 20
239.9999999999999
 30
0.0
 11
531.3330030276187
 21
223.9999999999999
 31
0.0
  0
LINE
  5
710D
330
1E
100
AcDbEntity
  8
12
  6
DASHED
100
AcDbLine
 10
521.3330030276186
 20
239.9999999999999
 30
0.0
 11
521.3330030276186
 21
223.9999999999999
 31
0.0
  0
LINE
  5
710E
330
1E
100
AcDbEntity
  8
12
  6
DASHED
100
AcDbLine
 10
521.3330030276186
 20
223.9999999999999
 30
0.0
 11
531.3330030276187
 21
223.9999999999999
 31
0.0
  0
LINE
  5
710F
330
1E
100
AcDbEntity
  8
12
  6
DASHED
100
AcDbLine
 10
531.3330030276187
 20
222.2499999999999
 30
0.0
 11
531.3330030276187
 21
225.9999999999999
 31
0.0
  0
LINE
  5
7110
330
1E
100
AcDbEntity
  8
12
  6
DASHED
100
AcDbLine
 10
521.3330030276186
 20
239.9999999999999
 30
0.0
 11
531.3330030276187
 21
239.9999999999999
 31
0.0
  0
LINE
  5
7111
330
1E
100
AcDbEntity
  8
12
  6
DASHED
100
AcDbLine
 10
531.3330030276187
 20
241.7499999999999
 30
0.0
 11
531.3330030276187
 21
237.9999999999999
 31
0.0
  0
LINE
  5
7113
330
1E
100
AcDbEntity
  8
21
100
AcDbLine
 10
811.3330030276186
 20
67.99999999999993
 30
0.0
 11
661.3330030276187
 21
67.99999999999993
 31
0.0
  0
LINE
  5
7114
330
1E
100
AcDbEntity
  8
21
100
AcDbLine
 10
661.3330030276187
 20
157.9999999999999
 30
0.0
 11
811.3330030276186
 21
157.9999999999999
 31
0.0
  0
LINE
  5
7116
330
1E
100
AcDbEntity
  8
21
100
AcDbLine
 10
811.3330030276186
 20
157.9999999999999
 30
0.0
 11
811.3330030276186
 21
67.99999999999993
 31
0.0
  0
LINE
  5
7117
330
1E
100
AcDbEntity
  8
24
  6
CONTINOUS
100
AcDbLine
 10
751.3330030276185
 20
111.5546874999999
 30
0.0
 11
751.3330030276185
 21
79.66992187499993
 31
0.0
  0
LINE
  5
7118
330
1E
100
AcDbEntity
  8
24
  6
CONTINOUS
100
AcDbLine
 10
791.3330030276187
 20
108.2822265624999
 30
0.0
 11
791.3330030276187
 21
77.53613281249993
 31
0.0
  0
LINE
  5
7119
330
1E
100
AcDbEntity
  8
24
  6
CONTINOUS
100
AcDbLine
 10
732.5378370119186
 20
92.99999999999995
 30
0.0
 11
765.5615186526187
 21
92.99999999999995
 31
0.0
  0
LINE
  5
711A
330
1E
100
AcDbEntity
  8
24
  6
CONTINOUS
100
AcDbLine
 10
732.5378370119186
 20
132.9999999999999
 30
0.0
 11
765.5615186526187
 21
132.9999999999999
 31
0.0
  0
LINE
  5
711B
330
1E
100
AcDbEntity
  8
24
  6
CONTINOUS
100
AcDbLine
 10
751.3330030276185
 20
151.5546874999999
 30
0.0
 11
751.3330030276185
 21
119.6699218749996
 31
0.0
  0
CIRCLE
  5
711C
330
1E
100
AcDbEntity
  8
24
  6
CONTINOUS
100
AcDbCircle
 10
751.3330030276185
 20
132.9999999999999
 30
0.0
 40
7.0
  0
CIRCLE
  5
711D
330
1E
100
AcDbEntity
  8
24
  6
CONTINOUS
100
AcDbCircle
 10
751.3330030276185
 20
92.99999999999995
 30
0.0
 40
7.0
  0
LINE
  5
711E
330
1E
100
AcDbEntity
  8
24
  6
CONTINOUS
100
AcDbLine
 10
774.8154249026185
 20
92.99999999999995
 30
0.0
 11
805.5615186526187
 21
92.99999999999995
 31
0.0
  0
LINE
  5
711F
330
1E
100
AcDbEntity
  8
24
  6
CONTINOUS
100
AcDbLine
 10
772.5378370119186
 20
132.9999999999999
 30
0.0
 11
805.5615186526187
 21
132.9999999999999
 31
0.0
  0
LINE
  5
7120
330
1E
100
AcDbEntity
  8
24
  6
CONTINOUS
100
AcDbLine
 10
791.3330030276187
 20
151.5546874999999
 30
0.0
 11
791.3330030276187
 21
119.6699218749996
 31
0.0
  0
CIRCLE
  5
7121
330
1E
100
AcDbEntity
  8
24
  6
CONTINOUS
100
AcDbCircle
 10
791.3330030276187
 20
92.99999999999995
 30
0.0
 40
7.0
  0
CIRCLE
  5
7122
330
1E
100
AcDbEntity
  8
24
  6
CONTINOUS
100
AcDbCircle
 10
791.3330030276187
 20
132.9999999999999
 30
0.0
 40
7.0
  0
ARC
  5
7123
330
1E
100
AcDbEntity
  8
12
  6
DASHED
100
AcDbCircle
 10
706.8330030276187
 20
203.4999999999999
 30
0.0
 40
4.5
100
AcDbArc
 50
0.0
 51
90.0
  0
LINE
  5
7124
330
1E
100
AcDbEntity
  8
12
  6
DASHED
100
AcDbLine
 10
661.3330030276187
 20
201.9999999999999
 30
0.0
 11
711.3330030276187
 21
201.9999999999999
 31
0.0
  0
LINE
  5
7125
330
1E
100
AcDbEntity
  8
12
  6
DASHED
100
AcDbLine
 10
667.3330030276185
 20
247.4999999999999
 30
0.0
 11
667.3330030276185
 21
214.4999999999999
 31
0.0
  0
LINE
  5
7127
330
1E
100
AcDbEntity
  8
12
  6
DASHED
100
AcDbLine
 10
690.1330518557187
 20
235.9999999999998
 30
0.0
 11
690.1330518557187
 21
227.9999999999999
 31
0.0
  0
LINE
  5
7128
330
1E
100
AcDbEntity
  8
12
  6
DASHED
100
AcDbLine
 10
679.0329541994187
 20
242.9999999999999
 30
0.0
 11
679.0329541994187
 21
222.7998046874999
 31
0.0
  0
LINE
  5
7129
330
1E
100
AcDbEntity
  8
12
  6
DASHED
100
AcDbLine
 10
673.8330030276187
 20
207.9999999999999
 30
0.0
 11
706.8330030276187
 21
207.9999999999999
 31
0.0
  0
ARC
  5
712A
330
1E
100
AcDbEntity
  8
12
  6
DASHED
100
AcDbCircle
 10
673.8330030276187
 20
214.4999999999999
 30
0.0
 40
6.5
100
AcDbArc
 50
180.0
 51
270.0
  0
LINE
  5
712B
330
1E
100
AcDbEntity
  8
12
  6
DASHED
100
AcDbLine
 10
690.1330518557187
 20
227.9999999999999
 30
0.0
 11
667.3330030276185
 21
227.9999999999999
 31
0.0
  0
LINE
  5
712C
330
1E
100
AcDbEntity
  8
12
  6
DASHED
100
AcDbLine
 10
679.0329541994187
 20
222.7998046874999
 30
0.0
 11
667.3330030276185
 21
222.7998046874999
 31
0.0
  0
LINE
  5
712D
330
1E
100
AcDbEntity
  8
12
  6
DASHED
100
AcDbLine
 10
667.3330030276185
 20
235.9999999999998
 30
0.0
 11
690.1330518557187
 21
235.9999999999998
 31
0.0
  0
ARC
  5
712E
330
1E
100
AcDbEntity
  8
12
  6
DASHED
100
AcDbCircle
 10
662.8330030276186
 20
247.4999999999999
 30
0.0
 40
4.5
100
AcDbArc
 50
0.0
 51
90.0
  0
LINE
  5
712F
330
1E
100
AcDbEntity
  8
12
  6
DASHED
100
AcDbLine
 10
662.8330030276186
 20
251.9999999999999
 30
0.0
 11
661.3330030276187
 21
251.9999999999999
 31
0.0
  0
LINE
  5
7130
330
1E
100
AcDbEntity
  8
12
  6
DASHED
100
AcDbLine
 10
667.3330030276185
 20
242.9999999999999
 30
0.0
 11
679.0329541994187
 21
242.9999999999999
 31
0.0
  0
LINE
  5
7131
330
1E
100
AcDbEntity
  8
12
  6
DASHED
100
AcDbLine
 10
711.3330030276187
 20
203.4999999999999
 30
0.0
 11
711.3330030276187
 21
201.9999999999999
 31
0.0
  0
LWPOLYLINE
  5
7135
330
1E
100
AcDbEntity
  8
10
  6
Continuous
100
AcDbPolyline
 90
        9
 70
     1
 43
0.0
 10
661.3330030276187
 20
157.9999999999999
 10
661.3330030276187
 20
67.99999999999996
 10
661.3330030276187
 20
-49.00000000000003
 10
661.3330030276187
 20
-133.0
 10
661.3330030276187
 20
-193.0002441406
 10
638.3330030276185
 20
-193.0002441406
 10
476.3330030276186
 20
-193.0002441406
 10
476.3330030276186
 20
257.0
 10
661.3330030276187
 20
257.0
  0
LWPOLYLINE
  5
7136
330
1E
100
AcDbEntity
  8
18
100
AcDbPolyline
 90
        5
 70
     0
 43
0.0
 10
410.7558545901187
 20
30.73339843749996
 10
456.3278760744187
 20
15.66308593749996
 10
468.8881788088187
 20
53.64062499999996
 10
423.3154249026187
 20
68.71191406249995
 10
377.2409620119187
 20
77.10351562499996
  0
LINE
  5
719C
330
1E
100
AcDbEntity
  8
24
  6
CONTINOUS
100
AcDbLine
 10
732.5378370119186
 20
-158.0
 30
0.0
 11
765.5615186526187
 21
-158.0
 31
0.0
  0
LINE
  5
719D
330
1E
100
AcDbEntity
  8
24
  6
CONTINOUS
100
AcDbLine
 10
751.3330030276185
 20
-139.4453125
 30
0.0
 11
751.3330030276185
 21
-171.330078125
 31
0.0
  0
LINE
  5
719E
330
1E
100
AcDbEntity
  8
24
  6
CONTINOUS
100
AcDbLine
 10
791.3330030276187
 20
-139.4453125
 30
0.0
 11
791.3330030276187
 21
-171.330078125
 31
0.0
  0
LINE
  5
719F
330
1E
100
AcDbEntity
  8
24
  6
CONTINOUS
100
AcDbLine
 10
772.5378370119186
 20
-158.0
 30
0.0
 11
805.5615186526187
 21
-158.0
 31
0.0
  0
LINE
  5
71A0
330
1E
100
AcDbEntity
  8
24
  6
CONTINOUS
100
AcDbLine
 10
732.5378370119186
 20
-198.0
 30
0.0
 11
765.5615186526187
 21
-198.0
 31
0.0
  0
LINE
  5
71A1
330
1E
100
AcDbEntity
  8
24
  6
CONTINOUS
100
AcDbLine
 10
751.3330030276185
 20
-179.4453124999999
 30
0.0
 11
751.3330030276185
 21
-211.3300781249999
 31
0.0
  0
LINE
  5
71A2
330
1E
100
AcDbEntity
  8
24
  6
CONTINOUS
100
AcDbLine
 10
791.3330030276187
 20
-182.7177734374999
 30
0.0
 11
791.3330030276187
 21
-213.4638671874999
 31
0.0
  0
LINE
  5
71A3
330
1E
100
AcDbEntity
  8
24
  6
CONTINOUS
100
AcDbLine
 10
774.8154249026185
 20
-198.0
 30
0.0
 11
805.5615186526187
 21
-198.0
 31
0.0
  0
DIMENSION
  5
71A4
330
1E
100
AcDbEntity
  8
30
  6
Continuous
100
AcDbDimension
280
     0
  2
*D17
 10
883.8879346682187
 20
-178.0002441406
 30
0.0
 11
877.8879346682186
 21
-89.00012207029991
 31
0.0
 70
    32
 71
     5
 42
-1.0
 73
     0
 74
     0
 75
     0
  3
STANDARD
100
AcDbAlignedDimension
 13
721.3330945803736
 23
0.0
 33
0.0
 14
811.3330030276186
 24
-178.0002441406
 34
0.0
 50
90.0
100
AcDbRotatedDimension
  0
TEXT
  5
71B1
330
1E
100
AcDbEntity
  8
30
  6
Continuous
100
AcDbText
 10
776.9012156617018
 20
-124.7681493388197
 30
0.0
 40
10.0
  1
%%C14
100
AcDbText
  0
LEADER
  5
71B2
330
1E
100
AcDbEntity
  8
30
  6
Continuous
100
AcDbLeader
  3
STANDARD
 76
     3
 10
791.3330030276187
 20
-152.5
 30
0.0
 10
808.4648234828502
 20
-127.1892395125997
 30
0.0
 10
771.3397099157926
 20
-127.2205642915132
 30
0.0
211
-1.0
221
0.0
231
0.0
210
0.0
220
0.0
230
-1.0
1001
ACAD
1000
DSTYLE
1002
{
1070
     5
1000
OPEN
1070
   342
1005
3B2
1002
}
1000
LEANOF
1010
0.0
1020
0.0
1030
0.0
  0
DIMENSION
  5
71B3
330
1E
100
AcDbEntity
  8
30
  6
Continuous
100
AcDbDimension
280
     0
  2
*D18
 10
863.3368570654141
 20
-223.0002441406
 30
0.0
 11
857.3368570654141
 21
-178.0001220702999
 31
0.0
 70
    32
 71
     5
 42
-1.0
 73
     0
 74
     0
 75
     0
  3
STANDARD
100
AcDbAlignedDimension
 13
811.3330030276186
 23
-133.0
 33
0.0
 14
811.3330030276186
 24
-223.0002441406
 34
0.0
 50
90.0
100
AcDbRotatedDimension
  0
DIMENSION
  5
71C0
330
1E
100
AcDbEntity
  8
30
  6
Continuous
100
AcDbDimension
280
     0
  2
*D19
 10
835.9658562942307
 20
-198.0
 30
0.0
 11
829.9658562942308
 21
-177.9999999999999
 31
0.0
 70
    32
 71
     5
 42
-1.0
 73
     0
 74
     0
 75
     0
  3
STANDARD
100
AcDbAlignedDimension
 13
805.5615186526187
 23
-158.0
 33
0.0
 14
805.5615186526187
 24
-198.0
 34
0.0
 50
90.0
100
AcDbRotatedDimension
  0
DIMENSION
  5
71CD
330
1E
100
AcDbEntity
  8
30
  6
Continuous
100
AcDbDimension
280
     0
  2
*D20
 10
751.3330030276185
 20
-236.9930275793513
 30
0.0
 11
771.3330030276186
 21
-230.9930275793513
 31
0.0
 70
    32
 71
     5
 42
-1.0
 73
     0
 74
     0
 75
     0
  3
STANDARD
100
AcDbAlignedDimension
 13
791.3330030276187
 23
-205.0002441406
 33
0.0
 14
751.3330030276185
 24
-205.0002441406
 34
0.0
100
AcDbRotatedDimension
  0
DIMENSION
  5
71DA
330
1E
100
AcDbEntity
  8
30
  6
Continuous
100
AcDbDimension
280
     0
  2
*D21
 10
476.3330030276186
 20
-264.4617236011327
 30
0.0
 11
485.166336360952
 21
-258.4617236011327
 31
0.0
 70
    32
 71
     5
 42
-1.0
 73
     0
 74
     0
 75
     0
  3
STANDARD
100
AcDbAlignedDimension
 13
466.3330030276176
 23
-5.000000000000004
 33
0.0
 14
476.3330030276186
 24
-193.0002441406
 34
0.0
100
AcDbRotatedDimension
  0
DIMENSION
  5
71E7
330
1E
100
AcDbEntity
  8
30
  6
Continuous
100
AcDbDimension
280
     0
  2
*D22
 10
661.3330030276187
 20
-264.4617236011327
 30
0.0
 11
568.8330030276187
 21
-258.4617236011327
 31
0.0
 70
    32
 71
     5
 42
-1.0
 73
     0
 74
     0
 75
     0
  3
STANDARD
100
AcDbAlignedDimension
 13
476.3330030276186
 23
-193.0002441406
 33
0.0
 14
661.3330030276187
 24
-193.0002441406
 34
0.0
100
AcDbRotatedDimension
1001
ACAD
1000
DSTYLE
1002
{
1070
   287
1070
     4
1070
   287
1070
     4
1070
   287
1070
     4
1070
   279
1070
     1
1002
}
  0
DIMENSION
  5
71F4
330
1E
100
AcDbEntity
  8
30
  6
Continuous
100
AcDbDimension
280
     0
  2
*D23
 10
811.3330030276186
 20
-264.4617236011327
 30
0.0
 11
736.3330030276186
 21
-258.4617236011327
 31
0.0
 70
    32
 71
     5
 42
-1.0
 73
     0
 74
     0
 75
     0
  3
STANDARD
100
AcDbAlignedDimension
 13
661.3330030276187
 23
-193.0002441406
 33
0.0
 14
811.3330030276186
 24
-223.0002441406
 34
0.0
100
AcDbRotatedDimension
1001
ACAD
1000
DSTYLE
1002
{
1070
   287
1070
     4
1070
   287
1070
     4
1070
   287
1070
     4
1070
   279
1070
     1
1002
}
  0
DIMENSION
  5
7207
330
1E
100
AcDbEntity
  8
30
  6
Continuous
100
AcDbDimension
280
     0
  2
*D24
 10
661.3330030276187
 20
-304.4454946722467
 30
0.0
 11
491.3329953982073
 21
-298.4454946722467
 31
0.0
 70
    32
 71
     5
 42
-1.0
 73
     0
 74
     0
 75
     0
  3
STANDARD
100
AcDbAlignedDimension
 13
321.3329877687958
 23
1.999999999999992
 33
0.0
 14
661.3330030276187
 24
-224.0002441406
 34
0.0
100
AcDbRotatedDimension
  0
DIMENSION
  5
7214
330
1E
100
AcDbEntity
  8
30
  6
Continuous
100
AcDbDimension
280
     0
  2
*D25
 10
661.3330030276187
 20
-285.5041273832248
 30
0.0
 11
538.8329572512411
 21
-279.5041273832249
 31
0.0
 70
    32
 71
     5
 42
-1.0
 73
     0
 74
     0
 75
     0
  3
STANDARD
100
AcDbAlignedDimension
 13
416.3329114748636
 23
1.99999999999998
 33
0.0
 14
661.3330030276187
 24
-223.0002441406
 34
0.0
100
AcDbRotatedDimension
  0
LINE
  5
72B4
330
1E
100
AcDbEntity
  8
12
  6
DASHED
100
AcDbLine
 10
-157.0477294922
 20
-79.0
 30
0.0
 11
-145.5092773437999
 21
-79.0
 31
0.0
  0
LINE
  5
72B5
330
1E
100
AcDbEntity
  8
12
  6
DASHED
100
AcDbLine
 10
-151.0
 20
-73.6494140625
 30
0.0
 11
-151.0
 21
-84.4921875
 31
0.0
  0
CIRCLE
  5
72B6
330
1E
100
AcDbEntity
  8
12
  6
DASHED
100
AcDbCircle
 10
-151.0
 20
-79.0
 30
0.0
 40
3.25
  0
LINE
  5
72B7
330
1E
100
AcDbEntity
  8
12
  6
DASHED
100
AcDbLine
 10
-52.5
 20
246.3554687499999
 30
0.0
 11
-52.5
 21
216.1181640625
 31
0.0
  0
CIRCLE
  5
72B8
330
1E
100
AcDbEntity
  8
12
  6
DASHED
100
AcDbCircle
 10
-52.5
 20
232.0
 30
0.0
 40
5.5
  0
LINE
  5
72B9
330
1E
100
AcDbEntity
  8
12
  6
DASHED
100
AcDbLine
 10
-65.5595703125
 20
232.0
 30
0.0
 11
-42.62084960940001
 21
232.0
 31
0.0
  0
LINE
  5
72C7
330
1E
100
AcDbEntity
  8
12
  6
DASHED
100
AcDbLine
 10
137.9392089842999
 20
-79.0
 30
0.0
 11
166.1818847655996
 21
-79.0
 31
0.0
  0
LINE
  5
72C8
330
1E
100
AcDbEntity
  8
12
  6
DASHED
100
AcDbLine
 10
151.0
 20
-66.2119140625
 30
0.0
 11
151.0
 21
-91.1044921875
 31
0.0
  0
CIRCLE
  5
72C9
330
1E
100
AcDbEntity
  8
12
  6
DASHED
100
AcDbCircle
 10
151.0
 20
-79.0
 30
0.0
 40
3.25
  0
LINE
  5
72CC
330
1E
100
AcDbEntity
  8
12
  6
DASHED
100
AcDbLine
 10
52.5
 20
243.2275390625
 30
0.0
 11
52.5
 21
218.203125
 31
0.0
  0
CIRCLE
  5
72CD
330
1E
100
AcDbEntity
  8
12
  6
DASHED
100
AcDbCircle
 10
52.5
 20
232.0
 30
0.0
 40
5.5
  0
LINE
  5
72CE
330
1E
100
AcDbEntity
  8
12
  6
DASHED
100
AcDbLine
 10
40.79272460929995
 20
232.0
 30
0.0
 11
63.73156738279998
 21
232.0
 31
0.0
  0
TEXT
  5
72CF
330
1E
100
AcDbEntity
  8
L150_
  6
Continuous
 62
     7
100
AcDbText
 10
216.6938476561999
 20
202.7539062499999
 30
0.0
 40
25.0
  1
N
 41
1.8
 72
     5
 11
246.6938476561999
 21
202.7539062499999
 31
0.0
100
AcDbText
 73
     2
  0
LWPOLYLINE
  5
72D0
330
1E
100
AcDbEntity
  8
10
  6
Continuous
100
AcDbPolyline
 90
       12
 70
     1
 43
0.0
 10
70.0
 20
-193.0002441405999
 10
35.0
 20
-193.0002441405999
 10
-35.0
 20
-193.0002441405999
 10
-70.0
 20
-193.0002441405999
 10
-140.0
 20
-193.0002441405999
 10
-160.0
 20
-193.0002441405999
 10
-160.0
 20
257.0
 10
269.0
 20
257.0
 10
269.0
 20
-193.0002441405999
 10
250.0
 20
-193.0002441405999
 10
180.0
 20
-193.0002441405999
 10
140.0
 20
-193.0002441405999
  0
LWPOLYLINE
  5
72D1
330
1E
100
AcDbEntity
  8
10
  6
Continuous
100
AcDbPolyline
 90
        4
 70
     1
 43
0.0
 10
57.5001220703
 20
-70.0
 10
-57.5
 20
-70.0
 10
-57.5
 20
70.0
 10
57.5001220703
 20
70.0
  0
LWPOLYLINE
  5
72D2
330
1E
100
AcDbEntity
  8
10
  6
Continuous
100
AcDbPolyline
 90
        4
 70
     1
 43
0.0
 10
33.0
 20
-41.5
 10
-33.0
 20
-41.5
 10
-33.0
 20
42.0
 10
33.0
 20
42.0
  0
LWPOLYLINE
  5
72D3
330
1E
100
AcDbEntity
  8
10
  6
Continuous
100
AcDbPolyline
 90
        4
 70
     0
 43
0.0
 10
180.0
 20
-193.0002441405999
 10
180.0
 20
-223.0002441406
 10
250.0
 20
-223.0002441406
 10
250.0
 20
-193.0002441405999
  0
LWPOLYLINE
  5
72D4
330
1E
100
AcDbEntity
  8
10
  6
Continuous
100
AcDbPolyline
 90
        4
 70
     0
 43
0.0
 10
70.0
 20
-193.0002441405999
 10
70.0
 20
-223.0002441406
 10
140.0
 20
-223.0002441406
 10
140.0
 20
-193.0002441405999
  0
LWPOLYLINE
  5
72D5
330
1E
100
AcDbEntity
  8
10
  6
Continuous
100
AcDbPolyline
 90
        4
 70
     0
 43
0.0
 10
-35.0
 20
-193.0002441405999
 10
-35.0
 20
-223.0002441406
 10
35.0
 20
-223.0002441406
 10
35.0
 20
-193.0002441405999
  0
LWPOLYLINE
  5
72D6
330
1E
100
AcDbEntity
  8
10
  6
Continuous
100
AcDbPolyline
 90
        4
 70
     0
 43
0.0
 10
-140.0
 20
-193.0002441405999
 10
-140.0
 20
-223.0002441406
 10
-70.0
 20
-223.0002441406
 10
-70.0
 20
-193.0002441405999
  0
DIMENSION
  5
72D7
330
1E
100
AcDbEntity
  8
30
  6
Continuous
100
AcDbDimension
280
     0
  2
*D26
 10
-0.0000000000000064
 20
-302.2470477013543
 30
0.0
 11
-80.0
 21
-296.2470477013543
 31
0.0
 70
    32
 71
     5
 42
-1.0
 73
     0
 74
     0
 75
     0
  3
STANDARD
100
AcDbAlignedDimension
 13
-160.0
 23
-193.0002441405999
 33
0.0
 14
-0.0000000000000021
 24
-231.0
 34
0.0
100
AcDbRotatedDimension
  0
DIMENSION
  5
72E4
330
1E
100
AcDbEntity
  8
30
  6
Continuous
100
AcDbDimension
280
     0
  2
*D27
 10
269.0
 20
-302.2470477013543
 30
0.0
 11
134.4999999999999
 21
-296.2470477013543
 31
0.0
 70
    32
 71
     5
 42
-1.0
 73
     0
 74
     0
 75
     0
  3
STANDARD
100
AcDbAlignedDimension
 13
-0.0000000000000021
 23
-231.0
 33
0.0
 14
269.0
 24
-193.0002441405999
 34
0.0
100
AcDbRotatedDimension
1001
ACAD
1000
DSTYLE
1002
{
1070
   287
1070
     4
1070
   287
1070
     4
1070
   287
1070
     4
1070
   279
1070
     1
1002
}
  0
DIMENSION
  5
72F1
330
1E
100
AcDbEntity
  8
30
  6
Continuous
100
AcDbDimension
280
     0
  2
*D28
 10
269.0
 20
-334.3666137431485
 30
0.0
 11
54.5
 21
-328.3666137431485
 31
0.0
 70
    32
 71
     5
 42
-1.0
 73
     0
 74
     0
 75
     0
  3
STANDARD
100
AcDbAlignedDimension
 13
-160.0
 23
-193.0002441405999
 33
0.0
 14
269.0
 24
-194.0002441405999
 34
0.0
100
AcDbRotatedDimension
  0
DIMENSION
  5
7350
330
1E
100
AcDbEntity
  8
30
  6
Continuous
100
AcDbDimension
280
     0
  2
*D29
 10
-0.0000000000000042
 20
-257.5058619334863
 30
0.0
 11
-52.5
 21
-251.5058619334863
 31
0.0
 70
    32
 71
     5
 42
-1.0
 73
     0
 74
     0
 75
     0
  3
STANDARD
100
AcDbAlignedDimension
 13
-105.0
 23
-165.7812724788082
 33
0.0
 14
-0.000000000000002
 24
-223.0002441406
 34
0.0
100
AcDbRotatedDimension
  0
DIMENSION
  5
735D
330
1E
100
AcDbEntity
  8
30
  6
Continuous
100
AcDbDimension
280
     0
  2
*D30
 10
105.0
 20
-257.5058619334863
 30
0.0
 11
52.5
 21
-251.5058619334863
 31
0.0
 70
    32
 71
     5
 42
-1.0
 73
     0
 74
     0
 75
     0
  3
STANDARD
100
AcDbAlignedDimension
 13
-0.000000000000002
 23
-223.0002441406
 33
0.0
 14
105.0
 24
-165.7812724788082
 34
0.0
100
AcDbRotatedDimension
1001
ACAD
1000
DSTYLE
1002
{
1070
   287
1070
     4
1070
   287
1070
     4
1070
   287
1070
     4
1070
   279
1070
     1
1002
}
  0
DIMENSION
  5
736A
330
1E
100
AcDbEntity
  8
30
  6
Continuous
100
AcDbDimension
280
     0
  2
*D31
 10
215.0
 20
-257.5058619334863
 30
0.0
 11
160.0
 21
-251.5058619334863
 31
0.0
 70
    32
 71
     5
 42
-1.0
 73
     0
 74
     0
 75
     0
  3
STANDARD
100
AcDbAlignedDimension
 13
105.0
 23
-223.0002441406
 33
0.0
 14
215.0
 24
-166.6436054805299
 34
0.0
100
AcDbRotatedDimension
1001
ACAD
1000
DSTYLE
1002
{
1070
   287
1070
     4
1070
   287
1070
     4
1070
   287
1070
     4
1070
   279
1070
     1
1002
}
  0
DIMENSION
  5
7392
330
1E
100
AcDbEntity
  8
30
  6
Continuous
100
AcDbDimension
280
     0
  2
*D32
 10
-221.1360311003208
 20
0.0000000000000173
 30
0.0
 11
-227.1360311003209
 21
128.4999999999999
 31
0.0
 70
    32
 71
     5
 42
-1.0
 73
     0
 74
     0
 75
     0
  3
STANDARD
100
AcDbAlignedDimension
 13
-160.0
 23
257.0
 33
0.0
 14
-160.0
 24
0.0
 34
0.0
 50
90.0
100
AcDbRotatedDimension
  0
DIMENSION
  5
739F
330
1E
100
AcDbEntity
  8
30
  6
Continuous
100
AcDbDimension
280
     0
  2
*D33
 10
-221.1360311003208
 20
-193.0002441405998
 30
0.0
 11
-227.1360311003207
 21
-96.50012207029995
 31
0.0
 70
    32
 71
     5
 42
-1.0
 73
     0
 74
     0
 75
     0
  3
STANDARD
100
AcDbAlignedDimension
 13
-160.0
 23
0.0
 33
0.0
 14
-160.0
 24
-193.0002441405999
 34
0.0
 50
90.0
100
AcDbRotatedDimension
1001
ACAD
1000
DSTYLE
1002
{
1070
   287
1070
     4
1070
   287
1070
     4
1070
   287
1070
     4
1070
   279
1070
     1
1002
}
  0
DIMENSION
  5
73EF
330
1E
100
AcDbEntity
  8
30
  6
Continuous
100
AcDbDimension
280
     0
  2
*D34
 10
811.3330030276186
 20
-236.9930275793513
 30
0.0
 11
801.3330030276186
 21
-230.9930275793513
 31
0.0
 70
    32
 71
     5
 42
-1.0
 73
     0
 74
     0
 75
     0
  3
STANDARD
100
AcDbAlignedDimension
 13
791.3330030276187
 23
-205.0002441406
 33
0.0
 14
811.3330030276186
 24
-198.0
 34
0.0
100
AcDbRotatedDimension
1001
ACAD
1000
DSTYLE
1002
{
1070
   287
1070
     4
1070
   287
1070
     4
1070
   287
1070
     4
1070
   279
1070
     1
1002
}
  0
DIMENSION
  5
760A
330
1E
100
AcDbEntity
  8
30
  6
Continuous
100
AcDbDimension
280
     0
  2
*D38
 10
883.8879346682187
 20
-0.000000000000046
 30
0.0
 11
877.8879346682186
 21
56.50000000000009
 31
0.0
 70
    32
 71
     5
 42
-1.0
 73
     0
 74
     0
 75
     0
  3
STANDARD
100
AcDbAlignedDimension
 13
811.3330030276186
 23
112.9999999999999
 33
0.0
 14
731.3330945803736
 24
-0.0000000000000028
 34
0.0
 50
90.0
100
AcDbRotatedDimension
  0
LINE
  5
79F3
330
1E
100
AcDbEntity
  8
10
  6
Continuous
100
AcDbLine
 10
618.3330030276184
 20
-223.0002441406
 30
0.0
 11
633.3330030276187
 21
-223.0002441406
 31
0.0
  0
VIEWPORT
  5
9AC
330
1A
100
AcDbEntity
 67
     1
  8
0
  6
Continuous
100
AcDbViewport
 10
171.9995348790992
 20
144.1384735538403
 30
0.0
 40
488.8676857773511
 41
292.3514905034161
 68
     1
 69
     1
 12
171.9995348790992
 22
144.1384735538403
 13
0.0
 23
0.0
 14
10.0
 24
10.0
 15
10.0
 25
10.0
 16
0.0
 26
0.0
 36
1.0
 17
0.0
 27
0.0
 37
0.0
 42
50.0
 43
0.0
 44
0.0
 45
292.3514905034161
 50
0.0
 51
0.0
 72
   100
 90
    32800
  1

281
     0
 71
     1
 74
     0
110
0.0
120
0.0
130
0.0
111
1.0
121
0.0
131
0.0
112
0.0
122
1.0
132
0.0
 79
     0
146
0.0
170
     0
 61
     5
348
79B9
292
     1
282
     1
141
0.0
142
0.0
 63
   250
421
  3355443
  0
ENDSEC
  0
SECTION
  2
OBJECTS
  0
DICTIONARY
  5
C
330
0
100
AcDbDictionary
281
     1
  3
ACAD_CIP_PREVIOUS_PRODUCT_INFO
350
79E9
  3
ACAD_COLOR
350
79CC
  3
ACAD_DETAILVIEWSTYLE
350
79E5
  3
ACAD_GROUP
350
D
  3
ACAD_LAYOUT
350
19
  3
ACAD_MATERIAL
350
799A
  3
ACAD_MLEADERSTYLE
350
79E1
  3
ACAD_MLINESTYLE
350
16
  3
ACAD_PLOTSETTINGS
350
18
  3
ACAD_PLOTSTYLENAME
350
798D
  3
ACAD_SCALELIST
350
79CF
  3
ACAD_SECTIONVIEWSTYLE
350
79E3
  3
ACAD_TABLESTYLE
350
79CD
  3
ACAD_VISUALSTYLE
350
79B3
  3
ACDB_RECOMPOSE_DATA
350
7A26
  3
AcDbVariableDictionary
350
79EA
1001
ACAD
1000
TREAT_AS_HARD
1070
     0
  0
DICTIONARY
  5
79F4
330
10
100
AcDbDictionary
280
     1
281
     1
  3
ADSK_XREC_LAYER_RECONCILED
360
79F5
  0
DICTIONARY
  5
79F6
330
2F
100
AcDbDictionary
280
     1
281
     1
  3
ADSK_XREC_LAYER_RECONCILED
360
79F7
  0
DICTIONARY
  5
79F8
330
31
100
AcDbDictionary
280
     1
281
     1
  3
ADSK_XREC_LAYER_RECONCILED
360
79F9
  0
DICTIONARY
  5
79FA
330
35
100
AcDbDictionary
280
     1
281
     1
  3
ADSK_XREC_LAYER_RECONCILED
360
79FB
  0
DICTIONARY
  5
79FC
330
36
100
AcDbDictionary
280
     1
281
     1
  3
ADSK_XREC_LAYER_RECONCILED
360
79FD
  0
DICTIONARY
  5
79FE
330
38
100
AcDbDictionary
280
     1
281
     1
  3
ADSK_XREC_LAYER_RECONCILED
360
79FF
  0
DICTIONARY
  5
7A00
330
3C
100
AcDbDictionary
280
     1
281
     1
  3
ADSK_XREC_LAYER_RECONCILED
360
7A01
  0
DICTIONARY
  5
7A02
330
3D
100
AcDbDictionary
280
     1
281
     1
  3
ADSK_XREC_LAYER_RECONCILED
360
7A03
  0
DICTIONARY
  5
7A04
330
3A2
100
AcDbDictionary
280
     1
281
     1
  3
ADSK_XREC_LAYER_RECONCILED
360
7A05
  0
DICTIONARY
  5
7A06
330
3933
100
AcDbDictionary
280
     1
281
     1
  3
ADSK_XREC_LAYER_RECONCILED
360
7A07
  0
DICTIONARY
  5
7A08
330
4709
100
AcDbDictionary
280
     1
281
     1
  3
ADSK_XREC_LAYER_RECONCILED
360
7A09
  0
DICTIONARY
  5
7A0A
330
470B
100
AcDbDictionary
280
     1
281
     1
  3
ADSK_XREC_LAYER_RECONCILED
360
7A0B
  0
DICTIONARY
  5
7A0C
330
6615
100
AcDbDictionary
280
     1
281
     1
  3
ADSK_XREC_LAYER_RECONCILED
360
7A0D
  0
DICTIONARY
  5
7A0E
330
6616
100
AcDbDictionary
280
     1
281
     1
  3
ADSK_XREC_LAYER_RECONCILED
360
7A0F
  0
DICTIONARY
  5
7A10
330
6617
100
AcDbDictionary
280
     1
281
     1
  3
ADSK_XREC_LAYER_RECONCILED
360
7A11
  0
DICTIONARY
  5
7A12
330
6691
100
AcDbDictionary
280
     1
281
     1
  3
ADSK_XREC_LAYER_RECONCILED
360
7A13
  0
DICTIONARY
  5
7A14
330
678F
100
AcDbDictionary
280
     1
281
     1
  3
ADSK_XREC_LAYER_RECONCILED
360
7A15
  0
DICTIONARY
  5
7A16
330
6790
100
AcDbDictionary
280
     1
281
     1
  3
ADSK_XREC_LAYER_RECONCILED
360
7A17
  0
DICTIONARY
  5
7A18
330
680B
100
AcDbDictionary
280
     1
281
     1
  3
ADSK_XREC_LAYER_RECONCILED
360
7A19
  0
DICTIONARY
  5
178
330
1E
100
AcDbDictionary
281
     1
  3
ACAD_LAYOUTSELFREF
350
78CC
1001
ACAD
1000
TREAT_AS_HARD
1070
     1
  0
DICTIONARY
  5
17A
330
1A
100
AcDbDictionary
281
     1
  3
ACAD_LAYOUTSELFREF
350
78CB
1001
ACAD
1000
TREAT_AS_HARD
1070
     1
  0
XRECORD
  5
79E9
102
{ACAD_REACTORS
330
C
102
}
330
C
100
AcDbXrecord
280
     1
300
ACD
300
2023
300

  0
DICTIONARY
  5
79CC
102
{ACAD_REACTORS
330
C
102
}
330
C
100
AcDbDictionary
281
     1
  0
DICTIONARY
  5
79E5
102
{ACAD_REACTORS
330
C
102
}
330
C
100
AcDbDictionary
281
     1
  3
Imperial24
350
79E6
  0
DICTIONARY
  5
D
102
{ACAD_REACTORS
330
C
102
}
330
C
100
AcDbDictionary
281
     1
1001
ACAD
1000
TREAT_AS_HARD
1070
     0
  0
DICTIONARY
  5
19
102
{ACAD_REACTORS
330
C
102
}
330
C
100
AcDbDictionary
281
     1
  3
Model
350
798F
  3
ﾚｲｱｳﾄ1
350
7990
1001
ACAD
1000
TREAT_AS_HARD
1070
     0
  0
DICTIONARY
  5
799A
102
{ACAD_REACTORS
330
C
102
}
330
C
100
AcDbDictionary
281
     1
  3
ByBlock
350
79A3
  3
ByLayer
350
799B
  3
Global
350
79AB
  0
DICTIONARY
  5
79E1
102
{ACAD_REACTORS
330
C
102
}
330
C
100
AcDbDictionary
281
     1
  3
Standard
350
79E2
  0
DICTIONARY
  5
16
102
{ACAD_REACTORS
330
C
102
}
330
C
100
AcDbDictionary
281
     1
  3
STANDARD
350
17
1001
ACAD
1000
TREAT_AS_HARD
1070
     0
  0
DICTIONARY
  5
18
102
{ACAD_REACTORS
330
C
102
}
330
C
100
AcDbDictionary
281
     1
1001
ACAD
1000
TREAT_AS_HARD
1070
     0
  0
ACDBDICTIONARYWDFLT
  5
798D
102
{ACAD_REACTORS
330
C
102
}
330
C
100
AcDbDictionary
281
     1
  3
Normal
350
798E
100
AcDbDictionaryWithDefault
340
798E
  0
DICTIONARY
  5
79CF
102
{ACAD_REACTORS
330
C
102
}
330
C
100
AcDbDictionary
281
     1
  3
A0
350
79D0
  3
A1
350
79D1
  3
A2
350
79D2
  3
A3
350
79D3
  3
A4
350
79D4
  3
A5
350
79D5
  3
A6
350
79D6
  3
A7
350
79D7
  3
A8
350
79D8
  3
A9
350
79D9
  3
B0
350
79DA
  3
B1
350
79DB
  3
B2
350
79DC
  3
B3
350
79DD
  3
B4
350
79DE
  3
B5
350
79DF
  3
B6
350
79E0
  0
DICTIONARY
  5
79E3
102
{ACAD_REACTORS
330
C
102
}
330
C
100
AcDbDictionary
281
     1
  3
Imperial24
350
79E4
  0
DICTIONARY
  5
79CD
102
{ACAD_REACTORS
330
C
102
}
330
C
100
AcDbDictionary
281
     1
  3
Standard
350
79CE
  0
DICTIONARY
  5
79B3
102
{ACAD_REACTORS
330
C
102
}
330
C
100
AcDbDictionary
281
     1
  3
2dWireframe
350
79B9
  3
Basic
350
79B8
  3
Brighten
350
79BF
  3
ColorChange
350
79C3
  3
Conceptual
350
79BC
  3
Dim
350
79BE
  3
EdgeColorOff
350
79CB
  3
Facepattern
350
79C2
  3
Flat
350
79B4
  3
FlatWithEdges
350
79B5
  3
Gouraud
350
79B6
  3
GouraudWithEdges
350
79B7
  3
Hidden
350
79BB
  3
JitterOff
350
79C9
  3
Linepattern
350
79C1
  3
OverhangOff
350
79CA
  3
Realistic
350
79BD
  3
Shaded
350
79C8
  3
Shaded with edges
350
79C7
  3
Shades of Gray
350
79C4
  3
Sketchy
350
79C5
  3
Thicken
350
79C0
  3
Wireframe
350
79BA
  3
X-Ray
350
79C6
  0
XRECORD
  5
7A26
102
{ACAD_REACTORS
330
C
102
}
330
C
100
AcDbXrecord
280
     1
 90
        1
330
79CE
  0
DICTIONARY
  5
79EA
102
{ACAD_REACTORS
330
C
102
}
330
C
100
AcDbDictionary
281
     1
  3
CANNOSCALE
350
7A1F
  3
CMLEADERSTYLE
350
7A1B
  3
CTABLESTYLE
350
7A1A
  3
CVIEWDETAILSTYLE
350
7A1C
  3
CVIEWSECTIONSTYLE
350
7A1D
  3
LAYEREVAL
350
7A21
  3
LAYERNOTIFY
350
7A22
  3
LIGHTINGUNITS
350
7A20
  3
MSLTSCALE
350
7A1E
  0
XRECORD
  5
79F5
102
{ACAD_REACTORS
330
79F4
102
}
330
79F4
100
AcDbXrecord
280
     1
290
     1
  0
XRECORD
  5
79F7
102
{ACAD_REACTORS
330
79F6
102
}
330
79F6
100
AcDbXrecord
280
     1
290
     1
  0
XRECORD
  5
79F9
102
{ACAD_REACTORS
330
79F8
102
}
330
79F8
100
AcDbXrecord
280
     1
290
     1
  0
XRECORD
  5
79FB
102
{ACAD_REACTORS
330
79FA
102
}
330
79FA
100
AcDbXrecord
280
     1
290
     1
  0
XRECORD
  5
79FD
102
{ACAD_REACTORS
330
79FC
102
}
330
79FC
100
AcDbXrecord
280
     1
290
     1
  0
XRECORD
  5
79FF
102
{ACAD_REACTORS
330
79FE
102
}
330
79FE
100
AcDbXrecord
280
     1
290
     1
  0
XRECORD
  5
7A01
102
{ACAD_REACTORS
330
7A00
102
}
330
7A00
100
AcDbXrecord
280
     1
290
     1
  0
XRECORD
  5
7A03
102
{ACAD_REACTORS
330
7A02
102
}
330
7A02
100
AcDbXrecord
280
     1
290
     1
  0
XRECORD
  5
7A05
102
{ACAD_REACTORS
330
7A04
102
}
330
7A04
100
AcDbXrecord
280
     1
290
     1
  0
XRECORD
  5
7A07
102
{ACAD_REACTORS
330
7A06
102
}
330
7A06
100
AcDbXrecord
280
     1
290
     1
  0
XRECORD
  5
7A09
102
{ACAD_REACTORS
330
7A08
102
}
330
7A08
100
AcDbXrecord
280
     1
290
     1
  0
XRECORD
  5
7A0B
102
{ACAD_REACTORS
330
7A0A
102
}
330
7A0A
100
AcDbXrecord
280
     1
290
     1
  0
XRECORD
  5
7A0D
102
{ACAD_REACTORS
330
7A0C
102
}
330
7A0C
100
AcDbXrecord
280
     1
290
     1
  0
XRECORD
  5
7A0F
102
{ACAD_REACTORS
330
7A0E
102
}
330
7A0E
100
AcDbXrecord
280
     1
290
     1
  0
XRECORD
  5
7A11
102
{ACAD_REACTORS
330
7A10
102
}
330
7A10
100
AcDbXrecord
280
     1
290
     1
  0
XRECORD
  5
7A13
102
{ACAD_REACTORS
330
7A12
102
}
330
7A12
100
AcDbXrecord
280
     1
290
     1
  0
XRECORD
  5
7A15
102
{ACAD_REACTORS
330
7A14
102
}
330
7A14
100
AcDbXrecord
280
     1
290
     1
  0
XRECORD
  5
7A17
102
{ACAD_REACTORS
330
7A16
102
}
330
7A16
100
AcDbXrecord
280
     1
290
     1
  0
XRECORD
  5
7A19
102
{ACAD_REACTORS
330
7A18
102
}
330
7A18
100
AcDbXrecord
280
     1
290
     1
  0
XRECORD
  5
78CC
102
{ACAD_REACTORS
330
178
102
}
330
178
100
AcDbXrecord
280
     1
340
1E
  0
XRECORD
  5
78CB
102
{ACAD_REACTORS
330
17A
102
}
330
17A
100
AcDbXrecord
280
     1
340
1A
  0
ACDBDETAILVIEWSTYLE
  5
79E6
102
{ACAD_REACTORS
330
79E5
102
}
330
79E5
100
AcDbModelDocViewStyle
 70
     0
  3
Imperial24
290
     0
300
Imperial24
 90
        0
100
AcDbDetailViewStyle
 70
     0
 71
     0
 90
        3
 71
     1
340
11
 62
   256
 40
0.24
340
0
 62
   256
 40
0.24
300

 40
0.36
280
     3
 71
     2
340
15
 90
       25
 62
   256
 71
     3
340
11
 62
   256
 40
0.24
 90
        1
 40
0.75
 90
        1
300
%<\AcVar ViewType \f "%tc1">% %<\AcVar ViewDetailId>%\PSCALE %<\AcVar ViewScale \f "%sn">%
 71
     4
340
15
 90
       25
 62
   256
340
15
 90
       25
 62
   256
280
     0
  0
LAYOUT
  5
798F
102
{ACAD_REACTORS
330
19
102
}
330
19
100
AcDbPlotSettings
  1

  2
LBP5400
  4

  6

 40
0.0
 41
0.0
 42
0.0
 43
0.0
 44
0.0
 45
0.0
 46
0.0
 47
0.0
 48
0.0
 49
0.0
140
0.0
141
0.0
142
1.0
143
1.0
 70
  1712
 72
     0
 73
     0
 74
     0
  7
monochrome.stb
 75
     0
147
1.0
 76
     0
 77
     2
 78
   300
148
0.0
149
0.0
100
AcDbLayout
  1
Model
 70
     1
 71
     0
 10
0.0
 20
0.0
 11
12.0
 21
9.0
 12
0.0
 22
0.0
 32
0.0
 14
0.0
 24
0.0
 34
0.0
 15
0.0
 25
0.0
 35
0.0
146
0.0
 13
0.0
 23
0.0
 33
0.0
 16
1.0
 26
0.0
 36
0.0
 17
0.0
 27
1.0
 37
0.0
 76
     0
330
1E
331
7992
  0
LAYOUT
  5
7990
102
{ACAD_REACTORS
330
19
102
}
330
19
100
AcDbPlotSettings
  1

  2
LBP5400
  4

  6

 40
0.0
 41
0.0
 42
0.0
 43
0.0
 44
0.0
 45
0.0
 46
0.0
 47
0.0
 48
0.0
 49
0.0
140
0.0
141
0.0
142
1.0
143
1.0
 70
   688
 72
     0
 73
     0
 74
     5
  7
monochrome.stb
 75
    16
147
1.0
 76
     0
 77
     2
 78
   300
148
0.0
149
0.0
100
AcDbLayout
  1
ﾚｲｱｳﾄ1
 70
     1
 71
     1
 10
-5.873748779296875
 20
-5.873749732971191
 11
204.0995788574218
 21
291.1369009017943
 12
0.0
 22
0.0
 32
0.0
 14
4.273573370203961
 24
5.205246163471485
 34
0.0
 15
194.6100952986349
 25
283.0697008572913
 35
0.0
146
0.0
 13
0.0
 23
0.0
 33
0.0
 16
1.0
 26
0.0
 36
0.0
 17
0.0
 27
1.0
 37
0.0
 76
     0
330
1A
331
9AC
  0
MATERIAL
  5
79A3
102
{ACAD_XDICTIONARY
360
79A4
102
}
102
{ACAD_REACTORS
330
799A
102
}
330
799A
100
AcDbMaterial
  1
ByBlock
 72
     0
 43
0.0208333333333333
 43
0.0
 43
0.0
 43
0.0
 43
0.0
 43
0.0208333333333333
 43
0.0
 43
0.0
 43
0.0
 43
0.0
 43
1.0
 43
0.0
 43
0.0
 43
0.0
 43
0.0
 43
1.0
 77
     0
 47
0.0208333333333333
 47
0.0
 47
0.0
 47
0.0
 47
0.0
 47
0.0208333333333333
 47
0.0
 47
0.0
 47
0.0
 47
0.0
 47
1.0
 47
0.0
 47
0.0
 47
0.0
 47
0.0
 47
1.0
171
     0
 49
0.0208333333333333
 49
0.0
 49
0.0
 49
0.0
 49
0.0
 49
0.0208333333333333
 49
0.0
 49
0.0
 49
0.0
 49
0.0
 49
1.0
 49
0.0
 49
0.0
 49
0.0
 49
0.0
 49
1.0
175
     0
142
0.0208333333333333
142
0.0
142
0.0
142
0.0
142
0.0
142
0.0208333333333333
142
0.0
142
0.0
142
0.0
142
0.0
142
1.0
142
0.0
142
0.0
142
0.0
142
0.0
142
1.0
179
     0
144
0.0208333333333333
144
0.0
144
0.0
144
0.0
144
0.0
144
0.0208333333333333
144
0.0
144
0.0
144
0.0
144
0.0
144
1.0
144
0.0
144
0.0
144
0.0
144
0.0
144
1.0
147
0.0208333333333333
147
0.0
147
0.0
147
0.0
147
0.0
147
0.0208333333333333
147
0.0
147
0.0
147
0.0
147
0.0
147
1.0
147
0.0
147
0.0
147
0.0
147
0.0
147
1.0
  0
MATERIAL
  5
799B
102
{ACAD_XDICTIONARY
360
799C
102
}
102
{ACAD_REACTORS
330
799A
102
}
330
799A
100
AcDbMaterial
  1
ByLayer
 72
     0
 43
0.0208333333333333
 43
0.0
 43
0.0
 43
0.0
 43
0.0
 43
0.0208333333333333
 43
0.0
 43
0.0
 43
0.0
 43
0.0
 43
1.0
 43
0.0
 43
0.0
 43
0.0
 43
0.0
 43
1.0
 77
     0
 47
0.0208333333333333
 47
0.0
 47
0.0
 47
0.0
 47
0.0
 47
0.0208333333333333
 47
0.0
 47
0.0
 47
0.0
 47
0.0
 47
1.0
 47
0.0
 47
0.0
 47
0.0
 47
0.0
 47
1.0
171
     0
 49
0.0208333333333333
 49
0.0
 49
0.0
 49
0.0
 49
0.0
 49
0.0208333333333333
 49
0.0
 49
0.0
 49
0.0
 49
0.0
 49
1.0
 49
0.0
 49
0.0
 49
0.0
 49
0.0
 49
1.0
175
     0
142
0.0208333333333333
142
0.0
142
0.0
142
0.0
142
0.0
142
0.0208333333333333
142
0.0
142
0.0
142
0.0
142
0.0
142
1.0
142
0.0
142
0.0
142
0.0
142
0.0
142
1.0
179
     0
144
0.0208333333333333
144
0.0
144
0.0
144
0.0
144
0.0
144
0.0208333333333333
144
0.0
144
0.0
144
0.0
144
0.0
144
1.0
144
0.0
144
0.0
144
0.0
144
0.0
144
1.0
147
0.0208333333333333
147
0.0
147
0.0
147
0.0
147
0.0
147
0.0208333333333333
147
0.0
147
0.0
147
0.0
147
0.0
147
1.0
147
0.0
147
0.0
147
0.0
147
0.0
147
1.0
  0
MATERIAL
  5
79AB
102
{ACAD_XDICTIONARY
360
79AC
102
}
102
{ACAD_REACTORS
330
799A
102
}
330
799A
100
AcDbMaterial
  1
Global
 72
     0
 43
0.0208333333333333
 43
0.0
 43
0.0
 43
0.0
 43
0.0
 43
0.0208333333333333
 43
0.0
 43
0.0
 43
0.0
 43
0.0
 43
1.0
 43
0.0
 43
0.0
 43
0.0
 43
0.0
 43
1.0
 77
     0
 47
0.0208333333333333
 47
0.0
 47
0.0
 47
0.0
 47
0.0
 47
0.0208333333333333
 47
0.0
 47
0.0
 47
0.0
 47
0.0
 47
1.0
 47
0.0
 47
0.0
 47
0.0
 47
0.0
 47
1.0
171
     0
 49
0.0208333333333333
 49
0.0
 49
0.0
 49
0.0
 49
0.0
 49
0.0208333333333333
 49
0.0
 49
0.0
 49
0.0
 49
0.0
 49
1.0
 49
0.0
 49
0.0
 49
0.0
 49
0.0
 49
1.0
175
     0
142
0.0208333333333333
142
0.0
142
0.0
142
0.0
142
0.0
142
0.0208333333333333
142
0.0
142
0.0
142
0.0
142
0.0
142
1.0
142
0.0
142
0.0
142
0.0
142
0.0
142
1.0
179
     0
144
0.0208333333333333
144
0.0
144
0.0
144
0.0
144
0.0
144
0.0208333333333333
144
0.0
144
0.0
144
0.0
144
0.0
144
1.0
144
0.0
144
0.0
144
0.0
144
0.0
144
1.0
147
0.0208333333333333
147
0.0
147
0.0
147
0.0
147
0.0
147
0.0208333333333333
147
0.0
147
0.0
147
0.0
147
0.0
147
1.0
147
0.0
147
0.0
147
0.0
147
0.0
147
1.0
  0
MLEADERSTYLE
  5
79E2
102
{ACAD_REACTORS
330
79E1
102
}
330
79E1
100
AcDbMLeaderStyle
179
     2
170
     2
171
     1
172
     0
 90
        2
 40
0.0
 41
0.0
173
     1
 91
-1056964608
340
13
 92
       -2
290
     1
 42
0.09
291
     1
 43
0.36
  3
Standard
 44
0.18
300

342
11
174
     1
178
     6
175
     1
176
     0
 93
-1056964608
 45
0.18
292
     0
297
     0
 46
0.18
 94
-1056964608
 47
1.0
 49
1.0
140
1.0
293
     1
141
0.0
294
     1
177
     0
142
1.0
295
     0
296
     0
143
0.125
271
     0
272
     9
273
     9
298
     0
  0
MLINESTYLE
  5
17
102
{ACAD_REACTORS
330
16
102
}
330
16
100
AcDbMlineStyle
  2
STANDARD
 70
     0
  3

 62
   256
 51
90.0
 52
90.0
 71
     2
 49
0.5
 62
   256
  6
BYLAYER
 49
-0.5
 62
   256
  6
BYLAYER
  0
ACDBPLACEHOLDER
  5
798E
102
{ACAD_REACTORS
330
798D
102
}
330
798D
  0
SCALE
  5
79D0
102
{ACAD_REACTORS
330
79CF
102
}
330
79CF
100
AcDbScale
 70
     0
300
1:1
140
1.0
141
1.0
290
     1
  0
SCALE
  5
79D1
102
{ACAD_REACTORS
330
79CF
102
}
330
79CF
100
AcDbScale
 70
     0
300
1/128" = 1'-0"
140
0.0078125
141
12.0
290
     0
  0
SCALE
  5
79D2
102
{ACAD_REACTORS
330
79CF
102
}
330
79CF
100
AcDbScale
 70
     0
300
1/64" = 1'-0"
140
0.015625
141
12.0
290
     0
  0
SCALE
  5
79D3
102
{ACAD_REACTORS
330
79CF
102
}
330
79CF
100
AcDbScale
 70
     0
300
1/32" = 1'-0"
140
0.03125
141
12.0
290
     0
  0
SCALE
  5
79D4
102
{ACAD_REACTORS
330
79CF
102
}
330
79CF
100
AcDbScale
 70
     0
300
1/16" = 1'-0"
140
0.0625
141
12.0
290
     0
  0
SCALE
  5
79D5
102
{ACAD_REACTORS
330
79CF
102
}
330
79CF
100
AcDbScale
 70
     0
300
3/32" = 1'-0"
140
0.09375
141
12.0
290
     0
  0
SCALE
  5
79D6
102
{ACAD_REACTORS
330
79CF
102
}
330
79CF
100
AcDbScale
 70
     0
300
1/8" = 1'-0"
140
0.125
141
12.0
290
     0
  0
SCALE
  5
79D7
102
{ACAD_REACTORS
330
79CF
102
}
330
79CF
100
AcDbScale
 70
     0
300
3/16" = 1'-0"
140
0.1875
141
12.0
290
     0
  0
SCALE
  5
79D8
102
{ACAD_REACTORS
330
79CF
102
}
330
79CF
100
AcDbScale
 70
     0
300
1/4" = 1'-0"
140
0.25
141
12.0
290
     0
  0
SCALE
  5
79D9
102
{ACAD_REACTORS
330
79CF
102
}
330
79CF
100
AcDbScale
 70
     0
300
3/8" = 1'-0"
140
0.375
141
12.0
290
     0
  0
SCALE
  5
79DA
102
{ACAD_REACTORS
330
79CF
102
}
330
79CF
100
AcDbScale
 70
     0
300
1/2" = 1'-0"
140
0.5
141
12.0
290
     0
  0
SCALE
  5
79DB
102
{ACAD_REACTORS
330
79CF
102
}
330
79CF
100
AcDbScale
 70
     0
300
3/4" = 1'-0"
140
0.75
141
12.0
290
     0
  0
SCALE
  5
79DC
102
{ACAD_REACTORS
330
79CF
102
}
330
79CF
100
AcDbScale
 70
     0
300
1" = 1'-0"
140
1.0
141
12.0
290
     0
  0
SCALE
  5
79DD
102
{ACAD_REACTORS
330
79CF
102
}
330
79CF
100
AcDbScale
 70
     0
300
1-1/2" = 1'-0"
140
1.5
141
12.0
290
     0
  0
SCALE
  5
79DE
102
{ACAD_REACTORS
330
79CF
102
}
330
79CF
100
AcDbScale
 70
     0
300
3" = 1'-0"
140
3.0
141
12.0
290
     0
  0
SCALE
  5
79DF
102
{ACAD_REACTORS
330
79CF
102
}
330
79CF
100
AcDbScale
 70
     0
300
6" = 1'-0"
140
6.0
141
12.0
290
     0
  0
SCALE
  5
79E0
102
{ACAD_REACTORS
330
79CF
102
}
330
79CF
100
AcDbScale
 70
     0
300
1'-0" = 1'-0"
140
12.0
141
12.0
290
     0
  0
ACDBSECTIONVIEWSTYLE
  5
79E4
102
{ACAD_REACTORS
330
79E3
102
}
330
79E3
100
AcDbModelDocViewStyle
 70
     0
  3
Imperial24
290
     0
300
Imperial24
 90
        0
100
AcDbSectionViewStyle
 70
     0
 71
     0
 90
       78
 71
     1
340
11
 62
   256
 40
0.24
340
0
340
0
 62
   256
 40
0.24
300
I, O, Q, S, X, Z
 40
0.48
 90
        3
 40
0.18
 90
        1
 71
     2
340
15
 90
       25
 62
   256
340
15
 90
       50
 62
   256
 40
0.24
 40
0.0
 40
0.24
 71
     3
340
11
 62
   256
 40
0.24
 90
        1
 40
0.75
 90
        1
300
%<\AcVar ViewType \f "%tc1">% %<\AcVar ViewSectionStartId>%-%<\AcVar ViewSectionEndId>%\PSCALE %<\AcVar ViewScale \f "%sn">%
 71
     4
 62
   256
 62
   257
300
ANSI31
 40
1.0
 90
        0
290
     0
290
     0
 90
        6
 40
0.0
 40
1.570796326794896
 40
0.2617993877991494
 40
1.308996938995747
 40
-0.2617993877991494
 40
1.832595714594046
  0
TABLESTYLE
  5
79CE
102
{ACAD_XDICTIONARY
360
7A24
102
}
102
{ACAD_REACTORS
330
79CD
102
}
330
79CD
100
AcDbTableStyle
280
     0
  3
Standard
 70
     0
 71
     0
 40
0.06
 41
0.06
280
     0
281
     0
  7
STANDARD
140
0.18
170
     2
 62
     0
 63
     7
283
     0
 90
      512
 91
        0
  1

274
    -2
284
     1
 64
     0
275
    -2
285
     1
 65
     0
276
    -2
286
     1
 66
     0
277
    -2
287
     1
 67
     0
278
    -2
288
     1
 68
     0
279
    -2
289
     1
 69
     0
  7
STANDARD
140
0.25
170
     5
 62
     0
 63
     7
283
     0
 90
      512
 91
        0
  1

274
    -2
284
     1
 64
     0
275
    -2
285
     1
 65
     0
276
    -2
286
     1
 66
     0
277
    -2
287
     1
 67
     0
278
    -2
288
     1
 68
     0
279
    -2
289
     1
 69
     0
  7
STANDARD
140
0.18
170
     5
 62
     0
 63
     7
283
     0
 90
      512
 91
        0
  1

274
    -2
284
     1
 64
     0
275
    -2
285
     1
 65
     0
276
    -2
286
     1
 66
     0
277
    -2
287
     1
 67
     0
278
    -2
288
     1
 68
     0
279
    -2
289
     1
 69
     0
  0
VISUALSTYLE
  5
79B9
102
{ACAD_REACTORS
330
79B3
102
}
330
79B3
100
AcDbVisualStyle
  2
2dWireframe
 70
     4
177
     3
291
     0
 70
    58
 90
        0
176
     1
 90
        2
176
     1
 90
        0
176
     1
 90
        0
176
     1
 40
0.6
176
     1
 40
30.0
176
     1
 62
     7
420
 16777215
176
     1
 90
        1
176
     1
 90
        4
176
     1
 62
     7
176
     1
 62
   257
176
     1
 90
        1
176
     1
 90
        1
176
     1
 40
1.0
176
     1
 90
        0
176
     1
 62
   257
176
     1
 40
1.0
176
     1
 90
        1
176
     1
 90
        6
176
     1
 90
        2
176
     1
 62
     7
176
     1
 90
        5
176
     1
 90
        0
176
     1
 90
        0
176
     1
290
     0
176
     1
 90
        1
176
     1
 40
0.0
176
     1
 90
        0
176
     1
290
     1
176
     1
290
     1
176
     1
290
     0
176
     1
290
     0
176
     1
290
     0
176
     1
290
     0
176
     1
290
     0
176
     1
290
     0
176
     1
290
     0
176
     1
 90
       50
176
     1
 40
0.0
176
     1
 40
1.0
176
     1
 90
        0
176
     1
 62
    18
420
        0
176
     1
 90
       50
176
     1
 90
        3
176
     1
 62
     5
420
      255
176
     1
290
     0
176
     1
 90
       50
176
     1
 90
       50
176
     1
 90
       50
176
     1
290
     0
176
     1
 90
       50
176
     1
 62
   256
176
     0
 40
1.0
176
     0
 90
        2
176
     1
  1
strokes_ogs.tif
176
     1
290
     0
176
     1
 40
1.0
176
     1
 40
1.0
176
     1
  0
VISUALSTYLE
  5
79B8
102
{ACAD_REACTORS
330
79B3
102
}
330
79B3
100
AcDbVisualStyle
  2
Basic
 70
     7
177
     3
291
     1
 70
    58
 90
        1
176
     1
 90
        0
176
     1
 90
        1
176
     1
 90
        0
176
     1
 40
0.6
176
     1
 40
30.0
176
     1
 62
     7
420
 16777215
176
     1
 90
        0
176
     1
 90
        4
176
     1
 62
     7
176
     1
 62
   257
176
     1
 90
        1
176
     1
 90
        1
176
     1
 40
1.0
176
     1
 90
        8
176
     1
 62
     7
176
     1
 40
1.0
176
     1
 90
        1
176
     1
 90
        6
176
     1
 90
        2
176
     1
 62
     7
176
     1
 90
        5
176
     1
 90
        0
176
     1
 90
        0
176
     1
290
     0
176
     1
 90
        1
176
     1
 40
0.0
176
     1
 90
        0
176
     1
290
     0
176
     1
290
     1
176
     1
290
     1
176
     1
290
     0
176
     1
290
     0
176
     1
290
     0
176
     1
290
     0
176
     1
290
     0
176
     1
290
     0
176
     1
 90
       50
176
     1
 40
0.0
176
     1
 40
1.0
176
     1
 90
        0
176
     1
 62
    18
420
        0
176
     1
 90
       50
176
     1
 90
        3
176
     1
 62
     5
420
      255
176
     1
290
     0
176
     1
 90
       50
176
     1
 90
       50
176
     1
 90
       50
176
     1
290
     0
176
     1
 90
       50
176
     1
 62
   256
176
     0
 40
1.0
176
     0
 90
        2
176
     1
  1
strokes_ogs.tif
176
     1
290
     0
176
     1
 40
1.0
176
     1
 40
1.0
176
     1
  0
VISUALSTYLE
  5
79BF
102
{ACAD_REACTORS
330
79B3
102
}
330
79B3
100
AcDbVisualStyle
  2
Brighten
 70
    12
177
     3
291
     1
 70
    58
 90
        2
176
     1
 90
        2
176
     1
 90
        0
176
     1
 90
        0
176
     1
 40
0.6
176
     1
 40
30.0
176
     1
 62
     7
420
 16777215
176
     1
 90
        1
176
     1
 90
        4
176
     1
 62
     7
176
     1
 62
   257
176
     1
 90
        1
176
     1
 90
        1
176
     1
 40
1.0
176
     1
 90
        8
176
     1
 62
     7
176
     1
 40
1.0
176
     1
 90
        1
176
     1
 90
        6
176
     1
 90
        2
176
     1
 62
     7
176
     1
 90
        5
176
     1
 90
        0
176
     1
 90
        0
176
     1
290
     0
176
     1
 90
        1
176
     1
 40
50.0
176
     1
 90
        0
176
     1
290
     0
176
     1
290
     1
176
     1
290
     1
176
     1
290
     0
176
     1
290
     0
176
     1
290
     0
176
     1
290
     0
176
     1
290
     0
176
     1
290
     0
176
     1
 90
       50
176
     1
 40
0.0
176
     1
 40
1.0
176
     1
 90
        0
176
     1
 62
    18
420
        0
176
     1
 90
       50
176
     1
 90
        3
176
     1
 62
     5
420
      255
176
     1
290
     0
176
     1
 90
       50
176
     1
 90
       50
176
     1
 90
       50
176
     1
290
     0
176
     1
 90
       50
176
     1
 62
   256
176
     0
 40
1.0
176
     0
 90
        2
176
     1
  1
strokes_ogs.tif
176
     1
290
     0
176
     1
 40
1.0
176
     1
 40
1.0
176
     1
  0
VISUALSTYLE
  5
79C3
102
{ACAD_REACTORS
330
79B3
102
}
330
79B3
100
AcDbVisualStyle
  2
ColorChange
 70
    16
177
     3
291
     1
 70
    58
 90
        2
176
     1
 90
        2
176
     1
 90
        3
176
     1
 90
        0
176
     1
 40
0.6
176
     1
 40
30.0
176
     1
 62
     8
420
  8421504
176
     1
 90
        1
176
     1
 90
        4
176
     1
 62
     7
176
     1
 62
   257
176
     1
 90
        1
176
     1
 90
        1
176
     1
 40
1.0
176
     1
 90
        8
176
     1
 62
     8
420
  8421504
176
     1
 40
1.0
176
     1
 90
        1
176
     1
 90
        6
176
     1
 90
        2
176
     1
 62
     7
176
     1
 90
        5
176
     1
 90
        0
176
     1
 90
        0
176
     1
290
     0
176
     1
 90
        1
176
     1
 40
0.0
176
     1
 90
        0
176
     1
290
     0
176
     1
290
     1
176
     1
290
     1
176
     1
290
     0
176
     1
290
     0
176
     1
290
     0
176
     1
290
     0
176
     1
290
     0
176
     1
290
     0
176
     1
 90
       50
176
     1
 40
0.0
176
     1
 40
1.0
176
     1
 90
        0
176
     1
 62
    18
420
        0
176
     1
 90
       50
176
     1
 90
        3
176
     1
 62
     5
420
      255
176
     1
290
     0
176
     1
 90
       50
176
     1
 90
       50
176
     1
 90
       50
176
     1
290
     0
176
     1
 90
       50
176
     1
 62
   256
176
     0
 40
1.0
176
     0
 90
        2
176
     1
  1
strokes_ogs.tif
176
     1
290
     0
176
     1
 40
1.0
176
     1
 40
1.0
176
     1
  0
VISUALSTYLE
  5
79BC
102
{ACAD_REACTORS
330
79B3
102
}
330
79B3
100
AcDbVisualStyle
  2
Conceptual
 70
     9
177
     3
291
     0
 70
    58
 90
        3
176
     1
 90
        2
176
     1
 90
        0
176
     1
 90
        0
176
     1
 40
0.6
176
     1
 40
30.0
176
     1
 62
     7
420
 16777215
176
     1
 90
        2
176
     1
 90
        2
176
     1
 62
     7
176
     1
 62
   257
176
     1
 90
        1
176
     1
 90
        1
176
     1
 40
179.0
176
     1
 90
        8
176
     1
 62
     7
176
     1
 40
1.0
176
     1
 90
        1
176
     1
 90
        6
176
     1
 90
        2
176
     1
 62
     7
176
     1
 90
        3
176
     1
 90
        0
176
     1
 90
        0
176
     1
290
     0
176
     1
 90
        1
176
     1
 40
0.0
176
     1
 90
        0
176
     1
290
     0
176
     1
290
     1
176
     1
290
     1
176
     1
290
     0
176
     1
290
     0
176
     1
290
     0
176
     1
290
     0
176
     1
290
     0
176
     1
290
     0
176
     1
 90
       50
176
     1
 40
0.0
176
     1
 40
1.0
176
     1
 90
        0
176
     1
 62
    18
420
        0
176
     1
 90
       50
176
     1
 90
        3
176
     1
 62
     5
420
      255
176
     1
290
     0
176
     1
 90
       50
176
     1
 90
       50
176
     1
 90
       50
176
     1
290
     0
176
     1
 90
       50
176
     1
 62
   256
176
     0
 40
1.0
176
     0
 90
        2
176
     1
  1
strokes_ogs.tif
176
     1
290
     0
176
     1
 40
1.0
176
     1
 40
1.0
176
     1
  0
VISUALSTYLE
  5
79BE
102
{ACAD_REACTORS
330
79B3
102
}
330
79B3
100
AcDbVisualStyle
  2
Dim
 70
    11
177
     3
291
     1
 70
    58
 90
        2
176
     1
 90
        2
176
     1
 90
        0
176
     1
 90
        0
176
     1
 40
0.6
176
     1
 40
30.0
176
     1
 62
     7
420
 16777215
176
     1
 90
        1
176
     1
 90
        4
176
     1
 62
     7
176
     1
 62
   257
176
     1
 90
        1
176
     1
 90
        1
176
     1
 40
1.0
176
     1
 90
        8
176
     1
 62
     7
176
     1
 40
1.0
176
     1
 90
        1
176
     1
 90
        6
176
     1
 90
        2
176
     1
 62
     7
176
     1
 90
        5
176
     1
 90
        0
176
     1
 90
        0
176
     1
290
     0
176
     1
 90
        1
176
     1
 40
-50.0
176
     1
 90
        0
176
     1
290
     0
176
     1
290
     1
176
     1
290
     1
176
     1
290
     0
176
     1
290
     0
176
     1
290
     0
176
     1
290
     0
176
     1
290
     0
176
     1
290
     0
176
     1
 90
       50
176
     1
 40
0.0
176
     1
 40
1.0
176
     1
 90
        0
176
     1
 62
    18
420
        0
176
     1
 90
       50
176
     1
 90
        3
176
     1
 62
     5
420
      255
176
     1
290
     0
176
     1
 90
       50
176
     1
 90
       50
176
     1
 90
       50
176
     1
290
     0
176
     1
 90
       50
176
     1
 62
   256
176
     0
 40
1.0
176
     0
 90
        2
176
     1
  1
strokes_ogs.tif
176
     1
290
     0
176
     1
 40
1.0
176
     1
 40
1.0
176
     1
  0
VISUALSTYLE
  5
79CB
102
{ACAD_REACTORS
330
79B3
102
}
330
79B3
100
AcDbVisualStyle
  2
EdgeColorOff
 70
    22
177
     3
291
     1
 70
    58
 90
        2
176
     0
 90
        2
176
     0
 90
        0
176
     0
 90
        0
176
     0
 40
0.6
176
     0
 40
30.0
176
     0
 62
     7
420
 16777215
176
     0
 90
        1
176
     0
 90
        4
176
     0
 62
     7
176
     0
 62
   257
176
     0
 90
        1
176
     0
 90
        1
176
     0
 40
1.0
176
     0
 90
        8
176
     2
 62
     7
176
     0
 40
1.0
176
     0
 90
        1
176
     0
 90
        6
176
     0
 90
        2
176
     0
 62
     7
176
     0
 90
        5
176
     0
 90
        0
176
     0
 90
        0
176
     0
290
     0
176
     0
 90
        1
176
     0
 40
0.0
176
     0
 90
        0
176
     0
290
     0
176
     1
290
     1
176
     1
290
     1
176
     1
290
     0
176
     1
290
     0
176
     1
290
     0
176
     1
290
     0
176
     1
290
     0
176
     1
290
     0
176
     1
 90
       50
176
     0
 40
0.0
176
     0
 40
1.0
176
     0
 90
        0
176
     0
 62
    18
420
        0
176
     0
 90
       50
176
     0
 90
        3
176
     0
 62
     5
420
      255
176
     0
290
     0
176
     1
 90
       50
176
     0
 90
       50
176
     0
 90
       50
176
     0
290
     0
176
     1
 90
       50
176
     0
 62
   256
176
     0
 40
1.0
176
     0
 90
        2
176
     0
  1
strokes_ogs.tif
176
     0
290
     0
176
     1
 40
1.0
176
     0
 40
1.0
176
     0
  0
VISUALSTYLE
  5
79C2
102
{ACAD_REACTORS
330
79B3
102
}
330
79B3
100
AcDbVisualStyle
  2
Facepattern
 70
    15
177
     3
291
     1
 70
    58
 90
        2
176
     1
 90
        2
176
     1
 90
        0
176
     1
 90
        0
176
     1
 40
0.6
176
     1
 40
30.0
176
     1
 62
     7
420
 16777215
176
     1
 90
        1
176
     1
 90
        4
176
     1
 62
     7
176
     1
 62
   257
176
     1
 90
        1
176
     1
 90
        1
176
     1
 40
1.0
176
     1
 90
        8
176
     1
 62
     7
176
     1
 40
1.0
176
     1
 90
        1
176
     1
 90
        6
176
     1
 90
        2
176
     1
 62
     7
176
     1
 90
        5
176
     1
 90
        0
176
     1
 90
        0
176
     1
290
     0
176
     1
 90
        1
176
     1
 40
0.0
176
     1
 90
        0
176
     1
290
     0
176
     1
290
     1
176
     1
290
     1
176
     1
290
     0
176
     1
290
     0
176
     1
290
     0
176
     1
290
     0
176
     1
290
     0
176
     1
290
     0
176
     1
 90
       50
176
     1
 40
0.0
176
     1
 40
1.0
176
     1
 90
        0
176
     1
 62
    18
420
        0
176
     1
 90
       50
176
     1
 90
        3
176
     1
 62
     5
420
      255
176
     1
290
     0
176
     1
 90
       50
176
     1
 90
       50
176
     1
 90
       50
176
     1
290
     0
176
     1
 90
       50
176
     1
 62
   256
176
     0
 40
1.0
176
     0
 90
        2
176
     1
  1
strokes_ogs.tif
176
     1
290
     0
176
     1
 40
1.0
176
     1
 40
1.0
176
     1
  0
VISUALSTYLE
  5
79B4
102
{ACAD_REACTORS
330
79B3
102
}
330
79B3
100
AcDbVisualStyle
  2
Flat
 70
     0
177
     3
291
     1
 70
    58
 90
        2
176
     1
 90
        1
176
     1
 90
        1
176
     1
 90
        2
176
     1
 40
0.6
176
     1
 40
30.0
176
     1
 62
     7
420
 16777215
176
     1
 90
        0
176
     1
 90
        0
176
     1
 62
     7
176
     1
 62
   257
176
     1
 90
        1
176
     1
 90
        1
176
     1
 40
1.0
176
     1
 90
        8
176
     1
 62
     7
176
     1
 40
1.0
176
     1
 90
        1
176
     1
 90
        6
176
     1
 90
        2
176
     1
 62
     7
176
     1
 90
        5
176
     1
 90
        0
176
     1
 90
        0
176
     1
290
     0
176
     1
 90
       13
176
     1
 40
0.0
176
     1
 90
        0
176
     1
290
     0
176
     1
290
     1
176
     1
290
     1
176
     1
290
     0
176
     1
290
     0
176
     1
290
     0
176
     1
290
     0
176
     1
290
     0
176
     1
290
     0
176
     1
 90
       50
176
     1
 40
0.0
176
     1
 40
1.0
176
     1
 90
        0
176
     1
 62
    18
420
        0
176
     1
 90
       50
176
     1
 90
        3
176
     1
 62
     5
420
      255
176
     1
290
     0
176
     1
 90
       50
176
     1
 90
       50
176
     1
 90
       50
176
     1
290
     0
176
     1
 90
       50
176
     1
 62
   256
176
     0
 40
1.0
176
     0
 90
        2
176
     1
  1
strokes_ogs.tif
176
     1
290
     0
176
     1
 40
1.0
176
     1
 40
1.0
176
     1
  0
VISUALSTYLE
  5
79B5
102
{ACAD_REACTORS
330
79B3
102
}
330
79B3
100
AcDbVisualStyle
  2
FlatWithEdges
 70
     1
177
     3
291
     1
 70
    58
 90
        2
176
     1
 90
        1
176
     1
 90
        1
176
     1
 90
        2
176
     1
 40
0.6
176
     1
 40
30.0
176
     1
 62
     7
420
 16777215
176
     1
 90
        1
176
     1
 90
        0
176
     1
 62
     7
176
     1
 62
   257
176
     1
 90
        1
176
     1
 90
        1
176
     1
 40
1.0
176
     1
 90
        0
176
     1
 62
   257
176
     1
 40
1.0
176
     1
 90
        1
176
     1
 90
        6
176
     1
 90
        2
176
     1
 62
     7
176
     1
 90
        5
176
     1
 90
        0
176
     1
 90
        0
176
     1
290
     0
176
     1
 90
       13
176
     1
 40
0.0
176
     1
 90
        0
176
     1
290
     0
176
     1
290
     1
176
     1
290
     1
176
     1
290
     0
176
     1
290
     0
176
     1
290
     0
176
     1
290
     0
176
     1
290
     0
176
     1
290
     0
176
     1
 90
       50
176
     1
 40
0.0
176
     1
 40
1.0
176
     1
 90
        0
176
     1
 62
    18
420
        0
176
     1
 90
       50
176
     1
 90
        3
176
     1
 62
     5
420
      255
176
     1
290
     0
176
     1
 90
       50
176
     1
 90
       50
176
     1
 90
       50
176
     1
290
     0
176
     1
 90
       50
176
     1
 62
   256
176
     0
 40
1.0
176
     0
 90
        2
176
     1
  1
strokes_ogs.tif
176
     1
290
     0
176
     1
 40
1.0
176
     1
 40
1.0
176
     1
  0
VISUALSTYLE
  5
79B6
102
{ACAD_REACTORS
330
79B3
102
}
330
79B3
100
AcDbVisualStyle
  2
Gouraud
 70
     2
177
     3
291
     1
 70
    58
 90
        2
176
     1
 90
        2
176
     1
 90
        1
176
     1
 90
        2
176
     1
 40
0.6
176
     1
 40
30.0
176
     1
 62
     7
420
 16777215
176
     1
 90
        0
176
     1
 90
        0
176
     1
 62
     7
176
     1
 62
   257
176
     1
 90
        1
176
     1
 90
        1
176
     1
 40
1.0
176
     1
 90
        0
176
     1
 62
     7
176
     1
 40
1.0
176
     1
 90
        1
176
     1
 90
        6
176
     1
 90
        2
176
     1
 62
     7
176
     1
 90
        5
176
     1
 90
        0
176
     1
 90
        0
176
     1
290
     0
176
     1
 90
       13
176
     1
 40
0.0
176
     1
 90
        0
176
     1
290
     0
176
     1
290
     1
176
     1
290
     1
176
     1
290
     0
176
     1
290
     0
176
     1
290
     0
176
     1
290
     0
176
     1
290
     0
176
     1
290
     0
176
     1
 90
       50
176
     1
 40
0.0
176
     1
 40
1.0
176
     1
 90
        0
176
     1
 62
    18
420
        0
176
     1
 90
       50
176
     1
 90
        3
176
     1
 62
     5
420
      255
176
     1
290
     0
176
     1
 90
       50
176
     1
 90
       50
176
     1
 90
       50
176
     1
290
     0
176
     1
 90
       50
176
     1
 62
   256
176
     0
 40
1.0
176
     0
 90
        2
176
     1
  1
strokes_ogs.tif
176
     1
290
     0
176
     1
 40
1.0
176
     1
 40
1.0
176
     1
  0
VISUALSTYLE
  5
79B7
102
{ACAD_REACTORS
330
79B3
102
}
330
79B3
100
AcDbVisualStyle
  2
GouraudWithEdges
 70
     3
177
     3
291
     1
 70
    58
 90
        2
176
     1
 90
        2
176
     1
 90
        1
176
     1
 90
        2
176
     1
 40
0.6
176
     1
 40
30.0
176
     1
 62
     7
420
 16777215
176
     1
 90
        1
176
     1
 90
        0
176
     1
 62
     7
176
     1
 62
   257
176
     1
 90
        1
176
     1
 90
        1
176
     1
 40
1.0
176
     1
 90
        0
176
     1
 62
   257
176
     1
 40
1.0
176
     1
 90
        1
176
     1
 90
        6
176
     1
 90
        2
176
     1
 62
     7
176
     1
 90
        5
176
     1
 90
        0
176
     1
 90
        0
176
     1
290
     0
176
     1
 90
       13
176
     1
 40
0.0
176
     1
 90
        0
176
     1
290
     0
176
     1
290
     1
176
     1
290
     1
176
     1
290
     0
176
     1
290
     0
176
     1
290
     0
176
     1
290
     0
176
     1
290
     0
176
     1
290
     0
176
     1
 90
       50
176
     1
 40
0.0
176
     1
 40
1.0
176
     1
 90
        0
176
     1
 62
    18
420
        0
176
     1
 90
       50
176
     1
 90
        3
176
     1
 62
     5
420
      255
176
     1
290
     0
176
     1
 90
       50
176
     1
 90
       50
176
     1
 90
       50
176
     1
290
     0
176
     1
 90
       50
176
     1
 62
   256
176
     0
 40
1.0
176
     0
 90
        2
176
     1
  1
strokes_ogs.tif
176
     1
290
     0
176
     1
 40
1.0
176
     1
 40
1.0
176
     1
  0
VISUALSTYLE
  5
79BB
102
{ACAD_REACTORS
330
79B3
102
}
330
79B3
100
AcDbVisualStyle
  2
Hidden
 70
     6
177
     3
291
     0
 70
    58
 90
        1
176
     1
 90
        2
176
     1
 90
        2
176
     1
 90
        0
176
     1
 40
0.6
176
     1
 40
30.0
176
     1
 62
     7
420
 16777215
176
     1
 90
        2
176
     1
 90
        2
176
     1
 62
     7
176
     1
 62
   257
176
     1
 90
        2
176
     1
 90
        1
176
     1
 40
40.0
176
     1
 90
        0
176
     1
 62
   257
176
     1
 40
1.0
176
     1
 90
        1
176
     1
 90
        6
176
     1
 90
        2
176
     1
 62
     7
176
     1
 90
        3
176
     1
 90
        0
176
     1
 90
        0
176
     1
290
     0
176
     1
 90
        1
176
     1
 40
0.0
176
     1
 90
        0
176
     1
290
     0
176
     1
290
     1
176
     1
290
     1
176
     1
290
     0
176
     1
290
     0
176
     1
290
     0
176
     1
290
     0
176
     1
290
     0
176
     1
290
     0
176
     1
 90
       50
176
     1
 40
0.0
176
     1
 40
1.0
176
     1
 90
        0
176
     1
 62
    18
420
        0
176
     1
 90
       50
176
     1
 90
        3
176
     1
 62
     5
420
      255
176
     1
290
     0
176
     1
 90
       50
176
     1
 90
       50
176
     1
 90
       50
176
     1
290
     0
176
     1
 90
       50
176
     1
 62
   256
176
     0
 40
1.0
176
     0
 90
        2
176
     1
  1
strokes_ogs.tif
176
     1
290
     0
176
     1
 40
1.0
176
     1
 40
1.0
176
     1
  0
VISUALSTYLE
  5
79C9
102
{ACAD_REACTORS
330
79B3
102
}
330
79B3
100
AcDbVisualStyle
  2
JitterOff
 70
    20
177
     3
291
     1
 70
    58
 90
        2
176
     0
 90
        2
176
     0
 90
        0
176
     0
 90
        0
176
     0
 40
0.6
176
     0
 40
30.0
176
     0
 62
     7
420
 16777215
176
     0
 90
        1
176
     0
 90
        4
176
     0
 62
     7
176
     0
 62
   257
176
     0
 90
        1
176
     0
 90
        1
176
     0
 40
1.0
176
     0
 90
       10
176
     2
 62
     7
176
     0
 40
1.0
176
     0
 90
        1
176
     0
 90
        6
176
     0
 90
        2
176
     0
 62
     7
176
     0
 90
        5
176
     0
 90
        0
176
     0
 90
        0
176
     0
290
     0
176
     0
 90
        1
176
     0
 40
0.0
176
     0
 90
        0
176
     0
290
     0
176
     1
290
     1
176
     1
290
     1
176
     1
290
     0
176
     1
290
     0
176
     1
290
     0
176
     1
290
     0
176
     1
290
     0
176
     1
290
     0
176
     1
 90
       50
176
     0
 40
0.0
176
     0
 40
1.0
176
     0
 90
        0
176
     0
 62
    18
420
        0
176
     0
 90
       50
176
     0
 90
        3
176
     0
 62
     5
420
      255
176
     0
290
     0
176
     1
 90
       50
176
     0
 90
       50
176
     0
 90
       50
176
     0
290
     0
176
     1
 90
       50
176
     0
 62
   256
176
     0
 40
1.0
176
     0
 90
        2
176
     0
  1
strokes_ogs.tif
176
     0
290
     0
176
     1
 40
1.0
176
     0
 40
1.0
176
     0
  0
VISUALSTYLE
  5
79C1
102
{ACAD_REACTORS
330
79B3
102
}
330
79B3
100
AcDbVisualStyle
  2
Linepattern
 70
    14
177
     3
291
     1
 70
    58
 90
        2
176
     1
 90
        2
176
     1
 90
        0
176
     1
 90
        0
176
     1
 40
0.6
176
     1
 40
30.0
176
     1
 62
     7
420
 16777215
176
     1
 90
        1
176
     1
 90
        4
176
     1
 62
     7
176
     1
 62
   257
176
     1
 90
        7
176
     1
 90
        7
176
     1
 40
1.0
176
     1
 90
        8
176
     1
 62
     7
176
     1
 40
1.0
176
     1
 90
        1
176
     1
 90
        6
176
     1
 90
        2
176
     1
 62
     7
176
     1
 90
        5
176
     1
 90
        0
176
     1
 90
        0
176
     1
290
     0
176
     1
 90
        1
176
     1
 40
0.0
176
     1
 90
        0
176
     1
290
     0
176
     1
290
     1
176
     1
290
     1
176
     1
290
     0
176
     1
290
     0
176
     1
290
     0
176
     1
290
     0
176
     1
290
     0
176
     1
290
     0
176
     1
 90
       50
176
     1
 40
0.0
176
     1
 40
1.0
176
     1
 90
        0
176
     1
 62
    18
420
        0
176
     1
 90
       50
176
     1
 90
        3
176
     1
 62
     5
420
      255
176
     1
290
     0
176
     1
 90
       50
176
     1
 90
       50
176
     1
 90
       50
176
     1
290
     0
176
     1
 90
       50
176
     1
 62
   256
176
     0
 40
1.0
176
     0
 90
        2
176
     1
  1
strokes_ogs.tif
176
     1
290
     0
176
     1
 40
1.0
176
     1
 40
1.0
176
     1
  0
VISUALSTYLE
  5
79CA
102
{ACAD_REACTORS
330
79B3
102
}
330
79B3
100
AcDbVisualStyle
  2
OverhangOff
 70
    21
177
     3
291
     1
 70
    58
 90
        2
176
     0
 90
        2
176
     0
 90
        0
176
     0
 90
        0
176
     0
 40
0.6
176
     0
 40
30.0
176
     0
 62
     7
420
 16777215
176
     0
 90
        1
176
     0
 90
        4
176
     0
 62
     7
176
     0
 62
   257
176
     0
 90
        1
176
     0
 90
        1
176
     0
 40
1.0
176
     0
 90
        9
176
     2
 62
     7
176
     0
 40
1.0
176
     0
 90
        1
176
     0
 90
        6
176
     0
 90
        2
176
     0
 62
     7
176
     0
 90
        5
176
     0
 90
        0
176
     0
 90
        0
176
     0
290
     0
176
     0
 90
        1
176
     0
 40
0.0
176
     0
 90
        0
176
     0
290
     0
176
     1
290
     1
176
     1
290
     1
176
     1
290
     0
176
     1
290
     0
176
     1
290
     0
176
     1
290
     0
176
     1
290
     0
176
     1
290
     0
176
     1
 90
       50
176
     0
 40
0.0
176
     0
 40
1.0
176
     0
 90
        0
176
     0
 62
    18
420
        0
176
     0
 90
       50
176
     0
 90
        3
176
     0
 62
     5
420
      255
176
     0
290
     0
176
     1
 90
       50
176
     0
 90
       50
176
     0
 90
       50
176
     0
290
     0
176
     1
 90
       50
176
     0
 62
   256
176
     0
 40
1.0
176
     0
 90
        2
176
     0
  1
strokes_ogs.tif
176
     0
290
     0
176
     1
 40
1.0
176
     0
 40
1.0
176
     0
  0
VISUALSTYLE
  5
79BD
102
{ACAD_REACTORS
330
79B3
102
}
330
79B3
100
AcDbVisualStyle
  2
Realistic
 70
     8
177
     3
291
     0
 70
    58
 90
        2
176
     1
 90
        3
176
     1
 90
        0
176
     1
 90
        2
176
     1
 40
0.6
176
     1
 40
30.0
176
     1
 62
     7
420
 16777215
176
     1
 90
        0
176
     1
 90
        0
176
     1
 62
     7
176
     1
 62
   257
176
     1
 90
        1
176
     1
 90
        1
176
     1
 40
1.0
176
     1
 90
        8
176
     1
 62
   257
176
     1
 40
1.0
176
     1
 90
        1
176
     1
 90
        6
176
     1
 90
        2
176
     1
 62
     7
176
     1
 90
        3
176
     1
 90
        0
176
     1
 90
        0
176
     1
290
     0
176
     1
 90
       13
176
     1
 40
0.0
176
     1
 90
        0
176
     1
290
     0
176
     1
290
     1
176
     1
290
     1
176
     1
290
     0
176
     1
290
     0
176
     1
290
     0
176
     1
290
     0
176
     1
290
     0
176
     1
290
     0
176
     1
 90
       50
176
     1
 40
0.0
176
     1
 40
1.0
176
     1
 90
        0
176
     1
 62
    18
420
        0
176
     1
 90
       50
176
     1
 90
        3
176
     1
 62
     5
420
      255
176
     1
290
     0
176
     1
 90
       50
176
     1
 90
       50
176
     1
 90
       50
176
     1
290
     0
176
     1
 90
       50
176
     1
 62
   256
176
     0
 40
1.0
176
     0
 90
        2
176
     1
  1
strokes_ogs.tif
176
     1
290
     0
176
     1
 40
1.0
176
     1
 40
1.0
176
     1
  0
VISUALSTYLE
  5
79C8
102
{ACAD_REACTORS
330
79B3
102
}
330
79B3
100
AcDbVisualStyle
  2
Shaded
 70
    27
177
     3
291
     0
 70
    58
 90
        2
176
     1
 90
        2
176
     1
 90
        1
176
     1
 90
        2
176
     1
 40
0.6
176
     1
 40
30.0
176
     1
 62
     7
420
 16777215
176
     1
 90
        0
176
     1
 90
        4
176
     1
 62
     7
176
     1
 62
   257
176
     1
 90
        1
176
     1
 90
        1
176
     1
 40
1.0
176
     1
 90
        8
176
     1
 62
   257
176
     1
 40
1.0
176
     1
 90
        1
176
     1
 90
        6
176
     1
 90
        2
176
     1
 62
     8
420
  7895160
176
     1
 90
        3
176
     1
 90
        0
176
     1
 90
        0
176
     1
290
     0
176
     1
 90
        5
176
     1
 40
0.0
176
     1
 90
        0
176
     1
290
     0
176
     1
290
     1
176
     1
290
     1
176
     1
290
     0
176
     1
290
     0
176
     1
290
     0
176
     1
290
     0
176
     1
290
     0
176
     1
290
     0
176
     1
 90
       50
176
     1
 40
0.0
176
     1
 40
1.0
176
     1
 90
        0
176
     1
 62
    18
420
        0
176
     1
 90
       50
176
     1
 90
        3
176
     1
 62
     5
420
      255
176
     1
290
     0
176
     1
 90
       50
176
     1
 90
       50
176
     1
 90
       50
176
     1
290
     0
176
     1
 90
       50
176
     1
 62
   256
176
     0
 40
1.0
176
     0
 90
        2
176
     1
  1
strokes_ogs.tif
176
     1
290
     0
176
     1
 40
1.0
176
     1
 40
1.0
176
     1
  0
VISUALSTYLE
  5
79C7
102
{ACAD_REACTORS
330
79B3
102
}
330
79B3
100
AcDbVisualStyle
  2
Shaded with edges
 70
    26
177
     3
291
     0
 70
    58
 90
        2
176
     1
 90
        2
176
     1
 90
        1
176
     1
 90
        2
176
     1
 40
0.6
176
     1
 40
30.0
176
     1
 62
     7
420
 16777215
176
     1
 90
        1
176
     1
 90
        2
176
     1
 62
     7
176
     1
 62
   257
176
     1
 90
        2
176
     1
 90
        1
176
     1
 40
1.0
176
     1
 90
        8
176
     1
 62
   257
176
     1
 40
1.0
176
     1
 90
        1
176
     1
 90
        6
176
     1
 90
        2
176
     1
 62
     7
176
     1
 90
        3
176
     1
 90
        0
176
     1
 90
        0
176
     1
290
     0
176
     1
 90
        5
176
     1
 40
0.0
176
     1
 90
        0
176
     1
290
     0
176
     1
290
     1
176
     1
290
     1
176
     1
290
     0
176
     1
290
     0
176
     1
290
     0
176
     1
290
     0
176
     1
290
     0
176
     1
290
     0
176
     1
 90
       50
176
     1
 40
0.0
176
     1
 40
1.0
176
     1
 90
        0
176
     1
 62
    18
420
        0
176
     1
 90
       50
176
     1
 90
        3
176
     1
 62
     5
420
      255
176
     1
290
     0
176
     1
 90
       50
176
     1
 90
       50
176
     1
 90
       50
176
     1
290
     0
176
     1
 90
       50
176
     1
 62
   256
176
     0
 40
1.0
176
     0
 90
        2
176
     1
  1
strokes_ogs.tif
176
     1
290
     0
176
     1
 40
1.0
176
     1
 40
1.0
176
     1
  0
VISUALSTYLE
  5
79C4
102
{ACAD_REACTORS
330
79B3
102
}
330
79B3
100
AcDbVisualStyle
  2
Shades of Gray
 70
    23
177
     3
291
     0
 70
    58
 90
        2
176
     1
 90
        2
176
     1
 90
        3
176
     1
 90
        0
176
     1
 40
0.6
176
     1
 40
30.0
176
     1
 62
     7
420
 16777215
176
     1
 90
        2
176
     1
 90
        2
176
     1
 62
     7
176
     1
 62
     7
176
     1
 90
        1
176
     1
 90
        1
176
     1
 40
40.0
176
     1
 90
        8
176
     1
 62
     7
176
     1
 40
1.0
176
     1
 90
        1
176
     1
 90
        6
176
     1
 90
        2
176
     1
 62
     7
176
     1
 90
        3
176
     1
 90
        0
176
     1
 90
        0
176
     1
290
     0
176
     1
 90
        1
176
     1
 40
0.0
176
     1
 90
        0
176
     1
290
     0
176
     1
290
     1
176
     1
290
     1
176
     1
290
     0
176
     1
290
     0
176
     1
290
     0
176
     1
290
     0
176
     1
290
     0
176
     1
290
     0
176
     1
 90
       50
176
     1
 40
0.0
176
     1
 40
1.0
176
     1
 90
        0
176
     1
 62
    18
420
        0
176
     1
 90
       50
176
     1
 90
        3
176
     1
 62
     5
420
      255
176
     1
290
     0
176
     1
 90
       50
176
     1
 90
       50
176
     1
 90
       50
176
     1
290
     0
176
     1
 90
       50
176
     1
 62
   256
176
     0
 40
1.0
176
     0
 90
        2
176
     1
  1
strokes_ogs.tif
176
     1
290
     0
176
     1
 40
1.0
176
     1
 40
1.0
176
     1
  0
VISUALSTYLE
  5
79C5
102
{ACAD_REACTORS
330
79B3
102
}
330
79B3
100
AcDbVisualStyle
  2
Sketchy
 70
    24
177
     3
291
     0
 70
    58
 90
        1
176
     1
 90
        2
176
     1
 90
        2
176
     1
 90
        0
176
     1
 40
0.6
176
     1
 40
30.0
176
     1
 62
     7
420
 16777215
176
     1
 90
        2
176
     1
 90
        2
176
     1
 62
     7
176
     1
 62
     7
176
     1
 90
        1
176
     1
 90
        1
176
     1
 40
40.0
176
     1
 90
       11
176
     1
 62
     7
176
     1
 40
1.0
176
     1
 90
        1
176
     1
 90
        6
176
     1
 90
        2
176
     1
 62
     7
176
     1
 90
        6
176
     1
 90
        0
176
     1
 90
        0
176
     1
290
     0
176
     1
 90
        1
176
     1
 40
0.0
176
     1
 90
        0
176
     1
290
     0
176
     1
290
     1
176
     1
290
     1
176
     1
290
     0
176
     1
290
     0
176
     1
290
     0
176
     1
290
     0
176
     1
290
     0
176
     1
290
     0
176
     1
 90
       50
176
     1
 40
0.0
176
     1
 40
1.0
176
     1
 90
        0
176
     1
 62
    18
420
        0
176
     1
 90
       50
176
     1
 90
        3
176
     1
 62
     5
420
      255
176
     1
290
     0
176
     1
 90
       50
176
     1
 90
       50
176
     1
 90
       50
176
     1
290
     0
176
     1
 90
       50
176
     1
 62
   256
176
     0
 40
1.0
176
     0
 90
        2
176
     1
  1
strokes_ogs.tif
176
     1
290
     0
176
     1
 40
1.0
176
     1
 40
1.0
176
     1
  0
VISUALSTYLE
  5
79C0
102
{ACAD_REACTORS
330
79B3
102
}
330
79B3
100
AcDbVisualStyle
  2
Thicken
 70
    13
177
     3
291
     1
 70
    58
 90
        2
176
     1
 90
        2
176
     1
 90
        0
176
     1
 90
        0
176
     1
 40
0.6
176
     1
 40
30.0
176
     1
 62
     7
420
 16777215
176
     1
 90
        1
176
     1
 90
        4
176
     1
 62
     7
176
     1
 62
   257
176
     1
 90
        1
176
     1
 90
        1
176
     1
 40
1.0
176
     1
 90
       12
176
     1
 62
     7
176
     1
 40
1.0
176
     1
 90
        1
176
     1
 90
        6
176
     1
 90
        2
176
     1
 62
     7
176
     1
 90
        5
176
     1
 90
        0
176
     1
 90
        0
176
     1
290
     0
176
     1
 90
        1
176
     1
 40
0.0
176
     1
 90
        0
176
     1
290
     0
176
     1
290
     1
176
     1
290
     1
176
     1
290
     0
176
     1
290
     0
176
     1
290
     0
176
     1
290
     0
176
     1
290
     0
176
     1
290
     0
176
     1
 90
       50
176
     1
 40
0.0
176
     1
 40
1.0
176
     1
 90
        0
176
     1
 62
    18
420
        0
176
     1
 90
       50
176
     1
 90
        3
176
     1
 62
     5
420
      255
176
     1
290
     0
176
     1
 90
       50
176
     1
 90
       50
176
     1
 90
       50
176
     1
290
     0
176
     1
 90
       50
176
     1
 62
   256
176
     0
 40
1.0
176
     0
 90
        2
176
     1
  1
strokes_ogs.tif
176
     1
290
     0
176
     1
 40
1.0
176
     1
 40
1.0
176
     1
  0
VISUALSTYLE
  5
79BA
102
{ACAD_REACTORS
330
79B3
102
}
330
79B3
100
AcDbVisualStyle
  2
Wireframe
 70
     5
177
     3
291
     0
 70
    58
 90
        0
176
     1
 90
        2
176
     1
 90
        0
176
     1
 90
        0
176
     1
 40
0.6
176
     1
 40
30.0
176
     1
 62
     7
420
 16777215
176
     1
 90
        1
176
     1
 90
        4
176
     1
 62
     7
176
     1
 62
   257
176
     1
 90
        1
176
     1
 90
        1
176
     1
 40
1.0
176
     1
 90
        0
176
     1
 62
   257
176
     1
 40
1.0
176
     1
 90
        1
176
     1
 90
        6
176
     1
 90
        2
176
     1
 62
     7
176
     1
 90
        3
176
     1
 90
        0
176
     1
 90
        0
176
     1
290
     0
176
     1
 90
        1
176
     1
 40
0.0
176
     1
 90
        0
176
     1
290
     0
176
     1
290
     1
176
     1
290
     1
176
     1
290
     0
176
     1
290
     0
176
     1
290
     0
176
     1
290
     0
176
     1
290
     0
176
     1
290
     0
176
     1
 90
       50
176
     1
 40
0.0
176
     1
 40
1.0
176
     1
 90
        0
176
     1
 62
    18
420
        0
176
     1
 90
       50
176
     1
 90
        3
176
     1
 62
     5
420
      255
176
     1
290
     0
176
     1
 90
       50
176
     1
 90
       50
176
     1
 90
       50
176
     1
290
     0
176
     1
 90
       50
176
     1
 62
   256
176
     0
 40
1.0
176
     0
 90
        2
176
     1
  1
strokes_ogs.tif
176
     1
290
     0
176
     1
 40
1.0
176
     1
 40
1.0
176
     1
  0
VISUALSTYLE
  5
79C6
102
{ACAD_REACTORS
330
79B3
102
}
330
79B3
100
AcDbVisualStyle
  2
X-Ray
 70
    25
177
     3
291
     0
 70
    58
 90
        2
176
     1
 90
        2
176
     1
 90
        1
176
     1
 90
        1
176
     1
 40
0.5
176
     1
 40
30.0
176
     1
 62
     7
420
 16777215
176
     1
 90
        1
176
     1
 90
        0
176
     1
 62
     7
176
     1
 62
   257
176
     1
 90
        1
176
     1
 90
        1
176
     1
 40
1.0
176
     1
 90
        8
176
     1
 62
     7
176
     1
 40
1.0
176
     1
 90
        1
176
     1
 90
        6
176
     1
 90
        2
176
     1
 62
     7
176
     1
 90
        3
176
     1
 90
        0
176
     1
 90
        0
176
     1
290
     0
176
     1
 90
       13
176
     1
 40
0.0
176
     1
 90
        0
176
     1
290
     0
176
     1
290
     1
176
     1
290
     1
176
     1
290
     0
176
     1
290
     0
176
     1
290
     0
176
     1
290
     0
176
     1
290
     0
176
     1
290
     0
176
     1
 90
       50
176
     1
 40
0.0
176
     1
 40
1.0
176
     1
 90
        0
176
     1
 62
    18
420
        0
176
     1
 90
       50
176
     1
 90
        3
176
     1
 62
     5
420
      255
176
     1
290
     0
176
     1
 90
       50
176
     1
 90
       50
176
     1
 90
       50
176
     1
290
     0
176
     1
 90
       50
176
     1
 62
   256
176
     0
 40
1.0
176
     0
 90
        2
176
     1
  1
strokes_ogs.tif
176
     1
290
     0
176
     1
 40
1.0
176
     1
 40
1.0
176
     1
  0
DICTIONARYVAR
  5
7A1F
102
{ACAD_REACTORS
330
79EA
102
}
330
79EA
100
DictionaryVariables
280
     0
  1
1:1
  0
DICTIONARYVAR
  5
7A1B
102
{ACAD_REACTORS
330
79EA
102
}
330
79EA
100
DictionaryVariables
280
     0
  1
STANDARD
  0
DICTIONARYVAR
  5
7A1A
102
{ACAD_REACTORS
330
79EA
102
}
330
79EA
100
DictionaryVariables
280
     0
  1
STANDARD
  0
DICTIONARYVAR
  5
7A1C
102
{ACAD_REACTORS
330
79EA
102
}
330
79EA
100
DictionaryVariables
280
     0
  1
Imperial24
  0
DICTIONARYVAR
  5
7A1D
102
{ACAD_REACTORS
330
79EA
102
}
330
79EA
100
DictionaryVariables
280
     0
  1
Imperial24
  0
DICTIONARYVAR
  5
7A21
102
{ACAD_REACTORS
330
79EA
102
}
330
79EA
100
DictionaryVariables
280
     0
  1
1
  0
DICTIONARYVAR
  5
7A22
102
{ACAD_REACTORS
330
79EA
102
}
330
79EA
100
DictionaryVariables
280
     0
  1
15
  0
DICTIONARYVAR
  5
7A20
102
{ACAD_REACTORS
330
79EA
102
}
330
79EA
100
DictionaryVariables
280
     0
  1
0
  0
DICTIONARYVAR
  5
7A1E
102
{ACAD_REACTORS
330
79EA
102
}
330
79EA
100
DictionaryVariables
280
     0
  1
0
  0
DICTIONARY
  5
79A4
330
79A3
100
AcDbDictionary
280
     1
281
     1
  3
BUMPTILE
360
79A6
  3
DIFFUSETILE
360
79A5
  3
OPACITYTILE
360
79A9
  3
REFLECTIONTILE
360
79A8
  3
REFRACTIONTILE
360
79AA
  3
SPECULARTILE
360
79A7
  0
DICTIONARY
  5
799C
330
799B
100
AcDbDictionary
280
     1
281
     1
  3
BUMPTILE
360
799E
  3
DIFFUSETILE
360
799D
  3
OPACITYTILE
360
79A1
  3
REFLECTIONTILE
360
79A0
  3
REFRACTIONTILE
360
79A2
  3
SPECULARTILE
360
799F
  0
DICTIONARY
  5
79AC
330
79AB
100
AcDbDictionary
280
     1
281
     1
  3
BUMPTILE
360
79AE
  3
DIFFUSETILE
360
79AD
  3
OPACITYTILE
360
79B1
  3
REFLECTIONTILE
360
79B0
  3
REFRACTIONTILE
360
79B2
  3
SPECULARTILE
360
79AF
  0
DICTIONARY
  5
7A24
330
79CE
100
AcDbDictionary
280
     1
281
     1
  3
ACAD_ROUNDTRIP_2008_TABLESTYLE_CELLSTYLEMAP
360
7A25
  0
XRECORD
  5
79A6
102
{ACAD_REACTORS
330
79A4
102
}
330
79A4
100
AcDbXrecord
280
     1
270
     1
271
     1
  0
XRECORD
  5
79A5
102
{ACAD_REACTORS
330
79A4
102
}
330
79A4
100
AcDbXrecord
280
     1
270
     1
271
     1
  0
XRECORD
  5
79A9
102
{ACAD_REACTORS
330
79A4
102
}
330
79A4
100
AcDbXrecord
280
     1
270
     1
271
     1
  0
XRECORD
  5
79A8
102
{ACAD_REACTORS
330
79A4
102
}
330
79A4
100
AcDbXrecord
280
     1
270
     1
271
     1
  0
XRECORD
  5
79AA
102
{ACAD_REACTORS
330
79A4
102
}
330
79A4
100
AcDbXrecord
280
     1
270
     1
271
     1
  0
XRECORD
  5
79A7
102
{ACAD_REACTORS
330
79A4
102
}
330
79A4
100
AcDbXrecord
280
     1
270
     1
271
     1
  0
XRECORD
  5
799E
102
{ACAD_REACTORS
330
799C
102
}
330
799C
100
AcDbXrecord
280
     1
270
     1
271
     1
  0
XRECORD
  5
799D
102
{ACAD_REACTORS
330
799C
102
}
330
799C
100
AcDbXrecord
280
     1
270
     1
271
     1
  0
XRECORD
  5
79A1
102
{ACAD_REACTORS
330
799C
102
}
330
799C
100
AcDbXrecord
280
     1
270
     1
271
     1
  0
XRECORD
  5
79A0
102
{ACAD_REACTORS
330
799C
102
}
330
799C
100
AcDbXrecord
280
     1
270
     1
271
     1
  0
XRECORD
  5
79A2
102
{ACAD_REACTORS
330
799C
102
}
330
799C
100
AcDbXrecord
280
     1
270
     1
271
     1
  0
XRECORD
  5
799F
102
{ACAD_REACTORS
330
799C
102
}
330
799C
100
AcDbXrecord
280
     1
270
     1
271
     1
  0
XRECORD
  5
79AE
102
{ACAD_REACTORS
330
79AC
102
}
330
79AC
100
AcDbXrecord
280
     1
270
     1
271
     1
  0
XRECORD
  5
79AD
102
{ACAD_REACTORS
330
79AC
102
}
330
79AC
100
AcDbXrecord
280
     1
270
     1
271
     1
  0
XRECORD
  5
79B1
102
{ACAD_REACTORS
330
79AC
102
}
330
79AC
100
AcDbXrecord
280
     1
270
     1
271
     1
  0
XRECORD
  5
79B0
102
{ACAD_REACTORS
330
79AC
102
}
330
79AC
100
AcDbXrecord
280
     1
270
     1
271
     1
  0
XRECORD
  5
79B2
102
{ACAD_REACTORS
330
79AC
102
}
330
79AC
100
AcDbXrecord
280
     1
270
     1
271
     1
  0
XRECORD
  5
79AF
102
{ACAD_REACTORS
330
79AC
102
}
330
79AC
100
AcDbXrecord
280
     1
270
     1
271
     1
  0
CELLSTYLEMAP
  5
7A25
102
{ACAD_REACTORS
330
7A24
102
}
330
7A24
100
AcDbCellStyleMap
 90
        3
300
CELLSTYLE
  1
TABLEFORMAT_BEGIN
 90
        5
170
     1
 91
        0
 92
    32768
 62
   257
 93
        1
300
CONTENTFORMAT
  1
CONTENTFORMAT_BEGIN
 90
        0
 91
        0
 92
      512
 93
        0
300

 40
0.0
140
1.0
 94
        5
 62
     0
340
11
144
0.25
309
CONTENTFORMAT_END
171
     0
 94
        0
309
TABLEFORMAT_END
  1
CELLSTYLE_BEGIN
 90
        1
 91
        1
300
_TITLE
309
CELLSTYLE_END
300
CELLSTYLE
  1
TABLEFORMAT_BEGIN
 90
        5
170
     1
 91
        0
 92
        0
 62
   257
 93
        1
300
CONTENTFORMAT
  1
CONTENTFORMAT_BEGIN
 90
        0
 91
        0
 92
      512
 93
        0
300

 40
0.0
140
1.0
 94
        5
 62
     0
340
11
144
0.18
309
CONTENTFORMAT_END
171
     0
 94
        0
309
TABLEFORMAT_END
  1
CELLSTYLE_BEGIN
 90
        2
 91
        1
300
_HEADER
309
CELLSTYLE_END
300
CELLSTYLE
  1
TABLEFORMAT_BEGIN
 90
        5
170
     1
 91
        0
 92
        0
 62
   257
 93
        1
300
CONTENTFORMAT
  1
CONTENTFORMAT_BEGIN
 90
        0
 91
        0
 92
      512
 93
        0
300

 40
0.0
140
1.0
 94
        2
 62
     0
340
11
144
0.18
309
CONTENTFORMAT_END
171
     0
 94
        0
309
TABLEFORMAT_END
  1
CELLSTYLE_BEGIN
 90
        3
 91
        2
300
_DATA
309
CELLSTYLE_END
  0
ENDSEC
  0
EOF
