  0
SECTION
  2
HEADER
  9
$ACADVER
  1
AC1032
  9
$ACADMAINTVER
 90
      228
  9
$DWGCODEPAGE
  3
ANSI_932
  9
$LASTSAVEDBY
  1
松田智彦
  9
$REQUIREDVERSIONS
160
                 0
  9
$INSBASE
 10
0.0
 20
0.0
 30
0.0
  9
$EXTMIN
 10
-317.4328924167103
 20
-940.1152476536926
 30
-0.0015258207003583
  9
$EXTMAX
 10
1106.148011579163
 20
741.1048380619686
 30
0.0000000349246037
  9
$LIMMIN
 10
-302.0
 20
-689.0
  9
$LIMMAX
 10
615.0
 20
462.0
  9
$ORTHOMODE
 70
     1
  9
$REGENMODE
 70
     1
  9
$FILLMODE
 70
     1
  9
$QTEXTMODE
 70
     0
  9
$MIRRTEXT
 70
     1
  9
$LTSCALE
 40
20.0
  9
$ATTMODE
 70
     1
  9
$TEXTSIZE
 40
5.0
  9
$TRACEWID
 40
0.05
  9
$TEXTSTYLE
  7
STANDARD1
  9
$CLAYER
  8
30
  9
$CELTYPE
  6
CONTINUOUS
  9
$CECOLOR
 62
   256
  9
$CELTSCALE
 40
1.0
  9
$DISPSILH
 70
     0
  9
$DIMSCALE
 40
1.0
  9
$DIMASZ
 40
2.0
  9
$DIMEXO
 40
10.0
  9
$DIMDLI
 40
0.5
  9
$DIMRND
 40
0.0
  9
$DIMDLE
 40
0.0
  9
$DIMEXE
 40
0.5
  9
$DIMTP
 40
0.0
  9
$DIMTM
 40
0.0
  9
$DIMTXT
 40
10.0
  9
$DIMCEN
 40
0.09
  9
$DIMTSZ
 40
0.0
  9
$DIMTOL
 70
     0
  9
$DIMLIM
 70
     0
  9
$DIMTIH
 70
     0
  9
$DIMTOH
 70
     1
  9
$DIMSE1
 70
     0
  9
$DIMSE2
 70
     0
  9
$DIMTAD
 70
     3
  9
$DIMZIN
 70
    12
  9
$DIMBLK
  1
OPEN
  9
$DIMASO
 70
     1
  9
$DIMSHO
 70
     1
  9
$DIMPOST
  1

  9
$DIMAPOST
  1

  9
$DIMALT
 70
     0
  9
$DIMALTD
 70
     2
  9
$DIMALTF
 40
25.4
  9
$DIMLFAC
 40
1.0
  9
$DIMTOFL
 70
     0
  9
$DIMTVP
 40
0.0
  9
$DIMTIX
 70
     0
  9
$DIMSOXD
 70
     0
  9
$DIMSAH
 70
     0
  9
$DIMBLK1
  1

  9
$DIMBLK2
  1

  9
$DIMSTYLE
  2
STANDARD
  9
$DIMCLRD
 70
     0
  9
$DIMCLRE
 70
     0
  9
$DIMCLRT
 70
     0
  9
$DIMTFAC
 40
1.0
  9
$DIMGAP
 40
1.0
  9
$DIMJUST
 70
     0
  9
$DIMSD1
 70
     0
  9
$DIMSD2
 70
     0
  9
$DIMTOLJ
 70
     1
  9
$DIMTZIN
 70
     0
  9
$DIMALTZ
 70
     0
  9
$DIMALTTZ
 70
     0
  9
$DIMUPT
 70
     0
  9
$DIMDEC
 70
     1
  9
$DIMTDEC
 70
     1
  9
$DIMALTU
 70
     2
  9
$DIMALTTD
 70
     2
  9
$DIMTXSTY
  7
STANDARD
  9
$DIMAUNIT
 70
     0
  9
$DIMADEC
 70
     0
  9
$DIMALTRND
 40
0.0
  9
$DIMAZIN
 70
     3
  9
$DIMDSEP
 70
    46
  9
$DIMATFIT
 70
     3
  9
$DIMFRAC
 70
     0
  9
$DIMLDRBLK
  1
OPEN
  9
$DIMLUNIT
 70
     2
  9
$DIMLWD
 70
    -2
  9
$DIMLWE
 70
    -2
  9
$DIMTMOVE
 70
     0
  9
$DIMFXL
 40
1.0
  9
$DIMFXLON
 70
     0
  9
$DIMJOGANG
 40
0.7853981633974483
  9
$DIMTFILL
 70
     0
  9
$DIMTFILLCLR
 70
     0
  9
$DIMARCSYM
 70
     0
  9
$DIMLTYPE
  6

  9
$DIMLTEX1
  6

  9
$DIMLTEX2
  6

  9
$DIMTXTDIRECTION
 70
     0
  9
$LUNITS
 70
     2
  9
$LUPREC
 70
     4
  9
$SKETCHINC
 40
0.1
  9
$FILLETRAD
 40
0.0
  9
$AUNITS
 70
     0
  9
$AUPREC
 70
     0
  9
$MENU
  1
.
  9
$ELEVATION
 40
0.0
  9
$PELEVATION
 40
0.0
  9
$THICKNESS
 40
0.0
  9
$LIMCHECK
 70
     0
  9
$CHAMFERA
 40
0.0
  9
$CHAMFERB
 40
0.0
  9
$CHAMFERC
 40
0.0
  9
$CHAMFERD
 40
0.0
  9
$SKPOLY
 70
     0
  9
$TDCREATE
 40
2452286.555648148
  9
$TDUCREATE
 40
2452286.180658658
  9
$TDUPDATE
 40
2459933.546273148
  9
$TDUUPDATE
 40
2459933.171273148
  9
$TDINDWG
 40
1.5141013426
  9
$TDUSRTIMER
 40
1.5141009259
  9
$USRTIMER
 70
     1
  9
$ANGBASE
 50
0.0
  9
$ANGDIR
 70
     0
  9
$PDMODE
 70
     0
  9
$PDSIZE
 40
0.0
  9
$PLINEWID
 40
0.0
  9
$SPLFRAME
 70
     0
  9
$SPLINETYPE
 70
     6
  9
$SPLINESEGS
 70
     8
  9
$HANDSEED
  5
8401
  9
$SURFTAB1
 70
     6
  9
$SURFTAB2
 70
     6
  9
$SURFTYPE
 70
     6
  9
$SURFU
 70
     6
  9
$SURFV
 70
     6
  9
$UCSBASE
  2

  9
$UCSNAME
  2

  9
$UCSORG
 10
0.0
 20
0.0
 30
0.0
  9
$UCSXDIR
 10
1.0
 20
0.0
 30
0.0
  9
$UCSYDIR
 10
0.0
 20
1.0
 30
0.0
  9
$UCSORTHOREF
  2

  9
$UCSORTHOVIEW
 70
     0
  9
$UCSORGTOP
 10
0.0
 20
0.0
 30
0.0
  9
$UCSORGBOTTOM
 10
0.0
 20
0.0
 30
0.0
  9
$UCSORGLEFT
 10
0.0
 20
0.0
 30
0.0
  9
$UCSORGRIGHT
 10
0.0
 20
0.0
 30
0.0
  9
$UCSORGFRONT
 10
0.0
 20
0.0
 30
0.0
  9
$UCSORGBACK
 10
0.0
 20
0.0
 30
0.0
  9
$PUCSBASE
  2

  9
$PUCSNAME
  2

  9
$PUCSORG
 10
0.0
 20
0.0
 30
0.0
  9
$PUCSXDIR
 10
1.0
 20
0.0
 30
0.0
  9
$PUCSYDIR
 10
0.0
 20
1.0
 30
0.0
  9
$PUCSORTHOREF
  2

  9
$PUCSORTHOVIEW
 70
     0
  9
$PUCSORGTOP
 10
0.0
 20
0.0
 30
0.0
  9
$PUCSORGBOTTOM
 10
0.0
 20
0.0
 30
0.0
  9
$PUCSORGLEFT
 10
0.0
 20
0.0
 30
0.0
  9
$PUCSORGRIGHT
 10
0.0
 20
0.0
 30
0.0
  9
$PUCSORGFRONT
 10
0.0
 20
0.0
 30
0.0
  9
$PUCSORGBACK
 10
0.0
 20
0.0
 30
0.0
  9
$USERI1
 70
     0
  9
$USERI2
 70
     0
  9
$USERI3
 70
     0
  9
$USERI4
 70
     0
  9
$USERI5
 70
     0
  9
$USERR1
 40
0.0
  9
$USERR2
 40
0.0
  9
$USERR3
 40
0.0
  9
$USERR4
 40
0.0
  9
$USERR5
 40
0.0
  9
$WORLDVIEW
 70
     1
  9
$SHADEDGE
 70
     3
  9
$SHADEDIF
 70
    70
  9
$TILEMODE
 70
     1
  9
$MAXACTVP
 70
    48
  9
$PINSBASE
 10
0.0
 20
0.0
 30
0.0
  9
$PLIMCHECK
 70
     0
  9
$PEXTMIN
 10
0.0
 20
0.0
 30
0.0
  9
$PEXTMAX
 10
0.0
 20
0.0
 30
0.0
  9
$PLIMMIN
 10
0.0
 20
0.0
  9
$PLIMMAX
 10
0.0
 20
0.0
  9
$UNITMODE
 70
     0
  9
$VISRETAIN
 70
     1
  9
$PLINEGEN
 70
     0
  9
$PSLTSCALE
 70
     1
  9
$TREEDEPTH
 70
  3020
  9
$CMLSTYLE
  2
STANDARD
  9
$CMLJUST
 70
     0
  9
$CMLSCALE
 40
1.0
  9
$PROXYGRAPHICS
 70
     1
  9
$MEASUREMENT
 70
     0
  9
$CELWEIGHT
370
    -1
  9
$ENDCAPS
280
     0
  9
$JOINSTYLE
280
     0
  9
$LWDISPLAY
290
     0
  9
$INSUNITS
 70
     0
  9
$HYPERLINKBASE
  1

  9
$STYLESHEET
  1
ACAD.CTB
  9
$XEDIT
290
     1
  9
$CEPSNTYPE
380
     0
  9
$PSTYLEMODE
290
     1
  9
$FINGERPRINTGUID
  2

  9
$VERSIONGUID
  2
{C35968B9-B911-0443-990E-9C13EB06AC7B}
  9
$EXTNAMES
290
     1
  9
$PSVPSCALE
 40
0.0
  9
$OLESTARTUP
290
     0
  9
$SORTENTS
280
   127
  9
$INDEXCTL
280
     0
  9
$HIDETEXT
280
     0
  9
$XCLIPFRAME
280
     2
  9
$HALOGAP
280
     0
  9
$OBSCOLOR
 70
   257
  9
$OBSLTYPE
280
     0
  9
$INTERSECTIONDISPLAY
280
     0
  9
$INTERSECTIONCOLOR
 70
   257
  9
$DIMASSOC
280
     1
  9
$PROJECTNAME
  1

  9
$CAMERADISPLAY
290
     0
  9
$LENSLENGTH
 40
50.0
  9
$CAMERAHEIGHT
 40
0.0
  9
$STEPSPERSEC
 40
2.0
  9
$STEPSIZE
 40
6.0
  9
$3DDWFPREC
 40
2.0
  9
$PSOLWIDTH
 40
0.25
  9
$PSOLHEIGHT
 40
4.0
  9
$LOFTANG1
 40
1.570796326794896
  9
$LOFTANG2
 40
1.570796326794896
  9
$LOFTMAG1
 40
0.0
  9
$LOFTMAG2
 40
0.0
  9
$LOFTPARAM
 70
     7
  9
$LOFTNORMALS
280
     1
  9
$LATITUDE
 40
37.795
  9
$LONGITUDE
 40
-122.394
  9
$NORTHDIRECTION
 40
0.0
  9
$TIMEZONE
 70
 -8000
  9
$LIGHTGLYPHDISPLAY
280
     1
  9
$TILEMODELIGHTSYNCH
280
     1
  9
$CMATERIAL
347
8368
  9
$SOLIDHIST
280
     0
  9
$SHOWHIST
280
     1
  9
$DWFFRAME
280
     2
  9
$DGNFRAME
280
     0
  9
$REALWORLDSCALE
290
     1
  9
$INTERFERECOLOR
 62
     1
  9
$INTERFEREOBJVS
345
838A
  9
$INTERFEREVPVS
346
8387
  9
$CSHADOW
280
     0
  9
$SHADOWPLANELOCATION
 40
0.0
  0
ENDSEC
  0
SECTION
  2
CLASSES
  0
CLASS
  1
ACDBDICTIONARYWDFLT
  2
AcDbDictionaryWithDefault
  3
ObjectDBX Classes
 90
        0
 91
        1
280
     0
281
     0
  0
CLASS
  1
DICTIONARYVAR
  2
AcDbDictionaryVar
  3
ObjectDBX Classes
 90
        0
 91
       12
280
     0
281
     0
  0
CLASS
  1
MATERIAL
  2
AcDbMaterial
  3
ObjectDBX Classes
 90
     1153
 91
        3
280
     0
281
     0
  0
CLASS
  1
VISUALSTYLE
  2
AcDbVisualStyle
  3
ObjectDBX Classes
 90
     4095
 91
       24
280
     0
281
     0
  0
CLASS
  1
TABLESTYLE
  2
AcDbTableStyle
  3
ObjectDBX Classes
 90
     4095
 91
        1
280
     0
281
     0
  0
CLASS
  1
SCALE
  2
AcDbScale
  3
ObjectDBX Classes
 90
     1153
 91
       17
280
     0
281
     0
  0
CLASS
  1
MLEADERSTYLE
  2
AcDbMLeaderStyle
  3
ACDB_MLEADERSTYLE_CLASS
 90
     4095
 91
        1
280
     0
281
     0
  0
CLASS
  1
ACDBSECTIONVIEWSTYLE
  2
AcDbSectionViewStyle
  3
ObjectDBX Classes
 90
     1025
 91
        1
280
     0
281
     0
  0
CLASS
  1
ACDBDETAILVIEWSTYLE
  2
AcDbDetailViewStyle
  3
ObjectDBX Classes
 90
     1025
 91
        1
280
     0
281
     0
  0
CLASS
  1
CELLSTYLEMAP
  2
AcDbCellStyleMap
  3
ObjectDBX Classes
 90
     1152
 91
        2
280
     0
281
     0
  0
ENDSEC
  0
SECTION
  2
TABLES
  0
TABLE
  2
VPORT
  5
8
330
0
100
AcDbSymbolTable
 70
     1
  0
VPORT
  5
835E
330
8
100
AcDbSymbolTableRecord
100
AcDbViewportTableRecord
  2
*Active
 70
     0
 10
0.0
 20
0.0
 11
1.0
 21
1.0
 12
394.3575595812265
 22
-99.50520479586202
 13
0.0
 23
0.0
 14
1.0
 24
1.0
 15
10.0
 25
10.0
 16
0.0
 26
0.0
 36
1.0
 17
0.0
 27
0.0
 37
0.0
 40
1693.924519612757
 41
2.404791929382093
 42
50.0
 43
0.0
 44
0.0
 50
0.0
 51
0.0
 71
     0
 72
   100
 73
     1
 74
     1
 75
     0
 76
     0
 77
     0
 78
     0
281
     0
 65
     1
110
0.0
120
0.0
130
0.0
111
1.0
121
0.0
131
0.0
112
0.0
122
1.0
132
0.0
 79
     0
146
0.0
348
8386
 60
     3
 61
     5
292
     1
282
     1
141
0.0
142
0.0
 63
   250
421
  3355443
1001
ACAD_NAV_VCDISPLAY
1070
     3
  0
ENDTAB
  0
TABLE
  2
LTYPE
  5
5
330
0
100
AcDbSymbolTable
 70
    18
  0
LTYPE
  5
13
330
5
100
AcDbSymbolTableRecord
100
AcDbLinetypeTableRecord
  2
BYBLOCK
 70
     0
  3

 72
    65
 73
     0
 40
0.0
  0
LTYPE
  5
14
330
5
100
AcDbSymbolTableRecord
100
AcDbLinetypeTableRecord
  2
BYLAYER
 70
     0
  3

 72
    65
 73
     0
 40
0.0
  0
LTYPE
  5
15
330
5
100
AcDbSymbolTableRecord
100
AcDbLinetypeTableRecord
  2
CONTINUOUS
 70
     0
  3
Solid line
 72
    65
 73
     0
 40
0.0
  0
LTYPE
  5
22
330
5
100
AcDbSymbolTableRecord
100
AcDbLinetypeTableRecord
  2
CONTINOUS
 70
     0
  3
Solid line
 72
    65
 73
     0
 40
0.0
  0
LTYPE
  5
23
330
5
100
AcDbSymbolTableRecord
100
AcDbLinetypeTableRecord
  2
DASHED
 70
     0
  3
__ __ __ __ __ __ __ __ __ __ __ __ __ __ __
 72
    65
 73
     2
 40
0.75
 49
0.5
 74
     0
 49
-0.25
 74
     0
  0
LTYPE
  5
24
330
5
100
AcDbSymbolTableRecord
100
AcDbLinetypeTableRecord
  2
DASHDOT
 70
     0
  3
__ . __ . __ . __ . __ . __ . __ . __ . __ . __
 72
    65
 73
     4
 40
1.0
 49
0.5
 74
     0
 49
-0.25
 74
     0
 49
0.0
 74
     0
 49
-0.25
 74
     0
  0
LTYPE
  5
4C47
330
5
100
AcDbSymbolTableRecord
100
AcDbLinetypeTableRecord
  2
DIVIDE
 70
     0
  3
Divide ____ . . ____ . . ____ . . ____ . . ____
 72
    65
 73
     6
 40
1.25
 49
0.5
 74
     0
 49
-0.25
 74
     0
 49
0.0
 74
     0
 49
-0.25
 74
     0
 49
0.0
 74
     0
 49
-0.25
 74
     0
  0
LTYPE
  5
4F58
330
5
100
AcDbSymbolTableRecord
100
AcDbLinetypeTableRecord
  2
D329
 70
     0
  3
IGESIN-LineFont-D329
 72
    65
 73
     2
 40
1.35
 49
0.75
 74
     0
 49
-0.6
 74
     0
  0
LTYPE
  5
5061
330
5
100
AcDbSymbolTableRecord
100
AcDbLinetypeTableRecord
  2
D341
 70
     0
  3
IGESIN-LineFont-D341
 72
    65
 73
     4
 40
9.449999999999999
 49
7.5
 74
     0
 49
-0.6
 74
     0
 49
0.75
 74
     0
 49
-0.6
 74
     0
  0
LTYPE
  5
60FF
330
5
100
AcDbSymbolTableRecord
100
AcDbLinetypeTableRecord
  2
D325
 70
     0
  3
IGESIN-LineFont-D325
 72
    65
 73
     2
 40
1.35
 49
0.75
 74
     0
 49
-0.6
 74
     0
  0
LTYPE
  5
6314
330
5
100
AcDbSymbolTableRecord
100
AcDbLinetypeTableRecord
  2
D131
 70
     0
  3
IGESIN-LineFont-D131
 72
    65
 73
     6
 40
11.29999999999999
 49
8.0
 74
     0
 49
-0.6
 74
     0
 49
0.75
 74
     0
 49
-0.6
 74
     0
 49
0.75
 74
     0
 49
-0.6
 74
     0
  0
LTYPE
  5
6795
330
5
100
AcDbSymbolTableRecord
100
AcDbLinetypeTableRecord
  2
D1559
 70
     0
  3
IGESIN-LineFont-D1559
 72
    65
 73
     2
 40
1.35
 49
0.75
 74
     0
 49
-0.6
 74
     0
  0
LTYPE
  5
68E2
330
5
100
AcDbSymbolTableRecord
100
AcDbLinetypeTableRecord
  2
D1101
 70
     0
  3
IGESIN-LineFont-D1101
 72
    65
 73
     6
 40
11.29999999999999
 49
8.0
 74
     0
 49
-0.6
 74
     0
 49
0.75
 74
     0
 49
-0.6
 74
     0
 49
0.75
 74
     0
 49
-0.6
 74
     0
  0
LTYPE
  5
7068
330
5
100
AcDbSymbolTableRecord
100
AcDbLinetypeTableRecord
  2
D159
 70
     0
  3
IGESIN-LineFont-D159
 72
    65
 73
     6
 40
11.29999999999999
 49
8.0
 74
     0
 49
-0.6
 74
     0
 49
0.75
 74
     0
 49
-0.6
 74
     0
 49
0.75
 74
     0
 49
-0.6
 74
     0
  0
LTYPE
  5
7069
330
5
100
AcDbSymbolTableRecord
100
AcDbLinetypeTableRecord
  2
D1485
 70
     0
  3
IGESIN-LineFont-D1485
 72
    65
 73
     2
 40
1.35
 49
0.75
 74
     0
 49
-0.6
 74
     0
  0
LTYPE
  5
7523
330
5
100
AcDbSymbolTableRecord
100
AcDbLinetypeTableRecord
  2
D501
 70
     0
  3
IGESIN-LineFont-D501
 72
    65
 73
     6
 40
11.29999999999999
 49
8.0
 74
     0
 49
-0.6
 74
     0
 49
0.75
 74
     0
 49
-0.6
 74
     0
 49
0.75
 74
     0
 49
-0.6
 74
     0
  0
LTYPE
  5
7524
330
5
100
AcDbSymbolTableRecord
100
AcDbLinetypeTableRecord
  2
D533
 70
     0
  3
IGESIN-LineFont-D533
 72
    65
 73
     2
 40
1.35
 49
0.75
 74
     0
 49
-0.6
 74
     0
  0
LTYPE
  5
7C91
330
5
100
AcDbSymbolTableRecord
100
AcDbLinetypeTableRecord
  2
D125
 70
     0
  3
IGESIN-LineFont-D125
 72
    65
 73
     2
 40
1.35
 49
0.75
 74
     0
 49
-0.6
 74
     0
  0
LTYPE
  5
7C92
330
5
100
AcDbSymbolTableRecord
100
AcDbLinetypeTableRecord
  2
D267
 70
     0
  3
IGESIN-LineFont-D267
 72
    65
 73
     6
 40
11.29999999999999
 49
8.0
 74
     0
 49
-0.6
 74
     0
 49
0.75
 74
     0
 49
-0.6
 74
     0
 49
0.75
 74
     0
 49
-0.6
 74
     0
  0
ENDTAB
  0
TABLE
  2
LAYER
  5
2
102
{ACAD_XDICTIONARY
360
83F8
102
}
330
0
100
AcDbSymbolTable
 70
    20
  0
LAYER
  5
10
102
{ACAD_XDICTIONARY
360
83C1
102
}
330
2
100
AcDbSymbolTableRecord
100
AcDbLayerTableRecord
  2
0
 70
     0
 62
     7
  6
CONTINOUS
370
    -3
390
F
347
8378
348
0
  0
LAYER
  5
2F
102
{ACAD_XDICTIONARY
360
83C3
102
}
330
2
100
AcDbSymbolTableRecord
100
AcDbLayerTableRecord
  2
10
 70
     0
 62
     4
  6
CONTINOUS
370
    -3
390
F
347
8378
348
0
  0
LAYER
  5
31
102
{ACAD_XDICTIONARY
360
83C5
102
}
330
2
100
AcDbSymbolTableRecord
100
AcDbLayerTableRecord
  2
12
 70
     0
 62
     3
  6
CONTINOUS
370
    -3
390
F
347
8378
348
0
  0
LAYER
  5
35
102
{ACAD_XDICTIONARY
360
83C7
102
}
330
2
100
AcDbSymbolTableRecord
100
AcDbLayerTableRecord
  2
16
 70
     0
 62
     6
  6
DASHDOT
370
    -3
390
F
347
8378
348
0
  0
LAYER
  5
38
102
{ACAD_XDICTIONARY
360
83C9
102
}
330
2
100
AcDbSymbolTableRecord
100
AcDbLayerTableRecord
  2
19
 70
     0
 62
     7
  6
CONTINOUS
370
    -3
390
F
347
8378
348
0
  0
LAYER
  5
3C
102
{ACAD_XDICTIONARY
360
83CB
102
}
330
2
100
AcDbSymbolTableRecord
100
AcDbLayerTableRecord
  2
11
 70
     0
 62
     1
  6
CONTINOUS
370
    -3
390
F
347
8378
348
0
  0
LAYER
  5
3D
102
{ACAD_XDICTIONARY
360
83CD
102
}
330
2
100
AcDbSymbolTableRecord
100
AcDbLayerTableRecord
  2
24
 70
     0
 62
     2
  6
CONTINOUS
370
    -3
390
F
347
8378
348
0
  0
LAYER
  5
3A2
102
{ACAD_XDICTIONARY
360
83CF
102
}
330
2
100
AcDbSymbolTableRecord
100
AcDbLayerTableRecord
  2
30
 70
     0
 62
     9
  6
CONTINUOUS
370
    -3
390
F
347
8378
348
0
  0
LAYER
  5
3A4
330
2
100
AcDbSymbolTableRecord
100
AcDbLayerTableRecord
  2
DEFPOINTS
 70
     0
 62
     7
  6
CONTINUOUS
290
     0
370
    -3
390
F
347
8378
348
0
  0
LAYER
  5
3BBA
102
{ACAD_XDICTIONARY
360
83D1
102
}
330
2
100
AcDbSymbolTableRecord
100
AcDbLayerTableRecord
  2
18
 70
     0
 62
     5
  6
DIVIDE
370
    -3
390
F
347
8378
348
0
  0
LAYER
  5
3BBB
102
{ACAD_XDICTIONARY
360
83D3
102
}
330
2
100
AcDbSymbolTableRecord
100
AcDbLayerTableRecord
  2
21
 70
     0
 62
     7
  6
CONTINUOUS
370
    -3
390
F
347
8378
348
0
  0
LAYER
  5
5797
102
{ACAD_XDICTIONARY
360
83D5
102
}
330
2
100
AcDbSymbolTableRecord
100
AcDbLayerTableRecord
  2
L210_
 70
     0
 62
     7
  6
CONTINUOUS
370
    -3
390
F
347
8378
348
0
  0
LAYER
  5
5D4D
102
{ACAD_XDICTIONARY
360
83D7
102
}
330
2
100
AcDbSymbolTableRecord
100
AcDbLayerTableRecord
  2
17
 70
     0
 62
     2
  6
DASHDOT
370
    -3
390
F
347
8378
348
0
  0
LAYER
  5
6100
102
{ACAD_XDICTIONARY
360
83D9
102
}
330
2
100
AcDbSymbolTableRecord
100
AcDbLayerTableRecord
  2
L10_
 70
     0
 62
     7
  6
CONTINUOUS
370
    -3
390
F
347
8378
348
0
  0
LAYER
  5
6796
102
{ACAD_XDICTIONARY
360
83DB
102
}
330
2
100
AcDbSymbolTableRecord
100
AcDbLayerTableRecord
  2
L0_
 70
     0
 62
     7
  6
CONTINUOUS
370
    -3
390
F
347
8378
348
0
  0
LAYER
  5
6797
102
{ACAD_XDICTIONARY
360
83DD
102
}
330
2
100
AcDbSymbolTableRecord
100
AcDbLayerTableRecord
  2
L150_
 70
     0
 62
     7
  6
CONTINUOUS
370
    -3
390
F
347
8378
348
0
  0
LAYER
  5
6798
102
{ACAD_XDICTIONARY
360
83DF
102
}
330
2
100
AcDbSymbolTableRecord
100
AcDbLayerTableRecord
  2
L225_
 70
     0
 62
     7
  6
CONTINUOUS
370
    -3
390
F
347
8378
348
0
  0
LAYER
  5
6B44
102
{ACAD_XDICTIONARY
360
83E1
102
}
330
2
100
AcDbSymbolTableRecord
100
AcDbLayerTableRecord
  2
L170_
 70
     0
 62
     7
  6
CONTINUOUS
370
    -3
390
F
347
8378
348
0
  0
LAYER
  5
706A
102
{ACAD_XDICTIONARY
360
83E3
102
}
330
2
100
AcDbSymbolTableRecord
100
AcDbLayerTableRecord
  2
L230_
 70
     0
 62
     7
  6
CONTINUOUS
370
    -3
390
F
347
8378
348
0
  0
LAYER
  5
7525
102
{ACAD_XDICTIONARY
360
83E5
102
}
330
2
100
AcDbSymbolTableRecord
100
AcDbLayerTableRecord
  2
L100_
 70
     0
 62
     7
  6
CONTINUOUS
370
    -3
390
F
347
8378
348
0
  0
ENDTAB
  0
TABLE
  2
STYLE
  5
3
330
0
100
AcDbSymbolTable
 70
     5
  0
STYLE
  5
11
330
3
100
AcDbSymbolTableRecord
100
AcDbTextStyleTableRecord
  2
STANDARD
 70
     0
 40
0.0
 41
1.0
 50
0.0
 71
     0
 42
2.0
  3
txt.shx
  4
bigfont.shx
  0
STYLE
  5
42
330
3
100
AcDbSymbolTableRecord
100
AcDbTextStyleTableRecord
  2
STANDARD1
 70
     0
 40
0.0
 41
1.0
 50
0.0
 71
     0
 42
5.0
  3
MONOTXT
  4
BIGFONT
  0
STYLE
  5
4C46
330
3
100
AcDbSymbolTableRecord
100
AcDbTextStyleTableRecord
  2

 70
     1
 40
0.0
 41
1.0
 50
0.0
 71
     0
 42
5.0
  3
ltypeshp.shx
  4

  0
STYLE
  5
4F59
330
3
100
AcDbSymbolTableRecord
100
AcDbTextStyleTableRecord
  2
SYMBOL3
 70
     0
 40
0.0
 41
1.0
 50
0.0
 71
     0
 42
0.2
  3
iges1003
  4

  0
STYLE
  5
706B
330
3
100
AcDbSymbolTableRecord
100
AcDbTextStyleTableRecord
  2
LEROY
 70
     0
 40
0.0
 41
1.0
 50
0.0
 71
     0
 42
0.2
  3
txt
  4

  0
ENDTAB
  0
TABLE
  2
VIEW
  5
6
330
0
100
AcDbSymbolTable
 70
     4
  0
VIEW
  5
230C
330
6
100
AcDbSymbolTableRecord
100
AcDbViewTableRecord
  2
OLE1
 70
     0
 40
148.9124878027714
 10
429.4976280407222
 20
2.560626997828478
 41
103.1458057716444
 11
0.0
 21
0.0
 31
1.0
 12
0.0
 22
0.0
 32
0.0
 42
50.0
 43
0.0
 44
0.0
 50
0.0
 71
     0
281
     0
 72
     0
 73
     0
348
8386
  0
VIEW
  5
230E
330
6
100
AcDbSymbolTableRecord
100
AcDbViewTableRecord
  2
OLE2
 70
     0
 40
170.7786920545775
 10
322.664969958371
 20
-5.978304054290276
 41
102.4672152327465
 11
0.0
 21
0.0
 31
1.0
 12
0.0
 22
0.0
 32
0.0
 42
50.0
 43
0.0
 44
0.0
 50
0.0
 71
     0
281
     0
 72
     0
 73
     0
348
8386
  0
VIEW
  5
23AA
330
6
100
AcDbSymbolTableRecord
100
AcDbViewTableRecord
  2
OLE3
 70
     0
 40
591.7897393182231
 10
84.79698158148218
 20
-46.09336010803995
 41
388.7920961799953
 11
0.0
 21
0.0
 31
1.0
 12
0.0
 22
0.0
 32
0.0
 42
50.0
 43
0.0
 44
0.0
 50
0.0
 71
     0
281
     0
 72
     0
 73
     0
348
8386
  0
ENDTAB
  0
TABLE
  2
UCS
  5
7
330
0
100
AcDbSymbolTable
 70
     0
  0
ENDTAB
  0
TABLE
  2
APPID
  5
9
330
0
100
AcDbSymbolTable
 70
     4
  0
APPID
  5
12
330
9
100
AcDbSymbolTableRecord
100
AcDbRegAppTableRecord
  2
ACAD
 70
     0
  0
APPID
  5
ECD
330
9
100
AcDbSymbolTableRecord
100
AcDbRegAppTableRecord
  2
CONTENTBLOCKICON
 70
     0
  0
APPID
  5
83B9
330
9
100
AcDbSymbolTableRecord
100
AcDbRegAppTableRecord
  2
ACAD_EXEMPT_FROM_CAD_STANDARDS
 70
     0
  0
APPID
  5
83F0
330
9
100
AcDbSymbolTableRecord
100
AcDbRegAppTableRecord
  2
ACAD_NAV_VCDISPLAY
 70
     0
  0
ENDTAB
  0
TABLE
  2
DIMSTYLE
  5
A
330
0
100
AcDbSymbolTable
 70
     2
100
AcDbDimStyleTable
 71
     1
340
175
  0
DIMSTYLE
105
175
102
{ACAD_REACTORS
330
53C7
330
53C8
330
53C9
330
53CB
330
53CC
330
53D2
330
53D3
330
5F77
330
78DB
330
78E8
330
78F5
330
7902
330
7929
330
793F
330
794C
330
7959
330
7E45
330
7E52
330
7E5F
330
7E6C
330
7E81
330
7E8E
330
7E9B
330
7EA7
330
7EB4
330
7EC1
330
7ECE
330
7EDB
330
7EE8
330
7F3C
330
7F49
330
7F5F
330
80BF
330
80CC
330
80D9
330
5739
102
}
330
A
100
AcDbSymbolTableRecord
100
AcDbDimStyleTableRecord
  2
STANDARD
 70
     0
 41
2.0
 42
10.0
 43
0.5
 44
0.5
 73
     0
 77
     3
 78
    12
140
10.0
147
1.0
271
     1
272
     1
340
11
341
3B2
342
3B2
  0
ENDTAB
  0
TABLE
  2
BLOCK_RECORD
  5
1
330
0
100
AcDbSymbolTable
 70
    50
  0
BLOCK_RECORD
  5
1E
102
{ACAD_XDICTIONARY
360
178
102
}
330
1
100
AcDbSymbolTableRecord
100
AcDbBlockTableRecord
  2
*MODEL_SPACE
340
835A
 70
     0
280
     1
281
     0
  0
BLOCK_RECORD
  5
1A
102
{ACAD_XDICTIONARY
360
17A
102
}
330
1
100
AcDbSymbolTableRecord
100
AcDbBlockTableRecord
  2
*PAPER_SPACE
340
835B
 70
     0
280
     1
281
     0
  0
BLOCK_RECORD
  5
3B2
330
1
100
AcDbSymbolTableRecord
100
AcDbBlockTableRecord
  2
_OPEN
340
0
102
{BLKREFS
331
7FBD
331
7FBE
331
7FC6
331
7FC7
331
7FCF
331
7FD0
331
8320
331
8321
331
7FE3
331
7FE4
331
8328
331
8329
331
7FF5
331
7FFD
331
7FFE
331
8331
331
8332
331
800F
331
8010
331
833A
331
833B
331
8343
331
8344
331
80A1
331
80A2
331
8034
331
8035
331
8079
331
807A
331
8048
331
8049
331
82B8
331
82B9
331
834C
331
834D
331
82E4
331
82E5
331
80C4
331
80C5
331
80D1
331
80D2
331
8104
331
8105
331
82AD
331
82AE
331
82A4
331
82A5
331
5F6E
331
5F6F
331
7F76
331
7F77
331
7F7F
331
7F80
331
7F88
331
7F89
331
7F91
331
7F92
331
7F9A
331
7F9B
331
7FA3
331
7FA4
331
8314
331
8315
331
7FB5
102
}
 70
     0
280
     1
281
     0
  0
BLOCK_RECORD
  5
5372
330
1
100
AcDbSymbolTableRecord
100
AcDbBlockTableRecord
  2
*D1
340
0
 70
     0
280
     1
281
     0
  0
BLOCK_RECORD
  5
537E
330
1
100
AcDbSymbolTableRecord
100
AcDbBlockTableRecord
  2
*D2
340
0
 70
     0
280
     1
281
     0
  0
BLOCK_RECORD
  5
538A
330
1
100
AcDbSymbolTableRecord
100
AcDbBlockTableRecord
  2
*D3
340
0
 70
     0
280
     1
281
     0
  0
BLOCK_RECORD
  5
5396
330
1
100
AcDbSymbolTableRecord
100
AcDbBlockTableRecord
  2
*D4
340
0
 70
     0
280
     1
281
     0
  0
BLOCK_RECORD
  5
53A2
330
1
100
AcDbSymbolTableRecord
100
AcDbBlockTableRecord
  2
*D5
340
0
 70
     0
280
     1
281
     0
  0
BLOCK_RECORD
  5
53AE
330
1
100
AcDbSymbolTableRecord
100
AcDbBlockTableRecord
  2
*D6
340
0
 70
     0
280
     1
281
     0
  0
BLOCK_RECORD
  5
53BA
330
1
100
AcDbSymbolTableRecord
100
AcDbBlockTableRecord
  2
*D7
340
0
 70
     0
280
     1
281
     0
  0
BLOCK_RECORD
  5
53C6
330
1
100
AcDbSymbolTableRecord
100
AcDbBlockTableRecord
  2
A$C18746642
340
0
 70
     0
280
     1
281
     0
  0
BLOCK_RECORD
  5
572B
330
1
100
AcDbSymbolTableRecord
100
AcDbBlockTableRecord
  2
B2383
340
0
102
{BLKREFS
331
573A
102
}
 70
     0
280
     1
281
     0
  0
BLOCK_RECORD
  5
5730
330
1
100
AcDbSymbolTableRecord
100
AcDbBlockTableRecord
  2
*D10
340
0
 70
     0
280
     1
281
     0
  0
BLOCK_RECORD
  5
5738
330
1
100
AcDbSymbolTableRecord
100
AcDbBlockTableRecord
  2
B2387
340
0
 70
     0
280
     1
281
     0
  0
BLOCK_RECORD
  5
5F6A
330
1
100
AcDbSymbolTableRecord
100
AcDbBlockTableRecord
  2
*D12
340
0
 70
     0
280
     1
281
     0
  0
BLOCK_RECORD
  5
5F76
330
1
100
AcDbSymbolTableRecord
100
AcDbBlockTableRecord
  2
A$C59C36ED1
340
0
 70
     0
280
     1
281
     0
  0
BLOCK_RECORD
  5
6CB9
330
1
100
AcDbSymbolTableRecord
100
AcDbBlockTableRecord
  2
REVDATE
340
0
 70
     0
280
     1
281
     0
  0
BLOCK_RECORD
  5
7519
330
1
100
AcDbSymbolTableRecord
100
AcDbBlockTableRecord
  2
B4617
340
0
102
{BLKREFS
331
751F
102
}
 70
     0
280
     1
281
     0
  0
BLOCK_RECORD
  5
751E
330
1
100
AcDbSymbolTableRecord
100
AcDbBlockTableRecord
  2
B4619
340
0
 70
     0
280
     1
281
     0
  0
BLOCK_RECORD
  5
78DC
330
1
100
AcDbSymbolTableRecord
100
AcDbBlockTableRecord
  2
*D17
340
0
 70
     0
280
     1
281
     0
  0
BLOCK_RECORD
  5
78E9
330
1
100
AcDbSymbolTableRecord
100
AcDbBlockTableRecord
  2
*D18
340
0
 70
     0
280
     1
281
     0
  0
BLOCK_RECORD
  5
78F6
330
1
100
AcDbSymbolTableRecord
100
AcDbBlockTableRecord
  2
*D19
340
0
 70
     0
280
     1
281
     0
  0
BLOCK_RECORD
  5
7903
330
1
100
AcDbSymbolTableRecord
100
AcDbBlockTableRecord
  2
*D20
340
0
 70
     0
280
     1
281
     0
  0
BLOCK_RECORD
  5
792A
330
1
100
AcDbSymbolTableRecord
100
AcDbBlockTableRecord
  2
*D21
340
0
 70
     0
280
     1
281
     0
  0
BLOCK_RECORD
  5
7940
330
1
100
AcDbSymbolTableRecord
100
AcDbBlockTableRecord
  2
*D22
340
0
 70
     0
280
     1
281
     0
  0
BLOCK_RECORD
  5
794D
330
1
100
AcDbSymbolTableRecord
100
AcDbBlockTableRecord
  2
*D23
340
0
 70
     0
280
     1
281
     0
  0
BLOCK_RECORD
  5
795A
330
1
100
AcDbSymbolTableRecord
100
AcDbBlockTableRecord
  2
*D24
340
0
 70
     0
280
     1
281
     0
  0
BLOCK_RECORD
  5
7E46
330
1
100
AcDbSymbolTableRecord
100
AcDbBlockTableRecord
  2
*D25
340
0
 70
     0
280
     1
281
     0
  0
BLOCK_RECORD
  5
7E53
330
1
100
AcDbSymbolTableRecord
100
AcDbBlockTableRecord
  2
*D26
340
0
 70
     0
280
     1
281
     0
  0
BLOCK_RECORD
  5
7E60
330
1
100
AcDbSymbolTableRecord
100
AcDbBlockTableRecord
  2
*D27
340
0
 70
     0
280
     1
281
     0
  0
BLOCK_RECORD
  5
7E6D
330
1
100
AcDbSymbolTableRecord
100
AcDbBlockTableRecord
  2
*D28
340
0
 70
     0
280
     1
281
     0
  0
BLOCK_RECORD
  5
7E82
330
1
100
AcDbSymbolTableRecord
100
AcDbBlockTableRecord
  2
*D29
340
0
 70
     0
280
     1
281
     0
  0
BLOCK_RECORD
  5
7E8F
330
1
100
AcDbSymbolTableRecord
100
AcDbBlockTableRecord
  2
*D30
340
0
 70
     0
280
     1
281
     0
  0
BLOCK_RECORD
  5
7E9C
330
1
100
AcDbSymbolTableRecord
100
AcDbBlockTableRecord
  2
*D31
340
0
 70
     0
280
     1
281
     0
  0
BLOCK_RECORD
  5
7EA8
330
1
100
AcDbSymbolTableRecord
100
AcDbBlockTableRecord
  2
*D32
340
0
 70
     0
280
     1
281
     0
  0
BLOCK_RECORD
  5
7EB5
330
1
100
AcDbSymbolTableRecord
100
AcDbBlockTableRecord
  2
*D33
340
0
 70
     0
280
     1
281
     0
  0
BLOCK_RECORD
  5
7EC2
330
1
100
AcDbSymbolTableRecord
100
AcDbBlockTableRecord
  2
*D34
340
0
 70
     0
280
     1
281
     0
  0
BLOCK_RECORD
  5
7ECF
330
1
100
AcDbSymbolTableRecord
100
AcDbBlockTableRecord
  2
*D35
340
0
 70
     0
280
     1
281
     0
  0
BLOCK_RECORD
  5
7EDC
330
1
100
AcDbSymbolTableRecord
100
AcDbBlockTableRecord
  2
*D36
340
0
 70
     0
280
     1
281
     0
  0
BLOCK_RECORD
  5
7EE9
330
1
100
AcDbSymbolTableRecord
100
AcDbBlockTableRecord
  2
*D37
340
0
 70
     0
280
     1
281
     0
  0
BLOCK_RECORD
  5
7EFF
330
1
100
AcDbSymbolTableRecord
100
AcDbBlockTableRecord
  2
*D38
340
0
 70
     0
280
     1
281
     0
  0
BLOCK_RECORD
  5
7F23
330
1
100
AcDbSymbolTableRecord
100
AcDbBlockTableRecord
  2
*D39
340
0
 70
     0
280
     1
281
     0
  0
BLOCK_RECORD
  5
7F30
330
1
100
AcDbSymbolTableRecord
100
AcDbBlockTableRecord
  2
*D40
340
0
 70
     0
280
     1
281
     0
  0
BLOCK_RECORD
  5
7F3D
330
1
100
AcDbSymbolTableRecord
100
AcDbBlockTableRecord
  2
*D41
340
0
 70
     0
280
     1
281
     0
  0
BLOCK_RECORD
  5
7F4A
330
1
100
AcDbSymbolTableRecord
100
AcDbBlockTableRecord
  2
*D42
340
0
 70
     0
280
     1
281
     0
  0
BLOCK_RECORD
  5
7F60
330
1
100
AcDbSymbolTableRecord
100
AcDbBlockTableRecord
  2
*D43
340
0
 70
     0
280
     1
281
     0
  0
BLOCK_RECORD
  5
80C0
330
1
100
AcDbSymbolTableRecord
100
AcDbBlockTableRecord
  2
*D44
340
0
 70
     0
280
     1
281
     0
  0
BLOCK_RECORD
  5
80CD
330
1
100
AcDbSymbolTableRecord
100
AcDbBlockTableRecord
  2
*D45
340
0
 70
     0
280
     1
281
     0
  0
BLOCK_RECORD
  5
80DA
330
1
100
AcDbSymbolTableRecord
100
AcDbBlockTableRecord
  2
*D46
340
0
 70
     0
280
     1
281
     0
  0
BLOCK_RECORD
  5
8264
330
1
100
AcDbSymbolTableRecord
100
AcDbBlockTableRecord
  2
*D47
340
0
 70
     0
280
     1
281
     0
  0
BLOCK_RECORD
  5
8270
330
1
100
AcDbSymbolTableRecord
100
AcDbBlockTableRecord
  2
*D48
340
0
 70
     0
280
     1
281
     0
  0
ENDTAB
  0
ENDSEC
  0
SECTION
  2
BLOCKS
  0
BLOCK
  5
1F
330
1E
100
AcDbEntity
  8
0
100
AcDbBlockBegin
  2
*MODEL_SPACE
 70
     0
 10
0.0
 20
0.0
 30
0.0
  3
*MODEL_SPACE
  1

  0
ENDBLK
  5
20
330
1E
100
AcDbEntity
  8
0
100
AcDbBlockEnd
  0
BLOCK
  5
1B
330
1A
100
AcDbEntity
 67
     1
  8
0
100
AcDbBlockBegin
  2
*PAPER_SPACE
 70
     0
 10
0.0
 20
0.0
 30
0.0
  3
*PAPER_SPACE
  1

  0
ENDBLK
  5
1C
330
1A
100
AcDbEntity
 67
     1
  8
0
100
AcDbBlockEnd
  0
BLOCK
  5
3B6
330
3B2
100
AcDbEntity
  8
0
100
AcDbBlockBegin
  2
_OPEN
 70
     0
 10
0.0
 20
0.0
 30
0.0
  3
_OPEN
  1

  0
LINE
  5
3B3
330
3B2
100
AcDbEntity
  8
30
  6
Continuous
 62
     0
100
AcDbLine
 10
-1.0
 20
0.1666666666666666
 30
0.0
 11
0.0
 21
0.0
 31
0.0
  0
LINE
  5
3B4
330
3B2
100
AcDbEntity
  8
30
  6
Continuous
 62
     0
100
AcDbLine
 10
-1.0
 20
-0.1666666666666666
 30
0.0
 11
0.0
 21
0.0
 31
0.0
  0
LINE
  5
3B5
330
3B2
100
AcDbEntity
  8
30
  6
Continuous
 62
     0
100
AcDbLine
 10
0.0
 20
0.0
 30
0.0
 11
-1.0
 21
0.0
 31
0.0
  0
ENDBLK
  5
3B7
330
3B2
100
AcDbEntity
  8
0
100
AcDbBlockEnd
  0
BLOCK
  5
537C
330
5372
100
AcDbEntity
  8
0
100
AcDbBlockBegin
  2
*D1
 70
     1
 10
0.0
 20
0.0
 30
0.0
  3
*D1
  1

  0
LINE
  5
5373
330
5372
100
AcDbEntity
  8
10
 62
     0
100
AcDbLine
 10
1408.1479492188
 20
471.74888305664
 30
0.0
 11
1408.1479492188
 21
574.0164868164099
 31
0.0
  0
LINE
  5
5374
330
5372
100
AcDbEntity
  8
10
 62
     0
100
AcDbLine
 10
1515.6480712891
 20
408.7488525390599
 30
0.0
 11
1515.6480712891
 21
574.0164868164099
 31
0.0
  0
LINE
  5
5375
330
5372
100
AcDbEntity
  8
10
 62
     0
100
AcDbLine
 10
1408.3279492188
 20
573.83648681641
 30
0.0
 11
1515.4680712891
 21
573.83648681641
 31
0.0
  0
MTEXT
  5
5376
330
5372
100
AcDbEntity
  8
10
 62
     0
100
AcDbMText
 10
1456.951817203369
 20
587.33648681641
 30
0.0
 40
0.18
 41
0.0
 46
0.0
 71
     5
 72
     1
  1
\A1;107.5
  7
SYMBOL3
 73
     1
 44
1.0
1001
ACAD
1000
MTEXTBEGIN
1070
    73
1070
     1
1070
    44
1040
1.0
1070
    74
1070
     0
1000
MTEXTEND
1000
MTEXTBEGIN
1070
    73
1070
     1
1070
    44
1040
1.0
1070
    74
1070
     0
1000
MTEXTEND
1000
MTEXTBEGIN
1070
    73
1070
     1
1070
    44
1040
1.0
1070
    74
1070
     0
1000
MTEXTEND
  0
SOLID
  5
5377
330
5372
100
AcDbEntity
  8
10
 62
     0
100
AcDbTrace
 10
1408.3279492188
 20
573.8664868164097
 30
0.0
 11
1408.3279492188
 21
573.80648681641
 31
0.0
 12
1408.1479492188
 22
573.83648681641
 32
0.0
 13
1408.1479492188
 23
573.83648681641
 33
0.0
  0
SOLID
  5
5378
330
5372
100
AcDbEntity
  8
10
 62
     0
100
AcDbTrace
 10
1515.4680712891
 20
573.8664868164097
 30
0.0
 11
1515.4680712891
 21
573.80648681641
 31
0.0
 12
1515.6480712891
 22
573.83648681641
 32
0.0
 13
1515.6480712891
 23
573.83648681641
 33
0.0
  0
POINT
  5
5379
330
5372
100
AcDbEntity
  8
DEFPOINTS
 62
     0
100
AcDbPoint
 10
1408.1479492188
 20
471.68638305664
 30
0.0
  0
POINT
  5
537A
330
5372
100
AcDbEntity
  8
DEFPOINTS
 62
     0
100
AcDbPoint
 10
1515.6480712891
 20
408.68635253906
 30
0.0
  0
POINT
  5
537B
330
5372
100
AcDbEntity
  8
DEFPOINTS
 62
     0
100
AcDbPoint
 10
1515.6480712891
 20
573.83648681641
 30
0.0
  0
ENDBLK
  5
537D
330
5372
100
AcDbEntity
  8
0
100
AcDbBlockEnd
  0
BLOCK
  5
5388
330
537E
100
AcDbEntity
  8
0
100
AcDbBlockBegin
  2
*D2
 70
     1
 10
0.0
 20
0.0
 30
0.0
  3
*D2
  1

  0
LINE
  5
537F
330
537E
100
AcDbEntity
  8
10
 62
     0
100
AcDbLine
 10
1408.1479492188
 20
471.74888305664
 30
0.0
 11
1408.1479492188
 21
523.8737255859398
 31
0.0
  0
LINE
  5
5380
330
537E
100
AcDbEntity
  8
10
 62
     0
100
AcDbLine
 10
1495.1480712891
 20
448.62861328125
 30
0.0
 11
1495.1480712891
 21
523.87372558594
 31
0.0
  0
LINE
  5
5381
330
537E
100
AcDbEntity
  8
10
 62
     0
100
AcDbLine
 10
1408.3279492188
 20
523.69372558594
 30
0.0
 11
1494.9680712891
 21
523.69372558594
 31
0.0
  0
MTEXT
  5
5382
330
537E
100
AcDbEntity
  8
10
 62
     0
100
AcDbMText
 10
1451.607153789425
 20
537.19372558594
 30
0.0
 40
0.18
 41
0.0
 46
0.0
 71
     5
 72
     1
  1
\A1;87
  7
SYMBOL3
 73
     1
 44
1.0
1001
ACAD
1000
MTEXTBEGIN
1070
    73
1070
     1
1070
    44
1040
1.0
1070
    74
1070
     0
1000
MTEXTEND
1000
MTEXTBEGIN
1070
    73
1070
     1
1070
    44
1040
1.0
1070
    74
1070
     0
1000
MTEXTEND
1000
MTEXTBEGIN
1070
    73
1070
     1
1070
    44
1040
1.0
1070
    74
1070
     0
1000
MTEXTEND
  0
SOLID
  5
5383
330
537E
100
AcDbEntity
  8
10
 62
     0
100
AcDbTrace
 10
1408.3279492188
 20
523.7237255859397
 30
0.0
 11
1408.3279492188
 21
523.66372558594
 31
0.0
 12
1408.1479492188
 22
523.69372558594
 32
0.0
 13
1408.1479492188
 23
523.69372558594
 33
0.0
  0
SOLID
  5
5384
330
537E
100
AcDbEntity
  8
10
 62
     0
100
AcDbTrace
 10
1494.9680712891
 20
523.7237255859397
 30
0.0
 11
1494.9680712891
 21
523.66372558594
 31
0.0
 12
1495.1480712891
 22
523.69372558594
 32
0.0
 13
1495.1480712891
 23
523.69372558594
 33
0.0
  0
POINT
  5
5385
330
537E
100
AcDbEntity
  8
DEFPOINTS
 62
     0
100
AcDbPoint
 10
1408.1479492188
 20
471.68638305664
 30
0.0
  0
POINT
  5
5386
330
537E
100
AcDbEntity
  8
DEFPOINTS
 62
     0
100
AcDbPoint
 10
1495.1480712891
 20
448.56611328125
 30
0.0
  0
POINT
  5
5387
330
537E
100
AcDbEntity
  8
DEFPOINTS
 62
     0
100
AcDbPoint
 10
1495.1480712891
 20
523.69372558594
 30
0.0
  0
ENDBLK
  5
5389
330
537E
100
AcDbEntity
  8
0
100
AcDbBlockEnd
  0
BLOCK
  5
5394
330
538A
100
AcDbEntity
  8
0
100
AcDbBlockBegin
  2
*D3
 70
     1
 10
0.0
 20
0.0
 30
0.0
  3
*D3
  1

  0
LINE
  5
538B
330
538A
100
AcDbEntity
  8
10
 62
     0
100
AcDbLine
 10
1408.1479492188
 20
225.8366577148398
 30
0.0
 11
1408.1479492188
 21
164.2525866699199
 31
0.0
  0
LINE
  5
538C
330
538A
100
AcDbEntity
  8
10
 62
     0
100
AcDbLine
 10
1393.1479492188
 20
259.83665771484
 30
0.0
 11
1393.1479492188
 21
164.2525866699199
 31
0.0
  0
LINE
  5
538D
330
538A
100
AcDbEntity
  8
10
 62
     0
100
AcDbLine
 10
1407.967949218799
 20
164.4325866699199
 30
0.0
 11
1393.3279492188
 21
164.4325866699199
 31
0.0
  0
MTEXT
  5
538E
330
538A
100
AcDbEntity
  8
10
 62
     0
100
AcDbMText
 10
1360.43980773724
 20
177.93258666992
 30
0.0
 40
0.18
 41
0.0
 46
0.0
 71
     5
 72
     1
  1
\A1;15
  7
SYMBOL3
 73
     1
 44
1.0
1001
ACAD
1000
MTEXTBEGIN
1070
    73
1070
     1
1070
    44
1040
1.0
1070
    74
1070
     0
1000
MTEXTEND
1000
MTEXTBEGIN
1070
    73
1070
     1
1070
    44
1040
1.0
1070
    74
1070
     0
1000
MTEXTEND
1000
MTEXTBEGIN
1070
    73
1070
     1
1070
    44
1040
1.0
1070
    74
1070
     0
1000
MTEXTEND
  0
SOLID
  5
538F
330
538A
100
AcDbEntity
  8
10
 62
     0
100
AcDbTrace
 10
1407.967949218799
 20
164.4625866699199
 30
0.0
 11
1407.967949218799
 21
164.40258666992
 31
0.0
 12
1408.1479492188
 22
164.4325866699199
 32
0.0
 13
1408.1479492188
 23
164.4325866699199
 33
0.0
  0
SOLID
  5
5390
330
538A
100
AcDbEntity
  8
10
 62
     0
100
AcDbTrace
 10
1393.3279492188
 20
164.4625866699199
 30
0.0
 11
1393.3279492188
 21
164.40258666992
 31
0.0
 12
1393.1479492188
 22
164.4325866699199
 32
0.0
 13
1393.1479492188
 23
164.4325866699199
 33
0.0
  0
POINT
  5
5391
330
538A
100
AcDbEntity
  8
DEFPOINTS
 62
     0
100
AcDbPoint
 10
1408.1479492188
 20
225.8991577148399
 30
0.0
  0
POINT
  5
5392
330
538A
100
AcDbEntity
  8
DEFPOINTS
 62
     0
100
AcDbPoint
 10
1393.1479492188
 20
259.89915771484
 30
0.0
  0
POINT
  5
5393
330
538A
100
AcDbEntity
  8
DEFPOINTS
 62
     0
100
AcDbPoint
 10
1393.1479492188
 20
164.4325866699199
 30
0.0
  0
ENDBLK
  5
5395
330
538A
100
AcDbEntity
  8
0
100
AcDbBlockEnd
  0
BLOCK
  5
53A0
330
5396
100
AcDbEntity
  8
0
100
AcDbBlockBegin
  2
*D4
 70
     1
 10
0.0
 20
0.0
 30
0.0
  3
*D4
  1

  0
LINE
  5
5397
330
5396
100
AcDbEntity
  8
10
 62
     0
100
AcDbLine
 10
1377.1479492188
 20
367.6677734375
 30
0.0
 11
1377.1479492188
 21
115.7286914062499
 31
0.0
  0
LINE
  5
5398
330
5396
100
AcDbEntity
  8
10
 62
     0
100
AcDbLine
 10
1408.1479492188
 20
225.8366577148398
 30
0.0
 11
1408.1479492188
 21
115.7286914062499
 31
0.0
  0
LINE
  5
5399
330
5396
100
AcDbEntity
  8
10
 62
     0
100
AcDbLine
 10
1377.3279492188
 20
115.9086914062499
 30
0.0
 11
1407.967949218799
 21
115.9086914062499
 31
0.0
  0
MTEXT
  5
539A
330
5396
100
AcDbEntity
  8
10
 62
     0
100
AcDbMText
 10
1390.672659997064
 20
129.4086914062499
 30
0.0
 40
0.18
 41
0.0
 46
0.0
 71
     5
 72
     1
  1
\A1;31
  7
SYMBOL3
 73
     1
 44
1.0
1001
ACAD
1000
MTEXTBEGIN
1070
    73
1070
     1
1070
    44
1040
1.0
1070
    74
1070
     0
1000
MTEXTEND
1000
MTEXTBEGIN
1070
    73
1070
     1
1070
    44
1040
1.0
1070
    74
1070
     0
1000
MTEXTEND
1000
MTEXTBEGIN
1070
    73
1070
     1
1070
    44
1040
1.0
1070
    74
1070
     0
1000
MTEXTEND
  0
SOLID
  5
539B
330
5396
100
AcDbEntity
  8
10
 62
     0
100
AcDbTrace
 10
1377.3279492188
 20
115.9386914062499
 30
0.0
 11
1377.3279492188
 21
115.87869140625
 31
0.0
 12
1377.1479492188
 22
115.9086914062499
 32
0.0
 13
1377.1479492188
 23
115.9086914062499
 33
0.0
  0
SOLID
  5
539C
330
5396
100
AcDbEntity
  8
10
 62
     0
100
AcDbTrace
 10
1407.967949218799
 20
115.9386914062499
 30
0.0
 11
1407.967949218799
 21
115.87869140625
 31
0.0
 12
1408.1479492188
 22
115.9086914062499
 32
0.0
 13
1408.1479492188
 23
115.9086914062499
 33
0.0
  0
POINT
  5
539D
330
5396
100
AcDbEntity
  8
DEFPOINTS
 62
     0
100
AcDbPoint
 10
1377.1479492188
 20
367.7302734374999
 30
0.0
  0
POINT
  5
539E
330
5396
100
AcDbEntity
  8
DEFPOINTS
 62
     0
100
AcDbPoint
 10
1408.1479492188
 20
225.8991577148399
 30
0.0
  0
POINT
  5
539F
330
5396
100
AcDbEntity
  8
DEFPOINTS
 62
     0
100
AcDbPoint
 10
1408.1479492188
 20
115.9086914062499
 30
0.0
  0
ENDBLK
  5
53A1
330
5396
100
AcDbEntity
  8
0
100
AcDbBlockEnd
  0
BLOCK
  5
53AC
330
53A2
100
AcDbEntity
  8
0
100
AcDbBlockBegin
  2
*D5
 70
     1
 10
0.0
 20
0.0
 30
0.0
  3
*D5
  1

  0
LINE
  5
53A3
330
53A2
100
AcDbEntity
  8
10
 62
     0
100
AcDbLine
 10
1542.604077148399
 20
415.792755129682
 30
0.0
 11
1629.719178712973
 21
415.7927589376051
 31
0.0
  0
LINE
  5
53A4
330
53A2
100
AcDbEntity
  8
10
 62
     0
100
AcDbLine
 10
1542.604077148399
 20
281.792755129682
 30
0.0
 11
1629.7191845703
 21
281.7927589376052
 31
0.0
  0
LINE
  5
53A5
330
53A2
100
AcDbEntity
  8
10
 62
     0
100
AcDbLine
 10
1629.539178720841
 20
415.612758929737
 30
0.0
 11
1629.539184562432
 21
281.9727589297373
 31
0.0
  0
MTEXT
  5
53A6
330
53A2
100
AcDbEntity
  8
10
 62
     0
100
AcDbMText
 10
1616.039184719544
 20
342.9059393539333
 30
0.0
 40
0.18
 41
0.0
 46
0.0
 71
     5
 72
     1
  1
\A1;134
  7
SYMBOL3
 11
-0.0000000437114009
 21
0.9999999999999989
 31
0.0
 73
     1
 44
1.0
1001
ACAD
1000
MTEXTBEGIN
1070
    73
1070
     1
1070
    44
1040
1.0
1070
    74
1070
     0
1000
MTEXTEND
1000
MTEXTBEGIN
1070
    73
1070
     1
1070
    44
1040
1.0
1070
    74
1070
     0
1000
MTEXTEND
1000
MTEXTBEGIN
1070
    73
1070
     1
1070
    44
1040
1.0
1070
    74
1070
     0
1000
MTEXTEND
  0
SOLID
  5
53A7
330
53A2
100
AcDbEntity
  8
10
 62
     0
100
AcDbTrace
 10
1629.509178720841
 20
415.6127589284258
 30
0.0
 11
1629.56917872084
 21
415.6127589310485
 31
0.0
 12
1629.539178712973
 22
415.792758929737
 32
0.0
 13
1629.539178712973
 23
415.792758929737
 33
0.0
  0
SOLID
  5
53A8
330
53A2
100
AcDbEntity
  8
10
 62
     0
100
AcDbTrace
 10
1629.509184562432
 20
281.9727589284259
 30
0.0
 11
1629.569184562432
 21
281.9727589310486
 31
0.0
 12
1629.5391845703
 22
281.7927589297373
 32
0.0
 13
1629.5391845703
 23
281.7927589297373
 33
0.0
  0
POINT
  5
53A9
330
53A2
100
AcDbEntity
  8
DEFPOINTS
 62
     0
100
AcDbPoint
 10
1542.5415771484
 20
415.7927551269501
 30
0.0
  0
POINT
  5
53AA
330
53A2
100
AcDbEntity
  8
DEFPOINTS
 62
     0
100
AcDbPoint
 10
1542.5415771484
 20
281.7927551269501
 30
0.0
  0
POINT
  5
53AB
330
53A2
100
AcDbEntity
  8
DEFPOINTS
 62
     0
100
AcDbPoint
 10
1629.5391845703
 20
281.7927589297373
 30
0.0
  0
ENDBLK
  5
53AD
330
53A2
100
AcDbEntity
  8
0
100
AcDbBlockEnd
  0
BLOCK
  5
53B8
330
53AE
100
AcDbEntity
  8
0
100
AcDbBlockBegin
  2
*D6
 70
     1
 10
0.0
 20
0.0
 30
0.0
  3
*D6
  1

  0
LINE
  5
53AF
330
53AE
100
AcDbEntity
  8
10
 62
     0
100
AcDbLine
 10
1408.1479492188
 20
225.8366577148398
 30
0.0
 11
1408.1479492188
 21
116.1434558105499
 31
0.0
  0
LINE
  5
53B0
330
53AE
100
AcDbEntity
  8
10
 62
     0
100
AcDbLine
 10
1565.6480712891
 20
288.8366577148398
 30
0.0
 11
1565.6480712891
 21
116.1434558105499
 31
0.0
  0
LINE
  5
53B1
330
53AE
100
AcDbEntity
  8
10
 62
     0
100
AcDbLine
 10
1408.3279492188
 20
116.3234558105499
 30
0.0
 11
1565.4680712891
 21
116.3234558105499
 31
0.0
  0
MTEXT
  5
53B2
330
53AE
100
AcDbEntity
  8
10
 62
     0
100
AcDbMText
 10
1483.783238101872
 20
129.82345581055
 30
0.0
 40
0.18
 41
0.0
 46
0.0
 71
     5
 72
     1
  1
\A1;157.5
  7
SYMBOL3
 73
     1
 44
1.0
1001
ACAD
1000
MTEXTBEGIN
1070
    73
1070
     1
1070
    44
1040
1.0
1070
    74
1070
     0
1000
MTEXTEND
1000
MTEXTBEGIN
1070
    73
1070
     1
1070
    44
1040
1.0
1070
    74
1070
     0
1000
MTEXTEND
1000
MTEXTBEGIN
1070
    73
1070
     1
1070
    44
1040
1.0
1070
    74
1070
     0
1000
MTEXTEND
  0
SOLID
  5
53B3
330
53AE
100
AcDbEntity
  8
10
 62
     0
100
AcDbTrace
 10
1408.3279492188
 20
116.3534558105496
 30
0.0
 11
1408.3279492188
 21
116.2934558105499
 31
0.0
 12
1408.1479492188
 22
116.3234558105499
 32
0.0
 13
1408.1479492188
 23
116.3234558105499
 33
0.0
  0
SOLID
  5
53B4
330
53AE
100
AcDbEntity
  8
10
 62
     0
100
AcDbTrace
 10
1565.4680712891
 20
116.3534558105496
 30
0.0
 11
1565.4680712891
 21
116.2934558105499
 31
0.0
 12
1565.6480712891
 22
116.3234558105499
 32
0.0
 13
1565.6480712891
 23
116.3234558105499
 33
0.0
  0
POINT
  5
53B5
330
53AE
100
AcDbEntity
  8
DEFPOINTS
 62
     0
100
AcDbPoint
 10
1408.1479492188
 20
225.8991577148399
 30
0.0
  0
POINT
  5
53B6
330
53AE
100
AcDbEntity
  8
DEFPOINTS
 62
     0
100
AcDbPoint
 10
1565.6480712891
 20
288.89915771484
 30
0.0
  0
POINT
  5
53B7
330
53AE
100
AcDbEntity
  8
DEFPOINTS
 62
     0
100
AcDbPoint
 10
1565.6480712891
 20
116.3234558105499
 30
0.0
  0
ENDBLK
  5
53B9
330
53AE
100
AcDbEntity
  8
0
100
AcDbBlockEnd
  0
BLOCK
  5
53C4
330
53BA
100
AcDbEntity
  8
0
100
AcDbBlockBegin
  2
*D7
 70
     1
 10
0.0
 20
0.0
 30
0.0
  3
*D7
  1

  0
LINE
  5
53BB
330
53BA
100
AcDbEntity
  8
10
 62
     0
100
AcDbLine
 10
1408.1479492188
 20
225.8366577148398
 30
0.0
 11
1408.1479492188
 21
164.2525866699199
 31
0.0
  0
LINE
  5
53BC
330
53BA
100
AcDbEntity
  8
10
 62
     0
100
AcDbLine
 10
1545.148193359399
 20
248.9568664550799
 30
0.0
 11
1545.148193359399
 21
164.2525866699199
 31
0.0
  0
LINE
  5
53BD
330
53BA
100
AcDbEntity
  8
10
 62
     0
100
AcDbLine
 10
1408.3279492188
 20
164.4325866699199
 30
0.0
 11
1544.9681933594
 21
164.4325866699199
 31
0.0
  0
MTEXT
  5
53BE
330
53BA
100
AcDbEntity
  8
10
 62
     0
100
AcDbMText
 10
1472.349887305842
 20
177.9325866699198
 30
0.0
 40
0.18
 41
0.0
 46
0.0
 71
     5
 72
     1
  1
\A1;137
  7
SYMBOL3
 73
     1
 44
1.0
1001
ACAD
1000
MTEXTBEGIN
1070
    73
1070
     1
1070
    44
1040
1.0
1070
    74
1070
     0
1000
MTEXTEND
1000
MTEXTBEGIN
1070
    73
1070
     1
1070
    44
1040
1.0
1070
    74
1070
     0
1000
MTEXTEND
1000
MTEXTBEGIN
1070
    73
1070
     1
1070
    44
1040
1.0
1070
    74
1070
     0
1000
MTEXTEND
  0
SOLID
  5
53BF
330
53BA
100
AcDbEntity
  8
10
 62
     0
100
AcDbTrace
 10
1408.3279492188
 20
164.4625866699199
 30
0.0
 11
1408.3279492188
 21
164.40258666992
 31
0.0
 12
1408.1479492188
 22
164.4325866699199
 32
0.0
 13
1408.1479492188
 23
164.4325866699199
 33
0.0
  0
SOLID
  5
53C0
330
53BA
100
AcDbEntity
  8
10
 62
     0
100
AcDbTrace
 10
1544.9681933594
 20
164.4625866699199
 30
0.0
 11
1544.9681933594
 21
164.40258666992
 31
0.0
 12
1545.148193359399
 22
164.4325866699199
 32
0.0
 13
1545.148193359399
 23
164.4325866699199
 33
0.0
  0
POINT
  5
53C1
330
53BA
100
AcDbEntity
  8
DEFPOINTS
 62
     0
100
AcDbPoint
 10
1408.1479492188
 20
225.8991577148399
 30
0.0
  0
POINT
  5
53C2
330
53BA
100
AcDbEntity
  8
DEFPOINTS
 62
     0
100
AcDbPoint
 10
1545.148193359399
 20
249.0193664550798
 30
0.0
  0
POINT
  5
53C3
330
53BA
100
AcDbEntity
  8
DEFPOINTS
 62
     0
100
AcDbPoint
 10
1545.148193359399
 20
164.4325866699199
 30
0.0
  0
ENDBLK
  5
53C5
330
53BA
100
AcDbEntity
  8
0
100
AcDbBlockEnd
  0
BLOCK
  5
5452
330
53C6
100
AcDbEntity
  8
0
100
AcDbBlockBegin
  2
A$C18746642
 70
     0
 10
0.0
 20
0.0
 30
0.0
  3
A$C18746642
  1

  0
DIMENSION
  5
53C7
330
53C6
100
AcDbEntity
  8
10
100
AcDbDimension
280
     0
  2
*D1
 10
122.5001220702999
 20
225.0437622070299
 30
0.0
 11
63.80386798457243
 21
238.54376220703
 31
0.0
 12
-1393.1479492188
 22
-348.7927246093799
 32
0.0
 70
   128
  1
107.5
 71
     5
 42
-1.0
 73
     0
 74
     0
 75
     0
  3
STANDARD
100
AcDbAlignedDimension
 13
15.0
 23
122.89365844726
 33
0.0
 14
122.5001220702999
 24
59.89362792968006
 34
0.0
 50
180.0
100
AcDbRotatedDimension
1001
ACAD
1000
DSTYLE
1002
{
1070
   287
1070
     5
1070
   287
1070
     5
1070
   287
1070
     5
1070
   279
1070
     2
1002
}
  0
DIMENSION
  5
53C8
330
53C6
100
AcDbEntity
  8
10
100
AcDbDimension
280
     0
  2
*D2
 10
102.0001220703
 20
174.90100097656
 30
0.0
 11
58.45920457062696
 21
188.40100097656
 31
0.0
 12
-1393.1479492188
 22
-348.7927246093799
 32
0.0
 70
   128
  1
87
 71
     5
 42
-1.0
 73
     0
 74
     0
 75
     0
  3
STANDARD
100
AcDbAlignedDimension
 13
15.0
 23
122.89365844726
 33
0.0
 14
102.0001220703
 24
99.77338867187008
 34
0.0
 50
180.0
100
AcDbRotatedDimension
1001
ACAD
1000
DSTYLE
1002
{
1070
   287
1070
     5
1070
   287
1070
     5
1070
   287
1070
     5
1070
   279
1070
     2
1002
}
  0
DIMENSION
  5
53C9
330
53C6
100
AcDbEntity
  8
10
100
AcDbDimension
280
     0
  2
*D3
 10
0.0
 20
-184.3601379394599
 30
0.0
 11
-32.70814148155931
 21
-170.8601379394599
 31
0.0
 12
-1393.1479492188
 22
-348.7927246093799
 32
0.0
 70
   128
  1
15
 71
     5
 42
-1.0
 73
     0
 74
     0
 75
     0
  3
STANDARD
100
AcDbAlignedDimension
 13
15.0
 23
-122.8935668945399
 33
0.0
 14
0.0
 24
-88.89356689453995
 34
0.0
 50
180.0
100
AcDbRotatedDimension
1001
ACAD
1000
DSTYLE
1002
{
1070
   287
1070
     5
1070
   287
1070
     5
1070
   287
1070
     5
1070
   279
1070
     2
1002
}
  0
LWPOLYLINE
  5
53CA
330
53C6
100
AcDbEntity
  8
10
  6
Continuous
100
AcDbPolyline
 90
        2
 70
     0
 43
0.001
 10
-51.9998779297
 20
0.0
 10
126.8000488280998
 20
0.0
  0
DIMENSION
  5
53CB
330
53C6
100
AcDbEntity
  8
10
100
AcDbDimension
280
     0
  2
*D4
 10
15.0
 20
-232.8840332031299
 30
0.0
 11
-2.475289221735462
 21
-219.3840332031299
 31
0.0
 12
-1393.1479492188
 22
-348.7927246093799
 32
0.0
 70
   128
  1
31
 71
     5
 42
-1.0
 73
     0
 74
     0
 75
     0
  3
STANDARD
100
AcDbAlignedDimension
 13
-16.0
 23
18.93754882812004
 33
0.0
 14
15.0
 24
-122.8935668945399
 34
0.0
 50
180.0
100
AcDbRotatedDimension
1001
ACAD
1000
DSTYLE
1002
{
1070
   287
1070
     5
1070
   287
1070
     5
1070
   287
1070
     5
1070
   279
1070
     2
1002
}
  0
DIMENSION
  5
53CC
330
53C6
100
AcDbEntity
  8
10
100
AcDbDimension
280
     0
  2
*D5
 10
236.3912353515003
 20
-66.99996567964257
 30
0.0
 11
222.8912355007444
 21
-5.886785255446341
 31
0.0
 12
-1393.1479492188
 22
-348.7927246093799
 32
0.0
 70
   128
  1
134
 71
     5
 42
-1.0
 73
     0
 74
     0
 75
     0
 51
269.9999974955212
  3
STANDARD
100
AcDbAlignedDimension
 13
149.3936279295999
 23
67.00003051757005
 33
0.0
 14
149.3936279295999
 24
-66.99996948242993
 34
0.0
 50
90.0
100
AcDbRotatedDimension
1001
ACAD
1000
DSTYLE
1002
{
1070
   287
1070
     5
1070
   287
1070
     5
1070
   287
1070
     5
1070
   279
1070
     2
1002
}
  0
LWPOLYLINE
  5
53CD
330
53C6
100
AcDbEntity
  8
10
  6
Continuous
100
AcDbPolyline
 90
        2
 70
     0
 43
0.001
 10
0.0
 20
-24.99999999999995
 10
0.0
 20
-95.99996948242994
  0
LWPOLYLINE
  5
53CE
330
53C6
100
AcDbEntity
  8
10
  6
Continuous
100
AcDbPolyline
 90
        2
 70
     0
 43
0.001
 10
70.0001220703
 20
-50.00003051757992
 10
70.0001220703
 20
-58.99996948242995
  0
LWPOLYLINE
  5
53CF
330
53C6
100
AcDbEntity
  8
10
  6
Continuous
100
AcDbPolyline
 90
        2
 70
     0
 43
0.001
 10
19.0
 20
77.50015258789011
 10
19.0
 20
-77.49996948242993
  0
LWPOLYLINE
  5
53D0
330
53C6
100
AcDbEntity
  8
10
  6
Continuous
100
AcDbPolyline
 90
        2
 70
     0
 43
0.001
 10
15.0
 20
96.00006103514999
 10
15.0
 20
-95.99996948242994
  0
LWPOLYLINE
  5
53D1
330
53C6
100
AcDbEntity
  8
10
  6
Continuous
100
AcDbPolyline
 90
        2
 70
     0
 43
0.001
 10
25.80004882809999
 20
-50.00003051757992
 10
25.80004882809999
 20
-77.49996948242993
  0
DIMENSION
  5
53D2
330
53C6
100
AcDbEntity
  8
10
100
AcDbDimension
280
     0
  2
*D6
 10
172.5001220702999
 20
-232.4692687988299
 30
0.0
 11
90.63528888307244
 21
-218.9692687988299
 31
0.0
 12
-1393.1479492188
 22
-348.7927246093799
 32
0.0
 70
   128
  1
157.5
 71
     5
 42
-1.0
 73
     0
 74
     0
 75
     0
  3
STANDARD
100
AcDbAlignedDimension
 13
15.0
 23
-122.8935668945399
 33
0.0
 14
172.5001220702999
 24
-59.89356689453996
 34
0.0
 50
180.0
100
AcDbRotatedDimension
1001
ACAD
1000
DSTYLE
1002
{
1070
   287
1070
     5
1070
   287
1070
     5
1070
   287
1070
     5
1070
   279
1070
     2
1002
}
  0
DIMENSION
  5
53D3
330
53C6
100
AcDbEntity
  8
10
100
AcDbDimension
280
     0
  2
*D7
 10
152.0002441405999
 20
-184.3601379394599
 30
0.0
 11
79.20193808704221
 21
-170.8601379394599
 31
0.0
 12
-1393.1479492188
 22
-348.7927246093799
 32
0.0
 70
   128
  1
137
 71
     5
 42
-1.0
 73
     0
 74
     0
 75
     0
  3
STANDARD
100
AcDbAlignedDimension
 13
15.0
 23
-122.8935668945399
 33
0.0
 14
152.0002441405999
 24
-99.77335815429995
 34
0.0
 50
180.0
100
AcDbRotatedDimension
1001
ACAD
1000
DSTYLE
1002
{
1070
   287
1070
     5
1070
   287
1070
     5
1070
   287
1070
     5
1070
   279
1070
     2
1002
}
  0
LWPOLYLINE
  5
53D4
330
53C6
100
AcDbEntity
  8
10
  6
Continuous
100
AcDbPolyline
 90
        2
 70
     0
 43
0.001
 10
239.8000488280998
 20
-66.99996948242993
 10
60.0001220703
 20
-66.99996948242993
  0
LWPOLYLINE
  5
53D5
330
53C6
100
AcDbEntity
  8
10
  6
Continuous
100
AcDbPolyline
 90
        2
 70
     0
 43
0.001
 10
70.0001220703
 20
-77.49996948242993
 10
19.0
 20
-77.49996948242993
  0
LWPOLYLINE
  5
53D6
330
53C6
100
AcDbEntity
  8
10
  6
D329
100
AcDbPolyline
 90
        2
 70
     0
 43
0.001
 10
15.0
 20
-95.99996948242994
 10
15.0
 20
-129.9999694824299
  0
LWPOLYLINE
  5
53D7
330
53C6
100
AcDbEntity
  8
10
  6
D329
100
AcDbPolyline
 90
        2
 70
     0
 43
0.001
 10
19.0
 20
-77.49996948242993
 10
19.0
 20
-129.9999694824299
  0
LWPOLYLINE
  5
53D8
330
53C6
100
AcDbEntity
  8
10
  6
D329
100
AcDbPolyline
 90
        2
 70
     0
 43
0.001
 10
19.0
 20
-129.9999694824299
 10
15.0
 20
-129.9999694824299
  0
LWPOLYLINE
  5
53D9
330
53C6
100
AcDbEntity
  8
10
  6
Continuous
100
AcDbPolyline
 90
        2
 70
     0
 43
0.001
 10
15.0
 20
-95.99996948242994
 10
0.0
 20
-95.99996948242994
  0
LWPOLYLINE
  5
53DA
330
53C6
100
AcDbEntity
  8
10
  6
D341
100
AcDbPolyline
 90
        2
 70
     0
 43
0.001
 10
102.0002441405999
 20
-55.76306152343994
 10
102.0002441405999
 20
-106.8797607421897
  0
LWPOLYLINE
  5
53DB
330
53C6
100
AcDbEntity
  8
10
  6
D341
100
AcDbPolyline
 90
        2
 70
     0
 43
0.001
 10
104.3001708983999
 20
-55.76303100585993
 10
104.3001708983999
 20
-106.8797302246099
  0
LWPOLYLINE
  5
53DC
330
53C6
100
AcDbEntity
  8
10
  6
Continuous
100
AcDbPolyline
 90
        2
 70
     0
 43
0.001
 10
70.0001220703
 20
-58.99996948242995
 10
97.00012207030001
 20
-58.99996948242995
  0
LWPOLYLINE
  5
53DD
330
53C6
100
AcDbEntity
  8
10
  6
Continuous
100
AcDbPolyline
 90
        2
 70
     0
 43
0.001
 10
70.0001220703
 20
-74.99996948242993
 10
97.00012207030001
 20
-74.99996948242993
  0
LWPOLYLINE
  5
53DE
330
53C6
100
AcDbEntity
  8
10
  6
Continuous
100
AcDbPolyline
 90
        2
 70
     0
 43
0.001
 10
70.0001220703
 20
-74.99996948242993
 10
70.0001220703
 20
-77.49996948242993
  0
LWPOLYLINE
  5
53DF
330
53C6
100
AcDbEntity
  8
10
  6
Continuous
100
AcDbPolyline
 90
        2
 70
     0
 43
0.001
 10
70.0001220703
 20
-58.99996948242995
 10
70.0001220703
 20
-74.99996948242993
  0
LWPOLYLINE
  5
53E0
330
53C6
100
AcDbEntity
  8
10
  6
Continuous
100
AcDbPolyline
 90
        2
 70
     0
 43
0.001
 10
113.8001708983999
 20
-70.99996948242995
 10
113.8001708983999
 20
-74.99996948242993
  0
LWPOLYLINE
  5
53E1
330
53C6
100
AcDbEntity
  8
10
  6
Continuous
100
AcDbPolyline
 90
        2
 70
     0
 43
0.001
 10
113.8001708983999
 20
-62.99996948242995
 10
113.8001708983999
 20
-70.99996948242995
  0
LWPOLYLINE
  5
53E2
330
53C6
100
AcDbEntity
  8
10
  6
Continuous
100
AcDbPolyline
 90
        2
 70
     0
 43
0.001
 10
97.00012207030001
 20
-74.49996948242993
 10
97.00012207030001
 20
-74.99996948242993
  0
LWPOLYLINE
  5
53E3
330
53C6
100
AcDbEntity
  8
10
  6
Continuous
100
AcDbPolyline
 90
        2
 70
     0
 43
0.001
 10
97.00012207030001
 20
-59.49996948242993
 10
97.00012207030001
 20
-74.49996948242993
  0
LWPOLYLINE
  5
53E4
330
53C6
100
AcDbEntity
  8
10
  6
Continuous
100
AcDbPolyline
 90
        2
 70
     0
 43
0.001
 10
102.0001220703
 20
-55.76303100585993
 10
104.3001708983999
 20
-55.76303100585993
  0
LWPOLYLINE
  5
53E5
330
53C6
100
AcDbEntity
  8
10
  6
Continuous
100
AcDbPolyline
 90
        2
 70
     0
 43
0.001
 10
121.4283245110997
 20
-70.99997084972994
 42
0.2679492641254716
 10
121.4283250196998
 20
-62.99996899601989
 42
0.2679492641254716
  0
LWPOLYLINE
  5
53E6
330
53C6
100
AcDbEntity
  8
10
  6
Continuous
100
AcDbPolyline
 90
        2
 70
     0
 43
0.001
 10
102.0001220703
 20
-59.49996948242993
 10
102.0001220703
 20
-74.49996948242993
  0
LWPOLYLINE
  5
53E7
330
53C6
100
AcDbEntity
  8
10
  6
Continuous
100
AcDbPolyline
 90
        2
 70
     0
 43
0.001
 10
104.3001708983999
 20
-70.99996948242995
 10
97.00012207030001
 20
-70.99996948242995
  0
LWPOLYLINE
  5
53E8
330
53C6
100
AcDbEntity
  8
10
  6
Continuous
100
AcDbPolyline
 90
        2
 70
     0
 43
0.001
 10
104.3001708983999
 20
-62.99996948242995
 10
97.00012207030001
 20
-62.99996948242995
  0
LWPOLYLINE
  5
53E9
330
53C6
100
AcDbEntity
  8
10
  6
Continuous
100
AcDbPolyline
 90
        2
 70
     0
 43
0.001
 10
104.3001708983999
 20
-70.75277709960994
 10
113.8001708983999
 20
-70.75277709960994
  0
LWPOLYLINE
  5
53EA
330
53C6
100
AcDbEntity
  8
10
  6
Continuous
100
AcDbPolyline
 90
        2
 70
     0
 43
0.001
 10
104.3001708983999
 20
-63.24716186523993
 10
113.8001708983999
 20
-63.24716186523993
  0
LWPOLYLINE
  5
53EB
330
53C6
100
AcDbEntity
  8
10
  6
Continuous
100
AcDbPolyline
 90
        2
 70
     0
 43
0.001
 10
113.8001708983999
 20
-58.99996948242995
 10
113.8001708983999
 20
-62.99996948242995
  0
LWPOLYLINE
  5
53EC
330
53C6
100
AcDbEntity
  8
10
  6
Continuous
100
AcDbPolyline
 90
        2
 70
     0
 43
0.001
 10
102.0001220703
 20
-59.49996948242993
 10
97.00012207030001
 20
-59.49996948242993
  0
LWPOLYLINE
  5
53ED
330
53C6
100
AcDbEntity
  8
10
  6
Continuous
100
AcDbPolyline
 90
        2
 70
     0
 43
0.001
 10
97.00012207030001
 20
-58.99996948242995
 10
97.00012207030001
 20
-59.49996948242993
  0
LWPOLYLINE
  5
53EE
330
53C6
100
AcDbEntity
  8
10
  6
Continuous
100
AcDbPolyline
 90
        2
 70
     0
 43
0.001
 10
102.0001220703
 20
-74.49996948242993
 10
97.00012207030001
 20
-74.49996948242993
  0
LWPOLYLINE
  5
53EF
330
53C6
100
AcDbEntity
  8
10
  6
Continuous
100
AcDbPolyline
 90
        2
 70
     0
 43
0.001
 10
121.4283447264999
 20
-62.99996948242995
 10
113.8001708983999
 20
-62.99996948242995
  0
LWPOLYLINE
  5
53F0
330
53C6
100
AcDbEntity
  8
10
  6
Continuous
100
AcDbPolyline
 90
        2
 70
     0
 43
0.001
 10
121.4283447264999
 20
-70.99996948242995
 10
113.8001708983999
 20
-70.99996948242995
  0
LWPOLYLINE
  5
53F1
330
53C6
100
AcDbEntity
  8
10
  6
Continuous
100
AcDbPolyline
 90
        2
 70
     0
 43
0.001
 10
113.8001708983999
 20
-74.99996948242993
 10
104.3001708983999
 20
-74.99996948242993
  0
LWPOLYLINE
  5
53F2
330
53C6
100
AcDbEntity
  8
10
  6
Continuous
100
AcDbPolyline
 90
        2
 70
     0
 43
0.001
 10
113.8001708983999
 20
-58.99996948242995
 10
104.3001708983999
 20
-58.99996948242995
  0
LWPOLYLINE
  5
53F3
330
53C6
100
AcDbEntity
  8
10
  6
D341
100
AcDbPolyline
 90
        2
 70
     0
 43
0.001
 10
152.0002441405999
 20
-55.76306152343994
 10
152.0002441405999
 20
-106.8797607421897
  0
LWPOLYLINE
  5
53F4
330
53C6
100
AcDbEntity
  8
10
  6
D341
100
AcDbPolyline
 90
        2
 70
     0
 43
0.001
 10
154.3001708983998
 20
-55.76303100585993
 10
154.3001708983998
 20
-106.8797302246099
  0
LWPOLYLINE
  5
53F5
330
53C6
100
AcDbEntity
  8
10
  6
Continuous
100
AcDbPolyline
 90
        2
 70
     0
 43
0.001
 10
164.3001708983998
 20
-74.99996948242993
 10
154.3001708983998
 20
-74.99996948242993
  0
LWPOLYLINE
  5
53F6
330
53C6
100
AcDbEntity
  8
10
  6
Continuous
100
AcDbPolyline
 90
        2
 70
     0
 43
0.001
 10
164.3001708983998
 20
-58.99996948242995
 10
154.3001708983998
 20
-58.99996948242995
  0
LWPOLYLINE
  5
53F7
330
53C6
100
AcDbEntity
  8
10
  6
Continuous
100
AcDbPolyline
 90
        2
 70
     0
 43
0.001
 10
154.3001708983998
 20
-63.24716186523993
 10
164.3001708983998
 20
-63.24716186523993
  0
LWPOLYLINE
  5
53F8
330
53C6
100
AcDbEntity
  8
10
  6
Continuous
100
AcDbPolyline
 90
        2
 70
     0
 43
0.001
 10
154.3001708983998
 20
-70.75277709960994
 10
164.3001708983998
 20
-70.75277709960994
  0
LWPOLYLINE
  5
53F9
330
53C6
100
AcDbEntity
  8
10
  6
Continuous
100
AcDbPolyline
 90
        2
 70
     0
 43
0.001
 10
147.0001220702999
 20
-74.49996948242993
 10
147.0001220702999
 20
-74.99996948242993
  0
LWPOLYLINE
  5
53FA
330
53C6
100
AcDbEntity
  8
10
  6
Continuous
100
AcDbPolyline
 90
        2
 70
     0
 43
0.001
 10
147.0001220702999
 20
-59.49996948242993
 10
147.0001220702999
 20
-74.49996948242993
  0
LWPOLYLINE
  5
53FB
330
53C6
100
AcDbEntity
  8
10
  6
Continuous
100
AcDbPolyline
 90
        2
 70
     0
 43
0.001
 10
152.0001220703
 20
-55.76303100585993
 10
154.3001708983998
 20
-55.76303100585993
  0
LWPOLYLINE
  5
53FC
330
53C6
100
AcDbEntity
  8
10
  6
Continuous
100
AcDbPolyline
 90
        2
 70
     0
 43
0.001
 10
154.3001708983998
 20
-70.99996948242995
 10
147.0001220702999
 20
-70.99996948242995
  0
LWPOLYLINE
  5
53FD
330
53C6
100
AcDbEntity
  8
10
  6
Continuous
100
AcDbPolyline
 90
        2
 70
     0
 43
0.001
 10
154.3001708983998
 20
-62.99996948242995
 10
147.0001220702999
 20
-62.99996948242995
  0
LWPOLYLINE
  5
53FE
330
53C6
100
AcDbEntity
  8
10
  6
Continuous
100
AcDbPolyline
 90
        2
 70
     0
 43
0.001
 10
147.0001220702999
 20
-59.49996948242993
 10
152.0001220703
 20
-59.49996948242993
  0
LWPOLYLINE
  5
53FF
330
53C6
100
AcDbEntity
  8
10
  6
Continuous
100
AcDbPolyline
 90
        2
 70
     0
 43
0.001
 10
152.0001220703
 20
-59.49996948242993
 10
152.0001220703
 20
-74.49996948242993
  0
LWPOLYLINE
  5
5400
330
53C6
100
AcDbEntity
  8
10
  6
Continuous
100
AcDbPolyline
 90
        2
 70
     0
 43
0.001
 10
147.0001220702999
 20
-74.49996948242993
 10
152.0001220703
 20
-74.49996948242993
  0
LWPOLYLINE
  5
5401
330
53C6
100
AcDbEntity
  8
10
  6
Continuous
100
AcDbPolyline
 90
        2
 70
     0
 43
0.001
 10
147.0001220702999
 20
-58.99996948242995
 10
147.0001220702999
 20
-59.49996948242993
  0
LWPOLYLINE
  5
5402
330
53C6
100
AcDbEntity
  8
10
  6
Continuous
100
AcDbPolyline
 90
        2
 70
     0
 43
0.001
 10
147.0001220702999
 20
-74.99996948242993
 10
127.5001220702999
 20
-74.99996948242993
  0
LWPOLYLINE
  5
5403
330
53C6
100
AcDbEntity
  8
10
  6
Continuous
100
AcDbPolyline
 90
        2
 70
     0
 43
0.001
 10
147.0001220702999
 20
-58.99996948242995
 10
127.5001220702999
 20
-58.99996948242995
  0
LWPOLYLINE
  5
5404
330
53C6
100
AcDbEntity
  8
10
  6
Continuous
100
AcDbPolyline
 90
        2
 70
     0
 43
0.001
 10
164.3001708983998
 20
-70.99996948242995
 10
164.3001708983998
 20
-74.99996948242993
  0
LWPOLYLINE
  5
5405
330
53C6
100
AcDbEntity
  8
10
  6
Continuous
100
AcDbPolyline
 90
        2
 70
     0
 43
0.001
 10
164.3001708983998
 20
-62.99996948242995
 10
164.3001708983998
 20
-70.99996948242995
  0
LWPOLYLINE
  5
5406
330
53C6
100
AcDbEntity
  8
10
  6
Continuous
100
AcDbPolyline
 90
        2
 70
     0
 43
0.001
 10
171.4283245110998
 20
-70.99997084972994
 42
0.2679492641254716
 10
171.4283250196998
 20
-62.99996899601989
 42
0.2679492641254716
  0
LWPOLYLINE
  5
5407
330
53C6
100
AcDbEntity
  8
10
  6
Continuous
100
AcDbPolyline
 90
        2
 70
     0
 43
0.001
 10
171.4283447264998
 20
-70.99996948242995
 10
164.3001708983998
 20
-70.99996948242995
  0
LWPOLYLINE
  5
5408
330
53C6
100
AcDbEntity
  8
10
  6
Continuous
100
AcDbPolyline
 90
        2
 70
     0
 43
0.001
 10
171.4283447264998
 20
-62.99996948242995
 10
164.3001708983998
 20
-62.99996948242995
  0
LWPOLYLINE
  5
5409
330
53C6
100
AcDbEntity
  8
10
  6
Continuous
100
AcDbPolyline
 90
        2
 70
     0
 43
0.001
 10
164.3001708983998
 20
-58.99996948242995
 10
164.3001708983998
 20
-62.99996948242995
  0
LWPOLYLINE
  5
540A
330
53C6
100
AcDbEntity
  8
10
  6
Continuous
100
AcDbPolyline
 90
        2
 70
     0
 43
0.001
 10
60.0001220703
 20
67.00003051757005
 10
239.8000488280998
 20
67.00003051757005
  0
LWPOLYLINE
  5
540B
330
53C6
100
AcDbEntity
  8
10
  6
Continuous
100
AcDbPolyline
 90
        2
 70
     0
 43
0.001
 10
70.0001220703
 20
59.00003051757003
 10
70.0001220703
 20
50.0
  0
LWPOLYLINE
  5
540C
330
53C6
100
AcDbEntity
  8
10
  6
Continuous
100
AcDbPolyline
 90
        2
 70
     0
 43
0.001
 10
25.80004882809999
 20
77.50015258789011
 10
25.80004882809999
 20
50.0
  0
LWPOLYLINE
  5
540D
330
53C6
100
AcDbEntity
  8
10
  6
Continuous
100
AcDbPolyline
 90
        2
 70
     0
 43
0.001
 10
0.0
 20
96.00006103514999
 10
0.0
 20
25.00012207031005
  0
LWPOLYLINE
  5
540E
330
53C6
100
AcDbEntity
  8
10
  6
Continuous
100
AcDbPolyline
 90
        2
 70
     0
 43
0.001
 10
70.0001220703
 20
50.0
 10
25.80004882809999
 20
50.0
  0
LWPOLYLINE
  5
540F
330
53C6
100
AcDbEntity
  8
10
  6
Continuous
100
AcDbPolyline
 90
        2
 70
     0
 43
0.001
 10
70.0001220703
 20
-50.00003051757992
 10
25.80004882809999
 20
-50.00003051757992
  0
LWPOLYLINE
  5
5410
330
53C6
100
AcDbEntity
  8
10
  6
Continuous
100
AcDbPolyline
 90
        2
 70
     0
 43
0.001
 10
0.0
 20
25.00012207031005
 10
0.0
 20
-24.99999999999995
  0
LWPOLYLINE
  5
5411
330
53C6
100
AcDbEntity
  8
10
  6
Continuous
100
AcDbPolyline
 90
        2
 70
     0
 43
0.001
 10
-1.999877929700004
 20
6.505249023430052
 10
-1.999877929700004
 20
-24.99999999999995
  0
LWPOLYLINE
  5
5412
330
53C6
100
AcDbEntity
  8
10
  6
Continuous
100
AcDbPolyline
 90
        2
 70
     0
 43
0.001
 10
0.0
 20
-24.99999999999995
 10
-1.999877929700004
 20
-24.99999999999995
  0
LWPOLYLINE
  5
5413
330
53C6
100
AcDbEntity
  8
10
  6
Continuous
100
AcDbPolyline
 90
        2
 70
     0
 43
0.001
 10
-1.999877929700004
 20
14.87072753906005
 10
-1.999877929700004
 20
6.505249023430052
  0
LWPOLYLINE
  5
5414
330
53C6
100
AcDbEntity
  8
10
  6
Continuous
100
AcDbPolyline
 90
        2
 70
     0
 43
0.001
 10
-1.999877929700004
 20
6.505249023430052
 10
-16.0
 20
11.83114624023005
  0
LWPOLYLINE
  5
5415
330
53C6
100
AcDbEntity
  8
10
  6
Continuous
100
AcDbPolyline
 90
        2
 70
     0
 43
0.001
 10
-13.80603027350002
 20
17.59851074218005
 10
-16.0
 20
11.83114624023005
  0
LWPOLYLINE
  5
5416
330
53C6
100
AcDbEntity
  8
10
  6
Continuous
100
AcDbPolyline
 90
        2
 70
     0
 43
0.001
 10
-1.999877929700004
 20
14.87072753906005
 10
-13.80603027350002
 20
17.59851074218005
  0
LWPOLYLINE
  5
5417
330
53C6
100
AcDbEntity
  8
10
  6
Continuous
100
AcDbPolyline
 90
        2
 70
     0
 43
0.001
 10
-1.999877929700004
 20
25.00012207031005
 10
0.0
 20
25.00012207031005
  0
LWPOLYLINE
  5
5418
330
53C6
100
AcDbEntity
  8
10
  6
Continuous
100
AcDbPolyline
 90
        2
 70
     0
 43
0.001
 10
-1.999877929700004
 20
25.00012207031005
 10
-1.999877929700004
 20
14.87072753906005
  0
LWPOLYLINE
  5
5419
330
53C6
100
AcDbEntity
  8
10
  6
Continuous
100
AcDbPolyline
 90
        2
 70
     0
 43
0.001
 10
70.0001220703
 20
50.0
 10
70.0001220703
 20
-50.00003051757992
  0
LWPOLYLINE
  5
541A
330
53C6
100
AcDbEntity
  8
10
  6
Continuous
100
AcDbPolyline
 90
        2
 70
     0
 43
0.001
 10
72.70007324209995
 20
50.0
 10
72.70007324209995
 20
-50.00003051757992
  0
LWPOLYLINE
  5
541B
330
53C6
100
AcDbEntity
  8
10
  6
Continuous
100
AcDbPolyline
 90
        2
 70
     0
 43
0.001
 10
72.70007324209995
 20
-50.00003051757992
 10
70.0001220703
 20
-50.00003051757992
  0
LWPOLYLINE
  5
541C
330
53C6
100
AcDbEntity
  8
10
  6
Continuous
100
AcDbPolyline
 90
        2
 70
     0
 43
0.001
 10
72.70007324209995
 20
50.0
 10
70.0001220703
 20
50.0
  0
LWPOLYLINE
  5
541D
330
53C6
100
AcDbEntity
  8
10
  6
Continuous
100
AcDbPolyline
 90
        2
 70
     0
 43
0.001
 10
70.0001220703
 20
77.50015258789011
 10
19.0
 20
77.50015258789011
  0
LWPOLYLINE
  5
541E
330
53C6
100
AcDbEntity
  8
10
  6
D329
100
AcDbPolyline
 90
        2
 70
     0
 43
0.001
 10
15.0
 20
130.00006103515
 10
15.0
 20
96.00006103514999
  0
LWPOLYLINE
  5
541F
330
53C6
100
AcDbEntity
  8
10
  6
D329
100
AcDbPolyline
 90
        2
 70
     0
 43
0.001
 10
19.0
 20
130.00006103515
 10
19.0
 20
77.50015258789011
  0
LWPOLYLINE
  5
5420
330
53C6
100
AcDbEntity
  8
10
  6
Continuous
100
AcDbPolyline
 90
        2
 70
     0
 43
0.001
 10
0.0
 20
96.00006103514999
 10
15.0
 20
96.00006103514999
  0
LWPOLYLINE
  5
5421
330
53C6
100
AcDbEntity
  8
10
  6
D329
100
AcDbPolyline
 90
        2
 70
     0
 43
0.001
 10
19.0
 20
130.00006103515
 10
15.0
 20
130.00006103515
  0
LWPOLYLINE
  5
5422
330
53C6
100
AcDbEntity
  8
10
  6
D341
100
AcDbPolyline
 90
        2
 70
     0
 43
0.001
 10
102.0001220703
 20
55.76309204101002
 10
102.0001220703
 20
106.8797912597599
  0
LWPOLYLINE
  5
5423
330
53C6
100
AcDbEntity
  8
10
  6
D341
100
AcDbPolyline
 90
        2
 70
     0
 43
0.001
 10
104.3001708983999
 20
55.76309204101002
 10
104.3001708983999
 20
106.8797912597599
  0
LWPOLYLINE
  5
5424
330
53C6
100
AcDbEntity
  8
10
  6
Continuous
100
AcDbPolyline
 90
        2
 70
     0
 43
0.001
 10
70.0001220703
 20
75.00003051757005
 10
97.00012207030001
 20
75.00003051757005
  0
LWPOLYLINE
  5
5425
330
53C6
100
AcDbEntity
  8
10
  6
Continuous
100
AcDbPolyline
 90
        2
 70
     0
 43
0.001
 10
70.0001220703
 20
59.00003051757003
 10
97.00012207030001
 20
59.00003051757003
  0
LWPOLYLINE
  5
5426
330
53C6
100
AcDbEntity
  8
10
  6
Continuous
100
AcDbPolyline
 90
        2
 70
     0
 43
0.001
 10
70.0001220703
 20
75.00003051757005
 10
70.0001220703
 20
59.00003051757003
  0
LWPOLYLINE
  5
5427
330
53C6
100
AcDbEntity
  8
10
  6
Continuous
100
AcDbPolyline
 90
        2
 70
     0
 43
0.001
 10
70.0001220703
 20
77.50015258789011
 10
70.0001220703
 20
75.00003051757005
  0
LWPOLYLINE
  5
5428
330
53C6
100
AcDbEntity
  8
10
  6
Continuous
100
AcDbPolyline
 90
        2
 70
     0
 43
0.001
 10
113.8001708983999
 20
63.00003051757006
 10
113.8001708983999
 20
59.00003051757003
  0
LWPOLYLINE
  5
5429
330
53C6
100
AcDbEntity
  8
10
  6
Continuous
100
AcDbPolyline
 90
        2
 70
     0
 43
0.001
 10
113.8001708983999
 20
71.00003051757005
 10
113.8001708983999
 20
63.00003051757006
  0
LWPOLYLINE
  5
542A
330
53C6
100
AcDbEntity
  8
10
  6
Continuous
100
AcDbPolyline
 90
        2
 70
     0
 43
0.001
 10
97.00012207030001
 20
59.50003051757004
 10
97.00012207030001
 20
59.00003051757003
  0
LWPOLYLINE
  5
542B
330
53C6
100
AcDbEntity
  8
10
  6
Continuous
100
AcDbPolyline
 90
        2
 70
     0
 43
0.001
 10
97.00012207030001
 20
74.50003051757005
 10
97.00012207030001
 20
59.50003051757004
  0
LWPOLYLINE
  5
542C
330
53C6
100
AcDbEntity
  8
10
  6
Continuous
100
AcDbPolyline
 90
        2
 70
     0
 43
0.001
 10
121.4283245110997
 20
63.00002915027
 42
0.2679492641254716
 10
121.4283250196998
 20
71.00003100398004
 42
0.2679492641254716
  0
LWPOLYLINE
  5
542D
330
53C6
100
AcDbEntity
  8
10
  6
Continuous
100
AcDbPolyline
 90
        2
 70
     0
 43
0.001
 10
102.0001220703
 20
74.50003051757005
 10
102.0001220703
 20
59.50003051757004
  0
LWPOLYLINE
  5
542E
330
53C6
100
AcDbEntity
  8
10
  6
Continuous
100
AcDbPolyline
 90
        2
 70
     0
 43
0.001
 10
104.3001708983999
 20
63.00003051757006
 10
97.00012207030001
 20
63.00003051757006
  0
LWPOLYLINE
  5
542F
330
53C6
100
AcDbEntity
  8
10
  6
Continuous
100
AcDbPolyline
 90
        2
 70
     0
 43
0.001
 10
104.3001708983999
 20
71.00003051757005
 10
97.00012207030001
 20
71.00003051757005
  0
LWPOLYLINE
  5
5430
330
53C6
100
AcDbEntity
  8
10
  6
Continuous
100
AcDbPolyline
 90
        2
 70
     0
 43
0.001
 10
104.3001708983999
 20
63.24722290039011
 10
113.8001708983999
 20
63.24722290039011
  0
LWPOLYLINE
  5
5431
330
53C6
100
AcDbEntity
  8
10
  6
Continuous
100
AcDbPolyline
 90
        2
 70
     0
 43
0.001
 10
104.3001708983999
 20
70.75283813476004
 10
113.8001708983999
 20
70.75283813476004
  0
LWPOLYLINE
  5
5432
330
53C6
100
AcDbEntity
  8
10
  6
Continuous
100
AcDbPolyline
 90
        2
 70
     0
 43
0.001
 10
113.8001708983999
 20
75.00003051757005
 10
113.8001708983999
 20
71.00003051757005
  0
LWPOLYLINE
  5
5433
330
53C6
100
AcDbEntity
  8
10
  6
Continuous
100
AcDbPolyline
 90
        2
 70
     0
 43
0.001
 10
102.0001220703
 20
74.50003051757005
 10
97.00012207030001
 20
74.50003051757005
  0
LWPOLYLINE
  5
5434
330
53C6
100
AcDbEntity
  8
10
  6
Continuous
100
AcDbPolyline
 90
        2
 70
     0
 43
0.001
 10
97.00012207030001
 20
75.00003051757005
 10
97.00012207030001
 20
74.50003051757005
  0
LWPOLYLINE
  5
5435
330
53C6
100
AcDbEntity
  8
10
  6
Continuous
100
AcDbPolyline
 90
        2
 70
     0
 43
0.001
 10
102.0001220703
 20
59.50003051757004
 10
97.00012207030001
 20
59.50003051757004
  0
LWPOLYLINE
  5
5436
330
53C6
100
AcDbEntity
  8
10
  6
Continuous
100
AcDbPolyline
 90
        2
 70
     0
 43
0.001
 10
121.4283447264999
 20
71.00003051757005
 10
113.8001708983999
 20
71.00003051757005
  0
LWPOLYLINE
  5
5437
330
53C6
100
AcDbEntity
  8
10
  6
Continuous
100
AcDbPolyline
 90
        2
 70
     0
 43
0.001
 10
121.4283447264999
 20
63.00003051757006
 10
113.8001708983999
 20
63.00003051757006
  0
LWPOLYLINE
  5
5438
330
53C6
100
AcDbEntity
  8
10
  6
Continuous
100
AcDbPolyline
 90
        2
 70
     0
 43
0.001
 10
113.8001708983999
 20
59.00003051757003
 10
104.3001708983999
 20
59.00003051757003
  0
LWPOLYLINE
  5
5439
330
53C6
100
AcDbEntity
  8
10
  6
Continuous
100
AcDbPolyline
 90
        2
 70
     0
 43
0.001
 10
104.3001708983999
 20
75.00003051757005
 10
113.8001708983999
 20
75.00003051757005
  0
LWPOLYLINE
  5
543A
330
53C6
100
AcDbEntity
  8
10
  6
Continuous
100
AcDbPolyline
 90
        2
 70
     0
 43
0.001
 10
102.0001220703
 20
55.76309204101002
 10
104.3001708983999
 20
55.76309204101002
  0
LWPOLYLINE
  5
543B
330
53C6
100
AcDbEntity
  8
10
  6
D341
100
AcDbPolyline
 90
        2
 70
     0
 43
0.001
 10
154.3001708983998
 20
55.76309204101002
 10
154.3001708983998
 20
106.8797912597599
  0
LWPOLYLINE
  5
543C
330
53C6
100
AcDbEntity
  8
10
  6
D341
100
AcDbPolyline
 90
        2
 70
     0
 43
0.001
 10
152.0001220703
 20
55.76309204101002
 10
152.0001220703
 20
106.8797912597599
  0
LWPOLYLINE
  5
543D
330
53C6
100
AcDbEntity
  8
10
  6
Continuous
100
AcDbPolyline
 90
        2
 70
     0
 43
0.001
 10
164.3001708983998
 20
59.00003051757003
 10
154.3001708983998
 20
59.00003051757003
  0
LWPOLYLINE
  5
543E
330
53C6
100
AcDbEntity
  8
10
  6
Continuous
100
AcDbPolyline
 90
        2
 70
     0
 43
0.001
 10
164.3001708983998
 20
75.00003051757005
 10
154.3001708983998
 20
75.00003051757005
  0
LWPOLYLINE
  5
543F
330
53C6
100
AcDbEntity
  8
10
  6
Continuous
100
AcDbPolyline
 90
        2
 70
     0
 43
0.001
 10
154.3001708983998
 20
70.75283813476004
 10
164.3001708983998
 20
70.75283813476004
  0
LWPOLYLINE
  5
5440
330
53C6
100
AcDbEntity
  8
10
  6
Continuous
100
AcDbPolyline
 90
        2
 70
     0
 43
0.001
 10
154.3001708983998
 20
63.24722290039011
 10
164.3001708983998
 20
63.24722290039011
  0
LWPOLYLINE
  5
5441
330
53C6
100
AcDbEntity
  8
10
  6
Continuous
100
AcDbPolyline
 90
        2
 70
     0
 43
0.001
 10
147.0001220702999
 20
59.50003051757004
 10
147.0001220702999
 20
59.00003051757003
  0
LWPOLYLINE
  5
5442
330
53C6
100
AcDbEntity
  8
10
  6
Continuous
100
AcDbPolyline
 90
        2
 70
     0
 43
0.001
 10
147.0001220702999
 20
74.50003051757005
 10
147.0001220702999
 20
59.50003051757004
  0
LWPOLYLINE
  5
5443
330
53C6
100
AcDbEntity
  8
10
  6
Continuous
100
AcDbPolyline
 90
        2
 70
     0
 43
0.001
 10
154.3001708983998
 20
63.00003051757006
 10
147.0001220702999
 20
63.00003051757006
  0
LWPOLYLINE
  5
5444
330
53C6
100
AcDbEntity
  8
10
  6
Continuous
100
AcDbPolyline
 90
        2
 70
     0
 43
0.001
 10
154.3001708983998
 20
71.00003051757005
 10
147.0001220702999
 20
71.00003051757005
  0
LWPOLYLINE
  5
5445
330
53C6
100
AcDbEntity
  8
10
  6
Continuous
100
AcDbPolyline
 90
        2
 70
     0
 43
0.001
 10
147.0001220702999
 20
74.50003051757005
 10
152.0001220703
 20
74.50003051757005
  0
LWPOLYLINE
  5
5446
330
53C6
100
AcDbEntity
  8
10
  6
Continuous
100
AcDbPolyline
 90
        2
 70
     0
 43
0.001
 10
152.0001220703
 20
74.50003051757005
 10
152.0001220703
 20
59.50003051757004
  0
LWPOLYLINE
  5
5447
330
53C6
100
AcDbEntity
  8
10
  6
Continuous
100
AcDbPolyline
 90
        2
 70
     0
 43
0.001
 10
147.0001220702999
 20
59.50003051757004
 10
152.0001220703
 20
59.50003051757004
  0
LWPOLYLINE
  5
5448
330
53C6
100
AcDbEntity
  8
10
  6
Continuous
100
AcDbPolyline
 90
        2
 70
     0
 43
0.001
 10
147.0001220702999
 20
75.00003051757005
 10
147.0001220702999
 20
74.50003051757005
  0
LWPOLYLINE
  5
5449
330
53C6
100
AcDbEntity
  8
10
  6
Continuous
100
AcDbPolyline
 90
        2
 70
     0
 43
0.001
 10
147.0001220702999
 20
59.00003051757003
 10
127.5001220702999
 20
59.00003051757003
  0
LWPOLYLINE
  5
544A
330
53C6
100
AcDbEntity
  8
10
  6
Continuous
100
AcDbPolyline
 90
        2
 70
     0
 43
0.001
 10
147.0001220702999
 20
75.00003051757005
 10
127.5001220702999
 20
75.00003051757005
  0
LWPOLYLINE
  5
544B
330
53C6
100
AcDbEntity
  8
10
  6
Continuous
100
AcDbPolyline
 90
        2
 70
     0
 43
0.001
 10
152.0001220703
 20
55.76309204101002
 10
154.3001708983998
 20
55.76309204101002
  0
LWPOLYLINE
  5
544C
330
53C6
100
AcDbEntity
  8
10
  6
Continuous
100
AcDbPolyline
 90
        2
 70
     0
 43
0.001
 10
164.3001708983998
 20
63.00003051757006
 10
164.3001708983998
 20
59.00003051757003
  0
LWPOLYLINE
  5
544D
330
53C6
100
AcDbEntity
  8
10
  6
Continuous
100
AcDbPolyline
 90
        2
 70
     0
 43
0.001
 10
164.3001708983998
 20
71.00003051757005
 10
164.3001708983998
 20
63.00003051757006
  0
LWPOLYLINE
  5
544E
330
53C6
100
AcDbEntity
  8
10
  6
Continuous
100
AcDbPolyline
 90
        2
 70
     0
 43
0.001
 10
171.4283245110998
 20
63.00002915027
 42
0.2679492641254716
 10
171.4283250196998
 20
71.00003100398004
 42
0.2679492641254716
  0
LWPOLYLINE
  5
544F
330
53C6
100
AcDbEntity
  8
10
  6
Continuous
100
AcDbPolyline
 90
        2
 70
     0
 43
0.001
 10
171.4283447264998
 20
63.00003051757006
 10
164.3001708983998
 20
63.00003051757006
  0
LWPOLYLINE
  5
5450
330
53C6
100
AcDbEntity
  8
10
  6
Continuous
100
AcDbPolyline
 90
        2
 70
     0
 43
0.001
 10
171.4283447264998
 20
71.00003051757005
 10
164.3001708983998
 20
71.00003051757005
  0
LWPOLYLINE
  5
5451
330
53C6
100
AcDbEntity
  8
10
  6
Continuous
100
AcDbPolyline
 90
        2
 70
     0
 43
0.001
 10
164.3001708983998
 20
75.00003051757005
 10
164.3001708983998
 20
71.00003051757005
  0
ENDBLK
  5
5453
330
53C6
100
AcDbEntity
  8
0
100
AcDbBlockEnd
  0
BLOCK
  5
572E
330
572B
100
AcDbEntity
  8
L210_
  6
Continuous
 62
     4
100
AcDbBlockBegin
  2
B2383
 70
     0
 10
0.0
 20
0.0
 30
0.0
  3
B2383
  1

  0
TEXT
  5
572C
330
572B
100
AcDbEntity
  8
L210_
  6
Continuous
 62
     4
100
AcDbText
 10
1634.50866699219
 20
455.024810791016
 30
0.0
 40
12.0
  1
n
  7
SYMBOL3
 72
     5
 11
1646.50866699219
 21
455.024810791016
 31
0.0
100
AcDbText
 73
     2
  0
TEXT
  5
572D
330
572B
100
AcDbEntity
  8
L210_
  6
Continuous
 62
     4
100
AcDbText
 10
1652.50866699219
 20
455.024810791016
 30
0.0
 40
12.0
  1
9
 41
1.049999999999982
 72
     5
 11
1660.90866699219
 21
455.024810791016
 31
0.0
100
AcDbText
 73
     2
  0
ENDBLK
  5
572F
330
572B
100
AcDbEntity
  8
L210_
  6
Continuous
 62
     4
100
AcDbBlockEnd
  0
BLOCK
  5
5736
330
5730
100
AcDbEntity
  8
0
100
AcDbBlockBegin
  2
*D10
 70
     1
 10
0.0
 20
0.0
 30
0.0
  3
*D10
  1

  0
LINE
  5
5731
330
5730
100
AcDbEntity
  8
0
  6
ByBlock
 62
     4
440
 16777216
100
AcDbLine
 10
1588.251651067948
 20
494.6908712885527
 30
0.0
 11
1628.550785128841
 21
449.4601341890538
 31
0.0
  0
LINE
  5
5732
330
5730
100
AcDbEntity
  8
0
  6
ByBlock
 62
     4
440
 16777216
100
AcDbLine
 10
1628.550785128841
 20
449.4601341890538
 30
0.0
 11
1628.64078512884
 21
449.4601341890538
 31
0.0
  0
SOLID
  5
5733
330
5730
100
AcDbEntity
  8
0
  6
ByBlock
 62
     4
440
 16777216
100
AcDbTrace
 10
1586.385055966953
 20
493.0277950037911
 30
0.0
 11
1590.118246168946
 21
496.3539475733141
 31
0.0
 12
1578.27319335938
 22
505.890441894531
 32
0.0
 13
1578.27319335938
 23
505.890441894531
 33
0.0
  0
POINT
  5
5734
330
5730
100
AcDbEntity
  8
DEFPOINTS
  6
ByBlock
 62
     0
440
 16777216
100
AcDbPoint
 10
1578.27319335938
 20
505.890441894531
 30
0.0
  0
POINT
  5
5735
330
5730
100
AcDbEntity
  8
DEFPOINTS
  6
ByBlock
 62
     0
440
 16777216
100
AcDbPoint
 10
1572.286132812499
 20
512.6101684570311
 30
0.0
  0
ENDBLK
  5
5737
330
5730
100
AcDbEntity
  8
0
100
AcDbBlockEnd
  0
BLOCK
  5
573B
330
5738
100
AcDbEntity
  8
L210_
100
AcDbBlockBegin
  2
B2387
 70
     0
 10
0.0
 20
0.0
 30
0.0
  3
B2387
  1

  0
DIMENSION
  5
5739
330
5738
100
AcDbEntity
  8
L210_
100
AcDbDimension
280
     0
  2
*D10
 10
1572.286132812499
 20
512.610168457031
 30
0.0
 11
1389.58799470825
 21
376.195648193359
 31
0.0
 70
     3
  1
 
 71
     5
 42
-1.0
 73
     0
 74
     0
 75
     0
  3
STANDARD
100
AcDbDiametricDimension
 15
1578.27319335938
 25
505.890441894531
 35
0.0
 40
75.57920257499124
  0
INSERT
  5
573A
330
5738
100
AcDbEntity
  8
L210_
  6
Continuous
 62
     4
100
AcDbBlockReference
  2
B2383
 10
0.0
 20
0.0
 30
0.0
  0
ENDBLK
  5
573C
330
5738
100
AcDbEntity
  8
L210_
100
AcDbBlockEnd
  0
BLOCK
  5
5F74
330
5F6A
100
AcDbEntity
  8
0
100
AcDbBlockBegin
  2
*D12
 70
     1
 10
0.0
 20
0.0
 30
0.0
  3
*D12
  1

  0
LINE
  5
5F6B
330
5F6A
100
AcDbEntity
  8
30
  6
Continuous
 62
     0
100
AcDbLine
 10
0.1181906098743895
 20
311.8005361318753
 30
0.0
 11
0.1181906098743913
 21
340.6194088241316
 31
0.0
  0
LINE
  5
5F6C
330
5F6A
100
AcDbEntity
  8
30
  6
Continuous
 62
     0
100
AcDbLine
 10
35.11819060987439
 20
276.8005361318753
 30
0.0
 11
35.1181906098744
 21
340.6194088241316
 31
0.0
  0
LINE
  5
5F6D
330
5F6A
100
AcDbEntity
  8
30
  6
Continuous
 62
     0
100
AcDbLine
 10
2.118190609874389
 20
340.1194088241313
 30
0.0
 11
33.11819060987438
 21
340.1194088241313
 31
0.0
  0
INSERT
  5
5F6E
330
5F6A
100
AcDbEntity
  8
30
  6
Continuous
 62
     0
100
AcDbBlockReference
  2
_OPEN
 10
0.1181906098743912
 20
340.1194088241313
 30
0.0
 41
2.0
 42
2.0
 43
2.0
 50
180.0
  0
INSERT
  5
5F6F
330
5F6A
100
AcDbEntity
  8
30
  6
Continuous
 62
     0
100
AcDbBlockReference
  2
_OPEN
 10
35.1181906098744
 20
340.1194088241313
 30
0.0
 41
2.0
 42
2.0
 43
2.0
  0
MTEXT
  5
5F70
330
5F6A
100
AcDbEntity
  8
30
  6
Continuous
 62
     0
100
AcDbMText
 10
17.61819060987439
 20
343.1194088241316
 30
0.0
 40
4.0
 41
0.0
 46
0.0
 71
     5
 72
     1
  1
\A1;35
 73
     1
 44
1.0
1001
ACAD
1000
MTEXTBEGIN
1070
    73
1070
     1
1070
    44
1040
1.0
1070
    74
1070
     0
1000
MTEXTEND
1000
MTEXTBEGIN
1070
    73
1070
     1
1070
    44
1040
1.0
1070
    74
1070
     0
1000
MTEXTEND
1000
MTEXTBEGIN
1070
    73
1070
     1
1070
    44
1040
1.0
1070
    74
1070
     0
1000
MTEXTEND
  0
POINT
  5
5F71
330
5F6A
100
AcDbEntity
  8
DEFPOINTS
  6
Continuous
 62
     0
100
AcDbPoint
 10
0.1181906098743894
 20
310.8005361318753
 30
0.0
  0
POINT
  5
5F72
330
5F6A
100
AcDbEntity
  8
DEFPOINTS
  6
Continuous
 62
     0
100
AcDbPoint
 10
35.11819060987439
 20
275.8005361318753
 30
0.0
  0
POINT
  5
5F73
330
5F6A
100
AcDbEntity
  8
DEFPOINTS
  6
Continuous
 62
     0
100
AcDbPoint
 10
35.1181906098744
 20
340.1194088241313
 30
0.0
  0
ENDBLK
  5
5F75
330
5F6A
100
AcDbEntity
  8
0
100
AcDbBlockEnd
  0
BLOCK
  5
5F7A
330
5F76
100
AcDbEntity
  8
0
100
AcDbBlockBegin
  2
A$C59C36ED1
 70
     0
 10
0.0
 20
0.0
 30
0.0
  3
A$C59C36ED1
  1

  0
DIMENSION
  5
5F77
330
5F76
100
AcDbEntity
  8
30
  6
Continuous
100
AcDbDimension
280
     0
  2
*D12
 10
0.0000000000000071
 20
64.31887269225626
 30
0.0
 11
-17.49999999999999
 21
67.31887269225627
 31
0.0
 12
-35.11819060987439
 22
-275.8005361318753
 32
0.0
 71
     5
 42
-1.0
 73
     0
 74
     0
 75
     0
  3
STANDARD
100
AcDbAlignedDimension
 13
-35.0
 23
35.0
 33
0.0
 14
0.0
 24
0.0
 34
0.0
100
AcDbRotatedDimension
1001
ACAD
1000
DSTYLE
1002
{
1070
   287
1070
     4
1070
   287
1070
     4
1070
   287
1070
     4
1070
   279
1070
     1
1002
}
  0
LINE
  5
5F78
330
5F76
100
AcDbEntity
  8
17
  6
CONTINOUS
100
AcDbLine
 10
8.0
 20
0.0
 30
0.0
 11
-8.0
 21
0.0
 31
0.0
  0
LINE
  5
5F79
330
5F76
100
AcDbEntity
  8
17
  6
CONTINOUS
100
AcDbLine
 10
0.0
 20
-8.0
 30
0.0
 11
0.0
 21
8.0
 31
0.0
  0
ENDBLK
  5
5F7B
330
5F76
100
AcDbEntity
  8
0
100
AcDbBlockEnd
  0
BLOCK
  5
6CBA
330
6CB9
100
AcDbEntity
  8
0
100
AcDbBlockBegin
  2
REVDATE
 70
     2
 10
0.0
 20
0.0
 30
0.0
  3
REVDATE
  1
REVDATE
  0
ATTDEF
  5
6CBB
330
6CB9
100
AcDbEntity
  8
0
  6
Continuous
 62
     0
100
AcDbText
 10
0.0
 20
0.0
 30
0.0
 40
19.18333333333332
  1

100
AcDbAttributeDefinition
280
     0
  3

  2
USER
 70
     8
280
     0
  0
ATTDEF
  5
6CBC
330
6CB9
100
AcDbEntity
  8
0
  6
Continuous
 62
     0
100
AcDbText
 10
0.0
 20
0.0
 30
0.0
 40
19.18333333333332
  1

100
AcDbAttributeDefinition
280
     0
  3

  2
REVDATE
 70
     8
280
     0
  0
ATTDEF
  5
6CBD
330
6CB9
100
AcDbEntity
  8
0
  6
Continuous
 62
     0
100
AcDbText
 10
0.0
 20
0.0
 30
0.0
 40
19.18333333333332
  1

100
AcDbAttributeDefinition
280
     0
  3

  2
FNAME
 70
     8
280
     0
  0
ENDBLK
  5
6CBE
330
6CB9
100
AcDbEntity
  8
0
100
AcDbBlockEnd
  0
BLOCK
  5
751C
330
7519
100
AcDbEntity
  8
L0_
  6
Continuous
100
AcDbBlockBegin
  2
B4617
 70
     0
 10
0.0
 20
0.0
 30
0.0
  3
B4617
  1

  0
LWPOLYLINE
  5
751A
330
7519
100
AcDbEntity
  8
L0_
  6
Continuous
100
AcDbPolyline
 90
        3
 70
     0
 43
0.0
 10
1552.262422971515
 20
720.8670526469212
 10
1539.470703125
 20
712.64379882813
 10
1554.237979894014
 20
716.2738865443332
  0
LWPOLYLINE
  5
751B
330
7519
100
AcDbEntity
  8
L0_
  6
Continuous
100
AcDbPolyline
 90
        4
 70
     0
 43
0.0
 10
1539.470703125
 20
712.64379882813
 10
1638.7316894531
 20
755.3367309570298
 10
1640.025390625
 20
755.3367309570298
 10
1699.4254150391
 20
755.3367309570298
  0
ENDBLK
  5
751D
330
7519
100
AcDbEntity
  8
L0_
  6
Continuous
100
AcDbBlockEnd
  0
BLOCK
  5
7521
330
751E
100
AcDbEntity
  8
L230_
  6
Continuous
 62
     6
100
AcDbBlockBegin
  2
B4619
 70
     0
 10
0.0
 20
0.0
 30
0.0
  3
B4619
  1

  0
INSERT
  5
751F
330
751E
100
AcDbEntity
  8
L0_
  6
Continuous
100
AcDbBlockReference
  2
B4617
 10
0.0
 20
0.0
 30
0.0
  0
TEXT
  5
7520
330
751E
100
AcDbEntity
  8
L0_
  6
Continuous
100
AcDbText
 10
1647.525390624999
 20
762.8367309570299
 30
0.0
 40
12.0
  1
Panel
 41
1.008000000000019
  7
LEROY
 72
     5
 11
1697.925390625
 21
762.8367309570299
 31
0.0
100
AcDbText
 73
     2
  0
ENDBLK
  5
7522
330
751E
100
AcDbEntity
  8
L230_
  6
Continuous
 62
     6
100
AcDbBlockEnd
  0
BLOCK
  5
78E6
330
78DC
100
AcDbEntity
  8
0
100
AcDbBlockBegin
  2
*D17
 70
     1
 10
0.0
 20
0.0
 30
0.0
  3
*D17
  1

  0
LINE
  5
7F73
330
78DC
100
AcDbEntity
  8
30
  6
Continuous
 62
     0
440
 16777216
100
AcDbLine
 10
527.3404576618275
 20
-881.1905703767266
 30
0.0
 11
527.3404576618275
 21
-940.0639479338034
 31
0.0
  0
LINE
  5
7F74
330
78DC
100
AcDbEntity
  8
30
  6
Continuous
 62
     0
440
 16777216
100
AcDbLine
 10
986.3404576618277
 20
-881.1905703767266
 30
0.0
 11
986.3404576618277
 21
-940.0639479338034
 31
0.0
  0
LINE
  5
7F75
330
78DC
100
AcDbEntity
  8
30
  6
Continuous
 62
     0
440
 16777216
100
AcDbLine
 10
529.3404576618277
 20
-939.5639479338031
 30
0.0
 11
984.3404576618278
 21
-939.5639479338031
 31
0.0
  0
INSERT
  5
7F76
330
78DC
100
AcDbEntity
  8
30
  6
Continuous
 62
     0
440
 16777216
100
AcDbBlockReference
  2
_OPEN
 10
527.3404576618275
 20
-939.5639479338031
 30
0.0
 41
2.0
 42
2.0
 43
2.0
 50
180.0
  0
INSERT
  5
7F77
330
78DC
100
AcDbEntity
  8
30
  6
Continuous
 62
     0
440
 16777216
100
AcDbBlockReference
  2
_OPEN
 10
986.3404576618277
 20
-939.5639479338031
 30
0.0
 41
2.0
 42
2.0
 43
2.0
  0
MTEXT
  5
7F78
330
78DC
100
AcDbEntity
  8
30
  6
Continuous
 62
     0
440
 16777216
100
AcDbMText
 10
756.8404576618277
 20
-933.5639479338032
 30
0.0
 40
10.0
 41
0.0
 46
0.0
 71
     5
 72
     1
  1
\A1;459
 73
     1
 44
1.0
1001
ACAD
1000
MTEXTBEGIN
1070
    73
1070
     1
1070
    44
1040
1.0
1070
    74
1070
     0
1000
MTEXTEND
1000
MTEXTBEGIN
1070
    73
1070
     1
1070
    44
1040
1.0
1070
    74
1070
     0
1000
MTEXTEND
1000
MTEXTBEGIN
1070
    73
1070
     1
1070
    44
1040
1.0
1070
    74
1070
     0
1000
MTEXTEND
  0
POINT
  5
7F79
330
78DC
100
AcDbEntity
  8
DEFPOINTS
  6
Continuous
 62
     0
440
 16777216
100
AcDbPoint
 10
527.3404576618275
 20
-871.1905703767266
 30
0.0
  0
POINT
  5
7F7A
330
78DC
100
AcDbEntity
  8
DEFPOINTS
  6
Continuous
 62
     0
440
 16777216
100
AcDbPoint
 10
986.3404576618277
 20
-871.1905703767266
 30
0.0
  0
POINT
  5
7F7B
330
78DC
100
AcDbEntity
  8
DEFPOINTS
  6
Continuous
 62
     0
440
 16777216
100
AcDbPoint
 10
986.3404576618277
 20
-939.5639479338031
 30
0.0
  0
ENDBLK
  5
78E7
330
78DC
100
AcDbEntity
  8
0
100
AcDbBlockEnd
  0
BLOCK
  5
78F3
330
78E9
100
AcDbEntity
  8
0
100
AcDbBlockBegin
  2
*D18
 70
     1
 10
0.0
 20
0.0
 30
0.0
  3
*D18
  1

  0
LINE
  5
7F7C
330
78E9
100
AcDbEntity
  8
30
  6
Continuous
 62
     0
440
 16777216
100
AcDbLine
 10
996.3404576618277
 20
-405.1905398591467
 30
0.0
 11
1106.104566674792
 21
-405.1905398591467
 31
0.0
  0
LINE
  5
7F7D
330
78E9
100
AcDbEntity
  8
30
  6
Continuous
 62
     0
440
 16777216
100
AcDbLine
 10
996.3404576618277
 20
-871.1905703767266
 30
0.0
 11
1106.104566674792
 21
-871.1905703767266
 31
0.0
  0
LINE
  5
7F7E
330
78E9
100
AcDbEntity
  8
30
  6
Continuous
 62
     0
440
 16777216
100
AcDbLine
 10
1105.604566674792
 20
-407.1905398591466
 30
0.0
 11
1105.604566674792
 21
-869.1905703767266
 31
0.0
  0
INSERT
  5
7F7F
330
78E9
100
AcDbEntity
  8
30
  6
Continuous
 62
     0
440
 16777216
100
AcDbBlockReference
  2
_OPEN
 10
1105.604566674792
 20
-405.1905398591467
 30
0.0
 41
2.0
 42
2.0
 43
2.0
 50
90.0
  0
INSERT
  5
7F80
330
78E9
100
AcDbEntity
  8
30
  6
Continuous
 62
     0
440
 16777216
100
AcDbBlockReference
  2
_OPEN
 10
1105.604566674792
 20
-871.1905703767266
 30
0.0
 41
2.0
 42
2.0
 43
2.0
 50
270.0
  0
MTEXT
  5
7F81
330
78E9
100
AcDbEntity
  8
30
  6
Continuous
 62
     0
440
 16777216
100
AcDbMText
 10
1099.604566674792
 20
-638.1905551179364
 30
0.0
 40
10.0
 41
0.0
 46
0.0
 71
     5
 72
     1
  1
\A1;466
 11
0.0000000000000001
 21
1.0
 31
0.0
 73
     1
 44
1.0
1001
ACAD
1000
MTEXTBEGIN
1070
    73
1070
     1
1070
    44
1040
1.0
1070
    74
1070
     0
1000
MTEXTEND
1000
MTEXTBEGIN
1070
    73
1070
     1
1070
    44
1040
1.0
1070
    74
1070
     0
1000
MTEXTEND
1000
MTEXTBEGIN
1070
    73
1070
     1
1070
    44
1040
1.0
1070
    74
1070
     0
1000
MTEXTEND
  0
POINT
  5
7F82
330
78E9
100
AcDbEntity
  8
DEFPOINTS
  6
Continuous
 62
     0
440
 16777216
100
AcDbPoint
 10
986.3404576618277
 20
-405.1905398591467
 30
0.0
  0
POINT
  5
7F83
330
78E9
100
AcDbEntity
  8
DEFPOINTS
  6
Continuous
 62
     0
440
 16777216
100
AcDbPoint
 10
986.3404576618277
 20
-871.1905703767266
 30
0.0
  0
POINT
  5
7F84
330
78E9
100
AcDbEntity
  8
DEFPOINTS
  6
Continuous
 62
     0
440
 16777216
100
AcDbPoint
 10
1105.604566674792
 20
-871.1905703767266
 30
0.0
  0
ENDBLK
  5
78F4
330
78E9
100
AcDbEntity
  8
0
100
AcDbBlockEnd
  0
BLOCK
  5
7900
330
78F6
100
AcDbEntity
  8
0
100
AcDbBlockBegin
  2
*D19
 70
     1
 10
0.0
 20
0.0
 30
0.0
  3
*D19
  1

  0
LINE
  5
7F85
330
78F6
100
AcDbEntity
  8
30
  6
Continuous
 62
     0
440
 16777216
100
AcDbLine
 10
-151.0932617187993
 20
-774.1905707701294
 30
0.0
 11
-151.0932617187993
 21
-922.2098398427323
 31
0.0
  0
LINE
  5
7F86
330
78F6
100
AcDbEntity
  8
30
  6
Continuous
 62
     0
440
 16777216
100
AcDbLine
 10
150.9064941406005
 20
-774.1905707701294
 30
0.0
 11
150.9064941406005
 21
-922.2098398427323
 31
0.0
  0
LINE
  5
7F87
330
78F6
100
AcDbEntity
  8
30
  6
Continuous
 62
     0
440
 16777216
100
AcDbLine
 10
-149.0932617187993
 20
-921.7098398427324
 30
0.0
 11
148.9064941406005
 21
-921.7098398427324
 31
0.0
  0
INSERT
  5
7F88
330
78F6
100
AcDbEntity
  8
30
  6
Continuous
 62
     0
440
 16777216
100
AcDbBlockReference
  2
_OPEN
 10
-151.0932617187993
 20
-921.7098398427324
 30
0.0
 41
2.0
 42
2.0
 43
2.0
 50
180.0
  0
INSERT
  5
7F89
330
78F6
100
AcDbEntity
  8
30
  6
Continuous
 62
     0
440
 16777216
100
AcDbBlockReference
  2
_OPEN
 10
150.9064941406005
 20
-921.7098398427324
 30
0.0
 41
2.0
 42
2.0
 43
2.0
  0
MTEXT
  5
7F8A
330
78F6
100
AcDbEntity
  8
30
  6
Continuous
 62
     0
440
 16777216
100
AcDbMText
 10
-0.0933837890995047
 20
-915.7098398427324
 30
0.0
 40
10.0
 41
0.0
 46
0.0
 71
     5
 72
     1
  1
\A1;302
 73
     1
 44
1.0
1001
ACAD
1000
MTEXTBEGIN
1070
    73
1070
     1
1070
    44
1040
1.0
1070
    74
1070
     0
1000
MTEXTEND
1000
MTEXTBEGIN
1070
    73
1070
     1
1070
    44
1040
1.0
1070
    74
1070
     0
1000
MTEXTEND
1000
MTEXTBEGIN
1070
    73
1070
     1
1070
    44
1040
1.0
1070
    74
1070
     0
1000
MTEXTEND
  0
POINT
  5
7F8B
330
78F6
100
AcDbEntity
  8
DEFPOINTS
  6
Continuous
 62
     0
440
 16777216
100
AcDbPoint
 10
-151.0932617187993
 20
-764.1905707701294
 30
0.0
  0
POINT
  5
7F8C
330
78F6
100
AcDbEntity
  8
DEFPOINTS
  6
Continuous
 62
     0
440
 16777216
100
AcDbPoint
 10
150.9064941406005
 20
-764.1905707701294
 30
0.0
  0
POINT
  5
7F8D
330
78F6
100
AcDbEntity
  8
DEFPOINTS
  6
Continuous
 62
     0
440
 16777216
100
AcDbPoint
 10
150.9064941406005
 20
-921.7098398427324
 30
0.0
  0
ENDBLK
  5
7901
330
78F6
100
AcDbEntity
  8
0
100
AcDbBlockEnd
  0
BLOCK
  5
790D
330
7903
100
AcDbEntity
  8
0
100
AcDbBlockBegin
  2
*D20
 70
     1
 10
0.0
 20
0.0
 30
0.0
  3
*D20
  1

  0
LINE
  5
7F8E
330
7903
100
AcDbEntity
  8
30
  6
Continuous
 62
     0
440
 16777216
100
AcDbLine
 10
-52.5935058593995
 20
-433.1905402525491
 30
0.0
 11
-52.59350585939951
 21
-511.7699266146074
 31
0.0
  0
LINE
  5
7F8F
330
7903
100
AcDbEntity
  8
30
  6
Continuous
 62
     0
440
 16777216
100
AcDbLine
 10
52.4064941406005
 20
-433.1905402525491
 30
0.0
 11
52.40649414060049
 21
-511.7699266146074
 31
0.0
  0
LINE
  5
7F90
330
7903
100
AcDbEntity
  8
30
  6
Continuous
 62
     0
440
 16777216
100
AcDbLine
 10
-50.59350585939951
 20
-511.2699266146073
 30
0.0
 11
50.40649414060049
 21
-511.2699266146073
 31
0.0
  0
INSERT
  5
7F91
330
7903
100
AcDbEntity
  8
30
  6
Continuous
 62
     0
440
 16777216
100
AcDbBlockReference
  2
_OPEN
 10
-52.59350585939951
 20
-511.2699266146073
 30
0.0
 41
2.0
 42
2.0
 43
2.0
 50
180.0
  0
INSERT
  5
7F92
330
7903
100
AcDbEntity
  8
30
  6
Continuous
 62
     0
440
 16777216
100
AcDbBlockReference
  2
_OPEN
 10
52.40649414060049
 20
-511.2699266146073
 30
0.0
 41
2.0
 42
2.0
 43
2.0
  0
MTEXT
  5
7F93
330
7903
100
AcDbEntity
  8
30
  6
Continuous
 62
     0
440
 16777216
100
AcDbMText
 10
-0.0935058593995063
 20
-505.2699266146071
 30
0.0
 40
10.0
 41
0.0
 46
0.0
 71
     5
 72
     1
  1
\A1;105
 73
     1
 44
1.0
1001
ACAD
1000
MTEXTBEGIN
1070
    73
1070
     1
1070
    44
1040
1.0
1070
    74
1070
     0
1000
MTEXTEND
1000
MTEXTBEGIN
1070
    73
1070
     1
1070
    44
1040
1.0
1070
    74
1070
     0
1000
MTEXTEND
1000
MTEXTBEGIN
1070
    73
1070
     1
1070
    44
1040
1.0
1070
    74
1070
     0
1000
MTEXTEND
  0
POINT
  5
7F94
330
7903
100
AcDbEntity
  8
DEFPOINTS
  6
Continuous
 62
     0
440
 16777216
100
AcDbPoint
 10
-52.5935058593995
 20
-423.1905402525493
 30
0.0
  0
POINT
  5
7F95
330
7903
100
AcDbEntity
  8
DEFPOINTS
  6
Continuous
 62
     0
440
 16777216
100
AcDbPoint
 10
52.4064941406005
 20
-423.1905402525493
 30
0.0
  0
POINT
  5
7F96
330
7903
100
AcDbEntity
  8
DEFPOINTS
  6
Continuous
 62
     0
440
 16777216
100
AcDbPoint
 10
52.40649414060049
 20
-511.2699266146073
 30
0.0
  0
ENDBLK
  5
790E
330
7903
100
AcDbEntity
  8
0
100
AcDbBlockEnd
  0
BLOCK
  5
7934
330
792A
100
AcDbEntity
  8
0
100
AcDbBlockBegin
  2
*D21
 70
     1
 10
0.0
 20
0.0
 30
0.0
  3
*D21
  1

  0
LINE
  5
7F97
330
792A
100
AcDbEntity
  8
30
  6
Continuous
 62
     0
440
 16777216
100
AcDbLine
 10
311.4580078125005
 20
-719.1905707701293
 30
0.0
 11
319.8207301457713
 21
-719.1905707701293
 31
0.0
  0
LINE
  5
7F98
330
792A
100
AcDbEntity
  8
30
  6
Continuous
 62
     0
440
 16777216
100
AcDbLine
 10
278.9064941406004
 20
-749.1905707701294
 30
0.0
 11
319.8207301457713
 21
-749.1905707701294
 31
0.0
  0
LINE
  5
7F99
330
792A
100
AcDbEntity
  8
30
  6
Continuous
 62
     0
440
 16777216
100
AcDbLine
 10
319.3207301457714
 20
-721.1905707701292
 30
0.0
 11
319.3207301457714
 21
-747.1905707701294
 31
0.0
  0
INSERT
  5
7F9A
330
792A
100
AcDbEntity
  8
30
  6
Continuous
 62
     0
440
 16777216
100
AcDbBlockReference
  2
_OPEN
 10
319.3207301457714
 20
-719.1905707701293
 30
0.0
 41
2.0
 42
2.0
 43
2.0
 50
90.0
  0
INSERT
  5
7F9B
330
792A
100
AcDbEntity
  8
30
  6
Continuous
 62
     0
440
 16777216
100
AcDbBlockReference
  2
_OPEN
 10
319.3207301457714
 20
-749.1905707701294
 30
0.0
 41
2.0
 42
2.0
 43
2.0
 50
270.0
  0
MTEXT
  5
7F9C
330
792A
100
AcDbEntity
  8
30
  6
Continuous
 62
     0
440
 16777216
100
AcDbMText
 10
313.3207301457715
 20
-734.1905707701291
 30
0.0
 40
10.0
 41
0.0
 46
0.0
 71
     5
 72
     1
  1
\A1;30
 11
0.0000000000000001
 21
1.0
 31
0.0
 73
     1
 44
1.0
1001
ACAD
1000
MTEXTBEGIN
1070
    73
1070
     1
1070
    44
1040
1.0
1070
    74
1070
     0
1000
MTEXTEND
1000
MTEXTBEGIN
1070
    73
1070
     1
1070
    44
1040
1.0
1070
    74
1070
     0
1000
MTEXTEND
1000
MTEXTBEGIN
1070
    73
1070
     1
1070
    44
1040
1.0
1070
    74
1070
     0
1000
MTEXTEND
  0
POINT
  5
7F9D
330
792A
100
AcDbEntity
  8
DEFPOINTS
  6
Continuous
 62
     0
440
 16777216
100
AcDbPoint
 10
301.4580078125005
 20
-719.1905707701293
 30
0.0
  0
POINT
  5
7F9E
330
792A
100
AcDbEntity
  8
DEFPOINTS
  6
Continuous
 62
     0
440
 16777216
100
AcDbPoint
 10
268.9064941406005
 20
-749.1905707701294
 30
0.0
  0
POINT
  5
7F9F
330
792A
100
AcDbEntity
  8
DEFPOINTS
  6
Continuous
 62
     0
440
 16777216
100
AcDbPoint
 10
319.3207301457714
 20
-749.1905707701294
 30
0.0
  0
ENDBLK
  5
7935
330
792A
100
AcDbEntity
  8
0
100
AcDbBlockEnd
  0
BLOCK
  5
794A
330
7940
100
AcDbEntity
  8
0
100
AcDbBlockBegin
  2
*D22
 70
     1
 10
0.0
 20
0.0
 30
0.0
  3
*D22
  1

  0
LINE
  5
7FA0
330
7940
100
AcDbEntity
  8
30
  6
Continuous
 62
     0
440
 16777216
100
AcDbLine
 10
77.4064941406005
 20
-438.1905402525492
 30
0.0
 11
358.0838054076048
 21
-438.1905402525492
 31
0.0
  0
LINE
  5
7FA1
330
7940
100
AcDbEntity
  8
30
  6
Continuous
 62
     0
440
 16777216
100
AcDbLine
 10
278.9064941406004
 20
-638.1905093415666
 30
0.0
 11
358.0838054076048
 21
-638.1905093415666
 31
0.0
  0
LINE
  5
7FA2
330
7940
100
AcDbEntity
  8
30
  6
Continuous
 62
     0
440
 16777216
100
AcDbLine
 10
357.5838054076048
 20
-440.1905402525493
 30
0.0
 11
357.5838054076048
 21
-636.1905093415666
 31
0.0
  0
INSERT
  5
7FA3
330
7940
100
AcDbEntity
  8
30
  6
Continuous
 62
     0
440
 16777216
100
AcDbBlockReference
  2
_OPEN
 10
357.5838054076048
 20
-438.1905402525492
 30
0.0
 41
2.0
 42
2.0
 43
2.0
 50
90.0
  0
INSERT
  5
7FA4
330
7940
100
AcDbEntity
  8
30
  6
Continuous
 62
     0
440
 16777216
100
AcDbBlockReference
  2
_OPEN
 10
357.5838054076048
 20
-638.1905093415666
 30
0.0
 41
2.0
 42
2.0
 43
2.0
 50
270.0
  0
MTEXT
  5
7FA5
330
7940
100
AcDbEntity
  8
30
  6
Continuous
 62
     0
440
 16777216
100
AcDbMText
 10
351.5838054076048
 20
-538.1905247970578
 30
0.0
 40
10.0
 41
0.0
 46
0.0
 71
     5
 72
     1
  1
\A1;200
 11
0.0000000000000001
 21
1.0
 31
0.0
 73
     1
 44
1.0
1001
ACAD
1000
MTEXTBEGIN
1070
    73
1070
     1
1070
    44
1040
1.0
1070
    74
1070
     0
1000
MTEXTEND
1000
MTEXTBEGIN
1070
    73
1070
     1
1070
    44
1040
1.0
1070
    74
1070
     0
1000
MTEXTEND
1000
MTEXTBEGIN
1070
    73
1070
     1
1070
    44
1040
1.0
1070
    74
1070
     0
1000
MTEXTEND
  0
POINT
  5
7FA6
330
7940
100
AcDbEntity
  8
DEFPOINTS
  6
Continuous
 62
     0
440
 16777216
100
AcDbPoint
 10
67.4064941406005
 20
-438.1905402525492
 30
0.0
  0
POINT
  5
7FA7
330
7940
100
AcDbEntity
  8
DEFPOINTS
  6
Continuous
 62
     0
440
 16777216
100
AcDbPoint
 10
268.9064941406005
 20
-638.1905093415666
 30
0.0
  0
POINT
  5
7FA8
330
7940
100
AcDbEntity
  8
DEFPOINTS
  6
Continuous
 62
     0
440
 16777216
100
AcDbPoint
 10
357.5838054076048
 20
-638.1905093415666
 30
0.0
  0
ENDBLK
  5
794B
330
7940
100
AcDbEntity
  8
0
100
AcDbBlockEnd
  0
BLOCK
  5
7957
330
794D
100
AcDbEntity
  8
0
100
AcDbBlockBegin
  2
*D23
 70
     1
 10
0.0
 20
0.0
 30
0.0
  3
*D23
  1

  0
LINE
  5
8311
330
794D
100
AcDbEntity
  8
30
  6
Continuous
 62
     0
440
 16777216
100
AcDbLine
 10
278.9064941406004
 20
-638.1905093415666
 30
0.0
 11
358.0838054076047
 21
-638.1905093415666
 31
0.0
  0
LINE
  5
8312
330
794D
100
AcDbEntity
  8
30
  6
Continuous
 62
     0
440
 16777216
100
AcDbLine
 10
175.9064941406005
 20
-749.1905707701293
 30
0.0
 11
358.0838054076047
 21
-749.1905707701294
 31
0.0
  0
LINE
  5
8313
330
794D
100
AcDbEntity
  8
30
  6
Continuous
 62
     0
440
 16777216
100
AcDbLine
 10
357.5838054076047
 20
-640.1905093415666
 30
0.0
 11
357.5838054076047
 21
-747.1905707701294
 31
0.0
  0
INSERT
  5
8314
330
794D
100
AcDbEntity
  8
30
  6
Continuous
 62
     0
440
 16777216
100
AcDbBlockReference
  2
_OPEN
 10
357.5838054076047
 20
-638.1905093415666
 30
0.0
 41
2.0
 42
2.0
 43
2.0
 50
90.0
  0
INSERT
  5
8315
330
794D
100
AcDbEntity
  8
30
  6
Continuous
 62
     0
440
 16777216
100
AcDbBlockReference
  2
_OPEN
 10
357.5838054076047
 20
-749.1905707701294
 30
0.0
 41
2.0
 42
2.0
 43
2.0
 50
270.0
  0
MTEXT
  5
8316
330
794D
100
AcDbEntity
  8
30
  6
Continuous
 62
     0
440
 16777216
100
AcDbMText
 10
351.5838054076048
 20
-693.6905400558479
 30
0.0
 40
10.0
 41
0.0
 46
0.0
 71
     5
 72
     1
  1
\A1;111
 11
0.0000000000000001
 21
1.0
 31
0.0
 73
     1
 44
1.0
  0
POINT
  5
8317
330
794D
100
AcDbEntity
  8
DEFPOINTS
  6
Continuous
 62
     0
440
 16777216
100
AcDbPoint
 10
268.9064941406005
 20
-638.1905093415666
 30
0.0
  0
POINT
  5
8318
330
794D
100
AcDbEntity
  8
DEFPOINTS
  6
Continuous
 62
     0
440
 16777216
100
AcDbPoint
 10
165.9064941406005
 20
-749.1905707701293
 30
0.0
  0
POINT
  5
8319
330
794D
100
AcDbEntity
  8
DEFPOINTS
  6
Continuous
 62
     0
440
 16777216
100
AcDbPoint
 10
357.5838054076047
 20
-749.1905707701294
 30
0.0
  0
ENDBLK
  5
7958
330
794D
100
AcDbEntity
  8
0
100
AcDbBlockEnd
  0
BLOCK
  5
7963
330
795A
100
AcDbEntity
  8
0
100
AcDbBlockBegin
  2
*D24
 70
     1
 10
0.0
 20
0.0
 30
0.0
  3
*D24
  1

  0
LINE
  5
7FB2
330
795A
100
AcDbEntity
  8
30
  6
Continuous
 62
     0
440
 16777216
100
AcDbLine
 10
223.1690229296379
 20
-827.7730790820276
 30
0.0
 11
198.8356895963045
 21
-827.7730790820276
 31
0.0
  0
LINE
  5
7FB3
330
795A
100
AcDbEntity
  8
30
  6
Continuous
 62
     0
440
 16777216
100
AcDbLine
 10
198.8356895963045
 20
-827.7730790820276
 30
0.0
 11
155.0721791634473
 21
-756.0204366758722
 31
0.0
  0
MTEXT
  5
7FB4
330
795A
100
AcDbEntity
  8
30
  6
Continuous
 62
     0
440
 16777216
100
AcDbMText
 10
211.5023562629712
 20
-821.7730790820278
 30
0.0
 40
10.0
 41
0.0
 46
0.0
 71
     5
 72
     1
  1
\A1;%%c12
 73
     1
 44
1.0
1001
ACAD
1000
MTEXTBEGIN
1070
    73
1070
     1
1070
    44
1040
1.0
1070
    74
1070
     0
1000
MTEXTEND
1000
MTEXTBEGIN
1070
    73
1070
     1
1070
    44
1040
1.0
1070
    74
1070
     0
1000
MTEXTEND
1000
MTEXTBEGIN
1070
    73
1070
     1
1070
    44
1040
1.0
1070
    74
1070
     0
1000
MTEXTEND
  0
INSERT
  5
7FB5
330
795A
100
AcDbEntity
  8
30
  6
Continuous
 62
     0
440
 16777216
100
AcDbBlockReference
  2
_OPEN
 10
154.0307579077357
 20
-754.3129701994362
 30
0.0
 41
2.0
 42
2.0
 43
2.0
 50
121.3799310883816
  0
LINE
  5
7FB6
330
795A
100
AcDbEntity
  8
30
  6
Continuous
 62
     0
440
 16777216
100
AcDbLine
 10
150.8164941406004
 20
-749.1905707701294
 30
0.0
 11
150.9964941406004
 21
-749.1905707701293
 31
0.0
  0
LINE
  5
7FB7
330
795A
100
AcDbEntity
  8
30
  6
Continuous
 62
     0
440
 16777216
100
AcDbLine
 10
150.9064941406005
 20
-749.2805707701291
 30
0.0
 11
150.9064941406005
 21
-749.1005707701292
 31
0.0
  0
POINT
  5
7FB8
330
795A
100
AcDbEntity
  8
DEFPOINTS
  6
Continuous
 62
     0
440
 16777216
100
AcDbPoint
 10
154.0307579077357
 20
-754.3129701994362
 30
0.0
  0
POINT
  5
7FB9
330
795A
100
AcDbEntity
  8
DEFPOINTS
  6
Continuous
 62
     0
440
 16777216
100
AcDbPoint
 10
150.9064941406005
 20
-749.1905707701293
 30
0.0
  0
ENDBLK
  5
7964
330
795A
100
AcDbEntity
  8
0
100
AcDbBlockEnd
  0
BLOCK
  5
7E50
330
7E46
100
AcDbEntity
  8
0
100
AcDbBlockBegin
  2
*D25
 70
     1
 10
0.0
 20
0.0
 30
0.0
  3
*D25
  1

  0
LINE
  5
7FBA
330
7E46
100
AcDbEntity
  8
30
  6
Continuous
 62
     0
440
 16777216
100
AcDbLine
 10
54.5
 20
47.99999999999997
 30
0.0
 11
54.5
 21
90.67913804377441
 31
0.0
  0
LINE
  5
7FBB
330
7E46
100
AcDbEntity
  8
30
  6
Continuous
 62
     0
440
 16777216
100
AcDbLine
 10
0.0000000000000006
 20
48.0
 30
0.0
 11
0.0000000000000032
 21
90.67913804377441
 31
0.0
  0
LINE
  5
7FBC
330
7E46
100
AcDbEntity
  8
30
  6
Continuous
 62
     0
440
 16777216
100
AcDbLine
 10
52.5
 20
90.17913804377441
 30
0.0
 11
2.000000000000003
 21
90.17913804377441
 31
0.0
  0
INSERT
  5
7FBD
330
7E46
100
AcDbEntity
  8
30
  6
Continuous
 62
     0
440
 16777216
100
AcDbBlockReference
  2
_OPEN
 10
54.5
 20
90.17913804377441
 30
0.0
 41
2.0
 42
2.0
 43
2.0
  0
INSERT
  5
7FBE
330
7E46
100
AcDbEntity
  8
30
  6
Continuous
 62
     0
440
 16777216
100
AcDbBlockReference
  2
_OPEN
 10
0.0000000000000032
 20
90.17913804377441
 30
0.0
 41
2.0
 42
2.0
 43
2.0
 50
180.0
  0
MTEXT
  5
7FBF
330
7E46
100
AcDbEntity
  8
30
  6
Continuous
 62
     0
440
 16777216
100
AcDbMText
 10
27.25
 20
96.17913804377442
 30
0.0
 40
10.0
 41
0.0
 46
0.0
 71
     5
 72
     1
  1
\A1;54.5
 73
     1
 44
1.0
1001
ACAD
1000
MTEXTBEGIN
1070
    73
1070
     1
1070
    44
1040
1.0
1070
    74
1070
     0
1000
MTEXTEND
1000
MTEXTBEGIN
1070
    73
1070
     1
1070
    44
1040
1.0
1070
    74
1070
     0
1000
MTEXTEND
1000
MTEXTBEGIN
1070
    73
1070
     1
1070
    44
1040
1.0
1070
    74
1070
     0
1000
MTEXTEND
  0
POINT
  5
7FC0
330
7E46
100
AcDbEntity
  8
DEFPOINTS
  6
Continuous
 62
     0
440
 16777216
100
AcDbPoint
 10
54.5
 20
37.99999999999997
 30
0.0
  0
POINT
  5
7FC1
330
7E46
100
AcDbEntity
  8
DEFPOINTS
  6
Continuous
 62
     0
440
 16777216
100
AcDbPoint
 10
0.0
 20
38.0
 30
0.0
  0
POINT
  5
7FC2
330
7E46
100
AcDbEntity
  8
DEFPOINTS
  6
Continuous
 62
     0
440
 16777216
100
AcDbPoint
 10
0.0000000000000032
 20
90.17913804377441
 30
0.0
  0
ENDBLK
  5
7E51
330
7E46
100
AcDbEntity
  8
0
100
AcDbBlockEnd
  0
BLOCK
  5
7E5D
330
7E53
100
AcDbEntity
  8
0
100
AcDbBlockBegin
  2
*D26
 70
     1
 10
0.0
 20
0.0
 30
0.0
  3
*D26
  1

  0
LINE
  5
7FC3
330
7E53
100
AcDbEntity
  8
30
  6
Continuous
 62
     0
440
 16777216
100
AcDbLine
 10
321.9998779297
 20
0.0000000000000256
 30
0.0
 11
380.1662686973859
 21
0.0000000000000091
 31
0.0
  0
LINE
  5
7FC4
330
7E53
100
AcDbEntity
  8
30
  6
Continuous
 62
     0
440
 16777216
100
AcDbLine
 10
321.9998779297
 20
-32.00000000000004
 30
0.0
 11
380.1662686973859
 21
-32.00000000000005
 31
0.0
  0
LINE
  5
7FC5
330
7E53
100
AcDbEntity
  8
30
  6
Continuous
 62
     0
440
 16777216
100
AcDbLine
 10
379.6662686973856
 20
-1.999999999999986
 30
0.0
 11
379.6662686973856
 21
-30.00000000000005
 31
0.0
  0
INSERT
  5
7FC6
330
7E53
100
AcDbEntity
  8
30
  6
Continuous
 62
     0
440
 16777216
100
AcDbBlockReference
  2
_OPEN
 10
379.6662686973856
 20
0.0000000000000093
 30
0.0
 41
2.0
 42
2.0
 43
2.0
 50
90.0
  0
INSERT
  5
7FC7
330
7E53
100
AcDbEntity
  8
30
  6
Continuous
 62
     0
440
 16777216
100
AcDbBlockReference
  2
_OPEN
 10
379.6662686973856
 20
-32.00000000000005
 30
0.0
 41
2.0
 42
2.0
 43
2.0
 50
270.0
  0
MTEXT
  5
7FC8
330
7E53
100
AcDbEntity
  8
30
  6
Continuous
 62
     0
440
 16777216
100
AcDbMText
 10
373.6662686973857
 20
-15.99999999999996
 30
0.0
 40
10.0
 41
0.0
 46
0.0
 71
     5
 72
     1
  1
\A1;32
 11
0.0000000000000001
 21
1.0
 31
0.0
 73
     1
 44
1.0
1001
ACAD
1000
MTEXTBEGIN
1070
    73
1070
     1
1070
    44
1040
1.0
1070
    74
1070
     0
1000
MTEXTEND
1000
MTEXTBEGIN
1070
    73
1070
     1
1070
    44
1040
1.0
1070
    74
1070
     0
1000
MTEXTEND
1000
MTEXTBEGIN
1070
    73
1070
     1
1070
    44
1040
1.0
1070
    74
1070
     0
1000
MTEXTEND
  0
POINT
  5
7FC9
330
7E53
100
AcDbEntity
  8
DEFPOINTS
  6
Continuous
 62
     0
440
 16777216
100
AcDbPoint
 10
311.9998779297
 20
0.0000000000000284
 30
0.0
  0
POINT
  5
7FCA
330
7E53
100
AcDbEntity
  8
DEFPOINTS
  6
Continuous
 62
     0
440
 16777216
100
AcDbPoint
 10
311.9998779297
 20
-32.00000000000002
 30
0.0
  0
POINT
  5
7FCB
330
7E53
100
AcDbEntity
  8
DEFPOINTS
  6
Continuous
 62
     0
440
 16777216
100
AcDbPoint
 10
379.6662686973856
 20
-32.00000000000005
 30
0.0
  0
ENDBLK
  5
7E5E
330
7E53
100
AcDbEntity
  8
0
100
AcDbBlockEnd
  0
BLOCK
  5
7E6A
330
7E60
100
AcDbEntity
  8
0
100
AcDbBlockBegin
  2
*D27
 70
     1
 10
0.0
 20
0.0
 30
0.0
  3
*D27
  1

  0
LINE
  5
7FCC
330
7E60
100
AcDbEntity
  8
30
  6
Continuous
 62
     0
440
 16777216
100
AcDbLine
 10
321.9998779297
 20
239.9999999999999
 30
0.0
 11
401.3433748282315
 21
239.9999999999999
 31
0.0
  0
LINE
  5
7FCD
330
7E60
100
AcDbEntity
  8
30
  6
Continuous
 62
     0
440
 16777216
100
AcDbLine
 10
321.9998779297
 20
-240.0
 30
0.0
 11
401.3433748282312
 21
-240.0
 31
0.0
  0
LINE
  5
7FCE
330
7E60
100
AcDbEntity
  8
30
  6
Continuous
 62
     0
440
 16777216
100
AcDbLine
 10
400.8433748282315
 20
237.9999999999999
 30
0.0
 11
400.8433748282312
 21
-238.0
 31
0.0
  0
INSERT
  5
7FCF
330
7E60
100
AcDbEntity
  8
30
  6
Continuous
 62
     0
440
 16777216
100
AcDbBlockReference
  2
_OPEN
 10
400.8433748282315
 20
239.9999999999999
 30
0.0
 41
2.0
 42
2.0
 43
2.0
 50
90.0
  0
INSERT
  5
7FD0
330
7E60
100
AcDbEntity
  8
30
  6
Continuous
 62
     0
440
 16777216
100
AcDbBlockReference
  2
_OPEN
 10
400.8433748282312
 20
-240.0
 30
0.0
 41
2.0
 42
2.0
 43
2.0
 50
270.0
  0
MTEXT
  5
7FD1
330
7E60
100
AcDbEntity
  8
30
  6
Continuous
 62
     0
440
 16777216
100
AcDbMText
 10
394.8433748282312
 20
0.0000000000000046
 30
0.0
 40
10.0
 41
0.0
 46
0.0
 71
     5
 72
     1
  1
\A1;480
 11
0.0000000000000001
 21
1.0
 31
0.0
 73
     1
 44
1.0
1001
ACAD
1000
MTEXTBEGIN
1070
    73
1070
     1
1070
    44
1040
1.0
1070
    74
1070
     0
1000
MTEXTEND
1000
MTEXTBEGIN
1070
    73
1070
     1
1070
    44
1040
1.0
1070
    74
1070
     0
1000
MTEXTEND
1000
MTEXTBEGIN
1070
    73
1070
     1
1070
    44
1040
1.0
1070
    74
1070
     0
1000
MTEXTEND
  0
POINT
  5
7FD2
330
7E60
100
AcDbEntity
  8
DEFPOINTS
  6
Continuous
 62
     0
440
 16777216
100
AcDbPoint
 10
311.9998779297
 20
239.9999999999999
 30
0.0
  0
POINT
  5
7FD3
330
7E60
100
AcDbEntity
  8
DEFPOINTS
  6
Continuous
 62
     0
440
 16777216
100
AcDbPoint
 10
311.9998779297
 20
-240.0
 30
0.0
  0
POINT
  5
7FD4
330
7E60
100
AcDbEntity
  8
DEFPOINTS
  6
Continuous
 62
     0
440
 16777216
100
AcDbPoint
 10
400.8433748282312
 20
-240.0
 30
0.0
  0
ENDBLK
  5
7E6B
330
7E60
100
AcDbEntity
  8
0
100
AcDbBlockEnd
  0
BLOCK
  5
7E77
330
7E6D
100
AcDbEntity
  8
0
100
AcDbBlockBegin
  2
*D28
 70
     1
 10
0.0
 20
0.0
 30
0.0
  3
*D28
  1

  0
LINE
  5
831A
330
7E6D
100
AcDbEntity
  8
30
  6
Continuous
 62
     0
440
 16777216
100
AcDbLine
 10
321.9998779297
 20
-240.0
 30
0.0
 11
401.3433748282312
 21
-240.0
 31
0.0
  0
LINE
  5
831B
330
7E6D
100
AcDbEntity
  8
30
  6
Continuous
 62
     0
440
 16777216
100
AcDbLine
 10
260.0
 20
-255.0
 30
0.0
 11
401.3433748282312
 21
-255.0
 31
0.0
  0
LINE
  5
831C
330
7E6D
100
AcDbEntity
  8
30
  6
Continuous
 62
     0
440
 16777216
100
AcDbLine
 10
400.8433748282312
 20
-242.0
 30
0.0
 11
400.8433748282312
 21
-253.0
 31
0.0
  0
LINE
  5
831D
330
7E6D
100
AcDbEntity
  8
30
  6
Continuous
 62
     0
440
 16777216
100
AcDbLine
 10
383.5100414948978
 20
-278.365098435891
 30
0.0
 11
400.8433748282312
 21
-278.365098435891
 31
0.0
  0
LINE
  5
831E
330
7E6D
100
AcDbEntity
  8
30
  6
Continuous
 62
     0
440
 16777216
100
AcDbLine
 10
400.8433748282312
 20
-278.365098435891
 30
0.0
 11
400.8433748282312
 21
-255.0
 31
0.0
  0
MTEXT
  5
831F
330
7E6D
100
AcDbEntity
  8
30
  6
Continuous
 62
     0
440
 16777216
100
AcDbMText
 10
391.1767081615646
 20
-272.365098435891
 30
0.0
 40
10.0
 41
0.0
 46
0.0
 71
     5
 72
     1
  1
\A1;15
 73
     1
 44
1.0
  0
INSERT
  5
8320
330
7E6D
100
AcDbEntity
  8
30
  6
Continuous
 62
     0
440
 16777216
100
AcDbBlockReference
  2
_OPEN
 10
400.8433748282312
 20
-240.0
 30
0.0
 41
2.0
 42
2.0
 43
2.0
 50
90.0
  0
INSERT
  5
8321
330
7E6D
100
AcDbEntity
  8
30
  6
Continuous
 62
     0
440
 16777216
100
AcDbBlockReference
  2
_OPEN
 10
400.8433748282312
 20
-255.0
 30
0.0
 41
2.0
 42
2.0
 43
2.0
 50
270.0
  0
POINT
  5
8322
330
7E6D
100
AcDbEntity
  8
DEFPOINTS
  6
Continuous
 62
     0
440
 16777216
100
AcDbPoint
 10
311.9998779297
 20
-240.0
 30
0.0
  0
POINT
  5
8323
330
7E6D
100
AcDbEntity
  8
DEFPOINTS
  6
Continuous
 62
     0
440
 16777216
100
AcDbPoint
 10
250.0
 20
-255.0
 30
0.0
  0
POINT
  5
8324
330
7E6D
100
AcDbEntity
  8
DEFPOINTS
  6
Continuous
 62
     0
440
 16777216
100
AcDbPoint
 10
400.8433748282312
 20
-255.0
 30
0.0
  0
ENDBLK
  5
7E78
330
7E6D
100
AcDbEntity
  8
0
100
AcDbBlockEnd
  0
BLOCK
  5
7E8C
330
7E82
100
AcDbEntity
  8
0
100
AcDbBlockBegin
  2
*D29
 70
     1
 10
0.0
 20
0.0
 30
0.0
  3
*D29
  1

  0
LINE
  5
7FE0
330
7E82
100
AcDbEntity
  8
30
  6
Continuous
 62
     0
440
 16777216
100
AcDbLine
 10
890.9518059636353
 20
80.99999999999997
 30
0.0
 11
959.0535765878993
 21
80.99999999999996
 31
0.0
  0
LINE
  5
7FE1
330
7E82
100
AcDbEntity
  8
30
  6
Continuous
 62
     0
440
 16777216
100
AcDbLine
 10
834.2565815759543
 20
-0.0000000000000031
 30
0.0
 11
959.0535765878993
 21
-0.0000000000000385
 31
0.0
  0
LINE
  5
7FE2
330
7E82
100
AcDbEntity
  8
30
  6
Continuous
 62
     0
440
 16777216
100
AcDbLine
 10
958.5535765878994
 20
78.99999999999995
 30
0.0
 11
958.5535765878994
 21
1.99999999999996
 31
0.0
  0
INSERT
  5
7FE3
330
7E82
100
AcDbEntity
  8
30
  6
Continuous
 62
     0
440
 16777216
100
AcDbBlockReference
  2
_OPEN
 10
958.5535765878994
 20
80.99999999999996
 30
0.0
 41
2.0
 42
2.0
 43
2.0
 50
90.0
  0
INSERT
  5
7FE4
330
7E82
100
AcDbEntity
  8
30
  6
Continuous
 62
     0
440
 16777216
100
AcDbBlockReference
  2
_OPEN
 10
958.5535765878994
 20
-0.0000000000000383
 30
0.0
 41
2.0
 42
2.0
 43
2.0
 50
270.0
  0
MTEXT
  5
7FE5
330
7E82
100
AcDbEntity
  8
30
  6
Continuous
 62
     0
440
 16777216
100
AcDbMText
 10
952.5535765878997
 20
40.5000000000001
 30
0.0
 40
10.0
 41
0.0
 46
0.0
 71
     5
 72
     1
  1
\A1;81
 11
0.0000000000000001
 21
1.0
 31
0.0
 73
     1
 44
1.0
1001
ACAD
1000
MTEXTBEGIN
1070
    73
1070
     1
1070
    44
1040
1.0
1070
    74
1070
     0
1000
MTEXTEND
1000
MTEXTBEGIN
1070
    73
1070
     1
1070
    44
1040
1.0
1070
    74
1070
     0
1000
MTEXTEND
1000
MTEXTBEGIN
1070
    73
1070
     1
1070
    44
1040
1.0
1070
    74
1070
     0
1000
MTEXTEND
  0
POINT
  5
7FE6
330
7E82
100
AcDbEntity
  8
DEFPOINTS
  6
Continuous
 62
     0
440
 16777216
100
AcDbPoint
 10
880.9518059636353
 20
80.99999999999997
 30
0.0
  0
POINT
  5
7FE7
330
7E82
100
AcDbEntity
  8
DEFPOINTS
  6
Continuous
 62
     0
440
 16777216
100
AcDbPoint
 10
824.2565815759544
 20
-0.0000000000000003
 30
0.0
  0
POINT
  5
7FE8
330
7E82
100
AcDbEntity
  8
DEFPOINTS
  6
Continuous
 62
     0
440
 16777216
100
AcDbPoint
 10
958.5535765878994
 20
-0.0000000000000383
 30
0.0
  0
ENDBLK
  5
7E8D
330
7E82
100
AcDbEntity
  8
0
100
AcDbBlockEnd
  0
BLOCK
  5
7E99
330
7E8F
100
AcDbEntity
  8
0
100
AcDbBlockBegin
  2
*D30
 70
     1
 10
0.0
 20
0.0
 30
0.0
  3
*D30
  1

  0
LINE
  5
8325
330
7E8F
100
AcDbEntity
  8
30
  6
Continuous
 62
     0
440
 16777216
100
AcDbLine
 10
834.2565815759543
 20
-0.0000000000000031
 30
0.0
 11
959.0535765878993
 21
-0.0000000000000385
 31
0.0
  0
LINE
  5
8326
330
7E8F
100
AcDbEntity
  8
30
  6
Continuous
 62
     0
440
 16777216
100
AcDbLine
 10
938.3186232400984
 20
-210.0
 30
0.0
 11
959.0535765878993
 21
-210.0
 31
0.0
  0
LINE
  5
8327
330
7E8F
100
AcDbEntity
  8
30
  6
Continuous
 62
     0
440
 16777216
100
AcDbLine
 10
958.5535765878994
 20
-2.000000000000038
 30
0.0
 11
958.5535765878994
 21
-208.0
 31
0.0
  0
INSERT
  5
8328
330
7E8F
100
AcDbEntity
  8
30
  6
Continuous
 62
     0
440
 16777216
100
AcDbBlockReference
  2
_OPEN
 10
958.5535765878994
 20
-0.0000000000000383
 30
0.0
 41
2.0
 42
2.0
 43
2.0
 50
90.0
  0
INSERT
  5
8329
330
7E8F
100
AcDbEntity
  8
30
  6
Continuous
 62
     0
440
 16777216
100
AcDbBlockReference
  2
_OPEN
 10
958.5535765878994
 20
-210.0
 30
0.0
 41
2.0
 42
2.0
 43
2.0
 50
270.0
  0
MTEXT
  5
832A
330
7E8F
100
AcDbEntity
  8
30
  6
Continuous
 62
     0
440
 16777216
100
AcDbMText
 10
952.5535765878993
 20
-104.9999999999997
 30
0.0
 40
10.0
 41
0.0
 46
0.0
 71
     5
 72
     1
  1
\A1;210
 11
0.0000000000000001
 21
1.0
 31
0.0
 73
     1
 44
1.0
  0
POINT
  5
832B
330
7E8F
100
AcDbEntity
  8
DEFPOINTS
  6
Continuous
 62
     0
440
 16777216
100
AcDbPoint
 10
824.2565815759544
 20
-0.0000000000000003
 30
0.0
  0
POINT
  5
832C
330
7E8F
100
AcDbEntity
  8
DEFPOINTS
  6
Continuous
 62
     0
440
 16777216
100
AcDbPoint
 10
928.3186232400986
 20
-210.0
 30
0.0
  0
POINT
  5
832D
330
7E8F
100
AcDbEntity
  8
DEFPOINTS
  6
Continuous
 62
     0
440
 16777216
100
AcDbPoint
 10
958.5535765878994
 20
-210.0
 30
0.0
  0
ENDBLK
  5
7E9A
330
7E8F
100
AcDbEntity
  8
0
100
AcDbBlockEnd
  0
BLOCK
  5
7EA5
330
7E9C
100
AcDbEntity
  8
0
100
AcDbBlockBegin
  2
*D31
 70
     1
 10
0.0
 20
0.0
 30
0.0
  3
*D31
  1

  0
LINE
  5
7FF2
330
7E9C
100
AcDbEntity
  8
30
  6
Continuous
 62
     0
440
 16777216
100
AcDbLine
 10
959.735652920812
 20
-296.8426672866197
 30
0.0
 11
935.4023195874786
 21
-296.8426672866198
 31
0.0
  0
LINE
  5
7FF3
330
7E9C
100
AcDbEntity
  8
30
  6
Continuous
 62
     0
440
 16777216
100
AcDbLine
 10
935.4023195874786
 20
-296.8426672866198
 30
0.0
 11
867.6487297490366
 21
-236.0125877800268
 31
0.0
  0
MTEXT
  5
7FF4
330
7E9C
100
AcDbEntity
  8
30
  6
Continuous
 62
     0
440
 16777216
100
AcDbMText
 10
948.0689862541451
 20
-290.8426672866198
 30
0.0
 40
10.0
 41
0.0
 46
0.0
 71
     5
 72
     1
  1
\A1;∅14
 73
     1
 44
1.0
1001
ACAD
1000
MTEXTBEGIN
1070
    73
1070
     1
1070
    44
1040
1.0
1070
    74
1070
     0
1000
MTEXTEND
1000
MTEXTBEGIN
1070
    73
1070
     1
1070
    44
1040
1.0
1070
    74
1070
     0
1000
MTEXTEND
1000
MTEXTBEGIN
1070
    73
1070
     1
1070
    44
1040
1.0
1070
    74
1070
     0
1000
MTEXTEND
  0
INSERT
  5
7FF5
330
7E9C
100
AcDbEntity
  8
30
  6
Continuous
 62
     0
440
 16777216
100
AcDbBlockReference
  2
_OPEN
 10
866.160524463392
 20
-234.6764571622431
 30
0.0
 41
2.0
 42
2.0
 43
2.0
 50
138.0820805409288
  0
LINE
  5
7FF6
330
7E9C
100
AcDbEntity
  8
30
  6
Continuous
 62
     0
440
 16777216
100
AcDbLine
 10
860.8618059636354
 20
-230.0
 30
0.0
 11
861.0418059636353
 21
-230.0
 31
0.0
  0
LINE
  5
7FF7
330
7E9C
100
AcDbEntity
  8
30
  6
Continuous
 62
     0
440
 16777216
100
AcDbLine
 10
860.9518059636352
 20
-230.0899999999999
 30
0.0
 11
860.9518059636352
 21
-229.91
 31
0.0
  0
POINT
  5
7FF8
330
7E9C
100
AcDbEntity
  8
DEFPOINTS
  6
Continuous
 62
     0
440
 16777216
100
AcDbPoint
 10
866.160524463392
 20
-234.6764571622431
 30
0.0
  0
POINT
  5
7FF9
330
7E9C
100
AcDbEntity
  8
DEFPOINTS
  6
Continuous
 62
     0
440
 16777216
100
AcDbPoint
 10
855.7430874638788
 20
-225.3235428377571
 30
0.0
  0
ENDBLK
  5
7EA6
330
7E9C
100
AcDbEntity
  8
0
100
AcDbBlockEnd
  0
BLOCK
  5
7EB2
330
7EA8
100
AcDbEntity
  8
0
100
AcDbBlockBegin
  2
*D32
 70
     1
 10
0.0
 20
0.0
 30
0.0
  3
*D32
  1

  0
LINE
  5
7FFA
330
7EA8
100
AcDbEntity
  8
30
  6
Continuous
 62
     0
440
 16777216
100
AcDbLine
 10
880.9518059636353
 20
-265.0
 30
0.0
 11
880.9518059636353
 21
-310.3427064991806
 31
0.0
  0
LINE
  5
7FFB
330
7EA8
100
AcDbEntity
  8
30
  6
Continuous
 62
     0
440
 16777216
100
AcDbLine
 10
860.9518059636352
 20
-255.4638671875
 30
0.0
 11
860.9518059636352
 21
-310.3427064991806
 31
0.0
  0
LINE
  5
7FFC
330
7EA8
100
AcDbEntity
  8
30
  6
Continuous
 62
     0
440
 16777216
100
AcDbLine
 10
878.9518059636352
 20
-309.8427064991806
 30
0.0
 11
862.9518059636351
 21
-309.8427064991806
 31
0.0
  0
INSERT
  5
7FFD
330
7EA8
100
AcDbEntity
  8
30
  6
Continuous
 62
     0
440
 16777216
100
AcDbBlockReference
  2
_OPEN
 10
880.9518059636353
 20
-309.8427064991806
 30
0.0
 41
2.0
 42
2.0
 43
2.0
  0
INSERT
  5
7FFE
330
7EA8
100
AcDbEntity
  8
30
  6
Continuous
 62
     0
440
 16777216
100
AcDbBlockReference
  2
_OPEN
 10
860.9518059636352
 20
-309.8427064991806
 30
0.0
 41
2.0
 42
2.0
 43
2.0
 50
180.0
  0
MTEXT
  5
7FFF
330
7EA8
100
AcDbEntity
  8
30
  6
Continuous
 62
     0
440
 16777216
100
AcDbMText
 10
870.9518059636351
 20
-303.8427064991806
 30
0.0
 40
10.0
 41
0.0
 46
0.0
 71
     5
 72
     1
  1
\A1;20
 73
     1
 44
1.0
1001
ACAD
1000
MTEXTBEGIN
1070
    73
1070
     1
1070
    44
1040
1.0
1070
    74
1070
     0
1000
MTEXTEND
1000
MTEXTBEGIN
1070
    73
1070
     1
1070
    44
1040
1.0
1070
    74
1070
     0
1000
MTEXTEND
1000
MTEXTBEGIN
1070
    73
1070
     1
1070
    44
1040
1.0
1070
    74
1070
     0
1000
MTEXTEND
  0
POINT
  5
8000
330
7EA8
100
AcDbEntity
  8
DEFPOINTS
  6
Continuous
 62
     0
440
 16777216
100
AcDbPoint
 10
880.9518059636353
 20
-255.0
 30
0.0
  0
POINT
  5
8001
330
7EA8
100
AcDbEntity
  8
DEFPOINTS
  6
Continuous
 62
     0
440
 16777216
100
AcDbPoint
 10
860.9518059636352
 20
-245.4638671875
 30
0.0
  0
POINT
  5
8002
330
7EA8
100
AcDbEntity
  8
DEFPOINTS
  6
Continuous
 62
     0
440
 16777216
100
AcDbPoint
 10
860.9518059636352
 20
-309.8427064991806
 30
0.0
  0
ENDBLK
  5
7EB3
330
7EA8
100
AcDbEntity
  8
0
100
AcDbBlockEnd
  0
BLOCK
  5
7EBF
330
7EB5
100
AcDbEntity
  8
0
100
AcDbBlockBegin
  2
*D33
 70
     1
 10
0.0
 20
0.0
 30
0.0
  3
*D33
  1

  0
LINE
  5
832E
330
7EB5
100
AcDbEntity
  8
30
  6
Continuous
 62
     0
440
 16777216
100
AcDbLine
 10
860.9518059636352
 20
-255.4638671875
 30
0.0
 11
860.9518059636352
 21
-310.3427064991806
 31
0.0
  0
LINE
  5
832F
330
7EB5
100
AcDbEntity
  8
30
  6
Continuous
 62
     0
440
 16777216
100
AcDbLine
 10
820.9518059636351
 20
-253.3300781249999
 30
0.0
 11
820.9518059636351
 21
-310.3427064991806
 31
0.0
  0
LINE
  5
8330
330
7EB5
100
AcDbEntity
  8
30
  6
Continuous
 62
     0
440
 16777216
100
AcDbLine
 10
858.9518059636352
 20
-309.8427064991806
 30
0.0
 11
822.9518059636351
 21
-309.8427064991806
 31
0.0
  0
INSERT
  5
8331
330
7EB5
100
AcDbEntity
  8
30
  6
Continuous
 62
     0
440
 16777216
100
AcDbBlockReference
  2
_OPEN
 10
860.9518059636352
 20
-309.8427064991806
 30
0.0
 41
2.0
 42
2.0
 43
2.0
  0
INSERT
  5
8332
330
7EB5
100
AcDbEntity
  8
30
  6
Continuous
 62
     0
440
 16777216
100
AcDbBlockReference
  2
_OPEN
 10
820.9518059636351
 20
-309.8427064991806
 30
0.0
 41
2.0
 42
2.0
 43
2.0
 50
180.0
  0
MTEXT
  5
8333
330
7EB5
100
AcDbEntity
  8
30
  6
Continuous
 62
     0
440
 16777216
100
AcDbMText
 10
840.9518059636353
 20
-303.8427064991806
 30
0.0
 40
10.0
 41
0.0
 46
0.0
 71
     5
 72
     1
  1
\A1;40
 73
     1
 44
1.0
  0
POINT
  5
8334
330
7EB5
100
AcDbEntity
  8
DEFPOINTS
  6
Continuous
 62
     0
440
 16777216
100
AcDbPoint
 10
860.9518059636352
 20
-245.4638671875
 30
0.0
  0
POINT
  5
8335
330
7EB5
100
AcDbEntity
  8
DEFPOINTS
  6
Continuous
 62
     0
440
 16777216
100
AcDbPoint
 10
820.9518059636351
 20
-243.330078125
 30
0.0
  0
POINT
  5
8336
330
7EB5
100
AcDbEntity
  8
DEFPOINTS
  6
Continuous
 62
     0
440
 16777216
100
AcDbPoint
 10
820.9518059636351
 20
-309.8427064991806
 30
0.0
  0
ENDBLK
  5
7EC0
330
7EB5
100
AcDbEntity
  8
0
100
AcDbBlockEnd
  0
BLOCK
  5
7ECC
330
7EC2
100
AcDbEntity
  8
0
100
AcDbBlockBegin
  2
*D34
 70
     1
 10
0.0
 20
0.0
 30
0.0
  3
*D34
  1

  0
LINE
  5
800C
330
7EC2
100
AcDbEntity
  8
30
  6
Continuous
 62
     0
440
 16777216
100
AcDbLine
 10
485.9517144109526
 20
-40.0
 30
0.0
 11
485.9517144109526
 21
-353.6761718249495
 31
0.0
  0
LINE
  5
800D
330
7EC2
100
AcDbEntity
  8
30
  6
Continuous
 62
     0
440
 16777216
100
AcDbLine
 10
560.9518059636351
 20
-250.0
 30
0.0
 11
560.9518059636351
 21
-353.6761718249495
 31
0.0
  0
LINE
  5
800E
330
7EC2
100
AcDbEntity
  8
30
  6
Continuous
 62
     0
440
 16777216
100
AcDbLine
 10
487.9517144109525
 20
-353.1761718249494
 30
0.0
 11
558.9518059636351
 21
-353.1761718249494
 31
0.0
  0
INSERT
  5
800F
330
7EC2
100
AcDbEntity
  8
30
  6
Continuous
 62
     0
440
 16777216
100
AcDbBlockReference
  2
_OPEN
 10
485.9517144109526
 20
-353.1761718249494
 30
0.0
 41
2.0
 42
2.0
 43
2.0
 50
180.0
  0
INSERT
  5
8010
330
7EC2
100
AcDbEntity
  8
30
  6
Continuous
 62
     0
440
 16777216
100
AcDbBlockReference
  2
_OPEN
 10
560.9518059636351
 20
-353.1761718249494
 30
0.0
 41
2.0
 42
2.0
 43
2.0
  0
MTEXT
  5
8011
330
7EC2
100
AcDbEntity
  8
30
  6
Continuous
 62
     0
440
 16777216
100
AcDbMText
 10
523.451760187294
 20
-347.1761718249495
 30
0.0
 40
10.0
 41
0.0
 46
0.0
 71
     5
 72
     1
  1
\A1;75
 73
     1
 44
1.0
1001
ACAD
1000
MTEXTBEGIN
1070
    73
1070
     1
1070
    44
1040
1.0
1070
    74
1070
     0
1000
MTEXTEND
1000
MTEXTBEGIN
1070
    73
1070
     1
1070
    44
1040
1.0
1070
    74
1070
     0
1000
MTEXTEND
1000
MTEXTBEGIN
1070
    73
1070
     1
1070
    44
1040
1.0
1070
    74
1070
     0
1000
MTEXTEND
  0
POINT
  5
8012
330
7EC2
100
AcDbEntity
  8
DEFPOINTS
  6
Continuous
 62
     0
440
 16777216
100
AcDbPoint
 10
485.9517144109526
 20
-30.00000000000001
 30
0.0
  0
POINT
  5
8013
330
7EC2
100
AcDbEntity
  8
DEFPOINTS
  6
Continuous
 62
     0
440
 16777216
100
AcDbPoint
 10
560.9518059636351
 20
-240.0
 30
0.0
  0
POINT
  5
8014
330
7EC2
100
AcDbEntity
  8
DEFPOINTS
  6
Continuous
 62
     0
440
 16777216
100
AcDbPoint
 10
560.9518059636351
 20
-353.1761718249494
 30
0.0
  0
ENDBLK
  5
7ECD
330
7EC2
100
AcDbEntity
  8
0
100
AcDbBlockEnd
  0
BLOCK
  5
7ED9
330
7ECF
100
AcDbEntity
  8
0
100
AcDbBlockBegin
  2
*D35
 70
     1
 10
0.0
 20
0.0
 30
0.0
  3
*D35
  1

  0
LINE
  5
8337
330
7ECF
100
AcDbEntity
  8
30
  6
Continuous
 62
     0
440
 16777216
100
AcDbLine
 10
560.9518059636351
 20
-250.0
 30
0.0
 11
560.9518059636351
 21
-353.6761718249493
 31
0.0
  0
LINE
  5
8338
330
7ECF
100
AcDbEntity
  8
30
  6
Continuous
 62
     0
440
 16777216
100
AcDbLine
 10
730.9518059636352
 20
-235.0
 30
0.0
 11
730.9518059636352
 21
-353.6761718249493
 31
0.0
  0
LINE
  5
8339
330
7ECF
100
AcDbEntity
  8
30
  6
Continuous
 62
     0
440
 16777216
100
AcDbLine
 10
562.9518059636351
 20
-353.1761718249494
 30
0.0
 11
728.9518059636352
 21
-353.1761718249494
 31
0.0
  0
INSERT
  5
833A
330
7ECF
100
AcDbEntity
  8
30
  6
Continuous
 62
     0
440
 16777216
100
AcDbBlockReference
  2
_OPEN
 10
560.9518059636351
 20
-353.1761718249494
 30
0.0
 41
2.0
 42
2.0
 43
2.0
 50
180.0
  0
INSERT
  5
833B
330
7ECF
100
AcDbEntity
  8
30
  6
Continuous
 62
     0
440
 16777216
100
AcDbBlockReference
  2
_OPEN
 10
730.9518059636352
 20
-353.1761718249494
 30
0.0
 41
2.0
 42
2.0
 43
2.0
  0
MTEXT
  5
833C
330
7ECF
100
AcDbEntity
  8
30
  6
Continuous
 62
     0
440
 16777216
100
AcDbMText
 10
645.9518059636352
 20
-347.1761718249493
 30
0.0
 40
10.0
 41
0.0
 46
0.0
 71
     5
 72
     1
  1
\A1;170
 73
     1
 44
1.0
  0
POINT
  5
833D
330
7ECF
100
AcDbEntity
  8
DEFPOINTS
  6
Continuous
 62
     0
440
 16777216
100
AcDbPoint
 10
560.9518059636351
 20
-240.0
 30
0.0
  0
POINT
  5
833E
330
7ECF
100
AcDbEntity
  8
DEFPOINTS
  6
Continuous
 62
     0
440
 16777216
100
AcDbPoint
 10
730.9518059636352
 20
-225.0
 30
0.0
  0
POINT
  5
833F
330
7ECF
100
AcDbEntity
  8
DEFPOINTS
  6
Continuous
 62
     0
440
 16777216
100
AcDbPoint
 10
730.9518059636352
 20
-353.1761718249494
 30
0.0
  0
ENDBLK
  5
7EDA
330
7ECF
100
AcDbEntity
  8
0
100
AcDbBlockEnd
  0
BLOCK
  5
7EE6
330
7EDC
100
AcDbEntity
  8
0
100
AcDbBlockBegin
  2
*D36
 70
     1
 10
0.0
 20
0.0
 30
0.0
  3
*D36
  1

  0
LINE
  5
8340
330
7EDC
100
AcDbEntity
  8
30
  6
Continuous
 62
     0
440
 16777216
100
AcDbLine
 10
730.9518059636352
 20
-235.0
 30
0.0
 11
730.9518059636352
 21
-353.6761718249493
 31
0.0
  0
LINE
  5
8341
330
7EDC
100
AcDbEntity
  8
30
  6
Continuous
 62
     0
440
 16777216
100
AcDbLine
 10
880.9518059636353
 20
-265.0
 30
0.0
 11
880.9518059636353
 21
-353.6761718249493
 31
0.0
  0
LINE
  5
8342
330
7EDC
100
AcDbEntity
  8
30
  6
Continuous
 62
     0
440
 16777216
100
AcDbLine
 10
732.9518059636352
 20
-353.1761718249494
 30
0.0
 11
878.9518059636352
 21
-353.1761718249494
 31
0.0
  0
INSERT
  5
8343
330
7EDC
100
AcDbEntity
  8
30
  6
Continuous
 62
     0
440
 16777216
100
AcDbBlockReference
  2
_OPEN
 10
730.9518059636352
 20
-353.1761718249494
 30
0.0
 41
2.0
 42
2.0
 43
2.0
 50
180.0
  0
INSERT
  5
8344
330
7EDC
100
AcDbEntity
  8
30
  6
Continuous
 62
     0
440
 16777216
100
AcDbBlockReference
  2
_OPEN
 10
880.9518059636353
 20
-353.1761718249494
 30
0.0
 41
2.0
 42
2.0
 43
2.0
  0
MTEXT
  5
8345
330
7EDC
100
AcDbEntity
  8
30
  6
Continuous
 62
     0
440
 16777216
100
AcDbMText
 10
805.9518059636353
 20
-347.1761718249493
 30
0.0
 40
10.0
 41
0.0
 46
0.0
 71
     5
 72
     1
  1
\A1;150
 73
     1
 44
1.0
  0
POINT
  5
8346
330
7EDC
100
AcDbEntity
  8
DEFPOINTS
  6
Continuous
 62
     0
440
 16777216
100
AcDbPoint
 10
730.9518059636352
 20
-225.0
 30
0.0
  0
POINT
  5
8347
330
7EDC
100
AcDbEntity
  8
DEFPOINTS
  6
Continuous
 62
     0
440
 16777216
100
AcDbPoint
 10
880.9518059636353
 20
-255.0
 30
0.0
  0
POINT
  5
8348
330
7EDC
100
AcDbEntity
  8
DEFPOINTS
  6
Continuous
 62
     0
440
 16777216
100
AcDbPoint
 10
880.9518059636353
 20
-353.1761718249494
 30
0.0
  0
ENDBLK
  5
7EE7
330
7EDC
100
AcDbEntity
  8
0
100
AcDbBlockEnd
  0
BLOCK
  5
7EF3
330
7EE9
100
AcDbEntity
  8
0
100
AcDbBlockBegin
  2
*D37
 70
     1
 10
0.0
 20
0.0
 30
0.0
  3
*D37
  1

  0
LINE
  5
809D
330
7EE9
100
AcDbEntity
  8
30
  6
Continuous
 62
     0
440
 16777216
100
AcDbLine
 10
542.4518059636351
 20
-250.0
 30
0.0
 11
542.4518059636351
 21
-344.6888889516543
 31
0.0
  0
LINE
  5
809E
330
7EE9
100
AcDbEntity
  8
30
  6
Continuous
 62
     0
440
 16777216
100
AcDbLine
 10
560.9518059636351
 20
-339.2084960936998
 30
0.0
 11
560.9518059636351
 21
-344.6888889516543
 31
0.0
  0
LINE
  5
809F
330
7EE9
100
AcDbEntity
  8
30
  6
Continuous
 62
     0
440
 16777216
100
AcDbLine
 10
544.4518059636351
 20
-344.1888889516543
 30
0.0
 11
558.9518059636351
 21
-344.1888889516543
 31
0.0
  0
LINE
  5
80A0
330
7EE9
100
AcDbEntity
  8
30
  6
Continuous
 62
     0
440
 16777216
100
AcDbLine
 10
560.9518059636351
 20
-344.1888889516543
 30
0.0
 11
591.6184726303018
 21
-344.1888889516543
 31
0.0
  0
INSERT
  5
80A1
330
7EE9
100
AcDbEntity
  8
30
  6
Continuous
 62
     0
440
 16777216
100
AcDbBlockReference
  2
_OPEN
 10
542.4518059636351
 20
-344.1888889516543
 30
0.0
 41
2.0
 42
2.0
 43
2.0
 50
180.0
  0
INSERT
  5
80A2
330
7EE9
100
AcDbEntity
  8
30
  6
Continuous
 62
     0
440
 16777216
100
AcDbBlockReference
  2
_OPEN
 10
560.9518059636351
 20
-344.1888889516543
 30
0.0
 41
2.0
 42
2.0
 43
2.0
  0
MTEXT
  5
80A3
330
7EE9
100
AcDbEntity
  8
30
  6
Continuous
 62
     0
440
 16777216
100
AcDbMText
 10
577.2851392969686
 20
-338.1888889516543
 30
0.0
 40
10.0
 41
0.0
 46
0.0
 71
     5
 72
     1
  1
\A1;18.5
 73
     1
 44
1.0
1001
ACAD
1000
MTEXTBEGIN
1070
    73
1070
     1
1070
    44
1040
1.0
1070
    74
1070
     0
1000
MTEXTEND
1000
MTEXTBEGIN
1070
    73
1070
     1
1070
    44
1040
1.0
1070
    74
1070
     0
1000
MTEXTEND
1000
MTEXTBEGIN
1070
    73
1070
     1
1070
    44
1040
1.0
1070
    74
1070
     0
1000
MTEXTEND
  0
POINT
  5
80A4
330
7EE9
100
AcDbEntity
  8
DEFPOINTS
  6
Continuous
 62
     0
440
 16777216
100
AcDbPoint
 10
542.4518059636351
 20
-240.0
 30
0.0
  0
POINT
  5
80A5
330
7EE9
100
AcDbEntity
  8
DEFPOINTS
  6
Continuous
 62
     0
440
 16777216
100
AcDbPoint
 10
560.9518059636351
 20
-329.2084960936997
 30
0.0
  0
POINT
  5
80A6
330
7EE9
100
AcDbEntity
  8
DEFPOINTS
  6
Continuous
 62
     0
440
 16777216
100
AcDbPoint
 10
560.9518059636351
 20
-344.1888889516543
 30
0.0
  0
ENDBLK
  5
7EF4
330
7EE9
100
AcDbEntity
  8
0
100
AcDbBlockEnd
  0
BLOCK
  5
7F09
330
7EFF
100
AcDbEntity
  8
0
100
AcDbBlockBegin
  2
*D38
 70
     1
 10
0.0
 20
0.0
 30
0.0
  3
*D38
  1

  0
LINE
  5
8031
330
7EFF
100
AcDbEntity
  8
30
  6
Continuous
 62
     0
100
AcDbLine
 10
-203.0
 20
-250.0
 30
0.0
 11
-203.0
 21
-330.8075565349088
 31
0.0
  0
LINE
  5
8032
330
7EFF
100
AcDbEntity
  8
30
  6
Continuous
 62
     0
100
AcDbLine
 10
312.9998779297
 20
-250.0
 30
0.0
 11
312.9998779297
 21
-330.8075565349088
 31
0.0
  0
LINE
  5
8033
330
7EFF
100
AcDbEntity
  8
30
  6
Continuous
 62
     0
100
AcDbLine
 10
-201.0
 20
-330.3075565349089
 30
0.0
 11
310.9998779297
 21
-330.3075565349089
 31
0.0
  0
INSERT
  5
8034
330
7EFF
100
AcDbEntity
  8
30
  6
Continuous
 62
     0
100
AcDbBlockReference
  2
_OPEN
 10
-203.0
 20
-330.3075565349089
 30
0.0
 41
2.0
 42
2.0
 43
2.0
 50
180.0
  0
INSERT
  5
8035
330
7EFF
100
AcDbEntity
  8
30
  6
Continuous
 62
     0
100
AcDbBlockReference
  2
_OPEN
 10
312.9998779297
 20
-330.3075565349089
 30
0.0
 41
2.0
 42
2.0
 43
2.0
  0
MTEXT
  5
8036
330
7EFF
100
AcDbEntity
  8
30
  6
Continuous
 62
     0
100
AcDbMText
 10
54.99993896484999
 20
-324.3075565349089
 30
0.0
 40
10.0
 41
0.0
 46
0.0
 71
     5
 72
     1
  1
\A1;516
 73
     1
 44
1.0
1001
ACAD
1000
MTEXTBEGIN
1070
    73
1070
     1
1070
    44
1040
1.0
1070
    74
1070
     0
1000
MTEXTEND
1000
MTEXTBEGIN
1070
    73
1070
     1
1070
    44
1040
1.0
1070
    74
1070
     0
1000
MTEXTEND
1000
MTEXTBEGIN
1070
    73
1070
     1
1070
    44
1040
1.0
1070
    74
1070
     0
1000
MTEXTEND
  0
POINT
  5
8037
330
7EFF
100
AcDbEntity
  8
DEFPOINTS
  6
Continuous
 62
     0
100
AcDbPoint
 10
-203.0
 20
-240.0
 30
0.0
  0
POINT
  5
8038
330
7EFF
100
AcDbEntity
  8
DEFPOINTS
  6
Continuous
 62
     0
100
AcDbPoint
 10
312.9998779297
 20
-240.0
 30
0.0
  0
POINT
  5
8039
330
7EFF
100
AcDbEntity
  8
DEFPOINTS
  6
Continuous
 62
     0
100
AcDbPoint
 10
312.9998779297
 20
-330.3075565349089
 30
0.0
  0
ENDBLK
  5
7F0A
330
7EFF
100
AcDbEntity
  8
0
100
AcDbBlockEnd
  0
BLOCK
  5
7F2D
330
7F23
100
AcDbEntity
  8
0
100
AcDbBlockBegin
  2
*D39
 70
     1
 10
0.0
 20
0.0
 30
0.0
  3
*D39
  1

  0
LINE
  5
8074
330
7F23
100
AcDbEntity
  8
30
  6
Continuous
 62
     0
100
AcDbLine
 10
232.5
 20
688.0
 30
0.0
 11
268.3000062463943
 21
687.9999999999999
 31
0.0
  0
LINE
  5
8075
330
7F23
100
AcDbEntity
  8
30
  6
Continuous
 62
     0
100
AcDbLine
 10
232.5
 20
673.0
 30
0.0
 11
268.3000062463943
 21
672.9999999999997
 31
0.0
  0
LINE
  5
8076
330
7F23
100
AcDbEntity
  8
30
  6
Continuous
 62
     0
100
AcDbLine
 10
267.8000062463943
 20
674.9999999999999
 30
0.0
 11
267.8000062463943
 21
685.9999999999999
 31
0.0
  0
LINE
  5
8077
330
7F23
100
AcDbEntity
  8
30
  6
Continuous
 62
     0
100
AcDbLine
 10
267.8000062463943
 20
687.9999999999999
 30
0.0
 11
267.8000062463943
 21
704.3629049082643
 31
0.0
  0
LINE
  5
8078
330
7F23
100
AcDbEntity
  8
30
  6
Continuous
 62
     0
100
AcDbLine
 10
267.8000062463943
 20
704.3629049082643
 30
0.0
 11
282.1333395797276
 21
704.3629049082643
 31
0.0
  0
INSERT
  5
8079
330
7F23
100
AcDbEntity
  8
30
  6
Continuous
 62
     0
100
AcDbBlockReference
  2
_OPEN
 10
267.8000062463943
 20
672.9999999999997
 30
0.0
 41
2.0
 42
2.0
 43
2.0
 50
270.0
  0
INSERT
  5
807A
330
7F23
100
AcDbEntity
  8
30
  6
Continuous
 62
     0
100
AcDbBlockReference
  2
_OPEN
 10
267.8000062463943
 20
687.9999999999999
 30
0.0
 41
2.0
 42
2.0
 43
2.0
 50
90.0
  0
MTEXT
  5
807B
330
7F23
100
AcDbEntity
  8
30
  6
Continuous
 62
     0
100
AcDbMText
 10
275.4666729130609
 20
710.3629049082646
 30
0.0
 40
10.0
 41
0.0
 46
0.0
 71
     5
 72
     1
  1
\A1;15
 73
     1
 44
1.0
1001
ACAD
1000
MTEXTBEGIN
1070
    73
1070
     1
1070
    44
1040
1.0
1070
    74
1070
     0
1000
MTEXTEND
1000
MTEXTBEGIN
1070
    73
1070
     1
1070
    44
1040
1.0
1070
    74
1070
     0
1000
MTEXTEND
1000
MTEXTBEGIN
1070
    73
1070
     1
1070
    44
1040
1.0
1070
    74
1070
     0
1000
MTEXTEND
  0
POINT
  5
807C
330
7F23
100
AcDbEntity
  8
DEFPOINTS
  6
Continuous
 62
     0
100
AcDbPoint
 10
222.5
 20
688.0
 30
0.0
  0
POINT
  5
807D
330
7F23
100
AcDbEntity
  8
DEFPOINTS
  6
Continuous
 62
     0
100
AcDbPoint
 10
222.5
 20
673.0
 30
0.0
  0
POINT
  5
807E
330
7F23
100
AcDbEntity
  8
DEFPOINTS
  6
Continuous
 62
     0
100
AcDbPoint
 10
267.8000062463943
 20
672.9999999999997
 30
0.0
  0
ENDBLK
  5
7F2E
330
7F23
100
AcDbEntity
  8
0
100
AcDbBlockEnd
  0
BLOCK
  5
7F3A
330
7F30
100
AcDbEntity
  8
0
100
AcDbBlockBegin
  2
*D40
 70
     1
 10
0.0
 20
0.0
 30
0.0
  3
*D40
  1

  0
LINE
  5
8045
330
7F30
100
AcDbEntity
  8
30
  6
Continuous
 62
     0
100
AcDbLine
 10
232.5
 20
673.0
 30
0.0
 11
268.3000062463943
 21
672.9999999999997
 31
0.0
  0
LINE
  5
8046
330
7F30
100
AcDbEntity
  8
30
  6
Continuous
 62
     0
100
AcDbLine
 10
232.5
 20
558.0
 30
0.0
 11
268.3000062463942
 21
557.9999999999999
 31
0.0
  0
LINE
  5
8047
330
7F30
100
AcDbEntity
  8
30
  6
Continuous
 62
     0
100
AcDbLine
 10
267.8000062463943
 20
670.9999999999999
 30
0.0
 11
267.8000062463942
 21
559.9999999999998
 31
0.0
  0
INSERT
  5
8048
330
7F30
100
AcDbEntity
  8
30
  6
Continuous
 62
     0
100
AcDbBlockReference
  2
_OPEN
 10
267.8000062463943
 20
672.9999999999997
 30
0.0
 41
2.0
 42
2.0
 43
2.0
 50
90.0
  0
INSERT
  5
8049
330
7F30
100
AcDbEntity
  8
30
  6
Continuous
 62
     0
100
AcDbBlockReference
  2
_OPEN
 10
267.8000062463942
 20
557.9999999999999
 30
0.0
 41
2.0
 42
2.0
 43
2.0
 50
270.0
  0
MTEXT
  5
804A
330
7F30
100
AcDbEntity
  8
30
  6
Continuous
 62
     0
100
AcDbMText
 10
261.8000062463942
 20
615.5
 30
0.0
 40
10.0
 41
0.0
 46
0.0
 71
     5
 72
     1
  1
\A1;115
 11
0.0000000000000001
 21
1.0
 31
0.0
 73
     1
 44
1.0
1001
ACAD
1000
MTEXTBEGIN
1070
    73
1070
     1
1070
    44
1040
1.0
1070
    74
1070
     0
1000
MTEXTEND
1000
MTEXTBEGIN
1070
    73
1070
     1
1070
    44
1040
1.0
1070
    74
1070
     0
1000
MTEXTEND
1000
MTEXTBEGIN
1070
    73
1070
     1
1070
    44
1040
1.0
1070
    74
1070
     0
1000
MTEXTEND
  0
POINT
  5
804B
330
7F30
100
AcDbEntity
  8
DEFPOINTS
  6
Continuous
 62
     0
100
AcDbPoint
 10
222.5
 20
673.0
 30
0.0
  0
POINT
  5
804C
330
7F30
100
AcDbEntity
  8
DEFPOINTS
  6
Continuous
 62
     0
100
AcDbPoint
 10
222.5
 20
558.0
 30
0.0
  0
POINT
  5
804D
330
7F30
100
AcDbEntity
  8
DEFPOINTS
  6
Continuous
 62
     0
100
AcDbPoint
 10
267.8000062463942
 20
557.9999999999999
 30
0.0
  0
ENDBLK
  5
7F3B
330
7F30
100
AcDbEntity
  8
0
100
AcDbBlockEnd
  0
BLOCK
  5
7F47
330
7F3D
100
AcDbEntity
  8
0
100
AcDbBlockBegin
  2
*D41
 70
     1
 10
0.0
 20
0.0
 30
0.0
  3
*D41
  1

  0
LINE
  5
82B5
330
7F3D
100
AcDbEntity
  8
30
  6
Continuous
 62
     0
440
 16777216
100
AcDbLine
 10
-104.9999999999996
 20
718.0
 30
0.0
 11
-104.9999999999996
 21
730.5535305137672
 31
0.0
  0
LINE
  5
82B6
330
7F3D
100
AcDbEntity
  8
30
  6
Continuous
 62
     0
440
 16777216
100
AcDbLine
 10
0.0000000000000006
 20
718.0
 30
0.0
 11
0.0000000000000014
 21
730.5535305137672
 31
0.0
  0
LINE
  5
82B7
330
7F3D
100
AcDbEntity
  8
30
  6
Continuous
 62
     0
440
 16777216
100
AcDbLine
 10
-102.9999999999997
 20
730.0535305137672
 30
0.0
 11
-1.999999999999998
 21
730.0535305137672
 31
0.0
  0
INSERT
  5
82B8
330
7F3D
100
AcDbEntity
  8
30
  6
Continuous
 62
     0
440
 16777216
100
AcDbBlockReference
  2
_OPEN
 10
-104.9999999999996
 20
730.0535305137672
 30
0.0
 41
2.0
 42
2.0
 43
2.0
 50
180.0
  0
INSERT
  5
82B9
330
7F3D
100
AcDbEntity
  8
30
  6
Continuous
 62
     0
440
 16777216
100
AcDbBlockReference
  2
_OPEN
 10
0.0000000000000014
 20
730.0535305137672
 30
0.0
 41
2.0
 42
2.0
 43
2.0
  0
MTEXT
  5
82BA
330
7F3D
100
AcDbEntity
  8
30
  6
Continuous
 62
     0
440
 16777216
100
AcDbMText
 10
-52.49999999999989
 20
736.0535305137672
 30
0.0
 40
10.0
 41
0.0
 46
0.0
 71
     5
 72
     1
  1
\A1;105
 73
     1
 44
1.0
1001
ACAD
1000
MTEXTBEGIN
1070
    73
1070
     1
1070
    44
1040
1.0
1070
    74
1070
     0
1000
MTEXTEND
  0
POINT
  5
82BB
330
7F3D
100
AcDbEntity
  8
DEFPOINTS
  6
Continuous
 62
     0
440
 16777216
100
AcDbPoint
 10
-104.9999999999996
 20
708.0
 30
0.0
  0
POINT
  5
82BC
330
7F3D
100
AcDbEntity
  8
DEFPOINTS
  6
Continuous
 62
     0
440
 16777216
100
AcDbPoint
 10
0.0
 20
708.0
 30
0.0
  0
POINT
  5
82BD
330
7F3D
100
AcDbEntity
  8
DEFPOINTS
  6
Continuous
 62
     0
440
 16777216
100
AcDbPoint
 10
0.0000000000000014
 20
730.0535305137672
 30
0.0
  0
ENDBLK
  5
7F48
330
7F3D
100
AcDbEntity
  8
0
100
AcDbBlockEnd
  0
BLOCK
  5
7F54
330
7F4A
100
AcDbEntity
  8
0
100
AcDbBlockBegin
  2
*D42
 70
     1
 10
0.0
 20
0.0
 30
0.0
  3
*D42
  1

  0
LINE
  5
8349
330
7F4A
100
AcDbEntity
  8
30
  6
Continuous
 62
     0
440
 16777216
100
AcDbLine
 10
0.0000000000000006
 20
718.0
 30
0.0
 11
0.0000000000000014
 21
730.5535305137672
 31
0.0
  0
LINE
  5
834A
330
7F4A
100
AcDbEntity
  8
30
  6
Continuous
 62
     0
440
 16777216
100
AcDbLine
 10
105.0
 20
718.0
 30
0.0
 11
105.0
 21
730.5535305137672
 31
0.0
  0
LINE
  5
834B
330
7F4A
100
AcDbEntity
  8
30
  6
Continuous
 62
     0
440
 16777216
100
AcDbLine
 10
2.0
 20
730.0535305137672
 30
0.0
 11
103.0
 21
730.0535305137672
 31
0.0
  0
INSERT
  5
834C
330
7F4A
100
AcDbEntity
  8
30
  6
Continuous
 62
     0
440
 16777216
100
AcDbBlockReference
  2
_OPEN
 10
0.0000000000000014
 20
730.0535305137672
 30
0.0
 41
2.0
 42
2.0
 43
2.0
 50
180.0
  0
INSERT
  5
834D
330
7F4A
100
AcDbEntity
  8
30
  6
Continuous
 62
     0
440
 16777216
100
AcDbBlockReference
  2
_OPEN
 10
105.0
 20
730.0535305137672
 30
0.0
 41
2.0
 42
2.0
 43
2.0
  0
MTEXT
  5
834E
330
7F4A
100
AcDbEntity
  8
30
  6
Continuous
 62
     0
440
 16777216
100
AcDbMText
 10
52.5
 20
736.0535305137672
 30
0.0
 40
10.0
 41
0.0
 46
0.0
 71
     5
 72
     1
  1
\A1;105
 73
     1
 44
1.0
  0
POINT
  5
834F
330
7F4A
100
AcDbEntity
  8
DEFPOINTS
  6
Continuous
 62
     0
440
 16777216
100
AcDbPoint
 10
0.0
 20
708.0
 30
0.0
  0
POINT
  5
8350
330
7F4A
100
AcDbEntity
  8
DEFPOINTS
  6
Continuous
 62
     0
440
 16777216
100
AcDbPoint
 10
105.0
 20
708.0
 30
0.0
  0
POINT
  5
8351
330
7F4A
100
AcDbEntity
  8
DEFPOINTS
  6
Continuous
 62
     0
440
 16777216
100
AcDbPoint
 10
105.0
 20
730.0535305137672
 30
0.0
  0
ENDBLK
  5
7F55
330
7F4A
100
AcDbEntity
  8
0
100
AcDbBlockEnd
  0
BLOCK
  5
7F6A
330
7F60
100
AcDbEntity
  8
0
100
AcDbBlockBegin
  2
*D43
 70
     1
 10
0.0
 20
0.0
 30
0.0
  3
*D43
  1

  0
LINE
  5
82E1
330
7F60
100
AcDbEntity
  8
30
  6
Continuous
 62
     0
440
 16777216
100
AcDbLine
 10
105.0
 20
719.0
 30
0.0
 11
105.0
 21
730.5535305137672
 31
0.0
  0
LINE
  5
82E2
330
7F60
100
AcDbEntity
  8
30
  6
Continuous
 62
     0
440
 16777216
100
AcDbLine
 10
215.0
 20
718.0
 30
0.0
 11
215.0
 21
730.5535305137672
 31
0.0
  0
LINE
  5
82E3
330
7F60
100
AcDbEntity
  8
30
  6
Continuous
 62
     0
440
 16777216
100
AcDbLine
 10
107.0
 20
730.0535305137672
 30
0.0
 11
213.0
 21
730.0535305137672
 31
0.0
  0
INSERT
  5
82E4
330
7F60
100
AcDbEntity
  8
30
  6
Continuous
 62
     0
440
 16777216
100
AcDbBlockReference
  2
_OPEN
 10
105.0
 20
730.0535305137672
 30
0.0
 41
2.0
 42
2.0
 43
2.0
 50
180.0
  0
INSERT
  5
82E5
330
7F60
100
AcDbEntity
  8
30
  6
Continuous
 62
     0
440
 16777216
100
AcDbBlockReference
  2
_OPEN
 10
215.0
 20
730.0535305137672
 30
0.0
 41
2.0
 42
2.0
 43
2.0
  0
MTEXT
  5
82E6
330
7F60
100
AcDbEntity
  8
30
  6
Continuous
 62
     0
440
 16777216
100
AcDbMText
 10
160.0
 20
736.0535305137672
 30
0.0
 40
10.0
 41
0.0
 46
0.0
 71
     5
 72
     1
  1
\A1;110
 73
     1
 44
1.0
1001
ACAD
1000
MTEXTBEGIN
1070
    73
1070
     1
1070
    44
1040
1.0
1070
    74
1070
     0
1000
MTEXTEND
  0
POINT
  5
82E7
330
7F60
100
AcDbEntity
  8
DEFPOINTS
  6
Continuous
 62
     0
440
 16777216
100
AcDbPoint
 10
105.0
 20
709.0
 30
0.0
  0
POINT
  5
82E8
330
7F60
100
AcDbEntity
  8
DEFPOINTS
  6
Continuous
 62
     0
440
 16777216
100
AcDbPoint
 10
215.0
 20
708.0
 30
0.0
  0
POINT
  5
82E9
330
7F60
100
AcDbEntity
  8
DEFPOINTS
  6
Continuous
 62
     0
440
 16777216
100
AcDbPoint
 10
215.0
 20
730.0535305137672
 30
0.0
  0
ENDBLK
  5
7F6B
330
7F60
100
AcDbEntity
  8
0
100
AcDbBlockEnd
  0
BLOCK
  5
80CA
330
80C0
100
AcDbEntity
  8
0
100
AcDbBlockBegin
  2
*D44
 70
     1
 10
0.0
 20
0.0
 30
0.0
  3
*D44
  1

  0
LINE
  5
80C1
330
80C0
100
AcDbEntity
  8
30
  6
Continuous
 62
     0
440
 16777216
100
AcDbLine
 10
-203.0
 20
-250.0
 30
0.0
 11
-203.0
 21
-312.6360750789645
 31
0.0
  0
LINE
  5
80C2
330
80C0
100
AcDbEntity
  8
30
  6
Continuous
 62
     0
440
 16777216
100
AcDbLine
 10
311.9998779297
 20
-250.0
 30
0.0
 11
311.9998779297
 21
-312.6360750789645
 31
0.0
  0
LINE
  5
80C3
330
80C0
100
AcDbEntity
  8
30
  6
Continuous
 62
     0
440
 16777216
100
AcDbLine
 10
-201.0
 20
-312.1360750789643
 30
0.0
 11
309.9998779297
 21
-312.1360750789643
 31
0.0
  0
INSERT
  5
80C4
330
80C0
100
AcDbEntity
  8
30
  6
Continuous
 62
     0
440
 16777216
100
AcDbBlockReference
  2
_OPEN
 10
-203.0
 20
-312.1360750789643
 30
0.0
 41
2.0
 42
2.0
 43
2.0
 50
180.0
  0
INSERT
  5
80C5
330
80C0
100
AcDbEntity
  8
30
  6
Continuous
 62
     0
440
 16777216
100
AcDbBlockReference
  2
_OPEN
 10
311.9998779297
 20
-312.1360750789643
 30
0.0
 41
2.0
 42
2.0
 43
2.0
  0
MTEXT
  5
80C6
330
80C0
100
AcDbEntity
  8
30
  6
Continuous
 62
     0
440
 16777216
100
AcDbMText
 10
54.49993896485
 20
-306.1360750789645
 30
0.0
 40
10.0
 41
0.0
 46
0.0
 71
     5
 72
     1
  1
\A1;515
 73
     1
 44
1.0
1001
ACAD
1000
MTEXTBEGIN
1070
    73
1070
     1
1070
    44
1040
1.0
1070
    74
1070
     0
1000
MTEXTEND
1000
MTEXTBEGIN
1070
    73
1070
     1
1070
    44
1040
1.0
1070
    74
1070
     0
1000
MTEXTEND
1000
MTEXTBEGIN
1070
    73
1070
     1
1070
    44
1040
1.0
1070
    74
1070
     0
1000
MTEXTEND
  0
POINT
  5
80C7
330
80C0
100
AcDbEntity
  8
DEFPOINTS
  6
Continuous
 62
     0
440
 16777216
100
AcDbPoint
 10
-203.0
 20
-240.0
 30
0.0
  0
POINT
  5
80C8
330
80C0
100
AcDbEntity
  8
DEFPOINTS
  6
Continuous
 62
     0
440
 16777216
100
AcDbPoint
 10
311.9998779297
 20
-240.0
 30
0.0
  0
POINT
  5
80C9
330
80C0
100
AcDbEntity
  8
DEFPOINTS
  6
Continuous
 62
     0
440
 16777216
100
AcDbPoint
 10
311.9998779297
 20
-312.1360750789643
 30
0.0
  0
ENDBLK
  5
80CB
330
80C0
100
AcDbEntity
  8
0
100
AcDbBlockEnd
  0
BLOCK
  5
80D7
330
80CD
100
AcDbEntity
  8
0
100
AcDbBlockBegin
  2
*D45
 70
     1
 10
0.0
 20
0.0
 30
0.0
  3
*D45
  1

  0
LINE
  5
80CE
330
80CD
100
AcDbEntity
  8
30
  6
Continuous
 62
     0
440
 16777216
100
AcDbLine
 10
885.1803215886352
 20
-190.0
 30
0.0
 11
901.8475082682698
 21
-190.0
 31
0.0
  0
LINE
  5
80CF
330
80CD
100
AcDbEntity
  8
30
  6
Continuous
 62
     0
440
 16777216
100
AcDbLine
 10
885.1803215886352
 20
-230.0
 30
0.0
 11
901.8475082682698
 21
-230.0
 31
0.0
  0
LINE
  5
80D0
330
80CD
100
AcDbEntity
  8
30
  6
Continuous
 62
     0
440
 16777216
100
AcDbLine
 10
901.3475082682699
 20
-192.0
 30
0.0
 11
901.3475082682699
 21
-228.0
 31
0.0
  0
INSERT
  5
80D1
330
80CD
100
AcDbEntity
  8
30
  6
Continuous
 62
     0
440
 16777216
100
AcDbBlockReference
  2
_OPEN
 10
901.3475082682699
 20
-190.0
 30
0.0
 41
2.0
 42
2.0
 43
2.0
 50
90.0
  0
INSERT
  5
80D2
330
80CD
100
AcDbEntity
  8
30
  6
Continuous
 62
     0
440
 16777216
100
AcDbBlockReference
  2
_OPEN
 10
901.3475082682699
 20
-230.0
 30
0.0
 41
2.0
 42
2.0
 43
2.0
 50
270.0
  0
MTEXT
  5
80D3
330
80CD
100
AcDbEntity
  8
30
  6
Continuous
 62
     0
440
 16777216
100
AcDbMText
 10
895.3475082682698
 20
-209.9999999999995
 30
0.0
 40
10.0
 41
0.0
 46
0.0
 71
     5
 72
     1
  1
\A1;40
 11
0.0000000000000001
 21
1.0
 31
0.0
 73
     1
 44
1.0
1001
ACAD
1000
MTEXTBEGIN
1070
    73
1070
     1
1070
    44
1040
1.0
1070
    74
1070
     0
1000
MTEXTEND
1000
MTEXTBEGIN
1070
    73
1070
     1
1070
    44
1040
1.0
1070
    74
1070
     0
1000
MTEXTEND
1000
MTEXTBEGIN
1070
    73
1070
     1
1070
    44
1040
1.0
1070
    74
1070
     0
1000
MTEXTEND
  0
POINT
  5
80D4
330
80CD
100
AcDbEntity
  8
DEFPOINTS
  6
Continuous
 62
     0
440
 16777216
100
AcDbPoint
 10
875.1803215886353
 20
-190.0
 30
0.0
  0
POINT
  5
80D5
330
80CD
100
AcDbEntity
  8
DEFPOINTS
  6
Continuous
 62
     0
440
 16777216
100
AcDbPoint
 10
875.1803215886353
 20
-230.0
 30
0.0
  0
POINT
  5
80D6
330
80CD
100
AcDbEntity
  8
DEFPOINTS
  6
Continuous
 62
     0
440
 16777216
100
AcDbPoint
 10
901.3475082682699
 20
-230.0
 30
0.0
  0
ENDBLK
  5
80D8
330
80CD
100
AcDbEntity
  8
0
100
AcDbBlockEnd
  0
BLOCK
  5
80E4
330
80DA
100
AcDbEntity
  8
0
100
AcDbBlockBegin
  2
*D46
 70
     1
 10
0.0
 20
0.0
 30
0.0
  3
*D46
  1

  0
LINE
  5
8101
330
80DA
100
AcDbEntity
  8
30
  6
Continuous
 62
     0
440
 16777216
100
AcDbLine
 10
890.9518059636353
 20
-165.0
 30
0.0
 11
928.8186232400985
 21
-165.0
 31
0.0
  0
LINE
  5
8102
330
80DA
100
AcDbEntity
  8
30
  6
Continuous
 62
     0
440
 16777216
100
AcDbLine
 10
890.9518059636353
 20
-255.0
 30
0.0
 11
928.8186232400985
 21
-255.0
 31
0.0
  0
LINE
  5
8103
330
80DA
100
AcDbEntity
  8
30
  6
Continuous
 62
     0
440
 16777216
100
AcDbLine
 10
928.3186232400986
 20
-167.0
 30
0.0
 11
928.3186232400986
 21
-253.0
 31
0.0
  0
INSERT
  5
8104
330
80DA
100
AcDbEntity
  8
30
  6
Continuous
 62
     0
440
 16777216
100
AcDbBlockReference
  2
_OPEN
 10
928.3186232400986
 20
-165.0
 30
0.0
 41
2.0
 42
2.0
 43
2.0
 50
90.0
  0
INSERT
  5
8105
330
80DA
100
AcDbEntity
  8
30
  6
Continuous
 62
     0
440
 16777216
100
AcDbBlockReference
  2
_OPEN
 10
928.3186232400986
 20
-255.0
 30
0.0
 41
2.0
 42
2.0
 43
2.0
 50
270.0
  0
MTEXT
  5
8106
330
80DA
100
AcDbEntity
  8
30
  6
Continuous
 62
     0
440
 16777216
100
AcDbMText
 10
922.3186232400983
 20
-209.9999999999995
 30
0.0
 40
10.0
 41
0.0
 46
0.0
 71
     5
 72
     1
  1
\A1;90
 11
0.0000000000000001
 21
1.0
 31
0.0
 73
     1
 44
1.0
1001
ACAD
1000
MTEXTBEGIN
1070
    73
1070
     1
1070
    44
1040
1.0
1070
    74
1070
     0
1000
MTEXTEND
1000
MTEXTBEGIN
1070
    73
1070
     1
1070
    44
1040
1.0
1070
    74
1070
     0
1000
MTEXTEND
1000
MTEXTBEGIN
1070
    73
1070
     1
1070
    44
1040
1.0
1070
    74
1070
     0
1000
MTEXTEND
  0
POINT
  5
8107
330
80DA
100
AcDbEntity
  8
DEFPOINTS
  6
Continuous
 62
     0
440
 16777216
100
AcDbPoint
 10
880.9518059636353
 20
-165.0
 30
0.0
  0
POINT
  5
8108
330
80DA
100
AcDbEntity
  8
DEFPOINTS
  6
Continuous
 62
     0
440
 16777216
100
AcDbPoint
 10
880.9518059636353
 20
-255.0
 30
0.0
  0
POINT
  5
8109
330
80DA
100
AcDbEntity
  8
DEFPOINTS
  6
Continuous
 62
     0
440
 16777216
100
AcDbPoint
 10
928.3186232400986
 20
-255.0
 30
0.0
  0
ENDBLK
  5
80E5
330
80DA
100
AcDbEntity
  8
0
100
AcDbBlockEnd
  0
BLOCK
  5
826E
330
8264
100
AcDbEntity
  8
0
100
AcDbBlockBegin
  2
*D47
 70
     1
 10
0.0
 20
0.0
 30
0.0
  3
*D47
  1

  0
LINE
  5
82AA
330
8264
100
AcDbEntity
  8
30
  6
Continuous
 62
     0
100
AcDbLine
 10
293.9999389648598
 20
712.228515625
 30
0.0
 11
293.9999389648598
 21
728.8957023046346
 31
0.0
  0
LINE
  5
82AB
330
8264
100
AcDbEntity
  8
30
  6
Continuous
 62
     0
100
AcDbLine
 10
333.9999389648598
 20
712.228515625
 30
0.0
 11
333.9999389648598
 21
728.8957023046346
 31
0.0
  0
LINE
  5
82AC
330
8264
100
AcDbEntity
  8
30
  6
Continuous
 62
     0
100
AcDbLine
 10
295.9999389648599
 20
728.3957023046347
 30
0.0
 11
331.9999389648598
 21
728.3957023046347
 31
0.0
  0
INSERT
  5
82AD
330
8264
100
AcDbEntity
  8
30
  6
Continuous
 62
     0
100
AcDbBlockReference
  2
_OPEN
 10
293.9999389648598
 20
728.3957023046347
 30
0.0
 41
2.0
 42
2.0
 43
2.0
 50
180.0
  0
INSERT
  5
82AE
330
8264
100
AcDbEntity
  8
30
  6
Continuous
 62
     0
100
AcDbBlockReference
  2
_OPEN
 10
333.9999389648598
 20
728.3957023046347
 30
0.0
 41
2.0
 42
2.0
 43
2.0
  0
MTEXT
  5
82AF
330
8264
100
AcDbEntity
  8
30
  6
Continuous
 62
     0
100
AcDbMText
 10
313.9999389648598
 20
734.3957023046347
 30
0.0
 40
10.0
 41
0.0
 46
0.0
 71
     5
 72
     1
  1
\A1;40
 73
     1
 44
1.0
1001
ACAD
1000
MTEXTBEGIN
1070
    73
1070
     1
1070
    44
1040
1.0
1070
    74
1070
     0
1000
MTEXTEND
  0
POINT
  5
82B0
330
8264
100
AcDbEntity
  8
DEFPOINTS
  6
Continuous
 62
     0
100
AcDbPoint
 10
293.9999389648598
 20
702.2285156249997
 30
0.0
  0
POINT
  5
82B1
330
8264
100
AcDbEntity
  8
DEFPOINTS
  6
Continuous
 62
     0
100
AcDbPoint
 10
333.9999389648598
 20
702.2285156249997
 30
0.0
  0
POINT
  5
82B2
330
8264
100
AcDbEntity
  8
DEFPOINTS
  6
Continuous
 62
     0
100
AcDbPoint
 10
333.9999389648598
 20
728.3957023046347
 30
0.0
  0
ENDBLK
  5
826F
330
8264
100
AcDbEntity
  8
0
100
AcDbBlockEnd
  0
BLOCK
  5
827A
330
8270
100
AcDbEntity
  8
0
100
AcDbBlockBegin
  2
*D48
 70
     1
 10
0.0
 20
0.0
 30
0.0
  3
*D48
  1

  0
LINE
  5
82A1
330
8270
100
AcDbEntity
  8
30
  6
Continuous
 62
     0
100
AcDbLine
 10
268.9999389648598
 20
718.0
 30
0.0
 11
268.9999389648598
 21
755.8668172764632
 31
0.0
  0
LINE
  5
82A2
330
8270
100
AcDbEntity
  8
30
  6
Continuous
 62
     0
100
AcDbLine
 10
358.9999389648598
 20
718.0
 30
0.0
 11
358.9999389648598
 21
755.8668172764632
 31
0.0
  0
LINE
  5
82A3
330
8270
100
AcDbEntity
  8
30
  6
Continuous
 62
     0
100
AcDbLine
 10
270.9999389648598
 20
755.3668172764632
 30
0.0
 11
356.9999389648598
 21
755.3668172764632
 31
0.0
  0
INSERT
  5
82A4
330
8270
100
AcDbEntity
  8
30
  6
Continuous
 62
     0
100
AcDbBlockReference
  2
_OPEN
 10
268.9999389648598
 20
755.3668172764632
 30
0.0
 41
2.0
 42
2.0
 43
2.0
 50
180.0
  0
INSERT
  5
82A5
330
8270
100
AcDbEntity
  8
30
  6
Continuous
 62
     0
100
AcDbBlockReference
  2
_OPEN
 10
358.9999389648598
 20
755.3668172764632
 30
0.0
 41
2.0
 42
2.0
 43
2.0
  0
MTEXT
  5
82A6
330
8270
100
AcDbEntity
  8
30
  6
Continuous
 62
     0
100
AcDbMText
 10
313.9999389648598
 20
761.3668172764633
 30
0.0
 40
10.0
 41
0.0
 46
0.0
 71
     5
 72
     1
  1
\A1;90
 73
     1
 44
1.0
1001
ACAD
1000
MTEXTBEGIN
1070
    73
1070
     1
1070
    44
1040
1.0
1070
    74
1070
     0
1000
MTEXTEND
  0
POINT
  5
82A7
330
8270
100
AcDbEntity
  8
DEFPOINTS
  6
Continuous
 62
     0
100
AcDbPoint
 10
268.9999389648598
 20
708.0
 30
0.0
  0
POINT
  5
82A8
330
8270
100
AcDbEntity
  8
DEFPOINTS
  6
Continuous
 62
     0
100
AcDbPoint
 10
358.9999389648598
 20
708.0
 30
0.0
  0
POINT
  5
82A9
330
8270
100
AcDbEntity
  8
DEFPOINTS
  6
Continuous
 62
     0
100
AcDbPoint
 10
358.9999389648598
 20
755.3668172764632
 30
0.0
  0
ENDBLK
  5
827B
330
8270
100
AcDbEntity
  8
0
100
AcDbBlockEnd
  0
ENDSEC
  0
SECTION
  2
ENTITIES
  0
LINE
  5
B4
330
1E
100
AcDbEntity
  8
16
100
AcDbLine
 10
0.0
 20
-246.7320067941299
 30
0.0
 11
0.0
 21
217.0
 31
0.0
  0
MTEXT
  5
BF3
330
1E
100
AcDbEntity
  8
24
  6
Continuous
100
AcDbMText
 10
142.1181906098743
 20
177.5
 30
0.0
 40
3.0
 41
0.0
 46
0.0
 71
     1
 72
     1
  1
\A1;
 73
     1
 44
1.0
1001
ACAD
1000
MTEXTBEGIN
1070
    73
1070
     1
1070
    44
1040
1.0
1070
    74
1070
     0
1000
MTEXTEND
1000
MTEXTBEGIN
1070
    73
1070
     1
1070
    44
1040
1.0
1070
    74
1070
     0
1000
MTEXTEND
1000
MTEXTBEGIN
1070
    73
1070
     1
1070
    44
1040
1.0
1070
    74
1070
     0
1000
MTEXTEND
  0
LINE
  5
1C9A
330
1E
100
AcDbEntity
  8
16
100
AcDbLine
 10
0.0
 20
197.0
 30
0.0
 11
0.0
 21
679.0650252640321
 31
0.0
  0
LINE
  5
1C9B
330
1E
100
AcDbEntity
  8
16
100
AcDbLine
 10
824.2565815759544
 20
-0.0000000000000003
 30
0.0
 11
460.5436835995641
 21
0.0
 31
0.0
  0
LINE
  5
2260
330
1E
100
AcDbEntity
  8
16
100
AcDbLine
 10
357.5838054076048
 20
-638.1905093415666
 30
0.0
 11
-214.7860284702828
 21
-638.1905093415666
 31
0.0
  0
LINE
  5
4C5A
330
1E
100
AcDbEntity
  8
16
100
AcDbLine
 10
363.8736803911003
 20
0.0
 30
0.0
 11
-317.389454140999
 21
0.0
 31
0.0
  0
LWPOLYLINE
  5
62AB
330
1E
100
AcDbEntity
  8
16
100
AcDbPolyline
 90
        2
 70
     0
 43
0.0
 10
0.0000000000000284
 20
-896.8056808897237
 10
0.0000000000000284
 20
-369.5733133676644
  0
LWPOLYLINE
  5
6462
330
1E
100
AcDbEntity
  8
10
  6
Continuous
100
AcDbPolyline
 90
        6
 70
     0
 43
0.0
 10
311.9999389648599
 20
388.0
 10
-203.0
 20
388.0
 10
311.9999389648599
 20
388.0
 10
311.9999389648599
 20
370.0
 10
-203.0
 20
370.0
 10
-203.0
 20
388.0
  0
LINE
  5
6463
330
1E
100
AcDbEntity
  8
18
100
AcDbLine
 10
-279.0
 20
396.0000000000007
 30
0.0
 11
391.9999389648598
 21
396.0000000000007
 31
0.0
  0
LWPOLYLINE
  5
6467
330
1E
100
AcDbEntity
  8
10
  6
Continuous
100
AcDbPolyline
 90
        4
 70
     0
 43
0.0
 10
-160.0
 20
388.0
 10
-160.0
 20
558.0
 10
268.9999389648598
 20
558.0
 10
268.9999389648598
 20
388.0
  0
LINE
  5
6469
330
1E
100
AcDbEntity
  8
18
100
AcDbLine
 10
391.9999389648598
 20
388.0
 30
0.0
 11
311.9999389648599
 21
388.0
 31
0.0
  0
LINE
  5
646A
330
1E
100
AcDbEntity
  8
18
100
AcDbLine
 10
391.9999389648598
 20
392.0
 30
0.0
 11
391.9999389648598
 21
388.0
 31
0.0
  0
LINE
  5
6480
330
1E
100
AcDbEntity
  8
18
100
AcDbLine
 10
-279.0
 20
388.0
 30
0.0
 11
-203.0
 21
388.0
 31
0.0
  0
LINE
  5
6481
330
1E
100
AcDbEntity
  8
18
100
AcDbLine
 10
-279.0
 20
388.0
 30
0.0
 11
-279.0
 21
392.0
 31
0.0
  0
MTEXT
  5
678B
330
1E
100
AcDbEntity
  8
19
  6
Continuous
100
AcDbMText
 10
714.1231465175539
 20
525.0
 30
0.0
 40
9.0
 41
200.2479
 46
0.0
 71
     1
 72
     5
  1
XS2500NE 4P FP\PXS2500NN 4P FP
  7
STANDARD1
 73
     1
 44
1.0
1001
ACAD
1000
MTEXTBEGIN
1070
    73
1070
     1
1070
    44
1040
1.0
1070
    74
1070
     0
1000
MTEXTEND
1000
MTEXTBEGIN
1070
    73
1070
     1
1070
    44
1040
1.0
1070
    74
1070
     0
1000
MTEXTEND
1000
MTEXTBEGIN
1070
    73
1070
     1
1070
    44
1040
1.0
1070
    74
1070
     0
1000
MTEXTEND
  0
LINE
  5
72EC
330
1E
100
AcDbEntity
  8
21
  6
Continuous
100
AcDbLine
 10
-7.5
 20
557.9997554658971
 30
0.0
 11
-7.5
 21
708.0
 31
0.0
  0
LINE
  5
72ED
330
1E
100
AcDbEntity
  8
21
  6
Continuous
100
AcDbLine
 10
7.5
 20
557.9999996065971
 30
0.0
 11
7.5
 21
708.0
 31
0.0
  0
LINE
  5
72EE
330
1E
100
AcDbEntity
  8
21
  6
Continuous
100
AcDbLine
 10
7.5
 20
708.0
 30
0.0
 11
-7.5
 21
708.0
 31
0.0
  0
LINE
  5
7317
330
1E
100
AcDbEntity
  8
24
  6
CONTINOUS
100
AcDbLine
 10
22.5
 20
688.0
 30
0.0
 11
-22.5
 21
688.0
 31
0.0
  0
LINE
  5
75B8
330
1E
100
AcDbEntity
  8
16
100
AcDbLine
 10
54.5
 20
110.8461262142609
 30
0.0
 11
54.5
 21
-290.00007629395
 31
0.0
  0
LINE
  5
77F6
330
1E
100
AcDbEntity
  8
16
100
AcDbLine
 10
438.3072696106392
 20
-638.1905093415666
 30
0.0
 11
1073.053481934191
 21
-638.1905093415666
 31
0.0
  0
LINE
  5
7869
330
1E
100
AcDbEntity
  8
18
  6
DASHED
 48
2.0
100
AcDbLine
 10
-194.9799804687995
 20
-719.1905707701293
 30
0.0
 11
301.4580078125005
 21
-719.1905707701293
 31
0.0
  0
LINE
  5
786A
330
1E
100
AcDbEntity
  8
18
  6
DASHED
 48
2.0
100
AcDbLine
 10
-179.4548339843994
 20
-468.1905402525493
 30
0.0
 11
308.3088378906005
 21
-468.1905402525493
 31
0.0
  0
LINE
  5
786B
330
1E
100
AcDbEntity
  8
18
  6
DASHED
 48
2.0
100
AcDbLine
 10
-160.0935058593995
 20
-863.1905707701292
 30
0.0
 11
159.9064941406004
 21
-863.1905707701292
 31
0.0
  0
LINE
  5
786C
330
1E
100
AcDbEntity
  8
18
  6
DASHED
 48
2.0
100
AcDbLine
 10
-160.0935058593995
 20
-413.1905402525492
 30
0.0
 11
159.9064941406004
 21
-413.1905402525492
 31
0.0
  0
LINE
  5
786D
330
1E
100
AcDbEntity
  8
18
  6
DASHED
 48
2.0
100
AcDbLine
 10
-182.0559082031994
 20
-769.1905707701293
 30
0.0
 11
303.0952148437005
 21
-769.1905707701293
 31
0.0
  0
LINE
  5
786E
330
1E
100
AcDbEntity
  8
18
  6
DASHED
 48
2.0
100
AcDbLine
 10
-200.0932617187995
 20
-418.1905402525492
 30
0.0
 11
301.4580078125005
 21
-418.1905402525492
 31
0.0
  0
LINE
  5
786F
330
1E
100
AcDbEntity
  8
18
  6
DASHED
 48
2.0
100
AcDbLine
 10
309.0979003906005
 20
-462.1905402525491
 30
0.0
 11
-189.5373535156995
 21
-462.1905402525491
 31
0.0
  0
LINE
  5
7870
330
1E
100
AcDbEntity
  8
18
  6
DASHED
 48
2.0
100
AcDbLine
 10
296.8317871093002
 20
-725.1905707701292
 30
0.0
 11
-198.5012207031994
 21
-725.1905707701292
 31
0.0
  0
LINE
  5
7871
330
1E
100
AcDbEntity
  8
18
  6
DASHED
 48
2.0
100
AcDbLine
 10
-160.0935058593995
 20
-863.1905707701292
 30
0.0
 11
-160.0935058593995
 21
-413.1905402525492
 31
0.0
  0
LINE
  5
7872
330
1E
100
AcDbEntity
  8
18
  6
DASHED
 48
2.0
100
AcDbLine
 10
-194.5024414062995
 20
-752.6513251646592
 30
0.0
 11
-197.3959960937995
 21
-769.1905707701293
 31
0.0
  0
LINE
  5
7873
330
1E
100
AcDbEntity
  8
18
  6
DASHED
 48
2.0
100
AcDbLine
 10
-202.0977783203995
 20
-738.4099311216893
 30
0.0
 11
-194.5024414062995
 21
-752.6513251646592
 31
0.0
  0
LINE
  5
7874
330
1E
100
AcDbEntity
  8
18
  6
DASHED
 48
2.0
100
AcDbLine
 10
-194.9799804687995
 20
-719.1905707701293
 30
0.0
 11
-202.0977783203995
 21
-738.4099311216893
 31
0.0
  0
LINE
  5
7875
330
1E
100
AcDbEntity
  8
18
  6
DASHED
 48
2.0
100
AcDbLine
 10
-182.0559082031994
 20
-769.1905707701293
 30
0.0
 11
-197.3959960937995
 21
-769.1905707701293
 31
0.0
  0
LINE
  5
7876
330
1E
100
AcDbEntity
  8
12
  6
Continuous
 62
     3
100
AcDbLine
 10
-171.0932617187993
 20
-749.1905707701293
 30
0.0
 11
-131.0932617187994
 21
-749.1905707701293
 31
0.0
  0
CIRCLE
  5
7877
330
1E
100
AcDbEntity
  8
12
  6
Continuous
 62
     3
100
AcDbCircle
 10
-151.0932617187993
 20
-749.1905707701293
 30
0.0
 40
6.0
  0
LINE
  5
787E
330
1E
100
AcDbEntity
  8
18
  6
DASHED
 48
2.0
100
AcDbLine
 10
-186.9069824218994
 20
-430.7961921080193
 30
0.0
 11
-200.0932617187995
 21
-418.1905402525492
 31
0.0
  0
LINE
  5
787F
330
1E
100
AcDbEntity
  8
18
  6
DASHED
 48
2.0
100
AcDbLine
 10
-196.4012451171995
 20
-451.6835822447393
 30
0.0
 11
-186.9069824218994
 21
-430.7961921080193
 31
0.0
  0
LINE
  5
7880
330
1E
100
AcDbEntity
  8
18
  6
DASHED
 48
2.0
100
AcDbLine
 10
-179.4548339843994
 20
-468.1905402525493
 30
0.0
 11
-196.4012451171995
 21
-451.6835822447393
 31
0.0
  0
CIRCLE
  5
7881
330
1E
100
AcDbEntity
  8
12
  6
Continuous
 62
     3
100
AcDbCircle
 10
-52.5935058593995
 20
-438.1905402525492
 30
0.0
 40
6.0
  0
LINE
  5
7882
330
1E
100
AcDbEntity
  8
12
  6
Continuous
 62
     3
100
AcDbLine
 10
-67.5935058593995
 20
-438.1905402525492
 30
0.0
 11
-37.5935058593995
 21
-438.1905402525492
 31
0.0
  0
CIRCLE
  5
7883
330
1E
100
AcDbEntity
  8
12
  6
Continuous
 62
     3
100
AcDbCircle
 10
52.4064941406005
 20
-438.1905402525492
 30
0.0
 40
6.0
  0
LINE
  5
7884
330
1E
100
AcDbEntity
  8
18
  6
DASHED
 48
2.0
100
AcDbLine
 10
268.9064941406005
 20
-863.1905707701292
 30
0.0
 11
268.9064941406005
 21
-413.1905402525492
 31
0.0
  0
LINE
  5
7885
330
1E
100
AcDbEntity
  8
18
  6
DASHED
 48
2.0
100
AcDbLine
 10
159.9064941406004
 20
-863.1905707701292
 30
0.0
 11
159.9064941406004
 21
-413.1905402525492
 31
0.0
  0
LINE
  5
7886
330
1E
100
AcDbEntity
  8
18
  6
DASHED
 48
2.0
100
AcDbLine
 10
159.9064941406004
 20
-863.1905707701292
 30
0.0
 11
268.9064941406005
 21
-863.1905707701292
 31
0.0
  0
CIRCLE
  5
7887
330
1E
100
AcDbEntity
  8
12
  6
Continuous
 62
     3
100
AcDbCircle
 10
150.9064941406005
 20
-749.1905707701293
 30
0.0
 40
6.0
  0
LINE
  5
7888
330
1E
100
AcDbEntity
  8
18
  6
DASHED
 48
2.0
100
AcDbLine
 10
301.4580078125005
 20
-719.1905707701293
 30
0.0
 11
293.5019531250005
 21
-736.5110968931793
 31
0.0
  0
LINE
  5
7889
330
1E
100
AcDbEntity
  8
18
  6
DASHED
 48
2.0
100
AcDbLine
 10
293.5019531250005
 20
-736.5110968931793
 30
0.0
 11
302.0468750000005
 21
-748.8536261900493
 31
0.0
  0
LINE
  5
788A
330
1E
100
AcDbEntity
  8
18
  6
DASHED
 48
2.0
100
AcDbLine
 10
302.0468750000005
 20
-748.8536261900493
 30
0.0
 11
303.0952148437005
 21
-769.1905707701293
 31
0.0
  0
LINE
  5
788B
330
1E
100
AcDbEntity
  8
18
  6
DASHED
 48
2.0
100
AcDbLine
 10
159.9064941406004
 20
-413.1905402525492
 30
0.0
 11
268.9064941406005
 21
-413.1905402525492
 31
0.0
  0
LINE
  5
788C
330
1E
100
AcDbEntity
  8
18
  6
DASHED
 48
2.0
100
AcDbLine
 10
310.5917968750005
 20
-450.7341193541089
 30
0.0
 11
295.4008789062005
 21
-432.6950568541091
 31
0.0
  0
LINE
  5
788D
330
1E
100
AcDbEntity
  8
18
  6
DASHED
 48
2.0
100
AcDbLine
 10
308.3088378906005
 20
-468.1905402525493
 30
0.0
 11
310.5917968750005
 21
-450.7341193541089
 31
0.0
  0
LINE
  5
788E
330
1E
100
AcDbEntity
  8
18
  6
DASHED
 48
2.0
100
AcDbLine
 10
295.4008789062005
 20
-432.6950568541091
 30
0.0
 11
301.4580078125005
 21
-418.1905402525492
 31
0.0
  0
LWPOLYLINE
  5
788F
330
1E
100
AcDbEntity
  8
18
100
AcDbPolyline
 90
        4
 70
     1
 43
0.0
 10
1014.340457661827
 20
-878.1905703767266
 10
1014.340457661827
 20
-398.1905398591467
 10
499.3404576618277
 20
-398.1905398591467
 10
499.3404576618277
 20
-878.1905703767266
  0
LWPOLYLINE
  5
7890
330
1E
100
AcDbEntity
  8
11
  6
Continuous
100
AcDbPolyline
 90
        4
 70
     1
 43
0.0
 10
986.3404576618277
 20
-871.1905703767266
 10
986.3404576618277
 20
-405.1905398591467
 10
527.3404576618275
 20
-405.1905398591467
 10
527.3404576618275
 20
-871.1905703767266
  0
LINE
  5
78C7
330
1E
100
AcDbEntity
  8
12
  6
Continuous
 62
     3
100
AcDbLine
 10
-52.5935058593995
 20
-453.1905402525493
 30
0.0
 11
-52.5935058593995
 21
-423.1905402525493
 31
0.0
  0
LINE
  5
78C8
330
1E
100
AcDbEntity
  8
12
  6
Continuous
 62
     3
100
AcDbLine
 10
52.4064941406005
 20
-453.1905402525493
 30
0.0
 11
52.4064941406005
 21
-423.1905402525493
 31
0.0
  0
LINE
  5
78C9
330
1E
100
AcDbEntity
  8
12
  6
Continuous
 62
     3
100
AcDbLine
 10
37.4064941406005
 20
-438.1905402525492
 30
0.0
 11
67.4064941406005
 21
-438.1905402525492
 31
0.0
  0
LINE
  5
78CA
330
1E
100
AcDbEntity
  8
12
  6
Continuous
 62
     3
100
AcDbLine
 10
150.9064941406005
 20
-764.1905707701294
 30
0.0
 11
150.9064941406005
 21
-734.1905707701292
 31
0.0
  0
LINE
  5
78CB
330
1E
100
AcDbEntity
  8
12
  6
Continuous
 62
     3
100
AcDbLine
 10
135.9064941406004
 20
-749.1905707701293
 30
0.0
 11
165.9064941406005
 21
-749.1905707701293
 31
0.0
  0
LINE
  5
78CC
330
1E
100
AcDbEntity
  8
12
  6
Continuous
 62
     3
100
AcDbLine
 10
-151.0932617187993
 20
-764.1905707701294
 30
0.0
 11
-151.0932617187993
 21
-734.1905707701292
 31
0.0
  0
LINE
  5
78CD
330
1E
100
AcDbEntity
  8
12
  6
Continuous
 62
     3
100
AcDbLine
 10
-166.0932617187993
 20
-749.1905707701293
 30
0.0
 11
-136.0932617187994
 21
-749.1905707701293
 31
0.0
  0
LINE
  5
78CE
330
1E
100
AcDbEntity
  8
24
  6
CONTINOUS
100
AcDbLine
 10
127.5
 20
688.0
 30
0.0
 11
82.5
 21
688.0
 31
0.0
  0
LINE
  5
78CF
330
1E
100
AcDbEntity
  8
21
  6
Continuous
100
AcDbLine
 10
112.5
 20
557.9999996065971
 30
0.0
 11
112.5
 21
708.0
 31
0.0
  0
LINE
  5
78D0
330
1E
100
AcDbEntity
  8
21
  6
Continuous
100
AcDbLine
 10
97.5
 20
557.9997554658971
 30
0.0
 11
97.5
 21
708.0
 31
0.0
  0
LINE
  5
78D1
330
1E
100
AcDbEntity
  8
21
  6
Continuous
100
AcDbLine
 10
112.5
 20
708.0
 30
0.0
 11
97.5
 21
708.0
 31
0.0
  0
LINE
  5
78D2
330
1E
100
AcDbEntity
  8
24
  6
CONTINOUS
100
AcDbLine
 10
-82.5
 20
688.0
 30
0.0
 11
-127.4999999999997
 21
688.0
 31
0.0
  0
LINE
  5
78D3
330
1E
100
AcDbEntity
  8
21
  6
Continuous
100
AcDbLine
 10
-97.5
 20
557.9999996065971
 30
0.0
 11
-97.5
 21
708.0
 31
0.0
  0
LINE
  5
78D4
330
1E
100
AcDbEntity
  8
21
  6
Continuous
100
AcDbLine
 10
-112.4999999999999
 20
557.9997554658971
 30
0.0
 11
-112.4999999999999
 21
708.0
 31
0.0
  0
LINE
  5
78D5
330
1E
100
AcDbEntity
  8
21
  6
Continuous
100
AcDbLine
 10
-97.5
 20
708.0
 30
0.0
 11
-112.4999999999999
 21
708.0
 31
0.0
  0
LINE
  5
78D6
330
1E
100
AcDbEntity
  8
24
  6
CONTINOUS
100
AcDbLine
 10
237.5
 20
688.0
 30
0.0
 11
192.5
 21
688.0
 31
0.0
  0
LINE
  5
78D7
330
1E
100
AcDbEntity
  8
21
  6
Continuous
100
AcDbLine
 10
222.5
 20
557.9999996065971
 30
0.0
 11
222.5
 21
708.0
 31
0.0
  0
LINE
  5
78D8
330
1E
100
AcDbEntity
  8
21
  6
Continuous
100
AcDbLine
 10
207.5
 20
557.9997554658971
 30
0.0
 11
207.5
 21
708.0
 31
0.0
  0
LINE
  5
78D9
330
1E
100
AcDbEntity
  8
21
  6
Continuous
100
AcDbLine
 10
222.5
 20
708.0
 30
0.0
 11
207.5
 21
708.0
 31
0.0
  0
LWPOLYLINE
  5
78DA
330
1E
100
AcDbEntity
  8
16
100
AcDbPolyline
 90
        2
 70
     0
 43
0.0
 10
756.8404576618277
 20
-888.8056804963207
 10
756.8404576618277
 20
-361.5733129742618
  0
DIMENSION
  5
78DB
330
1E
100
AcDbEntity
  8
30
  6
Continuous
100
AcDbDimension
280
     0
  2
*D17
 10
986.3404576618277
 20
-939.5639479338031
 30
0.0
 11
756.8404576618277
 21
-933.5639479338032
 31
0.0
 70
    32
 71
     5
 42
-1.0
 73
     0
 74
     0
 75
     0
  3
STANDARD
100
AcDbAlignedDimension
 13
527.3404576618275
 23
-871.1905703767266
 33
0.0
 14
986.3404576618277
 24
-871.1905703767266
 34
0.0
100
AcDbRotatedDimension
  0
DIMENSION
  5
78E8
330
1E
100
AcDbEntity
  8
30
  6
Continuous
100
AcDbDimension
280
     0
  2
*D18
 10
1105.604566674792
 20
-871.1905703767266
 30
0.0
 11
1099.604566674792
 21
-638.1905551179364
 31
0.0
 70
    32
 71
     5
 42
-1.0
 73
     0
 74
     0
 75
     0
  3
STANDARD
100
AcDbAlignedDimension
 13
986.3404576618277
 23
-405.1905398591467
 33
0.0
 14
986.3404576618277
 24
-871.1905703767266
 34
0.0
 50
90.0
100
AcDbRotatedDimension
  0
DIMENSION
  5
78F5
330
1E
100
AcDbEntity
  8
30
  6
Continuous
100
AcDbDimension
280
     0
  2
*D19
 10
150.9064941406005
 20
-921.7098398427324
 30
0.0
 11
-0.0933837890995047
 21
-915.7098398427324
 31
0.0
 70
    32
 71
     5
 42
-1.0
 73
     0
 74
     0
 75
     0
  3
STANDARD
100
AcDbAlignedDimension
 13
-151.0932617187993
 23
-764.1905707701294
 33
0.0
 14
150.9064941406005
 24
-764.1905707701294
 34
0.0
100
AcDbRotatedDimension
  0
DIMENSION
  5
7902
330
1E
100
AcDbEntity
  8
30
  6
Continuous
100
AcDbDimension
280
     0
  2
*D20
 10
52.40649414060049
 20
-511.2699266146073
 30
0.0
 11
-0.0935058593995063
 21
-505.2699266146071
 31
0.0
 70
    32
 71
     5
 42
-1.0
 73
     0
 74
     0
 75
     0
  3
STANDARD
100
AcDbAlignedDimension
 13
-52.5935058593995
 23
-423.1905402525493
 33
0.0
 14
52.4064941406005
 24
-423.1905402525493
 34
0.0
100
AcDbRotatedDimension
  0
DIMENSION
  5
7929
330
1E
100
AcDbEntity
  8
30
  6
Continuous
100
AcDbDimension
280
     0
  2
*D21
 10
319.3207301457714
 20
-749.1905707701294
 30
0.0
 11
313.3207301457715
 21
-734.1905707701291
 31
0.0
 70
    32
 71
     5
 42
-1.0
 73
     0
 74
     0
 75
     0
  3
STANDARD
100
AcDbAlignedDimension
 13
301.4580078125005
 23
-719.1905707701293
 33
0.0
 14
268.9064941406005
 24
-749.1905707701294
 34
0.0
 50
90.0
100
AcDbRotatedDimension
  0
DIMENSION
  5
793F
330
1E
100
AcDbEntity
  8
30
  6
Continuous
100
AcDbDimension
280
     0
  2
*D22
 10
357.5838054076048
 20
-638.1905093415666
 30
0.0
 11
351.5838054076048
 21
-538.1905247970578
 31
0.0
 70
    32
 71
     5
 42
-1.0
 73
     0
 74
     0
 75
     0
  3
STANDARD
100
AcDbAlignedDimension
 13
67.4064941406005
 23
-438.1905402525492
 33
0.0
 14
268.9064941406005
 24
-638.1905093415666
 34
0.0
 50
90.0
100
AcDbRotatedDimension
  0
DIMENSION
  5
794C
330
1E
100
AcDbEntity
  8
30
  6
Continuous
100
AcDbDimension
280
     0
  2
*D23
 10
357.5838054076047
 20
-749.1905707701294
 30
0.0
 11
351.5838054076048
 21
-693.6905400558479
 31
0.0
 70
    32
 71
     5
 42
-1.0
 73
     0
 74
     0
 75
     0
  3
STANDARD
100
AcDbAlignedDimension
 13
268.9064941406005
 23
-638.1905093415666
 33
0.0
 14
165.9064941406005
 24
-749.1905707701293
 34
0.0
 50
90.0
100
AcDbRotatedDimension
1001
ACAD
1000
DSTYLE
1002
{
1070
   287
1070
     4
1070
   287
1070
     4
1070
   287
1070
     4
1070
   279
1070
     1
1002
}
  0
DIMENSION
  5
7959
330
1E
100
AcDbEntity
  8
30
  6
Continuous
100
AcDbDimension
280
     0
  2
*D24
 10
150.9064941406005
 20
-749.1905707701293
 30
0.0
 11
211.5023562629712
 21
-827.7730790820276
 31
0.0
 70
   164
  1
%%c12
 71
     5
 42
-1.0
 73
     0
 74
     0
 75
     0
  3
STANDARD
100
AcDbRadialDimension
 15
154.0307579077357
 25
-754.3129701994362
 35
0.0
 40
0.0
1001
ACAD
1000
DSTYLE
1002
{
1070
   288
1070
     1
1002
}
  0
LINE
  5
7D36
330
1E
100
AcDbEntity
  8
18
100
AcDbLine
 10
560.9518059636351
 20
-329.2084960936997
 30
0.0
 11
566.9518059636352
 21
-329.2746582031
 31
0.0
  0
LINE
  5
7D38
330
1E
100
AcDbEntity
  8
18
100
AcDbLine
 10
566.9518059636352
 20
-230.0
 30
0.0
 11
560.9518059636351
 21
-230.0
 31
0.0
  0
LINE
  5
7D39
330
1E
100
AcDbEntity
  8
18
100
AcDbLine
 10
566.9518059636352
 20
229.9999999999999
 30
0.0
 11
560.9518059636351
 21
229.9999999999999
 31
0.0
  0
LINE
  5
7D3A
330
1E
100
AcDbEntity
  8
10
  6
Continuous
100
AcDbLine
 10
560.9518059636351
 20
224.9999999999999
 30
0.0
 11
730.9518059636352
 21
224.9999999999999
 31
0.0
  0
LINE
  5
7D3E
330
1E
100
AcDbEntity
  8
16
100
AcDbLine
 10
-223.1776123047
 20
-32.00000000000002
 30
0.0
 11
386.4318868170639
 21
-32.00000000000002
 31
0.0
  0
LINE
  5
7D47
330
1E
100
AcDbEntity
  8
10
  6
Continuous
100
AcDbLine
 10
-70.0
 20
-255.0
 30
0.0
 11
-70.0
 21
-240.0
 31
0.0
  0
LINE
  5
7D48
330
1E
100
AcDbEntity
  8
10
  6
Continuous
100
AcDbLine
 10
-140.0
 20
-240.0
 30
0.0
 11
-140.0
 21
-255.0
 31
0.0
  0
LINE
  5
7D49
330
1E
100
AcDbEntity
  8
10
  6
Continuous
100
AcDbLine
 10
-140.0
 20
-255.0
 30
0.0
 11
-70.0
 21
-255.0
 31
0.0
  0
LINE
  5
7D4B
330
1E
100
AcDbEntity
  8
10
  6
D329
100
AcDbLine
 10
-140.0
 20
-240.0
 30
0.0
 11
-140.0
 21
-225.0
 31
0.0
  0
LINE
  5
7D4C
330
1E
100
AcDbEntity
  8
10
  6
D329
100
AcDbLine
 10
-70.0
 20
-240.0
 30
0.0
 11
-70.0
 21
-225.0
 31
0.0
  0
LINE
  5
7D4D
330
1E
100
AcDbEntity
  8
10
  6
Continuous
100
AcDbLine
 10
35.0
 20
-255.0
 30
0.0
 11
35.0
 21
-240.0
 31
0.0
  0
LINE
  5
7D4E
330
1E
100
AcDbEntity
  8
10
  6
Continuous
100
AcDbLine
 10
-35.0
 20
-240.0
 30
0.0
 11
-35.0
 21
-255.0
 31
0.0
  0
LINE
  5
7D4F
330
1E
100
AcDbEntity
  8
10
  6
Continuous
100
AcDbLine
 10
-35.0
 20
-255.0
 30
0.0
 11
35.0
 21
-255.0
 31
0.0
  0
LINE
  5
7D51
330
1E
100
AcDbEntity
  8
10
  6
D329
100
AcDbLine
 10
-35.0
 20
-240.0
 30
0.0
 11
-35.0
 21
-225.0
 31
0.0
  0
LINE
  5
7D52
330
1E
100
AcDbEntity
  8
10
  6
D329
100
AcDbLine
 10
35.0
 20
-240.0
 30
0.0
 11
35.0
 21
-225.0
 31
0.0
  0
LINE
  5
7D54
330
1E
100
AcDbEntity
  8
10
  6
Continuous
100
AcDbLine
 10
140.0
 20
-255.0
 30
0.0
 11
140.0
 21
-240.0
 31
0.0
  0
LINE
  5
7D55
330
1E
100
AcDbEntity
  8
10
  6
Continuous
100
AcDbLine
 10
70.0
 20
-240.0
 30
0.0
 11
70.0
 21
-255.0
 31
0.0
  0
LINE
  5
7D56
330
1E
100
AcDbEntity
  8
10
  6
Continuous
100
AcDbLine
 10
70.0
 20
-255.0
 30
0.0
 11
140.0
 21
-255.0
 31
0.0
  0
LINE
  5
7D58
330
1E
100
AcDbEntity
  8
10
  6
D329
100
AcDbLine
 10
70.0
 20
-240.0
 30
0.0
 11
70.0
 21
-225.0
 31
0.0
  0
LINE
  5
7D59
330
1E
100
AcDbEntity
  8
10
  6
D329
100
AcDbLine
 10
140.0
 20
-240.0
 30
0.0
 11
140.0
 21
-225.0
 31
0.0
  0
LINE
  5
7D5A
330
1E
100
AcDbEntity
  8
10
  6
Continuous
100
AcDbLine
 10
250.0
 20
-255.0
 30
0.0
 11
250.0
 21
-240.0
 31
0.0
  0
LINE
  5
7D5B
330
1E
100
AcDbEntity
  8
10
  6
Continuous
100
AcDbLine
 10
180.0
 20
-240.0
 30
0.0
 11
180.0
 21
-255.0
 31
0.0
  0
LINE
  5
7D5C
330
1E
100
AcDbEntity
  8
10
  6
Continuous
100
AcDbLine
 10
180.0
 20
-255.0
 30
0.0
 11
250.0
 21
-255.0
 31
0.0
  0
LINE
  5
7D5E
330
1E
100
AcDbEntity
  8
10
  6
D329
100
AcDbLine
 10
180.0
 20
-240.0
 30
0.0
 11
180.0
 21
-225.0
 31
0.0
  0
LINE
  5
7D5F
330
1E
100
AcDbEntity
  8
10
  6
D329
100
AcDbLine
 10
250.0
 20
-240.0
 30
0.0
 11
250.0
 21
-225.0
 31
0.0
  0
LINE
  5
7D6A
330
1E
100
AcDbEntity
  8
10
  6
Continuous
100
AcDbLine
 10
542.4518059636351
 20
239.9999999999999
 30
0.0
 11
542.4518059636351
 21
-240.0
 31
0.0
  0
LINE
  5
7D6C
330
1E
100
AcDbEntity
  8
10
  6
Continuous
100
AcDbLine
 10
560.9518059636351
 20
-240.0
 30
0.0
 11
560.9518059636351
 21
239.9999999999999
 31
0.0
  0
LINE
  5
7D6D
330
1E
100
AcDbEntity
  8
18
100
AcDbLine
 10
560.9518059636351
 20
-230.0
 30
0.0
 11
560.9518059636351
 21
-329.2084960936997
 31
0.0
  0
LINE
  5
7D6E
330
1E
100
AcDbEntity
  8
10
  6
Continuous
100
AcDbLine
 10
542.4518059636351
 20
-240.0
 30
0.0
 11
560.9518059636351
 21
-240.0
 31
0.0
  0
ARC
  5
7D71
330
1E
100
AcDbEntity
  8
21
  6
Continuous
100
AcDbCircle
 10
630.9518059636352
 20
-30.00000000000003
 30
0.0
 40
145.0000915526825
100
AcDbArc
 50
165.6881085843444
 51
180.0
  0
ARC
  5
7D72
330
1E
100
AcDbEntity
  8
10
  6
Continuous
100
AcDbCircle
 10
795.9518059636352
 20
-37.00000000000002
 30
0.0
 40
259.9999999999361
100
AcDbArc
 50
169.936732134929
 51
178.8980905901464
  0
LINE
  5
7D73
330
1E
100
AcDbEntity
  8
10
  6
Continuous
100
AcDbLine
 10
539.9518059636351
 20
-102.0
 30
0.0
 11
539.9518059636351
 21
-82.43164062500003
 31
0.0
  0
LINE
  5
7D74
330
1E
100
AcDbEntity
  8
10
  6
Continuous
100
AcDbLine
 10
542.4518059636351
 20
-102.0
 30
0.0
 11
539.9518059636351
 21
-102.0
 31
0.0
  0
ARC
  5
7D75
330
1E
100
AcDbEntity
  8
10
  6
Continuous
100
AcDbCircle
 10
795.9518059636352
 20
-37.00000000000002
 30
0.0
 40
260.0
100
AcDbArc
 50
180.0
 51
190.0632778829624
  0
ARC
  5
7D76
330
1E
100
AcDbEntity
  8
10
  6
Continuous
100
AcDbCircle
 10
795.9518059636352
 20
-37.00000000000002
 30
0.0
 40
260.0000000000006
100
AcDbArc
 50
178.8980905901464
 51
180.0
  0
LINE
  5
7D7E
330
1E
100
AcDbEntity
  8
10
  6
Continuous
100
AcDbLine
 10
493.863915338635
 20
4.541015624999971
 30
0.0
 11
528.4796379949352
 21
-8.678222656200006
 31
0.0
  0
LINE
  5
7D7F
330
1E
100
AcDbEntity
  8
10
  6
Continuous
100
AcDbLine
 10
535.9732903386351
 20
13.97949218749997
 30
0.0
 11
500.3009270574351
 21
24.00390624999996
 31
0.0
  0
LINE
  5
7D80
330
1E
100
AcDbEntity
  8
10
  6
Continuous
100
AcDbLine
 10
495.1891106511352
 20
21.28613281249996
 30
0.0
 11
491.3805169011352
 21
9.770507812499973
 31
0.0
  0
ARC
  5
7D81
330
1E
100
AcDbEntity
  8
10
  6
Continuous
100
AcDbCircle
 10
499.043602838635
 20
20.20214843749996
 30
0.0
 40
4.00408840184179
100
AcDbArc
 50
71.69926877486742
 51
164.2919086348797
  0
ARC
  5
7D82
330
1E
100
AcDbEntity
  8
10
  6
Continuous
100
AcDbCircle
 10
495.1212395574351
 20
8.342773437499971
 30
0.0
 40
4.003967762069954
100
AcDbArc
 50
159.1086829789915
 51
251.6992737822662
  0
LINE
  5
7D84
330
1E
100
AcDbEntity
  8
10
  6
Continuous
100
AcDbLine
 10
535.9732903386351
 20
13.97949218749997
 30
0.0
 11
539.9518059636351
 21
13.48388671879998
 31
0.0
  0
LINE
  5
7D85
330
1E
100
AcDbEntity
  8
10
  6
Continuous
100
AcDbLine
 10
528.4796379949352
 20
-8.678222656200006
 30
0.0
 11
537.0152825261351
 21
-13.50976562500002
 31
0.0
  0
LINE
  5
7D86
330
1E
100
AcDbEntity
  8
10
  6
Continuous
100
AcDbLine
 10
539.9518059636351
 20
37.99999999999997
 30
0.0
 11
539.9518059636351
 21
8.431640624999971
 31
0.0
  0
LINE
  5
7D87
330
1E
100
AcDbEntity
  8
10
  6
Continuous
100
AcDbLine
 10
542.4518059636351
 20
37.99999999999997
 30
0.0
 11
539.9518059636351
 21
37.99999999999997
 31
0.0
  0
LINE
  5
7D88
330
1E
100
AcDbEntity
  8
10
  6
Continuous
100
AcDbLine
 10
560.9518059636351
 20
239.9999999999999
 30
0.0
 11
542.4518059636351
 21
239.9999999999999
 31
0.0
  0
LINE
  5
7D89
330
1E
100
AcDbEntity
  8
21
  6
Continuous
100
AcDbLine
 10
880.9518059636353
 20
-165.0
 30
0.0
 11
880.9518059636353
 21
-255.0
 31
0.0
  0
LINE
  5
7D8E
330
1E
100
AcDbEntity
  8
21
  6
Continuous
100
AcDbLine
 10
880.9518059636353
 20
-255.0
 30
0.0
 11
702.9518059636352
 21
-255.0
 31
0.0
  0
LINE
  5
7D8F
330
1E
100
AcDbEntity
  8
18
100
AcDbLine
 10
566.9518059636352
 20
-329.2746582031
 30
0.0
 11
566.9518059636352
 21
-230.0
 31
0.0
  0
LINE
  5
7D90
330
1E
100
AcDbEntity
  8
10
  6
Continuous
100
AcDbLine
 10
702.9518059636352
 20
-255.0
 30
0.0
 11
702.9518059636352
 21
-225.0
 31
0.0
  0
LINE
  5
7D91
330
1E
100
AcDbEntity
  8
10
  6
Continuous
100
AcDbLine
 10
687.9518059636352
 20
-255.0
 30
0.0
 11
687.9518059636352
 21
-225.0
 31
0.0
  0
CIRCLE
  5
7D93
330
1E
100
AcDbEntity
  8
24
  6
CONTINOUS
100
AcDbCircle
 10
820.9518059636351
 20
-230.0
 30
0.0
 40
7.0
  0
CIRCLE
  5
7D96
330
1E
100
AcDbEntity
  8
24
  6
CONTINOUS
100
AcDbCircle
 10
820.9518059636351
 20
-190.0
 30
0.0
 40
7.0
  0
CIRCLE
  5
7D97
330
1E
100
AcDbEntity
  8
24
  6
CONTINOUS
100
AcDbCircle
 10
860.9518059636352
 20
-230.0
 30
0.0
 40
7.0
  0
CIRCLE
  5
7D98
330
1E
100
AcDbEntity
  8
24
  6
CONTINOUS
100
AcDbCircle
 10
860.9518059636352
 20
-190.0
 30
0.0
 40
7.0
  0
LINE
  5
7D9D
330
1E
100
AcDbEntity
  8
21
  6
Continuous
100
AcDbLine
 10
730.9518059636352
 20
-165.0
 30
0.0
 11
880.9518059636353
 21
-165.0
 31
0.0
  0
LINE
  5
7D9E
330
1E
100
AcDbEntity
  8
21
  6
Continuous
100
AcDbLine
 10
730.9518059636352
 20
125.9999999999999
 30
0.0
 11
880.9518059636353
 21
125.9999999999999
 31
0.0
  0
LINE
  5
7D9F
330
1E
100
AcDbEntity
  8
21
  6
Continuous
100
AcDbLine
 10
880.9518059636353
 20
35.99999999999996
 30
0.0
 11
730.9518059636352
 21
35.99999999999996
 31
0.0
  0
LINE
  5
7DA0
330
1E
100
AcDbEntity
  8
L10_
  6
Continuous
 62
     3
100
AcDbLine
 10
789.6043938543352
 20
-111.0
 30
0.0
 11
701.8546379949352
 21
-111.0
 31
0.0
  0
LINE
  5
7DA3
330
1E
100
AcDbEntity
  8
L10_
  6
Continuous
 62
     3
100
AcDbLine
 10
730.9518059636352
 20
-131.0
 30
0.0
 11
730.9518059636352
 21
-81.00000000000003
 31
0.0
  0
LINE
  5
7DA4
330
1E
100
AcDbEntity
  8
L10_
  6
Continuous
 62
     3
100
AcDbLine
 10
736.9518059636352
 20
-126.5
 30
0.0
 11
736.9518059636352
 21
-93.50000000000004
 31
0.0
  0
LINE
  5
7DA5
330
1E
100
AcDbEntity
  8
L10_
  6
Continuous
 62
     3
100
AcDbLine
 10
730.9518059636352
 20
-97.00000000000002
 30
0.0
 11
730.9518059636352
 21
-115.0
 31
0.0
  0
ARC
  5
7DA6
330
1E
100
AcDbEntity
  8
L10_
  6
Continuous
 62
     3
100
AcDbCircle
 10
-732.4518059636353
 20
-126.5
 30
0.0
 40
4.5
210
0.0
220
0.0
230
-1.0
100
AcDbArc
 50
180.0
 51
270.0
  0
LINE
  5
7DA7
330
1E
100
AcDbEntity
  8
L10_
  6
Continuous
 62
     3
100
AcDbLine
 10
732.4518059636353
 20
-131.0
 30
0.0
 11
730.9518059636352
 21
-131.0
 31
0.0
  0
LINE
  5
7DA8
330
1E
100
AcDbEntity
  8
L10_
  6
Continuous
 62
     3
100
AcDbLine
 10
736.9518059636352
 20
-106.0
 30
0.0
 11
760.9518059636352
 21
-106.0
 31
0.0
  0
LINE
  5
7DA9
330
1E
100
AcDbEntity
  8
L10_
  6
Continuous
 62
     3
100
AcDbLine
 10
748.6517571355352
 20
-100.0
 30
0.0
 11
748.6517571355352
 21
-122.0
 31
0.0
  0
LINE
  5
7DAA
330
1E
100
AcDbEntity
  8
L10_
  6
Continuous
 62
     3
100
AcDbLine
 10
760.9518059636352
 20
-106.0
 30
0.0
 11
760.9518059636352
 21
-116.0
 31
0.0
  0
LINE
  5
7DAB
330
1E
100
AcDbEntity
  8
L10_
  6
Continuous
 62
     3
100
AcDbLine
 10
760.9518059636352
 20
-116.0
 30
0.0
 11
736.9518059636352
 21
-116.0
 31
0.0
  0
LINE
  5
7DAC
330
1E
100
AcDbEntity
  8
L10_
  6
Continuous
 62
     3
100
AcDbLine
 10
748.6517571355352
 20
-122.0
 30
0.0
 11
736.9518059636352
 21
-122.0
 31
0.0
  0
LINE
  5
7DAD
330
1E
100
AcDbEntity
  8
L10_
  6
Continuous
 62
     3
100
AcDbLine
 10
748.6517571355352
 20
-100.0
 30
0.0
 11
736.9518059636352
 21
-100.0
 31
0.0
  0
LINE
  5
7DAE
330
1E
100
AcDbEntity
  8
L10_
  6
Continuous
 62
     3
100
AcDbLine
 10
730.9518059636352
 20
-81.00000000000003
 30
0.0
 11
780.9518059636352
 21
-81.00000000000003
 31
0.0
  0
LINE
  5
7DAF
330
1E
100
AcDbEntity
  8
L10_
  6
Continuous
 62
     3
100
AcDbLine
 10
743.4518059636352
 20
-87.00000000000001
 30
0.0
 11
776.4518059636352
 21
-87.00000000000001
 31
0.0
  0
ARC
  5
7DB0
330
1E
100
AcDbEntity
  8
L10_
  6
Continuous
 62
     3
100
AcDbCircle
 10
-743.4518059636352
 20
-93.50000000000004
 30
0.0
 40
6.5
210
0.0
220
0.0
230
-1.0
100
AcDbArc
 50
0.0
 51
90.0
  0
ARC
  5
7DB1
330
1E
100
AcDbEntity
  8
L10_
  6
Continuous
 62
     3
100
AcDbCircle
 10
-776.4518059636352
 20
-82.50000000000003
 30
0.0
 40
4.5
210
0.0
220
0.0
230
-1.0
100
AcDbArc
 50
180.0
 51
270.0
  0
LINE
  5
7DB2
330
1E
100
AcDbEntity
  8
L10_
  6
Continuous
 62
     3
100
AcDbLine
 10
780.9518059636352
 20
-82.50000000000003
 30
0.0
 11
780.9518059636352
 21
-81.00000000000003
 31
0.0
  0
LINE
  5
7DB5
330
1E
100
AcDbEntity
  8
21
  6
Continuous
100
AcDbLine
 10
880.9518059636353
 20
125.9999999999999
 30
0.0
 11
880.9518059636353
 21
35.99999999999996
 31
0.0
  0
LINE
  5
7DB6
330
1E
100
AcDbEntity
  8
24
  6
CONTINOUS
100
AcDbLine
 10
820.9518059636351
 20
79.55468749999997
 30
0.0
 11
820.9518059636351
 21
47.66992187499996
 31
0.0
  0
LINE
  5
7DB7
330
1E
100
AcDbEntity
  8
24
  6
CONTINOUS
100
AcDbLine
 10
860.9518059636352
 20
76.28222656249997
 30
0.0
 11
860.9518059636352
 21
45.53613281249996
 31
0.0
  0
LINE
  5
7DB8
330
1E
100
AcDbEntity
  8
24
  6
CONTINOUS
100
AcDbLine
 10
802.1566399480352
 20
60.99999999999997
 30
0.0
 11
835.1803215886352
 21
60.99999999999997
 31
0.0
  0
LINE
  5
7DB9
330
1E
100
AcDbEntity
  8
24
  6
CONTINOUS
100
AcDbLine
 10
802.1566399480352
 20
100.9999999999999
 30
0.0
 11
835.1803215886352
 21
100.9999999999999
 31
0.0
  0
LINE
  5
7DBA
330
1E
100
AcDbEntity
  8
24
  6
CONTINOUS
100
AcDbLine
 10
820.9518059636351
 20
119.5546874999999
 30
0.0
 11
820.9518059636351
 21
87.66992187499996
 31
0.0
  0
CIRCLE
  5
7DBB
330
1E
100
AcDbEntity
  8
24
  6
CONTINOUS
100
AcDbCircle
 10
820.9518059636351
 20
100.9999999999999
 30
0.0
 40
7.0
  0
CIRCLE
  5
7DBC
330
1E
100
AcDbEntity
  8
24
  6
CONTINOUS
100
AcDbCircle
 10
820.9518059636351
 20
60.99999999999997
 30
0.0
 40
7.0
  0
CIRCLE
  5
7DBD
330
1E
100
AcDbEntity
  8
24
  6
CONTINOUS
100
AcDbCircle
 10
860.9518059636352
 20
60.99999999999997
 30
0.0
 40
7.0
  0
CIRCLE
  5
7DBE
330
1E
100
AcDbEntity
  8
24
  6
CONTINOUS
100
AcDbCircle
 10
860.9518059636352
 20
100.9999999999999
 30
0.0
 40
7.0
  0
LINE
  5
7DBF
330
1E
100
AcDbEntity
  8
24
  6
CONTINOUS
100
AcDbLine
 10
842.1566399480353
 20
100.9999999999999
 30
0.0
 11
875.1803215886353
 21
100.9999999999999
 31
0.0
  0
LINE
  5
7DC0
330
1E
100
AcDbEntity
  8
24
  6
CONTINOUS
100
AcDbLine
 10
844.4342278386352
 20
60.99999999999997
 30
0.0
 11
875.1803215886353
 21
60.99999999999997
 31
0.0
  0
LINE
  5
7DC1
330
1E
100
AcDbEntity
  8
24
  6
CONTINOUS
100
AcDbLine
 10
860.9518059636352
 20
119.5546874999999
 30
0.0
 11
860.9518059636352
 21
87.66992187499996
 31
0.0
  0
LINE
  5
7DC2
330
1E
100
AcDbEntity
  8
L10_
  6
Continuous
 62
     3
100
AcDbLine
 10
701.8546379949352
 20
199.9999999999999
 30
0.0
 11
789.6043938543352
 21
199.9999999999999
 31
0.0
  0
LINE
  5
7DC4
330
1E
100
AcDbEntity
  8
L10_
  6
Continuous
 62
     3
100
AcDbLine
 10
736.9518059636352
 20
215.4999999999999
 30
0.0
 11
736.9518059636352
 21
182.4999999999999
 31
0.0
  0
LINE
  5
7DC5
330
1E
100
AcDbEntity
  8
L10_
  6
Continuous
 62
     3
100
AcDbLine
 10
748.6517571355352
 20
210.9999999999998
 30
0.0
 11
748.6517571355352
 21
188.9999999999999
 31
0.0
  0
LINE
  5
7DC6
330
1E
100
AcDbEntity
  8
L10_
  6
Continuous
 62
     3
100
AcDbLine
 10
760.9518059636352
 20
203.9999999999999
 30
0.0
 11
760.9518059636352
 21
195.9999999999999
 31
0.0
  0
LINE
  5
7DC7
330
1E
100
AcDbEntity
  8
L10_
  6
Continuous
 62
     3
100
AcDbLine
 10
743.4518059636352
 20
175.9999999999999
 30
0.0
 11
776.4518059636352
 21
175.9999999999999
 31
0.0
  0
ARC
  5
7DC8
330
1E
100
AcDbEntity
  8
L10_
  6
Continuous
 62
     3
100
AcDbCircle
 10
743.4518059636352
 20
182.4999999999999
 30
0.0
 40
6.5
100
AcDbArc
 50
180.0
 51
270.0
  0
ARC
  5
7DC9
330
1E
100
AcDbEntity
  8
L10_
  6
Continuous
 62
     3
100
AcDbCircle
 10
776.4518059636352
 20
171.4999999999999
 30
0.0
 40
4.5
100
AcDbArc
 50
0.0
 51
90.0
  0
LINE
  5
7DCA
330
1E
100
AcDbEntity
  8
L10_
  6
Continuous
 62
     3
100
AcDbLine
 10
780.9518059636352
 20
171.4999999999999
 30
0.0
 11
780.9518059636352
 21
169.9999999999999
 31
0.0
  0
LINE
  5
7DCB
330
1E
100
AcDbEntity
  8
L10_
  6
Continuous
 62
     3
100
AcDbLine
 10
730.9518059636352
 20
169.9999999999999
 30
0.0
 11
780.9518059636352
 21
169.9999999999999
 31
0.0
  0
LINE
  5
7DCC
330
1E
100
AcDbEntity
  8
L10_
  6
Continuous
 62
     3
100
AcDbLine
 10
760.9518059636352
 20
195.9999999999999
 30
0.0
 11
736.9518059636352
 21
195.9999999999999
 31
0.0
  0
LINE
  5
7DCD
330
1E
100
AcDbEntity
  8
L10_
  6
Continuous
 62
     3
100
AcDbLine
 10
748.6517571355352
 20
188.9999999999999
 30
0.0
 11
736.9518059636352
 21
188.9999999999999
 31
0.0
  0
LINE
  5
7DCE
330
1E
100
AcDbEntity
  8
L10_
  6
Continuous
 62
     3
100
AcDbLine
 10
736.9518059636352
 20
203.9999999999999
 30
0.0
 11
760.9518059636352
 21
203.9999999999999
 31
0.0
  0
ARC
  5
7DD0
330
1E
100
AcDbEntity
  8
L10_
  6
Continuous
 62
     3
100
AcDbCircle
 10
732.4518059636353
 20
215.4999999999999
 30
0.0
 40
4.5
100
AcDbArc
 50
0.0
 51
90.0
  0
LINE
  5
7DD1
330
1E
100
AcDbEntity
  8
L10_
  6
Continuous
 62
     3
100
AcDbLine
 10
748.6517571355352
 20
210.9999999999998
 30
0.0
 11
736.9518059636352
 21
210.9999999999998
 31
0.0
  0
LINE
  5
7DD2
330
1E
100
AcDbEntity
  8
18
100
AcDbLine
 10
560.9518059636351
 20
328.3956298827998
 30
0.0
 11
566.9518059636352
 21
328.4837646484997
 31
0.0
  0
LINE
  5
7DD3
330
1E
100
AcDbEntity
  8
18
100
AcDbLine
 10
560.9518059636351
 20
229.9999999999999
 30
0.0
 11
560.9518059636351
 21
328.3956298827998
 31
0.0
  0
LINE
  5
7DD4
330
1E
100
AcDbEntity
  8
18
100
AcDbLine
 10
566.9518059636352
 20
328.4837646484997
 30
0.0
 11
566.9518059636352
 21
229.9999999999999
 31
0.0
  0
LWPOLYLINE
  5
7E1A
330
1E
100
AcDbEntity
  8
10
  6
Continuous
100
AcDbPolyline
 90
       12
 70
     1
 43
0.0
 10
311.9998779297
 20
239.9999999999999
 10
-203.0
 20
239.9999999999999
 10
-203.0
 20
-240.0
 10
-140.0
 20
-240.0
 10
-70.0
 20
-240.0
 10
-35.0
 20
-240.0
 10
35.0
 20
-240.0
 10
70.0
 20
-240.0
 10
140.0
 20
-240.0
 10
180.0
 20
-240.0
 10
250.0
 20
-240.0
 10
311.9998779297
 20
-240.0
  0
LWPOLYLINE
  5
7E1B
330
1E
100
AcDbEntity
  8
10
  6
D329
100
AcDbPolyline
 90
        4
 70
     1
 43
0.0
 10
268.9998779296999
 20
-225.0
 10
268.9998779296999
 20
224.9999999999999
 10
-160.0
 20
224.9999999999999
 10
-160.0
 20
-225.0
  0
LWPOLYLINE
  5
7E1C
330
1E
100
AcDbEntity
  8
10
  6
Continuous
100
AcDbPolyline
 90
        4
 70
     1
 43
0.0
 10
57.5
 20
-102.0
 10
-57.5
 20
-102.0
 10
-57.5
 20
37.99999999999997
 10
57.5
 20
37.99999999999997
  0
LWPOLYLINE
  5
7E1D
330
1E
100
AcDbEntity
  8
10
  6
Continuous
100
AcDbPolyline
 90
        4
 70
     1
 43
0.0
 10
33.0
 20
-73.50000000000003
 10
-33.0
 20
-73.50000000000003
 10
-33.0
 20
9.999999999999973
 10
33.0
 20
9.999999999999973
  0
LWPOLYLINE
  5
7E1E
330
1E
100
AcDbEntity
  8
10
  6
Continuous
100
AcDbPolyline
 90
        6
 70
     0
 43
0.0
 10
730.9518059636352
 20
224.9999999999999
 10
730.9518059636352
 20
-81.00000000000003
 10
730.9518059636352
 20
-165.0
 10
730.9518059636352
 20
-225.0
 10
708.3805169011352
 20
-225.0
 10
560.9518059636351
 20
-225.0
  0
LINE
  5
7E34
330
1E
100
AcDbEntity
  8
18
  6
DASHED
 48
2.0
100
AcDbLine
 10
139.9064941406005
 20
-863.1905707701292
 30
0.0
 11
159.9064941406004
 21
-863.1905707701292
 31
0.0
  0
LINE
  5
7E35
330
1E
100
AcDbEntity
  8
18
  6
DASHED
 48
2.0
100
AcDbLine
 10
-70.0935058593995
 20
-863.1905707701292
 30
0.0
 11
-35.0935058593995
 21
-863.1905707701292
 31
0.0
  0
LINE
  5
7E36
330
1E
100
AcDbEntity
  8
18
  6
DASHED
 48
2.0
100
AcDbLine
 10
-140.0932617187993
 20
-893.1905707701293
 30
0.0
 11
-70.0935058593995
 21
-893.1905707701293
 31
0.0
  0
LINE
  5
7E37
330
1E
100
AcDbEntity
  8
18
  6
DASHED
 48
2.0
100
AcDbLine
 10
-160.0932617187994
 20
-863.1905707701292
 30
0.0
 11
-140.0932617187993
 21
-863.1905707701292
 31
0.0
  0
LINE
  5
7E38
330
1E
100
AcDbEntity
  8
18
  6
DASHED
 48
2.0
100
AcDbLine
 10
-140.0932617187993
 20
-863.1905707701292
 30
0.0
 11
-140.0932617187993
 21
-893.1905707701293
 31
0.0
  0
LINE
  5
7E39
330
1E
100
AcDbEntity
  8
18
  6
DASHED
 48
2.0
100
AcDbLine
 10
-70.0935058593995
 20
-893.1905707701293
 30
0.0
 11
-70.0935058593995
 21
-863.1905707701292
 31
0.0
  0
LINE
  5
7E3A
330
1E
100
AcDbEntity
  8
18
  6
DASHED
 48
2.0
100
AcDbLine
 10
34.9064941406005
 20
-863.1905707701292
 30
0.0
 11
69.9064941406005
 21
-863.1905707701292
 31
0.0
  0
LINE
  5
7E3B
330
1E
100
AcDbEntity
  8
18
  6
DASHED
 48
2.0
100
AcDbLine
 10
-35.0935058593995
 20
-893.1905707701293
 30
0.0
 11
34.9064941406005
 21
-893.1905707701293
 31
0.0
  0
LINE
  5
7E3C
330
1E
100
AcDbEntity
  8
18
  6
DASHED
 48
2.0
100
AcDbLine
 10
-35.0935058593995
 20
-863.1905707701292
 30
0.0
 11
-35.0935058593995
 21
-893.1905707701293
 31
0.0
  0
LINE
  5
7E3D
330
1E
100
AcDbEntity
  8
18
  6
DASHED
 48
2.0
100
AcDbLine
 10
34.9064941406005
 20
-893.1905707701293
 30
0.0
 11
34.9064941406005
 21
-863.1905707701292
 31
0.0
  0
LINE
  5
7E3E
330
1E
100
AcDbEntity
  8
18
  6
DASHED
 48
2.0
100
AcDbLine
 10
69.9064941406005
 20
-893.1905707701293
 30
0.0
 11
139.9064941406005
 21
-893.1905707701293
 31
0.0
  0
LINE
  5
7E3F
330
1E
100
AcDbEntity
  8
18
  6
DASHED
 48
2.0
100
AcDbLine
 10
69.9064941406005
 20
-863.1905707701292
 30
0.0
 11
69.9064941406005
 21
-893.1905707701293
 31
0.0
  0
LINE
  5
7E40
330
1E
100
AcDbEntity
  8
18
  6
DASHED
 48
2.0
100
AcDbLine
 10
139.9064941406005
 20
-893.1905707701293
 30
0.0
 11
139.9064941406005
 21
-863.1905707701292
 31
0.0
  0
LINE
  5
7E41
330
1E
100
AcDbEntity
  8
18
  6
DASHED
 48
2.0
100
AcDbLine
 10
249.9064941406003
 20
-863.1905707701292
 30
0.0
 11
268.9064941406005
 21
-863.1905707701292
 31
0.0
  0
LINE
  5
7E42
330
1E
100
AcDbEntity
  8
18
  6
DASHED
 48
2.0
100
AcDbLine
 10
179.9064941406005
 20
-893.1905707701293
 30
0.0
 11
249.9064941406003
 21
-893.1905707701293
 31
0.0
  0
LINE
  5
7E43
330
1E
100
AcDbEntity
  8
18
  6
DASHED
 48
2.0
100
AcDbLine
 10
179.9064941406005
 20
-863.1905707701292
 30
0.0
 11
179.9064941406005
 21
-893.1905707701293
 31
0.0
  0
LINE
  5
7E44
330
1E
100
AcDbEntity
  8
18
  6
DASHED
 48
2.0
100
AcDbLine
 10
249.9064941406003
 20
-893.1905707701293
 30
0.0
 11
249.9064941406003
 21
-863.1905707701292
 31
0.0
  0
DIMENSION
  5
7E45
330
1E
100
AcDbEntity
  8
30
  6
Continuous
100
AcDbDimension
280
     0
  2
*D25
 10
0.0000000000000032
 20
90.17913804377441
 30
0.0
 11
27.25
 21
96.17913804377442
 31
0.0
 70
    32
 71
     5
 42
-1.0
 73
     0
 74
     0
 75
     0
  3
STANDARD
100
AcDbAlignedDimension
 13
54.5
 23
37.99999999999997
 33
0.0
 14
0.0
 24
38.0
 34
0.0
100
AcDbRotatedDimension
  0
DIMENSION
  5
7E52
330
1E
100
AcDbEntity
  8
30
  6
Continuous
100
AcDbDimension
280
     0
  2
*D26
 10
379.6662686973856
 20
-32.00000000000005
 30
0.0
 11
373.6662686973857
 21
-15.99999999999996
 31
0.0
 70
    32
 71
     5
 42
-1.0
 73
     0
 74
     0
 75
     0
  3
STANDARD
100
AcDbAlignedDimension
 13
311.9998779297
 23
0.0000000000000284
 33
0.0
 14
311.9998779297
 24
-32.00000000000002
 34
0.0
 50
90.0
100
AcDbRotatedDimension
  0
DIMENSION
  5
7E5F
330
1E
100
AcDbEntity
  8
30
  6
Continuous
100
AcDbDimension
280
     0
  2
*D27
 10
400.8433748282312
 20
-240.0
 30
0.0
 11
394.8433748282312
 21
0.0000000000000046
 31
0.0
 70
    32
 71
     5
 42
-1.0
 73
     0
 74
     0
 75
     0
  3
STANDARD
100
AcDbAlignedDimension
 13
311.9998779297
 23
239.9999999999999
 33
0.0
 14
311.9998779297
 24
-240.0
 34
0.0
 50
90.0
100
AcDbRotatedDimension
  0
DIMENSION
  5
7E6C
330
1E
100
AcDbEntity
  8
30
  6
Continuous
100
AcDbDimension
280
     0
  2
*D28
 10
400.8433748282312
 20
-255.0
 30
0.0
 11
398.0890832363046
 21
-278.365098435891
 31
0.0
 70
   160
 71
     5
 42
-1.0
 73
     0
 74
     0
 75
     0
  3
STANDARD
100
AcDbAlignedDimension
 13
311.9998779297
 23
-240.0
 33
0.0
 14
250.0
 24
-255.0
 34
0.0
 50
90.0
100
AcDbRotatedDimension
1001
ACAD
1000
DSTYLE
1002
{
1070
   287
1070
     4
1070
   287
1070
     4
1070
   287
1070
     4
1070
   279
1070
     1
1002
}
  0
LINE
  5
7E79
330
1E
100
AcDbEntity
  8
24
  6
CONTINOUS
100
AcDbLine
 10
802.1566399480352
 20
-190.0
 30
0.0
 11
835.1803215886352
 21
-190.0
 31
0.0
  0
LINE
  5
7E7A
330
1E
100
AcDbEntity
  8
24
  6
CONTINOUS
100
AcDbLine
 10
820.9518059636351
 20
-171.4453125
 30
0.0
 11
820.9518059636351
 21
-203.3300781249999
 31
0.0
  0
LINE
  5
7E7B
330
1E
100
AcDbEntity
  8
24
  6
CONTINOUS
100
AcDbLine
 10
860.9518059636352
 20
-171.4453125
 30
0.0
 11
860.9518059636352
 21
-203.3300781249999
 31
0.0
  0
LINE
  5
7E7C
330
1E
100
AcDbEntity
  8
24
  6
CONTINOUS
100
AcDbLine
 10
842.1566399480353
 20
-190.0
 30
0.0
 11
875.1803215886353
 21
-190.0
 31
0.0
  0
LINE
  5
7E7D
330
1E
100
AcDbEntity
  8
24
  6
CONTINOUS
100
AcDbLine
 10
844.4342278386352
 20
-230.0
 30
0.0
 11
875.1803215886353
 21
-230.0
 31
0.0
  0
LINE
  5
7E7E
330
1E
100
AcDbEntity
  8
24
  6
CONTINOUS
100
AcDbLine
 10
860.9518059636352
 20
-214.7177734375
 30
0.0
 11
860.9518059636352
 21
-245.4638671875
 31
0.0
  0
LINE
  5
7E7F
330
1E
100
AcDbEntity
  8
24
  6
CONTINOUS
100
AcDbLine
 10
820.9518059636351
 20
-211.4453124999999
 30
0.0
 11
820.9518059636351
 21
-243.330078125
 31
0.0
  0
LINE
  5
7E80
330
1E
100
AcDbEntity
  8
24
  6
CONTINOUS
100
AcDbLine
 10
802.1566399480352
 20
-230.0
 30
0.0
 11
835.1803215886352
 21
-230.0
 31
0.0
  0
DIMENSION
  5
7E81
330
1E
100
AcDbEntity
  8
30
  6
Continuous
100
AcDbDimension
280
     0
  2
*D29
 10
958.5535765878994
 20
-0.0000000000000383
 30
0.0
 11
952.5535765878997
 21
40.5000000000001
 31
0.0
 70
    32
 71
     5
 42
-1.0
 73
     0
 74
     0
 75
     0
  3
STANDARD
100
AcDbAlignedDimension
 13
880.9518059636353
 23
80.99999999999997
 33
0.0
 14
824.2565815759544
 24
-0.0000000000000003
 34
0.0
 50
90.0
100
AcDbRotatedDimension
  0
DIMENSION
  5
7E8E
330
1E
100
AcDbEntity
  8
30
  6
Continuous
100
AcDbDimension
280
     0
  2
*D30
 10
958.5535765878994
 20
-210.0
 30
0.0
 11
952.5535765878993
 21
-104.9999999999997
 31
0.0
 70
    32
 71
     5
 42
-1.0
 73
     0
 74
     0
 75
     0
  3
STANDARD
100
AcDbAlignedDimension
 13
824.2565815759544
 23
-0.0000000000000003
 33
0.0
 14
928.3186232400986
 24
-210.0
 34
0.0
 50
90.0
100
AcDbRotatedDimension
1001
ACAD
1000
DSTYLE
1002
{
1070
   287
1070
     4
1070
   287
1070
     4
1070
   287
1070
     4
1070
   279
1070
     1
1002
}
  0
DIMENSION
  5
7E9B
330
1E
100
AcDbEntity
  8
30
  6
Continuous
100
AcDbDimension
280
     0
  2
*D31
 10
855.7430874638788
 20
-225.3235428377571
 30
0.0
 11
948.0689862541451
 21
-296.8426672866198
 31
0.0
 70
   163
 71
     5
 42
-1.0
 73
     0
 74
     0
 75
     0
  3
STANDARD
100
AcDbDiametricDimension
 15
866.160524463392
 25
-234.6764571622431
 35
0.0
 40
0.0
1001
ACAD
1000
DSTYLE
1002
{
1070
   288
1070
     1
1002
}
  0
DIMENSION
  5
7EA7
330
1E
100
AcDbEntity
  8
30
  6
Continuous
100
AcDbDimension
280
     0
  2
*D32
 10
860.9518059636352
 20
-309.8427064991806
 30
0.0
 11
870.9518059636351
 21
-303.8427064991806
 31
0.0
 70
    32
 71
     5
 42
-1.0
 73
     0
 74
     0
 75
     0
  3
STANDARD
100
AcDbAlignedDimension
 13
880.9518059636353
 23
-255.0
 33
0.0
 14
860.9518059636352
 24
-245.4638671875
 34
0.0
100
AcDbRotatedDimension
  0
DIMENSION
  5
7EB4
330
1E
100
AcDbEntity
  8
30
  6
Continuous
100
AcDbDimension
280
     0
  2
*D33
 10
820.9518059636351
 20
-309.8427064991806
 30
0.0
 11
840.9518059636353
 21
-303.8427064991806
 31
0.0
 70
    32
 71
     5
 42
-1.0
 73
     0
 74
     0
 75
     0
  3
STANDARD
100
AcDbAlignedDimension
 13
860.9518059636352
 23
-245.4638671875
 33
0.0
 14
820.9518059636351
 24
-243.330078125
 34
0.0
100
AcDbRotatedDimension
1001
ACAD
1000
DSTYLE
1002
{
1070
   287
1070
     4
1070
   287
1070
     4
1070
   287
1070
     4
1070
   279
1070
     1
1002
}
  0
DIMENSION
  5
7EC1
330
1E
100
AcDbEntity
  8
30
  6
Continuous
100
AcDbDimension
280
     0
  2
*D34
 10
560.9518059636351
 20
-353.1761718249494
 30
0.0
 11
523.451760187294
 21
-347.1761718249495
 31
0.0
 70
    32
 71
     5
 42
-1.0
 73
     0
 74
     0
 75
     0
  3
STANDARD
100
AcDbAlignedDimension
 13
485.9517144109526
 23
-30.00000000000001
 33
0.0
 14
560.9518059636351
 24
-240.0
 34
0.0
100
AcDbRotatedDimension
  0
DIMENSION
  5
7ECE
330
1E
100
AcDbEntity
  8
30
  6
Continuous
100
AcDbDimension
280
     0
  2
*D35
 10
730.9518059636352
 20
-353.1761718249494
 30
0.0
 11
645.9518059636352
 21
-347.1761718249493
 31
0.0
 70
    32
 71
     5
 42
-1.0
 73
     0
 74
     0
 75
     0
  3
STANDARD
100
AcDbAlignedDimension
 13
560.9518059636351
 23
-240.0
 33
0.0
 14
730.9518059636352
 24
-225.0
 34
0.0
100
AcDbRotatedDimension
1001
ACAD
1000
DSTYLE
1002
{
1070
   287
1070
     4
1070
   287
1070
     4
1070
   287
1070
     4
1070
   279
1070
     1
1002
}
  0
DIMENSION
  5
7EDB
330
1E
100
AcDbEntity
  8
30
  6
Continuous
100
AcDbDimension
280
     0
  2
*D36
 10
880.9518059636353
 20
-353.1761718249494
 30
0.0
 11
805.9518059636353
 21
-347.1761718249493
 31
0.0
 70
    32
 71
     5
 42
-1.0
 73
     0
 74
     0
 75
     0
  3
STANDARD
100
AcDbAlignedDimension
 13
730.9518059636352
 23
-225.0
 33
0.0
 14
880.9518059636353
 24
-255.0
 34
0.0
100
AcDbRotatedDimension
1001
ACAD
1000
DSTYLE
1002
{
1070
   287
1070
     4
1070
   287
1070
     4
1070
   287
1070
     4
1070
   279
1070
     1
1002
}
  0
DIMENSION
  5
7EE8
330
1E
100
AcDbEntity
  8
30
  6
Continuous
100
AcDbDimension
280
     0
  2
*D37
 10
560.9518059636351
 20
-344.1888889516543
 30
0.0
 11
577.2851392969686
 21
-338.1888889516543
 31
0.0
 70
    32
 71
     5
 42
-1.0
 73
     0
 74
     0
 75
     0
  3
STANDARD
100
AcDbAlignedDimension
 13
542.4518059636351
 23
-240.0
 33
0.0
 14
560.9518059636351
 24
-329.2084960936997
 34
0.0
100
AcDbRotatedDimension
  0
DIMENSION
  5
7F3C
330
1E
100
AcDbEntity
  8
30
  6
Continuous
100
AcDbDimension
280
     0
  2
*D41
 10
0.0000000000000014
 20
730.0535305137672
 30
0.0
 11
-52.49999999999989
 21
736.0535305137672
 31
0.0
 70
    32
 71
     5
 42
-1.0
 73
     0
 74
     0
 75
     0
  3
STANDARD
100
AcDbAlignedDimension
 13
-104.9999999999996
 23
708.0
 33
0.0
 14
0.0
 24
708.0
 34
0.0
100
AcDbRotatedDimension
  0
DIMENSION
  5
7F49
330
1E
100
AcDbEntity
  8
30
  6
Continuous
100
AcDbDimension
280
     0
  2
*D42
 10
105.0
 20
730.0535305137672
 30
0.0
 11
52.5
 21
736.0535305137672
 31
0.0
 70
    32
 71
     5
 42
-1.0
 73
     0
 74
     0
 75
     0
  3
STANDARD
100
AcDbAlignedDimension
 13
0.0
 23
708.0
 33
0.0
 14
105.0
 24
708.0
 34
0.0
100
AcDbRotatedDimension
1001
ACAD
1000
DSTYLE
1002
{
1070
   287
1070
     4
1070
   287
1070
     4
1070
   287
1070
     4
1070
   279
1070
     1
1002
}
  0
DIMENSION
  5
7F5F
330
1E
100
AcDbEntity
  8
30
  6
Continuous
100
AcDbDimension
280
     0
  2
*D43
 10
215.0
 20
730.0535305137672
 30
0.0
 11
160.0
 21
736.0535305137672
 31
0.0
 70
    32
 71
     5
 42
-1.0
 73
     0
 74
     0
 75
     0
  3
STANDARD
100
AcDbAlignedDimension
 13
105.0
 23
709.0
 33
0.0
 14
215.0
 24
708.0
 34
0.0
100
AcDbRotatedDimension
  0
LWPOLYLINE
  5
80BA
330
1E
100
AcDbEntity
  8
10
  6
Continuous
100
AcDbPolyline
 90
        3
 70
     0
 43
0.0
 10
-57.5
 20
370.0
 10
-57.5
 20
366.0
 10
57.5
 20
365.9999999999998
  0
LWPOLYLINE
  5
80BB
330
1E
100
AcDbEntity
  8
10
  6
Continuous
100
AcDbPolyline
 90
        4
 70
     0
 43
0.0
 10
-33.0
 20
366.0
 10
-33.0
 20
334.0
 10
33.0
 20
333.9999999999998
 10
33.0
 20
365.9999999999998
  0
LINE
  5
80BC
330
1E
100
AcDbEntity
  8
10
  6
Continuous
100
AcDbLine
 10
-51.0
 20
370.0
 30
0.0
 11
-51.0
 21
370.0
 31
0.0
  0
LINE
  5
80BD
330
1E
100
AcDbEntity
  8
10
  6
Continuous
100
AcDbLine
 10
57.5
 20
365.9999999999998
 30
0.0
 11
57.5
 21
369.9999999999998
 31
0.0
  0
LINE
  5
80BE
330
1E
100
AcDbEntity
  8
10
  6
Continuous
100
AcDbLine
 10
57.5
 20
369.9999999999998
 30
0.0
 11
57.5
 21
369.9999999999998
 31
0.0
  0
DIMENSION
  5
80BF
330
1E
100
AcDbEntity
  8
30
  6
Continuous
100
AcDbDimension
280
     0
  2
*D44
 10
311.9998779297
 20
-312.1360750789643
 30
0.0
 11
54.49993896485
 21
-306.1360750789645
 31
0.0
 70
    32
 71
     5
 42
-1.0
 73
     0
 74
     0
 75
     0
  3
STANDARD
100
AcDbAlignedDimension
 13
-203.0
 23
-240.0
 33
0.0
 14
311.9998779297
 24
-240.0
 34
0.0
100
AcDbRotatedDimension
  0
DIMENSION
  5
80CC
330
1E
100
AcDbEntity
  8
30
  6
Continuous
100
AcDbDimension
280
     0
  2
*D45
 10
901.3475082682699
 20
-230.0
 30
0.0
 11
895.3475082682698
 21
-209.9999999999995
 31
0.0
 70
    32
 71
     5
 42
-1.0
 73
     0
 74
     0
 75
     0
  3
STANDARD
100
AcDbAlignedDimension
 13
875.1803215886353
 23
-190.0
 33
0.0
 14
875.1803215886353
 24
-230.0
 34
0.0
 50
90.0
100
AcDbRotatedDimension
  0
DIMENSION
  5
80D9
330
1E
100
AcDbEntity
  8
30
  6
Continuous
100
AcDbDimension
280
     0
  2
*D46
 10
928.3186232400986
 20
-255.0
 30
0.0
 11
922.3186232400983
 21
-209.9999999999995
 31
0.0
 70
    32
 71
     5
 42
-1.0
 73
     0
 74
     0
 75
     0
  3
STANDARD
100
AcDbAlignedDimension
 13
880.9518059636353
 23
-165.0
 33
0.0
 14
880.9518059636353
 24
-255.0
 34
0.0
 50
90.0
100
AcDbRotatedDimension
  0
LINE
  5
82D4
330
1E
100
AcDbEntity
  8
24
  6
CONTINOUS
100
AcDbLine
 10
-82.5
 20
647.9999999999997
 30
0.0
 11
-127.4999999999997
 21
647.9999999999997
 31
0.0
  0
LINE
  5
82D5
330
1E
100
AcDbEntity
  8
24
  6
CONTINOUS
100
AcDbLine
 10
22.5
 20
647.9999999999997
 30
0.0
 11
-22.5
 21
647.9999999999997
 31
0.0
  0
LINE
  5
82D6
330
1E
100
AcDbEntity
  8
24
  6
CONTINOUS
100
AcDbLine
 10
127.5
 20
647.9999999999997
 30
0.0
 11
82.5
 21
647.9999999999997
 31
0.0
  0
LINE
  5
82D7
330
1E
100
AcDbEntity
  8
24
  6
CONTINOUS
100
AcDbLine
 10
237.5
 20
647.9999999999997
 30
0.0
 11
192.5
 21
647.9999999999997
 31
0.0
  0
LINE
  5
83C0
330
1E
100
AcDbEntity
  8
10
  6
Continuous
100
AcDbLine
 10
687.9518059636352
 20
-255.0
 30
0.0
 11
702.9518059636352
 21
-255.0
 31
0.0
  0
VIEWPORT
  5
9AC
330
1A
100
AcDbEntity
 67
     1
  8
0
  6
Continuous
100
AcDbViewport
 10
0.0
 20
0.0
 30
0.0
 40
0.0
 41
0.0
 68
     1
 69
     1
 12
0.0
 22
0.0
 13
0.0
 23
0.0
 14
10.0
 24
10.0
 15
10.0
 25
10.0
 16
0.0
 26
0.0
 36
1.0
 17
0.0
 27
0.0
 37
0.0
 42
50.0
 43
0.0
 44
0.0
 45
0.0
 50
0.0
 51
0.0
 72
   100
 90
    32800
  1

281
     0
 71
     1
 74
     0
110
0.0
120
0.0
130
0.0
111
1.0
121
0.0
131
0.0
112
0.0
122
1.0
132
0.0
 79
     0
146
0.0
170
     0
 61
     5
348
8386
292
     1
282
     1
141
0.0
142
0.0
 63
   250
421
  3355443
  0
VIEWPORT
  5
82EC
330
1A
100
AcDbEntity
 67
     1
  8
30
  6
Continuous
100
AcDbViewport
 10
0.0
 20
0.0
 30
0.0
 40
0.0
 41
0.0
 68
     2
 69
     2
 12
394.3589238865548
 22
-99.52360791591582
 13
0.0
 23
0.0
 14
1.0
 24
1.0
 15
10.0
 25
10.0
 16
0.0
 26
0.0
 36
1.0
 17
0.0
 27
0.0
 37
0.0
 42
50.0
 43
0.0
 44
0.0
 45
1698.787298905586
 50
0.0
 51
0.0
 72
   100
 90
    32800
  1

281
     0
 71
     1
 74
     0
110
0.0
120
0.0
130
0.0
111
1.0
121
0.0
131
0.0
112
0.0
122
1.0
132
0.0
 79
     0
146
0.0
170
     0
 61
     5
348
8386
292
     1
282
     1
141
0.0
142
0.0
 63
   250
421
  3355443
  0
ENDSEC
  0
SECTION
  2
OBJECTS
  0
DICTIONARY
  5
C
330
0
100
AcDbDictionary
281
     1
  3
ACAD_CIP_PREVIOUS_PRODUCT_INFO
350
83B7
  3
ACAD_COLOR
350
8399
  3
ACAD_DETAILVIEWSTYLE
350
83B2
  3
ACAD_GROUP
350
D
  3
ACAD_LAYOUT
350
19
  3
ACAD_MATERIAL
350
8367
  3
ACAD_MLEADERSTYLE
350
83AE
  3
ACAD_MLINESTYLE
350
16
  3
ACAD_PLOTSETTINGS
350
18
  3
ACAD_PLOTSTYLENAME
350
E
  3
ACAD_SCALELIST
350
839C
  3
ACAD_SECTIONVIEWSTYLE
350
83B0
  3
ACAD_TABLESTYLE
350
839A
  3
ACAD_VISUALSTYLE
350
8380
  3
ACDB_RECOMPOSE_DATA
350
8400
  3
ACDBVARIABLEDICTIONARY
350
80A8
  0
DICTIONARY
  5
83F8
330
2
100
AcDbDictionary
280
     1
281
     1
  3
ACAD_LAYERSTATES
360
83F9
  0
DICTIONARY
  5
83C1
330
10
100
AcDbDictionary
280
     1
281
     1
  3
ADSK_XREC_LAYER_RECONCILED
360
83C2
  0
DICTIONARY
  5
83C3
330
2F
100
AcDbDictionary
280
     1
281
     1
  3
ADSK_XREC_LAYER_RECONCILED
360
83C4
  0
DICTIONARY
  5
83C5
330
31
100
AcDbDictionary
280
     1
281
     1
  3
ADSK_XREC_LAYER_RECONCILED
360
83C6
  0
DICTIONARY
  5
83C7
330
35
100
AcDbDictionary
280
     1
281
     1
  3
ADSK_XREC_LAYER_RECONCILED
360
83C8
  0
DICTIONARY
  5
83C9
330
38
100
AcDbDictionary
280
     1
281
     1
  3
ADSK_XREC_LAYER_RECONCILED
360
83CA
  0
DICTIONARY
  5
83CB
330
3C
100
AcDbDictionary
280
     1
281
     1
  3
ADSK_XREC_LAYER_RECONCILED
360
83CC
  0
DICTIONARY
  5
83CD
330
3D
100
AcDbDictionary
280
     1
281
     1
  3
ADSK_XREC_LAYER_RECONCILED
360
83CE
  0
DICTIONARY
  5
83CF
330
3A2
100
AcDbDictionary
280
     1
281
     1
  3
ADSK_XREC_LAYER_RECONCILED
360
83D0
  0
DICTIONARY
  5
83D1
330
3BBA
100
AcDbDictionary
280
     1
281
     1
  3
ADSK_XREC_LAYER_RECONCILED
360
83D2
  0
DICTIONARY
  5
83D3
330
3BBB
100
AcDbDictionary
280
     1
281
     1
  3
ADSK_XREC_LAYER_RECONCILED
360
83D4
  0
DICTIONARY
  5
83D5
330
5797
100
AcDbDictionary
280
     1
281
     1
  3
ADSK_XREC_LAYER_RECONCILED
360
83D6
  0
DICTIONARY
  5
83D7
330
5D4D
100
AcDbDictionary
280
     1
281
     1
  3
ADSK_XREC_LAYER_RECONCILED
360
83D8
  0
DICTIONARY
  5
83D9
330
6100
100
AcDbDictionary
280
     1
281
     1
  3
ADSK_XREC_LAYER_RECONCILED
360
83DA
  0
DICTIONARY
  5
83DB
330
6796
100
AcDbDictionary
280
     1
281
     1
  3
ADSK_XREC_LAYER_RECONCILED
360
83DC
  0
DICTIONARY
  5
83DD
330
6797
100
AcDbDictionary
280
     1
281
     1
  3
ADSK_XREC_LAYER_RECONCILED
360
83DE
  0
DICTIONARY
  5
83DF
330
6798
100
AcDbDictionary
280
     1
281
     1
  3
ADSK_XREC_LAYER_RECONCILED
360
83E0
  0
DICTIONARY
  5
83E1
330
6B44
100
AcDbDictionary
280
     1
281
     1
  3
ADSK_XREC_LAYER_RECONCILED
360
83E2
  0
DICTIONARY
  5
83E3
330
706A
100
AcDbDictionary
280
     1
281
     1
  3
ADSK_XREC_LAYER_RECONCILED
360
83E4
  0
DICTIONARY
  5
83E5
330
7525
100
AcDbDictionary
280
     1
281
     1
  3
ADSK_XREC_LAYER_RECONCILED
360
83E6
  0
DICTIONARY
  5
178
330
1E
100
AcDbDictionary
280
     1
281
     1
  3
ACAD_LAYOUTSELFREF
360
8310
  0
DICTIONARY
  5
17A
330
1A
100
AcDbDictionary
280
     1
281
     1
  3
ACAD_LAYOUTSELFREF
360
830F
  0
XRECORD
  5
83B7
102
{ACAD_REACTORS
330
C
102
}
330
C
100
AcDbXrecord
280
     1
300
ACD
300
2023
300

  0
DICTIONARY
  5
8399
102
{ACAD_REACTORS
330
C
102
}
330
C
100
AcDbDictionary
281
     1
  0
DICTIONARY
  5
83B2
102
{ACAD_REACTORS
330
C
102
}
330
C
100
AcDbDictionary
281
     1
  3
Imperial24
350
83B3
  0
DICTIONARY
  5
D
102
{ACAD_REACTORS
330
C
102
}
330
C
100
AcDbDictionary
281
     1
  0
DICTIONARY
  5
19
102
{ACAD_REACTORS
330
C
102
}
330
C
100
AcDbDictionary
281
     1
  3
Model
350
835A
  3
ﾚｲｱｳﾄ1
350
835B
  0
DICTIONARY
  5
8367
102
{ACAD_REACTORS
330
C
102
}
330
C
100
AcDbDictionary
281
     1
  3
ByBlock
350
8370
  3
ByLayer
350
8368
  3
Global
350
8378
  0
DICTIONARY
  5
83AE
102
{ACAD_REACTORS
330
C
102
}
330
C
100
AcDbDictionary
281
     1
  3
Standard
350
83AF
  0
DICTIONARY
  5
16
102
{ACAD_REACTORS
330
C
102
}
330
C
100
AcDbDictionary
281
     1
  3
STANDARD
350
17
  0
DICTIONARY
  5
18
102
{ACAD_REACTORS
330
C
102
}
330
C
100
AcDbDictionary
281
     1
  0
ACDBDICTIONARYWDFLT
  5
E
102
{ACAD_REACTORS
330
C
102
}
330
C
100
AcDbDictionary
281
     1
  3
Normal
350
F
100
AcDbDictionaryWithDefault
340
F
  0
DICTIONARY
  5
839C
102
{ACAD_REACTORS
330
C
102
}
330
C
100
AcDbDictionary
281
     1
  3
A0
350
839D
  3
A1
350
839E
  3
A2
350
839F
  3
A3
350
83A0
  3
A4
350
83A1
  3
A5
350
83A2
  3
A6
350
83A3
  3
A7
350
83A4
  3
A8
350
83A5
  3
A9
350
83A6
  3
B0
350
83A7
  3
B1
350
83A8
  3
B2
350
83A9
  3
B3
350
83AA
  3
B4
350
83AB
  3
B5
350
83AC
  3
B6
350
83AD
  0
DICTIONARY
  5
83B0
102
{ACAD_REACTORS
330
C
102
}
330
C
100
AcDbDictionary
281
     1
  3
Imperial24
350
83B1
  0
DICTIONARY
  5
839A
102
{ACAD_REACTORS
330
C
102
}
330
C
100
AcDbDictionary
281
     1
  3
Standard
350
839B
  0
DICTIONARY
  5
8380
102
{ACAD_REACTORS
330
C
102
}
330
C
100
AcDbDictionary
281
     1
  3
2dWireframe
350
8386
  3
Basic
350
8385
  3
Brighten
350
838C
  3
ColorChange
350
8390
  3
Conceptual
350
8389
  3
Dim
350
838B
  3
EdgeColorOff
350
8398
  3
Facepattern
350
838F
  3
Flat
350
8381
  3
FlatWithEdges
350
8382
  3
Gouraud
350
8383
  3
GouraudWithEdges
350
8384
  3
Hidden
350
8388
  3
JitterOff
350
8396
  3
Linepattern
350
838E
  3
OverhangOff
350
8397
  3
Realistic
350
838A
  3
Shaded
350
8395
  3
Shaded with edges
350
8394
  3
Shades of Gray
350
8391
  3
Sketchy
350
8392
  3
Thicken
350
838D
  3
Wireframe
350
8387
  3
X-Ray
350
8393
  0
XRECORD
  5
8400
102
{ACAD_REACTORS
330
C
102
}
330
C
100
AcDbXrecord
280
     1
 90
        1
330
839B
  0
DICTIONARY
  5
80A8
102
{ACAD_REACTORS
330
C
102
}
330
C
100
AcDbDictionary
281
     1
  3
CANNOSCALE
350
83EC
  3
CMLEADERSTYLE
350
83E8
  3
CTABLESTYLE
350
83E7
  3
CVIEWDETAILSTYLE
350
83E9
  3
CVIEWSECTIONSTYLE
350
83EA
  3
DIMASSOC
350
80A9
  3
LAYEREVAL
350
83EE
  3
LAYERNOTIFY
350
83EF
  3
LIGHTINGUNITS
350
83ED
  3
MSLTSCALE
350
83EB
  0
DICTIONARY
  5
83F9
102
{ACAD_REACTORS
330
83F8
102
}
330
83F8
100
AcDbDictionary
281
     1
  0
XRECORD
  5
83C2
102
{ACAD_REACTORS
330
83C1
102
}
330
83C1
100
AcDbXrecord
280
     1
290
     1
  0
XRECORD
  5
83C4
102
{ACAD_REACTORS
330
83C3
102
}
330
83C3
100
AcDbXrecord
280
     1
290
     1
  0
XRECORD
  5
83C6
102
{ACAD_REACTORS
330
83C5
102
}
330
83C5
100
AcDbXrecord
280
     1
290
     1
  0
XRECORD
  5
83C8
102
{ACAD_REACTORS
330
83C7
102
}
330
83C7
100
AcDbXrecord
280
     1
290
     1
  0
XRECORD
  5
83CA
102
{ACAD_REACTORS
330
83C9
102
}
330
83C9
100
AcDbXrecord
280
     1
290
     1
  0
XRECORD
  5
83CC
102
{ACAD_REACTORS
330
83CB
102
}
330
83CB
100
AcDbXrecord
280
     1
290
     1
  0
XRECORD
  5
83CE
102
{ACAD_REACTORS
330
83CD
102
}
330
83CD
100
AcDbXrecord
280
     1
290
     1
  0
XRECORD
  5
83D0
102
{ACAD_REACTORS
330
83CF
102
}
330
83CF
100
AcDbXrecord
280
     1
290
     1
  0
XRECORD
  5
83D2
102
{ACAD_REACTORS
330
83D1
102
}
330
83D1
100
AcDbXrecord
280
     1
290
     1
  0
XRECORD
  5
83D4
102
{ACAD_REACTORS
330
83D3
102
}
330
83D3
100
AcDbXrecord
280
     1
290
     1
  0
XRECORD
  5
83D6
102
{ACAD_REACTORS
330
83D5
102
}
330
83D5
100
AcDbXrecord
280
     1
290
     1
  0
XRECORD
  5
83D8
102
{ACAD_REACTORS
330
83D7
102
}
330
83D7
100
AcDbXrecord
280
     1
290
     1
  0
XRECORD
  5
83DA
102
{ACAD_REACTORS
330
83D9
102
}
330
83D9
100
AcDbXrecord
280
     1
290
     1
  0
XRECORD
  5
83DC
102
{ACAD_REACTORS
330
83DB
102
}
330
83DB
100
AcDbXrecord
280
     1
290
     1
  0
XRECORD
  5
83DE
102
{ACAD_REACTORS
330
83DD
102
}
330
83DD
100
AcDbXrecord
280
     1
290
     1
  0
XRECORD
  5
83E0
102
{ACAD_REACTORS
330
83DF
102
}
330
83DF
100
AcDbXrecord
280
     1
290
     1
  0
XRECORD
  5
83E2
102
{ACAD_REACTORS
330
83E1
102
}
330
83E1
100
AcDbXrecord
280
     1
290
     1
  0
XRECORD
  5
83E4
102
{ACAD_REACTORS
330
83E3
102
}
330
83E3
100
AcDbXrecord
280
     1
290
     1
  0
XRECORD
  5
83E6
102
{ACAD_REACTORS
330
83E5
102
}
330
83E5
100
AcDbXrecord
280
     1
290
     1
  0
XRECORD
  5
8310
102
{ACAD_REACTORS
330
178
102
}
330
178
100
AcDbXrecord
280
     1
340
1E
  0
XRECORD
  5
830F
102
{ACAD_REACTORS
330
17A
102
}
330
17A
100
AcDbXrecord
280
     1
340
1A
  0
ACDBDETAILVIEWSTYLE
  5
83B3
102
{ACAD_REACTORS
330
83B2
102
}
330
83B2
100
AcDbModelDocViewStyle
 70
     0
  3
Imperial24
290
     0
300
Imperial24
 90
        0
100
AcDbDetailViewStyle
 70
     0
 71
     0
 90
        3
 71
     1
340
11
 62
   256
 40
0.24
340
0
 62
   256
 40
0.24
300

 40
0.36
280
     3
 71
     2
340
15
 90
       25
 62
   256
 71
     3
340
11
 62
   256
 40
0.24
 90
        1
 40
0.75
 90
        1
300
%<\AcVar ViewType \f "%tc1">% %<\AcVar ViewDetailId>%\PSCALE %<\AcVar ViewScale \f "%sn">%
 71
     4
340
15
 90
       25
 62
   256
340
15
 90
       25
 62
   256
280
     0
  0
LAYOUT
  5
835A
102
{ACAD_REACTORS
330
19
102
}
330
19
100
AcDbPlotSettings
  1

  2
LBP5400
  4

  6

 40
0.0
 41
0.0
 42
0.0
 43
0.0
 44
0.0
 45
0.0
 46
0.0
 47
0.0
 48
0.0
 49
0.0
140
0.0
141
0.0
142
1.0
143
1.0
 70
  1712
 72
     0
 73
     0
 74
     0
  7
monochrome.stb
 75
     0
147
1.0
 76
     0
 77
     2
 78
   300
148
0.0
149
0.0
100
AcDbLayout
  1
Model
 70
     1
 71
     0
 10
0.0
 20
0.0
 11
12.0
 21
9.0
 12
0.0
 22
0.0
 32
0.0
 14
0.0
 24
0.0
 34
0.0
 15
0.0
 25
0.0
 35
0.0
146
0.0
 13
0.0
 23
0.0
 33
0.0
 16
1.0
 26
0.0
 36
0.0
 17
0.0
 27
1.0
 37
0.0
 76
     0
330
1E
331
835E
  0
LAYOUT
  5
835B
102
{ACAD_REACTORS
330
19
102
}
330
19
100
AcDbPlotSettings
  1

  2
LBP5400
  4

  6

 40
0.0
 41
0.0
 42
0.0
 43
0.0
 44
0.0
 45
0.0
 46
0.0
 47
0.0
 48
0.0
 49
0.0
140
0.0
141
0.0
142
1.0
143
1.0
 70
   688
 72
     0
 73
     0
 74
     5
  7
monochrome.stb
 75
    16
147
1.0
 76
     0
 77
     2
 78
   300
148
0.0
149
0.0
100
AcDbLayout
  1
ﾚｲｱｳﾄ1
 70
     1
 71
     1
 10
0.0
 20
0.0
 11
0.0
 21
0.0
 12
0.0
 22
0.0
 32
0.0
 14
0.0
 24
0.0
 34
0.0
 15
0.0
 25
0.0
 35
0.0
146
0.0
 13
0.0
 23
0.0
 33
0.0
 16
1.0
 26
0.0
 36
0.0
 17
0.0
 27
1.0
 37
0.0
 76
     0
330
1A
331
9AC
  0
MATERIAL
  5
8370
102
{ACAD_XDICTIONARY
360
8371
102
}
102
{ACAD_REACTORS
330
8367
102
}
330
8367
100
AcDbMaterial
  1
ByBlock
 72
     0
 43
0.0208333333333333
 43
0.0
 43
0.0
 43
0.0
 43
0.0
 43
0.0208333333333333
 43
0.0
 43
0.0
 43
0.0
 43
0.0
 43
1.0
 43
0.0
 43
0.0
 43
0.0
 43
0.0
 43
1.0
 77
     0
 47
0.0208333333333333
 47
0.0
 47
0.0
 47
0.0
 47
0.0
 47
0.0208333333333333
 47
0.0
 47
0.0
 47
0.0
 47
0.0
 47
1.0
 47
0.0
 47
0.0
 47
0.0
 47
0.0
 47
1.0
171
     0
 49
0.0208333333333333
 49
0.0
 49
0.0
 49
0.0
 49
0.0
 49
0.0208333333333333
 49
0.0
 49
0.0
 49
0.0
 49
0.0
 49
1.0
 49
0.0
 49
0.0
 49
0.0
 49
0.0
 49
1.0
175
     0
142
0.0208333333333333
142
0.0
142
0.0
142
0.0
142
0.0
142
0.0208333333333333
142
0.0
142
0.0
142
0.0
142
0.0
142
1.0
142
0.0
142
0.0
142
0.0
142
0.0
142
1.0
179
     0
144
0.0208333333333333
144
0.0
144
0.0
144
0.0
144
0.0
144
0.0208333333333333
144
0.0
144
0.0
144
0.0
144
0.0
144
1.0
144
0.0
144
0.0
144
0.0
144
0.0
144
1.0
147
0.0208333333333333
147
0.0
147
0.0
147
0.0
147
0.0
147
0.0208333333333333
147
0.0
147
0.0
147
0.0
147
0.0
147
1.0
147
0.0
147
0.0
147
0.0
147
0.0
147
1.0
  0
MATERIAL
  5
8368
102
{ACAD_XDICTIONARY
360
8369
102
}
102
{ACAD_REACTORS
330
8367
102
}
330
8367
100
AcDbMaterial
  1
ByLayer
 72
     0
 43
0.0208333333333333
 43
0.0
 43
0.0
 43
0.0
 43
0.0
 43
0.0208333333333333
 43
0.0
 43
0.0
 43
0.0
 43
0.0
 43
1.0
 43
0.0
 43
0.0
 43
0.0
 43
0.0
 43
1.0
 77
     0
 47
0.0208333333333333
 47
0.0
 47
0.0
 47
0.0
 47
0.0
 47
0.0208333333333333
 47
0.0
 47
0.0
 47
0.0
 47
0.0
 47
1.0
 47
0.0
 47
0.0
 47
0.0
 47
0.0
 47
1.0
171
     0
 49
0.0208333333333333
 49
0.0
 49
0.0
 49
0.0
 49
0.0
 49
0.0208333333333333
 49
0.0
 49
0.0
 49
0.0
 49
0.0
 49
1.0
 49
0.0
 49
0.0
 49
0.0
 49
0.0
 49
1.0
175
     0
142
0.0208333333333333
142
0.0
142
0.0
142
0.0
142
0.0
142
0.0208333333333333
142
0.0
142
0.0
142
0.0
142
0.0
142
1.0
142
0.0
142
0.0
142
0.0
142
0.0
142
1.0
179
     0
144
0.0208333333333333
144
0.0
144
0.0
144
0.0
144
0.0
144
0.0208333333333333
144
0.0
144
0.0
144
0.0
144
0.0
144
1.0
144
0.0
144
0.0
144
0.0
144
0.0
144
1.0
147
0.0208333333333333
147
0.0
147
0.0
147
0.0
147
0.0
147
0.0208333333333333
147
0.0
147
0.0
147
0.0
147
0.0
147
1.0
147
0.0
147
0.0
147
0.0
147
0.0
147
1.0
  0
MATERIAL
  5
8378
102
{ACAD_XDICTIONARY
360
8379
102
}
102
{ACAD_REACTORS
330
8367
102
}
330
8367
100
AcDbMaterial
  1
Global
 72
     0
 43
0.0208333333333333
 43
0.0
 43
0.0
 43
0.0
 43
0.0
 43
0.0208333333333333
 43
0.0
 43
0.0
 43
0.0
 43
0.0
 43
1.0
 43
0.0
 43
0.0
 43
0.0
 43
0.0
 43
1.0
 77
     0
 47
0.0208333333333333
 47
0.0
 47
0.0
 47
0.0
 47
0.0
 47
0.0208333333333333
 47
0.0
 47
0.0
 47
0.0
 47
0.0
 47
1.0
 47
0.0
 47
0.0
 47
0.0
 47
0.0
 47
1.0
171
     0
 49
0.0208333333333333
 49
0.0
 49
0.0
 49
0.0
 49
0.0
 49
0.0208333333333333
 49
0.0
 49
0.0
 49
0.0
 49
0.0
 49
1.0
 49
0.0
 49
0.0
 49
0.0
 49
0.0
 49
1.0
175
     0
142
0.0208333333333333
142
0.0
142
0.0
142
0.0
142
0.0
142
0.0208333333333333
142
0.0
142
0.0
142
0.0
142
0.0
142
1.0
142
0.0
142
0.0
142
0.0
142
0.0
142
1.0
179
     0
144
0.0208333333333333
144
0.0
144
0.0
144
0.0
144
0.0
144
0.0208333333333333
144
0.0
144
0.0
144
0.0
144
0.0
144
1.0
144
0.0
144
0.0
144
0.0
144
0.0
144
1.0
147
0.0208333333333333
147
0.0
147
0.0
147
0.0
147
0.0
147
0.0208333333333333
147
0.0
147
0.0
147
0.0
147
0.0
147
1.0
147
0.0
147
0.0
147
0.0
147
0.0
147
1.0
  0
MLEADERSTYLE
  5
83AF
102
{ACAD_REACTORS
330
83AE
102
}
330
83AE
100
AcDbMLeaderStyle
179
     2
170
     2
171
     1
172
     0
 90
        2
 40
0.0
 41
0.0
173
     1
 91
-1056964608
340
13
 92
       -2
290
     1
 42
0.09
291
     1
 43
0.36
  3
Standard
 44
0.18
300

342
11
174
     1
178
     6
175
     1
176
     0
 93
-1056964608
 45
0.18
292
     0
297
     0
 46
0.18
 94
-1056964608
 47
1.0
 49
1.0
140
1.0
293
     1
141
0.0
294
     1
177
     0
142
1.0
295
     0
296
     0
143
0.125
271
     0
272
     9
273
     9
298
     0
  0
MLINESTYLE
  5
17
102
{ACAD_REACTORS
330
16
102
}
330
16
100
AcDbMlineStyle
  2
STANDARD
 70
     0
  3

 62
   256
 51
90.0
 52
90.0
 71
     2
 49
0.5
 62
   256
  6
BYLAYER
 49
-0.5
 62
   256
  6
BYLAYER
  0
ACDBPLACEHOLDER
  5
F
102
{ACAD_REACTORS
330
E
102
}
330
E
  0
SCALE
  5
839D
102
{ACAD_REACTORS
330
839C
102
}
330
839C
100
AcDbScale
 70
     0
300
1:1
140
1.0
141
1.0
290
     1
  0
SCALE
  5
839E
102
{ACAD_REACTORS
330
839C
102
}
330
839C
100
AcDbScale
 70
     0
300
1/128" = 1'-0"
140
0.0078125
141
12.0
290
     0
  0
SCALE
  5
839F
102
{ACAD_REACTORS
330
839C
102
}
330
839C
100
AcDbScale
 70
     0
300
1/64" = 1'-0"
140
0.015625
141
12.0
290
     0
  0
SCALE
  5
83A0
102
{ACAD_REACTORS
330
839C
102
}
330
839C
100
AcDbScale
 70
     0
300
1/32" = 1'-0"
140
0.03125
141
12.0
290
     0
  0
SCALE
  5
83A1
102
{ACAD_REACTORS
330
839C
102
}
330
839C
100
AcDbScale
 70
     0
300
1/16" = 1'-0"
140
0.0625
141
12.0
290
     0
  0
SCALE
  5
83A2
102
{ACAD_REACTORS
330
839C
102
}
330
839C
100
AcDbScale
 70
     0
300
3/32" = 1'-0"
140
0.09375
141
12.0
290
     0
  0
SCALE
  5
83A3
102
{ACAD_REACTORS
330
839C
102
}
330
839C
100
AcDbScale
 70
     0
300
1/8" = 1'-0"
140
0.125
141
12.0
290
     0
  0
SCALE
  5
83A4
102
{ACAD_REACTORS
330
839C
102
}
330
839C
100
AcDbScale
 70
     0
300
3/16" = 1'-0"
140
0.1875
141
12.0
290
     0
  0
SCALE
  5
83A5
102
{ACAD_REACTORS
330
839C
102
}
330
839C
100
AcDbScale
 70
     0
300
1/4" = 1'-0"
140
0.25
141
12.0
290
     0
  0
SCALE
  5
83A6
102
{ACAD_REACTORS
330
839C
102
}
330
839C
100
AcDbScale
 70
     0
300
3/8" = 1'-0"
140
0.375
141
12.0
290
     0
  0
SCALE
  5
83A7
102
{ACAD_REACTORS
330
839C
102
}
330
839C
100
AcDbScale
 70
     0
300
1/2" = 1'-0"
140
0.5
141
12.0
290
     0
  0
SCALE
  5
83A8
102
{ACAD_REACTORS
330
839C
102
}
330
839C
100
AcDbScale
 70
     0
300
3/4" = 1'-0"
140
0.75
141
12.0
290
     0
  0
SCALE
  5
83A9
102
{ACAD_REACTORS
330
839C
102
}
330
839C
100
AcDbScale
 70
     0
300
1" = 1'-0"
140
1.0
141
12.0
290
     0
  0
SCALE
  5
83AA
102
{ACAD_REACTORS
330
839C
102
}
330
839C
100
AcDbScale
 70
     0
300
1-1/2" = 1'-0"
140
1.5
141
12.0
290
     0
  0
SCALE
  5
83AB
102
{ACAD_REACTORS
330
839C
102
}
330
839C
100
AcDbScale
 70
     0
300
3" = 1'-0"
140
3.0
141
12.0
290
     0
  0
SCALE
  5
83AC
102
{ACAD_REACTORS
330
839C
102
}
330
839C
100
AcDbScale
 70
     0
300
6" = 1'-0"
140
6.0
141
12.0
290
     0
  0
SCALE
  5
83AD
102
{ACAD_REACTORS
330
839C
102
}
330
839C
100
AcDbScale
 70
     0
300
1'-0" = 1'-0"
140
12.0
141
12.0
290
     0
  0
ACDBSECTIONVIEWSTYLE
  5
83B1
102
{ACAD_REACTORS
330
83B0
102
}
330
83B0
100
AcDbModelDocViewStyle
 70
     0
  3
Imperial24
290
     0
300
Imperial24
 90
        0
100
AcDbSectionViewStyle
 70
     0
 71
     0
 90
       78
 71
     1
340
11
 62
   256
 40
0.24
340
0
340
0
 62
   256
 40
0.24
300
I, O, Q, S, X, Z
 40
0.48
 90
        3
 40
0.18
 90
        1
 71
     2
340
15
 90
       25
 62
   256
340
15
 90
       50
 62
   256
 40
0.24
 40
0.0
 40
0.24
 71
     3
340
11
 62
   256
 40
0.24
 90
        1
 40
0.75
 90
        1
300
%<\AcVar ViewType \f "%tc1">% %<\AcVar ViewSectionStartId>%-%<\AcVar ViewSectionEndId>%\PSCALE %<\AcVar ViewScale \f "%sn">%
 71
     4
 62
   256
 62
   257
300
ANSI31
 40
1.0
 90
        0
290
     0
290
     0
 90
        6
 40
0.0
 40
1.570796326794896
 40
0.2617993877991494
 40
1.308996938995747
 40
-0.2617993877991494
 40
1.832595714594046
  0
TABLESTYLE
  5
839B
102
{ACAD_XDICTIONARY
360
83FE
102
}
102
{ACAD_REACTORS
330
839A
102
}
330
839A
100
AcDbTableStyle
280
     0
  3
Standard
 70
     0
 71
     0
 40
0.06
 41
0.06
280
     0
281
     0
  7
STANDARD
140
0.18
170
     2
 62
     0
 63
     7
283
     0
 90
      512
 91
        0
  1

274
    -2
284
     1
 64
     0
275
    -2
285
     1
 65
     0
276
    -2
286
     1
 66
     0
277
    -2
287
     1
 67
     0
278
    -2
288
     1
 68
     0
279
    -2
289
     1
 69
     0
  7
STANDARD
140
0.25
170
     5
 62
     0
 63
     7
283
     0
 90
      512
 91
        0
  1

274
    -2
284
     1
 64
     0
275
    -2
285
     1
 65
     0
276
    -2
286
     1
 66
     0
277
    -2
287
     1
 67
     0
278
    -2
288
     1
 68
     0
279
    -2
289
     1
 69
     0
  7
STANDARD
140
0.18
170
     5
 62
     0
 63
     7
283
     0
 90
      512
 91
        0
  1

274
    -2
284
     1
 64
     0
275
    -2
285
     1
 65
     0
276
    -2
286
     1
 66
     0
277
    -2
287
     1
 67
     0
278
    -2
288
     1
 68
     0
279
    -2
289
     1
 69
     0
  0
VISUALSTYLE
  5
8386
102
{ACAD_REACTORS
330
8380
102
}
330
8380
100
AcDbVisualStyle
  2
2dWireframe
 70
     4
177
     3
291
     0
 70
    58
 90
        0
176
     1
 90
        2
176
     1
 90
        0
176
     1
 90
        0
176
     1
 40
0.6
176
     1
 40
30.0
176
     1
 62
     7
420
 16777215
176
     1
 90
        1
176
     1
 90
        4
176
     1
 62
     7
176
     1
 62
   257
176
     1
 90
        1
176
     1
 90
        1
176
     1
 40
1.0
176
     1
 90
        0
176
     1
 62
   257
176
     1
 40
1.0
176
     1
 90
        1
176
     1
 90
        6
176
     1
 90
        2
176
     1
 62
     7
176
     1
 90
        5
176
     1
 90
        0
176
     1
 90
        0
176
     1
290
     0
176
     1
 90
        1
176
     1
 40
0.0
176
     1
 90
        0
176
     1
290
     1
176
     1
290
     1
176
     1
290
     0
176
     1
290
     0
176
     1
290
     0
176
     1
290
     0
176
     1
290
     0
176
     1
290
     0
176
     1
290
     0
176
     1
 90
       50
176
     1
 40
0.0
176
     1
 40
1.0
176
     1
 90
        0
176
     1
 62
    18
420
        0
176
     1
 90
       50
176
     1
 90
        3
176
     1
 62
     5
420
      255
176
     1
290
     0
176
     1
 90
       50
176
     1
 90
       50
176
     1
 90
       50
176
     1
290
     0
176
     1
 90
       50
176
     1
 62
   256
176
     0
 40
1.0
176
     0
 90
        2
176
     1
  1
strokes_ogs.tif
176
     1
290
     0
176
     1
 40
1.0
176
     1
 40
1.0
176
     1
  0
VISUALSTYLE
  5
8385
102
{ACAD_REACTORS
330
8380
102
}
330
8380
100
AcDbVisualStyle
  2
Basic
 70
     7
177
     3
291
     1
 70
    58
 90
        1
176
     1
 90
        0
176
     1
 90
        1
176
     1
 90
        0
176
     1
 40
0.6
176
     1
 40
30.0
176
     1
 62
     7
420
 16777215
176
     1
 90
        0
176
     1
 90
        4
176
     1
 62
     7
176
     1
 62
   257
176
     1
 90
        1
176
     1
 90
        1
176
     1
 40
1.0
176
     1
 90
        8
176
     1
 62
     7
176
     1
 40
1.0
176
     1
 90
        1
176
     1
 90
        6
176
     1
 90
        2
176
     1
 62
     7
176
     1
 90
        5
176
     1
 90
        0
176
     1
 90
        0
176
     1
290
     0
176
     1
 90
        1
176
     1
 40
0.0
176
     1
 90
        0
176
     1
290
     0
176
     1
290
     1
176
     1
290
     1
176
     1
290
     0
176
     1
290
     0
176
     1
290
     0
176
     1
290
     0
176
     1
290
     0
176
     1
290
     0
176
     1
 90
       50
176
     1
 40
0.0
176
     1
 40
1.0
176
     1
 90
        0
176
     1
 62
    18
420
        0
176
     1
 90
       50
176
     1
 90
        3
176
     1
 62
     5
420
      255
176
     1
290
     0
176
     1
 90
       50
176
     1
 90
       50
176
     1
 90
       50
176
     1
290
     0
176
     1
 90
       50
176
     1
 62
   256
176
     0
 40
1.0
176
     0
 90
        2
176
     1
  1
strokes_ogs.tif
176
     1
290
     0
176
     1
 40
1.0
176
     1
 40
1.0
176
     1
  0
VISUALSTYLE
  5
838C
102
{ACAD_REACTORS
330
8380
102
}
330
8380
100
AcDbVisualStyle
  2
Brighten
 70
    12
177
     3
291
     1
 70
    58
 90
        2
176
     1
 90
        2
176
     1
 90
        0
176
     1
 90
        0
176
     1
 40
0.6
176
     1
 40
30.0
176
     1
 62
     7
420
 16777215
176
     1
 90
        1
176
     1
 90
        4
176
     1
 62
     7
176
     1
 62
   257
176
     1
 90
        1
176
     1
 90
        1
176
     1
 40
1.0
176
     1
 90
        8
176
     1
 62
     7
176
     1
 40
1.0
176
     1
 90
        1
176
     1
 90
        6
176
     1
 90
        2
176
     1
 62
     7
176
     1
 90
        5
176
     1
 90
        0
176
     1
 90
        0
176
     1
290
     0
176
     1
 90
        1
176
     1
 40
50.0
176
     1
 90
        0
176
     1
290
     0
176
     1
290
     1
176
     1
290
     1
176
     1
290
     0
176
     1
290
     0
176
     1
290
     0
176
     1
290
     0
176
     1
290
     0
176
     1
290
     0
176
     1
 90
       50
176
     1
 40
0.0
176
     1
 40
1.0
176
     1
 90
        0
176
     1
 62
    18
420
        0
176
     1
 90
       50
176
     1
 90
        3
176
     1
 62
     5
420
      255
176
     1
290
     0
176
     1
 90
       50
176
     1
 90
       50
176
     1
 90
       50
176
     1
290
     0
176
     1
 90
       50
176
     1
 62
   256
176
     0
 40
1.0
176
     0
 90
        2
176
     1
  1
strokes_ogs.tif
176
     1
290
     0
176
     1
 40
1.0
176
     1
 40
1.0
176
     1
  0
VISUALSTYLE
  5
8390
102
{ACAD_REACTORS
330
8380
102
}
330
8380
100
AcDbVisualStyle
  2
ColorChange
 70
    16
177
     3
291
     1
 70
    58
 90
        2
176
     1
 90
        2
176
     1
 90
        3
176
     1
 90
        0
176
     1
 40
0.6
176
     1
 40
30.0
176
     1
 62
     8
420
  8421504
176
     1
 90
        1
176
     1
 90
        4
176
     1
 62
     7
176
     1
 62
   257
176
     1
 90
        1
176
     1
 90
        1
176
     1
 40
1.0
176
     1
 90
        8
176
     1
 62
     8
420
  8421504
176
     1
 40
1.0
176
     1
 90
        1
176
     1
 90
        6
176
     1
 90
        2
176
     1
 62
     7
176
     1
 90
        5
176
     1
 90
        0
176
     1
 90
        0
176
     1
290
     0
176
     1
 90
        1
176
     1
 40
0.0
176
     1
 90
        0
176
     1
290
     0
176
     1
290
     1
176
     1
290
     1
176
     1
290
     0
176
     1
290
     0
176
     1
290
     0
176
     1
290
     0
176
     1
290
     0
176
     1
290
     0
176
     1
 90
       50
176
     1
 40
0.0
176
     1
 40
1.0
176
     1
 90
        0
176
     1
 62
    18
420
        0
176
     1
 90
       50
176
     1
 90
        3
176
     1
 62
     5
420
      255
176
     1
290
     0
176
     1
 90
       50
176
     1
 90
       50
176
     1
 90
       50
176
     1
290
     0
176
     1
 90
       50
176
     1
 62
   256
176
     0
 40
1.0
176
     0
 90
        2
176
     1
  1
strokes_ogs.tif
176
     1
290
     0
176
     1
 40
1.0
176
     1
 40
1.0
176
     1
  0
VISUALSTYLE
  5
8389
102
{ACAD_REACTORS
330
8380
102
}
330
8380
100
AcDbVisualStyle
  2
Conceptual
 70
     9
177
     3
291
     0
 70
    58
 90
        3
176
     1
 90
        2
176
     1
 90
        0
176
     1
 90
        0
176
     1
 40
0.6
176
     1
 40
30.0
176
     1
 62
     7
420
 16777215
176
     1
 90
        2
176
     1
 90
        2
176
     1
 62
     7
176
     1
 62
   257
176
     1
 90
        1
176
     1
 90
        1
176
     1
 40
179.0
176
     1
 90
        8
176
     1
 62
     7
176
     1
 40
1.0
176
     1
 90
        1
176
     1
 90
        6
176
     1
 90
        2
176
     1
 62
     7
176
     1
 90
        3
176
     1
 90
        0
176
     1
 90
        0
176
     1
290
     0
176
     1
 90
        1
176
     1
 40
0.0
176
     1
 90
        0
176
     1
290
     0
176
     1
290
     1
176
     1
290
     1
176
     1
290
     0
176
     1
290
     0
176
     1
290
     0
176
     1
290
     0
176
     1
290
     0
176
     1
290
     0
176
     1
 90
       50
176
     1
 40
0.0
176
     1
 40
1.0
176
     1
 90
        0
176
     1
 62
    18
420
        0
176
     1
 90
       50
176
     1
 90
        3
176
     1
 62
     5
420
      255
176
     1
290
     0
176
     1
 90
       50
176
     1
 90
       50
176
     1
 90
       50
176
     1
290
     0
176
     1
 90
       50
176
     1
 62
   256
176
     0
 40
1.0
176
     0
 90
        2
176
     1
  1
strokes_ogs.tif
176
     1
290
     0
176
     1
 40
1.0
176
     1
 40
1.0
176
     1
  0
VISUALSTYLE
  5
838B
102
{ACAD_REACTORS
330
8380
102
}
330
8380
100
AcDbVisualStyle
  2
Dim
 70
    11
177
     3
291
     1
 70
    58
 90
        2
176
     1
 90
        2
176
     1
 90
        0
176
     1
 90
        0
176
     1
 40
0.6
176
     1
 40
30.0
176
     1
 62
     7
420
 16777215
176
     1
 90
        1
176
     1
 90
        4
176
     1
 62
     7
176
     1
 62
   257
176
     1
 90
        1
176
     1
 90
        1
176
     1
 40
1.0
176
     1
 90
        8
176
     1
 62
     7
176
     1
 40
1.0
176
     1
 90
        1
176
     1
 90
        6
176
     1
 90
        2
176
     1
 62
     7
176
     1
 90
        5
176
     1
 90
        0
176
     1
 90
        0
176
     1
290
     0
176
     1
 90
        1
176
     1
 40
-50.0
176
     1
 90
        0
176
     1
290
     0
176
     1
290
     1
176
     1
290
     1
176
     1
290
     0
176
     1
290
     0
176
     1
290
     0
176
     1
290
     0
176
     1
290
     0
176
     1
290
     0
176
     1
 90
       50
176
     1
 40
0.0
176
     1
 40
1.0
176
     1
 90
        0
176
     1
 62
    18
420
        0
176
     1
 90
       50
176
     1
 90
        3
176
     1
 62
     5
420
      255
176
     1
290
     0
176
     1
 90
       50
176
     1
 90
       50
176
     1
 90
       50
176
     1
290
     0
176
     1
 90
       50
176
     1
 62
   256
176
     0
 40
1.0
176
     0
 90
        2
176
     1
  1
strokes_ogs.tif
176
     1
290
     0
176
     1
 40
1.0
176
     1
 40
1.0
176
     1
  0
VISUALSTYLE
  5
8398
102
{ACAD_REACTORS
330
8380
102
}
330
8380
100
AcDbVisualStyle
  2
EdgeColorOff
 70
    22
177
     3
291
     1
 70
    58
 90
        2
176
     0
 90
        2
176
     0
 90
        0
176
     0
 90
        0
176
     0
 40
0.6
176
     0
 40
30.0
176
     0
 62
     7
420
 16777215
176
     0
 90
        1
176
     0
 90
        4
176
     0
 62
     7
176
     0
 62
   257
176
     0
 90
        1
176
     0
 90
        1
176
     0
 40
1.0
176
     0
 90
        8
176
     2
 62
     7
176
     0
 40
1.0
176
     0
 90
        1
176
     0
 90
        6
176
     0
 90
        2
176
     0
 62
     7
176
     0
 90
        5
176
     0
 90
        0
176
     0
 90
        0
176
     0
290
     0
176
     0
 90
        1
176
     0
 40
0.0
176
     0
 90
        0
176
     0
290
     0
176
     1
290
     1
176
     1
290
     1
176
     1
290
     0
176
     1
290
     0
176
     1
290
     0
176
     1
290
     0
176
     1
290
     0
176
     1
290
     0
176
     1
 90
       50
176
     0
 40
0.0
176
     0
 40
1.0
176
     0
 90
        0
176
     0
 62
    18
420
        0
176
     0
 90
       50
176
     0
 90
        3
176
     0
 62
     5
420
      255
176
     0
290
     0
176
     1
 90
       50
176
     0
 90
       50
176
     0
 90
       50
176
     0
290
     0
176
     1
 90
       50
176
     0
 62
   256
176
     0
 40
1.0
176
     0
 90
        2
176
     0
  1
strokes_ogs.tif
176
     0
290
     0
176
     1
 40
1.0
176
     0
 40
1.0
176
     0
  0
VISUALSTYLE
  5
838F
102
{ACAD_REACTORS
330
8380
102
}
330
8380
100
AcDbVisualStyle
  2
Facepattern
 70
    15
177
     3
291
     1
 70
    58
 90
        2
176
     1
 90
        2
176
     1
 90
        0
176
     1
 90
        0
176
     1
 40
0.6
176
     1
 40
30.0
176
     1
 62
     7
420
 16777215
176
     1
 90
        1
176
     1
 90
        4
176
     1
 62
     7
176
     1
 62
   257
176
     1
 90
        1
176
     1
 90
        1
176
     1
 40
1.0
176
     1
 90
        8
176
     1
 62
     7
176
     1
 40
1.0
176
     1
 90
        1
176
     1
 90
        6
176
     1
 90
        2
176
     1
 62
     7
176
     1
 90
        5
176
     1
 90
        0
176
     1
 90
        0
176
     1
290
     0
176
     1
 90
        1
176
     1
 40
0.0
176
     1
 90
        0
176
     1
290
     0
176
     1
290
     1
176
     1
290
     1
176
     1
290
     0
176
     1
290
     0
176
     1
290
     0
176
     1
290
     0
176
     1
290
     0
176
     1
290
     0
176
     1
 90
       50
176
     1
 40
0.0
176
     1
 40
1.0
176
     1
 90
        0
176
     1
 62
    18
420
        0
176
     1
 90
       50
176
     1
 90
        3
176
     1
 62
     5
420
      255
176
     1
290
     0
176
     1
 90
       50
176
     1
 90
       50
176
     1
 90
       50
176
     1
290
     0
176
     1
 90
       50
176
     1
 62
   256
176
     0
 40
1.0
176
     0
 90
        2
176
     1
  1
strokes_ogs.tif
176
     1
290
     0
176
     1
 40
1.0
176
     1
 40
1.0
176
     1
  0
VISUALSTYLE
  5
8381
102
{ACAD_REACTORS
330
8380
102
}
330
8380
100
AcDbVisualStyle
  2
Flat
 70
     0
177
     3
291
     1
 70
    58
 90
        2
176
     1
 90
        1
176
     1
 90
        1
176
     1
 90
        2
176
     1
 40
0.6
176
     1
 40
30.0
176
     1
 62
     7
420
 16777215
176
     1
 90
        0
176
     1
 90
        0
176
     1
 62
     7
176
     1
 62
   257
176
     1
 90
        1
176
     1
 90
        1
176
     1
 40
1.0
176
     1
 90
        8
176
     1
 62
     7
176
     1
 40
1.0
176
     1
 90
        1
176
     1
 90
        6
176
     1
 90
        2
176
     1
 62
     7
176
     1
 90
        5
176
     1
 90
        0
176
     1
 90
        0
176
     1
290
     0
176
     1
 90
       13
176
     1
 40
0.0
176
     1
 90
        0
176
     1
290
     0
176
     1
290
     1
176
     1
290
     1
176
     1
290
     0
176
     1
290
     0
176
     1
290
     0
176
     1
290
     0
176
     1
290
     0
176
     1
290
     0
176
     1
 90
       50
176
     1
 40
0.0
176
     1
 40
1.0
176
     1
 90
        0
176
     1
 62
    18
420
        0
176
     1
 90
       50
176
     1
 90
        3
176
     1
 62
     5
420
      255
176
     1
290
     0
176
     1
 90
       50
176
     1
 90
       50
176
     1
 90
       50
176
     1
290
     0
176
     1
 90
       50
176
     1
 62
   256
176
     0
 40
1.0
176
     0
 90
        2
176
     1
  1
strokes_ogs.tif
176
     1
290
     0
176
     1
 40
1.0
176
     1
 40
1.0
176
     1
  0
VISUALSTYLE
  5
8382
102
{ACAD_REACTORS
330
8380
102
}
330
8380
100
AcDbVisualStyle
  2
FlatWithEdges
 70
     1
177
     3
291
     1
 70
    58
 90
        2
176
     1
 90
        1
176
     1
 90
        1
176
     1
 90
        2
176
     1
 40
0.6
176
     1
 40
30.0
176
     1
 62
     7
420
 16777215
176
     1
 90
        1
176
     1
 90
        0
176
     1
 62
     7
176
     1
 62
   257
176
     1
 90
        1
176
     1
 90
        1
176
     1
 40
1.0
176
     1
 90
        0
176
     1
 62
   257
176
     1
 40
1.0
176
     1
 90
        1
176
     1
 90
        6
176
     1
 90
        2
176
     1
 62
     7
176
     1
 90
        5
176
     1
 90
        0
176
     1
 90
        0
176
     1
290
     0
176
     1
 90
       13
176
     1
 40
0.0
176
     1
 90
        0
176
     1
290
     0
176
     1
290
     1
176
     1
290
     1
176
     1
290
     0
176
     1
290
     0
176
     1
290
     0
176
     1
290
     0
176
     1
290
     0
176
     1
290
     0
176
     1
 90
       50
176
     1
 40
0.0
176
     1
 40
1.0
176
     1
 90
        0
176
     1
 62
    18
420
        0
176
     1
 90
       50
176
     1
 90
        3
176
     1
 62
     5
420
      255
176
     1
290
     0
176
     1
 90
       50
176
     1
 90
       50
176
     1
 90
       50
176
     1
290
     0
176
     1
 90
       50
176
     1
 62
   256
176
     0
 40
1.0
176
     0
 90
        2
176
     1
  1
strokes_ogs.tif
176
     1
290
     0
176
     1
 40
1.0
176
     1
 40
1.0
176
     1
  0
VISUALSTYLE
  5
8383
102
{ACAD_REACTORS
330
8380
102
}
330
8380
100
AcDbVisualStyle
  2
Gouraud
 70
     2
177
     3
291
     1
 70
    58
 90
        2
176
     1
 90
        2
176
     1
 90
        1
176
     1
 90
        2
176
     1
 40
0.6
176
     1
 40
30.0
176
     1
 62
     7
420
 16777215
176
     1
 90
        0
176
     1
 90
        0
176
     1
 62
     7
176
     1
 62
   257
176
     1
 90
        1
176
     1
 90
        1
176
     1
 40
1.0
176
     1
 90
        0
176
     1
 62
     7
176
     1
 40
1.0
176
     1
 90
        1
176
     1
 90
        6
176
     1
 90
        2
176
     1
 62
     7
176
     1
 90
        5
176
     1
 90
        0
176
     1
 90
        0
176
     1
290
     0
176
     1
 90
       13
176
     1
 40
0.0
176
     1
 90
        0
176
     1
290
     0
176
     1
290
     1
176
     1
290
     1
176
     1
290
     0
176
     1
290
     0
176
     1
290
     0
176
     1
290
     0
176
     1
290
     0
176
     1
290
     0
176
     1
 90
       50
176
     1
 40
0.0
176
     1
 40
1.0
176
     1
 90
        0
176
     1
 62
    18
420
        0
176
     1
 90
       50
176
     1
 90
        3
176
     1
 62
     5
420
      255
176
     1
290
     0
176
     1
 90
       50
176
     1
 90
       50
176
     1
 90
       50
176
     1
290
     0
176
     1
 90
       50
176
     1
 62
   256
176
     0
 40
1.0
176
     0
 90
        2
176
     1
  1
strokes_ogs.tif
176
     1
290
     0
176
     1
 40
1.0
176
     1
 40
1.0
176
     1
  0
VISUALSTYLE
  5
8384
102
{ACAD_REACTORS
330
8380
102
}
330
8380
100
AcDbVisualStyle
  2
GouraudWithEdges
 70
     3
177
     3
291
     1
 70
    58
 90
        2
176
     1
 90
        2
176
     1
 90
        1
176
     1
 90
        2
176
     1
 40
0.6
176
     1
 40
30.0
176
     1
 62
     7
420
 16777215
176
     1
 90
        1
176
     1
 90
        0
176
     1
 62
     7
176
     1
 62
   257
176
     1
 90
        1
176
     1
 90
        1
176
     1
 40
1.0
176
     1
 90
        0
176
     1
 62
   257
176
     1
 40
1.0
176
     1
 90
        1
176
     1
 90
        6
176
     1
 90
        2
176
     1
 62
     7
176
     1
 90
        5
176
     1
 90
        0
176
     1
 90
        0
176
     1
290
     0
176
     1
 90
       13
176
     1
 40
0.0
176
     1
 90
        0
176
     1
290
     0
176
     1
290
     1
176
     1
290
     1
176
     1
290
     0
176
     1
290
     0
176
     1
290
     0
176
     1
290
     0
176
     1
290
     0
176
     1
290
     0
176
     1
 90
       50
176
     1
 40
0.0
176
     1
 40
1.0
176
     1
 90
        0
176
     1
 62
    18
420
        0
176
     1
 90
       50
176
     1
 90
        3
176
     1
 62
     5
420
      255
176
     1
290
     0
176
     1
 90
       50
176
     1
 90
       50
176
     1
 90
       50
176
     1
290
     0
176
     1
 90
       50
176
     1
 62
   256
176
     0
 40
1.0
176
     0
 90
        2
176
     1
  1
strokes_ogs.tif
176
     1
290
     0
176
     1
 40
1.0
176
     1
 40
1.0
176
     1
  0
VISUALSTYLE
  5
8388
102
{ACAD_REACTORS
330
8380
102
}
330
8380
100
AcDbVisualStyle
  2
Hidden
 70
     6
177
     3
291
     0
 70
    58
 90
        1
176
     1
 90
        2
176
     1
 90
        2
176
     1
 90
        0
176
     1
 40
0.6
176
     1
 40
30.0
176
     1
 62
     7
420
 16777215
176
     1
 90
        2
176
     1
 90
        2
176
     1
 62
     7
176
     1
 62
   257
176
     1
 90
        2
176
     1
 90
        1
176
     1
 40
40.0
176
     1
 90
        0
176
     1
 62
   257
176
     1
 40
1.0
176
     1
 90
        1
176
     1
 90
        6
176
     1
 90
        2
176
     1
 62
     7
176
     1
 90
        3
176
     1
 90
        0
176
     1
 90
        0
176
     1
290
     0
176
     1
 90
        1
176
     1
 40
0.0
176
     1
 90
        0
176
     1
290
     0
176
     1
290
     1
176
     1
290
     1
176
     1
290
     0
176
     1
290
     0
176
     1
290
     0
176
     1
290
     0
176
     1
290
     0
176
     1
290
     0
176
     1
 90
       50
176
     1
 40
0.0
176
     1
 40
1.0
176
     1
 90
        0
176
     1
 62
    18
420
        0
176
     1
 90
       50
176
     1
 90
        3
176
     1
 62
     5
420
      255
176
     1
290
     0
176
     1
 90
       50
176
     1
 90
       50
176
     1
 90
       50
176
     1
290
     0
176
     1
 90
       50
176
     1
 62
   256
176
     0
 40
1.0
176
     0
 90
        2
176
     1
  1
strokes_ogs.tif
176
     1
290
     0
176
     1
 40
1.0
176
     1
 40
1.0
176
     1
  0
VISUALSTYLE
  5
8396
102
{ACAD_REACTORS
330
8380
102
}
330
8380
100
AcDbVisualStyle
  2
JitterOff
 70
    20
177
     3
291
     1
 70
    58
 90
        2
176
     0
 90
        2
176
     0
 90
        0
176
     0
 90
        0
176
     0
 40
0.6
176
     0
 40
30.0
176
     0
 62
     7
420
 16777215
176
     0
 90
        1
176
     0
 90
        4
176
     0
 62
     7
176
     0
 62
   257
176
     0
 90
        1
176
     0
 90
        1
176
     0
 40
1.0
176
     0
 90
       10
176
     2
 62
     7
176
     0
 40
1.0
176
     0
 90
        1
176
     0
 90
        6
176
     0
 90
        2
176
     0
 62
     7
176
     0
 90
        5
176
     0
 90
        0
176
     0
 90
        0
176
     0
290
     0
176
     0
 90
        1
176
     0
 40
0.0
176
     0
 90
        0
176
     0
290
     0
176
     1
290
     1
176
     1
290
     1
176
     1
290
     0
176
     1
290
     0
176
     1
290
     0
176
     1
290
     0
176
     1
290
     0
176
     1
290
     0
176
     1
 90
       50
176
     0
 40
0.0
176
     0
 40
1.0
176
     0
 90
        0
176
     0
 62
    18
420
        0
176
     0
 90
       50
176
     0
 90
        3
176
     0
 62
     5
420
      255
176
     0
290
     0
176
     1
 90
       50
176
     0
 90
       50
176
     0
 90
       50
176
     0
290
     0
176
     1
 90
       50
176
     0
 62
   256
176
     0
 40
1.0
176
     0
 90
        2
176
     0
  1
strokes_ogs.tif
176
     0
290
     0
176
     1
 40
1.0
176
     0
 40
1.0
176
     0
  0
VISUALSTYLE
  5
838E
102
{ACAD_REACTORS
330
8380
102
}
330
8380
100
AcDbVisualStyle
  2
Linepattern
 70
    14
177
     3
291
     1
 70
    58
 90
        2
176
     1
 90
        2
176
     1
 90
        0
176
     1
 90
        0
176
     1
 40
0.6
176
     1
 40
30.0
176
     1
 62
     7
420
 16777215
176
     1
 90
        1
176
     1
 90
        4
176
     1
 62
     7
176
     1
 62
   257
176
     1
 90
        7
176
     1
 90
        7
176
     1
 40
1.0
176
     1
 90
        8
176
     1
 62
     7
176
     1
 40
1.0
176
     1
 90
        1
176
     1
 90
        6
176
     1
 90
        2
176
     1
 62
     7
176
     1
 90
        5
176
     1
 90
        0
176
     1
 90
        0
176
     1
290
     0
176
     1
 90
        1
176
     1
 40
0.0
176
     1
 90
        0
176
     1
290
     0
176
     1
290
     1
176
     1
290
     1
176
     1
290
     0
176
     1
290
     0
176
     1
290
     0
176
     1
290
     0
176
     1
290
     0
176
     1
290
     0
176
     1
 90
       50
176
     1
 40
0.0
176
     1
 40
1.0
176
     1
 90
        0
176
     1
 62
    18
420
        0
176
     1
 90
       50
176
     1
 90
        3
176
     1
 62
     5
420
      255
176
     1
290
     0
176
     1
 90
       50
176
     1
 90
       50
176
     1
 90
       50
176
     1
290
     0
176
     1
 90
       50
176
     1
 62
   256
176
     0
 40
1.0
176
     0
 90
        2
176
     1
  1
strokes_ogs.tif
176
     1
290
     0
176
     1
 40
1.0
176
     1
 40
1.0
176
     1
  0
VISUALSTYLE
  5
8397
102
{ACAD_REACTORS
330
8380
102
}
330
8380
100
AcDbVisualStyle
  2
OverhangOff
 70
    21
177
     3
291
     1
 70
    58
 90
        2
176
     0
 90
        2
176
     0
 90
        0
176
     0
 90
        0
176
     0
 40
0.6
176
     0
 40
30.0
176
     0
 62
     7
420
 16777215
176
     0
 90
        1
176
     0
 90
        4
176
     0
 62
     7
176
     0
 62
   257
176
     0
 90
        1
176
     0
 90
        1
176
     0
 40
1.0
176
     0
 90
        9
176
     2
 62
     7
176
     0
 40
1.0
176
     0
 90
        1
176
     0
 90
        6
176
     0
 90
        2
176
     0
 62
     7
176
     0
 90
        5
176
     0
 90
        0
176
     0
 90
        0
176
     0
290
     0
176
     0
 90
        1
176
     0
 40
0.0
176
     0
 90
        0
176
     0
290
     0
176
     1
290
     1
176
     1
290
     1
176
     1
290
     0
176
     1
290
     0
176
     1
290
     0
176
     1
290
     0
176
     1
290
     0
176
     1
290
     0
176
     1
 90
       50
176
     0
 40
0.0
176
     0
 40
1.0
176
     0
 90
        0
176
     0
 62
    18
420
        0
176
     0
 90
       50
176
     0
 90
        3
176
     0
 62
     5
420
      255
176
     0
290
     0
176
     1
 90
       50
176
     0
 90
       50
176
     0
 90
       50
176
     0
290
     0
176
     1
 90
       50
176
     0
 62
   256
176
     0
 40
1.0
176
     0
 90
        2
176
     0
  1
strokes_ogs.tif
176
     0
290
     0
176
     1
 40
1.0
176
     0
 40
1.0
176
     0
  0
VISUALSTYLE
  5
838A
102
{ACAD_REACTORS
330
8380
102
}
330
8380
100
AcDbVisualStyle
  2
Realistic
 70
     8
177
     3
291
     0
 70
    58
 90
        2
176
     1
 90
        3
176
     1
 90
        0
176
     1
 90
        2
176
     1
 40
0.6
176
     1
 40
30.0
176
     1
 62
     7
420
 16777215
176
     1
 90
        0
176
     1
 90
        0
176
     1
 62
     7
176
     1
 62
   257
176
     1
 90
        1
176
     1
 90
        1
176
     1
 40
1.0
176
     1
 90
        8
176
     1
 62
   257
176
     1
 40
1.0
176
     1
 90
        1
176
     1
 90
        6
176
     1
 90
        2
176
     1
 62
     7
176
     1
 90
        3
176
     1
 90
        0
176
     1
 90
        0
176
     1
290
     0
176
     1
 90
       13
176
     1
 40
0.0
176
     1
 90
        0
176
     1
290
     0
176
     1
290
     1
176
     1
290
     1
176
     1
290
     0
176
     1
290
     0
176
     1
290
     0
176
     1
290
     0
176
     1
290
     0
176
     1
290
     0
176
     1
 90
       50
176
     1
 40
0.0
176
     1
 40
1.0
176
     1
 90
        0
176
     1
 62
    18
420
        0
176
     1
 90
       50
176
     1
 90
        3
176
     1
 62
     5
420
      255
176
     1
290
     0
176
     1
 90
       50
176
     1
 90
       50
176
     1
 90
       50
176
     1
290
     0
176
     1
 90
       50
176
     1
 62
   256
176
     0
 40
1.0
176
     0
 90
        2
176
     1
  1
strokes_ogs.tif
176
     1
290
     0
176
     1
 40
1.0
176
     1
 40
1.0
176
     1
  0
VISUALSTYLE
  5
8395
102
{ACAD_REACTORS
330
8380
102
}
330
8380
100
AcDbVisualStyle
  2
Shaded
 70
    27
177
     3
291
     0
 70
    58
 90
        2
176
     1
 90
        2
176
     1
 90
        1
176
     1
 90
        2
176
     1
 40
0.6
176
     1
 40
30.0
176
     1
 62
     7
420
 16777215
176
     1
 90
        0
176
     1
 90
        4
176
     1
 62
     7
176
     1
 62
   257
176
     1
 90
        1
176
     1
 90
        1
176
     1
 40
1.0
176
     1
 90
        8
176
     1
 62
   257
176
     1
 40
1.0
176
     1
 90
        1
176
     1
 90
        6
176
     1
 90
        2
176
     1
 62
     8
420
  7895160
176
     1
 90
        3
176
     1
 90
        0
176
     1
 90
        0
176
     1
290
     0
176
     1
 90
        5
176
     1
 40
0.0
176
     1
 90
        0
176
     1
290
     0
176
     1
290
     1
176
     1
290
     1
176
     1
290
     0
176
     1
290
     0
176
     1
290
     0
176
     1
290
     0
176
     1
290
     0
176
     1
290
     0
176
     1
 90
       50
176
     1
 40
0.0
176
     1
 40
1.0
176
     1
 90
        0
176
     1
 62
    18
420
        0
176
     1
 90
       50
176
     1
 90
        3
176
     1
 62
     5
420
      255
176
     1
290
     0
176
     1
 90
       50
176
     1
 90
       50
176
     1
 90
       50
176
     1
290
     0
176
     1
 90
       50
176
     1
 62
   256
176
     0
 40
1.0
176
     0
 90
        2
176
     1
  1
strokes_ogs.tif
176
     1
290
     0
176
     1
 40
1.0
176
     1
 40
1.0
176
     1
  0
VISUALSTYLE
  5
8394
102
{ACAD_REACTORS
330
8380
102
}
330
8380
100
AcDbVisualStyle
  2
Shaded with edges
 70
    26
177
     3
291
     0
 70
    58
 90
        2
176
     1
 90
        2
176
     1
 90
        1
176
     1
 90
        2
176
     1
 40
0.6
176
     1
 40
30.0
176
     1
 62
     7
420
 16777215
176
     1
 90
        1
176
     1
 90
        2
176
     1
 62
     7
176
     1
 62
   257
176
     1
 90
        2
176
     1
 90
        1
176
     1
 40
1.0
176
     1
 90
        8
176
     1
 62
   257
176
     1
 40
1.0
176
     1
 90
        1
176
     1
 90
        6
176
     1
 90
        2
176
     1
 62
     7
176
     1
 90
        3
176
     1
 90
        0
176
     1
 90
        0
176
     1
290
     0
176
     1
 90
        5
176
     1
 40
0.0
176
     1
 90
        0
176
     1
290
     0
176
     1
290
     1
176
     1
290
     1
176
     1
290
     0
176
     1
290
     0
176
     1
290
     0
176
     1
290
     0
176
     1
290
     0
176
     1
290
     0
176
     1
 90
       50
176
     1
 40
0.0
176
     1
 40
1.0
176
     1
 90
        0
176
     1
 62
    18
420
        0
176
     1
 90
       50
176
     1
 90
        3
176
     1
 62
     5
420
      255
176
     1
290
     0
176
     1
 90
       50
176
     1
 90
       50
176
     1
 90
       50
176
     1
290
     0
176
     1
 90
       50
176
     1
 62
   256
176
     0
 40
1.0
176
     0
 90
        2
176
     1
  1
strokes_ogs.tif
176
     1
290
     0
176
     1
 40
1.0
176
     1
 40
1.0
176
     1
  0
VISUALSTYLE
  5
8391
102
{ACAD_REACTORS
330
8380
102
}
330
8380
100
AcDbVisualStyle
  2
Shades of Gray
 70
    23
177
     3
291
     0
 70
    58
 90
        2
176
     1
 90
        2
176
     1
 90
        3
176
     1
 90
        0
176
     1
 40
0.6
176
     1
 40
30.0
176
     1
 62
     7
420
 16777215
176
     1
 90
        2
176
     1
 90
        2
176
     1
 62
     7
176
     1
 62
     7
176
     1
 90
        1
176
     1
 90
        1
176
     1
 40
40.0
176
     1
 90
        8
176
     1
 62
     7
176
     1
 40
1.0
176
     1
 90
        1
176
     1
 90
        6
176
     1
 90
        2
176
     1
 62
     7
176
     1
 90
        3
176
     1
 90
        0
176
     1
 90
        0
176
     1
290
     0
176
     1
 90
        1
176
     1
 40
0.0
176
     1
 90
        0
176
     1
290
     0
176
     1
290
     1
176
     1
290
     1
176
     1
290
     0
176
     1
290
     0
176
     1
290
     0
176
     1
290
     0
176
     1
290
     0
176
     1
290
     0
176
     1
 90
       50
176
     1
 40
0.0
176
     1
 40
1.0
176
     1
 90
        0
176
     1
 62
    18
420
        0
176
     1
 90
       50
176
     1
 90
        3
176
     1
 62
     5
420
      255
176
     1
290
     0
176
     1
 90
       50
176
     1
 90
       50
176
     1
 90
       50
176
     1
290
     0
176
     1
 90
       50
176
     1
 62
   256
176
     0
 40
1.0
176
     0
 90
        2
176
     1
  1
strokes_ogs.tif
176
     1
290
     0
176
     1
 40
1.0
176
     1
 40
1.0
176
     1
  0
VISUALSTYLE
  5
8392
102
{ACAD_REACTORS
330
8380
102
}
330
8380
100
AcDbVisualStyle
  2
Sketchy
 70
    24
177
     3
291
     0
 70
    58
 90
        1
176
     1
 90
        2
176
     1
 90
        2
176
     1
 90
        0
176
     1
 40
0.6
176
     1
 40
30.0
176
     1
 62
     7
420
 16777215
176
     1
 90
        2
176
     1
 90
        2
176
     1
 62
     7
176
     1
 62
     7
176
     1
 90
        1
176
     1
 90
        1
176
     1
 40
40.0
176
     1
 90
       11
176
     1
 62
     7
176
     1
 40
1.0
176
     1
 90
        1
176
     1
 90
        6
176
     1
 90
        2
176
     1
 62
     7
176
     1
 90
        6
176
     1
 90
        0
176
     1
 90
        0
176
     1
290
     0
176
     1
 90
        1
176
     1
 40
0.0
176
     1
 90
        0
176
     1
290
     0
176
     1
290
     1
176
     1
290
     1
176
     1
290
     0
176
     1
290
     0
176
     1
290
     0
176
     1
290
     0
176
     1
290
     0
176
     1
290
     0
176
     1
 90
       50
176
     1
 40
0.0
176
     1
 40
1.0
176
     1
 90
        0
176
     1
 62
    18
420
        0
176
     1
 90
       50
176
     1
 90
        3
176
     1
 62
     5
420
      255
176
     1
290
     0
176
     1
 90
       50
176
     1
 90
       50
176
     1
 90
       50
176
     1
290
     0
176
     1
 90
       50
176
     1
 62
   256
176
     0
 40
1.0
176
     0
 90
        2
176
     1
  1
strokes_ogs.tif
176
     1
290
     0
176
     1
 40
1.0
176
     1
 40
1.0
176
     1
  0
VISUALSTYLE
  5
838D
102
{ACAD_REACTORS
330
8380
102
}
330
8380
100
AcDbVisualStyle
  2
Thicken
 70
    13
177
     3
291
     1
 70
    58
 90
        2
176
     1
 90
        2
176
     1
 90
        0
176
     1
 90
        0
176
     1
 40
0.6
176
     1
 40
30.0
176
     1
 62
     7
420
 16777215
176
     1
 90
        1
176
     1
 90
        4
176
     1
 62
     7
176
     1
 62
   257
176
     1
 90
        1
176
     1
 90
        1
176
     1
 40
1.0
176
     1
 90
       12
176
     1
 62
     7
176
     1
 40
1.0
176
     1
 90
        1
176
     1
 90
        6
176
     1
 90
        2
176
     1
 62
     7
176
     1
 90
        5
176
     1
 90
        0
176
     1
 90
        0
176
     1
290
     0
176
     1
 90
        1
176
     1
 40
0.0
176
     1
 90
        0
176
     1
290
     0
176
     1
290
     1
176
     1
290
     1
176
     1
290
     0
176
     1
290
     0
176
     1
290
     0
176
     1
290
     0
176
     1
290
     0
176
     1
290
     0
176
     1
 90
       50
176
     1
 40
0.0
176
     1
 40
1.0
176
     1
 90
        0
176
     1
 62
    18
420
        0
176
     1
 90
       50
176
     1
 90
        3
176
     1
 62
     5
420
      255
176
     1
290
     0
176
     1
 90
       50
176
     1
 90
       50
176
     1
 90
       50
176
     1
290
     0
176
     1
 90
       50
176
     1
 62
   256
176
     0
 40
1.0
176
     0
 90
        2
176
     1
  1
strokes_ogs.tif
176
     1
290
     0
176
     1
 40
1.0
176
     1
 40
1.0
176
     1
  0
VISUALSTYLE
  5
8387
102
{ACAD_REACTORS
330
8380
102
}
330
8380
100
AcDbVisualStyle
  2
Wireframe
 70
     5
177
     3
291
     0
 70
    58
 90
        0
176
     1
 90
        2
176
     1
 90
        0
176
     1
 90
        0
176
     1
 40
0.6
176
     1
 40
30.0
176
     1
 62
     7
420
 16777215
176
     1
 90
        1
176
     1
 90
        4
176
     1
 62
     7
176
     1
 62
   257
176
     1
 90
        1
176
     1
 90
        1
176
     1
 40
1.0
176
     1
 90
        0
176
     1
 62
   257
176
     1
 40
1.0
176
     1
 90
        1
176
     1
 90
        6
176
     1
 90
        2
176
     1
 62
     7
176
     1
 90
        3
176
     1
 90
        0
176
     1
 90
        0
176
     1
290
     0
176
     1
 90
        1
176
     1
 40
0.0
176
     1
 90
        0
176
     1
290
     0
176
     1
290
     1
176
     1
290
     1
176
     1
290
     0
176
     1
290
     0
176
     1
290
     0
176
     1
290
     0
176
     1
290
     0
176
     1
290
     0
176
     1
 90
       50
176
     1
 40
0.0
176
     1
 40
1.0
176
     1
 90
        0
176
     1
 62
    18
420
        0
176
     1
 90
       50
176
     1
 90
        3
176
     1
 62
     5
420
      255
176
     1
290
     0
176
     1
 90
       50
176
     1
 90
       50
176
     1
 90
       50
176
     1
290
     0
176
     1
 90
       50
176
     1
 62
   256
176
     0
 40
1.0
176
     0
 90
        2
176
     1
  1
strokes_ogs.tif
176
     1
290
     0
176
     1
 40
1.0
176
     1
 40
1.0
176
     1
  0
VISUALSTYLE
  5
8393
102
{ACAD_REACTORS
330
8380
102
}
330
8380
100
AcDbVisualStyle
  2
X-Ray
 70
    25
177
     3
291
     0
 70
    58
 90
        2
176
     1
 90
        2
176
     1
 90
        1
176
     1
 90
        1
176
     1
 40
0.5
176
     1
 40
30.0
176
     1
 62
     7
420
 16777215
176
     1
 90
        1
176
     1
 90
        0
176
     1
 62
     7
176
     1
 62
   257
176
     1
 90
        1
176
     1
 90
        1
176
     1
 40
1.0
176
     1
 90
        8
176
     1
 62
     7
176
     1
 40
1.0
176
     1
 90
        1
176
     1
 90
        6
176
     1
 90
        2
176
     1
 62
     7
176
     1
 90
        3
176
     1
 90
        0
176
     1
 90
        0
176
     1
290
     0
176
     1
 90
       13
176
     1
 40
0.0
176
     1
 90
        0
176
     1
290
     0
176
     1
290
     1
176
     1
290
     1
176
     1
290
     0
176
     1
290
     0
176
     1
290
     0
176
     1
290
     0
176
     1
290
     0
176
     1
290
     0
176
     1
 90
       50
176
     1
 40
0.0
176
     1
 40
1.0
176
     1
 90
        0
176
     1
 62
    18
420
        0
176
     1
 90
       50
176
     1
 90
        3
176
     1
 62
     5
420
      255
176
     1
290
     0
176
     1
 90
       50
176
     1
 90
       50
176
     1
 90
       50
176
     1
290
     0
176
     1
 90
       50
176
     1
 62
   256
176
     0
 40
1.0
176
     0
 90
        2
176
     1
  1
strokes_ogs.tif
176
     1
290
     0
176
     1
 40
1.0
176
     1
 40
1.0
176
     1
  0
DICTIONARYVAR
  5
83EC
102
{ACAD_REACTORS
330
80A8
102
}
330
80A8
100
DictionaryVariables
280
     0
  1
1:1
  0
DICTIONARYVAR
  5
83E8
102
{ACAD_REACTORS
330
80A8
102
}
330
80A8
100
DictionaryVariables
280
     0
  1
STANDARD
  0
DICTIONARYVAR
  5
83E7
102
{ACAD_REACTORS
330
80A8
102
}
330
80A8
100
DictionaryVariables
280
     0
  1
STANDARD
  0
DICTIONARYVAR
  5
83E9
102
{ACAD_REACTORS
330
80A8
102
}
330
80A8
100
DictionaryVariables
280
     0
  1
Imperial24
  0
DICTIONARYVAR
  5
83EA
102
{ACAD_REACTORS
330
80A8
102
}
330
80A8
100
DictionaryVariables
280
     0
  1
Imperial24
  0
DICTIONARYVAR
  5
80A9
102
{ACAD_REACTORS
330
80A8
102
}
330
80A8
100
DictionaryVariables
280
     0
  1
1
  0
DICTIONARYVAR
  5
83EE
102
{ACAD_REACTORS
330
80A8
102
}
330
80A8
100
DictionaryVariables
280
     0
  1
1
  0
DICTIONARYVAR
  5
83EF
102
{ACAD_REACTORS
330
80A8
102
}
330
80A8
100
DictionaryVariables
280
     0
  1
15
  0
DICTIONARYVAR
  5
83ED
102
{ACAD_REACTORS
330
80A8
102
}
330
80A8
100
DictionaryVariables
280
     0
  1
0
  0
DICTIONARYVAR
  5
83EB
102
{ACAD_REACTORS
330
80A8
102
}
330
80A8
100
DictionaryVariables
280
     0
  1
0
  0
DICTIONARY
  5
8371
330
8370
100
AcDbDictionary
280
     1
281
     1
  3
BUMPTILE
360
8373
  3
DIFFUSETILE
360
8372
  3
OPACITYTILE
360
8376
  3
REFLECTIONTILE
360
8375
  3
REFRACTIONTILE
360
8377
  3
SPECULARTILE
360
8374
  0
DICTIONARY
  5
8369
330
8368
100
AcDbDictionary
280
     1
281
     1
  3
BUMPTILE
360
836B
  3
DIFFUSETILE
360
836A
  3
OPACITYTILE
360
836E
  3
REFLECTIONTILE
360
836D
  3
REFRACTIONTILE
360
836F
  3
SPECULARTILE
360
836C
  0
DICTIONARY
  5
8379
330
8378
100
AcDbDictionary
280
     1
281
     1
  3
BUMPTILE
360
837B
  3
DIFFUSETILE
360
837A
  3
OPACITYTILE
360
837E
  3
REFLECTIONTILE
360
837D
  3
REFRACTIONTILE
360
837F
  3
SPECULARTILE
360
837C
  0
DICTIONARY
  5
83FE
330
839B
100
AcDbDictionary
280
     1
281
     1
  3
ACAD_ROUNDTRIP_2008_TABLESTYLE_CELLSTYLEMAP
360
83FF
  0
XRECORD
  5
8373
102
{ACAD_REACTORS
330
8371
102
}
330
8371
100
AcDbXrecord
280
     1
270
     1
271
     1
  0
XRECORD
  5
8372
102
{ACAD_REACTORS
330
8371
102
}
330
8371
100
AcDbXrecord
280
     1
270
     1
271
     1
  0
XRECORD
  5
8376
102
{ACAD_REACTORS
330
8371
102
}
330
8371
100
AcDbXrecord
280
     1
270
     1
271
     1
  0
XRECORD
  5
8375
102
{ACAD_REACTORS
330
8371
102
}
330
8371
100
AcDbXrecord
280
     1
270
     1
271
     1
  0
XRECORD
  5
8377
102
{ACAD_REACTORS
330
8371
102
}
330
8371
100
AcDbXrecord
280
     1
270
     1
271
     1
  0
XRECORD
  5
8374
102
{ACAD_REACTORS
330
8371
102
}
330
8371
100
AcDbXrecord
280
     1
270
     1
271
     1
  0
XRECORD
  5
836B
102
{ACAD_REACTORS
330
8369
102
}
330
8369
100
AcDbXrecord
280
     1
270
     1
271
     1
  0
XRECORD
  5
836A
102
{ACAD_REACTORS
330
8369
102
}
330
8369
100
AcDbXrecord
280
     1
270
     1
271
     1
  0
XRECORD
  5
836E
102
{ACAD_REACTORS
330
8369
102
}
330
8369
100
AcDbXrecord
280
     1
270
     1
271
     1
  0
XRECORD
  5
836D
102
{ACAD_REACTORS
330
8369
102
}
330
8369
100
AcDbXrecord
280
     1
270
     1
271
     1
  0
XRECORD
  5
836F
102
{ACAD_REACTORS
330
8369
102
}
330
8369
100
AcDbXrecord
280
     1
270
     1
271
     1
  0
XRECORD
  5
836C
102
{ACAD_REACTORS
330
8369
102
}
330
8369
100
AcDbXrecord
280
     1
270
     1
271
     1
  0
XRECORD
  5
837B
102
{ACAD_REACTORS
330
8379
102
}
330
8379
100
AcDbXrecord
280
     1
270
     1
271
     1
  0
XRECORD
  5
837A
102
{ACAD_REACTORS
330
8379
102
}
330
8379
100
AcDbXrecord
280
     1
270
     1
271
     1
  0
XRECORD
  5
837E
102
{ACAD_REACTORS
330
8379
102
}
330
8379
100
AcDbXrecord
280
     1
270
     1
271
     1
  0
XRECORD
  5
837D
102
{ACAD_REACTORS
330
8379
102
}
330
8379
100
AcDbXrecord
280
     1
270
     1
271
     1
  0
XRECORD
  5
837F
102
{ACAD_REACTORS
330
8379
102
}
330
8379
100
AcDbXrecord
280
     1
270
     1
271
     1
  0
XRECORD
  5
837C
102
{ACAD_REACTORS
330
8379
102
}
330
8379
100
AcDbXrecord
280
     1
270
     1
271
     1
  0
CELLSTYLEMAP
  5
83FF
102
{ACAD_REACTORS
330
83FE
102
}
330
83FE
100
AcDbCellStyleMap
 90
        3
300
CELLSTYLE
  1
TABLEFORMAT_BEGIN
 90
        5
170
     1
 91
        0
 92
    32768
 62
   257
 93
        1
300
CONTENTFORMAT
  1
CONTENTFORMAT_BEGIN
 90
        0
 91
        0
 92
      512
 93
        0
300

 40
0.0
140
1.0
 94
        5
 62
     0
340
11
144
0.25
309
CONTENTFORMAT_END
171
     0
 94
        0
309
TABLEFORMAT_END
  1
CELLSTYLE_BEGIN
 90
        1
 91
        1
300
_TITLE
309
CELLSTYLE_END
300
CELLSTYLE
  1
TABLEFORMAT_BEGIN
 90
        5
170
     1
 91
        0
 92
        0
 62
   257
 93
        1
300
CONTENTFORMAT
  1
CONTENTFORMAT_BEGIN
 90
        0
 91
        0
 92
      512
 93
        0
300

 40
0.0
140
1.0
 94
        5
 62
     0
340
11
144
0.18
309
CONTENTFORMAT_END
171
     0
 94
        0
309
TABLEFORMAT_END
  1
CELLSTYLE_BEGIN
 90
        2
 91
        1
300
_HEADER
309
CELLSTYLE_END
300
CELLSTYLE
  1
TABLEFORMAT_BEGIN
 90
        5
170
     1
 91
        0
 92
        0
 62
   257
 93
        1
300
CONTENTFORMAT
  1
CONTENTFORMAT_BEGIN
 90
        0
 91
        0
 92
      512
 93
        0
300

 40
0.0
140
1.0
 94
        2
 62
     0
340
11
144
0.18
309
CONTENTFORMAT_END
171
     0
 94
        0
309
TABLEFORMAT_END
  1
CELLSTYLE_BEGIN
 90
        3
 91
        2
300
_DATA
309
CELLSTYLE_END
  0
ENDSEC
  0
SECTION
  2
ACDSDATA
 70
     2
 71
     8
  0
ACDSSCHEMA
 90
        0
  1
AcDb_Thumbnail_Schema
  2
AcDbDs::ID
280
    10
 91
        8
  2
Thumbnail_Data
280
    15
 91
        0
101
ACDSRECORD
 95
        0
 90
        1
  2
AcDbDs::TreatedAsObjectData
280
     1
291
     1
101
ACDSRECORD
 95
        0
 90
        2
  2
AcDbDs::Legacy
280
     1
291
     1
101
ACDSRECORD
  1
AcDbDs::ID
 90
        3
  2
AcDs:Indexable
280
     1
291
     1
101
ACDSRECORD
  1
AcDbDs::ID
 90
        4
  2
AcDbDs::HandleAttribute
280
     7
282
     1
  0
ACDSSCHEMA
 90
        1
  1
AcDbDs::TreatedAsObjectDataSchema
  2
AcDbDs::TreatedAsObjectData
280
     1
 91
        0
  0
ACDSSCHEMA
 90
        2
  1
AcDbDs::LegacySchema
  2
AcDbDs::Legacy
280
     1
 91
        0
  0
ACDSSCHEMA
 90
        3
  1
AcDbDs::IndexedPropertySchema
  2
AcDs:Indexable
280
     1
 91
        0
  0
ACDSSCHEMA
 90
        4
  1
AcDbDs::HandleAttributeSchema
  2
AcDbDs::HandleAttribute
280
     7
 91
        1
284
     1
  0
ACDSRECORD
 90
        0
  2
AcDbDs::ID
280
    10
320
835A
  2
Thumbnail_Data
280
    15
 94
     1596
310
89504E470D0A1A0A0000000D49484452000001000000006A080300000064B47FDC00000300504C5445212830FFFFFF2128300000000000000000000000000000000000000000000000000000330000660000990000CC0000FF0033000033330033660033990033CC0033FF0066000066330066660066990066CC0066FF0099
310
000099330099660099990099CC0099FF00CC0000CC3300CC6600CC9900CCCC00CCFF00FF0000FF3300FF6600FF9900FFCC00FFFF3300003300333300663300993300CC3300FF3333003333333333663333993333CC3333FF3366003366333366663366993366CC3366FF3399003399333399663399993399CC3399FF33CC00
310
33CC3333CC6633CC9933CCCC33CCFF33FF0033FF3333FF6633FF9933FFCC33FFFF6600006600336600666600996600CC6600FF6633006633336633666633996633CC6633FF6666006666336666666666996666CC6666FF6699006699336699666699996699CC6699FF66CC0066CC3366CC6666CC9966CCCC66CCFF66FF0066
310
FF3366FF6666FF9966FFCC66FFFF9900009900339900669900999900CC9900FF9933009933339933669933999933CC9933FF9966009966339966669966999966CC9966FF9999009999339999669999999999CC9999FF99CC0099CC3399CC6699CC9999CCCC99CCFF99FF0099FF3399FF6699FF9999FFCC99FFFFCC0000CC00
310
33CC0066CC0099CC00CCCC00FFCC3300CC3333CC3366CC3399CC33CCCC33FFCC6600CC6633CC6666CC6699CC66CCCC66FFCC9900CC9933CC9966CC9999CC99CCCC99FFCCCC00CCCC33CCCC66CCCC99CCCCCCCCCCFFCCFF00CCFF33CCFF66CCFF99CCFFCCCCFFFFFF0000FF0033FF0066FF0099FF00CCFF00FFFF3300FF3333
310
FF3366FF3399FF33CCFF33FFFF6600FF6633FF6666FF6699FF66CCFF66FFFF9900FF9933FF9966FF9999FF99CCFF99FFFFCC00FFCC33FFCC66FFCC99FFCCCCFFCCFFFFFF00FFFF33FFFF66FFFF99FFFFCCFFFFFF0000000D0D0D1A1A1A2828283535354343435050505D5D5D6B6B6B787878868686939393A1A1A1AEAEAEBB
310
BBBBC9C9C9D6D6D6E4E4E4F1F1F1FFFFFF0000000000000000000000000000000000000000000000000000000000002E4550F1000002F74944415478DAED9C4BD283200C80B901D760C3FD776EB88687C886FDCF4334A052EDF45FE49171400B9D311F0910A035E6FF050065DB831C812B110520E634027A68990C89F14887
310
4C84AC31AE294DB23FB44C2D40860594B66F16D0656A010A4001280005C05CBCF731FA3DED321900F6BB705FA4002EDCA68A02501750000A40012800054050EC26DEDE4A2BE23D0F9E8B9878489CC2577D413092F5378F0CC0B246101EF49C0A4001280051F38061A7D8F3033047B08D8B0800B73992FF100B9C00EC65CE3B
310
8900F6CA2E01704E30806C014EB205A47BE116908AA45B00CB5120BC00907705F2499AC8070040786701EB4AFD244907E0743AF0B30BE4A335A48F15F60090AA2F00C4AE8A2C00870B900750229F747DD909D277015F47013F013044407D556A00C226BE5CE5A68678018B0F7B381C42F4B90E2E4C42FE6C35B280B22A7C65
310
019B76B1D800170B6886802D20A7B71650556407E091056CDA29806930C401C0799D6B0EA00B87050C83305B10011613A13716302C89F18805E6E1F0D9028C910C80DB28A000DE0368C150992909B580120D17F5A5BA405910A11E0C3DDC1B04D3D7850A000A004355E0F9EE30E0D12EB1C9B72B640FA0EB00A859B72CB496
310
3F94BF011021778229A1FD4BEBF1CDC355F90500E417B47F68FE130086B00D0CEF7D526450F80CA0EA4E18C0277906408480E9F78E80FA2CF877C6C246C5F0AFD515007500D6DAA593D03FD27488E3D7210EA548705DB3CC782D96649768B7D3AF0E5CD2C8CDFA38DE00F28B87FDF52D2AE40EA009A0B47301E600CCDC028C
310
240000B201E01E4F22804E2305A00014800250000AE01B00B4A2C17214CC86B36C9F1D5383FAE11226B2D8FA15750105A0001400C1E5801BC13BBF3C011874DE73D7C8350BE00FC058771CF76B1A39416B8257AB60B9DDE5AC0AE337DE35020B43FFA800A401A83BFE0A403000412E309B070D0080DFE6686B6E9BAFD036CA
310
6A664FA4FA11330C6327D57F9881ADAD6B665136F196A92B9103504DD7A2F4E60F937802F8AABF34E7A37122003C3C51F76BF903519A13D010B392E00000000049454E44AE426082
  0
ENDSEC
  0
EOF
