  0
SECTION
  2
HEADER
  9
$ACADVER
  1
AC1015
  9
$ACADMAINTVER
 70
    10
  9
$DWGCODEPAGE
  3
ANSI_932
  9
$INSBASE
 10
0.0
 20
0.0
 30
0.0
  9
$EXTMIN
 10
-269.0
 20
-1213.958394368493
 30
0.0
  9
$EXTMAX
 10
1020.756802320021
 20
1031.567697416741
 30
0.0
  9
$LIMMIN
 10
-184.0
 20
-675.0
  9
$LIMMAX
 10
509.0
 20
453.0
  9
$ORTHOMODE
 70
     0
  9
$REGENMODE
 70
     1
  9
$FILLMODE
 70
     1
  9
$QTEXTMODE
 70
     0
  9
$MIRRTEXT
 70
     1
  9
$LTSCALE
 40
30.0
  9
$ATTMODE
 70
     1
  9
$TEXTSIZE
 40
5.0
  9
$TRACEWID
 40
0.05
  9
$TEXTSTYLE
  7
STANDARD1
  9
$CLAYER
  8
30
  9
$CELTYPE
  6
CONTINUOUS
  9
$CECOLOR
 62
   256
  9
$CELTSCALE
 40
1.0
  9
$DISPSILH
 70
     0
  9
$DIMSCALE
 40
1.0
  9
$DIMASZ
 40
5.0
  9
$DIMEXO
 40
5.0
  9
$DIMDLI
 40
0.5
  9
$DIMRND
 40
0.0
  9
$DIMDLE
 40
0.0
  9
$DIMEXE
 40
0.5
  9
$DIMTP
 40
0.0
  9
$DIMTM
 40
0.0
  9
$DIMTXT
 40
10.0
  9
$DIMCEN
 40
0.09
  9
$DIMTSZ
 40
0.0
  9
$DIMTOL
 70
     0
  9
$DIMLIM
 70
     0
  9
$DIMTIH
 70
     0
  9
$DIMTOH
 70
     0
  9
$DIMSE1
 70
     0
  9
$DIMSE2
 70
     0
  9
$DIMTAD
 70
     3
  9
$DIMZIN
 70
    12
  9
$DIMBLK
  1
OPEN
  9
$DIMASO
 70
     1
  9
$DIMSHO
 70
     1
  9
$DIMPOST
  1

  9
$DIMAPOST
  1

  9
$DIMALT
 70
     0
  9
$DIMALTD
 70
     2
  9
$DIMALTF
 40
25.4
  9
$DIMLFAC
 40
1.0
  9
$DIMTOFL
 70
     0
  9
$DIMTVP
 40
0.0
  9
$DIMTIX
 70
     0
  9
$DIMSOXD
 70
     0
  9
$DIMSAH
 70
     0
  9
$DIMBLK1
  1

  9
$DIMBLK2
  1

  9
$DIMSTYLE
  2
STANDARD
  9
$DIMCLRD
 70
     0
  9
$DIMCLRE
 70
     0
  9
$DIMCLRT
 70
     0
  9
$DIMTFAC
 40
1.0
  9
$DIMGAP
 40
3.0
  9
$DIMJUST
 70
     0
  9
$DIMSD1
 70
     0
  9
$DIMSD2
 70
     0
  9
$DIMTOLJ
 70
     1
  9
$DIMTZIN
 70
     0
  9
$DIMALTZ
 70
     0
  9
$DIMALTTZ
 70
     0
  9
$DIMUPT
 70
     0
  9
$DIMDEC
 70
     1
  9
$DIMTDEC
 70
     1
  9
$DIMALTU
 70
     2
  9
$DIMALTTD
 70
     2
  9
$DIMTXSTY
  7
STANDARD
  9
$DIMAUNIT
 70
     0
  9
$DIMADEC
 70
     0
  9
$DIMALTRND
 40
0.0
  9
$DIMAZIN
 70
     3
  9
$DIMDSEP
 70
    46
  9
$DIMATFIT
 70
     3
  9
$DIMFRAC
 70
     0
  9
$DIMLDRBLK
  1
OPEN
  9
$DIMLUNIT
 70
     2
  9
$DIMLWD
 70
    -2
  9
$DIMLWE
 70
    -2
  9
$DIMTMOVE
 70
     0
  9
$LUNITS
 70
     2
  9
$LUPREC
 70
     4
  9
$SKETCHINC
 40
0.1
  9
$FILLETRAD
 40
0.0
  9
$AUNITS
 70
     0
  9
$AUPREC
 70
     0
  9
$MENU
  1
.
  9
$ELEVATION
 40
0.0
  9
$PELEVATION
 40
0.0
  9
$THICKNESS
 40
0.0
  9
$LIMCHECK
 70
     0
  9
$CHAMFERA
 40
0.0
  9
$CHAMFERB
 40
0.0
  9
$CHAMFERC
 40
0.0
  9
$CHAMFERD
 40
0.0
  9
$SKPOLY
 70
     0
  9
$TDCREATE
 40
2452286.555658657
  9
$TDUCREATE
 40
2452286.180658657
  9
$TDUPDATE
 40
2454670.454942303
  9
$TDUUPDATE
 40
2454670.079942303
  9
$TDINDWG
 40
1.7214259028
  9
$TDUSRTIMER
 40
1.7214259028
  9
$USRTIMER
 70
     1
  9
$ANGBASE
 50
0.0
  9
$ANGDIR
 70
     0
  9
$PDMODE
 70
     0
  9
$PDSIZE
 40
0.0
  9
$PLINEWID
 40
0.0
  9
$SPLFRAME
 70
     0
  9
$SPLINETYPE
 70
     6
  9
$SPLINESEGS
 70
     8
  9
$HANDSEED
  5
ACE3
  9
$SURFTAB1
 70
     6
  9
$SURFTAB2
 70
     6
  9
$SURFTYPE
 70
     6
  9
$SURFU
 70
     6
  9
$SURFV
 70
     6
  9
$UCSBASE
  2

  9
$UCSNAME
  2

  9
$UCSORG
 10
0.0
 20
0.0
 30
0.0
  9
$UCSXDIR
 10
1.0
 20
0.0
 30
0.0
  9
$UCSYDIR
 10
0.0
 20
1.0
 30
0.0
  9
$UCSORTHOREF
  2

  9
$UCSORTHOVIEW
 70
     0
  9
$UCSORGTOP
 10
0.0
 20
0.0
 30
0.0
  9
$UCSORGBOTTOM
 10
0.0
 20
0.0
 30
0.0
  9
$UCSORGLEFT
 10
0.0
 20
0.0
 30
0.0
  9
$UCSORGRIGHT
 10
0.0
 20
0.0
 30
0.0
  9
$UCSORGFRONT
 10
0.0
 20
0.0
 30
0.0
  9
$UCSORGBACK
 10
0.0
 20
0.0
 30
0.0
  9
$PUCSBASE
  2

  9
$PUCSNAME
  2

  9
$PUCSORG
 10
0.0
 20
0.0
 30
0.0
  9
$PUCSXDIR
 10
1.0
 20
0.0
 30
0.0
  9
$PUCSYDIR
 10
0.0
 20
1.0
 30
0.0
  9
$PUCSORTHOREF
  2

  9
$PUCSORTHOVIEW
 70
     0
  9
$PUCSORGTOP
 10
0.0
 20
0.0
 30
0.0
  9
$PUCSORGBOTTOM
 10
0.0
 20
0.0
 30
0.0
  9
$PUCSORGLEFT
 10
0.0
 20
0.0
 30
0.0
  9
$PUCSORGRIGHT
 10
0.0
 20
0.0
 30
0.0
  9
$PUCSORGFRONT
 10
0.0
 20
0.0
 30
0.0
  9
$PUCSORGBACK
 10
0.0
 20
0.0
 30
0.0
  9
$USERI1
 70
     0
  9
$USERI2
 70
     0
  9
$USERI3
 70
     0
  9
$USERI4
 70
     0
  9
$USERI5
 70
     0
  9
$USERR1
 40
0.0
  9
$USERR2
 40
0.0
  9
$USERR3
 40
0.0
  9
$USERR4
 40
0.0
  9
$USERR5
 40
0.0
  9
$WORLDVIEW
 70
     1
  9
$SHADEDGE
 70
     3
  9
$SHADEDIF
 70
    70
  9
$TILEMODE
 70
     1
  9
$MAXACTVP
 70
    48
  9
$PINSBASE
 10
0.0
 20
0.0
 30
0.0
  9
$PLIMCHECK
 70
     0
  9
$PEXTMIN
 10
4.273573370203961
 20
5.205246163471485
 30
0.0
  9
$PEXTMAX
 10
194.6100952986349
 20
283.0697008572913
 30
0.0
  9
$PLIMMIN
 10
-5.873748779296875
 20
-5.873749732971191
  9
$PLIMMAX
 10
204.0995788574218
 20
291.1369009017943
  9
$UNITMODE
 70
     0
  9
$VISRETAIN
 70
     1
  9
$PLINEGEN
 70
     0
  9
$PSLTSCALE
 70
     1
  9
$TREEDEPTH
 70
  3020
  9
$CMLSTYLE
  2
STANDARD
  9
$CMLJUST
 70
     0
  9
$CMLSCALE
 40
1.0
  9
$PROXYGRAPHICS
 70
     1
  9
$MEASUREMENT
 70
     0
  9
$CELWEIGHT
370
    -1
  9
$ENDCAPS
280
     0
  9
$JOINSTYLE
280
     0
  9
$LWDISPLAY
290
     0
  9
$INSUNITS
 70
     0
  9
$HYPERLINKBASE
  1

  9
$STYLESHEET
  1
kiki.ctb
  9
$XEDIT
290
     1
  9
$CEPSNTYPE
380
     0
  9
$PSTYLEMODE
290
     1
  9
$FINGERPRINTGUID
  2

  9
$VERSIONGUID
  2
{54E3F1EC-5ED7-407A-B44F-FD29C5BA720B}
  9
$EXTNAMES
290
     1
  9
$PSVPSCALE
 40
0.0
  9
$OLESTARTUP
290
     0
  0
ENDSEC
  0
SECTION
  2
CLASSES
  0
CLASS
  1
ACDBDICTIONARYWDFLT
  2
AcDbDictionaryWithDefault
  3
AutoCAD 2000
 90
        0
280
     0
281
     0
  0
CLASS
  1
ACDBPLACEHOLDER
  2
AcDbPlaceHolder
  3
AutoCAD 2000
 90
        0
280
     0
281
     0
  0
CLASS
  1
LAYOUT
  2
AcDbLayout
  3
AutoCAD 2000
 90
        0
280
     0
281
     0
  0
CLASS
  1
LONG_TRANSACTION
  2
AcDbLongTransaction
  3
AutoCAD 2000
 90
    32768
280
     0
281
     0
  0
CLASS
  1
LWPOLYLINE
  2
AcDbPolyline
  3
AutoCAD 2000
 90
    32768
280
     0
281
     1
  0
CLASS
  1
HATCH
  2
AcDbHatch
  3
AutoCAD 2000
 90
    32768
280
     0
281
     1
  0
CLASS
  1
XRECORD
  2
AcDbXrecord
  3
AutoCAD 2000
 90
    32768
280
     0
281
     0
  0
CLASS
  1
LONG_TRANSACTION
  2
AcDbLongTransaction
  3
AutoCAD 2000
 90
    32768
280
     0
281
     0
  0
CLASS
  1
LWPOLYLINE
  2
AcDbPolyline
  3
AutoCAD 2000
 90
    32768
280
     0
281
     1
  0
CLASS
  1
HATCH
  2
AcDbHatch
  3
AutoCAD 2000
 90
    32768
280
     0
281
     1
  0
CLASS
  1
XRECORD
  2
AcDbXrecord
  3
AutoCAD 2000
 90
    32768
280
     0
281
     0
  0
CLASS
  1
LONG_TRANSACTION
  2
AcDbLongTransaction
  3
AutoCAD 2000
 90
    32768
280
     0
281
     0
  0
CLASS
  1
LWPOLYLINE
  2
AcDbPolyline
  3
AutoCAD 2000
 90
    32768
280
     0
281
     1
  0
CLASS
  1
HATCH
  2
AcDbHatch
  3
AutoCAD 2000
 90
    32768
280
     0
281
     1
  0
CLASS
  1
XRECORD
  2
AcDbXrecord
  3
AutoCAD 2000
 90
    32768
280
     0
281
     0
  0
CLASS
  1
LONG_TRANSACTION
  2
AcDbLongTransaction
  3
AutoCAD 2000
 90
    32768
280
     0
281
     0
  0
CLASS
  1
LWPOLYLINE
  2
AcDbPolyline
  3
AutoCAD 2000
 90
    32768
280
     0
281
     1
  0
CLASS
  1
HATCH
  2
AcDbHatch
  3
AutoCAD 2000
 90
    32768
280
     0
281
     1
  0
CLASS
  1
XRECORD
  2
AcDbXrecord
  3
AutoCAD 2000
 90
    32768
280
     0
281
     0
  0
CLASS
  1
LONG_TRANSACTION
  2
AcDbLongTransaction
  3
AutoCAD 2000
 90
    32768
280
     0
281
     0
  0
CLASS
  1
LWPOLYLINE
  2
AcDbPolyline
  3
AutoCAD 2000
 90
    32768
280
     0
281
     1
  0
CLASS
  1
HATCH
  2
AcDbHatch
  3
AutoCAD 2000
 90
    32768
280
     0
281
     1
  0
CLASS
  1
XRECORD
  2
AcDbXrecord
  3
AutoCAD 2000
 90
    32768
280
     0
281
     0
  0
CLASS
  1
LONG_TRANSACTION
  2
AcDbLongTransaction
  3
AutoCAD 2000
 90
    32768
280
     0
281
     0
  0
CLASS
  1
LWPOLYLINE
  2
AcDbPolyline
  3
AutoCAD 2000
 90
    32768
280
     0
281
     1
  0
CLASS
  1
HATCH
  2
AcDbHatch
  3
AutoCAD 2000
 90
    32768
280
     0
281
     1
  0
CLASS
  1
XRECORD
  2
AcDbXrecord
  3
AutoCAD 2000
 90
    32768
280
     0
281
     0
  0
CLASS
  1
LONG_TRANSACTION
  2
AcDbLongTransaction
  3
AutoCAD 2000
 90
    32768
280
     0
281
     0
  0
CLASS
  1
LWPOLYLINE
  2
AcDbPolyline
  3
AutoCAD 2000
 90
    32768
280
     0
281
     1
  0
CLASS
  1
HATCH
  2
AcDbHatch
  3
AutoCAD 2000
 90
    32768
280
     0
281
     1
  0
CLASS
  1
XRECORD
  2
AcDbXrecord
  3
AutoCAD 2000
 90
    32768
280
     0
281
     0
  0
CLASS
  1
LONG_TRANSACTION
  2
AcDbLongTransaction
  3
AutoCAD 2000
 90
    32768
280
     0
281
     0
  0
CLASS
  1
LWPOLYLINE
  2
AcDbPolyline
  3
AutoCAD 2000
 90
    32768
280
     0
281
     1
  0
CLASS
  1
HATCH
  2
AcDbHatch
  3
AutoCAD 2000
 90
    32768
280
     0
281
     1
  0
CLASS
  1
XRECORD
  2
AcDbXrecord
  3
AutoCAD 2000
 90
    32768
280
     0
281
     0
  0
CLASS
  1
LONG_TRANSACTION
  2
AcDbLongTransaction
  3
AutoCAD 2000
 90
    32768
280
     0
281
     0
  0
CLASS
  1
LWPOLYLINE
  2
AcDbPolyline
  3
AutoCAD 2000
 90
    32768
280
     0
281
     1
  0
CLASS
  1
HATCH
  2
AcDbHatch
  3
AutoCAD 2000
 90
    32768
280
     0
281
     1
  0
CLASS
  1
XRECORD
  2
AcDbXrecord
  3
AutoCAD 2000
 90
    32768
280
     0
281
     0
  0
CLASS
  1
LONG_TRANSACTION
  2
AcDbLongTransaction
  3
AutoCAD 2000
 90
    32768
280
     0
281
     0
  0
CLASS
  1
LWPOLYLINE
  2
AcDbPolyline
  3
AutoCAD 2000
 90
    32768
280
     0
281
     1
  0
CLASS
  1
HATCH
  2
AcDbHatch
  3
AutoCAD 2000
 90
    32768
280
     0
281
     1
  0
CLASS
  1
XRECORD
  2
AcDbXrecord
  3
AutoCAD 2000
 90
    32768
280
     0
281
     0
  0
CLASS
  1
LONG_TRANSACTION
  2
AcDbLongTransaction
  3
AutoCAD 2000
 90
    32768
280
     0
281
     0
  0
CLASS
  1
LWPOLYLINE
  2
AcDbPolyline
  3
AutoCAD 2000
 90
    32768
280
     0
281
     1
  0
CLASS
  1
HATCH
  2
AcDbHatch
  3
AutoCAD 2000
 90
    32768
280
     0
281
     1
  0
CLASS
  1
XRECORD
  2
AcDbXrecord
  3
AutoCAD 2000
 90
    32768
280
     0
281
     0
  0
CLASS
  1
LONG_TRANSACTION
  2
AcDbLongTransaction
  3
AutoCAD 2000
 90
    32768
280
     0
281
     0
  0
CLASS
  1
LWPOLYLINE
  2
AcDbPolyline
  3
AutoCAD 2000
 90
    32768
280
     0
281
     1
  0
CLASS
  1
HATCH
  2
AcDbHatch
  3
AutoCAD 2000
 90
    32768
280
     0
281
     1
  0
CLASS
  1
XRECORD
  2
AcDbXrecord
  3
AutoCAD 2000
 90
    32768
280
     0
281
     0
  0
CLASS
  1
LONG_TRANSACTION
  2
AcDbLongTransaction
  3
AutoCAD 2000
 90
    32768
280
     0
281
     0
  0
CLASS
  1
LWPOLYLINE
  2
AcDbPolyline
  3
AutoCAD 2000
 90
    32768
280
     0
281
     1
  0
CLASS
  1
HATCH
  2
AcDbHatch
  3
AutoCAD 2000
 90
    32768
280
     0
281
     1
  0
CLASS
  1
XRECORD
  2
AcDbXrecord
  3
AutoCAD 2000
 90
    32768
280
     0
281
     0
  0
CLASS
  1
LONG_TRANSACTION
  2
AcDbLongTransaction
  3
AutoCAD 2000
 90
    32768
280
     0
281
     0
  0
CLASS
  1
LWPOLYLINE
  2
AcDbPolyline
  3
AutoCAD 2000
 90
    32768
280
     0
281
     1
  0
CLASS
  1
HATCH
  2
AcDbHatch
  3
AutoCAD 2000
 90
    32768
280
     0
281
     1
  0
CLASS
  1
XRECORD
  2
AcDbXrecord
  3
AutoCAD 2000
 90
    32768
280
     0
281
     0
  0
CLASS
  1
LONG_TRANSACTION
  2
AcDbLongTransaction
  3
AutoCAD 2000
 90
    32768
280
     0
281
     0
  0
CLASS
  1
LWPOLYLINE
  2
AcDbPolyline
  3
AutoCAD 2000
 90
    32768
280
     0
281
     1
  0
CLASS
  1
HATCH
  2
AcDbHatch
  3
AutoCAD 2000
 90
    32768
280
     0
281
     1
  0
CLASS
  1
XRECORD
  2
AcDbXrecord
  3
AutoCAD 2000
 90
    32768
280
     0
281
     0
  0
CLASS
  1
LONG_TRANSACTION
  2
AcDbLongTransaction
  3
AutoCAD 2000
 90
    32768
280
     0
281
     0
  0
CLASS
  1
LWPOLYLINE
  2
AcDbPolyline
  3
AutoCAD 2000
 90
    32768
280
     0
281
     1
  0
CLASS
  1
HATCH
  2
AcDbHatch
  3
AutoCAD 2000
 90
    32768
280
     0
281
     1
  0
CLASS
  1
XRECORD
  2
AcDbXrecord
  3
AutoCAD 2000
 90
    32768
280
     0
281
     0
  0
CLASS
  1
LONG_TRANSACTION
  2
AcDbLongTransaction
  3
AutoCAD 2000
 90
    32768
280
     0
281
     0
  0
CLASS
  1
LWPOLYLINE
  2
AcDbPolyline
  3
AutoCAD 2000
 90
    32768
280
     0
281
     1
  0
CLASS
  1
HATCH
  2
AcDbHatch
  3
AutoCAD 2000
 90
    32768
280
     0
281
     1
  0
CLASS
  1
XRECORD
  2
AcDbXrecord
  3
AutoCAD 2000
 90
    32768
280
     0
281
     0
  0
CLASS
  1
LONG_TRANSACTION
  2
AcDbLongTransaction
  3
AutoCAD 2000
 90
    32768
280
     0
281
     0
  0
CLASS
  1
LWPOLYLINE
  2
AcDbPolyline
  3
AutoCAD 2000
 90
    32768
280
     0
281
     1
  0
CLASS
  1
HATCH
  2
AcDbHatch
  3
AutoCAD 2000
 90
    32768
280
     0
281
     1
  0
CLASS
  1
XRECORD
  2
AcDbXrecord
  3
AutoCAD 2000
 90
    32768
280
     0
281
     0
  0
CLASS
  1
LONG_TRANSACTION
  2
AcDbLongTransaction
  3
AutoCAD 2000
 90
    32768
280
     0
281
     0
  0
CLASS
  1
LWPOLYLINE
  2
AcDbPolyline
  3
AutoCAD 2000
 90
    32768
280
     0
281
     1
  0
CLASS
  1
HATCH
  2
AcDbHatch
  3
AutoCAD 2000
 90
    32768
280
     0
281
     1
  0
CLASS
  1
XRECORD
  2
AcDbXrecord
  3
AutoCAD 2000
 90
    32768
280
     0
281
     0
  0
CLASS
  1
LONG_TRANSACTION
  2
AcDbLongTransaction
  3
AutoCAD 2000
 90
    32768
280
     0
281
     0
  0
CLASS
  1
LWPOLYLINE
  2
AcDbPolyline
  3
AutoCAD 2000
 90
    32768
280
     0
281
     1
  0
CLASS
  1
HATCH
  2
AcDbHatch
  3
AutoCAD 2000
 90
    32768
280
     0
281
     1
  0
CLASS
  1
XRECORD
  2
AcDbXrecord
  3
AutoCAD 2000
 90
    32768
280
     0
281
     0
  0
CLASS
  1
LONG_TRANSACTION
  2
AcDbLongTransaction
  3
AutoCAD 2000
 90
    32768
280
     0
281
     0
  0
CLASS
  1
LWPOLYLINE
  2
AcDbPolyline
  3
AutoCAD 2000
 90
    32768
280
     0
281
     1
  0
CLASS
  1
HATCH
  2
AcDbHatch
  3
AutoCAD 2000
 90
    32768
280
     0
281
     1
  0
CLASS
  1
XRECORD
  2
AcDbXrecord
  3
AutoCAD 2000
 90
    32768
280
     0
281
     0
  0
CLASS
  1
LONG_TRANSACTION
  2
AcDbLongTransaction
  3
AutoCAD 2000
 90
    32768
280
     0
281
     0
  0
CLASS
  1
LWPOLYLINE
  2
AcDbPolyline
  3
AutoCAD 2000
 90
    32768
280
     0
281
     1
  0
CLASS
  1
HATCH
  2
AcDbHatch
  3
AutoCAD 2000
 90
    32768
280
     0
281
     1
  0
CLASS
  1
XRECORD
  2
AcDbXrecord
  3
AutoCAD 2000
 90
    32768
280
     0
281
     0
  0
CLASS
  1
LONG_TRANSACTION
  2
AcDbLongTransaction
  3
AutoCAD 2000
 90
    32768
280
     0
281
     0
  0
CLASS
  1
LWPOLYLINE
  2
AcDbPolyline
  3
AutoCAD 2000
 90
    32768
280
     0
281
     1
  0
CLASS
  1
HATCH
  2
AcDbHatch
  3
AutoCAD 2000
 90
    32768
280
     0
281
     1
  0
CLASS
  1
XRECORD
  2
AcDbXrecord
  3
AutoCAD 2000
 90
    32768
280
     0
281
     0
  0
CLASS
  1
LONG_TRANSACTION
  2
AcDbLongTransaction
  3
AutoCAD 2000
 90
    32768
280
     0
281
     0
  0
CLASS
  1
LWPOLYLINE
  2
AcDbPolyline
  3
AutoCAD 2000
 90
    32768
280
     0
281
     1
  0
CLASS
  1
HATCH
  2
AcDbHatch
  3
AutoCAD 2000
 90
    32768
280
     0
281
     1
  0
CLASS
  1
XRECORD
  2
AcDbXrecord
  3
AutoCAD 2000
 90
    32768
280
     0
281
     0
  0
CLASS
  1
LONG_TRANSACTION
  2
AcDbLongTransaction
  3
AutoCAD 2000
 90
    32768
280
     0
281
     0
  0
CLASS
  1
LWPOLYLINE
  2
AcDbPolyline
  3
AutoCAD 2000
 90
    32768
280
     0
281
     1
  0
CLASS
  1
HATCH
  2
AcDbHatch
  3
AutoCAD 2000
 90
    32768
280
     0
281
     1
  0
CLASS
  1
XRECORD
  2
AcDbXrecord
  3
AutoCAD 2000
 90
    32768
280
     0
281
     0
  0
CLASS
  1
LONG_TRANSACTION
  2
AcDbLongTransaction
  3
AutoCAD 2000
 90
    32768
280
     0
281
     0
  0
CLASS
  1
LWPOLYLINE
  2
AcDbPolyline
  3
AutoCAD 2000
 90
    32768
280
     0
281
     1
  0
CLASS
  1
HATCH
  2
AcDbHatch
  3
AutoCAD 2000
 90
    32768
280
     0
281
     1
  0
CLASS
  1
XRECORD
  2
AcDbXrecord
  3
AutoCAD 2000
 90
    32768
280
     0
281
     0
  0
CLASS
  1
LONG_TRANSACTION
  2
AcDbLongTransaction
  3
AutoCAD 2000
 90
    32768
280
     0
281
     0
  0
CLASS
  1
LWPOLYLINE
  2
AcDbPolyline
  3
AutoCAD 2000
 90
    32768
280
     0
281
     1
  0
CLASS
  1
HATCH
  2
AcDbHatch
  3
AutoCAD 2000
 90
    32768
280
     0
281
     1
  0
CLASS
  1
XRECORD
  2
AcDbXrecord
  3
AutoCAD 2000
 90
    32768
280
     0
281
     0
  0
CLASS
  1
DICTIONARYVAR
  2
AcDbDictionaryVar
  3
AutoCAD 2000
 90
        0
280
     0
281
     0
  0
CLASS
  1
LONG_TRANSACTION
  2
AcDbLongTransaction
  3
AutoCAD 2000
 90
    32768
280
     0
281
     0
  0
CLASS
  1
LWPOLYLINE
  2
AcDbPolyline
  3
AutoCAD 2000
 90
    32768
280
     0
281
     1
  0
CLASS
  1
HATCH
  2
AcDbHatch
  3
AutoCAD 2000
 90
    32768
280
     0
281
     1
  0
CLASS
  1
XRECORD
  2
AcDbXrecord
  3
AutoCAD 2000
 90
    32768
280
     0
281
     0
  0
CLASS
  1
LONG_TRANSACTION
  2
AcDbLongTransaction
  3
AutoCAD 2000
 90
    32768
280
     0
281
     0
  0
CLASS
  1
LWPOLYLINE
  2
AcDbPolyline
  3
AutoCAD 2000
 90
    32768
280
     0
281
     1
  0
CLASS
  1
HATCH
  2
AcDbHatch
  3
AutoCAD 2000
 90
    32768
280
     0
281
     1
  0
CLASS
  1
XRECORD
  2
AcDbXrecord
  3
AutoCAD 2000
 90
    32768
280
     0
281
     0
  0
ENDSEC
  0
SECTION
  2
TABLES
  0
TABLE
  2
VPORT
  5
8
330
0
100
AcDbSymbolTable
 70
     2
  0
VPORT
  5
ACE2
330
8
100
AcDbSymbolTableRecord
100
AcDbViewportTableRecord
  2
*Active
 70
     0
 10
0.0
 20
0.0
 11
1.0
 21
1.0
 12
375.8784041629592
 22
342.448229244572
 13
0.0
 23
0.0
 14
1.0
 24
1.0
 15
50.0
 25
50.0
 16
0.0
 26
0.0
 36
1.0
 17
0.0
 27
0.0
 37
0.0
 40
3144.560840723194
 41
1.661996497373029
 42
50.0
 43
0.0
 44
0.0
 50
0.0
 51
0.0
 71
     0
 72
   100
 73
     1
 74
     1
 75
     1
 76
     0
 77
     0
 78
     0
281
     0
 65
     1
110
0.0
120
0.0
130
0.0
111
1.0
121
0.0
131
0.0
112
0.0
122
1.0
132
0.0
 79
     0
146
0.0
  0
ENDTAB
  0
TABLE
  2
LTYPE
  5
5
330
0
100
AcDbSymbolTable
 70
     5
  0
LTYPE
  5
13
330
5
100
AcDbSymbolTableRecord
100
AcDbLinetypeTableRecord
  2
BYBLOCK
 70
     0
  3

 72
    65
 73
     0
 40
0.0
  0
LTYPE
  5
14
330
5
100
AcDbSymbolTableRecord
100
AcDbLinetypeTableRecord
  2
BYLAYER
 70
     0
  3

 72
    65
 73
     0
 40
0.0
  0
LTYPE
  5
15
330
5
100
AcDbSymbolTableRecord
100
AcDbLinetypeTableRecord
  2
CONTINUOUS
 70
     0
  3
Solid line
 72
    65
 73
     0
 40
0.0
  0
LTYPE
  5
22
330
5
100
AcDbSymbolTableRecord
100
AcDbLinetypeTableRecord
  2
CONTINOUS
 70
     0
  3
Solid line
 72
    65
 73
     0
 40
0.0
  0
LTYPE
  5
23
330
5
100
AcDbSymbolTableRecord
100
AcDbLinetypeTableRecord
  2
DASHED
 70
     0
  3
__ __ __ __ __ __ __ __ __ __ __ __ __ __ __
 72
    65
 73
     2
 40
0.75
 49
0.5
 74
     0
 49
-0.25
 74
     0
  0
LTYPE
  5
24
330
5
100
AcDbSymbolTableRecord
100
AcDbLinetypeTableRecord
  2
DASHDOT
 70
     0
  3
__ . __ . __ . __ . __ . __ . __ . __ . __ . __
 72
    65
 73
     4
 40
1.0
 49
0.5
 74
     0
 49
-0.25
 74
     0
 49
0.0
 74
     0
 49
-0.25
 74
     0
  0
LTYPE
  5
3932
330
5
100
AcDbSymbolTableRecord
100
AcDbLinetypeTableRecord
  2
DIVIDE
 70
     0
  3
Divide ____ . . ____ . . ____ . . ____ . . ____
 72
    65
 73
     6
 40
1.25
 49
0.5
 74
     0
 49
-0.25
 74
     0
 49
0.0
 74
     0
 49
-0.25
 74
     0
 49
0.0
 74
     0
 49
-0.25
 74
     0
  0
ENDTAB
  0
TABLE
  2
LAYER
  5
2
330
0
100
AcDbSymbolTable
 70
    12
  0
LAYER
  5
10
330
2
100
AcDbSymbolTableRecord
100
AcDbLayerTableRecord
  2
0
 70
     0
 62
     7
  6
CONTINOUS
370
    -3
390
F
  0
LAYER
  5
2F
330
2
100
AcDbSymbolTableRecord
100
AcDbLayerTableRecord
  2
10
 70
     0
 62
     4
  6
CONTINOUS
370
    -3
390
F
  0
LAYER
  5
31
330
2
100
AcDbSymbolTableRecord
100
AcDbLayerTableRecord
  2
12
 70
     0
 62
     3
  6
CONTINOUS
370
    -3
390
F
  0
LAYER
  5
35
330
2
100
AcDbSymbolTableRecord
100
AcDbLayerTableRecord
  2
16
 70
     0
 62
     6
  6
DASHDOT
370
    -3
390
F
  0
LAYER
  5
36
330
2
100
AcDbSymbolTableRecord
100
AcDbLayerTableRecord
  2
17
 70
     0
 62
     2
  6
DASHDOT
370
    -3
390
F
  0
LAYER
  5
38
330
2
100
AcDbSymbolTableRecord
100
AcDbLayerTableRecord
  2
19
 70
     0
 62
     7
  6
CONTINOUS
370
    -3
390
F
  0
LAYER
  5
3D
330
2
100
AcDbSymbolTableRecord
100
AcDbLayerTableRecord
  2
24
 70
     0
 62
     2
  6
CONTINOUS
370
    -3
390
F
  0
LAYER
  5
3A2
330
2
100
AcDbSymbolTableRecord
100
AcDbLayerTableRecord
  2
30
 70
     0
 62
     9
  6
CONTINUOUS
370
    -3
390
F
  0
LAYER
  5
3A4
330
2
100
AcDbSymbolTableRecord
100
AcDbLayerTableRecord
  2
DEFPOINTS
 70
     0
 62
     7
  6
CONTINUOUS
290
     0
370
    -3
390
F
  0
LAYER
  5
3933
330
2
100
AcDbSymbolTableRecord
100
AcDbLayerTableRecord
  2
18
 70
     0
 62
     5
  6
DIVIDE
370
    -3
390
F
  0
LAYER
  5
A5C2
330
2
100
AcDbSymbolTableRecord
100
AcDbLayerTableRecord
  2
21
 70
     0
 62
     7
  6
CONTINUOUS
370
    -3
390
F
  0
LAYER
  5
AAF1
330
2
100
AcDbSymbolTableRecord
100
AcDbLayerTableRecord
  2
11
 70
     0
 62
     1
  6
CONTINOUS
370
    -3
390
F
  0
ENDTAB
  0
TABLE
  2
STYLE
  5
3
330
0
100
AcDbSymbolTable
 70
     2
  0
STYLE
  5
11
330
3
100
AcDbSymbolTableRecord
100
AcDbTextStyleTableRecord
  2
STANDARD
 70
     0
 40
0.0
 41
1.0
 50
0.0
 71
     0
 42
2.0
  3
txt.shx
  4
bigfont.shx
  0
STYLE
  5
42
330
3
100
AcDbSymbolTableRecord
100
AcDbTextStyleTableRecord
  2
STANDARD1
 70
     0
 40
0.0
 41
1.0
 50
0.0
 71
     0
 42
5.0
  3
MONOTXT
  4
BIGFONT
  0
ENDTAB
  0
TABLE
  2
VIEW
  5
6
330
0
100
AcDbSymbolTable
 70
     3
  0
VIEW
  5
230C
330
6
100
AcDbSymbolTableRecord
100
AcDbViewTableRecord
  2
OLE1
 70
     0
 40
148.9124878027714
 10
429.4976280407223
 20
2.560626997828478
 41
103.1458057716444
 11
0.0
 21
0.0
 31
1.0
 12
0.0
 22
0.0
 32
0.0
 42
50.0
 43
0.0
 44
0.0
 50
0.0
 71
     0
281
     0
 72
     0
  0
VIEW
  5
230E
330
6
100
AcDbSymbolTableRecord
100
AcDbViewTableRecord
  2
OLE2
 70
     0
 40
170.7786920545775
 10
322.664969958371
 20
-5.978304054290276
 41
102.4672152327465
 11
0.0
 21
0.0
 31
1.0
 12
0.0
 22
0.0
 32
0.0
 42
50.0
 43
0.0
 44
0.0
 50
0.0
 71
     0
281
     0
 72
     0
  0
VIEW
  5
23AA
330
6
100
AcDbSymbolTableRecord
100
AcDbViewTableRecord
  2
OLE3
 70
     0
 40
591.7897393182231
 10
84.79698158148218
 20
-46.09336010803996
 41
388.7920961799953
 11
0.0
 21
0.0
 31
1.0
 12
0.0
 22
0.0
 32
0.0
 42
50.0
 43
0.0
 44
0.0
 50
0.0
 71
     0
281
     0
 72
     0
  0
ENDTAB
  0
TABLE
  2
UCS
  5
7
330
0
100
AcDbSymbolTable
 70
     0
  0
ENDTAB
  0
TABLE
  2
APPID
  5
9
330
0
100
AcDbSymbolTable
 70
     2
  0
APPID
  5
12
330
9
100
AcDbSymbolTableRecord
100
AcDbRegAppTableRecord
  2
ACAD
 70
     0
  0
APPID
  5
ECD
330
9
100
AcDbSymbolTableRecord
100
AcDbRegAppTableRecord
  2
CONTENTBLOCKICON
 70
     0
  0
ENDTAB
  0
TABLE
  2
DIMSTYLE
  5
A
330
0
100
AcDbSymbolTable
 70
     1
100
AcDbDimStyleTable
 71
     0
  0
DIMSTYLE
105
175
102
{ACAD_REACTORS
330
A5EA
330
A5F6
330
A603
330
A609
330
A60A
330
A6A0
330
A6AD
330
A6BA
330
A2DE
330
A2DF
330
A2DC
330
A2DD
330
A2DB
330
A2DA
330
A2D7
330
A2D5
330
A2D6
330
A303
330
A789
330
A0BD
330
A0B4
330
A4BE
330
A4BD
330
A4BC
330
A4DA
330
A4BF
330
A4E5
330
AB2F
330
AC57
102
}
330
A
100
AcDbSymbolTableRecord
100
AcDbDimStyleTableRecord
  2
STANDARD
 70
     0
 41
5.0
 42
5.0
 43
0.5
 44
0.5
 73
     0
 74
     0
 77
     3
 78
    12
140
10.0
147
3.0
271
     1
272
     1
340
11
341
3B2
342
3B2
  0
ENDTAB
  0
TABLE
  2
BLOCK_RECORD
  5
1
330
0
100
AcDbSymbolTable
 70
    30
  0
BLOCK_RECORD
  5
1E
102
{ACAD_XDICTIONARY
360
178
102
}
330
1
100
AcDbSymbolTableRecord
100
AcDbBlockTableRecord
  2
*MODEL_SPACE
340
ACDC
  0
BLOCK_RECORD
  5
1A
102
{ACAD_XDICTIONARY
360
17A
102
}
330
1
100
AcDbSymbolTableRecord
100
AcDbBlockTableRecord
  2
*PAPER_SPACE
340
ACDD
  0
BLOCK_RECORD
  5
3B2
330
1
100
AcDbSymbolTableRecord
100
AcDbBlockTableRecord
  2
_OPEN
340
0
102
{BLKREFS
331
ABBC
331
ABBD
331
ABB3
331
ABB4
331
AC23
331
AC24
331
AC35
331
AC36
331
ABEB
331
ABEC
331
AC1A
331
AC1B
331
AC2C
331
AC2D
331
ABFE
331
ABFF
331
ABF4
331
ABF5
331
ABE2
331
ABE3
331
AC07
331
AC08
331
AC10
331
AC11
331
AB6B
331
AB6C
331
AB45
331
AB46
331
AB4E
331
AB4F
331
AAC4
331
AAC5
331
AABB
331
AABC
331
AB74
331
AB75
331
AA67
331
AA68
331
ACC0
331
ACC1
331
ACC9
331
ACCA
331
ACD3
331
ACD4
331
AB18
331
AB19
331
A6A5
331
A6A6
331
A6B2
331
A6B3
331
AB29
331
AB2A
331
AC3D
331
AB3C
331
AC8B
331
AC8C
102
}
  0
BLOCK_RECORD
  5
A0C0
330
1
100
AcDbSymbolTableRecord
100
AcDbBlockTableRecord
  2
*D1
340
0
  0
BLOCK_RECORD
  5
A0CC
330
1
100
AcDbSymbolTableRecord
100
AcDbBlockTableRecord
  2
*D2
340
0
  0
BLOCK_RECORD
  5
A346
330
1
100
AcDbSymbolTableRecord
100
AcDbBlockTableRecord
  2
*D3
340
0
  0
BLOCK_RECORD
  5
A352
330
1
100
AcDbSymbolTableRecord
100
AcDbBlockTableRecord
  2
*D4
340
0
  0
BLOCK_RECORD
  5
A35E
330
1
100
AcDbSymbolTableRecord
100
AcDbBlockTableRecord
  2
*D5
340
0
  0
BLOCK_RECORD
  5
A36A
330
1
100
AcDbSymbolTableRecord
100
AcDbBlockTableRecord
  2
*D6
340
0
  0
BLOCK_RECORD
  5
A377
330
1
100
AcDbSymbolTableRecord
100
AcDbBlockTableRecord
  2
*D7
340
0
  0
BLOCK_RECORD
  5
A383
330
1
100
AcDbSymbolTableRecord
100
AcDbBlockTableRecord
  2
*D8
340
0
  0
BLOCK_RECORD
  5
A38F
330
1
100
AcDbSymbolTableRecord
100
AcDbBlockTableRecord
  2
*D9
340
0
  0
BLOCK_RECORD
  5
A39B
330
1
100
AcDbSymbolTableRecord
100
AcDbBlockTableRecord
  2
*D10
340
0
  0
BLOCK_RECORD
  5
A3A7
330
1
100
AcDbSymbolTableRecord
100
AcDbBlockTableRecord
  2
*D11
340
0
  0
BLOCK_RECORD
  5
A3B3
330
1
100
AcDbSymbolTableRecord
100
AcDbBlockTableRecord
  2
*D12
340
0
  0
BLOCK_RECORD
  5
A4EE
330
1
100
AcDbSymbolTableRecord
100
AcDbBlockTableRecord
  2
*D13
340
0
  0
BLOCK_RECORD
  5
A4FA
330
1
100
AcDbSymbolTableRecord
100
AcDbBlockTableRecord
  2
*D14
340
0
  0
BLOCK_RECORD
  5
A506
330
1
100
AcDbSymbolTableRecord
100
AcDbBlockTableRecord
  2
*D15
340
0
  0
BLOCK_RECORD
  5
A512
330
1
100
AcDbSymbolTableRecord
100
AcDbBlockTableRecord
  2
*D16
340
0
  0
BLOCK_RECORD
  5
A51E
330
1
100
AcDbSymbolTableRecord
100
AcDbBlockTableRecord
  2
*D17
340
0
  0
BLOCK_RECORD
  5
A52A
330
1
100
AcDbSymbolTableRecord
100
AcDbBlockTableRecord
  2
*D18
340
0
  0
BLOCK_RECORD
  5
A60B
330
1
100
AcDbSymbolTableRecord
100
AcDbBlockTableRecord
  2
*D19
340
0
  0
BLOCK_RECORD
  5
A623
330
1
100
AcDbSymbolTableRecord
100
AcDbBlockTableRecord
  2
*D20
340
0
  0
BLOCK_RECORD
  5
A63B
330
1
100
AcDbSymbolTableRecord
100
AcDbBlockTableRecord
  2
*D21
340
0
  0
BLOCK_RECORD
  5
A647
330
1
100
AcDbSymbolTableRecord
100
AcDbBlockTableRecord
  2
*D22
340
0
  0
BLOCK_RECORD
  5
A653
330
1
100
AcDbSymbolTableRecord
100
AcDbBlockTableRecord
  2
*D23
340
0
  0
BLOCK_RECORD
  5
A6A1
330
1
100
AcDbSymbolTableRecord
100
AcDbBlockTableRecord
  2
*D24
340
0
  0
BLOCK_RECORD
  5
A6AE
330
1
100
AcDbSymbolTableRecord
100
AcDbBlockTableRecord
  2
*D25
340
0
  0
BLOCK_RECORD
  5
A6BB
330
1
100
AcDbSymbolTableRecord
100
AcDbBlockTableRecord
  2
*D26
340
0
  0
BLOCK_RECORD
  5
A78A
330
1
100
AcDbSymbolTableRecord
100
AcDbBlockTableRecord
  2
*D27
340
0
  0
BLOCK_RECORD
  5
AB30
330
1
100
AcDbSymbolTableRecord
100
AcDbBlockTableRecord
  2
*D28
340
0
  0
BLOCK_RECORD
  5
AC58
330
1
100
AcDbSymbolTableRecord
100
AcDbBlockTableRecord
  2
*D29
340
0
  0
ENDTAB
  0
ENDSEC
  0
SECTION
  2
BLOCKS
  0
BLOCK
  5
1F
330
1E
100
AcDbEntity
  8
0
100
AcDbBlockBegin
  2
*MODEL_SPACE
 70
     0
 10
0.0
 20
0.0
 30
0.0
  3
*MODEL_SPACE
  1

  0
ENDBLK
  5
20
330
1E
100
AcDbEntity
  8
0
100
AcDbBlockEnd
  0
BLOCK
  5
1B
330
1A
100
AcDbEntity
 67
     1
  8
0
100
AcDbBlockBegin
  2
*PAPER_SPACE
 70
     0
 10
0.0
 20
0.0
 30
0.0
  3
*PAPER_SPACE
  1

  0
ENDBLK
  5
1C
330
1A
100
AcDbEntity
 67
     1
  8
0
100
AcDbBlockEnd
  0
BLOCK
  5
3B6
330
3B2
100
AcDbEntity
  8
0
100
AcDbBlockBegin
  2
_OPEN
 70
     0
 10
0.0
 20
0.0
 30
0.0
  3
_OPEN
  1

  0
LINE
  5
3B3
330
3B2
100
AcDbEntity
  8
30
  6
Continuous
 62
     0
100
AcDbLine
 10
-1.0
 20
0.1666666666666666
 30
0.0
 11
0.0
 21
0.0
 31
0.0
  0
LINE
  5
3B4
330
3B2
100
AcDbEntity
  8
30
  6
Continuous
 62
     0
100
AcDbLine
 10
-1.0
 20
-0.1666666666666666
 30
0.0
 11
0.0
 21
0.0
 31
0.0
  0
LINE
  5
3B5
330
3B2
100
AcDbEntity
  8
30
  6
Continuous
 62
     0
100
AcDbLine
 10
0.0
 20
0.0
 30
0.0
 11
-1.0
 21
0.0
 31
0.0
  0
ENDBLK
  5
3B7
330
3B2
100
AcDbEntity
  8
0
100
AcDbBlockEnd
  0
BLOCK
  5
A0CA
330
A0C0
100
AcDbEntity
  8
0
100
AcDbBlockBegin
  2
*D1
 70
     1
 10
0.0
 20
0.0
 30
0.0
  3
*D1
  1

  0
LINE
  5
ABB9
330
A0C0
100
AcDbEntity
  8
30
  6
Continuous
 62
     0
100
AcDbLine
 10
572.7496408047061
 20
-1138.09365844727
 30
0.0
 11
572.7496408047061
 21
-1213.625061035159
 31
0.0
  0
LINE
  5
ABBA
330
A0C0
100
AcDbEntity
  8
30
  6
Continuous
 62
     0
100
AcDbLine
 10
922.7496408047059
 20
-1138.09365844727
 30
0.0
 11
922.7496408047059
 21
-1213.625061035159
 31
0.0
  0
LINE
  5
ABBB
330
A0C0
100
AcDbEntity
  8
30
  6
Continuous
 62
     0
100
AcDbLine
 10
577.7496408047061
 20
-1213.12506103516
 30
0.0
 11
917.749640804706
 21
-1213.12506103516
 31
0.0
  0
INSERT
  5
ABBC
330
A0C0
100
AcDbEntity
  8
30
  6
Continuous
 62
     0
100
AcDbBlockReference
  2
_OPEN
 10
572.7496408047061
 20
-1213.12506103516
 30
0.0
 41
5.0
 42
5.0
 43
5.0
 50
180.0
  0
INSERT
  5
ABBD
330
A0C0
100
AcDbEntity
  8
30
  6
Continuous
 62
     0
100
AcDbBlockReference
  2
_OPEN
 10
922.7496408047059
 20
-1213.12506103516
 30
0.0
 41
5.0
 42
5.0
 43
5.0
  0
MTEXT
  5
ABBE
330
A0C0
100
AcDbEntity
  8
30
  6
Continuous
 62
     0
100
AcDbMText
 10
747.7496408047061
 20
-1205.12506103516
 30
0.0
 40
10.0
 41
0.0
 71
     5
 72
     1
  1
\A1;350
 73
     1
 44
1.0
1001
ACAD
1000
MTEXTBEGIN
1070
    73
1070
     1
1070
    44
1040
1.0
1070
    74
1070
     0
1000
MTEXTEND
  0
POINT
  5
ABBF
330
A0C0
100
AcDbEntity
  8
DEFPOINTS
  6
Continuous
 62
     0
100
AcDbPoint
 10
572.7496408047061
 20
-1133.093658447269
 30
0.0
  0
POINT
  5
ABC0
330
A0C0
100
AcDbEntity
  8
DEFPOINTS
  6
Continuous
 62
     0
100
AcDbPoint
 10
922.7496408047059
 20
-1133.093658447269
 30
0.0
  0
POINT
  5
ABC1
330
A0C0
100
AcDbEntity
  8
DEFPOINTS
  6
Continuous
 62
     0
100
AcDbPoint
 10
922.7496408047059
 20
-1213.12506103516
 30
0.0
  0
ENDBLK
  5
A0CB
330
A0C0
100
AcDbEntity
  8
0
100
AcDbBlockEnd
  0
BLOCK
  5
A0D6
330
A0CC
100
AcDbEntity
  8
0
100
AcDbBlockBegin
  2
*D2
 70
     1
 10
0.0
 20
0.0
 30
0.0
  3
*D2
  1

  0
LINE
  5
ABB0
330
A0CC
100
AcDbEntity
  8
30
  6
Continuous
 62
     0
100
AcDbLine
 10
918.8431466641061
 20
-667.0000305175798
 30
0.0
 11
1020.423468986688
 21
-667.0000305175798
 31
0.0
  0
LINE
  5
ABB1
330
A0CC
100
AcDbEntity
  8
30
  6
Continuous
 62
     0
100
AcDbLine
 10
918.8431466641061
 20
-1133.000061035159
 30
0.0
 11
1020.423468986688
 21
-1133.000061035159
 31
0.0
  0
LINE
  5
ABB2
330
A0CC
100
AcDbEntity
  8
30
  6
Continuous
 62
     0
100
AcDbLine
 10
1019.923468986687
 20
-672.0000305175798
 30
0.0
 11
1019.923468986687
 21
-1128.000061035159
 31
0.0
  0
INSERT
  5
ABB3
330
A0CC
100
AcDbEntity
  8
30
  6
Continuous
 62
     0
100
AcDbBlockReference
  2
_OPEN
 10
1019.923468986687
 20
-667.0000305175798
 30
0.0
 41
5.0
 42
5.0
 43
5.0
 50
90.0
  0
INSERT
  5
ABB4
330
A0CC
100
AcDbEntity
  8
30
  6
Continuous
 62
     0
100
AcDbBlockReference
  2
_OPEN
 10
1019.923468986687
 20
-1133.000061035159
 30
0.0
 41
5.0
 42
5.0
 43
5.0
 50
270.0
  0
MTEXT
  5
ABB5
330
A0CC
100
AcDbEntity
  8
30
  6
Continuous
 62
     0
100
AcDbMText
 10
1011.923468986687
 20
-917.9598893966627
 30
0.0
 40
10.0
 41
0.0
 71
     5
 72
     1
  1
\A1;466
 11
0.0000000000000001
 21
1.0
 31
0.0
 73
     1
 44
1.0
1001
ACAD
1000
MTEXTBEGIN
1070
    73
1070
     1
1070
    44
1040
1.0
1070
    74
1070
     0
1000
MTEXTEND
  0
POINT
  5
ABB6
330
A0CC
100
AcDbEntity
  8
DEFPOINTS
  6
Continuous
 62
     0
100
AcDbPoint
 10
913.8431466641062
 20
-667.0000305175798
 30
0.0
  0
POINT
  5
ABB7
330
A0CC
100
AcDbEntity
  8
DEFPOINTS
  6
Continuous
 62
     0
100
AcDbPoint
 10
913.8431466641062
 20
-1133.000061035159
 30
0.0
  0
POINT
  5
ABB8
330
A0CC
100
AcDbEntity
  8
DEFPOINTS
  6
Continuous
 62
     0
100
AcDbPoint
 10
1019.923468986687
 20
-1133.000061035159
 30
0.0
  0
ENDBLK
  5
A0D7
330
A0CC
100
AcDbEntity
  8
0
100
AcDbBlockEnd
  0
BLOCK
  5
A350
330
A346
100
AcDbEntity
  8
0
100
AcDbBlockBegin
  2
*D3
 70
     1
 10
0.0
 20
0.0
 30
0.0
  3
*D3
  1

  0
LINE
  5
AC20
330
A346
100
AcDbEntity
  8
30
  6
Continuous
 62
     0
100
AcDbLine
 10
873.587542618692
 20
-127.50003051758
 30
0.0
 11
958.3642760951255
 21
-127.50003051758
 31
0.0
  0
LINE
  5
AC21
330
A346
100
AcDbEntity
  8
30
  6
Continuous
 62
     0
100
AcDbLine
 10
873.587542618692
 20
-192.50003051758
 30
0.0
 11
958.3642760951255
 21
-192.50003051758
 31
0.0
  0
LINE
  5
AC22
330
A346
100
AcDbEntity
  8
30
  6
Continuous
 62
     0
100
AcDbLine
 10
957.8642760951256
 20
-132.50003051758
 30
0.0
 11
957.8642760951256
 21
-187.50003051758
 31
0.0
  0
INSERT
  5
AC23
330
A346
100
AcDbEntity
  8
30
  6
Continuous
 62
     0
100
AcDbBlockReference
  2
_OPEN
 10
957.8642760951256
 20
-127.50003051758
 30
0.0
 41
5.0
 42
5.0
 43
5.0
 50
90.0
  0
INSERT
  5
AC24
330
A346
100
AcDbEntity
  8
30
  6
Continuous
 62
     0
100
AcDbBlockReference
  2
_OPEN
 10
957.8642760951256
 20
-192.50003051758
 30
0.0
 41
5.0
 42
5.0
 43
5.0
 50
270.0
  0
MTEXT
  5
AC25
330
A346
100
AcDbEntity
  8
30
  6
Continuous
 62
     0
100
AcDbMText
 10
949.8642760951256
 20
-161.7838150389895
 30
0.0
 40
10.0
 41
0.0
 71
     5
 72
     1
  1
\A1;65
 11
0.0000000000000001
 21
1.0
 31
0.0
 73
     1
 44
1.0
1001
ACAD
1000
MTEXTBEGIN
1070
    73
1070
     1
1070
    44
1040
1.0
1070
    74
1070
     0
1000
MTEXTEND
  0
POINT
  5
AC26
330
A346
100
AcDbEntity
  8
DEFPOINTS
  6
Continuous
 62
     0
100
AcDbPoint
 10
868.5875426186917
 20
-127.50003051758
 30
0.0
  0
POINT
  5
AC27
330
A346
100
AcDbEntity
  8
DEFPOINTS
  6
Continuous
 62
     0
100
AcDbPoint
 10
868.5875426186917
 20
-192.50003051758
 30
0.0
  0
POINT
  5
AC28
330
A346
100
AcDbEntity
  8
DEFPOINTS
  6
Continuous
 62
     0
100
AcDbPoint
 10
957.8642760951256
 20
-192.50003051758
 30
0.0
  0
ENDBLK
  5
A351
330
A346
100
AcDbEntity
  8
0
100
AcDbBlockEnd
  0
BLOCK
  5
A35C
330
A352
100
AcDbEntity
  8
0
100
AcDbBlockBegin
  2
*D4
 70
     1
 10
0.0
 20
0.0
 30
0.0
  3
*D4
  1

  0
LINE
  5
AC32
330
A352
100
AcDbEntity
  8
30
  6
Continuous
 62
     0
100
AcDbLine
 10
743.6107359780918
 20
32.00003051758
 30
0.0
 11
1006.287738009123
 21
32.00003051757993
 31
0.0
  0
LINE
  5
AC33
330
A352
100
AcDbEntity
  8
30
  6
Continuous
 62
     0
100
AcDbLine
 10
743.5627623452918
 20
95.00000000000005
 30
0.0
 11
1006.287738009123
 21
94.99999999999998
 31
0.0
  0
LINE
  5
AC34
330
A352
100
AcDbEntity
  8
30
  6
Continuous
 62
     0
100
AcDbLine
 10
1005.787738009122
 20
37.00003051757993
 30
0.0
 11
1005.787738009122
 21
89.99999999999998
 31
0.0
  0
INSERT
  5
AC35
330
A352
100
AcDbEntity
  8
30
  6
Continuous
 62
     0
100
AcDbBlockReference
  2
_OPEN
 10
1005.787738009122
 20
32.00003051757993
 30
0.0
 41
5.0
 42
5.0
 43
5.0
 50
270.0
  0
INSERT
  5
AC36
330
A352
100
AcDbEntity
  8
30
  6
Continuous
 62
     0
100
AcDbBlockReference
  2
_OPEN
 10
1005.787738009122
 20
94.99999999999998
 30
0.0
 41
5.0
 42
5.0
 43
5.0
 50
90.0
  0
MTEXT
  5
AC37
330
A352
100
AcDbEntity
  8
30
  6
Continuous
 62
     0
100
AcDbMText
 10
997.7877380091237
 20
61.71624599616057
 30
0.0
 40
10.0
 41
0.0
 71
     5
 72
     1
  1
\A1;63
 11
0.0000000000000001
 21
1.0
 31
0.0
 73
     1
 44
1.0
1001
ACAD
1000
MTEXTBEGIN
1070
    73
1070
     1
1070
    44
1040
1.0
1070
    74
1070
     0
1000
MTEXTEND
  0
POINT
  5
AC38
330
A352
100
AcDbEntity
  8
DEFPOINTS
  6
Continuous
 62
     0
100
AcDbPoint
 10
738.6107359780918
 20
32.00003051758
 30
0.0
  0
POINT
  5
AC39
330
A352
100
AcDbEntity
  8
DEFPOINTS
  6
Continuous
 62
     0
100
AcDbPoint
 10
738.5627623452919
 20
95.00000000000005
 30
0.0
  0
POINT
  5
AC3A
330
A352
100
AcDbEntity
  8
DEFPOINTS
  6
Continuous
 62
     0
100
AcDbPoint
 10
1005.787738009122
 20
94.99999999999998
 30
0.0
  0
ENDBLK
  5
A35D
330
A352
100
AcDbEntity
  8
0
100
AcDbBlockEnd
  0
BLOCK
  5
A368
330
A35E
100
AcDbEntity
  8
0
100
AcDbBlockBegin
  2
*D5
 70
     1
 10
0.0
 20
0.0
 30
0.0
  3
*D5
  1

  0
LINE
  5
ABE8
330
A35E
100
AcDbEntity
  8
30
  6
Continuous
 62
     0
100
AcDbLine
 10
743.6107359780918
 20
32.00003051758
 30
0.0
 11
1006.287738027774
 21
32.00003051757993
 31
0.0
  0
LINE
  5
ABE9
330
A35E
100
AcDbEntity
  8
30
  6
Continuous
 62
     0
100
AcDbLine
 10
734.9618101967918
 20
-160.00003051758
 30
0.0
 11
1006.287738027774
 21
-160.00003051758
 31
0.0
  0
LINE
  5
ABEA
330
A35E
100
AcDbEntity
  8
30
  6
Continuous
 62
     0
100
AcDbLine
 10
1005.787738027774
 20
27.00003051757992
 30
0.0
 11
1005.787738027774
 21
-155.00003051758
 31
0.0
  0
INSERT
  5
ABEB
330
A35E
100
AcDbEntity
  8
30
  6
Continuous
 62
     0
100
AcDbBlockReference
  2
_OPEN
 10
1005.787738027774
 20
32.00003051757993
 30
0.0
 41
5.0
 42
5.0
 43
5.0
 50
90.0
  0
INSERT
  5
ABEC
330
A35E
100
AcDbEntity
  8
30
  6
Continuous
 62
     0
100
AcDbBlockReference
  2
_OPEN
 10
1005.787738027774
 20
-160.00003051758
 30
0.0
 41
5.0
 42
5.0
 43
5.0
 50
270.0
  0
MTEXT
  5
ABED
330
A35E
100
AcDbEntity
  8
30
  6
Continuous
 62
     0
100
AcDbMText
 10
997.7877380277746
 20
-66.2105270534252
 30
0.0
 40
10.0
 41
0.0
 71
     5
 72
     1
  1
\A1;192
 11
0.0000000000000001
 21
1.0
 31
0.0
 73
     1
 44
1.0
1001
ACAD
1000
MTEXTBEGIN
1070
    73
1070
     1
1070
    44
1040
1.0
1070
    74
1070
     0
1000
MTEXTEND
  0
POINT
  5
ABEE
330
A35E
100
AcDbEntity
  8
DEFPOINTS
  6
Continuous
 62
     0
100
AcDbPoint
 10
738.6107359780918
 20
32.00003051758
 30
0.0
  0
POINT
  5
ABEF
330
A35E
100
AcDbEntity
  8
DEFPOINTS
  6
Continuous
 62
     0
100
AcDbPoint
 10
729.9618101967918
 20
-160.00003051758
 30
0.0
  0
POINT
  5
ABF0
330
A35E
100
AcDbEntity
  8
DEFPOINTS
  6
Continuous
 62
     0
100
AcDbPoint
 10
1005.787738027774
 20
-160.00003051758
 30
0.0
  0
ENDBLK
  5
A369
330
A35E
100
AcDbEntity
  8
0
100
AcDbBlockEnd
  0
BLOCK
  5
A375
330
A36A
100
AcDbEntity
  8
0
100
AcDbBlockBegin
  2
*D6
 70
     1
 10
0.0
 20
0.0
 30
0.0
  3
*D6
  1

  0
LINE
  5
AC16
330
A36A
100
AcDbEntity
  8
30
  6
Continuous
 62
     0
100
AcDbLine
 10
862.493914688992
 20
-180.0936279296899
 30
0.0
 11
862.493914688992
 21
-302.8126754760748
 31
0.0
  0
LINE
  5
AC17
330
A36A
100
AcDbEntity
  8
30
  6
Continuous
 62
     0
100
AcDbLine
 10
877.4939146889916
 20
-197.5936279296899
 30
0.0
 11
877.4939146889916
 21
-302.8126754760748
 31
0.0
  0
LINE
  5
AC18
330
A36A
100
AcDbEntity
  8
30
  6
Continuous
 62
     0
100
AcDbLine
 10
857.4939146889917
 20
-302.3126754760748
 30
0.0
 11
852.4939146889916
 21
-302.3126754760748
 31
0.0
  0
LINE
  5
AC19
330
A36A
100
AcDbEntity
  8
30
  6
Continuous
 62
     0
100
AcDbLine
 10
882.4939146889917
 20
-302.3126754760748
 30
0.0
 11
906.8272480223253
 21
-302.3126754760748
 31
0.0
  0
INSERT
  5
AC1A
330
A36A
100
AcDbEntity
  8
30
  6
Continuous
 62
     0
100
AcDbBlockReference
  2
_OPEN
 10
862.493914688992
 20
-302.3126754760748
 30
0.0
 41
5.0
 42
5.0
 43
5.0
  0
INSERT
  5
AC1B
330
A36A
100
AcDbEntity
  8
30
  6
Continuous
 62
     0
100
AcDbBlockReference
  2
_OPEN
 10
877.4939146889916
 20
-302.3126754760748
 30
0.0
 41
5.0
 42
5.0
 43
5.0
 50
180.0
  0
MTEXT
  5
AC1C
330
A36A
100
AcDbEntity
  8
30
  6
Continuous
 62
     0
100
AcDbMText
 10
897.1605813556585
 20
-294.3126754760748
 30
0.0
 40
10.0
 41
0.0
 71
     5
 72
     1
  1
\A1;15
 73
     1
 44
1.0
1001
ACAD
1000
MTEXTBEGIN
1070
    73
1070
     1
1070
    44
1040
1.0
1070
    74
1070
     0
1000
MTEXTEND
  0
POINT
  5
AC1D
330
A36A
100
AcDbEntity
  8
DEFPOINTS
  6
Continuous
 62
     0
100
AcDbPoint
 10
862.493914688992
 20
-175.0936279296899
 30
0.0
  0
POINT
  5
AC1E
330
A36A
100
AcDbEntity
  8
DEFPOINTS
  6
Continuous
 62
     0
100
AcDbPoint
 10
877.4939146889916
 20
-192.5936279296899
 30
0.0
  0
POINT
  5
AC1F
330
A36A
100
AcDbEntity
  8
DEFPOINTS
  6
Continuous
 62
     0
100
AcDbPoint
 10
877.4939146889916
 20
-302.3126754760748
 30
0.0
  0
ENDBLK
  5
A376
330
A36A
100
AcDbEntity
  8
0
100
AcDbBlockEnd
  0
BLOCK
  5
A381
330
A377
100
AcDbEntity
  8
0
100
AcDbBlockBegin
  2
*D7
 70
     1
 10
0.0
 20
0.0
 30
0.0
  3
*D7
  1

  0
LINE
  5
AC29
330
A377
100
AcDbEntity
  8
30
  6
Continuous
 62
     0
100
AcDbLine
 10
832.4939146889917
 20
-180.0936279296899
 30
0.0
 11
832.4939146889917
 21
-302.8126754760775
 31
0.0
  0
LINE
  5
AC2A
330
A377
100
AcDbEntity
  8
30
  6
Continuous
 62
     0
100
AcDbLine
 10
862.493914688992
 20
-180.0936279296899
 30
0.0
 11
862.493914688992
 21
-302.8126754760775
 31
0.0
  0
LINE
  5
AC2B
330
A377
100
AcDbEntity
  8
30
  6
Continuous
 62
     0
100
AcDbLine
 10
837.493914688992
 20
-302.3126754760775
 30
0.0
 11
857.4939146889917
 21
-302.3126754760775
 31
0.0
  0
INSERT
  5
AC2C
330
A377
100
AcDbEntity
  8
30
  6
Continuous
 62
     0
100
AcDbBlockReference
  2
_OPEN
 10
832.4939146889917
 20
-302.3126754760775
 30
0.0
 41
5.0
 42
5.0
 43
5.0
 50
180.0
  0
INSERT
  5
AC2D
330
A377
100
AcDbEntity
  8
30
  6
Continuous
 62
     0
100
AcDbBlockReference
  2
_OPEN
 10
862.493914688992
 20
-302.3126754760775
 30
0.0
 41
5.0
 42
5.0
 43
5.0
  0
MTEXT
  5
AC2E
330
A377
100
AcDbEntity
  8
30
  6
Continuous
 62
     0
100
AcDbMText
 10
848.7058815386554
 20
-294.3126754760775
 30
0.0
 40
10.0
 41
0.0
 71
     5
 72
     1
  1
\A1;30
 73
     1
 44
1.0
1001
ACAD
1000
MTEXTBEGIN
1070
    73
1070
     1
1070
    44
1040
1.0
1070
    74
1070
     0
1000
MTEXTEND
  0
POINT
  5
AC2F
330
A377
100
AcDbEntity
  8
DEFPOINTS
  6
Continuous
 62
     0
100
AcDbPoint
 10
832.4939146889917
 20
-175.0936279296899
 30
0.0
  0
POINT
  5
AC30
330
A377
100
AcDbEntity
  8
DEFPOINTS
  6
Continuous
 62
     0
100
AcDbPoint
 10
862.493914688992
 20
-175.0936279296899
 30
0.0
  0
POINT
  5
AC31
330
A377
100
AcDbEntity
  8
DEFPOINTS
  6
Continuous
 62
     0
100
AcDbPoint
 10
862.493914688992
 20
-302.3126754760775
 30
0.0
  0
ENDBLK
  5
A382
330
A377
100
AcDbEntity
  8
0
100
AcDbBlockEnd
  0
BLOCK
  5
A38D
330
A383
100
AcDbEntity
  8
0
100
AcDbBlockBegin
  2
*D8
 70
     1
 10
0.0
 20
0.0
 30
0.0
  3
*D8
  1

  0
LINE
  5
ABFA
330
A383
100
AcDbEntity
  8
30
  6
Continuous
 62
     0
100
AcDbLine
 10
577.4939146889918
 20
-302.3021240234398
 30
0.0
 11
577.4939146889918
 21
-302.8126754760748
 31
0.0
  0
LINE
  5
ABFB
330
A383
100
AcDbEntity
  8
30
  6
Continuous
 62
     0
100
AcDbLine
 10
558.9939146889918
 20
-213.0936279296899
 30
0.0
 11
558.9939146889918
 21
-302.8126754760748
 31
0.0
  0
LINE
  5
ABFC
330
A383
100
AcDbEntity
  8
30
  6
Continuous
 62
     0
100
AcDbLine
 10
572.4939146889918
 20
-302.3126754760748
 30
0.0
 11
563.9939146889918
 21
-302.3126754760748
 31
0.0
  0
LINE
  5
ABFD
330
A383
100
AcDbEntity
  8
30
  6
Continuous
 62
     0
100
AcDbLine
 10
558.9939146889918
 20
-302.3126754760748
 30
0.0
 11
521.3272480223253
 21
-302.3126754760748
 31
0.0
  0
INSERT
  5
ABFE
330
A383
100
AcDbEntity
  8
30
  6
Continuous
 62
     0
100
AcDbBlockReference
  2
_OPEN
 10
577.4939146889918
 20
-302.3126754760748
 30
0.0
 41
5.0
 42
5.0
 43
5.0
  0
INSERT
  5
ABFF
330
A383
100
AcDbEntity
  8
30
  6
Continuous
 62
     0
100
AcDbBlockReference
  2
_OPEN
 10
558.9939146889918
 20
-302.3126754760748
 30
0.0
 41
5.0
 42
5.0
 43
5.0
 50
180.0
  0
MTEXT
  5
AC00
330
A383
100
AcDbEntity
  8
30
  6
Continuous
 62
     0
100
AcDbMText
 10
537.6605813556587
 20
-294.3126754760748
 30
0.0
 40
10.0
 41
0.0
 71
     5
 72
     1
  1
\A1;18.5
 73
     1
 44
1.0
1001
ACAD
1000
MTEXTBEGIN
1070
    73
1070
     1
1070
    44
1040
1.0
1070
    74
1070
     0
1000
MTEXTEND
  0
POINT
  5
AC01
330
A383
100
AcDbEntity
  8
DEFPOINTS
  6
Continuous
 62
     0
100
AcDbPoint
 10
577.4939146889918
 20
-297.30212402344
 30
0.0
  0
POINT
  5
AC02
330
A383
100
AcDbEntity
  8
DEFPOINTS
  6
Continuous
 62
     0
100
AcDbPoint
 10
558.9939146889918
 20
-208.0936279296899
 30
0.0
  0
POINT
  5
AC03
330
A383
100
AcDbEntity
  8
DEFPOINTS
  6
Continuous
 62
     0
100
AcDbPoint
 10
558.9939146889918
 20
-302.3126754760748
 30
0.0
  0
ENDBLK
  5
A38E
330
A383
100
AcDbEntity
  8
0
100
AcDbBlockEnd
  0
BLOCK
  5
A399
330
A38F
100
AcDbEntity
  8
0
100
AcDbBlockBegin
  2
*D9
 70
     1
 10
0.0
 20
0.0
 30
0.0
  3
*D9
  1

  0
LINE
  5
ABF1
330
A38F
100
AcDbEntity
  8
30
  6
Continuous
 62
     0
100
AcDbLine
 10
747.4939146889918
 20
-197.5936279296899
 30
0.0
 11
747.4939146889918
 21
-345.84714126587
 31
0.0
  0
LINE
  5
ABF2
330
A38F
100
AcDbEntity
  8
30
  6
Continuous
 62
     0
100
AcDbLine
 10
877.4939146889916
 20
-197.5936279296899
 30
0.0
 11
877.4939146889916
 21
-345.84714126587
 31
0.0
  0
LINE
  5
ABF3
330
A38F
100
AcDbEntity
  8
30
  6
Continuous
 62
     0
100
AcDbLine
 10
752.4939146889918
 20
-345.34714126587
 30
0.0
 11
872.4939146889918
 21
-345.34714126587
 31
0.0
  0
INSERT
  5
ABF4
330
A38F
100
AcDbEntity
  8
30
  6
Continuous
 62
     0
100
AcDbBlockReference
  2
_OPEN
 10
747.4939146889918
 20
-345.34714126587
 30
0.0
 41
5.0
 42
5.0
 43
5.0
 50
180.0
  0
INSERT
  5
ABF5
330
A38F
100
AcDbEntity
  8
30
  6
Continuous
 62
     0
100
AcDbBlockReference
  2
_OPEN
 10
877.4939146889916
 20
-345.34714126587
 30
0.0
 41
5.0
 42
5.0
 43
5.0
  0
MTEXT
  5
ABF6
330
A38F
100
AcDbEntity
  8
30
  6
Continuous
 62
     0
100
AcDbMText
 10
816.5331763563814
 20
-337.3471412658699
 30
0.0
 40
10.0
 41
0.0
 71
     5
 72
     1
  1
\A1;130
 73
     1
 44
1.0
1001
ACAD
1000
MTEXTBEGIN
1070
    73
1070
     1
1070
    44
1040
1.0
1070
    74
1070
     0
1000
MTEXTEND
  0
POINT
  5
ABF7
330
A38F
100
AcDbEntity
  8
DEFPOINTS
  6
Continuous
 62
     0
100
AcDbPoint
 10
747.4939146889918
 20
-192.5936279296899
 30
0.0
  0
POINT
  5
ABF8
330
A38F
100
AcDbEntity
  8
DEFPOINTS
  6
Continuous
 62
     0
100
AcDbPoint
 10
877.4939146889916
 20
-192.5936279296899
 30
0.0
  0
POINT
  5
ABF9
330
A38F
100
AcDbEntity
  8
DEFPOINTS
  6
Continuous
 62
     0
100
AcDbPoint
 10
877.4939146889916
 20
-345.34714126587
 30
0.0
  0
ENDBLK
  5
A39A
330
A38F
100
AcDbEntity
  8
0
100
AcDbBlockEnd
  0
BLOCK
  5
A3A5
330
A39B
100
AcDbEntity
  8
0
100
AcDbBlockBegin
  2
*D10
 70
     1
 10
0.0
 20
0.0
 30
0.0
  3
*D10
  1

  0
LINE
  5
ABDF
330
A39B
100
AcDbEntity
  8
30
  6
Continuous
 62
     0
100
AcDbLine
 10
577.4939146889918
 20
-302.3021240234398
 30
0.0
 11
577.4939146889918
 21
-345.8471412658726
 31
0.0
  0
LINE
  5
ABE0
330
A39B
100
AcDbEntity
  8
30
  6
Continuous
 62
     0
100
AcDbLine
 10
502.4937926186918
 20
-3.093627929690056
 30
0.0
 11
502.4937926186918
 21
-345.8471412658726
 31
0.0
  0
LINE
  5
ABE1
330
A39B
100
AcDbEntity
  8
30
  6
Continuous
 62
     0
100
AcDbLine
 10
572.4939146889918
 20
-345.3471412658726
 30
0.0
 11
507.4937926186918
 21
-345.3471412658726
 31
0.0
  0
INSERT
  5
ABE2
330
A39B
100
AcDbEntity
  8
30
  6
Continuous
 62
     0
100
AcDbBlockReference
  2
_OPEN
 10
577.4939146889918
 20
-345.3471412658726
 30
0.0
 41
5.0
 42
5.0
 43
5.0
  0
INSERT
  5
ABE3
330
A39B
100
AcDbEntity
  8
30
  6
Continuous
 62
     0
100
AcDbBlockReference
  2
_OPEN
 10
502.4937926186918
 20
-345.3471412658726
 30
0.0
 41
5.0
 42
5.0
 43
5.0
 50
180.0
  0
MTEXT
  5
ABE4
330
A39B
100
AcDbEntity
  8
30
  6
Continuous
 62
     0
100
AcDbMText
 10
543.5828346636554
 20
-337.3471412658726
 30
0.0
 40
10.0
 41
0.0
 71
     5
 72
     1
  1
\A1;75
 73
     1
 44
1.0
1001
ACAD
1000
MTEXTBEGIN
1070
    73
1070
     1
1070
    44
1040
1.0
1070
    74
1070
     0
1000
MTEXTEND
  0
POINT
  5
ABE5
330
A39B
100
AcDbEntity
  8
DEFPOINTS
  6
Continuous
 62
     0
100
AcDbPoint
 10
577.4939146889918
 20
-297.30212402344
 30
0.0
  0
POINT
  5
ABE6
330
A39B
100
AcDbEntity
  8
DEFPOINTS
  6
Continuous
 62
     0
100
AcDbPoint
 10
502.4937926186918
 20
1.906372070309941
 30
0.0
  0
POINT
  5
ABE7
330
A39B
100
AcDbEntity
  8
DEFPOINTS
  6
Continuous
 62
     0
100
AcDbPoint
 10
502.4937926186918
 20
-345.3471412658726
 30
0.0
  0
ENDBLK
  5
A3A6
330
A39B
100
AcDbEntity
  8
0
100
AcDbBlockEnd
  0
BLOCK
  5
A3B1
330
A3A7
100
AcDbEntity
  8
0
100
AcDbBlockBegin
  2
*D11
 70
     1
 10
0.0
 20
0.0
 30
0.0
  3
*D11
  1

  0
LINE
  5
AC04
330
A3A7
100
AcDbEntity
  8
30
  6
Continuous
 62
     0
100
AcDbLine
 10
577.4939146889918
 20
-302.3021240234398
 30
0.0
 11
577.4939146889918
 21
-345.84714126587
 31
0.0
  0
LINE
  5
AC05
330
A3A7
100
AcDbEntity
  8
30
  6
Continuous
 62
     0
100
AcDbLine
 10
747.4939146889918
 20
-197.5936279296899
 30
0.0
 11
747.4939146889918
 21
-345.84714126587
 31
0.0
  0
LINE
  5
AC06
330
A3A7
100
AcDbEntity
  8
30
  6
Continuous
 62
     0
100
AcDbLine
 10
582.4939146889918
 20
-345.34714126587
 30
0.0
 11
742.4939146889918
 21
-345.34714126587
 31
0.0
  0
INSERT
  5
AC07
330
A3A7
100
AcDbEntity
  8
30
  6
Continuous
 62
     0
100
AcDbBlockReference
  2
_OPEN
 10
577.4939146889918
 20
-345.34714126587
 30
0.0
 41
5.0
 42
5.0
 43
5.0
 50
180.0
  0
INSERT
  5
AC08
330
A3A7
100
AcDbEntity
  8
30
  6
Continuous
 62
     0
100
AcDbBlockReference
  2
_OPEN
 10
747.4939146889918
 20
-345.34714126587
 30
0.0
 41
5.0
 42
5.0
 43
5.0
  0
MTEXT
  5
AC09
330
A3A7
100
AcDbEntity
  8
30
  6
Continuous
 62
     0
100
AcDbMText
 10
665.0129126844815
 20
-337.3471412658699
 30
0.0
 40
10.0
 41
0.0
 71
     5
 72
     1
  1
\A1;170
 73
     1
 44
1.0
1001
ACAD
1000
MTEXTBEGIN
1070
    73
1070
     1
1070
    44
1040
1.0
1070
    74
1070
     0
1000
MTEXTEND
  0
POINT
  5
AC0A
330
A3A7
100
AcDbEntity
  8
DEFPOINTS
  6
Continuous
 62
     0
100
AcDbPoint
 10
577.4939146889918
 20
-297.30212402344
 30
0.0
  0
POINT
  5
AC0B
330
A3A7
100
AcDbEntity
  8
DEFPOINTS
  6
Continuous
 62
     0
100
AcDbPoint
 10
747.4939146889918
 20
-192.5936279296899
 30
0.0
  0
POINT
  5
AC0C
330
A3A7
100
AcDbEntity
  8
DEFPOINTS
  6
Continuous
 62
     0
100
AcDbPoint
 10
747.4939146889918
 20
-345.34714126587
 30
0.0
  0
ENDBLK
  5
A3B2
330
A3A7
100
AcDbEntity
  8
0
100
AcDbBlockEnd
  0
BLOCK
  5
A3BD
330
A3B3
100
AcDbEntity
  8
0
100
AcDbBlockBegin
  2
*D12
 70
     1
 10
0.0
 20
0.0
 30
0.0
  3
*D12
  1

  0
LINE
  5
AC0D
330
A3B3
100
AcDbEntity
  8
30
  6
Continuous
 62
     0
100
AcDbLine
 10
858.587542618692
 20
-145.00003051758
 30
0.0
 11
909.2784606459341
 21
-145.00003051758
 31
0.0
  0
LINE
  5
AC0E
330
A3B3
100
AcDbEntity
  8
30
  6
Continuous
 62
     0
100
AcDbLine
 10
858.587542618692
 20
-175.00003051758
 30
0.0
 11
909.2784606459341
 21
-175.00003051758
 31
0.0
  0
LINE
  5
AC0F
330
A3B3
100
AcDbEntity
  8
30
  6
Continuous
 62
     0
100
AcDbLine
 10
908.778460645934
 20
-150.00003051758
 30
0.0
 11
908.778460645934
 21
-170.00003051758
 31
0.0
  0
INSERT
  5
AC10
330
A3B3
100
AcDbEntity
  8
30
  6
Continuous
 62
     0
100
AcDbBlockReference
  2
_OPEN
 10
908.778460645934
 20
-145.00003051758
 30
0.0
 41
5.0
 42
5.0
 43
5.0
 50
90.0
  0
INSERT
  5
AC11
330
A3B3
100
AcDbEntity
  8
30
  6
Continuous
 62
     0
100
AcDbBlockReference
  2
_OPEN
 10
908.778460645934
 20
-175.00003051758
 30
0.0
 41
5.0
 42
5.0
 43
5.0
 50
270.0
  0
MTEXT
  5
AC12
330
A3B3
100
AcDbEntity
  8
30
  6
Continuous
 62
     0
100
AcDbMText
 10
900.778460645934
 20
-161.3378690930423
 30
0.0
 40
10.0
 41
0.0
 71
     5
 72
     1
  1
\A1;30
 11
0.0000000000000001
 21
1.0
 31
0.0
 73
     1
 44
1.0
1001
ACAD
1000
MTEXTBEGIN
1070
    73
1070
     1
1070
    44
1040
1.0
1070
    74
1070
     0
1000
MTEXTEND
  0
POINT
  5
AC13
330
A3B3
100
AcDbEntity
  8
DEFPOINTS
  6
Continuous
 62
     0
100
AcDbPoint
 10
853.5875426186917
 20
-145.00003051758
 30
0.0
  0
POINT
  5
AC14
330
A3B3
100
AcDbEntity
  8
DEFPOINTS
  6
Continuous
 62
     0
100
AcDbPoint
 10
853.5875426186917
 20
-175.00003051758
 30
0.0
  0
POINT
  5
AC15
330
A3B3
100
AcDbEntity
  8
DEFPOINTS
  6
Continuous
 62
     0
100
AcDbPoint
 10
908.778460645934
 20
-175.00003051758
 30
0.0
  0
ENDBLK
  5
A3BE
330
A3B3
100
AcDbEntity
  8
0
100
AcDbBlockEnd
  0
BLOCK
  5
A4F8
330
A4EE
100
AcDbEntity
  8
0
100
AcDbBlockBegin
  2
*D13
 70
     1
 10
0.0
 20
0.0
 30
0.0
  3
*D13
  1

  0
LINE
  5
AB68
330
A4EE
100
AcDbEntity
  8
30
  6
Continuous
 62
     0
100
AcDbLine
 10
48.59350585940005
 20
-700.0000309068952
 30
0.0
 11
264.4999999999999
 21
-700.0000309068954
 31
0.0
  0
LINE
  5
AB69
330
A4EE
100
AcDbEntity
  8
30
  6
Continuous
 62
     0
100
AcDbLine
 10
238.49578857424
 20
-730.0000309068954
 30
0.0
 11
264.4999999999999
 21
-730.0000309068956
 31
0.0
  0
LINE
  5
AB6A
330
A4EE
100
AcDbEntity
  8
30
  6
Continuous
 62
     0
100
AcDbLine
 10
263.9999999999998
 20
-705.0000309068954
 30
0.0
 11
263.9999999999998
 21
-725.0000309068956
 31
0.0
  0
INSERT
  5
AB6B
330
A4EE
100
AcDbEntity
  8
30
  6
Continuous
 62
     0
100
AcDbBlockReference
  2
_OPEN
 10
263.9999999999998
 20
-700.0000309068954
 30
0.0
 41
5.0
 42
5.0
 43
5.0
 50
90.0
  0
INSERT
  5
AB6C
330
A4EE
100
AcDbEntity
  8
30
  6
Continuous
 62
     0
100
AcDbBlockReference
  2
_OPEN
 10
263.9999999999998
 20
-730.0000309068956
 30
0.0
 41
5.0
 42
5.0
 43
5.0
 50
270.0
  0
MTEXT
  5
AB6D
330
A4EE
100
AcDbEntity
  8
30
  6
Continuous
 62
     0
100
AcDbMText
 10
256.0
 20
-714.0
 30
0.0
 40
10.0
 41
0.0
 71
     5
 72
     1
  1
\A1;30
 11
0.0000000000000001
 21
1.0
 31
0.0
 73
     1
 44
1.0
1001
ACAD
1000
MTEXTBEGIN
1070
    73
1070
     1
1070
    44
1040
1.0
1070
    74
1070
     0
1000
MTEXTEND
  0
POINT
  5
AB6E
330
A4EE
100
AcDbEntity
  8
DEFPOINTS
  6
Continuous
 62
     0
100
AcDbPoint
 10
43.59350585940005
 20
-700.0000309068952
 30
0.0
  0
POINT
  5
AB6F
330
A4EE
100
AcDbEntity
  8
DEFPOINTS
  6
Continuous
 62
     0
100
AcDbPoint
 10
233.49578857424
 20
-730.0000309068954
 30
0.0
  0
POINT
  5
AB70
330
A4EE
100
AcDbEntity
  8
DEFPOINTS
  6
Continuous
 62
     0
100
AcDbPoint
 10
263.9999999999998
 20
-730.0000309068956
 30
0.0
  0
ENDBLK
  5
A4F9
330
A4EE
100
AcDbEntity
  8
0
100
AcDbBlockEnd
  0
BLOCK
  5
A504
330
A4FA
100
AcDbEntity
  8
0
100
AcDbBlockBegin
  2
*D14
 70
     1
 10
0.0
 20
0.0
 30
0.0
  3
*D14
  1

  0
LINE
  5
AB42
330
A4FA
100
AcDbEntity
  8
30
  6
Continuous
 62
     0
100
AcDbLine
 10
207.9999389648399
 20
-900.0000003893157
 30
0.0
 11
313.9188843324784
 21
-900.0000003893157
 31
0.0
  0
LINE
  5
AB43
330
A4FA
100
AcDbEntity
  8
30
  6
Continuous
 62
     0
100
AcDbLine
 10
48.59350585940005
 20
-700.0000309068952
 30
0.0
 11
313.9188843324784
 21
-700.0000309068954
 31
0.0
  0
LINE
  5
AB44
330
A4FA
100
AcDbEntity
  8
30
  6
Continuous
 62
     0
100
AcDbLine
 10
313.4188843324784
 20
-895.0000003893158
 30
0.0
 11
313.4188843324784
 21
-705.0000309068954
 31
0.0
  0
INSERT
  5
AB45
330
A4FA
100
AcDbEntity
  8
30
  6
Continuous
 62
     0
100
AcDbBlockReference
  2
_OPEN
 10
313.4188843324784
 20
-900.0000003893157
 30
0.0
 41
5.0
 42
5.0
 43
5.0
 50
270.0
  0
INSERT
  5
AB46
330
A4FA
100
AcDbEntity
  8
30
  6
Continuous
 62
     0
100
AcDbBlockReference
  2
_OPEN
 10
313.4188843324784
 20
-700.0000309068954
 30
0.0
 41
5.0
 42
5.0
 43
5.0
 50
90.0
  0
MTEXT
  5
AB47
330
A4FA
100
AcDbEntity
  8
30
  6
Continuous
 62
     0
100
AcDbMText
 10
305.4188843324785
 20
-804.2232115119182
 30
0.0
 40
10.0
 41
0.0
 71
     5
 72
     1
  1
\A1;200
 11
0.0000000000000001
 21
1.0
 31
0.0
 73
     1
 44
1.0
1001
ACAD
1000
MTEXTBEGIN
1070
    73
1070
     1
1070
    44
1040
1.0
1070
    74
1070
     0
1000
MTEXTEND
  0
POINT
  5
AB48
330
A4FA
100
AcDbEntity
  8
DEFPOINTS
  6
Continuous
 62
     0
100
AcDbPoint
 10
202.9999389648398
 20
-900.0000003893157
 30
0.0
  0
POINT
  5
AB49
330
A4FA
100
AcDbEntity
  8
DEFPOINTS
  6
Continuous
 62
     0
100
AcDbPoint
 10
43.59350585940005
 20
-700.0000309068952
 30
0.0
  0
POINT
  5
AB4A
330
A4FA
100
AcDbEntity
  8
DEFPOINTS
  6
Continuous
 62
     0
100
AcDbPoint
 10
313.4188843324784
 20
-700.0000309068954
 30
0.0
  0
ENDBLK
  5
A505
330
A4FA
100
AcDbEntity
  8
0
100
AcDbBlockEnd
  0
BLOCK
  5
A510
330
A506
100
AcDbEntity
  8
0
100
AcDbBlockBegin
  2
*D15
 70
     1
 10
0.0
 20
0.0
 30
0.0
  3
*D15
  1

  0
LINE
  5
AB4B
330
A506
100
AcDbEntity
  8
30
  6
Continuous
 62
     0
100
AcDbLine
 10
207.9999389648399
 20
-900.0000003893157
 30
0.0
 11
313.9188843324784
 21
-900.0000003893157
 31
0.0
  0
LINE
  5
AB4C
330
A506
100
AcDbEntity
  8
30
  6
Continuous
 62
     0
100
AcDbLine
 10
147.0935058594
 20
-1011.000061424474
 30
0.0
 11
313.9188843324784
 21
-1011.000061424474
 31
0.0
  0
LINE
  5
AB4D
330
A506
100
AcDbEntity
  8
30
  6
Continuous
 62
     0
100
AcDbLine
 10
313.4188843324784
 20
-905.0000003893158
 30
0.0
 11
313.4188843324784
 21
-1006.000061424475
 31
0.0
  0
INSERT
  5
AB4E
330
A506
100
AcDbEntity
  8
30
  6
Continuous
 62
     0
100
AcDbBlockReference
  2
_OPEN
 10
313.4188843324784
 20
-900.0000003893157
 30
0.0
 41
5.0
 42
5.0
 43
5.0
 50
90.0
  0
INSERT
  5
AB4F
330
A506
100
AcDbEntity
  8
30
  6
Continuous
 62
     0
100
AcDbBlockReference
  2
_OPEN
 10
313.4188843324784
 20
-1011.000061424474
 30
0.0
 41
5.0
 42
5.0
 43
5.0
 50
270.0
  0
MTEXT
  5
AB50
330
A506
100
AcDbEntity
  8
30
  6
Continuous
 62
     0
100
AcDbMText
 10
305.4188843324785
 20
-952.3250187194319
 30
0.0
 40
10.0
 41
0.0
 71
     5
 72
     1
  1
\A1;111
 11
0.0000000000000001
 21
1.0
 31
0.0
 73
     1
 44
1.0
1001
ACAD
1000
MTEXTBEGIN
1070
    73
1070
     1
1070
    44
1040
1.0
1070
    74
1070
     0
1000
MTEXTEND
  0
POINT
  5
AB51
330
A506
100
AcDbEntity
  8
DEFPOINTS
  6
Continuous
 62
     0
100
AcDbPoint
 10
202.9999389648398
 20
-900.0000003893157
 30
0.0
  0
POINT
  5
AB52
330
A506
100
AcDbEntity
  8
DEFPOINTS
  6
Continuous
 62
     0
100
AcDbPoint
 10
142.0935058594
 20
-1011.000061424474
 30
0.0
  0
POINT
  5
AB53
330
A506
100
AcDbEntity
  8
DEFPOINTS
  6
Continuous
 62
     0
100
AcDbPoint
 10
313.4188843324784
 20
-1011.000061424474
 30
0.0
  0
ENDBLK
  5
A511
330
A506
100
AcDbEntity
  8
0
100
AcDbBlockEnd
  0
BLOCK
  5
A51C
330
A512
100
AcDbEntity
  8
0
100
AcDbBlockBegin
  2
*D16
 70
     1
 10
0.0
 20
0.0
 30
0.0
  3
*D16
  1

  0
LINE
  5
AAC1
330
A512
100
AcDbEntity
  8
30
  6
Continuous
 62
     0
100
AcDbLine
 10
-150.9997558593999
 20
-1016.093658836584
 30
0.0
 11
-150.9997558593999
 21
-1182.266952903964
 31
0.0
  0
LINE
  5
AAC2
330
A512
100
AcDbEntity
  8
30
  6
Continuous
 62
     0
100
AcDbLine
 10
151.0
 20
-1016.093658836584
 30
0.0
 11
151.0
 21
-1182.266952903964
 31
0.0
  0
LINE
  5
AAC3
330
A512
100
AcDbEntity
  8
30
  6
Continuous
 62
     0
100
AcDbLine
 10
-145.9997558593999
 20
-1181.766952903964
 30
0.0
 11
146.0
 21
-1181.766952903964
 31
0.0
  0
INSERT
  5
AAC4
330
A512
100
AcDbEntity
  8
30
  6
Continuous
 62
     0
100
AcDbBlockReference
  2
_OPEN
 10
-150.9997558593999
 20
-1181.766952903964
 30
0.0
 41
5.0
 42
5.0
 43
5.0
 50
180.0
  0
INSERT
  5
AAC5
330
A512
100
AcDbEntity
  8
30
  6
Continuous
 62
     0
100
AcDbBlockReference
  2
_OPEN
 10
151.0
 20
-1181.766952903964
 30
0.0
 41
5.0
 42
5.0
 43
5.0
  0
MTEXT
  5
AAC6
330
A512
100
AcDbEntity
  8
30
  6
Continuous
 62
     0
100
AcDbMText
 10
9.728053042763377
 20
-1173.766952903964
 30
0.0
 40
10.0
 41
0.0
 71
     5
 72
     1
  1
\A1;302
 73
     1
 44
1.0
1001
ACAD
1000
MTEXTBEGIN
1070
    73
1070
     1
1070
    44
1040
1.0
1070
    74
1070
     0
1000
MTEXTEND
  0
POINT
  5
AAC7
330
A512
100
AcDbEntity
  8
DEFPOINTS
  6
Continuous
 62
     0
100
AcDbPoint
 10
-150.9997558593999
 20
-1011.093658836584
 30
0.0
  0
POINT
  5
AAC8
330
A512
100
AcDbEntity
  8
DEFPOINTS
  6
Continuous
 62
     0
100
AcDbPoint
 10
151.0
 20
-1011.093658836584
 30
0.0
  0
POINT
  5
AAC9
330
A512
100
AcDbEntity
  8
DEFPOINTS
  6
Continuous
 62
     0
100
AcDbPoint
 10
151.0
 20
-1181.766952903964
 30
0.0
  0
ENDBLK
  5
A51D
330
A512
100
AcDbEntity
  8
0
100
AcDbBlockEnd
  0
BLOCK
  5
A528
330
A51E
100
AcDbEntity
  8
0
100
AcDbBlockBegin
  2
*D17
 70
     1
 10
0.0
 20
0.0
 30
0.0
  3
*D17
  1

  0
LINE
  5
AAB8
330
A51E
100
AcDbEntity
  8
30
  6
Continuous
 62
     0
100
AcDbLine
 10
-52.49999999999997
 20
-694.9064029772052
 30
0.0
 11
-52.49999999999996
 21
-622.7564395983054
 31
0.0
  0
LINE
  5
AAB9
330
A51E
100
AcDbEntity
  8
30
  6
Continuous
 62
     0
100
AcDbLine
 10
52.50000000000003
 20
-694.9064029772052
 30
0.0
 11
52.50000000000003
 21
-622.7564395983054
 31
0.0
  0
LINE
  5
AABA
330
A51E
100
AcDbEntity
  8
30
  6
Continuous
 62
     0
100
AcDbLine
 10
-47.49999999999996
 20
-623.2564395983054
 30
0.0
 11
47.50000000000002
 21
-623.2564395983054
 31
0.0
  0
INSERT
  5
AABB
330
A51E
100
AcDbEntity
  8
30
  6
Continuous
 62
     0
100
AcDbBlockReference
  2
_OPEN
 10
-52.49999999999996
 20
-623.2564395983054
 30
0.0
 41
5.0
 42
5.0
 43
5.0
 50
180.0
  0
INSERT
  5
AABC
330
A51E
100
AcDbEntity
  8
30
  6
Continuous
 62
     0
100
AcDbBlockReference
  2
_OPEN
 10
52.50000000000003
 20
-623.2564395983054
 30
0.0
 41
5.0
 42
5.0
 43
5.0
  0
MTEXT
  5
AABD
330
A51E
100
AcDbEntity
  8
30
  6
Continuous
 62
     0
100
AcDbMText
 10
1.25471576888961
 20
-615.2564395983054
 30
0.0
 40
10.0
 41
0.0
 71
     5
 72
     1
  1
\A1;105
 73
     1
 44
1.0
1001
ACAD
1000
MTEXTBEGIN
1070
    73
1070
     1
1070
    44
1040
1.0
1070
    74
1070
     0
1000
MTEXTEND
  0
POINT
  5
AABE
330
A51E
100
AcDbEntity
  8
DEFPOINTS
  6
Continuous
 62
     0
100
AcDbPoint
 10
-52.49999999999997
 20
-699.9064029772052
 30
0.0
  0
POINT
  5
AABF
330
A51E
100
AcDbEntity
  8
DEFPOINTS
  6
Continuous
 62
     0
100
AcDbPoint
 10
52.50000000000003
 20
-699.9064029772052
 30
0.0
  0
POINT
  5
AAC0
330
A51E
100
AcDbEntity
  8
DEFPOINTS
  6
Continuous
 62
     0
100
AcDbPoint
 10
52.50000000000003
 20
-623.2564395983054
 30
0.0
  0
ENDBLK
  5
A529
330
A51E
100
AcDbEntity
  8
0
100
AcDbBlockEnd
  0
BLOCK
  5
A534
330
A52A
100
AcDbEntity
  8
0
100
AcDbBlockBegin
  2
*D18
 70
     1
 10
0.0
 20
0.0
 30
0.0
  3
*D18
  1

  0
LINE
  5
AB71
330
A52A
100
AcDbEntity
  8
30
  6
Continuous
 62
     0
100
AcDbLine
 10
147.0935058594
 20
-1011.000061424474
 30
0.0
 11
266.4999999999998
 21
-1011.000061424474
 31
0.0
  0
LINE
  5
AB72
330
A52A
100
AcDbEntity
  8
30
  6
Continuous
 62
     0
100
AcDbLine
 10
231.6449584960399
 20
-981.0000614244755
 30
0.0
 11
266.4999999999998
 21
-981.0000614244755
 31
0.0
  0
LINE
  5
AB73
330
A52A
100
AcDbEntity
  8
30
  6
Continuous
 62
     0
100
AcDbLine
 10
265.9999999999998
 20
-1006.000061424475
 30
0.0
 11
265.9999999999998
 21
-986.0000614244755
 31
0.0
  0
INSERT
  5
AB74
330
A52A
100
AcDbEntity
  8
30
  6
Continuous
 62
     0
100
AcDbBlockReference
  2
_OPEN
 10
265.9999999999998
 20
-1011.000061424474
 30
0.0
 41
5.0
 42
5.0
 43
5.0
 50
270.0
  0
INSERT
  5
AB75
330
A52A
100
AcDbEntity
  8
30
  6
Continuous
 62
     0
100
AcDbBlockReference
  2
_OPEN
 10
265.9999999999998
 20
-981.0000614244755
 30
0.0
 41
5.0
 42
5.0
 43
5.0
 50
90.0
  0
MTEXT
  5
AB76
330
A52A
100
AcDbEntity
  8
30
  6
Continuous
 62
     0
100
AcDbMText
 10
258.0
 20
-995.0
 30
0.0
 40
10.0
 41
0.0
 71
     5
 72
     1
  1
\A1;30
 11
0.0000000000000001
 21
1.0
 31
0.0
 73
     1
 44
1.0
1001
ACAD
1000
MTEXTBEGIN
1070
    73
1070
     1
1070
    44
1040
1.0
1070
    74
1070
     0
1000
MTEXTEND
  0
POINT
  5
AB77
330
A52A
100
AcDbEntity
  8
DEFPOINTS
  6
Continuous
 62
     0
100
AcDbPoint
 10
142.0935058594
 20
-1011.000061424474
 30
0.0
  0
POINT
  5
AB78
330
A52A
100
AcDbEntity
  8
DEFPOINTS
  6
Continuous
 62
     0
100
AcDbPoint
 10
226.6449584960399
 20
-981.0000614244755
 30
0.0
  0
POINT
  5
AB79
330
A52A
100
AcDbEntity
  8
DEFPOINTS
  6
Continuous
 62
     0
100
AcDbPoint
 10
265.9999999999998
 20
-981.0000614244755
 30
0.0
  0
ENDBLK
  5
A535
330
A52A
100
AcDbEntity
  8
0
100
AcDbBlockEnd
  0
BLOCK
  5
A615
330
A60B
100
AcDbEntity
  8
0
100
AcDbBlockBegin
  2
*D19
 70
     1
 10
0.0
 20
0.0
 30
0.0
  3
*D19
  1

  0
LINE
  5
AA64
330
A60B
100
AcDbEntity
  8
30
  6
Continuous
 62
     0
100
AcDbLine
 10
-104.8093336004578
 20
957.25036621095
 30
0.0
 11
-104.8093336004578
 21
1002.004592324333
 31
0.0
  0
LINE
  5
AA65
330
A60B
100
AcDbEntity
  8
30
  6
Continuous
 62
     0
100
AcDbLine
 10
0.1909105401420649
 20
957.25036621095
 30
0.0
 11
0.1909105401420677
 21
1002.004592324333
 31
0.0
  0
LINE
  5
AA66
330
A60B
100
AcDbEntity
  8
30
  6
Continuous
 62
     0
100
AcDbLine
 10
-99.80933360045792
 20
1001.504592324333
 30
0.0
 11
-4.809089459857931
 21
1001.504592324333
 31
0.0
  0
INSERT
  5
AA67
330
A60B
100
AcDbEntity
  8
30
  6
Continuous
 62
     0
100
AcDbBlockReference
  2
_OPEN
 10
-104.8093336004578
 20
1001.504592324333
 30
0.0
 41
5.0
 42
5.0
 43
5.0
 50
180.0
  0
INSERT
  5
AA68
330
A60B
100
AcDbEntity
  8
30
  6
Continuous
 62
     0
100
AcDbBlockReference
  2
_OPEN
 10
0.1909105401420676
 20
1001.504592324333
 30
0.0
 41
5.0
 42
5.0
 43
5.0
  0
MTEXT
  5
AA69
330
A60B
100
AcDbEntity
  8
30
  6
Continuous
 62
     0
100
AcDbMText
 10
-52.30921153015792
 20
1009.504592324333
 30
0.0
 40
10.0
 41
0.0
 71
     5
 72
     1
  1
\A1;105
 73
     1
 44
1.0
1001
ACAD
1000
MTEXTBEGIN
1070
    73
1070
     1
1070
    44
1040
1.0
1070
    74
1070
     0
1000
MTEXTEND
  0
POINT
  5
AA6A
330
A60B
100
AcDbEntity
  8
DEFPOINTS
  6
Continuous
 62
     0
100
AcDbPoint
 10
-104.8093336004578
 20
952.25036621095
 30
0.0
  0
POINT
  5
AA6B
330
A60B
100
AcDbEntity
  8
DEFPOINTS
  6
Continuous
 62
     0
100
AcDbPoint
 10
0.1909105401420646
 20
952.25036621095
 30
0.0
  0
POINT
  5
AA6C
330
A60B
100
AcDbEntity
  8
DEFPOINTS
  6
Continuous
 62
     0
100
AcDbPoint
 10
0.1909105401420676
 20
1001.504592324333
 30
0.0
  0
ENDBLK
  5
A616
330
A60B
100
AcDbEntity
  8
0
100
AcDbBlockEnd
  0
BLOCK
  5
A62D
330
A623
100
AcDbEntity
  8
0
100
AcDbBlockBegin
  2
*D20
 70
     1
 10
0.0
 20
0.0
 30
0.0
  3
*D20
  1

  0
LINE
  5
ACBD
330
A623
100
AcDbEntity
  8
30
  6
Continuous
 62
     0
100
AcDbLine
 10
0.1909105401420649
 20
787.4179270550008
 30
0.0
 11
0.1909105401420781
 21
1002.004592324333
 31
0.0
  0
LINE
  5
ACBE
330
A623
100
AcDbEntity
  8
30
  6
Continuous
 62
     0
100
AcDbLine
 10
105.190910540142
 20
957.25036621095
 30
0.0
 11
105.190910540142
 21
1002.004592324333
 31
0.0
  0
LINE
  5
ACBF
330
A623
100
AcDbEntity
  8
30
  6
Continuous
 62
     0
100
AcDbLine
 10
5.190910540142078
 20
1001.504592324333
 30
0.0
 11
100.1909105401419
 21
1001.504592324333
 31
0.0
  0
INSERT
  5
ACC0
330
A623
100
AcDbEntity
  8
30
  6
Continuous
 62
     0
100
AcDbBlockReference
  2
_OPEN
 10
0.190910540142078
 20
1001.504592324333
 30
0.0
 41
5.0
 42
5.0
 43
5.0
 50
180.0
  0
INSERT
  5
ACC1
330
A623
100
AcDbEntity
  8
30
  6
Continuous
 62
     0
100
AcDbBlockReference
  2
_OPEN
 10
105.190910540142
 20
1001.504592324333
 30
0.0
 41
5.0
 42
5.0
 43
5.0
  0
MTEXT
  5
ACC2
330
A623
100
AcDbEntity
  8
30
  6
Continuous
 62
     0
100
AcDbMText
 10
52.69091054014207
 20
1009.504592324333
 30
0.0
 40
10.0
 41
0.0
 71
     5
 72
     1
  1
\A1;105
 73
     1
 44
1.0
  0
POINT
  5
ACC3
330
A623
100
AcDbEntity
  8
DEFPOINTS
  6
Continuous
 62
     0
100
AcDbPoint
 10
0.1909105401420646
 20
782.4179270550009
 30
0.0
  0
POINT
  5
ACC4
330
A623
100
AcDbEntity
  8
DEFPOINTS
  6
Continuous
 62
     0
100
AcDbPoint
 10
105.190910540142
 20
952.25036621095
 30
0.0
  0
POINT
  5
ACC5
330
A623
100
AcDbEntity
  8
DEFPOINTS
  6
Continuous
 62
     0
100
AcDbPoint
 10
105.190910540142
 20
1001.504592324333
 30
0.0
  0
ENDBLK
  5
A62E
330
A623
100
AcDbEntity
  8
0
100
AcDbBlockEnd
  0
BLOCK
  5
A645
330
A63B
100
AcDbEntity
  8
0
100
AcDbBlockBegin
  2
*D21
 70
     1
 10
0.0
 20
0.0
 30
0.0
  3
*D21
  1

  0
LINE
  5
ACC6
330
A63B
100
AcDbEntity
  8
30
  6
Continuous
 62
     0
100
AcDbLine
 10
126.4736253839422
 20
907.25036621095
 30
0.0
 11
141.0671252651073
 21
907.25036621095
 31
0.0
  0
LINE
  5
ACC7
330
A63B
100
AcDbEntity
  8
30
  6
Continuous
 62
     0
100
AcDbLine
 10
115.190910540142
 20
822.2503662109499
 30
0.0
 11
141.0671252651073
 21
822.2503662109499
 31
0.0
  0
LINE
  5
ACC8
330
A63B
100
AcDbEntity
  8
30
  6
Continuous
 62
     0
100
AcDbLine
 10
140.5671252651073
 20
902.25036621095
 30
0.0
 11
140.5671252651073
 21
827.25036621095
 31
0.0
  0
INSERT
  5
ACC9
330
A63B
100
AcDbEntity
  8
30
  6
Continuous
 62
     0
100
AcDbBlockReference
  2
_OPEN
 10
140.5671252651073
 20
907.25036621095
 30
0.0
 41
5.0
 42
5.0
 43
5.0
 50
90.0
  0
INSERT
  5
ACCA
330
A63B
100
AcDbEntity
  8
30
  6
Continuous
 62
     0
100
AcDbBlockReference
  2
_OPEN
 10
140.5671252651073
 20
822.2503662109499
 30
0.0
 41
5.0
 42
5.0
 43
5.0
 50
270.0
  0
MTEXT
  5
ACCB
330
A63B
100
AcDbEntity
  8
30
  6
Continuous
 62
     0
100
AcDbMText
 10
132.5671252651072
 20
864.75036621095
 30
0.0
 40
10.0
 41
0.0
 71
     5
 72
     1
  1
\A1;85
 11
0.0000000000000001
 21
1.0
 31
0.0
 73
     1
 44
1.0
  0
POINT
  5
ACCC
330
A63B
100
AcDbEntity
  8
DEFPOINTS
  6
Continuous
 62
     0
100
AcDbPoint
 10
121.4736253839422
 20
907.25036621095
 30
0.0
  0
POINT
  5
ACCD
330
A63B
100
AcDbEntity
  8
DEFPOINTS
  6
Continuous
 62
     0
100
AcDbPoint
 10
110.190910540142
 20
822.2503662109499
 30
0.0
  0
POINT
  5
ACCE
330
A63B
100
AcDbEntity
  8
DEFPOINTS
  6
Continuous
 62
     0
100
AcDbPoint
 10
140.5671252651073
 20
822.2503662109499
 30
0.0
  0
ENDBLK
  5
A646
330
A63B
100
AcDbEntity
  8
0
100
AcDbBlockEnd
  0
BLOCK
  5
A651
330
A647
100
AcDbEntity
  8
0
100
AcDbBlockBegin
  2
*D22
 70
     1
 10
0.0
 20
0.0
 30
0.0
  3
*D22
  1

  0
LINE
  5
ACCF
330
A647
100
AcDbEntity
  8
30
  6
Continuous
 62
     0
100
AcDbLine
 10
115.190910540142
 20
937.2503662109499
 30
0.0
 11
141.0671252651073
 21
937.2503662109499
 31
0.0
  0
LINE
  5
ACD0
330
A647
100
AcDbEntity
  8
30
  6
Continuous
 62
     0
100
AcDbLine
 10
126.4736253839422
 20
907.25036621095
 30
0.0
 11
141.0671252651073
 21
907.25036621095
 31
0.0
  0
LINE
  5
ACD1
330
A647
100
AcDbEntity
  8
30
  6
Continuous
 62
     0
100
AcDbLine
 10
140.5671252651073
 20
932.25036621095
 30
0.0
 11
140.5671252651073
 21
912.2503662109499
 31
0.0
  0
MTEXT
  5
ACD2
330
A647
100
AcDbEntity
  8
30
  6
Continuous
 62
     0
100
AcDbMText
 10
131.0
 20
922.0
 30
0.0
 40
10.0
 41
0.0
 71
     5
 72
     1
  1
\A1;30
 11
0.0000000000000001
 21
1.0
 31
0.0
 73
     1
 44
1.0
  0
INSERT
  5
ACD3
330
A647
100
AcDbEntity
  8
30
  6
Continuous
 62
     0
100
AcDbBlockReference
  2
_OPEN
 10
140.5671252651073
 20
937.2503662109499
 30
0.0
 41
5.0
 42
5.0
 43
5.0
 50
90.0
  0
INSERT
  5
ACD4
330
A647
100
AcDbEntity
  8
30
  6
Continuous
 62
     0
100
AcDbBlockReference
  2
_OPEN
 10
140.5671252651073
 20
907.25036621095
 30
0.0
 41
5.0
 42
5.0
 43
5.0
 50
270.0
  0
POINT
  5
ACD5
330
A647
100
AcDbEntity
  8
DEFPOINTS
  6
Continuous
 62
     0
100
AcDbPoint
 10
110.190910540142
 20
937.2503662109499
 30
0.0
  0
POINT
  5
ACD6
330
A647
100
AcDbEntity
  8
DEFPOINTS
  6
Continuous
 62
     0
100
AcDbPoint
 10
121.4736253839422
 20
907.25036621095
 30
0.0
  0
POINT
  5
ACD7
330
A647
100
AcDbEntity
  8
DEFPOINTS
  6
Continuous
 62
     0
100
AcDbPoint
 10
140.5671252651073
 20
907.25036621095
 30
0.0
  0
ENDBLK
  5
A652
330
A647
100
AcDbEntity
  8
0
100
AcDbBlockEnd
  0
BLOCK
  5
A65E
330
A653
100
AcDbEntity
  8
0
100
AcDbBlockBegin
  2
*D23
 70
     1
 10
0.0
 20
0.0
 30
0.0
  3
*D23
  1

  0
LINE
  5
AB14
330
A653
100
AcDbEntity
  8
30
  6
Continuous
 62
     0
100
AcDbLine
 10
115.190910540142
 20
952.25036621095
 30
0.0
 11
141.0671252651073
 21
952.25036621095
 31
0.0
  0
LINE
  5
AB15
330
A653
100
AcDbEntity
  8
30
  6
Continuous
 62
     0
100
AcDbLine
 10
115.190910540142
 20
937.2503662109499
 30
0.0
 11
141.0671252651073
 21
937.2503662109499
 31
0.0
  0
LINE
  5
AB16
330
A653
100
AcDbEntity
  8
30
  6
Continuous
 62
     0
100
AcDbLine
 10
140.5671252651073
 20
932.25036621095
 30
0.0
 11
140.5671252651073
 21
927.25036621095
 31
0.0
  0
LINE
  5
AB17
330
A653
100
AcDbEntity
  8
30
  6
Continuous
 62
     0
100
AcDbLine
 10
140.5671252651073
 20
957.25036621095
 30
0.0
 11
140.5671252651073
 21
981.5836995442834
 31
0.0
  0
INSERT
  5
AB18
330
A653
100
AcDbEntity
  8
30
  6
Continuous
 62
     0
100
AcDbBlockReference
  2
_OPEN
 10
140.5671252651073
 20
937.2503662109499
 30
0.0
 41
5.0
 42
5.0
 43
5.0
 50
90.0
  0
INSERT
  5
AB19
330
A653
100
AcDbEntity
  8
30
  6
Continuous
 62
     0
100
AcDbBlockReference
  2
_OPEN
 10
140.5671252651073
 20
952.25036621095
 30
0.0
 41
5.0
 42
5.0
 43
5.0
 50
270.0
  0
MTEXT
  5
AB1A
330
A653
100
AcDbEntity
  8
30
  6
Continuous
 62
     0
100
AcDbMText
 10
132.5671252651072
 20
971.9170328776167
 30
0.0
 40
10.0
 41
0.0
 71
     5
 72
     1
  1
\A1;15
 11
0.0000000000000001
 21
1.0
 31
0.0
 73
     1
 44
1.0
1001
ACAD
1000
MTEXTBEGIN
1070
    73
1070
     1
1070
    44
1040
1.0
1070
    74
1070
     0
1000
MTEXTEND
  0
POINT
  5
AB1B
330
A653
100
AcDbEntity
  8
DEFPOINTS
  6
Continuous
 62
     0
100
AcDbPoint
 10
110.190910540142
 20
952.25036621095
 30
0.0
  0
POINT
  5
AB1C
330
A653
100
AcDbEntity
  8
DEFPOINTS
  6
Continuous
 62
     0
100
AcDbPoint
 10
110.190910540142
 20
937.2503662109499
 30
0.0
  0
POINT
  5
AB1D
330
A653
100
AcDbEntity
  8
DEFPOINTS
  6
Continuous
 62
     0
100
AcDbPoint
 10
140.5671252651073
 20
937.2503662109499
 30
0.0
  0
ENDBLK
  5
A65F
330
A653
100
AcDbEntity
  8
0
100
AcDbBlockEnd
  0
BLOCK
  5
A6AB
330
A6A1
100
AcDbEntity
  8
0
100
AcDbBlockBegin
  2
*D24
 70
     1
 10
0.0
 20
0.0
 30
0.0
  3
*D24
  1

  0
LINE
  5
A6A2
330
A6A1
100
AcDbEntity
  8
30
  6
Continuous
 62
     0
100
AcDbLine
 10
-208.0
 20
272.0
 30
0.0
 11
-256.4999999999999
 21
272.0
 31
0.0
  0
LINE
  5
A6A3
330
A6A1
100
AcDbEntity
  8
30
  6
Continuous
 62
     0
100
AcDbLine
 10
-208.0
 20
0.0000000000000014
 30
0.0
 11
-256.4999999999999
 21
0.0000000000000152
 31
0.0
  0
LINE
  5
A6A4
330
A6A1
100
AcDbEntity
  8
30
  6
Continuous
 62
     0
100
AcDbLine
 10
-255.9999999999999
 20
267.0
 30
0.0
 11
-256.0
 21
5.000000000000015
 31
0.0
  0
INSERT
  5
A6A5
330
A6A1
100
AcDbEntity
  8
30
  6
Continuous
 62
     0
100
AcDbBlockReference
  2
_OPEN
 10
-255.9999999999999
 20
272.0
 30
0.0
 41
5.0
 42
5.0
 43
5.0
 50
90.0
  0
INSERT
  5
A6A6
330
A6A1
100
AcDbEntity
  8
30
  6
Continuous
 62
     0
100
AcDbBlockReference
  2
_OPEN
 10
-256.0
 20
0.000000000000015
 30
0.0
 41
5.0
 42
5.0
 43
5.0
 50
270.0
  0
MTEXT
  5
A6A7
330
A6A1
100
AcDbEntity
  8
30
  6
Continuous
 62
     0
100
AcDbMText
 10
-264.0
 20
135.9999999999999
 30
0.0
 40
10.0
 41
0.0
 71
     5
 72
     1
  1
\A1;272
 11
0.0000000000000001
 21
1.0
 31
0.0
 73
     1
 44
1.0
1001
ACAD
1000
MTEXTBEGIN
1070
    73
1070
     1
1070
    44
1040
1.0
1070
    74
1070
     0
1000
MTEXTEND
  0
POINT
  5
A6A8
330
A6A1
100
AcDbEntity
  8
DEFPOINTS
  6
Continuous
 62
     0
100
AcDbPoint
 10
-203.0
 20
272.0
 30
0.0
  0
POINT
  5
A6A9
330
A6A1
100
AcDbEntity
  8
DEFPOINTS
  6
Continuous
 62
     0
100
AcDbPoint
 10
-203.0
 20
0.0
 30
0.0
  0
POINT
  5
A6AA
330
A6A1
100
AcDbEntity
  8
DEFPOINTS
  6
Continuous
 62
     0
100
AcDbPoint
 10
-256.0
 20
0.000000000000015
 30
0.0
  0
ENDBLK
  5
A6AC
330
A6A1
100
AcDbEntity
  8
0
100
AcDbBlockEnd
  0
BLOCK
  5
A6B8
330
A6AE
100
AcDbEntity
  8
0
100
AcDbBlockBegin
  2
*D25
 70
     1
 10
0.0
 20
0.0
 30
0.0
  3
*D25
  1

  0
LINE
  5
A6AF
330
A6AE
100
AcDbEntity
  8
30
  6
Continuous
 62
     0
100
AcDbLine
 10
-213.0
 20
0.0000000000000028
 30
0.0
 11
-256.4999999999999
 21
0.0000000000000152
 31
0.0
  0
LINE
  5
A6B0
330
A6AE
100
AcDbEntity
  8
30
  6
Continuous
 62
     0
100
AcDbLine
 10
-208.0
 20
-208.00003051758
 30
0.0
 11
-256.4999999999999
 21
-208.00003051758
 31
0.0
  0
LINE
  5
A6B1
330
A6AE
100
AcDbEntity
  8
30
  6
Continuous
 62
     0
100
AcDbLine
 10
-256.0
 20
-4.999999999999983
 30
0.0
 11
-256.0
 21
-203.0000305175799
 31
0.0
  0
INSERT
  5
A6B2
330
A6AE
100
AcDbEntity
  8
30
  6
Continuous
 62
     0
100
AcDbBlockReference
  2
_OPEN
 10
-256.0
 20
0.000000000000015
 30
0.0
 41
5.0
 42
5.0
 43
5.0
 50
90.0
  0
INSERT
  5
A6B3
330
A6AE
100
AcDbEntity
  8
30
  6
Continuous
 62
     0
100
AcDbBlockReference
  2
_OPEN
 10
-256.0
 20
-208.00003051758
 30
0.0
 41
5.0
 42
5.0
 43
5.0
 50
270.0
  0
MTEXT
  5
A6B4
330
A6AE
100
AcDbEntity
  8
30
  6
Continuous
 62
     0
100
AcDbMText
 10
-264.0
 20
-104.00001525879
 30
0.0
 40
10.0
 41
0.0
 71
     5
 72
     1
  1
\A1;208
 11
0.0000000000000001
 21
1.0
 31
0.0
 73
     1
 44
1.0
1001
ACAD
1000
MTEXTBEGIN
1070
    73
1070
     1
1070
    44
1040
1.0
1070
    74
1070
     0
1000
MTEXTEND
  0
POINT
  5
A6B5
330
A6AE
100
AcDbEntity
  8
DEFPOINTS
  6
Continuous
 62
     0
100
AcDbPoint
 10
-208.0
 20
0.0000000000000014
 30
0.0
  0
POINT
  5
A6B6
330
A6AE
100
AcDbEntity
  8
DEFPOINTS
  6
Continuous
 62
     0
100
AcDbPoint
 10
-203.0
 20
-208.00003051758
 30
0.0
  0
POINT
  5
A6B7
330
A6AE
100
AcDbEntity
  8
DEFPOINTS
  6
Continuous
 62
     0
100
AcDbPoint
 10
-256.0
 20
-208.00003051758
 30
0.0
  0
ENDBLK
  5
A6B9
330
A6AE
100
AcDbEntity
  8
0
100
AcDbBlockEnd
  0
BLOCK
  5
A6C5
330
A6BB
100
AcDbEntity
  8
0
100
AcDbBlockBegin
  2
*D26
 70
     1
 10
0.0
 20
0.0
 30
0.0
  3
*D26
  1

  0
LINE
  5
AB26
330
A6BB
100
AcDbEntity
  8
30
  6
Continuous
 62
     0
100
AcDbLine
 10
-203.0
 20
-213.00003051758
 30
0.0
 11
-203.0
 21
-283.4999999999999
 31
0.0
  0
LINE
  5
AB27
330
A6BB
100
AcDbEntity
  8
30
  6
Continuous
 62
     0
100
AcDbLine
 10
202.9999389648398
 20
-213.00003051758
 30
0.0
 11
202.9999389648398
 21
-283.4999999999999
 31
0.0
  0
LINE
  5
AB28
330
A6BB
100
AcDbEntity
  8
30
  6
Continuous
 62
     0
100
AcDbLine
 10
-198.0
 20
-283.0
 30
0.0
 11
197.9999389648399
 21
-283.0
 31
0.0
  0
INSERT
  5
AB29
330
A6BB
100
AcDbEntity
  8
30
  6
Continuous
 62
     0
100
AcDbBlockReference
  2
_OPEN
 10
-203.0
 20
-283.0
 30
0.0
 41
5.0
 42
5.0
 43
5.0
 50
180.0
  0
INSERT
  5
AB2A
330
A6BB
100
AcDbEntity
  8
30
  6
Continuous
 62
     0
100
AcDbBlockReference
  2
_OPEN
 10
202.9999389648398
 20
-283.0
 30
0.0
 41
5.0
 42
5.0
 43
5.0
  0
MTEXT
  5
AB2B
330
A6BB
100
AcDbEntity
  8
30
  6
Continuous
 62
     0
100
AcDbMText
 10
-0.0000305175800003
 20
-275.0
 30
0.0
 40
10.0
 41
0.0
 71
     5
 72
     1
  1
\A1;406
 73
     1
 44
1.0
1001
ACAD
1000
MTEXTBEGIN
1070
    73
1070
     1
1070
    44
1040
1.0
1070
    74
1070
     0
1000
MTEXTEND
  0
POINT
  5
AB2C
330
A6BB
100
AcDbEntity
  8
DEFPOINTS
  6
Continuous
 62
     0
100
AcDbPoint
 10
-203.0
 20
-208.00003051758
 30
0.0
  0
POINT
  5
AB2D
330
A6BB
100
AcDbEntity
  8
DEFPOINTS
  6
Continuous
 62
     0
100
AcDbPoint
 10
202.9999389648398
 20
-208.00003051758
 30
0.0
  0
POINT
  5
AB2E
330
A6BB
100
AcDbEntity
  8
DEFPOINTS
  6
Continuous
 62
     0
100
AcDbPoint
 10
202.9999389648398
 20
-283.0
 30
0.0
  0
ENDBLK
  5
A6C6
330
A6BB
100
AcDbEntity
  8
0
100
AcDbBlockEnd
  0
BLOCK
  5
A792
330
A78A
100
AcDbEntity
  8
0
100
AcDbBlockBegin
  2
*D27
 70
     1
 10
0.0
 20
0.0
 30
0.0
  3
*D27
  1

  0
LINE
  5
AC3B
330
A78A
100
AcDbEntity
  8
30
  6
Continuous
 62
     0
100
AcDbLine
 10
888.6967426812777
 20
163.6826008147886
 30
0.0
 11
867.0996619423858
 21
119.4359468119447
 31
0.0
  0
MTEXT
  5
AC3C
330
A78A
100
AcDbEntity
  8
30
  6
Continuous
 62
     0
100
AcDbMText
 10
875.8050961298796
 20
155.5091407644899
 30
0.0
 40
10.0
 41
0.0
 71
     5
 72
     1
  1
\A1;\U+220511
 11
0.4386425955613169
 21
0.8986616011376201
 31
0.0
 73
     1
 44
1.0
1001
ACAD
1000
MTEXTBEGIN
1070
    73
1070
     1
1070
    44
1040
1.0
1070
    74
1070
     0
1000
MTEXTEND
  0
INSERT
  5
AC3D
330
A78A
100
AcDbEntity
  8
30
  6
Continuous
 62
     0
100
AcDbBlockReference
  2
_OPEN
 10
864.9064489645793
 20
114.9426388062567
 30
0.0
 41
5.0
 42
5.0
 43
5.0
 50
243.9826945728454
  0
LINE
  5
AC3E
330
A78A
100
AcDbEntity
  8
30
  6
Continuous
 62
     0
100
AcDbLine
 10
862.4039146889916
 20
109.9999999999996
 30
0.0
 11
862.5839146889918
 21
109.9999999999996
 31
0.0
  0
LINE
  5
AC3F
330
A78A
100
AcDbEntity
  8
30
  6
Continuous
 62
     0
100
AcDbLine
 10
862.493914688992
 20
109.9099999999997
 30
0.0
 11
862.493914688992
 21
110.0899999999995
 31
0.0
  0
POINT
  5
AC40
330
A78A
100
AcDbEntity
  8
DEFPOINTS
  6
Continuous
 62
     0
100
AcDbPoint
 10
864.9064489645793
 20
114.9426388062567
 30
0.0
  0
POINT
  5
AC41
330
A78A
100
AcDbEntity
  8
DEFPOINTS
  6
Continuous
 62
     0
100
AcDbPoint
 10
860.0813804134046
 20
105.0573611937426
 30
0.0
  0
ENDBLK
  5
A793
330
A78A
100
AcDbEntity
  8
0
100
AcDbBlockEnd
  0
BLOCK
  5
AB38
330
AB30
100
AcDbEntity
  8
0
100
AcDbBlockBegin
  2
*D28
 70
     1
 10
0.0
 20
0.0
 30
0.0
  3
*D28
  1

  0
LINE
  5
AB3A
330
AB30
100
AcDbEntity
  8
30
  6
Continuous
 62
     0
100
AcDbLine
 10
172.1147546918991
 20
-954.2540771298247
 30
0.0
 11
154.8360660189246
 21
-1000.690619271842
 31
0.0
  0
MTEXT
  5
AB3B
330
AB30
100
AcDbEntity
  8
30
  6
Continuous
 62
     0
100
AcDbMText
 10
159.5022238889951
 20
-965.2101338044182
 30
0.0
 40
10.0
 41
0.0
 71
     5
 72
     1
  1
\A1;\U+220512
 11
0.3487332744476892
 21
0.9372220138755771
 31
0.0
 73
     1
 44
1.0
1001
ACAD
1000
MTEXTBEGIN
1070
    73
1070
     1
1070
    44
1040
1.0
1070
    74
1070
     0
1000
MTEXTEND
  0
INSERT
  5
AB3C
330
AB30
100
AcDbEntity
  8
30
  6
Continuous
 62
     0
100
AcDbBlockReference
  2
_OPEN
 10
153.0923996466862
 20
-1005.376729341221
 30
0.0
 41
5.0
 42
5.0
 43
5.0
 50
249.5901439166666
  0
LINE
  5
AB3D
330
AB30
100
AcDbEntity
  8
30
  6
Continuous
 62
     0
100
AcDbLine
 10
150.91
 20
-1011.000061424474
 30
0.0
 11
151.0899999999999
 21
-1011.000061424474
 31
0.0
  0
LINE
  5
AB3E
330
AB30
100
AcDbEntity
  8
30
  6
Continuous
 62
     0
100
AcDbLine
 10
151.0
 20
-1011.090061424475
 30
0.0
 11
151.0
 21
-1010.910061424475
 31
0.0
  0
POINT
  5
AB3F
330
AB30
100
AcDbEntity
  8
DEFPOINTS
  6
Continuous
 62
     0
100
AcDbPoint
 10
153.0923996466862
 20
-1005.376729341221
 30
0.0
  0
POINT
  5
AB40
330
AB30
100
AcDbEntity
  8
DEFPOINTS
  6
Continuous
 62
     0
100
AcDbPoint
 10
148.9076003533139
 20
-1016.623393507728
 30
0.0
  0
ENDBLK
  5
AB39
330
AB30
100
AcDbEntity
  8
0
100
AcDbBlockEnd
  0
BLOCK
  5
AC62
330
AC58
100
AcDbEntity
  8
0
100
AcDbBlockBegin
  2
*D29
 70
     1
 10
0.0
 20
0.0
 30
0.0
  3
*D29
  1

  0
LINE
  5
AC88
330
AC58
100
AcDbEntity
  8
30
  6
Continuous
 62
     0
100
AcDbLine
 10
747.4939146889918
 20
-350.34714126587
 30
0.0
 11
747.4939146889918
 21
-389.4999999999998
 31
0.0
  0
LINE
  5
AC89
330
AC58
100
AcDbEntity
  8
30
  6
Continuous
 62
     0
100
AcDbLine
 10
407.4939146889918
 20
-5.0
 30
0.0
 11
407.4939146889918
 21
-389.4999999999998
 31
0.0
  0
LINE
  5
AC8A
330
AC58
100
AcDbEntity
  8
30
  6
Continuous
 62
     0
100
AcDbLine
 10
742.4939146889918
 20
-389.0
 30
0.0
 11
412.4939146889919
 21
-389.0
 31
0.0
  0
INSERT
  5
AC8B
330
AC58
100
AcDbEntity
  8
30
  6
Continuous
 62
     0
100
AcDbBlockReference
  2
_OPEN
 10
747.4939146889918
 20
-389.0
 30
0.0
 41
5.0
 42
5.0
 43
5.0
  0
INSERT
  5
AC8C
330
AC58
100
AcDbEntity
  8
30
  6
Continuous
 62
     0
100
AcDbBlockReference
  2
_OPEN
 10
407.4939146889918
 20
-389.0
 30
0.0
 41
5.0
 42
5.0
 43
5.0
 50
180.0
  0
MTEXT
  5
AC8D
330
AC58
100
AcDbEntity
  8
30
  6
Continuous
 62
     0
100
AcDbMText
 10
577.4939146889918
 20
-381.0
 30
0.0
 40
10.0
 41
0.0
 71
     5
 72
     1
  1
\A1;340
 73
     1
 44
1.0
1001
ACAD
1000
MTEXTBEGIN
1070
    73
1070
     1
1070
    44
1040
1.0
1070
    74
1070
     0
1000
MTEXTEND
  0
POINT
  5
AC8E
330
AC58
100
AcDbEntity
  8
DEFPOINTS
  6
Continuous
 62
     0
100
AcDbPoint
 10
747.4939146889918
 20
-345.34714126587
 30
0.0
  0
POINT
  5
AC8F
330
AC58
100
AcDbEntity
  8
DEFPOINTS
  6
Continuous
 62
     0
100
AcDbPoint
 10
407.4939146889918
 20
0.0
 30
0.0
  0
POINT
  5
AC90
330
AC58
100
AcDbEntity
  8
DEFPOINTS
  6
Continuous
 62
     0
100
AcDbPoint
 10
407.4939146889918
 20
-389.0
 30
0.0
  0
ENDBLK
  5
AC63
330
AC58
100
AcDbEntity
  8
0
100
AcDbBlockEnd
  0
ENDSEC
  0
SECTION
  2
ENTITIES
  0
LINE
  5
B4
330
1E
100
AcDbEntity
  8
16
100
AcDbLine
 10
-0.0000000000000021
 20
-239.0
 30
0.0
 11
0.0
 21
350.4479057911321
 31
0.0
  0
LINE
  5
B5
330
1E
100
AcDbEntity
  8
16
100
AcDbLine
 10
192.9676601005867
 20
0.0000000000000107
 30
0.0
 11
-204.2216913881511
 21
0.0
 31
0.0
  0
MTEXT
  5
BF3
330
1E
100
AcDbEntity
  8
24
  6
Continuous
100
AcDbMText
 10
142.1181906098743
 20
177.5
 30
0.0
 40
3.0
 41
0.0
 71
     1
 72
     1
  1
\A1;
 73
     1
 44
1.0
1001
ACAD
1000
MTEXTBEGIN
1070
    73
1070
     1
1070
    44
1040
1.0
1070
    74
1070
     0
1000
MTEXTEND
  0
LINE
  5
1C9A
330
1E
100
AcDbEntity
  8
16
100
AcDbLine
 10
0.0
 20
375.4997558592998
 30
0.0
 11
0.0
 21
891.0
 31
0.0
  0
LINE
  5
1C9B
330
1E
100
AcDbEntity
  8
16
100
AcDbLine
 10
744.4939146889918
 20
0.0
 30
0.0
 11
387.0
 21
0.0
 31
0.0
  0
LINE
  5
2260
330
1E
100
AcDbEntity
  8
16
100
AcDbLine
 10
202.1634296945399
 20
-900.0
 30
0.0
 11
-166.0
 21
-900.0
 31
0.0
  0
LINE
  5
2261
330
1E
100
AcDbEntity
  8
16
100
AcDbLine
 10
0.0
 20
-1137.085283629646
 30
0.0
 11
0.0
 21
-627.7109542159319
 31
0.0
  0
MTEXT
  5
5D8A
330
1E
100
AcDbEntity
  8
19
  6
Continuous
100
AcDbMText
 10
664.0939981048367
 20
802.8208392807664
 30
0.0
 40
8.0
 41
186.1271999999999
 71
     1
 72
     5
  1
XS2000NE 3P FP\PXS2000NN 3P FP
  7
STANDARD1
 73
     1
 44
1.0
1001
ACAD
1000
MTEXTBEGIN
1070
    73
1070
     1
1070
    44
1040
1.0
1070
    74
1070
     0
1000
MTEXTEND
  0
LINE
  5
9E22
330
1E
100
AcDbEntity
  8
16
100
AcDbLine
 10
993.0
 20
-900.0
 30
0.0
 11
513.0
 21
-900.0
 31
0.0
  0
DIMENSION
  5
A0B4
330
1E
100
AcDbEntity
  8
30
  6
Continuous
100
AcDbDimension
  2
*D1
 10
922.7496408047059
 20
-1213.12506103516
 30
0.0
 11
747.7496408047061
 21
-1213.12506103516
 31
0.0
 70
   160
 71
     5
 42
-1.0
  3
STANDARD
100
AcDbAlignedDimension
 13
572.7496408047061
 23
-1133.093658447269
 33
0.0
 14
922.7496408047059
 24
-1133.093658447269
 34
0.0
100
AcDbRotatedDimension
  0
LINE
  5
A0B6
330
1E
100
AcDbEntity
  8
11
  6
Continuous
100
AcDbLine
 10
572.7496408047061
 20
-1133.000061035159
 30
0.0
 11
922.7496408047059
 21
-1133.000061035159
 31
0.0
  0
LINE
  5
A0B7
330
1E
100
AcDbEntity
  8
11
  6
Continuous
100
AcDbLine
 10
922.7496408047059
 20
-667.0000305175798
 30
0.0
 11
572.7496408047061
 21
-667.0000305175798
 31
0.0
  0
LINE
  5
A0B8
330
1E
100
AcDbEntity
  8
18
100
AcDbLine
 10
544.7496408047061
 20
-1140.000061035159
 30
0.0
 11
950.749640804706
 21
-1140.000061035159
 31
0.0
  0
LINE
  5
A0B9
330
1E
100
AcDbEntity
  8
18
100
AcDbLine
 10
950.749640804706
 20
-660.0000305175798
 30
0.0
 11
544.7496408047061
 21
-660.0000305175798
 31
0.0
  0
LINE
  5
A0BA
330
1E
100
AcDbEntity
  8
18
100
AcDbLine
 10
544.7496408047061
 20
-660.0000305175798
 30
0.0
 11
544.7496408047061
 21
-1140.000061035159
 31
0.0
  0
LINE
  5
A0BB
330
1E
100
AcDbEntity
  8
11
  6
Continuous
100
AcDbLine
 10
572.7496408047061
 20
-667.0000305175798
 30
0.0
 11
572.7496408047061
 21
-1133.000061035159
 31
0.0
  0
LINE
  5
A0BC
330
1E
100
AcDbEntity
  8
16
100
AcDbLine
 10
747.7496408047061
 20
-640.0000305175798
 30
0.0
 11
747.7496408047061
 21
-1160.000061035159
 31
0.0
  0
DIMENSION
  5
A0BD
330
1E
100
AcDbEntity
  8
30
  6
Continuous
100
AcDbDimension
  2
*D2
 10
1019.923468986687
 20
-1133.000061035159
 30
0.0
 11
1019.923468986687
 21
-917.9598893966627
 31
0.0
 70
   160
  1
466
 71
     5
 42
-1.0
  3
STANDARD
100
AcDbAlignedDimension
 13
913.8431466641062
 23
-667.0000305175798
 33
0.0
 14
913.8431466641062
 24
-1133.000061035159
 34
0.0
 50
270.0
100
AcDbRotatedDimension
  0
LINE
  5
A0BE
330
1E
100
AcDbEntity
  8
11
  6
Continuous
100
AcDbLine
 10
922.7496408047059
 20
-1133.000061035159
 30
0.0
 11
922.7496408047059
 21
-667.0000305175798
 31
0.0
  0
LINE
  5
A0BF
330
1E
100
AcDbEntity
  8
18
100
AcDbLine
 10
950.749640804706
 20
-1140.000061035159
 30
0.0
 11
950.749640804706
 21
-660.0000305175798
 31
0.0
  0
LINE
  5
A13E
330
1E
100
AcDbEntity
  8
10
  6
Continuous
100
AcDbLine
 10
202.9999389648398
 20
272.0
 30
0.0
 11
-203.0
 21
272.0
 31
0.0
  0
LINE
  5
A13F
330
1E
100
AcDbEntity
  8
10
  6
Continuous
100
AcDbLine
 10
-203.0
 20
-208.00003051758
 30
0.0
 11
202.9999389648398
 21
-208.00003051758
 31
0.0
  0
LINE
  5
A140
330
1E
100
AcDbEntity
  8
10
  6
DASHED
100
AcDbLine
 10
-160.0
 20
257.0
 30
0.0
 11
159.9999389648398
 21
257.0
 31
0.0
  0
LINE
  5
A141
330
1E
100
AcDbEntity
  8
10
  6
DASHED
100
AcDbLine
 10
-160.0
 20
-193.00003051758
 30
0.0
 11
159.9999389648398
 21
-193.00003051758
 31
0.0
  0
LINE
  5
A144
330
1E
100
AcDbEntity
  8
10
  6
Continuous
100
AcDbLine
 10
-203.0
 20
272.0
 30
0.0
 11
-203.0
 21
-208.00003051758
 31
0.0
  0
LINE
  5
A145
330
1E
100
AcDbEntity
  8
10
  6
DASHED
100
AcDbLine
 10
-160.0
 20
-193.00003051758
 30
0.0
 11
-160.0
 21
257.0
 31
0.0
  0
LINE
  5
A146
330
1E
100
AcDbEntity
  8
10
  6
Continuous
100
AcDbLine
 10
-33.0
 20
-41.49999999999996
 30
0.0
 11
-33.0
 21
42.00003051757997
 31
0.0
  0
LINE
  5
A147
330
1E
100
AcDbEntity
  8
10
  6
Continuous
100
AcDbLine
 10
33.0
 20
42.00003051757997
 30
0.0
 11
33.0
 21
-41.49999999999996
 31
0.0
  0
LINE
  5
A148
330
1E
100
AcDbEntity
  8
10
  6
Continuous
100
AcDbLine
 10
-57.5
 20
-70.00003051758003
 30
0.0
 11
-57.5
 21
70.00003051757997
 31
0.0
  0
LINE
  5
A149
330
1E
100
AcDbEntity
  8
10
  6
Continuous
100
AcDbLine
 10
57.49999999995987
 20
70.00003051757997
 30
0.0
 11
57.49999999995987
 21
-70.00003051758003
 31
0.0
  0
LINE
  5
A14A
330
1E
100
AcDbEntity
  8
10
  6
Continuous
100
AcDbLine
 10
33.0
 20
-41.49999999999996
 30
0.0
 11
-33.0
 21
-41.49999999999996
 31
0.0
  0
LINE
  5
A14B
330
1E
100
AcDbEntity
  8
10
  6
Continuous
100
AcDbLine
 10
57.49999999995987
 20
-70.00003051758003
 30
0.0
 11
-57.5
 21
-70.00003051758003
 31
0.0
  0
LINE
  5
A14E
330
1E
100
AcDbEntity
  8
10
  6
Continuous
100
AcDbLine
 10
-33.0
 20
42.00003051757997
 30
0.0
 11
33.0
 21
42.00003051757997
 31
0.0
  0
LINE
  5
A14F
330
1E
100
AcDbEntity
  8
10
  6
Continuous
100
AcDbLine
 10
-57.5
 20
70.00003051757997
 30
0.0
 11
57.49999999995987
 21
70.00003051757997
 31
0.0
  0
LINE
  5
A152
330
1E
100
AcDbEntity
  8
10
  6
Continuous
100
AcDbLine
 10
202.9999389648398
 20
-208.00003051758
 30
0.0
 11
202.9999389648398
 21
272.0
 31
0.0
  0
LINE
  5
A153
330
1E
100
AcDbEntity
  8
10
  6
DASHED
100
AcDbLine
 10
159.9999389648398
 20
-193.00003051758
 30
0.0
 11
159.9999389648398
 21
257.0
 31
0.0
  0
LINE
  5
A2D1
330
1E
100
AcDbEntity
  8
18
100
AcDbLine
 10
577.4939146889918
 20
262.0
 30
0.0
 11
577.4939146889918
 21
360.3957519531201
 31
0.0
  0
LINE
  5
A2D2
330
1E
100
AcDbEntity
  8
18
100
AcDbLine
 10
583.4939146889918
 20
360.48388671875
 30
0.0
 11
583.4939146889918
 21
262.0
 31
0.0
  0
DIMENSION
  5
A2D5
330
1E
100
AcDbEntity
  8
30
  6
Continuous
100
AcDbDimension
  2
*D3
 10
957.8642760951256
 20
-192.50003051758
 30
0.0
 11
957.8642760951256
 21
-161.7838150389895
 31
0.0
 70
   160
 71
     5
 42
-1.0
  3
STANDARD
100
AcDbAlignedDimension
 13
868.5875426186917
 23
-127.50003051758
 33
0.0
 14
868.5875426186917
 24
-192.50003051758
 34
0.0
 50
270.0
100
AcDbRotatedDimension
  0
DIMENSION
  5
A2D6
330
1E
100
AcDbEntity
  8
30
  6
Continuous
100
AcDbDimension
  2
*D4
 10
1005.787738009122
 20
94.99999999999998
 30
0.0
 11
1005.787738009122
 21
61.71624599616057
 31
0.0
 70
   160
 71
     5
 42
-1.0
  3
STANDARD
100
AcDbAlignedDimension
 13
738.6107359780918
 23
32.00003051758
 33
0.0
 14
738.5627623452919
 24
95.00000000000005
 34
0.0
 50
90.0
100
AcDbRotatedDimension
  0
DIMENSION
  5
A2D7
330
1E
100
AcDbEntity
  8
30
  6
Continuous
100
AcDbDimension
  2
*D5
 10
1005.787738027774
 20
-160.00003051758
 30
0.0
 11
1005.787738027774
 21
-66.2105270534252
 31
0.0
 70
   160
 71
     5
 42
-1.0
  3
STANDARD
100
AcDbAlignedDimension
 13
738.6107359780918
 23
32.00003051758
 33
0.0
 14
729.9618101967918
 24
-160.00003051758
 34
0.0
 50
270.0
100
AcDbRotatedDimension
  0
DIMENSION
  5
A2DA
330
1E
100
AcDbEntity
  8
30
  6
Continuous
100
AcDbDimension
  2
*D6
 10
877.4939146889916
 20
-302.3126754760748
 30
0.0
 11
897.1605813556585
 21
-302.3126754760748
 31
0.0
 70
   160
 71
     5
 42
-1.0
  3
STANDARD
100
AcDbAlignedDimension
 13
862.493914688992
 23
-175.0936279296899
 33
0.0
 14
877.4939146889916
 24
-192.5936279296899
 34
0.0
100
AcDbRotatedDimension
  0
DIMENSION
  5
A2DB
330
1E
100
AcDbEntity
  8
30
  6
Continuous
100
AcDbDimension
  2
*D7
 10
862.493914688992
 20
-302.3126754760775
 30
0.0
 11
848.7058815386554
 21
-302.3126754760775
 31
0.0
 70
   160
 71
     5
 42
-1.0
  3
STANDARD
100
AcDbAlignedDimension
 13
832.4939146889917
 23
-175.0936279296899
 33
0.0
 14
862.493914688992
 24
-175.0936279296899
 34
0.0
100
AcDbRotatedDimension
  0
DIMENSION
  5
A2DC
330
1E
100
AcDbEntity
  8
30
  6
Continuous
100
AcDbDimension
  2
*D8
 10
558.9939146889918
 20
-302.3126754760748
 30
0.0
 11
537.6605813556587
 21
-302.3126754760748
 31
0.0
 70
   160
 71
     5
 42
-1.0
  3
STANDARD
100
AcDbAlignedDimension
 13
577.4939146889918
 23
-297.30212402344
 33
0.0
 14
558.9939146889918
 24
-208.0936279296899
 34
0.0
 50
180.0
100
AcDbRotatedDimension
  0
DIMENSION
  5
A2DD
330
1E
100
AcDbEntity
  8
30
  6
Continuous
100
AcDbDimension
  2
*D9
 10
877.4939146889916
 20
-345.34714126587
 30
0.0
 11
816.5331763563814
 21
-345.34714126587
 31
0.0
 70
   160
 71
     5
 42
-1.0
  3
STANDARD
100
AcDbAlignedDimension
 13
747.4939146889918
 23
-192.5936279296899
 33
0.0
 14
877.4939146889916
 24
-192.5936279296899
 34
0.0
100
AcDbRotatedDimension
  0
DIMENSION
  5
A2DE
330
1E
100
AcDbEntity
  8
30
  6
Continuous
100
AcDbDimension
  2
*D10
 10
502.4937926186918
 20
-345.3471412658726
 30
0.0
 11
543.5828346636554
 21
-345.3471412658726
 31
0.0
 70
   160
 71
     5
 42
-1.0
  3
STANDARD
100
AcDbAlignedDimension
 13
577.4939146889918
 23
-297.30212402344
 33
0.0
 14
502.4937926186918
 24
1.906372070309941
 34
0.0
 50
180.0
100
AcDbRotatedDimension
  0
DIMENSION
  5
A2DF
330
1E
100
AcDbEntity
  8
30
  6
Continuous
100
AcDbDimension
  2
*D11
 10
747.4939146889918
 20
-345.34714126587
 30
0.0
 11
665.0129126844815
 21
-345.34714126587
 31
0.0
 70
   160
 71
     5
 42
-1.0
  3
STANDARD
100
AcDbAlignedDimension
 13
577.4939146889918
 23
-297.30212402344
 33
0.0
 14
747.4939146889918
 24
-192.5936279296899
 34
0.0
100
AcDbRotatedDimension
  0
LINE
  5
A2E0
330
1E
100
AcDbEntity
  8
18
100
AcDbLine
 10
577.4939146889918
 20
-198.0000305175799
 30
0.0
 11
577.4939146889918
 21
-297.2085266113298
 31
0.0
  0
LINE
  5
A2E3
330
1E
100
AcDbEntity
  8
18
100
AcDbLine
 10
583.4939146889918
 20
-297.2746887206998
 30
0.0
 11
583.4939146889918
 21
-198.0000305175799
 31
0.0
  0
LINE
  5
A2E4
330
1E
100
AcDbEntity
  8
18
100
AcDbLine
 10
577.4939146889918
 20
-297.2085266113298
 30
0.0
 11
583.4939146889918
 21
-297.2746887206998
 31
0.0
  0
LINE
  5
A2E5
330
1E
100
AcDbEntity
  8
10
  6
Continuous
100
AcDbLine
 10
510.2364683998919
 20
36.60580444335993
 30
0.0
 11
545.0216246498919
 21
23.32180786132999
 31
0.0
  0
LINE
  5
A2E6
330
1E
100
AcDbEntity
  8
10
  6
Continuous
100
AcDbLine
 10
552.5152769936918
 20
45.97952270507999
 30
0.0
 11
516.6679869545919
 21
56.05313110350994
 31
0.0
  0
ARC
  5
A2E7
330
1E
100
AcDbEntity
  8
30
  6
Continuous
100
AcDbCircle
 10
647.4939146889918
 20
2.000000000000055
 30
0.0
 40
145.0000915527625
100
AcDbArc
 50
165.6881085843894
 51
180.0
  0
ARC
  5
A2EA
330
1E
100
AcDbEntity
  8
10
  6
Continuous
100
AcDbCircle
 10
511.6634703530919
 20
40.34259033202999
 30
0.0
 40
4.000000000003876
100
AcDbArc
 50
161.6995376563165
 51
249.0988022002169
  0
ARC
  5
A2EB
330
1E
100
AcDbEntity
  8
10
  6
Continuous
100
AcDbCircle
 10
515.5858336342918
 20
52.20227050780994
 30
0.0
 40
4.000000000003296
100
AcDbArc
 50
74.30389311265277
 51
161.699469354306
  0
LINE
  5
A2EC
330
1E
100
AcDbEntity
  8
10
  6
Continuous
100
AcDbLine
 10
511.7881041420919
 20
53.45828247070006
 30
0.0
 11
507.8657408608918
 21
41.59860229491999
 31
0.0
  0
LINE
  5
A2EE
330
1E
100
AcDbEntity
  8
10
  6
Continuous
100
AcDbLine
 10
747.4939146889918
 20
62.50003051758
 30
0.0
 11
747.6386900795918
 21
-127.50003051758
 31
0.0
  0
ARC
  5
A2F0
330
1E
100
AcDbEntity
  8
10
  6
Continuous
100
AcDbCircle
 10
812.493914688992
 20
-4.999999999999943
 30
0.0
 40
260.0000000000294
100
AcDbArc
 50
169.936732134942
 51
178.8980905901594
  0
LINE
  5
A2F2
330
1E
100
AcDbEntity
  8
17
  6
CONTINOUS
100
AcDbLine
 10
877.4939146889916
 20
-192.50003051758
 30
0.0
 11
747.4939146889918
 21
-192.50003051758
 31
0.0
  0
LINE
  5
A2F3
330
1E
100
AcDbEntity
  8
12
  6
DASHED
100
AcDbLine
 10
747.6017027748918
 20
-49.00003051757999
 30
0.0
 11
797.6017027748918
 21
-49.00003051757999
 31
0.0
  0
LINE
  5
A2F4
330
1E
100
AcDbEntity
  8
12
  6
DASHED
100
AcDbLine
 10
747.6169615639918
 20
-99.00003051758002
 30
0.0
 11
753.6017027748918
 21
-99.00003051758002
 31
0.0
  0
LINE
  5
A2F5
330
1E
100
AcDbEntity
  8
17
  6
CONTINOUS
100
AcDbLine
 10
747.6386900795918
 20
-127.50003051758
 30
0.0
 11
877.4939146889916
 21
-127.50003051758
 31
0.0
  0
LINE
  5
A2F6
330
1E
100
AcDbEntity
  8
12
  6
DASHED
100
AcDbLine
 10
826.2939635170917
 20
-79.00003051758
 30
0.0
 11
724.5522642983918
 21
-79.00003051758
 31
0.0
  0
LINE
  5
A2F7
330
1E
100
AcDbEntity
  8
17
  6
CONTINOUS
100
AcDbLine
 10
747.6386900795918
 20
-127.50003051758
 30
0.0
 11
747.4939146889918
 21
-192.50003051758
 31
0.0
  0
LINE
  5
A2F8
330
1E
100
AcDbEntity
  8
10
  6
Continuous
100
AcDbLine
 10
577.4939146889918
 20
-193.00003051758
 30
0.0
 11
747.4939146889918
 21
-193.00003051758
 31
0.0
  0
LINE
  5
A2FA
330
1E
100
AcDbEntity
  8
18
100
AcDbLine
 10
583.4939146889918
 20
-198.0000305175799
 30
0.0
 11
577.4939146889918
 21
-198.0000305175799
 31
0.0
  0
LINE
  5
A2FB
330
1E
100
AcDbEntity
  8
17
  6
CONTINOUS
100
AcDbLine
 10
747.4939146889918
 20
-192.50003051758
 30
0.0
 11
747.4939146889918
 21
-193.00003051758
 31
0.0
  0
LINE
  5
A2FC
330
1E
100
AcDbEntity
  8
10
  6
Continuous
100
AcDbLine
 10
556.4939146889918
 20
-70.00003051758
 30
0.0
 11
556.4939146889918
 21
-50.43167114257999
 31
0.0
  0
LINE
  5
A2FD
330
1E
100
AcDbEntity
  8
10
  6
Continuous
100
AcDbLine
 10
558.9939146889918
 20
-70.00003051758
 30
0.0
 11
556.4939146889918
 21
-70.00003051758
 31
0.0
  0
ARC
  5
A2FE
330
1E
100
AcDbEntity
  8
10
  6
Continuous
100
AcDbCircle
 10
812.493914688992
 20
-4.999999999999943
 30
0.0
 40
260.0
100
AcDbArc
 50
180.0
 51
190.0632778829741
  0
ARC
  5
A2FF
330
1E
100
AcDbEntity
  8
10
  6
Continuous
100
AcDbCircle
 10
812.493914688992
 20
-4.999999999999943
 30
0.0
 40
260.0
100
AcDbArc
 50
178.8980905901594
 51
180.0
  0
LINE
  5
A300
330
1E
100
AcDbEntity
  8
17
  6
CONTINOUS
100
AcDbLine
 10
877.4939146889916
 20
-127.50003051758
 30
0.0
 11
877.4939146889916
 21
-192.50003051758
 31
0.0
  0
LINE
  5
A301
330
1E
100
AcDbEntity
  8
17
  6
CONTINOUS
100
AcDbLine
 10
862.493914688992
 20
-129.3974914550798
 30
0.0
 11
862.493914688992
 21
-156.7881164550798
 31
0.0
  0
LINE
  5
A302
330
1E
100
AcDbEntity
  8
17
  6
CONTINOUS
100
AcDbLine
 10
832.4939146889917
 20
-129.09671020508
 30
0.0
 11
832.4939146889917
 21
-156.7881164550798
 31
0.0
  0
DIMENSION
  5
A303
330
1E
100
AcDbEntity
  8
30
  6
Continuous
100
AcDbDimension
  2
*D12
 10
908.778460645934
 20
-175.00003051758
 30
0.0
 11
908.778460645934
 21
-161.3378690930423
 31
0.0
 70
   160
 71
     5
 42
-1.0
  3
STANDARD
100
AcDbAlignedDimension
 13
853.5875426186917
 23
-145.00003051758
 33
0.0
 14
853.5875426186917
 24
-175.00003051758
 34
0.0
 50
270.0
100
AcDbRotatedDimension
  0
CIRCLE
  5
A304
330
1E
100
AcDbEntity
  8
17
  6
CONTINOUS
100
AcDbCircle
 10
862.493914688992
 20
-175.00003051758
 30
0.0
 40
5.5
  0
CIRCLE
  5
A305
330
1E
100
AcDbEntity
  8
17
  6
CONTINOUS
100
AcDbCircle
 10
862.493914688992
 20
-145.00003051758
 30
0.0
 40
5.5
  0
CIRCLE
  5
A308
330
1E
100
AcDbEntity
  8
17
  6
CONTINOUS
100
AcDbCircle
 10
832.4939146889917
 20
-175.00003051758
 30
0.0
 40
5.5
  0
LINE
  5
A309
330
1E
100
AcDbEntity
  8
17
  6
CONTINOUS
100
AcDbLine
 10
817.4939146889919
 20
-175.00003051758
 30
0.0
 11
848.2396422280919
 21
-175.00003051758
 31
0.0
  0
LINE
  5
A30A
330
1E
100
AcDbEntity
  8
17
  6
CONTINOUS
100
AcDbLine
 10
817.4939146889919
 20
-145.00003051758
 30
0.0
 11
848.2396422280919
 21
-145.00003051758
 31
0.0
  0
CIRCLE
  5
A30B
330
1E
100
AcDbEntity
  8
17
  6
CONTINOUS
100
AcDbCircle
 10
832.4939146889917
 20
-145.00003051758
 30
0.0
 40
5.5
  0
LINE
  5
A30C
330
1E
100
AcDbEntity
  8
0
100
AcDbLine
 10
919.7655211342921
 20
-160.00003051758
 30
0.0
 11
947.4939146889921
 21
-160.00003051758
 31
0.0
  0
LINE
  5
A30D
330
1E
100
AcDbEntity
  8
12
  6
DASHED
100
AcDbLine
 10
753.6017027748918
 20
-99.00003051758002
 30
0.0
 11
753.6017027748918
 21
-61.50003051758
 31
0.0
  0
LINE
  5
A30E
330
1E
100
AcDbEntity
  8
12
  6
DASHED
100
AcDbLine
 10
753.6017027748918
 20
-94.50003051758001
 30
0.0
 11
753.6017027748918
 21
-61.50003051758
 31
0.0
  0
LINE
  5
A30F
330
1E
100
AcDbEntity
  8
12
  6
DASHED
100
AcDbLine
 10
753.6017027748918
 20
-74.00003051758
 30
0.0
 11
777.6017027748918
 21
-74.00003051758
 31
0.0
  0
LINE
  5
A310
330
1E
100
AcDbEntity
  8
12
  6
DASHED
100
AcDbLine
 10
765.3016539467918
 20
-68.00003051758
 30
0.0
 11
765.3016539467918
 21
-90.00003051758001
 31
0.0
  0
LINE
  5
A311
330
1E
100
AcDbEntity
  8
12
  6
DASHED
100
AcDbLine
 10
777.6017027748918
 20
-74.00003051758
 30
0.0
 11
777.6017027748918
 21
-84.00003051758
 31
0.0
  0
LINE
  5
A312
330
1E
100
AcDbEntity
  8
12
  6
DASHED
100
AcDbLine
 10
777.6017027748918
 20
-84.00003051758
 30
0.0
 11
753.6017027748918
 21
-84.00003051758
 31
0.0
  0
LINE
  5
A313
330
1E
100
AcDbEntity
  8
12
  6
DASHED
100
AcDbLine
 10
765.3016539467918
 20
-90.00003051758001
 30
0.0
 11
753.6017027748918
 21
-90.00003051758001
 31
0.0
  0
LINE
  5
A314
330
1E
100
AcDbEntity
  8
12
  6
DASHED
100
AcDbLine
 10
765.3016539467918
 20
-68.00003051758
 30
0.0
 11
753.6017027748918
 21
-68.00003051758
 31
0.0
  0
LINE
  5
A318
330
1E
100
AcDbEntity
  8
12
  6
DASHED
100
AcDbLine
 10
760.1017027748918
 20
-55.00003051758
 30
0.0
 11
797.6017027748918
 21
-55.00003051758
 31
0.0
  0
ARC
  5
A319
330
1E
100
AcDbEntity
  8
12
  6
DASHED
100
AcDbCircle
 10
-760.1017027748918
 20
-61.50003051758
 30
0.0
 40
6.5
210
0.0
220
0.0
230
-1.0
100
AcDbArc
 50
0.0
 51
90.0
  0
LINE
  5
A31A
330
1E
100
AcDbEntity
  8
12
  6
DASHED
100
AcDbLine
 10
797.6017027748918
 20
-55.00003051758
 30
0.0
 11
797.6017027748918
 21
-49.00003051757999
 31
0.0
  0
LINE
  5
A31B
330
1E
100
AcDbEntity
  8
12
  6
DASHED
100
AcDbLine
 10
760.1017027748918
 20
-55.00003051758
 30
0.0
 11
793.1017027748918
 21
-55.00003051758
 31
0.0
  0
ARC
  5
A31C
330
1E
100
AcDbEntity
  8
12
  6
DASHED
100
AcDbCircle
 10
-760.1017027748918
 20
-61.50003051758
 30
0.0
 40
6.5
210
0.0
220
0.0
230
-1.0
100
AcDbArc
 50
0.0
 51
90.0
  0
LINE
  5
A31E
330
1E
100
AcDbEntity
  8
12
  6
DASHED
100
AcDbLine
 10
747.4939146889918
 20
252.0
 30
0.0
 11
753.4939146889918
 21
252.0
 31
0.0
  0
LINE
  5
A31F
330
1E
100
AcDbEntity
  8
12
  6
DASHED
100
AcDbLine
 10
747.4939146889918
 20
202.0
 30
0.0
 11
797.4939146889918
 21
202.0
 31
0.0
  0
LINE
  5
A320
330
1E
100
AcDbEntity
  8
12
  6
DASHED
100
AcDbLine
 10
718.3967467202919
 20
232.0
 30
0.0
 11
787.4939146889918
 21
232.0
 31
0.0
  0
LINE
  5
A321
330
1E
100
AcDbEntity
  8
17
  6
CONTINOUS
100
AcDbLine
 10
877.4939146889916
 20
62.50003051758
 30
0.0
 11
747.4939146889918
 21
62.50003051758
 31
0.0
  0
LINE
  5
A322
330
1E
100
AcDbEntity
  8
17
  6
CONTINOUS
100
AcDbLine
 10
747.4939146889918
 20
127.5
 30
0.0
 11
812.493914688992
 21
127.5
 31
0.0
  0
LINE
  5
A323
330
1E
100
AcDbEntity
  8
10
  6
Continuous
100
AcDbLine
 10
747.4939146889918
 20
257.0
 30
0.0
 11
747.4939146889918
 21
127.5
 31
0.0
  0
LINE
  5
A324
330
1E
100
AcDbEntity
  8
10
  6
Continuous
100
AcDbLine
 10
552.5152769936918
 20
45.97952270507999
 30
0.0
 11
556.4939146889918
 21
45.48391723632999
 31
0.0
  0
LINE
  5
A325
330
1E
100
AcDbEntity
  8
10
  6
Continuous
100
AcDbLine
 10
545.0216246498919
 20
23.32180786132999
 30
0.0
 11
553.5572691811918
 21
18.49026489257999
 31
0.0
  0
LINE
  5
A326
330
1E
100
AcDbEntity
  8
10
  6
Continuous
100
AcDbLine
 10
556.4939146889918
 20
70.00003051758
 30
0.0
 11
556.4939146889918
 21
40.43167114257999
 31
0.0
  0
LINE
  5
A327
330
1E
100
AcDbEntity
  8
10
  6
Continuous
100
AcDbLine
 10
558.9939146889918
 20
70.00003051758
 30
0.0
 11
556.4939146889918
 21
70.00003051758
 31
0.0
  0
LINE
  5
A328
330
1E
100
AcDbEntity
  8
17
  6
CONTINOUS
100
AcDbLine
 10
747.4939146889918
 20
127.5
 30
0.0
 11
747.4939146889918
 21
62.50003051758
 31
0.0
  0
LINE
  5
A329
330
1E
100
AcDbEntity
  8
10
  6
Continuous
100
AcDbLine
 10
577.4939146889918
 20
257.0
 30
0.0
 11
747.4939146889918
 21
257.0
 31
0.0
  0
LINE
  5
A32A
330
1E
100
AcDbEntity
  8
18
100
AcDbLine
 10
583.4939146889918
 20
262.0
 30
0.0
 11
577.4939146889918
 21
262.0
 31
0.0
  0
LINE
  5
A32C
330
1E
100
AcDbEntity
  8
17
  6
CONTINOUS
100
AcDbLine
 10
812.493914688992
 20
127.5
 30
0.0
 11
877.4939146889916
 21
127.5
 31
0.0
  0
LINE
  5
A32D
330
1E
100
AcDbEntity
  8
17
  6
CONTINOUS
100
AcDbLine
 10
850.6476012123918
 20
80.00006103515994
 30
0.0
 11
875.328753556192
 21
80.00006103515994
 31
0.0
  0
LINE
  5
A32E
330
1E
100
AcDbEntity
  8
17
  6
CONTINOUS
100
AcDbLine
 10
850.6476012123918
 20
110.0
 30
0.0
 11
875.328753556192
 21
110.0
 31
0.0
  0
CIRCLE
  5
A32F
330
1E
100
AcDbEntity
  8
17
  6
CONTINOUS
100
AcDbCircle
 10
862.493914688992
 20
80.00006103515994
 30
0.0
 40
5.5
  0
CIRCLE
  5
A330
330
1E
100
AcDbEntity
  8
17
  6
CONTINOUS
100
AcDbCircle
 10
862.493914688992
 20
110.0
 30
0.0
 40
5.5
  0
LINE
  5
A331
330
1E
100
AcDbEntity
  8
17
  6
CONTINOUS
100
AcDbLine
 10
832.4939146889917
 20
92.49273681640993
 30
0.0
 11
832.4939146889917
 21
66.30667114258
 31
0.0
  0
LINE
  5
A332
330
1E
100
AcDbEntity
  8
17
  6
CONTINOUS
100
AcDbLine
 10
817.4939146889919
 20
80.00006103515994
 30
0.0
 11
848.2396422280919
 21
80.00006103515994
 31
0.0
  0
CIRCLE
  5
A333
330
1E
100
AcDbEntity
  8
17
  6
CONTINOUS
100
AcDbCircle
 10
832.4939146889917
 20
80.00006103515994
 30
0.0
 40
5.5
  0
LINE
  5
A334
330
1E
100
AcDbEntity
  8
17
  6
CONTINOUS
100
AcDbLine
 10
832.4939146889917
 20
125.9033203125
 30
0.0
 11
832.4939146889917
 21
98.21191406250006
 31
0.0
  0
LINE
  5
A335
330
1E
100
AcDbEntity
  8
17
  6
CONTINOUS
100
AcDbLine
 10
817.4939146889919
 20
110.0
 30
0.0
 11
848.2396422280919
 21
110.0
 31
0.0
  0
CIRCLE
  5
A336
330
1E
100
AcDbEntity
  8
17
  6
CONTINOUS
100
AcDbCircle
 10
832.4939146889917
 20
110.0
 30
0.0
 40
5.5
  0
LINE
  5
A337
330
1E
100
AcDbEntity
  8
17
  6
CONTINOUS
100
AcDbLine
 10
877.4939146889916
 20
127.5
 30
0.0
 11
877.4939146889916
 21
62.50003051758
 31
0.0
  0
LINE
  5
A338
330
1E
100
AcDbEntity
  8
17
  6
CONTINOUS
100
AcDbLine
 10
862.493914688992
 20
93.09472656250006
 30
0.0
 11
862.493914688992
 21
65.40383911133
 31
0.0
  0
LINE
  5
A339
330
1E
100
AcDbEntity
  8
17
  6
CONTINOUS
100
AcDbLine
 10
862.493914688992
 20
125.6025390625
 30
0.0
 11
862.493914688992
 21
98.21191406250006
 31
0.0
  0
LINE
  5
A33A
330
1E
100
AcDbEntity
  8
12
  6
DASHED
100
AcDbLine
 10
753.4939146889918
 20
252.0
 30
0.0
 11
753.4939146889918
 21
214.5
 31
0.0
  0
LINE
  5
A33B
330
1E
100
AcDbEntity
  8
12
  6
DASHED
100
AcDbLine
 10
765.1938658608918
 20
243.0
 30
0.0
 11
765.1938658608918
 21
221.0
 31
0.0
  0
LINE
  5
A33C
330
1E
100
AcDbEntity
  8
12
  6
DASHED
100
AcDbLine
 10
759.9939146889918
 20
208.0
 30
0.0
 11
797.4939146889918
 21
208.0
 31
0.0
  0
LINE
  5
A33D
330
1E
100
AcDbEntity
  8
12
  6
DASHED
100
AcDbLine
 10
797.4939146889918
 20
208.0
 30
0.0
 11
797.4939146889918
 21
202.0
 31
0.0
  0
ARC
  5
A33E
330
1E
100
AcDbEntity
  8
12
  6
DASHED
100
AcDbCircle
 10
759.9939146889918
 20
214.5
 30
0.0
 40
6.5
100
AcDbArc
 50
180.0
 51
270.0
  0
LINE
  5
A33F
330
1E
100
AcDbEntity
  8
12
  6
DASHED
100
AcDbLine
 10
753.4939146889918
 20
236.0
 30
0.0
 11
777.4939146889918
 21
236.0
 31
0.0
  0
LINE
  5
A340
330
1E
100
AcDbEntity
  8
12
  6
DASHED
100
AcDbLine
 10
753.4939146889918
 20
228.0
 30
0.0
 11
777.4939146889918
 21
228.0
 31
0.0
  0
LINE
  5
A341
330
1E
100
AcDbEntity
  8
12
  6
DASHED
100
AcDbLine
 10
777.4939146889918
 20
236.0
 30
0.0
 11
777.4939146889918
 21
228.0
 31
0.0
  0
LINE
  5
A342
330
1E
100
AcDbEntity
  8
12
  6
DASHED
100
AcDbLine
 10
753.4939146889918
 20
221.0
 30
0.0
 11
765.1938658608918
 21
221.0
 31
0.0
  0
LINE
  5
A343
330
1E
100
AcDbEntity
  8
12
  6
DASHED
100
AcDbLine
 10
753.4939146889918
 20
243.0
 30
0.0
 11
765.1938658608918
 21
243.0
 31
0.0
  0
LINE
  5
A345
330
1E
100
AcDbEntity
  8
18
100
AcDbLine
 10
577.4939146889918
 20
360.3957519531201
 30
0.0
 11
583.4939146889918
 21
360.48388671875
 31
0.0
  0
DIMENSION
  5
A4BC
330
1E
100
AcDbEntity
  8
30
  6
Continuous
100
AcDbDimension
  2
*D13
 10
263.9999999999998
 20
-730.0000309068956
 30
0.0
 11
264.0
 21
-714.0
 31
0.0
 70
   160
  1
30
 71
     5
 42
-1.0
  3
STANDARD
100
AcDbAlignedDimension
 13
43.59350585940005
 23
-700.0000309068952
 33
0.0
 14
233.49578857424
 24
-730.0000309068954
 34
0.0
 50
270.0
100
AcDbRotatedDimension
  0
DIMENSION
  5
A4BD
330
1E
100
AcDbEntity
  8
30
  6
Continuous
100
AcDbDimension
  2
*D14
 10
313.4188843324784
 20
-700.0000309068954
 30
0.0
 11
313.4188843324785
 21
-804.2232115119182
 31
0.0
 70
   160
  1
200
 71
     5
 42
-1.0
  3
STANDARD
100
AcDbAlignedDimension
 13
202.9999389648398
 23
-900.0000003893157
 33
0.0
 14
43.59350585940005
 24
-700.0000309068952
 34
0.0
 50
90.0
100
AcDbRotatedDimension
  0
DIMENSION
  5
A4BE
330
1E
100
AcDbEntity
  8
30
  6
Continuous
100
AcDbDimension
  2
*D15
 10
313.4188843324784
 20
-1011.000061424474
 30
0.0
 11
313.4188843324785
 21
-952.3250187194319
 31
0.0
 70
   160
  1
111
 71
     5
 42
-1.0
  3
STANDARD
100
AcDbAlignedDimension
 13
202.9999389648398
 23
-900.0000003893157
 33
0.0
 14
142.0935058594
 24
-1011.000061424474
 34
0.0
 50
270.0
100
AcDbRotatedDimension
  0
DIMENSION
  5
A4BF
330
1E
100
AcDbEntity
  8
30
  6
Continuous
100
AcDbDimension
  2
*D16
 10
151.0
 20
-1181.766952903964
 30
0.0
 11
9.728053042763377
 21
-1181.766952903964
 31
0.0
 70
   160
  1
302
 71
     5
 42
-1.0
  3
STANDARD
100
AcDbAlignedDimension
 13
-150.9997558593999
 23
-1011.093658836584
 33
0.0
 14
151.0
 24
-1011.093658836584
 34
0.0
100
AcDbRotatedDimension
  0
LINE
  5
A4C0
330
1E
100
AcDbEntity
  8
24
  6
DASHDOT
100
AcDbLine
 10
-194.8864746093999
 20
-981.0000614244753
 30
0.0
 11
235.55145263674
 21
-981.0000614244755
 31
0.0
  0
LINE
  5
A4C1
330
1E
100
AcDbEntity
  8
24
  6
DASHDOT
100
AcDbLine
 10
-179.3613281249999
 20
-730.0000309068953
 30
0.0
 11
242.4022827148399
 21
-730.0000309068954
 31
0.0
  0
LINE
  5
A4C3
330
1E
100
AcDbEntity
  8
18
100
AcDbLine
 10
-159.9999999999999
 20
-1125.000061424475
 30
0.0
 11
160.0
 21
-1125.000061424475
 31
0.0
  0
LINE
  5
A4C4
330
1E
100
AcDbEntity
  8
18
100
AcDbLine
 10
-159.9999999999999
 20
-675.0000309068951
 30
0.0
 11
160.0
 21
-675.0000309068951
 31
0.0
  0
LINE
  5
A4C7
330
1E
100
AcDbEntity
  8
24
  6
DASHDOT
100
AcDbLine
 10
-181.9624023437999
 20
-1031.000061424474
 30
0.0
 11
237.18865966794
 21
-1031.000061424474
 31
0.0
  0
LINE
  5
A4C8
330
1E
100
AcDbEntity
  8
24
  6
DASHDOT
100
AcDbLine
 10
-199.9997558593999
 20
-680.0000309068951
 30
0.0
 11
235.55145263674
 21
-680.0000309068955
 31
0.0
  0
LINE
  5
A4C9
330
1E
100
AcDbEntity
  8
24
  6
DASHDOT
100
AcDbLine
 10
243.1913452148398
 20
-724.0000309068953
 30
0.0
 11
-189.4438476562999
 21
-724.0000309068952
 31
0.0
  0
LINE
  5
A4CA
330
1E
100
AcDbEntity
  8
24
  6
DASHDOT
100
AcDbLine
 10
230.9252319335399
 20
-987.0000614244755
 30
0.0
 11
-198.4077148437999
 21
-987.0000614244752
 31
0.0
  0
LINE
  5
A4CB
330
1E
100
AcDbEntity
  8
18
100
AcDbLine
 10
-159.9999999999999
 20
-1125.000061424475
 30
0.0
 11
-159.9999999999999
 21
-675.0000309068951
 31
0.0
  0
LINE
  5
A4CE
330
1E
100
AcDbEntity
  8
24
  6
DASHDOT
100
AcDbLine
 10
-181.9624023437999
 20
-1031.000061424474
 30
0.0
 11
-197.3024902343999
 21
-1031.000061424474
 31
0.0
  0
LINE
  5
A4CF
330
1E
100
AcDbEntity
  8
12
100
AcDbLine
 10
-170.9997558593999
 20
-1011.000061424474
 30
0.0
 11
-130.9997558593998
 21
-1011.000061424474
 31
0.0
  0
CIRCLE
  5
A4D0
330
1E
100
AcDbEntity
  8
12
100
AcDbCircle
 10
-150.9997558593999
 20
-1011.000061424474
 30
0.0
 40
6.0
  0
LINE
  5
A4D7
330
1E
100
AcDbEntity
  8
24
  6
DASHDOT
100
AcDbLine
 10
-186.8134765624999
 20
-692.6056827623653
 30
0.0
 11
-199.9997558593999
 21
-680.0000309068951
 31
0.0
  0
LINE
  5
A4D8
330
1E
100
AcDbEntity
  8
24
  6
DASHDOT
100
AcDbLine
 10
-196.3077392577999
 20
-713.4930728990853
 30
0.0
 11
-186.8134765624999
 21
-692.6056827623653
 31
0.0
  0
LINE
  5
A4D9
330
1E
100
AcDbEntity
  8
24
  6
DASHDOT
100
AcDbLine
 10
-179.3613281249999
 20
-730.0000309068953
 30
0.0
 11
-196.3077392577999
 21
-713.4930728990853
 31
0.0
  0
DIMENSION
  5
A4DA
330
1E
100
AcDbEntity
  8
30
  6
Continuous
100
AcDbDimension
  2
*D17
 10
52.50000000000003
 20
-623.2564395983054
 30
0.0
 11
1.25471576888961
 21
-623.2564395983054
 31
0.0
 70
   160
  1
105
 71
     5
 42
-1.0
  3
STANDARD
100
AcDbAlignedDimension
 13
-52.49999999999997
 23
-699.9064029772052
 33
0.0
 14
52.50000000000003
 24
-699.9064029772052
 34
0.0
100
AcDbRotatedDimension
  0
CIRCLE
  5
A4DB
330
1E
100
AcDbEntity
  8
12
100
AcDbCircle
 10
-52.49999999999997
 20
-700.0000309068952
 30
0.0
 40
6.0
  0
LINE
  5
A4DC
330
1E
100
AcDbEntity
  8
12
100
AcDbLine
 10
-52.49999999999997
 20
-694.9064029772052
 30
0.0
 11
-52.5
 21
-724.0000309068952
 31
0.0
  0
LINE
  5
A4DD
330
1E
100
AcDbEntity
  8
12
100
AcDbLine
 10
-67.49999999999997
 20
-700.0000309068952
 30
0.0
 11
-37.49999999999996
 21
-700.0000309068952
 31
0.0
  0
CIRCLE
  5
A4DE
330
1E
100
AcDbEntity
  8
12
100
AcDbCircle
 10
52.50000000000003
 20
-700.0000309068952
 30
0.0
 40
6.0
  0
LINE
  5
A4DF
330
1E
100
AcDbEntity
  8
12
100
AcDbLine
 10
52.50000000000003
 20
-680.0000309068951
 30
0.0
 11
52.5
 21
-724.0000309068952
 31
0.0
  0
LINE
  5
A4E0
330
1E
100
AcDbEntity
  8
18
100
AcDbLine
 10
202.9999389648398
 20
-1125.000061424475
 30
0.0
 11
202.9999389648398
 21
-675.0000309068955
 31
0.0
  0
LINE
  5
A4E4
330
1E
100
AcDbEntity
  8
18
100
AcDbLine
 10
160.0
 20
-1125.000061424475
 30
0.0
 11
202.9999389648398
 21
-1125.000061424475
 31
0.0
  0
DIMENSION
  5
A4E5
330
1E
100
AcDbEntity
  8
30
  6
Continuous
100
AcDbDimension
  2
*D18
 10
265.9999999999998
 20
-981.0000614244755
 30
0.0
 11
266.0
 21
-995.0
 31
0.0
 70
   160
  1
30
 71
     5
 42
-1.0
  3
STANDARD
100
AcDbAlignedDimension
 13
142.0935058594
 23
-1011.000061424474
 33
0.0
 14
226.6449584960399
 24
-981.0000614244755
 34
0.0
 50
90.0
100
AcDbRotatedDimension
  0
CIRCLE
  5
A4E6
330
1E
100
AcDbEntity
  8
12
100
AcDbCircle
 10
151.0
 20
-1011.000061424474
 30
0.0
 40
6.0
  0
LINE
  5
A4E7
330
1E
100
AcDbEntity
  8
24
  6
DASHDOT
100
AcDbLine
 10
235.55145263674
 20
-981.0000614244755
 30
0.0
 11
227.5953979492399
 21
-998.3205875475253
 31
0.0
  0
LINE
  5
A4E8
330
1E
100
AcDbEntity
  8
24
  6
DASHDOT
100
AcDbLine
 10
227.5953979492399
 20
-998.3205875475253
 30
0.0
 11
236.1403198242399
 21
-1010.663116844395
 31
0.0
  0
LINE
  5
A4E9
330
1E
100
AcDbEntity
  8
24
  6
DASHDOT
100
AcDbLine
 10
236.1403198242399
 20
-1010.663116844395
 30
0.0
 11
237.18865966794
 21
-1031.000061424474
 31
0.0
  0
LINE
  5
A4EA
330
1E
100
AcDbEntity
  8
18
100
AcDbLine
 10
160.0
 20
-675.0000309068951
 30
0.0
 11
202.9999389648398
 21
-675.0000309068955
 31
0.0
  0
LINE
  5
A4EB
330
1E
100
AcDbEntity
  8
24
  6
DASHDOT
100
AcDbLine
 10
244.6852416992399
 20
-712.5436100084555
 30
0.0
 11
229.49432373044
 21
-694.5045475084555
 31
0.0
  0
LINE
  5
A4EC
330
1E
100
AcDbEntity
  8
18
100
AcDbLine
 10
242.4022827148399
 20
-730.0000309068954
 30
0.0
 11
244.6852416992399
 21
-712.5436100084555
 31
0.0
  0
LINE
  5
A4ED
330
1E
100
AcDbEntity
  8
24
  6
DASHDOT
100
AcDbLine
 10
229.49432373044
 20
-694.5045475084555
 30
0.0
 11
235.55145263674
 21
-680.0000309068955
 31
0.0
  0
LWPOLYLINE
  5
A5E9
330
1E
100
AcDbEntity
  8
10
  6
Continuous
100
AcDbPolyline
 90
       10
 70
     1
 43
0.0
 10
-159.809089459858
 20
822.2503662109499
 10
-5.809089459858045
 20
822.2503662109499
 10
14.19091054014194
 20
822.2503662109499
 10
99.19091054014195
 20
822.2503662109499
 10
119.1909105401419
 20
822.2503662109499
 10
160.1911546807419
 20
822.2503662109499
 10
160.1911546807419
 20
822.2503662109499
 10
160.1911546807419
 20
822.2503662109499
 10
160.1911546807418
 20
655.7498779296499
 10
-159.809089459858
 20
655.7498779296499
  0
DIMENSION
  5
A5EA
330
1E
100
AcDbEntity
  8
30
  6
Continuous
100
AcDbDimension
  2
*D19
 10
0.1909105401420676
 20
1001.504592324333
 30
0.0
 11
-52.30921153015792
 21
1009.504592324333
 31
0.0
 70
    32
 71
     5
 42
-1.0
  3
STANDARD
100
AcDbAlignedDimension
 13
-104.8093336004578
 23
952.25036621095
 33
0.0
 14
0.1909105401420646
 24
952.25036621095
 34
0.0
100
AcDbRotatedDimension
  0
LINE
  5
A5EB
330
1E
100
AcDbEntity
  8
24
  6
CONTINOUS
100
AcDbLine
 10
-125.6484449285579
 20
907.25036621095
 30
0.0
 11
-83.52661875665788
 21
907.25036621095
 31
0.0
  0
LINE
  5
A5EC
330
1E
100
AcDbEntity
  8
21
100
AcDbLine
 10
-114.8093336004578
 20
952.25036621095
 30
0.0
 11
-94.80933360045792
 21
952.25036621095
 31
0.0
  0
LINE
  5
A5ED
330
1E
100
AcDbEntity
  8
24
  6
CONTINOUS
100
AcDbLine
 10
-126.1884839910579
 20
937.2503662109499
 30
0.0
 11
-84.60645274105791
 21
937.2503662109499
 31
0.0
  0
LINE
  5
A5EF
330
1E
100
AcDbEntity
  8
21
100
AcDbLine
 10
-114.8093336004578
 20
822.2503662109499
 30
0.0
 11
-114.8093336004578
 21
952.25036621095
 31
0.0
  0
LINE
  5
A5F0
330
1E
100
AcDbEntity
  8
16
100
AcDbLine
 10
-0.0236775625206092
 20
583.8487549379062
 30
0.0
 11
0.1909105401420647
 21
1031.567697416741
 31
0.0
  0
LWPOLYLINE
  5
A5F1
330
1E
100
AcDbEntity
  8
10
  6
Continuous
100
AcDbPolyline
 90
        3
 70
     0
 43
0.0
 10
-57.30908945985794
 20
637.2498779296498
 10
-57.30908945985794
 20
633.24987792965
 10
57.69091054014205
 20
633.24987792965
  0
LWPOLYLINE
  5
A5F2
330
1E
100
AcDbEntity
  8
10
  6
Continuous
100
AcDbPolyline
 90
        4
 70
     0
 43
0.0
 10
-32.80908945985792
 20
633.24987792965
 10
-32.80908945985788
 20
585.249944361748
 10
33.1909105401421
 20
585.249944361748
 10
33.19091054014205
 20
633.24987792965
  0
LINE
  5
A5F3
330
1E
100
AcDbEntity
  8
10
  6
Continuous
100
AcDbLine
 10
-50.80908945985793
 20
637.2498779296498
 30
0.0
 11
-50.80908945985793
 21
637.2498779296498
 31
0.0
  0
LINE
  5
A5F4
330
1E
100
AcDbEntity
  8
10
  6
Continuous
100
AcDbLine
 10
57.69091054014205
 20
633.24987792965
 30
0.0
 11
57.69091054014205
 21
637.2498779296498
 31
0.0
  0
LINE
  5
A5F5
330
1E
100
AcDbEntity
  8
10
  6
Continuous
100
AcDbLine
 10
57.69091054014205
 20
637.2498779296498
 30
0.0
 11
57.69091054014205
 21
637.2498779296498
 31
0.0
  0
DIMENSION
  5
A5F6
330
1E
100
AcDbEntity
  8
30
  6
Continuous
100
AcDbDimension
  2
*D20
 10
105.190910540142
 20
1001.504592324333
 30
0.0
 11
52.69091054014207
 21
1009.504592324333
 31
0.0
 70
    32
 71
     5
 42
-1.0
  3
STANDARD
100
AcDbAlignedDimension
 13
0.1909105401420646
 23
782.4179270550009
 33
0.0
 14
105.190910540142
 24
952.25036621095
 34
0.0
100
AcDbRotatedDimension
1001
ACAD
1000
DSTYLE
1002
{
1070
   287
1070
     4
1070
   279
1070
     1
1002
}
  0
LINE
  5
A5F7
330
1E
100
AcDbEntity
  8
24
  6
CONTINOUS
100
AcDbLine
 10
-20.6484449285578
 20
907.25036621095
 30
0.0
 11
21.4736253839422
 21
907.25036621095
 31
0.0
  0
LINE
  5
A5F8
330
1E
100
AcDbEntity
  8
24
  6
CONTINOUS
100
AcDbLine
 10
-21.18848399105791
 20
937.2503662109499
 30
0.0
 11
20.39354725894207
 21
937.2503662109499
 31
0.0
  0
LINE
  5
A5F9
330
1E
100
AcDbEntity
  8
21
100
AcDbLine
 10
-94.80933360045792
 20
952.25036621095
 30
0.0
 11
-94.80933360045792
 21
822.2503662109499
 31
0.0
  0
LINE
  5
A5FA
330
1E
100
AcDbEntity
  8
21
100
AcDbLine
 10
-9.809089459857819
 20
822.2503662109499
 30
0.0
 11
-9.809089459857936
 21
952.25036621095
 31
0.0
  0
LINE
  5
A5FB
330
1E
100
AcDbEntity
  8
21
100
AcDbLine
 10
10.19091054014205
 20
952.25036621095
 30
0.0
 11
10.19091054014217
 21
822.2503662109499
 31
0.0
  0
LINE
  5
A5FC
330
1E
100
AcDbEntity
  8
21
100
AcDbLine
 10
-9.809089459857936
 20
952.25036621095
 30
0.0
 11
10.19091054014205
 21
952.25036621095
 31
0.0
  0
LINE
  5
A5FE
330
1E
100
AcDbEntity
  8
21
100
AcDbLine
 10
95.1909105401422
 20
822.2503662109499
 30
0.0
 11
95.19091054014209
 21
952.25036621095
 31
0.0
  0
LINE
  5
A5FF
330
1E
100
AcDbEntity
  8
21
100
AcDbLine
 10
115.190910540142
 20
952.25036621095
 30
0.0
 11
115.190910540142
 21
822.2503662109499
 31
0.0
  0
LINE
  5
A600
330
1E
100
AcDbEntity
  8
24
  6
CONTINOUS
100
AcDbLine
 10
84.35155507144221
 20
907.25036621095
 30
0.0
 11
126.4736253839422
 21
907.25036621095
 31
0.0
  0
LINE
  5
A601
330
1E
100
AcDbEntity
  8
24
  6
CONTINOUS
100
AcDbLine
 10
83.81151600894209
 20
937.2503662109499
 30
0.0
 11
125.393547258942
 21
937.2503662109499
 31
0.0
  0
LINE
  5
A602
330
1E
100
AcDbEntity
  8
21
100
AcDbLine
 10
95.19091054014209
 20
952.25036621095
 30
0.0
 11
115.190910540142
 21
952.25036621095
 31
0.0
  0
DIMENSION
  5
A603
330
1E
100
AcDbEntity
  8
30
  6
Continuous
100
AcDbDimension
  2
*D21
 10
140.5671252651073
 20
822.2503662109499
 30
0.0
 11
132.5671252651072
 21
864.75036621095
 31
0.0
 70
    32
 71
     5
 42
-1.0
  3
STANDARD
100
AcDbAlignedDimension
 13
121.4736253839422
 23
907.25036621095
 33
0.0
 14
110.190910540142
 24
822.2503662109499
 34
0.0
 50
90.0
100
AcDbRotatedDimension
1001
ACAD
1000
DSTYLE
1002
{
1070
   287
1070
     4
1070
   279
1070
     1
1002
}
  0
DIMENSION
  5
A609
330
1E
100
AcDbEntity
  8
30
  6
Continuous
100
AcDbDimension
  2
*D22
 10
140.5671252651073
 20
907.25036621095
 30
0.0
 11
139.0
 21
922.0
 31
0.0
 70
   160
 71
     5
 42
-1.0
  3
STANDARD
100
AcDbAlignedDimension
 13
110.190910540142
 23
937.2503662109499
 33
0.0
 14
121.4736253839422
 24
907.25036621095
 34
0.0
 50
90.0
100
AcDbRotatedDimension
1001
ACAD
1000
DSTYLE
1002
{
1070
   287
1070
     4
1070
   279
1070
     1
1002
}
  0
DIMENSION
  5
A60A
330
1E
100
AcDbEntity
  8
30
  6
Continuous
100
AcDbDimension
  2
*D23
 10
140.5671252651073
 20
937.2503662109499
 30
0.0
 11
140.5671252651072
 21
971.9170328776167
 31
0.0
 70
   160
 71
     5
 42
-1.0
  3
STANDARD
100
AcDbAlignedDimension
 13
110.190910540142
 23
952.25036621095
 33
0.0
 14
110.190910540142
 24
937.2503662109499
 34
0.0
 50
90.0
100
AcDbRotatedDimension
  0
DIMENSION
  5
A6A0
330
1E
100
AcDbEntity
  8
30
  6
Continuous
100
AcDbDimension
  2
*D24
 10
-256.0
 20
0.000000000000015
 30
0.0
 11
-264.0
 21
135.9999999999999
 31
0.0
 70
    32
 71
     5
 42
-1.0
  3
STANDARD
100
AcDbAlignedDimension
 13
-203.0
 23
272.0
 33
0.0
 14
-203.0
 24
0.0
 34
0.0
 50
90.0
100
AcDbRotatedDimension
  0
DIMENSION
  5
A6AD
330
1E
100
AcDbEntity
  8
30
  6
Continuous
100
AcDbDimension
  2
*D25
 10
-256.0
 20
-208.00003051758
 30
0.0
 11
-264.0
 21
-104.00001525879
 31
0.0
 70
    32
 71
     5
 42
-1.0
  3
STANDARD
100
AcDbAlignedDimension
 13
-208.0
 23
0.0000000000000014
 33
0.0
 14
-203.0
 24
-208.00003051758
 34
0.0
 50
90.0
100
AcDbRotatedDimension
  0
DIMENSION
  5
A6BA
330
1E
100
AcDbEntity
  8
30
  6
Continuous
100
AcDbDimension
  2
*D26
 10
202.9999389648398
 20
-283.0
 30
0.0
 11
-0.0000305175800003
 21
-275.0
 31
0.0
 70
    32
 71
     5
 42
-1.0
  3
STANDARD
100
AcDbAlignedDimension
 13
-203.0
 23
-208.00003051758
 33
0.0
 14
202.9999389648398
 24
-208.00003051758
 34
0.0
100
AcDbRotatedDimension
  0
LWPOLYLINE
  5
A77F
330
1E
100
AcDbEntity
  8
10
  6
Continuous
100
AcDbPolyline
 90
        4
 70
     1
 43
0.0
 10
558.9939146889918
 20
272.0
 10
558.9939146889918
 20
-208.00003051758
 10
577.4939146889918
 20
-208.00003051758
 10
577.4939146889918
 20
272.0
  0
DIMENSION
  5
A789
330
1E
100
AcDbEntity
  8
30
  6
Continuous
100
AcDbDimension
  2
*D27
 10
860.0813804134046
 20
105.0573611937426
 30
0.0
 11
882.9943889389804
 21
151.9999999999994
 31
0.0
 70
   163
 71
     5
 42
-1.0
  3
STANDARD
100
AcDbDiametricDimension
 15
864.9064489645793
 25
114.9426388062567
 35
0.0
 40
0.0
1001
ACAD
1000
DSTYLE
1002
{
1070
   288
1070
     1
1002
}
  0
LWPOLYLINE
  5
AA1F
330
1E
100
AcDbEntity
  8
10
  6
Continuous
100
AcDbPolyline
 90
        4
 70
     1
 43
0.0
 10
-203.0
 20
655.7498779296499
 10
202.9999389648597
 20
655.7498779296499
 10
202.9999389648597
 20
637.2498779296498
 10
-203.0
 20
637.2498779296498
  0
LINE
  5
AAE6
330
1E
100
AcDbEntity
  8
12
100
AcDbLine
 10
-150.9997558593999
 20
-1000.906433494785
 30
0.0
 11
-150.9997558594
 21
-1030.000061424475
 31
0.0
  0
LINE
  5
AAE7
330
1E
100
AcDbEntity
  8
12
100
AcDbLine
 10
151.0
 20
-1000.906433494785
 30
0.0
 11
151.0
 21
-1030.000061424475
 31
0.0
  0
DIMENSION
  5
AB2F
330
1E
100
AcDbEntity
  8
30
  6
Continuous
100
AcDbDimension
  2
*D28
 10
148.9076003533139
 20
-1016.623393507728
 30
0.0
 11
166.9999999999996
 21
-968.0
 31
0.0
 70
   163
 71
     5
 42
-1.0
  3
STANDARD
100
AcDbDiametricDimension
 15
153.0923996466862
 25
-1005.376729341221
 35
0.0
 40
0.0
  0
LWPOLYLINE
  5
ABD8
330
1E
100
AcDbEntity
  8
18
100
AcDbPolyline
 90
       12
 70
     0
 43
0.0
 10
-20.68457031249999
 20
570.2498779296497
 42
-0.3952649206514862
 10
-15.69516982406276
 20
565.5752742510522
 42
0.3952649206510883
 10
-20.68457031249999
 20
570.2498779296497
 10
-34.5
 20
570.2498779296497
 42
-0.4142135623730951
 10
-39.5
 20
575.2498779296497
 10
-39.5
 20
618.2498779296499
 10
39.5
 20
618.2498779296499
 10
39.5
 20
575.2498779296497
 42
-0.4142135623730951
 10
34.5
 20
570.2498779296497
 10
20.68472609898483
 20
570.2498779296497
 42
0.3952632559110944
 10
15.69532748464688
 20
565.5753029859108
 10
13.23583984380002
 20
527.8665771483498
  0
LWPOLYLINE
  5
ABD9
330
1E
100
AcDbEntity
  8
18
100
AcDbPolyline
 90
        2
 70
     0
 43
0.0
 10
13.23603008164543
 20
527.8665557664529
 42
0.2278926734517517
 10
15.5029538412006
 20
522.2401080859491
  0
LWPOLYLINE
  5
ABDA
330
1E
100
AcDbEntity
  8
18
100
AcDbPolyline
 90
        2
 70
     0
 43
0.0
 10
15.5027050917392
 20
522.2400555283892
 42
0.3876628149296077
 10
-15.50270468649747
 20
522.2400558981525
  0
LWPOLYLINE
  5
ABDB
330
1E
100
AcDbEntity
  8
18
100
AcDbPolyline
 90
        2
 70
     0
 43
0.0
 10
-15.50277462973539
 20
522.2399920781867
 42
2.579545223961849
 10
15.50277800559692
 20
522.2399889978524
  0
LWPOLYLINE
  5
ABDC
330
1E
100
AcDbEntity
  8
18
100
AcDbPolyline
 90
        2
 70
     0
 43
0.0
 10
-15.69482421869997
 20
565.5750732421497
 10
-13.23583984369997
 20
527.8665771483498
  0
LWPOLYLINE
  5
ABDD
330
1E
100
AcDbEntity
  8
18
100
AcDbPolyline
 90
        2
 70
     0
 43
0.0
 10
-15.50246568321001
 20
522.2401079734614
 42
0.2278926734499888
 10
-13.23554178950005
 20
527.8665555998494
  0
LWPOLYLINE
  5
AC47
330
1E
100
AcDbEntity
  8
18
100
AcDbPolyline
 90
        6
 70
     1
 43
0.0
 10
452.8789368039483
 20
50.67061789397621
 10
494.8677816962313
 20
29.93679633461097
 10
540.4480162514918
 20
14.86254882809999
 10
553.0085631264918
 20
52.84008789059999
 10
507.4353209389919
 20
67.91137695309998
 10
461.3570361250306
 20
76.30474020091219
 42
3.083089198377178
  0
DIMENSION
  5
AC57
330
1E
100
AcDbEntity
  8
30
  6
Continuous
100
AcDbDimension
  2
*D29
 10
407.4939146889918
 20
-389.0
 30
0.0
 11
577.4939146889918
 21
-381.0
 31
0.0
 70
    32
 71
     5
 42
-1.0
  3
STANDARD
100
AcDbAlignedDimension
 13
747.4939146889918
 23
-345.34714126587
 33
0.0
 14
407.4939146889918
 24
0.0
 34
0.0
100
AcDbRotatedDimension
  0
LINE
  5
AC91
330
1E
100
AcDbEntity
  8
30
  6
Continuous
100
AcDbLine
 10
416.4385219968811
 20
69.33489526592282
 30
0.0
 11
408.0955572470321
 21
0.0
 31
0.0
  0
LWPOLYLINE
  5
AC94
330
1E
100
AcDbEntity
  8
24
  6
DASHDOT
100
AcDbPolyline
 90
        3
 70
     0
 43
0.0
 10
-194.8864746093999
 20
-981.0000614244753
 10
-191.0
 20
-1003.0
 10
-197.3024902343999
 20
-1031.000061424474
  0
VIEWPORT
  5
9AC
330
1A
100
AcDbEntity
 67
     1
  8
0
  6
Continuous
100
AcDbViewport
 10
171.9995348790992
 20
144.1384735538403
 30
0.0
 40
488.8676857773513
 41
292.3514905034161
 68
     1
 69
     1
 12
171.9995348790992
 22
144.1384735538403
 13
0.0
 23
0.0
 14
10.0
 24
10.0
 15
10.0
 25
10.0
 16
0.0
 26
0.0
 36
1.0
 17
0.0
 27
0.0
 37
0.0
 42
50.0
 43
0.0
 44
0.0
 45
292.3514905034161
 50
0.0
 51
0.0
 72
   100
 90
    32800
  1

281
     0
 71
     1
 74
     0
110
0.0
120
0.0
130
0.0
111
1.0
121
0.0
131
0.0
112
0.0
122
1.0
132
0.0
 79
     0
146
0.0
  0
ENDSEC
  0
SECTION
  2
OBJECTS
  0
DICTIONARY
  5
C
330
0
100
AcDbDictionary
281
     1
  3
ACAD_GROUP
350
D
  3
ACAD_LAYOUT
350
19
  3
ACAD_MLINESTYLE
350
16
  3
ACAD_PLOTSETTINGS
350
18
  3
ACAD_PLOTSTYLENAME
350
E
  3
ACDBVARIABLEDICTIONARY
350
6C1E
  0
DICTIONARY
  5
178
330
1E
100
AcDbDictionary
280
     1
281
     1
  3
ACAD_LAYOUTSELFREF
360
ACBC
  0
DICTIONARY
  5
17A
330
1A
100
AcDbDictionary
280
     1
281
     1
  3
ACAD_LAYOUTSELFREF
360
ACBB
  0
DICTIONARY
  5
D
102
{ACAD_REACTORS
330
C
102
}
330
C
100
AcDbDictionary
281
     1
  0
DICTIONARY
  5
19
102
{ACAD_REACTORS
330
C
102
}
330
C
100
AcDbDictionary
281
     1
  3
Model
350
ACDC
  3
ﾚｲｱｳﾄ1
350
ACDD
  0
DICTIONARY
  5
16
102
{ACAD_REACTORS
330
C
102
}
330
C
100
AcDbDictionary
281
     1
  3
STANDARD
350
17
  0
DICTIONARY
  5
18
102
{ACAD_REACTORS
330
C
102
}
330
C
100
AcDbDictionary
281
     1
  0
ACDBDICTIONARYWDFLT
  5
E
102
{ACAD_REACTORS
330
C
102
}
330
C
100
AcDbDictionary
281
     1
  3
Normal
350
F
100
AcDbDictionaryWithDefault
340
F
  0
DICTIONARY
  5
6C1E
102
{ACAD_REACTORS
330
C
102
}
330
C
100
AcDbDictionary
281
     1
  3
DIMASSOC
350
878E
  3
SORTENTS
350
6C1F
  0
XRECORD
  5
ACBC
102
{ACAD_REACTORS
330
178
102
}
330
178
100
AcDbXrecord
280
     1
340
1E
  0
XRECORD
  5
ACBB
102
{ACAD_REACTORS
330
17A
102
}
330
17A
100
AcDbXrecord
280
     1
340
1A
  0
LAYOUT
  5
ACDC
102
{ACAD_REACTORS
330
19
102
}
330
19
100
AcDbPlotSettings
  1

  2
LBP5400
  4

  6

 40
0.0
 41
0.0
 42
0.0
 43
0.0
 44
0.0
 45
0.0
 46
0.0
 47
0.0
 48
0.0
 49
0.0
140
0.0
141
0.0
142
1.0
143
1.0
 70
  1712
 72
     0
 73
     0
 74
     0
  7
monochrome.stb
 75
     0
147
1.0
148
0.0
149
0.0
100
AcDbLayout
  1
Model
 70
     1
 71
     0
 10
0.0
 20
0.0
 11
12.0
 21
9.0
 12
0.0
 22
0.0
 32
0.0
 14
0.0
 24
0.0
 34
0.0
 15
0.0
 25
0.0
 35
0.0
146
0.0
 13
0.0
 23
0.0
 33
0.0
 16
1.0
 26
0.0
 36
0.0
 17
0.0
 27
1.0
 37
0.0
 76
     0
330
1E
  0
LAYOUT
  5
ACDD
102
{ACAD_REACTORS
330
19
102
}
330
19
100
AcDbPlotSettings
  1

  2
LBP5400
  4

  6

 40
0.0
 41
0.0
 42
0.0
 43
0.0
 44
0.0
 45
0.0
 46
0.0
 47
0.0
 48
0.0
 49
0.0
140
0.0
141
0.0
142
1.0
143
1.0
 70
   688
 72
     0
 73
     0
 74
     5
  7
monochrome.stb
 75
    16
147
1.0
148
0.0
149
0.0
100
AcDbLayout
  1
ﾚｲｱｳﾄ1
 70
     1
 71
     1
 10
-5.873748779296875
 20
-5.873749732971191
 11
204.0995788574218
 21
291.1369009017943
 12
0.0
 22
0.0
 32
0.0
 14
4.273573370203961
 24
5.205246163471485
 34
0.0
 15
194.6100952986349
 25
283.0697008572913
 35
0.0
146
0.0
 13
0.0
 23
0.0
 33
0.0
 16
1.0
 26
0.0
 36
0.0
 17
0.0
 27
1.0
 37
0.0
 76
     0
330
1A
331
9AC
  0
MLINESTYLE
  5
17
102
{ACAD_REACTORS
330
16
102
}
330
16
100
AcDbMlineStyle
  2
STANDARD
 70
     0
  3

 62
   256
 51
90.0
 52
90.0
 71
     2
 49
0.5
 62
   256
  6
BYLAYER
 49
-0.5
 62
   256
  6
BYLAYER
  0
ACDBPLACEHOLDER
  5
F
102
{ACAD_REACTORS
330
E
102
}
330
E
  0
DICTIONARYVAR
  5
878E
102
{ACAD_REACTORS
330
6C1E
102
}
330
6C1E
100
DictionaryVariables
280
     0
  1
1
  0
DICTIONARYVAR
  5
6C1F
102
{ACAD_REACTORS
330
6C1E
102
}
330
6C1E
100
DictionaryVariables
280
     0
  1
96
  0
ENDSEC
  0
EOF
