  0
SECTION
  2
HEADER
  9
$ACADVER
  1
AC1015
  9
$ACADMAINTVER
 70
    10
  9
$DWGCODEPAGE
  3
ANSI_932
  9
$INSBASE
 10
0.0
 20
0.0
 30
0.0
  9
$EXTMIN
 10
-268.8933105467999
 20
-887.0852836296467
 30
0.0
  9
$EXTMAX
 10
812.4346010957633
 20
703.6507035126527
 30
0.0
  9
$LIMMIN
 10
-184.0
 20
-675.0
  9
$LIMMAX
 10
509.0
 20
453.0
  9
$ORTHOMODE
 70
     1
  9
$REGENMODE
 70
     1
  9
$FILLMODE
 70
     1
  9
$QTEXTMODE
 70
     0
  9
$MIRRTEXT
 70
     1
  9
$LTSCALE
 40
20.0
  9
$ATTMODE
 70
     1
  9
$TEXTSIZE
 40
5.0
  9
$TRACEWID
 40
0.05
  9
$TEXTSTYLE
  7
STANDARD1
  9
$CLAYER
  8
30
  9
$CELTYPE
  6
CONTINUOUS
  9
$CECOLOR
 62
   256
  9
$CELTSCALE
 40
1.0
  9
$DISPSILH
 70
     0
  9
$DIMSCALE
 40
1.0
  9
$DIMASZ
 40
2.0
  9
$DIMEXO
 40
5.0
  9
$DIMDLI
 40
0.5
  9
$DIMRND
 40
0.0
  9
$DIMDLE
 40
0.0
  9
$DIMEXE
 40
0.5
  9
$DIMTP
 40
0.0
  9
$DIMTM
 40
0.0
  9
$DIMTXT
 40
8.0
  9
$DIMCEN
 40
0.09
  9
$DIMTSZ
 40
0.0
  9
$DIMTOL
 70
     0
  9
$DIMLIM
 70
     0
  9
$DIMTIH
 70
     0
  9
$DIMTOH
 70
     1
  9
$DIMSE1
 70
     0
  9
$DIMSE2
 70
     0
  9
$DIMTAD
 70
     3
  9
$DIMZIN
 70
    12
  9
$DIMBLK
  1
OPEN
  9
$DIMASO
 70
     1
  9
$DIMSHO
 70
     1
  9
$DIMPOST
  1

  9
$DIMAPOST
  1

  9
$DIMALT
 70
     0
  9
$DIMALTD
 70
     2
  9
$DIMALTF
 40
25.4
  9
$DIMLFAC
 40
1.0
  9
$DIMTOFL
 70
     0
  9
$DIMTVP
 40
0.0
  9
$DIMTIX
 70
     0
  9
$DIMSOXD
 70
     0
  9
$DIMSAH
 70
     0
  9
$DIMBLK1
  1

  9
$DIMBLK2
  1

  9
$DIMSTYLE
  2
STANDARD
  9
$DIMCLRD
 70
     0
  9
$DIMCLRE
 70
     0
  9
$DIMCLRT
 70
     0
  9
$DIMTFAC
 40
1.0
  9
$DIMGAP
 40
2.0
  9
$DIMJUST
 70
     0
  9
$DIMSD1
 70
     0
  9
$DIMSD2
 70
     0
  9
$DIMTOLJ
 70
     1
  9
$DIMTZIN
 70
     0
  9
$DIMALTZ
 70
     0
  9
$DIMALTTZ
 70
     0
  9
$DIMUPT
 70
     0
  9
$DIMDEC
 70
     1
  9
$DIMTDEC
 70
     1
  9
$DIMALTU
 70
     2
  9
$DIMALTTD
 70
     2
  9
$DIMTXSTY
  7
STANDARD
  9
$DIMAUNIT
 70
     0
  9
$DIMADEC
 70
     0
  9
$DIMALTRND
 40
0.0
  9
$DIMAZIN
 70
     3
  9
$DIMDSEP
 70
    46
  9
$DIMATFIT
 70
     3
  9
$DIMFRAC
 70
     0
  9
$DIMLDRBLK
  1
OPEN
  9
$DIMLUNIT
 70
     2
  9
$DIMLWD
 70
    -2
  9
$DIMLWE
 70
    -2
  9
$DIMTMOVE
 70
     0
  9
$LUNITS
 70
     2
  9
$LUPREC
 70
     4
  9
$SKETCHINC
 40
0.1
  9
$FILLETRAD
 40
0.0
  9
$AUNITS
 70
     0
  9
$AUPREC
 70
     0
  9
$MENU
  1
.
  9
$ELEVATION
 40
0.0
  9
$PELEVATION
 40
0.0
  9
$THICKNESS
 40
0.0
  9
$LIMCHECK
 70
     0
  9
$CHAMFERA
 40
0.0
  9
$CHAMFERB
 40
0.0
  9
$CHAMFERC
 40
0.0
  9
$CHAMFERD
 40
0.0
  9
$SKPOLY
 70
     0
  9
$TDCREATE
 40
2452286.555658657
  9
$TDUCREATE
 40
2452286.180658657
  9
$TDUPDATE
 40
2454670.455275417
  9
$TDUUPDATE
 40
2454670.080275417
  9
$TDINDWG
 40
1.6177353588
  9
$TDUSRTIMER
 40
1.6177348958
  9
$USRTIMER
 70
     1
  9
$ANGBASE
 50
0.0
  9
$ANGDIR
 70
     0
  9
$PDMODE
 70
     0
  9
$PDSIZE
 40
0.0
  9
$PLINEWID
 40
0.0
  9
$SPLFRAME
 70
     0
  9
$SPLINETYPE
 70
     6
  9
$SPLINESEGS
 70
     8
  9
$HANDSEED
  5
8B46
  9
$SURFTAB1
 70
     6
  9
$SURFTAB2
 70
     6
  9
$SURFTYPE
 70
     6
  9
$SURFU
 70
     6
  9
$SURFV
 70
     6
  9
$UCSBASE
  2

  9
$UCSNAME
  2

  9
$UCSORG
 10
0.0
 20
0.0
 30
0.0
  9
$UCSXDIR
 10
1.0
 20
0.0
 30
0.0
  9
$UCSYDIR
 10
0.0
 20
1.0
 30
0.0
  9
$UCSORTHOREF
  2

  9
$UCSORTHOVIEW
 70
     0
  9
$UCSORGTOP
 10
0.0
 20
0.0
 30
0.0
  9
$UCSORGBOTTOM
 10
0.0
 20
0.0
 30
0.0
  9
$UCSORGLEFT
 10
0.0
 20
0.0
 30
0.0
  9
$UCSORGRIGHT
 10
0.0
 20
0.0
 30
0.0
  9
$UCSORGFRONT
 10
0.0
 20
0.0
 30
0.0
  9
$UCSORGBACK
 10
0.0
 20
0.0
 30
0.0
  9
$PUCSBASE
  2

  9
$PUCSNAME
  2

  9
$PUCSORG
 10
0.0
 20
0.0
 30
0.0
  9
$PUCSXDIR
 10
1.0
 20
0.0
 30
0.0
  9
$PUCSYDIR
 10
0.0
 20
1.0
 30
0.0
  9
$PUCSORTHOREF
  2

  9
$PUCSORTHOVIEW
 70
     0
  9
$PUCSORGTOP
 10
0.0
 20
0.0
 30
0.0
  9
$PUCSORGBOTTOM
 10
0.0
 20
0.0
 30
0.0
  9
$PUCSORGLEFT
 10
0.0
 20
0.0
 30
0.0
  9
$PUCSORGRIGHT
 10
0.0
 20
0.0
 30
0.0
  9
$PUCSORGFRONT
 10
0.0
 20
0.0
 30
0.0
  9
$PUCSORGBACK
 10
0.0
 20
0.0
 30
0.0
  9
$USERI1
 70
     0
  9
$USERI2
 70
     0
  9
$USERI3
 70
     0
  9
$USERI4
 70
     0
  9
$USERI5
 70
     0
  9
$USERR1
 40
0.0
  9
$USERR2
 40
0.0
  9
$USERR3
 40
0.0
  9
$USERR4
 40
0.0
  9
$USERR5
 40
0.0
  9
$WORLDVIEW
 70
     1
  9
$SHADEDGE
 70
     3
  9
$SHADEDIF
 70
    70
  9
$TILEMODE
 70
     1
  9
$MAXACTVP
 70
    48
  9
$PINSBASE
 10
0.0
 20
0.0
 30
0.0
  9
$PLIMCHECK
 70
     0
  9
$PEXTMIN
 10
4.273573370203961
 20
5.205246163471485
 30
0.0
  9
$PEXTMAX
 10
194.6100952986349
 20
283.0697008572913
 30
0.0
  9
$PLIMMIN
 10
-5.873748779296875
 20
-5.873749732971191
  9
$PLIMMAX
 10
204.0995788574218
 20
291.1369009017943
  9
$UNITMODE
 70
     0
  9
$VISRETAIN
 70
     1
  9
$PLINEGEN
 70
     0
  9
$PSLTSCALE
 70
     1
  9
$TREEDEPTH
 70
  3020
  9
$CMLSTYLE
  2
STANDARD
  9
$CMLJUST
 70
     0
  9
$CMLSCALE
 40
1.0
  9
$PROXYGRAPHICS
 70
     1
  9
$MEASUREMENT
 70
     0
  9
$CELWEIGHT
370
    -1
  9
$ENDCAPS
280
     0
  9
$JOINSTYLE
280
     0
  9
$LWDISPLAY
290
     0
  9
$INSUNITS
 70
     0
  9
$HYPERLINKBASE
  1

  9
$STYLESHEET
  1
KIKI.ctb
  9
$XEDIT
290
     1
  9
$CEPSNTYPE
380
     0
  9
$PSTYLEMODE
290
     1
  9
$FINGERPRINTGUID
  2

  9
$VERSIONGUID
  2
{C6E3B5C4-0908-49EE-8570-7D5AAEED371A}
  9
$EXTNAMES
290
     1
  9
$PSVPSCALE
 40
0.0
  9
$OLESTARTUP
290
     0
  0
ENDSEC
  0
SECTION
  2
CLASSES
  0
CLASS
  1
ACDBDICTIONARYWDFLT
  2
AcDbDictionaryWithDefault
  3
AutoCAD 2000
 90
        0
280
     0
281
     0
  0
CLASS
  1
ACDBPLACEHOLDER
  2
AcDbPlaceHolder
  3
AutoCAD 2000
 90
        0
280
     0
281
     0
  0
CLASS
  1
LAYOUT
  2
AcDbLayout
  3
AutoCAD 2000
 90
        0
280
     0
281
     0
  0
CLASS
  1
LONG_TRANSACTION
  2
AcDbLongTransaction
  3
AutoCAD 2000
 90
    32768
280
     0
281
     0
  0
CLASS
  1
LWPOLYLINE
  2
AcDbPolyline
  3
AutoCAD 2000
 90
    32768
280
     0
281
     1
  0
CLASS
  1
HATCH
  2
AcDbHatch
  3
AutoCAD 2000
 90
    32768
280
     0
281
     1
  0
CLASS
  1
XRECORD
  2
AcDbXrecord
  3
AutoCAD 2000
 90
    32768
280
     0
281
     0
  0
CLASS
  1
LONG_TRANSACTION
  2
AcDbLongTransaction
  3
AutoCAD 2000
 90
    32768
280
     0
281
     0
  0
CLASS
  1
LWPOLYLINE
  2
AcDbPolyline
  3
AutoCAD 2000
 90
    32768
280
     0
281
     1
  0
CLASS
  1
HATCH
  2
AcDbHatch
  3
AutoCAD 2000
 90
    32768
280
     0
281
     1
  0
CLASS
  1
XRECORD
  2
AcDbXrecord
  3
AutoCAD 2000
 90
    32768
280
     0
281
     0
  0
CLASS
  1
LONG_TRANSACTION
  2
AcDbLongTransaction
  3
AutoCAD 2000
 90
    32768
280
     0
281
     0
  0
CLASS
  1
LWPOLYLINE
  2
AcDbPolyline
  3
AutoCAD 2000
 90
    32768
280
     0
281
     1
  0
CLASS
  1
HATCH
  2
AcDbHatch
  3
AutoCAD 2000
 90
    32768
280
     0
281
     1
  0
CLASS
  1
XRECORD
  2
AcDbXrecord
  3
AutoCAD 2000
 90
    32768
280
     0
281
     0
  0
CLASS
  1
LONG_TRANSACTION
  2
AcDbLongTransaction
  3
AutoCAD 2000
 90
    32768
280
     0
281
     0
  0
CLASS
  1
LWPOLYLINE
  2
AcDbPolyline
  3
AutoCAD 2000
 90
    32768
280
     0
281
     1
  0
CLASS
  1
HATCH
  2
AcDbHatch
  3
AutoCAD 2000
 90
    32768
280
     0
281
     1
  0
CLASS
  1
XRECORD
  2
AcDbXrecord
  3
AutoCAD 2000
 90
    32768
280
     0
281
     0
  0
CLASS
  1
LONG_TRANSACTION
  2
AcDbLongTransaction
  3
AutoCAD 2000
 90
    32768
280
     0
281
     0
  0
CLASS
  1
LWPOLYLINE
  2
AcDbPolyline
  3
AutoCAD 2000
 90
    32768
280
     0
281
     1
  0
CLASS
  1
HATCH
  2
AcDbHatch
  3
AutoCAD 2000
 90
    32768
280
     0
281
     1
  0
CLASS
  1
XRECORD
  2
AcDbXrecord
  3
AutoCAD 2000
 90
    32768
280
     0
281
     0
  0
CLASS
  1
LONG_TRANSACTION
  2
AcDbLongTransaction
  3
AutoCAD 2000
 90
    32768
280
     0
281
     0
  0
CLASS
  1
LWPOLYLINE
  2
AcDbPolyline
  3
AutoCAD 2000
 90
    32768
280
     0
281
     1
  0
CLASS
  1
HATCH
  2
AcDbHatch
  3
AutoCAD 2000
 90
    32768
280
     0
281
     1
  0
CLASS
  1
XRECORD
  2
AcDbXrecord
  3
AutoCAD 2000
 90
    32768
280
     0
281
     0
  0
CLASS
  1
LONG_TRANSACTION
  2
AcDbLongTransaction
  3
AutoCAD 2000
 90
    32768
280
     0
281
     0
  0
CLASS
  1
LWPOLYLINE
  2
AcDbPolyline
  3
AutoCAD 2000
 90
    32768
280
     0
281
     1
  0
CLASS
  1
HATCH
  2
AcDbHatch
  3
AutoCAD 2000
 90
    32768
280
     0
281
     1
  0
CLASS
  1
XRECORD
  2
AcDbXrecord
  3
AutoCAD 2000
 90
    32768
280
     0
281
     0
  0
CLASS
  1
LONG_TRANSACTION
  2
AcDbLongTransaction
  3
AutoCAD 2000
 90
    32768
280
     0
281
     0
  0
CLASS
  1
LWPOLYLINE
  2
AcDbPolyline
  3
AutoCAD 2000
 90
    32768
280
     0
281
     1
  0
CLASS
  1
HATCH
  2
AcDbHatch
  3
AutoCAD 2000
 90
    32768
280
     0
281
     1
  0
CLASS
  1
XRECORD
  2
AcDbXrecord
  3
AutoCAD 2000
 90
    32768
280
     0
281
     0
  0
CLASS
  1
LONG_TRANSACTION
  2
AcDbLongTransaction
  3
AutoCAD 2000
 90
    32768
280
     0
281
     0
  0
CLASS
  1
LWPOLYLINE
  2
AcDbPolyline
  3
AutoCAD 2000
 90
    32768
280
     0
281
     1
  0
CLASS
  1
HATCH
  2
AcDbHatch
  3
AutoCAD 2000
 90
    32768
280
     0
281
     1
  0
CLASS
  1
XRECORD
  2
AcDbXrecord
  3
AutoCAD 2000
 90
    32768
280
     0
281
     0
  0
CLASS
  1
LONG_TRANSACTION
  2
AcDbLongTransaction
  3
AutoCAD 2000
 90
    32768
280
     0
281
     0
  0
CLASS
  1
LWPOLYLINE
  2
AcDbPolyline
  3
AutoCAD 2000
 90
    32768
280
     0
281
     1
  0
CLASS
  1
HATCH
  2
AcDbHatch
  3
AutoCAD 2000
 90
    32768
280
     0
281
     1
  0
CLASS
  1
XRECORD
  2
AcDbXrecord
  3
AutoCAD 2000
 90
    32768
280
     0
281
     0
  0
CLASS
  1
LONG_TRANSACTION
  2
AcDbLongTransaction
  3
AutoCAD 2000
 90
    32768
280
     0
281
     0
  0
CLASS
  1
LWPOLYLINE
  2
AcDbPolyline
  3
AutoCAD 2000
 90
    32768
280
     0
281
     1
  0
CLASS
  1
HATCH
  2
AcDbHatch
  3
AutoCAD 2000
 90
    32768
280
     0
281
     1
  0
CLASS
  1
XRECORD
  2
AcDbXrecord
  3
AutoCAD 2000
 90
    32768
280
     0
281
     0
  0
CLASS
  1
LONG_TRANSACTION
  2
AcDbLongTransaction
  3
AutoCAD 2000
 90
    32768
280
     0
281
     0
  0
CLASS
  1
LWPOLYLINE
  2
AcDbPolyline
  3
AutoCAD 2000
 90
    32768
280
     0
281
     1
  0
CLASS
  1
HATCH
  2
AcDbHatch
  3
AutoCAD 2000
 90
    32768
280
     0
281
     1
  0
CLASS
  1
XRECORD
  2
AcDbXrecord
  3
AutoCAD 2000
 90
    32768
280
     0
281
     0
  0
CLASS
  1
LONG_TRANSACTION
  2
AcDbLongTransaction
  3
AutoCAD 2000
 90
    32768
280
     0
281
     0
  0
CLASS
  1
LWPOLYLINE
  2
AcDbPolyline
  3
AutoCAD 2000
 90
    32768
280
     0
281
     1
  0
CLASS
  1
HATCH
  2
AcDbHatch
  3
AutoCAD 2000
 90
    32768
280
     0
281
     1
  0
CLASS
  1
XRECORD
  2
AcDbXrecord
  3
AutoCAD 2000
 90
    32768
280
     0
281
     0
  0
CLASS
  1
LONG_TRANSACTION
  2
AcDbLongTransaction
  3
AutoCAD 2000
 90
    32768
280
     0
281
     0
  0
CLASS
  1
LWPOLYLINE
  2
AcDbPolyline
  3
AutoCAD 2000
 90
    32768
280
     0
281
     1
  0
CLASS
  1
HATCH
  2
AcDbHatch
  3
AutoCAD 2000
 90
    32768
280
     0
281
     1
  0
CLASS
  1
XRECORD
  2
AcDbXrecord
  3
AutoCAD 2000
 90
    32768
280
     0
281
     0
  0
CLASS
  1
LONG_TRANSACTION
  2
AcDbLongTransaction
  3
AutoCAD 2000
 90
    32768
280
     0
281
     0
  0
CLASS
  1
LWPOLYLINE
  2
AcDbPolyline
  3
AutoCAD 2000
 90
    32768
280
     0
281
     1
  0
CLASS
  1
HATCH
  2
AcDbHatch
  3
AutoCAD 2000
 90
    32768
280
     0
281
     1
  0
CLASS
  1
XRECORD
  2
AcDbXrecord
  3
AutoCAD 2000
 90
    32768
280
     0
281
     0
  0
CLASS
  1
LONG_TRANSACTION
  2
AcDbLongTransaction
  3
AutoCAD 2000
 90
    32768
280
     0
281
     0
  0
CLASS
  1
LWPOLYLINE
  2
AcDbPolyline
  3
AutoCAD 2000
 90
    32768
280
     0
281
     1
  0
CLASS
  1
HATCH
  2
AcDbHatch
  3
AutoCAD 2000
 90
    32768
280
     0
281
     1
  0
CLASS
  1
XRECORD
  2
AcDbXrecord
  3
AutoCAD 2000
 90
    32768
280
     0
281
     0
  0
CLASS
  1
LONG_TRANSACTION
  2
AcDbLongTransaction
  3
AutoCAD 2000
 90
    32768
280
     0
281
     0
  0
CLASS
  1
LWPOLYLINE
  2
AcDbPolyline
  3
AutoCAD 2000
 90
    32768
280
     0
281
     1
  0
CLASS
  1
HATCH
  2
AcDbHatch
  3
AutoCAD 2000
 90
    32768
280
     0
281
     1
  0
CLASS
  1
XRECORD
  2
AcDbXrecord
  3
AutoCAD 2000
 90
    32768
280
     0
281
     0
  0
CLASS
  1
LONG_TRANSACTION
  2
AcDbLongTransaction
  3
AutoCAD 2000
 90
    32768
280
     0
281
     0
  0
CLASS
  1
LWPOLYLINE
  2
AcDbPolyline
  3
AutoCAD 2000
 90
    32768
280
     0
281
     1
  0
CLASS
  1
HATCH
  2
AcDbHatch
  3
AutoCAD 2000
 90
    32768
280
     0
281
     1
  0
CLASS
  1
XRECORD
  2
AcDbXrecord
  3
AutoCAD 2000
 90
    32768
280
     0
281
     0
  0
CLASS
  1
LONG_TRANSACTION
  2
AcDbLongTransaction
  3
AutoCAD 2000
 90
    32768
280
     0
281
     0
  0
CLASS
  1
LWPOLYLINE
  2
AcDbPolyline
  3
AutoCAD 2000
 90
    32768
280
     0
281
     1
  0
CLASS
  1
HATCH
  2
AcDbHatch
  3
AutoCAD 2000
 90
    32768
280
     0
281
     1
  0
CLASS
  1
XRECORD
  2
AcDbXrecord
  3
AutoCAD 2000
 90
    32768
280
     0
281
     0
  0
CLASS
  1
LONG_TRANSACTION
  2
AcDbLongTransaction
  3
AutoCAD 2000
 90
    32768
280
     0
281
     0
  0
CLASS
  1
LWPOLYLINE
  2
AcDbPolyline
  3
AutoCAD 2000
 90
    32768
280
     0
281
     1
  0
CLASS
  1
HATCH
  2
AcDbHatch
  3
AutoCAD 2000
 90
    32768
280
     0
281
     1
  0
CLASS
  1
XRECORD
  2
AcDbXrecord
  3
AutoCAD 2000
 90
    32768
280
     0
281
     0
  0
CLASS
  1
LONG_TRANSACTION
  2
AcDbLongTransaction
  3
AutoCAD 2000
 90
    32768
280
     0
281
     0
  0
CLASS
  1
LWPOLYLINE
  2
AcDbPolyline
  3
AutoCAD 2000
 90
    32768
280
     0
281
     1
  0
CLASS
  1
HATCH
  2
AcDbHatch
  3
AutoCAD 2000
 90
    32768
280
     0
281
     1
  0
CLASS
  1
XRECORD
  2
AcDbXrecord
  3
AutoCAD 2000
 90
    32768
280
     0
281
     0
  0
CLASS
  1
LONG_TRANSACTION
  2
AcDbLongTransaction
  3
AutoCAD 2000
 90
    32768
280
     0
281
     0
  0
CLASS
  1
LWPOLYLINE
  2
AcDbPolyline
  3
AutoCAD 2000
 90
    32768
280
     0
281
     1
  0
CLASS
  1
HATCH
  2
AcDbHatch
  3
AutoCAD 2000
 90
    32768
280
     0
281
     1
  0
CLASS
  1
XRECORD
  2
AcDbXrecord
  3
AutoCAD 2000
 90
    32768
280
     0
281
     0
  0
CLASS
  1
LONG_TRANSACTION
  2
AcDbLongTransaction
  3
AutoCAD 2000
 90
    32768
280
     0
281
     0
  0
CLASS
  1
LWPOLYLINE
  2
AcDbPolyline
  3
AutoCAD 2000
 90
    32768
280
     0
281
     1
  0
CLASS
  1
HATCH
  2
AcDbHatch
  3
AutoCAD 2000
 90
    32768
280
     0
281
     1
  0
CLASS
  1
XRECORD
  2
AcDbXrecord
  3
AutoCAD 2000
 90
    32768
280
     0
281
     0
  0
CLASS
  1
LONG_TRANSACTION
  2
AcDbLongTransaction
  3
AutoCAD 2000
 90
    32768
280
     0
281
     0
  0
CLASS
  1
LWPOLYLINE
  2
AcDbPolyline
  3
AutoCAD 2000
 90
    32768
280
     0
281
     1
  0
CLASS
  1
HATCH
  2
AcDbHatch
  3
AutoCAD 2000
 90
    32768
280
     0
281
     1
  0
CLASS
  1
XRECORD
  2
AcDbXrecord
  3
AutoCAD 2000
 90
    32768
280
     0
281
     0
  0
CLASS
  1
LONG_TRANSACTION
  2
AcDbLongTransaction
  3
AutoCAD 2000
 90
    32768
280
     0
281
     0
  0
CLASS
  1
LWPOLYLINE
  2
AcDbPolyline
  3
AutoCAD 2000
 90
    32768
280
     0
281
     1
  0
CLASS
  1
HATCH
  2
AcDbHatch
  3
AutoCAD 2000
 90
    32768
280
     0
281
     1
  0
CLASS
  1
XRECORD
  2
AcDbXrecord
  3
AutoCAD 2000
 90
    32768
280
     0
281
     0
  0
CLASS
  1
LONG_TRANSACTION
  2
AcDbLongTransaction
  3
AutoCAD 2000
 90
    32768
280
     0
281
     0
  0
CLASS
  1
LWPOLYLINE
  2
AcDbPolyline
  3
AutoCAD 2000
 90
    32768
280
     0
281
     1
  0
CLASS
  1
HATCH
  2
AcDbHatch
  3
AutoCAD 2000
 90
    32768
280
     0
281
     1
  0
CLASS
  1
XRECORD
  2
AcDbXrecord
  3
AutoCAD 2000
 90
    32768
280
     0
281
     0
  0
CLASS
  1
LONG_TRANSACTION
  2
AcDbLongTransaction
  3
AutoCAD 2000
 90
    32768
280
     0
281
     0
  0
CLASS
  1
LWPOLYLINE
  2
AcDbPolyline
  3
AutoCAD 2000
 90
    32768
280
     0
281
     1
  0
CLASS
  1
HATCH
  2
AcDbHatch
  3
AutoCAD 2000
 90
    32768
280
     0
281
     1
  0
CLASS
  1
XRECORD
  2
AcDbXrecord
  3
AutoCAD 2000
 90
    32768
280
     0
281
     0
  0
CLASS
  1
DICTIONARYVAR
  2
AcDbDictionaryVar
  3
AutoCAD 2000
 90
        0
280
     0
281
     0
  0
CLASS
  1
LONG_TRANSACTION
  2
AcDbLongTransaction
  3
AutoCAD 2000
 90
    32768
280
     0
281
     0
  0
CLASS
  1
LWPOLYLINE
  2
AcDbPolyline
  3
AutoCAD 2000
 90
    32768
280
     0
281
     1
  0
CLASS
  1
HATCH
  2
AcDbHatch
  3
AutoCAD 2000
 90
    32768
280
     0
281
     1
  0
CLASS
  1
XRECORD
  2
AcDbXrecord
  3
AutoCAD 2000
 90
    32768
280
     0
281
     0
  0
CLASS
  1
LONG_TRANSACTION
  2
AcDbLongTransaction
  3
AutoCAD 2000
 90
    32768
280
     0
281
     0
  0
CLASS
  1
LWPOLYLINE
  2
AcDbPolyline
  3
AutoCAD 2000
 90
    32768
280
     0
281
     1
  0
CLASS
  1
HATCH
  2
AcDbHatch
  3
AutoCAD 2000
 90
    32768
280
     0
281
     1
  0
CLASS
  1
XRECORD
  2
AcDbXrecord
  3
AutoCAD 2000
 90
    32768
280
     0
281
     0
  0
CLASS
  1
LONG_TRANSACTION
  2
AcDbLongTransaction
  3
AutoCAD 2000
 90
    32768
280
     0
281
     0
  0
CLASS
  1
LWPOLYLINE
  2
AcDbPolyline
  3
AutoCAD 2000
 90
    32768
280
     0
281
     1
  0
CLASS
  1
HATCH
  2
AcDbHatch
  3
AutoCAD 2000
 90
    32768
280
     0
281
     1
  0
CLASS
  1
XRECORD
  2
AcDbXrecord
  3
AutoCAD 2000
 90
    32768
280
     0
281
     0
  0
ENDSEC
  0
SECTION
  2
TABLES
  0
TABLE
  2
VPORT
  5
8
330
0
100
AcDbSymbolTable
 70
     2
  0
VPORT
  5
8B45
330
8
100
AcDbSymbolTableRecord
100
AcDbViewportTableRecord
  2
*Active
 70
     0
 10
0.0
 20
0.0
 11
1.0
 21
1.0
 12
644.1526195417353
 22
36.27659054184971
 13
0.0
 23
0.0
 14
1.0
 24
1.0
 15
50.0
 25
50.0
 16
0.0
 26
0.0
 36
1.0
 17
0.0
 27
0.0
 37
0.0
 40
1863.812288827198
 41
1.661996497373029
 42
50.0
 43
0.0
 44
0.0
 50
0.0
 51
0.0
 71
     0
 72
   100
 73
     1
 74
     1
 75
     1
 76
     0
 77
     0
 78
     0
281
     0
 65
     1
110
0.0
120
0.0
130
0.0
111
1.0
121
0.0
131
0.0
112
0.0
122
1.0
132
0.0
 79
     0
146
0.0
  0
ENDTAB
  0
TABLE
  2
LTYPE
  5
5
330
0
100
AcDbSymbolTable
 70
     9
  0
LTYPE
  5
13
330
5
100
AcDbSymbolTableRecord
100
AcDbLinetypeTableRecord
  2
BYBLOCK
 70
     0
  3

 72
    65
 73
     0
 40
0.0
  0
LTYPE
  5
14
330
5
100
AcDbSymbolTableRecord
100
AcDbLinetypeTableRecord
  2
BYLAYER
 70
     0
  3

 72
    65
 73
     0
 40
0.0
  0
LTYPE
  5
15
330
5
100
AcDbSymbolTableRecord
100
AcDbLinetypeTableRecord
  2
CONTINUOUS
 70
     0
  3
Solid line
 72
    65
 73
     0
 40
0.0
  0
LTYPE
  5
22
330
5
100
AcDbSymbolTableRecord
100
AcDbLinetypeTableRecord
  2
CONTINOUS
 70
     0
  3
Solid line
 72
    65
 73
     0
 40
0.0
  0
LTYPE
  5
23
330
5
100
AcDbSymbolTableRecord
100
AcDbLinetypeTableRecord
  2
DASHED
 70
     0
  3
__ __ __ __ __ __ __ __ __ __ __ __ __ __ __
 72
    65
 73
     2
 40
0.75
 49
0.5
 74
     0
 49
-0.25
 74
     0
  0
LTYPE
  5
24
330
5
100
AcDbSymbolTableRecord
100
AcDbLinetypeTableRecord
  2
DASHDOT
 70
     0
  3
__ . __ . __ . __ . __ . __ . __ . __ . __ . __
 72
    65
 73
     4
 40
1.0
 49
0.5
 74
     0
 49
-0.25
 74
     0
 49
0.0
 74
     0
 49
-0.25
 74
     0
  0
LTYPE
  5
3932
330
5
100
AcDbSymbolTableRecord
100
AcDbLinetypeTableRecord
  2
DIVIDE
 70
     0
  3
Divide ____ . . ____ . . ____ . . ____ . . ____
 72
    65
 73
     6
 40
1.25
 49
0.5
 74
     0
 49
-0.25
 74
     0
 49
0.0
 74
     0
 49
-0.25
 74
     0
 49
0.0
 74
     0
 49
-0.25
 74
     0
  0
LTYPE
  5
6875
330
5
100
AcDbSymbolTableRecord
100
AcDbLinetypeTableRecord
  2
D159
 70
     0
  3
IGESIN-LineFont-D159
 72
    65
 73
     6
 40
11.29999999999999
 49
8.0
 74
     0
 49
-0.6
 74
     0
 49
0.75
 74
     0
 49
-0.6
 74
     0
 49
0.75
 74
     0
 49
-0.6
 74
     0
  0
LTYPE
  5
6876
330
5
100
AcDbSymbolTableRecord
100
AcDbLinetypeTableRecord
  2
D1485
 70
     0
  3
IGESIN-LineFont-D1485
 72
    65
 73
     2
 40
1.35
 49
0.75
 74
     0
 49
-0.6
 74
     0
  0
LTYPE
  5
7579
330
5
100
AcDbSymbolTableRecord
100
AcDbLinetypeTableRecord
  2
D501
 70
     0
  3
IGESIN-LineFont-D501
 72
    65
 73
     6
 40
11.29999999999999
 49
8.0
 74
     0
 49
-0.6
 74
     0
 49
0.75
 74
     0
 49
-0.6
 74
     0
 49
0.75
 74
     0
 49
-0.6
 74
     0
  0
LTYPE
  5
757A
330
5
100
AcDbSymbolTableRecord
100
AcDbLinetypeTableRecord
  2
D533
 70
     0
  3
IGESIN-LineFont-D533
 72
    65
 73
     2
 40
1.35
 49
0.75
 74
     0
 49
-0.6
 74
     0
  0
ENDTAB
  0
TABLE
  2
LAYER
  5
2
330
0
100
AcDbSymbolTable
 70
    18
  0
LAYER
  5
10
330
2
100
AcDbSymbolTableRecord
100
AcDbLayerTableRecord
  2
0
 70
     0
 62
     7
  6
CONTINOUS
370
    -3
390
F
  0
LAYER
  5
2F
330
2
100
AcDbSymbolTableRecord
100
AcDbLayerTableRecord
  2
10
 70
     0
 62
     4
  6
CONTINOUS
370
    -3
390
F
  0
LAYER
  5
31
330
2
100
AcDbSymbolTableRecord
100
AcDbLayerTableRecord
  2
12
 70
     0
 62
     3
  6
CONTINOUS
370
    -3
390
F
  0
LAYER
  5
35
330
2
100
AcDbSymbolTableRecord
100
AcDbLayerTableRecord
  2
16
 70
     0
 62
     6
  6
DASHDOT
370
    -3
390
F
  0
LAYER
  5
36
330
2
100
AcDbSymbolTableRecord
100
AcDbLayerTableRecord
  2
17
 70
     0
 62
     2
  6
DASHDOT
370
    -3
390
F
  0
LAYER
  5
38
330
2
100
AcDbSymbolTableRecord
100
AcDbLayerTableRecord
  2
19
 70
     0
 62
     7
  6
CONTINOUS
370
    -3
390
F
  0
LAYER
  5
3C
330
2
100
AcDbSymbolTableRecord
100
AcDbLayerTableRecord
  2
11
 70
     0
 62
     1
  6
CONTINOUS
370
    -3
390
F
  0
LAYER
  5
3D
330
2
100
AcDbSymbolTableRecord
100
AcDbLayerTableRecord
  2
24
 70
     0
 62
     2
  6
CONTINOUS
370
    -3
390
F
  0
LAYER
  5
3A2
330
2
100
AcDbSymbolTableRecord
100
AcDbLayerTableRecord
  2
30
 70
     0
 62
     9
  6
CONTINUOUS
370
    -3
390
F
  0
LAYER
  5
3A4
330
2
100
AcDbSymbolTableRecord
100
AcDbLayerTableRecord
  2
DEFPOINTS
 70
     0
 62
     7
  6
CONTINUOUS
290
     0
370
    -3
390
F
  0
LAYER
  5
3933
330
2
100
AcDbSymbolTableRecord
100
AcDbLayerTableRecord
  2
18
 70
     0
 62
     5
  6
DIVIDE
370
    -3
390
F
  0
LAYER
  5
4709
330
2
100
AcDbSymbolTableRecord
100
AcDbLayerTableRecord
  2
L0_
 70
     0
 62
     7
  6
CONTINUOUS
370
    -3
390
F
  0
LAYER
  5
470B
330
2
100
AcDbSymbolTableRecord
100
AcDbLayerTableRecord
  2
L210_
 70
     0
 62
     7
  6
CONTINUOUS
370
    -3
390
F
  0
LAYER
  5
6877
330
2
100
AcDbSymbolTableRecord
100
AcDbLayerTableRecord
  2
L225_
 70
     0
 62
     7
  6
CONTINUOUS
370
    -3
390
F
  0
LAYER
  5
6878
330
2
100
AcDbSymbolTableRecord
100
AcDbLayerTableRecord
  2
L150_
 70
     0
 62
     7
  6
CONTINUOUS
370
    -3
390
F
  0
LAYER
  5
6879
330
2
100
AcDbSymbolTableRecord
100
AcDbLayerTableRecord
  2
L10_
 70
     0
 62
     7
  6
CONTINUOUS
370
    -3
390
F
  0
LAYER
  5
687A
330
2
100
AcDbSymbolTableRecord
100
AcDbLayerTableRecord
  2
L170_
 70
     0
 62
     7
  6
CONTINUOUS
370
    -3
390
F
  0
LAYER
  5
687B
330
2
100
AcDbSymbolTableRecord
100
AcDbLayerTableRecord
  2
L230_
 70
     0
 62
     7
  6
CONTINUOUS
370
    -3
390
F
  0
ENDTAB
  0
TABLE
  2
STYLE
  5
3
330
0
100
AcDbSymbolTable
 70
     4
  0
STYLE
  5
11
330
3
100
AcDbSymbolTableRecord
100
AcDbTextStyleTableRecord
  2
STANDARD
 70
     0
 40
0.0
 41
1.0
 50
0.0
 71
     0
 42
2.0
  3
txt.shx
  4
bigfont.shx
  0
STYLE
  5
42
330
3
100
AcDbSymbolTableRecord
100
AcDbTextStyleTableRecord
  2
STANDARD1
 70
     0
 40
0.0
 41
1.0
 50
0.0
 71
     0
 42
5.0
  3
MONOTXT
  4
BIGFONT
  0
STYLE
  5
3ACF
330
3
100
AcDbSymbolTableRecord
100
AcDbTextStyleTableRecord
  2
SYMBOL3
 70
     0
 40
0.0
 41
1.0
 50
0.0
 71
     0
 42
0.2
  3
iges1003
  4

  0
STYLE
  5
687C
330
3
100
AcDbSymbolTableRecord
100
AcDbTextStyleTableRecord
  2
LEROY
 70
     0
 40
0.0
 41
1.0
 50
0.0
 71
     0
 42
0.2
  3
txt
  4

  0
ENDTAB
  0
TABLE
  2
VIEW
  5
6
330
0
100
AcDbSymbolTable
 70
     3
  0
VIEW
  5
230C
330
6
100
AcDbSymbolTableRecord
100
AcDbViewTableRecord
  2
OLE1
 70
     0
 40
148.9124878027714
 10
429.4976280407222
 20
2.560626997828478
 41
103.1458057716444
 11
0.0
 21
0.0
 31
1.0
 12
0.0
 22
0.0
 32
0.0
 42
50.0
 43
0.0
 44
0.0
 50
0.0
 71
     0
281
     0
 72
     0
  0
VIEW
  5
230E
330
6
100
AcDbSymbolTableRecord
100
AcDbViewTableRecord
  2
OLE2
 70
     0
 40
170.7786920545775
 10
322.664969958371
 20
-5.978304054290276
 41
102.4672152327465
 11
0.0
 21
0.0
 31
1.0
 12
0.0
 22
0.0
 32
0.0
 42
50.0
 43
0.0
 44
0.0
 50
0.0
 71
     0
281
     0
 72
     0
  0
VIEW
  5
23AA
330
6
100
AcDbSymbolTableRecord
100
AcDbViewTableRecord
  2
OLE3
 70
     0
 40
591.7897393182231
 10
84.79698158148218
 20
-46.09336010803995
 41
388.7920961799953
 11
0.0
 21
0.0
 31
1.0
 12
0.0
 22
0.0
 32
0.0
 42
50.0
 43
0.0
 44
0.0
 50
0.0
 71
     0
281
     0
 72
     0
  0
ENDTAB
  0
TABLE
  2
UCS
  5
7
330
0
100
AcDbSymbolTable
 70
     0
  0
ENDTAB
  0
TABLE
  2
APPID
  5
9
330
0
100
AcDbSymbolTable
 70
     2
  0
APPID
  5
12
330
9
100
AcDbSymbolTableRecord
100
AcDbRegAppTableRecord
  2
ACAD
 70
     0
  0
APPID
  5
ECD
330
9
100
AcDbSymbolTableRecord
100
AcDbRegAppTableRecord
  2
CONTENTBLOCKICON
 70
     0
  0
ENDTAB
  0
TABLE
  2
DIMSTYLE
  5
A
330
0
100
AcDbSymbolTable
 70
     1
100
AcDbDimStyleTable
 71
     0
  0
DIMSTYLE
105
175
102
{ACAD_REACTORS
330
6D05
330
6F16
330
7C62
330
7C6F
330
7C89
330
7CB2
330
7CBF
330
7CD5
330
7CFC
330
7D09
330
7D16
330
7D24
330
7D31
330
7D40
330
7D4D
330
7DA6
330
7DB3
330
7DF8
330
7E05
330
7E12
330
7E1F
330
7E2C
330
7E39
330
7E55
330
7E62
330
7E6F
330
7F06
330
7F13
330
8196
330
81A3
330
8419
330
8426
330
7D3E
330
7D5B
102
}
330
A
100
AcDbSymbolTableRecord
100
AcDbDimStyleTableRecord
  2
STANDARD
 70
     0
 41
2.0
 42
5.0
 43
0.5
 44
0.5
 73
     0
 77
     3
 78
    12
140
8.0
147
2.0
271
     1
272
     1
340
11
341
3B2
342
3B2
  0
ENDTAB
  0
TABLE
  2
BLOCK_RECORD
  5
1
330
0
100
AcDbSymbolTable
 70
    43
  0
BLOCK_RECORD
  5
1E
102
{ACAD_XDICTIONARY
360
178
102
}
330
1
100
AcDbSymbolTableRecord
100
AcDbBlockTableRecord
  2
*MODEL_SPACE
340
8B42
  0
BLOCK_RECORD
  5
1A
102
{ACAD_XDICTIONARY
360
17A
102
}
330
1
100
AcDbSymbolTableRecord
100
AcDbBlockTableRecord
  2
*PAPER_SPACE
340
8B43
  0
BLOCK_RECORD
  5
3B2
330
1
100
AcDbSymbolTableRecord
100
AcDbBlockTableRecord
  2
_OPEN
340
0
102
{BLKREFS
331
88CB
331
88CC
331
88D4
331
88DC
331
88DD
331
8AD2
331
8AD3
331
88EE
331
88EF
331
88F7
331
88F8
331
8ADB
331
8ADC
331
8909
331
890A
331
8913
331
8914
331
891C
331
891D
331
8AE4
331
8AE5
331
892E
331
892F
331
8AEE
331
8AEF
331
8940
331
8941
331
8949
331
894A
331
8952
331
8953
331
895B
331
895C
331
8964
331
8965
331
8AF6
331
8AF7
331
8AFF
331
8B00
331
8B08
331
8B09
331
8B11
331
8B12
331
8B1A
331
8B1B
331
899A
331
899B
331
8B23
331
8B24
331
8B2C
331
8B2D
331
89B5
331
89B6
331
8B35
331
8B36
331
89C7
331
89C8
331
89D0
331
89D8
331
89D9
331
89E1
331
89E2
102
}
  0
BLOCK_RECORD
  5
46F7
330
1
100
AcDbSymbolTableRecord
100
AcDbBlockTableRecord
  2
B837
340
0
  0
BLOCK_RECORD
  5
6816
330
1
100
AcDbSymbolTableRecord
100
AcDbBlockTableRecord
  2
B2837
340
0
102
{BLKREFS
331
6825
102
}
  0
BLOCK_RECORD
  5
681B
330
1
100
AcDbSymbolTableRecord
100
AcDbBlockTableRecord
  2
*D3
340
0
  0
BLOCK_RECORD
  5
6823
330
1
100
AcDbSymbolTableRecord
100
AcDbBlockTableRecord
  2
B2841
340
0
  0
BLOCK_RECORD
  5
6857
330
1
100
AcDbSymbolTableRecord
100
AcDbBlockTableRecord
  2
B4515
340
0
102
{BLKREFS
331
685D
102
}
  0
BLOCK_RECORD
  5
685C
330
1
100
AcDbSymbolTableRecord
100
AcDbBlockTableRecord
  2
B4517
340
0
  0
BLOCK_RECORD
  5
6861
330
1
100
AcDbSymbolTableRecord
100
AcDbBlockTableRecord
  2
B4521
340
0
102
{BLKREFS
331
6867
102
}
  0
BLOCK_RECORD
  5
6866
330
1
100
AcDbSymbolTableRecord
100
AcDbBlockTableRecord
  2
B4523
340
0
  0
BLOCK_RECORD
  5
686B
330
1
100
AcDbSymbolTableRecord
100
AcDbBlockTableRecord
  2
B4527
340
0
102
{BLKREFS
331
6871
102
}
  0
BLOCK_RECORD
  5
6870
330
1
100
AcDbSymbolTableRecord
100
AcDbBlockTableRecord
  2
B4529
340
0
  0
BLOCK_RECORD
  5
6D16
330
1
100
AcDbSymbolTableRecord
100
AcDbBlockTableRecord
  2
*D11
340
0
  0
BLOCK_RECORD
  5
6F17
330
1
100
AcDbSymbolTableRecord
100
AcDbBlockTableRecord
  2
*D12
340
0
  0
BLOCK_RECORD
  5
7C63
330
1
100
AcDbSymbolTableRecord
100
AcDbBlockTableRecord
  2
*D13
340
0
  0
BLOCK_RECORD
  5
7C70
330
1
100
AcDbSymbolTableRecord
100
AcDbBlockTableRecord
  2
*D14
340
0
  0
BLOCK_RECORD
  5
7C8A
330
1
100
AcDbSymbolTableRecord
100
AcDbBlockTableRecord
  2
*D15
340
0
  0
BLOCK_RECORD
  5
7CB3
330
1
100
AcDbSymbolTableRecord
100
AcDbBlockTableRecord
  2
*D16
340
0
  0
BLOCK_RECORD
  5
7CC0
330
1
100
AcDbSymbolTableRecord
100
AcDbBlockTableRecord
  2
*D17
340
0
  0
BLOCK_RECORD
  5
7CD6
330
1
100
AcDbSymbolTableRecord
100
AcDbBlockTableRecord
  2
*D18
340
0
  0
BLOCK_RECORD
  5
7CFD
330
1
100
AcDbSymbolTableRecord
100
AcDbBlockTableRecord
  2
*D19
340
0
  0
BLOCK_RECORD
  5
7D0A
330
1
100
AcDbSymbolTableRecord
100
AcDbBlockTableRecord
  2
*D20
340
0
  0
BLOCK_RECORD
  5
7D17
330
1
100
AcDbSymbolTableRecord
100
AcDbBlockTableRecord
  2
*D21
340
0
  0
BLOCK_RECORD
  5
7D25
330
1
100
AcDbSymbolTableRecord
100
AcDbBlockTableRecord
  2
*D22
340
0
  0
BLOCK_RECORD
  5
7D32
330
1
100
AcDbSymbolTableRecord
100
AcDbBlockTableRecord
  2
*D23
340
0
  0
BLOCK_RECORD
  5
7D41
330
1
100
AcDbSymbolTableRecord
100
AcDbBlockTableRecord
  2
*D24
340
0
  0
BLOCK_RECORD
  5
7D4E
330
1
100
AcDbSymbolTableRecord
100
AcDbBlockTableRecord
  2
*D25
340
0
  0
BLOCK_RECORD
  5
7DA7
330
1
100
AcDbSymbolTableRecord
100
AcDbBlockTableRecord
  2
*D26
340
0
  0
BLOCK_RECORD
  5
7DB4
330
1
100
AcDbSymbolTableRecord
100
AcDbBlockTableRecord
  2
*D27
340
0
  0
BLOCK_RECORD
  5
7DF9
330
1
100
AcDbSymbolTableRecord
100
AcDbBlockTableRecord
  2
*D28
340
0
  0
BLOCK_RECORD
  5
7E06
330
1
100
AcDbSymbolTableRecord
100
AcDbBlockTableRecord
  2
*D29
340
0
  0
BLOCK_RECORD
  5
7E13
330
1
100
AcDbSymbolTableRecord
100
AcDbBlockTableRecord
  2
*D30
340
0
  0
BLOCK_RECORD
  5
7E20
330
1
100
AcDbSymbolTableRecord
100
AcDbBlockTableRecord
  2
*D31
340
0
  0
BLOCK_RECORD
  5
7E2D
330
1
100
AcDbSymbolTableRecord
100
AcDbBlockTableRecord
  2
*D32
340
0
  0
BLOCK_RECORD
  5
7E3A
330
1
100
AcDbSymbolTableRecord
100
AcDbBlockTableRecord
  2
*D33
340
0
  0
BLOCK_RECORD
  5
7E56
330
1
100
AcDbSymbolTableRecord
100
AcDbBlockTableRecord
  2
*D34
340
0
  0
BLOCK_RECORD
  5
7E63
330
1
100
AcDbSymbolTableRecord
100
AcDbBlockTableRecord
  2
*D35
340
0
  0
BLOCK_RECORD
  5
7E70
330
1
100
AcDbSymbolTableRecord
100
AcDbBlockTableRecord
  2
*D36
340
0
  0
BLOCK_RECORD
  5
7F07
330
1
100
AcDbSymbolTableRecord
100
AcDbBlockTableRecord
  2
*D37
340
0
  0
BLOCK_RECORD
  5
7F14
330
1
100
AcDbSymbolTableRecord
100
AcDbBlockTableRecord
  2
*D38
340
0
  0
BLOCK_RECORD
  5
8197
330
1
100
AcDbSymbolTableRecord
100
AcDbBlockTableRecord
  2
*D39
340
0
  0
BLOCK_RECORD
  5
81A4
330
1
100
AcDbSymbolTableRecord
100
AcDbBlockTableRecord
  2
*D40
340
0
  0
BLOCK_RECORD
  5
841A
330
1
100
AcDbSymbolTableRecord
100
AcDbBlockTableRecord
  2
*D41
340
0
  0
BLOCK_RECORD
  5
8427
330
1
100
AcDbSymbolTableRecord
100
AcDbBlockTableRecord
  2
*D42
340
0
  0
ENDTAB
  0
ENDSEC
  0
SECTION
  2
BLOCKS
  0
BLOCK
  5
1F
330
1E
100
AcDbEntity
  8
0
100
AcDbBlockBegin
  2
*MODEL_SPACE
 70
     0
 10
0.0
 20
0.0
 30
0.0
  3
*MODEL_SPACE
  1

  0
ENDBLK
  5
20
330
1E
100
AcDbEntity
  8
0
100
AcDbBlockEnd
  0
BLOCK
  5
1B
330
1A
100
AcDbEntity
 67
     1
  8
0
100
AcDbBlockBegin
  2
*PAPER_SPACE
 70
     0
 10
0.0
 20
0.0
 30
0.0
  3
*PAPER_SPACE
  1

  0
ENDBLK
  5
1C
330
1A
100
AcDbEntity
 67
     1
  8
0
100
AcDbBlockEnd
  0
BLOCK
  5
3B6
330
3B2
100
AcDbEntity
  8
0
100
AcDbBlockBegin
  2
_OPEN
 70
     0
 10
0.0
 20
0.0
 30
0.0
  3
_OPEN
  1

  0
LINE
  5
3B3
330
3B2
100
AcDbEntity
  8
30
  6
Continuous
 62
     0
100
AcDbLine
 10
-1.0
 20
0.1666666666666666
 30
0.0
 11
0.0
 21
0.0
 31
0.0
  0
LINE
  5
3B4
330
3B2
100
AcDbEntity
  8
30
  6
Continuous
 62
     0
100
AcDbLine
 10
-1.0
 20
-0.1666666666666666
 30
0.0
 11
0.0
 21
0.0
 31
0.0
  0
LINE
  5
3B5
330
3B2
100
AcDbEntity
  8
30
  6
Continuous
 62
     0
100
AcDbLine
 10
0.0
 20
0.0
 30
0.0
 11
-1.0
 21
0.0
 31
0.0
  0
ENDBLK
  5
3B7
330
3B2
100
AcDbEntity
  8
0
100
AcDbBlockEnd
  0
BLOCK
  5
46FA
330
46F7
100
AcDbEntity
  8
L0_
  6
Continuous
100
AcDbBlockBegin
  2
B837
 70
     0
 10
0.0
 20
0.0
 30
0.0
  3
B837
  1

  0
TEXT
  5
46F8
330
46F7
100
AcDbEntity
  8
L0_
  6
Continuous
100
AcDbText
 10
1984.080078125
 20
1307.4332275391
 30
0.0
 40
12.0
  1
n
 41
2.863636363636363
  7
SYMBOL3
 72
     5
 11
2002.080078125
 21
1307.4332275391
 31
0.0
100
AcDbText
 73
     2
  0
TEXT
  5
46F9
330
46F7
100
AcDbEntity
  8
L0_
  6
Continuous
100
AcDbText
 10
2002.080078125
 20
1307.4332275391
 30
0.0
 40
12.0
  1
11
 41
1.399999999999996
  7
SYMBOL3
 72
     5
 11
2018.880078125
 21
1307.4332275391
 31
0.0
100
AcDbText
 73
     2
  0
ENDBLK
  5
46FB
330
46F7
100
AcDbEntity
  8
L0_
  6
Continuous
100
AcDbBlockEnd
  0
BLOCK
  5
6819
330
6816
100
AcDbEntity
  8
L0_
  6
Continuous
100
AcDbBlockBegin
  2
B2837
 70
     0
 10
0.0
 20
0.0
 30
0.0
  3
B2837
  1

  0
TEXT
  5
6817
330
6816
100
AcDbEntity
  8
L0_
  6
Continuous
100
AcDbText
 10
2509.9870605469
 20
3096.0744628906
 30
0.0
 40
15.0
  1
n
 41
2.863636363636364
  7
SYMBOL3
 72
     5
 11
2532.4870605469
 21
3096.0744628906
 31
0.0
100
AcDbText
 73
     2
  0
TEXT
  5
6818
330
6816
100
AcDbEntity
  8
L0_
  6
Continuous
100
AcDbText
 10
2532.4870605469
 20
3096.0744628906
 30
0.0
 40
15.0
  1
9
 41
1.776923076923077
  7
SYMBOL3
 72
     5
 11
2548.9870605469
 21
3096.0744628906
 31
0.0
100
AcDbText
 73
     2
  0
ENDBLK
  5
681A
330
6816
100
AcDbEntity
  8
L0_
  6
Continuous
100
AcDbBlockEnd
  0
BLOCK
  5
6821
330
681B
100
AcDbEntity
  8
0
100
AcDbBlockBegin
  2
*D3
 70
     1
 10
0.0
 20
0.0
 30
0.0
  3
*D3
  1

  0
LINE
  5
681C
330
681B
100
AcDbEntity
  8
0
  6
ByBlock
100
AcDbLine
 10
2611.11303831454
 20
3175.571385345142
 30
0.0
 11
2562.968452781273
 21
3086.783914434755
 31
0.0
  0
LINE
  5
681D
330
681B
100
AcDbEntity
  8
0
  6
ByBlock
100
AcDbLine
 10
2562.968452781273
 20
3086.783914434755
 30
0.0
 11
2562.878452781272
 21
3086.783914434755
 31
0.0
  0
SOLID
  5
681E
330
681B
100
AcDbEntity
  8
0
  6
ByBlock
100
AcDbTrace
 10
2613.310735483583
 20
3174.379694465264
 30
0.0
 11
2608.915341145497
 21
3176.763076225018
 31
0.0
 12
2618.263183593799
 22
3188.757568359398
 32
0.0
 13
2618.263183593799
 23
3188.757568359398
 33
0.0
  0
POINT
  5
681F
330
681B
100
AcDbEntity
  8
DEFPOINTS
  6
ByBlock
 62
     0
100
AcDbPoint
 10
2618.263183593799
 20
3188.757568359398
 30
0.0
  0
POINT
  5
6820
330
681B
100
AcDbEntity
  8
DEFPOINTS
  6
ByBlock
 62
     0
100
AcDbPoint
 10
2622.553222656199
 20
3196.669189453198
 30
0.0
  0
ENDBLK
  5
6822
330
681B
100
AcDbEntity
  8
0
100
AcDbBlockEnd
  0
BLOCK
  5
6826
330
6823
100
AcDbEntity
  8
L210_
100
AcDbBlockBegin
  2
B2841
 70
     0
 10
0.0
 20
0.0
 30
0.0
  3
B2841
  1

  0
DIMENSION
  5
6824
330
6823
100
AcDbEntity
  8
L210_
100
AcDbDimension
  2
*D3
 10
2622.5532226562
 20
3196.6691894532
 30
0.0
 11
2658.4084472656
 21
3652.5883789063
 31
0.0
 70
     3
  1
 
 71
     5
 42
-1.0
100
AcDbDiametricDimension
 15
2618.263183593799
 25
3188.757568359398
 35
0.0
 40
116.0005747846635
  0
INSERT
  5
6825
330
6823
100
AcDbEntity
  8
L0_
  6
Continuous
100
AcDbBlockReference
  2
B2837
 10
0.0
 20
0.0
 30
0.0
  0
ENDBLK
  5
6827
330
6823
100
AcDbEntity
  8
L210_
100
AcDbBlockEnd
  0
BLOCK
  5
685A
330
6857
100
AcDbEntity
  8
L0_
  6
Continuous
100
AcDbBlockBegin
  2
B4515
 70
     0
 10
0.0
 20
0.0
 30
0.0
  3
B4515
  1

  0
LWPOLYLINE
  5
6858
330
6857
100
AcDbEntity
  8
L0_
  6
Continuous
100
AcDbPolyline
 90
        3
 70
     0
 43
0.0
 10
2080.641894800232
 20
3577.752173191962
 10
2070.6984863281
 20
3566.2465820313
 10
2083.835956340333
 20
3573.905360111234
  0
LWPOLYLINE
  5
6859
330
6857
100
AcDbEntity
  8
L0_
  6
Continuous
100
AcDbPolyline
 90
        4
 70
     0
 43
0.0
 10
2070.6984863281
 20
3566.2465820313
 10
2156.6696777344
 20
3637.629638671898
 10
2157.9443359375
 20
3637.629638671898
 10
2274.694335937499
 20
3637.629638671898
  0
ENDBLK
  5
685B
330
6857
100
AcDbEntity
  8
L0_
  6
Continuous
100
AcDbBlockEnd
  0
BLOCK
  5
685F
330
685C
100
AcDbEntity
  8
L230_
  6
Continuous
 62
     6
100
AcDbBlockBegin
  2
B4517
 70
     0
 10
0.0
 20
0.0
 30
0.0
  3
B4517
  1

  0
INSERT
  5
685D
330
685C
100
AcDbEntity
  8
L0_
  6
Continuous
100
AcDbBlockReference
  2
B4515
 10
0.0
 20
0.0
 30
0.0
  0
TEXT
  5
685E
330
685C
100
AcDbEntity
  8
L0_
  6
Continuous
100
AcDbText
 10
2167.3193359375
 20
3647.0046386719
 30
0.0
 40
15.0
  1
Insulator
 41
0.8893617021276597
  7
LEROY
 72
     5
 11
2271.8193359375
 21
3647.0046386719
 31
0.0
100
AcDbText
 73
     2
  0
ENDBLK
  5
6860
330
685C
100
AcDbEntity
  8
L230_
  6
Continuous
 62
     6
100
AcDbBlockEnd
  0
BLOCK
  5
6864
330
6861
100
AcDbEntity
  8
L0_
  6
Continuous
100
AcDbBlockBegin
  2
B4521
 70
     0
 10
0.0
 20
0.0
 30
0.0
  3
B4521
  1

  0
LWPOLYLINE
  5
6862
330
6861
100
AcDbEntity
  8
L0_
  6
Continuous
100
AcDbPolyline
 90
        3
 70
     0
 43
0.0
 10
2097.900399026018
 20
3515.880252433286
 10
2088.698486328099
 20
3527.9870605469
 10
2093.476465978473
 20
3513.550270375236
  0
LWPOLYLINE
  5
6863
330
6861
100
AcDbEntity
  8
L0_
  6
Continuous
100
AcDbPolyline
 90
        4
 70
     0
 43
0.0
 10
2088.698486328099
 20
3527.9870605469
 10
2130.16796875
 20
3449.249023437499
 10
2131.099853515599
 20
3449.249023437499
 10
2373.3498535156
 20
3449.249023437499
  0
ENDBLK
  5
6865
330
6861
100
AcDbEntity
  8
L0_
  6
Continuous
100
AcDbBlockEnd
  0
BLOCK
  5
6869
330
6866
100
AcDbEntity
  8
L230_
  6
Continuous
 62
     6
100
AcDbBlockBegin
  2
B4523
 70
     0
 10
0.0
 20
0.0
 30
0.0
  3
B4523
  1

  0
INSERT
  5
6867
330
6866
100
AcDbEntity
  8
L0_
  6
Continuous
100
AcDbBlockReference
  2
B4521
 10
0.0
 20
0.0
 30
0.0
  0
TEXT
  5
6868
330
6866
100
AcDbEntity
  8
L0_
  6
Continuous
100
AcDbText
 10
2140.4748535156
 20
3458.624023437499
 30
0.0
 40
15.0
  1
M8 mounting screw
 41
0.953124999999996
  7
LEROY
 72
     5
 11
2369.224853515599
 21
3458.624023437499
 31
0.0
100
AcDbText
 73
     2
  0
ENDBLK
  5
686A
330
6866
100
AcDbEntity
  8
L230_
  6
Continuous
 62
     6
100
AcDbBlockEnd
  0
BLOCK
  5
686E
330
686B
100
AcDbEntity
  8
L0_
  6
Continuous
100
AcDbBlockBegin
  2
B4527
 70
     0
 10
0.0
 20
0.0
 30
0.0
  3
B4527
  1

  0
LWPOLYLINE
  5
686C
330
686B
100
AcDbEntity
  8
L0_
  6
Continuous
100
AcDbPolyline
 90
        3
 70
     0
 43
0.0
 10
2103.226365324067
 20
3186.096922203727
 10
2088.698486328099
 20
3190.5903320313
 10
2100.983752461289
 20
3181.628064682201
  0
LWPOLYLINE
  5
686D
330
686B
100
AcDbEntity
  8
L0_
  6
Continuous
100
AcDbPolyline
 90
        4
 70
     0
 43
0.0
 10
2088.698486328099
 20
3190.5903320313
 10
2224.342285156299
 20
3122.5200195313
 10
2225.397705078099
 20
3122.5200195313
 10
2467.6477050781
 20
3122.5200195313
  0
ENDBLK
  5
686F
330
686B
100
AcDbEntity
  8
L0_
  6
Continuous
100
AcDbBlockEnd
  0
BLOCK
  5
6873
330
6870
100
AcDbEntity
  8
L230_
  6
Continuous
 62
     6
100
AcDbBlockBegin
  2
B4529
 70
     0
 10
0.0
 20
0.0
 30
0.0
  3
B4529
  1

  0
INSERT
  5
6871
330
6870
100
AcDbEntity
  8
L0_
  6
Continuous
100
AcDbBlockReference
  2
B4527
 10
0.0
 20
0.0
 30
0.0
  0
TEXT
  5
6872
330
6870
100
AcDbEntity
  8
L0_
  6
Continuous
100
AcDbText
 10
2234.772705078099
 20
3131.8950195313
 30
0.0
 40
15.0
  1
M8 mounting screw
 41
0.9531250000000037
  7
LEROY
 72
     5
 11
2463.5227050781
 21
3131.8950195313
 31
0.0
100
AcDbText
 73
     2
  0
ENDBLK
  5
6874
330
6870
100
AcDbEntity
  8
L230_
  6
Continuous
 62
     6
100
AcDbBlockEnd
  0
BLOCK
  5
6D20
330
6D16
100
AcDbEntity
  8
0
100
AcDbBlockBegin
  2
*D11
 70
     1
 10
0.0
 20
0.0
 30
0.0
  3
*D11
  1

  0
LINE
  5
88C8
330
6D16
100
AcDbEntity
  8
30
  6
Continuous
 62
     0
100
AcDbLine
 10
-165.0
 20
703.6507035126527
 30
0.0
 11
-196.1725014100757
 21
703.6507035126527
 31
0.0
  0
LINE
  5
88C9
330
6D16
100
AcDbEntity
  8
30
  6
Continuous
 62
     0
100
AcDbLine
 10
-165.0
 20
478.6507035126529
 30
0.0
 11
-196.1725014100757
 21
478.6507035126529
 31
0.0
  0
LINE
  5
88CA
330
6D16
100
AcDbEntity
  8
30
  6
Continuous
 62
     0
100
AcDbLine
 10
-195.6725014100754
 20
701.6507035126529
 30
0.0
 11
-195.6725014100754
 21
480.6507035126529
 31
0.0
  0
INSERT
  5
88CB
330
6D16
100
AcDbEntity
  8
30
  6
Continuous
 62
     0
100
AcDbBlockReference
  2
_OPEN
 10
-195.6725014100754
 20
703.6507035126527
 30
0.0
 41
2.0
 42
2.0
 43
2.0
 50
90.0
  0
INSERT
  5
88CC
330
6D16
100
AcDbEntity
  8
30
  6
Continuous
 62
     0
100
AcDbBlockReference
  2
_OPEN
 10
-195.6725014100754
 20
478.6507035126529
 30
0.0
 41
2.0
 42
2.0
 43
2.0
 50
270.0
  0
MTEXT
  5
88CD
330
6D16
100
AcDbEntity
  8
30
  6
Continuous
 62
     0
100
AcDbMText
 10
-201.6725014100756
 20
587.3391755007542
 30
0.0
 40
8.0
 41
0.0
 71
     5
 72
     1
  1
\A1;225
 11
0.0000000000000001
 21
1.0
 31
0.0
 73
     1
 44
1.0
1001
ACAD
1000
MTEXTBEGIN
1070
    73
1070
     1
1070
    44
1040
1.0
1070
    74
1070
     0
1000
MTEXTEND
1000
MTEXTBEGIN
1070
    73
1070
     1
1070
    44
1040
1.0
1070
    74
1070
     0
1000
MTEXTEND
  0
POINT
  5
88CE
330
6D16
100
AcDbEntity
  8
DEFPOINTS
  6
Continuous
 62
     0
100
AcDbPoint
 10
-160.0
 20
703.6507035126527
 30
0.0
  0
POINT
  5
88CF
330
6D16
100
AcDbEntity
  8
DEFPOINTS
  6
Continuous
 62
     0
100
AcDbPoint
 10
-160.0
 20
478.6507035126529
 30
0.0
  0
POINT
  5
88D0
330
6D16
100
AcDbEntity
  8
DEFPOINTS
  6
Continuous
 62
     0
100
AcDbPoint
 10
-195.6725014100754
 20
478.6507035126529
 30
0.0
  0
ENDBLK
  5
6D21
330
6D16
100
AcDbEntity
  8
0
100
AcDbBlockEnd
  0
BLOCK
  5
6F20
330
6F17
100
AcDbEntity
  8
0
100
AcDbBlockBegin
  2
*D12
 70
     1
 10
0.0
 20
0.0
 30
0.0
  3
*D12
  1

  0
LINE
  5
88D1
330
6F17
100
AcDbEntity
  8
30
  6
Continuous
 62
     0
100
AcDbLine
 10
627.865192371099
 20
-555.41
 30
0.0
 11
605.5318590377656
 21
-555.41
 31
0.0
  0
LINE
  5
88D2
330
6F17
100
AcDbEntity
  8
30
  6
Continuous
 62
     0
100
AcDbLine
 10
605.5318590377656
 20
-555.41
 30
0.0
 11
599.8639844615807
 21
-586.0334000631219
 31
0.0
  0
MTEXT
  5
88D3
330
6F17
100
AcDbEntity
  8
30
  6
Continuous
 62
     0
100
AcDbMText
 10
619.1985257044324
 20
-549.4099999999998
 30
0.0
 40
8.0
 41
0.0
 71
     5
 72
     1
  1
\A1;R10
 73
     1
 44
1.0
1001
ACAD
1000
MTEXTBEGIN
1070
    73
1070
     1
1070
    44
1040
1.0
1070
    74
1070
     0
1000
MTEXTEND
1000
MTEXTBEGIN
1070
    73
1070
     1
1070
    44
1040
1.0
1070
    74
1070
     0
1000
MTEXTEND
  0
INSERT
  5
88D4
330
6F17
100
AcDbEntity
  8
30
  6
Continuous
 62
     0
100
AcDbBlockReference
  2
_OPEN
 10
599.4999999999997
 20
-587.9999999999996
 30
0.0
 41
2.0
 42
2.0
 43
2.0
 50
259.5141768324698
  0
LINE
  5
88D5
330
6F17
100
AcDbEntity
  8
30
  6
Continuous
 62
     0
100
AcDbLine
 10
595.9181213089149
 20
-606.8665427739508
 30
0.0
 11
596.0981213089151
 21
-606.8665427739512
 31
0.0
  0
LINE
  5
88D6
330
6F17
100
AcDbEntity
  8
30
  6
Continuous
 62
     0
100
AcDbLine
 10
596.0081213089146
 20
-606.9565427739511
 30
0.0
 11
596.0081213089146
 21
-606.776542773951
 31
0.0
  0
POINT
  5
88D7
330
6F17
100
AcDbEntity
  8
DEFPOINTS
  6
Continuous
 62
     0
100
AcDbPoint
 10
599.4999999999997
 20
-587.9999999999996
 30
0.0
  0
POINT
  5
88D8
330
6F17
100
AcDbEntity
  8
DEFPOINTS
  6
Continuous
 62
     0
100
AcDbPoint
 10
596.0081213089146
 20
-606.8665427739508
 30
0.0
  0
ENDBLK
  5
6F21
330
6F17
100
AcDbEntity
  8
0
100
AcDbBlockEnd
  0
BLOCK
  5
7C6D
330
7C63
100
AcDbEntity
  8
0
100
AcDbBlockBegin
  2
*D13
 70
     1
 10
0.0
 20
0.0
 30
0.0
  3
*D13
  1

  0
LINE
  5
88D9
330
7C63
100
AcDbEntity
  8
30
  6
Continuous
 62
     0
100
AcDbLine
 10
-105.0
 20
-182.1844658276725
 30
0.0
 11
-105.0
 21
-304.8969140046291
 31
0.0
  0
LINE
  5
88DA
330
7C63
100
AcDbEntity
  8
30
  6
Continuous
 62
     0
100
AcDbLine
 10
-0.0000000000000024
 20
-244.0
 30
0.0
 11
-0.0000000000000061
 21
-304.8969140046291
 31
0.0
  0
LINE
  5
88DB
330
7C63
100
AcDbEntity
  8
30
  6
Continuous
 62
     0
100
AcDbLine
 10
-103.0
 20
-304.3969140046292
 30
0.0
 11
-2.000000000000004
 21
-304.3969140046292
 31
0.0
  0
INSERT
  5
88DC
330
7C63
100
AcDbEntity
  8
30
  6
Continuous
 62
     0
100
AcDbBlockReference
  2
_OPEN
 10
-105.0
 20
-304.3969140046292
 30
0.0
 41
2.0
 42
2.0
 43
2.0
 50
180.0
  0
INSERT
  5
88DD
330
7C63
100
AcDbEntity
  8
30
  6
Continuous
 62
     0
100
AcDbBlockReference
  2
_OPEN
 10
-0.0000000000000061
 20
-304.3969140046292
 30
0.0
 41
2.0
 42
2.0
 43
2.0
  0
MTEXT
  5
88DE
330
7C63
100
AcDbEntity
  8
30
  6
Continuous
 62
     0
100
AcDbMText
 10
-52.5
 20
-298.3969140046291
 30
0.0
 40
8.0
 41
0.0
 71
     5
 72
     1
  1
\A1;105
 73
     1
 44
1.0
1001
ACAD
1000
MTEXTBEGIN
1070
    73
1070
     1
1070
    44
1040
1.0
1070
    74
1070
     0
1000
MTEXTEND
1000
MTEXTBEGIN
1070
    73
1070
     1
1070
    44
1040
1.0
1070
    74
1070
     0
1000
MTEXTEND
  0
POINT
  5
88DF
330
7C63
100
AcDbEntity
  8
DEFPOINTS
  6
Continuous
 62
     0
100
AcDbPoint
 10
-105.0
 20
-177.1844658276725
 30
0.0
  0
POINT
  5
88E0
330
7C63
100
AcDbEntity
  8
DEFPOINTS
  6
Continuous
 62
     0
100
AcDbPoint
 10
-0.0000000000000021
 20
-239.0
 30
0.0
  0
POINT
  5
88E1
330
7C63
100
AcDbEntity
  8
DEFPOINTS
  6
Continuous
 62
     0
100
AcDbPoint
 10
-0.0000000000000061
 20
-304.3969140046292
 30
0.0
  0
ENDBLK
  5
7C6E
330
7C63
100
AcDbEntity
  8
0
100
AcDbBlockEnd
  0
BLOCK
  5
7C7A
330
7C70
100
AcDbEntity
  8
0
100
AcDbBlockBegin
  2
*D14
 70
     1
 10
0.0
 20
0.0
 30
0.0
  3
*D14
  1

  0
LINE
  5
8ACF
330
7C70
100
AcDbEntity
  8
30
  6
Continuous
 62
     0
100
AcDbLine
 10
-0.0000000000000024
 20
-244.0
 30
0.0
 11
-0.0000000000000061
 21
-304.8969140046291
 31
0.0
  0
LINE
  5
8AD0
330
7C70
100
AcDbEntity
  8
30
  6
Continuous
 62
     0
100
AcDbLine
 10
105.0
 20
-181.7233713329515
 30
0.0
 11
104.9999999999998
 21
-304.8969140046291
 31
0.0
  0
LINE
  5
8AD1
330
7C70
100
AcDbEntity
  8
30
  6
Continuous
 62
     0
100
AcDbLine
 10
1.999999999999993
 20
-304.3969140046292
 30
0.0
 11
102.9999999999998
 21
-304.3969140046292
 31
0.0
  0
INSERT
  5
8AD2
330
7C70
100
AcDbEntity
  8
30
  6
Continuous
 62
     0
100
AcDbBlockReference
  2
_OPEN
 10
-0.0000000000000061
 20
-304.3969140046292
 30
0.0
 41
2.0
 42
2.0
 43
2.0
 50
180.0
  0
INSERT
  5
8AD3
330
7C70
100
AcDbEntity
  8
30
  6
Continuous
 62
     0
100
AcDbBlockReference
  2
_OPEN
 10
104.9999999999998
 20
-304.3969140046292
 30
0.0
 41
2.0
 42
2.0
 43
2.0
  0
MTEXT
  5
8AD4
330
7C70
100
AcDbEntity
  8
30
  6
Continuous
 62
     0
100
AcDbMText
 10
52.5
 20
-298.3969140046291
 30
0.0
 40
8.0
 41
0.0
 71
     5
 72
     1
  1
\A1;105
 73
     1
 44
1.0
  0
POINT
  5
8AD5
330
7C70
100
AcDbEntity
  8
DEFPOINTS
  6
Continuous
 62
     0
100
AcDbPoint
 10
-0.0000000000000021
 20
-239.0
 30
0.0
  0
POINT
  5
8AD6
330
7C70
100
AcDbEntity
  8
DEFPOINTS
  6
Continuous
 62
     0
100
AcDbPoint
 10
105.0
 20
-176.7233713329515
 30
0.0
  0
POINT
  5
8AD7
330
7C70
100
AcDbEntity
  8
DEFPOINTS
  6
Continuous
 62
     0
100
AcDbPoint
 10
104.9999999999998
 20
-304.3969140046292
 30
0.0
  0
ENDBLK
  5
7C7B
330
7C70
100
AcDbEntity
  8
0
100
AcDbBlockEnd
  0
BLOCK
  5
7C94
330
7C8A
100
AcDbEntity
  8
0
100
AcDbBlockBegin
  2
*D15
 70
     1
 10
0.0
 20
0.0
 30
0.0
  3
*D15
  1

  0
LINE
  5
88EB
330
7C8A
100
AcDbEntity
  8
30
  6
Continuous
 62
     0
100
AcDbLine
 10
-160.0
 20
-198.0
 30
0.0
 11
-160.0
 21
-331.622219234734
 31
0.0
  0
LINE
  5
88EC
330
7C8A
100
AcDbEntity
  8
30
  6
Continuous
 62
     0
100
AcDbLine
 10
160.0
 20
-198.0
 30
0.0
 11
160.0
 21
-331.622219234734
 31
0.0
  0
LINE
  5
88ED
330
7C8A
100
AcDbEntity
  8
30
  6
Continuous
 62
     0
100
AcDbLine
 10
-158.0
 20
-331.122219234734
 30
0.0
 11
158.0
 21
-331.122219234734
 31
0.0
  0
INSERT
  5
88EE
330
7C8A
100
AcDbEntity
  8
30
  6
Continuous
 62
     0
100
AcDbBlockReference
  2
_OPEN
 10
-160.0
 20
-331.122219234734
 30
0.0
 41
2.0
 42
2.0
 43
2.0
 50
180.0
  0
INSERT
  5
88EF
330
7C8A
100
AcDbEntity
  8
30
  6
Continuous
 62
     0
100
AcDbBlockReference
  2
_OPEN
 10
160.0
 20
-331.122219234734
 30
0.0
 41
2.0
 42
2.0
 43
2.0
  0
MTEXT
  5
88F0
330
7C8A
100
AcDbEntity
  8
30
  6
Continuous
 62
     0
100
AcDbMText
 10
0.0000000000000004
 20
-325.1222192347341
 30
0.0
 40
8.0
 41
0.0
 71
     5
 72
     1
  1
\A1;320
 73
     1
 44
1.0
1001
ACAD
1000
MTEXTBEGIN
1070
    73
1070
     1
1070
    44
1040
1.0
1070
    74
1070
     0
1000
MTEXTEND
1000
MTEXTBEGIN
1070
    73
1070
     1
1070
    44
1040
1.0
1070
    74
1070
     0
1000
MTEXTEND
  0
POINT
  5
88F1
330
7C8A
100
AcDbEntity
  8
DEFPOINTS
  6
Continuous
 62
     0
100
AcDbPoint
 10
-160.0
 20
-193.0
 30
0.0
  0
POINT
  5
88F2
330
7C8A
100
AcDbEntity
  8
DEFPOINTS
  6
Continuous
 62
     0
100
AcDbPoint
 10
160.0
 20
-193.0
 30
0.0
  0
POINT
  5
88F3
330
7C8A
100
AcDbEntity
  8
DEFPOINTS
  6
Continuous
 62
     0
100
AcDbPoint
 10
160.0
 20
-331.122219234734
 30
0.0
  0
ENDBLK
  5
7C95
330
7C8A
100
AcDbEntity
  8
0
100
AcDbBlockEnd
  0
BLOCK
  5
7CBD
330
7CB3
100
AcDbEntity
  8
0
100
AcDbBlockBegin
  2
*D16
 70
     1
 10
0.0
 20
0.0
 30
0.0
  3
*D16
  1

  0
LINE
  5
88F4
330
7CB3
100
AcDbEntity
  8
30
  6
Continuous
 62
     0
100
AcDbLine
 10
430.7144579141633
 20
-2.837046459277031
 30
0.0
 11
430.7144579141633
 21
-304.2079397241791
 31
0.0
  0
LINE
  5
88F5
330
7CB3
100
AcDbEntity
  8
30
  6
Continuous
 62
     0
100
AcDbLine
 10
490.714457901925
 20
-198.0
 30
0.0
 11
490.714457901925
 21
-304.2079397241791
 31
0.0
  0
LINE
  5
88F6
330
7CB3
100
AcDbEntity
  8
30
  6
Continuous
 62
     0
100
AcDbLine
 10
432.7144579141632
 20
-303.7079397241791
 30
0.0
 11
488.7144579019248
 21
-303.7079397241791
 31
0.0
  0
INSERT
  5
88F7
330
7CB3
100
AcDbEntity
  8
30
  6
Continuous
 62
     0
100
AcDbBlockReference
  2
_OPEN
 10
430.7144579141633
 20
-303.7079397241791
 30
0.0
 41
2.0
 42
2.0
 43
2.0
 50
180.0
  0
INSERT
  5
88F8
330
7CB3
100
AcDbEntity
  8
30
  6
Continuous
 62
     0
100
AcDbBlockReference
  2
_OPEN
 10
490.714457901925
 20
-303.7079397241791
 30
0.0
 41
2.0
 42
2.0
 43
2.0
  0
MTEXT
  5
88F9
330
7CB3
100
AcDbEntity
  8
30
  6
Continuous
 62
     0
100
AcDbMText
 10
460.7144579080442
 20
-297.7079397241791
 30
0.0
 40
8.0
 41
0.0
 71
     5
 72
     1
  1
\A1;60
 73
     1
 44
1.0
1001
ACAD
1000
MTEXTBEGIN
1070
    73
1070
     1
1070
    44
1040
1.0
1070
    74
1070
     0
1000
MTEXTEND
1000
MTEXTBEGIN
1070
    73
1070
     1
1070
    44
1040
1.0
1070
    74
1070
     0
1000
MTEXTEND
  0
POINT
  5
88FA
330
7CB3
100
AcDbEntity
  8
DEFPOINTS
  6
Continuous
 62
     0
100
AcDbPoint
 10
430.7144579141633
 20
2.162953540722968
 30
0.0
  0
POINT
  5
88FB
330
7CB3
100
AcDbEntity
  8
DEFPOINTS
  6
Continuous
 62
     0
100
AcDbPoint
 10
490.714457901925
 20
-193.0
 30
0.0
  0
POINT
  5
88FC
330
7CB3
100
AcDbEntity
  8
DEFPOINTS
  6
Continuous
 62
     0
100
AcDbPoint
 10
490.714457901925
 20
-303.7079397241791
 30
0.0
  0
ENDBLK
  5
7CBE
330
7CB3
100
AcDbEntity
  8
0
100
AcDbBlockEnd
  0
BLOCK
  5
7CCA
330
7CC0
100
AcDbEntity
  8
0
100
AcDbBlockBegin
  2
*D17
 70
     1
 10
0.0
 20
0.0
 30
0.0
  3
*D17
  1

  0
LINE
  5
8AD8
330
7CC0
100
AcDbEntity
  8
30
  6
Continuous
 62
     0
100
AcDbLine
 10
490.714457901925
 20
-198.0
 30
0.0
 11
490.714457901925
 21
-304.2079397241791
 31
0.0
  0
LINE
  5
8AD9
330
7CC0
100
AcDbEntity
  8
30
  6
Continuous
 62
     0
100
AcDbLine
 10
715.714457901925
 20
-104.0
 30
0.0
 11
715.714457901925
 21
-304.2079397241791
 31
0.0
  0
LINE
  5
8ADA
330
7CC0
100
AcDbEntity
  8
30
  6
Continuous
 62
     0
100
AcDbLine
 10
492.7144579019248
 20
-303.7079397241791
 30
0.0
 11
713.714457901925
 21
-303.7079397241791
 31
0.0
  0
INSERT
  5
8ADB
330
7CC0
100
AcDbEntity
  8
30
  6
Continuous
 62
     0
100
AcDbBlockReference
  2
_OPEN
 10
490.714457901925
 20
-303.7079397241791
 30
0.0
 41
2.0
 42
2.0
 43
2.0
 50
180.0
  0
INSERT
  5
8ADC
330
7CC0
100
AcDbEntity
  8
30
  6
Continuous
 62
     0
100
AcDbBlockReference
  2
_OPEN
 10
715.714457901925
 20
-303.7079397241791
 30
0.0
 41
2.0
 42
2.0
 43
2.0
  0
MTEXT
  5
8ADD
330
7CC0
100
AcDbEntity
  8
30
  6
Continuous
 62
     0
100
AcDbMText
 10
603.214457901925
 20
-297.7079397241791
 30
0.0
 40
8.0
 41
0.0
 71
     5
 72
     1
  1
\A1;225
 73
     1
 44
1.0
  0
POINT
  5
8ADE
330
7CC0
100
AcDbEntity
  8
DEFPOINTS
  6
Continuous
 62
     0
100
AcDbPoint
 10
490.714457901925
 20
-193.0
 30
0.0
  0
POINT
  5
8ADF
330
7CC0
100
AcDbEntity
  8
DEFPOINTS
  6
Continuous
 62
     0
100
AcDbPoint
 10
715.714457901925
 20
-99.0
 30
0.0
  0
POINT
  5
8AE0
330
7CC0
100
AcDbEntity
  8
DEFPOINTS
  6
Continuous
 62
     0
100
AcDbPoint
 10
715.714457901925
 20
-303.7079397241791
 30
0.0
  0
ENDBLK
  5
7CCB
330
7CC0
100
AcDbEntity
  8
0
100
AcDbBlockEnd
  0
BLOCK
  5
7CE0
330
7CD6
100
AcDbEntity
  8
0
100
AcDbBlockBegin
  2
*D18
 70
     1
 10
0.0
 20
0.0
 30
0.0
  3
*D18
  1

  0
LINE
  5
8906
330
7CD6
100
AcDbEntity
  8
30
  6
Continuous
 62
     0
100
AcDbLine
 10
335.7144426431259
 20
-2.999999999999964
 30
0.0
 11
335.7144426431259
 21
-333.6096069579111
 31
0.0
  0
LINE
  5
8907
330
7CD6
100
AcDbEntity
  8
30
  6
Continuous
 62
     0
100
AcDbLine
 10
715.714457901925
 20
-105.0
 30
0.0
 11
715.714457901925
 21
-333.6096069579111
 31
0.0
  0
LINE
  5
8908
330
7CD6
100
AcDbEntity
  8
30
  6
Continuous
 62
     0
100
AcDbLine
 10
337.714442643126
 20
-333.1096069579111
 30
0.0
 11
713.714457901925
 21
-333.1096069579111
 31
0.0
  0
INSERT
  5
8909
330
7CD6
100
AcDbEntity
  8
30
  6
Continuous
 62
     0
100
AcDbBlockReference
  2
_OPEN
 10
335.7144426431259
 20
-333.1096069579111
 30
0.0
 41
2.0
 42
2.0
 43
2.0
 50
180.0
  0
INSERT
  5
890A
330
7CD6
100
AcDbEntity
  8
30
  6
Continuous
 62
     0
100
AcDbBlockReference
  2
_OPEN
 10
715.714457901925
 20
-333.1096069579111
 30
0.0
 41
2.0
 42
2.0
 43
2.0
  0
MTEXT
  5
890B
330
7CD6
100
AcDbEntity
  8
30
  6
Continuous
 62
     0
100
AcDbMText
 10
525.7144502725253
 20
-327.1096069579111
 30
0.0
 40
8.0
 41
0.0
 71
     5
 72
     1
  1
\A1;380
 73
     1
 44
1.0
1001
ACAD
1000
MTEXTBEGIN
1070
    73
1070
     1
1070
    44
1040
1.0
1070
    74
1070
     0
1000
MTEXTEND
1000
MTEXTBEGIN
1070
    73
1070
     1
1070
    44
1040
1.0
1070
    74
1070
     0
1000
MTEXTEND
  0
POINT
  5
890C
330
7CD6
100
AcDbEntity
  8
DEFPOINTS
  6
Continuous
 62
     0
100
AcDbPoint
 10
335.7144426431259
 20
2.000000000000031
 30
0.0
  0
POINT
  5
890D
330
7CD6
100
AcDbEntity
  8
DEFPOINTS
  6
Continuous
 62
     0
100
AcDbPoint
 10
715.714457901925
 20
-100.0
 30
0.0
  0
POINT
  5
890E
330
7CD6
100
AcDbEntity
  8
DEFPOINTS
  6
Continuous
 62
     0
100
AcDbPoint
 10
715.714457901925
 20
-333.1096069579111
 30
0.0
  0
ENDBLK
  5
7CE1
330
7CD6
100
AcDbEntity
  8
0
100
AcDbBlockEnd
  0
BLOCK
  5
7D07
330
7CFD
100
AcDbEntity
  8
0
100
AcDbBlockBegin
  2
*D19
 70
     1
 10
0.0
 20
0.0
 30
0.0
  3
*D19
  1

  0
LINE
  5
890F
330
7CFD
100
AcDbEntity
  8
30
  6
Continuous
 62
     0
100
AcDbLine
 10
480.7625392333249
 20
-5.00000194869199
 30
0.0
 11
480.7625392333249
 21
-290.4480352378613
 31
0.0
  0
LINE
  5
8910
330
7CFD
100
AcDbEntity
  8
30
  6
Continuous
 62
     0
100
AcDbLine
 10
490.714457901925
 20
-199.0
 30
0.0
 11
490.714457901925
 21
-290.4480352378613
 31
0.0
  0
LINE
  5
8911
330
7CFD
100
AcDbEntity
  8
30
  6
Continuous
 62
     0
100
AcDbLine
 10
482.7625392333247
 20
-289.9480352378613
 30
0.0
 11
488.7144579019248
 21
-289.9480352378613
 31
0.0
  0
LINE
  5
8912
330
7CFD
100
AcDbEntity
  8
30
  6
Continuous
 62
     0
100
AcDbLine
 10
490.714457901925
 20
-289.9480352378613
 30
0.0
 11
506.0477912352583
 21
-289.9480352378613
 31
0.0
  0
INSERT
  5
8913
330
7CFD
100
AcDbEntity
  8
30
  6
Continuous
 62
     0
100
AcDbBlockReference
  2
_OPEN
 10
480.7625392333249
 20
-289.9480352378613
 30
0.0
 41
2.0
 42
2.0
 43
2.0
 50
180.0
  0
INSERT
  5
8914
330
7CFD
100
AcDbEntity
  8
30
  6
Continuous
 62
     0
100
AcDbBlockReference
  2
_OPEN
 10
490.714457901925
 20
-289.9480352378613
 30
0.0
 41
2.0
 42
2.0
 43
2.0
  0
MTEXT
  5
8915
330
7CFD
100
AcDbEntity
  8
30
  6
Continuous
 62
     0
100
AcDbMText
 10
499.3811245685916
 20
-283.9480352378613
 30
0.0
 40
8.0
 41
0.0
 71
     5
 72
     1
  1
\A1;10
 73
     1
 44
1.0
1001
ACAD
1000
MTEXTBEGIN
1070
    73
1070
     1
1070
    44
1040
1.0
1070
    74
1070
     0
1000
MTEXTEND
1000
MTEXTBEGIN
1070
    73
1070
     1
1070
    44
1040
1.0
1070
    74
1070
     0
1000
MTEXTEND
  0
POINT
  5
8916
330
7CFD
100
AcDbEntity
  8
DEFPOINTS
  6
Continuous
 62
     0
100
AcDbPoint
 10
480.7625392333249
 20
-0.0000019486919927
 30
0.0
  0
POINT
  5
8917
330
7CFD
100
AcDbEntity
  8
DEFPOINTS
  6
Continuous
 62
     0
100
AcDbPoint
 10
490.714457901925
 20
-194.0
 30
0.0
  0
POINT
  5
8918
330
7CFD
100
AcDbEntity
  8
DEFPOINTS
  6
Continuous
 62
     0
100
AcDbPoint
 10
490.714457901925
 20
-289.9480352378613
 30
0.0
  0
ENDBLK
  5
7D08
330
7CFD
100
AcDbEntity
  8
0
100
AcDbBlockEnd
  0
BLOCK
  5
7D14
330
7D0A
100
AcDbEntity
  8
0
100
AcDbBlockBegin
  2
*D20
 70
     1
 10
0.0
 20
0.0
 30
0.0
  3
*D20
  1

  0
LINE
  5
8919
330
7D0A
100
AcDbEntity
  8
30
  6
Continuous
 62
     0
100
AcDbLine
 10
677.714457901925
 20
-288.0
 30
0.0
 11
677.714457901925
 21
-284.4748305253069
 31
0.0
  0
LINE
  5
891A
330
7D0A
100
AcDbEntity
  8
30
  6
Continuous
 62
     0
100
AcDbLine
 10
697.714457901925
 20
-288.0
 30
0.0
 11
697.714457901925
 21
-284.4748305253069
 31
0.0
  0
LINE
  5
891B
330
7D0A
100
AcDbEntity
  8
30
  6
Continuous
 62
     0
100
AcDbLine
 10
679.714457901925
 20
-283.9748305253069
 30
0.0
 11
695.7144579019248
 21
-283.9748305253069
 31
0.0
  0
INSERT
  5
891C
330
7D0A
100
AcDbEntity
  8
30
  6
Continuous
 62
     0
100
AcDbBlockReference
  2
_OPEN
 10
677.714457901925
 20
-283.9748305253069
 30
0.0
 41
2.0
 42
2.0
 43
2.0
 50
180.0
  0
INSERT
  5
891D
330
7D0A
100
AcDbEntity
  8
30
  6
Continuous
 62
     0
100
AcDbBlockReference
  2
_OPEN
 10
697.714457901925
 20
-283.9748305253069
 30
0.0
 41
2.0
 42
2.0
 43
2.0
  0
MTEXT
  5
891E
330
7D0A
100
AcDbEntity
  8
30
  6
Continuous
 62
     0
100
AcDbMText
 10
687.714457901925
 20
-277.9748305253069
 30
0.0
 40
8.0
 41
0.0
 71
     5
 72
     1
  1
\A1;20
 73
     1
 44
1.0
1001
ACAD
1000
MTEXTBEGIN
1070
    73
1070
     1
1070
    44
1040
1.0
1070
    74
1070
     0
1000
MTEXTEND
1000
MTEXTBEGIN
1070
    73
1070
     1
1070
    44
1040
1.0
1070
    74
1070
     0
1000
MTEXTEND
  0
POINT
  5
891F
330
7D0A
100
AcDbEntity
  8
DEFPOINTS
  6
Continuous
 62
     0
100
AcDbPoint
 10
677.714457901925
 20
-283.0
 30
0.0
  0
POINT
  5
8920
330
7D0A
100
AcDbEntity
  8
DEFPOINTS
  6
Continuous
 62
     0
100
AcDbPoint
 10
697.714457901925
 20
-283.0
 30
0.0
  0
POINT
  5
8921
330
7D0A
100
AcDbEntity
  8
DEFPOINTS
  6
Continuous
 62
     0
100
AcDbPoint
 10
697.714457901925
 20
-283.9748305253069
 30
0.0
  0
ENDBLK
  5
7D15
330
7D0A
100
AcDbEntity
  8
0
100
AcDbBlockEnd
  0
BLOCK
  5
7D21
330
7D17
100
AcDbEntity
  8
0
100
AcDbBlockBegin
  2
*D21
 70
     1
 10
0.0
 20
0.0
 30
0.0
  3
*D21
  1

  0
LINE
  5
8AE1
330
7D17
100
AcDbEntity
  8
30
  6
Continuous
 62
     0
100
AcDbLine
 10
697.714457901925
 20
-288.0
 30
0.0
 11
697.714457901925
 21
-284.4748305253069
 31
0.0
  0
LINE
  5
8AE2
330
7D17
100
AcDbEntity
  8
30
  6
Continuous
 62
     0
100
AcDbLine
 10
715.714457901925
 20
-106.0
 30
0.0
 11
715.714457901925
 21
-284.4748305253069
 31
0.0
  0
LINE
  5
8AE3
330
7D17
100
AcDbEntity
  8
30
  6
Continuous
 62
     0
100
AcDbLine
 10
699.7144579019249
 20
-283.9748305253069
 30
0.0
 11
713.714457901925
 21
-283.9748305253069
 31
0.0
  0
INSERT
  5
8AE4
330
7D17
100
AcDbEntity
  8
30
  6
Continuous
 62
     0
100
AcDbBlockReference
  2
_OPEN
 10
697.714457901925
 20
-283.9748305253069
 30
0.0
 41
2.0
 42
2.0
 43
2.0
 50
180.0
  0
INSERT
  5
8AE5
330
7D17
100
AcDbEntity
  8
30
  6
Continuous
 62
     0
100
AcDbBlockReference
  2
_OPEN
 10
715.714457901925
 20
-283.9748305253069
 30
0.0
 41
2.0
 42
2.0
 43
2.0
  0
MTEXT
  5
8AE6
330
7D17
100
AcDbEntity
  8
30
  6
Continuous
 62
     0
100
AcDbMText
 10
706.714457901925
 20
-277.9748305253069
 30
0.0
 40
8.0
 41
0.0
 71
     5
 72
     1
  1
\A1;18
 73
     1
 44
1.0
  0
POINT
  5
8AE7
330
7D17
100
AcDbEntity
  8
DEFPOINTS
  6
Continuous
 62
     0
100
AcDbPoint
 10
697.714457901925
 20
-283.0
 30
0.0
  0
POINT
  5
8AE8
330
7D17
100
AcDbEntity
  8
DEFPOINTS
  6
Continuous
 62
     0
100
AcDbPoint
 10
715.714457901925
 20
-101.0
 30
0.0
  0
POINT
  5
8AE9
330
7D17
100
AcDbEntity
  8
DEFPOINTS
  6
Continuous
 62
     0
100
AcDbPoint
 10
715.714457901925
 20
-283.9748305253069
 30
0.0
  0
ENDBLK
  5
7D22
330
7D17
100
AcDbEntity
  8
0
100
AcDbBlockEnd
  0
BLOCK
  5
7D2F
330
7D25
100
AcDbEntity
  8
0
100
AcDbBlockBegin
  2
*D22
 70
     1
 10
0.0
 20
0.0
 30
0.0
  3
*D22
  1

  0
LINE
  5
892B
330
7D25
100
AcDbEntity
  8
30
  6
Continuous
 62
     0
100
AcDbLine
 10
585.714457901925
 20
245.0
 30
0.0
 11
585.714457901925
 21
363.4396081480698
 31
0.0
  0
LINE
  5
892C
330
7D25
100
AcDbEntity
  8
30
  6
Continuous
 62
     0
100
AcDbLine
 10
715.714457901925
 20
282.0
 30
0.0
 11
715.714457901925
 21
363.4396081480698
 31
0.0
  0
LINE
  5
892D
330
7D25
100
AcDbEntity
  8
30
  6
Continuous
 62
     0
100
AcDbLine
 10
587.714457901925
 20
362.9396081480698
 30
0.0
 11
713.714457901925
 21
362.9396081480698
 31
0.0
  0
INSERT
  5
892E
330
7D25
100
AcDbEntity
  8
30
  6
Continuous
 62
     0
100
AcDbBlockReference
  2
_OPEN
 10
585.714457901925
 20
362.9396081480698
 30
0.0
 41
2.0
 42
2.0
 43
2.0
 50
180.0
  0
INSERT
  5
892F
330
7D25
100
AcDbEntity
  8
30
  6
Continuous
 62
     0
100
AcDbBlockReference
  2
_OPEN
 10
715.714457901925
 20
362.9396081480698
 30
0.0
 41
2.0
 42
2.0
 43
2.0
  0
MTEXT
  5
8930
330
7D25
100
AcDbEntity
  8
30
  6
Continuous
 62
     0
100
AcDbMText
 10
650.714457901925
 20
368.9396081480698
 30
0.0
 40
8.0
 41
0.0
 71
     5
 72
     1
  1
\A1;130
 73
     1
 44
1.0
1001
ACAD
1000
MTEXTBEGIN
1070
    73
1070
     1
1070
    44
1040
1.0
1070
    74
1070
     0
1000
MTEXTEND
1000
MTEXTBEGIN
1070
    73
1070
     1
1070
    44
1040
1.0
1070
    74
1070
     0
1000
MTEXTEND
  0
POINT
  5
8931
330
7D25
100
AcDbEntity
  8
DEFPOINTS
  6
Continuous
 62
     0
100
AcDbPoint
 10
585.714457901925
 20
240.0
 30
0.0
  0
POINT
  5
8932
330
7D25
100
AcDbEntity
  8
DEFPOINTS
  6
Continuous
 62
     0
100
AcDbPoint
 10
715.714457901925
 20
277.0
 30
0.0
  0
POINT
  5
8933
330
7D25
100
AcDbEntity
  8
DEFPOINTS
  6
Continuous
 62
     0
100
AcDbPoint
 10
715.714457901925
 20
362.9396081480698
 30
0.0
  0
ENDBLK
  5
7D30
330
7D25
100
AcDbEntity
  8
0
100
AcDbBlockEnd
  0
BLOCK
  5
7D3C
330
7D32
100
AcDbEntity
  8
0
100
AcDbBlockBegin
  2
*D23
 70
     1
 10
0.0
 20
0.0
 30
0.0
  3
*D23
  1

  0
LINE
  5
8AEA
330
7D32
100
AcDbEntity
  8
30
  6
Continuous
 62
     0
100
AcDbLine
 10
715.714457901925
 20
282.0
 30
0.0
 11
715.714457901925
 21
363.4396081480698
 31
0.0
  0
LINE
  5
8AEB
330
7D32
100
AcDbEntity
  8
30
  6
Continuous
 62
     0
100
AcDbLine
 10
744.5145067300249
 20
241.0
 30
0.0
 11
744.5145067300249
 21
363.4396081480698
 31
0.0
  0
LINE
  5
8AEC
330
7D32
100
AcDbEntity
  8
30
  6
Continuous
 62
     0
100
AcDbLine
 10
717.714457901925
 20
362.9396081480698
 30
0.0
 11
742.5145067300249
 21
362.9396081480698
 31
0.0
  0
MTEXT
  5
8AED
330
7D32
100
AcDbEntity
  8
30
  6
Continuous
 62
     0
100
AcDbMText
 10
730.1144823159749
 20
368.9396081480698
 30
0.0
 40
8.0
 41
0.0
 71
     5
 72
     1
  1
\A1;28.8
 73
     1
 44
1.0
  0
INSERT
  5
8AEE
330
7D32
100
AcDbEntity
  8
30
  6
Continuous
 62
     0
100
AcDbBlockReference
  2
_OPEN
 10
715.714457901925
 20
362.9396081480698
 30
0.0
 41
2.0
 42
2.0
 43
2.0
 50
180.0
  0
INSERT
  5
8AEF
330
7D32
100
AcDbEntity
  8
30
  6
Continuous
 62
     0
100
AcDbBlockReference
  2
_OPEN
 10
744.5145067300249
 20
362.9396081480698
 30
0.0
 41
2.0
 42
2.0
 43
2.0
  0
POINT
  5
8AF0
330
7D32
100
AcDbEntity
  8
DEFPOINTS
  6
Continuous
 62
     0
100
AcDbPoint
 10
715.714457901925
 20
277.0
 30
0.0
  0
POINT
  5
8AF1
330
7D32
100
AcDbEntity
  8
DEFPOINTS
  6
Continuous
 62
     0
100
AcDbPoint
 10
744.5145067300249
 20
236.0
 30
0.0
  0
POINT
  5
8AF2
330
7D32
100
AcDbEntity
  8
DEFPOINTS
  6
Continuous
 62
     0
100
AcDbPoint
 10
744.5145067300249
 20
362.9396081480698
 30
0.0
  0
ENDBLK
  5
7D3D
330
7D32
100
AcDbEntity
  8
0
100
AcDbBlockEnd
  0
BLOCK
  5
7D4B
330
7D41
100
AcDbEntity
  8
0
100
AcDbBlockBegin
  2
*D24
 70
     1
 10
0.0
 20
0.0
 30
0.0
  3
*D24
  1

  0
LINE
  5
893D
330
7D41
100
AcDbEntity
  8
30
  6
Continuous
 62
     0
100
AcDbLine
 10
-52.5
 20
-442.8425854357206
 30
0.0
 11
-52.5
 21
-496.9905511136339
 31
0.0
  0
LINE
  5
893E
330
7D41
100
AcDbEntity
  8
30
  6
Continuous
 62
     0
100
AcDbLine
 10
52.5
 20
-442.8425854357206
 30
0.0
 11
52.5
 21
-496.9905511136339
 31
0.0
  0
LINE
  5
893F
330
7D41
100
AcDbEntity
  8
30
  6
Continuous
 62
     0
100
AcDbLine
 10
-50.5
 20
-496.4905511136339
 30
0.0
 11
50.49999999999999
 21
-496.4905511136339
 31
0.0
  0
INSERT
  5
8940
330
7D41
100
AcDbEntity
  8
30
  6
Continuous
 62
     0
100
AcDbBlockReference
  2
_OPEN
 10
-52.5
 20
-496.4905511136339
 30
0.0
 41
2.0
 42
2.0
 43
2.0
 50
180.0
  0
INSERT
  5
8941
330
7D41
100
AcDbEntity
  8
30
  6
Continuous
 62
     0
100
AcDbBlockReference
  2
_OPEN
 10
52.5
 20
-496.4905511136339
 30
0.0
 41
2.0
 42
2.0
 43
2.0
  0
MTEXT
  5
8942
330
7D41
100
AcDbEntity
  8
30
  6
Continuous
 62
     0
100
AcDbMText
 10
-0.0000000000000067
 20
-490.4905511136337
 30
0.0
 40
8.0
 41
0.0
 71
     5
 72
     1
  1
\A1;105
 73
     1
 44
1.0
1001
ACAD
1000
MTEXTBEGIN
1070
    73
1070
     1
1070
    44
1040
1.0
1070
    74
1070
     0
1000
MTEXTEND
1000
MTEXTBEGIN
1070
    73
1070
     1
1070
    44
1040
1.0
1070
    74
1070
     0
1000
MTEXTEND
  0
POINT
  5
8943
330
7D41
100
AcDbEntity
  8
DEFPOINTS
  6
Continuous
 62
     0
100
AcDbPoint
 10
-52.5
 20
-437.8425854357206
 30
0.0
  0
POINT
  5
8944
330
7D41
100
AcDbEntity
  8
DEFPOINTS
  6
Continuous
 62
     0
100
AcDbPoint
 10
52.5
 20
-437.8425854357206
 30
0.0
  0
POINT
  5
8945
330
7D41
100
AcDbEntity
  8
DEFPOINTS
  6
Continuous
 62
     0
100
AcDbPoint
 10
52.5
 20
-496.4905511136339
 30
0.0
  0
ENDBLK
  5
7D4C
330
7D41
100
AcDbEntity
  8
0
100
AcDbBlockEnd
  0
BLOCK
  5
7D58
330
7D4E
100
AcDbEntity
  8
0
100
AcDbBlockBegin
  2
*D25
 70
     1
 10
0.0
 20
0.0
 30
0.0
  3
*D25
  1

  0
LINE
  5
8946
330
7D4E
100
AcDbEntity
  8
30
  6
Continuous
 62
     0
100
AcDbLine
 10
-151.0
 20
-753.8425854357208
 30
0.0
 11
-151.0
 21
-786.4304743781599
 31
0.0
  0
LINE
  5
8947
330
7D4E
100
AcDbEntity
  8
30
  6
Continuous
 62
     0
100
AcDbLine
 10
151.0
 20
-753.8425854357208
 30
0.0
 11
151.0
 21
-786.4304743781599
 31
0.0
  0
LINE
  5
8948
330
7D4E
100
AcDbEntity
  8
30
  6
Continuous
 62
     0
100
AcDbLine
 10
-149.0
 20
-785.9304743781599
 30
0.0
 11
149.0
 21
-785.9304743781599
 31
0.0
  0
INSERT
  5
8949
330
7D4E
100
AcDbEntity
  8
30
  6
Continuous
 62
     0
100
AcDbBlockReference
  2
_OPEN
 10
-151.0
 20
-785.9304743781599
 30
0.0
 41
2.0
 42
2.0
 43
2.0
 50
180.0
  0
INSERT
  5
894A
330
7D4E
100
AcDbEntity
  8
30
  6
Continuous
 62
     0
100
AcDbBlockReference
  2
_OPEN
 10
151.0
 20
-785.9304743781599
 30
0.0
 41
2.0
 42
2.0
 43
2.0
  0
MTEXT
  5
894B
330
7D4E
100
AcDbEntity
  8
30
  6
Continuous
 62
     0
100
AcDbMText
 10
0.0000000000000004
 20
-779.9304743781599
 30
0.0
 40
8.0
 41
0.0
 71
     5
 72
     1
  1
\A1;302
 73
     1
 44
1.0
1001
ACAD
1000
MTEXTBEGIN
1070
    73
1070
     1
1070
    44
1040
1.0
1070
    74
1070
     0
1000
MTEXTEND
1000
MTEXTBEGIN
1070
    73
1070
     1
1070
    44
1040
1.0
1070
    74
1070
     0
1000
MTEXTEND
  0
POINT
  5
894C
330
7D4E
100
AcDbEntity
  8
DEFPOINTS
  6
Continuous
 62
     0
100
AcDbPoint
 10
-151.0
 20
-748.8425854357203
 30
0.0
  0
POINT
  5
894D
330
7D4E
100
AcDbEntity
  8
DEFPOINTS
  6
Continuous
 62
     0
100
AcDbPoint
 10
151.0
 20
-748.8425854357203
 30
0.0
  0
POINT
  5
894E
330
7D4E
100
AcDbEntity
  8
DEFPOINTS
  6
Continuous
 62
     0
100
AcDbPoint
 10
151.0
 20
-785.9304743781599
 30
0.0
  0
ENDBLK
  5
7D59
330
7D4E
100
AcDbEntity
  8
0
100
AcDbBlockEnd
  0
BLOCK
  5
7DB1
330
7DA7
100
AcDbEntity
  8
0
100
AcDbBlockBegin
  2
*D26
 70
     1
 10
0.0
 20
0.0
 30
0.0
  3
*D26
  1

  0
LINE
  5
894F
330
7DA7
100
AcDbEntity
  8
30
  6
Continuous
 62
     0
100
AcDbLine
 10
490.4999999999998
 20
-717.0
 30
0.0
 11
490.4999999999998
 21
-750.6030481124437
 31
0.0
  0
LINE
  5
8950
330
7DA7
100
AcDbEntity
  8
30
  6
Continuous
 62
     0
100
AcDbLine
 10
609.4999999999997
 20
-717.0
 30
0.0
 11
609.4999999999997
 21
-750.6030481124437
 31
0.0
  0
LINE
  5
8951
330
7DA7
100
AcDbEntity
  8
30
  6
Continuous
 62
     0
100
AcDbLine
 10
492.4999999999998
 20
-750.1030481124437
 30
0.0
 11
607.5
 21
-750.1030481124437
 31
0.0
  0
INSERT
  5
8952
330
7DA7
100
AcDbEntity
  8
30
  6
Continuous
 62
     0
100
AcDbBlockReference
  2
_OPEN
 10
490.4999999999998
 20
-750.1030481124437
 30
0.0
 41
2.0
 42
2.0
 43
2.0
 50
180.0
  0
INSERT
  5
8953
330
7DA7
100
AcDbEntity
  8
30
  6
Continuous
 62
     0
100
AcDbBlockReference
  2
_OPEN
 10
609.4999999999997
 20
-750.1030481124437
 30
0.0
 41
2.0
 42
2.0
 43
2.0
  0
MTEXT
  5
8954
330
7DA7
100
AcDbEntity
  8
30
  6
Continuous
 62
     0
100
AcDbMText
 10
550.0
 20
-744.1030481124437
 30
0.0
 40
8.0
 41
0.0
 71
     5
 72
     1
  1
\A1;119
 73
     1
 44
1.0
1001
ACAD
1000
MTEXTBEGIN
1070
    73
1070
     1
1070
    44
1040
1.0
1070
    74
1070
     0
1000
MTEXTEND
1000
MTEXTBEGIN
1070
    73
1070
     1
1070
    44
1040
1.0
1070
    74
1070
     0
1000
MTEXTEND
  0
POINT
  5
8955
330
7DA7
100
AcDbEntity
  8
DEFPOINTS
  6
Continuous
 62
     0
100
AcDbPoint
 10
490.4999999999998
 20
-712.0
 30
0.0
  0
POINT
  5
8956
330
7DA7
100
AcDbEntity
  8
DEFPOINTS
  6
Continuous
 62
     0
100
AcDbPoint
 10
609.4999999999997
 20
-712.0
 30
0.0
  0
POINT
  5
8957
330
7DA7
100
AcDbEntity
  8
DEFPOINTS
  6
Continuous
 62
     0
100
AcDbPoint
 10
609.4999999999997
 20
-750.1030481124437
 30
0.0
  0
ENDBLK
  5
7DB2
330
7DA7
100
AcDbEntity
  8
0
100
AcDbBlockEnd
  0
BLOCK
  5
7DBE
330
7DB4
100
AcDbEntity
  8
0
100
AcDbBlockBegin
  2
*D27
 70
     1
 10
0.0
 20
0.0
 30
0.0
  3
*D27
  1

  0
LINE
  5
8958
330
7DB4
100
AcDbEntity
  8
30
  6
Continuous
 62
     0
100
AcDbLine
 10
495.5
 20
-578.0
 30
0.0
 11
437.6887971310578
 21
-578.0
 31
0.0
  0
LINE
  5
8959
330
7DB4
100
AcDbEntity
  8
30
  6
Continuous
 62
     0
100
AcDbLine
 10
495.4999999999998
 20
-722.0
 30
0.0
 11
437.6887971310578
 21
-722.0
 31
0.0
  0
LINE
  5
895A
330
7DB4
100
AcDbEntity
  8
30
  6
Continuous
 62
     0
100
AcDbLine
 10
438.188797131058
 20
-580.0
 30
0.0
 11
438.188797131058
 21
-720.0
 31
0.0
  0
INSERT
  5
895B
330
7DB4
100
AcDbEntity
  8
30
  6
Continuous
 62
     0
100
AcDbBlockReference
  2
_OPEN
 10
438.188797131058
 20
-578.0
 30
0.0
 41
2.0
 42
2.0
 43
2.0
 50
90.0
  0
INSERT
  5
895C
330
7DB4
100
AcDbEntity
  8
30
  6
Continuous
 62
     0
100
AcDbBlockReference
  2
_OPEN
 10
438.188797131058
 20
-722.0
 30
0.0
 41
2.0
 42
2.0
 43
2.0
 50
270.0
  0
MTEXT
  5
895D
330
7DB4
100
AcDbEntity
  8
30
  6
Continuous
 62
     0
100
AcDbMText
 10
432.1887971310578
 20
-649.9999999999999
 30
0.0
 40
8.0
 41
0.0
 71
     5
 72
     1
  1
\A1;144
 11
0.0000000000000001
 21
1.0
 31
0.0
 73
     1
 44
1.0
1001
ACAD
1000
MTEXTBEGIN
1070
    73
1070
     1
1070
    44
1040
1.0
1070
    74
1070
     0
1000
MTEXTEND
1000
MTEXTBEGIN
1070
    73
1070
     1
1070
    44
1040
1.0
1070
    74
1070
     0
1000
MTEXTEND
  0
POINT
  5
895E
330
7DB4
100
AcDbEntity
  8
DEFPOINTS
  6
Continuous
 62
     0
100
AcDbPoint
 10
500.4999999999998
 20
-578.0
 30
0.0
  0
POINT
  5
895F
330
7DB4
100
AcDbEntity
  8
DEFPOINTS
  6
Continuous
 62
     0
100
AcDbPoint
 10
500.4999999999998
 20
-722.0
 30
0.0
  0
POINT
  5
8960
330
7DB4
100
AcDbEntity
  8
DEFPOINTS
  6
Continuous
 62
     0
100
AcDbPoint
 10
438.188797131058
 20
-722.0
 30
0.0
  0
ENDBLK
  5
7DBF
330
7DB4
100
AcDbEntity
  8
0
100
AcDbBlockEnd
  0
BLOCK
  5
7E03
330
7DF9
100
AcDbEntity
  8
0
100
AcDbBlockBegin
  2
*D28
 70
     1
 10
0.0
 20
0.0
 30
0.0
  3
*D28
  1

  0
LINE
  5
8961
330
7DF9
100
AcDbEntity
  8
30
  6
Continuous
 62
     0
100
AcDbLine
 10
165.0
 20
277.0
 30
0.0
 11
181.5598773619804
 21
277.0
 31
0.0
  0
LINE
  5
8962
330
7DF9
100
AcDbEntity
  8
30
  6
Continuous
 62
     0
100
AcDbLine
 10
165.0
 20
257.0
 30
0.0
 11
181.5598773619804
 21
257.0
 31
0.0
  0
LINE
  5
8963
330
7DF9
100
AcDbEntity
  8
30
  6
Continuous
 62
     0
100
AcDbLine
 10
181.0598773619803
 20
275.0
 30
0.0
 11
181.0598773619803
 21
259.0
 31
0.0
  0
INSERT
  5
8964
330
7DF9
100
AcDbEntity
  8
30
  6
Continuous
 62
     0
100
AcDbBlockReference
  2
_OPEN
 10
181.0598773619803
 20
277.0
 30
0.0
 41
2.0
 42
2.0
 43
2.0
 50
90.0
  0
INSERT
  5
8965
330
7DF9
100
AcDbEntity
  8
30
  6
Continuous
 62
     0
100
AcDbBlockReference
  2
_OPEN
 10
181.0598773619803
 20
257.0
 30
0.0
 41
2.0
 42
2.0
 43
2.0
 50
270.0
  0
MTEXT
  5
8966
330
7DF9
100
AcDbEntity
  8
30
  6
Continuous
 62
     0
100
AcDbMText
 10
175.0598773619803
 20
267.0
 30
0.0
 40
8.0
 41
0.0
 71
     5
 72
     1
  1
\A1;20
 11
0.0000000000000001
 21
1.0
 31
0.0
 73
     1
 44
1.0
1001
ACAD
1000
MTEXTBEGIN
1070
    73
1070
     1
1070
    44
1040
1.0
1070
    74
1070
     0
1000
MTEXTEND
1000
MTEXTBEGIN
1070
    73
1070
     1
1070
    44
1040
1.0
1070
    74
1070
     0
1000
MTEXTEND
  0
POINT
  5
8967
330
7DF9
100
AcDbEntity
  8
DEFPOINTS
  6
Continuous
 62
     0
100
AcDbPoint
 10
160.0
 20
277.0
 30
0.0
  0
POINT
  5
8968
330
7DF9
100
AcDbEntity
  8
DEFPOINTS
  6
Continuous
 62
     0
100
AcDbPoint
 10
160.0
 20
257.0
 30
0.0
  0
POINT
  5
8969
330
7DF9
100
AcDbEntity
  8
DEFPOINTS
  6
Continuous
 62
     0
100
AcDbPoint
 10
181.0598773619803
 20
257.0
 30
0.0
  0
ENDBLK
  5
7E04
330
7DF9
100
AcDbEntity
  8
0
100
AcDbBlockEnd
  0
BLOCK
  5
7E10
330
7E06
100
AcDbEntity
  8
0
100
AcDbBlockBegin
  2
*D29
 70
     1
 10
0.0
 20
0.0
 30
0.0
  3
*D29
  1

  0
LINE
  5
8AF3
330
7E06
100
AcDbEntity
  8
30
  6
Continuous
 62
     0
100
AcDbLine
 10
165.0
 20
-0.0000000000000014
 30
0.0
 11
181.5598773619801
 21
-0.0000000000000061
 31
0.0
  0
LINE
  5
8AF4
330
7E06
100
AcDbEntity
  8
30
  6
Continuous
 62
     0
100
AcDbLine
 10
165.0
 20
-193.0
 30
0.0
 11
181.55987736198
 21
-193.0
 31
0.0
  0
LINE
  5
8AF5
330
7E06
100
AcDbEntity
  8
30
  6
Continuous
 62
     0
100
AcDbLine
 10
181.0598773619801
 20
-2.000000000000005
 30
0.0
 11
181.05987736198
 21
-191.0
 31
0.0
  0
INSERT
  5
8AF6
330
7E06
100
AcDbEntity
  8
30
  6
Continuous
 62
     0
100
AcDbBlockReference
  2
_OPEN
 10
181.0598773619801
 20
-0.000000000000006
 30
0.0
 41
2.0
 42
2.0
 43
2.0
 50
90.0
  0
INSERT
  5
8AF7
330
7E06
100
AcDbEntity
  8
30
  6
Continuous
 62
     0
100
AcDbBlockReference
  2
_OPEN
 10
181.05987736198
 20
-193.0
 30
0.0
 41
2.0
 42
2.0
 43
2.0
 50
270.0
  0
MTEXT
  5
8AF8
330
7E06
100
AcDbEntity
  8
30
  6
Continuous
 62
     0
100
AcDbMText
 10
175.0598773619801
 20
-96.49999999999998
 30
0.0
 40
8.0
 41
0.0
 71
     5
 72
     1
  1
\A1;193
 11
0.0000000000000001
 21
1.0
 31
0.0
 73
     1
 44
1.0
  0
POINT
  5
8AF9
330
7E06
100
AcDbEntity
  8
DEFPOINTS
  6
Continuous
 62
     0
100
AcDbPoint
 10
160.0
 20
0.0
 30
0.0
  0
POINT
  5
8AFA
330
7E06
100
AcDbEntity
  8
DEFPOINTS
  6
Continuous
 62
     0
100
AcDbPoint
 10
160.0
 20
-193.0
 30
0.0
  0
POINT
  5
8AFB
330
7E06
100
AcDbEntity
  8
DEFPOINTS
  6
Continuous
 62
     0
100
AcDbPoint
 10
181.05987736198
 20
-193.0
 30
0.0
  0
ENDBLK
  5
7E11
330
7E06
100
AcDbEntity
  8
0
100
AcDbBlockEnd
  0
BLOCK
  5
7E1D
330
7E13
100
AcDbEntity
  8
0
100
AcDbBlockBegin
  2
*D30
 70
     1
 10
0.0
 20
0.0
 30
0.0
  3
*D30
  1

  0
LINE
  5
8AFC
330
7E13
100
AcDbEntity
  8
30
  6
Continuous
 62
     0
100
AcDbLine
 10
165.0
 20
-193.0
 30
0.0
 11
181.55987736198
 21
-193.0
 31
0.0
  0
LINE
  5
8AFD
330
7E13
100
AcDbEntity
  8
30
  6
Continuous
 62
     0
100
AcDbLine
 10
142.5
 20
-218.0
 30
0.0
 11
181.55987736198
 21
-218.0
 31
0.0
  0
LINE
  5
8AFE
330
7E13
100
AcDbEntity
  8
30
  6
Continuous
 62
     0
100
AcDbLine
 10
181.05987736198
 20
-195.0
 30
0.0
 11
181.05987736198
 21
-216.0
 31
0.0
  0
INSERT
  5
8AFF
330
7E13
100
AcDbEntity
  8
30
  6
Continuous
 62
     0
100
AcDbBlockReference
  2
_OPEN
 10
181.05987736198
 20
-193.0
 30
0.0
 41
2.0
 42
2.0
 43
2.0
 50
90.0
  0
INSERT
  5
8B00
330
7E13
100
AcDbEntity
  8
30
  6
Continuous
 62
     0
100
AcDbBlockReference
  2
_OPEN
 10
181.05987736198
 20
-218.0
 30
0.0
 41
2.0
 42
2.0
 43
2.0
 50
270.0
  0
MTEXT
  5
8B01
330
7E13
100
AcDbEntity
  8
30
  6
Continuous
 62
     0
100
AcDbMText
 10
175.0598773619801
 20
-205.4999999999999
 30
0.0
 40
8.0
 41
0.0
 71
     5
 72
     1
  1
\A1;25
 11
0.0000000000000001
 21
1.0
 31
0.0
 73
     1
 44
1.0
  0
POINT
  5
8B02
330
7E13
100
AcDbEntity
  8
DEFPOINTS
  6
Continuous
 62
     0
100
AcDbPoint
 10
160.0
 20
-193.0
 30
0.0
  0
POINT
  5
8B03
330
7E13
100
AcDbEntity
  8
DEFPOINTS
  6
Continuous
 62
     0
100
AcDbPoint
 10
137.5
 20
-218.0
 30
0.0
  0
POINT
  5
8B04
330
7E13
100
AcDbEntity
  8
DEFPOINTS
  6
Continuous
 62
     0
100
AcDbPoint
 10
181.05987736198
 20
-218.0
 30
0.0
  0
ENDBLK
  5
7E1E
330
7E13
100
AcDbEntity
  8
0
100
AcDbBlockEnd
  0
BLOCK
  5
7E2A
330
7E20
100
AcDbEntity
  8
0
100
AcDbBlockBegin
  2
*D31
 70
     1
 10
0.0
 20
0.0
 30
0.0
  3
*D31
  1

  0
LINE
  5
8B05
330
7E20
100
AcDbEntity
  8
30
  6
Continuous
 62
     0
100
AcDbLine
 10
142.5
 20
-218.0
 30
0.0
 11
181.55987736198
 21
-218.0
 31
0.0
  0
LINE
  5
8B06
330
7E20
100
AcDbEntity
  8
30
  6
Continuous
 62
     0
100
AcDbLine
 10
135.9614257811999
 20
-238.0
 30
0.0
 11
181.55987736198
 21
-238.0
 31
0.0
  0
LINE
  5
8B07
330
7E20
100
AcDbEntity
  8
30
  6
Continuous
 62
     0
100
AcDbLine
 10
181.05987736198
 20
-220.0
 30
0.0
 11
181.05987736198
 21
-236.0
 31
0.0
  0
INSERT
  5
8B08
330
7E20
100
AcDbEntity
  8
30
  6
Continuous
 62
     0
100
AcDbBlockReference
  2
_OPEN
 10
181.05987736198
 20
-218.0
 30
0.0
 41
2.0
 42
2.0
 43
2.0
 50
90.0
  0
INSERT
  5
8B09
330
7E20
100
AcDbEntity
  8
30
  6
Continuous
 62
     0
100
AcDbBlockReference
  2
_OPEN
 10
181.05987736198
 20
-238.0
 30
0.0
 41
2.0
 42
2.0
 43
2.0
 50
270.0
  0
MTEXT
  5
8B0A
330
7E20
100
AcDbEntity
  8
30
  6
Continuous
 62
     0
100
AcDbMText
 10
175.0598773619801
 20
-227.9999999999999
 30
0.0
 40
8.0
 41
0.0
 71
     5
 72
     1
  1
\A1;20
 11
0.0000000000000001
 21
1.0
 31
0.0
 73
     1
 44
1.0
  0
POINT
  5
8B0B
330
7E20
100
AcDbEntity
  8
DEFPOINTS
  6
Continuous
 62
     0
100
AcDbPoint
 10
137.5
 20
-218.0
 30
0.0
  0
POINT
  5
8B0C
330
7E20
100
AcDbEntity
  8
DEFPOINTS
  6
Continuous
 62
     0
100
AcDbPoint
 10
130.9614257811999
 20
-238.0
 30
0.0
  0
POINT
  5
8B0D
330
7E20
100
AcDbEntity
  8
DEFPOINTS
  6
Continuous
 62
     0
100
AcDbPoint
 10
181.05987736198
 20
-238.0
 30
0.0
  0
ENDBLK
  5
7E2B
330
7E20
100
AcDbEntity
  8
0
100
AcDbBlockEnd
  0
BLOCK
  5
7E37
330
7E2D
100
AcDbEntity
  8
0
100
AcDbBlockBegin
  2
*D32
 70
     1
 10
0.0
 20
0.0
 30
0.0
  3
*D32
  1

  0
LINE
  5
8B0E
330
7E2D
100
AcDbEntity
  8
30
  6
Continuous
 62
     0
100
AcDbLine
 10
135.9614257811999
 20
-238.0
 30
0.0
 11
181.55987736198
 21
-238.0
 31
0.0
  0
LINE
  5
8B0F
330
7E2D
100
AcDbEntity
  8
30
  6
Continuous
 62
     0
100
AcDbLine
 10
136.0668945311999
 20
-268.0
 30
0.0
 11
181.55987736198
 21
-268.0
 31
0.0
  0
LINE
  5
8B10
330
7E2D
100
AcDbEntity
  8
30
  6
Continuous
 62
     0
100
AcDbLine
 10
181.05987736198
 20
-240.0
 30
0.0
 11
181.05987736198
 21
-266.0
 31
0.0
  0
INSERT
  5
8B11
330
7E2D
100
AcDbEntity
  8
30
  6
Continuous
 62
     0
100
AcDbBlockReference
  2
_OPEN
 10
181.05987736198
 20
-238.0
 30
0.0
 41
2.0
 42
2.0
 43
2.0
 50
90.0
  0
INSERT
  5
8B12
330
7E2D
100
AcDbEntity
  8
30
  6
Continuous
 62
     0
100
AcDbBlockReference
  2
_OPEN
 10
181.05987736198
 20
-268.0
 30
0.0
 41
2.0
 42
2.0
 43
2.0
 50
270.0
  0
MTEXT
  5
8B13
330
7E2D
100
AcDbEntity
  8
30
  6
Continuous
 62
     0
100
AcDbMText
 10
175.0598773619801
 20
-252.9999999999999
 30
0.0
 40
8.0
 41
0.0
 71
     5
 72
     1
  1
\A1;30
 11
0.0000000000000001
 21
1.0
 31
0.0
 73
     1
 44
1.0
  0
POINT
  5
8B14
330
7E2D
100
AcDbEntity
  8
DEFPOINTS
  6
Continuous
 62
     0
100
AcDbPoint
 10
130.9614257811999
 20
-238.0
 30
0.0
  0
POINT
  5
8B15
330
7E2D
100
AcDbEntity
  8
DEFPOINTS
  6
Continuous
 62
     0
100
AcDbPoint
 10
131.0668945311999
 20
-268.0
 30
0.0
  0
POINT
  5
8B16
330
7E2D
100
AcDbEntity
  8
DEFPOINTS
  6
Continuous
 62
     0
100
AcDbPoint
 10
181.05987736198
 20
-268.0
 30
0.0
  0
ENDBLK
  5
7E38
330
7E2D
100
AcDbEntity
  8
0
100
AcDbBlockEnd
  0
BLOCK
  5
7E44
330
7E3A
100
AcDbEntity
  8
0
100
AcDbBlockBegin
  2
*D33
 70
     1
 10
0.0
 20
0.0
 30
0.0
  3
*D33
  1

  0
LINE
  5
8B17
330
7E3A
100
AcDbEntity
  8
30
  6
Continuous
 62
     0
100
AcDbLine
 10
136.0668945311999
 20
-268.0
 30
0.0
 11
181.55987736198
 21
-268.0
 31
0.0
  0
LINE
  5
8B18
330
7E3A
100
AcDbEntity
  8
30
  6
Continuous
 62
     0
100
AcDbLine
 10
142.5
 20
-283.0
 30
0.0
 11
181.55987736198
 21
-283.0
 31
0.0
  0
LINE
  5
8B19
330
7E3A
100
AcDbEntity
  8
30
  6
Continuous
 62
     0
100
AcDbLine
 10
181.05987736198
 20
-270.0
 30
0.0
 11
181.05987736198
 21
-281.0
 31
0.0
  0
INSERT
  5
8B1A
330
7E3A
100
AcDbEntity
  8
30
  6
Continuous
 62
     0
100
AcDbBlockReference
  2
_OPEN
 10
181.05987736198
 20
-268.0
 30
0.0
 41
2.0
 42
2.0
 43
2.0
 50
90.0
  0
INSERT
  5
8B1B
330
7E3A
100
AcDbEntity
  8
30
  6
Continuous
 62
     0
100
AcDbBlockReference
  2
_OPEN
 10
181.05987736198
 20
-283.0
 30
0.0
 41
2.0
 42
2.0
 43
2.0
 50
270.0
  0
MTEXT
  5
8B1C
330
7E3A
100
AcDbEntity
  8
30
  6
Continuous
 62
     0
100
AcDbMText
 10
175.0598773619801
 20
-275.4999999999999
 30
0.0
 40
8.0
 41
0.0
 71
     5
 72
     1
  1
\A1;15
 11
0.0000000000000001
 21
1.0
 31
0.0
 73
     1
 44
1.0
  0
POINT
  5
8B1D
330
7E3A
100
AcDbEntity
  8
DEFPOINTS
  6
Continuous
 62
     0
100
AcDbPoint
 10
131.0668945311999
 20
-268.0
 30
0.0
  0
POINT
  5
8B1E
330
7E3A
100
AcDbEntity
  8
DEFPOINTS
  6
Continuous
 62
     0
100
AcDbPoint
 10
137.5
 20
-283.0
 30
0.0
  0
POINT
  5
8B1F
330
7E3A
100
AcDbEntity
  8
DEFPOINTS
  6
Continuous
 62
     0
100
AcDbPoint
 10
181.05987736198
 20
-283.0
 30
0.0
  0
ENDBLK
  5
7E45
330
7E3A
100
AcDbEntity
  8
0
100
AcDbBlockEnd
  0
BLOCK
  5
7E60
330
7E56
100
AcDbEntity
  8
0
100
AcDbBlockBegin
  2
*D34
 70
     1
 10
0.0
 20
0.0
 30
0.0
  3
*D34
  1

  0
LINE
  5
8997
330
7E56
100
AcDbEntity
  8
30
  6
Continuous
 62
     0
100
AcDbLine
 10
142.5
 20
346.9997558592998
 30
0.0
 11
206.4035214744524
 21
346.9997558592998
 31
0.0
  0
LINE
  5
8998
330
7E56
100
AcDbEntity
  8
30
  6
Continuous
 62
     0
100
AcDbLine
 10
165.0
 20
257.0
 30
0.0
 11
206.4035214744524
 21
257.0
 31
0.0
  0
LINE
  5
8999
330
7E56
100
AcDbEntity
  8
30
  6
Continuous
 62
     0
100
AcDbLine
 10
205.9035214744524
 20
344.9997558592998
 30
0.0
 11
205.9035214744524
 21
259.0
 31
0.0
  0
INSERT
  5
899A
330
7E56
100
AcDbEntity
  8
30
  6
Continuous
 62
     0
100
AcDbBlockReference
  2
_OPEN
 10
205.9035214744524
 20
346.9997558592998
 30
0.0
 41
2.0
 42
2.0
 43
2.0
 50
90.0
  0
INSERT
  5
899B
330
7E56
100
AcDbEntity
  8
30
  6
Continuous
 62
     0
100
AcDbBlockReference
  2
_OPEN
 10
205.9035214744524
 20
257.0
 30
0.0
 41
2.0
 42
2.0
 43
2.0
 50
270.0
  0
MTEXT
  5
899C
330
7E56
100
AcDbEntity
  8
30
  6
Continuous
 62
     0
100
AcDbMText
 10
199.9035214744525
 20
301.9998779296498
 30
0.0
 40
8.0
 41
0.0
 71
     5
 72
     1
  1
\A1;90
 11
0.0000000000000001
 21
1.0
 31
0.0
 73
     1
 44
1.0
1001
ACAD
1000
MTEXTBEGIN
1070
    73
1070
     1
1070
    44
1040
1.0
1070
    74
1070
     0
1000
MTEXTEND
1000
MTEXTBEGIN
1070
    73
1070
     1
1070
    44
1040
1.0
1070
    74
1070
     0
1000
MTEXTEND
  0
POINT
  5
899D
330
7E56
100
AcDbEntity
  8
DEFPOINTS
  6
Continuous
 62
     0
100
AcDbPoint
 10
137.5
 20
346.9997558592998
 30
0.0
  0
POINT
  5
899E
330
7E56
100
AcDbEntity
  8
DEFPOINTS
  6
Continuous
 62
     0
100
AcDbPoint
 10
160.0
 20
257.0
 30
0.0
  0
POINT
  5
899F
330
7E56
100
AcDbEntity
  8
DEFPOINTS
  6
Continuous
 62
     0
100
AcDbPoint
 10
205.9035214744524
 20
257.0
 30
0.0
  0
ENDBLK
  5
7E61
330
7E56
100
AcDbEntity
  8
0
100
AcDbBlockEnd
  0
BLOCK
  5
7E6D
330
7E63
100
AcDbEntity
  8
0
100
AcDbBlockBegin
  2
*D35
 70
     1
 10
0.0
 20
0.0
 30
0.0
  3
*D35
  1

  0
LINE
  5
8B20
330
7E63
100
AcDbEntity
  8
30
  6
Continuous
 62
     0
100
AcDbLine
 10
165.0
 20
257.0
 30
0.0
 11
206.4035214744525
 21
257.0
 31
0.0
  0
LINE
  5
8B21
330
7E63
100
AcDbEntity
  8
30
  6
Continuous
 62
     0
100
AcDbLine
 10
165.0
 20
-193.0
 30
0.0
 11
206.4035214744524
 21
-193.0
 31
0.0
  0
LINE
  5
8B22
330
7E63
100
AcDbEntity
  8
30
  6
Continuous
 62
     0
100
AcDbLine
 10
205.9035214744525
 20
255.0
 30
0.0
 11
205.9035214744524
 21
-191.0
 31
0.0
  0
INSERT
  5
8B23
330
7E63
100
AcDbEntity
  8
30
  6
Continuous
 62
     0
100
AcDbBlockReference
  2
_OPEN
 10
205.9035214744525
 20
257.0
 30
0.0
 41
2.0
 42
2.0
 43
2.0
 50
90.0
  0
INSERT
  5
8B24
330
7E63
100
AcDbEntity
  8
30
  6
Continuous
 62
     0
100
AcDbBlockReference
  2
_OPEN
 10
205.9035214744524
 20
-193.0
 30
0.0
 41
2.0
 42
2.0
 43
2.0
 50
270.0
  0
MTEXT
  5
8B25
330
7E63
100
AcDbEntity
  8
30
  6
Continuous
 62
     0
100
AcDbMText
 10
199.9035214744525
 20
32.00000000000002
 30
0.0
 40
8.0
 41
0.0
 71
     5
 72
     1
  1
\A1;450
 11
0.0000000000000001
 21
1.0
 31
0.0
 73
     1
 44
1.0
  0
POINT
  5
8B26
330
7E63
100
AcDbEntity
  8
DEFPOINTS
  6
Continuous
 62
     0
100
AcDbPoint
 10
160.0
 20
257.0
 30
0.0
  0
POINT
  5
8B27
330
7E63
100
AcDbEntity
  8
DEFPOINTS
  6
Continuous
 62
     0
100
AcDbPoint
 10
160.0
 20
-193.0
 30
0.0
  0
POINT
  5
8B28
330
7E63
100
AcDbEntity
  8
DEFPOINTS
  6
Continuous
 62
     0
100
AcDbPoint
 10
205.9035214744524
 20
-193.0
 30
0.0
  0
ENDBLK
  5
7E6E
330
7E63
100
AcDbEntity
  8
0
100
AcDbBlockEnd
  0
BLOCK
  5
7E7A
330
7E70
100
AcDbEntity
  8
0
100
AcDbBlockBegin
  2
*D36
 70
     1
 10
0.0
 20
0.0
 30
0.0
  3
*D36
  1

  0
LINE
  5
8B29
330
7E70
100
AcDbEntity
  8
30
  6
Continuous
 62
     0
100
AcDbLine
 10
165.0
 20
-193.0
 30
0.0
 11
206.4035214744524
 21
-193.0
 31
0.0
  0
LINE
  5
8B2A
330
7E70
100
AcDbEntity
  8
30
  6
Continuous
 62
     0
100
AcDbLine
 10
144.5
 20
-283.0
 30
0.0
 11
206.4035214744524
 21
-283.0
 31
0.0
  0
LINE
  5
8B2B
330
7E70
100
AcDbEntity
  8
30
  6
Continuous
 62
     0
100
AcDbLine
 10
205.9035214744524
 20
-195.0
 30
0.0
 11
205.9035214744524
 21
-281.0
 31
0.0
  0
INSERT
  5
8B2C
330
7E70
100
AcDbEntity
  8
30
  6
Continuous
 62
     0
100
AcDbBlockReference
  2
_OPEN
 10
205.9035214744524
 20
-193.0
 30
0.0
 41
2.0
 42
2.0
 43
2.0
 50
90.0
  0
INSERT
  5
8B2D
330
7E70
100
AcDbEntity
  8
30
  6
Continuous
 62
     0
100
AcDbBlockReference
  2
_OPEN
 10
205.9035214744524
 20
-283.0
 30
0.0
 41
2.0
 42
2.0
 43
2.0
 50
270.0
  0
MTEXT
  5
8B2E
330
7E70
100
AcDbEntity
  8
30
  6
Continuous
 62
     0
100
AcDbMText
 10
199.9035214744525
 20
-237.9999999999999
 30
0.0
 40
8.0
 41
0.0
 71
     5
 72
     1
  1
\A1;90
 11
0.0000000000000001
 21
1.0
 31
0.0
 73
     1
 44
1.0
  0
POINT
  5
8B2F
330
7E70
100
AcDbEntity
  8
DEFPOINTS
  6
Continuous
 62
     0
100
AcDbPoint
 10
160.0
 20
-193.0
 30
0.0
  0
POINT
  5
8B30
330
7E70
100
AcDbEntity
  8
DEFPOINTS
  6
Continuous
 62
     0
100
AcDbPoint
 10
139.5
 20
-283.0
 30
0.0
  0
POINT
  5
8B31
330
7E70
100
AcDbEntity
  8
DEFPOINTS
  6
Continuous
 62
     0
100
AcDbPoint
 10
205.9035214744524
 20
-283.0
 30
0.0
  0
ENDBLK
  5
7E7B
330
7E70
100
AcDbEntity
  8
0
100
AcDbBlockEnd
  0
BLOCK
  5
7F11
330
7F07
100
AcDbEntity
  8
0
100
AcDbBlockBegin
  2
*D37
 70
     1
 10
0.0
 20
0.0
 30
0.0
  3
*D37
  1

  0
LINE
  5
89B2
330
7F07
100
AcDbEntity
  8
30
  6
Continuous
 62
     0
100
AcDbLine
 10
-81.6962890625
 20
-418.0
 30
0.0
 11
-218.9122509914886
 21
-417.9999999999997
 31
0.0
  0
LINE
  5
89B3
330
7F07
100
AcDbEntity
  8
30
  6
Continuous
 62
     0
100
AcDbLine
 10
-171.0
 20
-650.0
 30
0.0
 11
-218.9122509914886
 21
-650.0
 31
0.0
  0
LINE
  5
89B4
330
7F07
100
AcDbEntity
  8
30
  6
Continuous
 62
     0
100
AcDbLine
 10
-218.4122509914887
 20
-419.9999999999998
 30
0.0
 11
-218.4122509914887
 21
-648.0
 31
0.0
  0
INSERT
  5
89B5
330
7F07
100
AcDbEntity
  8
30
  6
Continuous
 62
     0
100
AcDbBlockReference
  2
_OPEN
 10
-218.4122509914887
 20
-417.9999999999997
 30
0.0
 41
2.0
 42
2.0
 43
2.0
 50
90.0
  0
INSERT
  5
89B6
330
7F07
100
AcDbEntity
  8
30
  6
Continuous
 62
     0
100
AcDbBlockReference
  2
_OPEN
 10
-218.4122509914887
 20
-650.0
 30
0.0
 41
2.0
 42
2.0
 43
2.0
 50
270.0
  0
MTEXT
  5
89B7
330
7F07
100
AcDbEntity
  8
30
  6
Continuous
 62
     0
100
AcDbMText
 10
-224.4122509914886
 20
-534.0
 30
0.0
 40
8.0
 41
0.0
 71
     5
 72
     1
  1
\A1;232
 11
0.0000000000000001
 21
1.0
 31
0.0
 73
     1
 44
1.0
1001
ACAD
1000
MTEXTBEGIN
1070
    73
1070
     1
1070
    44
1040
1.0
1070
    74
1070
     0
1000
MTEXTEND
1000
MTEXTBEGIN
1070
    73
1070
     1
1070
    44
1040
1.0
1070
    74
1070
     0
1000
MTEXTEND
  0
POINT
  5
89B8
330
7F07
100
AcDbEntity
  8
DEFPOINTS
  6
Continuous
 62
     0
100
AcDbPoint
 10
-76.6962890625
 20
-418.0
 30
0.0
  0
POINT
  5
89B9
330
7F07
100
AcDbEntity
  8
DEFPOINTS
  6
Continuous
 62
     0
100
AcDbPoint
 10
-166.0
 20
-650.0
 30
0.0
  0
POINT
  5
89BA
330
7F07
100
AcDbEntity
  8
DEFPOINTS
  6
Continuous
 62
     0
100
AcDbPoint
 10
-218.4122509914887
 20
-650.0
 30
0.0
  0
ENDBLK
  5
7F12
330
7F07
100
AcDbEntity
  8
0
100
AcDbBlockEnd
  0
BLOCK
  5
7F1E
330
7F14
100
AcDbEntity
  8
0
100
AcDbBlockBegin
  2
*D38
 70
     1
 10
0.0
 20
0.0
 30
0.0
  3
*D38
  1

  0
LINE
  5
8B32
330
7F14
100
AcDbEntity
  8
30
  6
Continuous
 62
     0
100
AcDbLine
 10
-171.0
 20
-650.0
 30
0.0
 11
-218.9122509914886
 21
-650.0
 31
0.0
  0
LINE
  5
8B33
330
7F14
100
AcDbEntity
  8
30
  6
Continuous
 62
     0
100
AcDbLine
 10
-170.3988960500464
 20
-729.0
 30
0.0
 11
-218.9122509914886
 21
-729.0
 31
0.0
  0
LINE
  5
8B34
330
7F14
100
AcDbEntity
  8
30
  6
Continuous
 62
     0
100
AcDbLine
 10
-218.4122509914886
 20
-652.0
 30
0.0
 11
-218.4122509914887
 21
-727.0
 31
0.0
  0
INSERT
  5
8B35
330
7F14
100
AcDbEntity
  8
30
  6
Continuous
 62
     0
100
AcDbBlockReference
  2
_OPEN
 10
-218.4122509914886
 20
-650.0
 30
0.0
 41
2.0
 42
2.0
 43
2.0
 50
90.0
  0
INSERT
  5
8B36
330
7F14
100
AcDbEntity
  8
30
  6
Continuous
 62
     0
100
AcDbBlockReference
  2
_OPEN
 10
-218.4122509914887
 20
-729.0
 30
0.0
 41
2.0
 42
2.0
 43
2.0
 50
270.0
  0
MTEXT
  5
8B37
330
7F14
100
AcDbEntity
  8
30
  6
Continuous
 62
     0
100
AcDbMText
 10
-224.4122509914884
 20
-689.5
 30
0.0
 40
8.0
 41
0.0
 71
     5
 72
     1
  1
\A1;79
 11
0.0000000000000001
 21
1.0
 31
0.0
 73
     1
 44
1.0
  0
POINT
  5
8B38
330
7F14
100
AcDbEntity
  8
DEFPOINTS
  6
Continuous
 62
     0
100
AcDbPoint
 10
-166.0
 20
-650.0
 30
0.0
  0
POINT
  5
8B39
330
7F14
100
AcDbEntity
  8
DEFPOINTS
  6
Continuous
 62
     0
100
AcDbPoint
 10
-165.3988960500464
 20
-729.0
 30
0.0
  0
POINT
  5
8B3A
330
7F14
100
AcDbEntity
  8
DEFPOINTS
  6
Continuous
 62
     0
100
AcDbPoint
 10
-218.4122509914887
 20
-729.0
 30
0.0
  0
ENDBLK
  5
7F1F
330
7F14
100
AcDbEntity
  8
0
100
AcDbBlockEnd
  0
BLOCK
  5
81A1
330
8197
100
AcDbEntity
  8
0
100
AcDbBlockBegin
  2
*D39
 70
     1
 10
0.0
 20
0.0
 30
0.0
  3
*D39
  1

  0
LINE
  5
89C4
330
8197
100
AcDbEntity
  8
30
  6
Continuous
 62
     0
100
AcDbLine
 10
165.0
 20
-0.0000000000000014
 30
0.0
 11
181.2265440286467
 21
-0.000000000000006
 31
0.0
  0
LINE
  5
89C5
330
8197
100
AcDbEntity
  8
30
  6
Continuous
 62
     0
100
AcDbLine
 10
165.0
 20
257.0
 30
0.0
 11
181.226544028647
 21
257.0
 31
0.0
  0
LINE
  5
89C6
330
8197
100
AcDbEntity
  8
30
  6
Continuous
 62
     0
100
AcDbLine
 10
180.7265440286468
 20
1.999999999999993
 30
0.0
 11
180.7265440286468
 21
255.0
 31
0.0
  0
INSERT
  5
89C7
330
8197
100
AcDbEntity
  8
30
  6
Continuous
 62
     0
100
AcDbBlockReference
  2
_OPEN
 10
180.7265440286468
 20
-0.0000000000000059
 30
0.0
 41
2.0
 42
2.0
 43
2.0
 50
270.0
  0
INSERT
  5
89C8
330
8197
100
AcDbEntity
  8
30
  6
Continuous
 62
     0
100
AcDbBlockReference
  2
_OPEN
 10
180.7265440286468
 20
257.0
 30
0.0
 41
2.0
 42
2.0
 43
2.0
 50
90.0
  0
MTEXT
  5
89C9
330
8197
100
AcDbEntity
  8
30
  6
Continuous
 62
     0
100
AcDbMText
 10
174.7265440286468
 20
128.4999999999999
 30
0.0
 40
8.0
 41
0.0
 71
     5
 72
     1
  1
\A1;257
 11
0.0000000000000001
 21
1.0
 31
0.0
 73
     1
 44
1.0
1001
ACAD
1000
MTEXTBEGIN
1070
    73
1070
     1
1070
    44
1040
1.0
1070
    74
1070
     0
1000
MTEXTEND
1000
MTEXTBEGIN
1070
    73
1070
     1
1070
    44
1040
1.0
1070
    74
1070
     0
1000
MTEXTEND
  0
POINT
  5
89CA
330
8197
100
AcDbEntity
  8
DEFPOINTS
  6
Continuous
 62
     0
100
AcDbPoint
 10
160.0
 20
0.0
 30
0.0
  0
POINT
  5
89CB
330
8197
100
AcDbEntity
  8
DEFPOINTS
  6
Continuous
 62
     0
100
AcDbPoint
 10
160.0
 20
257.0
 30
0.0
  0
POINT
  5
89CC
330
8197
100
AcDbEntity
  8
DEFPOINTS
  6
Continuous
 62
     0
100
AcDbPoint
 10
180.7265440286468
 20
257.0
 30
0.0
  0
ENDBLK
  5
81A2
330
8197
100
AcDbEntity
  8
0
100
AcDbBlockEnd
  0
BLOCK
  5
81AD
330
81A4
100
AcDbEntity
  8
0
100
AcDbBlockBegin
  2
*D40
 70
     1
 10
0.0
 20
0.0
 30
0.0
  3
*D40
  1

  0
LINE
  5
89CD
330
81A4
100
AcDbEntity
  8
30
  6
Continuous
 62
     0
100
AcDbLine
 10
163.382991922026
 20
359.4436719324816
 30
0.0
 11
129.3145160402492
 21
359.4436719324816
 31
0.0
  0
LINE
  5
89CE
330
81A4
100
AcDbEntity
  8
30
  6
Continuous
 62
     0
100
AcDbLine
 10
129.3145160402492
 20
359.4436719324816
 30
0.0
 11
122.4104622685955
 21
339.1018451048442
 31
0.0
  0
MTEXT
  5
89CF
330
81A4
100
AcDbEntity
  8
30
  6
Continuous
 62
     0
100
AcDbMText
 10
155.382991922026
 20
365.4436719324816
 30
0.0
 40
8.0
 41
0.0
 71
     5
 72
     1
  1
\A1;\U+220511
 73
     1
 44
1.0
1001
ACAD
1000
MTEXTBEGIN
1070
    73
1070
     1
1070
    44
1040
1.0
1070
    74
1070
     0
1000
MTEXTEND
1000
MTEXTBEGIN
1070
    73
1070
     1
1070
    44
1040
1.0
1070
    74
1070
     0
1000
MTEXTEND
  0
INSERT
  5
89D0
330
81A4
100
AcDbEntity
  8
30
  6
Continuous
 62
     0
100
AcDbBlockReference
  2
_OPEN
 10
121.7676723303032
 20
337.2079546393659
 30
0.0
 41
2.0
 42
2.0
 43
2.0
 50
251.2526923017812
  0
LINE
  5
89D1
330
81A4
100
AcDbEntity
  8
30
  6
Continuous
 62
     0
100
AcDbLine
 10
119.91
 20
331.9997558593001
 30
0.0
 11
120.09
 21
331.9997558593001
 31
0.0
  0
LINE
  5
89D2
330
81A4
100
AcDbEntity
  8
30
  6
Continuous
 62
     0
100
AcDbLine
 10
120.0
 20
331.9097558593
 30
0.0
 11
120.0
 21
332.0897558592998
 31
0.0
  0
POINT
  5
89D3
330
81A4
100
AcDbEntity
  8
DEFPOINTS
  6
Continuous
 62
     0
100
AcDbPoint
 10
121.7676723303032
 20
337.2079546393659
 30
0.0
  0
POINT
  5
89D4
330
81A4
100
AcDbEntity
  8
DEFPOINTS
  6
Continuous
 62
     0
100
AcDbPoint
 10
118.2323276696966
 20
326.7915570792341
 30
0.0
  0
ENDBLK
  5
81AE
330
81A4
100
AcDbEntity
  8
0
100
AcDbBlockEnd
  0
BLOCK
  5
8424
330
841A
100
AcDbEntity
  8
0
100
AcDbBlockBegin
  2
*D41
 70
     1
 10
0.0
 20
0.0
 30
0.0
  3
*D41
  1

  0
LINE
  5
89D5
330
841A
100
AcDbEntity
  8
30
  6
Continuous
 62
     0
100
AcDbLine
 10
72.5
 20
351.9997558592998
 30
0.0
 11
72.5
 21
383.4179011470964
 31
0.0
  0
LINE
  5
89D6
330
841A
100
AcDbEntity
  8
30
  6
Continuous
 62
     0
100
AcDbLine
 10
137.5
 20
351.9997558592998
 30
0.0
 11
137.5
 21
383.4179011470964
 31
0.0
  0
LINE
  5
89D7
330
841A
100
AcDbEntity
  8
30
  6
Continuous
 62
     0
100
AcDbLine
 10
74.5
 20
382.9179011470964
 30
0.0
 11
135.4999999999999
 21
382.9179011470964
 31
0.0
  0
INSERT
  5
89D8
330
841A
100
AcDbEntity
  8
30
  6
Continuous
 62
     0
100
AcDbBlockReference
  2
_OPEN
 10
72.5
 20
382.9179011470964
 30
0.0
 41
2.0
 42
2.0
 43
2.0
 50
180.0
  0
INSERT
  5
89D9
330
841A
100
AcDbEntity
  8
30
  6
Continuous
 62
     0
100
AcDbBlockReference
  2
_OPEN
 10
137.5
 20
382.9179011470964
 30
0.0
 41
2.0
 42
2.0
 43
2.0
  0
MTEXT
  5
89DA
330
841A
100
AcDbEntity
  8
30
  6
Continuous
 62
     0
100
AcDbMText
 10
105.0
 20
388.9179011470965
 30
0.0
 40
8.0
 41
0.0
 71
     5
 72
     1
  1
\A1;65
 73
     1
 44
1.0
1001
ACAD
1000
MTEXTBEGIN
1070
    73
1070
     1
1070
    44
1040
1.0
1070
    74
1070
     0
1000
MTEXTEND
1000
MTEXTBEGIN
1070
    73
1070
     1
1070
    44
1040
1.0
1070
    74
1070
     0
1000
MTEXTEND
  0
POINT
  5
89DB
330
841A
100
AcDbEntity
  8
DEFPOINTS
  6
Continuous
 62
     0
100
AcDbPoint
 10
72.5
 20
346.9997558592998
 30
0.0
  0
POINT
  5
89DC
330
841A
100
AcDbEntity
  8
DEFPOINTS
  6
Continuous
 62
     0
100
AcDbPoint
 10
137.5
 20
346.9997558592998
 30
0.0
  0
POINT
  5
89DD
330
841A
100
AcDbEntity
  8
DEFPOINTS
  6
Continuous
 62
     0
100
AcDbPoint
 10
137.5
 20
382.9179011470964
 30
0.0
  0
ENDBLK
  5
8425
330
841A
100
AcDbEntity
  8
0
100
AcDbBlockEnd
  0
BLOCK
  5
8431
330
8427
100
AcDbEntity
  8
0
100
AcDbBlockBegin
  2
*D42
 70
     1
 10
0.0
 20
0.0
 30
0.0
  3
*D42
  1

  0
LINE
  5
89DE
330
8427
100
AcDbEntity
  8
30
  6
Continuous
 62
     0
100
AcDbLine
 10
90.0
 20
351.5993652342998
 30
0.0
 11
90.0
 21
371.6871406184777
 31
0.0
  0
LINE
  5
89DF
330
8427
100
AcDbEntity
  8
30
  6
Continuous
 62
     0
100
AcDbLine
 10
120.0
 20
351.4938964842998
 30
0.0
 11
120.0
 21
371.6871406184777
 31
0.0
  0
LINE
  5
89E0
330
8427
100
AcDbEntity
  8
30
  6
Continuous
 62
     0
100
AcDbLine
 10
92.0
 20
371.1871406184777
 30
0.0
 11
118.0
 21
371.1871406184777
 31
0.0
  0
INSERT
  5
89E1
330
8427
100
AcDbEntity
  8
30
  6
Continuous
 62
     0
100
AcDbBlockReference
  2
_OPEN
 10
90.0
 20
371.1871406184777
 30
0.0
 41
2.0
 42
2.0
 43
2.0
 50
180.0
  0
INSERT
  5
89E2
330
8427
100
AcDbEntity
  8
30
  6
Continuous
 62
     0
100
AcDbBlockReference
  2
_OPEN
 10
120.0
 20
371.1871406184777
 30
0.0
 41
2.0
 42
2.0
 43
2.0
  0
MTEXT
  5
89E3
330
8427
100
AcDbEntity
  8
30
  6
Continuous
 62
     0
100
AcDbMText
 10
105.0
 20
377.1871406184777
 30
0.0
 40
8.0
 41
0.0
 71
     5
 72
     1
  1
\A1;30
 73
     1
 44
1.0
1001
ACAD
1000
MTEXTBEGIN
1070
    73
1070
     1
1070
    44
1040
1.0
1070
    74
1070
     0
1000
MTEXTEND
1000
MTEXTBEGIN
1070
    73
1070
     1
1070
    44
1040
1.0
1070
    74
1070
     0
1000
MTEXTEND
  0
POINT
  5
89E4
330
8427
100
AcDbEntity
  8
DEFPOINTS
  6
Continuous
 62
     0
100
AcDbPoint
 10
90.0
 20
346.5993652342998
 30
0.0
  0
POINT
  5
89E5
330
8427
100
AcDbEntity
  8
DEFPOINTS
  6
Continuous
 62
     0
100
AcDbPoint
 10
120.0
 20
346.4938964842998
 30
0.0
  0
POINT
  5
89E6
330
8427
100
AcDbEntity
  8
DEFPOINTS
  6
Continuous
 62
     0
100
AcDbPoint
 10
120.0
 20
371.1871406184777
 30
0.0
  0
ENDBLK
  5
8432
330
8427
100
AcDbEntity
  8
0
100
AcDbBlockEnd
  0
ENDSEC
  0
SECTION
  2
ENTITIES
  0
LINE
  5
B4
330
1E
100
AcDbEntity
  8
16
100
AcDbLine
 10
-0.0000000000000021
 20
-239.0
 30
0.0
 11
0.0
 21
350.4479057911321
 31
0.0
  0
LINE
  5
B5
330
1E
100
AcDbEntity
  8
16
100
AcDbLine
 10
192.9676601005867
 20
0.0000000000000107
 30
0.0
 11
-204.2216913881511
 21
0.0
 31
0.0
  0
MTEXT
  5
BF3
330
1E
100
AcDbEntity
  8
24
  6
Continuous
100
AcDbMText
 10
142.1181906098743
 20
177.5
 30
0.0
 40
3.0
 41
0.0
 71
     1
 72
     1
  1
\A1;
 73
     1
 44
1.0
1001
ACAD
1000
MTEXTBEGIN
1070
    73
1070
     1
1070
    44
1040
1.0
1070
    74
1070
     0
1000
MTEXTEND
1000
MTEXTBEGIN
1070
    73
1070
     1
1070
    44
1040
1.0
1070
    74
1070
     0
1000
MTEXTEND
  0
LINE
  5
1C9A
330
1E
100
AcDbEntity
  8
16
100
AcDbLine
 10
0.0
 20
375.4997558592998
 30
0.0
 11
0.0
 21
690.3590265013707
 31
0.0
  0
LINE
  5
1C9B
330
1E
100
AcDbEntity
  8
16
100
AcDbLine
 10
744.4939146889916
 20
0.0
 30
0.0
 11
387.0
 21
0.0
 31
0.0
  0
LINE
  5
2233
330
1E
100
AcDbEntity
  8
16
100
AcDbLine
 10
550.0
 20
-885.3603056821796
 30
0.0
 11
550.0
 21
-372.7109542159317
 31
0.0
  0
LINE
  5
2234
330
1E
100
AcDbEntity
  8
16
100
AcDbLine
 10
752.1634296945399
 20
-650.0
 30
0.0
 11
360.8657144994913
 21
-650.0
 31
0.0
  0
LINE
  5
2260
330
1E
100
AcDbEntity
  8
16
100
AcDbLine
 10
202.1634296945399
 20
-650.0
 30
0.0
 11
-166.0
 21
-650.0
 31
0.0
  0
LINE
  5
2261
330
1E
100
AcDbEntity
  8
16
100
AcDbLine
 10
0.0
 20
-887.0852836296467
 30
0.0
 11
0.0
 21
-377.7109542159318
 31
0.0
  0
MTEXT
  5
5D8A
330
1E
100
AcDbEntity
  8
19
  6
Continuous
100
AcDbMText
 10
525.0939981048368
 20
587.8208392807662
 30
0.0
 40
8.0
 41
186.1271999999999
 71
     1
 72
     5
  1
XS2000NE 3P FC\PXS2000NN 3P FC
  7
STANDARD1
 73
     1
 44
1.0
1001
ACAD
1000
MTEXTBEGIN
1070
    73
1070
     1
1070
    44
1040
1.0
1070
    74
1070
     0
1000
MTEXTEND
1000
MTEXTBEGIN
1070
    73
1070
     1
1070
    44
1040
1.0
1070
    74
1070
     0
1000
MTEXTEND
  0
DIMENSION
  5
6D05
330
1E
100
AcDbEntity
  8
30
  6
Continuous
100
AcDbDimension
  2
*D11
 10
-195.6725014100754
 20
478.6507035126529
 30
0.0
 11
-195.6725014100758
 21
587.3391755007542
 31
0.0
 70
   160
 71
     5
 42
-1.0
  3
STANDARD
100
AcDbAlignedDimension
 13
-160.0
 23
703.6507035126527
 33
0.0
 14
-160.0
 24
478.6507035126529
 34
0.0
 50
90.0
100
AcDbRotatedDimension
  0
LWPOLYLINE
  5
6D06
330
1E
100
AcDbEntity
  8
10
  6
Continuous
100
AcDbPolyline
 90
        3
 70
     0
 43
0.0
 10
-57.5
 20
478.6507035126526
 10
-57.5
 20
474.6507035126526
 10
57.5
 20
474.6507035126525
  0
LWPOLYLINE
  5
6D07
330
1E
100
AcDbEntity
  8
10
  6
Continuous
100
AcDbPolyline
 90
        4
 70
     0
 43
0.0
 10
-33.0
 20
474.6507035126526
 10
-33.0
 20
442.6507035126528
 10
33.0
 20
442.6507035126528
 10
33.0
 20
474.6507035126525
  0
LINE
  5
6D08
330
1E
100
AcDbEntity
  8
10
  6
Continuous
100
AcDbLine
 10
57.5
 20
474.6507035126525
 30
0.0
 11
57.5
 21
478.6507035126525
 31
0.0
  0
LINE
  5
6D09
330
1E
100
AcDbEntity
  8
10
  6
Continuous
100
AcDbLine
 10
57.5
 20
478.6507035126525
 30
0.0
 11
57.5
 21
478.6507035126525
 31
0.0
  0
LINE
  5
6D33
330
1E
100
AcDbEntity
  8
10
  6
Continuous
100
AcDbLine
 10
-160.0
 20
485.6507035126528
 30
0.0
 11
-160.0
 21
485.6507035126528
 31
0.0
  0
LINE
  5
6D36
330
1E
100
AcDbEntity
  8
10
  6
Continuous
100
AcDbLine
 10
-51.0
 20
478.6507035126526
 30
0.0
 11
-51.0
 21
478.6507035126526
 31
0.0
  0
LWPOLYLINE
  5
6E45
330
1E
100
AcDbEntity
  8
10
  6
Continuous
100
AcDbPolyline
 90
        6
 70
     1
 43
0.0
 10
-51.0
 20
478.6507035126526
 10
159.0
 20
478.6507035126525
 10
159.0
 20
665.6507035126527
 10
-160.0
 20
665.6507035126527
 10
-160.0
 20
485.6507035126528
 10
-160.0
 20
478.6507035126529
  0
DIMENSION
  5
6F16
330
1E
100
AcDbEntity
  8
30
  6
Continuous
100
AcDbDimension
  2
*D12
 10
596.0081213089146
 20
-606.8665427739508
 30
0.0
 11
619.1985257044324
 21
-555.41
 31
0.0
 70
   164
  1
R10
 71
     5
 42
-1.0
  3
STANDARD
100
AcDbRadialDimension
 15
599.4999999999997
 25
-587.9999999999996
 35
0.0
 40
0.0
1001
ACAD
1000
DSTYLE
1002
{
1070
   288
1070
     1
1002
}
  0
LINE
  5
76A2
330
1E
100
AcDbEntity
  8
17
  6
CONTINOUS
100
AcDbLine
 10
72.5
 20
-218.0
 30
0.0
 11
137.5
 21
-218.0
 31
0.0
  0
CIRCLE
  5
76A3
330
1E
100
AcDbEntity
  8
17
  6
CONTINOUS
100
AcDbCircle
 10
-120.0
 20
-238.0
 30
0.0
 40
5.5
210
0.0
220
0.0
230
-1.0
  0
CIRCLE
  5
76A4
330
1E
100
AcDbEntity
  8
17
  6
CONTINOUS
100
AcDbCircle
 10
-120.0
 20
-268.0
 30
0.0
 40
5.5
210
0.0
220
0.0
230
-1.0
  0
LINE
  5
76D6
330
1E
100
AcDbEntity
  8
17
  6
CONTINOUS
100
AcDbLine
 10
90.0
 20
-282.599609375
 30
0.0
 11
90.0
 21
-225.7060546875
 31
0.0
  0
LINE
  5
76D7
330
1E
100
AcDbEntity
  8
17
  6
CONTINOUS
100
AcDbLine
 10
120.0
 20
-282.494140625
 30
0.0
 11
120.0
 21
-225.7060546875
 31
0.0
  0
CIRCLE
  5
76D9
330
1E
100
AcDbEntity
  8
17
  6
CONTINOUS
100
AcDbCircle
 10
-90.0
 20
-268.0
 30
0.0
 40
5.5
210
0.0
220
0.0
230
-1.0
  0
LINE
  5
76DA
330
1E
100
AcDbEntity
  8
17
  6
CONTINOUS
100
AcDbLine
 10
77.46655273440001
 20
-268.0
 30
0.0
 11
101.0668945311999
 21
-268.0
 31
0.0
  0
CIRCLE
  5
76DC
330
1E
100
AcDbEntity
  8
17
  6
CONTINOUS
100
AcDbCircle
 10
-90.0
 20
-238.0
 30
0.0
 40
5.5
210
0.0
220
0.0
230
-1.0
  0
LINE
  5
76DD
330
1E
100
AcDbEntity
  8
17
  6
CONTINOUS
100
AcDbLine
 10
77.255859375
 20
-238.0
 30
0.0
 11
100.9614257811999
 21
-238.0
 31
0.0
  0
LINE
  5
76E3
330
1E
100
AcDbEntity
  8
17
  6
CONTINOUS
100
AcDbLine
 10
108.3364257811999
 20
302.0
 30
0.0
 11
131.5153808594
 21
302.0
 31
0.0
  0
LINE
  5
76E4
330
1E
100
AcDbEntity
  8
17
  6
CONTINOUS
100
AcDbLine
 10
108.3364257811999
 20
331.9997558592999
 30
0.0
 11
131.6206054686999
 21
331.9997558592999
 31
0.0
  0
CIRCLE
  5
76E5
330
1E
100
AcDbEntity
  8
17
  6
CONTINOUS
100
AcDbCircle
 10
120.0
 20
302.0
 30
0.0
 40
5.5
  0
CIRCLE
  5
76E6
330
1E
100
AcDbEntity
  8
17
  6
CONTINOUS
100
AcDbCircle
 10
120.0
 20
331.9997558592999
 30
0.0
 40
5.5
  0
LINE
  5
76E7
330
1E
100
AcDbEntity
  8
10
  6
Continuous
100
AcDbLine
 10
33.0
 20
-41.49999999999999
 30
0.0
 11
-33.0
 21
-41.49999999999999
 31
0.0
  0
LINE
  5
76E8
330
1E
100
AcDbEntity
  8
10
  6
Continuous
100
AcDbLine
 10
-33.0
 20
42.00000000000001
 30
0.0
 11
33.0
 21
42.00000000000001
 31
0.0
  0
LINE
  5
76E9
330
1E
100
AcDbEntity
  8
10
  6
Continuous
100
AcDbLine
 10
57.5001220703
 20
-70.0
 30
0.0
 11
-57.5
 21
-70.0
 31
0.0
  0
LINE
  5
76EA
330
1E
100
AcDbEntity
  8
10
  6
Continuous
100
AcDbLine
 10
-57.5
 20
70.0
 30
0.0
 11
57.5001220703
 21
70.0
 31
0.0
  0
LINE
  5
76EB
330
1E
100
AcDbEntity
  8
10
  6
Continuous
100
AcDbLine
 10
-33.0
 20
-41.49999999999999
 30
0.0
 11
-33.0
 21
42.00000000000001
 31
0.0
  0
LINE
  5
76EC
330
1E
100
AcDbEntity
  8
10
  6
Continuous
100
AcDbLine
 10
-57.5
 20
-70.0
 30
0.0
 11
-57.5
 21
70.0
 31
0.0
  0
LINE
  5
76ED
330
1E
100
AcDbEntity
  8
12
  6
DASHED
100
AcDbLine
 10
-157.0
 20
-79.0
 30
0.0
 11
-145.0
 21
-79.0
 31
0.0
  0
CIRCLE
  5
76EE
330
1E
100
AcDbEntity
  8
12
  6
DASHED
100
AcDbCircle
 10
-151.0
 20
-79.0
 30
0.0
 40
3.25
  0
LINE
  5
76EF
330
1E
100
AcDbEntity
  8
12
  6
DASHED
100
AcDbLine
 10
-151.0
 20
-73.0
 30
0.0
 11
-151.0
 21
-85.0
 31
0.0
  0
LINE
  5
76F0
330
1E
100
AcDbEntity
  8
10
  6
Continuous
100
AcDbLine
 10
33.0
 20
42.00000000000001
 30
0.0
 11
33.0
 21
-41.49999999999999
 31
0.0
  0
LINE
  5
76F1
330
1E
100
AcDbEntity
  8
10
  6
Continuous
100
AcDbLine
 10
57.5001220703
 20
70.0
 30
0.0
 11
57.5001220703
 21
-70.0
 31
0.0
  0
LINE
  5
76F2
330
1E
100
AcDbEntity
  8
12
  6
DASHED
100
AcDbLine
 10
140.0
 20
-79.0
 30
0.0
 11
152.0
 21
-79.0
 31
0.0
  0
LINE
  5
76F3
330
1E
100
AcDbEntity
  8
12
  6
DASHED
100
AcDbLine
 10
146.0
 20
-73.0
 30
0.0
 11
146.0
 21
-85.0
 31
0.0
  0
CIRCLE
  5
76F4
330
1E
100
AcDbEntity
  8
12
  6
DASHED
100
AcDbCircle
 10
146.0
 20
-79.0
 30
0.0
 40
3.25
  0
LINE
  5
76FE
330
1E
100
AcDbEntity
  8
10
  6
Continuous
100
AcDbLine
 10
-160.0
 20
257.0
 30
0.0
 11
-160.0
 21
277.0
 31
0.0
  0
LINE
  5
76FF
330
1E
100
AcDbEntity
  8
12
  6
DASHED
100
AcDbLine
 10
-67.5
 20
232.0
 30
0.0
 11
-37.5
 21
232.0
 31
0.0
  0
LINE
  5
7700
330
1E
100
AcDbEntity
  8
12
  6
DASHED
100
AcDbLine
 10
-52.5
 20
247.0
 30
0.0
 11
-52.5
 21
217.0
 31
0.0
  0
CIRCLE
  5
7701
330
1E
100
AcDbEntity
  8
12
  6
DASHED
100
AcDbCircle
 10
-52.5
 20
232.0
 30
0.0
 40
5.5
  0
LINE
  5
7705
330
1E
100
AcDbEntity
  8
10
  6
Continuous
100
AcDbLine
 10
-160.0
 20
277.0
 30
0.0
 11
-137.5
 21
277.0
 31
0.0
  0
LINE
  5
771B
330
1E
100
AcDbEntity
  8
17
  6
CONTINOUS
100
AcDbLine
 10
105.0
 20
237.0
 30
0.0
 11
105.0
 21
376.9997558592998
 31
0.0
  0
LINE
  5
771D
330
1E
100
AcDbEntity
  8
12
  6
DASHED
100
AcDbLine
 10
37.5
 20
232.0
 30
0.0
 11
67.5
 21
232.0
 31
0.0
  0
LINE
  5
771E
330
1E
100
AcDbEntity
  8
12
  6
DASHED
100
AcDbLine
 10
52.5
 20
247.0
 30
0.0
 11
52.5
 21
217.0
 31
0.0
  0
CIRCLE
  5
771F
330
1E
100
AcDbEntity
  8
12
  6
DASHED
100
AcDbCircle
 10
52.5
 20
232.0
 30
0.0
 40
5.5
  0
LINE
  5
772F
330
1E
100
AcDbEntity
  8
10
  6
Continuous
100
AcDbLine
 10
32.5
 20
277.0
 30
0.0
 11
72.5
 21
277.0
 31
0.0
  0
LINE
  5
7731
330
1E
100
AcDbEntity
  8
17
  6
CONTINOUS
100
AcDbLine
 10
77.255859375
 20
302.0
 30
0.0
 11
100.9614257811999
 21
302.0
 31
0.0
  0
LINE
  5
7732
330
1E
100
AcDbEntity
  8
17
  6
CONTINOUS
100
AcDbLine
 10
77.46655273440001
 20
331.9997558592999
 30
0.0
 11
101.0668945311999
 21
331.9997558592999
 31
0.0
  0
LINE
  5
7733
330
1E
100
AcDbEntity
  8
17
  6
CONTINOUS
100
AcDbLine
 10
120.0
 20
346.4938964842998
 30
0.0
 11
120.0
 21
289.7060546875
 31
0.0
  0
LINE
  5
7734
330
1E
100
AcDbEntity
  8
17
  6
CONTINOUS
100
AcDbLine
 10
90.0
 20
346.5993652342998
 30
0.0
 11
90.0
 21
289.7060546875
 31
0.0
  0
CIRCLE
  5
7735
330
1E
100
AcDbEntity
  8
17
  6
CONTINOUS
100
AcDbCircle
 10
90.0
 20
302.0
 30
0.0
 40
5.5
  0
CIRCLE
  5
7736
330
1E
100
AcDbEntity
  8
17
  6
CONTINOUS
100
AcDbCircle
 10
90.0
 20
331.9997558592999
 30
0.0
 40
5.5
  0
LINE
  5
7739
330
1E
100
AcDbEntity
  8
10
  6
Continuous
100
AcDbLine
 10
160.0
 20
257.0
 30
0.0
 11
160.0
 21
277.0
 31
0.0
  0
LINE
  5
773A
330
1E
100
AcDbEntity
  8
10
  6
Continuous
100
AcDbLine
 10
137.5
 20
277.0
 30
0.0
 11
160.0
 21
277.0
 31
0.0
  0
LINE
  5
7740
330
1E
100
AcDbEntity
  8
17
  6
CONTINOUS
100
AcDbLine
 10
697.714457901925
 20
-283.0
 30
0.0
 11
697.714457901925
 21
-187.0
 31
0.0
  0
LINE
  5
7741
330
1E
100
AcDbEntity
  8
17
  6
CONTINOUS
100
AcDbLine
 10
707.989848526925
 20
-268.0
 30
0.0
 11
664.4278368081248
 21
-268.0
 31
0.0
  0
LINE
  5
7742
330
1E
100
AcDbEntity
  8
17
  6
CONTINOUS
100
AcDbLine
 10
697.714457901925
 20
-283.0
 30
0.0
 11
677.714457901925
 21
-283.0
 31
0.0
  0
LINE
  5
7743
330
1E
100
AcDbEntity
  8
17
  6
CONTINOUS
100
AcDbLine
 10
664.308696183125
 20
-238.0
 30
0.0
 11
708.715922745625
 21
-238.0
 31
0.0
  0
LINE
  5
7744
330
1E
100
AcDbEntity
  8
17
  6
CONTINOUS
100
AcDbLine
 10
697.714457901925
 20
-187.0
 30
0.0
 11
675.714457901925
 21
-187.0
 31
0.0
  0
LINE
  5
7749
330
1E
100
AcDbEntity
  8
12
  6
DASHED
100
AcDbLine
 10
721.714457901925
 20
236.0
 30
0.0
 11
744.5145067300249
 21
236.0
 31
0.0
  0
LINE
  5
774A
330
1E
100
AcDbEntity
  8
12
  6
DASHED
100
AcDbLine
 10
728.214457901925
 20
-55.0
 30
0.0
 11
765.714457901925
 21
-55.0
 31
0.0
  0
LINE
  5
774B
330
1E
100
AcDbEntity
  8
12
  6
DASHED
100
AcDbLine
 10
715.714457901925
 20
-48.99999999999999
 30
0.0
 11
765.714457901925
 21
-48.99999999999999
 31
0.0
  0
LINE
  5
774C
330
1E
100
AcDbEntity
  8
12
  6
DASHED
100
AcDbLine
 10
728.214457901925
 20
208.0
 30
0.0
 11
765.714457901925
 21
208.0
 31
0.0
  0
LINE
  5
774D
330
1E
100
AcDbEntity
  8
12
  6
DASHED
100
AcDbLine
 10
715.714457901925
 20
202.0
 30
0.0
 11
765.714457901925
 21
202.0
 31
0.0
  0
LINE
  5
774E
330
1E
100
AcDbEntity
  8
12
  6
DASHED
100
AcDbLine
 10
744.5145067300249
 20
228.0
 30
0.0
 11
721.714457901925
 21
228.0
 31
0.0
  0
LINE
  5
774F
330
1E
100
AcDbEntity
  8
12
  6
DASHED
100
AcDbLine
 10
744.5145067300249
 20
-84.0
 30
0.0
 11
721.714457901925
 21
-84.0
 31
0.0
  0
LINE
  5
7750
330
1E
100
AcDbEntity
  8
12
  6
DASHED
100
AcDbLine
 10
721.714457901925
 20
-74.00000000010004
 30
0.0
 11
744.5145067300249
 21
-74.00000000010004
 31
0.0
  0
LINE
  5
7751
330
1E
100
AcDbEntity
  8
L225_
  6
Continuous
 62
     3
100
AcDbLine
 10
754.514506730025
 20
-79.0
 30
0.0
 11
652.772807511325
 21
-79.0
 31
0.0
  0
LINE
  5
7752
330
1E
100
AcDbEntity
  8
12
  6
DASHED
100
AcDbLine
 10
480.7144579019249
 20
232.0
 30
0.0
 11
754.514506730025
 21
232.0
 31
0.0
  0
LINE
  5
7753
330
1E
100
AcDbEntity
  8
17
  6
CONTINOUS
100
AcDbLine
 10
697.714457901925
 20
277.0
 30
0.0
 11
697.714457901925
 21
67.5
 31
0.0
  0
ARC
  5
7756
330
1E
100
AcDbEntity
  8
10
  6
Continuous
100
AcDbCircle
 10
740.714457901925
 20
-4.999999999999995
 30
0.0
 40
260.0
100
AcDbArc
 50
180.0
 51
190.0632778829901
  0
LINE
  5
7757
330
1E
100
AcDbEntity
  8
10
  6
Continuous
100
AcDbLine
 10
484.7144579019249
 20
-70.0
 30
0.0
 11
484.7144579019249
 21
-50.43164062499999
 31
0.0
  0
LINE
  5
7758
330
1E
100
AcDbEntity
  8
10
  6
Continuous
100
AcDbLine
 10
490.714457901925
 20
-70.0
 30
0.0
 11
484.7144579019249
 21
-70.0
 31
0.0
  0
LINE
  5
7759
330
1E
100
AcDbEntity
  8
18
100
AcDbLine
 10
391.622905167525
 20
77.103515625
 30
0.0
 11
437.6968797769249
 21
68.7119140625
 31
0.0
  0
LINE
  5
775A
330
1E
100
AcDbEntity
  8
18
100
AcDbLine
 10
425.136577042525
 20
30.7333984375
 30
0.0
 11
383.144633683125
 21
51.46875000000001
 31
0.0
  0
ARC
  5
775B
330
1E
100
AcDbEntity
  8
10
  6
Continuous
100
AcDbCircle
 10
575.714457901925
 20
2.000000000000003
 30
0.0
 40
240.0000152587988
100
AcDbArc
 50
166.4795499242775
 51
180.0
  0
ARC
  5
775C
330
1E
100
AcDbEntity
  8
18
100
AcDbCircle
 10
369.6845890963901
 20
70.12179944214722
 30
0.0
 40
23.00000000001662
100
AcDbArc
 50
17.64105276145985
 51
305.7583761049271
  0
LINE
  5
775D
330
1E
100
AcDbEntity
  8
18
100
AcDbLine
 10
470.7093309488248
 20
15.6630859375
 30
0.0
 11
483.269633683125
 21
53.64062500000001
 31
0.0
  0
LINE
  5
775E
330
1E
100
AcDbEntity
  8
10
  6
Continuous
100
AcDbLine
 10
444.8885301675248
 20
56.05322265619999
 30
0.0
 11
480.5757860269249
 21
46.0244140625
 31
0.0
  0
LINE
  5
775F
330
1E
100
AcDbEntity
  8
10
  6
Continuous
100
AcDbLine
 10
436.0862840738248
 20
41.59863281249999
 30
0.0
 11
440.008647355025
 21
53.45825195309999
 31
0.0
  0
LINE
  5
7760
330
1E
100
AcDbEntity
  8
10
  6
Continuous
100
AcDbLine
 10
484.7144579019249
 20
70.0
 30
0.0
 11
484.7144579019249
 21
40.43164062499999
 31
0.0
  0
LINE
  5
7761
330
1E
100
AcDbEntity
  8
18
100
AcDbLine
 10
470.7093309488248
 20
15.6630859375
 30
0.0
 11
425.1373094644248
 21
30.7333984375
 31
0.0
  0
LINE
  5
7762
330
1E
100
AcDbEntity
  8
10
  6
Continuous
100
AcDbLine
 10
438.456889542525
 20
36.60571289059999
 30
0.0
 11
473.0870164956248
 21
23.380859375
 31
0.0
  0
ARC
  5
7763
330
1E
100
AcDbEntity
  8
10
  6
Continuous
100
AcDbCircle
 10
439.884135636325
 20
40.34252929679996
 30
0.0
 40
4.000000000009923
100
AcDbArc
 50
161.6995376560445
 51
249.098556312272
  0
ARC
  5
7764
330
1E
100
AcDbEntity
  8
10
  6
Continuous
100
AcDbCircle
 10
575.714457901925
 20
2.000000000000003
 30
0.0
 40
145.0000915527549
100
AcDbArc
 50
165.6881085843854
 51
179.9356100261354
  0
LINE
  5
7765
330
1E
100
AcDbEntity
  8
10
  6
Continuous
100
AcDbLine
 10
474.6304735269249
 20
22.791015625
 30
0.0
 11
481.787211808125
 21
18.59375
 31
0.0
  0
ARC
  5
7766
330
1E
100
AcDbEntity
  8
10
  6
Continuous
100
AcDbCircle
 10
740.714457901925
 20
-4.999999999999995
 30
0.0
 40
259.999999999999
100
AcDbArc
 50
178.8980905901724
 51
180.0
  0
LINE
  5
7767
330
1E
100
AcDbEntity
  8
10
  6
Continuous
100
AcDbLine
 10
473.0870164956248
 20
23.380859375
 30
0.0
 11
474.6304735269249
 21
22.791015625
 31
0.0
  0
LINE
  5
7768
330
1E
100
AcDbEntity
  8
10
  6
Continuous
100
AcDbLine
 10
480.5757860269249
 20
46.0244140625
 30
0.0
 11
482.166118058125
 21
45.57714843739996
 31
0.0
  0
ARC
  5
7769
330
1E
100
AcDbEntity
  8
10
  6
Continuous
100
AcDbCircle
 10
740.714457901925
 20
-4.999999999999995
 30
0.0
 40
260.0000000000172
100
AcDbArc
 50
169.9367321349699
 51
178.8980905901724
  0
LINE
  5
776A
330
1E
100
AcDbEntity
  8
10
  6
Continuous
100
AcDbLine
 10
482.166118058125
 20
45.57714843739996
 30
0.0
 11
484.7144579019249
 21
45.29980468749999
 31
0.0
  0
LINE
  5
776B
330
1E
100
AcDbEntity
  8
18
100
AcDbLine
 10
483.269633683125
 20
53.64062500000001
 30
0.0
 11
437.6968797769249
 21
68.7119140625
 31
0.0
  0
ARC
  5
776C
330
1E
100
AcDbEntity
  8
10
  6
Continuous
100
AcDbCircle
 10
443.8062547769249
 20
52.2023925781
 30
0.0
 40
3.999999999971957
100
AcDbArc
 50
74.30378382940898
 51
161.6994966754614
  0
LINE
  5
776D
330
1E
100
AcDbEntity
  8
10
  6
Continuous
100
AcDbLine
 10
490.714457901925
 20
70.0
 30
0.0
 11
484.7144579019249
 21
70.0
 31
0.0
  0
LINE
  5
776F
330
1E
100
AcDbEntity
  8
12
  6
DASHED
100
AcDbLine
 10
675.714457901925
 20
-88.0
 30
0.0
 11
715.714457901925
 21
-88.0
 31
0.0
  0
LINE
  5
7770
330
1E
100
AcDbEntity
  8
12
  6
DASHED
100
AcDbLine
 10
675.714457901925
 20
-70.0
 30
0.0
 11
715.714457901925
 21
-70.0
 31
0.0
  0
LINE
  5
7772
330
1E
100
AcDbEntity
  8
12
  6
DASHED
100
AcDbLine
 10
715.714457901925
 20
-70.0
 30
0.0
 11
715.714457901925
 21
-88.0
 31
0.0
  0
LINE
  5
7773
330
1E
100
AcDbEntity
  8
12
  6
DASHED
100
AcDbLine
 10
715.714457901925
 20
-99.0
 30
0.0
 11
715.714457901925
 21
-48.99999999999999
 31
0.0
  0
LINE
  5
7774
330
1E
100
AcDbEntity
  8
12
  6
DASHED
100
AcDbLine
 10
721.714457901925
 20
-99.0
 30
0.0
 11
715.714457901925
 21
-99.0
 31
0.0
  0
LINE
  5
7775
330
1E
100
AcDbEntity
  8
12
  6
DASHED
100
AcDbLine
 10
721.714457901925
 20
-99.0
 30
0.0
 11
721.714457901925
 21
-61.49999999999999
 31
0.0
  0
ARC
  5
7776
330
1E
100
AcDbEntity
  8
12
  6
DASHED
100
AcDbCircle
 10
-728.214457901925
 20
-61.49999999999999
 30
0.0
 40
6.5
210
0.0
220
0.0
230
-1.0
100
AcDbArc
 50
0.0
 51
90.0
  0
LINE
  5
7777
330
1E
100
AcDbEntity
  8
12
  6
DASHED
100
AcDbLine
 10
733.414409073825
 20
-90.0
 30
0.0
 11
733.414409073825
 21
-68.0
 31
0.0
  0
LINE
  5
7778
330
1E
100
AcDbEntity
  8
12
  6
DASHED
100
AcDbLine
 10
733.414409073825
 20
-90.0
 30
0.0
 11
721.714457901925
 21
-90.0
 31
0.0
  0
LINE
  5
7779
330
1E
100
AcDbEntity
  8
12
  6
DASHED
100
AcDbLine
 10
733.414409073825
 20
-68.0
 30
0.0
 11
721.714457901925
 21
-68.0
 31
0.0
  0
LINE
  5
777E
330
1E
100
AcDbEntity
  8
12
  6
DASHED
100
AcDbLine
 10
490.714457901925
 20
241.7499999999999
 30
0.0
 11
585.714457901925
 21
241.7499999999999
 31
0.0
  0
LINE
  5
777F
330
1E
100
AcDbEntity
  8
12
  6
DASHED
100
AcDbLine
 10
490.714457901925
 20
222.25
 30
0.0
 11
585.714457901925
 21
222.25
 31
0.0
  0
LINE
  5
7781
330
1E
100
AcDbEntity
  8
12
  6
DASHED
100
AcDbLine
 10
585.714457901925
 20
226.0
 30
0.0
 11
697.714457901925
 21
226.0
 31
0.0
  0
LINE
  5
7782
330
1E
100
AcDbEntity
  8
12
  6
DASHED
100
AcDbLine
 10
585.714457901925
 20
238.0
 30
0.0
 11
697.714457901925
 21
238.0
 31
0.0
  0
LINE
  5
7783
330
1E
100
AcDbEntity
  8
12
  6
DASHED
100
AcDbLine
 10
585.714457901925
 20
240.0
 30
0.0
 11
585.714457901925
 21
224.0
 31
0.0
  0
LINE
  5
7784
330
1E
100
AcDbEntity
  8
12
  6
DASHED
100
AcDbLine
 10
575.714457901925
 20
240.0
 30
0.0
 11
585.714457901925
 21
240.0
 31
0.0
  0
LINE
  5
7785
330
1E
100
AcDbEntity
  8
12
  6
DASHED
100
AcDbLine
 10
575.714457901925
 20
224.0
 30
0.0
 11
585.714457901925
 21
224.0
 31
0.0
  0
LINE
  5
7786
330
1E
100
AcDbEntity
  8
12
  6
DASHED
100
AcDbLine
 10
575.714457901925
 20
240.0
 30
0.0
 11
575.714457901925
 21
224.0
 31
0.0
  0
LINE
  5
7787
330
1E
100
AcDbEntity
  8
12
  6
DASHED
100
AcDbLine
 10
585.714457901925
 20
241.7499999999999
 30
0.0
 11
585.714457901925
 21
238.0
 31
0.0
  0
LINE
  5
7788
330
1E
100
AcDbEntity
  8
12
  6
DASHED
100
AcDbLine
 10
585.714457901925
 20
222.25
 30
0.0
 11
585.714457901925
 21
226.0
 31
0.0
  0
ARC
  5
7789
330
1E
100
AcDbEntity
  8
12
  6
DASHED
100
AcDbCircle
 10
728.214457901925
 20
214.5
 30
0.0
 40
6.5
100
AcDbArc
 50
180.0
 51
270.0
  0
LINE
  5
778A
330
1E
100
AcDbEntity
  8
12
  6
DASHED
100
AcDbLine
 10
721.714457901925
 20
252.0
 30
0.0
 11
721.714457901925
 21
214.5
 31
0.0
  0
LINE
  5
778B
330
1E
100
AcDbEntity
  8
12
  6
DASHED
100
AcDbLine
 10
715.714457901925
 20
252.0
 30
0.0
 11
721.714457901925
 21
252.0
 31
0.0
  0
LINE
  5
778C
330
1E
100
AcDbEntity
  8
12
  6
DASHED
100
AcDbLine
 10
733.414409073825
 20
243.0
 30
0.0
 11
733.414409073825
 21
221.0
 31
0.0
  0
LINE
  5
778D
330
1E
100
AcDbEntity
  8
12
  6
DASHED
100
AcDbLine
 10
733.414409073825
 20
221.0
 30
0.0
 11
721.714457901925
 21
221.0
 31
0.0
  0
LINE
  5
778E
330
1E
100
AcDbEntity
  8
12
  6
DASHED
100
AcDbLine
 10
733.414409073825
 20
243.0
 30
0.0
 11
721.714457901925
 21
243.0
 31
0.0
  0
LINE
  5
778F
330
1E
100
AcDbEntity
  8
17
  6
CONTINOUS
100
AcDbLine
 10
704.587016495625
 20
302.0
 30
0.0
 11
667.190776261325
 21
302.0
 31
0.0
  0
LINE
  5
7790
330
1E
100
AcDbEntity
  8
17
  6
CONTINOUS
100
AcDbLine
 10
705.231791886325
 20
331.9997558592999
 30
0.0
 11
665.9012254800249
 21
331.9997558592999
 31
0.0
  0
LINE
  5
7794
330
1E
100
AcDbEntity
  8
12
  6
DASHED
100
AcDbLine
 10
744.5145067300249
 20
-74.00000000010004
 30
0.0
 11
744.5145067300249
 21
-84.0
 31
0.0
  0
LINE
  5
7795
330
1E
100
AcDbEntity
  8
12
  6
DASHED
100
AcDbLine
 10
765.714457901925
 20
-55.0
 30
0.0
 11
765.714457901925
 21
-48.99999999999999
 31
0.0
  0
LINE
  5
7796
330
1E
100
AcDbEntity
  8
12
  6
DASHED
100
AcDbLine
 10
765.714457901925
 20
208.0
 30
0.0
 11
765.714457901925
 21
202.0
 31
0.0
  0
LINE
  5
7797
330
1E
100
AcDbEntity
  8
12
  6
DASHED
100
AcDbLine
 10
744.5145067300249
 20
236.0
 30
0.0
 11
744.5145067300249
 21
228.0
 31
0.0
  0
LINE
  5
77A1
330
1E
100
AcDbEntity
  8
12
100
AcDbLine
 10
-160.0
 20
-729.0
 30
0.0
 11
-133.544921875
 21
-729.0
 31
0.0
  0
CIRCLE
  5
77A7
330
1E
100
AcDbEntity
  8
12
100
AcDbCircle
 10
-151.0
 20
-729.0
 30
0.0
 40
6.0
  0
LINE
  5
77AB
330
1E
100
AcDbEntity
  8
18
100
AcDbLine
 10
160.0
 20
-843.0
 30
0.0
 11
160.0
 21
-393.0
 31
0.0
  0
LINE
  5
77B1
330
1E
100
AcDbEntity
  8
L225_
  6
Continuous
 62
     3
100
AcDbLine
 10
52.5
 20
-400.741914416966
 30
0.0
 11
52.5
 21
-437.8425854357206
 31
0.0
  0
CIRCLE
  5
77B3
330
1E
100
AcDbEntity
  8
12
100
AcDbCircle
 10
151.0
 20
-729.0
 30
0.0
 40
6.0
  0
LINE
  5
77B5
330
1E
100
AcDbEntity
  8
12
100
AcDbLine
 10
-76.6962890625
 20
-418.0
 30
0.0
 11
-27.314453125
 21
-418.0
 31
0.0
  0
CIRCLE
  5
77B6
330
1E
100
AcDbEntity
  8
12
100
AcDbCircle
 10
-52.5
 20
-418.0
 30
0.0
 40
6.0
  0
CIRCLE
  5
77B7
330
1E
100
AcDbEntity
  8
12
100
AcDbCircle
 10
52.5
 20
-418.0
 30
0.0
 40
6.0
  0
LWPOLYLINE
  5
77FE
330
1E
100
AcDbEntity
  8
10
  6
Continuous
100
AcDbPolyline
 90
       12
 70
     1
 43
0.0
 10
137.5
 20
-193.0
 10
160.0
 20
-193.0
 10
160.0
 20
257.0
 10
-160.0
 20
257.0
 10
-160.0
 20
-193.0
 10
-137.5
 20
-193.0
 10
-72.5
 20
-193.0
 10
-32.5
 20
-193.0
 10
32.5
 20
-193.0
 10
72.5001220703
 20
-193.0
 10
27.5
 20
-193.0
 10
72.5
 20
-193.0
  0
LWPOLYLINE
  5
77FF
330
1E
100
AcDbEntity
  8
17
  6
CONTINOUS
100
AcDbPolyline
 90
        6
 70
     0
 43
0.0
 10
72.5
 20
257.0
 10
72.5
 20
277.0
 10
72.5
 20
346.9997558592998
 10
137.5
 20
346.9997558592998
 10
137.5
 20
277.0
 10
137.5
 20
257.0
  0
LWPOLYLINE
  5
780C
330
1E
100
AcDbEntity
  8
17
  6
CONTINOUS
100
AcDbPolyline
 90
        6
 70
     0
 43
0.0
 10
-32.5
 20
257.0
 10
-32.5
 20
277.0
 10
-32.5
 20
346.9997558592998
 10
32.5
 20
346.9997558592998
 10
32.5
 20
277.0
 10
32.5
 20
257.0
  0
CIRCLE
  5
780E
330
1E
100
AcDbEntity
  8
17
  6
CONTINOUS
100
AcDbCircle
 10
-15.0
 20
302.0
 30
0.0
 40
5.5
  0
LINE
  5
780F
330
1E
100
AcDbEntity
  8
17
  6
CONTINOUS
100
AcDbLine
 10
-15.0
 20
346.5993652342998
 30
0.0
 11
-15.0
 21
289.7060546875
 31
0.0
  0
LINE
  5
7810
330
1E
100
AcDbEntity
  8
17
  6
CONTINOUS
100
AcDbLine
 10
-27.744140625
 20
302.0
 30
0.0
 11
-4.038574218800022
 21
302.0
 31
0.0
  0
CIRCLE
  5
7811
330
1E
100
AcDbEntity
  8
17
  6
CONTINOUS
100
AcDbCircle
 10
-15.0
 20
331.9997558592999
 30
0.0
 40
5.5
  0
LINE
  5
7812
330
1E
100
AcDbEntity
  8
17
  6
CONTINOUS
100
AcDbLine
 10
-27.53344726559999
 20
331.9997558592999
 30
0.0
 11
-3.933105468800022
 21
331.9997558592999
 31
0.0
  0
LINE
  5
7813
330
1E
100
AcDbEntity
  8
17
  6
CONTINOUS
100
AcDbLine
 10
15.0
 20
346.4938964842998
 30
0.0
 11
15.0
 21
289.7060546875
 31
0.0
  0
CIRCLE
  5
7814
330
1E
100
AcDbEntity
  8
17
  6
CONTINOUS
100
AcDbCircle
 10
15.0
 20
302.0
 30
0.0
 40
5.5
  0
LINE
  5
7815
330
1E
100
AcDbEntity
  8
17
  6
CONTINOUS
100
AcDbLine
 10
3.336425781199976
 20
302.0
 30
0.0
 11
26.51538085940001
 21
302.0
 31
0.0
  0
CIRCLE
  5
7816
330
1E
100
AcDbEntity
  8
17
  6
CONTINOUS
100
AcDbCircle
 10
15.0
 20
331.9997558592999
 30
0.0
 40
5.5
  0
LINE
  5
7817
330
1E
100
AcDbEntity
  8
17
  6
CONTINOUS
100
AcDbLine
 10
3.336425781199976
 20
331.9997558592999
 30
0.0
 11
26.62060546869998
 21
331.9997558592999
 31
0.0
  0
LWPOLYLINE
  5
7818
330
1E
100
AcDbEntity
  8
17
  6
CONTINOUS
100
AcDbPolyline
 90
        6
 70
     0
 43
0.0
 10
-137.5
 20
257.0
 10
-137.5
 20
277.0
 10
-137.5
 20
346.9997558592998
 10
-72.5
 20
346.9997558592998
 10
-72.5
 20
277.0
 10
-72.5
 20
257.0
  0
LINE
  5
7819
330
1E
100
AcDbEntity
  8
17
  6
CONTINOUS
100
AcDbLine
 10
-105.0
 20
237.0
 30
0.0
 11
-105.0
 21
376.9997558592998
 31
0.0
  0
CIRCLE
  5
781A
330
1E
100
AcDbEntity
  8
17
  6
CONTINOUS
100
AcDbCircle
 10
-120.0
 20
302.0
 30
0.0
 40
5.5
  0
LINE
  5
781B
330
1E
100
AcDbEntity
  8
17
  6
CONTINOUS
100
AcDbLine
 10
-120.0
 20
346.5993652342998
 30
0.0
 11
-120.0
 21
289.7060546875
 31
0.0
  0
LINE
  5
781C
330
1E
100
AcDbEntity
  8
17
  6
CONTINOUS
100
AcDbLine
 10
-132.7441406249999
 20
302.0
 30
0.0
 11
-109.0385742187999
 21
302.0
 31
0.0
  0
CIRCLE
  5
781D
330
1E
100
AcDbEntity
  8
17
  6
CONTINOUS
100
AcDbCircle
 10
-120.0
 20
331.9997558592999
 30
0.0
 40
5.5
  0
LINE
  5
781E
330
1E
100
AcDbEntity
  8
17
  6
CONTINOUS
100
AcDbLine
 10
-132.5334472655999
 20
331.9997558592999
 30
0.0
 11
-108.9331054687999
 21
331.9997558592999
 31
0.0
  0
LINE
  5
781F
330
1E
100
AcDbEntity
  8
17
  6
CONTINOUS
100
AcDbLine
 10
-90.0
 20
346.4938964842998
 30
0.0
 11
-90.0
 21
289.7060546875
 31
0.0
  0
CIRCLE
  5
7820
330
1E
100
AcDbEntity
  8
17
  6
CONTINOUS
100
AcDbCircle
 10
-90.0
 20
302.0
 30
0.0
 40
5.5
  0
LINE
  5
7821
330
1E
100
AcDbEntity
  8
17
  6
CONTINOUS
100
AcDbLine
 10
-101.6635742187999
 20
302.0
 30
0.0
 11
-78.48461914059999
 21
302.0
 31
0.0
  0
CIRCLE
  5
7822
330
1E
100
AcDbEntity
  8
17
  6
CONTINOUS
100
AcDbCircle
 10
-90.0
 20
331.9997558592999
 30
0.0
 40
5.5
  0
LINE
  5
7823
330
1E
100
AcDbEntity
  8
17
  6
CONTINOUS
100
AcDbLine
 10
-101.6635742187999
 20
331.9997558592999
 30
0.0
 11
-78.37939453130002
 21
331.9997558592999
 31
0.0
  0
LINE
  5
7824
330
1E
100
AcDbEntity
  8
10
  6
Continuous
100
AcDbLine
 10
32.49999999999996
 20
277.0
 30
0.0
 11
72.5
 21
277.0
 31
0.0
  0
LINE
  5
7825
330
1E
100
AcDbEntity
  8
10
  6
Continuous
100
AcDbLine
 10
-72.5
 20
277.0
 30
0.0
 11
-32.5
 21
277.0
 31
0.0
  0
LWPOLYLINE
  5
7826
330
1E
100
AcDbEntity
  8
17
  6
CONTINOUS
100
AcDbPolyline
 90
        4
 70
     0
 43
0.0
 10
72.5
 20
-193.0
 10
72.5
 20
-283.0
 10
137.5
 20
-283.0
 10
137.5
 20
-193.0
  0
LINE
  5
7827
330
1E
100
AcDbEntity
  8
17
  6
CONTINOUS
100
AcDbLine
 10
107.2558593749999
 20
-238.0
 30
0.0
 11
130.9614257811999
 21
-238.0
 31
0.0
  0
LINE
  5
7828
330
1E
100
AcDbEntity
  8
17
  6
CONTINOUS
100
AcDbLine
 10
107.4665527344
 20
-268.0
 30
0.0
 11
131.0668945311999
 21
-268.0
 31
0.0
  0
LINE
  5
7830
330
1E
100
AcDbEntity
  8
17
  6
CONTINOUS
100
AcDbLine
 10
677.714457901925
 20
-283.0
 30
0.0
 11
677.714457901925
 21
-218.0
 31
0.0
  0
LINE
  5
7831
330
1E
100
AcDbEntity
  8
17
  6
CONTINOUS
100
AcDbLine
 10
677.714457901925
 20
-218.0
 30
0.0
 11
632.7144579019249
 21
-218.0
 31
0.0
  0
LINE
  5
7832
330
1E
100
AcDbEntity
  8
17
  6
CONTINOUS
100
AcDbLine
 10
632.7144579019249
 20
-218.0
 30
0.0
 11
632.7144579019249
 21
-193.0
 31
0.0
  0
LINE
  5
7836
330
1E
100
AcDbEntity
  8
17
  6
CONTINOUS
100
AcDbLine
 10
677.714457901925
 20
257.0
 30
0.0
 11
677.714457901925
 21
346.9997558592998
 31
0.0
  0
LINE
  5
7837
330
1E
100
AcDbEntity
  8
17
  6
CONTINOUS
100
AcDbLine
 10
677.714457901925
 20
346.9997558592998
 30
0.0
 11
697.714457901925
 21
346.9997558592998
 31
0.0
  0
LINE
  5
7838
330
1E
100
AcDbEntity
  8
17
  6
CONTINOUS
100
AcDbLine
 10
697.714457901925
 20
346.9997558592998
 30
0.0
 11
697.714457901925
 21
277.0
 31
0.0
  0
LINE
  5
7839
330
1E
100
AcDbEntity
  8
10
  6
Continuous
100
AcDbLine
 10
697.714457901925
 20
277.0
 30
0.0
 11
715.714457901925
 21
277.0
 31
0.0
  0
LINE
  5
783A
330
1E
100
AcDbEntity
  8
10
  6
Continuous
100
AcDbLine
 10
715.714457901925
 20
277.0
 30
0.0
 11
715.714457901925
 21
47.00000000000001
 31
0.0
  0
LINE
  5
783B
330
1E
100
AcDbEntity
  8
10
  6
Continuous
100
AcDbLine
 10
715.714457901925
 20
47.00000000000001
 30
0.0
 11
697.714457901925
 21
47.00000000000001
 31
0.0
  0
LINE
  5
783C
330
1E
100
AcDbEntity
  8
10
  6
Continuous
100
AcDbLine
 10
697.714457901925
 20
47.00000000000001
 30
0.0
 11
697.714457901925
 21
67.5
 31
0.0
  0
LINE
  5
783D
330
1E
100
AcDbEntity
  8
17
  6
CONTINOUS
100
AcDbLine
 10
697.714457901925
 20
67.5
 30
0.0
 11
675.714457901925
 21
67.5
 31
0.0
  0
LWPOLYLINE
  5
783F
330
1E
100
AcDbEntity
  8
10
  6
Continuous
100
AcDbPolyline
 90
        5
 70
     0
 43
0.0
 10
675.714457901925
 20
-193.0
 10
632.7144579019249
 20
-193.0
 10
490.714457901925
 20
-193.0
 10
490.714457901925
 20
257.0
 10
675.714457901925
 20
257.0
  0
LWPOLYLINE
  5
7840
330
1E
100
AcDbEntity
  8
10
  6
Continuous
100
AcDbPolyline
 90
        6
 70
     0
 43
0.0
 10
675.714457901925
 20
-193.0
 10
675.714457901925
 20
-187.0
 10
675.714457901925
 20
-88.0
 10
675.714457901925
 20
-70.0
 10
675.714457901925
 20
67.5
 10
675.714457901925
 20
257.0
  0
LINE
  5
7C0B
330
1E
100
AcDbEntity
  8
12
100
AcDbLine
 10
38.10110394995353
 20
-418.0
 30
0.0
 11
72.23768633191865
 21
-418.0
 31
0.0
  0
CIRCLE
  5
7C2A
330
1E
100
AcDbEntity
  8
17
  6
CONTINOUS
100
AcDbCircle
 10
15.0
 20
-238.0
 30
0.0
 40
5.5
210
0.0
220
0.0
230
-1.0
  0
LINE
  5
7C2B
330
1E
100
AcDbEntity
  8
17
  6
CONTINOUS
100
AcDbLine
 10
-27.74414062500001
 20
-238.0
 30
0.0
 11
-4.038574218800036
 21
-238.0
 31
0.0
  0
CIRCLE
  5
7C2C
330
1E
100
AcDbEntity
  8
17
  6
CONTINOUS
100
AcDbCircle
 10
15.0
 20
-268.0
 30
0.0
 40
5.5
210
0.0
220
0.0
230
-1.0
  0
LINE
  5
7C2D
330
1E
100
AcDbEntity
  8
17
  6
CONTINOUS
100
AcDbLine
 10
-27.53344726559999
 20
-268.0
 30
0.0
 11
-3.933105468800036
 21
-268.0
 31
0.0
  0
LWPOLYLINE
  5
7C2E
330
1E
100
AcDbEntity
  8
17
  6
CONTINOUS
100
AcDbPolyline
 90
        4
 70
     0
 43
0.0
 10
-32.5
 20
-193.0
 10
-32.5
 20
-283.0
 10
32.49999999999998
 20
-283.0
 10
32.49999999999998
 20
-193.0
  0
LINE
  5
7C2F
330
1E
100
AcDbEntity
  8
17
  6
CONTINOUS
100
AcDbLine
 10
-32.5
 20
-218.0
 30
0.0
 11
32.49999999999998
 21
-218.0
 31
0.0
  0
LINE
  5
7C30
330
1E
100
AcDbEntity
  8
17
  6
CONTINOUS
100
AcDbLine
 10
14.99999999999998
 20
-282.494140625
 30
0.0
 11
14.99999999999998
 21
-225.7060546875
 31
0.0
  0
LINE
  5
7C31
330
1E
100
AcDbEntity
  8
17
  6
CONTINOUS
100
AcDbLine
 10
-15.0
 20
-282.599609375
 30
0.0
 11
-15.0
 21
-225.7060546875
 31
0.0
  0
CIRCLE
  5
7C32
330
1E
100
AcDbEntity
  8
17
  6
CONTINOUS
100
AcDbCircle
 10
-14.99999999999998
 20
-268.0
 30
0.0
 40
5.5
210
0.0
220
0.0
230
-1.0
  0
LINE
  5
7C33
330
1E
100
AcDbEntity
  8
17
  6
CONTINOUS
100
AcDbLine
 10
2.466552734399996
 20
-268.0
 30
0.0
 11
26.06689453119996
 21
-268.0
 31
0.0
  0
CIRCLE
  5
7C34
330
1E
100
AcDbEntity
  8
17
  6
CONTINOUS
100
AcDbCircle
 10
-14.99999999999998
 20
-238.0
 30
0.0
 40
5.5
210
0.0
220
0.0
230
-1.0
  0
LINE
  5
7C35
330
1E
100
AcDbEntity
  8
17
  6
CONTINOUS
100
AcDbLine
 10
2.255859374999984
 20
-238.0
 30
0.0
 11
25.96142578119996
 21
-238.0
 31
0.0
  0
LINE
  5
7C36
330
1E
100
AcDbEntity
  8
17
  6
CONTINOUS
100
AcDbLine
 10
-102.7441406249999
 20
-238.0
 30
0.0
 11
-79.03857421880005
 21
-238.0
 31
0.0
  0
CIRCLE
  5
7C37
330
1E
100
AcDbEntity
  8
17
  6
CONTINOUS
100
AcDbCircle
 10
90.00000000000001
 20
-238.0
 30
0.0
 40
5.5
210
0.0
220
0.0
230
-1.0
  0
LINE
  5
7C38
330
1E
100
AcDbEntity
  8
17
  6
CONTINOUS
100
AcDbLine
 10
-102.5334472655998
 20
-268.0
 30
0.0
 11
-78.93310546880003
 21
-268.0
 31
0.0
  0
CIRCLE
  5
7C39
330
1E
100
AcDbEntity
  8
17
  6
CONTINOUS
100
AcDbCircle
 10
90.00000000000001
 20
-268.0
 30
0.0
 40
5.5
210
0.0
220
0.0
230
-1.0
  0
LINE
  5
7C3A
330
1E
100
AcDbEntity
  8
17
  6
CONTINOUS
100
AcDbLine
 10
-137.5
 20
-218.0
 30
0.0
 11
-72.50000000000001
 21
-218.0
 31
0.0
  0
LWPOLYLINE
  5
7C3B
330
1E
100
AcDbEntity
  8
17
  6
CONTINOUS
100
AcDbPolyline
 90
        4
 70
     0
 43
0.0
 10
-137.5
 20
-193.0
 10
-137.5
 20
-283.0
 10
-72.50000000000001
 20
-283.0
 10
-72.50000000000001
 20
-193.0
  0
LINE
  5
7C3C
330
1E
100
AcDbEntity
  8
17
  6
CONTINOUS
100
AcDbLine
 10
-120.0
 20
-282.599609375
 30
0.0
 11
-120.0
 21
-225.7060546875
 31
0.0
  0
LINE
  5
7C3D
330
1E
100
AcDbEntity
  8
17
  6
CONTINOUS
100
AcDbLine
 10
-90.00000000000001
 20
-282.494140625
 30
0.0
 11
-90.00000000000001
 21
-225.7060546875
 31
0.0
  0
LINE
  5
7C3E
330
1E
100
AcDbEntity
  8
17
  6
CONTINOUS
100
AcDbLine
 10
-132.5334472655999
 20
-268.0
 30
0.0
 11
-108.9331054687999
 21
-268.0
 31
0.0
  0
CIRCLE
  5
7C3F
330
1E
100
AcDbEntity
  8
17
  6
CONTINOUS
100
AcDbCircle
 10
120.0
 20
-268.0
 30
0.0
 40
5.5
210
0.0
220
0.0
230
-1.0
  0
LINE
  5
7C40
330
1E
100
AcDbEntity
  8
17
  6
CONTINOUS
100
AcDbLine
 10
-132.7441406249999
 20
-238.0
 30
0.0
 11
-109.0385742187999
 21
-238.0
 31
0.0
  0
CIRCLE
  5
7C41
330
1E
100
AcDbEntity
  8
17
  6
CONTINOUS
100
AcDbCircle
 10
120.0
 20
-238.0
 30
0.0
 40
5.5
210
0.0
220
0.0
230
-1.0
  0
LINE
  5
7C43
330
1E
100
AcDbEntity
  8
L225_
  6
Continuous
 62
     3
100
AcDbLine
 10
-52.5
 20
-400.741914416966
 30
0.0
 11
-52.5
 21
-437.8425854357206
 31
0.0
  0
LINE
  5
7C44
330
1E
100
AcDbEntity
  8
12
100
AcDbLine
 10
136.6011039499535
 20
-729.0
 30
0.0
 11
170.7376863319186
 21
-729.0
 31
0.0
  0
LINE
  5
7C45
330
1E
100
AcDbEntity
  8
L225_
  6
Continuous
 62
     3
100
AcDbLine
 10
151.0
 20
-711.7419144169661
 30
0.0
 11
151.0
 21
-748.8425854357203
 31
0.0
  0
LINE
  5
7C46
330
1E
100
AcDbEntity
  8
12
100
AcDbLine
 10
-165.3988960500464
 20
-729.0
 30
0.0
 11
-131.2623136680812
 21
-729.0
 31
0.0
  0
LINE
  5
7C47
330
1E
100
AcDbEntity
  8
L225_
  6
Continuous
 62
     3
100
AcDbLine
 10
-151.0
 20
-711.7419144169661
 30
0.0
 11
-151.0
 21
-748.8425854357203
 31
0.0
  0
DIMENSION
  5
7C62
330
1E
100
AcDbEntity
  8
30
  6
Continuous
100
AcDbDimension
  2
*D13
 10
-0.0000000000000061
 20
-304.3969140046292
 30
0.0
 11
-52.5
 21
-298.3969140046291
 31
0.0
 70
    32
 71
     5
 42
-1.0
  3
STANDARD
100
AcDbAlignedDimension
 13
-105.0
 23
-177.1844658276725
 33
0.0
 14
-0.0000000000000021
 24
-239.0
 34
0.0
100
AcDbRotatedDimension
  0
DIMENSION
  5
7C6F
330
1E
100
AcDbEntity
  8
30
  6
Continuous
100
AcDbDimension
  2
*D14
 10
104.9999999999998
 20
-304.3969140046292
 30
0.0
 11
52.5
 21
-298.3969140046291
 31
0.0
 70
    32
 71
     5
 42
-1.0
  3
STANDARD
100
AcDbAlignedDimension
 13
-0.0000000000000021
 23
-239.0
 33
0.0
 14
105.0
 24
-176.7233713329515
 34
0.0
100
AcDbRotatedDimension
1001
ACAD
1000
DSTYLE
1002
{
1070
   287
1070
     4
1070
   287
1070
     4
1070
   287
1070
     4
1070
   279
1070
     1
1002
}
  0
DIMENSION
  5
7C89
330
1E
100
AcDbEntity
  8
30
  6
Continuous
100
AcDbDimension
  2
*D15
 10
160.0
 20
-331.122219234734
 30
0.0
 11
0.0000000000000004
 21
-325.1222192347341
 31
0.0
 70
    32
 71
     5
 42
-1.0
  3
STANDARD
100
AcDbAlignedDimension
 13
-160.0
 23
-193.0
 33
0.0
 14
160.0
 24
-193.0
 34
0.0
100
AcDbRotatedDimension
  0
DIMENSION
  5
7CB2
330
1E
100
AcDbEntity
  8
30
  6
Continuous
100
AcDbDimension
  2
*D16
 10
490.714457901925
 20
-303.7079397241791
 30
0.0
 11
460.7144579080442
 21
-297.7079397241791
 31
0.0
 70
    32
 71
     5
 42
-1.0
  3
STANDARD
100
AcDbAlignedDimension
 13
430.7144579141633
 23
2.162953540722968
 33
0.0
 14
490.714457901925
 24
-193.0
 34
0.0
100
AcDbRotatedDimension
  0
DIMENSION
  5
7CBF
330
1E
100
AcDbEntity
  8
30
  6
Continuous
100
AcDbDimension
  2
*D17
 10
715.714457901925
 20
-303.7079397241791
 30
0.0
 11
603.214457901925
 21
-297.7079397241791
 31
0.0
 70
    32
 71
     5
 42
-1.0
  3
STANDARD
100
AcDbAlignedDimension
 13
490.714457901925
 23
-193.0
 33
0.0
 14
715.714457901925
 24
-99.0
 34
0.0
100
AcDbRotatedDimension
1001
ACAD
1000
DSTYLE
1002
{
1070
   287
1070
     4
1070
   287
1070
     4
1070
   287
1070
     4
1070
   279
1070
     1
1002
}
  0
DIMENSION
  5
7CD5
330
1E
100
AcDbEntity
  8
30
  6
Continuous
100
AcDbDimension
  2
*D18
 10
715.714457901925
 20
-333.1096069579111
 30
0.0
 11
525.7144502725253
 21
-327.1096069579111
 31
0.0
 70
    32
 71
     5
 42
-1.0
  3
STANDARD
100
AcDbAlignedDimension
 13
335.7144426431259
 23
2.000000000000031
 33
0.0
 14
715.714457901925
 24
-100.0
 34
0.0
100
AcDbRotatedDimension
  0
DIMENSION
  5
7CFC
330
1E
100
AcDbEntity
  8
30
  6
Continuous
100
AcDbDimension
  2
*D19
 10
490.714457901925
 20
-289.9480352378613
 30
0.0
 11
499.3811245685916
 21
-283.9480352378613
 31
0.0
 70
    32
 71
     5
 42
-1.0
  3
STANDARD
100
AcDbAlignedDimension
 13
480.7625392333249
 23
-0.0000019486919927
 33
0.0
 14
490.714457901925
 24
-194.0
 34
0.0
100
AcDbRotatedDimension
  0
DIMENSION
  5
7D09
330
1E
100
AcDbEntity
  8
30
  6
Continuous
100
AcDbDimension
  2
*D20
 10
697.714457901925
 20
-283.9748305253069
 30
0.0
 11
687.714457901925
 21
-277.9748305253069
 31
0.0
 70
    32
 71
     5
 42
-1.0
  3
STANDARD
100
AcDbAlignedDimension
 13
677.714457901925
 23
-283.0
 33
0.0
 14
697.714457901925
 24
-283.0
 34
0.0
100
AcDbRotatedDimension
  0
DIMENSION
  5
7D16
330
1E
100
AcDbEntity
  8
30
  6
Continuous
100
AcDbDimension
  2
*D21
 10
715.714457901925
 20
-283.9748305253069
 30
0.0
 11
706.714457901925
 21
-277.9748305253069
 31
0.0
 70
    32
 71
     5
 42
-1.0
  3
STANDARD
100
AcDbAlignedDimension
 13
697.714457901925
 23
-283.0
 33
0.0
 14
715.714457901925
 24
-101.0
 34
0.0
100
AcDbRotatedDimension
1001
ACAD
1000
DSTYLE
1002
{
1070
   287
1070
     4
1070
   287
1070
     4
1070
   287
1070
     4
1070
   279
1070
     1
1002
}
  0
LINE
  5
7D23
330
1E
100
AcDbEntity
  8
17
  6
CONTINOUS
100
AcDbLine
 10
675.714457901925
 20
257.0
 30
0.0
 11
677.714457901925
 21
257.0
 31
0.0
  0
DIMENSION
  5
7D24
330
1E
100
AcDbEntity
  8
30
  6
Continuous
100
AcDbDimension
  2
*D22
 10
715.714457901925
 20
362.9396081480698
 30
0.0
 11
650.714457901925
 21
368.9396081480698
 31
0.0
 70
    32
 71
     5
 42
-1.0
  3
STANDARD
100
AcDbAlignedDimension
 13
585.714457901925
 23
240.0
 33
0.0
 14
715.714457901925
 24
277.0
 34
0.0
100
AcDbRotatedDimension
  0
DIMENSION
  5
7D31
330
1E
100
AcDbEntity
  8
30
  6
Continuous
100
AcDbDimension
  2
*D23
 10
744.5145067300249
 20
362.9396081480698
 30
0.0
 11
730.1144823159749
 21
362.9396081480698
 31
0.0
 70
   160
 71
     5
 42
-1.0
  3
STANDARD
100
AcDbAlignedDimension
 13
715.714457901925
 23
277.0
 33
0.0
 14
744.5145067300249
 24
236.0
 34
0.0
100
AcDbRotatedDimension
1001
ACAD
1000
DSTYLE
1002
{
1070
   287
1070
     4
1070
   287
1070
     4
1070
   287
1070
     4
1070
   279
1070
     1
1002
}
  0
LEADER
  5
7D3E
330
1E
100
AcDbEntity
  8
30
  6
Continuous
100
AcDbLeader
  3
STANDARD
 76
     3
 10
744.5145067300249
 20
-79.0
 30
0.0
 10
792.5405971458839
 20
-58.03292143387489
 30
0.0
 10
806.0593972082212
 20
-58.02235251277193
 30
0.0
211
-1.0
221
0.0
231
0.0
1001
ACAD
1000
DSTYLE
1002
{
1070
     5
1000
OPEN
1070
   342
1005
3B2
1002
}
  0
TEXT
  5
7D3F
330
1E
100
AcDbEntity
  8
30
  6
Continuous
100
AcDbText
 10
795.1012677624301
 20
-56.32800723671244
 30
0.0
 40
8.0
  1
M10
100
AcDbText
  0
DIMENSION
  5
7D40
330
1E
100
AcDbEntity
  8
30
  6
Continuous
100
AcDbDimension
  2
*D24
 10
52.5
 20
-496.4905511136339
 30
0.0
 11
-0.0000000000000067
 21
-490.4905511136337
 31
0.0
 70
    32
 71
     5
 42
-1.0
  3
STANDARD
100
AcDbAlignedDimension
 13
-52.5
 23
-437.8425854357206
 33
0.0
 14
52.5
 24
-437.8425854357206
 34
0.0
100
AcDbRotatedDimension
  0
DIMENSION
  5
7D4D
330
1E
100
AcDbEntity
  8
30
  6
Continuous
100
AcDbDimension
  2
*D25
 10
151.0
 20
-785.9304743781599
 30
0.0
 11
0.0000000000000004
 21
-779.9304743781599
 31
0.0
 70
    32
 71
     5
 42
-1.0
  3
STANDARD
100
AcDbAlignedDimension
 13
-151.0
 23
-748.8425854357203
 33
0.0
 14
151.0
 24
-748.8425854357203
 34
0.0
100
AcDbRotatedDimension
  0
TEXT
  5
7D5A
330
1E
100
AcDbEntity
  8
30
  6
Continuous
100
AcDbText
 10
201.0915596357603
 20
-666.5285456872546
 30
0.0
 40
8.0
  1
%%C12
100
AcDbText
  0
LEADER
  5
7D5B
330
1E
100
AcDbEntity
  8
30
  6
Continuous
100
AcDbLeader
  3
STANDARD
 76
     3
 10
153.9976892556788
 20
-723.9419380557055
 30
0.0
 10
189.1060660123457
 20
-671.5125236015301
 30
0.0
 10
219.8787691488916
 20
-671.5688774134697
 30
0.0
1001
ACAD
1000
DSTYLE
1002
{
1070
     5
1000
OPEN
1070
   288
1070
     1
1070
   342
1005
3B2
1002
}
  0
LWPOLYLINE
  5
7D9C
330
1E
100
AcDbEntity
  8
18
100
AcDbPolyline
 90
        6
 70
     1
 43
0.0
 10
710.0
 20
-843.0
 10
390.0
 20
-843.0
 10
390.0
 20
-392.9995117186998
 10
710.0
 20
-392.9995117186998
 10
710.0
 20
-392.9995117186998
 10
710.0
 20
-843.0
  0
LWPOLYLINE
  5
7D9D
330
1E
100
AcDbEntity
  8
11
  6
Continuous
100
AcDbPolyline
 90
        8
 70
     1
 43
0.0
 10
490.5
 20
-712.0
 42
0.4142135623730951
 10
500.4999999999998
 20
-722.0
 10
599.5
 20
-722.0
 42
0.4142135623730951
 10
609.4999999999997
 20
-712.0
 10
609.4999999999997
 20
-588.0
 42
0.4142135623730951
 10
599.5
 20
-578.0
 10
500.4999999999998
 20
-578.0
 42
0.4142135623730951
 10
490.5
 20
-588.0
  0
DIMENSION
  5
7DA6
330
1E
100
AcDbEntity
  8
30
  6
Continuous
100
AcDbDimension
  2
*D26
 10
609.4999999999997
 20
-750.1030481124437
 30
0.0
 11
550.0
 21
-744.1030481124437
 31
0.0
 70
    32
 71
     5
 42
-1.0
  3
STANDARD
100
AcDbAlignedDimension
 13
490.4999999999998
 23
-712.0
 33
0.0
 14
609.4999999999997
 24
-712.0
 34
0.0
100
AcDbRotatedDimension
  0
DIMENSION
  5
7DB3
330
1E
100
AcDbEntity
  8
30
  6
Continuous
100
AcDbDimension
  2
*D27
 10
438.188797131058
 20
-722.0
 30
0.0
 11
432.1887971310578
 21
-649.9999999999999
 31
0.0
 70
    32
 71
     5
 42
-1.0
  3
STANDARD
100
AcDbAlignedDimension
 13
500.4999999999998
 23
-578.0
 33
0.0
 14
500.4999999999998
 24
-722.0
 34
0.0
 50
90.0
100
AcDbRotatedDimension
  0
DIMENSION
  5
7DF8
330
1E
100
AcDbEntity
  8
30
  6
Continuous
100
AcDbDimension
  2
*D28
 10
181.0598773619803
 20
257.0
 30
0.0
 11
175.0598773619803
 21
267.0
 31
0.0
 70
    32
 71
     5
 42
-1.0
  3
STANDARD
100
AcDbAlignedDimension
 13
160.0
 23
277.0
 33
0.0
 14
160.0
 24
257.0
 34
0.0
 50
90.0
100
AcDbRotatedDimension
  0
DIMENSION
  5
7E05
330
1E
100
AcDbEntity
  8
30
  6
Continuous
100
AcDbDimension
  2
*D29
 10
181.05987736198
 20
-193.0
 30
0.0
 11
175.0598773619801
 21
-96.49999999999998
 31
0.0
 70
    32
 71
     5
 42
-1.0
  3
STANDARD
100
AcDbAlignedDimension
 13
160.0
 23
0.0
 33
0.0
 14
160.0
 24
-193.0
 34
0.0
 50
90.0
100
AcDbRotatedDimension
1001
ACAD
1000
DSTYLE
1002
{
1070
   287
1070
     4
1070
   287
1070
     4
1070
   287
1070
     4
1070
   279
1070
     1
1002
}
  0
DIMENSION
  5
7E12
330
1E
100
AcDbEntity
  8
30
  6
Continuous
100
AcDbDimension
  2
*D30
 10
181.05987736198
 20
-218.0
 30
0.0
 11
175.0598773619801
 21
-205.4999999999999
 31
0.0
 70
    32
 71
     5
 42
-1.0
  3
STANDARD
100
AcDbAlignedDimension
 13
160.0
 23
-193.0
 33
0.0
 14
137.5
 24
-218.0
 34
0.0
 50
90.0
100
AcDbRotatedDimension
1001
ACAD
1000
DSTYLE
1002
{
1070
   287
1070
     4
1070
   287
1070
     4
1070
   287
1070
     4
1070
   279
1070
     1
1002
}
  0
DIMENSION
  5
7E1F
330
1E
100
AcDbEntity
  8
30
  6
Continuous
100
AcDbDimension
  2
*D31
 10
181.05987736198
 20
-238.0
 30
0.0
 11
175.0598773619801
 21
-227.9999999999999
 31
0.0
 70
    32
 71
     5
 42
-1.0
  3
STANDARD
100
AcDbAlignedDimension
 13
137.5
 23
-218.0
 33
0.0
 14
130.9614257811999
 24
-238.0
 34
0.0
 50
90.0
100
AcDbRotatedDimension
1001
ACAD
1000
DSTYLE
1002
{
1070
   287
1070
     4
1070
   287
1070
     4
1070
   287
1070
     4
1070
   279
1070
     1
1002
}
  0
DIMENSION
  5
7E2C
330
1E
100
AcDbEntity
  8
30
  6
Continuous
100
AcDbDimension
  2
*D32
 10
181.05987736198
 20
-268.0
 30
0.0
 11
175.0598773619801
 21
-252.9999999999999
 31
0.0
 70
    32
 71
     5
 42
-1.0
  3
STANDARD
100
AcDbAlignedDimension
 13
130.9614257811999
 23
-238.0
 33
0.0
 14
131.0668945311999
 24
-268.0
 34
0.0
 50
90.0
100
AcDbRotatedDimension
1001
ACAD
1000
DSTYLE
1002
{
1070
   287
1070
     4
1070
   287
1070
     4
1070
   287
1070
     4
1070
   279
1070
     1
1002
}
  0
DIMENSION
  5
7E39
330
1E
100
AcDbEntity
  8
30
  6
Continuous
100
AcDbDimension
  2
*D33
 10
181.05987736198
 20
-283.0
 30
0.0
 11
175.0598773619801
 21
-275.4999999999999
 31
0.0
 70
    32
 71
     5
 42
-1.0
  3
STANDARD
100
AcDbAlignedDimension
 13
131.0668945311999
 23
-268.0
 33
0.0
 14
137.5
 24
-283.0
 34
0.0
 50
90.0
100
AcDbRotatedDimension
1001
ACAD
1000
DSTYLE
1002
{
1070
   287
1070
     4
1070
   287
1070
     4
1070
   287
1070
     4
1070
   279
1070
     1
1002
}
  0
DIMENSION
  5
7E55
330
1E
100
AcDbEntity
  8
30
  6
Continuous
100
AcDbDimension
  2
*D34
 10
205.9035214744524
 20
257.0
 30
0.0
 11
199.9035214744525
 21
301.9998779296498
 31
0.0
 70
    32
 71
     5
 42
-1.0
  3
STANDARD
100
AcDbAlignedDimension
 13
137.5
 23
346.9997558592998
 33
0.0
 14
160.0
 24
257.0
 34
0.0
 50
90.0
100
AcDbRotatedDimension
  0
DIMENSION
  5
7E62
330
1E
100
AcDbEntity
  8
30
  6
Continuous
100
AcDbDimension
  2
*D35
 10
205.9035214744524
 20
-193.0
 30
0.0
 11
199.9035214744525
 21
32.00000000000002
 31
0.0
 70
    32
 71
     5
 42
-1.0
  3
STANDARD
100
AcDbAlignedDimension
 13
160.0
 23
257.0
 33
0.0
 14
160.0
 24
-193.0
 34
0.0
 50
90.0
100
AcDbRotatedDimension
1001
ACAD
1000
DSTYLE
1002
{
1070
   287
1070
     4
1070
   287
1070
     4
1070
   287
1070
     4
1070
   279
1070
     1
1002
}
  0
DIMENSION
  5
7E6F
330
1E
100
AcDbEntity
  8
30
  6
Continuous
100
AcDbDimension
  2
*D36
 10
205.9035214744524
 20
-283.0
 30
0.0
 11
199.9035214744525
 21
-237.9999999999999
 31
0.0
 70
    32
 71
     5
 42
-1.0
  3
STANDARD
100
AcDbAlignedDimension
 13
160.0
 23
-193.0
 33
0.0
 14
139.5
 24
-283.0
 34
0.0
 50
90.0
100
AcDbRotatedDimension
1001
ACAD
1000
DSTYLE
1002
{
1070
   287
1070
     4
1070
   287
1070
     4
1070
   287
1070
     4
1070
   279
1070
     1
1002
}
  0
LWPOLYLINE
  5
7EC6
330
1E
100
AcDbEntity
  8
17
  6
CONTINOUS
100
AcDbPolyline
 90
        4
 70
     1
 43
0.0
 10
72.5
 20
687.6507035126527
 10
137.5
 20
687.6507035126527
 10
137.5
 20
667.650703512653
 10
72.5
 20
667.650703512653
  0
LWPOLYLINE
  5
7EC7
330
1E
100
AcDbEntity
  8
17
  6
CONTINOUS
100
AcDbPolyline
 90
        2
 70
     0
 43
0.0
 10
84.50000000000001
 20
687.6507035126527
 10
84.50000000000001
 20
667.650703512653
  0
LWPOLYLINE
  5
7EC8
330
1E
100
AcDbEntity
  8
17
  6
CONTINOUS
100
AcDbPolyline
 90
        2
 70
     0
 43
0.0
 10
95.5
 20
687.6507035126527
 10
95.5
 20
667.650703512653
  0
LWPOLYLINE
  5
7EC9
330
1E
100
AcDbEntity
  8
17
  6
CONTINOUS
100
AcDbPolyline
 90
        2
 70
     0
 43
0.0
 10
125.5
 20
687.6507035126527
 10
125.5
 20
667.650703512653
  0
LWPOLYLINE
  5
7ECA
330
1E
100
AcDbEntity
  8
17
  6
CONTINOUS
100
AcDbPolyline
 90
        2
 70
     0
 43
0.0
 10
114.5
 20
687.6507035126527
 10
114.5
 20
667.650703512653
  0
LWPOLYLINE
  5
7ECB
330
1E
100
AcDbEntity
  8
17
  6
CONTINOUS
100
AcDbPolyline
 90
        4
 70
     1
 43
0.0
 10
-32.5
 20
687.6507035126527
 10
32.5
 20
687.6507035126527
 10
32.5
 20
667.650703512653
 10
-32.5
 20
667.650703512653
  0
LWPOLYLINE
  5
7ECC
330
1E
100
AcDbEntity
  8
17
  6
CONTINOUS
100
AcDbPolyline
 90
        2
 70
     0
 43
0.0
 10
-20.5
 20
687.6507035126527
 10
-20.5
 20
667.650703512653
  0
LWPOLYLINE
  5
7ECD
330
1E
100
AcDbEntity
  8
17
  6
CONTINOUS
100
AcDbPolyline
 90
        2
 70
     0
 43
0.0
 10
-9.5
 20
687.6507035126527
 10
-9.5
 20
667.650703512653
  0
LWPOLYLINE
  5
7ECE
330
1E
100
AcDbEntity
  8
17
  6
CONTINOUS
100
AcDbPolyline
 90
        2
 70
     0
 43
0.0
 10
20.5
 20
687.6507035126527
 10
20.5
 20
667.650703512653
  0
LWPOLYLINE
  5
7ECF
330
1E
100
AcDbEntity
  8
17
  6
CONTINOUS
100
AcDbPolyline
 90
        2
 70
     0
 43
0.0
 10
9.5
 20
687.6507035126527
 10
9.5
 20
667.650703512653
  0
LWPOLYLINE
  5
7ED0
330
1E
100
AcDbEntity
  8
17
  6
CONTINOUS
100
AcDbPolyline
 90
        4
 70
     1
 43
0.0
 10
-137.5
 20
687.6507035126527
 10
-72.5
 20
687.6507035126527
 10
-72.5
 20
667.650703512653
 10
-137.5
 20
667.650703512653
  0
LWPOLYLINE
  5
7ED1
330
1E
100
AcDbEntity
  8
17
  6
CONTINOUS
100
AcDbPolyline
 90
        2
 70
     0
 43
0.0
 10
-125.5
 20
687.6507035126527
 10
-125.5
 20
667.650703512653
  0
LWPOLYLINE
  5
7ED2
330
1E
100
AcDbEntity
  8
17
  6
CONTINOUS
100
AcDbPolyline
 90
        2
 70
     0
 43
0.0
 10
-114.5
 20
687.6507035126527
 10
-114.5
 20
667.650703512653
  0
LWPOLYLINE
  5
7ED3
330
1E
100
AcDbEntity
  8
17
  6
CONTINOUS
100
AcDbPolyline
 90
        2
 70
     0
 43
0.0
 10
-84.50000000000001
 20
687.6507035126527
 10
-84.50000000000001
 20
667.650703512653
  0
LWPOLYLINE
  5
7ED4
330
1E
100
AcDbEntity
  8
17
  6
CONTINOUS
100
AcDbPolyline
 90
        2
 70
     0
 43
0.0
 10
-95.5
 20
687.6507035126527
 10
-95.5
 20
667.650703512653
  0
DIMENSION
  5
7F06
330
1E
100
AcDbEntity
  8
30
  6
Continuous
100
AcDbDimension
  2
*D37
 10
-218.4122509914887
 20
-650.0
 30
0.0
 11
-224.4122509914886
 21
-534.0
 31
0.0
 70
    32
 71
     5
 42
-1.0
  3
STANDARD
100
AcDbAlignedDimension
 13
-76.6962890625
 23
-418.0
 33
0.0
 14
-166.0
 24
-650.0
 34
0.0
 50
90.0
100
AcDbRotatedDimension
  0
DIMENSION
  5
7F13
330
1E
100
AcDbEntity
  8
30
  6
Continuous
100
AcDbDimension
  2
*D38
 10
-218.4122509914887
 20
-729.0
 30
0.0
 11
-224.4122509914884
 21
-689.5
 31
0.0
 70
    32
 71
     5
 42
-1.0
  3
STANDARD
100
AcDbAlignedDimension
 13
-166.0
 23
-650.0
 33
0.0
 14
-165.3988960500464
 24
-729.0
 34
0.0
 50
90.0
100
AcDbRotatedDimension
1001
ACAD
1000
DSTYLE
1002
{
1070
   287
1070
     4
1070
   287
1070
     4
1070
   287
1070
     4
1070
   279
1070
     1
1002
}
  0
LINE
  5
7F48
330
1E
100
AcDbEntity
  8
18
100
AcDbLine
 10
160.0
 20
-393.0
 30
0.0
 11
-160.0
 21
-393.0
 31
0.0
  0
LINE
  5
7F49
330
1E
100
AcDbEntity
  8
18
100
AcDbLine
 10
-160.0
 20
-393.0
 30
0.0
 11
-160.0
 21
-843.0
 31
0.0
  0
LINE
  5
7F4A
330
1E
100
AcDbEntity
  8
18
100
AcDbLine
 10
-160.0
 20
-843.0
 30
0.0
 11
160.0
 21
-843.0
 31
0.0
  0
DIMENSION
  5
8196
330
1E
100
AcDbEntity
  8
30
  6
Continuous
100
AcDbDimension
  2
*D39
 10
180.7265440286468
 20
257.0
 30
0.0
 11
174.7265440286468
 21
128.4999999999999
 31
0.0
 70
    32
 71
     5
 42
-1.0
  3
STANDARD
100
AcDbAlignedDimension
 13
160.0
 23
0.0
 33
0.0
 14
160.0
 24
257.0
 34
0.0
 50
90.0
100
AcDbRotatedDimension
  0
DIMENSION
  5
81A3
330
1E
100
AcDbEntity
  8
30
  6
Continuous
100
AcDbDimension
  2
*D40
 10
118.2323276696966
 20
326.7915570792341
 30
0.0
 11
155.382991922026
 21
359.4436719324816
 31
0.0
 70
   163
 71
     5
 42
-1.0
  3
STANDARD
100
AcDbDiametricDimension
 15
121.7676723303032
 25
337.2079546393659
 35
0.0
 40
0.0
1001
ACAD
1000
DSTYLE
1002
{
1070
   288
1070
     1
1002
}
  0
DIMENSION
  5
8419
330
1E
100
AcDbEntity
  8
30
  6
Continuous
100
AcDbDimension
  2
*D41
 10
137.5
 20
382.9179011470964
 30
0.0
 11
105.0
 21
388.9179011470965
 31
0.0
 70
    32
 71
     5
 42
-1.0
  3
STANDARD
100
AcDbAlignedDimension
 13
72.5
 23
346.9997558592998
 33
0.0
 14
137.5
 24
346.9997558592998
 34
0.0
100
AcDbRotatedDimension
  0
DIMENSION
  5
8426
330
1E
100
AcDbEntity
  8
30
  6
Continuous
100
AcDbDimension
  2
*D42
 10
120.0
 20
371.1871406184777
 30
0.0
 11
105.0
 21
377.1871406184777
 31
0.0
 70
    32
 71
     5
 42
-1.0
  3
STANDARD
100
AcDbAlignedDimension
 13
90.0
 23
346.5993652342998
 33
0.0
 14
120.0
 24
346.4938964842998
 34
0.0
100
AcDbRotatedDimension
  0
LINE
  5
85D1
330
1E
100
AcDbEntity
  8
10
  6
Continuous
100
AcDbLine
 10
-160.0
 20
665.6507035126527
 30
0.0
 11
-160.0
 21
703.6507035126527
 31
0.0
  0
LINE
  5
85D2
330
1E
100
AcDbEntity
  8
10
  6
Continuous
100
AcDbLine
 10
-160.0
 20
703.6507035126527
 30
0.0
 11
159.0
 21
703.6507035126527
 31
0.0
  0
LINE
  5
85D3
330
1E
100
AcDbEntity
  8
10
  6
Continuous
100
AcDbLine
 10
159.0
 20
665.6507035126527
 30
0.0
 11
159.0
 21
703.6507035126527
 31
0.0
  0
LINE
  5
89FD
330
1E
100
AcDbEntity
  8
L150_
  6
D533
 62
     7
100
AcDbLine
 10
-254.4172363281
 20
-705.0
 30
0.0
 11
306.3344726563
 21
-705.0
 31
0.0
  0
LINE
  5
89FE
330
1E
100
AcDbEntity
  8
L0_
  6
Continuous
 62
     2
100
AcDbLine
 10
-252.2651367186999
 20
-749.0
 30
0.0
 11
306.4819335938
 21
-749.0
 31
0.0
  0
LINE
  5
89FF
330
1E
100
AcDbEntity
  8
L0_
  6
Continuous
 62
     2
100
AcDbLine
 10
302.4724121094
 20
-699.0
 30
0.0
 11
312.5739746094
 21
-721.3991699219
 31
0.0
  0
LINE
  5
8A00
330
1E
100
AcDbEntity
  8
L0_
  6
Continuous
 62
     2
100
AcDbLine
 10
299.2749023438
 20
-728.0485839844
 30
0.0
 11
306.4819335938
 21
-749.0
 31
0.0
  0
LINE
  5
8A01
330
1E
100
AcDbEntity
  8
L0_
  6
Continuous
 62
     2
100
AcDbLine
 10
312.5739746094
 20
-721.3991699219
 30
0.0
 11
299.2749023438
 21
-728.0485839844
 31
0.0
  0
LINE
  5
8A02
330
1E
100
AcDbEntity
  8
L0_
  6
Continuous
 62
     2
100
AcDbLine
 10
-258.279296875
 20
-699.0
 30
0.0
 11
302.4724121094
 21
-699.0
 31
0.0
  0
LINE
  5
8A03
330
1E
100
AcDbEntity
  8
L0_
  6
Continuous
 62
     2
100
AcDbLine
 10
-258.279296875
 20
-699.0
 30
0.0
 11
-251.1611328124998
 21
-717.7048339844
 31
0.0
  0
LINE
  5
8A04
330
1E
100
AcDbEntity
  8
L0_
  6
Continuous
 62
     2
100
AcDbLine
 10
-251.1611328124998
 20
-717.7048339844
 30
0.0
 11
-261.5048828124999
 21
-736.17578125
 31
0.0
  0
LINE
  5
8A05
330
1E
100
AcDbEntity
  8
L0_
  6
Continuous
 62
     2
100
AcDbLine
 10
-261.5048828124999
 20
-736.17578125
 30
0.0
 11
-252.2651367186999
 21
-749.0
 31
0.0
  0
LINE
  5
8A06
330
1E
100
AcDbEntity
  8
L0_
  6
Continuous
 62
     2
100
AcDbLine
 10
-268.8933105467999
 20
-430.2958984375
 30
0.0
 11
-258.5495605467999
 21
-415.5192871094
 31
0.0
  0
LINE
  5
8A07
330
1E
100
AcDbEntity
  8
L0_
  6
Continuous
 62
     2
100
AcDbLine
 10
-258.6958007812
 20
-448.0
 30
0.0
 11
-268.8933105467999
 21
-430.2958984375
 31
0.0
  0
LINE
  5
8A08
330
1E
100
AcDbEntity
  8
L0_
  6
Continuous
 62
     2
100
AcDbLine
 10
-258.5495605467999
 20
-415.5192871094
 30
0.0
 11
-263.2861328125
 21
-398.0
 31
0.0
  0
LINE
  5
8A09
330
1E
100
AcDbEntity
  8
L0_
  6
Continuous
 62
     2
100
AcDbLine
 10
-258.6958007812
 20
-448.0
 30
0.0
 11
302.1948242188
 21
-448.0
 31
0.0
  0
LINE
  5
8A0A
330
1E
100
AcDbEntity
  8
L150_
  6
D533
 62
     7
100
AcDbLine
 10
-260.4106445311999
 20
-442.0
 30
0.0
 11
300.3413085938
 21
-442.0
 31
0.0
  0
LINE
  5
8A0B
330
1E
100
AcDbEntity
  8
L0_
  6
Continuous
 62
     2
100
AcDbLine
 10
-263.2861328125
 20
-398.0
 30
0.0
 11
297.4658203125
 21
-398.0
 31
0.0
  0
LINE
  5
8A0C
330
1E
100
AcDbEntity
  8
L0_
  6
Continuous
 62
     2
100
AcDbLine
 10
302.1948242188
 20
-448.0
 30
0.0
 11
293.3642578125
 21
-428.0795898437999
 31
0.0
  0
LINE
  5
8A0D
330
1E
100
AcDbEntity
  8
L0_
  6
Continuous
 62
     2
100
AcDbLine
 10
293.3642578125
 20
-428.0795898437999
 30
0.0
 11
302.9692382813
 21
-413.302734375
 31
0.0
  0
LINE
  5
8A0E
330
1E
100
AcDbEntity
  8
L0_
  6
Continuous
 62
     2
100
AcDbLine
 10
302.9692382813
 20
-413.302734375
 30
0.0
 11
297.4658203125
 21
-398.0
 31
0.0
  0
VIEWPORT
  5
9AC
330
1A
100
AcDbEntity
 67
     1
  8
0
  6
Continuous
100
AcDbViewport
 10
171.9995348790992
 20
144.1384735538403
 30
0.0
 40
488.8676857773512
 41
292.3514905034161
 68
     1
 69
     1
 12
171.9995348790992
 22
144.1384735538403
 13
0.0
 23
0.0
 14
10.0
 24
10.0
 15
10.0
 25
10.0
 16
0.0
 26
0.0
 36
1.0
 17
0.0
 27
0.0
 37
0.0
 42
50.0
 43
0.0
 44
0.0
 45
292.3514905034161
 50
0.0
 51
0.0
 72
   100
 90
    32800
  1

281
     0
 71
     1
 74
     0
110
0.0
120
0.0
130
0.0
111
1.0
121
0.0
131
0.0
112
0.0
122
1.0
132
0.0
 79
     0
146
0.0
  0
ENDSEC
  0
SECTION
  2
OBJECTS
  0
DICTIONARY
  5
C
330
0
100
AcDbDictionary
281
     1
  3
ACAD_GROUP
350
D
  3
ACAD_LAYOUT
350
19
  3
ACAD_MLINESTYLE
350
16
  3
ACAD_PLOTSETTINGS
350
18
  3
ACAD_PLOTSTYLENAME
350
E
  3
ACDBVARIABLEDICTIONARY
350
6C1E
  0
DICTIONARY
  5
178
330
1E
100
AcDbDictionary
280
     1
281
     1
  3
ACAD_LAYOUTSELFREF
360
8ACE
  0
DICTIONARY
  5
17A
330
1A
100
AcDbDictionary
280
     1
281
     1
  3
ACAD_LAYOUTSELFREF
360
8ACD
  0
DICTIONARY
  5
D
102
{ACAD_REACTORS
330
C
102
}
330
C
100
AcDbDictionary
281
     1
  0
DICTIONARY
  5
19
102
{ACAD_REACTORS
330
C
102
}
330
C
100
AcDbDictionary
281
     1
  3
Model
350
8B42
  3
ﾚｲｱｳﾄ1
350
8B43
  0
DICTIONARY
  5
16
102
{ACAD_REACTORS
330
C
102
}
330
C
100
AcDbDictionary
281
     1
  3
STANDARD
350
17
  0
DICTIONARY
  5
18
102
{ACAD_REACTORS
330
C
102
}
330
C
100
AcDbDictionary
281
     1
  0
ACDBDICTIONARYWDFLT
  5
E
102
{ACAD_REACTORS
330
C
102
}
330
C
100
AcDbDictionary
281
     1
  3
Normal
350
F
100
AcDbDictionaryWithDefault
340
F
  0
DICTIONARY
  5
6C1E
102
{ACAD_REACTORS
330
C
102
}
330
C
100
AcDbDictionary
281
     1
  3
DIMASSOC
350
878E
  3
SORTENTS
350
6C1F
  0
XRECORD
  5
8ACE
102
{ACAD_REACTORS
330
178
102
}
330
178
100
AcDbXrecord
280
     1
340
1E
  0
XRECORD
  5
8ACD
102
{ACAD_REACTORS
330
17A
102
}
330
17A
100
AcDbXrecord
280
     1
340
1A
  0
LAYOUT
  5
8B42
102
{ACAD_REACTORS
330
19
102
}
330
19
100
AcDbPlotSettings
  1

  2
LBP5400
  4

  6

 40
0.0
 41
0.0
 42
0.0
 43
0.0
 44
0.0
 45
0.0
 46
0.0
 47
0.0
 48
0.0
 49
0.0
140
0.0
141
0.0
142
1.0
143
1.0
 70
  1712
 72
     0
 73
     0
 74
     0
  7
monochrome.stb
 75
     0
147
1.0
148
0.0
149
0.0
100
AcDbLayout
  1
Model
 70
     1
 71
     0
 10
0.0
 20
0.0
 11
12.0
 21
9.0
 12
0.0
 22
0.0
 32
0.0
 14
0.0
 24
0.0
 34
0.0
 15
0.0
 25
0.0
 35
0.0
146
0.0
 13
0.0
 23
0.0
 33
0.0
 16
1.0
 26
0.0
 36
0.0
 17
0.0
 27
1.0
 37
0.0
 76
     0
330
1E
  0
LAYOUT
  5
8B43
102
{ACAD_REACTORS
330
19
102
}
330
19
100
AcDbPlotSettings
  1

  2
LBP5400
  4

  6

 40
0.0
 41
0.0
 42
0.0
 43
0.0
 44
0.0
 45
0.0
 46
0.0
 47
0.0
 48
0.0
 49
0.0
140
0.0
141
0.0
142
1.0
143
1.0
 70
   688
 72
     0
 73
     0
 74
     5
  7
monochrome.stb
 75
    16
147
1.0
148
0.0
149
0.0
100
AcDbLayout
  1
ﾚｲｱｳﾄ1
 70
     1
 71
     1
 10
-5.873748779296875
 20
-5.873749732971191
 11
204.0995788574218
 21
291.1369009017943
 12
0.0
 22
0.0
 32
0.0
 14
4.273573370203961
 24
5.205246163471485
 34
0.0
 15
194.6100952986349
 25
283.0697008572913
 35
0.0
146
0.0
 13
0.0
 23
0.0
 33
0.0
 16
1.0
 26
0.0
 36
0.0
 17
0.0
 27
1.0
 37
0.0
 76
     0
330
1A
331
9AC
  0
MLINESTYLE
  5
17
102
{ACAD_REACTORS
330
16
102
}
330
16
100
AcDbMlineStyle
  2
STANDARD
 70
     0
  3

 62
   256
 51
90.0
 52
90.0
 71
     2
 49
0.5
 62
   256
  6
BYLAYER
 49
-0.5
 62
   256
  6
BYLAYER
  0
ACDBPLACEHOLDER
  5
F
102
{ACAD_REACTORS
330
E
102
}
330
E
  0
DICTIONARYVAR
  5
878E
102
{ACAD_REACTORS
330
6C1E
102
}
330
6C1E
100
DictionaryVariables
280
     0
  1
1
  0
DICTIONARYVAR
  5
6C1F
102
{ACAD_REACTORS
330
6C1E
102
}
330
6C1E
100
DictionaryVariables
280
     0
  1
96
  0
ENDSEC
  0
EOF
