  0
SECTION
  2
HEADER
  9
$ACADVER
  1
AC1015
  9
$ACADMAINTVER
 70
    10
  9
$DWGCODEPAGE
  3
ANSI_932
  9
$INSBASE
 10
0.0
 20
0.0
 30
0.0
  9
$EXTMIN
 10
-209.1372720084746
 20
-811.0224450481478
 30
-0.0000000349181948
  9
$EXTMAX
 10
502.7213136086102
 20
501.2310400278538
 30
0.0000000814935747
  9
$LIMMIN
 10
-184.0
 20
-675.0
  9
$LIMMAX
 10
509.0
 20
453.0
  9
$ORTHOMODE
 70
     0
  9
$REGENMODE
 70
     1
  9
$FILLMODE
 70
     1
  9
$QTEXTMODE
 70
     0
  9
$MIRRTEXT
 70
     1
  9
$LTSCALE
 40
20.0
  9
$ATTMODE
 70
     1
  9
$TEXTSIZE
 40
5.0
  9
$TRACEWID
 40
0.05
  9
$TEXTSTYLE
  7
STANDARD1
  9
$CLAYER
  8
30
  9
$CELTYPE
  6
CONTINUOUS
  9
$CECOLOR
 62
   256
  9
$CELTSCALE
 40
1.0
  9
$DISPSILH
 70
     0
  9
$DIMSCALE
 40
1.0
  9
$DIMASZ
 40
2.0
  9
$DIMEXO
 40
1.0
  9
$DIMDLI
 40
0.5
  9
$DIMRND
 40
0.0
  9
$DIMDLE
 40
0.0
  9
$DIMEXE
 40
0.5
  9
$DIMTP
 40
0.0
  9
$DIMTM
 40
0.0
  9
$DIMTXT
 40
7.0
  9
$DIMCEN
 40
0.09
  9
$DIMTSZ
 40
0.0
  9
$DIMTOL
 70
     0
  9
$DIMLIM
 70
     0
  9
$DIMTIH
 70
     0
  9
$DIMTOH
 70
     1
  9
$DIMSE1
 70
     0
  9
$DIMSE2
 70
     0
  9
$DIMTAD
 70
     3
  9
$DIMZIN
 70
    12
  9
$DIMBLK
  1
OPEN
  9
$DIMASO
 70
     1
  9
$DIMSHO
 70
     1
  9
$DIMPOST
  1

  9
$DIMAPOST
  1

  9
$DIMALT
 70
     0
  9
$DIMALTD
 70
     2
  9
$DIMALTF
 40
25.4
  9
$DIMLFAC
 40
1.0
  9
$DIMTOFL
 70
     0
  9
$DIMTVP
 40
0.0
  9
$DIMTIX
 70
     0
  9
$DIMSOXD
 70
     0
  9
$DIMSAH
 70
     0
  9
$DIMBLK1
  1

  9
$DIMBLK2
  1

  9
$DIMSTYLE
  2
STANDARD
  9
$DIMCLRD
 70
     0
  9
$DIMCLRE
 70
     0
  9
$DIMCLRT
 70
     0
  9
$DIMTFAC
 40
1.0
  9
$DIMGAP
 40
1.0
  9
$DIMJUST
 70
     0
  9
$DIMSD1
 70
     0
  9
$DIMSD2
 70
     0
  9
$DIMTOLJ
 70
     1
  9
$DIMTZIN
 70
     0
  9
$DIMALTZ
 70
     0
  9
$DIMALTTZ
 70
     0
  9
$DIMUPT
 70
     0
  9
$DIMDEC
 70
     1
  9
$DIMTDEC
 70
     1
  9
$DIMALTU
 70
     2
  9
$DIMALTTD
 70
     2
  9
$DIMTXSTY
  7
STANDARD
  9
$DIMAUNIT
 70
     0
  9
$DIMADEC
 70
     0
  9
$DIMALTRND
 40
0.0
  9
$DIMAZIN
 70
     0
  9
$DIMDSEP
 70
    46
  9
$DIMATFIT
 70
     3
  9
$DIMFRAC
 70
     0
  9
$DIMLDRBLK
  1
OPEN
  9
$DIMLUNIT
 70
     2
  9
$DIMLWD
 70
    -2
  9
$DIMLWE
 70
    -2
  9
$DIMTMOVE
 70
     0
  9
$LUNITS
 70
     2
  9
$LUPREC
 70
     4
  9
$SKETCHINC
 40
0.1
  9
$FILLETRAD
 40
0.0
  9
$AUNITS
 70
     0
  9
$AUPREC
 70
     0
  9
$MENU
  1
.
  9
$ELEVATION
 40
0.0
  9
$PELEVATION
 40
0.0
  9
$THICKNESS
 40
0.0
  9
$LIMCHECK
 70
     0
  9
$CHAMFERA
 40
0.0
  9
$CHAMFERB
 40
0.0
  9
$CHAMFERC
 40
0.0
  9
$CHAMFERD
 40
0.0
  9
$SKPOLY
 70
     0
  9
$TDCREATE
 40
2452286.555658657
  9
$TDUCREATE
 40
2452286.180658657
  9
$TDUPDATE
 40
2456139.421716759
  9
$TDUUPDATE
 40
2456139.046716759
  9
$TDINDWG
 40
1.5359892940
  9
$TDUSRTIMER
 40
1.5359875000
  9
$USRTIMER
 70
     1
  9
$ANGBASE
 50
0.0
  9
$ANGDIR
 70
     0
  9
$PDMODE
 70
     0
  9
$PDSIZE
 40
0.0
  9
$PLINEWID
 40
0.0
  9
$SPLFRAME
 70
     0
  9
$SPLINETYPE
 70
     6
  9
$SPLINESEGS
 70
     8
  9
$HANDSEED
  5
74B9
  9
$SURFTAB1
 70
     6
  9
$SURFTAB2
 70
     6
  9
$SURFTYPE
 70
     6
  9
$SURFU
 70
     6
  9
$SURFV
 70
     6
  9
$UCSBASE
  2

  9
$UCSNAME
  2

  9
$UCSORG
 10
0.0
 20
0.0
 30
0.0
  9
$UCSXDIR
 10
1.0
 20
0.0
 30
0.0
  9
$UCSYDIR
 10
0.0
 20
1.0
 30
0.0
  9
$UCSORTHOREF
  2

  9
$UCSORTHOVIEW
 70
     0
  9
$UCSORGTOP
 10
0.0
 20
0.0
 30
0.0
  9
$UCSORGBOTTOM
 10
0.0
 20
0.0
 30
0.0
  9
$UCSORGLEFT
 10
0.0
 20
0.0
 30
0.0
  9
$UCSORGRIGHT
 10
0.0
 20
0.0
 30
0.0
  9
$UCSORGFRONT
 10
0.0
 20
0.0
 30
0.0
  9
$UCSORGBACK
 10
0.0
 20
0.0
 30
0.0
  9
$PUCSBASE
  2

  9
$PUCSNAME
  2

  9
$PUCSORG
 10
0.0
 20
0.0
 30
0.0
  9
$PUCSXDIR
 10
1.0
 20
0.0
 30
0.0
  9
$PUCSYDIR
 10
0.0
 20
1.0
 30
0.0
  9
$PUCSORTHOREF
  2

  9
$PUCSORTHOVIEW
 70
     0
  9
$PUCSORGTOP
 10
0.0
 20
0.0
 30
0.0
  9
$PUCSORGBOTTOM
 10
0.0
 20
0.0
 30
0.0
  9
$PUCSORGLEFT
 10
0.0
 20
0.0
 30
0.0
  9
$PUCSORGRIGHT
 10
0.0
 20
0.0
 30
0.0
  9
$PUCSORGFRONT
 10
0.0
 20
0.0
 30
0.0
  9
$PUCSORGBACK
 10
0.0
 20
0.0
 30
0.0
  9
$USERI1
 70
     0
  9
$USERI2
 70
     0
  9
$USERI3
 70
     0
  9
$USERI4
 70
     0
  9
$USERI5
 70
     0
  9
$USERR1
 40
0.0
  9
$USERR2
 40
0.0
  9
$USERR3
 40
0.0
  9
$USERR4
 40
0.0
  9
$USERR5
 40
0.0
  9
$WORLDVIEW
 70
     1
  9
$SHADEDGE
 70
     3
  9
$SHADEDIF
 70
    70
  9
$TILEMODE
 70
     1
  9
$MAXACTVP
 70
    48
  9
$PINSBASE
 10
0.0
 20
0.0
 30
0.0
  9
$PLIMCHECK
 70
     0
  9
$PEXTMIN
 10
4.273573370203961
 20
5.205246163471485
 30
0.0
  9
$PEXTMAX
 10
194.6100952986349
 20
283.0697008572913
 30
0.0
  9
$PLIMMIN
 10
-5.873748779296875
 20
-5.873749732971191
  9
$PLIMMAX
 10
204.0995788574218
 20
291.1369009017943
  9
$UNITMODE
 70
     0
  9
$VISRETAIN
 70
     1
  9
$PLINEGEN
 70
     0
  9
$PSLTSCALE
 70
     1
  9
$TREEDEPTH
 70
  3020
  9
$CMLSTYLE
  2
STANDARD
  9
$CMLJUST
 70
     0
  9
$CMLSCALE
 40
1.0
  9
$PROXYGRAPHICS
 70
     1
  9
$MEASUREMENT
 70
     0
  9
$CELWEIGHT
370
    -1
  9
$ENDCAPS
280
     0
  9
$JOINSTYLE
280
     0
  9
$LWDISPLAY
290
     0
  9
$INSUNITS
 70
     0
  9
$HYPERLINKBASE
  1

  9
$STYLESHEET
  1
kiki.ctb
  9
$XEDIT
290
     1
  9
$CEPSNTYPE
380
     0
  9
$PSTYLEMODE
290
     1
  9
$FINGERPRINTGUID
  2

  9
$VERSIONGUID
  2
{6C403296-0716-4B4D-91FB-39E4A7F23CCA}
  9
$EXTNAMES
290
     1
  9
$PSVPSCALE
 40
0.0
  9
$OLESTARTUP
290
     0
  0
ENDSEC
  0
SECTION
  2
CLASSES
  0
CLASS
  1
ACDBDICTIONARYWDFLT
  2
AcDbDictionaryWithDefault
  3
AutoCAD 2000
 90
        0
280
     0
281
     0
  0
CLASS
  1
ACDBPLACEHOLDER
  2
AcDbPlaceHolder
  3
AutoCAD 2000
 90
        0
280
     0
281
     0
  0
CLASS
  1
LAYOUT
  2
AcDbLayout
  3
AutoCAD 2000
 90
        0
280
     0
281
     0
  0
CLASS
  1
LONG_TRANSACTION
  2
AcDbLongTransaction
  3
AutoCAD 2000
 90
    32768
280
     0
281
     0
  0
CLASS
  1
LWPOLYLINE
  2
AcDbPolyline
  3
AutoCAD 2000
 90
    32768
280
     0
281
     1
  0
CLASS
  1
HATCH
  2
AcDbHatch
  3
AutoCAD 2000
 90
    32768
280
     0
281
     1
  0
CLASS
  1
XRECORD
  2
AcDbXrecord
  3
AutoCAD 2000
 90
    32768
280
     0
281
     0
  0
CLASS
  1
LONG_TRANSACTION
  2
AcDbLongTransaction
  3
AutoCAD 2000
 90
    32768
280
     0
281
     0
  0
CLASS
  1
LWPOLYLINE
  2
AcDbPolyline
  3
AutoCAD 2000
 90
    32768
280
     0
281
     1
  0
CLASS
  1
HATCH
  2
AcDbHatch
  3
AutoCAD 2000
 90
    32768
280
     0
281
     1
  0
CLASS
  1
XRECORD
  2
AcDbXrecord
  3
AutoCAD 2000
 90
    32768
280
     0
281
     0
  0
CLASS
  1
LONG_TRANSACTION
  2
AcDbLongTransaction
  3
AutoCAD 2000
 90
    32768
280
     0
281
     0
  0
CLASS
  1
LWPOLYLINE
  2
AcDbPolyline
  3
AutoCAD 2000
 90
    32768
280
     0
281
     1
  0
CLASS
  1
HATCH
  2
AcDbHatch
  3
AutoCAD 2000
 90
    32768
280
     0
281
     1
  0
CLASS
  1
XRECORD
  2
AcDbXrecord
  3
AutoCAD 2000
 90
    32768
280
     0
281
     0
  0
CLASS
  1
LONG_TRANSACTION
  2
AcDbLongTransaction
  3
AutoCAD 2000
 90
    32768
280
     0
281
     0
  0
CLASS
  1
LWPOLYLINE
  2
AcDbPolyline
  3
AutoCAD 2000
 90
    32768
280
     0
281
     1
  0
CLASS
  1
HATCH
  2
AcDbHatch
  3
AutoCAD 2000
 90
    32768
280
     0
281
     1
  0
CLASS
  1
XRECORD
  2
AcDbXrecord
  3
AutoCAD 2000
 90
    32768
280
     0
281
     0
  0
CLASS
  1
LONG_TRANSACTION
  2
AcDbLongTransaction
  3
AutoCAD 2000
 90
    32768
280
     0
281
     0
  0
CLASS
  1
LWPOLYLINE
  2
AcDbPolyline
  3
AutoCAD 2000
 90
    32768
280
     0
281
     1
  0
CLASS
  1
HATCH
  2
AcDbHatch
  3
AutoCAD 2000
 90
    32768
280
     0
281
     1
  0
CLASS
  1
XRECORD
  2
AcDbXrecord
  3
AutoCAD 2000
 90
    32768
280
     0
281
     0
  0
CLASS
  1
LONG_TRANSACTION
  2
AcDbLongTransaction
  3
AutoCAD 2000
 90
    32768
280
     0
281
     0
  0
CLASS
  1
LWPOLYLINE
  2
AcDbPolyline
  3
AutoCAD 2000
 90
    32768
280
     0
281
     1
  0
CLASS
  1
HATCH
  2
AcDbHatch
  3
AutoCAD 2000
 90
    32768
280
     0
281
     1
  0
CLASS
  1
XRECORD
  2
AcDbXrecord
  3
AutoCAD 2000
 90
    32768
280
     0
281
     0
  0
CLASS
  1
LONG_TRANSACTION
  2
AcDbLongTransaction
  3
AutoCAD 2000
 90
    32768
280
     0
281
     0
  0
CLASS
  1
LWPOLYLINE
  2
AcDbPolyline
  3
AutoCAD 2000
 90
    32768
280
     0
281
     1
  0
CLASS
  1
HATCH
  2
AcDbHatch
  3
AutoCAD 2000
 90
    32768
280
     0
281
     1
  0
CLASS
  1
XRECORD
  2
AcDbXrecord
  3
AutoCAD 2000
 90
    32768
280
     0
281
     0
  0
CLASS
  1
LONG_TRANSACTION
  2
AcDbLongTransaction
  3
AutoCAD 2000
 90
    32768
280
     0
281
     0
  0
CLASS
  1
LWPOLYLINE
  2
AcDbPolyline
  3
AutoCAD 2000
 90
    32768
280
     0
281
     1
  0
CLASS
  1
HATCH
  2
AcDbHatch
  3
AutoCAD 2000
 90
    32768
280
     0
281
     1
  0
CLASS
  1
XRECORD
  2
AcDbXrecord
  3
AutoCAD 2000
 90
    32768
280
     0
281
     0
  0
CLASS
  1
LONG_TRANSACTION
  2
AcDbLongTransaction
  3
AutoCAD 2000
 90
    32768
280
     0
281
     0
  0
CLASS
  1
LWPOLYLINE
  2
AcDbPolyline
  3
AutoCAD 2000
 90
    32768
280
     0
281
     1
  0
CLASS
  1
HATCH
  2
AcDbHatch
  3
AutoCAD 2000
 90
    32768
280
     0
281
     1
  0
CLASS
  1
XRECORD
  2
AcDbXrecord
  3
AutoCAD 2000
 90
    32768
280
     0
281
     0
  0
CLASS
  1
LONG_TRANSACTION
  2
AcDbLongTransaction
  3
AutoCAD 2000
 90
    32768
280
     0
281
     0
  0
CLASS
  1
LWPOLYLINE
  2
AcDbPolyline
  3
AutoCAD 2000
 90
    32768
280
     0
281
     1
  0
CLASS
  1
HATCH
  2
AcDbHatch
  3
AutoCAD 2000
 90
    32768
280
     0
281
     1
  0
CLASS
  1
XRECORD
  2
AcDbXrecord
  3
AutoCAD 2000
 90
    32768
280
     0
281
     0
  0
CLASS
  1
LONG_TRANSACTION
  2
AcDbLongTransaction
  3
AutoCAD 2000
 90
    32768
280
     0
281
     0
  0
CLASS
  1
LWPOLYLINE
  2
AcDbPolyline
  3
AutoCAD 2000
 90
    32768
280
     0
281
     1
  0
CLASS
  1
HATCH
  2
AcDbHatch
  3
AutoCAD 2000
 90
    32768
280
     0
281
     1
  0
CLASS
  1
XRECORD
  2
AcDbXrecord
  3
AutoCAD 2000
 90
    32768
280
     0
281
     0
  0
CLASS
  1
LONG_TRANSACTION
  2
AcDbLongTransaction
  3
AutoCAD 2000
 90
    32768
280
     0
281
     0
  0
CLASS
  1
LWPOLYLINE
  2
AcDbPolyline
  3
AutoCAD 2000
 90
    32768
280
     0
281
     1
  0
CLASS
  1
HATCH
  2
AcDbHatch
  3
AutoCAD 2000
 90
    32768
280
     0
281
     1
  0
CLASS
  1
XRECORD
  2
AcDbXrecord
  3
AutoCAD 2000
 90
    32768
280
     0
281
     0
  0
CLASS
  1
LONG_TRANSACTION
  2
AcDbLongTransaction
  3
AutoCAD 2000
 90
    32768
280
     0
281
     0
  0
CLASS
  1
LWPOLYLINE
  2
AcDbPolyline
  3
AutoCAD 2000
 90
    32768
280
     0
281
     1
  0
CLASS
  1
HATCH
  2
AcDbHatch
  3
AutoCAD 2000
 90
    32768
280
     0
281
     1
  0
CLASS
  1
XRECORD
  2
AcDbXrecord
  3
AutoCAD 2000
 90
    32768
280
     0
281
     0
  0
CLASS
  1
LONG_TRANSACTION
  2
AcDbLongTransaction
  3
AutoCAD 2000
 90
    32768
280
     0
281
     0
  0
CLASS
  1
LWPOLYLINE
  2
AcDbPolyline
  3
AutoCAD 2000
 90
    32768
280
     0
281
     1
  0
CLASS
  1
HATCH
  2
AcDbHatch
  3
AutoCAD 2000
 90
    32768
280
     0
281
     1
  0
CLASS
  1
XRECORD
  2
AcDbXrecord
  3
AutoCAD 2000
 90
    32768
280
     0
281
     0
  0
CLASS
  1
LONG_TRANSACTION
  2
AcDbLongTransaction
  3
AutoCAD 2000
 90
    32768
280
     0
281
     0
  0
CLASS
  1
LWPOLYLINE
  2
AcDbPolyline
  3
AutoCAD 2000
 90
    32768
280
     0
281
     1
  0
CLASS
  1
HATCH
  2
AcDbHatch
  3
AutoCAD 2000
 90
    32768
280
     0
281
     1
  0
CLASS
  1
XRECORD
  2
AcDbXrecord
  3
AutoCAD 2000
 90
    32768
280
     0
281
     0
  0
CLASS
  1
LONG_TRANSACTION
  2
AcDbLongTransaction
  3
AutoCAD 2000
 90
    32768
280
     0
281
     0
  0
CLASS
  1
LWPOLYLINE
  2
AcDbPolyline
  3
AutoCAD 2000
 90
    32768
280
     0
281
     1
  0
CLASS
  1
HATCH
  2
AcDbHatch
  3
AutoCAD 2000
 90
    32768
280
     0
281
     1
  0
CLASS
  1
XRECORD
  2
AcDbXrecord
  3
AutoCAD 2000
 90
    32768
280
     0
281
     0
  0
CLASS
  1
LONG_TRANSACTION
  2
AcDbLongTransaction
  3
AutoCAD 2000
 90
    32768
280
     0
281
     0
  0
CLASS
  1
LWPOLYLINE
  2
AcDbPolyline
  3
AutoCAD 2000
 90
    32768
280
     0
281
     1
  0
CLASS
  1
HATCH
  2
AcDbHatch
  3
AutoCAD 2000
 90
    32768
280
     0
281
     1
  0
CLASS
  1
XRECORD
  2
AcDbXrecord
  3
AutoCAD 2000
 90
    32768
280
     0
281
     0
  0
CLASS
  1
LONG_TRANSACTION
  2
AcDbLongTransaction
  3
AutoCAD 2000
 90
    32768
280
     0
281
     0
  0
CLASS
  1
LWPOLYLINE
  2
AcDbPolyline
  3
AutoCAD 2000
 90
    32768
280
     0
281
     1
  0
CLASS
  1
HATCH
  2
AcDbHatch
  3
AutoCAD 2000
 90
    32768
280
     0
281
     1
  0
CLASS
  1
XRECORD
  2
AcDbXrecord
  3
AutoCAD 2000
 90
    32768
280
     0
281
     0
  0
CLASS
  1
LONG_TRANSACTION
  2
AcDbLongTransaction
  3
AutoCAD 2000
 90
    32768
280
     0
281
     0
  0
CLASS
  1
LWPOLYLINE
  2
AcDbPolyline
  3
AutoCAD 2000
 90
    32768
280
     0
281
     1
  0
CLASS
  1
HATCH
  2
AcDbHatch
  3
AutoCAD 2000
 90
    32768
280
     0
281
     1
  0
CLASS
  1
XRECORD
  2
AcDbXrecord
  3
AutoCAD 2000
 90
    32768
280
     0
281
     0
  0
CLASS
  1
LONG_TRANSACTION
  2
AcDbLongTransaction
  3
AutoCAD 2000
 90
    32768
280
     0
281
     0
  0
CLASS
  1
LWPOLYLINE
  2
AcDbPolyline
  3
AutoCAD 2000
 90
    32768
280
     0
281
     1
  0
CLASS
  1
HATCH
  2
AcDbHatch
  3
AutoCAD 2000
 90
    32768
280
     0
281
     1
  0
CLASS
  1
XRECORD
  2
AcDbXrecord
  3
AutoCAD 2000
 90
    32768
280
     0
281
     0
  0
CLASS
  1
LONG_TRANSACTION
  2
AcDbLongTransaction
  3
AutoCAD 2000
 90
    32768
280
     0
281
     0
  0
CLASS
  1
LWPOLYLINE
  2
AcDbPolyline
  3
AutoCAD 2000
 90
    32768
280
     0
281
     1
  0
CLASS
  1
HATCH
  2
AcDbHatch
  3
AutoCAD 2000
 90
    32768
280
     0
281
     1
  0
CLASS
  1
XRECORD
  2
AcDbXrecord
  3
AutoCAD 2000
 90
    32768
280
     0
281
     0
  0
CLASS
  1
LONG_TRANSACTION
  2
AcDbLongTransaction
  3
AutoCAD 2000
 90
    32768
280
     0
281
     0
  0
CLASS
  1
LWPOLYLINE
  2
AcDbPolyline
  3
AutoCAD 2000
 90
    32768
280
     0
281
     1
  0
CLASS
  1
HATCH
  2
AcDbHatch
  3
AutoCAD 2000
 90
    32768
280
     0
281
     1
  0
CLASS
  1
XRECORD
  2
AcDbXrecord
  3
AutoCAD 2000
 90
    32768
280
     0
281
     0
  0
CLASS
  1
LONG_TRANSACTION
  2
AcDbLongTransaction
  3
AutoCAD 2000
 90
    32768
280
     0
281
     0
  0
CLASS
  1
LWPOLYLINE
  2
AcDbPolyline
  3
AutoCAD 2000
 90
    32768
280
     0
281
     1
  0
CLASS
  1
HATCH
  2
AcDbHatch
  3
AutoCAD 2000
 90
    32768
280
     0
281
     1
  0
CLASS
  1
XRECORD
  2
AcDbXrecord
  3
AutoCAD 2000
 90
    32768
280
     0
281
     0
  0
CLASS
  1
LONG_TRANSACTION
  2
AcDbLongTransaction
  3
AutoCAD 2000
 90
    32768
280
     0
281
     0
  0
CLASS
  1
LWPOLYLINE
  2
AcDbPolyline
  3
AutoCAD 2000
 90
    32768
280
     0
281
     1
  0
CLASS
  1
HATCH
  2
AcDbHatch
  3
AutoCAD 2000
 90
    32768
280
     0
281
     1
  0
CLASS
  1
XRECORD
  2
AcDbXrecord
  3
AutoCAD 2000
 90
    32768
280
     0
281
     0
  0
CLASS
  1
LONG_TRANSACTION
  2
AcDbLongTransaction
  3
AutoCAD 2000
 90
    32768
280
     0
281
     0
  0
CLASS
  1
LWPOLYLINE
  2
AcDbPolyline
  3
AutoCAD 2000
 90
    32768
280
     0
281
     1
  0
CLASS
  1
HATCH
  2
AcDbHatch
  3
AutoCAD 2000
 90
    32768
280
     0
281
     1
  0
CLASS
  1
XRECORD
  2
AcDbXrecord
  3
AutoCAD 2000
 90
    32768
280
     0
281
     0
  0
CLASS
  1
LONG_TRANSACTION
  2
AcDbLongTransaction
  3
AutoCAD 2000
 90
    32768
280
     0
281
     0
  0
CLASS
  1
LWPOLYLINE
  2
AcDbPolyline
  3
AutoCAD 2000
 90
    32768
280
     0
281
     1
  0
CLASS
  1
HATCH
  2
AcDbHatch
  3
AutoCAD 2000
 90
    32768
280
     0
281
     1
  0
CLASS
  1
XRECORD
  2
AcDbXrecord
  3
AutoCAD 2000
 90
    32768
280
     0
281
     0
  0
CLASS
  1
LONG_TRANSACTION
  2
AcDbLongTransaction
  3
AutoCAD 2000
 90
    32768
280
     0
281
     0
  0
CLASS
  1
LWPOLYLINE
  2
AcDbPolyline
  3
AutoCAD 2000
 90
    32768
280
     0
281
     1
  0
CLASS
  1
HATCH
  2
AcDbHatch
  3
AutoCAD 2000
 90
    32768
280
     0
281
     1
  0
CLASS
  1
XRECORD
  2
AcDbXrecord
  3
AutoCAD 2000
 90
    32768
280
     0
281
     0
  0
CLASS
  1
DICTIONARYVAR
  2
AcDbDictionaryVar
  3
AutoCAD 2000
 90
        0
280
     0
281
     0
  0
CLASS
  1
LONG_TRANSACTION
  2
AcDbLongTransaction
  3
AutoCAD 2000
 90
    32768
280
     0
281
     0
  0
CLASS
  1
LWPOLYLINE
  2
AcDbPolyline
  3
AutoCAD 2000
 90
    32768
280
     0
281
     1
  0
CLASS
  1
HATCH
  2
AcDbHatch
  3
AutoCAD 2000
 90
    32768
280
     0
281
     1
  0
CLASS
  1
XRECORD
  2
AcDbXrecord
  3
AutoCAD 2000
 90
    32768
280
     0
281
     0
  0
CLASS
  1
LONG_TRANSACTION
  2
AcDbLongTransaction
  3
AutoCAD 2000
 90
    32768
280
     0
281
     0
  0
CLASS
  1
LWPOLYLINE
  2
AcDbPolyline
  3
AutoCAD 2000
 90
    32768
280
     0
281
     1
  0
CLASS
  1
HATCH
  2
AcDbHatch
  3
AutoCAD 2000
 90
    32768
280
     0
281
     1
  0
CLASS
  1
XRECORD
  2
AcDbXrecord
  3
AutoCAD 2000
 90
    32768
280
     0
281
     0
  0
CLASS
  1
LONG_TRANSACTION
  2
AcDbLongTransaction
  3
AutoCAD 2000
 90
    32768
280
     0
281
     0
  0
CLASS
  1
LWPOLYLINE
  2
AcDbPolyline
  3
AutoCAD 2000
 90
    32768
280
     0
281
     1
  0
CLASS
  1
HATCH
  2
AcDbHatch
  3
AutoCAD 2000
 90
    32768
280
     0
281
     1
  0
CLASS
  1
XRECORD
  2
AcDbXrecord
  3
AutoCAD 2000
 90
    32768
280
     0
281
     0
  0
CLASS
  1
LONG_TRANSACTION
  2
AcDbLongTransaction
  3
AutoCAD 2000
 90
    32768
280
     0
281
     0
  0
CLASS
  1
LWPOLYLINE
  2
AcDbPolyline
  3
AutoCAD 2000
 90
    32768
280
     0
281
     1
  0
CLASS
  1
HATCH
  2
AcDbHatch
  3
AutoCAD 2000
 90
    32768
280
     0
281
     1
  0
CLASS
  1
XRECORD
  2
AcDbXrecord
  3
AutoCAD 2000
 90
    32768
280
     0
281
     0
  0
ENDSEC
  0
SECTION
  2
TABLES
  0
TABLE
  2
VPORT
  5
8
330
0
100
AcDbSymbolTable
 70
     3
  0
VPORT
  5
7497
330
8
100
AcDbSymbolTableRecord
100
AcDbViewportTableRecord
  2
*Active
 70
     0
 10
0.0
 20
0.0
 11
1.0
 21
1.0
 12
146.7920208000677
 22
-154.8957025101469
 13
0.0
 23
0.0
 14
1.0
 24
1.0
 15
10.0
 25
10.0
 16
0.0
 26
0.0
 36
1.0
 17
0.0
 27
0.0
 37
0.0
 40
1327.137267515427
 41
1.795454545454545
 42
50.0
 43
0.0
 44
0.0
 50
0.0
 51
0.0
 71
     0
 72
   100
 73
     1
 74
     1
 75
     0
 76
     0
 77
     0
 78
     0
281
     0
 65
     1
110
0.0
120
0.0
130
0.0
111
1.0
121
0.0
131
0.0
112
0.0
122
1.0
132
0.0
 79
     0
146
0.0
  0
ENDTAB
  0
TABLE
  2
LTYPE
  5
5
330
0
100
AcDbSymbolTable
 70
     7
  0
LTYPE
  5
13
330
5
100
AcDbSymbolTableRecord
100
AcDbLinetypeTableRecord
  2
BYBLOCK
 70
     0
  3

 72
    65
 73
     0
 40
0.0
  0
LTYPE
  5
14
330
5
100
AcDbSymbolTableRecord
100
AcDbLinetypeTableRecord
  2
BYLAYER
 70
     0
  3

 72
    65
 73
     0
 40
0.0
  0
LTYPE
  5
15
330
5
100
AcDbSymbolTableRecord
100
AcDbLinetypeTableRecord
  2
CONTINUOUS
 70
     0
  3
Solid line
 72
    65
 73
     0
 40
0.0
  0
LTYPE
  5
22
330
5
100
AcDbSymbolTableRecord
100
AcDbLinetypeTableRecord
  2
CONTINOUS
 70
     0
  3
Solid line
 72
    65
 73
     0
 40
0.0
  0
LTYPE
  5
23
330
5
100
AcDbSymbolTableRecord
100
AcDbLinetypeTableRecord
  2
DASHED
 70
     0
  3
__ __ __ __ __ __ __ __ __ __ __ __ __ __ __
 72
    65
 73
     2
 40
0.75
 49
0.5
 74
     0
 49
-0.25
 74
     0
  0
LTYPE
  5
24
330
5
100
AcDbSymbolTableRecord
100
AcDbLinetypeTableRecord
  2
DASHDOT
 70
     0
  3
__ . __ . __ . __ . __ . __ . __ . __ . __ . __
 72
    65
 73
     4
 40
1.0
 49
0.5
 74
     0
 49
-0.25
 74
     0
 49
0.0
 74
     0
 49
-0.25
 74
     0
  0
LTYPE
  5
3932
330
5
100
AcDbSymbolTableRecord
100
AcDbLinetypeTableRecord
  2
DIVIDE
 70
     0
  3
Divide ____ . . ____ . . ____ . . ____ . . ____
 72
    65
 73
     6
 40
1.25
 49
0.5
 74
     0
 49
-0.25
 74
     0
 49
0.0
 74
     0
 49
-0.25
 74
     0
 49
0.0
 74
     0
 49
-0.25
 74
     0
  0
LTYPE
  5
6875
330
5
100
AcDbSymbolTableRecord
100
AcDbLinetypeTableRecord
  2
D159
 70
     0
  3
IGESIN-LineFont-D159
 72
    65
 73
     6
 40
11.29999999999999
 49
8.0
 74
     0
 49
-0.6
 74
     0
 49
0.75
 74
     0
 49
-0.6
 74
     0
 49
0.75
 74
     0
 49
-0.6
 74
     0
  0
LTYPE
  5
6876
330
5
100
AcDbSymbolTableRecord
100
AcDbLinetypeTableRecord
  2
D1485
 70
     0
  3
IGESIN-LineFont-D1485
 72
    65
 73
     2
 40
1.35
 49
0.75
 74
     0
 49
-0.6
 74
     0
  0
ENDTAB
  0
TABLE
  2
LAYER
  5
2
330
0
100
AcDbSymbolTable
 70
    18
  0
LAYER
  5
10
330
2
100
AcDbSymbolTableRecord
100
AcDbLayerTableRecord
  2
0
 70
     0
 62
     7
  6
CONTINOUS
370
    -3
390
F
  0
LAYER
  5
2F
330
2
100
AcDbSymbolTableRecord
100
AcDbLayerTableRecord
  2
10
 70
     0
 62
     4
  6
CONTINOUS
370
    -3
390
F
  0
LAYER
  5
31
330
2
100
AcDbSymbolTableRecord
100
AcDbLayerTableRecord
  2
12
 70
     0
 62
     3
  6
CONTINOUS
370
    -3
390
F
  0
LAYER
  5
35
330
2
100
AcDbSymbolTableRecord
100
AcDbLayerTableRecord
  2
16
 70
     0
 62
     6
  6
DASHDOT
370
    -3
390
F
  0
LAYER
  5
36
330
2
100
AcDbSymbolTableRecord
100
AcDbLayerTableRecord
  2
17
 70
     0
 62
     2
  6
DASHDOT
370
    -3
390
F
  0
LAYER
  5
38
330
2
100
AcDbSymbolTableRecord
100
AcDbLayerTableRecord
  2
19
 70
     0
 62
     7
  6
CONTINOUS
370
    -3
390
F
  0
LAYER
  5
3C
330
2
100
AcDbSymbolTableRecord
100
AcDbLayerTableRecord
  2
11
 70
     0
 62
     1
  6
CONTINOUS
370
    -3
390
F
  0
LAYER
  5
3D
330
2
100
AcDbSymbolTableRecord
100
AcDbLayerTableRecord
  2
24
 70
     0
 62
     2
  6
CONTINOUS
370
    -3
390
F
  0
LAYER
  5
3A2
330
2
100
AcDbSymbolTableRecord
100
AcDbLayerTableRecord
  2
30
 70
     0
 62
     9
  6
CONTINUOUS
370
    -3
390
F
  0
LAYER
  5
3A4
330
2
100
AcDbSymbolTableRecord
100
AcDbLayerTableRecord
  2
DEFPOINTS
 70
     0
 62
     7
  6
CONTINUOUS
290
     0
370
    -3
390
F
  0
LAYER
  5
3933
330
2
100
AcDbSymbolTableRecord
100
AcDbLayerTableRecord
  2
18
 70
     0
 62
     5
  6
DIVIDE
370
    -3
390
F
  0
LAYER
  5
4709
330
2
100
AcDbSymbolTableRecord
100
AcDbLayerTableRecord
  2
L0_
 70
     0
 62
     7
  6
CONTINUOUS
370
    -3
390
F
  0
LAYER
  5
470B
330
2
100
AcDbSymbolTableRecord
100
AcDbLayerTableRecord
  2
L210_
 70
     0
 62
     7
  6
CONTINUOUS
370
    -3
390
F
  0
LAYER
  5
6877
330
2
100
AcDbSymbolTableRecord
100
AcDbLayerTableRecord
  2
L225_
 70
     0
 62
     7
  6
CONTINUOUS
370
    -3
390
F
  0
LAYER
  5
6878
330
2
100
AcDbSymbolTableRecord
100
AcDbLayerTableRecord
  2
L150_
 70
     0
 62
     7
  6
CONTINUOUS
370
    -3
390
F
  0
LAYER
  5
6879
330
2
100
AcDbSymbolTableRecord
100
AcDbLayerTableRecord
  2
L10_
 70
     0
 62
     7
  6
CONTINUOUS
370
    -3
390
F
  0
LAYER
  5
687A
330
2
100
AcDbSymbolTableRecord
100
AcDbLayerTableRecord
  2
L170_
 70
     0
 62
     7
  6
CONTINUOUS
370
    -3
390
F
  0
LAYER
  5
687B
330
2
100
AcDbSymbolTableRecord
100
AcDbLayerTableRecord
  2
L230_
 70
     0
 62
     7
  6
CONTINUOUS
370
    -3
390
F
  0
ENDTAB
  0
TABLE
  2
STYLE
  5
3
330
0
100
AcDbSymbolTable
 70
     4
  0
STYLE
  5
11
330
3
100
AcDbSymbolTableRecord
100
AcDbTextStyleTableRecord
  2
STANDARD
 70
     0
 40
0.0
 41
1.0
 50
0.0
 71
     0
 42
2.0
  3
txt.shx
  4
bigfont.shx
  0
STYLE
  5
42
330
3
100
AcDbSymbolTableRecord
100
AcDbTextStyleTableRecord
  2
STANDARD1
 70
     0
 40
0.0
 41
1.0
 50
0.0
 71
     0
 42
5.0
  3
MONOTXT
  4
BIGFONT
  0
STYLE
  5
3ACF
330
3
100
AcDbSymbolTableRecord
100
AcDbTextStyleTableRecord
  2
SYMBOL3
 70
     0
 40
0.0
 41
1.0
 50
0.0
 71
     0
 42
0.2
  3
iges1003
  4

  0
STYLE
  5
687C
330
3
100
AcDbSymbolTableRecord
100
AcDbTextStyleTableRecord
  2
LEROY
 70
     0
 40
0.0
 41
1.0
 50
0.0
 71
     0
 42
0.2
  3
txt
  4

  0
ENDTAB
  0
TABLE
  2
VIEW
  5
6
330
0
100
AcDbSymbolTable
 70
     3
  0
VIEW
  5
230C
330
6
100
AcDbSymbolTableRecord
100
AcDbViewTableRecord
  2
OLE1
 70
     0
 40
148.9124878027714
 10
429.4976280407222
 20
2.560626997828478
 41
103.1458057716444
 11
0.0
 21
0.0
 31
1.0
 12
0.0
 22
0.0
 32
0.0
 42
50.0
 43
0.0
 44
0.0
 50
0.0
 71
     0
281
     0
 72
     0
  0
VIEW
  5
230E
330
6
100
AcDbSymbolTableRecord
100
AcDbViewTableRecord
  2
OLE2
 70
     0
 40
170.7786920545775
 10
322.664969958371
 20
-5.978304054290276
 41
102.4672152327465
 11
0.0
 21
0.0
 31
1.0
 12
0.0
 22
0.0
 32
0.0
 42
50.0
 43
0.0
 44
0.0
 50
0.0
 71
     0
281
     0
 72
     0
  0
VIEW
  5
23AA
330
6
100
AcDbSymbolTableRecord
100
AcDbViewTableRecord
  2
OLE3
 70
     0
 40
591.7897393182231
 10
84.79698158148218
 20
-46.09336010803995
 41
388.7920961799953
 11
0.0
 21
0.0
 31
1.0
 12
0.0
 22
0.0
 32
0.0
 42
50.0
 43
0.0
 44
0.0
 50
0.0
 71
     0
281
     0
 72
     0
  0
ENDTAB
  0
TABLE
  2
UCS
  5
7
330
0
100
AcDbSymbolTable
 70
     0
  0
ENDTAB
  0
TABLE
  2
APPID
  5
9
330
0
100
AcDbSymbolTable
 70
     2
  0
APPID
  5
12
330
9
100
AcDbSymbolTableRecord
100
AcDbRegAppTableRecord
  2
ACAD
 70
     0
  0
APPID
  5
ECD
330
9
100
AcDbSymbolTableRecord
100
AcDbRegAppTableRecord
  2
CONTENTBLOCKICON
 70
     0
  0
ENDTAB
  0
TABLE
  2
DIMSTYLE
  5
A
330
0
100
AcDbSymbolTable
 70
     1
100
AcDbDimStyleTable
 71
     0
  0
DIMSTYLE
105
175
102
{ACAD_REACTORS
330
6C95
330
6CA2
330
6CAF
330
6CBC
330
6CC9
330
6CD6
330
6CE3
330
6CF0
330
6D05
330
6D5C
330
6D69
330
6D76
330
6D90
330
6D9D
330
6DB7
330
6DD1
330
6DDE
330
6DED
330
6DFA
330
6E07
330
6E1D
330
6F16
330
6F52
330
6F5F
330
6F6C
330
6F79
330
6F86
330
6FAD
330
6FBA
330
6FC7
330
6FE1
330
70B9
330
6DEB
330
6ED6
330
73E0
102
}
330
A
100
AcDbSymbolTableRecord
100
AcDbDimStyleTableRecord
  2
STANDARD
 70
     0
 41
2.0
 42
1.0
 43
0.5
 44
0.5
 73
     0
 77
     3
 78
    12
140
7.0
147
1.0
271
     1
272
     1
340
11
341
3B2
342
3B2
  0
ENDTAB
  0
TABLE
  2
BLOCK_RECORD
  5
1
330
0
100
AcDbSymbolTable
 70
    45
  0
BLOCK_RECORD
  5
1E
102
{ACAD_XDICTIONARY
360
178
102
}
330
1
100
AcDbSymbolTableRecord
100
AcDbBlockTableRecord
  2
*MODEL_SPACE
340
748D
  0
BLOCK_RECORD
  5
1A
102
{ACAD_XDICTIONARY
360
17A
102
}
330
1
100
AcDbSymbolTableRecord
100
AcDbBlockTableRecord
  2
*PAPER_SPACE
340
748E
  0
BLOCK_RECORD
  5
3B2
330
1
100
AcDbSymbolTableRecord
100
AcDbBlockTableRecord
  2
_OPEN
340
0
102
{BLKREFS
331
7225
331
7226
331
722E
331
722F
331
741D
331
741E
331
7240
331
7241
331
7249
331
724A
331
7426
331
7427
331
742F
331
7430
331
7264
331
726C
331
726D
331
7438
331
7439
331
727E
331
727F
331
7441
331
7442
331
7290
331
7291
331
744A
331
744B
331
72A2
331
72A3
331
72AB
331
72AC
331
7453
331
7454
331
72BD
331
72BE
331
745C
331
745D
331
72CF
331
72D0
331
7465
331
7466
331
72E1
331
72E9
331
72EA
331
746E
331
746F
331
72FB
331
72FC
331
7304
331
7305
331
730D
331
730E
331
7316
331
7317
331
7477
331
7478
331
7480
331
7481
331
7331
331
7332
331
733A
331
733B
331
73F0
331
73F1
102
}
  0
BLOCK_RECORD
  5
46F7
330
1
100
AcDbSymbolTableRecord
100
AcDbBlockTableRecord
  2
B837
340
0
  0
BLOCK_RECORD
  5
6816
330
1
100
AcDbSymbolTableRecord
100
AcDbBlockTableRecord
  2
B2837
340
0
102
{BLKREFS
331
6825
102
}
  0
BLOCK_RECORD
  5
681B
330
1
100
AcDbSymbolTableRecord
100
AcDbBlockTableRecord
  2
*D3
340
0
  0
BLOCK_RECORD
  5
6823
330
1
100
AcDbSymbolTableRecord
100
AcDbBlockTableRecord
  2
B2841
340
0
  0
BLOCK_RECORD
  5
6857
330
1
100
AcDbSymbolTableRecord
100
AcDbBlockTableRecord
  2
B4515
340
0
102
{BLKREFS
331
685D
102
}
  0
BLOCK_RECORD
  5
685C
330
1
100
AcDbSymbolTableRecord
100
AcDbBlockTableRecord
  2
B4517
340
0
  0
BLOCK_RECORD
  5
6861
330
1
100
AcDbSymbolTableRecord
100
AcDbBlockTableRecord
  2
B4521
340
0
102
{BLKREFS
331
6867
102
}
  0
BLOCK_RECORD
  5
6866
330
1
100
AcDbSymbolTableRecord
100
AcDbBlockTableRecord
  2
B4523
340
0
  0
BLOCK_RECORD
  5
686B
330
1
100
AcDbSymbolTableRecord
100
AcDbBlockTableRecord
  2
B4527
340
0
102
{BLKREFS
331
6871
102
}
  0
BLOCK_RECORD
  5
6870
330
1
100
AcDbSymbolTableRecord
100
AcDbBlockTableRecord
  2
B4529
340
0
  0
BLOCK_RECORD
  5
6C96
330
1
100
AcDbSymbolTableRecord
100
AcDbBlockTableRecord
  2
*D11
340
0
  0
BLOCK_RECORD
  5
6CA3
330
1
100
AcDbSymbolTableRecord
100
AcDbBlockTableRecord
  2
*D12
340
0
  0
BLOCK_RECORD
  5
6CB0
330
1
100
AcDbSymbolTableRecord
100
AcDbBlockTableRecord
  2
*D13
340
0
  0
BLOCK_RECORD
  5
6CBD
330
1
100
AcDbSymbolTableRecord
100
AcDbBlockTableRecord
  2
*D14
340
0
  0
BLOCK_RECORD
  5
6CCA
330
1
100
AcDbSymbolTableRecord
100
AcDbBlockTableRecord
  2
*D15
340
0
  0
BLOCK_RECORD
  5
6CD7
330
1
100
AcDbSymbolTableRecord
100
AcDbBlockTableRecord
  2
*D16
340
0
  0
BLOCK_RECORD
  5
6CE4
330
1
100
AcDbSymbolTableRecord
100
AcDbBlockTableRecord
  2
*D17
340
0
  0
BLOCK_RECORD
  5
6CF1
330
1
100
AcDbSymbolTableRecord
100
AcDbBlockTableRecord
  2
*D18
340
0
  0
BLOCK_RECORD
  5
6D16
330
1
100
AcDbSymbolTableRecord
100
AcDbBlockTableRecord
  2
*D19
340
0
  0
BLOCK_RECORD
  5
6D5D
330
1
100
AcDbSymbolTableRecord
100
AcDbBlockTableRecord
  2
*D20
340
0
  0
BLOCK_RECORD
  5
6D6A
330
1
100
AcDbSymbolTableRecord
100
AcDbBlockTableRecord
  2
*D21
340
0
  0
BLOCK_RECORD
  5
6D77
330
1
100
AcDbSymbolTableRecord
100
AcDbBlockTableRecord
  2
*D22
340
0
  0
BLOCK_RECORD
  5
6D91
330
1
100
AcDbSymbolTableRecord
100
AcDbBlockTableRecord
  2
*D23
340
0
  0
BLOCK_RECORD
  5
6D9E
330
1
100
AcDbSymbolTableRecord
100
AcDbBlockTableRecord
  2
*D24
340
0
  0
BLOCK_RECORD
  5
6DB8
330
1
100
AcDbSymbolTableRecord
100
AcDbBlockTableRecord
  2
*D25
340
0
  0
BLOCK_RECORD
  5
6DD2
330
1
100
AcDbSymbolTableRecord
100
AcDbBlockTableRecord
  2
*D26
340
0
  0
BLOCK_RECORD
  5
6DDF
330
1
100
AcDbSymbolTableRecord
100
AcDbBlockTableRecord
  2
*D27
340
0
  0
BLOCK_RECORD
  5
6DEE
330
1
100
AcDbSymbolTableRecord
100
AcDbBlockTableRecord
  2
*D28
340
0
  0
BLOCK_RECORD
  5
6DFB
330
1
100
AcDbSymbolTableRecord
100
AcDbBlockTableRecord
  2
*D29
340
0
  0
BLOCK_RECORD
  5
6E08
330
1
100
AcDbSymbolTableRecord
100
AcDbBlockTableRecord
  2
*D30
340
0
  0
BLOCK_RECORD
  5
6E1E
330
1
100
AcDbSymbolTableRecord
100
AcDbBlockTableRecord
  2
*D31
340
0
  0
BLOCK_RECORD
  5
6F17
330
1
100
AcDbSymbolTableRecord
100
AcDbBlockTableRecord
  2
*D32
340
0
  0
BLOCK_RECORD
  5
6F53
330
1
100
AcDbSymbolTableRecord
100
AcDbBlockTableRecord
  2
*D33
340
0
  0
BLOCK_RECORD
  5
6F60
330
1
100
AcDbSymbolTableRecord
100
AcDbBlockTableRecord
  2
*D34
340
0
  0
BLOCK_RECORD
  5
6F6D
330
1
100
AcDbSymbolTableRecord
100
AcDbBlockTableRecord
  2
*D35
340
0
  0
BLOCK_RECORD
  5
6F7A
330
1
100
AcDbSymbolTableRecord
100
AcDbBlockTableRecord
  2
*D36
340
0
  0
BLOCK_RECORD
  5
6F87
330
1
100
AcDbSymbolTableRecord
100
AcDbBlockTableRecord
  2
*D37
340
0
  0
BLOCK_RECORD
  5
6FAE
330
1
100
AcDbSymbolTableRecord
100
AcDbBlockTableRecord
  2
*D38
340
0
  0
BLOCK_RECORD
  5
6FBB
330
1
100
AcDbSymbolTableRecord
100
AcDbBlockTableRecord
  2
*D39
340
0
  0
BLOCK_RECORD
  5
6FC8
330
1
100
AcDbSymbolTableRecord
100
AcDbBlockTableRecord
  2
*D40
340
0
  0
BLOCK_RECORD
  5
6FE2
330
1
100
AcDbSymbolTableRecord
100
AcDbBlockTableRecord
  2
*D41
340
0
  0
BLOCK_RECORD
  5
70BA
330
1
100
AcDbSymbolTableRecord
100
AcDbBlockTableRecord
  2
*D42
340
0
  0
BLOCK_RECORD
  5
73E1
330
1
100
AcDbSymbolTableRecord
100
AcDbBlockTableRecord
  2
*D43
340
0
  0
ENDTAB
  0
ENDSEC
  0
SECTION
  2
BLOCKS
  0
BLOCK
  5
1F
330
1E
100
AcDbEntity
  8
0
100
AcDbBlockBegin
  2
*MODEL_SPACE
 70
     0
 10
0.0
 20
0.0
 30
0.0
  3
*MODEL_SPACE
  1

  0
ENDBLK
  5
20
330
1E
100
AcDbEntity
  8
0
100
AcDbBlockEnd
  0
BLOCK
  5
1B
330
1A
100
AcDbEntity
 67
     1
  8
0
100
AcDbBlockBegin
  2
*PAPER_SPACE
 70
     0
 10
0.0
 20
0.0
 30
0.0
  3
*PAPER_SPACE
  1

  0
ENDBLK
  5
1C
330
1A
100
AcDbEntity
 67
     1
  8
0
100
AcDbBlockEnd
  0
BLOCK
  5
3B6
330
3B2
100
AcDbEntity
  8
0
100
AcDbBlockBegin
  2
_OPEN
 70
     0
 10
0.0
 20
0.0
 30
0.0
  3
_OPEN
  1

  0
LINE
  5
3B3
330
3B2
100
AcDbEntity
  8
30
  6
Continuous
 62
     0
100
AcDbLine
 10
-1.0
 20
0.1666666666666666
 30
0.0
 11
0.0
 21
0.0
 31
0.0
  0
LINE
  5
3B4
330
3B2
100
AcDbEntity
  8
30
  6
Continuous
 62
     0
100
AcDbLine
 10
-1.0
 20
-0.1666666666666666
 30
0.0
 11
0.0
 21
0.0
 31
0.0
  0
LINE
  5
3B5
330
3B2
100
AcDbEntity
  8
30
  6
Continuous
 62
     0
100
AcDbLine
 10
0.0
 20
0.0
 30
0.0
 11
-1.0
 21
0.0
 31
0.0
  0
ENDBLK
  5
3B7
330
3B2
100
AcDbEntity
  8
0
100
AcDbBlockEnd
  0
BLOCK
  5
46FA
330
46F7
100
AcDbEntity
  8
L0_
  6
Continuous
100
AcDbBlockBegin
  2
B837
 70
     0
 10
0.0
 20
0.0
 30
0.0
  3
B837
  1

  0
TEXT
  5
46F8
330
46F7
100
AcDbEntity
  8
L0_
  6
Continuous
100
AcDbText
 10
1984.080078125
 20
1307.4332275391
 30
0.0
 40
12.0
  1
n
 41
2.863636363636363
  7
SYMBOL3
 72
     5
 11
2002.080078125
 21
1307.4332275391
 31
0.0
100
AcDbText
 73
     2
  0
TEXT
  5
46F9
330
46F7
100
AcDbEntity
  8
L0_
  6
Continuous
100
AcDbText
 10
2002.080078125
 20
1307.4332275391
 30
0.0
 40
12.0
  1
11
 41
1.399999999999996
  7
SYMBOL3
 72
     5
 11
2018.880078125
 21
1307.4332275391
 31
0.0
100
AcDbText
 73
     2
  0
ENDBLK
  5
46FB
330
46F7
100
AcDbEntity
  8
L0_
  6
Continuous
100
AcDbBlockEnd
  0
BLOCK
  5
6819
330
6816
100
AcDbEntity
  8
L0_
  6
Continuous
100
AcDbBlockBegin
  2
B2837
 70
     0
 10
0.0
 20
0.0
 30
0.0
  3
B2837
  1

  0
TEXT
  5
6817
330
6816
100
AcDbEntity
  8
L0_
  6
Continuous
100
AcDbText
 10
2509.9870605469
 20
3096.0744628906
 30
0.0
 40
15.0
  1
n
 41
2.863636363636363
  7
SYMBOL3
 72
     5
 11
2532.4870605469
 21
3096.0744628906
 31
0.0
100
AcDbText
 73
     2
  0
TEXT
  5
6818
330
6816
100
AcDbEntity
  8
L0_
  6
Continuous
100
AcDbText
 10
2532.4870605469
 20
3096.0744628906
 30
0.0
 40
15.0
  1
9
 41
1.776923076923076
  7
SYMBOL3
 72
     5
 11
2548.9870605469
 21
3096.0744628906
 31
0.0
100
AcDbText
 73
     2
  0
ENDBLK
  5
681A
330
6816
100
AcDbEntity
  8
L0_
  6
Continuous
100
AcDbBlockEnd
  0
BLOCK
  5
6821
330
681B
100
AcDbEntity
  8
0
100
AcDbBlockBegin
  2
*D3
 70
     1
 10
0.0
 20
0.0
 30
0.0
  3
*D3
  1

  0
LINE
  5
681C
330
681B
100
AcDbEntity
  8
0
  6
ByBlock
100
AcDbLine
 10
2611.11303831454
 20
3175.571385345142
 30
0.0
 11
2562.968452781273
 21
3086.783914434755
 31
0.0
  0
LINE
  5
681D
330
681B
100
AcDbEntity
  8
0
  6
ByBlock
100
AcDbLine
 10
2562.968452781273
 20
3086.783914434755
 30
0.0
 11
2562.878452781272
 21
3086.783914434755
 31
0.0
  0
SOLID
  5
681E
330
681B
100
AcDbEntity
  8
0
  6
ByBlock
100
AcDbTrace
 10
2613.310735483583
 20
3174.379694465264
 30
0.0
 11
2608.915341145497
 21
3176.763076225018
 31
0.0
 12
2618.263183593799
 22
3188.757568359398
 32
0.0
 13
2618.263183593799
 23
3188.757568359398
 33
0.0
  0
POINT
  5
681F
330
681B
100
AcDbEntity
  8
DEFPOINTS
  6
ByBlock
 62
     0
100
AcDbPoint
 10
2618.263183593799
 20
3188.757568359398
 30
0.0
  0
POINT
  5
6820
330
681B
100
AcDbEntity
  8
DEFPOINTS
  6
ByBlock
 62
     0
100
AcDbPoint
 10
2622.553222656199
 20
3196.669189453198
 30
0.0
  0
ENDBLK
  5
6822
330
681B
100
AcDbEntity
  8
0
100
AcDbBlockEnd
  0
BLOCK
  5
6826
330
6823
100
AcDbEntity
  8
L210_
100
AcDbBlockBegin
  2
B2841
 70
     0
 10
0.0
 20
0.0
 30
0.0
  3
B2841
  1

  0
DIMENSION
  5
6824
330
6823
100
AcDbEntity
  8
L210_
100
AcDbDimension
  2
*D3
 10
2622.5532226562
 20
3196.6691894532
 30
0.0
 11
2658.4084472656
 21
3652.5883789063
 31
0.0
 70
     3
  1
 
 71
     5
 42
-1.0
100
AcDbDiametricDimension
 15
2618.263183593799
 25
3188.757568359398
 35
0.0
 40
116.0005747846635
  0
INSERT
  5
6825
330
6823
100
AcDbEntity
  8
L0_
  6
Continuous
100
AcDbBlockReference
  2
B2837
 10
0.0
 20
0.0
 30
0.0
  0
ENDBLK
  5
6827
330
6823
100
AcDbEntity
  8
L210_
100
AcDbBlockEnd
  0
BLOCK
  5
685A
330
6857
100
AcDbEntity
  8
L0_
  6
Continuous
100
AcDbBlockBegin
  2
B4515
 70
     0
 10
0.0
 20
0.0
 30
0.0
  3
B4515
  1

  0
LWPOLYLINE
  5
6858
330
6857
100
AcDbEntity
  8
L0_
  6
Continuous
100
AcDbPolyline
 90
        3
 70
     0
 43
0.0
 10
2080.641894800232
 20
3577.752173191962
 10
2070.6984863281
 20
3566.2465820313
 10
2083.835956340333
 20
3573.905360111234
  0
LWPOLYLINE
  5
6859
330
6857
100
AcDbEntity
  8
L0_
  6
Continuous
100
AcDbPolyline
 90
        4
 70
     0
 43
0.0
 10
2070.6984863281
 20
3566.2465820313
 10
2156.6696777344
 20
3637.629638671898
 10
2157.9443359375
 20
3637.629638671898
 10
2274.694335937499
 20
3637.629638671898
  0
ENDBLK
  5
685B
330
6857
100
AcDbEntity
  8
L0_
  6
Continuous
100
AcDbBlockEnd
  0
BLOCK
  5
685F
330
685C
100
AcDbEntity
  8
L230_
  6
Continuous
 62
     6
100
AcDbBlockBegin
  2
B4517
 70
     0
 10
0.0
 20
0.0
 30
0.0
  3
B4517
  1

  0
INSERT
  5
685D
330
685C
100
AcDbEntity
  8
L0_
  6
Continuous
100
AcDbBlockReference
  2
B4515
 10
0.0
 20
0.0
 30
0.0
  0
TEXT
  5
685E
330
685C
100
AcDbEntity
  8
L0_
  6
Continuous
100
AcDbText
 10
2167.3193359375
 20
3647.0046386719
 30
0.0
 40
15.0
  1
Insulator
 41
0.8893617021276597
  7
LEROY
 72
     5
 11
2271.8193359375
 21
3647.0046386719
 31
0.0
100
AcDbText
 73
     2
  0
ENDBLK
  5
6860
330
685C
100
AcDbEntity
  8
L230_
  6
Continuous
 62
     6
100
AcDbBlockEnd
  0
BLOCK
  5
6864
330
6861
100
AcDbEntity
  8
L0_
  6
Continuous
100
AcDbBlockBegin
  2
B4521
 70
     0
 10
0.0
 20
0.0
 30
0.0
  3
B4521
  1

  0
LWPOLYLINE
  5
6862
330
6861
100
AcDbEntity
  8
L0_
  6
Continuous
100
AcDbPolyline
 90
        3
 70
     0
 43
0.0
 10
2097.900399026018
 20
3515.880252433286
 10
2088.698486328099
 20
3527.9870605469
 10
2093.476465978473
 20
3513.550270375236
  0
LWPOLYLINE
  5
6863
330
6861
100
AcDbEntity
  8
L0_
  6
Continuous
100
AcDbPolyline
 90
        4
 70
     0
 43
0.0
 10
2088.698486328099
 20
3527.9870605469
 10
2130.16796875
 20
3449.249023437499
 10
2131.099853515599
 20
3449.249023437499
 10
2373.3498535156
 20
3449.249023437499
  0
ENDBLK
  5
6865
330
6861
100
AcDbEntity
  8
L0_
  6
Continuous
100
AcDbBlockEnd
  0
BLOCK
  5
6869
330
6866
100
AcDbEntity
  8
L230_
  6
Continuous
 62
     6
100
AcDbBlockBegin
  2
B4523
 70
     0
 10
0.0
 20
0.0
 30
0.0
  3
B4523
  1

  0
INSERT
  5
6867
330
6866
100
AcDbEntity
  8
L0_
  6
Continuous
100
AcDbBlockReference
  2
B4521
 10
0.0
 20
0.0
 30
0.0
  0
TEXT
  5
6868
330
6866
100
AcDbEntity
  8
L0_
  6
Continuous
100
AcDbText
 10
2140.4748535156
 20
3458.624023437499
 30
0.0
 40
15.0
  1
M8 mounting screw
 41
0.953124999999996
  7
LEROY
 72
     5
 11
2369.224853515599
 21
3458.624023437499
 31
0.0
100
AcDbText
 73
     2
  0
ENDBLK
  5
686A
330
6866
100
AcDbEntity
  8
L230_
  6
Continuous
 62
     6
100
AcDbBlockEnd
  0
BLOCK
  5
686E
330
686B
100
AcDbEntity
  8
L0_
  6
Continuous
100
AcDbBlockBegin
  2
B4527
 70
     0
 10
0.0
 20
0.0
 30
0.0
  3
B4527
  1

  0
LWPOLYLINE
  5
686C
330
686B
100
AcDbEntity
  8
L0_
  6
Continuous
100
AcDbPolyline
 90
        3
 70
     0
 43
0.0
 10
2103.226365324067
 20
3186.096922203727
 10
2088.698486328099
 20
3190.5903320313
 10
2100.983752461289
 20
3181.628064682201
  0
LWPOLYLINE
  5
686D
330
686B
100
AcDbEntity
  8
L0_
  6
Continuous
100
AcDbPolyline
 90
        4
 70
     0
 43
0.0
 10
2088.698486328099
 20
3190.5903320313
 10
2224.342285156299
 20
3122.5200195313
 10
2225.397705078099
 20
3122.5200195313
 10
2467.6477050781
 20
3122.5200195313
  0
ENDBLK
  5
686F
330
686B
100
AcDbEntity
  8
L0_
  6
Continuous
100
AcDbBlockEnd
  0
BLOCK
  5
6873
330
6870
100
AcDbEntity
  8
L230_
  6
Continuous
 62
     6
100
AcDbBlockBegin
  2
B4529
 70
     0
 10
0.0
 20
0.0
 30
0.0
  3
B4529
  1

  0
INSERT
  5
6871
330
6870
100
AcDbEntity
  8
L0_
  6
Continuous
100
AcDbBlockReference
  2
B4527
 10
0.0
 20
0.0
 30
0.0
  0
TEXT
  5
6872
330
6870
100
AcDbEntity
  8
L0_
  6
Continuous
100
AcDbText
 10
2234.772705078099
 20
3131.8950195313
 30
0.0
 40
15.0
  1
M8 mounting screw
 41
0.9531250000000037
  7
LEROY
 72
     5
 11
2463.5227050781
 21
3131.8950195313
 31
0.0
100
AcDbText
 73
     2
  0
ENDBLK
  5
6874
330
6870
100
AcDbEntity
  8
L230_
  6
Continuous
 62
     6
100
AcDbBlockEnd
  0
BLOCK
  5
6CA0
330
6C96
100
AcDbEntity
  8
0
100
AcDbBlockBegin
  2
*D11
 70
     1
 10
0.0
 20
0.0
 30
0.0
  3
*D11
  1

  0
LINE
  5
7222
330
6C96
100
AcDbEntity
  8
30
  6
Continuous
 62
     0
100
AcDbLine
 10
47.49993896484999
 20
-271.0
 30
0.0
 11
47.49993896484999
 21
-306.0330128661743
 31
0.0
  0
LINE
  5
7223
330
6C96
100
AcDbEntity
  8
30
  6
Continuous
 62
     0
100
AcDbLine
 10
92.49981689452987
 20
-271.0
 30
0.0
 11
92.49981689452987
 21
-306.0330128661743
 31
0.0
  0
LINE
  5
7224
330
6C96
100
AcDbEntity
  8
30
  6
Continuous
 62
     0
100
AcDbLine
 10
49.49993896485
 20
-305.5330128661744
 30
0.0
 11
90.49981689452987
 21
-305.5330128661744
 31
0.0
  0
INSERT
  5
7225
330
6C96
100
AcDbEntity
  8
30
  6
Continuous
 62
     0
100
AcDbBlockReference
  2
_OPEN
 10
47.49993896484999
 20
-305.5330128661744
 30
0.0
 41
2.0
 42
2.0
 43
2.0
 50
180.0
  0
INSERT
  5
7226
330
6C96
100
AcDbEntity
  8
30
  6
Continuous
 62
     0
100
AcDbBlockReference
  2
_OPEN
 10
92.49981689452987
 20
-305.5330128661744
 30
0.0
 41
2.0
 42
2.0
 43
2.0
  0
MTEXT
  5
7227
330
6C96
100
AcDbEntity
  8
30
  6
Continuous
 62
     0
100
AcDbMText
 10
69.99987792968993
 20
-301.0330128661743
 30
0.0
 40
7.0
 41
0.0
 71
     5
 72
     1
  1
\A1;45
 73
     1
 44
1.0
1001
ACAD
1000
MTEXTBEGIN
1070
    73
1070
     1
1070
    44
1040
1.0
1070
    74
1070
     0
1000
MTEXTEND
1000
MTEXTBEGIN
1070
    73
1070
     1
1070
    44
1040
1.0
1070
    74
1070
     0
1000
MTEXTEND
  0
POINT
  5
7228
330
6C96
100
AcDbEntity
  8
DEFPOINTS
  6
Continuous
 62
     0
100
AcDbPoint
 10
47.49993896484999
 20
-270.0
 30
0.0
  0
POINT
  5
7229
330
6C96
100
AcDbEntity
  8
DEFPOINTS
  6
Continuous
 62
     0
100
AcDbPoint
 10
92.49981689452987
 20
-270.0
 30
0.0
  0
POINT
  5
722A
330
6C96
100
AcDbEntity
  8
DEFPOINTS
  6
Continuous
 62
     0
100
AcDbPoint
 10
92.49981689452987
 20
-305.5330128661744
 30
0.0
  0
ENDBLK
  5
6CA1
330
6C96
100
AcDbEntity
  8
0
100
AcDbBlockEnd
  0
BLOCK
  5
6CAD
330
6CA3
100
AcDbEntity
  8
0
100
AcDbBlockBegin
  2
*D12
 70
     1
 10
0.0
 20
0.0
 30
0.0
  3
*D12
  1

  0
LINE
  5
722B
330
6CA3
100
AcDbEntity
  8
30
  6
Continuous
 62
     0
100
AcDbLine
 10
-69.99987792967989
 20
-290.9890136718999
 30
0.0
 11
-69.99987792967989
 21
-318.9852668063658
 31
0.0
  0
LINE
  5
722C
330
6CA3
100
AcDbEntity
  8
30
  6
Continuous
 62
     0
100
AcDbLine
 10
0.0000610351701197
 20
-290.9890136718999
 30
0.0
 11
0.000061035170118
 21
-318.9852668063658
 31
0.0
  0
LINE
  5
722D
330
6CA3
100
AcDbEntity
  8
30
  6
Continuous
 62
     0
100
AcDbLine
 10
-67.99987792967988
 20
-318.4852668063658
 30
0.0
 11
-1.99993896482988
 21
-318.4852668063658
 31
0.0
  0
INSERT
  5
722E
330
6CA3
100
AcDbEntity
  8
30
  6
Continuous
 62
     0
100
AcDbBlockReference
  2
_OPEN
 10
-69.99987792967989
 20
-318.4852668063658
 30
0.0
 41
2.0
 42
2.0
 43
2.0
 50
180.0
  0
INSERT
  5
722F
330
6CA3
100
AcDbEntity
  8
30
  6
Continuous
 62
     0
100
AcDbBlockReference
  2
_OPEN
 10
0.0000610351701181
 20
-318.4852668063658
 30
0.0
 41
2.0
 42
2.0
 43
2.0
  0
MTEXT
  5
7230
330
6CA3
100
AcDbEntity
  8
30
  6
Continuous
 62
     0
100
AcDbMText
 10
-34.99990844725487
 20
-313.9852668063658
 30
0.0
 40
7.0
 41
0.0
 71
     5
 72
     1
  1
\A1;70
 73
     1
 44
1.0
1001
ACAD
1000
MTEXTBEGIN
1070
    73
1070
     1
1070
    44
1040
1.0
1070
    74
1070
     0
1000
MTEXTEND
1000
MTEXTBEGIN
1070
    73
1070
     1
1070
    44
1040
1.0
1070
    74
1070
     0
1000
MTEXTEND
  0
POINT
  5
7231
330
6CA3
100
AcDbEntity
  8
DEFPOINTS
  6
Continuous
 62
     0
100
AcDbPoint
 10
-69.99987792967989
 20
-289.9890136719
 30
0.0
  0
POINT
  5
7232
330
6CA3
100
AcDbEntity
  8
DEFPOINTS
  6
Continuous
 62
     0
100
AcDbPoint
 10
0.0000610351701198
 20
-289.9890136719
 30
0.0
  0
POINT
  5
7233
330
6CA3
100
AcDbEntity
  8
DEFPOINTS
  6
Continuous
 62
     0
100
AcDbPoint
 10
0.0000610351701181
 20
-318.4852668063658
 30
0.0
  0
ENDBLK
  5
6CAE
330
6CA3
100
AcDbEntity
  8
0
100
AcDbBlockEnd
  0
BLOCK
  5
6CBA
330
6CB0
100
AcDbEntity
  8
0
100
AcDbBlockBegin
  2
*D13
 70
     1
 10
0.0
 20
0.0
 30
0.0
  3
*D13
  1

  0
LINE
  5
741A
330
6CB0
100
AcDbEntity
  8
30
  6
Continuous
 62
     0
100
AcDbLine
 10
0.0000610351701197
 20
-290.9890136718999
 30
0.0
 11
0.000061035170118
 21
-318.9852668063658
 31
0.0
  0
LINE
  5
741B
330
6CB0
100
AcDbEntity
  8
30
  6
Continuous
 62
     0
100
AcDbLine
 10
69.99993896485
 20
-290.9890136718999
 30
0.0
 11
69.99993896485
 21
-318.9852668063658
 31
0.0
  0
LINE
  5
741C
330
6CB0
100
AcDbEntity
  8
30
  6
Continuous
 62
     0
100
AcDbLine
 10
2.000061035170118
 20
-318.4852668063658
 30
0.0
 11
67.99993896485
 21
-318.4852668063658
 31
0.0
  0
INSERT
  5
741D
330
6CB0
100
AcDbEntity
  8
30
  6
Continuous
 62
     0
100
AcDbBlockReference
  2
_OPEN
 10
0.0000610351701181
 20
-318.4852668063658
 30
0.0
 41
2.0
 42
2.0
 43
2.0
 50
180.0
  0
INSERT
  5
741E
330
6CB0
100
AcDbEntity
  8
30
  6
Continuous
 62
     0
100
AcDbBlockReference
  2
_OPEN
 10
69.99993896485
 20
-318.4852668063658
 30
0.0
 41
2.0
 42
2.0
 43
2.0
  0
MTEXT
  5
741F
330
6CB0
100
AcDbEntity
  8
30
  6
Continuous
 62
     0
100
AcDbMText
 10
35.00000000001005
 20
-313.9852668063658
 30
0.0
 40
7.0
 41
0.0
 71
     5
 72
     1
  1
\A1;70
 73
     1
 44
1.0
  0
POINT
  5
7420
330
6CB0
100
AcDbEntity
  8
DEFPOINTS
  6
Continuous
 62
     0
100
AcDbPoint
 10
0.0000610351701198
 20
-289.9890136719
 30
0.0
  0
POINT
  5
7421
330
6CB0
100
AcDbEntity
  8
DEFPOINTS
  6
Continuous
 62
     0
100
AcDbPoint
 10
69.99993896485
 20
-289.9890136719
 30
0.0
  0
POINT
  5
7422
330
6CB0
100
AcDbEntity
  8
DEFPOINTS
  6
Continuous
 62
     0
100
AcDbPoint
 10
69.99993896485
 20
-318.4852668063658
 30
0.0
  0
ENDBLK
  5
6CBB
330
6CB0
100
AcDbEntity
  8
0
100
AcDbBlockEnd
  0
BLOCK
  5
6CC7
330
6CBD
100
AcDbEntity
  8
0
100
AcDbBlockBegin
  2
*D14
 70
     1
 10
0.0
 20
0.0
 30
0.0
  3
*D14
  1

  0
LINE
  5
723D
330
6CBD
100
AcDbEntity
  8
30
  6
Continuous
 62
     0
100
AcDbLine
 10
-105.0
 20
-171.0
 30
0.0
 11
-105.0
 21
-336.3207924016778
 31
0.0
  0
LINE
  5
723E
330
6CBD
100
AcDbEntity
  8
30
  6
Continuous
 62
     0
100
AcDbLine
 10
104.9998168945297
 20
-171.0
 30
0.0
 11
104.9998168945297
 21
-336.3207924016778
 31
0.0
  0
LINE
  5
723F
330
6CBD
100
AcDbEntity
  8
30
  6
Continuous
 62
     0
100
AcDbLine
 10
-103.0
 20
-335.8207924016777
 30
0.0
 11
102.9998168945297
 21
-335.8207924016777
 31
0.0
  0
INSERT
  5
7240
330
6CBD
100
AcDbEntity
  8
30
  6
Continuous
 62
     0
100
AcDbBlockReference
  2
_OPEN
 10
-105.0
 20
-335.8207924016777
 30
0.0
 41
2.0
 42
2.0
 43
2.0
 50
180.0
  0
INSERT
  5
7241
330
6CBD
100
AcDbEntity
  8
30
  6
Continuous
 62
     0
100
AcDbBlockReference
  2
_OPEN
 10
104.9998168945297
 20
-335.8207924016777
 30
0.0
 41
2.0
 42
2.0
 43
2.0
  0
MTEXT
  5
7242
330
6CBD
100
AcDbEntity
  8
30
  6
Continuous
 62
     0
100
AcDbMText
 10
-0.0000915527351137
 20
-331.3207924016777
 30
0.0
 40
7.0
 41
0.0
 71
     5
 72
     1
  1
\A1;210
 73
     1
 44
1.0
1001
ACAD
1000
MTEXTBEGIN
1070
    73
1070
     1
1070
    44
1040
1.0
1070
    74
1070
     0
1000
MTEXTEND
1000
MTEXTBEGIN
1070
    73
1070
     1
1070
    44
1040
1.0
1070
    74
1070
     0
1000
MTEXTEND
  0
POINT
  5
7243
330
6CBD
100
AcDbEntity
  8
DEFPOINTS
  6
Continuous
 62
     0
100
AcDbPoint
 10
-105.0
 20
-170.0
 30
0.0
  0
POINT
  5
7244
330
6CBD
100
AcDbEntity
  8
DEFPOINTS
  6
Continuous
 62
     0
100
AcDbPoint
 10
104.9998168945297
 20
-170.0
 30
0.0
  0
POINT
  5
7245
330
6CBD
100
AcDbEntity
  8
DEFPOINTS
  6
Continuous
 62
     0
100
AcDbPoint
 10
104.9998168945297
 20
-335.8207924016777
 30
0.0
  0
ENDBLK
  5
6CC8
330
6CBD
100
AcDbEntity
  8
0
100
AcDbBlockEnd
  0
BLOCK
  5
6CD4
330
6CCA
100
AcDbEntity
  8
0
100
AcDbBlockBegin
  2
*D15
 70
     1
 10
0.0
 20
0.0
 30
0.0
  3
*D15
  1

  0
LINE
  5
7246
330
6CCA
100
AcDbEntity
  8
30
  6
Continuous
 62
     0
100
AcDbLine
 10
93.49981689452986
 20
300.0
 30
0.0
 11
121.6719315502376
 21
300.0
 31
0.0
  0
LINE
  5
7247
330
6CCA
100
AcDbEntity
  8
30
  6
Continuous
 62
     0
100
AcDbLine
 10
77.49993896485
 20
285.0
 30
0.0
 11
121.6719315502376
 21
285.0
 31
0.0
  0
LINE
  5
7248
330
6CCA
100
AcDbEntity
  8
30
  6
Continuous
 62
     0
100
AcDbLine
 10
121.1719315502375
 20
298.0
 30
0.0
 11
121.1719315502375
 21
287.0
 31
0.0
  0
INSERT
  5
7249
330
6CCA
100
AcDbEntity
  8
30
  6
Continuous
 62
     0
100
AcDbBlockReference
  2
_OPEN
 10
121.1719315502375
 20
300.0
 30
0.0
 41
2.0
 42
2.0
 43
2.0
 50
90.0
  0
INSERT
  5
724A
330
6CCA
100
AcDbEntity
  8
30
  6
Continuous
 62
     0
100
AcDbBlockReference
  2
_OPEN
 10
121.1719315502375
 20
285.0
 30
0.0
 41
2.0
 42
2.0
 43
2.0
 50
270.0
  0
MTEXT
  5
724B
330
6CCA
100
AcDbEntity
  8
30
  6
Continuous
 62
     0
100
AcDbMText
 10
116.6719315502376
 20
292.5
 30
0.0
 40
7.0
 41
0.0
 71
     5
 72
     1
  1
\A1;15
 11
0.0000000000000001
 21
1.0
 31
0.0
 73
     1
 44
1.0
1001
ACAD
1000
MTEXTBEGIN
1070
    73
1070
     1
1070
    44
1040
1.0
1070
    74
1070
     0
1000
MTEXTEND
1000
MTEXTBEGIN
1070
    73
1070
     1
1070
    44
1040
1.0
1070
    74
1070
     0
1000
MTEXTEND
  0
POINT
  5
724C
330
6CCA
100
AcDbEntity
  8
DEFPOINTS
  6
Continuous
 62
     0
100
AcDbPoint
 10
92.49981689452987
 20
300.0
 30
0.0
  0
POINT
  5
724D
330
6CCA
100
AcDbEntity
  8
DEFPOINTS
  6
Continuous
 62
     0
100
AcDbPoint
 10
76.49993896485
 20
285.0
 30
0.0
  0
POINT
  5
724E
330
6CCA
100
AcDbEntity
  8
DEFPOINTS
  6
Continuous
 62
     0
100
AcDbPoint
 10
121.1719315502375
 20
285.0
 30
0.0
  0
ENDBLK
  5
6CD5
330
6CCA
100
AcDbEntity
  8
0
100
AcDbBlockEnd
  0
BLOCK
  5
6CE1
330
6CD7
100
AcDbEntity
  8
0
100
AcDbBlockBegin
  2
*D16
 70
     1
 10
0.0
 20
0.0
 30
0.0
  3
*D16
  1

  0
LINE
  5
7423
330
6CD7
100
AcDbEntity
  8
30
  6
Continuous
 62
     0
100
AcDbLine
 10
77.49993896485
 20
285.0
 30
0.0
 11
121.6719315502376
 21
285.0
 31
0.0
  0
LINE
  5
7424
330
6CD7
100
AcDbEntity
  8
30
  6
Continuous
 62
     0
100
AcDbLine
 10
85.99981689452986
 20
253.0
 30
0.0
 11
121.6719315502376
 21
253.0
 31
0.0
  0
LINE
  5
7425
330
6CD7
100
AcDbEntity
  8
30
  6
Continuous
 62
     0
100
AcDbLine
 10
121.1719315502375
 20
283.0
 30
0.0
 11
121.1719315502375
 21
255.0
 31
0.0
  0
INSERT
  5
7426
330
6CD7
100
AcDbEntity
  8
30
  6
Continuous
 62
     0
100
AcDbBlockReference
  2
_OPEN
 10
121.1719315502375
 20
285.0
 30
0.0
 41
2.0
 42
2.0
 43
2.0
 50
90.0
  0
INSERT
  5
7427
330
6CD7
100
AcDbEntity
  8
30
  6
Continuous
 62
     0
100
AcDbBlockReference
  2
_OPEN
 10
121.1719315502375
 20
253.0
 30
0.0
 41
2.0
 42
2.0
 43
2.0
 50
270.0
  0
MTEXT
  5
7428
330
6CD7
100
AcDbEntity
  8
30
  6
Continuous
 62
     0
100
AcDbMText
 10
116.6719315502374
 20
269.0
 30
0.0
 40
7.0
 41
0.0
 71
     5
 72
     1
  1
\A1;32
 11
0.0000000000000001
 21
1.0
 31
0.0
 73
     1
 44
1.0
  0
POINT
  5
7429
330
6CD7
100
AcDbEntity
  8
DEFPOINTS
  6
Continuous
 62
     0
100
AcDbPoint
 10
76.49993896485
 20
285.0
 30
0.0
  0
POINT
  5
742A
330
6CD7
100
AcDbEntity
  8
DEFPOINTS
  6
Continuous
 62
     0
100
AcDbPoint
 10
84.99981689452987
 20
253.0
 30
0.0
  0
POINT
  5
742B
330
6CD7
100
AcDbEntity
  8
DEFPOINTS
  6
Continuous
 62
     0
100
AcDbPoint
 10
121.1719315502375
 20
253.0
 30
0.0
  0
ENDBLK
  5
6CE2
330
6CD7
100
AcDbEntity
  8
0
100
AcDbBlockEnd
  0
BLOCK
  5
6CEE
330
6CE4
100
AcDbEntity
  8
0
100
AcDbBlockBegin
  2
*D17
 70
     1
 10
0.0
 20
0.0
 30
0.0
  3
*D17
  1

  0
LINE
  5
742C
330
6CE4
100
AcDbEntity
  8
30
  6
Continuous
 62
     0
100
AcDbLine
 10
85.99981689452986
 20
253.0
 30
0.0
 11
121.6719315502376
 21
253.0
 31
0.0
  0
LINE
  5
742D
330
6CE4
100
AcDbEntity
  8
30
  6
Continuous
 62
     0
100
AcDbLine
 10
105.9998168945297
 20
200.0
 30
0.0
 11
121.6719315502376
 21
200.0
 31
0.0
  0
LINE
  5
742E
330
6CE4
100
AcDbEntity
  8
30
  6
Continuous
 62
     0
100
AcDbLine
 10
121.1719315502375
 20
251.0
 30
0.0
 11
121.1719315502375
 21
202.0
 31
0.0
  0
INSERT
  5
742F
330
6CE4
100
AcDbEntity
  8
30
  6
Continuous
 62
     0
100
AcDbBlockReference
  2
_OPEN
 10
121.1719315502375
 20
253.0
 30
0.0
 41
2.0
 42
2.0
 43
2.0
 50
90.0
  0
INSERT
  5
7430
330
6CE4
100
AcDbEntity
  8
30
  6
Continuous
 62
     0
100
AcDbBlockReference
  2
_OPEN
 10
121.1719315502375
 20
200.0
 30
0.0
 41
2.0
 42
2.0
 43
2.0
 50
270.0
  0
MTEXT
  5
7431
330
6CE4
100
AcDbEntity
  8
30
  6
Continuous
 62
     0
100
AcDbMText
 10
116.6719315502374
 20
226.5
 30
0.0
 40
7.0
 41
0.0
 71
     5
 72
     1
  1
\A1;53
 11
0.0000000000000001
 21
1.0
 31
0.0
 73
     1
 44
1.0
  0
POINT
  5
7432
330
6CE4
100
AcDbEntity
  8
DEFPOINTS
  6
Continuous
 62
     0
100
AcDbPoint
 10
84.99981689452987
 20
253.0
 30
0.0
  0
POINT
  5
7433
330
6CE4
100
AcDbEntity
  8
DEFPOINTS
  6
Continuous
 62
     0
100
AcDbPoint
 10
104.9998168945297
 20
200.0
 30
0.0
  0
POINT
  5
7434
330
6CE4
100
AcDbEntity
  8
DEFPOINTS
  6
Continuous
 62
     0
100
AcDbPoint
 10
121.1719315502375
 20
200.0
 30
0.0
  0
ENDBLK
  5
6CEF
330
6CE4
100
AcDbEntity
  8
0
100
AcDbBlockEnd
  0
BLOCK
  5
6CFA
330
6CF1
100
AcDbEntity
  8
0
100
AcDbBlockBegin
  2
*D18
 70
     1
 10
0.0
 20
0.0
 30
0.0
  3
*D18
  1

  0
LINE
  5
7261
330
6CF1
100
AcDbEntity
  8
30
  6
Continuous
 62
     0
100
AcDbLine
 10
118.3332722981834
 20
317.0899999999998
 30
0.0
 11
100.9999389648501
 21
317.0899999999998
 31
0.0
  0
LINE
  5
7262
330
6CF1
100
AcDbEntity
  8
30
  6
Continuous
 62
     0
100
AcDbLine
 10
100.9999389648501
 20
317.0899999999998
 30
0.0
 11
75.91419829937951
 21
291.1950418937077
 31
0.0
  0
MTEXT
  5
7263
330
6CF1
100
AcDbEntity
  8
30
  6
Continuous
 62
     0
100
AcDbMText
 10
110.1666056315167
 20
321.5899999999998
 30
0.0
 40
7.0
 41
0.0
 71
     5
 72
     1
  1
\A1;\U+220513
 73
     1
 44
1.0
1001
ACAD
1000
MTEXTBEGIN
1070
    73
1070
     1
1070
    44
1040
1.0
1070
    74
1070
     0
1000
MTEXTEND
1000
MTEXTBEGIN
1070
    73
1070
     1
1070
    44
1040
1.0
1070
    74
1070
     0
1000
MTEXTEND
  0
INSERT
  5
7264
330
6CF1
100
AcDbEntity
  8
30
  6
Continuous
 62
     0
100
AcDbBlockReference
  2
_OPEN
 10
74.52260786772547
 20
289.7585614481295
 30
0.0
 41
2.0
 42
2.0
 43
2.0
 50
225.9093804491988
  0
LINE
  5
7265
330
6CF1
100
AcDbEntity
  8
30
  6
Continuous
 62
     0
100
AcDbLine
 10
69.9099389648499
 20
285.0899999999998
 30
0.0
 11
70.08993896484986
 21
285.0899999999997
 31
0.0
  0
LINE
  5
7266
330
6CF1
100
AcDbEntity
  8
30
  6
Continuous
 62
     0
100
AcDbLine
 10
69.99993896484991
 20
285.0
 30
0.0
 11
69.99993896484991
 21
285.1799999999999
 31
0.0
  0
POINT
  5
7267
330
6CF1
100
AcDbEntity
  8
DEFPOINTS
  6
Continuous
 62
     0
100
AcDbPoint
 10
74.52260786772547
 20
289.7585614481295
 30
0.0
  0
POINT
  5
7268
330
6CF1
100
AcDbEntity
  8
DEFPOINTS
  6
Continuous
 62
     0
100
AcDbPoint
 10
65.47727006197431
 20
280.4214385518704
 30
0.0
  0
ENDBLK
  5
6CFB
330
6CF1
100
AcDbEntity
  8
0
100
AcDbBlockEnd
  0
BLOCK
  5
6D20
330
6D16
100
AcDbEntity
  8
0
100
AcDbBlockBegin
  2
*D19
 70
     1
 10
0.0
 20
0.0
 30
0.0
  3
*D19
  1

  0
LINE
  5
7269
330
6D16
100
AcDbEntity
  8
30
  6
Continuous
 62
     0
100
AcDbLine
 10
-106.0
 20
501.1509476533529
 30
0.0
 11
-119.4999999999997
 21
501.1509476533529
 31
0.0
  0
LINE
  5
726A
330
6D16
100
AcDbEntity
  8
30
  6
Continuous
 62
     0
100
AcDbLine
 10
-106.0
 20
361.1509476533528
 30
0.0
 11
-119.5
 21
361.1509476533528
 31
0.0
  0
LINE
  5
726B
330
6D16
100
AcDbEntity
  8
30
  6
Continuous
 62
     0
100
AcDbLine
 10
-118.9999999999999
 20
499.1509476533528
 30
0.0
 11
-119.0
 21
363.1509476533528
 31
0.0
  0
INSERT
  5
726C
330
6D16
100
AcDbEntity
  8
30
  6
Continuous
 62
     0
100
AcDbBlockReference
  2
_OPEN
 10
-118.9999999999999
 20
501.1509476533529
 30
0.0
 41
2.0
 42
2.0
 43
2.0
 50
90.0
  0
INSERT
  5
726D
330
6D16
100
AcDbEntity
  8
30
  6
Continuous
 62
     0
100
AcDbBlockReference
  2
_OPEN
 10
-119.0
 20
361.1509476533528
 30
0.0
 41
2.0
 42
2.0
 43
2.0
 50
270.0
  0
MTEXT
  5
726E
330
6D16
100
AcDbEntity
  8
30
  6
Continuous
 62
     0
100
AcDbMText
 10
-123.5
 20
431.1509476533529
 30
0.0
 40
7.0
 41
0.0
 71
     5
 72
     1
  1
\A1;140
 11
0.0000000000000001
 21
1.0
 31
0.0
 73
     1
 44
1.0
1001
ACAD
1000
MTEXTBEGIN
1070
    73
1070
     1
1070
    44
1040
1.0
1070
    74
1070
     0
1000
MTEXTEND
1000
MTEXTBEGIN
1070
    73
1070
     1
1070
    44
1040
1.0
1070
    74
1070
     0
1000
MTEXTEND
  0
POINT
  5
726F
330
6D16
100
AcDbEntity
  8
DEFPOINTS
  6
Continuous
 62
     0
100
AcDbPoint
 10
-105.0
 20
501.1509476533529
 30
0.0
  0
POINT
  5
7270
330
6D16
100
AcDbEntity
  8
DEFPOINTS
  6
Continuous
 62
     0
100
AcDbPoint
 10
-105.0
 20
361.1509476533528
 30
0.0
  0
POINT
  5
7271
330
6D16
100
AcDbEntity
  8
DEFPOINTS
  6
Continuous
 62
     0
100
AcDbPoint
 10
-119.0
 20
361.1509476533528
 30
0.0
  0
ENDBLK
  5
6D21
330
6D16
100
AcDbEntity
  8
0
100
AcDbBlockEnd
  0
BLOCK
  5
6D67
330
6D5D
100
AcDbEntity
  8
0
100
AcDbBlockBegin
  2
*D20
 70
     1
 10
0.0
 20
0.0
 30
0.0
  3
*D20
  1

  0
LINE
  5
7435
330
6D5D
100
AcDbEntity
  8
30
  6
Continuous
 62
     0
100
AcDbLine
 10
442.0
 20
301.0
 30
0.0
 11
442.0
 21
328.7168640744837
 31
0.0
  0
LINE
  5
7436
330
6D5D
100
AcDbEntity
  8
30
  6
Continuous
 62
     0
100
AcDbLine
 10
422.0
 20
301.0
 30
0.0
 11
422.0
 21
328.7168640744837
 31
0.0
  0
LINE
  5
7437
330
6D5D
100
AcDbEntity
  8
30
  6
Continuous
 62
     0
100
AcDbLine
 10
440.0
 20
328.2168640744838
 30
0.0
 11
424.0
 21
328.2168640744838
 31
0.0
  0
INSERT
  5
7438
330
6D5D
100
AcDbEntity
  8
30
  6
Continuous
 62
     0
100
AcDbBlockReference
  2
_OPEN
 10
442.0
 20
328.2168640744838
 30
0.0
 41
2.0
 42
2.0
 43
2.0
  0
INSERT
  5
7439
330
6D5D
100
AcDbEntity
  8
30
  6
Continuous
 62
     0
100
AcDbBlockReference
  2
_OPEN
 10
422.0
 20
328.2168640744838
 30
0.0
 41
2.0
 42
2.0
 43
2.0
 50
180.0
  0
MTEXT
  5
743A
330
6D5D
100
AcDbEntity
  8
30
  6
Continuous
 62
     0
100
AcDbMText
 10
432.0
 20
332.7168640744837
 30
0.0
 40
7.0
 41
0.0
 71
     5
 72
     1
  1
\A1;20
 73
     1
 44
1.0
  0
POINT
  5
743B
330
6D5D
100
AcDbEntity
  8
DEFPOINTS
  6
Continuous
 62
     0
100
AcDbPoint
 10
442.0
 20
300.0
 30
0.0
  0
POINT
  5
743C
330
6D5D
100
AcDbEntity
  8
DEFPOINTS
  6
Continuous
 62
     0
100
AcDbPoint
 10
422.0
 20
300.0
 30
0.0
  0
POINT
  5
743D
330
6D5D
100
AcDbEntity
  8
DEFPOINTS
  6
Continuous
 62
     0
100
AcDbPoint
 10
422.0
 20
328.2168640744838
 30
0.0
  0
ENDBLK
  5
6D68
330
6D5D
100
AcDbEntity
  8
0
100
AcDbBlockEnd
  0
BLOCK
  5
6D74
330
6D6A
100
AcDbEntity
  8
0
100
AcDbBlockBegin
  2
*D21
 70
     1
 10
0.0
 20
0.0
 30
0.0
  3
*D21
  1

  0
LINE
  5
727B
330
6D6A
100
AcDbEntity
  8
30
  6
Continuous
 62
     0
100
AcDbLine
 10
296.0
 20
-1.0
 30
0.0
 11
296.0
 21
-292.9950458463608
 31
0.0
  0
LINE
  5
727C
330
6D6A
100
AcDbEntity
  8
30
  6
Continuous
 62
     0
100
AcDbLine
 10
313.0
 20
-141.0
 30
0.0
 11
313.0
 21
-292.9950458463608
 31
0.0
  0
LINE
  5
727D
330
6D6A
100
AcDbEntity
  8
30
  6
Continuous
 62
     0
100
AcDbLine
 10
298.0
 20
-292.4950458463608
 30
0.0
 11
311.0
 21
-292.4950458463608
 31
0.0
  0
INSERT
  5
727E
330
6D6A
100
AcDbEntity
  8
30
  6
Continuous
 62
     0
100
AcDbBlockReference
  2
_OPEN
 10
296.0
 20
-292.4950458463608
 30
0.0
 41
2.0
 42
2.0
 43
2.0
 50
180.0
  0
INSERT
  5
727F
330
6D6A
100
AcDbEntity
  8
30
  6
Continuous
 62
     0
100
AcDbBlockReference
  2
_OPEN
 10
313.0
 20
-292.4950458463608
 30
0.0
 41
2.0
 42
2.0
 43
2.0
  0
MTEXT
  5
7280
330
6D6A
100
AcDbEntity
  8
30
  6
Continuous
 62
     0
100
AcDbMText
 10
304.4999999999999
 20
-287.9950458463608
 30
0.0
 40
7.0
 41
0.0
 71
     5
 72
     1
  1
\A1;17
 73
     1
 44
1.0
1001
ACAD
1000
MTEXTBEGIN
1070
    73
1070
     1
1070
    44
1040
1.0
1070
    74
1070
     0
1000
MTEXTEND
1000
MTEXTBEGIN
1070
    73
1070
     1
1070
    44
1040
1.0
1070
    74
1070
     0
1000
MTEXTEND
  0
POINT
  5
7281
330
6D6A
100
AcDbEntity
  8
DEFPOINTS
  6
Continuous
 62
     0
100
AcDbPoint
 10
296.0
 20
0.0
 30
0.0
  0
POINT
  5
7282
330
6D6A
100
AcDbEntity
  8
DEFPOINTS
  6
Continuous
 62
     0
100
AcDbPoint
 10
313.0
 20
-140.0
 30
0.0
  0
POINT
  5
7283
330
6D6A
100
AcDbEntity
  8
DEFPOINTS
  6
Continuous
 62
     0
100
AcDbPoint
 10
313.0
 20
-292.4950458463608
 30
0.0
  0
ENDBLK
  5
6D75
330
6D6A
100
AcDbEntity
  8
0
100
AcDbBlockEnd
  0
BLOCK
  5
6D81
330
6D77
100
AcDbEntity
  8
0
100
AcDbBlockBegin
  2
*D22
 70
     1
 10
0.0
 20
0.0
 30
0.0
  3
*D22
  1

  0
LINE
  5
743E
330
6D77
100
AcDbEntity
  8
30
  6
Continuous
 62
     0
100
AcDbLine
 10
313.0
 20
-141.0
 30
0.0
 11
313.0
 21
-292.9950458463608
 31
0.0
  0
LINE
  5
743F
330
6D77
100
AcDbEntity
  8
30
  6
Continuous
 62
     0
100
AcDbLine
 10
453.0
 20
-180.0
 30
0.0
 11
453.0
 21
-292.9950458463608
 31
0.0
  0
LINE
  5
7440
330
6D77
100
AcDbEntity
  8
30
  6
Continuous
 62
     0
100
AcDbLine
 10
315.0
 20
-292.4950458463608
 30
0.0
 11
451.0
 21
-292.4950458463608
 31
0.0
  0
INSERT
  5
7441
330
6D77
100
AcDbEntity
  8
30
  6
Continuous
 62
     0
100
AcDbBlockReference
  2
_OPEN
 10
313.0
 20
-292.4950458463608
 30
0.0
 41
2.0
 42
2.0
 43
2.0
 50
180.0
  0
INSERT
  5
7442
330
6D77
100
AcDbEntity
  8
30
  6
Continuous
 62
     0
100
AcDbBlockReference
  2
_OPEN
 10
453.0
 20
-292.4950458463608
 30
0.0
 41
2.0
 42
2.0
 43
2.0
  0
MTEXT
  5
7443
330
6D77
100
AcDbEntity
  8
30
  6
Continuous
 62
     0
100
AcDbMText
 10
383.0
 20
-287.9950458463608
 30
0.0
 40
7.0
 41
0.0
 71
     5
 72
     1
  1
\A1;140
 73
     1
 44
1.0
  0
POINT
  5
7444
330
6D77
100
AcDbEntity
  8
DEFPOINTS
  6
Continuous
 62
     0
100
AcDbPoint
 10
313.0
 20
-140.0
 30
0.0
  0
POINT
  5
7445
330
6D77
100
AcDbEntity
  8
DEFPOINTS
  6
Continuous
 62
     0
100
AcDbPoint
 10
453.0
 20
-179.0
 30
0.0
  0
POINT
  5
7446
330
6D77
100
AcDbEntity
  8
DEFPOINTS
  6
Continuous
 62
     0
100
AcDbPoint
 10
453.0
 20
-292.4950458463608
 30
0.0
  0
ENDBLK
  5
6D82
330
6D77
100
AcDbEntity
  8
0
100
AcDbBlockEnd
  0
BLOCK
  5
6D9B
330
6D91
100
AcDbEntity
  8
0
100
AcDbBlockBegin
  2
*D23
 70
     1
 10
0.0
 20
0.0
 30
0.0
  3
*D23
  1

  0
LINE
  5
728D
330
6D91
100
AcDbEntity
  8
30
  6
Continuous
 62
     0
100
AcDbLine
 10
387.0
 20
-271.0
 30
0.0
 11
387.0
 21
-283.4588801759837
 31
0.0
  0
LINE
  5
728E
330
6D91
100
AcDbEntity
  8
30
  6
Continuous
 62
     0
100
AcDbLine
 10
407.0
 20
-271.0
 30
0.0
 11
407.0
 21
-283.4588801759837
 31
0.0
  0
LINE
  5
728F
330
6D91
100
AcDbEntity
  8
30
  6
Continuous
 62
     0
100
AcDbLine
 10
389.0
 20
-282.9588801759837
 30
0.0
 11
405.0
 21
-282.9588801759837
 31
0.0
  0
INSERT
  5
7290
330
6D91
100
AcDbEntity
  8
30
  6
Continuous
 62
     0
100
AcDbBlockReference
  2
_OPEN
 10
387.0
 20
-282.9588801759837
 30
0.0
 41
2.0
 42
2.0
 43
2.0
 50
180.0
  0
INSERT
  5
7291
330
6D91
100
AcDbEntity
  8
30
  6
Continuous
 62
     0
100
AcDbBlockReference
  2
_OPEN
 10
407.0
 20
-282.9588801759837
 30
0.0
 41
2.0
 42
2.0
 43
2.0
  0
MTEXT
  5
7292
330
6D91
100
AcDbEntity
  8
30
  6
Continuous
 62
     0
100
AcDbMText
 10
397.0
 20
-278.4588801759837
 30
0.0
 40
7.0
 41
0.0
 71
     5
 72
     1
  1
\A1;20
 73
     1
 44
1.0
1001
ACAD
1000
MTEXTBEGIN
1070
    73
1070
     1
1070
    44
1040
1.0
1070
    74
1070
     0
1000
MTEXTEND
1000
MTEXTBEGIN
1070
    73
1070
     1
1070
    44
1040
1.0
1070
    74
1070
     0
1000
MTEXTEND
  0
POINT
  5
7293
330
6D91
100
AcDbEntity
  8
DEFPOINTS
  6
Continuous
 62
     0
100
AcDbPoint
 10
387.0
 20
-270.0
 30
0.0
  0
POINT
  5
7294
330
6D91
100
AcDbEntity
  8
DEFPOINTS
  6
Continuous
 62
     0
100
AcDbPoint
 10
407.0
 20
-270.0
 30
0.0
  0
POINT
  5
7295
330
6D91
100
AcDbEntity
  8
DEFPOINTS
  6
Continuous
 62
     0
100
AcDbPoint
 10
407.0
 20
-282.9588801759837
 30
0.0
  0
ENDBLK
  5
6D9C
330
6D91
100
AcDbEntity
  8
0
100
AcDbBlockEnd
  0
BLOCK
  5
6DA8
330
6D9E
100
AcDbEntity
  8
0
100
AcDbBlockBegin
  2
*D24
 70
     1
 10
0.0
 20
0.0
 30
0.0
  3
*D24
  1

  0
LINE
  5
7447
330
6D9E
100
AcDbEntity
  8
30
  6
Continuous
 62
     0
100
AcDbLine
 10
407.0
 20
-271.0
 30
0.0
 11
407.0
 21
-283.4588801759837
 31
0.0
  0
LINE
  5
7448
330
6D9E
100
AcDbEntity
  8
30
  6
Continuous
 62
     0
100
AcDbLine
 10
453.0
 20
-181.0
 30
0.0
 11
453.0
 21
-283.4588801759837
 31
0.0
  0
LINE
  5
7449
330
6D9E
100
AcDbEntity
  8
30
  6
Continuous
 62
     0
100
AcDbLine
 10
409.0
 20
-282.9588801759837
 30
0.0
 11
451.0
 21
-282.9588801759837
 31
0.0
  0
INSERT
  5
744A
330
6D9E
100
AcDbEntity
  8
30
  6
Continuous
 62
     0
100
AcDbBlockReference
  2
_OPEN
 10
407.0
 20
-282.9588801759837
 30
0.0
 41
2.0
 42
2.0
 43
2.0
 50
180.0
  0
INSERT
  5
744B
330
6D9E
100
AcDbEntity
  8
30
  6
Continuous
 62
     0
100
AcDbBlockReference
  2
_OPEN
 10
453.0
 20
-282.9588801759837
 30
0.0
 41
2.0
 42
2.0
 43
2.0
  0
MTEXT
  5
744C
330
6D9E
100
AcDbEntity
  8
30
  6
Continuous
 62
     0
100
AcDbMText
 10
430.0
 20
-278.4588801759837
 30
0.0
 40
7.0
 41
0.0
 71
     5
 72
     1
  1
\A1;46
 73
     1
 44
1.0
  0
POINT
  5
744D
330
6D9E
100
AcDbEntity
  8
DEFPOINTS
  6
Continuous
 62
     0
100
AcDbPoint
 10
407.0
 20
-270.0
 30
0.0
  0
POINT
  5
744E
330
6D9E
100
AcDbEntity
  8
DEFPOINTS
  6
Continuous
 62
     0
100
AcDbPoint
 10
453.0
 20
-180.0
 30
0.0
  0
POINT
  5
744F
330
6D9E
100
AcDbEntity
  8
DEFPOINTS
  6
Continuous
 62
     0
100
AcDbPoint
 10
453.0
 20
-282.9588801759837
 30
0.0
  0
ENDBLK
  5
6DA9
330
6D9E
100
AcDbEntity
  8
0
100
AcDbBlockEnd
  0
BLOCK
  5
6DC2
330
6DB8
100
AcDbEntity
  8
0
100
AcDbBlockBegin
  2
*D25
 70
     1
 10
0.0
 20
0.0
 30
0.0
  3
*D25
  1

  0
LINE
  5
729F
330
6DB8
100
AcDbEntity
  8
30
  6
Continuous
 62
     0
100
AcDbLine
 10
313.0
 20
-141.0
 30
0.0
 11
313.0
 21
-194.9087893196516
 31
0.0
  0
LINE
  5
72A0
330
6DB8
100
AcDbEntity
  8
30
  6
Continuous
 62
     0
100
AcDbLine
 10
321.0
 20
-171.0
 30
0.0
 11
321.0
 21
-194.9087893196516
 31
0.0
  0
LINE
  5
72A1
330
6DB8
100
AcDbEntity
  8
30
  6
Continuous
 62
     0
100
AcDbLine
 10
315.0
 20
-194.4087893196519
 30
0.0
 11
319.0
 21
-194.4087893196519
 31
0.0
  0
INSERT
  5
72A2
330
6DB8
100
AcDbEntity
  8
30
  6
Continuous
 62
     0
100
AcDbBlockReference
  2
_OPEN
 10
313.0
 20
-194.4087893196519
 30
0.0
 41
2.0
 42
2.0
 43
2.0
 50
180.0
  0
INSERT
  5
72A3
330
6DB8
100
AcDbEntity
  8
30
  6
Continuous
 62
     0
100
AcDbBlockReference
  2
_OPEN
 10
321.0
 20
-194.4087893196519
 30
0.0
 41
2.0
 42
2.0
 43
2.0
  0
MTEXT
  5
72A4
330
6DB8
100
AcDbEntity
  8
30
  6
Continuous
 62
     0
100
AcDbMText
 10
317.0
 20
-189.9087893196519
 30
0.0
 40
7.0
 41
0.0
 71
     5
 72
     1
  1
\A1;8
 73
     1
 44
1.0
1001
ACAD
1000
MTEXTBEGIN
1070
    73
1070
     1
1070
    44
1040
1.0
1070
    74
1070
     0
1000
MTEXTEND
1000
MTEXTBEGIN
1070
    73
1070
     1
1070
    44
1040
1.0
1070
    74
1070
     0
1000
MTEXTEND
  0
POINT
  5
72A5
330
6DB8
100
AcDbEntity
  8
DEFPOINTS
  6
Continuous
 62
     0
100
AcDbPoint
 10
313.0
 20
-140.0
 30
0.0
  0
POINT
  5
72A6
330
6DB8
100
AcDbEntity
  8
DEFPOINTS
  6
Continuous
 62
     0
100
AcDbPoint
 10
321.0
 20
-170.0
 30
0.0
  0
POINT
  5
72A7
330
6DB8
100
AcDbEntity
  8
DEFPOINTS
  6
Continuous
 62
     0
100
AcDbPoint
 10
321.0
 20
-194.4087893196519
 30
0.0
  0
ENDBLK
  5
6DC3
330
6DB8
100
AcDbEntity
  8
0
100
AcDbBlockEnd
  0
BLOCK
  5
6DDC
330
6DD2
100
AcDbEntity
  8
0
100
AcDbBlockBegin
  2
*D26
 70
     1
 10
0.0
 20
0.0
 30
0.0
  3
*D26
  1

  0
LINE
  5
72A8
330
6DD2
100
AcDbEntity
  8
30
  6
Continuous
 62
     0
100
AcDbLine
 10
425.0
 20
-144.5
 30
0.0
 11
425.0
 21
-123.0687133200817
 31
0.0
  0
LINE
  5
72A9
330
6DD2
100
AcDbEntity
  8
30
  6
Continuous
 62
     0
100
AcDbLine
 10
453.0
 20
-138.0
 30
0.0
 11
453.0
 21
-123.0687133200817
 31
0.0
  0
LINE
  5
72AA
330
6DD2
100
AcDbEntity
  8
30
  6
Continuous
 62
     0
100
AcDbLine
 10
427.0
 20
-123.5687133200817
 30
0.0
 11
451.0
 21
-123.5687133200817
 31
0.0
  0
INSERT
  5
72AB
330
6DD2
100
AcDbEntity
  8
30
  6
Continuous
 62
     0
100
AcDbBlockReference
  2
_OPEN
 10
425.0
 20
-123.5687133200817
 30
0.0
 41
2.0
 42
2.0
 43
2.0
 50
180.0
  0
INSERT
  5
72AC
330
6DD2
100
AcDbEntity
  8
30
  6
Continuous
 62
     0
100
AcDbBlockReference
  2
_OPEN
 10
453.0
 20
-123.5687133200817
 30
0.0
 41
2.0
 42
2.0
 43
2.0
  0
MTEXT
  5
72AD
330
6DD2
100
AcDbEntity
  8
30
  6
Continuous
 62
     0
100
AcDbMText
 10
439.0
 20
-119.0687133200817
 30
0.0
 40
7.0
 41
0.0
 71
     5
 72
     1
  1
\A1;28
 73
     1
 44
1.0
1001
ACAD
1000
MTEXTBEGIN
1070
    73
1070
     1
1070
    44
1040
1.0
1070
    74
1070
     0
1000
MTEXTEND
1000
MTEXTBEGIN
1070
    73
1070
     1
1070
    44
1040
1.0
1070
    74
1070
     0
1000
MTEXTEND
  0
POINT
  5
72AE
330
6DD2
100
AcDbEntity
  8
DEFPOINTS
  6
Continuous
 62
     0
100
AcDbPoint
 10
425.0
 20
-145.5
 30
0.0
  0
POINT
  5
72AF
330
6DD2
100
AcDbEntity
  8
DEFPOINTS
  6
Continuous
 62
     0
100
AcDbPoint
 10
453.0
 20
-139.0
 30
0.0
  0
POINT
  5
72B0
330
6DD2
100
AcDbEntity
  8
DEFPOINTS
  6
Continuous
 62
     0
100
AcDbPoint
 10
453.0
 20
-123.5687133200817
 30
0.0
  0
ENDBLK
  5
6DDD
330
6DD2
100
AcDbEntity
  8
0
100
AcDbBlockEnd
  0
BLOCK
  5
6DE9
330
6DDF
100
AcDbEntity
  8
0
100
AcDbBlockBegin
  2
*D27
 70
     1
 10
0.0
 20
0.0
 30
0.0
  3
*D27
  1

  0
LINE
  5
7450
330
6DDF
100
AcDbEntity
  8
30
  6
Continuous
 62
     0
100
AcDbLine
 10
453.0
 20
-138.0
 30
0.0
 11
453.0
 21
-123.0687133200817
 31
0.0
  0
LINE
  5
7451
330
6DDF
100
AcDbEntity
  8
30
  6
Continuous
 62
     0
100
AcDbLine
 10
471.0
 20
-149.0
 30
0.0
 11
471.0
 21
-123.0687133200817
 31
0.0
  0
LINE
  5
7452
330
6DDF
100
AcDbEntity
  8
30
  6
Continuous
 62
     0
100
AcDbLine
 10
455.0
 20
-123.5687133200817
 30
0.0
 11
469.0
 21
-123.5687133200817
 31
0.0
  0
INSERT
  5
7453
330
6DDF
100
AcDbEntity
  8
30
  6
Continuous
 62
     0
100
AcDbBlockReference
  2
_OPEN
 10
453.0
 20
-123.5687133200817
 30
0.0
 41
2.0
 42
2.0
 43
2.0
 50
180.0
  0
INSERT
  5
7454
330
6DDF
100
AcDbEntity
  8
30
  6
Continuous
 62
     0
100
AcDbBlockReference
  2
_OPEN
 10
471.0
 20
-123.5687133200817
 30
0.0
 41
2.0
 42
2.0
 43
2.0
  0
MTEXT
  5
7455
330
6DDF
100
AcDbEntity
  8
30
  6
Continuous
 62
     0
100
AcDbMText
 10
462.0
 20
-119.0687133200817
 30
0.0
 40
7.0
 41
0.0
 71
     5
 72
     1
  1
\A1;18
 73
     1
 44
1.0
  0
POINT
  5
7456
330
6DDF
100
AcDbEntity
  8
DEFPOINTS
  6
Continuous
 62
     0
100
AcDbPoint
 10
453.0
 20
-139.0
 30
0.0
  0
POINT
  5
7457
330
6DDF
100
AcDbEntity
  8
DEFPOINTS
  6
Continuous
 62
     0
100
AcDbPoint
 10
471.0
 20
-150.0
 30
0.0
  0
POINT
  5
7458
330
6DDF
100
AcDbEntity
  8
DEFPOINTS
  6
Continuous
 62
     0
100
AcDbPoint
 10
471.0
 20
-123.5687133200817
 30
0.0
  0
ENDBLK
  5
6DEA
330
6DDF
100
AcDbEntity
  8
0
100
AcDbBlockEnd
  0
BLOCK
  5
6DF8
330
6DEE
100
AcDbEntity
  8
0
100
AcDbBlockBegin
  2
*D28
 70
     1
 10
0.0
 20
0.0
 30
0.0
  3
*D28
  1

  0
LINE
  5
72BA
330
6DEE
100
AcDbEntity
  8
30
  6
Continuous
 62
     0
100
AcDbLine
 10
182.0001068115459
 20
-0.9999999999999895
 30
0.0
 11
182.0001068115459
 21
-309.58595701602
 31
0.0
  0
LINE
  5
72BB
330
6DEE
100
AcDbEntity
  8
30
  6
Continuous
 62
     0
100
AcDbLine
 10
261.9998397827433
 20
-1.0
 30
0.0
 11
261.9998397827433
 21
-309.58595701602
 31
0.0
  0
LINE
  5
72BC
330
6DEE
100
AcDbEntity
  8
30
  6
Continuous
 62
     0
100
AcDbLine
 10
184.0001068115459
 20
-309.08595701602
 30
0.0
 11
259.9998397827433
 21
-309.08595701602
 31
0.0
  0
INSERT
  5
72BD
330
6DEE
100
AcDbEntity
  8
30
  6
Continuous
 62
     0
100
AcDbBlockReference
  2
_OPEN
 10
182.0001068115459
 20
-309.08595701602
 30
0.0
 41
2.0
 42
2.0
 43
2.0
 50
180.0
  0
INSERT
  5
72BE
330
6DEE
100
AcDbEntity
  8
30
  6
Continuous
 62
     0
100
AcDbBlockReference
  2
_OPEN
 10
261.9998397827433
 20
-309.08595701602
 30
0.0
 41
2.0
 42
2.0
 43
2.0
  0
MTEXT
  5
72BF
330
6DEE
100
AcDbEntity
  8
30
  6
Continuous
 62
     0
100
AcDbMText
 10
221.9999732971445
 20
-304.58595701602
 30
0.0
 40
7.0
 41
0.0
 71
     5
 72
     1
  1
\A1;80
 73
     1
 44
1.0
1001
ACAD
1000
MTEXTBEGIN
1070
    73
1070
     1
1070
    44
1040
1.0
1070
    74
1070
     0
1000
MTEXTEND
1000
MTEXTBEGIN
1070
    73
1070
     1
1070
    44
1040
1.0
1070
    74
1070
     0
1000
MTEXTEND
  0
POINT
  5
72C0
330
6DEE
100
AcDbEntity
  8
DEFPOINTS
  6
Continuous
 62
     0
100
AcDbPoint
 10
182.0001068115459
 20
0.0000000000000105
 30
0.0
  0
POINT
  5
72C1
330
6DEE
100
AcDbEntity
  8
DEFPOINTS
  6
Continuous
 62
     0
100
AcDbPoint
 10
261.9998397827433
 20
-0.0000000000000009
 30
0.0
  0
POINT
  5
72C2
330
6DEE
100
AcDbEntity
  8
DEFPOINTS
  6
Continuous
 62
     0
100
AcDbPoint
 10
261.9998397827433
 20
-309.08595701602
 30
0.0
  0
ENDBLK
  5
6DF9
330
6DEE
100
AcDbEntity
  8
0
100
AcDbBlockEnd
  0
BLOCK
  5
6E05
330
6DFB
100
AcDbEntity
  8
0
100
AcDbBlockBegin
  2
*D29
 70
     1
 10
0.0
 20
0.0
 30
0.0
  3
*D29
  1

  0
LINE
  5
7459
330
6DFB
100
AcDbEntity
  8
30
  6
Continuous
 62
     0
100
AcDbLine
 10
261.9998397827433
 20
-1.0
 30
0.0
 11
261.9998397827433
 21
-309.58595701602
 31
0.0
  0
LINE
  5
745A
330
6DFB
100
AcDbEntity
  8
30
  6
Continuous
 62
     0
100
AcDbLine
 10
453.0
 20
-180.0
 30
0.0
 11
453.0
 21
-309.58595701602
 31
0.0
  0
LINE
  5
745B
330
6DFB
100
AcDbEntity
  8
30
  6
Continuous
 62
     0
100
AcDbLine
 10
263.9998397827433
 20
-309.08595701602
 30
0.0
 11
451.0
 21
-309.08595701602
 31
0.0
  0
INSERT
  5
745C
330
6DFB
100
AcDbEntity
  8
30
  6
Continuous
 62
     0
100
AcDbBlockReference
  2
_OPEN
 10
261.9998397827433
 20
-309.08595701602
 30
0.0
 41
2.0
 42
2.0
 43
2.0
 50
180.0
  0
INSERT
  5
745D
330
6DFB
100
AcDbEntity
  8
30
  6
Continuous
 62
     0
100
AcDbBlockReference
  2
_OPEN
 10
453.0
 20
-309.08595701602
 30
0.0
 41
2.0
 42
2.0
 43
2.0
  0
MTEXT
  5
745E
330
6DFB
100
AcDbEntity
  8
30
  6
Continuous
 62
     0
100
AcDbMText
 10
357.4999198913716
 20
-304.58595701602
 30
0.0
 40
7.0
 41
0.0
 71
     5
 72
     1
  1
\A1;191
 73
     1
 44
1.0
  0
POINT
  5
745F
330
6DFB
100
AcDbEntity
  8
DEFPOINTS
  6
Continuous
 62
     0
100
AcDbPoint
 10
261.9998397827433
 20
-0.0000000000000009
 30
0.0
  0
POINT
  5
7460
330
6DFB
100
AcDbEntity
  8
DEFPOINTS
  6
Continuous
 62
     0
100
AcDbPoint
 10
453.0
 20
-179.0
 30
0.0
  0
POINT
  5
7461
330
6DFB
100
AcDbEntity
  8
DEFPOINTS
  6
Continuous
 62
     0
100
AcDbPoint
 10
453.0
 20
-309.08595701602
 30
0.0
  0
ENDBLK
  5
6E06
330
6DFB
100
AcDbEntity
  8
0
100
AcDbBlockEnd
  0
BLOCK
  5
6E12
330
6E08
100
AcDbEntity
  8
0
100
AcDbBlockBegin
  2
*D30
 70
     1
 10
0.0
 20
0.0
 30
0.0
  3
*D30
  1

  0
LINE
  5
72CC
330
6E08
100
AcDbEntity
  8
30
  6
Continuous
 62
     0
100
AcDbLine
 10
312.0
 20
170.0
 30
0.0
 11
240.2140212313461
 21
170.0
 31
0.0
  0
LINE
  5
72CD
330
6E08
100
AcDbEntity
  8
30
  6
Continuous
 62
     0
100
AcDbLine
 10
260.9998397827433
 20
0.0000000000000003
 30
0.0
 11
240.2140212313461
 21
0.0000000000000062
 31
0.0
  0
LINE
  5
72CE
330
6E08
100
AcDbEntity
  8
30
  6
Continuous
 62
     0
100
AcDbLine
 10
240.7140212313461
 20
168.0
 30
0.0
 11
240.7140212313461
 21
2.000000000000004
 31
0.0
  0
INSERT
  5
72CF
330
6E08
100
AcDbEntity
  8
30
  6
Continuous
 62
     0
100
AcDbBlockReference
  2
_OPEN
 10
240.7140212313461
 20
170.0
 30
0.0
 41
2.0
 42
2.0
 43
2.0
 50
90.0
  0
INSERT
  5
72D0
330
6E08
100
AcDbEntity
  8
30
  6
Continuous
 62
     0
100
AcDbBlockReference
  2
_OPEN
 10
240.7140212313461
 20
0.000000000000006
 30
0.0
 41
2.0
 42
2.0
 43
2.0
 50
270.0
  0
MTEXT
  5
72D1
330
6E08
100
AcDbEntity
  8
30
  6
Continuous
 62
     0
100
AcDbMText
 10
236.2140212313461
 20
85.00000000000005
 30
0.0
 40
7.0
 41
0.0
 71
     5
 72
     1
  1
\A1;170
 11
0.0000000000000001
 21
1.0
 31
0.0
 73
     1
 44
1.0
1001
ACAD
1000
MTEXTBEGIN
1070
    73
1070
     1
1070
    44
1040
1.0
1070
    74
1070
     0
1000
MTEXTEND
1000
MTEXTBEGIN
1070
    73
1070
     1
1070
    44
1040
1.0
1070
    74
1070
     0
1000
MTEXTEND
  0
POINT
  5
72D2
330
6E08
100
AcDbEntity
  8
DEFPOINTS
  6
Continuous
 62
     0
100
AcDbPoint
 10
313.0
 20
170.0
 30
0.0
  0
POINT
  5
72D3
330
6E08
100
AcDbEntity
  8
DEFPOINTS
  6
Continuous
 62
     0
100
AcDbPoint
 10
261.9998397827433
 20
0.0
 30
0.0
  0
POINT
  5
72D4
330
6E08
100
AcDbEntity
  8
DEFPOINTS
  6
Continuous
 62
     0
100
AcDbPoint
 10
240.7140212313461
 20
0.000000000000006
 30
0.0
  0
ENDBLK
  5
6E13
330
6E08
100
AcDbEntity
  8
0
100
AcDbBlockEnd
  0
BLOCK
  5
6E28
330
6E1E
100
AcDbEntity
  8
0
100
AcDbBlockBegin
  2
*D31
 70
     1
 10
0.0
 20
0.0
 30
0.0
  3
*D31
  1

  0
LINE
  5
7462
330
6E1E
100
AcDbEntity
  8
30
  6
Continuous
 62
     0
100
AcDbLine
 10
260.9998397827433
 20
0.0000000000000003
 30
0.0
 11
240.2140212313461
 21
0.0000000000000062
 31
0.0
  0
LINE
  5
7463
330
6E1E
100
AcDbEntity
  8
30
  6
Continuous
 62
     0
100
AcDbLine
 10
312.0
 20
-140.0
 30
0.0
 11
240.2140212313461
 21
-140.0
 31
0.0
  0
LINE
  5
7464
330
6E1E
100
AcDbEntity
  8
30
  6
Continuous
 62
     0
100
AcDbLine
 10
240.7140212313461
 20
-1.999999999999993
 30
0.0
 11
240.7140212313461
 21
-138.0
 31
0.0
  0
INSERT
  5
7465
330
6E1E
100
AcDbEntity
  8
30
  6
Continuous
 62
     0
100
AcDbBlockReference
  2
_OPEN
 10
240.7140212313461
 20
0.000000000000006
 30
0.0
 41
2.0
 42
2.0
 43
2.0
 50
90.0
  0
INSERT
  5
7466
330
6E1E
100
AcDbEntity
  8
30
  6
Continuous
 62
     0
100
AcDbBlockReference
  2
_OPEN
 10
240.7140212313461
 20
-140.0
 30
0.0
 41
2.0
 42
2.0
 43
2.0
 50
270.0
  0
MTEXT
  5
7467
330
6E1E
100
AcDbEntity
  8
30
  6
Continuous
 62
     0
100
AcDbMText
 10
236.2140212313461
 20
-69.99999999999996
 30
0.0
 40
7.0
 41
0.0
 71
     5
 72
     1
  1
\A1;140
 11
0.0000000000000001
 21
1.0
 31
0.0
 73
     1
 44
1.0
  0
POINT
  5
7468
330
6E1E
100
AcDbEntity
  8
DEFPOINTS
  6
Continuous
 62
     0
100
AcDbPoint
 10
261.9998397827433
 20
0.0
 30
0.0
  0
POINT
  5
7469
330
6E1E
100
AcDbEntity
  8
DEFPOINTS
  6
Continuous
 62
     0
100
AcDbPoint
 10
313.0
 20
-140.0
 30
0.0
  0
POINT
  5
746A
330
6E1E
100
AcDbEntity
  8
DEFPOINTS
  6
Continuous
 62
     0
100
AcDbPoint
 10
240.7140212313461
 20
-140.0
 30
0.0
  0
ENDBLK
  5
6E29
330
6E1E
100
AcDbEntity
  8
0
100
AcDbBlockEnd
  0
BLOCK
  5
6F20
330
6F17
100
AcDbEntity
  8
0
100
AcDbBlockBegin
  2
*D32
 70
     1
 10
0.0
 20
0.0
 30
0.0
  3
*D32
  1

  0
LINE
  5
72DE
330
6F17
100
AcDbEntity
  8
30
  6
Continuous
 62
     0
100
AcDbLine
 10
379.2778528542236
 20
-535.6664414373279
 30
0.0
 11
364.9445195208906
 21
-535.666441437328
 31
0.0
  0
LINE
  5
72DF
330
6F17
100
AcDbEntity
  8
30
  6
Continuous
 62
     0
100
AcDbLine
 10
364.9445195208906
 20
-535.666441437328
 30
0.0
 11
360.1324555320333
 21
-550.1026334038988
 31
0.0
  0
MTEXT
  5
72E0
330
6F17
100
AcDbEntity
  8
30
  6
Continuous
 62
     0
100
AcDbMText
 10
373.4445195208903
 20
-531.166441437328
 30
0.0
 40
7.0
 41
0.0
 71
     5
 72
     1
  1
\A1;R6
 73
     1
 44
1.0
1001
ACAD
1000
MTEXTBEGIN
1070
    73
1070
     1
1070
    44
1040
1.0
1070
    74
1070
     0
1000
MTEXTEND
1000
MTEXTBEGIN
1070
    73
1070
     1
1070
    44
1040
1.0
1070
    74
1070
     0
1000
MTEXTEND
  0
INSERT
  5
72E1
330
6F17
100
AcDbEntity
  8
30
  6
Continuous
 62
     0
100
AcDbBlockReference
  2
_OPEN
 10
359.4999999999996
 20
-552.0
 30
0.0
 41
2.0
 42
2.0
 43
2.0
 50
251.5650511770767
  0
LINE
  5
72E2
330
6F17
100
AcDbEntity
  8
30
  6
Continuous
 62
     0
100
AcDbLine
 10
357.3545195208899
 20
-558.1664414373283
 30
0.0
 11
357.5345195208898
 21
-558.1664414373283
 31
0.0
  0
LINE
  5
72E3
330
6F17
100
AcDbEntity
  8
30
  6
Continuous
 62
     0
100
AcDbLine
 10
357.4445195208899
 20
-558.2564414373283
 30
0.0
 11
357.4445195208899
 21
-558.0764414373283
 31
0.0
  0
POINT
  5
72E4
330
6F17
100
AcDbEntity
  8
DEFPOINTS
  6
Continuous
 62
     0
100
AcDbPoint
 10
359.4999999999996
 20
-552.0
 30
0.0
  0
POINT
  5
72E5
330
6F17
100
AcDbEntity
  8
DEFPOINTS
  6
Continuous
 62
     0
100
AcDbPoint
 10
357.4445195208899
 20
-558.1664414373283
 30
0.0
  0
ENDBLK
  5
6F21
330
6F17
100
AcDbEntity
  8
0
100
AcDbBlockEnd
  0
BLOCK
  5
6F5D
330
6F53
100
AcDbEntity
  8
0
100
AcDbBlockBegin
  2
*D33
 70
     1
 10
0.0
 20
0.0
 30
0.0
  3
*D33
  1

  0
LINE
  5
72E6
330
6F53
100
AcDbEntity
  8
30
  6
Continuous
 62
     0
100
AcDbLine
 10
-51.0
 20
-417.0
 30
0.0
 11
-201.5934457379698
 21
-416.9999999999998
 31
0.0
  0
LINE
  5
72E7
330
6F53
100
AcDbEntity
  8
30
  6
Continuous
 62
     0
100
AcDbLine
 10
-167.0
 20
-601.0
 30
0.0
 11
-201.5934457379699
 21
-601.0
 31
0.0
  0
LINE
  5
72E8
330
6F53
100
AcDbEntity
  8
30
  6
Continuous
 62
     0
100
AcDbLine
 10
-201.0934457379698
 20
-418.9999999999998
 30
0.0
 11
-201.0934457379698
 21
-599.0
 31
0.0
  0
INSERT
  5
72E9
330
6F53
100
AcDbEntity
  8
30
  6
Continuous
 62
     0
100
AcDbBlockReference
  2
_OPEN
 10
-201.0934457379698
 20
-416.9999999999998
 30
0.0
 41
2.0
 42
2.0
 43
2.0
 50
90.0
  0
INSERT
  5
72EA
330
6F53
100
AcDbEntity
  8
30
  6
Continuous
 62
     0
100
AcDbBlockReference
  2
_OPEN
 10
-201.0934457379698
 20
-601.0
 30
0.0
 41
2.0
 42
2.0
 43
2.0
 50
270.0
  0
MTEXT
  5
72EB
330
6F53
100
AcDbEntity
  8
30
  6
Continuous
 62
     0
100
AcDbMText
 10
-205.5934457379697
 20
-509.0
 30
0.0
 40
7.0
 41
0.0
 71
     5
 72
     1
  1
\A1;184
 11
0.0000000000000001
 21
1.0
 31
0.0
 73
     1
 44
1.0
1001
ACAD
1000
MTEXTBEGIN
1070
    73
1070
     1
1070
    44
1040
1.0
1070
    74
1070
     0
1000
MTEXTEND
1000
MTEXTBEGIN
1070
    73
1070
     1
1070
    44
1040
1.0
1070
    74
1070
     0
1000
MTEXTEND
  0
POINT
  5
72EC
330
6F53
100
AcDbEntity
  8
DEFPOINTS
  6
Continuous
 62
     0
100
AcDbPoint
 10
-50.0
 20
-417.0
 30
0.0
  0
POINT
  5
72ED
330
6F53
100
AcDbEntity
  8
DEFPOINTS
  6
Continuous
 62
     0
100
AcDbPoint
 10
-166.0
 20
-601.0
 30
0.0
  0
POINT
  5
72EE
330
6F53
100
AcDbEntity
  8
DEFPOINTS
  6
Continuous
 62
     0
100
AcDbPoint
 10
-201.0934457379698
 20
-601.0
 30
0.0
  0
ENDBLK
  5
6F5E
330
6F53
100
AcDbEntity
  8
0
100
AcDbBlockEnd
  0
BLOCK
  5
6F6A
330
6F60
100
AcDbEntity
  8
0
100
AcDbBlockBegin
  2
*D34
 70
     1
 10
0.0
 20
0.0
 30
0.0
  3
*D34
  1

  0
LINE
  5
746B
330
6F60
100
AcDbEntity
  8
30
  6
Continuous
 62
     0
100
AcDbLine
 10
-167.0
 20
-601.0
 30
0.0
 11
-201.5934457379698
 21
-601.0
 31
0.0
  0
LINE
  5
746C
330
6F60
100
AcDbEntity
  8
30
  6
Continuous
 62
     0
100
AcDbLine
 10
-51.0
 20
-754.9997558592999
 30
0.0
 11
-201.5934457379698
 21
-754.9997558592999
 31
0.0
  0
LINE
  5
746D
330
6F60
100
AcDbEntity
  8
30
  6
Continuous
 62
     0
100
AcDbLine
 10
-201.0934457379697
 20
-603.0
 30
0.0
 11
-201.0934457379698
 21
-752.9997558593
 31
0.0
  0
INSERT
  5
746E
330
6F60
100
AcDbEntity
  8
30
  6
Continuous
 62
     0
100
AcDbBlockReference
  2
_OPEN
 10
-201.0934457379697
 20
-601.0
 30
0.0
 41
2.0
 42
2.0
 43
2.0
 50
90.0
  0
INSERT
  5
746F
330
6F60
100
AcDbEntity
  8
30
  6
Continuous
 62
     0
100
AcDbBlockReference
  2
_OPEN
 10
-201.0934457379698
 20
-754.9997558592999
 30
0.0
 41
2.0
 42
2.0
 43
2.0
 50
270.0
  0
MTEXT
  5
7470
330
6F60
100
AcDbEntity
  8
30
  6
Continuous
 62
     0
100
AcDbMText
 10
-205.5934457379696
 20
-677.99987792965
 30
0.0
 40
7.0
 41
0.0
 71
     5
 72
     1
  1
\A1;154
 11
0.0000000000000001
 21
1.0
 31
0.0
 73
     1
 44
1.0
  0
POINT
  5
7471
330
6F60
100
AcDbEntity
  8
DEFPOINTS
  6
Continuous
 62
     0
100
AcDbPoint
 10
-166.0
 20
-601.0
 30
0.0
  0
POINT
  5
7472
330
6F60
100
AcDbEntity
  8
DEFPOINTS
  6
Continuous
 62
     0
100
AcDbPoint
 10
-50.0
 20
-754.9997558592999
 30
0.0
  0
POINT
  5
7473
330
6F60
100
AcDbEntity
  8
DEFPOINTS
  6
Continuous
 62
     0
100
AcDbPoint
 10
-201.0934457379698
 20
-754.9997558592999
 30
0.0
  0
ENDBLK
  5
6F6B
330
6F60
100
AcDbEntity
  8
0
100
AcDbBlockEnd
  0
BLOCK
  5
6F77
330
6F6D
100
AcDbEntity
  8
0
100
AcDbBlockBegin
  2
*D35
 70
     1
 10
0.0
 20
0.0
 30
0.0
  3
*D35
  1

  0
LINE
  5
72F8
330
6F6D
100
AcDbEntity
  8
30
  6
Continuous
 62
     0
100
AcDbLine
 10
-35.0
 20
-770.9997558592999
 30
0.0
 11
-35.0
 21
-810.9423648938417
 31
0.0
  0
LINE
  5
72F9
330
6F6D
100
AcDbEntity
  8
30
  6
Continuous
 62
     0
100
AcDbLine
 10
35.0
 20
-770.9997558592999
 30
0.0
 11
35.0
 21
-810.9423648938417
 31
0.0
  0
LINE
  5
72FA
330
6F6D
100
AcDbEntity
  8
30
  6
Continuous
 62
     0
100
AcDbLine
 10
-33.0
 20
-810.4423648938418
 30
0.0
 11
33.0
 21
-810.4423648938418
 31
0.0
  0
INSERT
  5
72FB
330
6F6D
100
AcDbEntity
  8
30
  6
Continuous
 62
     0
100
AcDbBlockReference
  2
_OPEN
 10
-35.0
 20
-810.4423648938418
 30
0.0
 41
2.0
 42
2.0
 43
2.0
 50
180.0
  0
INSERT
  5
72FC
330
6F6D
100
AcDbEntity
  8
30
  6
Continuous
 62
     0
100
AcDbBlockReference
  2
_OPEN
 10
35.0
 20
-810.4423648938418
 30
0.0
 41
2.0
 42
2.0
 43
2.0
  0
MTEXT
  5
72FD
330
6F6D
100
AcDbEntity
  8
30
  6
Continuous
 62
     0
100
AcDbMText
 10
0.0000000000000003
 20
-805.9423648938414
 30
0.0
 40
7.0
 41
0.0
 71
     5
 72
     1
  1
\A1;70
 73
     1
 44
1.0
1001
ACAD
1000
MTEXTBEGIN
1070
    73
1070
     1
1070
    44
1040
1.0
1070
    74
1070
     0
1000
MTEXTEND
1000
MTEXTBEGIN
1070
    73
1070
     1
1070
    44
1040
1.0
1070
    74
1070
     0
1000
MTEXTEND
  0
POINT
  5
72FE
330
6F6D
100
AcDbEntity
  8
DEFPOINTS
  6
Continuous
 62
     0
100
AcDbPoint
 10
-35.0
 20
-769.9997558593
 30
0.0
  0
POINT
  5
72FF
330
6F6D
100
AcDbEntity
  8
DEFPOINTS
  6
Continuous
 62
     0
100
AcDbPoint
 10
35.0
 20
-769.9997558593
 30
0.0
  0
POINT
  5
7300
330
6F6D
100
AcDbEntity
  8
DEFPOINTS
  6
Continuous
 62
     0
100
AcDbPoint
 10
35.0
 20
-810.4423648938418
 30
0.0
  0
ENDBLK
  5
6F78
330
6F6D
100
AcDbEntity
  8
0
100
AcDbBlockEnd
  0
BLOCK
  5
6F84
330
6F7A
100
AcDbEntity
  8
0
100
AcDbBlockBegin
  2
*D36
 70
     1
 10
0.0
 20
0.0
 30
0.0
  3
*D36
  1

  0
LINE
  5
7301
330
6F7A
100
AcDbEntity
  8
30
  6
Continuous
 62
     0
100
AcDbLine
 10
284.5
 20
-645.0
 30
0.0
 11
284.5
 21
-684.2650401241262
 31
0.0
  0
LINE
  5
7302
330
6F7A
100
AcDbEntity
  8
30
  6
Continuous
 62
     0
100
AcDbLine
 10
365.5
 20
-645.0
 30
0.0
 11
365.5
 21
-684.2650401241262
 31
0.0
  0
LINE
  5
7303
330
6F7A
100
AcDbEntity
  8
30
  6
Continuous
 62
     0
100
AcDbLine
 10
286.5
 20
-683.7650401241262
 30
0.0
 11
363.5
 21
-683.7650401241262
 31
0.0
  0
INSERT
  5
7304
330
6F7A
100
AcDbEntity
  8
30
  6
Continuous
 62
     0
100
AcDbBlockReference
  2
_OPEN
 10
284.5
 20
-683.7650401241262
 30
0.0
 41
2.0
 42
2.0
 43
2.0
 50
180.0
  0
INSERT
  5
7305
330
6F7A
100
AcDbEntity
  8
30
  6
Continuous
 62
     0
100
AcDbBlockReference
  2
_OPEN
 10
365.5
 20
-683.7650401241262
 30
0.0
 41
2.0
 42
2.0
 43
2.0
  0
MTEXT
  5
7306
330
6F7A
100
AcDbEntity
  8
30
  6
Continuous
 62
     0
100
AcDbMText
 10
325.0
 20
-679.2650401241262
 30
0.0
 40
7.0
 41
0.0
 71
     5
 72
     1
  1
\A1;81
 73
     1
 44
1.0
1001
ACAD
1000
MTEXTBEGIN
1070
    73
1070
     1
1070
    44
1040
1.0
1070
    74
1070
     0
1000
MTEXTEND
1000
MTEXTBEGIN
1070
    73
1070
     1
1070
    44
1040
1.0
1070
    74
1070
     0
1000
MTEXTEND
  0
POINT
  5
7307
330
6F7A
100
AcDbEntity
  8
DEFPOINTS
  6
Continuous
 62
     0
100
AcDbPoint
 10
284.5
 20
-644.0
 30
0.0
  0
POINT
  5
7308
330
6F7A
100
AcDbEntity
  8
DEFPOINTS
  6
Continuous
 62
     0
100
AcDbPoint
 10
365.5
 20
-644.0
 30
0.0
  0
POINT
  5
7309
330
6F7A
100
AcDbEntity
  8
DEFPOINTS
  6
Continuous
 62
     0
100
AcDbPoint
 10
365.5
 20
-683.7650401241262
 30
0.0
  0
ENDBLK
  5
6F85
330
6F7A
100
AcDbEntity
  8
0
100
AcDbBlockEnd
  0
BLOCK
  5
6F91
330
6F87
100
AcDbEntity
  8
0
100
AcDbBlockBegin
  2
*D37
 70
     1
 10
0.0
 20
0.0
 30
0.0
  3
*D37
  1

  0
LINE
  5
730A
330
6F87
100
AcDbEntity
  8
30
  6
Continuous
 62
     0
100
AcDbLine
 10
289.4999999999999
 20
-552.0
 30
0.0
 11
262.5972867326491
 21
-552.0
 31
0.0
  0
LINE
  5
730B
330
6F87
100
AcDbEntity
  8
30
  6
Continuous
 62
     0
100
AcDbLine
 10
289.4999999999999
 20
-650.0
 30
0.0
 11
262.597286732649
 21
-650.0
 31
0.0
  0
LINE
  5
730C
330
6F87
100
AcDbEntity
  8
30
  6
Continuous
 62
     0
100
AcDbLine
 10
263.097286732649
 20
-554.0
 30
0.0
 11
263.097286732649
 21
-648.0
 31
0.0
  0
INSERT
  5
730D
330
6F87
100
AcDbEntity
  8
30
  6
Continuous
 62
     0
100
AcDbBlockReference
  2
_OPEN
 10
263.097286732649
 20
-552.0
 30
0.0
 41
2.0
 42
2.0
 43
2.0
 50
90.0
  0
INSERT
  5
730E
330
6F87
100
AcDbEntity
  8
30
  6
Continuous
 62
     0
100
AcDbBlockReference
  2
_OPEN
 10
263.097286732649
 20
-650.0
 30
0.0
 41
2.0
 42
2.0
 43
2.0
 50
270.0
  0
MTEXT
  5
730F
330
6F87
100
AcDbEntity
  8
30
  6
Continuous
 62
     0
100
AcDbMText
 10
258.5972867326491
 20
-600.9999999999998
 30
0.0
 40
7.0
 41
0.0
 71
     5
 72
     1
  1
\A1;98
 11
0.0000000000000001
 21
1.0
 31
0.0
 73
     1
 44
1.0
1001
ACAD
1000
MTEXTBEGIN
1070
    73
1070
     1
1070
    44
1040
1.0
1070
    74
1070
     0
1000
MTEXTEND
1000
MTEXTBEGIN
1070
    73
1070
     1
1070
    44
1040
1.0
1070
    74
1070
     0
1000
MTEXTEND
  0
POINT
  5
7310
330
6F87
100
AcDbEntity
  8
DEFPOINTS
  6
Continuous
 62
     0
100
AcDbPoint
 10
290.5
 20
-552.0
 30
0.0
  0
POINT
  5
7311
330
6F87
100
AcDbEntity
  8
DEFPOINTS
  6
Continuous
 62
     0
100
AcDbPoint
 10
290.5
 20
-650.0
 30
0.0
  0
POINT
  5
7312
330
6F87
100
AcDbEntity
  8
DEFPOINTS
  6
Continuous
 62
     0
100
AcDbPoint
 10
263.097286732649
 20
-650.0
 30
0.0
  0
ENDBLK
  5
6F92
330
6F87
100
AcDbEntity
  8
0
100
AcDbBlockEnd
  0
BLOCK
  5
6FB8
330
6FAE
100
AcDbEntity
  8
0
100
AcDbBlockBegin
  2
*D38
 70
     1
 10
0.0
 20
0.0
 30
0.0
  3
*D38
  1

  0
LINE
  5
7313
330
6FAE
100
AcDbEntity
  8
30
  6
Continuous
 62
     0
100
AcDbLine
 10
94.49981689452988
 20
300.0
 30
0.0
 11
145.3584367809215
 21
299.9999999999999
 31
0.0
  0
LINE
  5
7314
330
6FAE
100
AcDbEntity
  8
30
  6
Continuous
 62
     0
100
AcDbLine
 10
106.9998168945297
 20
200.0
 30
0.0
 11
145.3584367809215
 21
200.0
 31
0.0
  0
LINE
  5
7315
330
6FAE
100
AcDbEntity
  8
30
  6
Continuous
 62
     0
100
AcDbLine
 10
144.8584367809214
 20
297.9999999999999
 30
0.0
 11
144.8584367809214
 21
202.0
 31
0.0
  0
INSERT
  5
7316
330
6FAE
100
AcDbEntity
  8
30
  6
Continuous
 62
     0
100
AcDbBlockReference
  2
_OPEN
 10
144.8584367809214
 20
299.9999999999999
 30
0.0
 41
2.0
 42
2.0
 43
2.0
 50
90.0
  0
INSERT
  5
7317
330
6FAE
100
AcDbEntity
  8
30
  6
Continuous
 62
     0
100
AcDbBlockReference
  2
_OPEN
 10
144.8584367809214
 20
200.0
 30
0.0
 41
2.0
 42
2.0
 43
2.0
 50
270.0
  0
MTEXT
  5
7318
330
6FAE
100
AcDbEntity
  8
30
  6
Continuous
 62
     0
100
AcDbMText
 10
140.3584367809215
 20
250.0
 30
0.0
 40
7.0
 41
0.0
 71
     5
 72
     1
  1
\A1;100
 11
0.0000000000000001
 21
1.0
 31
0.0
 73
     1
 44
1.0
1001
ACAD
1000
MTEXTBEGIN
1070
    73
1070
     1
1070
    44
1040
1.0
1070
    74
1070
     0
1000
MTEXTEND
1000
MTEXTBEGIN
1070
    73
1070
     1
1070
    44
1040
1.0
1070
    74
1070
     0
1000
MTEXTEND
  0
POINT
  5
7319
330
6FAE
100
AcDbEntity
  8
DEFPOINTS
  6
Continuous
 62
     0
100
AcDbPoint
 10
93.49981689452986
 20
300.0
 30
0.0
  0
POINT
  5
731A
330
6FAE
100
AcDbEntity
  8
DEFPOINTS
  6
Continuous
 62
     0
100
AcDbPoint
 10
105.9998168945297
 20
200.0
 30
0.0
  0
POINT
  5
731B
330
6FAE
100
AcDbEntity
  8
DEFPOINTS
  6
Continuous
 62
     0
100
AcDbPoint
 10
144.8584367809214
 20
200.0
 30
0.0
  0
ENDBLK
  5
6FB9
330
6FAE
100
AcDbEntity
  8
0
100
AcDbBlockEnd
  0
BLOCK
  5
6FC5
330
6FBB
100
AcDbEntity
  8
0
100
AcDbBlockBegin
  2
*D39
 70
     1
 10
0.0
 20
0.0
 30
0.0
  3
*D39
  1

  0
LINE
  5
7474
330
6FBB
100
AcDbEntity
  8
30
  6
Continuous
 62
     0
100
AcDbLine
 10
106.9998168945297
 20
200.0
 30
0.0
 11
145.3584367809215
 21
200.0
 31
0.0
  0
LINE
  5
7475
330
6FBB
100
AcDbEntity
  8
30
  6
Continuous
 62
     0
100
AcDbLine
 10
105.9998168945297
 20
-0.0000000000000003
 30
0.0
 11
145.3584367809215
 21
-0.0000000000000114
 31
0.0
  0
LINE
  5
7476
330
6FBB
100
AcDbEntity
  8
30
  6
Continuous
 62
     0
100
AcDbLine
 10
144.8584367809214
 20
198.0
 30
0.0
 11
144.8584367809214
 21
1.999999999999987
 31
0.0
  0
INSERT
  5
7477
330
6FBB
100
AcDbEntity
  8
30
  6
Continuous
 62
     0
100
AcDbBlockReference
  2
_OPEN
 10
144.8584367809214
 20
200.0
 30
0.0
 41
2.0
 42
2.0
 43
2.0
 50
90.0
  0
INSERT
  5
7478
330
6FBB
100
AcDbEntity
  8
30
  6
Continuous
 62
     0
100
AcDbBlockReference
  2
_OPEN
 10
144.8584367809214
 20
-0.0000000000000113
 30
0.0
 41
2.0
 42
2.0
 43
2.0
 50
270.0
  0
MTEXT
  5
7479
330
6FBB
100
AcDbEntity
  8
30
  6
Continuous
 62
     0
100
AcDbMText
 10
140.3584367809215
 20
100.0
 30
0.0
 40
7.0
 41
0.0
 71
     5
 72
     1
  1
\A1;200
 11
0.0000000000000001
 21
1.0
 31
0.0
 73
     1
 44
1.0
  0
POINT
  5
747A
330
6FBB
100
AcDbEntity
  8
DEFPOINTS
  6
Continuous
 62
     0
100
AcDbPoint
 10
105.9998168945297
 20
200.0
 30
0.0
  0
POINT
  5
747B
330
6FBB
100
AcDbEntity
  8
DEFPOINTS
  6
Continuous
 62
     0
100
AcDbPoint
 10
104.9998168945297
 20
0.0
 30
0.0
  0
POINT
  5
747C
330
6FBB
100
AcDbEntity
  8
DEFPOINTS
  6
Continuous
 62
     0
100
AcDbPoint
 10
144.8584367809214
 20
-0.0000000000000113
 30
0.0
  0
ENDBLK
  5
6FC6
330
6FBB
100
AcDbEntity
  8
0
100
AcDbBlockEnd
  0
BLOCK
  5
6FD2
330
6FC8
100
AcDbEntity
  8
0
100
AcDbBlockBegin
  2
*D40
 70
     1
 10
0.0
 20
0.0
 30
0.0
  3
*D40
  1

  0
LINE
  5
747D
330
6FC8
100
AcDbEntity
  8
30
  6
Continuous
 62
     0
100
AcDbLine
 10
105.9998168945297
 20
-0.0000000000000003
 30
0.0
 11
145.3584367809215
 21
-0.0000000000000114
 31
0.0
  0
LINE
  5
747E
330
6FC8
100
AcDbEntity
  8
30
  6
Continuous
 62
     0
100
AcDbLine
 10
105.9998168945297
 20
-171.0
 30
0.0
 11
145.3584367809215
 21
-171.0
 31
0.0
  0
LINE
  5
747F
330
6FC8
100
AcDbEntity
  8
30
  6
Continuous
 62
     0
100
AcDbLine
 10
144.8584367809214
 20
-2.000000000000011
 30
0.0
 11
144.8584367809214
 21
-169.0
 31
0.0
  0
INSERT
  5
7480
330
6FC8
100
AcDbEntity
  8
30
  6
Continuous
 62
     0
100
AcDbBlockReference
  2
_OPEN
 10
144.8584367809214
 20
-0.0000000000000113
 30
0.0
 41
2.0
 42
2.0
 43
2.0
 50
90.0
  0
INSERT
  5
7481
330
6FC8
100
AcDbEntity
  8
30
  6
Continuous
 62
     0
100
AcDbBlockReference
  2
_OPEN
 10
144.8584367809214
 20
-171.0
 30
0.0
 41
2.0
 42
2.0
 43
2.0
 50
270.0
  0
MTEXT
  5
7482
330
6FC8
100
AcDbEntity
  8
30
  6
Continuous
 62
     0
100
AcDbMText
 10
140.3584367809215
 20
-85.49999999999998
 30
0.0
 40
7.0
 41
0.0
 71
     5
 72
     1
  1
\A1;171
 11
0.0000000000000001
 21
1.0
 31
0.0
 73
     1
 44
1.0
  0
POINT
  5
7483
330
6FC8
100
AcDbEntity
  8
DEFPOINTS
  6
Continuous
 62
     0
100
AcDbPoint
 10
104.9998168945297
 20
0.0
 30
0.0
  0
POINT
  5
7484
330
6FC8
100
AcDbEntity
  8
DEFPOINTS
  6
Continuous
 62
     0
100
AcDbPoint
 10
104.9998168945297
 20
-171.0
 30
0.0
  0
POINT
  5
7485
330
6FC8
100
AcDbEntity
  8
DEFPOINTS
  6
Continuous
 62
     0
100
AcDbPoint
 10
144.8584367809214
 20
-171.0
 30
0.0
  0
ENDBLK
  5
6FD3
330
6FC8
100
AcDbEntity
  8
0
100
AcDbBlockEnd
  0
BLOCK
  5
6FEC
330
6FE2
100
AcDbEntity
  8
0
100
AcDbBlockBegin
  2
*D41
 70
     1
 10
0.0
 20
0.0
 30
0.0
  3
*D41
  1

  0
LINE
  5
732E
330
6FE2
100
AcDbEntity
  8
30
  6
Continuous
 62
     0
100
AcDbLine
 10
105.9998168945297
 20
200.0
 30
0.0
 11
164.4081821090274
 21
200.0
 31
0.0
  0
LINE
  5
732F
330
6FE2
100
AcDbEntity
  8
30
  6
Continuous
 62
     0
100
AcDbLine
 10
105.9998168945297
 20
-170.0
 30
0.0
 11
164.4081821090273
 21
-170.0
 31
0.0
  0
LINE
  5
7330
330
6FE2
100
AcDbEntity
  8
30
  6
Continuous
 62
     0
100
AcDbLine
 10
163.9081821090275
 20
198.0
 30
0.0
 11
163.9081821090275
 21
-168.0
 31
0.0
  0
INSERT
  5
7331
330
6FE2
100
AcDbEntity
  8
30
  6
Continuous
 62
     0
100
AcDbBlockReference
  2
_OPEN
 10
163.9081821090275
 20
200.0
 30
0.0
 41
2.0
 42
2.0
 43
2.0
 50
90.0
  0
INSERT
  5
7332
330
6FE2
100
AcDbEntity
  8
30
  6
Continuous
 62
     0
100
AcDbBlockReference
  2
_OPEN
 10
163.9081821090275
 20
-170.0
 30
0.0
 41
2.0
 42
2.0
 43
2.0
 50
270.0
  0
MTEXT
  5
7333
330
6FE2
100
AcDbEntity
  8
30
  6
Continuous
 62
     0
100
AcDbMText
 10
159.4081821090275
 20
15.0
 30
0.0
 40
7.0
 41
0.0
 71
     5
 72
     1
  1
\A1;370
 11
0.0000000000000001
 21
1.0
 31
0.0
 73
     1
 44
1.0
1001
ACAD
1000
MTEXTBEGIN
1070
    73
1070
     1
1070
    44
1040
1.0
1070
    74
1070
     0
1000
MTEXTEND
1000
MTEXTBEGIN
1070
    73
1070
     1
1070
    44
1040
1.0
1070
    74
1070
     0
1000
MTEXTEND
  0
POINT
  5
7334
330
6FE2
100
AcDbEntity
  8
DEFPOINTS
  6
Continuous
 62
     0
100
AcDbPoint
 10
104.9998168945297
 20
200.0
 30
0.0
  0
POINT
  5
7335
330
6FE2
100
AcDbEntity
  8
DEFPOINTS
  6
Continuous
 62
     0
100
AcDbPoint
 10
104.9998168945297
 20
-170.0
 30
0.0
  0
POINT
  5
7336
330
6FE2
100
AcDbEntity
  8
DEFPOINTS
  6
Continuous
 62
     0
100
AcDbPoint
 10
163.9081821090275
 20
-170.0
 30
0.0
  0
ENDBLK
  5
6FED
330
6FE2
100
AcDbEntity
  8
0
100
AcDbBlockEnd
  0
BLOCK
  5
70C4
330
70BA
100
AcDbEntity
  8
0
100
AcDbBlockBegin
  2
*D42
 70
     1
 10
0.0
 20
0.0
 30
0.0
  3
*D42
  1

  0
LINE
  5
7337
330
70BA
100
AcDbEntity
  8
30
  6
Continuous
 62
     0
100
AcDbLine
 10
454.0
 20
200.0
 30
0.0
 11
463.1175351181136
 21
200.0
 31
0.0
  0
LINE
  5
7338
330
70BA
100
AcDbEntity
  8
30
  6
Continuous
 62
     0
100
AcDbLine
 10
454.0
 20
230.0
 30
0.0
 11
463.1175351181136
 21
230.0
 31
0.0
  0
LINE
  5
7339
330
70BA
100
AcDbEntity
  8
30
  6
Continuous
 62
     0
100
AcDbLine
 10
462.6175351181136
 20
202.0
 30
0.0
 11
462.6175351181136
 21
228.0
 31
0.0
  0
INSERT
  5
733A
330
70BA
100
AcDbEntity
  8
30
  6
Continuous
 62
     0
100
AcDbBlockReference
  2
_OPEN
 10
462.6175351181136
 20
200.0
 30
0.0
 41
2.0
 42
2.0
 43
2.0
 50
270.0
  0
INSERT
  5
733B
330
70BA
100
AcDbEntity
  8
30
  6
Continuous
 62
     0
100
AcDbBlockReference
  2
_OPEN
 10
462.6175351181136
 20
230.0
 30
0.0
 41
2.0
 42
2.0
 43
2.0
 50
90.0
  0
MTEXT
  5
733C
330
70BA
100
AcDbEntity
  8
30
  6
Continuous
 62
     0
100
AcDbMText
 10
458.1175351181133
 20
215.0
 30
0.0
 40
7.0
 41
0.0
 71
     5
 72
     1
  1
\A1;30
 11
0.0000000000000001
 21
1.0
 31
0.0
 73
     1
 44
1.0
1001
ACAD
1000
MTEXTBEGIN
1070
    73
1070
     1
1070
    44
1040
1.0
1070
    74
1070
     0
1000
MTEXTEND
1000
MTEXTBEGIN
1070
    73
1070
     1
1070
    44
1040
1.0
1070
    74
1070
     0
1000
MTEXTEND
  0
POINT
  5
733D
330
70BA
100
AcDbEntity
  8
DEFPOINTS
  6
Continuous
 62
     0
100
AcDbPoint
 10
453.0
 20
200.0
 30
0.0
  0
POINT
  5
733E
330
70BA
100
AcDbEntity
  8
DEFPOINTS
  6
Continuous
 62
     0
100
AcDbPoint
 10
453.0
 20
230.0
 30
0.0
  0
POINT
  5
733F
330
70BA
100
AcDbEntity
  8
DEFPOINTS
  6
Continuous
 62
     0
100
AcDbPoint
 10
462.6175351181136
 20
230.0
 30
0.0
  0
ENDBLK
  5
70C5
330
70BA
100
AcDbEntity
  8
0
100
AcDbBlockEnd
  0
BLOCK
  5
73EB
330
73E1
100
AcDbEntity
  8
0
100
AcDbBlockBegin
  2
*D43
 70
     1
 10
0.0
 20
0.0
 30
0.0
  3
*D43
  1

  0
LINE
  5
73ED
330
73E1
100
AcDbEntity
  8
30
  6
Continuous
 62
     0
100
AcDbLine
 10
442.0
 20
201.0
 30
0.0
 11
442.0
 21
328.5501974078171
 31
0.0
  0
LINE
  5
73EE
330
73E1
100
AcDbEntity
  8
30
  6
Continuous
 62
     0
100
AcDbLine
 10
453.0
 20
201.0
 30
0.0
 11
453.0
 21
328.5501974078171
 31
0.0
  0
LINE
  5
73EF
330
73E1
100
AcDbEntity
  8
30
  6
Continuous
 62
     0
100
AcDbLine
 10
444.0
 20
328.0501974078171
 30
0.0
 11
451.0
 21
328.0501974078171
 31
0.0
  0
INSERT
  5
73F0
330
73E1
100
AcDbEntity
  8
30
  6
Continuous
 62
     0
100
AcDbBlockReference
  2
_OPEN
 10
442.0
 20
328.0501974078171
 30
0.0
 41
2.0
 42
2.0
 43
2.0
 50
180.0
  0
INSERT
  5
73F1
330
73E1
100
AcDbEntity
  8
30
  6
Continuous
 62
     0
100
AcDbBlockReference
  2
_OPEN
 10
453.0
 20
328.0501974078171
 30
0.0
 41
2.0
 42
2.0
 43
2.0
  0
MTEXT
  5
73F2
330
73E1
100
AcDbEntity
  8
30
  6
Continuous
 62
     0
100
AcDbMText
 10
447.5
 20
332.5501974078171
 30
0.0
 40
7.0
 41
0.0
 71
     5
 72
     1
  1
\A1;11
 73
     1
 44
1.0
1001
ACAD
1000
MTEXTBEGIN
1070
    73
1070
     1
1070
    44
1040
1.0
1070
    74
1070
     0
1000
MTEXTEND
  0
POINT
  5
73F3
330
73E1
100
AcDbEntity
  8
DEFPOINTS
  6
Continuous
 62
     0
100
AcDbPoint
 10
442.0
 20
200.0
 30
0.0
  0
POINT
  5
73F4
330
73E1
100
AcDbEntity
  8
DEFPOINTS
  6
Continuous
 62
     0
100
AcDbPoint
 10
453.0
 20
200.0
 30
0.0
  0
POINT
  5
73F5
330
73E1
100
AcDbEntity
  8
DEFPOINTS
  6
Continuous
 62
     0
100
AcDbPoint
 10
453.0
 20
328.0501974078171
 30
0.0
  0
ENDBLK
  5
73EC
330
73E1
100
AcDbEntity
  8
0
100
AcDbBlockEnd
  0
ENDSEC
  0
SECTION
  2
ENTITIES
  0
LINE
  5
B4
330
1E
100
AcDbEntity
  8
16
100
AcDbLine
 10
-0.0000000000000021
 20
-239.0
 30
0.0
 11
0.0
 21
245.0
 31
0.0
  0
LINE
  5
B5
330
1E
100
AcDbEntity
  8
16
100
AcDbLine
 10
187.6361914121165
 20
0.0000000000000107
 30
0.0
 11
-145.0
 21
0.0
 31
0.0
  0
MTEXT
  5
BF3
330
1E
100
AcDbEntity
  8
24
  6
Continuous
100
AcDbMText
 10
142.1181906098743
 20
177.5
 30
0.0
 40
3.0
 41
0.0
 71
     1
 72
     1
  1
\A1;
 73
     1
 44
1.0
1001
ACAD
1000
MTEXTBEGIN
1070
    73
1070
     1
1070
    44
1040
1.0
1070
    74
1070
     0
1000
MTEXTEND
1000
MTEXTBEGIN
1070
    73
1070
     1
1070
    44
1040
1.0
1070
    74
1070
     0
1000
MTEXTEND
  0
LINE
  5
1C9A
330
1E
100
AcDbEntity
  8
16
100
AcDbLine
 10
0.0
 20
258.0
 30
0.0
 11
0.0
 21
436.0
 31
0.0
  0
LINE
  5
1C9B
330
1E
100
AcDbEntity
  8
16
100
AcDbLine
 10
485.0
 20
0.0
 30
0.0
 11
247.0
 21
0.0
 31
0.0
  0
LINE
  5
2233
330
1E
100
AcDbEntity
  8
16
100
AcDbLine
 10
325.0
 20
-760.0
 30
0.0
 11
325.0
 21
-450.0
 31
0.0
  0
LINE
  5
2234
330
1E
100
AcDbEntity
  8
16
100
AcDbLine
 10
457.1634296945397
 20
-601.0
 30
0.0
 11
223.1043600603313
 21
-601.0
 31
0.0
  0
LINE
  5
2260
330
1E
100
AcDbEntity
  8
16
100
AcDbLine
 10
202.1634296945399
 20
-601.0
 30
0.0
 11
-166.0
 21
-601.0
 31
0.0
  0
LINE
  5
2261
330
1E
100
AcDbEntity
  8
16
100
AcDbLine
 10
0.0
 20
-791.5926135610889
 30
0.0
 11
0.0
 21
-375.8062147299115
 31
0.0
  0
LINE
  5
6965
330
1E
100
AcDbEntity
  8
17
  6
CONTINOUS
100
AcDbLine
 10
69.99993896485
 20
-203.0
 30
0.0
 11
69.99993896485
 21
-289.9890136719
 31
0.0
  0
CIRCLE
  5
696A
330
1E
100
AcDbEntity
  8
17
  6
CONTINOUS
100
AcDbCircle
 10
-70.0
 20
-255.0
 30
0.0
 40
6.5
  0
LINE
  5
696B
330
1E
100
AcDbEntity
  8
17
  6
CONTINOUS
100
AcDbLine
 10
-85.0
 20
-255.0
 30
0.0
 11
-55.0
 21
-255.0
 31
0.0
  0
CIRCLE
  5
696D
330
1E
100
AcDbEntity
  8
17
  6
CONTINOUS
100
AcDbCircle
 10
69.99993896485
 20
-255.0
 30
0.0
 40
6.5
  0
LINE
  5
696E
330
1E
100
AcDbEntity
  8
17
  6
CONTINOUS
100
AcDbLine
 10
54.99993896484999
 20
-255.0
 30
0.0
 11
84.99981689452987
 21
-255.0
 31
0.0
  0
LINE
  5
6970
330
1E
100
AcDbEntity
  8
17
  6
CONTINOUS
100
AcDbLine
 10
-15.0
 20
-255.0
 30
0.0
 11
14.99993896484999
 21
-255.0
 31
0.0
  0
CIRCLE
  5
6972
330
1E
100
AcDbEntity
  8
17
  6
CONTINOUS
100
AcDbCircle
 10
0.0
 20
-255.0
 30
0.0
 40
6.5
  0
LINE
  5
6976
330
1E
100
AcDbEntity
  8
10
  6
Continuous
100
AcDbLine
 10
-105.0
 20
-120.0
 30
0.0
 11
105.0
 21
-120.0
 31
0.0
  0
LINE
  5
6977
330
1E
100
AcDbEntity
  8
10
  6
Continuous
100
AcDbLine
 10
-105.0
 20
-62.0
 30
0.0
 11
105.0
 21
-62.0
 31
0.0
  0
LINE
  5
6978
330
1E
100
AcDbEntity
  8
12
  6
DASHED
100
AcDbLine
 10
-50.0
 20
-154.0
 30
0.0
 11
-20.0
 21
-154.0
 31
0.0
  0
LINE
  5
6979
330
1E
100
AcDbEntity
  8
10
  6
Continuous
100
AcDbLine
 10
104.9998168945297
 20
-140.0
 30
0.0
 11
-105.0
 21
-140.0
 31
0.0
  0
CIRCLE
  5
697C
330
1E
100
AcDbEntity
  8
17
  6
CONTINOUS
100
AcDbCircle
 10
-70.0
 20
-223.0
 30
0.0
 40
6.5
  0
LINE
  5
697D
330
1E
100
AcDbEntity
  8
17
  6
CONTINOUS
100
AcDbLine
 10
-85.0
 20
-223.0
 30
0.0
 11
-55.0
 21
-223.0
 31
0.0
  0
CIRCLE
  5
697F
330
1E
100
AcDbEntity
  8
17
  6
CONTINOUS
100
AcDbCircle
 10
69.99993896485
 20
-223.0
 30
0.0
 40
6.5
  0
LINE
  5
6980
330
1E
100
AcDbEntity
  8
17
  6
CONTINOUS
100
AcDbLine
 10
54.99993896484999
 20
-223.0
 30
0.0
 11
84.99981689452987
 21
-223.0
 31
0.0
  0
LINE
  5
6981
330
1E
100
AcDbEntity
  8
12
  6
DASHED
100
AcDbLine
 10
34.99993896485
 20
-139.0
 30
0.0
 11
34.99993896485
 21
-169.0
 31
0.0
  0
LINE
  5
6982
330
1E
100
AcDbEntity
  8
12
  6
DASHED
100
AcDbLine
 10
-35.0
 20
-139.0
 30
0.0
 11
-35.0
 21
-169.0
 31
0.0
  0
CIRCLE
  5
6983
330
1E
100
AcDbEntity
  8
12
  6
DASHED
100
AcDbCircle
 10
34.99993896485
 20
-154.0
 30
0.0
 40
8.5
  0
CIRCLE
  5
6984
330
1E
100
AcDbEntity
  8
12
  6
DASHED
100
AcDbCircle
 10
-35.0
 20
-154.0
 30
0.0
 40
8.5
  0
LINE
  5
6986
330
1E
100
AcDbEntity
  8
17
  6
CONTINOUS
100
AcDbLine
 10
-15.0
 20
-223.0
 30
0.0
 11
14.99993896484999
 21
-223.0
 31
0.0
  0
CIRCLE
  5
6987
330
1E
100
AcDbEntity
  8
17
  6
CONTINOUS
100
AcDbCircle
 10
0.0
 20
-223.0
 30
0.0
 40
6.5
  0
LINE
  5
6989
330
1E
100
AcDbEntity
  8
12
  6
DASHED
100
AcDbLine
 10
19.99993896484999
 20
-154.0
 30
0.0
 11
49.99993896484999
 21
-154.0
 31
0.0
  0
LINE
  5
698B
330
1E
100
AcDbEntity
  8
10
  6
Continuous
100
AcDbLine
 10
-22.5
 20
27.5
 30
0.0
 11
-22.5
 21
-27.5
 31
0.0
  0
LINE
  5
698E
330
1E
100
AcDbEntity
  8
10
  6
Continuous
100
AcDbLine
 10
22.5
 20
27.5
 30
0.0
 11
22.5
 21
-27.5
 31
0.0
  0
LINE
  5
698F
330
1E
100
AcDbEntity
  8
10
  6
Continuous
100
AcDbLine
 10
-22.5
 20
-27.5
 30
0.0
 11
22.5
 21
-27.5
 31
0.0
  0
LINE
  5
6991
330
1E
100
AcDbEntity
  8
10
  6
Continuous
100
AcDbLine
 10
-22.5
 20
27.5
 30
0.0
 11
22.5
 21
27.5
 31
0.0
  0
LINE
  5
6994
330
1E
100
AcDbEntity
  8
12
  6
DASHED
100
AcDbLine
 10
-50.0
 20
183.9997558592998
 30
0.0
 11
-20.0
 21
183.9997558592998
 31
0.0
  0
LINE
  5
6995
330
1E
100
AcDbEntity
  8
10
  6
Continuous
100
AcDbLine
 10
104.9998168945297
 20
169.9997558592999
 30
0.0
 11
-105.0
 21
169.9997558592999
 31
0.0
  0
LINE
  5
699A
330
1E
100
AcDbEntity
  8
17
  6
CONTINOUS
100
AcDbLine
 10
-70.0
 20
233.0
 30
0.0
 11
-70.0
 21
300.0
 31
0.0
  0
CIRCLE
  5
699B
330
1E
100
AcDbEntity
  8
17
  6
CONTINOUS
100
AcDbCircle
 10
-70.0
 20
285.0
 30
0.0
 40
6.5
  0
CIRCLE
  5
699C
330
1E
100
AcDbEntity
  8
17
  6
CONTINOUS
100
AcDbCircle
 10
-70.0
 20
253.0
 30
0.0
 40
6.5
  0
LINE
  5
699D
330
1E
100
AcDbEntity
  8
17
  6
CONTINOUS
100
AcDbLine
 10
-85.0
 20
253.0
 30
0.0
 11
-55.0
 21
253.0
 31
0.0
  0
LINE
  5
699E
330
1E
100
AcDbEntity
  8
17
  6
CONTINOUS
100
AcDbLine
 10
-85.0
 20
285.0
 30
0.0
 11
-55.0
 21
285.0
 31
0.0
  0
CIRCLE
  5
69A6
330
1E
100
AcDbEntity
  8
12
  6
DASHED
100
AcDbCircle
 10
-35.0
 20
183.9997558592998
 30
0.0
 40
8.5
  0
LINE
  5
69A7
330
1E
100
AcDbEntity
  8
12
  6
DASHED
100
AcDbLine
 10
-35.0
 20
199.0
 30
0.0
 11
-35.0
 21
168.9997558592999
 31
0.0
  0
LINE
  5
69A9
330
1E
100
AcDbEntity
  8
12
  6
DASHED
100
AcDbLine
 10
19.99993896484999
 20
183.9997558592998
 30
0.0
 11
49.99993896484999
 21
183.9997558592998
 31
0.0
  0
CIRCLE
  5
69AA
330
1E
100
AcDbEntity
  8
12
  6
DASHED
100
AcDbCircle
 10
34.99993896485
 20
183.9997558592998
 30
0.0
 40
8.5
  0
LINE
  5
69AB
330
1E
100
AcDbEntity
  8
12
  6
DASHED
100
AcDbLine
 10
34.99993896485
 20
199.0
 30
0.0
 11
34.99993896485
 21
168.9997558592999
 31
0.0
  0
CIRCLE
  5
69AD
330
1E
100
AcDbEntity
  8
17
  6
CONTINOUS
100
AcDbCircle
 10
69.99993896485
 20
253.0
 30
0.0
 40
6.5
  0
CIRCLE
  5
69AE
330
1E
100
AcDbEntity
  8
17
  6
CONTINOUS
100
AcDbCircle
 10
69.99993896485
 20
285.0
 30
0.0
 40
6.5
  0
CIRCLE
  5
69AF
330
1E
100
AcDbEntity
  8
17
  6
CONTINOUS
100
AcDbCircle
 10
69.99993896485
 20
285.0
 30
0.0
 40
6.5
  0
LINE
  5
69B0
330
1E
100
AcDbEntity
  8
17
  6
CONTINOUS
100
AcDbLine
 10
54.99993896484999
 20
253.0
 30
0.0
 11
84.99981689452987
 21
253.0
 31
0.0
  0
LINE
  5
69B1
330
1E
100
AcDbEntity
  8
17
  6
CONTINOUS
100
AcDbLine
 10
54.99993896484999
 20
285.0
 30
0.0
 11
84.99981689452987
 21
285.0
 31
0.0
  0
CIRCLE
  5
69B3
330
1E
100
AcDbEntity
  8
17
  6
CONTINOUS
100
AcDbCircle
 10
0.0
 20
285.0
 30
0.0
 40
6.5
  0
LINE
  5
69B4
330
1E
100
AcDbEntity
  8
17
  6
CONTINOUS
100
AcDbLine
 10
-15.0
 20
253.0
 30
0.0
 11
14.99993896484999
 21
253.0
 31
0.0
  0
LINE
  5
69B5
330
1E
100
AcDbEntity
  8
17
  6
CONTINOUS
100
AcDbLine
 10
-15.0
 20
285.0
 30
0.0
 11
14.99993896484999
 21
285.0
 31
0.0
  0
CIRCLE
  5
69B6
330
1E
100
AcDbEntity
  8
17
  6
CONTINOUS
100
AcDbCircle
 10
0.0
 20
253.0
 30
0.0
 40
6.5
  0
LINE
  5
69B8
330
1E
100
AcDbEntity
  8
17
  6
CONTINOUS
100
AcDbLine
 10
69.99993896485
 20
233.0
 30
0.0
 11
69.99993896485
 21
300.0
 31
0.0
  0
LINE
  5
69B9
330
1E
100
AcDbEntity
  8
L0_
  6
Continuous
 62
     2
100
AcDbLine
 10
-126.8352050781004
 20
-739.9997558593
 30
0.0
 11
195.2814941405995
 21
-739.9997558593
 31
0.0
  0
LINE
  5
69BA
330
1E
100
AcDbEntity
  8
L0_
  6
Continuous
 62
     2
100
AcDbLine
 10
-126.1672363281004
 20
-431.9997558593
 30
0.0
 11
195.9499511718995
 21
-431.9997558593
 31
0.0
  0
LINE
  5
69BB
330
1E
100
AcDbEntity
  8
L0_
  6
DASHED
 62
     2
100
AcDbLine
 10
201.9499511718994
 20
-397.9997558592998
 30
0.0
 11
-120.1672363281004
 21
-397.9997558592998
 31
0.0
  0
LINE
  5
69BC
330
1E
100
AcDbEntity
  8
L0_
  6
DASHED
 62
     2
100
AcDbLine
 10
195.0285644530995
 20
-773.9997558593
 30
0.0
 11
-124.3015136719004
 21
-773.9997558593
 31
0.0
  0
LINE
  5
69BD
330
1E
100
AcDbEntity
  8
L0_
  6
Continuous
 62
     2
100
AcDbLine
 10
195.9499511718995
 20
-779.9997558592999
 30
0.0
 11
-126.8352050781004
 21
-779.9997558592999
 31
0.0
  0
LINE
  5
69BE
330
1E
100
AcDbEntity
  8
L0_
  6
Continuous
 62
     2
100
AcDbLine
 10
205.9499511718994
 20
-391.9997558592998
 30
0.0
 11
-116.1672363281004
 21
-391.9997558592998
 31
0.0
  0
LINE
  5
69C8
330
1E
100
AcDbEntity
  8
17
  6
DASHDOT
100
AcDbLine
 10
375.1094970703002
 20
-255.0
 30
0.0
 11
421.8334960937998
 21
-255.0
 31
0.0
  0
LINE
  5
69CC
330
1E
100
AcDbEntity
  8
10
  6
Continuous
100
AcDbLine
 10
302.0
 20
47.49999999999999
 30
0.0
 11
313.0
 21
47.49999999999999
 31
0.0
  0
LINE
  5
69CD
330
1E
100
AcDbEntity
  8
10
  6
Continuous
100
AcDbLine
 10
302.0
 20
-47.5
 30
0.0
 11
313.0
 21
-47.5
 31
0.0
  0
CIRCLE
  5
69CE
330
1E
100
AcDbEntity
  8
18
100
AcDbCircle
 10
212.1923057119384
 20
57.80212868525811
 30
0.0
 40
20.0000000000001
  0
ARC
  5
69CF
330
1E
100
AcDbEntity
  8
10
  6
Continuous
100
AcDbCircle
 10
370.9992675782003
 20
-0.0000000000000142
 30
0.0
 40
188.9991607666543
100
AcDbArc
 50
159.9999133832608
 51
180.0
  0
ARC
  5
69D0
330
1E
100
AcDbEntity
  8
10
  6
Continuous
100
AcDbCircle
 10
371.0
 20
-0.0000000000000142
 30
0.0
 40
75.0
100
AcDbArc
 50
180.0
 51
203.073913987651
  0
LINE
  5
69D1
330
1E
100
AcDbEntity
  8
10
  6
Continuous
100
AcDbLine
 10
302.0
 20
-29.39404296880002
 30
0.0
 11
302.0
 21
-47.5
 31
0.0
  0
LINE
  5
69D2
330
1E
100
AcDbEntity
  8
18
100
AcDbLine
 10
265.5024414063
 20
52.23242187499998
 30
0.0
 11
236.3198242188
 21
59.14013671869996
 31
0.0
  0
LINE
  5
69D3
330
1E
100
AcDbEntity
  8
18
100
AcDbLine
 10
256.6098632813
 20
27.80029296869996
 30
0.0
 11
229.814453125
 21
41.26660156249998
 31
0.0
  0
ARC
  5
69D4
330
1E
100
AcDbEntity
  8
18
100
AcDbCircle
 10
237.9326516681012
 20
65.95259114023336
 30
0.0
 40
7.000000000040718
100
AcDbArc
 50
197.5698696909479
 51
256.6826297870069
  0
ARC
  5
69D5
330
1E
100
AcDbEntity
  8
18
100
AcDbCircle
 10
226.6714543907955
 20
35.01270701271776
 30
0.0
 40
7.000000000035852
100
AcDbArc
 50
63.31735842156748
 51
122.4301390088877
  0
ARC
  5
69D6
330
1E
100
AcDbEntity
  8
10
  6
Continuous
100
AcDbCircle
 10
370.9992675782003
 20
-0.0000000000000142
 30
0.0
 40
108.9994277954571
100
AcDbArc
 50
159.999913383234
 51
180.0
  0
LINE
  5
69D7
330
1E
100
AcDbEntity
  8
18
100
AcDbLine
 10
265.5024414063
 20
52.23242187499998
 30
0.0
 11
256.6098632813
 21
27.80029296869996
 31
0.0
  0
LINE
  5
69D8
330
1E
100
AcDbEntity
  8
18
100
AcDbLine
 10
265.5024414063
 20
52.23242187499998
 30
0.0
 11
299.3310546875
 21
39.91943359369996
 31
0.0
  0
LINE
  5
69D9
330
1E
100
AcDbEntity
  8
18
100
AcDbLine
 10
299.3310546875
 20
39.91943359369996
 30
0.0
 11
290.4384765625
 21
15.48779296869996
 31
0.0
  0
LINE
  5
69DA
330
1E
100
AcDbEntity
  8
18
100
AcDbLine
 10
256.6098632813
 20
27.80029296869996
 30
0.0
 11
290.4384765625
 21
15.48779296869996
 31
0.0
  0
ARC
  5
69DB
330
1E
100
AcDbEntity
  8
10
  6
Continuous
100
AcDbCircle
 10
269.2387695313
 20
33.26074218749996
 30
0.0
 40
1.999999999970313
100
AcDbArc
 50
159.9997221383794
 51
248.5674954434578
  0
ARC
  5
69DC
330
1E
100
AcDbEntity
  8
10
  6
Continuous
100
AcDbCircle
 10
299.6538555566603
 20
37.91500565583371
 30
0.0
 40
5.000000000014308
100
AcDbArc
 50
251.432099447418
 51
271.538373194407
  0
ARC
  5
69DD
330
1E
100
AcDbEntity
  8
10
  6
Continuous
100
AcDbCircle
 10
291.9748517883281
 20
16.81711695391366
 30
0.0
 40
4.999999999950349
100
AcDbArc
 50
48.46161501428159
 51
68.56790242145414
  0
ARC
  5
69DE
330
1E
100
AcDbEntity
  8
10
  6
Continuous
100
AcDbCircle
 10
271.6669921874999
 20
39.93164062499998
 30
0.0
 40
1.999999999976978
100
AcDbArc
 50
71.43229716816506
 51
160.0005964028956
  0
LINE
  5
69DF
330
1E
100
AcDbEntity
  8
10
  6
Continuous
100
AcDbLine
 10
298.189453125
 20
17.98974609369996
 30
0.0
 11
295.2905273438
 21
20.55908203119996
 31
0.0
  0
LINE
  5
69E0
330
1E
100
AcDbEntity
  8
10
  6
Continuous
100
AcDbLine
 10
269.7875976563
 20
40.61572265619996
 30
0.0
 11
267.359375
 21
33.94482421869996
 31
0.0
  0
LINE
  5
69E3
330
1E
100
AcDbEntity
  8
10
  6
Continuous
100
AcDbLine
 10
268.5083007813
 20
31.39892578119996
 30
0.0
 11
293.8012695313
 21
21.47021484369996
 31
0.0
  0
LINE
  5
69E4
330
1E
100
AcDbEntity
  8
10
  6
Continuous
100
AcDbLine
 10
302.0
 20
29.39404296869996
 30
0.0
 11
302.0
 21
47.49999999999999
 31
0.0
  0
ARC
  5
69E5
330
1E
100
AcDbEntity
  8
10
  6
Continuous
100
AcDbCircle
 10
371.0
 20
-0.0000000000000142
 30
0.0
 40
74.99999999992823
100
AcDbArc
 50
156.9260823699605
 51
180.0
  0
LINE
  5
69EC
330
1E
100
AcDbEntity
  8
17
  6
DASHDOT
100
AcDbLine
 10
421.8334960937998
 20
-223.0
 30
0.0
 11
375.1094970703002
 21
-223.0
 31
0.0
  0
LINE
  5
69EE
330
1E
100
AcDbEntity
  8
12
  6
DASHED
100
AcDbLine
 10
321.0
 20
-162.5
 30
0.0
 11
425.0
 21
-162.5
 31
0.0
  0
LINE
  5
69EF
330
1E
100
AcDbEntity
  8
12
  6
DASHED
100
AcDbLine
 10
321.0
 20
-145.5
 30
0.0
 11
425.0
 21
-145.5
 31
0.0
  0
LINE
  5
69F0
330
1E
100
AcDbEntity
  8
L225_
  6
Continuous
 62
     3
100
AcDbLine
 10
412.6788330078002
 20
-154.0
 30
0.0
 11
486.0
 21
-154.0
 31
0.0
  0
LINE
  5
69F3
330
1E
100
AcDbEntity
  8
12
  6
DASHED
100
AcDbLine
 10
459.0
 20
-167.0
 30
0.0
 11
459.0
 21
-139.0
 31
0.0
  0
LINE
  5
69F4
330
1E
100
AcDbEntity
  8
12
  6
DASHED
100
AcDbLine
 10
425.0
 20
-145.5
 30
0.0
 11
425.0
 21
-162.5
 31
0.0
  0
LINE
  5
69F5
330
1E
100
AcDbEntity
  8
12
  6
DASHED
100
AcDbLine
 10
418.0
 20
-145.5
 30
0.0
 11
418.0
 21
-162.5
 31
0.0
  0
LINE
  5
69F6
330
1E
100
AcDbEntity
  8
12
  6
DASHED
100
AcDbLine
 10
469.0
 20
-163.0
 30
0.0
 11
469.0
 21
-145.0
 31
0.0
  0
LINE
  5
69F7
330
1E
100
AcDbEntity
  8
12
  6
DASHED
100
AcDbLine
 10
493.0
 20
-179.0
 30
0.0
 11
453.0
 21
-179.0
 31
0.0
  0
LINE
  5
69F8
330
1E
100
AcDbEntity
  8
12
  6
DASHED
100
AcDbLine
 10
465.0
 20
-173.0
 30
0.0
 11
493.0
 21
-173.0
 31
0.0
  0
LINE
  5
69F9
330
1E
100
AcDbEntity
  8
12
  6
DASHED
100
AcDbLine
 10
453.0
 20
-170.0
 30
0.0
 11
453.0
 21
-179.0
 31
0.0
  0
LINE
  5
69FA
330
1E
100
AcDbEntity
  8
12
  6
DASHED
100
AcDbLine
 10
469.0
 20
-163.0
 30
0.0
 11
459.0
 21
-163.0
 31
0.0
  0
ARC
  5
69FB
330
1E
100
AcDbEntity
  8
12
  6
DASHED
100
AcDbCircle
 10
-465.0
 20
-167.0
 30
0.0
 40
6.0
210
0.0
220
0.0
230
-1.0
100
AcDbArc
 50
270.0
 51
0.0
  0
LINE
  5
69FC
330
1E
100
AcDbEntity
  8
12
  6
DASHED
100
AcDbLine
 10
493.0
 20
-179.0
 30
0.0
 11
493.0
 21
-173.0
 31
0.0
  0
LINE
  5
69FD
330
1E
100
AcDbEntity
  8
12
  6
DASHED
100
AcDbLine
 10
471.0
 20
-158.0
 30
0.0
 11
471.0
 21
-150.0
 31
0.0
  0
LINE
  5
69FE
330
1E
100
AcDbEntity
  8
12
  6
DASHED
100
AcDbLine
 10
469.0
 20
-145.0
 30
0.0
 11
459.0
 21
-145.0
 31
0.0
  0
LINE
  5
69FF
330
1E
100
AcDbEntity
  8
12
  6
DASHED
100
AcDbLine
 10
471.0
 20
-158.0
 30
0.0
 11
459.0
 21
-158.0
 31
0.0
  0
ARC
  5
6A00
330
1E
100
AcDbEntity
  8
12
  6
DASHED
100
AcDbCircle
 10
-455.0
 20
-142.0009765624999
 30
0.0
 40
4.000001778531173
210
0.0
220
0.0
230
-1.0
100
AcDbArc
 50
179.9459695860091
 51
180.0
  0
LINE
  5
6A01
330
1E
100
AcDbEntity
  8
12
  6
DASHED
100
AcDbLine
 10
459.0
 20
-150.0
 30
0.0
 11
471.0
 21
-150.0
 31
0.0
  0
LINE
  5
6A02
330
1E
100
AcDbEntity
  8
12
  6
DASHED
100
AcDbLine
 10
453.0
 20
-139.0
 30
0.0
 11
459.0
 21
-139.0
 31
0.0
  0
LINE
  5
6A03
330
1E
100
AcDbEntity
  8
12
  6
DASHED
100
AcDbLine
 10
425.0
 20
-158.0
 30
0.0
 11
453.0
 21
-158.0
 31
0.0
  0
LINE
  5
6A04
330
1E
100
AcDbEntity
  8
12
  6
DASHED
100
AcDbLine
 10
425.0
 20
-150.0
 30
0.0
 11
453.0
 21
-150.0
 31
0.0
  0
LINE
  5
6A0E
330
1E
100
AcDbEntity
  8
12
  6
DASHED
100
AcDbLine
 10
465.0
 20
165.0
 30
0.0
 11
493.0
 21
165.0
 31
0.0
  0
LINE
  5
6A0F
330
1E
100
AcDbEntity
  8
12
  6
DASHED
100
AcDbLine
 10
493.0
 20
159.0
 30
0.0
 11
453.0
 21
159.0
 31
0.0
  0
LINE
  5
6A10
330
1E
100
AcDbEntity
  8
12
  6
DASHED
100
AcDbLine
 10
438.4326171875
 20
184.0
 30
0.0
 11
488.8156738282003
 21
184.0
 31
0.0
  0
LINE
  5
6A11
330
1E
100
AcDbEntity
  8
12
  6
DASHED
100
AcDbLine
 10
459.0
 20
171.0
 30
0.0
 11
459.0
 21
199.0
 31
0.0
  0
LINE
  5
6A12
330
1E
100
AcDbEntity
  8
12
  6
DASHED
100
AcDbLine
 10
471.0
 20
180.0
 30
0.0
 11
471.0
 21
188.0
 31
0.0
  0
LINE
  5
6A13
330
1E
100
AcDbEntity
  8
12
  6
DASHED
100
AcDbLine
 10
453.0
 20
200.0
 30
0.0
 11
453.0
 21
209.0
 31
0.0
  0
LINE
  5
6A14
330
1E
100
AcDbEntity
  8
12
  6
DASHED
100
AcDbLine
 10
469.0
 20
193.0
 30
0.0
 11
459.0
 21
193.0
 31
0.0
  0
LINE
  5
6A15
330
1E
100
AcDbEntity
  8
12
  6
DASHED
100
AcDbLine
 10
469.0
 20
175.0
 30
0.0
 11
459.0
 21
175.0
 31
0.0
  0
LINE
  5
6A16
330
1E
100
AcDbEntity
  8
12
  6
DASHED
100
AcDbLine
 10
469.0
 20
175.0
 30
0.0
 11
469.0
 21
193.0
 31
0.0
  0
LINE
  5
6A17
330
1E
100
AcDbEntity
  8
12
  6
DASHED
100
AcDbLine
 10
471.0
 20
180.0
 30
0.0
 11
459.0
 21
180.0
 31
0.0
  0
ARC
  5
6A18
330
1E
100
AcDbEntity
  8
12
  6
DASHED
100
AcDbCircle
 10
455.0
 20
195.9990234374999
 30
0.0
 40
4.000001778531268
100
AcDbArc
 50
0.0
 51
0.0540304154237652
  0
ARC
  5
6A19
330
1E
100
AcDbEntity
  8
12
  6
DASHED
100
AcDbCircle
 10
465.0
 20
171.0
 30
0.0
 40
6.0
100
AcDbArc
 50
180.0
 51
270.0
  0
LINE
  5
6A1A
330
1E
100
AcDbEntity
  8
12
  6
DASHED
100
AcDbLine
 10
459.0
 20
188.0
 30
0.0
 11
471.0
 21
188.0
 31
0.0
  0
LINE
  5
6A1B
330
1E
100
AcDbEntity
  8
12
  6
DASHED
100
AcDbLine
 10
453.0
 20
199.0
 30
0.0
 11
459.0
 21
199.0
 31
0.0
  0
LINE
  5
6A1C
330
1E
100
AcDbEntity
  8
12
  6
DASHED
100
AcDbLine
 10
493.0
 20
159.0
 30
0.0
 11
493.0
 21
165.0
 31
0.0
  0
LINE
  5
6A1D
330
1E
100
AcDbEntity
  8
17
  6
DASHDOT
100
AcDbLine
 10
405.6597900391001
 20
253.0
 30
0.0
 11
457.7751464844005
 21
253.0
 31
0.0
  0
LINE
  5
6A1E
330
1E
100
AcDbEntity
  8
17
  6
DASHDOT
100
AcDbLine
 10
405.6597900391001
 20
285.0
 30
0.0
 11
457.7751464844005
 21
285.0
 31
0.0
  0
LINE
  5
6A25
330
1E
100
AcDbEntity
  8
L0_
  6
Continuous
 62
     2
100
AcDbLine
 10
-119.64453125
 20
-765.9609375
 30
0.0
 11
-128.6313476561999
 21
-752.9799804687
 31
0.0
  0
LINE
  5
6A26
330
1E
100
AcDbEntity
  8
L0_
  6
Continuous
 62
     2
100
AcDbLine
 10
-126.8352050781004
 20
-779.9997558592999
 30
0.0
 11
-119.64453125
 21
-765.9609375
 31
0.0
  0
LINE
  5
6A27
330
1E
100
AcDbEntity
  8
L0_
  6
Continuous
 62
     2
100
AcDbLine
 10
-128.6313476561999
 20
-752.9799804687
 30
0.0
 11
-126.8352050781004
 21
-739.9997558593
 31
0.0
  0
CIRCLE
  5
6A29
330
1E
100
AcDbEntity
  8
12
100
AcDbCircle
 10
35.0
 20
-754.9997558592999
 30
0.0
 40
4.5
  0
CIRCLE
  5
6A2A
330
1E
100
AcDbEntity
  8
12
100
AcDbCircle
 10
-35.0
 20
-754.9997558592999
 30
0.0
 40
4.5
  0
LINE
  5
6A2B
330
1E
100
AcDbEntity
  8
12
100
AcDbLine
 10
-50.0
 20
-754.9997558592999
 30
0.0
 11
-20.0
 21
-754.9997558592999
 31
0.0
  0
LINE
  5
6A2E
330
1E
100
AcDbEntity
  8
L0_
  6
Continuous
 62
     2
100
AcDbLine
 10
-116.1672363281004
 20
-416.9997558592998
 30
0.0
 11
-126.1672363281004
 21
-406.9997558593
 31
0.0
  0
LINE
  5
6A2F
330
1E
100
AcDbEntity
  8
L0_
  6
Continuous
 62
     2
100
AcDbLine
 10
-126.1672363281004
 20
-431.9997558593
 30
0.0
 11
-116.1672363281004
 21
-416.9997558592998
 31
0.0
  0
LINE
  5
6A30
330
1E
100
AcDbEntity
  8
L0_
  6
Continuous
 62
     2
100
AcDbLine
 10
-126.1672363281004
 20
-406.9997558593
 30
0.0
 11
-116.1672363281004
 21
-391.9997558592998
 31
0.0
  0
LINE
  5
6A31
330
1E
100
AcDbEntity
  8
L0_
  6
Continuous
 62
     2
100
AcDbLine
 10
-116.1672363281004
 20
-416.9997558592998
 30
0.0
 11
-126.1672363281004
 21
-406.9997558593
 31
0.0
  0
LINE
  5
6A32
330
1E
100
AcDbEntity
  8
L0_
  6
Continuous
 62
     2
100
AcDbLine
 10
-126.1672363281004
 20
-431.9997558593
 30
0.0
 11
-116.1672363281004
 21
-416.9997558592998
 31
0.0
  0
LINE
  5
6A33
330
1E
100
AcDbEntity
  8
L0_
  6
Continuous
 62
     2
100
AcDbLine
 10
-126.1672363281004
 20
-406.9997558593
 30
0.0
 11
-116.1672363281004
 21
-391.9997558592998
 31
0.0
  0
LINE
  5
6A34
330
1E
100
AcDbEntity
  8
L0_
  6
Continuous
 62
     2
100
AcDbLine
 10
-126.1672363281004
 20
-406.9997558593
 30
0.0
 11
-116.1672363281004
 21
-391.9997558592998
 31
0.0
  0
LINE
  5
6A35
330
1E
100
AcDbEntity
  8
L0_
  6
Continuous
 62
     2
100
AcDbLine
 10
-116.1672363281004
 20
-416.9997558592998
 30
0.0
 11
-126.1672363281004
 21
-406.9997558593
 31
0.0
  0
LINE
  5
6A36
330
1E
100
AcDbEntity
  8
L0_
  6
Continuous
 62
     2
100
AcDbLine
 10
-126.1672363281004
 20
-431.9997558593
 30
0.0
 11
-116.1672363281004
 21
-416.9997558592998
 31
0.0
  0
CIRCLE
  5
6A37
330
1E
100
AcDbEntity
  8
12
100
AcDbCircle
 10
35.0
 20
-417.0
 30
0.0
 40
4.5
  0
LINE
  5
6A38
330
1E
100
AcDbEntity
  8
12
100
AcDbLine
 10
-50.0
 20
-417.0
 30
0.0
 11
-20.0
 21
-417.0
 31
0.0
  0
LINE
  5
6A39
330
1E
100
AcDbEntity
  8
12
100
AcDbLine
 10
-35.0
 20
-401.9997558592998
 30
0.0
 11
-35.0
 21
-432.0
 31
0.0
  0
CIRCLE
  5
6A3A
330
1E
100
AcDbEntity
  8
12
100
AcDbCircle
 10
-35.0
 20
-417.0
 30
0.0
 40
4.5
  0
LINE
  5
6A3B
330
1E
100
AcDbEntity
  8
12
100
AcDbLine
 10
35.0
 20
-401.9997558592998
 30
0.0
 11
35.0
 21
-432.0
 31
0.0
  0
LINE
  5
6A3F
330
1E
100
AcDbEntity
  8
L0_
  6
Continuous
 62
     2
100
AcDbLine
 10
188.9011230468994
 20
-762.9653320312
 30
0.0
 11
197.8876953125
 21
-752.9799804687
 31
0.0
  0
LINE
  5
6A40
330
1E
100
AcDbEntity
  8
L0_
  6
Continuous
 62
     2
100
AcDbLine
 10
195.9499511718995
 20
-779.9997558592999
 30
0.0
 11
188.9011230468994
 21
-762.9653320312
 31
0.0
  0
LINE
  5
6A41
330
1E
100
AcDbEntity
  8
L0_
  6
Continuous
 62
     2
100
AcDbLine
 10
197.8876953125
 20
-752.9799804687
 30
0.0
 11
195.2814941405995
 21
-739.9997558593
 31
0.0
  0
LINE
  5
6A42
330
1E
100
AcDbEntity
  8
L0_
  6
Continuous
 62
     2
100
AcDbLine
 10
205.9499511718994
 20
-416.9997558592998
 30
0.0
 11
195.9499511718995
 21
-406.9997558593
 31
0.0
  0
LINE
  5
6A43
330
1E
100
AcDbEntity
  8
L0_
  6
Continuous
 62
     2
100
AcDbLine
 10
195.9499511718995
 20
-431.9997558593
 30
0.0
 11
205.9499511718994
 21
-416.9997558592998
 31
0.0
  0
LINE
  5
6A44
330
1E
100
AcDbEntity
  8
L0_
  6
Continuous
 62
     2
100
AcDbLine
 10
195.9499511718995
 20
-406.9997558593
 30
0.0
 11
205.9499511718994
 21
-391.9997558592998
 31
0.0
  0
LWPOLYLINE
  5
6B40
330
1E
100
AcDbEntity
  8
10
  6
Continuous
100
AcDbPolyline
 90
       16
 70
     1
 43
0.0
 10
47.49993896484999
 20
-170.0
 10
22.49993896485
 20
-170.0
 10
-22.5
 20
-170.0
 10
-47.5
 20
-170.0
 10
-92.5
 20
-170.0
 10
-105.0
 20
-170.0
 10
-105.0
 20
200.0
 10
-92.5
 20
200.0
 10
-47.5
 20
200.0
 10
-22.5
 20
200.0
 10
22.49993896485
 20
200.0
 10
47.49993896484999
 20
200.0
 10
92.49981689452987
 20
200.0
 10
104.9998168945297
 20
200.0
 10
104.9998168945297
 20
-170.0
 10
92.49981689452987
 20
-170.0
  0
LWPOLYLINE
  5
6B41
330
1E
100
AcDbEntity
  8
10
  6
Continuous
100
AcDbPolyline
 90
        4
 70
     1
 43
0.0
 10
39.0
 20
-52.0
 10
-39.0
 20
-52.0
 10
-39.0
 20
43.0
 10
39.0
 20
43.0
  0
LWPOLYLINE
  5
6B43
330
1E
100
AcDbEntity
  8
17
  6
CONTINOUS
100
AcDbPolyline
 90
        4
 70
     0
 43
0.0
 10
92.49981689452987
 20
200.0
 10
92.49981689452987
 20
300.0
 10
47.49993896484999
 20
300.0
 10
47.49993896484999
 20
200.0
  0
LWPOLYLINE
  5
6B44
330
1E
100
AcDbEntity
  8
17
  6
CONTINOUS
100
AcDbPolyline
 90
        4
 70
     0
 43
0.0
 10
22.49993896485
 20
200.0
 10
22.49993896485
 20
300.0
 10
-22.5
 20
300.0
 10
-22.5
 20
200.0
  0
LWPOLYLINE
  5
6B45
330
1E
100
AcDbEntity
  8
17
  6
CONTINOUS
100
AcDbPolyline
 90
        4
 70
     0
 43
0.0
 10
-47.5
 20
200.0
 10
-47.5
 20
300.0
 10
-92.5
 20
300.0
 10
-92.5
 20
200.0
  0
LWPOLYLINE
  5
6B46
330
1E
100
AcDbEntity
  8
17
  6
CONTINOUS
100
AcDbPolyline
 90
        4
 70
     0
 43
0.0
 10
92.49981689452987
 20
-170.0
 10
92.49981689452987
 20
-270.0
 10
47.49993896484999
 20
-270.0
 10
47.49993896484999
 20
-170.0
  0
LWPOLYLINE
  5
6B47
330
1E
100
AcDbEntity
  8
17
  6
CONTINOUS
100
AcDbPolyline
 90
        4
 70
     0
 43
0.0
 10
22.49993896485
 20
-170.0
 10
22.49993896485
 20
-270.0
 10
-22.5
 20
-270.0
 10
-22.5
 20
-170.0
  0
LWPOLYLINE
  5
6B48
330
1E
100
AcDbEntity
  8
17
  6
CONTINOUS
100
AcDbPolyline
 90
        4
 70
     0
 43
0.0
 10
-47.5
 20
-170.0
 10
-47.5
 20
-270.0
 10
-92.5
 20
-270.0
 10
-92.5
 20
-170.0
  0
LINE
  5
6B49
330
1E
100
AcDbEntity
  8
17
  6
CONTINOUS
100
AcDbLine
 10
0.0000610351701198
 20
-203.0
 30
0.0
 11
0.0000610351701198
 21
-289.9890136719
 31
0.0
  0
LINE
  5
6B4A
330
1E
100
AcDbEntity
  8
17
  6
CONTINOUS
100
AcDbLine
 10
-69.99987792967989
 20
-203.0
 30
0.0
 11
-69.99987792967989
 21
-289.9890136719
 31
0.0
  0
LWPOLYLINE
  5
6C06
330
1E
100
AcDbEntity
  8
10
  6
Continuous
100
AcDbPolyline
 90
        8
 70
     1
 43
0.0
 10
321.0
 20
-170.0
 10
321.0
 20
-140.0
 10
313.0
 20
-140.0
 10
313.0
 20
170.0
 10
321.0
 20
170.0
 10
321.0
 20
200.0
 10
453.0
 20
200.0
 10
453.0
 20
-170.0
  0
LWPOLYLINE
  5
6C07
330
1E
100
AcDbEntity
  8
10
  6
Continuous
100
AcDbPolyline
 90
        2
 70
     0
 43
0.0
 10
302.0
 20
32.97558593749998
 10
299.7880859374999
 20
32.91601562499998
  0
LWPOLYLINE
  5
6C08
330
1E
100
AcDbEntity
  8
10
  6
Continuous
100
AcDbPolyline
 90
        2
 70
     0
 43
0.0
 10
298.0615234375
 20
33.17529296869996
 10
272.3037109374999
 20
41.82763671869996
  0
LWPOLYLINE
  5
6C09
330
1E
100
AcDbEntity
  8
17
  6
CONTINOUS
100
AcDbPolyline
 90
        4
 70
     0
 43
0.0
 10
407.0
 20
-170.0
 10
407.0
 20
-270.0
 10
387.0
 20
-270.0
 10
387.0
 20
-170.0
  0
LWPOLYLINE
  5
6C0A
330
1E
100
AcDbEntity
  8
17
  6
CONTINOUS
100
AcDbPolyline
 90
        4
 70
     0
 43
0.0
 10
422.0
 20
200.0
 10
422.0
 20
300.0
 10
442.0
 20
300.0
 10
442.0
 20
200.0
  0
DIMENSION
  5
6C95
330
1E
100
AcDbEntity
  8
30
  6
Continuous
100
AcDbDimension
  2
*D11
 10
92.49981689452987
 20
-305.5330128661744
 30
0.0
 11
69.99987792968993
 21
-301.0330128661743
 31
0.0
 70
    32
 71
     5
 42
-1.0
  3
STANDARD
100
AcDbAlignedDimension
 13
47.49993896484999
 23
-270.0
 33
0.0
 14
92.49981689452987
 24
-270.0
 34
0.0
100
AcDbRotatedDimension
  0
DIMENSION
  5
6CA2
330
1E
100
AcDbEntity
  8
30
  6
Continuous
100
AcDbDimension
  2
*D12
 10
0.0000610351701181
 20
-318.4852668063658
 30
0.0
 11
-34.99990844725487
 21
-313.9852668063658
 31
0.0
 70
    32
 71
     5
 42
-1.0
  3
STANDARD
100
AcDbAlignedDimension
 13
-69.99987792967989
 23
-289.9890136719
 33
0.0
 14
0.0000610351701198
 24
-289.9890136719
 34
0.0
100
AcDbRotatedDimension
  0
DIMENSION
  5
6CAF
330
1E
100
AcDbEntity
  8
30
  6
Continuous
100
AcDbDimension
  2
*D13
 10
69.99993896485
 20
-318.4852668063658
 30
0.0
 11
35.00000000001005
 21
-313.9852668063658
 31
0.0
 70
    32
 71
     5
 42
-1.0
  3
STANDARD
100
AcDbAlignedDimension
 13
0.0000610351701198
 23
-289.9890136719
 33
0.0
 14
69.99993896485
 24
-289.9890136719
 34
0.0
100
AcDbRotatedDimension
1001
ACAD
1000
DSTYLE
1002
{
1070
   287
1070
     4
1070
   287
1070
     4
1070
   287
1070
     4
1070
   287
1070
     4
1070
   279
1070
     1
1002
}
  0
DIMENSION
  5
6CBC
330
1E
100
AcDbEntity
  8
30
  6
Continuous
100
AcDbDimension
  2
*D14
 10
104.9998168945297
 20
-335.8207924016777
 30
0.0
 11
-0.0000915527351137
 21
-331.3207924016777
 31
0.0
 70
    32
 71
     5
 42
-1.0
  3
STANDARD
100
AcDbAlignedDimension
 13
-105.0
 23
-170.0
 33
0.0
 14
104.9998168945297
 24
-170.0
 34
0.0
100
AcDbRotatedDimension
  0
DIMENSION
  5
6CC9
330
1E
100
AcDbEntity
  8
30
  6
Continuous
100
AcDbDimension
  2
*D15
 10
121.1719315502375
 20
285.0
 30
0.0
 11
116.6719315502376
 21
292.5
 31
0.0
 70
    32
 71
     5
 42
-1.0
  3
STANDARD
100
AcDbAlignedDimension
 13
92.49981689452987
 23
300.0
 33
0.0
 14
76.49993896485
 24
285.0
 34
0.0
 50
90.0
100
AcDbRotatedDimension
  0
DIMENSION
  5
6CD6
330
1E
100
AcDbEntity
  8
30
  6
Continuous
100
AcDbDimension
  2
*D16
 10
121.1719315502375
 20
253.0
 30
0.0
 11
116.6719315502374
 21
269.0
 31
0.0
 70
    32
 71
     5
 42
-1.0
  3
STANDARD
100
AcDbAlignedDimension
 13
76.49993896485
 23
285.0
 33
0.0
 14
84.99981689452987
 24
253.0
 34
0.0
 50
90.0
100
AcDbRotatedDimension
1001
ACAD
1000
DSTYLE
1002
{
1070
   287
1070
     4
1070
   287
1070
     4
1070
   287
1070
     4
1070
   287
1070
     4
1070
   279
1070
     1
1002
}
  0
DIMENSION
  5
6CE3
330
1E
100
AcDbEntity
  8
30
  6
Continuous
100
AcDbDimension
  2
*D17
 10
121.1719315502375
 20
200.0
 30
0.0
 11
116.6719315502374
 21
226.5
 31
0.0
 70
    32
 71
     5
 42
-1.0
  3
STANDARD
100
AcDbAlignedDimension
 13
84.99981689452987
 23
253.0
 33
0.0
 14
104.9998168945297
 24
200.0
 34
0.0
 50
90.0
100
AcDbRotatedDimension
1001
ACAD
1000
DSTYLE
1002
{
1070
   287
1070
     4
1070
   287
1070
     4
1070
   287
1070
     4
1070
   287
1070
     4
1070
   279
1070
     1
1002
}
  0
DIMENSION
  5
6CF0
330
1E
100
AcDbEntity
  8
30
  6
Continuous
100
AcDbDimension
  2
*D18
 10
65.47727006197431
 20
280.4214385518704
 30
0.0
 11
110.1666056315167
 21
317.0899999999998
 31
0.0
 70
   163
 71
     5
 42
-1.0
  3
STANDARD
100
AcDbDiametricDimension
 15
74.52260786772547
 25
289.7585614481295
 35
0.0
 40
0.0
1001
ACAD
1000
DSTYLE
1002
{
1070
   288
1070
     1
1002
}
  0
DIMENSION
  5
6D05
330
1E
100
AcDbEntity
  8
30
  6
Continuous
100
AcDbDimension
  2
*D19
 10
-119.0
 20
361.1509476533528
 30
0.0
 11
-123.5
 21
431.1509476533529
 31
0.0
 70
    32
 71
     5
 42
-1.0
  3
STANDARD
100
AcDbAlignedDimension
 13
-105.0
 23
501.1509476533529
 33
0.0
 14
-105.0
 24
361.1509476533528
 34
0.0
 50
90.0
100
AcDbRotatedDimension
  0
LWPOLYLINE
  5
6D06
330
1E
100
AcDbEntity
  8
10
  6
Continuous
100
AcDbPolyline
 90
        3
 70
     0
 43
0.0
 10
-39.0
 20
361.1509476533528
 10
-39.0
 20
357.1509476533528
 10
39.0
 20
357.1509476533528
  0
LWPOLYLINE
  5
6D07
330
1E
100
AcDbEntity
  8
10
  6
Continuous
100
AcDbPolyline
 90
        4
 70
     0
 43
0.0
 10
-22.5
 20
357.1509476533528
 10
-22.5
 20
325.1509476533529
 10
22.5
 20
325.1509476533529
 10
22.5
 20
357.1509476533528
  0
LINE
  5
6D08
330
1E
100
AcDbEntity
  8
10
  6
Continuous
100
AcDbLine
 10
39.0
 20
357.1509476533528
 30
0.0
 11
39.0
 21
361.1509476533528
 31
0.0
  0
LINE
  5
6D09
330
1E
100
AcDbEntity
  8
10
  6
Continuous
100
AcDbLine
 10
39.0
 20
361.1509476533528
 30
0.0
 11
39.0
 21
361.1509476533528
 31
0.0
  0
LWPOLYLINE
  5
6D0A
330
1E
100
AcDbEntity
  8
17
  6
CONTINOUS
100
AcDbPolyline
 90
        4
 70
     1
 43
0.0
 10
-20.0
 20
490.1509476533528
 10
20.0
 20
490.1509476533528
 10
20.0
 20
470.1509476533528
 10
-20.0
 20
470.1509476533528
  0
LWPOLYLINE
  5
6D0B
330
1E
100
AcDbEntity
  8
17
  6
CONTINOUS
100
AcDbPolyline
 90
        2
 70
     0
 43
0.0
 10
-63.5
 20
490.1509476533528
 10
-63.5
 20
470.1509476533528
  0
LWPOLYLINE
  5
6D0C
330
1E
100
AcDbEntity
  8
17
  6
CONTINOUS
100
AcDbPolyline
 90
        2
 70
     0
 43
0.0
 10
-76.49993896484011
 20
490.1509476533528
 10
-76.49993896484011
 20
470.1509476533528
  0
LWPOLYLINE
  5
6D0D
330
1E
100
AcDbEntity
  8
17
  6
CONTINOUS
100
AcDbPolyline
 90
        4
 70
     1
 43
0.0
 10
-89.99993896484012
 20
490.1509476533528
 10
-49.9999389648401
 20
490.1509476533528
 10
-49.9999389648401
 20
470.1509476533528
 10
-89.99993896484012
 20
470.1509476533528
  0
LWPOLYLINE
  5
6D11
330
1E
100
AcDbEntity
  8
17
  6
CONTINOUS
100
AcDbPolyline
 90
        2
 70
     0
 43
0.0
 10
76.5
 20
490.1509476533528
 10
76.5
 20
470.1509476533528
  0
LWPOLYLINE
  5
6D12
330
1E
100
AcDbEntity
  8
17
  6
CONTINOUS
100
AcDbPolyline
 90
        2
 70
     0
 43
0.0
 10
63.5
 20
490.1509476533528
 10
63.5
 20
470.1509476533528
  0
LWPOLYLINE
  5
6D13
330
1E
100
AcDbEntity
  8
17
  6
CONTINOUS
100
AcDbPolyline
 90
        2
 70
     0
 43
0.0
 10
6.5
 20
490.1509476533528
 10
6.5
 20
470.1509476533528
  0
LWPOLYLINE
  5
6D14
330
1E
100
AcDbEntity
  8
17
  6
CONTINOUS
100
AcDbPolyline
 90
        2
 70
     0
 43
0.0
 10
-6.5
 20
490.1509476533528
 10
-6.5
 20
470.1509476533528
  0
LWPOLYLINE
  5
6D15
330
1E
100
AcDbEntity
  8
17
  6
CONTINOUS
100
AcDbPolyline
 90
        4
 70
     1
 43
0.0
 10
50.0
 20
490.1509476533528
 10
90.0
 20
490.1509476533528
 10
90.0
 20
470.1509476533528
 10
50.0
 20
470.1509476533528
  0
LINE
  5
6D33
330
1E
100
AcDbEntity
  8
10
  6
Continuous
100
AcDbLine
 10
-105.0
 20
368.1509476533528
 30
0.0
 11
-105.0
 21
368.1509476533528
 31
0.0
  0
LINE
  5
6D36
330
1E
100
AcDbEntity
  8
10
  6
Continuous
100
AcDbLine
 10
-51.0
 20
361.1509476533528
 30
0.0
 11
-51.0
 21
361.1509476533528
 31
0.0
  0
DIMENSION
  5
6D5C
330
1E
100
AcDbEntity
  8
30
  6
Continuous
100
AcDbDimension
  2
*D20
 10
422.0
 20
328.2168640744838
 30
0.0
 11
432.0
 21
332.7168640744837
 31
0.0
 70
    32
 71
     5
 42
-1.0
  3
STANDARD
100
AcDbAlignedDimension
 13
442.0
 23
300.0
 33
0.0
 14
422.0
 24
300.0
 34
0.0
100
AcDbRotatedDimension
1001
ACAD
1000
DSTYLE
1002
{
1070
   287
1070
     4
1070
   287
1070
     4
1070
   287
1070
     4
1070
   287
1070
     4
1070
   279
1070
     1
1002
}
  0
DIMENSION
  5
6D69
330
1E
100
AcDbEntity
  8
30
  6
Continuous
100
AcDbDimension
  2
*D21
 10
313.0
 20
-292.4950458463608
 30
0.0
 11
304.4999999999999
 21
-287.9950458463608
 31
0.0
 70
    32
 71
     5
 42
-1.0
  3
STANDARD
100
AcDbAlignedDimension
 13
296.0
 23
0.0
 33
0.0
 14
313.0
 24
-140.0
 34
0.0
100
AcDbRotatedDimension
  0
DIMENSION
  5
6D76
330
1E
100
AcDbEntity
  8
30
  6
Continuous
100
AcDbDimension
  2
*D22
 10
453.0
 20
-292.4950458463608
 30
0.0
 11
383.0
 21
-287.9950458463608
 31
0.0
 70
    32
 71
     5
 42
-1.0
  3
STANDARD
100
AcDbAlignedDimension
 13
313.0
 23
-140.0
 33
0.0
 14
453.0
 24
-179.0
 34
0.0
100
AcDbRotatedDimension
1001
ACAD
1000
DSTYLE
1002
{
1070
   287
1070
     4
1070
   287
1070
     4
1070
   287
1070
     4
1070
   287
1070
     4
1070
   279
1070
     1
1002
}
  0
DIMENSION
  5
6D90
330
1E
100
AcDbEntity
  8
30
  6
Continuous
100
AcDbDimension
  2
*D23
 10
407.0
 20
-282.9588801759837
 30
0.0
 11
397.0
 21
-278.4588801759837
 31
0.0
 70
    32
 71
     5
 42
-1.0
  3
STANDARD
100
AcDbAlignedDimension
 13
387.0
 23
-270.0
 33
0.0
 14
407.0
 24
-270.0
 34
0.0
100
AcDbRotatedDimension
  0
DIMENSION
  5
6D9D
330
1E
100
AcDbEntity
  8
30
  6
Continuous
100
AcDbDimension
  2
*D24
 10
453.0
 20
-282.9588801759837
 30
0.0
 11
430.0
 21
-278.4588801759837
 31
0.0
 70
    32
 71
     5
 42
-1.0
  3
STANDARD
100
AcDbAlignedDimension
 13
407.0
 23
-270.0
 33
0.0
 14
453.0
 24
-180.0
 34
0.0
100
AcDbRotatedDimension
1001
ACAD
1000
DSTYLE
1002
{
1070
   287
1070
     4
1070
   287
1070
     4
1070
   287
1070
     4
1070
   287
1070
     4
1070
   279
1070
     1
1002
}
  0
DIMENSION
  5
6DB7
330
1E
100
AcDbEntity
  8
30
  6
Continuous
100
AcDbDimension
  2
*D25
 10
321.0
 20
-194.4087893196519
 30
0.0
 11
317.0
 21
-189.9087893196519
 31
0.0
 70
    32
 71
     5
 42
-1.0
  3
STANDARD
100
AcDbAlignedDimension
 13
313.0
 23
-140.0
 33
0.0
 14
321.0
 24
-170.0
 34
0.0
100
AcDbRotatedDimension
  0
DIMENSION
  5
6DD1
330
1E
100
AcDbEntity
  8
30
  6
Continuous
100
AcDbDimension
  2
*D26
 10
453.0
 20
-123.5687133200817
 30
0.0
 11
439.0
 21
-119.0687133200817
 31
0.0
 70
    32
 71
     5
 42
-1.0
  3
STANDARD
100
AcDbAlignedDimension
 13
425.0
 23
-145.5
 33
0.0
 14
453.0
 24
-139.0
 34
0.0
100
AcDbRotatedDimension
  0
DIMENSION
  5
6DDE
330
1E
100
AcDbEntity
  8
30
  6
Continuous
100
AcDbDimension
  2
*D27
 10
471.0
 20
-123.5687133200817
 30
0.0
 11
462.0
 21
-119.0687133200817
 31
0.0
 70
    32
 71
     5
 42
-1.0
  3
STANDARD
100
AcDbAlignedDimension
 13
453.0
 23
-139.0
 33
0.0
 14
471.0
 24
-150.0
 34
0.0
100
AcDbRotatedDimension
1001
ACAD
1000
DSTYLE
1002
{
1070
   287
1070
     4
1070
   287
1070
     4
1070
   287
1070
     4
1070
   287
1070
     4
1070
   279
1070
     1
1002
}
  0
LEADER
  5
6DEB
330
1E
100
AcDbEntity
  8
30
  6
Continuous
100
AcDbLeader
  3
STANDARD
 76
     3
 10
469.0
 20
-145.0
 30
0.0
 10
489.1513530340891
 20
-124.8476320125517
 30
0.0
 10
502.6701530964261
 20
-124.8370630914487
 30
0.0
211
-1.0
221
0.0
231
0.0
1001
ACAD
1000
DSTYLE
1002
{
1070
     5
1000
OPEN
1070
   342
1005
3B2
1002
}
  0
TEXT
  5
6DEC
330
1E
100
AcDbEntity
  8
30
  6
Continuous
100
AcDbText
 10
491.0783100139215
 20
-123.3255563437092
 30
0.0
 40
4.0
  1
M8
100
AcDbText
  0
DIMENSION
  5
6DED
330
1E
100
AcDbEntity
  8
30
  6
Continuous
100
AcDbDimension
  2
*D28
 10
261.9998397827433
 20
-309.08595701602
 30
0.0
 11
221.9999732971445
 21
-304.58595701602
 31
0.0
 70
    32
 71
     5
 42
-1.0
  3
STANDARD
100
AcDbAlignedDimension
 13
182.0001068115459
 23
0.0000000000000105
 33
0.0
 14
261.9998397827433
 24
-0.0000000000000009
 34
0.0
100
AcDbRotatedDimension
  0
DIMENSION
  5
6DFA
330
1E
100
AcDbEntity
  8
30
  6
Continuous
100
AcDbDimension
  2
*D29
 10
453.0
 20
-309.08595701602
 30
0.0
 11
357.4999198913716
 21
-304.58595701602
 31
0.0
 70
    32
 71
     5
 42
-1.0
  3
STANDARD
100
AcDbAlignedDimension
 13
261.9998397827433
 23
-0.0000000000000009
 33
0.0
 14
453.0
 24
-179.0
 34
0.0
100
AcDbRotatedDimension
1001
ACAD
1000
DSTYLE
1002
{
1070
   287
1070
     4
1070
   287
1070
     4
1070
   287
1070
     4
1070
   287
1070
     4
1070
   279
1070
     1
1002
}
  0
DIMENSION
  5
6E07
330
1E
100
AcDbEntity
  8
30
  6
Continuous
100
AcDbDimension
  2
*D30
 10
240.7140212313461
 20
0.000000000000006
 30
0.0
 11
236.2140212313461
 21
85.00000000000005
 31
0.0
 70
    32
 71
     5
 42
-1.0
  3
STANDARD
100
AcDbAlignedDimension
 13
313.0
 23
170.0
 33
0.0
 14
261.9998397827433
 24
0.0
 34
0.0
 50
90.0
100
AcDbRotatedDimension
  0
DIMENSION
  5
6E1D
330
1E
100
AcDbEntity
  8
30
  6
Continuous
100
AcDbDimension
  2
*D31
 10
240.7140212313461
 20
-140.0
 30
0.0
 11
236.2140212313461
 21
-69.99999999999996
 31
0.0
 70
    32
 71
     5
 42
-1.0
  3
STANDARD
100
AcDbAlignedDimension
 13
261.9998397827433
 23
0.0
 33
0.0
 14
313.0
 24
-140.0
 34
0.0
 50
90.0
100
AcDbRotatedDimension
1001
ACAD
1000
DSTYLE
1002
{
1070
   287
1070
     4
1070
   287
1070
     4
1070
   287
1070
     4
1070
   287
1070
     4
1070
   279
1070
     1
1002
}
  0
LWPOLYLINE
  5
6E45
330
1E
100
AcDbEntity
  8
10
  6
Continuous
100
AcDbPolyline
 90
        6
 70
     1
 43
0.0
 10
-51.0
 20
361.1509476533528
 10
104.9998168945297
 20
361.1509476533528
 10
104.9998168945297
 20
501.1509476533529
 10
-105.0
 20
501.1509476533529
 10
-105.0
 20
368.1509476533528
 10
-105.0
 20
361.1509476533528
  0
LWPOLYLINE
  5
6ED0
330
1E
100
AcDbEntity
  8
18
100
AcDbPolyline
 90
        4
 70
     1
 43
0.0
 10
-104.9997558594004
 20
-770.9997558592999
 10
-104.9997558594004
 20
-400.9997558592998
 10
105.0
 20
-400.9997558592998
 10
105.0
 20
-770.9997558592999
  0
LINE
  5
6ED1
330
1E
100
AcDbEntity
  8
12
100
AcDbLine
 10
35.0
 20
-401.9997558592998
 30
0.0
 11
35.0
 21
-432.0
 31
0.0
  0
LINE
  5
6ED2
330
1E
100
AcDbEntity
  8
12
100
AcDbLine
 10
-35.0
 20
-739.9995117185997
 30
0.0
 11
-35.0
 21
-769.9997558593
 31
0.0
  0
LINE
  5
6ED3
330
1E
100
AcDbEntity
  8
12
100
AcDbLine
 10
35.0
 20
-739.9995117185997
 30
0.0
 11
35.0
 21
-769.9997558593
 31
0.0
  0
LINE
  5
6ED4
330
1E
100
AcDbEntity
  8
12
100
AcDbLine
 10
20.0
 20
-754.9997558592999
 30
0.0
 11
50.0
 21
-754.9997558592999
 31
0.0
  0
TEXT
  5
6ED5
330
1E
100
AcDbEntity
  8
30
  6
Continuous
100
AcDbText
 10
59.73704305844647
 20
-725.4473330673579
 30
0.0
 40
7.0
  1
%%C9
100
AcDbText
  0
LEADER
  5
6ED6
330
1E
100
AcDbEntity
  8
30
  6
Continuous
100
AcDbLeader
  3
STANDARD
 76
     3
 10
37.99768925567889
 20
-749.9416939150058
 30
0.0
 10
47.75154943503184
 20
-725.7265809280353
 30
0.0
 10
78.52425257157769
 20
-725.7829347399749
 30
0.0
1001
ACAD
1000
DSTYLE
1002
{
1070
     5
1000
OPEN
1070
   342
1005
3B2
1002
}
  0
LWPOLYLINE
  5
6F14
330
1E
100
AcDbEntity
  8
18
100
AcDbPolyline
 90
        4
 70
     1
 43
0.0
 10
430.0
 20
-771.0
 10
430.0
 20
-401.0
 10
220.0
 20
-401.0
 10
220.0
 20
-771.0
  0
LWPOLYLINE
  5
6F15
330
1E
100
AcDbEntity
  8
11
  6
Continuous
100
AcDbPolyline
 90
        8
 70
     1
 43
0.0
 10
365.5
 20
-644.0
 10
365.5
 20
-558.0
 42
0.4142135623730951
 10
359.5
 20
-552.0
 10
290.5
 20
-552.0
 42
0.4142135623730951
 10
284.5
 20
-558.0
 10
284.5
 20
-644.0
 42
0.4142135623730951
 10
290.5
 20
-650.0
 10
359.5
 20
-650.0
 42
0.4142135623730951
  0
DIMENSION
  5
6F16
330
1E
100
AcDbEntity
  8
30
  6
Continuous
100
AcDbDimension
  2
*D32
 10
357.4445195208899
 20
-558.1664414373283
 30
0.0
 11
373.4445195208903
 21
-535.666441437328
 31
0.0
 70
   164
  1
R6
 71
     5
 42
-1.0
  3
STANDARD
100
AcDbRadialDimension
 15
359.4999999999996
 25
-552.0
 35
0.0
 40
0.0
1001
ACAD
1000
DSTYLE
1002
{
1070
   288
1070
     1
1002
}
  0
DIMENSION
  5
6F52
330
1E
100
AcDbEntity
  8
30
  6
Continuous
100
AcDbDimension
  2
*D33
 10
-201.0934457379698
 20
-601.0
 30
0.0
 11
-205.5934457379697
 21
-509.0
 31
0.0
 70
    32
 71
     5
 42
-1.0
  3
STANDARD
100
AcDbAlignedDimension
 13
-50.0
 23
-417.0
 33
0.0
 14
-166.0
 24
-601.0
 34
0.0
 50
90.0
100
AcDbRotatedDimension
  0
DIMENSION
  5
6F5F
330
1E
100
AcDbEntity
  8
30
  6
Continuous
100
AcDbDimension
  2
*D34
 10
-201.0934457379698
 20
-754.9997558592999
 30
0.0
 11
-205.5934457379696
 21
-677.99987792965
 31
0.0
 70
    32
 71
     5
 42
-1.0
  3
STANDARD
100
AcDbAlignedDimension
 13
-166.0
 23
-601.0
 33
0.0
 14
-50.0
 24
-754.9997558592999
 34
0.0
 50
90.0
100
AcDbRotatedDimension
1001
ACAD
1000
DSTYLE
1002
{
1070
   287
1070
     4
1070
   287
1070
     4
1070
   287
1070
     4
1070
   287
1070
     4
1070
   279
1070
     1
1002
}
  0
DIMENSION
  5
6F6C
330
1E
100
AcDbEntity
  8
30
  6
Continuous
100
AcDbDimension
  2
*D35
 10
35.0
 20
-810.4423648938418
 30
0.0
 11
0.0000000000000003
 21
-805.9423648938414
 31
0.0
 70
    32
 71
     5
 42
-1.0
  3
STANDARD
100
AcDbAlignedDimension
 13
-35.0
 23
-769.9997558593
 33
0.0
 14
35.0
 24
-769.9997558593
 34
0.0
100
AcDbRotatedDimension
  0
DIMENSION
  5
6F79
330
1E
100
AcDbEntity
  8
30
  6
Continuous
100
AcDbDimension
  2
*D36
 10
365.5
 20
-683.7650401241262
 30
0.0
 11
325.0
 21
-679.2650401241262
 31
0.0
 70
    32
 71
     5
 42
-1.0
  3
STANDARD
100
AcDbAlignedDimension
 13
284.5
 23
-644.0
 33
0.0
 14
365.5
 24
-644.0
 34
0.0
100
AcDbRotatedDimension
  0
DIMENSION
  5
6F86
330
1E
100
AcDbEntity
  8
30
  6
Continuous
100
AcDbDimension
  2
*D37
 10
263.097286732649
 20
-650.0
 30
0.0
 11
258.5972867326491
 21
-600.9999999999998
 31
0.0
 70
    32
 71
     5
 42
-1.0
  3
STANDARD
100
AcDbAlignedDimension
 13
290.5
 23
-552.0
 33
0.0
 14
290.5
 24
-650.0
 34
0.0
 50
90.0
100
AcDbRotatedDimension
  0
DIMENSION
  5
6FAD
330
1E
100
AcDbEntity
  8
30
  6
Continuous
100
AcDbDimension
  2
*D38
 10
144.8584367809214
 20
200.0
 30
0.0
 11
140.3584367809215
 21
250.0
 31
0.0
 70
    32
 71
     5
 42
-1.0
  3
STANDARD
100
AcDbAlignedDimension
 13
93.49981689452986
 23
300.0
 33
0.0
 14
105.9998168945297
 24
200.0
 34
0.0
 50
90.0
100
AcDbRotatedDimension
  0
DIMENSION
  5
6FBA
330
1E
100
AcDbEntity
  8
30
  6
Continuous
100
AcDbDimension
  2
*D39
 10
144.8584367809214
 20
-0.0000000000000113
 30
0.0
 11
140.3584367809215
 21
100.0
 31
0.0
 70
    32
 71
     5
 42
-1.0
  3
STANDARD
100
AcDbAlignedDimension
 13
105.9998168945297
 23
200.0
 33
0.0
 14
104.9998168945297
 24
0.0
 34
0.0
 50
90.0
100
AcDbRotatedDimension
1001
ACAD
1000
DSTYLE
1002
{
1070
   287
1070
     4
1070
   287
1070
     4
1070
   287
1070
     4
1070
   287
1070
     4
1070
   279
1070
     1
1002
}
  0
DIMENSION
  5
6FC7
330
1E
100
AcDbEntity
  8
30
  6
Continuous
100
AcDbDimension
  2
*D40
 10
144.8584367809214
 20
-171.0
 30
0.0
 11
140.3584367809215
 21
-85.49999999999998
 31
0.0
 70
    32
 71
     5
 42
-1.0
  3
STANDARD
100
AcDbAlignedDimension
 13
104.9998168945297
 23
0.0
 33
0.0
 14
104.9998168945297
 24
-171.0
 34
0.0
 50
90.0
100
AcDbRotatedDimension
1001
ACAD
1000
DSTYLE
1002
{
1070
   287
1070
     4
1070
   287
1070
     4
1070
   287
1070
     4
1070
   287
1070
     4
1070
   279
1070
     1
1002
}
  0
DIMENSION
  5
6FE1
330
1E
100
AcDbEntity
  8
30
  6
Continuous
100
AcDbDimension
  2
*D41
 10
163.9081821090275
 20
-170.0
 30
0.0
 11
159.4081821090275
 21
15.0
 31
0.0
 70
    32
 71
     5
 42
-1.0
  3
STANDARD
100
AcDbAlignedDimension
 13
104.9998168945297
 23
200.0
 33
0.0
 14
104.9998168945297
 24
-170.0
 34
0.0
 50
90.0
100
AcDbRotatedDimension
  0
LWPOLYLINE
  5
70B8
330
1E
100
AcDbEntity
  8
10
  6
Continuous
100
AcDbPolyline
 90
        4
 70
     1
 43
0.0
 10
452.0
 20
200.0
 10
453.0
 20
200.0
 10
453.0
 20
230.0
 10
452.0
 20
230.0
  0
DIMENSION
  5
70B9
330
1E
100
AcDbEntity
  8
30
  6
Continuous
100
AcDbDimension
  2
*D42
 10
462.6175351181136
 20
230.0
 30
0.0
 11
458.1175351181133
 21
215.0
 31
0.0
 70
    32
 71
     5
 42
-1.0
  3
STANDARD
100
AcDbAlignedDimension
 13
453.0
 23
200.0
 33
0.0
 14
453.0
 24
230.0
 34
0.0
 50
90.0
100
AcDbRotatedDimension
  0
LWPOLYLINE
  5
70C6
330
1E
100
AcDbEntity
  8
10
  6
Continuous
100
AcDbPolyline
 90
        6
 70
     0
 43
0.0
 10
-92.5
 20
230.0
 10
-105.0
 20
230.0
 10
-105.0
 20
200.0
 10
105.0
 20
200.0
 10
105.0
 20
230.0
 10
92.49981689452987
 20
230.0
  0
LWPOLYLINE
  5
70C7
330
1E
100
AcDbEntity
  8
10
  6
Continuous
100
AcDbPolyline
 90
        2
 70
     0
 43
0.0
 10
-22.5
 20
230.0
 10
-47.5
 20
230.0
  0
LWPOLYLINE
  5
70C8
330
1E
100
AcDbEntity
  8
10
  6
Continuous
100
AcDbPolyline
 90
        2
 70
     0
 43
0.0
 10
47.49993896484999
 20
230.0
 10
22.49993896485
 20
230.0
  0
LINE
  5
70D5
330
1E
100
AcDbEntity
  8
10
  6
Continuous
100
AcDbLine
 10
-105.0
 20
499.1509476533528
 30
0.0
 11
104.9998168945297
 21
499.1509476533528
 31
0.0
  0
DIMENSION
  5
73E0
330
1E
100
AcDbEntity
  8
30
  6
Continuous
100
AcDbDimension
  2
*D43
 10
453.0
 20
328.0501974078171
 30
0.0
 11
447.5
 21
332.5501974078171
 31
0.0
 70
    32
 71
     5
 42
-1.0
  3
STANDARD
100
AcDbAlignedDimension
 13
442.0
 23
200.0
 33
0.0
 14
453.0
 24
200.0
 34
0.0
100
AcDbRotatedDimension
  0
MTEXT
  5
7496
330
1E
100
AcDbEntity
  8
19
  6
Continuous
100
AcDbMText
 10
330.9599916039624
 20
428.5260930900883
 30
0.0
 40
7.0
 41
94.0
 71
     1
 72
     5
  1
XS1600ND 3P FC
  7
STANDARD1
 73
     1
 44
1.0
  0
VIEWPORT
  5
9AC
330
1A
100
AcDbEntity
 67
     1
  8
0
  6
Continuous
100
AcDbViewport
 10
171.9995348790992
 20
144.1384735538403
 30
0.0
 40
488.8676857773511
 41
292.3514905034161
 68
     1
 69
     1
 12
171.9995348790992
 22
144.1384735538403
 13
0.0
 23
0.0
 14
10.0
 24
10.0
 15
10.0
 25
10.0
 16
0.0
 26
0.0
 36
1.0
 17
0.0
 27
0.0
 37
0.0
 42
50.0
 43
0.0
 44
0.0
 45
292.3514905034161
 50
0.0
 51
0.0
 72
   100
 90
    32800
  1

281
     0
 71
     1
 74
     0
110
0.0
120
0.0
130
0.0
111
1.0
121
0.0
131
0.0
112
0.0
122
1.0
132
0.0
 79
     0
146
0.0
  0
ENDSEC
  0
SECTION
  2
OBJECTS
  0
DICTIONARY
  5
C
330
0
100
AcDbDictionary
281
     1
  3
ACAD_GROUP
350
D
  3
ACAD_LAYOUT
350
19
  3
ACAD_MLINESTYLE
350
16
  3
ACAD_PLOTSETTINGS
350
18
  3
ACAD_PLOTSTYLENAME
350
E
  3
ACDBHEADERROUNDTRIPXREC
350
7498
  3
ACDBVARIABLEDICTIONARY
350
6C1E
  0
DICTIONARY
  5
178
330
1E
100
AcDbDictionary
280
     1
281
     1
  3
ACAD_LAYOUTSELFREF
360
7419
  0
DICTIONARY
  5
17A
330
1A
100
AcDbDictionary
280
     1
281
     1
  3
ACAD_LAYOUTSELFREF
360
7418
  0
DICTIONARY
  5
D
102
{ACAD_REACTORS
330
C
102
}
330
C
100
AcDbDictionary
281
     1
  0
DICTIONARY
  5
19
102
{ACAD_REACTORS
330
C
102
}
330
C
100
AcDbDictionary
281
     1
  3
Model
350
748D
  3
ﾚｲｱｳﾄ1
350
748E
  0
DICTIONARY
  5
16
102
{ACAD_REACTORS
330
C
102
}
330
C
100
AcDbDictionary
281
     1
  3
STANDARD
350
17
  0
DICTIONARY
  5
18
102
{ACAD_REACTORS
330
C
102
}
330
C
100
AcDbDictionary
281
     1
  0
ACDBDICTIONARYWDFLT
  5
E
102
{ACAD_REACTORS
330
C
102
}
330
C
100
AcDbDictionary
281
     1
  3
Normal
350
F
100
AcDbDictionaryWithDefault
340
F
  0
DICTIONARY
  5
7498
102
{ACAD_REACTORS
330
C
102
}
330
C
100
AcDbDictionary
281
     1
  3
CEPSNTYPE
350
74A2
  3
DIMSTYLEDATA
350
74A6
  3
FINGERPRINTGUID
350
74A3
  3
HYPERLINKBASE
350
749B
  3
INSUNITS
350
74A1
  3
LAYOUTDICT
350
749D
  3
LWETCUNION
350
74A0
  3
PLOTSETDICT
350
749E
  3
PLOTSTYLNAMDICT
350
749F
  3
PSVPSCALE
350
74A5
  3
PUCSBASE
350
74A9
  3
PUCSORGBACK
350
74AF
  3
PUCSORGBOTTOM
350
74AB
  3
PUCSORGFRONT
350
74AE
  3
PUCSORGLEFT
350
74AC
  3
PUCSORGRIGHT
350
74AD
  3
PUCSORGTOP
350
74AA
  3
PUCSORTHOREF
350
74A7
  3
PUCSORTHOVIEW
350
74A8
  3
STYLESHEET
350
749C
  3
TSTACKALIGN
350
7499
  3
TSTACKSIZE
350
749A
  3
UCSBASE
350
74B2
  3
UCSORGBACK
350
74B8
  3
UCSORGBOTTOM
350
74B4
  3
UCSORGFRONT
350
74B7
  3
UCSORGLEFT
350
74B5
  3
UCSORGRIGHT
350
74B6
  3
UCSORGTOP
350
74B3
  3
UCSORTHOREF
350
74B0
  3
UCSORTHOVIEW
350
74B1
  3
VERSIONGUID
350
74A4
  0
DICTIONARY
  5
6C1E
102
{ACAD_REACTORS
330
C
102
}
330
C
100
AcDbDictionary
281
     1
  3
DIMASSOC
350
70D7
  3
SORTENTS
350
6C1F
  0
XRECORD
  5
7419
102
{ACAD_REACTORS
330
178
102
}
330
178
100
AcDbXrecord
280
     1
340
1E
  0
XRECORD
  5
7418
102
{ACAD_REACTORS
330
17A
102
}
330
17A
100
AcDbXrecord
280
     1
340
1A
  0
LAYOUT
  5
748D
102
{ACAD_REACTORS
330
19
102
}
330
19
100
AcDbPlotSettings
  1

  2
Canon LBP3800 LIPSLX
  4

  6

 40
0.0
 41
0.0
 42
0.0
 43
0.0
 44
0.0
 45
0.0
 46
0.0
 47
0.0
 48
0.0
 49
0.0
140
0.0
141
0.0
142
1.0
143
1.0
 70
  1712
 72
     0
 73
     0
 74
     0
  7

 75
     0
147
1.0
148
0.0
149
0.0
100
AcDbLayout
  1
Model
 70
     1
 71
     0
 10
0.0
 20
0.0
 11
12.0
 21
9.0
 12
0.0
 22
0.0
 32
0.0
 14
0.0
 24
0.0
 34
0.0
 15
0.0
 25
0.0
 35
0.0
146
0.0
 13
0.0
 23
0.0
 33
0.0
 16
1.0
 26
0.0
 36
0.0
 17
0.0
 27
1.0
 37
0.0
 76
     0
330
1E
  0
LAYOUT
  5
748E
102
{ACAD_REACTORS
330
19
102
}
330
19
100
AcDbPlotSettings
  1

  2
Canon LBP3800 LIPSLX
  4

  6

 40
0.0
 41
0.0
 42
0.0
 43
0.0
 44
0.0
 45
0.0
 46
0.0
 47
0.0
 48
0.0
 49
0.0
140
0.0
141
0.0
142
1.0
143
1.0
 70
   688
 72
     0
 73
     0
 74
     5
  7

 75
    16
147
1.0
148
0.0
149
0.0
100
AcDbLayout
  1
ﾚｲｱｳﾄ1
 70
     1
 71
     1
 10
-5.873748779296875
 20
-5.873749732971191
 11
204.0995788574218
 21
291.1369009017943
 12
0.0
 22
0.0
 32
0.0
 14
4.273573370203961
 24
5.205246163471485
 34
0.0
 15
194.6100952986349
 25
283.0697008572913
 35
0.0
146
0.0
 13
0.0
 23
0.0
 33
0.0
 16
1.0
 26
0.0
 36
0.0
 17
0.0
 27
1.0
 37
0.0
 76
     0
330
1A
331
9AC
  0
MLINESTYLE
  5
17
102
{ACAD_REACTORS
330
16
102
}
330
16
100
AcDbMlineStyle
  2
STANDARD
 70
     0
  3

 62
   256
 51
90.0
 52
90.0
 71
     2
 49
0.5
 62
   256
  6
BYLAYER
 49
-0.5
 62
   256
  6
BYLAYER
  0
ACDBPLACEHOLDER
  5
F
102
{ACAD_REACTORS
330
E
102
}
330
E
  0
XRECORD
  5
74A2
102
{ACAD_REACTORS
330
7498
102
}
330
7498
100
AcDbXrecord
280
     1
 90
        0
  0
XRECORD
  5
74A6
102
{ACAD_REACTORS
330
7498
102
}
330
7498
100
AcDbXrecord
280
     1
1000
DSTYLE
1002
{
1070
   341
340
3B2
1070
   342
340
3B2
1002
}
  0
XRECORD
  5
74A3
102
{ACAD_REACTORS
330
7498
102
}
330
7498
100
AcDbXrecord
280
     1
  1

  0
XRECORD
  5
749B
102
{ACAD_REACTORS
330
7498
102
}
330
7498
100
AcDbXrecord
280
     1
  1

  0
XRECORD
  5
74A1
102
{ACAD_REACTORS
330
7498
102
}
330
7498
100
AcDbXrecord
280
     1
 90
        0
  0
XRECORD
  5
749D
102
{ACAD_REACTORS
330
7498
102
}
330
7498
100
AcDbXrecord
280
     1
340
19
  0
XRECORD
  5
74A0
102
{ACAD_REACTORS
330
7498
102
}
330
7498
100
AcDbXrecord
280
     1
 90
    10781
  0
XRECORD
  5
749E
102
{ACAD_REACTORS
330
7498
102
}
330
7498
100
AcDbXrecord
280
     1
340
18
  0
XRECORD
  5
749F
102
{ACAD_REACTORS
330
7498
102
}
330
7498
100
AcDbXrecord
280
     1
340
E
  0
XRECORD
  5
74A5
102
{ACAD_REACTORS
330
7498
102
}
330
7498
100
AcDbXrecord
280
     1
 40
0.0
  0
XRECORD
  5
74A9
102
{ACAD_REACTORS
330
7498
102
}
330
7498
100
AcDbXrecord
280
     1
340
0
  0
XRECORD
  5
74AF
102
{ACAD_REACTORS
330
7498
102
}
330
7498
100
AcDbXrecord
280
     1
 10
0.0
 20
0.0
 30
0.0
  0
XRECORD
  5
74AB
102
{ACAD_REACTORS
330
7498
102
}
330
7498
100
AcDbXrecord
280
     1
 10
0.0
 20
0.0
 30
0.0
  0
XRECORD
  5
74AE
102
{ACAD_REACTORS
330
7498
102
}
330
7498
100
AcDbXrecord
280
     1
 10
0.0
 20
0.0
 30
0.0
  0
XRECORD
  5
74AC
102
{ACAD_REACTORS
330
7498
102
}
330
7498
100
AcDbXrecord
280
     1
 10
0.0
 20
0.0
 30
0.0
  0
XRECORD
  5
74AD
102
{ACAD_REACTORS
330
7498
102
}
330
7498
100
AcDbXrecord
280
     1
 10
0.0
 20
0.0
 30
0.0
  0
XRECORD
  5
74AA
102
{ACAD_REACTORS
330
7498
102
}
330
7498
100
AcDbXrecord
280
     1
 10
0.0
 20
0.0
 30
0.0
  0
XRECORD
  5
74A7
102
{ACAD_REACTORS
330
7498
102
}
330
7498
100
AcDbXrecord
280
     1
340
0
  0
XRECORD
  5
74A8
102
{ACAD_REACTORS
330
7498
102
}
330
7498
100
AcDbXrecord
280
     1
 70
     0
  0
XRECORD
  5
749C
102
{ACAD_REACTORS
330
7498
102
}
330
7498
100
AcDbXrecord
280
     1
  1
kiki.ctb
  0
XRECORD
  5
7499
102
{ACAD_REACTORS
330
7498
102
}
330
7498
100
AcDbXrecord
280
     1
 90
        1
  0
XRECORD
  5
749A
102
{ACAD_REACTORS
330
7498
102
}
330
7498
100
AcDbXrecord
280
     1
 90
       70
  0
XRECORD
  5
74B2
102
{ACAD_REACTORS
330
7498
102
}
330
7498
100
AcDbXrecord
280
     1
340
0
  0
XRECORD
  5
74B8
102
{ACAD_REACTORS
330
7498
102
}
330
7498
100
AcDbXrecord
280
     1
 10
0.0
 20
0.0
 30
0.0
  0
XRECORD
  5
74B4
102
{ACAD_REACTORS
330
7498
102
}
330
7498
100
AcDbXrecord
280
     1
 10
0.0
 20
0.0
 30
0.0
  0
XRECORD
  5
74B7
102
{ACAD_REACTORS
330
7498
102
}
330
7498
100
AcDbXrecord
280
     1
 10
0.0
 20
0.0
 30
0.0
  0
XRECORD
  5
74B5
102
{ACAD_REACTORS
330
7498
102
}
330
7498
100
AcDbXrecord
280
     1
 10
0.0
 20
0.0
 30
0.0
  0
XRECORD
  5
74B6
102
{ACAD_REACTORS
330
7498
102
}
330
7498
100
AcDbXrecord
280
     1
 10
0.0
 20
0.0
 30
0.0
  0
XRECORD
  5
74B3
102
{ACAD_REACTORS
330
7498
102
}
330
7498
100
AcDbXrecord
280
     1
 10
0.0
 20
0.0
 30
0.0
  0
XRECORD
  5
74B0
102
{ACAD_REACTORS
330
7498
102
}
330
7498
100
AcDbXrecord
280
     1
340
0
  0
XRECORD
  5
74B1
102
{ACAD_REACTORS
330
7498
102
}
330
7498
100
AcDbXrecord
280
     1
 70
     0
  0
XRECORD
  5
74A4
102
{ACAD_REACTORS
330
7498
102
}
330
7498
100
AcDbXrecord
280
     1
  1
{6C403296-0716-4B4D-91FB-39E4A7F23CCA}
  0
DICTIONARYVAR
  5
70D7
102
{ACAD_REACTORS
330
6C1E
102
}
330
6C1E
100
DictionaryVariables
280
     0
  1
1
  0
DICTIONARYVAR
  5
6C1F
102
{ACAD_REACTORS
330
6C1E
102
}
330
6C1E
100
DictionaryVariables
280
     0
  1
96
  0
ENDSEC
  0
EOF
