  0
SECTION
  2
HEADER
  9
$ACADVER
  1
AC1015
  9
$ACADMAINTVER
 70
    10
  9
$DWGCODEPAGE
  3
ANSI_932
  9
$INSBASE
 10
0.0
 20
0.0
 30
0.0
  9
$EXTMIN
 10
-262.8923556046638
 20
-921.1252441593865
 30
-0.0000000000000057
  9
$EXTMAX
 10
1139.66347346831
 20
929.3999675898913
 30
0.0000000000000104
  9
$LIMMIN
 10
-184.0
 20
-675.0
  9
$LIMMAX
 10
509.0
 20
453.0
  9
$ORTHOMODE
 70
     1
  9
$REGENMODE
 70
     1
  9
$FILLMODE
 70
     1
  9
$QTEXTMODE
 70
     0
  9
$MIRRTEXT
 70
     1
  9
$LTSCALE
 40
20.0
  9
$ATTMODE
 70
     1
  9
$TEXTSIZE
 40
5.0
  9
$TRACEWID
 40
0.05
  9
$TEXTSTYLE
  7
STANDARD1
  9
$CLAYER
  8
30
  9
$CELTYPE
  6
CONTINUOUS
  9
$CECOLOR
 62
   256
  9
$CELTSCALE
 40
1.0
  9
$DISPSILH
 70
     0
  9
$DIMSCALE
 40
1.0
  9
$DIMASZ
 40
2.0
  9
$DIMEXO
 40
5.0
  9
$DIMDLI
 40
0.5
  9
$DIMRND
 40
0.0
  9
$DIMDLE
 40
0.0
  9
$DIMEXE
 40
0.5
  9
$DIMTP
 40
0.0
  9
$DIMTM
 40
0.0
  9
$DIMTXT
 40
8.0
  9
$DIMCEN
 40
0.09
  9
$DIMTSZ
 40
0.0
  9
$DIMTOL
 70
     0
  9
$DIMLIM
 70
     0
  9
$DIMTIH
 70
     0
  9
$DIMTOH
 70
     1
  9
$DIMSE1
 70
     0
  9
$DIMSE2
 70
     0
  9
$DIMTAD
 70
     3
  9
$DIMZIN
 70
    12
  9
$DIMBLK
  1
OPEN
  9
$DIMASO
 70
     1
  9
$DIMSHO
 70
     1
  9
$DIMPOST
  1

  9
$DIMAPOST
  1

  9
$DIMALT
 70
     0
  9
$DIMALTD
 70
     2
  9
$DIMALTF
 40
25.4
  9
$DIMLFAC
 40
1.0
  9
$DIMTOFL
 70
     0
  9
$DIMTVP
 40
0.0
  9
$DIMTIX
 70
     0
  9
$DIMSOXD
 70
     0
  9
$DIMSAH
 70
     0
  9
$DIMBLK1
  1

  9
$DIMBLK2
  1

  9
$DIMSTYLE
  2
STANDARD
  9
$DIMCLRD
 70
     0
  9
$DIMCLRE
 70
     0
  9
$DIMCLRT
 70
     0
  9
$DIMTFAC
 40
1.0
  9
$DIMGAP
 40
1.0
  9
$DIMJUST
 70
     0
  9
$DIMSD1
 70
     0
  9
$DIMSD2
 70
     0
  9
$DIMTOLJ
 70
     1
  9
$DIMTZIN
 70
     0
  9
$DIMALTZ
 70
     0
  9
$DIMALTTZ
 70
     0
  9
$DIMUPT
 70
     0
  9
$DIMDEC
 70
     1
  9
$DIMTDEC
 70
     1
  9
$DIMALTU
 70
     2
  9
$DIMALTTD
 70
     2
  9
$DIMTXSTY
  7
STANDARD
  9
$DIMAUNIT
 70
     0
  9
$DIMADEC
 70
     0
  9
$DIMALTRND
 40
0.0
  9
$DIMAZIN
 70
     3
  9
$DIMDSEP
 70
    46
  9
$DIMATFIT
 70
     3
  9
$DIMFRAC
 70
     0
  9
$DIMLDRBLK
  1
OPEN
  9
$DIMLUNIT
 70
     2
  9
$DIMLWD
 70
    -2
  9
$DIMLWE
 70
    -2
  9
$DIMTMOVE
 70
     0
  9
$LUNITS
 70
     2
  9
$LUPREC
 70
     4
  9
$SKETCHINC
 40
0.1
  9
$FILLETRAD
 40
0.0
  9
$AUNITS
 70
     0
  9
$AUPREC
 70
     0
  9
$MENU
  1
.
  9
$ELEVATION
 40
0.0
  9
$PELEVATION
 40
0.0
  9
$THICKNESS
 40
0.0
  9
$LIMCHECK
 70
     0
  9
$CHAMFERA
 40
0.0
  9
$CHAMFERB
 40
0.0
  9
$CHAMFERC
 40
0.0
  9
$CHAMFERD
 40
0.0
  9
$SKPOLY
 70
     0
  9
$TDCREATE
 40
2452286.555658657
  9
$TDUCREATE
 40
2452286.180658657
  9
$TDUPDATE
 40
2456139.421928345
  9
$TDUUPDATE
 40
2456139.046928345
  9
$TDINDWG
 40
1.6063179630
  9
$TDUSRTIMER
 40
1.6063165162
  9
$USRTIMER
 70
     1
  9
$ANGBASE
 50
0.0
  9
$ANGDIR
 70
     0
  9
$PDMODE
 70
     0
  9
$PDSIZE
 40
0.0
  9
$PLINEWID
 40
0.0
  9
$SPLFRAME
 70
     0
  9
$SPLINETYPE
 70
     6
  9
$SPLINESEGS
 70
     8
  9
$HANDSEED
  5
8644
  9
$SURFTAB1
 70
     6
  9
$SURFTAB2
 70
     6
  9
$SURFTYPE
 70
     6
  9
$SURFU
 70
     6
  9
$SURFV
 70
     6
  9
$UCSBASE
  2

  9
$UCSNAME
  2

  9
$UCSORG
 10
0.0
 20
0.0
 30
0.0
  9
$UCSXDIR
 10
1.0
 20
0.0
 30
0.0
  9
$UCSYDIR
 10
0.0
 20
1.0
 30
0.0
  9
$UCSORTHOREF
  2

  9
$UCSORTHOVIEW
 70
     0
  9
$UCSORGTOP
 10
0.0
 20
0.0
 30
0.0
  9
$UCSORGBOTTOM
 10
0.0
 20
0.0
 30
0.0
  9
$UCSORGLEFT
 10
0.0
 20
0.0
 30
0.0
  9
$UCSORGRIGHT
 10
0.0
 20
0.0
 30
0.0
  9
$UCSORGFRONT
 10
0.0
 20
0.0
 30
0.0
  9
$UCSORGBACK
 10
0.0
 20
0.0
 30
0.0
  9
$PUCSBASE
  2

  9
$PUCSNAME
  2

  9
$PUCSORG
 10
0.0
 20
0.0
 30
0.0
  9
$PUCSXDIR
 10
1.0
 20
0.0
 30
0.0
  9
$PUCSYDIR
 10
0.0
 20
1.0
 30
0.0
  9
$PUCSORTHOREF
  2

  9
$PUCSORTHOVIEW
 70
     0
  9
$PUCSORGTOP
 10
0.0
 20
0.0
 30
0.0
  9
$PUCSORGBOTTOM
 10
0.0
 20
0.0
 30
0.0
  9
$PUCSORGLEFT
 10
0.0
 20
0.0
 30
0.0
  9
$PUCSORGRIGHT
 10
0.0
 20
0.0
 30
0.0
  9
$PUCSORGFRONT
 10
0.0
 20
0.0
 30
0.0
  9
$PUCSORGBACK
 10
0.0
 20
0.0
 30
0.0
  9
$USERI1
 70
     0
  9
$USERI2
 70
     0
  9
$USERI3
 70
     0
  9
$USERI4
 70
     0
  9
$USERI5
 70
     0
  9
$USERR1
 40
0.0
  9
$USERR2
 40
0.0
  9
$USERR3
 40
0.0
  9
$USERR4
 40
0.0
  9
$USERR5
 40
0.0
  9
$WORLDVIEW
 70
     1
  9
$SHADEDGE
 70
     3
  9
$SHADEDIF
 70
    70
  9
$TILEMODE
 70
     1
  9
$MAXACTVP
 70
    48
  9
$PINSBASE
 10
0.0
 20
0.0
 30
0.0
  9
$PLIMCHECK
 70
     0
  9
$PEXTMIN
 10
4.273573370203961
 20
5.205246163471485
 30
0.0
  9
$PEXTMAX
 10
194.6100952986349
 20
283.0697008572913
 30
0.0
  9
$PLIMMIN
 10
-5.873748779296875
 20
-5.873749732971191
  9
$PLIMMAX
 10
204.0995788574218
 20
291.1369009017943
  9
$UNITMODE
 70
     0
  9
$VISRETAIN
 70
     1
  9
$PLINEGEN
 70
     0
  9
$PSLTSCALE
 70
     1
  9
$TREEDEPTH
 70
  3020
  9
$CMLSTYLE
  2
STANDARD
  9
$CMLJUST
 70
     0
  9
$CMLSCALE
 40
1.0
  9
$PROXYGRAPHICS
 70
     1
  9
$MEASUREMENT
 70
     0
  9
$CELWEIGHT
370
    -1
  9
$ENDCAPS
280
     0
  9
$JOINSTYLE
280
     0
  9
$LWDISPLAY
290
     0
  9
$INSUNITS
 70
     0
  9
$HYPERLINKBASE
  1

  9
$STYLESHEET
  1
kiki.ctb
  9
$XEDIT
290
     1
  9
$CEPSNTYPE
380
     0
  9
$PSTYLEMODE
290
     1
  9
$FINGERPRINTGUID
  2

  9
$VERSIONGUID
  2
{E7C5A215-B29D-426E-8992-0DFFD66B5BC4}
  9
$EXTNAMES
290
     1
  9
$PSVPSCALE
 40
0.0
  9
$OLESTARTUP
290
     0
  0
ENDSEC
  0
SECTION
  2
CLASSES
  0
CLASS
  1
ACDBDICTIONARYWDFLT
  2
AcDbDictionaryWithDefault
  3
AutoCAD 2000
 90
        0
280
     0
281
     0
  0
CLASS
  1
ACDBPLACEHOLDER
  2
AcDbPlaceHolder
  3
AutoCAD 2000
 90
        0
280
     0
281
     0
  0
CLASS
  1
LAYOUT
  2
AcDbLayout
  3
AutoCAD 2000
 90
        0
280
     0
281
     0
  0
CLASS
  1
LONG_TRANSACTION
  2
AcDbLongTransaction
  3
AutoCAD 2000
 90
    32768
280
     0
281
     0
  0
CLASS
  1
LWPOLYLINE
  2
AcDbPolyline
  3
AutoCAD 2000
 90
    32768
280
     0
281
     1
  0
CLASS
  1
HATCH
  2
AcDbHatch
  3
AutoCAD 2000
 90
    32768
280
     0
281
     1
  0
CLASS
  1
XRECORD
  2
AcDbXrecord
  3
AutoCAD 2000
 90
    32768
280
     0
281
     0
  0
CLASS
  1
LONG_TRANSACTION
  2
AcDbLongTransaction
  3
AutoCAD 2000
 90
    32768
280
     0
281
     0
  0
CLASS
  1
LWPOLYLINE
  2
AcDbPolyline
  3
AutoCAD 2000
 90
    32768
280
     0
281
     1
  0
CLASS
  1
HATCH
  2
AcDbHatch
  3
AutoCAD 2000
 90
    32768
280
     0
281
     1
  0
CLASS
  1
XRECORD
  2
AcDbXrecord
  3
AutoCAD 2000
 90
    32768
280
     0
281
     0
  0
CLASS
  1
LONG_TRANSACTION
  2
AcDbLongTransaction
  3
AutoCAD 2000
 90
    32768
280
     0
281
     0
  0
CLASS
  1
LWPOLYLINE
  2
AcDbPolyline
  3
AutoCAD 2000
 90
    32768
280
     0
281
     1
  0
CLASS
  1
HATCH
  2
AcDbHatch
  3
AutoCAD 2000
 90
    32768
280
     0
281
     1
  0
CLASS
  1
XRECORD
  2
AcDbXrecord
  3
AutoCAD 2000
 90
    32768
280
     0
281
     0
  0
CLASS
  1
LONG_TRANSACTION
  2
AcDbLongTransaction
  3
AutoCAD 2000
 90
    32768
280
     0
281
     0
  0
CLASS
  1
LWPOLYLINE
  2
AcDbPolyline
  3
AutoCAD 2000
 90
    32768
280
     0
281
     1
  0
CLASS
  1
HATCH
  2
AcDbHatch
  3
AutoCAD 2000
 90
    32768
280
     0
281
     1
  0
CLASS
  1
XRECORD
  2
AcDbXrecord
  3
AutoCAD 2000
 90
    32768
280
     0
281
     0
  0
CLASS
  1
LONG_TRANSACTION
  2
AcDbLongTransaction
  3
AutoCAD 2000
 90
    32768
280
     0
281
     0
  0
CLASS
  1
LWPOLYLINE
  2
AcDbPolyline
  3
AutoCAD 2000
 90
    32768
280
     0
281
     1
  0
CLASS
  1
HATCH
  2
AcDbHatch
  3
AutoCAD 2000
 90
    32768
280
     0
281
     1
  0
CLASS
  1
XRECORD
  2
AcDbXrecord
  3
AutoCAD 2000
 90
    32768
280
     0
281
     0
  0
CLASS
  1
LONG_TRANSACTION
  2
AcDbLongTransaction
  3
AutoCAD 2000
 90
    32768
280
     0
281
     0
  0
CLASS
  1
LWPOLYLINE
  2
AcDbPolyline
  3
AutoCAD 2000
 90
    32768
280
     0
281
     1
  0
CLASS
  1
HATCH
  2
AcDbHatch
  3
AutoCAD 2000
 90
    32768
280
     0
281
     1
  0
CLASS
  1
XRECORD
  2
AcDbXrecord
  3
AutoCAD 2000
 90
    32768
280
     0
281
     0
  0
CLASS
  1
LONG_TRANSACTION
  2
AcDbLongTransaction
  3
AutoCAD 2000
 90
    32768
280
     0
281
     0
  0
CLASS
  1
LWPOLYLINE
  2
AcDbPolyline
  3
AutoCAD 2000
 90
    32768
280
     0
281
     1
  0
CLASS
  1
HATCH
  2
AcDbHatch
  3
AutoCAD 2000
 90
    32768
280
     0
281
     1
  0
CLASS
  1
XRECORD
  2
AcDbXrecord
  3
AutoCAD 2000
 90
    32768
280
     0
281
     0
  0
CLASS
  1
LONG_TRANSACTION
  2
AcDbLongTransaction
  3
AutoCAD 2000
 90
    32768
280
     0
281
     0
  0
CLASS
  1
LWPOLYLINE
  2
AcDbPolyline
  3
AutoCAD 2000
 90
    32768
280
     0
281
     1
  0
CLASS
  1
HATCH
  2
AcDbHatch
  3
AutoCAD 2000
 90
    32768
280
     0
281
     1
  0
CLASS
  1
XRECORD
  2
AcDbXrecord
  3
AutoCAD 2000
 90
    32768
280
     0
281
     0
  0
CLASS
  1
LONG_TRANSACTION
  2
AcDbLongTransaction
  3
AutoCAD 2000
 90
    32768
280
     0
281
     0
  0
CLASS
  1
LWPOLYLINE
  2
AcDbPolyline
  3
AutoCAD 2000
 90
    32768
280
     0
281
     1
  0
CLASS
  1
HATCH
  2
AcDbHatch
  3
AutoCAD 2000
 90
    32768
280
     0
281
     1
  0
CLASS
  1
XRECORD
  2
AcDbXrecord
  3
AutoCAD 2000
 90
    32768
280
     0
281
     0
  0
CLASS
  1
LONG_TRANSACTION
  2
AcDbLongTransaction
  3
AutoCAD 2000
 90
    32768
280
     0
281
     0
  0
CLASS
  1
LWPOLYLINE
  2
AcDbPolyline
  3
AutoCAD 2000
 90
    32768
280
     0
281
     1
  0
CLASS
  1
HATCH
  2
AcDbHatch
  3
AutoCAD 2000
 90
    32768
280
     0
281
     1
  0
CLASS
  1
XRECORD
  2
AcDbXrecord
  3
AutoCAD 2000
 90
    32768
280
     0
281
     0
  0
CLASS
  1
LONG_TRANSACTION
  2
AcDbLongTransaction
  3
AutoCAD 2000
 90
    32768
280
     0
281
     0
  0
CLASS
  1
LWPOLYLINE
  2
AcDbPolyline
  3
AutoCAD 2000
 90
    32768
280
     0
281
     1
  0
CLASS
  1
HATCH
  2
AcDbHatch
  3
AutoCAD 2000
 90
    32768
280
     0
281
     1
  0
CLASS
  1
XRECORD
  2
AcDbXrecord
  3
AutoCAD 2000
 90
    32768
280
     0
281
     0
  0
CLASS
  1
LONG_TRANSACTION
  2
AcDbLongTransaction
  3
AutoCAD 2000
 90
    32768
280
     0
281
     0
  0
CLASS
  1
LWPOLYLINE
  2
AcDbPolyline
  3
AutoCAD 2000
 90
    32768
280
     0
281
     1
  0
CLASS
  1
HATCH
  2
AcDbHatch
  3
AutoCAD 2000
 90
    32768
280
     0
281
     1
  0
CLASS
  1
XRECORD
  2
AcDbXrecord
  3
AutoCAD 2000
 90
    32768
280
     0
281
     0
  0
CLASS
  1
LONG_TRANSACTION
  2
AcDbLongTransaction
  3
AutoCAD 2000
 90
    32768
280
     0
281
     0
  0
CLASS
  1
LWPOLYLINE
  2
AcDbPolyline
  3
AutoCAD 2000
 90
    32768
280
     0
281
     1
  0
CLASS
  1
HATCH
  2
AcDbHatch
  3
AutoCAD 2000
 90
    32768
280
     0
281
     1
  0
CLASS
  1
XRECORD
  2
AcDbXrecord
  3
AutoCAD 2000
 90
    32768
280
     0
281
     0
  0
CLASS
  1
LONG_TRANSACTION
  2
AcDbLongTransaction
  3
AutoCAD 2000
 90
    32768
280
     0
281
     0
  0
CLASS
  1
LWPOLYLINE
  2
AcDbPolyline
  3
AutoCAD 2000
 90
    32768
280
     0
281
     1
  0
CLASS
  1
HATCH
  2
AcDbHatch
  3
AutoCAD 2000
 90
    32768
280
     0
281
     1
  0
CLASS
  1
XRECORD
  2
AcDbXrecord
  3
AutoCAD 2000
 90
    32768
280
     0
281
     0
  0
CLASS
  1
LONG_TRANSACTION
  2
AcDbLongTransaction
  3
AutoCAD 2000
 90
    32768
280
     0
281
     0
  0
CLASS
  1
LWPOLYLINE
  2
AcDbPolyline
  3
AutoCAD 2000
 90
    32768
280
     0
281
     1
  0
CLASS
  1
HATCH
  2
AcDbHatch
  3
AutoCAD 2000
 90
    32768
280
     0
281
     1
  0
CLASS
  1
XRECORD
  2
AcDbXrecord
  3
AutoCAD 2000
 90
    32768
280
     0
281
     0
  0
CLASS
  1
LONG_TRANSACTION
  2
AcDbLongTransaction
  3
AutoCAD 2000
 90
    32768
280
     0
281
     0
  0
CLASS
  1
LWPOLYLINE
  2
AcDbPolyline
  3
AutoCAD 2000
 90
    32768
280
     0
281
     1
  0
CLASS
  1
HATCH
  2
AcDbHatch
  3
AutoCAD 2000
 90
    32768
280
     0
281
     1
  0
CLASS
  1
XRECORD
  2
AcDbXrecord
  3
AutoCAD 2000
 90
    32768
280
     0
281
     0
  0
CLASS
  1
LONG_TRANSACTION
  2
AcDbLongTransaction
  3
AutoCAD 2000
 90
    32768
280
     0
281
     0
  0
CLASS
  1
LWPOLYLINE
  2
AcDbPolyline
  3
AutoCAD 2000
 90
    32768
280
     0
281
     1
  0
CLASS
  1
HATCH
  2
AcDbHatch
  3
AutoCAD 2000
 90
    32768
280
     0
281
     1
  0
CLASS
  1
XRECORD
  2
AcDbXrecord
  3
AutoCAD 2000
 90
    32768
280
     0
281
     0
  0
CLASS
  1
LONG_TRANSACTION
  2
AcDbLongTransaction
  3
AutoCAD 2000
 90
    32768
280
     0
281
     0
  0
CLASS
  1
LWPOLYLINE
  2
AcDbPolyline
  3
AutoCAD 2000
 90
    32768
280
     0
281
     1
  0
CLASS
  1
HATCH
  2
AcDbHatch
  3
AutoCAD 2000
 90
    32768
280
     0
281
     1
  0
CLASS
  1
XRECORD
  2
AcDbXrecord
  3
AutoCAD 2000
 90
    32768
280
     0
281
     0
  0
CLASS
  1
LONG_TRANSACTION
  2
AcDbLongTransaction
  3
AutoCAD 2000
 90
    32768
280
     0
281
     0
  0
CLASS
  1
LWPOLYLINE
  2
AcDbPolyline
  3
AutoCAD 2000
 90
    32768
280
     0
281
     1
  0
CLASS
  1
HATCH
  2
AcDbHatch
  3
AutoCAD 2000
 90
    32768
280
     0
281
     1
  0
CLASS
  1
XRECORD
  2
AcDbXrecord
  3
AutoCAD 2000
 90
    32768
280
     0
281
     0
  0
CLASS
  1
LONG_TRANSACTION
  2
AcDbLongTransaction
  3
AutoCAD 2000
 90
    32768
280
     0
281
     0
  0
CLASS
  1
LWPOLYLINE
  2
AcDbPolyline
  3
AutoCAD 2000
 90
    32768
280
     0
281
     1
  0
CLASS
  1
HATCH
  2
AcDbHatch
  3
AutoCAD 2000
 90
    32768
280
     0
281
     1
  0
CLASS
  1
XRECORD
  2
AcDbXrecord
  3
AutoCAD 2000
 90
    32768
280
     0
281
     0
  0
CLASS
  1
LONG_TRANSACTION
  2
AcDbLongTransaction
  3
AutoCAD 2000
 90
    32768
280
     0
281
     0
  0
CLASS
  1
LWPOLYLINE
  2
AcDbPolyline
  3
AutoCAD 2000
 90
    32768
280
     0
281
     1
  0
CLASS
  1
HATCH
  2
AcDbHatch
  3
AutoCAD 2000
 90
    32768
280
     0
281
     1
  0
CLASS
  1
XRECORD
  2
AcDbXrecord
  3
AutoCAD 2000
 90
    32768
280
     0
281
     0
  0
CLASS
  1
LONG_TRANSACTION
  2
AcDbLongTransaction
  3
AutoCAD 2000
 90
    32768
280
     0
281
     0
  0
CLASS
  1
LWPOLYLINE
  2
AcDbPolyline
  3
AutoCAD 2000
 90
    32768
280
     0
281
     1
  0
CLASS
  1
HATCH
  2
AcDbHatch
  3
AutoCAD 2000
 90
    32768
280
     0
281
     1
  0
CLASS
  1
XRECORD
  2
AcDbXrecord
  3
AutoCAD 2000
 90
    32768
280
     0
281
     0
  0
CLASS
  1
LONG_TRANSACTION
  2
AcDbLongTransaction
  3
AutoCAD 2000
 90
    32768
280
     0
281
     0
  0
CLASS
  1
LWPOLYLINE
  2
AcDbPolyline
  3
AutoCAD 2000
 90
    32768
280
     0
281
     1
  0
CLASS
  1
HATCH
  2
AcDbHatch
  3
AutoCAD 2000
 90
    32768
280
     0
281
     1
  0
CLASS
  1
XRECORD
  2
AcDbXrecord
  3
AutoCAD 2000
 90
    32768
280
     0
281
     0
  0
CLASS
  1
LONG_TRANSACTION
  2
AcDbLongTransaction
  3
AutoCAD 2000
 90
    32768
280
     0
281
     0
  0
CLASS
  1
LWPOLYLINE
  2
AcDbPolyline
  3
AutoCAD 2000
 90
    32768
280
     0
281
     1
  0
CLASS
  1
HATCH
  2
AcDbHatch
  3
AutoCAD 2000
 90
    32768
280
     0
281
     1
  0
CLASS
  1
XRECORD
  2
AcDbXrecord
  3
AutoCAD 2000
 90
    32768
280
     0
281
     0
  0
CLASS
  1
LONG_TRANSACTION
  2
AcDbLongTransaction
  3
AutoCAD 2000
 90
    32768
280
     0
281
     0
  0
CLASS
  1
LWPOLYLINE
  2
AcDbPolyline
  3
AutoCAD 2000
 90
    32768
280
     0
281
     1
  0
CLASS
  1
HATCH
  2
AcDbHatch
  3
AutoCAD 2000
 90
    32768
280
     0
281
     1
  0
CLASS
  1
XRECORD
  2
AcDbXrecord
  3
AutoCAD 2000
 90
    32768
280
     0
281
     0
  0
CLASS
  1
LONG_TRANSACTION
  2
AcDbLongTransaction
  3
AutoCAD 2000
 90
    32768
280
     0
281
     0
  0
CLASS
  1
LWPOLYLINE
  2
AcDbPolyline
  3
AutoCAD 2000
 90
    32768
280
     0
281
     1
  0
CLASS
  1
HATCH
  2
AcDbHatch
  3
AutoCAD 2000
 90
    32768
280
     0
281
     1
  0
CLASS
  1
XRECORD
  2
AcDbXrecord
  3
AutoCAD 2000
 90
    32768
280
     0
281
     0
  0
CLASS
  1
LONG_TRANSACTION
  2
AcDbLongTransaction
  3
AutoCAD 2000
 90
    32768
280
     0
281
     0
  0
CLASS
  1
LWPOLYLINE
  2
AcDbPolyline
  3
AutoCAD 2000
 90
    32768
280
     0
281
     1
  0
CLASS
  1
HATCH
  2
AcDbHatch
  3
AutoCAD 2000
 90
    32768
280
     0
281
     1
  0
CLASS
  1
XRECORD
  2
AcDbXrecord
  3
AutoCAD 2000
 90
    32768
280
     0
281
     0
  0
CLASS
  1
DICTIONARYVAR
  2
AcDbDictionaryVar
  3
AutoCAD 2000
 90
        0
280
     0
281
     0
  0
CLASS
  1
LONG_TRANSACTION
  2
AcDbLongTransaction
  3
AutoCAD 2000
 90
    32768
280
     0
281
     0
  0
CLASS
  1
LWPOLYLINE
  2
AcDbPolyline
  3
AutoCAD 2000
 90
    32768
280
     0
281
     1
  0
CLASS
  1
HATCH
  2
AcDbHatch
  3
AutoCAD 2000
 90
    32768
280
     0
281
     1
  0
CLASS
  1
XRECORD
  2
AcDbXrecord
  3
AutoCAD 2000
 90
    32768
280
     0
281
     0
  0
CLASS
  1
LONG_TRANSACTION
  2
AcDbLongTransaction
  3
AutoCAD 2000
 90
    32768
280
     0
281
     0
  0
CLASS
  1
LWPOLYLINE
  2
AcDbPolyline
  3
AutoCAD 2000
 90
    32768
280
     0
281
     1
  0
CLASS
  1
HATCH
  2
AcDbHatch
  3
AutoCAD 2000
 90
    32768
280
     0
281
     1
  0
CLASS
  1
XRECORD
  2
AcDbXrecord
  3
AutoCAD 2000
 90
    32768
280
     0
281
     0
  0
CLASS
  1
LONG_TRANSACTION
  2
AcDbLongTransaction
  3
AutoCAD 2000
 90
    32768
280
     0
281
     0
  0
CLASS
  1
LWPOLYLINE
  2
AcDbPolyline
  3
AutoCAD 2000
 90
    32768
280
     0
281
     1
  0
CLASS
  1
HATCH
  2
AcDbHatch
  3
AutoCAD 2000
 90
    32768
280
     0
281
     1
  0
CLASS
  1
XRECORD
  2
AcDbXrecord
  3
AutoCAD 2000
 90
    32768
280
     0
281
     0
  0
ENDSEC
  0
SECTION
  2
TABLES
  0
TABLE
  2
VPORT
  5
8
330
0
100
AcDbSymbolTable
 70
     2
  0
VPORT
  5
8622
330
8
100
AcDbSymbolTableRecord
100
AcDbViewportTableRecord
  2
*Active
 70
     0
 10
0.0
 20
0.0
 11
1.0
 21
1.0
 12
438.3855589318232
 22
4.137361715252382
 13
0.0
 23
0.0
 14
1.0
 24
1.0
 15
10.0
 25
10.0
 16
0.0
 26
0.0
 36
1.0
 17
0.0
 27
0.0
 37
0.0
 40
1871.514155549836
 41
1.795454545454545
 42
50.0
 43
0.0
 44
0.0
 50
0.0
 51
0.0
 71
     0
 72
   100
 73
     1
 74
     1
 75
     0
 76
     0
 77
     0
 78
     0
281
     0
 65
     1
110
0.0
120
0.0
130
0.0
111
1.0
121
0.0
131
0.0
112
0.0
122
1.0
132
0.0
 79
     0
146
0.0
  0
ENDTAB
  0
TABLE
  2
LTYPE
  5
5
330
0
100
AcDbSymbolTable
 70
     7
  0
LTYPE
  5
13
330
5
100
AcDbSymbolTableRecord
100
AcDbLinetypeTableRecord
  2
BYBLOCK
 70
     0
  3

 72
    65
 73
     0
 40
0.0
  0
LTYPE
  5
14
330
5
100
AcDbSymbolTableRecord
100
AcDbLinetypeTableRecord
  2
BYLAYER
 70
     0
  3

 72
    65
 73
     0
 40
0.0
  0
LTYPE
  5
15
330
5
100
AcDbSymbolTableRecord
100
AcDbLinetypeTableRecord
  2
CONTINUOUS
 70
     0
  3
Solid line
 72
    65
 73
     0
 40
0.0
  0
LTYPE
  5
22
330
5
100
AcDbSymbolTableRecord
100
AcDbLinetypeTableRecord
  2
CONTINOUS
 70
     0
  3
Solid line
 72
    65
 73
     0
 40
0.0
  0
LTYPE
  5
23
330
5
100
AcDbSymbolTableRecord
100
AcDbLinetypeTableRecord
  2
DASHED
 70
     0
  3
__ __ __ __ __ __ __ __ __ __ __ __ __ __ __
 72
    65
 73
     2
 40
0.75
 49
0.5
 74
     0
 49
-0.25
 74
     0
  0
LTYPE
  5
24
330
5
100
AcDbSymbolTableRecord
100
AcDbLinetypeTableRecord
  2
DASHDOT
 70
     0
  3
__ . __ . __ . __ . __ . __ . __ . __ . __ . __
 72
    65
 73
     4
 40
1.0
 49
0.5
 74
     0
 49
-0.25
 74
     0
 49
0.0
 74
     0
 49
-0.25
 74
     0
  0
LTYPE
  5
3932
330
5
100
AcDbSymbolTableRecord
100
AcDbLinetypeTableRecord
  2
DIVIDE
 70
     0
  3
Divide ____ . . ____ . . ____ . . ____ . . ____
 72
    65
 73
     6
 40
1.25
 49
0.5
 74
     0
 49
-0.25
 74
     0
 49
0.0
 74
     0
 49
-0.25
 74
     0
 49
0.0
 74
     0
 49
-0.25
 74
     0
  0
LTYPE
  5
6875
330
5
100
AcDbSymbolTableRecord
100
AcDbLinetypeTableRecord
  2
D159
 70
     0
  3
IGESIN-LineFont-D159
 72
    65
 73
     6
 40
11.29999999999999
 49
8.0
 74
     0
 49
-0.6
 74
     0
 49
0.75
 74
     0
 49
-0.6
 74
     0
 49
0.75
 74
     0
 49
-0.6
 74
     0
  0
LTYPE
  5
6876
330
5
100
AcDbSymbolTableRecord
100
AcDbLinetypeTableRecord
  2
D1485
 70
     0
  3
IGESIN-LineFont-D1485
 72
    65
 73
     2
 40
1.35
 49
0.75
 74
     0
 49
-0.6
 74
     0
  0
ENDTAB
  0
TABLE
  2
LAYER
  5
2
330
0
100
AcDbSymbolTable
 70
    19
  0
LAYER
  5
10
330
2
100
AcDbSymbolTableRecord
100
AcDbLayerTableRecord
  2
0
 70
     0
 62
     7
  6
CONTINOUS
370
    -3
390
F
  0
LAYER
  5
2F
330
2
100
AcDbSymbolTableRecord
100
AcDbLayerTableRecord
  2
10
 70
     0
 62
     4
  6
CONTINOUS
370
    -3
390
F
  0
LAYER
  5
31
330
2
100
AcDbSymbolTableRecord
100
AcDbLayerTableRecord
  2
12
 70
     0
 62
     3
  6
CONTINOUS
370
    -3
390
F
  0
LAYER
  5
35
330
2
100
AcDbSymbolTableRecord
100
AcDbLayerTableRecord
  2
16
 70
     0
 62
     6
  6
DASHDOT
370
    -3
390
F
  0
LAYER
  5
36
330
2
100
AcDbSymbolTableRecord
100
AcDbLayerTableRecord
  2
17
 70
     0
 62
     2
  6
DASHDOT
370
    -3
390
F
  0
LAYER
  5
38
330
2
100
AcDbSymbolTableRecord
100
AcDbLayerTableRecord
  2
19
 70
     0
 62
     7
  6
CONTINOUS
370
    -3
390
F
  0
LAYER
  5
3C
330
2
100
AcDbSymbolTableRecord
100
AcDbLayerTableRecord
  2
11
 70
     0
 62
     1
  6
CONTINOUS
370
    -3
390
F
  0
LAYER
  5
3D
330
2
100
AcDbSymbolTableRecord
100
AcDbLayerTableRecord
  2
24
 70
     0
 62
     2
  6
CONTINOUS
370
    -3
390
F
  0
LAYER
  5
3A2
330
2
100
AcDbSymbolTableRecord
100
AcDbLayerTableRecord
  2
30
 70
     0
 62
     9
  6
CONTINUOUS
370
    -3
390
F
  0
LAYER
  5
3A4
330
2
100
AcDbSymbolTableRecord
100
AcDbLayerTableRecord
  2
DEFPOINTS
 70
     0
 62
     7
  6
CONTINUOUS
290
     0
370
    -3
390
F
  0
LAYER
  5
3933
330
2
100
AcDbSymbolTableRecord
100
AcDbLayerTableRecord
  2
18
 70
     0
 62
     5
  6
DIVIDE
370
    -3
390
F
  0
LAYER
  5
4709
330
2
100
AcDbSymbolTableRecord
100
AcDbLayerTableRecord
  2
L0_
 70
     0
 62
     7
  6
CONTINUOUS
370
    -3
390
F
  0
LAYER
  5
470B
330
2
100
AcDbSymbolTableRecord
100
AcDbLayerTableRecord
  2
L210_
 70
     0
 62
     7
  6
CONTINUOUS
370
    -3
390
F
  0
LAYER
  5
6877
330
2
100
AcDbSymbolTableRecord
100
AcDbLayerTableRecord
  2
L225_
 70
     0
 62
     7
  6
CONTINUOUS
370
    -3
390
F
  0
LAYER
  5
6878
330
2
100
AcDbSymbolTableRecord
100
AcDbLayerTableRecord
  2
L150_
 70
     0
 62
     7
  6
CONTINUOUS
370
    -3
390
F
  0
LAYER
  5
6879
330
2
100
AcDbSymbolTableRecord
100
AcDbLayerTableRecord
  2
L10_
 70
     0
 62
     7
  6
CONTINUOUS
370
    -3
390
F
  0
LAYER
  5
687A
330
2
100
AcDbSymbolTableRecord
100
AcDbLayerTableRecord
  2
L170_
 70
     0
 62
     7
  6
CONTINUOUS
370
    -3
390
F
  0
LAYER
  5
687B
330
2
100
AcDbSymbolTableRecord
100
AcDbLayerTableRecord
  2
L230_
 70
     0
 62
     7
  6
CONTINUOUS
370
    -3
390
F
  0
LAYER
  5
74BA
330
2
100
AcDbSymbolTableRecord
100
AcDbLayerTableRecord
  2
21
 70
     0
 62
     7
  6
CONTINUOUS
370
    -3
390
F
  0
ENDTAB
  0
TABLE
  2
STYLE
  5
3
330
0
100
AcDbSymbolTable
 70
     4
  0
STYLE
  5
11
330
3
100
AcDbSymbolTableRecord
100
AcDbTextStyleTableRecord
  2
STANDARD
 70
     0
 40
0.0
 41
1.0
 50
0.0
 71
     0
 42
2.0
  3
txt.shx
  4
bigfont.shx
  0
STYLE
  5
42
330
3
100
AcDbSymbolTableRecord
100
AcDbTextStyleTableRecord
  2
STANDARD1
 70
     0
 40
0.0
 41
1.0
 50
0.0
 71
     0
 42
5.0
  3
MONOTXT
  4
BIGFONT
  0
STYLE
  5
3ACF
330
3
100
AcDbSymbolTableRecord
100
AcDbTextStyleTableRecord
  2
SYMBOL3
 70
     0
 40
0.0
 41
1.0
 50
0.0
 71
     0
 42
0.2
  3
iges1003
  4

  0
STYLE
  5
687C
330
3
100
AcDbSymbolTableRecord
100
AcDbTextStyleTableRecord
  2
LEROY
 70
     0
 40
0.0
 41
1.0
 50
0.0
 71
     0
 42
0.2
  3
txt
  4

  0
ENDTAB
  0
TABLE
  2
VIEW
  5
6
330
0
100
AcDbSymbolTable
 70
     3
  0
VIEW
  5
230C
330
6
100
AcDbSymbolTableRecord
100
AcDbViewTableRecord
  2
OLE1
 70
     0
 40
148.9124878027714
 10
429.4976280407222
 20
2.560626997828478
 41
103.1458057716444
 11
0.0
 21
0.0
 31
1.0
 12
0.0
 22
0.0
 32
0.0
 42
50.0
 43
0.0
 44
0.0
 50
0.0
 71
     0
281
     0
 72
     0
  0
VIEW
  5
230E
330
6
100
AcDbSymbolTableRecord
100
AcDbViewTableRecord
  2
OLE2
 70
     0
 40
170.7786920545775
 10
322.664969958371
 20
-5.978304054290276
 41
102.4672152327465
 11
0.0
 21
0.0
 31
1.0
 12
0.0
 22
0.0
 32
0.0
 42
50.0
 43
0.0
 44
0.0
 50
0.0
 71
     0
281
     0
 72
     0
  0
VIEW
  5
23AA
330
6
100
AcDbSymbolTableRecord
100
AcDbViewTableRecord
  2
OLE3
 70
     0
 40
591.7897393182231
 10
84.79698158148218
 20
-46.09336010803995
 41
388.7920961799953
 11
0.0
 21
0.0
 31
1.0
 12
0.0
 22
0.0
 32
0.0
 42
50.0
 43
0.0
 44
0.0
 50
0.0
 71
     0
281
     0
 72
     0
  0
ENDTAB
  0
TABLE
  2
UCS
  5
7
330
0
100
AcDbSymbolTable
 70
     0
  0
ENDTAB
  0
TABLE
  2
APPID
  5
9
330
0
100
AcDbSymbolTable
 70
     2
  0
APPID
  5
12
330
9
100
AcDbSymbolTableRecord
100
AcDbRegAppTableRecord
  2
ACAD
 70
     0
  0
APPID
  5
ECD
330
9
100
AcDbSymbolTableRecord
100
AcDbRegAppTableRecord
  2
CONTENTBLOCKICON
 70
     0
  0
ENDTAB
  0
TABLE
  2
DIMSTYLE
  5
A
330
0
100
AcDbSymbolTable
 70
     1
100
AcDbDimStyleTable
 71
     0
  0
DIMSTYLE
105
175
102
{ACAD_REACTORS
330
7941
330
794E
330
795B
330
7968
330
7975
330
7982
330
798F
330
79B7
330
79C4
330
7A14
330
7A92
330
7A9E
330
7AAB
330
7AB8
330
7AC9
330
7AD6
330
7B14
330
7B23
330
7B30
330
7BD5
330
7BEB
330
7BF8
330
7C17
330
7C24
330
7C31
330
7C3E
330
7E1C
330
7E3B
330
7E87
330
7E94
330
7EAA
330
7EC0
330
7EF1
330
8094
330
80A2
330
80AF
330
80C5
330
80F6
330
8198
330
8206
330
842A
330
84AF
330
8547
330
8564
102
}
330
A
100
AcDbSymbolTableRecord
100
AcDbDimStyleTableRecord
  2
STANDARD
 70
     0
 41
2.0
 42
5.0
 43
0.5
 44
0.5
 73
     0
 74
     0
 77
     3
 78
    12
140
8.0
147
1.0
271
     1
272
     1
340
11
341
3B2
342
3B2
  0
ENDTAB
  0
TABLE
  2
BLOCK_RECORD
  5
1
330
0
100
AcDbSymbolTable
 70
    59
  0
BLOCK_RECORD
  5
1E
102
{ACAD_XDICTIONARY
360
178
102
}
330
1
100
AcDbSymbolTableRecord
100
AcDbBlockTableRecord
  2
*MODEL_SPACE
340
861F
  0
BLOCK_RECORD
  5
1A
102
{ACAD_XDICTIONARY
360
17A
102
}
330
1
100
AcDbSymbolTableRecord
100
AcDbBlockTableRecord
  2
*PAPER_SPACE
340
8620
  0
BLOCK_RECORD
  5
3B2
330
1
100
AcDbSymbolTableRecord
100
AcDbBlockTableRecord
  2
_OPEN
340
0
102
{BLKREFS
331
827F
331
8280
331
8600
331
8601
331
8291
331
8292
331
8609
331
860A
331
82A3
331
82A4
331
82AC
331
82AD
331
82B5
331
82B6
331
82BE
331
82BF
331
8612
331
8613
331
82CF
331
8509
331
851A
331
851B
331
8511
331
8512
331
852C
331
852D
331
853E
331
853F
331
8535
331
8536
331
8523
331
8524
331
8501
331
8502
331
84F8
331
84F9
331
8326
331
8327
331
832F
331
8330
331
8338
331
8339
331
8341
331
8342
331
834A
331
834B
331
8353
331
8354
331
85B4
331
8363
331
8364
331
836C
331
836D
331
8375
331
8376
331
837E
331
837F
331
8387
331
8388
331
8390
331
8391
331
8399
331
839A
331
83A2
331
83A3
331
83AB
331
83AC
331
83B4
331
83B5
331
83BD
331
83BE
331
83C6
331
83C7
331
83CF
331
83D0
331
858B
331
84A9
331
84AA
331
84E1
331
84E2
331
85BC
331
85BD
331
8569
331
856A
102
}
  0
BLOCK_RECORD
  5
46F7
330
1
100
AcDbSymbolTableRecord
100
AcDbBlockTableRecord
  2
B837
340
0
  0
BLOCK_RECORD
  5
6816
330
1
100
AcDbSymbolTableRecord
100
AcDbBlockTableRecord
  2
B2837
340
0
102
{BLKREFS
331
6825
102
}
  0
BLOCK_RECORD
  5
681B
330
1
100
AcDbSymbolTableRecord
100
AcDbBlockTableRecord
  2
*D3
340
0
  0
BLOCK_RECORD
  5
6823
330
1
100
AcDbSymbolTableRecord
100
AcDbBlockTableRecord
  2
B2841
340
0
  0
BLOCK_RECORD
  5
6857
330
1
100
AcDbSymbolTableRecord
100
AcDbBlockTableRecord
  2
B4515
340
0
102
{BLKREFS
331
685D
102
}
  0
BLOCK_RECORD
  5
685C
330
1
100
AcDbSymbolTableRecord
100
AcDbBlockTableRecord
  2
B4517
340
0
  0
BLOCK_RECORD
  5
6861
330
1
100
AcDbSymbolTableRecord
100
AcDbBlockTableRecord
  2
B4521
340
0
102
{BLKREFS
331
6867
102
}
  0
BLOCK_RECORD
  5
6866
330
1
100
AcDbSymbolTableRecord
100
AcDbBlockTableRecord
  2
B4523
340
0
  0
BLOCK_RECORD
  5
686B
330
1
100
AcDbSymbolTableRecord
100
AcDbBlockTableRecord
  2
B4527
340
0
102
{BLKREFS
331
6871
102
}
  0
BLOCK_RECORD
  5
6870
330
1
100
AcDbSymbolTableRecord
100
AcDbBlockTableRecord
  2
B4529
340
0
  0
BLOCK_RECORD
  5
76A8
330
1
100
AcDbSymbolTableRecord
100
AcDbBlockTableRecord
  2
A$C3E2D7676
340
0
  0
BLOCK_RECORD
  5
776B
330
1
100
AcDbSymbolTableRecord
100
AcDbBlockTableRecord
  2
B4569
340
0
102
{BLKREFS
331
7771
102
}
  0
BLOCK_RECORD
  5
7770
330
1
100
AcDbSymbolTableRecord
100
AcDbBlockTableRecord
  2
B4571
340
0
102
{BLKREFS
331
7776
102
}
  0
BLOCK_RECORD
  5
7775
330
1
100
AcDbSymbolTableRecord
100
AcDbBlockTableRecord
  2
A$C29DA5B4A
340
0
  0
BLOCK_RECORD
  5
7942
330
1
100
AcDbSymbolTableRecord
100
AcDbBlockTableRecord
  2
*D15
340
0
  0
BLOCK_RECORD
  5
794F
330
1
100
AcDbSymbolTableRecord
100
AcDbBlockTableRecord
  2
*D16
340
0
  0
BLOCK_RECORD
  5
795C
330
1
100
AcDbSymbolTableRecord
100
AcDbBlockTableRecord
  2
*D17
340
0
  0
BLOCK_RECORD
  5
7969
330
1
100
AcDbSymbolTableRecord
100
AcDbBlockTableRecord
  2
*D18
340
0
  0
BLOCK_RECORD
  5
7976
330
1
100
AcDbSymbolTableRecord
100
AcDbBlockTableRecord
  2
*D19
340
0
  0
BLOCK_RECORD
  5
7983
330
1
100
AcDbSymbolTableRecord
100
AcDbBlockTableRecord
  2
*D20
340
0
  0
BLOCK_RECORD
  5
7990
330
1
100
AcDbSymbolTableRecord
100
AcDbBlockTableRecord
  2
*D21
340
0
  0
BLOCK_RECORD
  5
79B8
330
1
100
AcDbSymbolTableRecord
100
AcDbBlockTableRecord
  2
*D22
340
0
  0
BLOCK_RECORD
  5
79C5
330
1
100
AcDbSymbolTableRecord
100
AcDbBlockTableRecord
  2
*D23
340
0
  0
BLOCK_RECORD
  5
7A15
330
1
100
AcDbSymbolTableRecord
100
AcDbBlockTableRecord
  2
*D24
340
0
  0
BLOCK_RECORD
  5
7A93
330
1
100
AcDbSymbolTableRecord
100
AcDbBlockTableRecord
  2
*D25
340
0
  0
BLOCK_RECORD
  5
7A9F
330
1
100
AcDbSymbolTableRecord
100
AcDbBlockTableRecord
  2
*D26
340
0
  0
BLOCK_RECORD
  5
7AAC
330
1
100
AcDbSymbolTableRecord
100
AcDbBlockTableRecord
  2
*D27
340
0
  0
BLOCK_RECORD
  5
7AB9
330
1
100
AcDbSymbolTableRecord
100
AcDbBlockTableRecord
  2
*D28
340
0
  0
BLOCK_RECORD
  5
7ACA
330
1
100
AcDbSymbolTableRecord
100
AcDbBlockTableRecord
  2
*D29
340
0
  0
BLOCK_RECORD
  5
7AD7
330
1
100
AcDbSymbolTableRecord
100
AcDbBlockTableRecord
  2
*D30
340
0
  0
BLOCK_RECORD
  5
7B15
330
1
100
AcDbSymbolTableRecord
100
AcDbBlockTableRecord
  2
*D31
340
0
  0
BLOCK_RECORD
  5
7B24
330
1
100
AcDbSymbolTableRecord
100
AcDbBlockTableRecord
  2
*D32
340
0
  0
BLOCK_RECORD
  5
7B31
330
1
100
AcDbSymbolTableRecord
100
AcDbBlockTableRecord
  2
*D33
340
0
  0
BLOCK_RECORD
  5
7BD6
330
1
100
AcDbSymbolTableRecord
100
AcDbBlockTableRecord
  2
*D34
340
0
  0
BLOCK_RECORD
  5
7BEC
330
1
100
AcDbSymbolTableRecord
100
AcDbBlockTableRecord
  2
*D35
340
0
  0
BLOCK_RECORD
  5
7BF9
330
1
100
AcDbSymbolTableRecord
100
AcDbBlockTableRecord
  2
*D36
340
0
  0
BLOCK_RECORD
  5
7C18
330
1
100
AcDbSymbolTableRecord
100
AcDbBlockTableRecord
  2
*D37
340
0
  0
BLOCK_RECORD
  5
7C25
330
1
100
AcDbSymbolTableRecord
100
AcDbBlockTableRecord
  2
*D38
340
0
  0
BLOCK_RECORD
  5
7C32
330
1
100
AcDbSymbolTableRecord
100
AcDbBlockTableRecord
  2
*D39
340
0
  0
BLOCK_RECORD
  5
7C3F
330
1
100
AcDbSymbolTableRecord
100
AcDbBlockTableRecord
  2
*D40
340
0
  0
BLOCK_RECORD
  5
7E1D
330
1
100
AcDbSymbolTableRecord
100
AcDbBlockTableRecord
  2
*D41
340
0
  0
BLOCK_RECORD
  5
7E3C
330
1
100
AcDbSymbolTableRecord
100
AcDbBlockTableRecord
  2
*D42
340
0
  0
BLOCK_RECORD
  5
7E88
330
1
100
AcDbSymbolTableRecord
100
AcDbBlockTableRecord
  2
*D43
340
0
  0
BLOCK_RECORD
  5
7E95
330
1
100
AcDbSymbolTableRecord
100
AcDbBlockTableRecord
  2
*D44
340
0
  0
BLOCK_RECORD
  5
7EAB
330
1
100
AcDbSymbolTableRecord
100
AcDbBlockTableRecord
  2
*D45
340
0
  0
BLOCK_RECORD
  5
7EC1
330
1
100
AcDbSymbolTableRecord
100
AcDbBlockTableRecord
  2
*D46
340
0
  0
BLOCK_RECORD
  5
7EF2
330
1
100
AcDbSymbolTableRecord
100
AcDbBlockTableRecord
  2
*D47
340
0
  0
BLOCK_RECORD
  5
8095
330
1
100
AcDbSymbolTableRecord
100
AcDbBlockTableRecord
  2
*D48
340
0
  0
BLOCK_RECORD
  5
80A3
330
1
100
AcDbSymbolTableRecord
100
AcDbBlockTableRecord
  2
*D49
340
0
  0
BLOCK_RECORD
  5
80B0
330
1
100
AcDbSymbolTableRecord
100
AcDbBlockTableRecord
  2
*D50
340
0
  0
BLOCK_RECORD
  5
80C6
330
1
100
AcDbSymbolTableRecord
100
AcDbBlockTableRecord
  2
*D51
340
0
  0
BLOCK_RECORD
  5
80F7
330
1
100
AcDbSymbolTableRecord
100
AcDbBlockTableRecord
  2
*D52
340
0
  0
BLOCK_RECORD
  5
8199
330
1
100
AcDbSymbolTableRecord
100
AcDbBlockTableRecord
  2
*D53
340
0
  0
BLOCK_RECORD
  5
820E
330
1
100
AcDbSymbolTableRecord
100
AcDbBlockTableRecord
  2
*D54
340
0
  0
BLOCK_RECORD
  5
842B
330
1
100
AcDbSymbolTableRecord
100
AcDbBlockTableRecord
  2
*D55
340
0
  0
BLOCK_RECORD
  5
84B0
330
1
100
AcDbSymbolTableRecord
100
AcDbBlockTableRecord
  2
*D56
340
0
  0
BLOCK_RECORD
  5
8548
330
1
100
AcDbSymbolTableRecord
100
AcDbBlockTableRecord
  2
*D57
340
0
  0
BLOCK_RECORD
  5
8565
330
1
100
AcDbSymbolTableRecord
100
AcDbBlockTableRecord
  2
*D58
340
0
  0
ENDTAB
  0
ENDSEC
  0
SECTION
  2
BLOCKS
  0
BLOCK
  5
1F
330
1E
100
AcDbEntity
  8
0
100
AcDbBlockBegin
  2
*MODEL_SPACE
 70
     0
 10
0.0
 20
0.0
 30
0.0
  3
*MODEL_SPACE
  1

  0
ENDBLK
  5
20
330
1E
100
AcDbEntity
  8
0
100
AcDbBlockEnd
  0
BLOCK
  5
1B
330
1A
100
AcDbEntity
 67
     1
  8
0
100
AcDbBlockBegin
  2
*PAPER_SPACE
 70
     0
 10
0.0
 20
0.0
 30
0.0
  3
*PAPER_SPACE
  1

  0
ENDBLK
  5
1C
330
1A
100
AcDbEntity
 67
     1
  8
0
100
AcDbBlockEnd
  0
BLOCK
  5
3B6
330
3B2
100
AcDbEntity
  8
0
100
AcDbBlockBegin
  2
_OPEN
 70
     0
 10
0.0
 20
0.0
 30
0.0
  3
_OPEN
  1

  0
LINE
  5
3B3
330
3B2
100
AcDbEntity
  8
30
  6
Continuous
 62
     0
100
AcDbLine
 10
-1.0
 20
0.1666666666666666
 30
0.0
 11
0.0
 21
0.0
 31
0.0
  0
LINE
  5
3B4
330
3B2
100
AcDbEntity
  8
30
  6
Continuous
 62
     0
100
AcDbLine
 10
-1.0
 20
-0.1666666666666666
 30
0.0
 11
0.0
 21
0.0
 31
0.0
  0
LINE
  5
3B5
330
3B2
100
AcDbEntity
  8
30
  6
Continuous
 62
     0
100
AcDbLine
 10
0.0
 20
0.0
 30
0.0
 11
-1.0
 21
0.0
 31
0.0
  0
ENDBLK
  5
3B7
330
3B2
100
AcDbEntity
  8
0
100
AcDbBlockEnd
  0
BLOCK
  5
46FA
330
46F7
100
AcDbEntity
  8
L0_
  6
Continuous
100
AcDbBlockBegin
  2
B837
 70
     0
 10
0.0
 20
0.0
 30
0.0
  3
B837
  1

  0
TEXT
  5
46F8
330
46F7
100
AcDbEntity
  8
L0_
  6
Continuous
100
AcDbText
 10
1984.080078125
 20
1307.4332275391
 30
0.0
 40
12.0
  1
n
 41
2.863636363636363
  7
SYMBOL3
 72
     5
 11
2002.080078125
 21
1307.4332275391
 31
0.0
100
AcDbText
 73
     2
  0
TEXT
  5
46F9
330
46F7
100
AcDbEntity
  8
L0_
  6
Continuous
100
AcDbText
 10
2002.080078125
 20
1307.4332275391
 30
0.0
 40
12.0
  1
11
 41
1.399999999999996
  7
SYMBOL3
 72
     5
 11
2018.880078125
 21
1307.4332275391
 31
0.0
100
AcDbText
 73
     2
  0
ENDBLK
  5
46FB
330
46F7
100
AcDbEntity
  8
L0_
  6
Continuous
100
AcDbBlockEnd
  0
BLOCK
  5
6819
330
6816
100
AcDbEntity
  8
L0_
  6
Continuous
100
AcDbBlockBegin
  2
B2837
 70
     0
 10
0.0
 20
0.0
 30
0.0
  3
B2837
  1

  0
TEXT
  5
6817
330
6816
100
AcDbEntity
  8
L0_
  6
Continuous
100
AcDbText
 10
2509.9870605469
 20
3096.0744628906
 30
0.0
 40
15.0
  1
n
 41
2.863636363636363
  7
SYMBOL3
 72
     5
 11
2532.4870605469
 21
3096.0744628906
 31
0.0
100
AcDbText
 73
     2
  0
TEXT
  5
6818
330
6816
100
AcDbEntity
  8
L0_
  6
Continuous
100
AcDbText
 10
2532.4870605469
 20
3096.0744628906
 30
0.0
 40
15.0
  1
9
 41
1.776923076923076
  7
SYMBOL3
 72
     5
 11
2548.9870605469
 21
3096.0744628906
 31
0.0
100
AcDbText
 73
     2
  0
ENDBLK
  5
681A
330
6816
100
AcDbEntity
  8
L0_
  6
Continuous
100
AcDbBlockEnd
  0
BLOCK
  5
6821
330
681B
100
AcDbEntity
  8
0
100
AcDbBlockBegin
  2
*D3
 70
     1
 10
0.0
 20
0.0
 30
0.0
  3
*D3
  1

  0
LINE
  5
681C
330
681B
100
AcDbEntity
  8
0
  6
ByBlock
100
AcDbLine
 10
2611.11303831454
 20
3175.571385345142
 30
0.0
 11
2562.968452781273
 21
3086.783914434755
 31
0.0
  0
LINE
  5
681D
330
681B
100
AcDbEntity
  8
0
  6
ByBlock
100
AcDbLine
 10
2562.968452781273
 20
3086.783914434755
 30
0.0
 11
2562.878452781272
 21
3086.783914434755
 31
0.0
  0
SOLID
  5
681E
330
681B
100
AcDbEntity
  8
0
  6
ByBlock
100
AcDbTrace
 10
2613.310735483583
 20
3174.379694465264
 30
0.0
 11
2608.915341145497
 21
3176.763076225018
 31
0.0
 12
2618.263183593799
 22
3188.757568359398
 32
0.0
 13
2618.263183593799
 23
3188.757568359398
 33
0.0
  0
POINT
  5
681F
330
681B
100
AcDbEntity
  8
DEFPOINTS
  6
ByBlock
 62
     0
100
AcDbPoint
 10
2618.263183593799
 20
3188.757568359398
 30
0.0
  0
POINT
  5
6820
330
681B
100
AcDbEntity
  8
DEFPOINTS
  6
ByBlock
 62
     0
100
AcDbPoint
 10
2622.553222656199
 20
3196.669189453198
 30
0.0
  0
ENDBLK
  5
6822
330
681B
100
AcDbEntity
  8
0
100
AcDbBlockEnd
  0
BLOCK
  5
6826
330
6823
100
AcDbEntity
  8
L210_
100
AcDbBlockBegin
  2
B2841
 70
     0
 10
0.0
 20
0.0
 30
0.0
  3
B2841
  1

  0
DIMENSION
  5
6824
330
6823
100
AcDbEntity
  8
L210_
100
AcDbDimension
  2
*D3
 10
2622.5532226562
 20
3196.6691894532
 30
0.0
 11
2658.4084472656
 21
3652.5883789063
 31
0.0
 70
     3
  1
 
 71
     5
 42
-1.0
100
AcDbDiametricDimension
 15
2618.263183593799
 25
3188.757568359398
 35
0.0
 40
116.0005747846635
  0
INSERT
  5
6825
330
6823
100
AcDbEntity
  8
L0_
  6
Continuous
100
AcDbBlockReference
  2
B2837
 10
0.0
 20
0.0
 30
0.0
  0
ENDBLK
  5
6827
330
6823
100
AcDbEntity
  8
L210_
100
AcDbBlockEnd
  0
BLOCK
  5
685A
330
6857
100
AcDbEntity
  8
L0_
  6
Continuous
100
AcDbBlockBegin
  2
B4515
 70
     0
 10
0.0
 20
0.0
 30
0.0
  3
B4515
  1

  0
LWPOLYLINE
  5
6858
330
6857
100
AcDbEntity
  8
L0_
  6
Continuous
100
AcDbPolyline
 90
        3
 70
     0
 43
0.0
 10
2080.641894800232
 20
3577.752173191962
 10
2070.6984863281
 20
3566.2465820313
 10
2083.835956340333
 20
3573.905360111234
  0
LWPOLYLINE
  5
6859
330
6857
100
AcDbEntity
  8
L0_
  6
Continuous
100
AcDbPolyline
 90
        4
 70
     0
 43
0.0
 10
2070.6984863281
 20
3566.2465820313
 10
2156.6696777344
 20
3637.629638671898
 10
2157.9443359375
 20
3637.629638671898
 10
2274.694335937499
 20
3637.629638671898
  0
ENDBLK
  5
685B
330
6857
100
AcDbEntity
  8
L0_
  6
Continuous
100
AcDbBlockEnd
  0
BLOCK
  5
685F
330
685C
100
AcDbEntity
  8
L230_
  6
Continuous
 62
     6
100
AcDbBlockBegin
  2
B4517
 70
     0
 10
0.0
 20
0.0
 30
0.0
  3
B4517
  1

  0
INSERT
  5
685D
330
685C
100
AcDbEntity
  8
L0_
  6
Continuous
100
AcDbBlockReference
  2
B4515
 10
0.0
 20
0.0
 30
0.0
  0
TEXT
  5
685E
330
685C
100
AcDbEntity
  8
L0_
  6
Continuous
100
AcDbText
 10
2167.3193359375
 20
3647.0046386719
 30
0.0
 40
15.0
  1
Insulator
 41
0.8893617021276595
  7
LEROY
 72
     5
 11
2271.8193359375
 21
3647.0046386719
 31
0.0
100
AcDbText
 73
     2
  0
ENDBLK
  5
6860
330
685C
100
AcDbEntity
  8
L230_
  6
Continuous
 62
     6
100
AcDbBlockEnd
  0
BLOCK
  5
6864
330
6861
100
AcDbEntity
  8
L0_
  6
Continuous
100
AcDbBlockBegin
  2
B4521
 70
     0
 10
0.0
 20
0.0
 30
0.0
  3
B4521
  1

  0
LWPOLYLINE
  5
6862
330
6861
100
AcDbEntity
  8
L0_
  6
Continuous
100
AcDbPolyline
 90
        3
 70
     0
 43
0.0
 10
2097.900399026018
 20
3515.880252433286
 10
2088.698486328099
 20
3527.9870605469
 10
2093.476465978473
 20
3513.550270375236
  0
LWPOLYLINE
  5
6863
330
6861
100
AcDbEntity
  8
L0_
  6
Continuous
100
AcDbPolyline
 90
        4
 70
     0
 43
0.0
 10
2088.698486328099
 20
3527.9870605469
 10
2130.16796875
 20
3449.249023437499
 10
2131.099853515599
 20
3449.249023437499
 10
2373.3498535156
 20
3449.249023437499
  0
ENDBLK
  5
6865
330
6861
100
AcDbEntity
  8
L0_
  6
Continuous
100
AcDbBlockEnd
  0
BLOCK
  5
6869
330
6866
100
AcDbEntity
  8
L230_
  6
Continuous
 62
     6
100
AcDbBlockBegin
  2
B4523
 70
     0
 10
0.0
 20
0.0
 30
0.0
  3
B4523
  1

  0
INSERT
  5
6867
330
6866
100
AcDbEntity
  8
L0_
  6
Continuous
100
AcDbBlockReference
  2
B4521
 10
0.0
 20
0.0
 30
0.0
  0
TEXT
  5
6868
330
6866
100
AcDbEntity
  8
L0_
  6
Continuous
100
AcDbText
 10
2140.4748535156
 20
3458.624023437499
 30
0.0
 40
15.0
  1
M8 mounting screw
 41
0.953124999999996
  7
LEROY
 72
     5
 11
2369.224853515599
 21
3458.624023437499
 31
0.0
100
AcDbText
 73
     2
  0
ENDBLK
  5
686A
330
6866
100
AcDbEntity
  8
L230_
  6
Continuous
 62
     6
100
AcDbBlockEnd
  0
BLOCK
  5
686E
330
686B
100
AcDbEntity
  8
L0_
  6
Continuous
100
AcDbBlockBegin
  2
B4527
 70
     0
 10
0.0
 20
0.0
 30
0.0
  3
B4527
  1

  0
LWPOLYLINE
  5
686C
330
686B
100
AcDbEntity
  8
L0_
  6
Continuous
100
AcDbPolyline
 90
        3
 70
     0
 43
0.0
 10
2103.226365324067
 20
3186.096922203727
 10
2088.698486328099
 20
3190.5903320313
 10
2100.983752461289
 20
3181.628064682201
  0
LWPOLYLINE
  5
686D
330
686B
100
AcDbEntity
  8
L0_
  6
Continuous
100
AcDbPolyline
 90
        4
 70
     0
 43
0.0
 10
2088.698486328099
 20
3190.5903320313
 10
2224.342285156299
 20
3122.5200195313
 10
2225.397705078099
 20
3122.5200195313
 10
2467.6477050781
 20
3122.5200195313
  0
ENDBLK
  5
686F
330
686B
100
AcDbEntity
  8
L0_
  6
Continuous
100
AcDbBlockEnd
  0
BLOCK
  5
6873
330
6870
100
AcDbEntity
  8
L230_
  6
Continuous
 62
     6
100
AcDbBlockBegin
  2
B4529
 70
     0
 10
0.0
 20
0.0
 30
0.0
  3
B4529
  1

  0
INSERT
  5
6871
330
6870
100
AcDbEntity
  8
L0_
  6
Continuous
100
AcDbBlockReference
  2
B4527
 10
0.0
 20
0.0
 30
0.0
  0
TEXT
  5
6872
330
6870
100
AcDbEntity
  8
L0_
  6
Continuous
100
AcDbText
 10
2234.772705078099
 20
3131.8950195313
 30
0.0
 40
15.0
  1
M8 mounting screw
 41
0.9531250000000037
  7
LEROY
 72
     5
 11
2463.5227050781
 21
3131.8950195313
 31
0.0
100
AcDbText
 73
     2
  0
ENDBLK
  5
6874
330
6870
100
AcDbEntity
  8
L230_
  6
Continuous
 62
     6
100
AcDbBlockEnd
  0
BLOCK
  5
76C5
330
76A8
100
AcDbEntity
  8
0
100
AcDbBlockBegin
  2
A$C3E2D7676
 70
     0
 10
0.0
 20
0.0
 30
0.0
  3
A$C3E2D7676
  1

  0
LWPOLYLINE
  5
76A9
330
76A8
100
AcDbEntity
  8
0
  6
D159
100
AcDbPolyline
 90
        2
 70
     0
 43
0.0
 10
150.0
 20
-220.0
 10
150.0
 20
200.0
  0
LWPOLYLINE
  5
76AA
330
76A8
100
AcDbEntity
  8
0
  6
D159
100
AcDbPolyline
 90
        2
 70
     0
 43
0.0
 10
220.0
 20
-220.0
 10
220.0
 20
200.0
  0
LWPOLYLINE
  5
76AB
330
76A8
100
AcDbEntity
  8
0
  6
Continuous
100
AcDbPolyline
 90
        2
 70
     0
 43
0.0
 10
0.0
 20
-282.2218017577998
 10
0.0
 20
214.3742675781
  0
LWPOLYLINE
  5
76AC
330
76A8
100
AcDbEntity
  8
0
  6
D159
100
AcDbPolyline
 90
        2
 70
     0
 43
0.0
 10
-150.0
 20
-220.0
 10
-150.0
 20
200.0
  0
LWPOLYLINE
  5
76AD
330
76A8
100
AcDbEntity
  8
0
  6
DASHED
100
AcDbPolyline
 90
        2
 70
     0
 43
0.0
 10
-168.1430664062999
 20
-214.0
 10
231.005859375
 20
-214.0
  0
LWPOLYLINE
  5
76AE
330
76A8
100
AcDbEntity
  8
0
  6
Continuous
100
AcDbPolyline
 90
        2
 70
     0
 43
0.0
 10
-168.1430664062999
 20
-226.0
 10
231.005859375
 20
-226.0
  0
LWPOLYLINE
  5
76AF
330
76A8
100
AcDbEntity
  8
0
  6
Continuous
100
AcDbPolyline
 90
       16
 70
     0
 43
0.0
 10
-168.1430664062999
 20
-220.0
 10
-171.7170410155999
 20
-204.2415771484999
 10
-163.9106445312999
 20
-187.3280029296998
 10
-170.052734375
 20
-170.0
 10
232.9155273436999
 20
-170.0
 10
226.40234375
 20
-187.3280029296998
 10
234.2084960937
 20
-201.6395263671999
 10
231.005859375
 20
-220.0
 10
-168.1430664062999
 20
-220.0
 10
-173.0180664063
 20
-240.6707763672
 10
-163.9106445312999
 20
-254.9822998046999
 10
-169.0981445312999
 20
-270.0
 10
232.9155273436999
 20
-270.0
 10
229.0043945311999
 20
-251.0792236328
 10
234.2084960937
 20
-236.7677001953
 10
231.005859375
 20
-220.0
  0
LWPOLYLINE
  5
76B0
330
76A8
100
AcDbEntity
  8
0
  6
Continuous
100
AcDbPolyline
 90
        2
 70
     0
 43
0.0
 10
92.5
 20
-190.0
 10
132.4999999999999
 20
-190.0
  0
LWPOLYLINE
  5
76B1
330
76A8
100
AcDbEntity
  8
0
  6
Continuous
100
AcDbPolyline
 90
        2
 70
     0
 43
0.0
 10
-112.5
 20
-210.0
 10
-112.5
 20
-170.0
  0
CIRCLE
  5
76B2
330
76A8
100
AcDbEntity
  8
0
  6
Continuous
100
AcDbCircle
 10
-112.5
 20
-190.0
 30
0.0
 40
6.0
  0
LWPOLYLINE
  5
76B3
330
76A8
100
AcDbEntity
  8
0
  6
Continuous
100
AcDbPolyline
 90
        2
 70
     0
 43
0.0
 10
-132.4999999999999
 20
-190.0
 10
-92.5
 20
-190.0
  0
LWPOLYLINE
  5
76B4
330
76A8
100
AcDbEntity
  8
0
  6
Continuous
100
AcDbPolyline
 90
        2
 70
     0
 43
0.0
 10
182.5
 20
-210.0
 10
182.5
 20
-170.0
  0
LWPOLYLINE
  5
76B5
330
76A8
100
AcDbEntity
  8
0
  6
Continuous
100
AcDbPolyline
 90
        2
 70
     0
 43
0.0
 10
112.5
 20
-210.0
 10
112.5
 20
-170.0
  0
CIRCLE
  5
76B6
330
76A8
100
AcDbEntity
  8
0
  6
Continuous
100
AcDbCircle
 10
112.5
 20
-190.0
 30
0.0
 40
6.0
  0
CIRCLE
  5
76B7
330
76A8
100
AcDbEntity
  8
0
  6
Continuous
100
AcDbCircle
 10
182.5
 20
-190.0
 30
0.0
 40
6.0
  0
LWPOLYLINE
  5
76B8
330
76A8
100
AcDbEntity
  8
0
  6
Continuous
100
AcDbPolyline
 90
        2
 70
     0
 43
0.0
 10
162.5
 20
-190.0
 10
202.4999999999999
 20
-190.0
  0
LWPOLYLINE
  5
76B9
330
76A8
100
AcDbEntity
  8
0
  6
DASHED
100
AcDbPolyline
 90
        2
 70
     0
 43
0.0
 10
-168.1430664062999
 20
194.0
 10
231.005859375
 20
194.0
  0
LWPOLYLINE
  5
76BA
330
76A8
100
AcDbEntity
  8
0
  6
Continuous
100
AcDbPolyline
 90
        8
 70
     1
 43
0.0
 10
232.9074707030998
 20
180.8673095702999
 10
225.1013183593999
 20
169.1578369139998
 10
232.9155273436999
 20
150.0
 10
-169.0981445312999
 20
150.0
 10
-161.30859375
 20
171.7600097655999
 10
-174.3190917968999
 20
183.4693603514999
 10
-168.1430664062999
 20
200.0
 10
231.005859375
 20
200.0
  0
LWPOLYLINE
  5
76BB
330
76A8
100
AcDbEntity
  8
0
  6
Continuous
100
AcDbPolyline
 90
        2
 70
     0
 43
0.0
 10
-240.6171875
 20
0.0
 10
260.6074218749999
 20
0.0
  0
TEXT
  5
76BC
330
76A8
100
AcDbEntity
  8
0
  6
Continuous
100
AcDbText
 10
-234.5888671875
 20
8.563598632799994
 30
0.0
 40
15.0
  1
ASL
 41
1.274999999999999
 72
     5
 11
-183.5888671875
 21
8.563598632799994
 31
0.0
100
AcDbText
 73
     2
  0
LWPOLYLINE
  5
76BD
330
76A8
100
AcDbEntity
  8
0
  6
Continuous
100
AcDbPolyline
 90
        2
 70
     0
 43
0.0
 10
92.5
 20
170.0
 10
132.4999999999999
 20
170.0
  0
CIRCLE
  5
76BE
330
76A8
100
AcDbEntity
  8
0
  6
Continuous
100
AcDbCircle
 10
-112.5
 20
170.0
 30
0.0
 40
6.0
  0
LWPOLYLINE
  5
76BF
330
76A8
100
AcDbEntity
  8
0
  6
Continuous
100
AcDbPolyline
 90
        2
 70
     0
 43
0.0
 10
-132.4999999999999
 20
170.0
 10
-92.5
 20
170.0
  0
CIRCLE
  5
76C0
330
76A8
100
AcDbEntity
  8
0
  6
Continuous
100
AcDbCircle
 10
112.5
 20
170.0
 30
0.0
 40
6.0
  0
CIRCLE
  5
76C1
330
76A8
100
AcDbEntity
  8
0
  6
Continuous
100
AcDbCircle
 10
182.5
 20
170.0
 30
0.0
 40
6.0
  0
LWPOLYLINE
  5
76C2
330
76A8
100
AcDbEntity
  8
0
  6
Continuous
100
AcDbPolyline
 90
        2
 70
     0
 43
0.0
 10
162.5
 20
170.0
 10
202.4999999999999
 20
170.0
  0
TEXT
  5
76C3
330
76A8
100
AcDbEntity
  8
0
  6
Continuous
100
AcDbText
 10
-5.0478515625
 20
231.7209472655999
 30
0.0
 40
15.0
  1
H
 41
1.649999999999999
 72
     5
 11
11.4521484375
 21
231.7209472655999
 31
0.0
100
AcDbText
 73
     2
  0
TEXT
  5
76C4
330
76A8
100
AcDbEntity
  8
0
  6
Continuous
100
AcDbText
 10
0.13671875
 20
226.3720703125
 30
0.0
 40
15.0
  1
L
 41
1.8
 72
     5
 11
18.13671875
 21
226.3720703125
 31
0.0
100
AcDbText
 73
     2
  0
ENDBLK
  5
76C6
330
76A8
100
AcDbEntity
  8
0
100
AcDbBlockEnd
  0
BLOCK
  5
776E
330
776B
100
AcDbEntity
  8
L0_
  6
Continuous
100
AcDbBlockBegin
  2
B4569
 70
     0
 10
0.0
 20
0.0
 30
0.0
  3
B4569
  1

  0
LWPOLYLINE
  5
776C
330
776B
100
AcDbEntity
  8
L0_
  6
Continuous
100
AcDbPolyline
 90
        3
 70
     0
 43
0.0
 10
1768.778292002867
 20
1397.586346769357
 10
1778.4678955078
 20
1385.8662109375
 10
1773.103179489141
 20
1400.095400023289
  0
LWPOLYLINE
  5
776D
330
776B
100
AcDbEntity
  8
L0_
  6
Continuous
100
AcDbPolyline
 90
        4
 70
     0
 43
0.0
 10
1778.4678955078
 20
1385.8662109375
 10
1653.1055908203
 20
1601.9548339844
 10
1649.657958984399
 20
1601.4088134766
 10
1440.1579589844
 20
1601.4088134766
  0
ENDBLK
  5
776F
330
776B
100
AcDbEntity
  8
L0_
  6
Continuous
100
AcDbBlockEnd
  0
BLOCK
  5
7773
330
7770
100
AcDbEntity
  8
L230_
  6
Continuous
 62
     6
100
AcDbBlockBegin
  2
B4571
 70
     0
 10
0.0
 20
0.0
 30
0.0
  3
B4571
  1

  0
INSERT
  5
7771
330
7770
100
AcDbEntity
  8
L0_
  6
Continuous
100
AcDbBlockReference
  2
B4569
 10
0.0
 20
0.0
 30
0.0
  0
TEXT
  5
7772
330
7770
100
AcDbEntity
  8
L0_
  6
Continuous
100
AcDbText
 10
1449.5329589844
 20
1648.6804199219
 30
0.0
 40
15.0
  1
Extension handle
 41
0.9022988505747083
  7
LEROY
 72
     5
 11
1645.782958984399
 21
1648.6804199219
 31
0.0
100
AcDbText
 73
     2
  0
ENDBLK
  5
7774
330
7770
100
AcDbEntity
  8
L230_
  6
Continuous
 62
     6
100
AcDbBlockEnd
  0
BLOCK
  5
77D6
330
7775
100
AcDbEntity
  8
0
100
AcDbBlockBegin
  2
A$C29DA5B4A
 70
     0
 10
0.0
 20
0.0
 30
0.0
  3
A$C29DA5B4A
  1

  0
INSERT
  5
7776
330
7775
100
AcDbEntity
  8
0
  6
Continuous
100
AcDbBlockReference
  2
B4571
 10
-1867.4752197266
 20
-1308.7517089844
 30
0.0
  0
LWPOLYLINE
  5
7777
330
7775
100
AcDbEntity
  8
0
  6
Continuous
100
AcDbPolyline
 90
        2
 70
     0
 43
0.0
 10
-424.0672607421998
 20
0.0
 10
600.7139892578
 20
0.0
  0
TEXT
  5
7778
330
7775
100
AcDbEntity
  8
0
  6
Continuous
100
AcDbText
 10
-406.2006835937999
 20
21.60571289059999
 30
0.0
 40
15.0
  1
ASL
 41
1.275
 72
     5
 11
-355.2006835937999
 21
21.60571289059999
 31
0.0
100
AcDbText
 73
     2
  0
CIRCLE
  5
7779
330
7775
100
AcDbEntity
  8
0
  6
D159
100
AcDbCircle
 10
-223.768474955276
 20
8.845360839738534
 30
0.0
 40
20.00000000000003
  0
LWPOLYLINE
  5
777A
330
7775
100
AcDbEntity
  8
0
  6
D159
100
AcDbPolyline
 90
        4
 70
     1
 43
0.0
 10
-135.2087402344
 20
17.22119140619997
 10
-136.5695800782
 20
-8.742797851600016
 10
-172.5198974609999
 20
-6.858886718800022
 10
-171.1590576172
 20
19.10559082029998
  0
LWPOLYLINE
  5
777B
330
7775
100
AcDbEntity
  8
0
  6
Continuous
100
AcDbPolyline
 90
        3
 70
     0
 43
0.0
 10
5.999999776499635
 20
29.39387638889934
 42
0.1010205125138069
 10
0.0
 20
0.0
 42
0.1010204964585539
 10
5.999997907919803
 20
-29.39387200239071
  0
LWPOLYLINE
  5
777C
330
7775
100
AcDbEntity
  8
0
  6
Continuous
100
AcDbPolyline
 90
       21
 70
     0
 43
0.0
 10
159.0
 20
200.0004882811999
 10
22.0
 20
40.00048828119997
 10
22.0
 20
-50.0
 10
87.0
 20
-50.0
 10
87.0
 20
-170.0
 10
25.0
 20
-170.0
 10
22.0
 20
-170.0
 10
22.0
 20
-220.0
 10
282.0001220702998
 20
-220.0
 10
282.0001220702998
 20
-137.5
 10
282.0001220702998
 20
-62.5
 10
282.0001220702998
 20
22.5
 10
282.0001220702998
 20
97.5
 10
282.0001220702998
 20
200.0004882811999
 10
120.0
 20
200.0004882811999
 10
25.0
 20
200.0004882811999
 10
25.0
 20
170.0002441406
 10
17.0
 20
170.0002441406
 10
17.0
 20
-140.0
 10
25.0
 20
-140.0
 10
25.0
 20
-170.0
  0
LWPOLYLINE
  5
777D
330
7775
100
AcDbEntity
  8
0
  6
Continuous
100
AcDbPolyline
 90
        4
 70
     0
 43
0.0
 10
63.0
 20
-226.0
 10
63.0
 20
-238.0
 10
71.0
 20
-238.0
 10
71.0
 20
-226.0
  0
LWPOLYLINE
  5
777E
330
7775
100
AcDbEntity
  8
0
  6
Continuous
100
AcDbPolyline
 90
        4
 70
     0
 43
0.0
 10
76.0
 20
-226.0
 10
76.0
 20
-236.0
 10
58.0
 20
-236.0
 10
58.0
 20
-226.0
  0
LWPOLYLINE
  5
777F
330
7775
100
AcDbEntity
  8
0
  6
D1485
100
AcDbPolyline
 90
        7
 70
     0
 43
0.0
 10
97.0
 20
-220.0
 10
97.0
 20
-270.0
 10
91.0
 20
-270.0
 10
91.0
 20
-232.0
 42
0.4142135623730951
 10
85.0
 20
-226.0
 10
47.0
 20
-226.0
 10
47.0
 20
-220.0
  0
LWPOLYLINE
  5
7780
330
7775
100
AcDbEntity
  8
0
  6
Continuous
100
AcDbPolyline
 90
        2
 70
     0
 43
0.0
 10
67.0
 20
-204.7546386719
 10
67.0
 20
-253.0
  0
LWPOLYLINE
  5
7781
330
7775
100
AcDbEntity
  8
0
  6
Continuous
100
AcDbPolyline
 90
        2
 70
     0
 43
0.0
 10
49.99720452680003
 20
-226.0
 42
0.0002357521657335
 10
50.0009765625
 20
-226.0000017785312
  0
LWPOLYLINE
  5
7782
330
7775
100
AcDbEntity
  8
0
  6
Continuous
100
AcDbPolyline
 90
        3
 70
     0
 43
0.0
 10
6.0
 20
-29.39404296880002
 10
6.0
 20
-47.5
 10
17.0
 20
-47.5
  0
LWPOLYLINE
  5
7783
330
7775
100
AcDbEntity
  8
0
  6
Continuous
100
AcDbPolyline
 90
        4
 70
     0
 43
0.0
 10
282.0001220702998
 20
-220.0
 10
332.0001220702998
 20
-220.0
 10
332.0001220702998
 20
-214.0
 10
294.0001220702999
 20
-214.0
  0
LWPOLYLINE
  5
7784
330
7775
100
AcDbEntity
  8
0
  6
Continuous
100
AcDbPolyline
 90
        2
 70
     0
 43
0.0
 10
263.1151123047
 20
-190.0
 10
315.0001220702999
 20
-190.0
  0
LWPOLYLINE
  5
7785
330
7775
100
AcDbEntity
  8
0
  6
D1485
100
AcDbPolyline
 90
        3
 70
     0
 43
0.0
 10
288.0001220702999
 20
-208.0
 10
288.0001220702999
 20
-170.0
 10
282.0001220702998
 20
-170.0
  0
LWPOLYLINE
  5
7786
330
7775
100
AcDbEntity
  8
0
  6
Continuous
100
AcDbPolyline
 90
        4
 70
     0
 43
0.0
 10
288.0001220702999
 20
-199.0
 10
298.0001220703
 20
-199.0
 10
298.0001220703
 20
-181.0
 10
288.0001220702999
 20
-181.0
  0
LWPOLYLINE
  5
7787
330
7775
100
AcDbEntity
  8
0
  6
Continuous
100
AcDbPolyline
 90
        4
 70
     0
 43
0.0
 10
288.0001220702999
 20
-194.0
 10
300.0001220703
 20
-194.0
 10
300.0001220703
 20
-186.0
 10
288.0001220702999
 20
-186.0
  0
LWPOLYLINE
  5
7788
330
7775
100
AcDbEntity
  8
0
  6
Continuous
100
AcDbPolyline
 90
        2
 70
     0
 43
0.0
 10
-294.0001220702999
 20
-214.0
 42
0.4142135623730951
 10
-288.0001220702999
 20
-208.0
210
0.0
220
0.0
230
-1.0
  0
LWPOLYLINE
  5
7789
330
7775
100
AcDbEntity
  8
0
  6
Continuous
100
AcDbPolyline
 90
        2
 70
     0
 43
0.0
 10
-288.0001220702999
 20
-172.9972045268999
 42
0.0002357521594807
 10
-288.000123848831
 20
-173.0009765624999
210
0.0
220
0.0
230
-1.0
  0
LWPOLYLINE
  5
778A
330
7775
100
AcDbEntity
  8
0
  6
Continuous
100
AcDbPolyline
 90
        4
 70
     0
 43
0.0
 10
282.0001220702998
 20
-62.5
 10
367.0001220702999
 20
-62.5
 10
367.0001220702999
 20
-137.5
 10
282.0001220702998
 20
-137.5
  0
CIRCLE
  5
778B
330
7775
100
AcDbEntity
  8
0
  6
Continuous
100
AcDbCircle
 10
397.0001220703
 20
-75.0
 30
0.0
 40
6.0
  0
LWPOLYLINE
  5
778C
330
7775
100
AcDbEntity
  8
0
  6
Continuous
100
AcDbPolyline
 90
        2
 70
     0
 43
0.0
 10
397.0001220703
 20
-62.5
 10
397.0001220703
 20
-137.5
  0
CIRCLE
  5
778D
330
7775
100
AcDbEntity
  8
0
  6
Continuous
100
AcDbCircle
 10
352.0001220703
 20
-75.0
 30
0.0
 40
6.0
  0
LWPOLYLINE
  5
778E
330
7775
100
AcDbEntity
  8
0
  6
Continuous
100
AcDbPolyline
 90
        2
 70
     0
 43
0.0
 10
352.0001220703
 20
-62.5
 10
352.0001220703
 20
-137.5
  0
LWPOLYLINE
  5
778F
330
7775
100
AcDbEntity
  8
0
  6
Continuous
100
AcDbPolyline
 90
        4
 70
     0
 43
0.0
 10
377.0001220703
 20
-137.5
 10
412.0001220703
 20
-137.5
 10
412.0001220703
 20
-62.5
 10
377.0001220703
 20
-62.5
  0
LWPOLYLINE
  5
7790
330
7775
100
AcDbEntity
  8
0
  6
Continuous
100
AcDbPolyline
 90
        2
 70
     0
 43
0.0
 10
337.0001220703
 20
-125.0
 10
367.0001220702999
 20
-125.0
  0
CIRCLE
  5
7791
330
7775
100
AcDbEntity
  8
0
  6
Continuous
100
AcDbCircle
 10
352.0001220703
 20
-125.0
 30
0.0
 40
6.0
  0
CIRCLE
  5
7792
330
7775
100
AcDbEntity
  8
0
  6
Continuous
100
AcDbCircle
 10
352.0001220703
 20
-100.0
 30
0.0
 40
6.0
  0
CIRCLE
  5
7793
330
7775
100
AcDbEntity
  8
0
  6
Continuous
100
AcDbCircle
 10
397.0001220703
 20
-125.0
 30
0.0
 40
6.0
  0
LWPOLYLINE
  5
7794
330
7775
100
AcDbEntity
  8
0
  6
Continuous
100
AcDbPolyline
 90
        2
 70
     0
 43
0.0
 10
382.0001220702999
 20
-125.0
 10
412.0001220703
 20
-125.0
  0
CIRCLE
  5
7795
330
7775
100
AcDbEntity
  8
0
  6
Continuous
100
AcDbCircle
 10
397.0001220703
 20
-100.0
 30
0.0
 40
6.0
  0
LWPOLYLINE
  5
7796
330
7775
100
AcDbEntity
  8
0
  6
Continuous
100
AcDbPolyline
 90
        2
 70
     0
 43
0.0
 10
337.0001220703
 20
-75.0
 10
367.0001220702999
 20
-75.0
  0
LWPOLYLINE
  5
7797
330
7775
100
AcDbEntity
  8
0
  6
Continuous
100
AcDbPolyline
 90
        2
 70
     0
 43
0.0
 10
382.0001220702999
 20
-75.0
 10
412.0001220703
 20
-75.0
  0
LWPOLYLINE
  5
7798
330
7775
100
AcDbEntity
  8
0
  6
Continuous
100
AcDbPolyline
 90
        4
 70
     0
 43
0.0
 10
178.0
 20
280.0
 10
197.0001220702999
 20
280.0
 10
197.0001220702999
 20
225.0
 10
178.0
 20
225.0
  0
LWPOLYLINE
  5
7799
330
7775
100
AcDbEntity
  8
0
  6
Continuous
100
AcDbPolyline
 90
        5
 70
     0
 43
0.0
 10
178.0
 20
265.0
 10
160.0
 20
265.0
 10
160.0
 20
305.0
 10
282.0001220702998
 20
305.0
 10
282.0001220702998
 20
200.0
  0
LWPOLYLINE
  5
779A
330
7775
100
AcDbEntity
  8
0
  6
Continuous
100
AcDbPolyline
 90
        4
 70
     0
 43
0.0
 10
158.0
 20
200.0
 10
178.0
 20
220.0
 10
178.0
 20
295.0
 10
282.0001220702998
 20
295.0
  0
LWPOLYLINE
  5
779B
330
7775
100
AcDbEntity
  8
0
  6
Continuous
100
AcDbPolyline
 90
        3
 70
     0
 43
0.0
 10
160.0
 20
295.0
 10
173.0
 20
295.0
 10
173.0
 20
265.0
  0
LWPOLYLINE
  5
779C
330
7775
100
AcDbEntity
  8
0
  6
D159
100
AcDbPolyline
 90
        6
 70
     0
 43
0.0
 10
-66.185546875
 20
41.26660156249999
 10
-39.39013671880002
 20
27.80029296869997
 10
-5.5615234375
 20
15.48779296869997
 10
3.3310546875
 20
39.91943359369997
 10
-30.49755859380002
 20
52.232421875
 10
-59.68017578130002
 20
59.14013671869998
  0
LWPOLYLINE
  5
779D
330
7775
100
AcDbEntity
  8
0
  6
Continuous
100
AcDbPolyline
 90
        2
 70
     0
 43
0.0
 10
31.564453125
 20
15.80908203119997
 10
-127.9736328125
 20
73.87646484369998
  0
LWPOLYLINE
  5
779E
330
7775
100
AcDbEntity
  8
0
  6
D159
100
AcDbPolyline
 90
        2
 70
     0
 43
0.0
 10
-60.591796875
 20
226.6342773436999
 10
17.0
 20
60.23791503899996
  0
LWPOLYLINE
  5
779F
330
7775
100
AcDbEntity
  8
0
  6
D159
100
AcDbPolyline
 90
        2
 70
     0
 43
0.0
 10
-78.2646484375
 20
218.3931884764998
 10
17.0
 20
14.0974121094
  0
LWPOLYLINE
  5
77A0
330
7775
100
AcDbEntity
  8
0
  6
DASHED
100
AcDbPolyline
 90
        5
 70
     0
 43
0.0
 10
-94.64538574219998
 20
200.0004882811999
 10
-105.0
 20
200.0004882811999
 10
-105.0
 20
170.0002441406
 10
-113.0
 20
170.0002441406
 10
-113.0
 20
86.91271972649998
  0
LWPOLYLINE
  5
77A1
330
7775
100
AcDbEntity
  8
0
  6
Continuous
100
AcDbPolyline
 90
        2
 70
     0
 43
0.0
 10
-120.3000488282
 20
3.422119140599988
 10
-272.6225585938
 20
11.4050292969
  0
LWPOLYLINE
  5
77A2
330
7775
100
AcDbEntity
  8
0
  6
Continuous
100
AcDbPolyline
 90
        2
 70
     0
 43
0.0
 10
-243.8471675336002
 20
9.897010487999976
 42
0.0077576782792663
 10
-244.0007324219616
 20
0.0
  0
LWPOLYLINE
  5
77A3
330
7775
100
AcDbEntity
  8
0
  6
D159
100
AcDbPolyline
 90
        2
 70
     0
 43
0.0
 10
-171.1590576172
 20
19.10559082029998
 10
-201.0863037109999
 20
17.17919921869997
  0
LWPOLYLINE
  5
77A4
330
7775
100
AcDbEntity
  8
0
  6
D159
100
AcDbPolyline
 90
        2
 70
     0
 43
0.0
 10
-172.5198974609999
 20
-6.858886718800022
 10
-202.0816650391
 20
-1.815307617200004
  0
LWPOLYLINE
  5
77A5
330
7775
100
AcDbEntity
  8
0
  6
D159
100
AcDbPolyline
 90
        2
 70
     0
 43
0.0
 10
-207.2998907415786
 20
20.19359252023082
 42
0.2638042091158015
 10
-201.0862323350536
 20
17.17993441838165
  0
LWPOLYLINE
  5
77A6
330
7775
100
AcDbEntity
  8
0
  6
D159
100
AcDbPolyline
 90
        2
 70
     0
 43
0.0
 10
-202.0816579498735
 20
-1.814654085380425
 42
0.2638043047502554
 10
-208.5762831943909
 20
-4.162325050143181
  0
CIRCLE
  5
77A7
330
7775
100
AcDbEntity
  8
0
  6
D159
100
AcDbCircle
 10
-83.8077361196572
 20
57.80214617441991
 30
0.0
 40
20.00000000000003
  0
LWPOLYLINE
  5
77A8
330
7775
100
AcDbEntity
  8
0
  6
D159
100
AcDbPolyline
 90
        2
 70
     0
 43
0.0
 10
-64.740836972715
 20
63.83952848801801
 42
0.2638042091192741
 10
-59.67980350258152
 20
59.14084503812773
  0
LWPOLYLINE
  5
77A9
330
7775
100
AcDbEntity
  8
0
  6
Continuous
100
AcDbPolyline
 90
        2
 70
     0
 43
0.0
 10
-102.6017514070999
 20
64.64178854190004
 42
0.087489044355794
 10
-113.9998931884945
 20
0.0
  0
LWPOLYLINE
  5
77AA
330
7775
100
AcDbEntity
  8
0
  6
D159
100
AcDbPolyline
 90
        2
 70
     0
 43
0.0
 10
-66.18524919541278
 20
41.26727681804186
 42
0.2638043047467738
 10
-73.08248344935738
 20
40.92104615506172
  0
LWPOLYLINE
  5
77AB
330
7775
100
AcDbEntity
  8
0
  6
D159
100
AcDbPolyline
 90
        2
 70
     0
 43
0.0
 10
-60.59204101570003
 20
226.6341552734
 10
-78.26489257820004
 20
218.3930664061999
  0
LWPOLYLINE
  5
77AC
330
7775
100
AcDbEntity
  8
0
  6
DASHED
100
AcDbPolyline
 90
        5
 70
     0
 43
0.0
 10
4.432861328099988
 20
200.0004882811999
 10
-5.0
 20
200.0004882811999
 10
-5.0
 20
170.0002441406
 10
-13.0
 20
170.0002441406
 10
-13.0
 20
86.91271972649998
  0
LWPOLYLINE
  5
77AD
330
7775
100
AcDbEntity
  8
0
  6
DASHED
100
AcDbPolyline
 90
        5
 70
     0
 43
0.0
 10
-24.70776367190001
 20
200.0004882811999
 10
-35.0
 20
200.0004882811999
 10
-35.0
 20
170.0002441406
 10
-43.0
 20
170.0002441406
 10
-43.0
 20
86.91271972649998
  0
LWPOLYLINE
  5
77AE
330
7775
100
AcDbEntity
  8
0
  6
Continuous
100
AcDbPolyline
 90
        3
 70
     0
 43
0.0
 10
6.0
 20
29.39404296869998
 10
6.0
 20
47.5
 10
17.0
 20
47.5
  0
LWPOLYLINE
  5
77AF
330
7775
100
AcDbEntity
  8
0
  6
Continuous
100
AcDbPolyline
 90
        2
 70
     0
 43
0.0
 10
-27.49169921880001
 20
31.39892578119997
 10
-2.198730468800022
 20
21.47021484369996
  0
LWPOLYLINE
  5
77B0
330
7775
100
AcDbEntity
  8
0
  6
Continuous
100
AcDbPolyline
 90
        2
 70
     0
 43
0.0
 10
-27.42663403309984
 20
37.28015475920006
 42
0.0874890443557359
 10
-34.00016021735723
 20
0.0
  0
LWPOLYLINE
  5
77B1
330
7775
100
AcDbEntity
  8
0
  6
Continuous
100
AcDbPolyline
 90
        2
 70
     0
 43
0.0
 10
-0.7096235030001026
 20
20.55957790530622
 42
0.0879559986137034
 10
-2.19824023191586
 20
21.4712760480761
  0
LWPOLYLINE
  5
77B2
330
7775
100
AcDbEntity
  8
0
  6
Continuous
100
AcDbPolyline
 90
        2
 70
     0
 43
0.0
 10
2.189453125
 20
17.98974609369996
 10
-0.7094726563000222
 20
20.55908203119996
  0
LWPOLYLINE
  5
77B3
330
7775
100
AcDbEntity
  8
0
  6
Continuous
100
AcDbPolyline
 90
        2
 70
     0
 43
0.0
 10
2.0615234375
 20
33.17529296869997
 10
-23.6962890625
 20
41.82763671869998
  0
LWPOLYLINE
  5
77B4
330
7775
100
AcDbEntity
  8
0
  6
D159
100
AcDbPolyline
 90
        2
 70
     0
 43
0.0
 10
-30.49755859380002
 20
52.232421875
 10
-39.39013671880002
 20
27.80029296869997
  0
LWPOLYLINE
  5
77B5
330
7775
100
AcDbEntity
  8
0
  6
Continuous
100
AcDbPolyline
 90
        2
 70
     0
 43
0.0
 10
-28.64061239300008
 20
33.94479158839998
 42
0.4069108977780548
 10
-27.49204031729391
 20
31.39904485301576
  0
LWPOLYLINE
  5
77B6
330
7775
100
AcDbEntity
  8
0
  6
Continuous
100
AcDbPolyline
 90
        2
 70
     0
 43
0.0
 10
-23.69615779409989
 20
41.82753673339994
 42
0.4069135725242379
 10
-26.21240017423861
 20
40.61566134867756
  0
LWPOLYLINE
  5
77B7
330
7775
100
AcDbEntity
  8
0
  6
Continuous
100
AcDbPolyline
 90
        2
 70
     0
 43
0.0
 10
-26.21240234380001
 20
40.61572265619997
 10
-28.640625
 20
33.94482421869998
  0
LWPOLYLINE
  5
77B8
330
7775
100
AcDbEntity
  8
0
  6
Continuous
100
AcDbPolyline
 90
        2
 70
     0
 43
0.0
 10
6.0
 20
32.9755859375
 10
3.7880859375
 20
32.916015625
  0
LWPOLYLINE
  5
77B9
330
7775
100
AcDbEntity
  8
0
  6
Continuous
100
AcDbPolyline
 90
        2
 70
     0
 43
0.0
 10
2.061630572104375
 20
33.17517365970684
 42
0.0879559385459796
 10
3.788004231925923
 20
32.91671059116402
  0
LWPOLYLINE
  5
77BA
330
7775
100
AcDbEntity
  8
0
  6
Continuous
100
AcDbPolyline
 90
        6
 70
     0
 43
0.0
 10
120.0
 20
200.0
 10
120.0
 20
225.0
 10
130.0
 20
235.0
 10
130.0
 20
265.0
 10
160.0
 20
265.0
 10
130.0
 20
235.0
  0
LWPOLYLINE
  5
77BB
330
7775
100
AcDbEntity
  8
0
  6
Continuous
100
AcDbPolyline
 90
        5
 70
     0
 43
0.0
 10
267.0001220702999
 20
208.0
 10
267.0001220702999
 20
285.0
 10
250.0001220703
 20
285.0
 10
227.0001220703
 20
215.0
 10
227.0001220703
 20
200.0
  0
LWPOLYLINE
  5
77BC
330
7775
100
AcDbEntity
  8
0
  6
Continuous
100
AcDbPolyline
 90
        4
 70
     0
 43
0.0
 10
248.3572998047
 20
280.0
 10
204.0001220703
 20
280.0
 10
204.0001220703
 20
225.0
 10
230.2860107422
 20
225.0
  0
LWPOLYLINE
  5
77BD
330
7775
100
AcDbEntity
  8
0
  6
Continuous
100
AcDbPolyline
 90
        2
 70
     0
 43
0.0
 10
382.0001220702999
 20
85.0
 10
487.817993164
 20
85.0
  0
LWPOLYLINE
  5
77BE
330
7775
100
AcDbEntity
  8
0
  6
Continuous
100
AcDbPolyline
 90
        2
 70
     0
 43
0.0
 10
267.0001220702999
 20
60.0
 10
432.9818115233997
 20
60.0
  0
LWPOLYLINE
  5
77BF
330
7775
100
AcDbEntity
  8
0
  6
Continuous
100
AcDbPolyline
 90
        4
 70
     0
 43
0.0
 10
282.0001220702998
 20
22.5
 10
367.0001220702999
 20
22.5
 10
367.0001220702999
 20
97.5
 10
282.0001220702998
 20
97.5
  0
CIRCLE
  5
77C0
330
7775
100
AcDbEntity
  8
0
  6
Continuous
100
AcDbCircle
 10
397.0001220703
 20
60.0
 30
0.0
 40
6.0
  0
LWPOLYLINE
  5
77C1
330
7775
100
AcDbEntity
  8
0
  6
Continuous
100
AcDbPolyline
 90
        2
 70
     0
 43
0.0
 10
397.0001220703
 20
97.5
 10
397.0001220703
 20
22.5
  0
CIRCLE
  5
77C2
330
7775
100
AcDbEntity
  8
0
  6
Continuous
100
AcDbCircle
 10
352.0001220703
 20
60.0
 30
0.0
 40
6.0
  0
LWPOLYLINE
  5
77C3
330
7775
100
AcDbEntity
  8
0
  6
Continuous
100
AcDbPolyline
 90
        2
 70
     0
 43
0.0
 10
352.0001220703
 20
97.5
 10
352.0001220703
 20
22.5
  0
LWPOLYLINE
  5
77C4
330
7775
100
AcDbEntity
  8
0
  6
Continuous
100
AcDbPolyline
 90
        4
 70
     0
 43
0.0
 10
377.0001220703
 20
97.5
 10
412.0001220703
 20
97.5
 10
412.0001220703
 20
22.5
 10
377.0001220703
 20
22.5
  0
LWPOLYLINE
  5
77C5
330
7775
100
AcDbEntity
  8
0
  6
Continuous
100
AcDbPolyline
 90
        2
 70
     0
 43
0.0
 10
337.0001220703
 20
35.0
 10
367.0001220702999
 20
35.0
  0
CIRCLE
  5
77C6
330
7775
100
AcDbEntity
  8
0
  6
Continuous
100
AcDbCircle
 10
352.0001220703
 20
35.0
 30
0.0
 40
6.0
  0
CIRCLE
  5
77C7
330
7775
100
AcDbEntity
  8
0
  6
Continuous
100
AcDbCircle
 10
397.0001220703
 20
35.0
 30
0.0
 40
6.0
  0
LWPOLYLINE
  5
77C8
330
7775
100
AcDbEntity
  8
0
  6
Continuous
100
AcDbPolyline
 90
        2
 70
     0
 43
0.0
 10
337.0001220703
 20
85.0
 10
367.0001220702999
 20
85.0
  0
CIRCLE
  5
77C9
330
7775
100
AcDbEntity
  8
0
  6
Continuous
100
AcDbCircle
 10
352.0001220703
 20
85.0
 30
0.0
 40
6.0
  0
CIRCLE
  5
77CA
330
7775
100
AcDbEntity
  8
0
  6
Continuous
100
AcDbCircle
 10
397.0001220703
 20
85.0
 30
0.0
 40
6.0
  0
LWPOLYLINE
  5
77CB
330
7775
100
AcDbEntity
  8
0
  6
D1485
100
AcDbPolyline
 90
        7
 70
     0
 43
0.0
 10
282.0001220702998
 20
200.0004882811999
 10
332.0001220702998
 20
200.0004882811999
 10
332.0001220702998
 20
194.0004882811999
 10
294.0001220702999
 20
194.0004882811999
 42
0.4142135623730951
 10
288.0001220702999
 20
188.0004882811999
 10
288.0001220702999
 20
150.0
 10
282.0001220702998
 20
150.0
  0
LWPOLYLINE
  5
77CC
330
7775
100
AcDbEntity
  8
0
  6
Continuous
100
AcDbPolyline
 90
        2
 70
     0
 43
0.0
 10
263.1151123047
 20
170.0
 10
315.0001220702999
 20
170.0
  0
LWPOLYLINE
  5
77CD
330
7775
100
AcDbEntity
  8
0
  6
Continuous
100
AcDbPolyline
 90
        4
 70
     0
 43
0.0
 10
288.0001220702999
 20
174.0
 10
300.0001220703
 20
174.0
 10
300.0001220703
 20
166.0
 10
288.0001220702999
 20
166.0
  0
LWPOLYLINE
  5
77CE
330
7775
100
AcDbEntity
  8
0
  6
Continuous
100
AcDbPolyline
 90
        4
 70
     0
 43
0.0
 10
298.0001220703
 20
174.0002441406
 10
300.0001220703
 20
174.0002441406
 10
300.0001220703
 20
166.0002441405999
 10
298.0001220703
 20
166.0002441405999
  0
LWPOLYLINE
  5
77CF
330
7775
100
AcDbEntity
  8
0
  6
Continuous
100
AcDbPolyline
 90
        4
 70
     0
 43
0.0
 10
288.0001220702999
 20
179.0002441405999
 10
298.0001220703
 20
179.0002441405999
 10
298.0001220703
 20
161.0002441405999
 10
288.0001220702999
 20
161.0002441405999
  0
LWPOLYLINE
  5
77D0
330
7775
100
AcDbEntity
  8
0
  6
Continuous
100
AcDbPolyline
 90
        2
 70
     0
 43
0.0
 10
288.0001220702999
 20
152.9972045268
 42
0.0002357521657335
 10
288.0001238488313
 20
153.0009765625
  0
LWPOLYLINE
  5
77D1
330
7775
100
AcDbEntity
  8
0
  6
Continuous
100
AcDbPolyline
 90
        2
 70
     0
 43
0.0
 10
227.0001220703
 20
208.0
 10
282.0001220702998
 20
208.0
  0
LWPOLYLINE
  5
77D2
330
7775
100
AcDbEntity
  8
0
  6
Continuous
100
AcDbPolyline
 90
        2
 70
     0
 43
0.0
 10
197.0001220702999
 20
260.4999999999999
 10
204.0001220703
 20
260.4999999999999
  0
LWPOLYLINE
  5
77D3
330
7775
100
AcDbEntity
  8
0
  6
Continuous
100
AcDbPolyline
 90
        2
 70
     0
 43
0.0
 10
197.0001220702999
 20
244.4999999999999
 10
204.0001220703
 20
244.4999999999999
  0
LWPOLYLINE
  5
77D4
330
7775
100
AcDbEntity
  8
0
  6
Continuous
100
AcDbPolyline
 90
        2
 70
     0
 43
0.0
 10
541.4898681639997
 20
60.0
 10
600.7139892578
 20
60.0
  0
TEXT
  5
77D5
330
7775
100
AcDbEntity
  8
0
  6
Continuous
100
AcDbText
 10
-380.591796875
 20
310.2410888672
 30
0.0
 40
15.0
  1
(removable)
 41
0.940350877192983
  7
LEROY
 72
     5
 11
-246.5917968749999
 21
310.2410888672
 31
0.0
100
AcDbText
 73
     2
  0
ENDBLK
  5
77D7
330
7775
100
AcDbEntity
  8
0
100
AcDbBlockEnd
  0
BLOCK
  5
794C
330
7942
100
AcDbEntity
  8
0
100
AcDbBlockBegin
  2
*D15
 70
     1
 10
0.0
 20
0.0
 30
0.0
  3
*D15
  1

  0
LINE
  5
827C
330
7942
100
AcDbEntity
  8
30
  6
Continuous
 62
     0
100
AcDbLine
 10
-132.4999694824201
 20
169.9997558594
 30
0.0
 11
-190.2056428798466
 21
169.9997558594
 31
0.0
  0
LINE
  5
827D
330
7942
100
AcDbEntity
  8
30
  6
Continuous
 62
     0
100
AcDbLine
 10
-109.9999389648399
 20
0.0000000000000014
 30
0.0
 11
-190.2056428798466
 21
0.0000000000000241
 31
0.0
  0
LINE
  5
827E
330
7942
100
AcDbEntity
  8
30
  6
Continuous
 62
     0
100
AcDbLine
 10
-189.7056428798467
 20
167.9997558594
 30
0.0
 11
-189.7056428798468
 21
2.000000000000023
 31
0.0
  0
INSERT
  5
827F
330
7942
100
AcDbEntity
  8
30
  6
Continuous
 62
     0
100
AcDbBlockReference
  2
_OPEN
 10
-189.7056428798467
 20
169.9997558594
 30
0.0
 41
2.0
 42
2.0
 43
2.0
 50
90.0
  0
INSERT
  5
8280
330
7942
100
AcDbEntity
  8
30
  6
Continuous
 62
     0
100
AcDbBlockReference
  2
_OPEN
 10
-189.7056428798468
 20
0.000000000000024
 30
0.0
 41
2.0
 42
2.0
 43
2.0
 50
270.0
  0
MTEXT
  5
8281
330
7942
100
AcDbEntity
  8
30
  6
Continuous
 62
     0
100
AcDbMText
 10
-194.7056428798468
 20
84.99987792969998
 30
0.0
 40
8.0
 41
0.0
 71
     5
 72
     1
  1
\A1;170
 11
0.0000000000000001
 21
1.0
 31
0.0
 73
     1
 44
1.0
1001
ACAD
1000
MTEXTBEGIN
1070
    73
1070
     1
1070
    44
1040
1.0
1070
    74
1070
     0
1000
MTEXTEND
  0
POINT
  5
8282
330
7942
100
AcDbEntity
  8
DEFPOINTS
  6
Continuous
 62
     0
100
AcDbPoint
 10
-127.4999694824201
 20
169.9997558594
 30
0.0
  0
POINT
  5
8283
330
7942
100
AcDbEntity
  8
DEFPOINTS
  6
Continuous
 62
     0
100
AcDbPoint
 10
-104.9999389648399
 20
0.0
 30
0.0
  0
POINT
  5
8284
330
7942
100
AcDbEntity
  8
DEFPOINTS
  6
Continuous
 62
     0
100
AcDbPoint
 10
-189.7056428798468
 20
0.000000000000024
 30
0.0
  0
ENDBLK
  5
794D
330
7942
100
AcDbEntity
  8
0
100
AcDbBlockEnd
  0
BLOCK
  5
7959
330
794F
100
AcDbEntity
  8
0
100
AcDbBlockBegin
  2
*D16
 70
     1
 10
0.0
 20
0.0
 30
0.0
  3
*D16
  1

  0
LINE
  5
85FD
330
794F
100
AcDbEntity
  8
30
  6
Continuous
 62
     0
100
AcDbLine
 10
-109.9999389648399
 20
0.0000000000000014
 30
0.0
 11
-190.2056428798467
 21
0.0000000000000241
 31
0.0
  0
LINE
  5
85FE
330
794F
100
AcDbEntity
  8
30
  6
Continuous
 62
     0
100
AcDbLine
 10
-132.4999694824199
 20
-190.0
 30
0.0
 11
-190.2056428798469
 21
-190.0
 31
0.0
  0
LINE
  5
85FF
330
794F
100
AcDbEntity
  8
30
  6
Continuous
 62
     0
100
AcDbLine
 10
-189.7056428798468
 20
-1.999999999999975
 30
0.0
 11
-189.7056428798469
 21
-188.0
 31
0.0
  0
INSERT
  5
8600
330
794F
100
AcDbEntity
  8
30
  6
Continuous
 62
     0
100
AcDbBlockReference
  2
_OPEN
 10
-189.7056428798468
 20
0.000000000000024
 30
0.0
 41
2.0
 42
2.0
 43
2.0
 50
90.0
  0
INSERT
  5
8601
330
794F
100
AcDbEntity
  8
30
  6
Continuous
 62
     0
100
AcDbBlockReference
  2
_OPEN
 10
-189.7056428798469
 20
-190.0
 30
0.0
 41
2.0
 42
2.0
 43
2.0
 50
270.0
  0
MTEXT
  5
8602
330
794F
100
AcDbEntity
  8
30
  6
Continuous
 62
     0
100
AcDbMText
 10
-194.7056428798468
 20
-95.0
 30
0.0
 40
8.0
 41
0.0
 71
     5
 72
     1
  1
\A1;190
 11
0.0000000000000001
 21
1.0
 31
0.0
 73
     1
 44
1.0
  0
POINT
  5
8603
330
794F
100
AcDbEntity
  8
DEFPOINTS
  6
Continuous
 62
     0
100
AcDbPoint
 10
-104.9999389648399
 20
0.0
 30
0.0
  0
POINT
  5
8604
330
794F
100
AcDbEntity
  8
DEFPOINTS
  6
Continuous
 62
     0
100
AcDbPoint
 10
-127.4999694824199
 20
-190.0
 30
0.0
  0
POINT
  5
8605
330
794F
100
AcDbEntity
  8
DEFPOINTS
  6
Continuous
 62
     0
100
AcDbPoint
 10
-189.7056428798469
 20
-190.0
 30
0.0
  0
ENDBLK
  5
795A
330
794F
100
AcDbEntity
  8
0
100
AcDbBlockEnd
  0
BLOCK
  5
7966
330
795C
100
AcDbEntity
  8
0
100
AcDbBlockBegin
  2
*D17
 70
     1
 10
0.0
 20
0.0
 30
0.0
  3
*D17
  1

  0
LINE
  5
828E
330
795C
100
AcDbEntity
  8
30
  6
Continuous
 62
     0
100
AcDbLine
 10
-154.99996948242
 20
200.0
 30
0.0
 11
-220.719053609071
 21
200.0
 31
0.0
  0
LINE
  5
828F
330
795C
100
AcDbEntity
  8
30
  6
Continuous
 62
     0
100
AcDbLine
 10
-154.99996948242
 20
0.0000000000000014
 30
0.0
 11
-220.7190536090711
 21
0.00000000000002
 31
0.0
  0
LINE
  5
8290
330
795C
100
AcDbEntity
  8
30
  6
Continuous
 62
     0
100
AcDbLine
 10
-220.219053609071
 20
198.0
 30
0.0
 11
-220.219053609071
 21
2.000000000000019
 31
0.0
  0
INSERT
  5
8291
330
795C
100
AcDbEntity
  8
30
  6
Continuous
 62
     0
100
AcDbBlockReference
  2
_OPEN
 10
-220.219053609071
 20
200.0
 30
0.0
 41
2.0
 42
2.0
 43
2.0
 50
90.0
  0
INSERT
  5
8292
330
795C
100
AcDbEntity
  8
30
  6
Continuous
 62
     0
100
AcDbBlockReference
  2
_OPEN
 10
-220.219053609071
 20
0.0000000000000199
 30
0.0
 41
2.0
 42
2.0
 43
2.0
 50
270.0
  0
MTEXT
  5
8293
330
795C
100
AcDbEntity
  8
30
  6
Continuous
 62
     0
100
AcDbMText
 10
-225.2190536090711
 20
100.0
 30
0.0
 40
8.0
 41
0.0
 71
     5
 72
     1
  1
\A1;200
 11
0.0000000000000001
 21
1.0
 31
0.0
 73
     1
 44
1.0
1001
ACAD
1000
MTEXTBEGIN
1070
    73
1070
     1
1070
    44
1040
1.0
1070
    74
1070
     0
1000
MTEXTEND
  0
POINT
  5
8294
330
795C
100
AcDbEntity
  8
DEFPOINTS
  6
Continuous
 62
     0
100
AcDbPoint
 10
-149.9999694824199
 20
200.0
 30
0.0
  0
POINT
  5
8295
330
795C
100
AcDbEntity
  8
DEFPOINTS
  6
Continuous
 62
     0
100
AcDbPoint
 10
-149.9999694824199
 20
0.0
 30
0.0
  0
POINT
  5
8296
330
795C
100
AcDbEntity
  8
DEFPOINTS
  6
Continuous
 62
     0
100
AcDbPoint
 10
-220.219053609071
 20
0.0000000000000199
 30
0.0
  0
ENDBLK
  5
7967
330
795C
100
AcDbEntity
  8
0
100
AcDbBlockEnd
  0
BLOCK
  5
7973
330
7969
100
AcDbEntity
  8
0
100
AcDbBlockBegin
  2
*D18
 70
     1
 10
0.0
 20
0.0
 30
0.0
  3
*D18
  1

  0
LINE
  5
8606
330
7969
100
AcDbEntity
  8
30
  6
Continuous
 62
     0
100
AcDbLine
 10
-154.99996948242
 20
0.0000000000000014
 30
0.0
 11
-220.719053609071
 21
0.00000000000002
 31
0.0
  0
LINE
  5
8607
330
7969
100
AcDbEntity
  8
30
  6
Continuous
 62
     0
100
AcDbLine
 10
-154.99996948242
 20
-220.0
 30
0.0
 11
-220.7190536090711
 21
-219.9999999999999
 31
0.0
  0
LINE
  5
8608
330
7969
100
AcDbEntity
  8
30
  6
Continuous
 62
     0
100
AcDbLine
 10
-220.219053609071
 20
-1.99999999999998
 30
0.0
 11
-220.219053609071
 21
-217.9999999999999
 31
0.0
  0
INSERT
  5
8609
330
7969
100
AcDbEntity
  8
30
  6
Continuous
 62
     0
100
AcDbBlockReference
  2
_OPEN
 10
-220.219053609071
 20
0.0000000000000199
 30
0.0
 41
2.0
 42
2.0
 43
2.0
 50
90.0
  0
INSERT
  5
860A
330
7969
100
AcDbEntity
  8
30
  6
Continuous
 62
     0
100
AcDbBlockReference
  2
_OPEN
 10
-220.219053609071
 20
-219.9999999999999
 30
0.0
 41
2.0
 42
2.0
 43
2.0
 50
270.0
  0
MTEXT
  5
860B
330
7969
100
AcDbEntity
  8
30
  6
Continuous
 62
     0
100
AcDbMText
 10
-225.219053609071
 20
-110.0
 30
0.0
 40
8.0
 41
0.0
 71
     5
 72
     1
  1
\A1;220
 11
0.0000000000000001
 21
1.0
 31
0.0
 73
     1
 44
1.0
  0
POINT
  5
860C
330
7969
100
AcDbEntity
  8
DEFPOINTS
  6
Continuous
 62
     0
100
AcDbPoint
 10
-149.9999694824199
 20
0.0
 30
0.0
  0
POINT
  5
860D
330
7969
100
AcDbEntity
  8
DEFPOINTS
  6
Continuous
 62
     0
100
AcDbPoint
 10
-149.9999694824199
 20
-220.0
 30
0.0
  0
POINT
  5
860E
330
7969
100
AcDbEntity
  8
DEFPOINTS
  6
Continuous
 62
     0
100
AcDbPoint
 10
-220.219053609071
 20
-219.9999999999999
 30
0.0
  0
ENDBLK
  5
7974
330
7969
100
AcDbEntity
  8
0
100
AcDbBlockEnd
  0
BLOCK
  5
7980
330
7976
100
AcDbEntity
  8
0
100
AcDbBlockBegin
  2
*D19
 70
     1
 10
0.0
 20
0.0
 30
0.0
  3
*D19
  1

  0
LINE
  5
82A0
330
7976
100
AcDbEntity
  8
30
  6
Continuous
 62
     0
100
AcDbLine
 10
-225.719053609071
 20
200.0
 30
0.0
 11
-254.3281255302379
 21
200.0
 31
0.0
  0
LINE
  5
82A1
330
7976
100
AcDbEntity
  8
30
  6
Continuous
 62
     0
100
AcDbLine
 10
-225.7190536090712
 20
-219.9999999999999
 30
0.0
 11
-254.328125530238
 21
-219.9999999999999
 31
0.0
  0
LINE
  5
82A2
330
7976
100
AcDbEntity
  8
30
  6
Continuous
 62
     0
100
AcDbLine
 10
-253.8281255302379
 20
198.0
 30
0.0
 11
-253.8281255302381
 21
-217.9999999999999
 31
0.0
  0
INSERT
  5
82A3
330
7976
100
AcDbEntity
  8
30
  6
Continuous
 62
     0
100
AcDbBlockReference
  2
_OPEN
 10
-253.8281255302379
 20
200.0
 30
0.0
 41
2.0
 42
2.0
 43
2.0
 50
90.0
  0
INSERT
  5
82A4
330
7976
100
AcDbEntity
  8
30
  6
Continuous
 62
     0
100
AcDbBlockReference
  2
_OPEN
 10
-253.8281255302381
 20
-219.9999999999999
 30
0.0
 41
2.0
 42
2.0
 43
2.0
 50
270.0
  0
MTEXT
  5
82A5
330
7976
100
AcDbEntity
  8
30
  6
Continuous
 62
     0
100
AcDbMText
 10
-258.828125530238
 20
-9.999999999999998
 30
0.0
 40
8.0
 41
0.0
 71
     5
 72
     1
  1
\A1;420
 11
0.0000000000000001
 21
1.0
 31
0.0
 73
     1
 44
1.0
1001
ACAD
1000
MTEXTBEGIN
1070
    73
1070
     1
1070
    44
1040
1.0
1070
    74
1070
     0
1000
MTEXTEND
  0
POINT
  5
82A6
330
7976
100
AcDbEntity
  8
DEFPOINTS
  6
Continuous
 62
     0
100
AcDbPoint
 10
-220.719053609071
 20
200.0
 30
0.0
  0
POINT
  5
82A7
330
7976
100
AcDbEntity
  8
DEFPOINTS
  6
Continuous
 62
     0
100
AcDbPoint
 10
-220.7190536090712
 20
-219.9999999999999
 30
0.0
  0
POINT
  5
82A8
330
7976
100
AcDbEntity
  8
DEFPOINTS
  6
Continuous
 62
     0
100
AcDbPoint
 10
-253.8281255302381
 20
-219.9999999999999
 30
0.0
  0
ENDBLK
  5
7981
330
7976
100
AcDbEntity
  8
0
100
AcDbBlockEnd
  0
BLOCK
  5
798D
330
7983
100
AcDbEntity
  8
0
100
AcDbBlockBegin
  2
*D20
 70
     1
 10
0.0
 20
0.0
 30
0.0
  3
*D20
  1

  0
LINE
  5
82A9
330
7983
100
AcDbEntity
  8
30
  6
Continuous
 62
     0
100
AcDbLine
 10
-149.9999694824199
 20
-225.0
 30
0.0
 11
-149.9999694824199
 21
-252.3352211087594
 31
0.0
  0
LINE
  5
82AA
330
7983
100
AcDbEntity
  8
30
  6
Continuous
 62
     0
100
AcDbLine
 10
-0.0000000000000003
 20
-225.0
 30
0.0
 11
-0.000000000000002
 21
-252.3352211087594
 31
0.0
  0
LINE
  5
82AB
330
7983
100
AcDbEntity
  8
30
  6
Continuous
 62
     0
100
AcDbLine
 10
-147.99996948242
 20
-251.8352211087594
 30
0.0
 11
-2.0
 21
-251.8352211087594
 31
0.0
  0
INSERT
  5
82AC
330
7983
100
AcDbEntity
  8
30
  6
Continuous
 62
     0
100
AcDbBlockReference
  2
_OPEN
 10
-149.9999694824199
 20
-251.8352211087594
 30
0.0
 41
2.0
 42
2.0
 43
2.0
 50
180.0
  0
INSERT
  5
82AD
330
7983
100
AcDbEntity
  8
30
  6
Continuous
 62
     0
100
AcDbBlockReference
  2
_OPEN
 10
-0.0000000000000019
 20
-251.8352211087594
 30
0.0
 41
2.0
 42
2.0
 43
2.0
  0
MTEXT
  5
82AE
330
7983
100
AcDbEntity
  8
30
  6
Continuous
 62
     0
100
AcDbMText
 10
-74.99998474120999
 20
-246.8352211087594
 30
0.0
 40
8.0
 41
0.0
 71
     5
 72
     1
  1
\A1;150
 73
     1
 44
1.0
1001
ACAD
1000
MTEXTBEGIN
1070
    73
1070
     1
1070
    44
1040
1.0
1070
    74
1070
     0
1000
MTEXTEND
  0
POINT
  5
82AF
330
7983
100
AcDbEntity
  8
DEFPOINTS
  6
Continuous
 62
     0
100
AcDbPoint
 10
-149.9999694824199
 20
-220.0
 30
0.0
  0
POINT
  5
82B0
330
7983
100
AcDbEntity
  8
DEFPOINTS
  6
Continuous
 62
     0
100
AcDbPoint
 10
0.0
 20
-220.0
 30
0.0
  0
POINT
  5
82B1
330
7983
100
AcDbEntity
  8
DEFPOINTS
  6
Continuous
 62
     0
100
AcDbPoint
 10
-0.0000000000000019
 20
-251.8352211087594
 30
0.0
  0
ENDBLK
  5
798E
330
7983
100
AcDbEntity
  8
0
100
AcDbBlockEnd
  0
BLOCK
  5
799A
330
7990
100
AcDbEntity
  8
0
100
AcDbBlockBegin
  2
*D21
 70
     1
 10
0.0
 20
0.0
 30
0.0
  3
*D21
  1

  0
LINE
  5
82B2
330
7990
100
AcDbEntity
  8
30
  6
Continuous
 62
     0
100
AcDbLine
 10
-0.0000000000000003
 20
-225.0
 30
0.0
 11
-0.000000000000002
 21
-252.3352211087594
 31
0.0
  0
LINE
  5
82B3
330
7990
100
AcDbEntity
  8
30
  6
Continuous
 62
     0
100
AcDbLine
 10
150.0004882812993
 20
-225.0
 30
0.0
 11
150.0004882812993
 21
-252.3352211087594
 31
0.0
  0
LINE
  5
82B4
330
7990
100
AcDbEntity
  8
30
  6
Continuous
 62
     0
100
AcDbLine
 10
1.999999999999998
 20
-251.8352211087594
 30
0.0
 11
148.0004882812993
 21
-251.8352211087594
 31
0.0
  0
INSERT
  5
82B5
330
7990
100
AcDbEntity
  8
30
  6
Continuous
 62
     0
100
AcDbBlockReference
  2
_OPEN
 10
-0.0000000000000019
 20
-251.8352211087594
 30
0.0
 41
2.0
 42
2.0
 43
2.0
 50
180.0
  0
INSERT
  5
82B6
330
7990
100
AcDbEntity
  8
30
  6
Continuous
 62
     0
100
AcDbBlockReference
  2
_OPEN
 10
150.0004882812993
 20
-251.8352211087594
 30
0.0
 41
2.0
 42
2.0
 43
2.0
  0
MTEXT
  5
82B7
330
7990
100
AcDbEntity
  8
30
  6
Continuous
 62
     0
100
AcDbMText
 10
75.00024414064966
 20
-246.8352211087594
 30
0.0
 40
8.0
 41
0.0
 71
     5
 72
     1
  1
\A1;150
 73
     1
 44
1.0
1001
ACAD
1000
MTEXTBEGIN
1070
    73
1070
     1
1070
    44
1040
1.0
1070
    74
1070
     0
1000
MTEXTEND
  0
POINT
  5
82B8
330
7990
100
AcDbEntity
  8
DEFPOINTS
  6
Continuous
 62
     0
100
AcDbPoint
 10
0.0
 20
-220.0
 30
0.0
  0
POINT
  5
82B9
330
7990
100
AcDbEntity
  8
DEFPOINTS
  6
Continuous
 62
     0
100
AcDbPoint
 10
150.0004882812993
 20
-220.0
 30
0.0
  0
POINT
  5
82BA
330
7990
100
AcDbEntity
  8
DEFPOINTS
  6
Continuous
 62
     0
100
AcDbPoint
 10
150.0004882812993
 20
-251.8352211087594
 30
0.0
  0
ENDBLK
  5
799B
330
7990
100
AcDbEntity
  8
0
100
AcDbBlockEnd
  0
BLOCK
  5
79C2
330
79B8
100
AcDbEntity
  8
0
100
AcDbBlockBegin
  2
*D22
 70
     1
 10
0.0
 20
0.0
 30
0.0
  3
*D22
  1

  0
LINE
  5
82BB
330
79B8
100
AcDbEntity
  8
30
  6
Continuous
 62
     0
100
AcDbLine
 10
-173.1430664062999
 20
-401.0
 30
0.0
 11
-207.1779372625958
 21
-401.0
 31
0.0
  0
LINE
  5
82BC
330
79B8
100
AcDbEntity
  8
30
  6
Continuous
 62
     0
100
AcDbLine
 10
-171.0
 20
-601.0
 30
0.0
 11
-207.177937262596
 21
-601.0
 31
0.0
  0
LINE
  5
82BD
330
79B8
100
AcDbEntity
  8
30
  6
Continuous
 62
     0
100
AcDbLine
 10
-206.6779372625958
 20
-403.0
 30
0.0
 11
-206.677937262596
 21
-599.0
 31
0.0
  0
INSERT
  5
82BE
330
79B8
100
AcDbEntity
  8
30
  6
Continuous
 62
     0
100
AcDbBlockReference
  2
_OPEN
 10
-206.6779372625958
 20
-401.0
 30
0.0
 41
2.0
 42
2.0
 43
2.0
 50
90.0
  0
INSERT
  5
82BF
330
79B8
100
AcDbEntity
  8
30
  6
Continuous
 62
     0
100
AcDbBlockReference
  2
_OPEN
 10
-206.677937262596
 20
-601.0
 30
0.0
 41
2.0
 42
2.0
 43
2.0
 50
270.0
  0
MTEXT
  5
82C0
330
79B8
100
AcDbEntity
  8
30
  6
Continuous
 62
     0
100
AcDbMText
 10
-211.6779372625958
 20
-501.0
 30
0.0
 40
8.0
 41
0.0
 71
     5
 72
     1
  1
\A1;200
 11
0.0000000000000001
 21
1.0
 31
0.0
 73
     1
 44
1.0
1001
ACAD
1000
MTEXTBEGIN
1070
    73
1070
     1
1070
    44
1040
1.0
1070
    74
1070
     0
1000
MTEXTEND
  0
POINT
  5
82C1
330
79B8
100
AcDbEntity
  8
DEFPOINTS
  6
Continuous
 62
     0
100
AcDbPoint
 10
-168.1430664062999
 20
-401.0
 30
0.0
  0
POINT
  5
82C2
330
79B8
100
AcDbEntity
  8
DEFPOINTS
  6
Continuous
 62
     0
100
AcDbPoint
 10
-166.0
 20
-601.0
 30
0.0
  0
POINT
  5
82C3
330
79B8
100
AcDbEntity
  8
DEFPOINTS
  6
Continuous
 62
     0
100
AcDbPoint
 10
-206.677937262596
 20
-601.0
 30
0.0
  0
ENDBLK
  5
79C3
330
79B8
100
AcDbEntity
  8
0
100
AcDbBlockEnd
  0
BLOCK
  5
79CF
330
79C5
100
AcDbEntity
  8
0
100
AcDbBlockBegin
  2
*D23
 70
     1
 10
0.0
 20
0.0
 30
0.0
  3
*D23
  1

  0
LINE
  5
860F
330
79C5
100
AcDbEntity
  8
30
  6
Continuous
 62
     0
100
AcDbLine
 10
-171.0
 20
-601.0
 30
0.0
 11
-207.177937262596
 21
-601.0
 31
0.0
  0
LINE
  5
8610
330
79C5
100
AcDbEntity
  8
30
  6
Continuous
 62
     0
100
AcDbLine
 10
-173.1430664062999
 20
-821.0
 30
0.0
 11
-207.1779372625961
 21
-821.0
 31
0.0
  0
LINE
  5
8611
330
79C5
100
AcDbEntity
  8
30
  6
Continuous
 62
     0
100
AcDbLine
 10
-206.677937262596
 20
-603.0
 30
0.0
 11
-206.6779372625961
 21
-819.0
 31
0.0
  0
INSERT
  5
8612
330
79C5
100
AcDbEntity
  8
30
  6
Continuous
 62
     0
100
AcDbBlockReference
  2
_OPEN
 10
-206.677937262596
 20
-601.0
 30
0.0
 41
2.0
 42
2.0
 43
2.0
 50
90.0
  0
INSERT
  5
8613
330
79C5
100
AcDbEntity
  8
30
  6
Continuous
 62
     0
100
AcDbBlockReference
  2
_OPEN
 10
-206.6779372625961
 20
-821.0
 30
0.0
 41
2.0
 42
2.0
 43
2.0
 50
270.0
  0
MTEXT
  5
8614
330
79C5
100
AcDbEntity
  8
30
  6
Continuous
 62
     0
100
AcDbMText
 10
-211.6779372625958
 20
-711.0
 30
0.0
 40
8.0
 41
0.0
 71
     5
 72
     1
  1
\A1;220
 11
0.0000000000000001
 21
1.0
 31
0.0
 73
     1
 44
1.0
  0
POINT
  5
8615
330
79C5
100
AcDbEntity
  8
DEFPOINTS
  6
Continuous
 62
     0
100
AcDbPoint
 10
-166.0
 20
-601.0
 30
0.0
  0
POINT
  5
8616
330
79C5
100
AcDbEntity
  8
DEFPOINTS
  6
Continuous
 62
     0
100
AcDbPoint
 10
-168.1430664062999
 20
-821.0
 30
0.0
  0
POINT
  5
8617
330
79C5
100
AcDbEntity
  8
DEFPOINTS
  6
Continuous
 62
     0
100
AcDbPoint
 10
-206.6779372625961
 20
-821.0
 30
0.0
  0
ENDBLK
  5
79D0
330
79C5
100
AcDbEntity
  8
0
100
AcDbBlockEnd
  0
BLOCK
  5
7A1E
330
7A15
100
AcDbEntity
  8
0
100
AcDbBlockBegin
  2
*D24
 70
     1
 10
0.0
 20
0.0
 30
0.0
  3
*D24
  1

  0
LINE
  5
82CD
330
7A15
100
AcDbEntity
  8
30
  6
Continuous
 62
     0
100
AcDbLine
 10
139.6791099225034
 20
-366.2487720548848
 30
0.0
 11
115.5967120740905
 21
-423.6234562141232
 31
0.0
  0
MTEXT
  5
82CE
330
7A15
100
AcDbEntity
  8
30
  6
Continuous
 62
     0
100
AcDbMText
 10
131.069480990642
 20
-373.8416679078141
 30
0.0
 40
8.0
 41
0.0
 71
     5
 72
     1
  1
\A1;\U+220512
 11
0.3870279740989051
 21
0.9220679732345644
 31
0.0
 73
     1
 44
1.0
1001
ACAD
1000
MTEXTBEGIN
1070
    73
1070
     1
1070
    44
1040
1.0
1070
    74
1070
     0
1000
MTEXTEND
  0
INSERT
  5
82CF
330
7A15
100
AcDbEntity
  8
30
  6
Continuous
 62
     0
100
AcDbBlockReference
  2
_OPEN
 10
114.8226561258926
 20
-425.4675921605925
 30
0.0
 41
2.0
 42
2.0
 43
2.0
 50
247.2303027904342
  0
LINE
  5
82D0
330
7A15
100
AcDbEntity
  8
30
  6
Continuous
 62
     0
100
AcDbLine
 10
112.4104882812992
 20
-430.9999999999998
 30
0.0
 11
112.5904882812992
 21
-430.9999999999998
 31
0.0
  0
LINE
  5
82D1
330
7A15
100
AcDbEntity
  8
30
  6
Continuous
 62
     0
100
AcDbLine
 10
112.5004882812992
 20
-431.0899999999998
 30
0.0
 11
112.5004882812992
 21
-430.9099999999999
 31
0.0
  0
POINT
  5
82D2
330
7A15
100
AcDbEntity
  8
DEFPOINTS
  6
Continuous
 62
     0
100
AcDbPoint
 10
114.8226561258926
 20
-425.4675921605925
 30
0.0
  0
POINT
  5
82D3
330
7A15
100
AcDbEntity
  8
DEFPOINTS
  6
Continuous
 62
     0
100
AcDbPoint
 10
110.1783204367058
 20
-436.5324078394073
 30
0.0
  0
ENDBLK
  5
7A1F
330
7A15
100
AcDbEntity
  8
0
100
AcDbBlockEnd
  0
BLOCK
  5
7A9C
330
7A93
100
AcDbEntity
  8
0
100
AcDbBlockBegin
  2
*D25
 70
     1
 10
0.0
 20
0.0
 30
0.0
  3
*D25
  1

  0
LINE
  5
8507
330
7A93
100
AcDbEntity
  8
30
  6
Continuous
 62
     0
100
AcDbLine
 10
189.6120819879358
 20
611.6246324689733
 30
0.0
 11
110.5835778896755
 21
561.5629325977105
 31
0.0
  0
MTEXT
  5
8508
330
7A93
100
AcDbEntity
  8
30
  6
Continuous
 62
     0
100
AcDbMText
 10
178.2071460460941
 20
610.3187940638601
 30
0.0
 40
8.0
 41
0.0
 71
     5
 72
     1
  1
\A1;\U+220512
 11
0.8447692363922216
 21
0.5351307664910541
 31
0.0
 73
     1
 44
1.0
1001
ACAD
1000
MTEXTBEGIN
1070
    73
1070
     1
1070
    44
1040
1.0
1070
    74
1070
     0
1000
MTEXTEND
  0
INSERT
  5
8509
330
7A93
100
AcDbEntity
  8
30
  6
Continuous
 62
     0
100
AcDbBlockReference
  2
_OPEN
 10
108.8940394168911
 20
560.4926710647283
 30
0.0
 41
2.0
 42
2.0
 43
2.0
 50
212.3527801083058
  0
LINE
  5
850A
330
7A93
100
AcDbEntity
  8
30
  6
Continuous
 62
     0
100
AcDbLine
 10
103.7354239985379
 20
557.2818864657821
 30
0.0
 11
103.9154239985379
 21
557.2818864657821
 31
0.0
  0
LINE
  5
850B
330
7A93
100
AcDbEntity
  8
30
  6
Continuous
 62
     0
100
AcDbLine
 10
103.825423998538
 20
557.1918864657821
 30
0.0
 11
103.8254239985378
 21
557.371886465782
 31
0.0
  0
POINT
  5
850C
330
7A93
100
AcDbEntity
  8
DEFPOINTS
  6
Continuous
 62
     0
100
AcDbPoint
 10
108.8940394168911
 20
560.4926710647283
 30
0.0
  0
POINT
  5
850D
330
7A93
100
AcDbEntity
  8
DEFPOINTS
  6
Continuous
 62
     0
100
AcDbPoint
 10
98.75680858018478
 20
554.0711018668359
 30
0.0
  0
ENDBLK
  5
7A9D
330
7A93
100
AcDbEntity
  8
0
100
AcDbBlockEnd
  0
BLOCK
  5
7AA9
330
7A9F
100
AcDbEntity
  8
0
100
AcDbBlockBegin
  2
*D26
 70
     1
 10
0.0
 20
0.0
 30
0.0
  3
*D26
  1

  0
LINE
  5
8517
330
7A9F
100
AcDbEntity
  8
30
  6
Continuous
 62
     0
100
AcDbLine
 10
14.3119307347215
 20
890.3374709078496
 30
0.0
 11
39.40343505458715
 21
890.3374709078496
 31
0.0
  0
LINE
  5
8518
330
7A9F
100
AcDbEntity
  8
30
  6
Continuous
 62
     0
100
AcDbLine
 10
14.3119307347215
 20
770.3374709078497
 30
0.0
 11
39.40343505458713
 21
770.3374709078497
 31
0.0
  0
LINE
  5
8519
330
7A9F
100
AcDbEntity
  8
30
  6
Continuous
 62
     0
100
AcDbLine
 10
38.90343505458714
 20
888.3374709078497
 30
0.0
 11
38.90343505458711
 21
772.3374709078496
 31
0.0
  0
INSERT
  5
851A
330
7A9F
100
AcDbEntity
  8
30
  6
Continuous
 62
     0
100
AcDbBlockReference
  2
_OPEN
 10
38.90343505458714
 20
890.3374709078496
 30
0.0
 41
2.0
 42
2.0
 43
2.0
 50
90.0
  0
INSERT
  5
851B
330
7A9F
100
AcDbEntity
  8
30
  6
Continuous
 62
     0
100
AcDbBlockReference
  2
_OPEN
 10
38.90343505458711
 20
770.3374709078497
 30
0.0
 41
2.0
 42
2.0
 43
2.0
 50
270.0
  0
MTEXT
  5
851C
330
7A9F
100
AcDbEntity
  8
30
  6
Continuous
 62
     0
100
AcDbMText
 10
33.903435054587
 20
830.3374709078497
 30
0.0
 40
8.0
 41
0.0
 71
     5
 72
     1
  1
\A1;120
 11
0.0000000000000001
 21
1.0
 31
0.0
 73
     1
 44
1.0
1001
ACAD
1000
MTEXTBEGIN
1070
    73
1070
     1
1070
    44
1040
1.0
1070
    74
1070
     0
1000
MTEXTEND
  0
POINT
  5
851D
330
7A9F
100
AcDbEntity
  8
DEFPOINTS
  6
Continuous
 62
     0
100
AcDbPoint
 10
9.311930734721499
 20
890.3374709078496
 30
0.0
  0
POINT
  5
851E
330
7A9F
100
AcDbEntity
  8
DEFPOINTS
  6
Continuous
 62
     0
100
AcDbPoint
 10
9.311930734721499
 20
770.3374709078497
 30
0.0
  0
POINT
  5
851F
330
7A9F
100
AcDbEntity
  8
DEFPOINTS
  6
Continuous
 62
     0
100
AcDbPoint
 10
38.90343505458711
 20
770.3374709078497
 30
0.0
  0
ENDBLK
  5
7AAA
330
7A9F
100
AcDbEntity
  8
0
100
AcDbBlockEnd
  0
BLOCK
  5
7AB6
330
7AAC
100
AcDbEntity
  8
0
100
AcDbBlockBegin
  2
*D27
 70
     1
 10
0.0
 20
0.0
 30
0.0
  3
*D27
  1

  0
LINE
  5
850E
330
7AAC
100
AcDbEntity
  8
30
  6
Continuous
 62
     0
100
AcDbLine
 10
14.31193073472126
 20
890.3374709078496
 30
0.0
 11
26.28009428700261
 21
890.3374709078496
 31
0.0
  0
LINE
  5
850F
330
7AAC
100
AcDbEntity
  8
30
  6
Continuous
 62
     0
100
AcDbLine
 10
14.31193073472126
 20
870.3374709078497
 30
0.0
 11
26.28009428700261
 21
870.3374709078497
 31
0.0
  0
LINE
  5
8510
330
7AAC
100
AcDbEntity
  8
30
  6
Continuous
 62
     0
100
AcDbLine
 10
25.78009428700262
 20
888.3374709078497
 30
0.0
 11
25.78009428700261
 21
872.3374709078496
 31
0.0
  0
INSERT
  5
8511
330
7AAC
100
AcDbEntity
  8
30
  6
Continuous
 62
     0
100
AcDbBlockReference
  2
_OPEN
 10
25.78009428700262
 20
890.3374709078496
 30
0.0
 41
2.0
 42
2.0
 43
2.0
 50
90.0
  0
INSERT
  5
8512
330
7AAC
100
AcDbEntity
  8
30
  6
Continuous
 62
     0
100
AcDbBlockReference
  2
_OPEN
 10
25.78009428700261
 20
870.3374709078497
 30
0.0
 41
2.0
 42
2.0
 43
2.0
 50
270.0
  0
MTEXT
  5
8513
330
7AAC
100
AcDbEntity
  8
30
  6
Continuous
 62
     0
100
AcDbMText
 10
20.78009428700247
 20
880.3374709078497
 30
0.0
 40
8.0
 41
0.0
 71
     5
 72
     1
  1
\A1;20
 11
0.0000000000000001
 21
1.0
 31
0.0
 73
     1
 44
1.0
1001
ACAD
1000
MTEXTBEGIN
1070
    73
1070
     1
1070
    44
1040
1.0
1070
    74
1070
     0
1000
MTEXTEND
  0
POINT
  5
8514
330
7AAC
100
AcDbEntity
  8
DEFPOINTS
  6
Continuous
 62
     0
100
AcDbPoint
 10
9.311930734721272
 20
890.3374709078496
 30
0.0
  0
POINT
  5
8515
330
7AAC
100
AcDbEntity
  8
DEFPOINTS
  6
Continuous
 62
     0
100
AcDbPoint
 10
9.311930734721272
 20
870.3374709078497
 30
0.0
  0
POINT
  5
8516
330
7AAC
100
AcDbEntity
  8
DEFPOINTS
  6
Continuous
 62
     0
100
AcDbPoint
 10
25.78009428700261
 20
870.3374709078497
 30
0.0
  0
ENDBLK
  5
7AB7
330
7AAC
100
AcDbEntity
  8
0
100
AcDbBlockEnd
  0
BLOCK
  5
7AC3
330
7AB9
100
AcDbEntity
  8
0
100
AcDbBlockBegin
  2
*D28
 70
     1
 10
0.0
 20
0.0
 30
0.0
  3
*D28
  1

  0
LINE
  5
8529
330
7AB9
100
AcDbEntity
  8
30
  6
Continuous
 62
     0
100
AcDbLine
 10
14.31193073472126
 20
870.3374709078497
 30
0.0
 11
26.28009428700261
 21
870.3374709078497
 31
0.0
  0
LINE
  5
852A
330
7AB9
100
AcDbEntity
  8
30
  6
Continuous
 62
     0
100
AcDbLine
 10
14.31193073472126
 20
845.3374709078497
 30
0.0
 11
26.28009428700261
 21
845.3374709078497
 31
0.0
  0
LINE
  5
852B
330
7AB9
100
AcDbEntity
  8
30
  6
Continuous
 62
     0
100
AcDbLine
 10
25.78009428700261
 20
868.3374709078497
 30
0.0
 11
25.78009428700261
 21
847.3374709078495
 31
0.0
  0
INSERT
  5
852C
330
7AB9
100
AcDbEntity
  8
30
  6
Continuous
 62
     0
100
AcDbBlockReference
  2
_OPEN
 10
25.78009428700261
 20
870.3374709078497
 30
0.0
 41
2.0
 42
2.0
 43
2.0
 50
90.0
  0
INSERT
  5
852D
330
7AB9
100
AcDbEntity
  8
30
  6
Continuous
 62
     0
100
AcDbBlockReference
  2
_OPEN
 10
25.78009428700261
 20
845.3374709078497
 30
0.0
 41
2.0
 42
2.0
 43
2.0
 50
270.0
  0
MTEXT
  5
852E
330
7AB9
100
AcDbEntity
  8
30
  6
Continuous
 62
     0
100
AcDbMText
 10
20.78009428700247
 20
857.8374709078497
 30
0.0
 40
8.0
 41
0.0
 71
     5
 72
     1
  1
\A1;25
 11
0.0000000000000001
 21
1.0
 31
0.0
 73
     1
 44
1.0
1001
ACAD
1000
MTEXTBEGIN
1070
    73
1070
     1
1070
    44
1040
1.0
1070
    74
1070
     0
1000
MTEXTEND
  0
POINT
  5
852F
330
7AB9
100
AcDbEntity
  8
DEFPOINTS
  6
Continuous
 62
     0
100
AcDbPoint
 10
9.311930734721272
 20
870.3374709078497
 30
0.0
  0
POINT
  5
8530
330
7AB9
100
AcDbEntity
  8
DEFPOINTS
  6
Continuous
 62
     0
100
AcDbPoint
 10
9.311930734721272
 20
845.3374709078497
 30
0.0
  0
POINT
  5
8531
330
7AB9
100
AcDbEntity
  8
DEFPOINTS
  6
Continuous
 62
     0
100
AcDbPoint
 10
25.78009428700261
 20
845.3374709078497
 30
0.0
  0
ENDBLK
  5
7AC4
330
7AB9
100
AcDbEntity
  8
0
100
AcDbBlockEnd
  0
BLOCK
  5
7AD4
330
7ACA
100
AcDbEntity
  8
0
100
AcDbBlockBegin
  2
*D29
 70
     1
 10
0.0
 20
0.0
 30
0.0
  3
*D29
  1

  0
LINE
  5
853B
330
7ACA
100
AcDbEntity
  8
30
  6
Continuous
 62
     0
100
AcDbLine
 10
82.5
 20
840.3374709078496
 30
0.0
 11
96.4025453981376
 21
840.3374709078496
 31
0.0
  0
LINE
  5
853C
330
7ACA
100
AcDbEntity
  8
30
  6
Continuous
 62
     0
100
AcDbLine
 10
82.5
 20
820.3374709078497
 30
0.0
 11
96.4025453981376
 21
820.3374709078497
 31
0.0
  0
LINE
  5
853D
330
7ACA
100
AcDbEntity
  8
30
  6
Continuous
 62
     0
100
AcDbLine
 10
95.90254539813759
 20
838.3374709078497
 30
0.0
 11
95.90254539813759
 21
822.3374709078495
 31
0.0
  0
INSERT
  5
853E
330
7ACA
100
AcDbEntity
  8
30
  6
Continuous
 62
     0
100
AcDbBlockReference
  2
_OPEN
 10
95.90254539813759
 20
840.3374709078496
 30
0.0
 41
2.0
 42
2.0
 43
2.0
 50
90.0
  0
INSERT
  5
853F
330
7ACA
100
AcDbEntity
  8
30
  6
Continuous
 62
     0
100
AcDbBlockReference
  2
_OPEN
 10
95.90254539813759
 20
820.3374709078497
 30
0.0
 41
2.0
 42
2.0
 43
2.0
 50
270.0
  0
MTEXT
  5
8540
330
7ACA
100
AcDbEntity
  8
30
  6
Continuous
 62
     0
100
AcDbMText
 10
90.90254539813749
 20
830.3374709078497
 30
0.0
 40
8.0
 41
0.0
 71
     5
 72
     1
  1
\A1;20
 11
0.0000000000000001
 21
1.0
 31
0.0
 73
     1
 44
1.0
1001
ACAD
1000
MTEXTBEGIN
1070
    73
1070
     1
1070
    44
1040
1.0
1070
    74
1070
     0
1000
MTEXTEND
  0
POINT
  5
8541
330
7ACA
100
AcDbEntity
  8
DEFPOINTS
  6
Continuous
 62
     0
100
AcDbPoint
 10
77.5
 20
840.3374709078496
 30
0.0
  0
POINT
  5
8542
330
7ACA
100
AcDbEntity
  8
DEFPOINTS
  6
Continuous
 62
     0
100
AcDbPoint
 10
77.5
 20
820.3374709078497
 30
0.0
  0
POINT
  5
8543
330
7ACA
100
AcDbEntity
  8
DEFPOINTS
  6
Continuous
 62
     0
100
AcDbPoint
 10
95.90254539813759
 20
820.3374709078497
 30
0.0
  0
ENDBLK
  5
7AD5
330
7ACA
100
AcDbEntity
  8
0
100
AcDbBlockEnd
  0
BLOCK
  5
7AE1
330
7AD7
100
AcDbEntity
  8
0
100
AcDbBlockBegin
  2
*D30
 70
     1
 10
0.0
 20
0.0
 30
0.0
  3
*D30
  1

  0
LINE
  5
8532
330
7AD7
100
AcDbEntity
  8
30
  6
Continuous
 62
     0
100
AcDbLine
 10
82.5
 20
820.3374709078497
 30
0.0
 11
96.4025453981376
 21
820.3374709078497
 31
0.0
  0
LINE
  5
8533
330
7AD7
100
AcDbEntity
  8
30
  6
Continuous
 62
     0
100
AcDbLine
 10
82.5
 20
795.3374709078497
 30
0.0
 11
96.40254539813758
 21
795.3374709078497
 31
0.0
  0
LINE
  5
8534
330
7AD7
100
AcDbEntity
  8
30
  6
Continuous
 62
     0
100
AcDbLine
 10
95.90254539813759
 20
818.3374709078497
 30
0.0
 11
95.90254539813757
 21
797.3374709078496
 31
0.0
  0
INSERT
  5
8535
330
7AD7
100
AcDbEntity
  8
30
  6
Continuous
 62
     0
100
AcDbBlockReference
  2
_OPEN
 10
95.90254539813759
 20
820.3374709078497
 30
0.0
 41
2.0
 42
2.0
 43
2.0
 50
90.0
  0
INSERT
  5
8536
330
7AD7
100
AcDbEntity
  8
30
  6
Continuous
 62
     0
100
AcDbBlockReference
  2
_OPEN
 10
95.90254539813757
 20
795.3374709078497
 30
0.0
 41
2.0
 42
2.0
 43
2.0
 50
270.0
  0
MTEXT
  5
8537
330
7AD7
100
AcDbEntity
  8
30
  6
Continuous
 62
     0
100
AcDbMText
 10
90.90254539813743
 20
807.8374709078497
 30
0.0
 40
8.0
 41
0.0
 71
     5
 72
     1
  1
\A1;25
 11
0.0000000000000001
 21
1.0
 31
0.0
 73
     1
 44
1.0
1001
ACAD
1000
MTEXTBEGIN
1070
    73
1070
     1
1070
    44
1040
1.0
1070
    74
1070
     0
1000
MTEXTEND
  0
POINT
  5
8538
330
7AD7
100
AcDbEntity
  8
DEFPOINTS
  6
Continuous
 62
     0
100
AcDbPoint
 10
77.5
 20
820.3374709078497
 30
0.0
  0
POINT
  5
8539
330
7AD7
100
AcDbEntity
  8
DEFPOINTS
  6
Continuous
 62
     0
100
AcDbPoint
 10
77.5
 20
795.3374709078497
 30
0.0
  0
POINT
  5
853A
330
7AD7
100
AcDbEntity
  8
DEFPOINTS
  6
Continuous
 62
     0
100
AcDbPoint
 10
95.90254539813757
 20
795.3374709078497
 30
0.0
  0
ENDBLK
  5
7AE2
330
7AD7
100
AcDbEntity
  8
0
100
AcDbBlockEnd
  0
BLOCK
  5
7B1F
330
7B15
100
AcDbEntity
  8
0
100
AcDbBlockBegin
  2
*D31
 70
     1
 10
0.0
 20
0.0
 30
0.0
  3
*D31
  1

  0
LINE
  5
8520
330
7B15
100
AcDbEntity
  8
30
  6
Continuous
 62
     0
100
AcDbLine
 10
82.5
 20
840.3374709078496
 30
0.0
 11
111.2180532685104
 21
840.3374709078496
 31
0.0
  0
LINE
  5
8521
330
7B15
100
AcDbEntity
  8
30
  6
Continuous
 62
     0
100
AcDbLine
 10
82.5
 20
770.3374709078497
 30
0.0
 11
111.2180532685104
 21
770.3374709078497
 31
0.0
  0
LINE
  5
8522
330
7B15
100
AcDbEntity
  8
30
  6
Continuous
 62
     0
100
AcDbLine
 10
110.7180532685105
 20
838.3374709078497
 30
0.0
 11
110.7180532685104
 21
772.3374709078496
 31
0.0
  0
INSERT
  5
8523
330
7B15
100
AcDbEntity
  8
30
  6
Continuous
 62
     0
100
AcDbBlockReference
  2
_OPEN
 10
110.7180532685105
 20
840.3374709078496
 30
0.0
 41
2.0
 42
2.0
 43
2.0
 50
90.0
  0
INSERT
  5
8524
330
7B15
100
AcDbEntity
  8
30
  6
Continuous
 62
     0
100
AcDbBlockReference
  2
_OPEN
 10
110.7180532685104
 20
770.3374709078497
 30
0.0
 41
2.0
 42
2.0
 43
2.0
 50
270.0
  0
MTEXT
  5
8525
330
7B15
100
AcDbEntity
  8
30
  6
Continuous
 62
     0
100
AcDbMText
 10
105.7180532685104
 20
805.3374709078497
 30
0.0
 40
8.0
 41
0.0
 71
     5
 72
     1
  1
\A1;70
 11
0.0000000000000001
 21
1.0
 31
0.0
 73
     1
 44
1.0
1001
ACAD
1000
MTEXTBEGIN
1070
    73
1070
     1
1070
    44
1040
1.0
1070
    74
1070
     0
1000
MTEXTEND
  0
POINT
  5
8526
330
7B15
100
AcDbEntity
  8
DEFPOINTS
  6
Continuous
 62
     0
100
AcDbPoint
 10
77.5
 20
840.3374709078496
 30
0.0
  0
POINT
  5
8527
330
7B15
100
AcDbEntity
  8
DEFPOINTS
  6
Continuous
 62
     0
100
AcDbPoint
 10
77.5
 20
770.3374709078497
 30
0.0
  0
POINT
  5
8528
330
7B15
100
AcDbEntity
  8
DEFPOINTS
  6
Continuous
 62
     0
100
AcDbPoint
 10
110.7180532685104
 20
770.3374709078497
 30
0.0
  0
ENDBLK
  5
7B20
330
7B15
100
AcDbEntity
  8
0
100
AcDbBlockEnd
  0
BLOCK
  5
7B2E
330
7B24
100
AcDbEntity
  8
0
100
AcDbBlockBegin
  2
*D32
 70
     1
 10
0.0
 20
0.0
 30
0.0
  3
*D32
  1

  0
LINE
  5
84FE
330
7B24
100
AcDbEntity
  8
30
  6
Continuous
 62
     0
100
AcDbLine
 10
-69.99999999999977
 20
905.5867313670654
 30
0.0
 11
-69.99999999999977
 21
920.884663997946
 31
0.0
  0
LINE
  5
84FF
330
7B24
100
AcDbEntity
  8
30
  6
Continuous
 62
     0
100
AcDbLine
 10
0.0000000000002277
 20
905.5867313670654
 30
0.0
 11
0.0000000000002286
 21
920.884663997946
 31
0.0
  0
LINE
  5
8500
330
7B24
100
AcDbEntity
  8
30
  6
Continuous
 62
     0
100
AcDbLine
 10
-67.99999999999977
 20
920.384663997946
 30
0.0
 11
-1.999999999999771
 21
920.384663997946
 31
0.0
  0
INSERT
  5
8501
330
7B24
100
AcDbEntity
  8
30
  6
Continuous
 62
     0
100
AcDbBlockReference
  2
_OPEN
 10
-69.99999999999977
 20
920.384663997946
 30
0.0
 41
2.0
 42
2.0
 43
2.0
 50
180.0
  0
INSERT
  5
8502
330
7B24
100
AcDbEntity
  8
30
  6
Continuous
 62
     0
100
AcDbBlockReference
  2
_OPEN
 10
0.0000000000002286
 20
920.384663997946
 30
0.0
 41
2.0
 42
2.0
 43
2.0
  0
MTEXT
  5
8503
330
7B24
100
AcDbEntity
  8
30
  6
Continuous
 62
     0
100
AcDbMText
 10
-34.99999999999977
 20
925.384663997946
 30
0.0
 40
8.0
 41
0.0
 71
     5
 72
     1
  1
\A1;70
 73
     1
 44
1.0
1001
ACAD
1000
MTEXTBEGIN
1070
    73
1070
     1
1070
    44
1040
1.0
1070
    74
1070
     0
1000
MTEXTEND
  0
POINT
  5
8504
330
7B24
100
AcDbEntity
  8
DEFPOINTS
  6
Continuous
 62
     0
100
AcDbPoint
 10
-69.99999999999977
 20
900.5867313670654
 30
0.0
  0
POINT
  5
8505
330
7B24
100
AcDbEntity
  8
DEFPOINTS
  6
Continuous
 62
     0
100
AcDbPoint
 10
0.0000000000002274
 20
900.5867313670654
 30
0.0
  0
POINT
  5
8506
330
7B24
100
AcDbEntity
  8
DEFPOINTS
  6
Continuous
 62
     0
100
AcDbPoint
 10
0.0000000000002286
 20
920.384663997946
 30
0.0
  0
ENDBLK
  5
7B2F
330
7B24
100
AcDbEntity
  8
0
100
AcDbBlockEnd
  0
BLOCK
  5
7B3B
330
7B31
100
AcDbEntity
  8
0
100
AcDbBlockBegin
  2
*D33
 70
     1
 10
0.0
 20
0.0
 30
0.0
  3
*D33
  1

  0
LINE
  5
84F5
330
7B31
100
AcDbEntity
  8
30
  6
Continuous
 62
     0
100
AcDbLine
 10
0.0000000000002277
 20
906.5867313670652
 30
0.0
 11
0.0000000000002286
 21
920.884663997946
 31
0.0
  0
LINE
  5
84F6
330
7B31
100
AcDbEntity
  8
30
  6
Continuous
 62
     0
100
AcDbLine
 10
70.0
 20
905.5867313670654
 30
0.0
 11
70.0
 21
920.884663997946
 31
0.0
  0
LINE
  5
84F7
330
7B31
100
AcDbEntity
  8
30
  6
Continuous
 62
     0
100
AcDbLine
 10
2.000000000000227
 20
920.384663997946
 30
0.0
 11
68.0
 21
920.384663997946
 31
0.0
  0
INSERT
  5
84F8
330
7B31
100
AcDbEntity
  8
30
  6
Continuous
 62
     0
100
AcDbBlockReference
  2
_OPEN
 10
0.0000000000002286
 20
920.384663997946
 30
0.0
 41
2.0
 42
2.0
 43
2.0
 50
180.0
  0
INSERT
  5
84F9
330
7B31
100
AcDbEntity
  8
30
  6
Continuous
 62
     0
100
AcDbBlockReference
  2
_OPEN
 10
70.0
 20
920.384663997946
 30
0.0
 41
2.0
 42
2.0
 43
2.0
  0
MTEXT
  5
84FA
330
7B31
100
AcDbEntity
  8
30
  6
Continuous
 62
     0
100
AcDbMText
 10
35.0000000000001
 20
925.384663997946
 30
0.0
 40
8.0
 41
0.0
 71
     5
 72
     1
  1
\A1;70
 73
     1
 44
1.0
1001
ACAD
1000
MTEXTBEGIN
1070
    73
1070
     1
1070
    44
1040
1.0
1070
    74
1070
     0
1000
MTEXTEND
  0
POINT
  5
84FB
330
7B31
100
AcDbEntity
  8
DEFPOINTS
  6
Continuous
 62
     0
100
AcDbPoint
 10
0.0000000000002274
 20
901.5867313670652
 30
0.0
  0
POINT
  5
84FC
330
7B31
100
AcDbEntity
  8
DEFPOINTS
  6
Continuous
 62
     0
100
AcDbPoint
 10
70.0
 20
900.5867313670654
 30
0.0
  0
POINT
  5
84FD
330
7B31
100
AcDbEntity
  8
DEFPOINTS
  6
Continuous
 62
     0
100
AcDbPoint
 10
70.0
 20
920.384663997946
 30
0.0
  0
ENDBLK
  5
7B3C
330
7B31
100
AcDbEntity
  8
0
100
AcDbBlockEnd
  0
BLOCK
  5
7BE0
330
7BD6
100
AcDbEntity
  8
0
100
AcDbBlockBegin
  2
*D34
 70
     1
 10
0.0
 20
0.0
 30
0.0
  3
*D34
  1

  0
LINE
  5
8323
330
7BD6
100
AcDbEntity
  8
30
  6
Continuous
 62
     0
100
AcDbLine
 10
1063.586497997648
 20
85.0
 30
0.0
 11
1078.19739818114
 21
85.0
 31
0.0
  0
LINE
  5
8324
330
7BD6
100
AcDbEntity
  8
30
  6
Continuous
 62
     0
100
AcDbLine
 10
1063.586497997648
 20
35.0
 30
0.0
 11
1078.19739818114
 21
34.99999999999999
 31
0.0
  0
LINE
  5
8325
330
7BD6
100
AcDbEntity
  8
30
  6
Continuous
 62
     0
100
AcDbLine
 10
1077.697398181139
 20
83.0
 30
0.0
 11
1077.697398181139
 21
36.99999999999999
 31
0.0
  0
INSERT
  5
8326
330
7BD6
100
AcDbEntity
  8
30
  6
Continuous
 62
     0
100
AcDbBlockReference
  2
_OPEN
 10
1077.697398181139
 20
85.0
 30
0.0
 41
2.0
 42
2.0
 43
2.0
 50
90.0
  0
INSERT
  5
8327
330
7BD6
100
AcDbEntity
  8
30
  6
Continuous
 62
     0
100
AcDbBlockReference
  2
_OPEN
 10
1077.697398181139
 20
34.99999999999999
 30
0.0
 41
2.0
 42
2.0
 43
2.0
 50
270.0
  0
MTEXT
  5
8328
330
7BD6
100
AcDbEntity
  8
30
  6
Continuous
 62
     0
100
AcDbMText
 10
1072.69739818114
 20
60.00000000000017
 30
0.0
 40
8.0
 41
0.0
 71
     5
 72
     1
  1
\A1;50
 11
0.0000000000000001
 21
1.0
 31
0.0
 73
     1
 44
1.0
1001
ACAD
1000
MTEXTBEGIN
1070
    73
1070
     1
1070
    44
1040
1.0
1070
    74
1070
     0
1000
MTEXTEND
  0
POINT
  5
8329
330
7BD6
100
AcDbEntity
  8
DEFPOINTS
  6
Continuous
 62
     0
100
AcDbPoint
 10
1058.586497997648
 20
85.0
 30
0.0
  0
POINT
  5
832A
330
7BD6
100
AcDbEntity
  8
DEFPOINTS
  6
Continuous
 62
     0
100
AcDbPoint
 10
1058.586497997648
 20
35.0
 30
0.0
  0
POINT
  5
832B
330
7BD6
100
AcDbEntity
  8
DEFPOINTS
  6
Continuous
 62
     0
100
AcDbPoint
 10
1077.697398181139
 20
34.99999999999999
 30
0.0
  0
ENDBLK
  5
7BE1
330
7BD6
100
AcDbEntity
  8
0
100
AcDbBlockEnd
  0
BLOCK
  5
7BF6
330
7BEC
100
AcDbEntity
  8
0
100
AcDbBlockBegin
  2
*D35
 70
     1
 10
0.0
 20
0.0
 30
0.0
  3
*D35
  1

  0
LINE
  5
832C
330
7BEC
100
AcDbEntity
  8
30
  6
Continuous
 62
     0
100
AcDbLine
 10
1042.0001220703
 20
97.5
 30
0.0
 11
1095.023111921884
 21
97.5
 31
0.0
  0
LINE
  5
832D
330
7BEC
100
AcDbEntity
  8
30
  6
Continuous
 62
     0
100
AcDbLine
 10
1042.0001220703
 20
22.5
 30
0.0
 11
1095.023111921884
 21
22.49999999999998
 31
0.0
  0
LINE
  5
832E
330
7BEC
100
AcDbEntity
  8
30
  6
Continuous
 62
     0
100
AcDbLine
 10
1094.523111921884
 20
95.49999999999998
 30
0.0
 11
1094.523111921884
 21
24.49999999999998
 31
0.0
  0
INSERT
  5
832F
330
7BEC
100
AcDbEntity
  8
30
  6
Continuous
 62
     0
100
AcDbBlockReference
  2
_OPEN
 10
1094.523111921884
 20
97.5
 30
0.0
 41
2.0
 42
2.0
 43
2.0
 50
90.0
  0
INSERT
  5
8330
330
7BEC
100
AcDbEntity
  8
30
  6
Continuous
 62
     0
100
AcDbBlockReference
  2
_OPEN
 10
1094.523111921884
 20
22.49999999999998
 30
0.0
 41
2.0
 42
2.0
 43
2.0
 50
270.0
  0
MTEXT
  5
8331
330
7BEC
100
AcDbEntity
  8
30
  6
Continuous
 62
     0
100
AcDbMText
 10
1089.523111921884
 20
60.00000000000015
 30
0.0
 40
8.0
 41
0.0
 71
     5
 72
     1
  1
\A1;75
 11
0.0000000000000001
 21
1.0
 31
0.0
 73
     1
 44
1.0
1001
ACAD
1000
MTEXTBEGIN
1070
    73
1070
     1
1070
    44
1040
1.0
1070
    74
1070
     0
1000
MTEXTEND
  0
POINT
  5
8332
330
7BEC
100
AcDbEntity
  8
DEFPOINTS
  6
Continuous
 62
     0
100
AcDbPoint
 10
1037.0001220703
 20
97.5
 30
0.0
  0
POINT
  5
8333
330
7BEC
100
AcDbEntity
  8
DEFPOINTS
  6
Continuous
 62
     0
100
AcDbPoint
 10
1037.0001220703
 20
22.5
 30
0.0
  0
POINT
  5
8334
330
7BEC
100
AcDbEntity
  8
DEFPOINTS
  6
Continuous
 62
     0
100
AcDbPoint
 10
1094.523111921884
 20
22.49999999999998
 30
0.0
  0
ENDBLK
  5
7BF7
330
7BEC
100
AcDbEntity
  8
0
100
AcDbBlockEnd
  0
BLOCK
  5
7C03
330
7BF9
100
AcDbEntity
  8
0
100
AcDbBlockBegin
  2
*D36
 70
     1
 10
0.0
 20
0.0
 30
0.0
  3
*D36
  1

  0
LINE
  5
8335
330
7BF9
100
AcDbEntity
  8
30
  6
Continuous
 62
     0
100
AcDbLine
 10
1099.523111921884
 20
60.0
 30
0.0
 11
1132.040469722993
 21
60.0
 31
0.0
  0
LINE
  5
8336
330
7BF9
100
AcDbEntity
  8
30
  6
Continuous
 62
     0
100
AcDbLine
 10
1062.981811523399
 20
-0.0000000000000014
 30
0.0
 11
1132.040469722993
 21
-0.000000000000021
 31
0.0
  0
LINE
  5
8337
330
7BF9
100
AcDbEntity
  8
30
  6
Continuous
 62
     0
100
AcDbLine
 10
1131.540469722994
 20
57.99999999999999
 30
0.0
 11
1131.540469722994
 21
1.999999999999979
 31
0.0
  0
INSERT
  5
8338
330
7BF9
100
AcDbEntity
  8
30
  6
Continuous
 62
     0
100
AcDbBlockReference
  2
_OPEN
 10
1131.540469722994
 20
60.0
 30
0.0
 41
2.0
 42
2.0
 43
2.0
 50
90.0
  0
INSERT
  5
8339
330
7BF9
100
AcDbEntity
  8
30
  6
Continuous
 62
     0
100
AcDbBlockReference
  2
_OPEN
 10
1131.540469722994
 20
-0.0000000000000208
 30
0.0
 41
2.0
 42
2.0
 43
2.0
 50
270.0
  0
MTEXT
  5
833A
330
7BF9
100
AcDbEntity
  8
30
  6
Continuous
 62
     0
100
AcDbMText
 10
1126.540469722993
 20
30.00000000000016
 30
0.0
 40
8.0
 41
0.0
 71
     5
 72
     1
  1
\A1;60
 11
0.0000000000000001
 21
1.0
 31
0.0
 73
     1
 44
1.0
1001
ACAD
1000
MTEXTBEGIN
1070
    73
1070
     1
1070
    44
1040
1.0
1070
    74
1070
     0
1000
MTEXTEND
  0
POINT
  5
833B
330
7BF9
100
AcDbEntity
  8
DEFPOINTS
  6
Continuous
 62
     0
100
AcDbPoint
 10
1094.523111921884
 20
60.0
 30
0.0
  0
POINT
  5
833C
330
7BF9
100
AcDbEntity
  8
DEFPOINTS
  6
Continuous
 62
     0
100
AcDbPoint
 10
1057.9818115234
 20
0.0
 30
0.0
  0
POINT
  5
833D
330
7BF9
100
AcDbEntity
  8
DEFPOINTS
  6
Continuous
 62
     0
100
AcDbPoint
 10
1131.540469722994
 20
-0.0000000000000208
 30
0.0
  0
ENDBLK
  5
7C04
330
7BF9
100
AcDbEntity
  8
0
100
AcDbBlockEnd
  0
BLOCK
  5
7C22
330
7C18
100
AcDbEntity
  8
0
100
AcDbBlockBegin
  2
*D37
 70
     1
 10
0.0
 20
0.0
 30
0.0
  3
*D37
  1

  0
LINE
  5
833E
330
7C18
100
AcDbEntity
  8
30
  6
Continuous
 62
     0
100
AcDbLine
 10
1063.981811523399
 20
-0.0000000000000017
 30
0.0
 11
1132.040469722993
 21
-0.000000000000021
 31
0.0
  0
LINE
  5
833F
330
7C18
100
AcDbEntity
  8
30
  6
Continuous
 62
     0
100
AcDbLine
 10
1062.981811523399
 20
-100.0
 30
0.0
 11
1132.040469722993
 21
-100.0
 31
0.0
  0
LINE
  5
8340
330
7C18
100
AcDbEntity
  8
30
  6
Continuous
 62
     0
100
AcDbLine
 10
1131.540469722994
 20
-2.000000000000019
 30
0.0
 11
1131.540469722994
 21
-98.00000000000002
 31
0.0
  0
INSERT
  5
8341
330
7C18
100
AcDbEntity
  8
30
  6
Continuous
 62
     0
100
AcDbBlockReference
  2
_OPEN
 10
1131.540469722994
 20
-0.0000000000000209
 30
0.0
 41
2.0
 42
2.0
 43
2.0
 50
90.0
  0
INSERT
  5
8342
330
7C18
100
AcDbEntity
  8
30
  6
Continuous
 62
     0
100
AcDbBlockReference
  2
_OPEN
 10
1131.540469722994
 20
-100.0
 30
0.0
 41
2.0
 42
2.0
 43
2.0
 50
270.0
  0
MTEXT
  5
8343
330
7C18
100
AcDbEntity
  8
30
  6
Continuous
 62
     0
100
AcDbMText
 10
1126.540469722993
 20
-49.99999999999985
 30
0.0
 40
8.0
 41
0.0
 71
     5
 72
     1
  1
\A1;100
 11
0.0000000000000001
 21
1.0
 31
0.0
 73
     1
 44
1.0
1001
ACAD
1000
MTEXTBEGIN
1070
    73
1070
     1
1070
    44
1040
1.0
1070
    74
1070
     0
1000
MTEXTEND
  0
POINT
  5
8344
330
7C18
100
AcDbEntity
  8
DEFPOINTS
  6
Continuous
 62
     0
100
AcDbPoint
 10
1058.981811523399
 20
-0.0000000000000003
 30
0.0
  0
POINT
  5
8345
330
7C18
100
AcDbEntity
  8
DEFPOINTS
  6
Continuous
 62
     0
100
AcDbPoint
 10
1057.9818115234
 20
-100.0
 30
0.0
  0
POINT
  5
8346
330
7C18
100
AcDbEntity
  8
DEFPOINTS
  6
Continuous
 62
     0
100
AcDbPoint
 10
1131.540469722994
 20
-100.0
 30
0.0
  0
ENDBLK
  5
7C23
330
7C18
100
AcDbEntity
  8
0
100
AcDbBlockEnd
  0
BLOCK
  5
7C2F
330
7C25
100
AcDbEntity
  8
0
100
AcDbBlockBegin
  2
*D38
 70
     1
 10
0.0
 20
0.0
 30
0.0
  3
*D38
  1

  0
LINE
  5
8347
330
7C25
100
AcDbEntity
  8
30
  6
Continuous
 62
     0
100
AcDbLine
 10
907.0001220703
 20
-225.0
 30
0.0
 11
907.0001220703
 21
-293.2288816386853
 31
0.0
  0
LINE
  5
8348
330
7C25
100
AcDbEntity
  8
30
  6
Continuous
 62
     0
100
AcDbLine
 10
625.0
 20
-5.00000000000008
 30
0.0
 11
625.0
 21
-293.2288816386853
 31
0.0
  0
LINE
  5
8349
330
7C25
100
AcDbEntity
  8
30
  6
Continuous
 62
     0
100
AcDbLine
 10
905.0001220703
 20
-292.7288816386854
 30
0.0
 11
627.0
 21
-292.7288816386854
 31
0.0
  0
INSERT
  5
834A
330
7C25
100
AcDbEntity
  8
30
  6
Continuous
 62
     0
100
AcDbBlockReference
  2
_OPEN
 10
907.0001220703
 20
-292.7288816386854
 30
0.0
 41
2.0
 42
2.0
 43
2.0
  0
INSERT
  5
834B
330
7C25
100
AcDbEntity
  8
30
  6
Continuous
 62
     0
100
AcDbBlockReference
  2
_OPEN
 10
625.0
 20
-292.7288816386854
 30
0.0
 41
2.0
 42
2.0
 43
2.0
 50
180.0
  0
MTEXT
  5
834C
330
7C25
100
AcDbEntity
  8
30
  6
Continuous
 62
     0
100
AcDbMText
 10
766.00006103515
 20
-287.7288816386853
 30
0.0
 40
8.0
 41
0.0
 71
     5
 72
     1
  1
\A1;282
 73
     1
 44
1.0
1001
ACAD
1000
MTEXTBEGIN
1070
    73
1070
     1
1070
    44
1040
1.0
1070
    74
1070
     0
1000
MTEXTEND
  0
POINT
  5
834D
330
7C25
100
AcDbEntity
  8
DEFPOINTS
  6
Continuous
 62
     0
100
AcDbPoint
 10
907.0001220703
 20
-220.0
 30
0.0
  0
POINT
  5
834E
330
7C25
100
AcDbEntity
  8
DEFPOINTS
  6
Continuous
 62
     0
100
AcDbPoint
 10
625.0
 20
-0.0000000000000817
 30
0.0
  0
POINT
  5
834F
330
7C25
100
AcDbEntity
  8
DEFPOINTS
  6
Continuous
 62
     0
100
AcDbPoint
 10
625.0
 20
-292.7288816386854
 30
0.0
  0
ENDBLK
  5
7C30
330
7C25
100
AcDbEntity
  8
0
100
AcDbBlockEnd
  0
BLOCK
  5
7C3C
330
7C32
100
AcDbEntity
  8
0
100
AcDbBlockBegin
  2
*D39
 70
     1
 10
0.0
 20
0.0
 30
0.0
  3
*D39
  1

  0
LINE
  5
8350
330
7C32
100
AcDbEntity
  8
30
  6
Continuous
 62
     0
100
AcDbLine
 10
907.0001220703
 20
-226.0
 30
0.0
 11
907.0001220703
 21
-312.5241580823661
 31
0.0
  0
LINE
  5
8351
330
7C32
100
AcDbEntity
  8
30
  6
Continuous
 62
     0
100
AcDbLine
 10
590.9998397826427
 20
-5.0
 30
0.0
 11
590.9998397826427
 21
-312.5241580823661
 31
0.0
  0
LINE
  5
8352
330
7C32
100
AcDbEntity
  8
30
  6
Continuous
 62
     0
100
AcDbLine
 10
905.0001220703
 20
-312.0241580823661
 30
0.0
 11
592.9998397826428
 21
-312.0241580823661
 31
0.0
  0
INSERT
  5
8353
330
7C32
100
AcDbEntity
  8
30
  6
Continuous
 62
     0
100
AcDbBlockReference
  2
_OPEN
 10
907.0001220703
 20
-312.0241580823661
 30
0.0
 41
2.0
 42
2.0
 43
2.0
  0
INSERT
  5
8354
330
7C32
100
AcDbEntity
  8
30
  6
Continuous
 62
     0
100
AcDbBlockReference
  2
_OPEN
 10
590.9998397826427
 20
-312.0241580823661
 30
0.0
 41
2.0
 42
2.0
 43
2.0
 50
180.0
  0
MTEXT
  5
8355
330
7C32
100
AcDbEntity
  8
30
  6
Continuous
 62
     0
100
AcDbMText
 10
748.9999809264713
 20
-307.0241580823661
 30
0.0
 40
8.0
 41
0.0
 71
     5
 72
     1
  1
\A1;316
 73
     1
 44
1.0
1001
ACAD
1000
MTEXTBEGIN
1070
    73
1070
     1
1070
    44
1040
1.0
1070
    74
1070
     0
1000
MTEXTEND
  0
POINT
  5
8356
330
7C32
100
AcDbEntity
  8
DEFPOINTS
  6
Continuous
 62
     0
100
AcDbPoint
 10
907.0001220703
 20
-221.0
 30
0.0
  0
POINT
  5
8357
330
7C32
100
AcDbEntity
  8
DEFPOINTS
  6
Continuous
 62
     0
100
AcDbPoint
 10
590.9998397826427
 20
0.0
 30
0.0
  0
POINT
  5
8358
330
7C32
100
AcDbEntity
  8
DEFPOINTS
  6
Continuous
 62
     0
100
AcDbPoint
 10
590.9998397826427
 20
-312.0241580823661
 30
0.0
  0
ENDBLK
  5
7C3D
330
7C32
100
AcDbEntity
  8
0
100
AcDbBlockEnd
  0
BLOCK
  5
7C48
330
7C3F
100
AcDbEntity
  8
0
100
AcDbBlockBegin
  2
*D40
 70
     1
 10
0.0
 20
0.0
 30
0.0
  3
*D40
  1

  0
LINE
  5
85B2
330
7C3F
100
AcDbEntity
  8
30
  6
Continuous
 62
     0
100
AcDbLine
 10
1050.019182927854
 20
152.8859844150026
 30
0.0
 11
1025.052267438668
 21
92.3948907125349
 31
0.0
  0
MTEXT
  5
85B3
330
7C3F
100
AcDbEntity
  8
30
  6
Continuous
 62
     0
100
AcDbMText
 10
1041.455021798374
 20
145.2418414332094
 30
0.0
 40
8.0
 41
0.0
 71
     5
 72
     1
  1
\A1;\U+220512
 11
0.3815181710462456
 21
0.9243613390668867
 31
0.0
 73
     1
 44
1.0
1001
ACAD
1000
MTEXTBEGIN
1070
    73
1070
     1
1070
    44
1040
1.0
1070
    74
1070
     0
1000
MTEXTEND
  0
INSERT
  5
85B4
330
7C3F
100
AcDbEntity
  8
30
  6
Continuous
 62
     0
100
AcDbBlockReference
  2
_OPEN
 10
1024.289231096576
 20
90.54616803440115
 30
0.0
 41
2.0
 42
2.0
 43
2.0
 50
247.5722465862324
  0
LINE
  5
85B5
330
7C3F
100
AcDbEntity
  8
30
  6
Continuous
 62
     0
100
AcDbLine
 10
1021.910122070299
 20
84.99999999999976
 30
0.0
 11
1022.090122070299
 21
84.99999999999991
 31
0.0
  0
LINE
  5
85B6
330
7C3F
100
AcDbEntity
  8
30
  6
Continuous
 62
     0
100
AcDbLine
 10
1022.000122070299
 20
84.9099999999998
 30
0.0
 11
1022.000122070299
 21
85.0899999999998
 31
0.0
  0
POINT
  5
85B7
330
7C3F
100
AcDbEntity
  8
DEFPOINTS
  6
Continuous
 62
     0
100
AcDbPoint
 10
1024.289231096576
 20
90.54616803440115
 30
0.0
  0
POINT
  5
85B8
330
7C3F
100
AcDbEntity
  8
DEFPOINTS
  6
Continuous
 62
     0
100
AcDbPoint
 10
1019.711013044022
 20
79.45383196559856
 30
0.0
  0
ENDBLK
  5
7C49
330
7C3F
100
AcDbEntity
  8
0
100
AcDbBlockEnd
  0
BLOCK
  5
7E27
330
7E1D
100
AcDbEntity
  8
0
100
AcDbBlockBegin
  2
*D41
 70
     1
 10
0.0
 20
0.0
 30
0.0
  3
*D41
  1

  0
LINE
  5
8360
330
7E1D
100
AcDbEntity
  8
30
  6
Continuous
 62
     0
100
AcDbLine
 10
907.0001220703
 20
-298.2288816386853
 30
0.0
 11
907.0001220703
 21
-367.1203184733531
 31
0.0
  0
LINE
  5
8361
330
7E1D
100
AcDbEntity
  8
30
  6
Continuous
 62
     0
100
AcDbLine
 10
380.9992675780383
 20
-5.0
 30
0.0
 11
380.9992675780383
 21
-367.1203184733531
 31
0.0
  0
LINE
  5
8362
330
7E1D
100
AcDbEntity
  8
30
  6
Continuous
 62
     0
100
AcDbLine
 10
905.0001220703
 20
-366.6203184733531
 30
0.0
 11
382.9992675780383
 21
-366.6203184733531
 31
0.0
  0
INSERT
  5
8363
330
7E1D
100
AcDbEntity
  8
30
  6
Continuous
 62
     0
100
AcDbBlockReference
  2
_OPEN
 10
907.0001220703
 20
-366.6203184733531
 30
0.0
 41
2.0
 42
2.0
 43
2.0
  0
INSERT
  5
8364
330
7E1D
100
AcDbEntity
  8
30
  6
Continuous
 62
     0
100
AcDbBlockReference
  2
_OPEN
 10
380.9992675780383
 20
-366.6203184733531
 30
0.0
 41
2.0
 42
2.0
 43
2.0
 50
180.0
  0
MTEXT
  5
8365
330
7E1D
100
AcDbEntity
  8
30
  6
Continuous
 62
     0
100
AcDbMText
 10
643.9996948241692
 20
-361.6203184733531
 30
0.0
 40
8.0
 41
0.0
 71
     5
 72
     1
  1
\A1;526
 73
     1
 44
1.0
1001
ACAD
1000
MTEXTBEGIN
1070
    73
1070
     1
1070
    44
1040
1.0
1070
    74
1070
     0
1000
MTEXTEND
  0
POINT
  5
8366
330
7E1D
100
AcDbEntity
  8
DEFPOINTS
  6
Continuous
 62
     0
100
AcDbPoint
 10
907.0001220703
 20
-293.2288816386853
 30
0.0
  0
POINT
  5
8367
330
7E1D
100
AcDbEntity
  8
DEFPOINTS
  6
Continuous
 62
     0
100
AcDbPoint
 10
380.9992675780383
 20
0.0
 30
0.0
  0
POINT
  5
8368
330
7E1D
100
AcDbEntity
  8
DEFPOINTS
  6
Continuous
 62
     0
100
AcDbPoint
 10
380.9992675780383
 20
-366.6203184733531
 30
0.0
  0
ENDBLK
  5
7E28
330
7E1D
100
AcDbEntity
  8
0
100
AcDbBlockEnd
  0
BLOCK
  5
7E46
330
7E3C
100
AcDbEntity
  8
0
100
AcDbBlockBegin
  2
*D42
 70
     1
 10
0.0
 20
0.0
 30
0.0
  3
*D42
  1

  0
LINE
  5
8369
330
7E3C
100
AcDbEntity
  8
30
  6
Continuous
 62
     0
100
AcDbLine
 10
907.0001220703
 20
-317.0241580823661
 30
0.0
 11
907.0001220703
 21
-337.8855890285331
 31
0.0
  0
LINE
  5
836A
330
7E3C
100
AcDbEntity
  8
30
  6
Continuous
 62
     0
100
AcDbLine
 10
511.0001068115055
 20
-5.0
 30
0.0
 11
511.0001068115055
 21
-337.8855890285331
 31
0.0
  0
LINE
  5
836B
330
7E3C
100
AcDbEntity
  8
30
  6
Continuous
 62
     0
100
AcDbLine
 10
905.0001220703
 20
-337.3855890285331
 30
0.0
 11
513.0001068115054
 21
-337.3855890285331
 31
0.0
  0
INSERT
  5
836C
330
7E3C
100
AcDbEntity
  8
30
  6
Continuous
 62
     0
100
AcDbBlockReference
  2
_OPEN
 10
907.0001220703
 20
-337.3855890285331
 30
0.0
 41
2.0
 42
2.0
 43
2.0
  0
INSERT
  5
836D
330
7E3C
100
AcDbEntity
  8
30
  6
Continuous
 62
     0
100
AcDbBlockReference
  2
_OPEN
 10
511.0001068115055
 20
-337.3855890285331
 30
0.0
 41
2.0
 42
2.0
 43
2.0
 50
180.0
  0
MTEXT
  5
836E
330
7E3C
100
AcDbEntity
  8
30
  6
Continuous
 62
     0
100
AcDbMText
 10
709.0001144409027
 20
-332.3855890285331
 30
0.0
 40
8.0
 41
0.0
 71
     5
 72
     1
  1
\A1;396
 73
     1
 44
1.0
1001
ACAD
1000
MTEXTBEGIN
1070
    73
1070
     1
1070
    44
1040
1.0
1070
    74
1070
     0
1000
MTEXTEND
  0
POINT
  5
836F
330
7E3C
100
AcDbEntity
  8
DEFPOINTS
  6
Continuous
 62
     0
100
AcDbPoint
 10
907.0001220703
 20
-312.0241580823661
 30
0.0
  0
POINT
  5
8370
330
7E3C
100
AcDbEntity
  8
DEFPOINTS
  6
Continuous
 62
     0
100
AcDbPoint
 10
511.0001068115055
 20
0.0
 30
0.0
  0
POINT
  5
8371
330
7E3C
100
AcDbEntity
  8
DEFPOINTS
  6
Continuous
 62
     0
100
AcDbPoint
 10
511.0001068115055
 20
-337.3855890285331
 30
0.0
  0
ENDBLK
  5
7E47
330
7E3C
100
AcDbEntity
  8
0
100
AcDbBlockEnd
  0
BLOCK
  5
7E92
330
7E88
100
AcDbEntity
  8
0
100
AcDbBlockBegin
  2
*D43
 70
     1
 10
0.0
 20
0.0
 30
0.0
  3
*D43
  1

  0
LINE
  5
8372
330
7E88
100
AcDbEntity
  8
30
  6
Continuous
 62
     0
100
AcDbLine
 10
907.0001220703
 20
310.0
 30
0.0
 11
907.0001220703
 21
339.3993563182501
 31
0.0
  0
LINE
  5
8373
330
7E88
100
AcDbEntity
  8
30
  6
Continuous
 62
     0
100
AcDbLine
 10
642.0
 20
185.0002441405998
 30
0.0
 11
642.0
 21
339.3993563182501
 31
0.0
  0
LINE
  5
8374
330
7E88
100
AcDbEntity
  8
30
  6
Continuous
 62
     0
100
AcDbLine
 10
905.0001220703
 20
338.8993563182501
 30
0.0
 11
644.0
 21
338.8993563182501
 31
0.0
  0
INSERT
  5
8375
330
7E88
100
AcDbEntity
  8
30
  6
Continuous
 62
     0
100
AcDbBlockReference
  2
_OPEN
 10
907.0001220703
 20
338.8993563182501
 30
0.0
 41
2.0
 42
2.0
 43
2.0
  0
INSERT
  5
8376
330
7E88
100
AcDbEntity
  8
30
  6
Continuous
 62
     0
100
AcDbBlockReference
  2
_OPEN
 10
642.0
 20
338.8993563182501
 30
0.0
 41
2.0
 42
2.0
 43
2.0
 50
180.0
  0
MTEXT
  5
8377
330
7E88
100
AcDbEntity
  8
30
  6
Continuous
 62
     0
100
AcDbMText
 10
774.50006103515
 20
343.8993563182501
 30
0.0
 40
8.0
 41
0.0
 71
     5
 72
     1
  1
\A1;265
 73
     1
 44
1.0
1001
ACAD
1000
MTEXTBEGIN
1070
    73
1070
     1
1070
    44
1040
1.0
1070
    74
1070
     0
1000
MTEXTEND
  0
POINT
  5
8378
330
7E88
100
AcDbEntity
  8
DEFPOINTS
  6
Continuous
 62
     0
100
AcDbPoint
 10
907.0001220703
 20
305.0
 30
0.0
  0
POINT
  5
8379
330
7E88
100
AcDbEntity
  8
DEFPOINTS
  6
Continuous
 62
     0
100
AcDbPoint
 10
642.0
 20
180.0002441405998
 30
0.0
  0
POINT
  5
837A
330
7E88
100
AcDbEntity
  8
DEFPOINTS
  6
Continuous
 62
     0
100
AcDbPoint
 10
642.0
 20
338.8993563182501
 30
0.0
  0
ENDBLK
  5
7E93
330
7E88
100
AcDbEntity
  8
0
100
AcDbBlockEnd
  0
BLOCK
  5
7E9F
330
7E95
100
AcDbEntity
  8
0
100
AcDbBlockBegin
  2
*D44
 70
     1
 10
0.0
 20
0.0
 30
0.0
  3
*D44
  1

  0
LINE
  5
837B
330
7E95
100
AcDbEntity
  8
30
  6
Continuous
 62
     0
100
AcDbLine
 10
907.0001220703
 20
344.3993563182501
 30
0.0
 11
907.0001220703
 21
367.8974730805673
 31
0.0
  0
LINE
  5
837C
330
7E95
100
AcDbEntity
  8
30
  6
Continuous
 62
     0
100
AcDbLine
 10
612.0
 20
185.0002441405998
 30
0.0
 11
612.0
 21
367.8974730805673
 31
0.0
  0
LINE
  5
837D
330
7E95
100
AcDbEntity
  8
30
  6
Continuous
 62
     0
100
AcDbLine
 10
905.0001220703
 20
367.3974730805674
 30
0.0
 11
614.0
 21
367.3974730805674
 31
0.0
  0
INSERT
  5
837E
330
7E95
100
AcDbEntity
  8
30
  6
Continuous
 62
     0
100
AcDbBlockReference
  2
_OPEN
 10
907.0001220703
 20
367.3974730805674
 30
0.0
 41
2.0
 42
2.0
 43
2.0
  0
INSERT
  5
837F
330
7E95
100
AcDbEntity
  8
30
  6
Continuous
 62
     0
100
AcDbBlockReference
  2
_OPEN
 10
612.0
 20
367.3974730805674
 30
0.0
 41
2.0
 42
2.0
 43
2.0
 50
180.0
  0
MTEXT
  5
8380
330
7E95
100
AcDbEntity
  8
30
  6
Continuous
 62
     0
100
AcDbMText
 10
759.5000610351498
 20
372.3974730805674
 30
0.0
 40
8.0
 41
0.0
 71
     5
 72
     1
  1
\A1;295
 73
     1
 44
1.0
1001
ACAD
1000
MTEXTBEGIN
1070
    73
1070
     1
1070
    44
1040
1.0
1070
    74
1070
     0
1000
MTEXTEND
  0
POINT
  5
8381
330
7E95
100
AcDbEntity
  8
DEFPOINTS
  6
Continuous
 62
     0
100
AcDbPoint
 10
907.0001220703
 20
339.3993563182501
 30
0.0
  0
POINT
  5
8382
330
7E95
100
AcDbEntity
  8
DEFPOINTS
  6
Continuous
 62
     0
100
AcDbPoint
 10
612.0
 20
180.0002441405998
 30
0.0
  0
POINT
  5
8383
330
7E95
100
AcDbEntity
  8
DEFPOINTS
  6
Continuous
 62
     0
100
AcDbPoint
 10
612.0
 20
367.3974730805674
 30
0.0
  0
ENDBLK
  5
7EA0
330
7E95
100
AcDbEntity
  8
0
100
AcDbBlockEnd
  0
BLOCK
  5
7EB5
330
7EAB
100
AcDbEntity
  8
0
100
AcDbBlockBegin
  2
*D45
 70
     1
 10
0.0
 20
0.0
 30
0.0
  3
*D45
  1

  0
LINE
  5
8384
330
7EAB
100
AcDbEntity
  8
30
  6
Continuous
 62
     0
100
AcDbLine
 10
907.0001220703
 20
372.3974730805674
 30
0.0
 11
907.0001220703
 21
387.2354856987957
 31
0.0
  0
LINE
  5
8385
330
7EAB
100
AcDbEntity
  8
30
  6
Continuous
 62
     0
100
AcDbLine
 10
582.0
 20
185.0002441405998
 30
0.0
 11
582.0
 21
387.2354856987957
 31
0.0
  0
LINE
  5
8386
330
7EAB
100
AcDbEntity
  8
30
  6
Continuous
 62
     0
100
AcDbLine
 10
905.0001220703
 20
386.7354856987958
 30
0.0
 11
584.0
 21
386.7354856987958
 31
0.0
  0
INSERT
  5
8387
330
7EAB
100
AcDbEntity
  8
30
  6
Continuous
 62
     0
100
AcDbBlockReference
  2
_OPEN
 10
907.0001220703
 20
386.7354856987958
 30
0.0
 41
2.0
 42
2.0
 43
2.0
  0
INSERT
  5
8388
330
7EAB
100
AcDbEntity
  8
30
  6
Continuous
 62
     0
100
AcDbBlockReference
  2
_OPEN
 10
582.0
 20
386.7354856987958
 30
0.0
 41
2.0
 42
2.0
 43
2.0
 50
180.0
  0
MTEXT
  5
8389
330
7EAB
100
AcDbEntity
  8
30
  6
Continuous
 62
     0
100
AcDbMText
 10
744.50006103515
 20
391.7354856987957
 30
0.0
 40
8.0
 41
0.0
 71
     5
 72
     1
  1
\A1;325
 73
     1
 44
1.0
1001
ACAD
1000
MTEXTBEGIN
1070
    73
1070
     1
1070
    44
1040
1.0
1070
    74
1070
     0
1000
MTEXTEND
  0
POINT
  5
838A
330
7EAB
100
AcDbEntity
  8
DEFPOINTS
  6
Continuous
 62
     0
100
AcDbPoint
 10
907.0001220703
 20
367.3974730805674
 30
0.0
  0
POINT
  5
838B
330
7EAB
100
AcDbEntity
  8
DEFPOINTS
  6
Continuous
 62
     0
100
AcDbPoint
 10
582.0
 20
180.0002441405998
 30
0.0
  0
POINT
  5
838C
330
7EAB
100
AcDbEntity
  8
DEFPOINTS
  6
Continuous
 62
     0
100
AcDbPoint
 10
582.0
 20
386.7354856987958
 30
0.0
  0
ENDBLK
  5
7EB6
330
7EAB
100
AcDbEntity
  8
0
100
AcDbBlockEnd
  0
BLOCK
  5
7ECB
330
7EC1
100
AcDbEntity
  8
0
100
AcDbBlockBegin
  2
*D46
 70
     1
 10
0.0
 20
0.0
 30
0.0
  3
*D46
  1

  0
LINE
  5
838D
330
7EC1
100
AcDbEntity
  8
30
  6
Continuous
 62
     0
100
AcDbLine
 10
907.0001220703
 20
391.7354856987957
 30
0.0
 11
907.0001220703
 21
415.7336024611122
 31
0.0
  0
LINE
  5
838E
330
7EC1
100
AcDbEntity
  8
30
  6
Continuous
 62
     0
100
AcDbLine
 10
512.0
 20
185.0002441405998
 30
0.0
 11
512.0
 21
415.7336024611122
 31
0.0
  0
LINE
  5
838F
330
7EC1
100
AcDbEntity
  8
30
  6
Continuous
 62
     0
100
AcDbLine
 10
905.0001220703
 20
415.2336024611122
 30
0.0
 11
514.0
 21
415.2336024611122
 31
0.0
  0
INSERT
  5
8390
330
7EC1
100
AcDbEntity
  8
30
  6
Continuous
 62
     0
100
AcDbBlockReference
  2
_OPEN
 10
907.0001220703
 20
415.2336024611122
 30
0.0
 41
2.0
 42
2.0
 43
2.0
  0
INSERT
  5
8391
330
7EC1
100
AcDbEntity
  8
30
  6
Continuous
 62
     0
100
AcDbBlockReference
  2
_OPEN
 10
512.0
 20
415.2336024611122
 30
0.0
 41
2.0
 42
2.0
 43
2.0
 50
180.0
  0
MTEXT
  5
8392
330
7EC1
100
AcDbEntity
  8
30
  6
Continuous
 62
     0
100
AcDbMText
 10
709.5000610351498
 20
420.2336024611122
 30
0.0
 40
8.0
 41
0.0
 71
     5
 72
     1
  1
\A1;395
 73
     1
 44
1.0
1001
ACAD
1000
MTEXTBEGIN
1070
    73
1070
     1
1070
    44
1040
1.0
1070
    74
1070
     0
1000
MTEXTEND
  0
POINT
  5
8393
330
7EC1
100
AcDbEntity
  8
DEFPOINTS
  6
Continuous
 62
     0
100
AcDbPoint
 10
907.0001220703
 20
386.7354856987958
 30
0.0
  0
POINT
  5
8394
330
7EC1
100
AcDbEntity
  8
DEFPOINTS
  6
Continuous
 62
     0
100
AcDbPoint
 10
512.0
 20
180.0002441405998
 30
0.0
  0
POINT
  5
8395
330
7EC1
100
AcDbEntity
  8
DEFPOINTS
  6
Continuous
 62
     0
100
AcDbPoint
 10
512.0
 20
415.2336024611122
 30
0.0
  0
ENDBLK
  5
7ECC
330
7EC1
100
AcDbEntity
  8
0
100
AcDbBlockEnd
  0
BLOCK
  5
7EFC
330
7EF2
100
AcDbEntity
  8
0
100
AcDbBlockBegin
  2
*D47
 70
     1
 10
0.0
 20
0.0
 30
0.0
  3
*D47
  1

  0
LINE
  5
8396
330
7EF2
100
AcDbEntity
  8
30
  6
Continuous
 62
     0
100
AcDbLine
 10
-110.0
 20
310.0
 30
0.0
 11
-110.0
 21
325.4310626344431
 31
0.0
  0
LINE
  5
8397
330
7EF2
100
AcDbEntity
  8
30
  6
Continuous
 62
     0
100
AcDbLine
 10
110.0
 20
310.0
 30
0.0
 11
110.0
 21
325.4310626344431
 31
0.0
  0
LINE
  5
8398
330
7EF2
100
AcDbEntity
  8
30
  6
Continuous
 62
     0
100
AcDbLine
 10
-108.0
 20
324.9310626344431
 30
0.0
 11
108.0
 21
324.9310626344431
 31
0.0
  0
INSERT
  5
8399
330
7EF2
100
AcDbEntity
  8
30
  6
Continuous
 62
     0
100
AcDbBlockReference
  2
_OPEN
 10
-110.0
 20
324.9310626344431
 30
0.0
 41
2.0
 42
2.0
 43
2.0
 50
180.0
  0
INSERT
  5
839A
330
7EF2
100
AcDbEntity
  8
30
  6
Continuous
 62
     0
100
AcDbBlockReference
  2
_OPEN
 10
110.0
 20
324.9310626344431
 30
0.0
 41
2.0
 42
2.0
 43
2.0
  0
MTEXT
  5
839B
330
7EF2
100
AcDbEntity
  8
30
  6
Continuous
 62
     0
100
AcDbMText
 10
0.0000000000000003
 20
329.9310626344431
 30
0.0
 40
8.0
 41
0.0
 71
     5
 72
     1
  1
\A1;220
 73
     1
 44
1.0
1001
ACAD
1000
MTEXTBEGIN
1070
    73
1070
     1
1070
    44
1040
1.0
1070
    74
1070
     0
1000
MTEXTEND
  0
POINT
  5
839C
330
7EF2
100
AcDbEntity
  8
DEFPOINTS
  6
Continuous
 62
     0
100
AcDbPoint
 10
-110.0
 20
305.0
 30
0.0
  0
POINT
  5
839D
330
7EF2
100
AcDbEntity
  8
DEFPOINTS
  6
Continuous
 62
     0
100
AcDbPoint
 10
110.0
 20
305.0
 30
0.0
  0
POINT
  5
839E
330
7EF2
100
AcDbEntity
  8
DEFPOINTS
  6
Continuous
 62
     0
100
AcDbPoint
 10
110.0
 20
324.9310626344431
 30
0.0
  0
ENDBLK
  5
7EFD
330
7EF2
100
AcDbEntity
  8
0
100
AcDbBlockEnd
  0
BLOCK
  5
809F
330
8095
100
AcDbEntity
  8
0
100
AcDbBlockBegin
  2
*D48
 70
     1
 10
0.0
 20
0.0
 30
0.0
  3
*D48
  1

  0
LINE
  5
839F
330
8095
100
AcDbEntity
  8
30
  6
Continuous
 62
     0
100
AcDbLine
 10
945.0001220702999
 20
-431.0
 30
0.0
 11
973.2375933803833
 21
-431.0
 31
0.0
  0
LINE
  5
83A0
330
8095
100
AcDbEntity
  8
30
  6
Continuous
 62
     0
100
AcDbLine
 10
918.0001220702999
 20
-451.0
 30
0.0
 11
973.2375933803833
 21
-451.0
 31
0.0
  0
LINE
  5
83A1
330
8095
100
AcDbEntity
  8
30
  6
Continuous
 62
     0
100
AcDbLine
 10
972.7375933803832
 20
-433.0
 30
0.0
 11
972.7375933803832
 21
-449.0
 31
0.0
  0
INSERT
  5
83A2
330
8095
100
AcDbEntity
  8
30
  6
Continuous
 62
     0
100
AcDbBlockReference
  2
_OPEN
 10
972.7375933803832
 20
-431.0
 30
0.0
 41
2.0
 42
2.0
 43
2.0
 50
90.0
  0
INSERT
  5
83A3
330
8095
100
AcDbEntity
  8
30
  6
Continuous
 62
     0
100
AcDbBlockReference
  2
_OPEN
 10
972.7375933803832
 20
-451.0
 30
0.0
 41
2.0
 42
2.0
 43
2.0
 50
270.0
  0
MTEXT
  5
83A4
330
8095
100
AcDbEntity
  8
30
  6
Continuous
 62
     0
100
AcDbMText
 10
967.7375933803832
 20
-440.9999999999998
 30
0.0
 40
8.0
 41
0.0
 71
     5
 72
     1
  1
\A1;20
 11
0.0000000000000001
 21
1.0
 31
0.0
 73
     1
 44
1.0
1001
ACAD
1000
MTEXTBEGIN
1070
    73
1070
     1
1070
    44
1040
1.0
1070
    74
1070
     0
1000
MTEXTEND
  0
POINT
  5
83A5
330
8095
100
AcDbEntity
  8
DEFPOINTS
  6
Continuous
 62
     0
100
AcDbPoint
 10
940.0001220703
 20
-431.0
 30
0.0
  0
POINT
  5
83A6
330
8095
100
AcDbEntity
  8
DEFPOINTS
  6
Continuous
 62
     0
100
AcDbPoint
 10
913.0001220703
 20
-451.0
 30
0.0
  0
POINT
  5
83A7
330
8095
100
AcDbEntity
  8
DEFPOINTS
  6
Continuous
 62
     0
100
AcDbPoint
 10
972.7375933803832
 20
-451.0
 30
0.0
  0
ENDBLK
  5
80A0
330
8095
100
AcDbEntity
  8
0
100
AcDbBlockEnd
  0
BLOCK
  5
80AD
330
80A3
100
AcDbEntity
  8
0
100
AcDbBlockBegin
  2
*D49
 70
     1
 10
0.0
 20
0.0
 30
0.0
  3
*D49
  1

  0
LINE
  5
83A8
330
80A3
100
AcDbEntity
  8
30
  6
Continuous
 62
     0
100
AcDbLine
 10
950.0001220703
 20
-431.0
 30
0.0
 11
997.5858625891252
 21
-431.0
 31
0.0
  0
LINE
  5
83A9
330
80A3
100
AcDbEntity
  8
30
  6
Continuous
 62
     0
100
AcDbLine
 10
912.0001220703001
 20
-601.0
 30
0.0
 11
997.5858625891252
 21
-601.0
 31
0.0
  0
LINE
  5
83AA
330
80A3
100
AcDbEntity
  8
30
  6
Continuous
 62
     0
100
AcDbLine
 10
997.0858625891251
 20
-433.0
 30
0.0
 11
997.0858625891251
 21
-599.0
 31
0.0
  0
INSERT
  5
83AB
330
80A3
100
AcDbEntity
  8
30
  6
Continuous
 62
     0
100
AcDbBlockReference
  2
_OPEN
 10
997.0858625891251
 20
-431.0
 30
0.0
 41
2.0
 42
2.0
 43
2.0
 50
90.0
  0
INSERT
  5
83AC
330
80A3
100
AcDbEntity
  8
30
  6
Continuous
 62
     0
100
AcDbBlockReference
  2
_OPEN
 10
997.0858625891251
 20
-601.0
 30
0.0
 41
2.0
 42
2.0
 43
2.0
 50
270.0
  0
MTEXT
  5
83AD
330
80A3
100
AcDbEntity
  8
30
  6
Continuous
 62
     0
100
AcDbMText
 10
992.0858625891254
 20
-515.9999999999999
 30
0.0
 40
8.0
 41
0.0
 71
     5
 72
     1
  1
\A1;170
 11
0.0000000000000001
 21
1.0
 31
0.0
 73
     1
 44
1.0
1001
ACAD
1000
MTEXTBEGIN
1070
    73
1070
     1
1070
    44
1040
1.0
1070
    74
1070
     0
1000
MTEXTEND
  0
POINT
  5
83AE
330
80A3
100
AcDbEntity
  8
DEFPOINTS
  6
Continuous
 62
     0
100
AcDbPoint
 10
945.0001220702999
 20
-431.0
 30
0.0
  0
POINT
  5
83AF
330
80A3
100
AcDbEntity
  8
DEFPOINTS
  6
Continuous
 62
     0
100
AcDbPoint
 10
907.0001220703
 20
-601.0
 30
0.0
  0
POINT
  5
83B0
330
80A3
100
AcDbEntity
  8
DEFPOINTS
  6
Continuous
 62
     0
100
AcDbPoint
 10
997.0858625891251
 20
-601.0
 30
0.0
  0
ENDBLK
  5
80AE
330
80A3
100
AcDbEntity
  8
0
100
AcDbBlockEnd
  0
BLOCK
  5
80BA
330
80B0
100
AcDbEntity
  8
0
100
AcDbBlockBegin
  2
*D50
 70
     1
 10
0.0
 20
0.0
 30
0.0
  3
*D50
  1

  0
LINE
  5
83B1
330
80B0
100
AcDbEntity
  8
30
  6
Continuous
 62
     0
100
AcDbLine
 10
917.0001220702999
 20
-601.0
 30
0.0
 11
997.5858625891254
 21
-601.0
 31
0.0
  0
LINE
  5
83B2
330
80B0
100
AcDbEntity
  8
30
  6
Continuous
 62
     0
100
AcDbLine
 10
945.0001220702999
 20
-791.0
 30
0.0
 11
997.5858625891252
 21
-791.0
 31
0.0
  0
LINE
  5
83B3
330
80B0
100
AcDbEntity
  8
30
  6
Continuous
 62
     0
100
AcDbLine
 10
997.0858625891251
 20
-603.0
 30
0.0
 11
997.0858625891251
 21
-789.0
 31
0.0
  0
INSERT
  5
83B4
330
80B0
100
AcDbEntity
  8
30
  6
Continuous
 62
     0
100
AcDbBlockReference
  2
_OPEN
 10
997.0858625891251
 20
-601.0
 30
0.0
 41
2.0
 42
2.0
 43
2.0
 50
90.0
  0
INSERT
  5
83B5
330
80B0
100
AcDbEntity
  8
30
  6
Continuous
 62
     0
100
AcDbBlockReference
  2
_OPEN
 10
997.0858625891251
 20
-791.0
 30
0.0
 41
2.0
 42
2.0
 43
2.0
 50
270.0
  0
MTEXT
  5
83B6
330
80B0
100
AcDbEntity
  8
30
  6
Continuous
 62
     0
100
AcDbMText
 10
992.0858625891254
 20
-695.9999999999999
 30
0.0
 40
8.0
 41
0.0
 71
     5
 72
     1
  1
\A1;190
 11
0.0000000000000001
 21
1.0
 31
0.0
 73
     1
 44
1.0
1001
ACAD
1000
MTEXTBEGIN
1070
    73
1070
     1
1070
    44
1040
1.0
1070
    74
1070
     0
1000
MTEXTEND
  0
POINT
  5
83B7
330
80B0
100
AcDbEntity
  8
DEFPOINTS
  6
Continuous
 62
     0
100
AcDbPoint
 10
912.0001220703001
 20
-601.0
 30
0.0
  0
POINT
  5
83B8
330
80B0
100
AcDbEntity
  8
DEFPOINTS
  6
Continuous
 62
     0
100
AcDbPoint
 10
940.0001220703
 20
-791.0
 30
0.0
  0
POINT
  5
83B9
330
80B0
100
AcDbEntity
  8
DEFPOINTS
  6
Continuous
 62
     0
100
AcDbPoint
 10
997.0858625891251
 20
-791.0
 30
0.0
  0
ENDBLK
  5
80BB
330
80B0
100
AcDbEntity
  8
0
100
AcDbBlockEnd
  0
BLOCK
  5
80D0
330
80C6
100
AcDbEntity
  8
0
100
AcDbBlockBegin
  2
*D51
 70
     1
 10
0.0
 20
0.0
 30
0.0
  3
*D51
  1

  0
LINE
  5
83BA
330
80C6
100
AcDbEntity
  8
30
  6
Continuous
 62
     0
100
AcDbLine
 10
950.0001220703
 20
-791.0
 30
0.0
 11
969.2364119032683
 21
-791.0
 31
0.0
  0
LINE
  5
83BB
330
80C6
100
AcDbEntity
  8
30
  6
Continuous
 62
     0
100
AcDbLine
 10
918.0001220702999
 20
-771.0
 30
0.0
 11
969.2364119032683
 21
-771.0
 31
0.0
  0
LINE
  5
83BC
330
80C6
100
AcDbEntity
  8
30
  6
Continuous
 62
     0
100
AcDbLine
 10
968.7364119032684
 20
-789.0
 30
0.0
 11
968.7364119032684
 21
-773.0
 31
0.0
  0
INSERT
  5
83BD
330
80C6
100
AcDbEntity
  8
30
  6
Continuous
 62
     0
100
AcDbBlockReference
  2
_OPEN
 10
968.7364119032684
 20
-791.0
 30
0.0
 41
2.0
 42
2.0
 43
2.0
 50
270.0
  0
INSERT
  5
83BE
330
80C6
100
AcDbEntity
  8
30
  6
Continuous
 62
     0
100
AcDbBlockReference
  2
_OPEN
 10
968.7364119032684
 20
-771.0
 30
0.0
 41
2.0
 42
2.0
 43
2.0
 50
90.0
  0
MTEXT
  5
83BF
330
80C6
100
AcDbEntity
  8
30
  6
Continuous
 62
     0
100
AcDbMText
 10
963.7364119032683
 20
-780.9999999999996
 30
0.0
 40
8.0
 41
0.0
 71
     5
 72
     1
  1
\A1;20
 11
0.0000000000000001
 21
1.0
 31
0.0
 73
     1
 44
1.0
1001
ACAD
1000
MTEXTBEGIN
1070
    73
1070
     1
1070
    44
1040
1.0
1070
    74
1070
     0
1000
MTEXTEND
  0
POINT
  5
83C0
330
80C6
100
AcDbEntity
  8
DEFPOINTS
  6
Continuous
 62
     0
100
AcDbPoint
 10
945.0001220702999
 20
-791.0
 30
0.0
  0
POINT
  5
83C1
330
80C6
100
AcDbEntity
  8
DEFPOINTS
  6
Continuous
 62
     0
100
AcDbPoint
 10
913.0001220703
 20
-771.0
 30
0.0
  0
POINT
  5
83C2
330
80C6
100
AcDbEntity
  8
DEFPOINTS
  6
Continuous
 62
     0
100
AcDbPoint
 10
968.7364119032684
 20
-771.0
 30
0.0
  0
ENDBLK
  5
80D1
330
80C6
100
AcDbEntity
  8
0
100
AcDbBlockEnd
  0
BLOCK
  5
8101
330
80F7
100
AcDbEntity
  8
0
100
AcDbBlockBegin
  2
*D52
 70
     1
 10
0.0
 20
0.0
 30
0.0
  3
*D52
  1

  0
LINE
  5
83C3
330
80F7
100
AcDbEntity
  8
30
  6
Continuous
 62
     0
100
AcDbLine
 10
907.0001220703
 20
-826.0
 30
0.0
 11
907.0001220703
 21
-894.1351367055514
 31
0.0
  0
LINE
  5
83C4
330
80F7
100
AcDbEntity
  8
30
  6
Continuous
 62
     0
100
AcDbLine
 10
692.0
 20
-859.0
 30
0.0
 11
692.0
 21
-894.1351367055514
 31
0.0
  0
LINE
  5
83C5
330
80F7
100
AcDbEntity
  8
30
  6
Continuous
 62
     0
100
AcDbLine
 10
905.0001220703
 20
-893.6351367055513
 30
0.0
 11
694.0
 21
-893.6351367055513
 31
0.0
  0
INSERT
  5
83C6
330
80F7
100
AcDbEntity
  8
30
  6
Continuous
 62
     0
100
AcDbBlockReference
  2
_OPEN
 10
907.0001220703
 20
-893.6351367055513
 30
0.0
 41
2.0
 42
2.0
 43
2.0
  0
INSERT
  5
83C7
330
80F7
100
AcDbEntity
  8
30
  6
Continuous
 62
     0
100
AcDbBlockReference
  2
_OPEN
 10
692.0
 20
-893.6351367055513
 30
0.0
 41
2.0
 42
2.0
 43
2.0
 50
180.0
  0
MTEXT
  5
83C8
330
80F7
100
AcDbEntity
  8
30
  6
Continuous
 62
     0
100
AcDbMText
 10
799.50006103515
 20
-888.6351367055512
 30
0.0
 40
8.0
 41
0.0
 71
     5
 72
     1
  1
\A1;215
 73
     1
 44
1.0
1001
ACAD
1000
MTEXTBEGIN
1070
    73
1070
     1
1070
    44
1040
1.0
1070
    74
1070
     0
1000
MTEXTEND
  0
POINT
  5
83C9
330
80F7
100
AcDbEntity
  8
DEFPOINTS
  6
Continuous
 62
     0
100
AcDbPoint
 10
907.0001220703
 20
-821.0
 30
0.0
  0
POINT
  5
83CA
330
80F7
100
AcDbEntity
  8
DEFPOINTS
  6
Continuous
 62
     0
100
AcDbPoint
 10
692.0
 20
-854.0
 30
0.0
  0
POINT
  5
83CB
330
80F7
100
AcDbEntity
  8
DEFPOINTS
  6
Continuous
 62
     0
100
AcDbPoint
 10
692.0
 20
-893.6351367055513
 30
0.0
  0
ENDBLK
  5
8102
330
80F7
100
AcDbEntity
  8
0
100
AcDbBlockEnd
  0
BLOCK
  5
81A3
330
8199
100
AcDbEntity
  8
0
100
AcDbBlockBegin
  2
*D53
 70
     1
 10
0.0
 20
0.0
 30
0.0
  3
*D53
  1

  0
LINE
  5
83CC
330
8199
100
AcDbEntity
  8
30
  6
Continuous
 62
     0
100
AcDbLine
 10
-112.5
 20
-410.9997558593
 30
0.0
 11
-112.5
 21
-347.1537165487632
 31
0.0
  0
LINE
  5
83CD
330
8199
100
AcDbEntity
  8
30
  6
Continuous
 62
     0
100
AcDbLine
 10
112.5004882812993
 20
-410.9997558593
 30
0.0
 11
112.5004882812993
 21
-347.1537165487632
 31
0.0
  0
LINE
  5
83CE
330
8199
100
AcDbEntity
  8
30
  6
Continuous
 62
     0
100
AcDbLine
 10
-110.4999999999999
 20
-347.6537165487632
 30
0.0
 11
110.5004882812993
 21
-347.6537165487632
 31
0.0
  0
INSERT
  5
83CF
330
8199
100
AcDbEntity
  8
30
  6
Continuous
 62
     0
100
AcDbBlockReference
  2
_OPEN
 10
-112.5
 20
-347.6537165487632
 30
0.0
 41
2.0
 42
2.0
 43
2.0
 50
180.0
  0
INSERT
  5
83D0
330
8199
100
AcDbEntity
  8
30
  6
Continuous
 62
     0
100
AcDbBlockReference
  2
_OPEN
 10
112.5004882812993
 20
-347.6537165487632
 30
0.0
 41
2.0
 42
2.0
 43
2.0
  0
MTEXT
  5
83D1
330
8199
100
AcDbEntity
  8
30
  6
Continuous
 62
     0
100
AcDbMText
 10
0.0002441406496561
 20
-342.6537165487633
 30
0.0
 40
8.0
 41
0.0
 71
     5
 72
     1
  1
\A1;225
 73
     1
 44
1.0
1001
ACAD
1000
MTEXTBEGIN
1070
    73
1070
     1
1070
    44
1040
1.0
1070
    74
1070
     0
1000
MTEXTEND
  0
POINT
  5
83D2
330
8199
100
AcDbEntity
  8
DEFPOINTS
  6
Continuous
 62
     0
100
AcDbPoint
 10
-112.5
 20
-415.9997558593
 30
0.0
  0
POINT
  5
83D3
330
8199
100
AcDbEntity
  8
DEFPOINTS
  6
Continuous
 62
     0
100
AcDbPoint
 10
112.5004882812993
 20
-415.9997558593
 30
0.0
  0
POINT
  5
83D4
330
8199
100
AcDbEntity
  8
DEFPOINTS
  6
Continuous
 62
     0
100
AcDbPoint
 10
112.5004882812993
 20
-347.6537165487632
 30
0.0
  0
ENDBLK
  5
81A4
330
8199
100
AcDbEntity
  8
0
100
AcDbBlockEnd
  0
BLOCK
  5
8217
330
820E
100
AcDbEntity
  8
0
100
AcDbBlockBegin
  2
*D54
 70
     1
 10
0.0
 20
0.0
 30
0.0
  3
*D54
  1

  0
LINE
  5
8589
330
820E
100
AcDbEntity
  8
30
  6
Continuous
 62
     0
100
AcDbLine
 10
915.6381174847906
 20
-74.83351783717751
 30
0.0
 11
934.5901235511012
 21
-109.5942920650954
 31
0.0
  0
MTEXT
  5
858A
330
820E
100
AcDbEntity
  8
30
  6
Continuous
 62
     0
100
AcDbMText
 10
926.250989851441
 20
-83.85388036476962
 30
0.0
 40
8.0
 41
0.0
 71
     5
 72
     1
  1
\A1;\U+22058.2
 11
0.4786882893221323
 21
-0.877984921092527
 31
0.0
 73
     1
 44
1.0
1001
ACAD
1000
MTEXTBEGIN
1070
    73
1070
     1
1070
    44
1040
1.0
1070
    74
1070
     0
1000
MTEXTEND
  0
INSERT
  5
858B
330
820E
100
AcDbEntity
  8
30
  6
Continuous
 62
     0
100
AcDbBlockReference
  2
_OPEN
 10
935.5475001297456
 20
-111.3502619072804
 30
0.0
 41
2.0
 42
2.0
 43
2.0
 50
298.5997671178639
  0
LINE
  5
858C
330
820E
100
AcDbEntity
  8
30
  6
Continuous
 62
     0
100
AcDbLine
 10
937.4201220702994
 20
-114.9499999999999
 30
0.0
 11
937.6001220702997
 21
-114.9499999999999
 31
0.0
  0
LINE
  5
858D
330
820E
100
AcDbEntity
  8
30
  6
Continuous
 62
     0
100
AcDbLine
 10
937.5101220702996
 20
-115.04
 30
0.0
 11
937.5101220702996
 21
-114.86
 31
0.0
  0
POINT
  5
858E
330
820E
100
AcDbEntity
  8
DEFPOINTS
  6
Continuous
 62
     0
100
AcDbPoint
 10
935.5475001297456
 20
-111.3502619072804
 30
0.0
  0
POINT
  5
858F
330
820E
100
AcDbEntity
  8
DEFPOINTS
  6
Continuous
 62
     0
100
AcDbPoint
 10
939.4727440108534
 20
-118.5497380927194
 30
0.0
  0
ENDBLK
  5
8218
330
820E
100
AcDbEntity
  8
0
100
AcDbBlockEnd
  0
BLOCK
  5
8435
330
842B
100
AcDbEntity
  8
0
100
AcDbBlockBegin
  2
*D55
 70
     1
 10
0.0
 20
0.0
 30
0.0
  3
*D55
  1

  0
LINE
  5
84A6
330
842B
100
AcDbEntity
  8
30
  6
Continuous
 62
     0
100
AcDbLine
 10
937.0101220703004
 20
-108.9499999999999
 30
0.0
 11
937.0101220703004
 21
-45.81859550944318
 31
0.0
  0
LINE
  5
84A7
330
842B
100
AcDbEntity
  8
30
  6
Continuous
 62
     0
100
AcDbLine
 10
907.0001220703
 20
-57.5
 30
0.0
 11
907.0001220703
 21
-45.81859550944318
 31
0.0
  0
LINE
  5
84A8
330
842B
100
AcDbEntity
  8
30
  6
Continuous
 62
     0
100
AcDbLine
 10
935.0101220703002
 20
-46.31859550944319
 30
0.0
 11
909.0001220702999
 21
-46.31859550944319
 31
0.0
  0
INSERT
  5
84A9
330
842B
100
AcDbEntity
  8
30
  6
Continuous
 62
     0
100
AcDbBlockReference
  2
_OPEN
 10
937.0101220703004
 20
-46.31859550944319
 30
0.0
 41
2.0
 42
2.0
 43
2.0
  0
INSERT
  5
84AA
330
842B
100
AcDbEntity
  8
30
  6
Continuous
 62
     0
100
AcDbBlockReference
  2
_OPEN
 10
907.0001220703
 20
-46.31859550944319
 30
0.0
 41
2.0
 42
2.0
 43
2.0
 50
180.0
  0
MTEXT
  5
84AB
330
842B
100
AcDbEntity
  8
30
  6
Continuous
 62
     0
100
AcDbMText
 10
922.0051220703
 20
-41.31859550944319
 30
0.0
 40
8.0
 41
0.0
 71
     5
 72
     1
  1
\A1;30
 73
     1
 44
1.0
1001
ACAD
1000
MTEXTBEGIN
1070
    73
1070
     1
1070
    44
1040
1.0
1070
    74
1070
     0
1000
MTEXTEND
  0
POINT
  5
84AC
330
842B
100
AcDbEntity
  8
DEFPOINTS
  6
Continuous
 62
     0
100
AcDbPoint
 10
937.0101220703004
 20
-113.9499999999999
 30
0.0
  0
POINT
  5
84AD
330
842B
100
AcDbEntity
  8
DEFPOINTS
  6
Continuous
 62
     0
100
AcDbPoint
 10
907.0001220703
 20
-62.5
 30
0.0
  0
POINT
  5
84AE
330
842B
100
AcDbEntity
  8
DEFPOINTS
  6
Continuous
 62
     0
100
AcDbPoint
 10
907.0001220703
 20
-46.31859550944319
 30
0.0
  0
ENDBLK
  5
8436
330
842B
100
AcDbEntity
  8
0
100
AcDbBlockEnd
  0
BLOCK
  5
84BA
330
84B0
100
AcDbEntity
  8
0
100
AcDbBlockBegin
  2
*D56
 70
     1
 10
0.0
 20
0.0
 30
0.0
  3
*D56
  1

  0
LINE
  5
84DE
330
84B0
100
AcDbEntity
  8
30
  6
Continuous
 62
     0
100
AcDbLine
 10
942.5101220702996
 20
-115.04
 30
0.0
 11
954.473859504109
 21
-115.04
 31
0.0
  0
LINE
  5
84DF
330
84B0
100
AcDbEntity
  8
30
  6
Continuous
 62
     0
100
AcDbLine
 10
912.0001220703001
 20
-0.0000000000000014
 30
0.0
 11
954.473859504109
 21
-0.0000000000000134
 31
0.0
  0
LINE
  5
84E0
330
84B0
100
AcDbEntity
  8
30
  6
Continuous
 62
     0
100
AcDbLine
 10
953.973859504109
 20
-113.04
 30
0.0
 11
953.973859504109
 21
-2.000000000000013
 31
0.0
  0
INSERT
  5
84E1
330
84B0
100
AcDbEntity
  8
30
  6
Continuous
 62
     0
100
AcDbBlockReference
  2
_OPEN
 10
953.973859504109
 20
-115.04
 30
0.0
 41
2.0
 42
2.0
 43
2.0
 50
270.0
  0
INSERT
  5
84E2
330
84B0
100
AcDbEntity
  8
30
  6
Continuous
 62
     0
100
AcDbBlockReference
  2
_OPEN
 10
953.973859504109
 20
-0.0000000000000133
 30
0.0
 41
2.0
 42
2.0
 43
2.0
 50
90.0
  0
MTEXT
  5
84E3
330
84B0
100
AcDbEntity
  8
30
  6
Continuous
 62
     0
100
AcDbMText
 10
948.9738595041087
 20
-57.51999999999985
 30
0.0
 40
8.0
 41
0.0
 71
     5
 72
     1
  1
\A1;115
 11
0.0000000000000001
 21
1.0
 31
0.0
 73
     1
 44
1.0
1001
ACAD
1000
MTEXTBEGIN
1070
    73
1070
     1
1070
    44
1040
1.0
1070
    74
1070
     0
1000
MTEXTEND
  0
POINT
  5
84E4
330
84B0
100
AcDbEntity
  8
DEFPOINTS
  6
Continuous
 62
     0
100
AcDbPoint
 10
937.5101220702994
 20
-115.04
 30
0.0
  0
POINT
  5
84E5
330
84B0
100
AcDbEntity
  8
DEFPOINTS
  6
Continuous
 62
     0
100
AcDbPoint
 10
907.0001220703
 20
0.0
 30
0.0
  0
POINT
  5
84E6
330
84B0
100
AcDbEntity
  8
DEFPOINTS
  6
Continuous
 62
     0
100
AcDbPoint
 10
953.973859504109
 20
-0.0000000000000133
 30
0.0
  0
ENDBLK
  5
84BB
330
84B0
100
AcDbEntity
  8
0
100
AcDbBlockEnd
  0
BLOCK
  5
8552
330
8548
100
AcDbEntity
  8
0
100
AcDbBlockBegin
  2
*D57
 70
     1
 10
0.0
 20
0.0
 30
0.0
  3
*D57
  1

  0
LINE
  5
85B9
330
8548
100
AcDbEntity
  8
30
  6
Continuous
 62
     0
100
AcDbLine
 10
-99.99999999999978
 20
544.3374709078494
 30
0.0
 11
-99.99999999999978
 21
340.1765144355703
 31
0.0
  0
LINE
  5
85BA
330
8548
100
AcDbEntity
  8
30
  6
Continuous
 62
     0
100
AcDbLine
 10
100.0
 20
544.3374709078494
 30
0.0
 11
100.0
 21
340.1765144355703
 31
0.0
  0
LINE
  5
85BB
330
8548
100
AcDbEntity
  8
30
  6
Continuous
 62
     0
100
AcDbLine
 10
-97.99999999999979
 20
340.6765144355703
 30
0.0
 11
97.99999999999998
 21
340.6765144355703
 31
0.0
  0
INSERT
  5
85BC
330
8548
100
AcDbEntity
  8
30
  6
Continuous
 62
     0
100
AcDbBlockReference
  2
_OPEN
 10
-99.99999999999978
 20
340.6765144355703
 30
0.0
 41
2.0
 42
2.0
 43
2.0
 50
180.0
  0
INSERT
  5
85BD
330
8548
100
AcDbEntity
  8
30
  6
Continuous
 62
     0
100
AcDbBlockReference
  2
_OPEN
 10
100.0
 20
340.6765144355703
 30
0.0
 41
2.0
 42
2.0
 43
2.0
  0
MTEXT
  5
85BE
330
8548
100
AcDbEntity
  8
30
  6
Continuous
 62
     0
100
AcDbMText
 10
0.0000000000000927
 20
345.6765144355703
 30
0.0
 40
8.0
 41
0.0
 71
     5
 72
     1
  1
\A1;200
 73
     1
 44
1.0
1001
ACAD
1000
MTEXTBEGIN
1070
    73
1070
     1
1070
    44
1040
1.0
1070
    74
1070
     0
1000
MTEXTEND
  0
POINT
  5
85BF
330
8548
100
AcDbEntity
  8
DEFPOINTS
  6
Continuous
 62
     0
100
AcDbPoint
 10
-99.99999999999978
 20
549.3374709078494
 30
0.0
  0
POINT
  5
85C0
330
8548
100
AcDbEntity
  8
DEFPOINTS
  6
Continuous
 62
     0
100
AcDbPoint
 10
100.0
 20
549.3374709078494
 30
0.0
  0
POINT
  5
85C1
330
8548
100
AcDbEntity
  8
DEFPOINTS
  6
Continuous
 62
     0
100
AcDbPoint
 10
100.0
 20
340.6765144355703
 30
0.0
  0
ENDBLK
  5
8553
330
8548
100
AcDbEntity
  8
0
100
AcDbBlockEnd
  0
BLOCK
  5
856F
330
8565
100
AcDbEntity
  8
0
100
AcDbBlockBegin
  2
*D58
 70
     1
 10
0.0
 20
0.0
 30
0.0
  3
*D58
  1

  0
LINE
  5
8566
330
8565
100
AcDbEntity
  8
30
  6
Continuous
 62
     0
100
AcDbLine
 10
-100.0
 20
-876.0
 30
0.0
 11
-100.0
 21
-921.0745464661782
 31
0.0
  0
LINE
  5
8567
330
8565
100
AcDbEntity
  8
30
  6
Continuous
 62
     0
100
AcDbLine
 10
100.0
 20
-876.0
 30
0.0
 11
100.0
 21
-921.0745464661782
 31
0.0
  0
LINE
  5
8568
330
8565
100
AcDbEntity
  8
30
  6
Continuous
 62
     0
100
AcDbLine
 10
-97.99999999999998
 20
-920.5745464661779
 30
0.0
 11
98.0
 21
-920.5745464661779
 31
0.0
  0
INSERT
  5
8569
330
8565
100
AcDbEntity
  8
30
  6
Continuous
 62
     0
100
AcDbBlockReference
  2
_OPEN
 10
-100.0
 20
-920.5745464661779
 30
0.0
 41
2.0
 42
2.0
 43
2.0
 50
180.0
  0
INSERT
  5
856A
330
8565
100
AcDbEntity
  8
30
  6
Continuous
 62
     0
100
AcDbBlockReference
  2
_OPEN
 10
100.0
 20
-920.5745464661779
 30
0.0
 41
2.0
 42
2.0
 43
2.0
  0
MTEXT
  5
856B
330
8565
100
AcDbEntity
  8
30
  6
Continuous
 62
     0
100
AcDbMText
 10
0.0000000000000074
 20
-915.5745464661782
 30
0.0
 40
8.0
 41
0.0
 71
     5
 72
     1
  1
\A1;200
 73
     1
 44
1.0
1001
ACAD
1000
MTEXTBEGIN
1070
    73
1070
     1
1070
    44
1040
1.0
1070
    74
1070
     0
1000
MTEXTEND
  0
POINT
  5
856C
330
8565
100
AcDbEntity
  8
DEFPOINTS
  6
Continuous
 62
     0
100
AcDbPoint
 10
-100.0
 20
-871.0
 30
0.0
  0
POINT
  5
856D
330
8565
100
AcDbEntity
  8
DEFPOINTS
  6
Continuous
 62
     0
100
AcDbPoint
 10
100.0
 20
-871.0
 30
0.0
  0
POINT
  5
856E
330
8565
100
AcDbEntity
  8
DEFPOINTS
  6
Continuous
 62
     0
100
AcDbPoint
 10
100.0
 20
-920.5745464661779
 30
0.0
  0
ENDBLK
  5
8570
330
8565
100
AcDbEntity
  8
0
100
AcDbBlockEnd
  0
ENDSEC
  0
SECTION
  2
ENTITIES
  0
LINE
  5
B5
330
1E
100
AcDbEntity
  8
16
100
AcDbLine
 10
257.6361914121166
 20
0.0000000000000107
 30
0.0
 11
-145.0
 21
0.0
 31
0.0
  0
MTEXT
  5
BF3
330
1E
100
AcDbEntity
  8
24
  6
Continuous
100
AcDbMText
 10
142.1181906098743
 20
177.5
 30
0.0
 40
3.0
 41
0.0
 71
     1
 72
     1
  1
\A1;
 73
     1
 44
1.0
1001
ACAD
1000
MTEXTBEGIN
1070
    73
1070
     1
1070
    44
1040
1.0
1070
    74
1070
     0
1000
MTEXTEND
  0
LINE
  5
1C9A
330
1E
100
AcDbEntity
  8
16
100
AcDbLine
 10
0.0
 20
442.5196003617956
 30
0.0
 11
0.0
 21
620.5196003617957
 31
0.0
  0
LINE
  5
1C9B
330
1E
100
AcDbEntity
  8
16
100
AcDbLine
 10
1139.622771828753
 20
0.0
 30
0.0
 11
387.0
 21
0.0
 31
0.0
  0
LINE
  5
2260
330
1E
100
AcDbEntity
  8
16
100
AcDbLine
 10
171.0431517840577
 20
-601.0
 30
0.0
 11
-166.0
 21
-601.0
 31
0.0
  0
LINE
  5
2261
330
1E
100
AcDbEntity
  8
16
100
AcDbLine
 10
0.0
 20
-791.5926135610889
 30
0.0
 11
0.0
 21
-375.8062147299115
 31
0.0
  0
MTEXT
  5
5D8A
330
1E
100
AcDbEntity
  8
19
  6
Continuous
100
AcDbMText
 10
685.9781581780007
 20
690.4067160988287
 30
0.0
 40
7.0
 41
94.0
 71
     1
 72
     5
  1
XS1600ND 3P DO
  7
STANDARD1
 73
     1
 44
1.0
1001
ACAD
1000
MTEXTBEGIN
1070
    73
1070
     1
1070
    44
1040
1.0
1070
    74
1070
     0
1000
MTEXTEND
  0
LINE
  5
7514
330
1E
100
AcDbEntity
  8
16
100
AcDbLine
 10
0.0
 20
-225.5943258971377
 30
0.0
 11
0.0
 21
223.9297673754971
 31
0.0
  0
LWPOLYLINE
  5
768F
330
1E
100
AcDbEntity
  8
18
100
AcDbPolyline
 90
        5
 70
     0
 43
0.0
 10
150.0004882812993
 20
-401.0
 10
150.0004882812993
 20
-821.0
 10
-150.0
 20
-821.0
 10
-150.0
 20
-401.0
 10
150.0004882812993
 20
-401.0
  0
LWPOLYLINE
  5
7690
330
1E
100
AcDbEntity
  8
24
  6
Continuous
 62
     2
100
AcDbPolyline
 90
        2
 70
     0
 43
0.0
 10
-168.1430664062999
 20
-815.0
 10
161.0063476562993
 20
-815.0
  0
LWPOLYLINE
  5
7691
330
1E
100
AcDbEntity
  8
24
  6
Continuous
 62
     2
100
AcDbPolyline
 90
        2
 70
     0
 43
0.0
 10
-168.1430664062999
 20
-827.0
 10
161.0063476562993
 20
-827.0
  0
LWPOLYLINE
  5
7694
330
1E
100
AcDbEntity
  8
12
100
AcDbPolyline
 90
        2
 70
     0
 43
0.0
 10
-112.5
 20
-811.0
 10
-112.5
 20
-771.0
  0
CIRCLE
  5
7695
330
1E
100
AcDbEntity
  8
12
100
AcDbCircle
 10
-112.5
 20
-791.0
 30
0.0
 40
6.0
  0
LWPOLYLINE
  5
7696
330
1E
100
AcDbEntity
  8
12
100
AcDbPolyline
 90
        2
 70
     0
 43
0.0
 10
-132.4999999999999
 20
-791.0
 10
-92.5
 20
-791.0
  0
LWPOLYLINE
  5
7697
330
1E
100
AcDbEntity
  8
12
100
AcDbPolyline
 90
        2
 70
     0
 43
0.0
 10
112.5004882812993
 20
-811.0
 10
112.5004882812993
 20
-771.0
  0
CIRCLE
  5
769A
330
1E
100
AcDbEntity
  8
12
100
AcDbCircle
 10
112.5004882812993
 20
-791.0
 30
0.0
 40
6.0
  0
LWPOLYLINE
  5
769B
330
1E
100
AcDbEntity
  8
12
100
AcDbPolyline
 90
        2
 70
     0
 43
0.0
 10
92.50048828129934
 20
-791.0
 10
132.5004882812993
 20
-791.0
  0
LWPOLYLINE
  5
769C
330
1E
100
AcDbEntity
  8
24
  6
Continuous
 62
     2
100
AcDbPolyline
 90
        4
 70
     0
 43
0.0
 10
-174.3190917968999
 20
-417.5306396484999
 10
-170.3847311652896
 20
-407.0
 10
161.6026918040564
 20
-407.0
 10
162.9079589843993
 20
-420.1326904296998
  0
CIRCLE
  5
76A1
330
1E
100
AcDbEntity
  8
12
100
AcDbCircle
 10
-112.5
 20
-431.0
 30
0.0
 40
6.0
  0
LWPOLYLINE
  5
76A2
330
1E
100
AcDbEntity
  8
12
100
AcDbPolyline
 90
        2
 70
     0
 43
0.0
 10
-132.4999999999999
 20
-431.0
 10
-92.5
 20
-431.0
  0
CIRCLE
  5
76A4
330
1E
100
AcDbEntity
  8
12
100
AcDbCircle
 10
112.5004882812993
 20
-431.0
 30
0.0
 40
6.0
  0
LWPOLYLINE
  5
76A5
330
1E
100
AcDbEntity
  8
12
100
AcDbPolyline
 90
        2
 70
     0
 43
0.0
 10
92.50048828129934
 20
-431.0
 10
132.5004882812993
 20
-431.0
  0
LINE
  5
76C7
330
1E
100
AcDbEntity
  8
12
100
AcDbLine
 10
112.5004882812993
 20
-415.9997558593
 30
0.0
 11
112.5004882812993
 21
-446.0
 31
0.0
  0
LINE
  5
76C9
330
1E
100
AcDbEntity
  8
12
100
AcDbLine
 10
-112.5
 20
-415.9997558593
 30
0.0
 11
-112.5
 21
-446.0
 31
0.0
  0
CIRCLE
  5
787D
330
1E
100
AcDbEntity
  8
18
100
AcDbCircle
 10
401.2315250447239
 20
8.845360839738534
 30
0.0
 40
20.00000000000003
  0
LWPOLYLINE
  5
787E
330
1E
100
AcDbEntity
  8
18
100
AcDbPolyline
 90
        4
 70
     1
 43
0.0
 10
489.7912597656
 20
17.22119140619997
 10
488.4304199217998
 20
-8.742797851600016
 10
452.4801025389997
 20
-6.858886718800022
 10
453.8409423827999
 20
19.10559082029998
  0
LWPOLYLINE
  5
787F
330
1E
100
AcDbEntity
  8
10
  6
Continuous
100
AcDbPolyline
 90
        3
 70
     0
 43
0.0
 10
630.9999997764996
 20
29.39387638889934
 42
0.1010205125138069
 10
625.0
 20
0.0
 42
0.1010204964585539
 10
630.9999979079198
 20
-29.39387200239071
  0
LWPOLYLINE
  5
7880
330
1E
100
AcDbEntity
  8
10
  6
Continuous
100
AcDbPolyline
 90
       21
 70
     0
 43
0.0
 10
784.0
 20
200.0004882811999
 10
647.0
 20
40.00048828119997
 10
647.0
 20
-50.0
 10
712.0
 20
-50.0
 10
712.0
 20
-170.0
 10
650.0
 20
-170.0
 10
647.0
 20
-170.0
 10
647.0
 20
-220.0
 10
907.0001220703
 20
-220.0
 10
907.0001220703
 20
-137.5
 10
907.0001220703
 20
-62.5
 10
907.0001220703
 20
22.5
 10
907.0001220703
 20
97.5
 10
907.0001220703
 20
200.0004882811999
 10
745.0
 20
200.0004882811999
 10
650.0
 20
200.0004882811999
 10
650.0
 20
170.0002441406
 10
642.0
 20
170.0002441406
 10
642.0
 20
-140.0
 10
650.0
 20
-140.0
 10
650.0
 20
-170.0
  0
LWPOLYLINE
  5
7881
330
1E
100
AcDbEntity
  8
12
  6
DASHED
100
AcDbPolyline
 90
        4
 70
     0
 43
0.0
 10
688.0
 20
-226.0
 10
688.0
 20
-238.0
 10
696.0
 20
-238.0
 10
696.0
 20
-226.0
  0
LWPOLYLINE
  5
7882
330
1E
100
AcDbEntity
  8
12
  6
DASHED
100
AcDbPolyline
 90
        4
 70
     0
 43
0.0
 10
701.0
 20
-226.0
 10
701.0
 20
-236.0
 10
683.0
 20
-236.0
 10
683.0
 20
-226.0
  0
LWPOLYLINE
  5
7883
330
1E
100
AcDbEntity
  8
12
  6
DASHED
100
AcDbPolyline
 90
        7
 70
     0
 43
0.0
 10
722.0
 20
-220.0
 10
722.0
 20
-270.0
 10
716.0
 20
-270.0
 10
716.0
 20
-232.0
 42
0.4142135623730951
 10
710.0
 20
-226.0
 10
672.0
 20
-226.0
 10
672.0
 20
-220.0
  0
LWPOLYLINE
  5
7884
330
1E
100
AcDbEntity
  8
12
  6
DASHED
100
AcDbPolyline
 90
        2
 70
     0
 43
0.0
 10
692.0
 20
-204.7546386719
 10
692.0
 20
-253.0
  0
LWPOLYLINE
  5
7885
330
1E
100
AcDbEntity
  8
12
  6
DASHED
100
AcDbPolyline
 90
        2
 70
     0
 43
0.0
 10
674.9972045268
 20
-226.0
 42
0.0002357521657335
 10
675.0009765625
 20
-226.0000017785312
  0
LWPOLYLINE
  5
7886
330
1E
100
AcDbEntity
  8
10
  6
Continuous
100
AcDbPolyline
 90
        3
 70
     0
 43
0.0
 10
631.0
 20
-29.39404296880002
 10
631.0
 20
-47.5
 10
642.0
 20
-47.5
  0
LWPOLYLINE
  5
7887
330
1E
100
AcDbEntity
  8
12
  6
DASHED
100
AcDbPolyline
 90
        4
 70
     0
 43
0.0
 10
907.0001220703
 20
-220.0
 10
957.0001220703
 20
-220.0
 10
957.0001220703
 20
-214.0
 10
919.0001220702999
 20
-214.0
  0
LWPOLYLINE
  5
7888
330
1E
100
AcDbEntity
  8
12
  6
DASHED
100
AcDbPolyline
 90
        2
 70
     0
 43
0.0
 10
888.1151123047001
 20
-190.0
 10
940.0001220703
 20
-190.0
  0
LWPOLYLINE
  5
7889
330
1E
100
AcDbEntity
  8
12
  6
DASHED
100
AcDbPolyline
 90
        3
 70
     0
 43
0.0
 10
913.0001220703
 20
-208.0
 10
913.0001220703
 20
-170.0
 10
907.0001220703
 20
-170.0
  0
LWPOLYLINE
  5
788A
330
1E
100
AcDbEntity
  8
12
  6
DASHED
100
AcDbPolyline
 90
        4
 70
     0
 43
0.0
 10
913.0001220703
 20
-199.0
 10
923.0001220703
 20
-199.0
 10
923.0001220703
 20
-181.0
 10
913.0001220703
 20
-181.0
  0
LWPOLYLINE
  5
788B
330
1E
100
AcDbEntity
  8
12
  6
DASHED
100
AcDbPolyline
 90
        4
 70
     0
 43
0.0
 10
913.0001220703
 20
-194.0
 10
925.0001220703
 20
-194.0
 10
925.0001220703
 20
-186.0
 10
913.0001220703
 20
-186.0
  0
LWPOLYLINE
  5
788C
330
1E
100
AcDbEntity
  8
12
  6
DASHED
100
AcDbPolyline
 90
        2
 70
     0
 43
0.0
 10
-919.0001220702999
 20
-214.0
 42
0.4142135623730951
 10
-913.0001220703
 20
-208.0
210
0.0
220
0.0
230
-1.0
  0
LWPOLYLINE
  5
788D
330
1E
100
AcDbEntity
  8
12
  6
DASHED
100
AcDbPolyline
 90
        2
 70
     0
 43
0.0
 10
-913.0001220703
 20
-172.9972045268999
 42
0.0002357521594807
 10
-913.000123848831
 20
-173.0009765624999
210
0.0
220
0.0
230
-1.0
  0
LWPOLYLINE
  5
788E
330
1E
100
AcDbEntity
  8
0
  6
Continuous
100
AcDbPolyline
 90
        4
 70
     0
 43
0.0
 10
907.0001220703
 20
-62.5
 10
992.0001220702999
 20
-62.5
 10
992.0001220702999
 20
-137.5
 10
907.0001220703
 20
-137.5
  0
CIRCLE
  5
788F
330
1E
100
AcDbEntity
  8
24
  6
CONTINOUS
100
AcDbCircle
 10
1022.0001220703
 20
-75.0
 30
0.0
 40
6.0
  0
LWPOLYLINE
  5
7890
330
1E
100
AcDbEntity
  8
24
  6
CONTINOUS
100
AcDbPolyline
 90
        2
 70
     0
 43
0.0
 10
1022.0001220703
 20
-62.5
 10
1022.0001220703
 20
-137.5
  0
CIRCLE
  5
7891
330
1E
100
AcDbEntity
  8
24
  6
CONTINOUS
100
AcDbCircle
 10
977.0001220702999
 20
-75.0
 30
0.0
 40
6.0
  0
LWPOLYLINE
  5
7892
330
1E
100
AcDbEntity
  8
24
  6
CONTINOUS
100
AcDbPolyline
 90
        2
 70
     0
 43
0.0
 10
977.0001220702999
 20
-62.5
 10
977.0001220702999
 20
-137.5
  0
LWPOLYLINE
  5
7893
330
1E
100
AcDbEntity
  8
0
  6
Continuous
100
AcDbPolyline
 90
        4
 70
     0
 43
0.0
 10
1002.0001220703
 20
-137.5
 10
1037.0001220703
 20
-137.5
 10
1037.0001220703
 20
-62.5
 10
1002.0001220703
 20
-62.5
  0
LWPOLYLINE
  5
7894
330
1E
100
AcDbEntity
  8
24
  6
CONTINOUS
100
AcDbPolyline
 90
        2
 70
     0
 43
0.0
 10
962.0001220703001
 20
-125.0
 10
992.0001220702999
 20
-125.0
  0
CIRCLE
  5
7895
330
1E
100
AcDbEntity
  8
24
  6
CONTINOUS
100
AcDbCircle
 10
977.0001220702999
 20
-125.0
 30
0.0
 40
6.0
  0
CIRCLE
  5
7896
330
1E
100
AcDbEntity
  8
24
  6
CONTINOUS
100
AcDbCircle
 10
977.0001220702999
 20
-100.0
 30
0.0
 40
6.0
  0
CIRCLE
  5
7897
330
1E
100
AcDbEntity
  8
24
  6
CONTINOUS
100
AcDbCircle
 10
1022.0001220703
 20
-125.0
 30
0.0
 40
6.0
  0
CIRCLE
  5
7899
330
1E
100
AcDbEntity
  8
24
  6
CONTINOUS
100
AcDbCircle
 10
1022.0001220703
 20
-100.0
 30
0.0
 40
6.0
  0
LWPOLYLINE
  5
789A
330
1E
100
AcDbEntity
  8
24
  6
CONTINOUS
100
AcDbPolyline
 90
        2
 70
     0
 43
0.0
 10
962.0001220703001
 20
-75.0
 10
992.0001220702999
 20
-75.0
  0
LWPOLYLINE
  5
789C
330
1E
100
AcDbEntity
  8
10
  6
Continuous
100
AcDbPolyline
 90
        4
 70
     0
 43
0.0
 10
803.0
 20
280.0
 10
822.0001220703
 20
280.0
 10
822.0001220703
 20
225.0
 10
803.0
 20
225.0
  0
LWPOLYLINE
  5
789D
330
1E
100
AcDbEntity
  8
10
  6
Continuous
100
AcDbPolyline
 90
        5
 70
     0
 43
0.0
 10
803.0
 20
265.0
 10
785.0
 20
265.0
 10
785.0
 20
305.0
 10
907.0001220703
 20
305.0
 10
907.0001220703
 20
200.0
  0
LWPOLYLINE
  5
789E
330
1E
100
AcDbEntity
  8
10
  6
Continuous
100
AcDbPolyline
 90
        4
 70
     0
 43
0.0
 10
783.0
 20
200.0
 10
803.0
 20
220.0
 10
803.0
 20
295.0
 10
907.0001220703
 20
295.0
  0
LWPOLYLINE
  5
789F
330
1E
100
AcDbEntity
  8
10
  6
Continuous
100
AcDbPolyline
 90
        3
 70
     0
 43
0.0
 10
785.0
 20
295.0
 10
798.0
 20
295.0
 10
798.0
 20
265.0
  0
LWPOLYLINE
  5
78A0
330
1E
100
AcDbEntity
  8
18
100
AcDbPolyline
 90
        6
 70
     0
 43
0.0
 10
558.814453125
 20
41.26660156249999
 10
585.6098632811997
 20
27.80029296869997
 10
619.4384765625
 20
15.48779296869997
 10
628.3310546875
 20
39.91943359369997
 10
594.5024414061997
 20
52.232421875
 10
565.3198242186999
 20
59.14013671869998
  0
LWPOLYLINE
  5
78A2
330
1E
100
AcDbEntity
  8
18
100
AcDbPolyline
 90
        2
 70
     0
 43
0.0
 10
564.4082031249999
 20
226.6342773436999
 10
642.0
 20
60.23791503899996
  0
LWPOLYLINE
  5
78A3
330
1E
100
AcDbEntity
  8
18
100
AcDbPolyline
 90
        2
 70
     0
 43
0.0
 10
546.7353515624998
 20
218.3931884764998
 10
642.0
 20
14.0974121094
  0
LWPOLYLINE
  5
78A4
330
1E
100
AcDbEntity
  8
10
  6
Continuous
100
AcDbPolyline
 90
        5
 70
     0
 43
0.0
 10
530.3546142577999
 20
200.0004882811999
 10
520.0
 20
200.0004882811999
 10
520.0
 20
170.0002441406
 10
512.0
 20
170.0002441406
 10
512.0
 20
86.91271972649998
  0
LWPOLYLINE
  5
78A6
330
1E
100
AcDbEntity
  8
18
100
AcDbPolyline
 90
        2
 70
     0
 43
0.0
 10
381.1528324663996
 20
9.897010487999976
 42
0.0077576782792663
 10
380.9992675780383
 20
0.0
  0
LWPOLYLINE
  5
78A7
330
1E
100
AcDbEntity
  8
18
100
AcDbPolyline
 90
        2
 70
     0
 43
0.0
 10
453.8409423827999
 20
19.10559082029998
 10
423.9136962889999
 20
17.17919921869997
  0
LWPOLYLINE
  5
78A8
330
1E
100
AcDbEntity
  8
18
100
AcDbPolyline
 90
        2
 70
     0
 43
0.0
 10
452.4801025389997
 20
-6.858886718800022
 10
422.9183349609
 20
-1.815307617200004
  0
LWPOLYLINE
  5
78A9
330
1E
100
AcDbEntity
  8
18
100
AcDbPolyline
 90
        2
 70
     0
 43
0.0
 10
417.7001092584211
 20
20.19359252023082
 42
0.2638042091158015
 10
423.9137676649463
 20
17.17993441838165
  0
LWPOLYLINE
  5
78AA
330
1E
100
AcDbEntity
  8
18
100
AcDbPolyline
 90
        2
 70
     0
 43
0.0
 10
422.9183420501263
 20
-1.814654085380425
 42
0.2638043047502554
 10
416.4237168056088
 20
-4.162325050143181
  0
CIRCLE
  5
78AB
330
1E
100
AcDbEntity
  8
18
100
AcDbCircle
 10
541.1922638803428
 20
57.80214617441991
 30
0.0
 40
20.00000000000003
  0
LWPOLYLINE
  5
78AC
330
1E
100
AcDbEntity
  8
18
100
AcDbPolyline
 90
        2
 70
     0
 43
0.0
 10
560.259163027285
 20
63.83952848801801
 42
0.2638042091192741
 10
565.3201964974185
 20
59.14084503812773
  0
LWPOLYLINE
  5
78AD
330
1E
100
AcDbEntity
  8
30
  6
Continuous
100
AcDbPolyline
 90
        2
 70
     0
 43
0.0
 10
522.3982485929
 20
64.64178854190004
 42
0.087489044355794
 10
511.0001068115052
 20
0.0
  0
LWPOLYLINE
  5
78AE
330
1E
100
AcDbEntity
  8
18
100
AcDbPolyline
 90
        2
 70
     0
 43
0.0
 10
558.8147508045872
 20
41.26727681804186
 42
0.2638043047467738
 10
551.9175165506426
 20
40.92104615506172
  0
LWPOLYLINE
  5
78AF
330
1E
100
AcDbEntity
  8
18
100
AcDbPolyline
 90
        2
 70
     0
 43
0.0
 10
564.4079589842997
 20
226.6341552734
 10
546.7351074217998
 20
218.3930664061999
  0
LWPOLYLINE
  5
78B0
330
1E
100
AcDbEntity
  8
10
  6
Continuous
100
AcDbPolyline
 90
        5
 70
     0
 43
0.0
 10
629.4328613281
 20
200.0004882811999
 10
620.0
 20
200.0004882811999
 10
620.0
 20
170.0002441406
 10
612.0
 20
170.0002441406
 10
612.0
 20
86.91271972649998
  0
LWPOLYLINE
  5
78B1
330
1E
100
AcDbEntity
  8
10
  6
Continuous
100
AcDbPolyline
 90
        5
 70
     0
 43
0.0
 10
600.2922363280998
 20
200.0004882811999
 10
590.0
 20
200.0004882811999
 10
590.0
 20
170.0002441406
 10
582.0
 20
170.0002441406
 10
582.0
 20
86.91271972649998
  0
LWPOLYLINE
  5
78B2
330
1E
100
AcDbEntity
  8
10
  6
Continuous
100
AcDbPolyline
 90
        3
 70
     0
 43
0.0
 10
631.0
 20
29.39404296869998
 10
631.0
 20
47.5
 10
642.0
 20
47.5
  0
LWPOLYLINE
  5
78B3
330
1E
100
AcDbEntity
  8
10
  6
Continuous
100
AcDbPolyline
 90
        2
 70
     0
 43
0.0
 10
597.5083007811997
 20
31.39892578119997
 10
622.8012695311997
 20
21.47021484369996
  0
LWPOLYLINE
  5
78B4
330
1E
100
AcDbEntity
  8
30
  6
Continuous
100
AcDbPolyline
 90
        2
 70
     0
 43
0.0
 10
597.5733659669002
 20
37.28015475920006
 42
0.0874890443557359
 10
590.9998397826427
 20
0.0
  0
LWPOLYLINE
  5
78B5
330
1E
100
AcDbEntity
  8
18
100
AcDbPolyline
 90
        2
 70
     0
 43
0.0
 10
624.2903764969999
 20
20.55957790530622
 42
0.0879559986137034
 10
622.8017597680841
 20
21.4712760480761
  0
LWPOLYLINE
  5
78B6
330
1E
100
AcDbEntity
  8
18
100
AcDbPolyline
 90
        2
 70
     0
 43
0.0
 10
627.189453125
 20
17.98974609369996
 10
624.2905273436997
 20
20.55908203119996
  0
LWPOLYLINE
  5
78B7
330
1E
100
AcDbEntity
  8
10
  6
Continuous
100
AcDbPolyline
 90
        2
 70
     0
 43
0.0
 10
627.0615234375
 20
33.17529296869997
 10
601.3037109375
 20
41.82763671869998
  0
LWPOLYLINE
  5
78B8
330
1E
100
AcDbEntity
  8
18
100
AcDbPolyline
 90
        2
 70
     0
 43
0.0
 10
594.5024414061997
 20
52.232421875
 10
585.6098632811997
 20
27.80029296869997
  0
LWPOLYLINE
  5
78B9
330
1E
100
AcDbEntity
  8
10
  6
Continuous
100
AcDbPolyline
 90
        2
 70
     0
 43
0.0
 10
596.3593876069999
 20
33.94479158839998
 42
0.4069108977780548
 10
597.5079596827058
 20
31.39904485301576
  0
LWPOLYLINE
  5
78BA
330
1E
100
AcDbEntity
  8
10
  6
Continuous
100
AcDbPolyline
 90
        2
 70
     0
 43
0.0
 10
601.3038422059
 20
41.82753673339994
 42
0.4069135725242379
 10
598.7875998257614
 20
40.61566134867756
  0
LWPOLYLINE
  5
78BB
330
1E
100
AcDbEntity
  8
10
  6
Continuous
100
AcDbPolyline
 90
        2
 70
     0
 43
0.0
 10
598.7875976561999
 20
40.61572265619997
 10
596.359375
 20
33.94482421869998
  0
LWPOLYLINE
  5
78BC
330
1E
100
AcDbEntity
  8
18
100
AcDbPolyline
 90
        2
 70
     0
 43
0.0
 10
631.0
 20
32.9755859375
 10
628.7880859374999
 20
32.916015625
  0
LWPOLYLINE
  5
78BD
330
1E
100
AcDbEntity
  8
18
100
AcDbPolyline
 90
        2
 70
     0
 43
0.0
 10
627.0616305721042
 20
33.17517365970684
 42
0.0879559385459796
 10
628.7880042319259
 20
32.91671059116402
  0
LWPOLYLINE
  5
78BE
330
1E
100
AcDbEntity
  8
10
  6
Continuous
100
AcDbPolyline
 90
        6
 70
     0
 43
0.0
 10
745.0
 20
200.0
 10
745.0
 20
225.0
 10
755.0
 20
235.0
 10
755.0
 20
265.0
 10
785.0
 20
265.0
 10
755.0
 20
235.0
  0
LWPOLYLINE
  5
78BF
330
1E
100
AcDbEntity
  8
10
  6
Continuous
100
AcDbPolyline
 90
        5
 70
     0
 43
0.0
 10
892.0001220702996
 20
208.0
 10
892.0001220702996
 20
285.0
 10
875.0001220703
 20
285.0
 10
852.0001220702999
 20
215.0
 10
852.0001220702999
 20
200.0
  0
LWPOLYLINE
  5
78C0
330
1E
100
AcDbEntity
  8
10
  6
Continuous
100
AcDbPolyline
 90
        4
 70
     0
 43
0.0
 10
873.3572998047
 20
280.0
 10
829.0001220703
 20
280.0
 10
829.0001220703
 20
225.0
 10
855.2860107422
 20
225.0
  0
LWPOLYLINE
  5
78C1
330
1E
100
AcDbEntity
  8
24
  6
CONTINOUS
100
AcDbPolyline
 90
        2
 70
     0
 43
0.0
 10
1007.000122070299
 20
85.0
 10
1058.586497997648
 20
85.0
  0
LWPOLYLINE
  5
78C2
330
1E
100
AcDbEntity
  8
24
  6
CONTINOUS
100
AcDbPolyline
 90
        2
 70
     0
 43
0.0
 10
892.0001220702996
 20
60.0
 10
1057.9818115234
 20
60.0
  0
LWPOLYLINE
  5
78C3
330
1E
100
AcDbEntity
  8
21
100
AcDbPolyline
 90
        4
 70
     0
 43
0.0
 10
907.0001220703
 20
22.5
 10
992.0001220702999
 20
22.5
 10
992.0001220702999
 20
97.5
 10
907.0001220703
 20
97.5
  0
CIRCLE
  5
78C4
330
1E
100
AcDbEntity
  8
24
  6
CONTINOUS
100
AcDbCircle
 10
1022.0001220703
 20
60.0
 30
0.0
 40
6.0
  0
LWPOLYLINE
  5
78C5
330
1E
100
AcDbEntity
  8
24
  6
CONTINOUS
100
AcDbPolyline
 90
        2
 70
     0
 43
0.0
 10
1022.0001220703
 20
97.5
 10
1022.0001220703
 20
22.5
  0
CIRCLE
  5
78C6
330
1E
100
AcDbEntity
  8
24
  6
CONTINOUS
100
AcDbCircle
 10
977.0001220702999
 20
60.0
 30
0.0
 40
6.0
  0
LWPOLYLINE
  5
78C7
330
1E
100
AcDbEntity
  8
24
  6
CONTINOUS
100
AcDbPolyline
 90
        2
 70
     0
 43
0.0
 10
977.0001220702999
 20
97.5
 10
977.0001220702999
 20
22.5
  0
LWPOLYLINE
  5
78C8
330
1E
100
AcDbEntity
  8
0
  6
Continuous
100
AcDbPolyline
 90
        4
 70
     0
 43
0.0
 10
1002.0001220703
 20
97.5
 10
1037.0001220703
 20
97.5
 10
1037.0001220703
 20
22.5
 10
1002.0001220703
 20
22.5
  0
LWPOLYLINE
  5
78C9
330
1E
100
AcDbEntity
  8
24
  6
CONTINOUS
100
AcDbPolyline
 90
        2
 70
     0
 43
0.0
 10
962.0001220703001
 20
35.0
 10
992.0001220702999
 20
35.0
  0
CIRCLE
  5
78CA
330
1E
100
AcDbEntity
  8
24
  6
CONTINOUS
100
AcDbCircle
 10
977.0001220702999
 20
35.0
 30
0.0
 40
6.0
  0
CIRCLE
  5
78CB
330
1E
100
AcDbEntity
  8
24
  6
CONTINOUS
100
AcDbCircle
 10
1022.0001220703
 20
35.0
 30
0.0
 40
6.0
  0
LWPOLYLINE
  5
78CC
330
1E
100
AcDbEntity
  8
24
  6
CONTINOUS
100
AcDbPolyline
 90
        2
 70
     0
 43
0.0
 10
962.0001220703001
 20
85.0
 10
992.0001220702999
 20
85.0
  0
CIRCLE
  5
78CD
330
1E
100
AcDbEntity
  8
24
  6
CONTINOUS
100
AcDbCircle
 10
977.0001220702999
 20
85.0
 30
0.0
 40
6.0
  0
CIRCLE
  5
78CE
330
1E
100
AcDbEntity
  8
24
  6
CONTINOUS
100
AcDbCircle
 10
1022.0001220703
 20
85.0
 30
0.0
 40
6.0
  0
LWPOLYLINE
  5
78CF
330
1E
100
AcDbEntity
  8
12
  6
DASHED
100
AcDbPolyline
 90
        7
 70
     0
 43
0.0
 10
907.0001220703
 20
200.0004882811999
 10
957.0001220703
 20
200.0004882811999
 10
957.0001220703
 20
194.0004882811999
 10
919.0001220702999
 20
194.0004882811999
 42
0.4142135623730951
 10
913.0001220703
 20
188.0004882811999
 10
913.0001220703
 20
150.0
 10
907.0001220703
 20
150.0
  0
LWPOLYLINE
  5
78D0
330
1E
100
AcDbEntity
  8
12
  6
DASHED
100
AcDbPolyline
 90
        2
 70
     0
 43
0.0
 10
888.1151123047001
 20
170.0
 10
940.0001220703
 20
170.0
  0
LWPOLYLINE
  5
78D1
330
1E
100
AcDbEntity
  8
12
  6
DASHED
100
AcDbPolyline
 90
        4
 70
     0
 43
0.0
 10
913.0001220703
 20
174.0
 10
925.0001220703
 20
174.0
 10
925.0001220703
 20
166.0
 10
913.0001220703
 20
166.0
  0
LWPOLYLINE
  5
78D2
330
1E
100
AcDbEntity
  8
12
  6
DASHED
100
AcDbPolyline
 90
        4
 70
     0
 43
0.0
 10
923.0001220703
 20
174.0002441406
 10
925.0001220703
 20
174.0002441406
 10
925.0001220703
 20
166.0002441405999
 10
923.0001220703
 20
166.0002441405999
  0
LWPOLYLINE
  5
78D3
330
1E
100
AcDbEntity
  8
12
  6
DASHED
100
AcDbPolyline
 90
        4
 70
     0
 43
0.0
 10
913.0001220703
 20
179.0002441405999
 10
923.0001220703
 20
179.0002441405999
 10
923.0001220703
 20
161.0002441405999
 10
913.0001220703
 20
161.0002441405999
  0
LWPOLYLINE
  5
78D4
330
1E
100
AcDbEntity
  8
12
  6
DASHED
100
AcDbPolyline
 90
        2
 70
     0
 43
0.0
 10
913.0001220703
 20
152.9972045268
 42
0.0002357521657335
 10
913.0001238488317
 20
153.0009765625
  0
LWPOLYLINE
  5
78D5
330
1E
100
AcDbEntity
  8
10
  6
Continuous
100
AcDbPolyline
 90
        2
 70
     0
 43
0.0
 10
852.0001220702999
 20
208.0
 10
907.0001220703
 20
208.0
  0
LWPOLYLINE
  5
78D6
330
1E
100
AcDbEntity
  8
10
  6
Continuous
100
AcDbPolyline
 90
        2
 70
     0
 43
0.0
 10
822.0001220703
 20
260.4999999999999
 10
829.0001220703
 20
260.4999999999999
  0
LWPOLYLINE
  5
78D7
330
1E
100
AcDbEntity
  8
10
  6
Continuous
100
AcDbPolyline
 90
        2
 70
     0
 43
0.0
 10
822.0001220703
 20
244.4999999999999
 10
829.0001220703
 20
244.4999999999999
  0
LWPOLYLINE
  5
791E
330
1E
100
AcDbEntity
  8
10
  6
Continuous
100
AcDbPolyline
 90
        4
 70
     1
 43
0.0
 10
39.0
 20
43.0
 10
39.0
 20
-52.0
 10
-39.0
 20
-52.0
 10
-39.0
 20
43.0
  0
LWPOLYLINE
  5
791F
330
1E
100
AcDbEntity
  8
10
  6
Continuous
100
AcDbPolyline
 90
        8
 70
     1
 43
0.0
 10
150.0004882812993
 20
208.0
 10
110.0
 20
208.0
 10
110.0
 20
305.0
 10
-110.0
 20
305.0
 10
-110.0
 20
208.0
 10
-149.9999694824199
 20
208.0
 10
-149.9999694824199
 20
-220.0
 10
150.0004882812993
 20
-220.0
  0
LWPOLYLINE
  5
7921
330
1E
100
AcDbEntity
  8
10
  6
Continuous
100
AcDbPolyline
 90
        4
 70
     0
 43
0.0
 10
-104.9999389648399
 20
200.0
 10
-104.9999389648399
 20
-170.0
 10
105.0004882812993
 20
-170.0
 10
105.0004882812993
 20
200.0
  0
LWPOLYLINE
  5
7922
330
1E
100
AcDbEntity
  8
10
  6
Continuous
100
AcDbPolyline
 90
        2
 70
     0
 43
0.0
 10
105.0004882812993
 20
-140.0
 10
-104.9999389648399
 20
-140.0
  0
LWPOLYLINE
  5
7923
330
1E
100
AcDbEntity
  8
12
  6
DASHED
100
AcDbPolyline
 90
        2
 70
     0
 43
0.0
 10
-35.0
 20
-139.0
 10
-35.0
 20
-169.0
  0
LWPOLYLINE
  5
7924
330
1E
100
AcDbEntity
  8
12
  6
DASHED
100
AcDbPolyline
 90
        2
 70
     0
 43
0.0
 10
-112.49993896484
 20
-205.0
 10
-112.49993896484
 20
-175.0
  0
CIRCLE
  5
7925
330
1E
100
AcDbEntity
  8
12
  6
DASHED
100
AcDbCircle
 10
-112.49993896484
 20
-190.0
 30
0.0
 40
6.0
  0
LWPOLYLINE
  5
7926
330
1E
100
AcDbEntity
  8
12
  6
DASHED
100
AcDbPolyline
 90
        2
 70
     0
 43
0.0
 10
-127.4999694824199
 20
-190.0
 10
-97.49993896483999
 20
-190.0
  0
LWPOLYLINE
  5
7927
330
1E
100
AcDbEntity
  8
12
  6
DASHED
100
AcDbPolyline
 90
        2
 70
     0
 43
0.0
 10
-50.0
 20
-154.0
 10
-20.0
 20
-154.0
  0
CIRCLE
  5
7928
330
1E
100
AcDbEntity
  8
12
  6
DASHED
100
AcDbCircle
 10
-35.0
 20
-154.0
 30
0.0
 40
8.5
  0
LWPOLYLINE
  5
7929
330
1E
100
AcDbEntity
  8
12
  6
DASHED
100
AcDbPolyline
 90
        2
 70
     0
 43
0.0
 10
35.0
 20
-139.0
 10
35.0
 20
-169.0
  0
LWPOLYLINE
  5
792A
330
1E
100
AcDbEntity
  8
12
  6
DASHED
100
AcDbPolyline
 90
        2
 70
     0
 43
0.0
 10
97.50045776371916
 20
-190.0
 10
127.5004882812993
 20
-190.0
  0
LWPOLYLINE
  5
792B
330
1E
100
AcDbEntity
  8
12
  6
DASHED
100
AcDbPolyline
 90
        2
 70
     0
 43
0.0
 10
112.5004882812993
 20
-205.0
 10
112.5004882812993
 20
-175.0
  0
CIRCLE
  5
792C
330
1E
100
AcDbEntity
  8
12
  6
DASHED
100
AcDbCircle
 10
112.5004882812993
 20
-190.0
 30
0.0
 40
6.0
  0
CIRCLE
  5
792D
330
1E
100
AcDbEntity
  8
12
  6
DASHED
100
AcDbCircle
 10
35.0
 20
-154.0
 30
0.0
 40
8.5
  0
LWPOLYLINE
  5
792E
330
1E
100
AcDbEntity
  8
12
  6
DASHED
100
AcDbPolyline
 90
        2
 70
     0
 43
0.0
 10
20.0
 20
-154.0
 10
50.0
 20
-154.0
  0
LWPOLYLINE
  5
792F
330
1E
100
AcDbEntity
  8
10
  6
Continuous
100
AcDbPolyline
 90
        2
 70
     0
 43
0.0
 10
-149.9999694824199
 20
200.0
 10
150.0004882812993
 20
200.0
  0
LWPOLYLINE
  5
7931
330
1E
100
AcDbEntity
  8
10
  6
Continuous
100
AcDbPolyline
 90
        4
 70
     1
 43
0.0
 10
22.5
 20
27.5
 10
-22.5
 20
27.5
 10
-22.5
 20
-27.5
 10
22.5
 20
-27.5
  0
CIRCLE
  5
7932
330
1E
100
AcDbEntity
  8
12
  6
DASHED
100
AcDbCircle
 10
-35.0
 20
183.9997558593998
 30
0.0
 40
8.5
  0
LWPOLYLINE
  5
7933
330
1E
100
AcDbEntity
  8
12
  6
DASHED
100
AcDbPolyline
 90
        2
 70
     0
 43
0.0
 10
-35.0
 20
199.0
 10
-35.0
 20
168.9997558594
  0
LWPOLYLINE
  5
7934
330
1E
100
AcDbEntity
  8
12
  6
DASHED
100
AcDbPolyline
 90
        2
 70
     0
 43
0.0
 10
-112.49993896484
 20
154.9997558594
 10
-112.49993896484
 20
184.9997558592998
  0
CIRCLE
  5
7935
330
1E
100
AcDbEntity
  8
12
  6
DASHED
100
AcDbCircle
 10
-112.49993896484
 20
169.9997558594
 30
0.0
 40
6.0
  0
LWPOLYLINE
  5
7936
330
1E
100
AcDbEntity
  8
10
  6
Continuous
100
AcDbPolyline
 90
        2
 70
     0
 43
0.0
 10
-110.0
 20
208.0
 10
-110.0
 20
200.0
  0
LWPOLYLINE
  5
7937
330
1E
100
AcDbEntity
  8
12
  6
DASHED
100
AcDbPolyline
 90
        2
 70
     0
 43
0.0
 10
-50.0
 20
183.9997558593998
 10
-20.0
 20
183.9997558593998
  0
LWPOLYLINE
  5
7938
330
1E
100
AcDbEntity
  8
12
  6
DASHED
100
AcDbPolyline
 90
        2
 70
     0
 43
0.0
 10
97.50045776371916
 20
169.9997558594
 10
127.5004882812993
 20
169.9997558594
  0
LWPOLYLINE
  5
7939
330
1E
100
AcDbEntity
  8
12
  6
DASHED
100
AcDbPolyline
 90
        2
 70
     0
 43
0.0
 10
35.0
 20
199.0
 10
35.0
 20
168.9997558594
  0
CIRCLE
  5
793A
330
1E
100
AcDbEntity
  8
12
  6
DASHED
100
AcDbCircle
 10
35.0
 20
183.9997558593998
 30
0.0
 40
8.5
  0
LWPOLYLINE
  5
793B
330
1E
100
AcDbEntity
  8
12
  6
DASHED
100
AcDbPolyline
 90
        2
 70
     0
 43
0.0
 10
20.0
 20
183.9997558593998
 10
50.0
 20
183.9997558593998
  0
LWPOLYLINE
  5
793C
330
1E
100
AcDbEntity
  8
12
  6
DASHED
100
AcDbPolyline
 90
        2
 70
     0
 43
0.0
 10
112.5004882812993
 20
154.9997558594
 10
112.5004882812993
 20
184.9997558592998
  0
CIRCLE
  5
793D
330
1E
100
AcDbEntity
  8
12
  6
DASHED
100
AcDbCircle
 10
112.5004882812993
 20
169.9997558594
 30
0.0
 40
6.0
  0
LWPOLYLINE
  5
793E
330
1E
100
AcDbEntity
  8
10
  6
Continuous
100
AcDbPolyline
 90
        2
 70
     0
 43
0.0
 10
110.0
 20
208.0
 10
110.0
 20
200.0
  0
LWPOLYLINE
  5
793F
330
1E
100
AcDbEntity
  8
12
  6
DASHED
100
AcDbPolyline
 90
        2
 70
     0
 43
0.0
 10
-127.4999694824201
 20
169.9997558594
 10
-97.49993896483999
 20
169.9997558594
  0
LWPOLYLINE
  5
7940
330
1E
100
AcDbEntity
  8
10
  6
Continuous
100
AcDbPolyline
 90
        2
 70
     0
 43
0.0
 10
105.0004882812993
 20
169.9997558594
 10
-104.9999389648399
 20
169.9997558594
  0
DIMENSION
  5
7941
330
1E
100
AcDbEntity
  8
30
  6
Continuous
100
AcDbDimension
  2
*D15
 10
-189.7056428798468
 20
0.000000000000024
 30
0.0
 11
-194.7056428798468
 21
84.99987792969998
 31
0.0
 70
    32
 71
     5
 42
-1.0
  3
STANDARD
100
AcDbAlignedDimension
 13
-127.4999694824201
 23
169.9997558594
 33
0.0
 14
-104.9999389648399
 24
0.0
 34
0.0
 50
90.0
100
AcDbRotatedDimension
  0
DIMENSION
  5
794E
330
1E
100
AcDbEntity
  8
30
  6
Continuous
100
AcDbDimension
  2
*D16
 10
-189.7056428798469
 20
-190.0
 30
0.0
 11
-194.7056428798468
 21
-95.0
 31
0.0
 70
    32
 71
     5
 42
-1.0
  3
STANDARD
100
AcDbAlignedDimension
 13
-104.9999389648399
 23
0.0
 33
0.0
 14
-127.4999694824199
 24
-190.0
 34
0.0
 50
90.0
100
AcDbRotatedDimension
1001
ACAD
1000
DSTYLE
1002
{
1070
   287
1070
     4
1070
   287
1070
     4
1070
   279
1070
     1
1002
}
  0
DIMENSION
  5
795B
330
1E
100
AcDbEntity
  8
30
  6
Continuous
100
AcDbDimension
  2
*D17
 10
-220.219053609071
 20
0.0000000000000199
 30
0.0
 11
-225.2190536090711
 21
100.0
 31
0.0
 70
    32
 71
     5
 42
-1.0
  3
STANDARD
100
AcDbAlignedDimension
 13
-149.9999694824199
 23
200.0
 33
0.0
 14
-149.9999694824199
 24
0.0
 34
0.0
 50
90.0
100
AcDbRotatedDimension
  0
DIMENSION
  5
7968
330
1E
100
AcDbEntity
  8
30
  6
Continuous
100
AcDbDimension
  2
*D18
 10
-220.219053609071
 20
-219.9999999999999
 30
0.0
 11
-225.219053609071
 21
-110.0
 31
0.0
 70
    32
 71
     5
 42
-1.0
  3
STANDARD
100
AcDbAlignedDimension
 13
-149.9999694824199
 23
0.0
 33
0.0
 14
-149.9999694824199
 24
-220.0
 34
0.0
 50
90.0
100
AcDbRotatedDimension
1001
ACAD
1000
DSTYLE
1002
{
1070
   287
1070
     4
1070
   287
1070
     4
1070
   279
1070
     1
1002
}
  0
DIMENSION
  5
7975
330
1E
100
AcDbEntity
  8
30
  6
Continuous
100
AcDbDimension
  2
*D19
 10
-253.8281255302381
 20
-219.9999999999999
 30
0.0
 11
-258.828125530238
 21
-9.999999999999998
 31
0.0
 70
    32
 71
     5
 42
-1.0
  3
STANDARD
100
AcDbAlignedDimension
 13
-220.719053609071
 23
200.0
 33
0.0
 14
-220.7190536090712
 24
-219.9999999999999
 34
0.0
 50
90.0
100
AcDbRotatedDimension
  0
DIMENSION
  5
7982
330
1E
100
AcDbEntity
  8
30
  6
Continuous
100
AcDbDimension
  2
*D20
 10
-0.0000000000000019
 20
-251.8352211087594
 30
0.0
 11
-74.99998474120999
 21
-246.8352211087594
 31
0.0
 70
    32
 71
     5
 42
-1.0
  3
STANDARD
100
AcDbAlignedDimension
 13
-149.9999694824199
 23
-220.0
 33
0.0
 14
0.0
 24
-220.0
 34
0.0
100
AcDbRotatedDimension
  0
DIMENSION
  5
798F
330
1E
100
AcDbEntity
  8
30
  6
Continuous
100
AcDbDimension
  2
*D21
 10
150.0004882812993
 20
-251.8352211087594
 30
0.0
 11
75.00024414064966
 21
-246.8352211087594
 31
0.0
 70
    32
 71
     5
 42
-1.0
  3
STANDARD
100
AcDbAlignedDimension
 13
0.0
 23
-220.0
 33
0.0
 14
150.0004882812993
 24
-220.0
 34
0.0
100
AcDbRotatedDimension
  0
DIMENSION
  5
79B7
330
1E
100
AcDbEntity
  8
30
  6
Continuous
100
AcDbDimension
  2
*D22
 10
-206.677937262596
 20
-601.0
 30
0.0
 11
-211.6779372625958
 21
-501.0
 31
0.0
 70
    32
 71
     5
 42
-1.0
  3
STANDARD
100
AcDbAlignedDimension
 13
-168.1430664062999
 23
-401.0
 33
0.0
 14
-166.0
 24
-601.0
 34
0.0
 50
90.0
100
AcDbRotatedDimension
  0
DIMENSION
  5
79C4
330
1E
100
AcDbEntity
  8
30
  6
Continuous
100
AcDbDimension
  2
*D23
 10
-206.6779372625961
 20
-821.0
 30
0.0
 11
-211.6779372625958
 21
-711.0
 31
0.0
 70
    32
 71
     5
 42
-1.0
  3
STANDARD
100
AcDbAlignedDimension
 13
-166.0
 23
-601.0
 33
0.0
 14
-168.1430664062999
 24
-821.0
 34
0.0
 50
90.0
100
AcDbRotatedDimension
1001
ACAD
1000
DSTYLE
1002
{
1070
   287
1070
     4
1070
   287
1070
     4
1070
   279
1070
     1
1002
}
  0
LINE
  5
79D1
330
1E
100
AcDbEntity
  8
24
  6
Continuous
 62
     2
100
AcDbLine
 10
-168.1430664062999
 20
-821.0
 30
0.0
 11
-171.7170410155999
 21
-805.2415771485
 31
0.0
  0
LINE
  5
79D2
330
1E
100
AcDbEntity
  8
24
  6
Continuous
 62
     2
100
AcDbLine
 10
-171.7170410155999
 20
-805.2415771485
 30
0.0
 11
-163.9106445312999
 21
-788.3280029297
 31
0.0
  0
LINE
  5
79D3
330
1E
100
AcDbEntity
  8
24
  6
Continuous
 62
     2
100
AcDbLine
 10
-163.9106445312999
 20
-788.3280029297
 30
0.0
 11
-170.052734375
 21
-771.0
 31
0.0
  0
LINE
  5
79D4
330
1E
100
AcDbEntity
  8
24
  6
Continuous
 62
     2
100
AcDbLine
 10
-170.052734375
 20
-771.0
 30
0.0
 11
162.9160156249993
 21
-771.0
 31
0.0
  0
LINE
  5
79D5
330
1E
100
AcDbEntity
  8
24
  6
Continuous
 62
     2
100
AcDbLine
 10
162.9160156249993
 20
-771.0
 30
0.0
 11
156.4028320312993
 21
-788.3280029297
 31
0.0
  0
LINE
  5
79D6
330
1E
100
AcDbEntity
  8
24
  6
Continuous
 62
     2
100
AcDbLine
 10
156.4028320312993
 20
-788.3280029297
 30
0.0
 11
164.2089843749993
 21
-802.6395263672
 31
0.0
  0
LINE
  5
79D7
330
1E
100
AcDbEntity
  8
24
  6
Continuous
 62
     2
100
AcDbLine
 10
164.2089843749993
 20
-802.6395263672
 30
0.0
 11
161.0063476562993
 21
-821.0
 31
0.0
  0
LINE
  5
79D9
330
1E
100
AcDbEntity
  8
24
  6
Continuous
 62
     2
100
AcDbLine
 10
-168.1430664062999
 20
-821.0
 30
0.0
 11
-173.0180664063
 21
-841.6707763672
 31
0.0
  0
LINE
  5
79DA
330
1E
100
AcDbEntity
  8
24
  6
Continuous
 62
     2
100
AcDbLine
 10
-173.0180664063
 20
-841.6707763672
 30
0.0
 11
-163.9106445312999
 21
-855.9822998047
 31
0.0
  0
LINE
  5
79DB
330
1E
100
AcDbEntity
  8
24
  6
Continuous
 62
     2
100
AcDbLine
 10
-163.9106445312999
 20
-855.9822998047
 30
0.0
 11
-169.0981445312999
 21
-871.0
 31
0.0
  0
LINE
  5
79DC
330
1E
100
AcDbEntity
  8
24
  6
Continuous
 62
     2
100
AcDbLine
 10
-169.0981445312999
 20
-871.0
 30
0.0
 11
162.9160156249993
 21
-871.0
 31
0.0
  0
LINE
  5
79DD
330
1E
100
AcDbEntity
  8
24
  6
Continuous
 62
     2
100
AcDbLine
 10
162.9160156249993
 20
-871.0
 30
0.0
 11
159.0048828124993
 21
-852.0792236328
 31
0.0
  0
LINE
  5
79DE
330
1E
100
AcDbEntity
  8
24
  6
Continuous
 62
     2
100
AcDbLine
 10
159.0048828124993
 20
-852.0792236328
 30
0.0
 11
164.2089843749993
 21
-837.7677001952999
 31
0.0
  0
LINE
  5
79DF
330
1E
100
AcDbEntity
  8
24
  6
Continuous
 62
     2
100
AcDbLine
 10
164.2089843749993
 20
-837.7677001952999
 30
0.0
 11
161.0063476562993
 21
-821.0
 31
0.0
  0
LINE
  5
79E9
330
1E
100
AcDbEntity
  8
24
  6
Continuous
 62
     2
100
AcDbLine
 10
162.9079589843993
 20
-420.1326904296998
 30
0.0
 11
155.1018066406993
 21
-431.8421630859999
 31
0.0
  0
LINE
  5
79EA
330
1E
100
AcDbEntity
  8
24
  6
Continuous
 62
     2
100
AcDbLine
 10
155.1018066406993
 20
-431.8421630859999
 30
0.0
 11
162.9160156249993
 21
-451.0
 31
0.0
  0
LINE
  5
79EB
330
1E
100
AcDbEntity
  8
24
  6
Continuous
 62
     2
100
AcDbLine
 10
162.9160156249993
 20
-451.0
 30
0.0
 11
-169.0981445312999
 21
-451.0
 31
0.0
  0
LINE
  5
79EC
330
1E
100
AcDbEntity
  8
24
  6
Continuous
 62
     2
100
AcDbLine
 10
-169.0981445312999
 20
-451.0
 30
0.0
 11
-161.30859375
 21
-429.2399902344
 31
0.0
  0
LINE
  5
79ED
330
1E
100
AcDbEntity
  8
24
  6
Continuous
 62
     2
100
AcDbLine
 10
-161.30859375
 20
-429.2399902344
 30
0.0
 11
-174.3190917968999
 21
-417.5306396484999
 31
0.0
  0
DIMENSION
  5
7A14
330
1E
100
AcDbEntity
  8
30
  6
Continuous
100
AcDbDimension
  2
*D24
 10
110.1783204367058
 20
-436.5324078394073
 30
0.0
 11
135.6798208568148
 21
-375.7768077783087
 31
0.0
 70
   163
  1
<>
 71
     5
 42
-1.0
  3
STANDARD
100
AcDbDiametricDimension
 15
114.8226561258926
 25
-425.4675921605925
 35
0.0
 40
0.0
1001
ACAD
1000
DSTYLE
1002
{
1070
   288
1070
     1
1002
}
  0
LWPOLYLINE
  5
7A6A
330
1E
100
AcDbEntity
  8
12
  6
DASHED
100
AcDbPolyline
 90
        2
 70
     0
 43
0.0
 10
85.0
 20
555.3374709078497
 10
115.0
 20
555.3374709078497
  0
LWPOLYLINE
  5
7A6B
330
1E
100
AcDbEntity
  8
10
  6
Continuous
100
AcDbPolyline
 90
        4
 70
     0
 43
0.0
 10
-39.0
 20
505.3372267671496
 10
-39.0
 20
494.3372267671496
 10
39.0
 20
494.3372267671496
 10
39.0
 20
505.3372267671496
  0
LWPOLYLINE
  5
7A6C
330
1E
100
AcDbEntity
  8
10
  6
Continuous
100
AcDbPolyline
 90
        4
 70
     0
 43
0.0
 10
-20.0
 20
494.3372267671496
 10
-20.0
 20
454.3369826265498
 10
20.0
 20
454.3369826265498
 10
20.0
 20
494.3372267671496
  0
LWPOLYLINE
  5
7A6D
330
1E
100
AcDbEntity
  8
12
  6
DASHED
100
AcDbPolyline
 90
        2
 70
     0
 43
0.0
 10
-99.99999999999978
 20
570.3374709078497
 10
-99.99999999999978
 20
540.3373488374496
  0
LWPOLYLINE
  5
7A6E
330
1E
100
AcDbEntity
  8
12
  6
DASHED
100
AcDbPolyline
 90
        2
 70
     0
 43
0.0
 10
-114.9999999999997
 20
555.3374709078497
 10
-84.99999999999976
 20
555.3374709078497
  0
CIRCLE
  5
7A6F
330
1E
100
AcDbEntity
  8
12
  6
DASHED
100
AcDbCircle
 10
-99.99999999999978
 20
555.3374709078497
 30
0.0
 40
6.0
  0
LWPOLYLINE
  5
7A70
330
1E
100
AcDbEntity
  8
12
  6
DASHED
100
AcDbPolyline
 90
        2
 70
     0
 43
0.0
 10
100.0
 20
570.3374709078497
 10
100.0
 20
540.3373488374496
  0
CIRCLE
  5
7A71
330
1E
100
AcDbEntity
  8
12
  6
DASHED
100
AcDbCircle
 10
100.0
 20
555.3374709078497
 30
0.0
 40
6.0
  0
LWPOLYLINE
  5
7A75
330
1E
100
AcDbEntity
  8
24
  6
CONTINOUS
100
AcDbPolyline
 90
        2
 70
     0
 43
0.0
 10
-69.99999999999977
 20
740.3374709078497
 10
-69.99999999999977
 20
900.5867313670654
  0
LWPOLYLINE
  5
7A76
330
1E
100
AcDbEntity
  8
24
  6
CONTINOUS
100
AcDbPolyline
 90
        2
 70
     0
 43
0.0
 10
70.0
 20
740.3374709078497
 10
70.0
 20
900.5867313670654
  0
LWPOLYLINE
  5
7A7A
330
1E
100
AcDbEntity
  8
24
  6
CONTINOUS
100
AcDbPolyline
 90
        2
 70
     0
 43
0.0
 10
-22.5
 20
870.3374709078497
 10
22.5
 20
870.3374709078497
  0
LWPOLYLINE
  5
7A7B
330
1E
100
AcDbEntity
  8
10
  6
Continuous
100
AcDbPolyline
 90
        2
 70
     0
 43
0.0
 10
-77.49999999999976
 20
795.3374709078497
 10
-62.49999999999977
 20
795.3374709078497
  0
LWPOLYLINE
  5
7A7C
330
1E
100
AcDbEntity
  8
24
  6
CONTINOUS
100
AcDbPolyline
 90
        2
 70
     0
 43
0.0
 10
47.5
 20
820.3374709078497
 10
92.5
 20
820.3374709078497
  0
LWPOLYLINE
  5
7A7D
330
1E
100
AcDbEntity
  8
10
  6
Continuous
100
AcDbPolyline
 90
        2
 70
     0
 43
0.0
 10
-7.5
 20
845.3374709078497
 10
7.5
 20
845.3374709078497
  0
LINE
  5
7A81
330
1E
100
AcDbEntity
  8
10
  6
Continuous
100
AcDbLine
 10
150.0004882813001
 20
770.3374709078497
 30
0.0
 11
-150.0004882812995
 21
770.3374709078499
 31
0.0
  0
LINE
  5
7A82
330
1E
100
AcDbEntity
  8
10
  6
Continuous
100
AcDbLine
 10
77.5
 20
770.3374709078497
 30
0.0
 11
77.5
 21
840.3374709078496
 31
0.0
  0
LINE
  5
7A83
330
1E
100
AcDbEntity
  8
10
  6
Continuous
100
AcDbLine
 10
77.5
 20
840.3374709078496
 30
0.0
 11
62.5
 21
840.3374709078496
 31
0.0
  0
LINE
  5
7A84
330
1E
100
AcDbEntity
  8
10
  6
Continuous
100
AcDbLine
 10
62.5
 20
840.3374709078496
 30
0.0
 11
62.5
 21
770.3374709078497
 31
0.0
  0
LINE
  5
7A86
330
1E
100
AcDbEntity
  8
10
  6
Continuous
100
AcDbLine
 10
7.5
 20
770.3374709078497
 30
0.0
 11
7.5
 21
890.3374709078496
 31
0.0
  0
LINE
  5
7A87
330
1E
100
AcDbEntity
  8
10
  6
Continuous
100
AcDbLine
 10
7.5
 20
890.3374709078496
 30
0.0
 11
-7.5
 21
890.3374709078496
 31
0.0
  0
LINE
  5
7A88
330
1E
100
AcDbEntity
  8
10
  6
Continuous
100
AcDbLine
 10
-7.5
 20
890.3374709078496
 30
0.0
 11
-7.5
 21
770.3374709078497
 31
0.0
  0
LINE
  5
7A8A
330
1E
100
AcDbEntity
  8
10
  6
Continuous
100
AcDbLine
 10
-62.49999999999977
 20
770.3374709078497
 30
0.0
 11
-62.49999999999977
 21
840.3374709078496
 31
0.0
  0
LINE
  5
7A8B
330
1E
100
AcDbEntity
  8
10
  6
Continuous
100
AcDbLine
 10
-62.49999999999977
 20
840.3374709078496
 30
0.0
 11
-77.49999999999976
 21
840.3374709078496
 31
0.0
  0
LINE
  5
7A8C
330
1E
100
AcDbEntity
  8
10
  6
Continuous
100
AcDbLine
 10
-77.49999999999976
 20
840.3374709078496
 30
0.0
 11
-77.49999999999976
 21
770.3374709078497
 31
0.0
  0
LINE
  5
7A8E
330
1E
100
AcDbEntity
  8
10
  6
Continuous
100
AcDbLine
 10
-150.0004882812995
 20
770.3374709078499
 30
0.0
 11
-150.0004882812995
 21
505.3372267671496
 31
0.0
  0
LINE
  5
7A8F
330
1E
100
AcDbEntity
  8
10
  6
Continuous
100
AcDbLine
 10
-150.0004882812995
 20
505.3372267671496
 30
0.0
 11
150.0004882812993
 21
505.3372267671496
 31
0.0
  0
DIMENSION
  5
7A92
330
1E
100
AcDbEntity
  8
30
  6
Continuous
100
AcDbDimension
  2
*D25
 10
98.75680858018478
 20
554.0711018668359
 30
0.0
 11
180.8827998785494
 21
606.0949478818993
 31
0.0
 70
   163
 71
     5
 42
-1.0
  3
STANDARD
100
AcDbDiametricDimension
 15
108.8940394168911
 25
560.4926710647283
 35
0.0
 40
0.0
1001
ACAD
1000
DSTYLE
1002
{
1070
   288
1070
     1
1002
}
  0
DIMENSION
  5
7A9E
330
1E
100
AcDbEntity
  8
30
  6
Continuous
100
AcDbDimension
  2
*D26
 10
38.90343505458711
 20
770.3374709078497
 30
0.0
 11
33.903435054587
 21
830.3374709078497
 31
0.0
 70
    32
 71
     5
 42
-1.0
  3
STANDARD
100
AcDbAlignedDimension
 13
9.311930734721499
 23
890.3374709078496
 33
0.0
 14
9.311930734721499
 24
770.3374709078497
 34
0.0
 50
90.0
100
AcDbRotatedDimension
  0
DIMENSION
  5
7AAB
330
1E
100
AcDbEntity
  8
30
  6
Continuous
100
AcDbDimension
  2
*D27
 10
25.78009428700261
 20
870.3374709078497
 30
0.0
 11
20.78009428700247
 21
880.3374709078497
 31
0.0
 70
    32
 71
     5
 42
-1.0
  3
STANDARD
100
AcDbAlignedDimension
 13
9.311930734721272
 23
890.3374709078496
 33
0.0
 14
9.311930734721272
 24
870.3374709078497
 34
0.0
 50
90.0
100
AcDbRotatedDimension
  0
DIMENSION
  5
7AB8
330
1E
100
AcDbEntity
  8
30
  6
Continuous
100
AcDbDimension
  2
*D28
 10
25.78009428700261
 20
845.3374709078497
 30
0.0
 11
20.78009428700247
 21
857.8374709078497
 31
0.0
 70
    32
 71
     5
 42
-1.0
  3
STANDARD
100
AcDbAlignedDimension
 13
9.311930734721272
 23
870.3374709078497
 33
0.0
 14
9.311930734721272
 24
845.3374709078497
 34
0.0
 50
90.0
100
AcDbRotatedDimension
  0
LWPOLYLINE
  5
7AC6
330
1E
100
AcDbEntity
  8
10
  6
Continuous
100
AcDbPolyline
 90
        2
 70
     0
 43
0.0
 10
62.5
 20
795.3374709078497
 10
77.5
 20
795.3374709078497
  0
LWPOLYLINE
  5
7AC7
330
1E
100
AcDbEntity
  8
24
  6
CONTINOUS
100
AcDbPolyline
 90
        2
 70
     0
 43
0.0
 10
0.0000000000002274
 20
740.3374709078497
 10
0.0000000000002274
 20
900.5867313670654
  0
DIMENSION
  5
7AC9
330
1E
100
AcDbEntity
  8
30
  6
Continuous
100
AcDbDimension
  2
*D29
 10
95.90254539813759
 20
820.3374709078497
 30
0.0
 11
90.90254539813749
 21
830.3374709078497
 31
0.0
 70
    32
 71
     5
 42
-1.0
  3
STANDARD
100
AcDbAlignedDimension
 13
77.5
 23
840.3374709078496
 33
0.0
 14
77.5
 24
820.3374709078497
 34
0.0
 50
90.0
100
AcDbRotatedDimension
  0
DIMENSION
  5
7AD6
330
1E
100
AcDbEntity
  8
30
  6
Continuous
100
AcDbDimension
  2
*D30
 10
95.90254539813757
 20
795.3374709078497
 30
0.0
 11
90.90254539813743
 21
807.8374709078497
 31
0.0
 70
    32
 71
     5
 42
-1.0
  3
STANDARD
100
AcDbAlignedDimension
 13
77.5
 23
820.3374709078497
 33
0.0
 14
77.5
 24
795.3374709078497
 34
0.0
 50
90.0
100
AcDbRotatedDimension
  0
DIMENSION
  5
7B14
330
1E
100
AcDbEntity
  8
30
  6
Continuous
100
AcDbDimension
  2
*D31
 10
110.7180532685104
 20
770.3374709078497
 30
0.0
 11
105.7180532685104
 21
805.3374709078497
 31
0.0
 70
    32
 71
     5
 42
-1.0
  3
STANDARD
100
AcDbAlignedDimension
 13
77.5
 23
840.3374709078496
 33
0.0
 14
77.5
 24
770.3374709078497
 34
0.0
 50
90.0
100
AcDbRotatedDimension
  0
LWPOLYLINE
  5
7B22
330
1E
100
AcDbEntity
  8
24
  6
CONTINOUS
100
AcDbPolyline
 90
        2
 70
     0
 43
0.0
 10
-92.49999999999976
 20
820.3374709078497
 10
-47.49999999999977
 20
820.3374709078497
  0
DIMENSION
  5
7B23
330
1E
100
AcDbEntity
  8
30
  6
Continuous
100
AcDbDimension
  2
*D32
 10
0.0000000000002286
 20
920.384663997946
 30
0.0
 11
-34.99999999999977
 21
925.384663997946
 31
0.0
 70
    32
 71
     5
 42
-1.0
  3
STANDARD
100
AcDbAlignedDimension
 13
-69.99999999999977
 23
900.5867313670654
 33
0.0
 14
0.0000000000002274
 24
900.5867313670654
 34
0.0
100
AcDbRotatedDimension
  0
DIMENSION
  5
7B30
330
1E
100
AcDbEntity
  8
30
  6
Continuous
100
AcDbDimension
  2
*D33
 10
70.0
 20
920.384663997946
 30
0.0
 11
35.0000000000001
 21
925.384663997946
 31
0.0
 70
    32
 71
     5
 42
-1.0
  3
STANDARD
100
AcDbAlignedDimension
 13
0.0000000000002274
 23
901.5867313670652
 33
0.0
 14
70.0
 24
900.5867313670654
 34
0.0
100
AcDbRotatedDimension
  0
LWPOLYLINE
  5
7BD1
330
1E
100
AcDbEntity
  8
24
  6
CONTINOUS
100
AcDbPolyline
 90
        2
 70
     0
 43
0.0
 10
1007.000122070299
 20
35.0
 10
1058.586497997648
 20
35.0
  0
LWPOLYLINE
  5
7BD2
330
1E
100
AcDbEntity
  8
24
  6
CONTINOUS
100
AcDbPolyline
 90
        2
 70
     0
 43
0.0
 10
959.6755707450521
 20
-100.0
 10
1057.9818115234
 20
-100.0
  0
LWPOLYLINE
  5
7BD3
330
1E
100
AcDbEntity
  8
24
  6
CONTINOUS
100
AcDbPolyline
 90
        2
 70
     0
 43
0.0
 10
1007.000122070299
 20
-125.0
 10
1058.586497997648
 20
-125.0
  0
LWPOLYLINE
  5
7BD4
330
1E
100
AcDbEntity
  8
24
  6
CONTINOUS
100
AcDbPolyline
 90
        2
 70
     0
 43
0.0
 10
1007.000122070299
 20
-75.0
 10
1058.586497997648
 20
-75.0
  0
DIMENSION
  5
7BD5
330
1E
100
AcDbEntity
  8
30
  6
Continuous
100
AcDbDimension
  2
*D34
 10
1077.697398181139
 20
34.99999999999999
 30
0.0
 11
1072.69739818114
 21
60.00000000000017
 31
0.0
 70
    32
 71
     5
 42
-1.0
  3
STANDARD
100
AcDbAlignedDimension
 13
1058.586497997648
 23
85.0
 33
0.0
 14
1058.586497997648
 24
35.0
 34
0.0
 50
90.0
100
AcDbRotatedDimension
  0
DIMENSION
  5
7BEB
330
1E
100
AcDbEntity
  8
30
  6
Continuous
100
AcDbDimension
  2
*D35
 10
1094.523111921884
 20
22.49999999999998
 30
0.0
 11
1089.523111921884
 21
60.00000000000015
 31
0.0
 70
    32
 71
     5
 42
-1.0
  3
STANDARD
100
AcDbAlignedDimension
 13
1037.0001220703
 23
97.5
 33
0.0
 14
1037.0001220703
 24
22.5
 34
0.0
 50
90.0
100
AcDbRotatedDimension
  0
DIMENSION
  5
7BF8
330
1E
100
AcDbEntity
  8
30
  6
Continuous
100
AcDbDimension
  2
*D36
 10
1131.540469722994
 20
-0.0000000000000208
 30
0.0
 11
1126.540469722993
 21
30.00000000000016
 31
0.0
 70
    32
 71
     5
 42
-1.0
  3
STANDARD
100
AcDbAlignedDimension
 13
1094.523111921884
 23
60.0
 33
0.0
 14
1057.9818115234
 24
0.0
 34
0.0
 50
90.0
100
AcDbRotatedDimension
  0
DIMENSION
  5
7C17
330
1E
100
AcDbEntity
  8
30
  6
Continuous
100
AcDbDimension
  2
*D37
 10
1131.540469722994
 20
-100.0
 30
0.0
 11
1126.540469722993
 21
-49.99999999999985
 31
0.0
 70
    32
 71
     5
 42
-1.0
  3
STANDARD
100
AcDbAlignedDimension
 13
1058.981811523399
 23
-0.0000000000000003
 33
0.0
 14
1057.9818115234
 24
-100.0
 34
0.0
 50
90.0
100
AcDbRotatedDimension
  0
DIMENSION
  5
7C24
330
1E
100
AcDbEntity
  8
30
  6
Continuous
100
AcDbDimension
  2
*D38
 10
625.0
 20
-292.7288816386854
 30
0.0
 11
766.00006103515
 21
-287.7288816386853
 31
0.0
 70
    32
 71
     5
 42
-1.0
  3
STANDARD
100
AcDbAlignedDimension
 13
907.0001220703
 23
-220.0
 33
0.0
 14
625.0
 24
-0.0000000000000817
 34
0.0
100
AcDbRotatedDimension
  0
DIMENSION
  5
7C31
330
1E
100
AcDbEntity
  8
30
  6
Continuous
100
AcDbDimension
  2
*D39
 10
590.9998397826427
 20
-312.0241580823661
 30
0.0
 11
748.9999809264713
 21
-307.0241580823661
 31
0.0
 70
    32
 71
     5
 42
-1.0
  3
STANDARD
100
AcDbAlignedDimension
 13
907.0001220703
 23
-221.0
 33
0.0
 14
590.9998397826427
 24
0.0
 34
0.0
100
AcDbRotatedDimension
  0
DIMENSION
  5
7C3E
330
1E
100
AcDbEntity
  8
30
  6
Continuous
100
AcDbDimension
  2
*D40
 10
1019.711013044022
 20
79.45383196559856
 30
0.0
 11
1046.076828493708
 21
143.3342505779781
 31
0.0
 70
   163
 71
     5
 42
-1.0
  3
STANDARD
100
AcDbDiametricDimension
 15
1024.289231096576
 25
90.54616803440115
 35
0.0
 40
0.0
1001
ACAD
1000
DSTYLE
1002
{
1070
   288
1070
     1
1002
}
  0
DIMENSION
  5
7E1C
330
1E
100
AcDbEntity
  8
30
  6
Continuous
100
AcDbDimension
  2
*D41
 10
380.9992675780383
 20
-366.6203184733531
 30
0.0
 11
643.9996948241692
 21
-361.6203184733531
 31
0.0
 70
    32
 71
     5
 42
-1.0
  3
STANDARD
100
AcDbAlignedDimension
 13
907.0001220703
 23
-293.2288816386853
 33
0.0
 14
380.9992675780383
 24
0.0
 34
0.0
100
AcDbRotatedDimension
  0
DIMENSION
  5
7E3B
330
1E
100
AcDbEntity
  8
30
  6
Continuous
100
AcDbDimension
  2
*D42
 10
511.0001068115055
 20
-337.3855890285331
 30
0.0
 11
709.0001144409027
 21
-332.3855890285331
 31
0.0
 70
    32
 71
     5
 42
-1.0
  3
STANDARD
100
AcDbAlignedDimension
 13
907.0001220703
 23
-312.0241580823661
 33
0.0
 14
511.0001068115055
 24
0.0
 34
0.0
100
AcDbRotatedDimension
  0
DIMENSION
  5
7E87
330
1E
100
AcDbEntity
  8
30
  6
Continuous
100
AcDbDimension
  2
*D43
 10
642.0
 20
338.8993563182501
 30
0.0
 11
774.50006103515
 21
343.8993563182501
 31
0.0
 70
    32
 71
     5
 42
-1.0
  3
STANDARD
100
AcDbAlignedDimension
 13
907.0001220703
 23
305.0
 33
0.0
 14
642.0
 24
180.0002441405998
 34
0.0
100
AcDbRotatedDimension
  0
DIMENSION
  5
7E94
330
1E
100
AcDbEntity
  8
30
  6
Continuous
100
AcDbDimension
  2
*D44
 10
612.0
 20
367.3974730805674
 30
0.0
 11
759.5000610351498
 21
372.3974730805674
 31
0.0
 70
    32
 71
     5
 42
-1.0
  3
STANDARD
100
AcDbAlignedDimension
 13
907.0001220703
 23
339.3993563182501
 33
0.0
 14
612.0
 24
180.0002441405998
 34
0.0
100
AcDbRotatedDimension
  0
DIMENSION
  5
7EAA
330
1E
100
AcDbEntity
  8
30
  6
Continuous
100
AcDbDimension
  2
*D45
 10
582.0
 20
386.7354856987958
 30
0.0
 11
744.50006103515
 21
391.7354856987957
 31
0.0
 70
    32
 71
     5
 42
-1.0
  3
STANDARD
100
AcDbAlignedDimension
 13
907.0001220703
 23
367.3974730805674
 33
0.0
 14
582.0
 24
180.0002441405998
 34
0.0
100
AcDbRotatedDimension
  0
DIMENSION
  5
7EC0
330
1E
100
AcDbEntity
  8
30
  6
Continuous
100
AcDbDimension
  2
*D46
 10
512.0
 20
415.2336024611122
 30
0.0
 11
709.5000610351498
 21
420.2336024611122
 31
0.0
 70
    32
 71
     5
 42
-1.0
  3
STANDARD
100
AcDbAlignedDimension
 13
907.0001220703
 23
386.7354856987958
 33
0.0
 14
512.0
 24
180.0002441405998
 34
0.0
100
AcDbRotatedDimension
  0
DIMENSION
  5
7EF1
330
1E
100
AcDbEntity
  8
30
  6
Continuous
100
AcDbDimension
  2
*D47
 10
110.0
 20
324.9310626344431
 30
0.0
 11
0.0000000000000003
 21
329.9310626344431
 31
0.0
 70
    32
 71
     5
 42
-1.0
  3
STANDARD
100
AcDbAlignedDimension
 13
-110.0
 23
305.0
 33
0.0
 14
110.0
 24
305.0
 34
0.0
100
AcDbRotatedDimension
  0
LWPOLYLINE
  5
803F
330
1E
100
AcDbEntity
  8
12
  6
DASHED
100
AcDbPolyline
 90
        2
 70
     0
 43
0.0
 10
888.1151123047001
 20
-431.0
 10
940.0001220703
 20
-431.0
  0
LWPOLYLINE
  5
8040
330
1E
100
AcDbEntity
  8
12
  6
DASHED
100
AcDbPolyline
 90
        7
 70
     0
 43
0.0
 10
907.0001220703
 20
-400.9995117187998
 10
957.0001220703
 20
-400.9995117187998
 10
957.0001220703
 20
-406.9995117187999
 10
919.0001220702999
 20
-406.9995117187999
 42
0.4142135623730951
 10
913.0001220703
 20
-412.9995117187998
 10
913.0001220703
 20
-451.0
 10
907.0001220703
 20
-451.0
  0
LWPOLYLINE
  5
8041
330
1E
100
AcDbEntity
  8
12
  6
DASHED
100
AcDbPolyline
 90
        4
 70
     0
 43
0.0
 10
913.0001220703
 20
-421.9997558594
 10
923.0001220703
 20
-421.9997558594
 10
923.0001220703
 20
-439.9997558594
 10
913.0001220703
 20
-439.9997558594
  0
LWPOLYLINE
  5
8042
330
1E
100
AcDbEntity
  8
12
  6
DASHED
100
AcDbPolyline
 90
        4
 70
     0
 43
0.0
 10
913.0001220703
 20
-427.0
 10
925.0001220703
 20
-427.0
 10
925.0001220703
 20
-435.0
 10
913.0001220703
 20
-435.0
  0
LWPOLYLINE
  5
8043
330
1E
100
AcDbEntity
  8
12
  6
DASHED
100
AcDbPolyline
 90
        2
 70
     0
 43
0.0
 10
913.0001220703
 20
-448.0027954731998
 42
0.0002357521657335
 10
913.0001238488317
 20
-447.9990234375
  0
LWPOLYLINE
  5
8044
330
1E
100
AcDbEntity
  8
12
  6
DASHED
100
AcDbPolyline
 90
        4
 70
     0
 43
0.0
 10
923.0001220703
 20
-426.9997558594
 10
925.0001220703
 20
-426.9997558594
 10
925.0001220703
 20
-434.9997558594
 10
923.0001220703
 20
-434.9997558594
  0
LWPOLYLINE
  5
8045
330
1E
100
AcDbEntity
  8
12
  6
DASHED
100
AcDbPolyline
 90
        2
 70
     0
 43
0.0
 10
888.1151123047001
 20
-791.0
 10
940.0001220703
 20
-791.0
  0
LWPOLYLINE
  5
8046
330
1E
100
AcDbEntity
  8
12
  6
DASHED
100
AcDbPolyline
 90
        4
 70
     0
 43
0.0
 10
907.0001220703
 20
-821.0
 10
957.0001220703
 20
-821.0
 10
957.0001220703
 20
-815.0
 10
919.0001220702999
 20
-815.0
  0
LWPOLYLINE
  5
8047
330
1E
100
AcDbEntity
  8
12
  6
DASHED
100
AcDbPolyline
 90
        4
 70
     0
 43
0.0
 10
913.0001220703
 20
-795.0
 10
925.0001220703
 20
-795.0
 10
925.0001220703
 20
-787.0
 10
913.0001220703
 20
-787.0
  0
LWPOLYLINE
  5
8048
330
1E
100
AcDbEntity
  8
12
  6
DASHED
100
AcDbPolyline
 90
        4
 70
     0
 43
0.0
 10
913.0001220703
 20
-800.0
 10
923.0001220703
 20
-800.0
 10
923.0001220703
 20
-782.0
 10
913.0001220703
 20
-782.0
  0
LWPOLYLINE
  5
8049
330
1E
100
AcDbEntity
  8
12
  6
DASHED
100
AcDbPolyline
 90
        3
 70
     0
 43
0.0
 10
913.0001220703
 20
-809.0
 10
913.0001220703
 20
-771.0
 10
907.0001220703
 20
-771.0
  0
LWPOLYLINE
  5
804A
330
1E
100
AcDbEntity
  8
12
  6
DASHED
100
AcDbPolyline
 90
        2
 70
     0
 43
0.0
 10
-919.0001220702999
 20
-815.0
 42
0.4142135623730951
 10
-913.0001220703
 20
-809.0
210
0.0
220
0.0
230
-1.0
  0
LWPOLYLINE
  5
804B
330
1E
100
AcDbEntity
  8
12
  6
DASHED
100
AcDbPolyline
 90
        2
 70
     0
 43
0.0
 10
-913.0001220703
 20
-773.9972045269
 42
0.0002357521594807
 10
-913.000123848831
 20
-774.0009765625
210
0.0
220
0.0
230
-1.0
  0
LWPOLYLINE
  5
804C
330
1E
100
AcDbEntity
  8
12
  6
DASHED
100
AcDbPolyline
 90
        2
 70
     0
 43
0.0
 10
692.0
 20
-805.7546386719
 10
692.0
 20
-854.0
  0
LWPOLYLINE
  5
804D
330
1E
100
AcDbEntity
  8
12
  6
DASHED
100
AcDbPolyline
 90
        4
 70
     0
 43
0.0
 10
701.0
 20
-827.0
 10
701.0
 20
-837.0
 10
683.0
 20
-837.0
 10
683.0
 20
-827.0
  0
LWPOLYLINE
  5
804E
330
1E
100
AcDbEntity
  8
12
  6
DASHED
100
AcDbPolyline
 90
        2
 70
     0
 43
0.0
 10
674.9972045268
 20
-827.0
 42
0.0002357521657335
 10
675.0009765625
 20
-827.0000017785312
  0
LWPOLYLINE
  5
804F
330
1E
100
AcDbEntity
  8
12
  6
DASHED
100
AcDbPolyline
 90
        4
 70
     0
 43
0.0
 10
688.0
 20
-827.0
 10
688.0
 20
-839.0
 10
696.0
 20
-839.0
 10
696.0
 20
-827.0
  0
LWPOLYLINE
  5
8050
330
1E
100
AcDbEntity
  8
12
  6
DASHED
100
AcDbPolyline
 90
        7
 70
     0
 43
0.0
 10
722.0
 20
-821.0
 10
722.0
 20
-871.0
 10
716.0
 20
-871.0
 10
716.0
 20
-833.0
 42
0.4142135623730951
 10
710.0
 20
-827.0
 10
672.0
 20
-827.0
 10
672.0
 20
-821.0
  0
LWPOLYLINE
  5
8066
330
1E
100
AcDbEntity
  8
18
100
AcDbPolyline
 90
        4
 70
     1
 43
0.0
 10
907.0001220703
 20
-400.9995117187998
 10
647.0
 20
-400.9995117187998
 10
647.0
 20
-821.0
 10
907.0001220703
 20
-821.0
  0
DIMENSION
  5
8094
330
1E
100
AcDbEntity
  8
30
  6
Continuous
100
AcDbDimension
  2
*D48
 10
972.7375933803832
 20
-451.0
 30
0.0
 11
967.7375933803832
 21
-440.9999999999998
 31
0.0
 70
    32
 71
     5
 42
-1.0
  3
STANDARD
100
AcDbAlignedDimension
 13
940.0001220703
 23
-431.0
 33
0.0
 14
913.0001220703
 24
-451.0
 34
0.0
 50
90.0
100
AcDbRotatedDimension
  0
LINE
  5
80A1
330
1E
100
AcDbEntity
  8
16
100
AcDbLine
 10
946.2667848992751
 20
-601.0
 30
0.0
 11
617.5619305145722
 21
-601.0
 31
0.0
  0
DIMENSION
  5
80A2
330
1E
100
AcDbEntity
  8
30
  6
Continuous
100
AcDbDimension
  2
*D49
 10
997.0858625891251
 20
-601.0
 30
0.0
 11
992.0858625891254
 21
-515.9999999999999
 31
0.0
 70
    32
 71
     5
 42
-1.0
  3
STANDARD
100
AcDbAlignedDimension
 13
945.0001220702999
 23
-431.0
 33
0.0
 14
907.0001220703
 24
-601.0
 34
0.0
 50
90.0
100
AcDbRotatedDimension
  0
DIMENSION
  5
80AF
330
1E
100
AcDbEntity
  8
30
  6
Continuous
100
AcDbDimension
  2
*D50
 10
997.0858625891251
 20
-791.0
 30
0.0
 11
992.0858625891254
 21
-695.9999999999999
 31
0.0
 70
    32
 71
     5
 42
-1.0
  3
STANDARD
100
AcDbAlignedDimension
 13
912.0001220703001
 23
-601.0
 33
0.0
 14
940.0001220703
 24
-791.0
 34
0.0
 50
90.0
100
AcDbRotatedDimension
  0
DIMENSION
  5
80C5
330
1E
100
AcDbEntity
  8
30
  6
Continuous
100
AcDbDimension
  2
*D51
 10
968.7364119032684
 20
-771.0
 30
0.0
 11
963.7364119032683
 21
-780.9999999999996
 31
0.0
 70
    32
 71
     5
 42
-1.0
  3
STANDARD
100
AcDbAlignedDimension
 13
945.0001220702999
 23
-791.0
 33
0.0
 14
913.0001220703
 24
-771.0
 34
0.0
 50
90.0
100
AcDbRotatedDimension
  0
DIMENSION
  5
80F6
330
1E
100
AcDbEntity
  8
30
  6
Continuous
100
AcDbDimension
  2
*D52
 10
692.0
 20
-893.6351367055513
 30
0.0
 11
799.50006103515
 21
-888.6351367055512
 31
0.0
 70
    32
 71
     5
 42
-1.0
  3
STANDARD
100
AcDbAlignedDimension
 13
907.0001220703
 23
-821.0
 33
0.0
 14
692.0
 24
-854.0
 34
0.0
100
AcDbRotatedDimension
  0
LINE
  5
8134
330
1E
100
AcDbEntity
  8
10
  6
Continuous
100
AcDbLine
 10
150.0004882813001
 20
770.3374709078497
 30
0.0
 11
150.0004882812993
 21
505.3372267671496
 31
0.0
  0
DIMENSION
  5
8198
330
1E
100
AcDbEntity
  8
30
  6
Continuous
100
AcDbDimension
  2
*D53
 10
112.5004882812993
 20
-347.6537165487632
 30
0.0
 11
0.0002441406496561
 21
-342.6537165487633
 31
0.0
 70
    32
 71
     5
 42
-1.0
  3
STANDARD
100
AcDbAlignedDimension
 13
-112.5
 23
-415.9997558593
 33
0.0
 14
112.5004882812993
 24
-415.9997558593
 34
0.0
100
AcDbRotatedDimension
  0
DIMENSION
  5
8206
330
1E
100
AcDbEntity
  8
30
  6
Continuous
100
AcDbDimension
  2
*D54
 10
939.4727440108534
 20
-118.5497380927194
 30
0.0
 11
921.8610652459783
 21
-86.24732181138027
 31
0.0
 70
   163
 71
     5
 42
-1.0
  3
STANDARD
100
AcDbDiametricDimension
 15
935.5475001297456
 25
-111.3502619072804
 35
0.0
 40
0.0
1001
ACAD
1000
DSTYLE
1002
{
1070
   288
1070
     1
1002
}
  0
LINE
  5
8207
330
1E
100
AcDbEntity
  8
17
  6
CONTINOUS
100
AcDbLine
 10
897.0101220703003
 20
-102.4499999999999
 30
0.0
 11
834.0101220703003
 21
-102.4499999999999
 31
0.0
  0
LINE
  5
8208
330
1E
100
AcDbEntity
  8
17
  6
CONTINOUS
100
AcDbLine
 10
922.0101220703003
 20
-127.4499999999999
 30
0.0
 11
834.0101220703003
 21
-127.4499999999999
 31
0.0
  0
LINE
  5
8209
330
1E
100
AcDbEntity
  8
17
  6
CONTINOUS
100
AcDbLine
 10
834.0101220703003
 20
-102.4499999999999
 30
0.0
 11
834.0101220703003
 21
-127.4499999999999
 31
0.0
  0
LINE
  5
820A
330
1E
100
AcDbEntity
  8
17
  6
CONTINOUS
100
AcDbLine
 10
897.0101220703003
 20
-102.4499999999999
 30
0.0
 11
950.0101220703005
 21
-102.4499999999999
 31
0.0
  0
LINE
  5
820B
330
1E
100
AcDbEntity
  8
17
  6
CONTINOUS
100
AcDbLine
 10
922.0101220703003
 20
-127.4499999999999
 30
0.0
 11
950.0101220703005
 21
-127.4499999999999
 31
0.0
  0
CIRCLE
  5
820C
330
1E
100
AcDbEntity
  8
17
  6
CONTINOUS
100
AcDbCircle
 10
937.0101220703004
 20
-114.9499999999999
 30
0.0
 40
4.099999904599826
  0
LINE
  5
820D
330
1E
100
AcDbEntity
  8
17
  6
CONTINOUS
100
AcDbLine
 10
950.0101220703005
 20
-102.4499999999999
 30
0.0
 11
950.0101220703005
 21
-127.4499999999999
 31
0.0
  0
DIMENSION
  5
842A
330
1E
100
AcDbEntity
  8
30
  6
Continuous
100
AcDbDimension
  2
*D55
 10
907.0001220703
 20
-46.31859550944319
 30
0.0
 11
922.0051220703
 21
-46.31859550944319
 31
0.0
 70
   160
 71
     5
 42
-1.0
  3
STANDARD
100
AcDbAlignedDimension
 13
937.0101220703004
 23
-113.9499999999999
 33
0.0
 14
907.0001220703
 24
-62.5
 34
0.0
100
AcDbRotatedDimension
1001
ACAD
1000
DSTYLE
1002
{
1070
    79
1070
     3
1002
}
  0
DIMENSION
  5
84AF
330
1E
100
AcDbEntity
  8
30
  6
Continuous
100
AcDbDimension
  2
*D56
 10
953.973859504109
 20
-0.0000000000000133
 30
0.0
 11
948.9738595041087
 21
-57.51999999999985
 31
0.0
 70
    32
 71
     5
 42
-1.0
  3
STANDARD
100
AcDbAlignedDimension
 13
937.5101220702994
 23
-115.04
 33
0.0
 14
907.0001220703
 24
0.0
 34
0.0
 50
90.0
100
AcDbRotatedDimension
1001
ACAD
1000
DSTYLE
1002
{
1070
    79
1070
     3
1002
}
  0
DIMENSION
  5
8547
330
1E
100
AcDbEntity
  8
30
  6
Continuous
100
AcDbDimension
  2
*D57
 10
100.0
 20
340.6765144355703
 30
0.0
 11
0.0000000000000927
 21
345.6765144355703
 31
0.0
 70
    32
 71
     5
 42
-1.0
  3
STANDARD
100
AcDbAlignedDimension
 13
-99.99999999999978
 23
549.3374709078494
 33
0.0
 14
100.0
 24
549.3374709078494
 34
0.0
100
AcDbRotatedDimension
1001
ACAD
1000
DSTYLE
1002
{
1070
    79
1070
     3
1002
}
  0
DIMENSION
  5
8564
330
1E
100
AcDbEntity
  8
30
  6
Continuous
100
AcDbDimension
  2
*D58
 10
100.0
 20
-920.5745464661779
 30
0.0
 11
0.0000000000000074
 21
-915.5745464661782
 31
0.0
 70
    32
 71
     5
 42
-1.0
  3
STANDARD
100
AcDbAlignedDimension
 13
-100.0
 23
-871.0
 33
0.0
 14
100.0
 24
-871.0
 34
0.0
100
AcDbRotatedDimension
1001
ACAD
1000
DSTYLE
1002
{
1070
    79
1070
     3
1002
}
  0
LWPOLYLINE
  5
85D2
330
1E
100
AcDbEntity
  8
18
100
AcDbPolyline
 90
       12
 70
     0
 43
0.0
 10
-20.68457031249999
 20
437.3372267671497
 42
-0.3952649206514862
 10
-15.69516982406276
 20
432.6626230885521
 42
0.3952649206510883
 10
-20.68457031249999
 20
437.3372267671497
 10
-34.5
 20
437.3372267671497
 42
-0.4142135623730951
 10
-39.5
 20
442.3372267671497
 10
-39.5
 20
485.3372267671496
 10
39.5
 20
485.3372267671496
 10
39.5
 20
442.3372267671497
 42
-0.4142135623730951
 10
34.5
 20
437.3372267671497
 10
20.68472609898483
 20
437.3372267671497
 42
0.3952632559110944
 10
15.69532748464688
 20
432.6626518234108
 10
13.23583984380002
 20
394.9539259858496
  0
LWPOLYLINE
  5
85D3
330
1E
100
AcDbEntity
  8
18
100
AcDbPolyline
 90
        2
 70
     0
 43
0.0
 10
-15.50277462973539
 20
389.3273409156867
 42
2.579545223961849
 10
15.50277800559692
 20
389.3273378353524
  0
LWPOLYLINE
  5
85D4
330
1E
100
AcDbEntity
  8
18
100
AcDbPolyline
 90
        2
 70
     0
 43
0.0
 10
15.5027050917392
 20
389.3274043658889
 42
0.3876628149296077
 10
-15.50270468649747
 20
389.3274047356523
  0
LWPOLYLINE
  5
85D5
330
1E
100
AcDbEntity
  8
18
100
AcDbPolyline
 90
        2
 70
     0
 43
0.0
 10
-15.69482421869997
 20
432.6624220796496
 10
-13.23583984369997
 20
394.9539259858496
  0
LWPOLYLINE
  5
85D6
330
1E
100
AcDbEntity
  8
18
100
AcDbPolyline
 90
        2
 70
     0
 43
0.0
 10
-15.50246568321001
 20
389.3274568109611
 42
0.2278926734499888
 10
-13.23554178950005
 20
394.9539044373492
  0
LWPOLYLINE
  5
85D7
330
1E
100
AcDbEntity
  8
18
100
AcDbPolyline
 90
        2
 70
     0
 43
0.0
 10
13.23603008164543
 20
394.9539046039527
 42
0.2278926734517517
 10
15.5029538412006
 20
389.327456923449
  0
VIEWPORT
  5
9AC
330
1A
100
AcDbEntity
 67
     1
  8
0
  6
Continuous
100
AcDbViewport
 10
171.9995348790992
 20
144.1384735538403
 30
0.0
 40
488.8676857773512
 41
292.3514905034161
 68
     1
 69
     1
 12
171.9995348790992
 22
144.1384735538403
 13
0.0
 23
0.0
 14
10.0
 24
10.0
 15
10.0
 25
10.0
 16
0.0
 26
0.0
 36
1.0
 17
0.0
 27
0.0
 37
0.0
 42
50.0
 43
0.0
 44
0.0
 45
292.3514905034161
 50
0.0
 51
0.0
 72
   100
 90
    32800
  1

281
     0
 71
     1
 74
     0
110
0.0
120
0.0
130
0.0
111
1.0
121
0.0
131
0.0
112
0.0
122
1.0
132
0.0
 79
     0
146
0.0
  0
ENDSEC
  0
SECTION
  2
OBJECTS
  0
DICTIONARY
  5
C
330
0
100
AcDbDictionary
281
     1
  3
ACAD_GROUP
350
D
  3
ACAD_LAYOUT
350
19
  3
ACAD_MLINESTYLE
350
16
  3
ACAD_PLOTSETTINGS
350
18
  3
ACAD_PLOTSTYLENAME
350
E
  3
ACDBHEADERROUNDTRIPXREC
350
8623
  3
ACDBVARIABLEDICTIONARY
350
6C1E
  0
DICTIONARY
  5
178
330
1E
100
AcDbDictionary
280
     1
281
     1
  3
ACAD_LAYOUTSELFREF
360
85FC
  0
DICTIONARY
  5
17A
330
1A
100
AcDbDictionary
280
     1
281
     1
  3
ACAD_LAYOUTSELFREF
360
85FB
  0
DICTIONARY
  5
D
102
{ACAD_REACTORS
330
C
102
}
330
C
100
AcDbDictionary
281
     1
  0
DICTIONARY
  5
19
102
{ACAD_REACTORS
330
C
102
}
330
C
100
AcDbDictionary
281
     1
  3
Model
350
861F
  3
ﾚｲｱｳﾄ1
350
8620
  0
DICTIONARY
  5
16
102
{ACAD_REACTORS
330
C
102
}
330
C
100
AcDbDictionary
281
     1
  3
STANDARD
350
17
  0
DICTIONARY
  5
18
102
{ACAD_REACTORS
330
C
102
}
330
C
100
AcDbDictionary
281
     1
  0
ACDBDICTIONARYWDFLT
  5
E
102
{ACAD_REACTORS
330
C
102
}
330
C
100
AcDbDictionary
281
     1
  3
Normal
350
F
100
AcDbDictionaryWithDefault
340
F
  0
DICTIONARY
  5
8623
102
{ACAD_REACTORS
330
C
102
}
330
C
100
AcDbDictionary
281
     1
  3
CEPSNTYPE
350
862D
  3
DIMSTYLEDATA
350
8631
  3
FINGERPRINTGUID
350
862E
  3
HYPERLINKBASE
350
8626
  3
INSUNITS
350
862C
  3
LAYOUTDICT
350
8628
  3
LWETCUNION
350
862B
  3
PLOTSETDICT
350
8629
  3
PLOTSTYLNAMDICT
350
862A
  3
PSVPSCALE
350
8630
  3
PUCSBASE
350
8634
  3
PUCSORGBACK
350
863A
  3
PUCSORGBOTTOM
350
8636
  3
PUCSORGFRONT
350
8639
  3
PUCSORGLEFT
350
8637
  3
PUCSORGRIGHT
350
8638
  3
PUCSORGTOP
350
8635
  3
PUCSORTHOREF
350
8632
  3
PUCSORTHOVIEW
350
8633
  3
STYLESHEET
350
8627
  3
TSTACKALIGN
350
8624
  3
TSTACKSIZE
350
8625
  3
UCSBASE
350
863D
  3
UCSORGBACK
350
8643
  3
UCSORGBOTTOM
350
863F
  3
UCSORGFRONT
350
8642
  3
UCSORGLEFT
350
8640
  3
UCSORGRIGHT
350
8641
  3
UCSORGTOP
350
863E
  3
UCSORTHOREF
350
863B
  3
UCSORTHOVIEW
350
863C
  3
VERSIONGUID
350
862F
  0
DICTIONARY
  5
6C1E
102
{ACAD_REACTORS
330
C
102
}
330
C
100
AcDbDictionary
281
     1
  3
DIMASSOC
350
8133
  3
SORTENTS
350
6C1F
  0
XRECORD
  5
85FC
102
{ACAD_REACTORS
330
178
102
}
330
178
100
AcDbXrecord
280
     1
340
1E
  0
XRECORD
  5
85FB
102
{ACAD_REACTORS
330
17A
102
}
330
17A
100
AcDbXrecord
280
     1
340
1A
  0
LAYOUT
  5
861F
102
{ACAD_REACTORS
330
19
102
}
330
19
100
AcDbPlotSettings
  1

  2
Canon LBP3800 LIPSLX
  4

  6

 40
0.0
 41
0.0
 42
0.0
 43
0.0
 44
0.0
 45
0.0
 46
0.0
 47
0.0
 48
0.0
 49
0.0
140
0.0
141
0.0
142
1.0
143
1.0
 70
  1712
 72
     0
 73
     0
 74
     0
  7

 75
     0
147
1.0
148
0.0
149
0.0
100
AcDbLayout
  1
Model
 70
     1
 71
     0
 10
0.0
 20
0.0
 11
12.0
 21
9.0
 12
0.0
 22
0.0
 32
0.0
 14
0.0
 24
0.0
 34
0.0
 15
0.0
 25
0.0
 35
0.0
146
0.0
 13
0.0
 23
0.0
 33
0.0
 16
1.0
 26
0.0
 36
0.0
 17
0.0
 27
1.0
 37
0.0
 76
     0
330
1E
  0
LAYOUT
  5
8620
102
{ACAD_REACTORS
330
19
102
}
330
19
100
AcDbPlotSettings
  1

  2
Canon LBP3800 LIPSLX
  4

  6

 40
0.0
 41
0.0
 42
0.0
 43
0.0
 44
0.0
 45
0.0
 46
0.0
 47
0.0
 48
0.0
 49
0.0
140
0.0
141
0.0
142
1.0
143
1.0
 70
   688
 72
     0
 73
     0
 74
     5
  7

 75
    16
147
1.0
148
0.0
149
0.0
100
AcDbLayout
  1
ﾚｲｱｳﾄ1
 70
     1
 71
     1
 10
-5.873748779296875
 20
-5.873749732971191
 11
204.0995788574218
 21
291.1369009017943
 12
0.0
 22
0.0
 32
0.0
 14
4.273573370203961
 24
5.205246163471485
 34
0.0
 15
194.6100952986349
 25
283.0697008572913
 35
0.0
146
0.0
 13
0.0
 23
0.0
 33
0.0
 16
1.0
 26
0.0
 36
0.0
 17
0.0
 27
1.0
 37
0.0
 76
     0
330
1A
331
9AC
  0
MLINESTYLE
  5
17
102
{ACAD_REACTORS
330
16
102
}
330
16
100
AcDbMlineStyle
  2
STANDARD
 70
     0
  3

 62
   256
 51
90.0
 52
90.0
 71
     2
 49
0.5
 62
   256
  6
BYLAYER
 49
-0.5
 62
   256
  6
BYLAYER
  0
ACDBPLACEHOLDER
  5
F
102
{ACAD_REACTORS
330
E
102
}
330
E
  0
XRECORD
  5
862D
102
{ACAD_REACTORS
330
8623
102
}
330
8623
100
AcDbXrecord
280
     1
 90
        0
  0
XRECORD
  5
8631
102
{ACAD_REACTORS
330
8623
102
}
330
8623
100
AcDbXrecord
280
     1
1000
DSTYLE
1002
{
1070
    79
 70
     3
1070
   341
340
3B2
1070
   342
340
3B2
1002
}
  0
XRECORD
  5
862E
102
{ACAD_REACTORS
330
8623
102
}
330
8623
100
AcDbXrecord
280
     1
  1

  0
XRECORD
  5
8626
102
{ACAD_REACTORS
330
8623
102
}
330
8623
100
AcDbXrecord
280
     1
  1

  0
XRECORD
  5
862C
102
{ACAD_REACTORS
330
8623
102
}
330
8623
100
AcDbXrecord
280
     1
 90
        0
  0
XRECORD
  5
8628
102
{ACAD_REACTORS
330
8623
102
}
330
8623
100
AcDbXrecord
280
     1
340
19
  0
XRECORD
  5
862B
102
{ACAD_REACTORS
330
8623
102
}
330
8623
100
AcDbXrecord
280
     1
 90
    10781
  0
XRECORD
  5
8629
102
{ACAD_REACTORS
330
8623
102
}
330
8623
100
AcDbXrecord
280
     1
340
18
  0
XRECORD
  5
862A
102
{ACAD_REACTORS
330
8623
102
}
330
8623
100
AcDbXrecord
280
     1
340
E
  0
XRECORD
  5
8630
102
{ACAD_REACTORS
330
8623
102
}
330
8623
100
AcDbXrecord
280
     1
 40
0.0
  0
XRECORD
  5
8634
102
{ACAD_REACTORS
330
8623
102
}
330
8623
100
AcDbXrecord
280
     1
340
0
  0
XRECORD
  5
863A
102
{ACAD_REACTORS
330
8623
102
}
330
8623
100
AcDbXrecord
280
     1
 10
0.0
 20
0.0
 30
0.0
  0
XRECORD
  5
8636
102
{ACAD_REACTORS
330
8623
102
}
330
8623
100
AcDbXrecord
280
     1
 10
0.0
 20
0.0
 30
0.0
  0
XRECORD
  5
8639
102
{ACAD_REACTORS
330
8623
102
}
330
8623
100
AcDbXrecord
280
     1
 10
0.0
 20
0.0
 30
0.0
  0
XRECORD
  5
8637
102
{ACAD_REACTORS
330
8623
102
}
330
8623
100
AcDbXrecord
280
     1
 10
0.0
 20
0.0
 30
0.0
  0
XRECORD
  5
8638
102
{ACAD_REACTORS
330
8623
102
}
330
8623
100
AcDbXrecord
280
     1
 10
0.0
 20
0.0
 30
0.0
  0
XRECORD
  5
8635
102
{ACAD_REACTORS
330
8623
102
}
330
8623
100
AcDbXrecord
280
     1
 10
0.0
 20
0.0
 30
0.0
  0
XRECORD
  5
8632
102
{ACAD_REACTORS
330
8623
102
}
330
8623
100
AcDbXrecord
280
     1
340
0
  0
XRECORD
  5
8633
102
{ACAD_REACTORS
330
8623
102
}
330
8623
100
AcDbXrecord
280
     1
 70
     0
  0
XRECORD
  5
8627
102
{ACAD_REACTORS
330
8623
102
}
330
8623
100
AcDbXrecord
280
     1
  1
kiki.ctb
  0
XRECORD
  5
8624
102
{ACAD_REACTORS
330
8623
102
}
330
8623
100
AcDbXrecord
280
     1
 90
        1
  0
XRECORD
  5
8625
102
{ACAD_REACTORS
330
8623
102
}
330
8623
100
AcDbXrecord
280
     1
 90
       70
  0
XRECORD
  5
863D
102
{ACAD_REACTORS
330
8623
102
}
330
8623
100
AcDbXrecord
280
     1
340
0
  0
XRECORD
  5
8643
102
{ACAD_REACTORS
330
8623
102
}
330
8623
100
AcDbXrecord
280
     1
 10
0.0
 20
0.0
 30
0.0
  0
XRECORD
  5
863F
102
{ACAD_REACTORS
330
8623
102
}
330
8623
100
AcDbXrecord
280
     1
 10
0.0
 20
0.0
 30
0.0
  0
XRECORD
  5
8642
102
{ACAD_REACTORS
330
8623
102
}
330
8623
100
AcDbXrecord
280
     1
 10
0.0
 20
0.0
 30
0.0
  0
XRECORD
  5
8640
102
{ACAD_REACTORS
330
8623
102
}
330
8623
100
AcDbXrecord
280
     1
 10
0.0
 20
0.0
 30
0.0
  0
XRECORD
  5
8641
102
{ACAD_REACTORS
330
8623
102
}
330
8623
100
AcDbXrecord
280
     1
 10
0.0
 20
0.0
 30
0.0
  0
XRECORD
  5
863E
102
{ACAD_REACTORS
330
8623
102
}
330
8623
100
AcDbXrecord
280
     1
 10
0.0
 20
0.0
 30
0.0
  0
XRECORD
  5
863B
102
{ACAD_REACTORS
330
8623
102
}
330
8623
100
AcDbXrecord
280
     1
340
0
  0
XRECORD
  5
863C
102
{ACAD_REACTORS
330
8623
102
}
330
8623
100
AcDbXrecord
280
     1
 70
     0
  0
XRECORD
  5
862F
102
{ACAD_REACTORS
330
8623
102
}
330
8623
100
AcDbXrecord
280
     1
  1
{E7C5A215-B29D-426E-8992-0DFFD66B5BC4}
  0
DICTIONARYVAR
  5
8133
102
{ACAD_REACTORS
330
6C1E
102
}
330
6C1E
100
DictionaryVariables
280
     0
  1
1
  0
DICTIONARYVAR
  5
6C1F
102
{ACAD_REACTORS
330
6C1E
102
}
330
6C1E
100
DictionaryVariables
280
     0
  1
96
  0
ENDSEC
  0
EOF
