  0
SECTION
  2
HEADER
  9
$ACADVER
  1
AC1014
  9
$ACADMAINTVER
 70
     9
  9
$DWGCODEPAGE
  3
ANSI_932
  9
$INSBASE
 10
0.0
 20
0.0
 30
0.0
  9
$EXTMIN
 10
-65.08297204044554
 20
-348.5993337838806
 30
0.0
  9
$EXTMAX
 10
252.2681462467816
 20
200.1403200904996
 30
0.0
  9
$LIMMIN
 10
-296.316999476111
 20
-370.7034300441653
  9
$LIMMAX
 10
623.3128432133979
 20
328.6261559379898
  9
$ORTHOMODE
 70
     1
  9
$REGENMODE
 70
     1
  9
$FILLMODE
 70
     1
  9
$QTEXTMODE
 70
     0
  9
$MIRRTEXT
 70
     1
  9
$DRAGMODE
 70
     2
  9
$LTSCALE
 40
10.0
  9
$OSMODE
 70
    37
  9
$ATTMODE
 70
     1
  9
$TEXTSIZE
 40
5.0
  9
$TRACEWID
 40
0.05
  9
$TEXTSTYLE
  7
STANDARD1
  9
$CLAYER
  8
30
  9
$CELTYPE
  6
CONTINUOUS
  9
$CECOLOR
 62
   256
  9
$CELTSCALE
 40
1.0
  9
$DELOBJ
 70
     1
  9
$DISPSILH
 70
     0
  9
$DIMSCALE
 40
1.0
  9
$DIMASZ
 40
2.0
  9
$DIMEXO
 40
1.0
  9
$DIMDLI
 40
0.5
  9
$DIMRND
 40
0.0
  9
$DIMDLE
 40
0.0
  9
$DIMEXE
 40
0.5
  9
$DIMTP
 40
0.0
  9
$DIMTM
 40
0.0
  9
$DIMTXT
 40
4.0
  9
$DIMCEN
 40
0.09
  9
$DIMTSZ
 40
0.0
  9
$DIMTOL
 70
     0
  9
$DIMLIM
 70
     0
  9
$DIMTIH
 70
     0
  9
$DIMTOH
 70
     1
  9
$DIMSE1
 70
     0
  9
$DIMSE2
 70
     0
  9
$DIMTAD
 70
     3
  9
$DIMZIN
 70
    12
  9
$DIMBLK
  1
OPEN
  9
$DIMASO
 70
     1
  9
$DIMSHO
 70
     1
  9
$DIMPOST
  1

  9
$DIMAPOST
  1

  9
$DIMALT
 70
     0
  9
$DIMALTD
 70
     2
  9
$DIMALTF
 40
25.4
  9
$DIMLFAC
 40
1.0
  9
$DIMTOFL
 70
     0
  9
$DIMTVP
 40
0.0
  9
$DIMTIX
 70
     0
  9
$DIMSOXD
 70
     0
  9
$DIMSAH
 70
     0
  9
$DIMBLK1
  1

  9
$DIMBLK2
  1

  9
$DIMSTYLE
  2
STANDARD
  9
$DIMCLRD
 70
     0
  9
$DIMCLRE
 70
     0
  9
$DIMCLRT
 70
     0
  9
$DIMTFAC
 40
1.0
  9
$DIMGAP
 40
1.0
  9
$DIMJUST
 70
     0
  9
$DIMSD1
 70
     0
  9
$DIMSD2
 70
     0
  9
$DIMTOLJ
 70
     1
  9
$DIMTZIN
 70
     0
  9
$DIMALTZ
 70
     0
  9
$DIMALTTZ
 70
     0
  9
$DIMFIT
 70
     3
  9
$DIMUPT
 70
     0
  9
$DIMUNIT
 70
     2
  9
$DIMDEC
 70
     1
  9
$DIMTDEC
 70
     1
  9
$DIMALTU
 70
     2
  9
$DIMALTTD
 70
     2
  9
$DIMTXSTY
  7
STANDARD
  9
$DIMAUNIT
 70
     0
  9
$LUNITS
 70
     2
  9
$LUPREC
 70
     4
  9
$SKETCHINC
 40
0.1
  9
$FILLETRAD
 40
0.0
  9
$AUNITS
 70
     0
  9
$AUPREC
 70
     0
  9
$MENU
  1
.
  9
$ELEVATION
 40
0.0
  9
$PELEVATION
 40
0.0
  9
$THICKNESS
 40
0.0
  9
$LIMCHECK
 70
     0
  9
$BLIPMODE
 70
     0
  9
$CHAMFERA
 40
0.0
  9
$CHAMFERB
 40
0.0
  9
$CHAMFERC
 40
0.0
  9
$CHAMFERD
 40
0.0
  9
$SKPOLY
 70
     0
  9
$TDCREATE
 40
2452286.555658657
  9
$TDUPDATE
 40
2453081.389814988
  9
$TDINDWG
 40
1.2519264120
  9
$TDUSRTIMER
 40
1.2519256829
  9
$USRTIMER
 70
     1
  9
$ANGBASE
 50
0.0
  9
$ANGDIR
 70
     0
  9
$PDMODE
 70
     0
  9
$PDSIZE
 40
0.0
  9
$PLINEWID
 40
0.0
  9
$COORDS
 70
     1
  9
$SPLFRAME
 70
     0
  9
$SPLINETYPE
 70
     6
  9
$SPLINESEGS
 70
     8
  9
$ATTDIA
 70
     0
  9
$ATTREQ
 70
     1
  9
$HANDLING
 70
 22529
  9
$HANDSEED
  5
6975
  9
$SURFTAB1
 70
     6
  9
$SURFTAB2
 70
     6
  9
$SURFTYPE
 70
     6
  9
$SURFU
 70
     6
  9
$SURFV
 70
     6
  9
$UCSNAME
  2

  9
$UCSORG
 10
0.0
 20
0.0
 30
0.0
  9
$UCSXDIR
 10
1.0
 20
0.0
 30
0.0
  9
$UCSYDIR
 10
0.0
 20
1.0
 30
0.0
  9
$PUCSNAME
  2

  9
$PUCSORG
 10
0.0
 20
0.0
 30
0.0
  9
$PUCSXDIR
 10
1.0
 20
0.0
 30
0.0
  9
$PUCSYDIR
 10
0.0
 20
1.0
 30
0.0
  9
$USERI1
 70
     0
  9
$USERI2
 70
     0
  9
$USERI3
 70
     0
  9
$USERI4
 70
     0
  9
$USERI5
 70
     0
  9
$USERR1
 40
0.0
  9
$USERR2
 40
0.0
  9
$USERR3
 40
0.0
  9
$USERR4
 40
0.0
  9
$USERR5
 40
0.0
  9
$WORLDVIEW
 70
     1
  9
$SHADEDGE
 70
     3
  9
$SHADEDIF
 70
    70
  9
$TILEMODE
 70
     1
  9
$MAXACTVP
 70
    48
  9
$PINSBASE
 10
0.0
 20
0.0
 30
0.0
  9
$PLIMCHECK
 70
     0
  9
$PEXTMIN
 10
4.273573
 20
5.205245999999998
 30
0.0
  9
$PEXTMAX
 10
194.610095
 20
283.0697009999996
 30
0.0
  9
$PLIMMIN
 10
-5.873749
 20
-5.87375
  9
$PLIMMAX
 10
204.099579
 20
291.1369009999999
  9
$UNITMODE
 70
     0
  9
$VISRETAIN
 70
     1
  9
$PLINEGEN
 70
     0
  9
$PSLTSCALE
 70
     1
  9
$TREEDEPTH
 70
  3020
  9
$PICKSTYLE
 70
     1
  9
$CMLSTYLE
  2
STANDARD
  9
$CMLJUST
 70
     0
  9
$CMLSCALE
 40
1.0
  9
$PROXYGRAPHICS
 70
     1
  9
$MEASUREMENT
 70
     0
  0
ENDSEC
  0
SECTION
  2
CLASSES
  0
CLASS
  1
ACDBDICTIONARYWDFLT
  2
AcDbDictionaryWithDefault
  3
AutoCAD 2000
 90
        0
280
     0
281
     0
  0
CLASS
  1
ACDBPLACEHOLDER
  2
AcDbPlaceHolder
  3
AutoCAD 2000
 90
        0
280
     0
281
     0
  0
CLASS
  1
LAYOUT
  2
AcDbLayout
  3
AutoCAD 2000
 90
        0
280
     0
281
     0
  0
CLASS
  1
LONG_TRANSACTION
  2
AcDbLongTransaction
  3
AutoCAD 2000
 90
        0
280
     0
281
     0
  0
CLASS
  1
LWPOLYLINE
  2
AcDbPolyline
  3
AutoCAD 2000
 90
        0
280
     0
281
     1
  0
CLASS
  1
HATCH
  2
AcDbHatch
  3
AutoCAD 2000
 90
        0
280
     0
281
     1
  0
CLASS
  1
XRECORD
  2
AcDbXrecord
  3
AutoCAD 2000
 90
        0
280
     0
281
     0
  0
CLASS
  1
LONG_TRANSACTION
  2
AcDbLongTransaction
  3
AutoCAD 2000
 90
        0
280
     0
281
     0
  0
CLASS
  1
LWPOLYLINE
  2
AcDbPolyline
  3
AutoCAD 2000
 90
        0
280
     0
281
     1
  0
CLASS
  1
HATCH
  2
AcDbHatch
  3
AutoCAD 2000
 90
        0
280
     0
281
     1
  0
CLASS
  1
XRECORD
  2
AcDbXrecord
  3
AutoCAD 2000
 90
        0
280
     0
281
     0
  0
CLASS
  1
LONG_TRANSACTION
  2
AcDbLongTransaction
  3
AutoCAD 2000
 90
        0
280
     0
281
     0
  0
CLASS
  1
LWPOLYLINE
  2
AcDbPolyline
  3
AutoCAD 2000
 90
        0
280
     0
281
     1
  0
CLASS
  1
HATCH
  2
AcDbHatch
  3
AutoCAD 2000
 90
        0
280
     0
281
     1
  0
CLASS
  1
XRECORD
  2
AcDbXrecord
  3
AutoCAD 2000
 90
        0
280
     0
281
     0
  0
CLASS
  1
LONG_TRANSACTION
  2
AcDbLongTransaction
  3
AutoCAD 2000
 90
        0
280
     0
281
     0
  0
CLASS
  1
LWPOLYLINE
  2
AcDbPolyline
  3
AutoCAD 2000
 90
        0
280
     0
281
     1
  0
CLASS
  1
HATCH
  2
AcDbHatch
  3
AutoCAD 2000
 90
        0
280
     0
281
     1
  0
CLASS
  1
XRECORD
  2
AcDbXrecord
  3
AutoCAD 2000
 90
        0
280
     0
281
     0
  0
CLASS
  1
LONG_TRANSACTION
  2
AcDbLongTransaction
  3
AutoCAD 2000
 90
        0
280
     0
281
     0
  0
CLASS
  1
LWPOLYLINE
  2
AcDbPolyline
  3
AutoCAD 2000
 90
        0
280
     0
281
     1
  0
CLASS
  1
HATCH
  2
AcDbHatch
  3
AutoCAD 2000
 90
        0
280
     0
281
     1
  0
CLASS
  1
XRECORD
  2
AcDbXrecord
  3
AutoCAD 2000
 90
        0
280
     0
281
     0
  0
CLASS
  1
LONG_TRANSACTION
  2
AcDbLongTransaction
  3
AutoCAD 2000
 90
        0
280
     0
281
     0
  0
CLASS
  1
LWPOLYLINE
  2
AcDbPolyline
  3
AutoCAD 2000
 90
        0
280
     0
281
     1
  0
CLASS
  1
HATCH
  2
AcDbHatch
  3
AutoCAD 2000
 90
        0
280
     0
281
     1
  0
CLASS
  1
XRECORD
  2
AcDbXrecord
  3
AutoCAD 2000
 90
        0
280
     0
281
     0
  0
CLASS
  1
LONG_TRANSACTION
  2
AcDbLongTransaction
  3
AutoCAD 2000
 90
        0
280
     0
281
     0
  0
CLASS
  1
LWPOLYLINE
  2
AcDbPolyline
  3
AutoCAD 2000
 90
        0
280
     0
281
     1
  0
CLASS
  1
HATCH
  2
AcDbHatch
  3
AutoCAD 2000
 90
        0
280
     0
281
     1
  0
CLASS
  1
XRECORD
  2
AcDbXrecord
  3
AutoCAD 2000
 90
        0
280
     0
281
     0
  0
CLASS
  1
LONG_TRANSACTION
  2
AcDbLongTransaction
  3
AutoCAD 2000
 90
        0
280
     0
281
     0
  0
CLASS
  1
LWPOLYLINE
  2
AcDbPolyline
  3
AutoCAD 2000
 90
        0
280
     0
281
     1
  0
CLASS
  1
HATCH
  2
AcDbHatch
  3
AutoCAD 2000
 90
        0
280
     0
281
     1
  0
CLASS
  1
XRECORD
  2
AcDbXrecord
  3
AutoCAD 2000
 90
        0
280
     0
281
     0
  0
CLASS
  1
LONG_TRANSACTION
  2
AcDbLongTransaction
  3
AutoCAD 2000
 90
        0
280
     0
281
     0
  0
CLASS
  1
LWPOLYLINE
  2
AcDbPolyline
  3
AutoCAD 2000
 90
        0
280
     0
281
     1
  0
CLASS
  1
HATCH
  2
AcDbHatch
  3
AutoCAD 2000
 90
        0
280
     0
281
     1
  0
CLASS
  1
XRECORD
  2
AcDbXrecord
  3
AutoCAD 2000
 90
        0
280
     0
281
     0
  0
CLASS
  1
LONG_TRANSACTION
  2
AcDbLongTransaction
  3
AutoCAD 2000
 90
        0
280
     0
281
     0
  0
CLASS
  1
LWPOLYLINE
  2
AcDbPolyline
  3
AutoCAD 2000
 90
        0
280
     0
281
     1
  0
CLASS
  1
HATCH
  2
AcDbHatch
  3
AutoCAD 2000
 90
        0
280
     0
281
     1
  0
CLASS
  1
XRECORD
  2
AcDbXrecord
  3
AutoCAD 2000
 90
        0
280
     0
281
     0
  0
CLASS
  1
LONG_TRANSACTION
  2
AcDbLongTransaction
  3
AutoCAD 2000
 90
        0
280
     0
281
     0
  0
CLASS
  1
LWPOLYLINE
  2
AcDbPolyline
  3
AutoCAD 2000
 90
        0
280
     0
281
     1
  0
CLASS
  1
HATCH
  2
AcDbHatch
  3
AutoCAD 2000
 90
        0
280
     0
281
     1
  0
CLASS
  1
XRECORD
  2
AcDbXrecord
  3
AutoCAD 2000
 90
        0
280
     0
281
     0
  0
CLASS
  1
LONG_TRANSACTION
  2
AcDbLongTransaction
  3
AutoCAD 2000
 90
        0
280
     0
281
     0
  0
CLASS
  1
LWPOLYLINE
  2
AcDbPolyline
  3
AutoCAD 2000
 90
        0
280
     0
281
     1
  0
CLASS
  1
HATCH
  2
AcDbHatch
  3
AutoCAD 2000
 90
        0
280
     0
281
     1
  0
CLASS
  1
XRECORD
  2
AcDbXrecord
  3
AutoCAD 2000
 90
        0
280
     0
281
     0
  0
CLASS
  1
LONG_TRANSACTION
  2
AcDbLongTransaction
  3
AutoCAD 2000
 90
        0
280
     0
281
     0
  0
CLASS
  1
LWPOLYLINE
  2
AcDbPolyline
  3
AutoCAD 2000
 90
        0
280
     0
281
     1
  0
CLASS
  1
HATCH
  2
AcDbHatch
  3
AutoCAD 2000
 90
        0
280
     0
281
     1
  0
CLASS
  1
XRECORD
  2
AcDbXrecord
  3
AutoCAD 2000
 90
        0
280
     0
281
     0
  0
CLASS
  1
LONG_TRANSACTION
  2
AcDbLongTransaction
  3
AutoCAD 2000
 90
        0
280
     0
281
     0
  0
CLASS
  1
LWPOLYLINE
  2
AcDbPolyline
  3
AutoCAD 2000
 90
        0
280
     0
281
     1
  0
CLASS
  1
HATCH
  2
AcDbHatch
  3
AutoCAD 2000
 90
        0
280
     0
281
     1
  0
CLASS
  1
XRECORD
  2
AcDbXrecord
  3
AutoCAD 2000
 90
        0
280
     0
281
     0
  0
CLASS
  1
LONG_TRANSACTION
  2
AcDbLongTransaction
  3
AutoCAD 2000
 90
        0
280
     0
281
     0
  0
CLASS
  1
LWPOLYLINE
  2
AcDbPolyline
  3
AutoCAD 2000
 90
        0
280
     0
281
     1
  0
CLASS
  1
HATCH
  2
AcDbHatch
  3
AutoCAD 2000
 90
        0
280
     0
281
     1
  0
CLASS
  1
XRECORD
  2
AcDbXrecord
  3
AutoCAD 2000
 90
        0
280
     0
281
     0
  0
CLASS
  1
LONG_TRANSACTION
  2
AcDbLongTransaction
  3
AutoCAD 2000
 90
        0
280
     0
281
     0
  0
CLASS
  1
LWPOLYLINE
  2
AcDbPolyline
  3
AutoCAD 2000
 90
        0
280
     0
281
     1
  0
CLASS
  1
HATCH
  2
AcDbHatch
  3
AutoCAD 2000
 90
        0
280
     0
281
     1
  0
CLASS
  1
XRECORD
  2
AcDbXrecord
  3
AutoCAD 2000
 90
        0
280
     0
281
     0
  0
CLASS
  1
LONG_TRANSACTION
  2
AcDbLongTransaction
  3
AutoCAD 2000
 90
        0
280
     0
281
     0
  0
CLASS
  1
LWPOLYLINE
  2
AcDbPolyline
  3
AutoCAD 2000
 90
        0
280
     0
281
     1
  0
CLASS
  1
HATCH
  2
AcDbHatch
  3
AutoCAD 2000
 90
        0
280
     0
281
     1
  0
CLASS
  1
XRECORD
  2
AcDbXrecord
  3
AutoCAD 2000
 90
        0
280
     0
281
     0
  0
CLASS
  1
LONG_TRANSACTION
  2
AcDbLongTransaction
  3
AutoCAD 2000
 90
        0
280
     0
281
     0
  0
CLASS
  1
LWPOLYLINE
  2
AcDbPolyline
  3
AutoCAD 2000
 90
        0
280
     0
281
     1
  0
CLASS
  1
HATCH
  2
AcDbHatch
  3
AutoCAD 2000
 90
        0
280
     0
281
     1
  0
CLASS
  1
XRECORD
  2
AcDbXrecord
  3
AutoCAD 2000
 90
        0
280
     0
281
     0
  0
CLASS
  1
LONG_TRANSACTION
  2
AcDbLongTransaction
  3
AutoCAD 2000
 90
        0
280
     0
281
     0
  0
CLASS
  1
LWPOLYLINE
  2
AcDbPolyline
  3
AutoCAD 2000
 90
        0
280
     0
281
     1
  0
CLASS
  1
HATCH
  2
AcDbHatch
  3
AutoCAD 2000
 90
        0
280
     0
281
     1
  0
CLASS
  1
XRECORD
  2
AcDbXrecord
  3
AutoCAD 2000
 90
        0
280
     0
281
     0
  0
CLASS
  1
LONG_TRANSACTION
  2
AcDbLongTransaction
  3
AutoCAD 2000
 90
        0
280
     0
281
     0
  0
CLASS
  1
LWPOLYLINE
  2
AcDbPolyline
  3
AutoCAD 2000
 90
        0
280
     0
281
     1
  0
CLASS
  1
HATCH
  2
AcDbHatch
  3
AutoCAD 2000
 90
        0
280
     0
281
     1
  0
CLASS
  1
XRECORD
  2
AcDbXrecord
  3
AutoCAD 2000
 90
        0
280
     0
281
     0
  0
CLASS
  1
LONG_TRANSACTION
  2
AcDbLongTransaction
  3
AutoCAD 2000
 90
        0
280
     0
281
     0
  0
CLASS
  1
LWPOLYLINE
  2
AcDbPolyline
  3
AutoCAD 2000
 90
        0
280
     0
281
     1
  0
CLASS
  1
HATCH
  2
AcDbHatch
  3
AutoCAD 2000
 90
        0
280
     0
281
     1
  0
CLASS
  1
XRECORD
  2
AcDbXrecord
  3
AutoCAD 2000
 90
        0
280
     0
281
     0
  0
CLASS
  1
LONG_TRANSACTION
  2
AcDbLongTransaction
  3
AutoCAD 2000
 90
        0
280
     0
281
     0
  0
CLASS
  1
LWPOLYLINE
  2
AcDbPolyline
  3
AutoCAD 2000
 90
        0
280
     0
281
     1
  0
CLASS
  1
HATCH
  2
AcDbHatch
  3
AutoCAD 2000
 90
        0
280
     0
281
     1
  0
CLASS
  1
XRECORD
  2
AcDbXrecord
  3
AutoCAD 2000
 90
        0
280
     0
281
     0
  0
CLASS
  1
LONG_TRANSACTION
  2
AcDbLongTransaction
  3
AutoCAD 2000
 90
        0
280
     0
281
     0
  0
CLASS
  1
LWPOLYLINE
  2
AcDbPolyline
  3
AutoCAD 2000
 90
        0
280
     0
281
     1
  0
CLASS
  1
HATCH
  2
AcDbHatch
  3
AutoCAD 2000
 90
        0
280
     0
281
     1
  0
CLASS
  1
XRECORD
  2
AcDbXrecord
  3
AutoCAD 2000
 90
        0
280
     0
281
     0
  0
CLASS
  1
LONG_TRANSACTION
  2
AcDbLongTransaction
  3
AutoCAD 2000
 90
        0
280
     0
281
     0
  0
CLASS
  1
LWPOLYLINE
  2
AcDbPolyline
  3
AutoCAD 2000
 90
        0
280
     0
281
     1
  0
CLASS
  1
HATCH
  2
AcDbHatch
  3
AutoCAD 2000
 90
        0
280
     0
281
     1
  0
CLASS
  1
XRECORD
  2
AcDbXrecord
  3
AutoCAD 2000
 90
        0
280
     0
281
     0
  0
CLASS
  1
LONG_TRANSACTION
  2
AcDbLongTransaction
  3
AutoCAD 2000
 90
        0
280
     0
281
     0
  0
CLASS
  1
LWPOLYLINE
  2
AcDbPolyline
  3
AutoCAD 2000
 90
        0
280
     0
281
     1
  0
CLASS
  1
HATCH
  2
AcDbHatch
  3
AutoCAD 2000
 90
        0
280
     0
281
     1
  0
CLASS
  1
XRECORD
  2
AcDbXrecord
  3
AutoCAD 2000
 90
        0
280
     0
281
     0
  0
CLASS
  1
LONG_TRANSACTION
  2
AcDbLongTransaction
  3
AutoCAD 2000
 90
        0
280
     0
281
     0
  0
CLASS
  1
LWPOLYLINE
  2
AcDbPolyline
  3
AutoCAD 2000
 90
        0
280
     0
281
     1
  0
CLASS
  1
HATCH
  2
AcDbHatch
  3
AutoCAD 2000
 90
        0
280
     0
281
     1
  0
CLASS
  1
XRECORD
  2
AcDbXrecord
  3
AutoCAD 2000
 90
        0
280
     0
281
     0
  0
CLASS
  1
LONG_TRANSACTION
  2
AcDbLongTransaction
  3
AutoCAD 2000
 90
        0
280
     0
281
     0
  0
CLASS
  1
LWPOLYLINE
  2
AcDbPolyline
  3
AutoCAD 2000
 90
        0
280
     0
281
     1
  0
CLASS
  1
HATCH
  2
AcDbHatch
  3
AutoCAD 2000
 90
        0
280
     0
281
     1
  0
CLASS
  1
XRECORD
  2
AcDbXrecord
  3
AutoCAD 2000
 90
        0
280
     0
281
     0
  0
CLASS
  1
LONG_TRANSACTION
  2
AcDbLongTransaction
  3
AutoCAD 2000
 90
        0
280
     0
281
     0
  0
CLASS
  1
LWPOLYLINE
  2
AcDbPolyline
  3
AutoCAD 2000
 90
        0
280
     0
281
     1
  0
CLASS
  1
HATCH
  2
AcDbHatch
  3
AutoCAD 2000
 90
        0
280
     0
281
     1
  0
CLASS
  1
XRECORD
  2
AcDbXrecord
  3
AutoCAD 2000
 90
        0
280
     0
281
     0
  0
CLASS
  1
LONG_TRANSACTION
  2
AcDbLongTransaction
  3
AutoCAD 2000
 90
        0
280
     0
281
     0
  0
CLASS
  1
LWPOLYLINE
  2
AcDbPolyline
  3
AutoCAD 2000
 90
        0
280
     0
281
     1
  0
CLASS
  1
HATCH
  2
AcDbHatch
  3
AutoCAD 2000
 90
        0
280
     0
281
     1
  0
CLASS
  1
XRECORD
  2
AcDbXrecord
  3
AutoCAD 2000
 90
        0
280
     0
281
     0
  0
CLASS
  1
LONG_TRANSACTION
  2
AcDbLongTransaction
  3
AutoCAD 2000
 90
        0
280
     0
281
     0
  0
CLASS
  1
LWPOLYLINE
  2
AcDbPolyline
  3
AutoCAD 2000
 90
        0
280
     0
281
     1
  0
CLASS
  1
HATCH
  2
AcDbHatch
  3
AutoCAD 2000
 90
        0
280
     0
281
     1
  0
CLASS
  1
XRECORD
  2
AcDbXrecord
  3
AutoCAD 2000
 90
        0
280
     0
281
     0
  0
CLASS
  1
LONG_TRANSACTION
  2
AcDbLongTransaction
  3
AutoCAD 2000
 90
        0
280
     0
281
     0
  0
CLASS
  1
LWPOLYLINE
  2
AcDbPolyline
  3
AutoCAD 2000
 90
        0
280
     0
281
     1
  0
CLASS
  1
HATCH
  2
AcDbHatch
  3
AutoCAD 2000
 90
        0
280
     0
281
     1
  0
CLASS
  1
XRECORD
  2
AcDbXrecord
  3
AutoCAD 2000
 90
        0
280
     0
281
     0
  0
CLASS
  1
LONG_TRANSACTION
  2
AcDbLongTransaction
  3
AutoCAD 2000
 90
        0
280
     0
281
     0
  0
CLASS
  1
LWPOLYLINE
  2
AcDbPolyline
  3
AutoCAD 2000
 90
        0
280
     0
281
     1
  0
CLASS
  1
HATCH
  2
AcDbHatch
  3
AutoCAD 2000
 90
        0
280
     0
281
     1
  0
CLASS
  1
XRECORD
  2
AcDbXrecord
  3
AutoCAD 2000
 90
        0
280
     0
281
     0
  0
CLASS
  1
LONG_TRANSACTION
  2
AcDbLongTransaction
  3
AutoCAD 2000
 90
        0
280
     0
281
     0
  0
CLASS
  1
LWPOLYLINE
  2
AcDbPolyline
  3
AutoCAD 2000
 90
        0
280
     0
281
     1
  0
CLASS
  1
HATCH
  2
AcDbHatch
  3
AutoCAD 2000
 90
        0
280
     0
281
     1
  0
CLASS
  1
XRECORD
  2
AcDbXrecord
  3
AutoCAD 2000
 90
        0
280
     0
281
     0
  0
CLASS
  1
DICTIONARYVAR
  2
AcDbDictionaryVar
  3
AutoCAD 2000
 90
        0
280
     0
281
     0
  0
CLASS
  1
LONG_TRANSACTION
  2
AcDbLongTransaction
  3
AutoCAD 2000
 90
        0
280
     0
281
     0
  0
CLASS
  1
LWPOLYLINE
  2
AcDbPolyline
  3
AutoCAD 2000
 90
        0
280
     0
281
     1
  0
CLASS
  1
HATCH
  2
AcDbHatch
  3
AutoCAD 2000
 90
        0
280
     0
281
     1
  0
CLASS
  1
XRECORD
  2
AcDbXrecord
  3
AutoCAD 2000
 90
        0
280
     0
281
     0
  0
CLASS
  1
LONG_TRANSACTION
  2
AcDbLongTransaction
  3
AutoCAD 2000
 90
        0
280
     0
281
     0
  0
CLASS
  1
LWPOLYLINE
  2
AcDbPolyline
  3
AutoCAD 2000
 90
        0
280
     0
281
     1
  0
CLASS
  1
HATCH
  2
AcDbHatch
  3
AutoCAD 2000
 90
        0
280
     0
281
     1
  0
CLASS
  1
XRECORD
  2
AcDbXrecord
  3
AutoCAD 2000
 90
        0
280
     0
281
     0
  0
CLASS
  1
LONG_TRANSACTION
  2
AcDbLongTransaction
  3
AutoCAD 2000
 90
        0
280
     0
281
     0
  0
CLASS
  1
LWPOLYLINE
  2
AcDbPolyline
  3
AutoCAD 2000
 90
        0
280
     0
281
     1
  0
CLASS
  1
HATCH
  2
AcDbHatch
  3
AutoCAD 2000
 90
        0
280
     0
281
     1
  0
CLASS
  1
XRECORD
  2
AcDbXrecord
  3
AutoCAD 2000
 90
        0
280
     0
281
     0
  0
CLASS
  1
LONG_TRANSACTION
  2
AcDbLongTransaction
  3
AutoCAD 2000
 90
        0
280
     0
281
     0
  0
CLASS
  1
LWPOLYLINE
  2
AcDbPolyline
  3
AutoCAD 2000
 90
        0
280
     0
281
     1
  0
CLASS
  1
HATCH
  2
AcDbHatch
  3
AutoCAD 2000
 90
        0
280
     0
281
     1
  0
CLASS
  1
XRECORD
  2
AcDbXrecord
  3
AutoCAD 2000
 90
        0
280
     0
281
     0
  0
CLASS
  1
LONG_TRANSACTION
  2
AcDbLongTransaction
  3
AutoCAD 2000
 90
        0
280
     0
281
     0
  0
CLASS
  1
LWPOLYLINE
  2
AcDbPolyline
  3
AutoCAD 2000
 90
        0
280
     0
281
     1
  0
CLASS
  1
HATCH
  2
AcDbHatch
  3
AutoCAD 2000
 90
        0
280
     0
281
     1
  0
CLASS
  1
XRECORD
  2
AcDbXrecord
  3
AutoCAD 2000
 90
        0
280
     0
281
     0
  0
CLASS
  1
LONG_TRANSACTION
  2
AcDbLongTransaction
  3
AutoCAD 2000
 90
        0
280
     0
281
     0
  0
CLASS
  1
LWPOLYLINE
  2
AcDbPolyline
  3
AutoCAD 2000
 90
        0
280
     0
281
     1
  0
CLASS
  1
HATCH
  2
AcDbHatch
  3
AutoCAD 2000
 90
        0
280
     0
281
     1
  0
CLASS
  1
XRECORD
  2
AcDbXrecord
  3
AutoCAD 2000
 90
        0
280
     0
281
     0
  0
CLASS
  1
LONG_TRANSACTION
  2
AcDbLongTransaction
  3
AutoCAD 2000
 90
        0
280
     0
281
     0
  0
CLASS
  1
LWPOLYLINE
  2
AcDbPolyline
  3
AutoCAD 2000
 90
        0
280
     0
281
     1
  0
CLASS
  1
HATCH
  2
AcDbHatch
  3
AutoCAD 2000
 90
        0
280
     0
281
     1
  0
CLASS
  1
XRECORD
  2
AcDbXrecord
  3
AutoCAD 2000
 90
        0
280
     0
281
     0
  0
CLASS
  1
LONG_TRANSACTION
  2
AcDbLongTransaction
  3
AutoCAD 2000
 90
        0
280
     0
281
     0
  0
CLASS
  1
LWPOLYLINE
  2
AcDbPolyline
  3
AutoCAD 2000
 90
        0
280
     0
281
     1
  0
CLASS
  1
HATCH
  2
AcDbHatch
  3
AutoCAD 2000
 90
        0
280
     0
281
     1
  0
CLASS
  1
XRECORD
  2
AcDbXrecord
  3
AutoCAD 2000
 90
        0
280
     0
281
     0
  0
ENDSEC
  0
SECTION
  2
TABLES
  0
TABLE
  2
VPORT
  5
8
330
0
100
AcDbSymbolTable
 70
     2
  0
VPORT
  5
6951
330
8
100
AcDbSymbolTableRecord
100
AcDbViewportTableRecord
  2
*ACTIVE
 70
     0
 10
0.0
 20
0.0
 11
1.0
 21
1.0
 12
93.61638375827823
 22
-74.2331848355314
 13
0.0
 23
0.0
 14
1.0
 24
1.0
 15
10.0
 25
10.0
 16
0.0
 26
0.0
 36
1.0
 17
0.0
 27
0.0
 37
0.0
 40
556.1990859197593
 41
1.978540772532188
 42
50.0
 43
0.0
 44
0.0
 50
0.0
 51
0.0
 71
     0
 72
   100
 73
     1
 74
     1
 75
     0
 76
     0
 77
     0
 78
     0
  0
ENDTAB
  0
TABLE
  2
LTYPE
  5
5
330
0
100
AcDbSymbolTable
 70
     6
  0
LTYPE
  5
13
330
5
100
AcDbSymbolTableRecord
100
AcDbLinetypeTableRecord
  2
BYBLOCK
 70
     0
  3

 72
    65
 73
     0
 40
0.0
  0
LTYPE
  5
14
330
5
100
AcDbSymbolTableRecord
100
AcDbLinetypeTableRecord
  2
BYLAYER
 70
     0
  3

 72
    65
 73
     0
 40
0.0
  0
LTYPE
  5
15
330
5
100
AcDbSymbolTableRecord
100
AcDbLinetypeTableRecord
  2
CONTINUOUS
 70
     0
  3
Solid line
 72
    65
 73
     0
 40
0.0
  0
LTYPE
  5
22
330
5
100
AcDbSymbolTableRecord
100
AcDbLinetypeTableRecord
  2
CONTINOUS
 70
     0
  3
Solid line
 72
    65
 73
     0
 40
0.0
  0
LTYPE
  5
23
330
5
100
AcDbSymbolTableRecord
100
AcDbLinetypeTableRecord
  2
DASHED
 70
     0
  3
__ __ __ __ __ __ __ __ __ __ __ __ __ __ __
 72
    65
 73
     2
 40
0.75
 49
0.5
 74
     0
 49
-0.25
 74
     0
  0
LTYPE
  5
24
330
5
100
AcDbSymbolTableRecord
100
AcDbLinetypeTableRecord
  2
DASHDOT
 70
     0
  3
__ . __ . __ . __ . __ . __ . __ . __ . __ . __
 72
    65
 73
     4
 40
1.0
 49
0.5
 74
     0
 49
-0.25
 74
     0
 49
0.0
 74
     0
 49
-0.25
 74
     0
  0
LTYPE
  5
4C47
330
5
100
AcDbSymbolTableRecord
100
AcDbLinetypeTableRecord
  2
DIVIDE
 70
     0
  3
Divide ____ . . ____ . . ____ . . ____ . . ____
 72
    65
 73
     6
 40
1.25
 49
0.5
 74
     0
 49
-0.25
 74
     0
 49
0.0
 74
     0
 49
-0.25
 74
     0
 49
0.0
 74
     0
 49
-0.25
 74
     0
  0
LTYPE
  5
6265
330
5
100
AcDbSymbolTableRecord
100
AcDbLinetypeTableRecord
  2
CENTER
 70
     0
  3
Center ____ _ ____ _ ____ _ ____ _ ____ _ ____
 72
    65
 73
     4
 40
50.8
 49
31.75
 74
     0
 49
-6.349999999999999
 74
     0
 49
6.349999999999999
 74
     0
 49
-6.349999999999999
 74
     0
  0
ENDTAB
  0
TABLE
  2
LAYER
  5
2
330
0
100
AcDbSymbolTable
 70
    10
  0
LAYER
  5
10
330
2
100
AcDbSymbolTableRecord
100
AcDbLayerTableRecord
  2
0
 70
     0
 62
     7
  6
CONTINOUS
  0
LAYER
  5
2F
330
2
100
AcDbSymbolTableRecord
100
AcDbLayerTableRecord
  2
10
 70
     0
 62
     4
  6
CONTINOUS
  0
LAYER
  5
31
330
2
100
AcDbSymbolTableRecord
100
AcDbLayerTableRecord
  2
12
 70
     0
 62
     3
  6
CONTINOUS
  0
LAYER
  5
35
330
2
100
AcDbSymbolTableRecord
100
AcDbLayerTableRecord
  2
16
 70
     0
 62
     6
  6
DASHDOT
  0
LAYER
  5
38
330
2
100
AcDbSymbolTableRecord
100
AcDbLayerTableRecord
  2
19
 70
     0
 62
     7
  6
CONTINOUS
  0
LAYER
  5
3D
330
2
100
AcDbSymbolTableRecord
100
AcDbLayerTableRecord
  2
24
 70
     0
 62
     2
  6
CONTINOUS
  0
LAYER
  5
3A2
330
2
100
AcDbSymbolTableRecord
100
AcDbLayerTableRecord
  2
30
 70
     0
 62
     9
  6
CONTINUOUS
  0
LAYER
  5
3A4
330
2
100
AcDbSymbolTableRecord
100
AcDbLayerTableRecord
  2
DEFPOINTS
 70
     0
 62
     7
  6
CONTINUOUS
  0
LAYER
  5
3BBA
330
2
100
AcDbSymbolTableRecord
100
AcDbLayerTableRecord
  2
18
 70
     0
 62
     5
  6
DIVIDE
  0
LAYER
  5
67A8
330
2
100
AcDbSymbolTableRecord
100
AcDbLayerTableRecord
  2
11
 70
     0
 62
     1
  6
CONTINOUS
  0
ENDTAB
  0
TABLE
  2
STYLE
  5
3
330
0
100
AcDbSymbolTable
 70
     3
  0
STYLE
  5
11
330
3
100
AcDbSymbolTableRecord
100
AcDbTextStyleTableRecord
  2
STANDARD
 70
     0
 40
0.0
 41
1.0
 50
0.0
 71
     0
 42
2.0
  3
txt.shx
  4
bigfont.shx
  0
STYLE
  5
42
330
3
100
AcDbSymbolTableRecord
100
AcDbTextStyleTableRecord
  2
STANDARD1
 70
     0
 40
0.0
 41
1.0
 50
0.0
 71
     0
 42
5.0
  3
MONOTXT
  4
BIGFONT
  0
STYLE
  5
67A9
330
3
100
AcDbSymbolTableRecord
100
AcDbTextStyleTableRecord
  2
MOJI
 70
     0
 40
0.0
 41
1.0
 50
0.0
 71
     0
 42
2.5
  3
txt.shx
  4
bigfont.shx
  0
ENDTAB
  0
TABLE
  2
VIEW
  5
6
330
0
100
AcDbSymbolTable
 70
     3
  0
VIEW
  5
230C
330
6
100
AcDbSymbolTableRecord
100
AcDbViewTableRecord
  2
OLE1
 70
     0
 40
148.912488
 10
429.497628
 20
2.560627
 41
103.145806
 11
0.0
 21
0.0
 31
1.0
 12
0.0
 22
0.0
 32
0.0
 42
50.0
 43
0.0
 44
0.0
 50
0.0
 71
     0
  0
VIEW
  5
230E
330
6
100
AcDbSymbolTableRecord
100
AcDbViewTableRecord
  2
OLE2
 70
     0
 40
170.778692
 10
322.66497
 20
-5.978304
 41
102.467215
 11
0.0
 21
0.0
 31
1.0
 12
0.0
 22
0.0
 32
0.0
 42
50.0
 43
0.0
 44
0.0
 50
0.0
 71
     0
  0
VIEW
  5
23AA
330
6
100
AcDbSymbolTableRecord
100
AcDbViewTableRecord
  2
OLE3
 70
     0
 40
591.7897389999998
 10
84.79698199999999
 20
-46.09335999999998
 41
388.792096
 11
0.0
 21
0.0
 31
1.0
 12
0.0
 22
0.0
 32
0.0
 42
50.0
 43
0.0
 44
0.0
 50
0.0
 71
     0
  0
ENDTAB
  0
TABLE
  2
UCS
  5
7
330
0
100
AcDbSymbolTable
 70
     0
  0
ENDTAB
  0
TABLE
  2
APPID
  5
9
330
0
100
AcDbSymbolTable
 70
     2
  0
APPID
  5
12
330
9
100
AcDbSymbolTableRecord
100
AcDbRegAppTableRecord
  2
ACAD
 70
     0
  0
APPID
  5
ECD
330
9
100
AcDbSymbolTableRecord
100
AcDbRegAppTableRecord
  2
CONTENTBLOCKICON
 70
     0
  0
ENDTAB
  0
TABLE
  2
DIMSTYLE
  5
A
330
0
100
AcDbSymbolTable
 70
     2
  0
DIMSTYLE
105
175
102
{ACAD_REACTORS
330
663E
330
6658
330
664B
330
66CD
330
66DA
330
66E7
330
66F4
330
6756
330
67DC
330
67DF
330
6877
102
}
330
A
100
AcDbSymbolTableRecord
100
AcDbDimStyleTableRecord
  2
STANDARD
 70
     0
  3

  4

  5
OPEN
  6

  7

 40
1.0
 41
2.0
 42
1.0
 43
0.5
 44
0.5
 45
0.0
 46
0.0
 47
0.0
 48
0.0
140
4.0
141
0.09
142
0.0
143
25.4
144
1.0
145
0.0
146
1.0
147
1.0
 71
     0
 72
     0
 73
     0
 74
     1
 75
     0
 76
     0
 77
     3
 78
    12
170
     0
171
     2
172
     0
173
     0
174
     0
175
     0
176
     0
177
     0
178
     0
270
     2
271
     1
272
     1
273
     2
274
     2
340
11
275
     0
280
     0
281
     0
282
     0
283
     1
284
     0
285
     0
286
     0
287
     3
288
     0
  0
DIMSTYLE
105
67AA
102
{ACAD_REACTORS
330
67D6
330
67DA
330
67F6
102
}
330
A
100
AcDbSymbolTableRecord
100
AcDbDimStyleTableRecord
  2
FSTD1
 70
     0
  3

  4

  5

  6
OPEN30
  7
OPEN30
 40
1.0
 41
5.0
 42
1.5
 43
3.75
 44
1.5
 45
0.0
 46
0.0
 47
0.0
 48
0.0
140
5.0
141
2.5
142
0.0
143
0.0394
144
1.0
145
0.0
146
1.0
147
1.5
 71
     0
 72
     0
 73
     0
 74
     0
 75
     0
 76
     0
 77
     1
 78
     8
170
     0
171
     4
172
     1
173
     1
174
     0
175
     0
176
     0
177
     0
178
     0
270
     2
271
     4
272
     4
273
     2
274
     4
340
11
275
     0
280
     0
281
     0
282
     0
283
     1
284
     8
285
     8
286
     8
287
     3
288
     0
  0
ENDTAB
  0
TABLE
  2
BLOCK_RECORD
  5
1
330
0
100
AcDbSymbolTable
 70
    16
  0
BLOCK_RECORD
  5
1E
102
{ACAD_XDICTIONARY
360
178
102
}
330
1
100
AcDbSymbolTableRecord
100
AcDbBlockTableRecord
  2
*MODEL_SPACE
  0
BLOCK_RECORD
  5
1A
102
{ACAD_XDICTIONARY
360
17A
102
}
330
1
100
AcDbSymbolTableRecord
100
AcDbBlockTableRecord
  2
*PAPER_SPACE
  0
BLOCK_RECORD
  5
3B2
330
1
100
AcDbSymbolTableRecord
100
AcDbBlockTableRecord
  2
_OPEN
  0
BLOCK_RECORD
  5
663F
330
1
100
AcDbSymbolTableRecord
100
AcDbBlockTableRecord
  2
*D1
  0
BLOCK_RECORD
  5
664C
330
1
100
AcDbSymbolTableRecord
100
AcDbBlockTableRecord
  2
*D2
  0
BLOCK_RECORD
  5
6659
330
1
100
AcDbSymbolTableRecord
100
AcDbBlockTableRecord
  2
*D3
  0
BLOCK_RECORD
  5
66CE
330
1
100
AcDbSymbolTableRecord
100
AcDbBlockTableRecord
  2
*D4
  0
BLOCK_RECORD
  5
66DB
330
1
100
AcDbSymbolTableRecord
100
AcDbBlockTableRecord
  2
*D5
  0
BLOCK_RECORD
  5
66E8
330
1
100
AcDbSymbolTableRecord
100
AcDbBlockTableRecord
  2
*D6
  0
BLOCK_RECORD
  5
66F5
330
1
100
AcDbSymbolTableRecord
100
AcDbBlockTableRecord
  2
*D7
  0
BLOCK_RECORD
  5
6757
330
1
100
AcDbSymbolTableRecord
100
AcDbBlockTableRecord
  2
*D8
  0
BLOCK_RECORD
  5
676A
330
1
100
AcDbSymbolTableRecord
100
AcDbBlockTableRecord
  2
_OPEN30
  0
BLOCK_RECORD
  5
67FB
330
1
100
AcDbSymbolTableRecord
100
AcDbBlockTableRecord
  2
*D10
  0
BLOCK_RECORD
  5
6803
330
1
100
AcDbSymbolTableRecord
100
AcDbBlockTableRecord
  2
*D11
  0
BLOCK_RECORD
  5
680F
330
1
100
AcDbSymbolTableRecord
100
AcDbBlockTableRecord
  2
*D12
  0
BLOCK_RECORD
  5
681B
330
1
100
AcDbSymbolTableRecord
100
AcDbBlockTableRecord
  2
*D13
  0
BLOCK_RECORD
  5
6827
330
1
100
AcDbSymbolTableRecord
100
AcDbBlockTableRecord
  2
*D14
  0
BLOCK_RECORD
  5
6878
330
1
100
AcDbSymbolTableRecord
100
AcDbBlockTableRecord
  2
*D15
  0
ENDTAB
  0
ENDSEC
  0
SECTION
  2
BLOCKS
  0
BLOCK
  5
1F
330
1E
100
AcDbEntity
  8
0
100
AcDbBlockBegin
  2
*MODEL_SPACE
 70
     0
 10
0.0
 20
0.0
 30
0.0
  3
*MODEL_SPACE
  1

  0
ENDBLK
  5
20
330
1E
100
AcDbEntity
  8
0
100
AcDbBlockEnd
  0
BLOCK
  5
1B
330
1A
100
AcDbEntity
 67
     1
  8
0
100
AcDbBlockBegin
  2
*PAPER_SPACE
 70
     0
 10
0.0
 20
0.0
 30
0.0
  3
*PAPER_SPACE
  1

  0
ENDBLK
  5
1C
330
1A
100
AcDbEntity
 67
     1
  8
0
100
AcDbBlockEnd
  0
BLOCK
  5
3B6
330
3B2
100
AcDbEntity
  8
0
100
AcDbBlockBegin
  2
_OPEN
 70
     0
 10
0.0
 20
0.0
 30
0.0
  3
_OPEN
  1

  0
LINE
  5
3B3
330
3B2
100
AcDbEntity
  8
30
  6
CONTINUOUS
 62
     0
100
AcDbLine
 10
-1.0
 20
0.166667
 30
0.0
 11
0.0
 21
0.0
 31
0.0
  0
LINE
  5
3B4
330
3B2
100
AcDbEntity
  8
30
  6
CONTINUOUS
 62
     0
100
AcDbLine
 10
-1.0
 20
-0.166667
 30
0.0
 11
0.0
 21
0.0
 31
0.0
  0
LINE
  5
3B5
330
3B2
100
AcDbEntity
  8
30
  6
CONTINUOUS
 62
     0
100
AcDbLine
 10
0.0
 20
0.0
 30
0.0
 11
-1.0
 21
0.0
 31
0.0
  0
ENDBLK
  5
3B7
330
3B2
100
AcDbEntity
  8
0
100
AcDbBlockEnd
  0
BLOCK
  5
6649
330
663F
100
AcDbEntity
  8
0
100
AcDbBlockBegin
  2
*D1
 70
     1
 10
0.0
 20
0.0
 30
0.0
  3
*D1
  1

  0
LINE
  5
68A8
330
663F
100
AcDbEntity
  8
30
  6
CONTINUOUS
 62
     0
100
AcDbLine
 10
-37.50004600000005
 20
-47.50000199999997
 30
0.0
 11
-37.50004600000005
 21
-98.35339750406797
 31
0.0
  0
LINE
  5
68A9
330
663F
100
AcDbEntity
  8
30
  6
CONTINUOUS
 62
     0
100
AcDbLine
 10
37.49994000000004
 20
-47.50000199999997
 30
0.0
 11
37.49994000000004
 21
-98.35339750406797
 31
0.0
  0
LINE
  5
68AA
330
663F
100
AcDbEntity
  8
30
  6
CONTINUOUS
 62
     0
100
AcDbLine
 10
-35.50004600000005
 20
-97.85339750406798
 30
0.0
 11
35.49994000000003
 21
-97.85339750406798
 31
0.0
  0
INSERT
  5
68AB
330
663F
100
AcDbEntity
  8
30
  6
CONTINUOUS
 62
     0
100
AcDbBlockReference
  2
_OPEN
 10
-37.50004600000005
 20
-97.85339750406798
 30
0.0
 41
2.0
 42
2.0
 43
2.0
 50
180.0
  0
INSERT
  5
68AC
330
663F
100
AcDbEntity
  8
30
  6
CONTINUOUS
 62
     0
100
AcDbBlockReference
  2
_OPEN
 10
37.49994000000004
 20
-97.85339750406798
 30
0.0
 41
2.0
 42
2.0
 43
2.0
  0
MTEXT
  5
68AD
330
663F
100
AcDbEntity
  8
30
  6
CONTINUOUS
 62
     0
100
AcDbMText
 10
-0.0000530000000081
 20
-94.85339750406797
 30
0.0
 40
4.0
 41
0.0
 71
     5
 72
     1
  1
\A1;75
1001
ACAD
1000
MTEXTBEGIN
1070
    73
1070
     1
1070
    44
1040
1.0
1070
    74
1070
     0
1000
MTEXTEND
  0
POINT
  5
68AE
330
663F
100
AcDbEntity
  8
DEFPOINTS
  6
CONTINUOUS
 62
     0
100
AcDbPoint
 10
-37.50004600000005
 20
-46.50000199999996
 30
0.0
  0
POINT
  5
68AF
330
663F
100
AcDbEntity
  8
DEFPOINTS
  6
CONTINUOUS
 62
     0
100
AcDbPoint
 10
37.49994000000004
 20
-46.50000199999996
 30
0.0
  0
POINT
  5
68B0
330
663F
100
AcDbEntity
  8
DEFPOINTS
  6
CONTINUOUS
 62
     0
100
AcDbPoint
 10
37.49994000000004
 20
-97.85339750406798
 30
0.0
  0
ENDBLK
  5
664A
330
663F
100
AcDbEntity
  8
0
100
AcDbBlockEnd
  0
BLOCK
  5
6656
330
664C
100
AcDbEntity
  8
0
100
AcDbBlockBegin
  2
*D2
 70
     1
 10
0.0
 20
0.0
 30
0.0
  3
*D2
  1

  0
LINE
  5
68EA
330
664C
100
AcDbEntity
  8
30
  6
CONTINUOUS
 62
     0
100
AcDbLine
 10
-25.00001600000007
 20
-49.32501399999998
 30
0.0
 11
-25.00001600000008
 21
-87.38865999365771
 31
0.0
  0
LINE
  5
68EB
330
664C
100
AcDbEntity
  8
30
  6
CONTINUOUS
 62
     0
100
AcDbLine
 10
-0.0000000000000001
 20
-51.00000199999996
 30
0.0
 11
-0.0000000000000023
 21
-87.38865999365771
 31
0.0
  0
LINE
  5
68EC
330
664C
100
AcDbEntity
  8
30
  6
CONTINUOUS
 62
     0
100
AcDbLine
 10
-23.00001600000007
 20
-86.88865999365772
 30
0.0
 11
-2.000000000000002
 21
-86.88865999365772
 31
0.0
  0
INSERT
  5
68ED
330
664C
100
AcDbEntity
  8
30
  6
CONTINUOUS
 62
     0
100
AcDbBlockReference
  2
_OPEN
 10
-25.00001600000008
 20
-86.88865999365772
 30
0.0
 41
2.0
 42
2.0
 43
2.0
 50
180.0
  0
INSERT
  5
68EE
330
664C
100
AcDbEntity
  8
30
  6
CONTINUOUS
 62
     0
100
AcDbBlockReference
  2
_OPEN
 10
-0.0000000000000023
 20
-86.88865999365772
 30
0.0
 41
2.0
 42
2.0
 43
2.0
  0
MTEXT
  5
68EF
330
664C
100
AcDbEntity
  8
30
  6
CONTINUOUS
 62
     0
100
AcDbMText
 10
-12.50000800000004
 20
-83.88865999365771
 30
0.0
 40
4.0
 41
0.0
 71
     5
 72
     1
  1
\A1;25
1001
ACAD
1000
MTEXTBEGIN
1070
    73
1070
     1
1070
    44
1040
1.0
1070
    74
1070
     0
1000
MTEXTEND
  0
POINT
  5
68F0
330
664C
100
AcDbEntity
  8
DEFPOINTS
  6
CONTINUOUS
 62
     0
100
AcDbPoint
 10
-25.00001600000007
 20
-48.32501399999998
 30
0.0
  0
POINT
  5
68F1
330
664C
100
AcDbEntity
  8
DEFPOINTS
  6
CONTINUOUS
 62
     0
100
AcDbPoint
 10
0.0
 20
-50.00000199999996
 30
0.0
  0
POINT
  5
68F2
330
664C
100
AcDbEntity
  8
DEFPOINTS
  6
CONTINUOUS
 62
     0
100
AcDbPoint
 10
-0.0000000000000023
 20
-86.88865999365772
 30
0.0
  0
ENDBLK
  5
6657
330
664C
100
AcDbEntity
  8
0
100
AcDbBlockEnd
  0
BLOCK
  5
6663
330
6659
100
AcDbEntity
  8
0
100
AcDbBlockBegin
  2
*D3
 70
     1
 10
0.0
 20
0.0
 30
0.0
  3
*D3
  1

  0
LINE
  5
689F
330
6659
100
AcDbEntity
  8
30
  6
CONTINUOUS
 62
     0
100
AcDbLine
 10
-0.0000000000000001
 20
-51.00000199999996
 30
0.0
 11
-0.0000000000000023
 21
-87.38865999365771
 31
0.0
  0
LINE
  5
68A0
330
6659
100
AcDbEntity
  8
30
  6
CONTINUOUS
 62
     0
100
AcDbLine
 10
24.99998599999992
 20
-49.32501399999998
 30
0.0
 11
24.99998599999992
 21
-87.38865999365771
 31
0.0
  0
LINE
  5
68A1
330
6659
100
AcDbEntity
  8
30
  6
CONTINUOUS
 62
     0
100
AcDbLine
 10
1.999999999999997
 20
-86.88865999365772
 30
0.0
 11
22.99998599999991
 21
-86.88865999365772
 31
0.0
  0
INSERT
  5
68A2
330
6659
100
AcDbEntity
  8
30
  6
CONTINUOUS
 62
     0
100
AcDbBlockReference
  2
_OPEN
 10
-0.0000000000000023
 20
-86.88865999365772
 30
0.0
 41
2.0
 42
2.0
 43
2.0
 50
180.0
  0
INSERT
  5
68A3
330
6659
100
AcDbEntity
  8
30
  6
CONTINUOUS
 62
     0
100
AcDbBlockReference
  2
_OPEN
 10
24.99998599999992
 20
-86.88865999365772
 30
0.0
 41
2.0
 42
2.0
 43
2.0
  0
MTEXT
  5
68A4
330
6659
100
AcDbEntity
  8
30
  6
CONTINUOUS
 62
     0
100
AcDbMText
 10
12.49999299999995
 20
-83.88865999365771
 30
0.0
 40
4.0
 41
0.0
 71
     5
 72
     1
  1
\A1;25
1001
ACAD
1000
MTEXTBEGIN
1070
    73
1070
     1
1070
    44
1040
1.0
1070
    74
1070
     0
1000
MTEXTEND
  0
POINT
  5
68A5
330
6659
100
AcDbEntity
  8
DEFPOINTS
  6
CONTINUOUS
 62
     0
100
AcDbPoint
 10
0.0
 20
-50.00000199999996
 30
0.0
  0
POINT
  5
68A6
330
6659
100
AcDbEntity
  8
DEFPOINTS
  6
CONTINUOUS
 62
     0
100
AcDbPoint
 10
24.99998599999992
 20
-48.32501399999998
 30
0.0
  0
POINT
  5
68A7
330
6659
100
AcDbEntity
  8
DEFPOINTS
  6
CONTINUOUS
 62
     0
100
AcDbPoint
 10
24.99998599999992
 20
-86.88865999365772
 30
0.0
  0
ENDBLK
  5
6664
330
6659
100
AcDbEntity
  8
0
100
AcDbBlockEnd
  0
BLOCK
  5
66D8
330
66CE
100
AcDbEntity
  8
0
100
AcDbBlockBegin
  2
*D4
 70
     1
 10
0.0
 20
0.0
 30
0.0
  3
*D4
  1

  0
LINE
  5
68FC
330
66CE
100
AcDbEntity
  8
30
  6
CONTINUOUS
 62
     0
100
AcDbLine
 10
212.55434809588
 20
-44.00000099999988
 30
0.0
 11
212.55434809588
 21
-87.38865999365771
 31
0.0
  0
LINE
  5
68FD
330
66CE
100
AcDbEntity
  8
30
  6
CONTINUOUS
 62
     0
100
AcDbLine
 10
161.55437709588
 20
-50.74994099999987
 30
0.0
 11
161.55437709588
 21
-87.38865999365771
 31
0.0
  0
LINE
  5
68FE
330
66CE
100
AcDbEntity
  8
30
  6
CONTINUOUS
 62
     0
100
AcDbLine
 10
210.55434809588
 20
-86.88865999365772
 30
0.0
 11
163.55437709588
 21
-86.88865999365772
 31
0.0
  0
INSERT
  5
68FF
330
66CE
100
AcDbEntity
  8
30
  6
CONTINUOUS
 62
     0
100
AcDbBlockReference
  2
_OPEN
 10
212.55434809588
 20
-86.88865999365772
 30
0.0
 41
2.0
 42
2.0
 43
2.0
  0
INSERT
  5
6900
330
66CE
100
AcDbEntity
  8
30
  6
CONTINUOUS
 62
     0
100
AcDbBlockReference
  2
_OPEN
 10
161.55437709588
 20
-86.88865999365772
 30
0.0
 41
2.0
 42
2.0
 43
2.0
 50
180.0
  0
MTEXT
  5
6901
330
66CE
100
AcDbEntity
  8
30
  6
CONTINUOUS
 62
     0
100
AcDbMText
 10
187.05436259588
 20
-83.88865999365771
 30
0.0
 40
4.0
 41
0.0
 71
     5
 72
     1
  1
\A1;51
1001
ACAD
1000
MTEXTBEGIN
1070
    73
1070
     1
1070
    44
1040
1.0
1070
    74
1070
     0
1000
MTEXTEND
  0
POINT
  5
6902
330
66CE
100
AcDbEntity
  8
DEFPOINTS
  6
CONTINUOUS
 62
     0
100
AcDbPoint
 10
212.55434809588
 20
-43.00000099999988
 30
0.0
  0
POINT
  5
6903
330
66CE
100
AcDbEntity
  8
DEFPOINTS
  6
CONTINUOUS
 62
     0
100
AcDbPoint
 10
161.55437709588
 20
-49.74994099999986
 30
0.0
  0
POINT
  5
6904
330
66CE
100
AcDbEntity
  8
DEFPOINTS
  6
CONTINUOUS
 62
     0
100
AcDbPoint
 10
161.55437709588
 20
-86.88865999365772
 30
0.0
  0
ENDBLK
  5
66D9
330
66CE
100
AcDbEntity
  8
0
100
AcDbBlockEnd
  0
BLOCK
  5
66E5
330
66DB
100
AcDbEntity
  8
0
100
AcDbBlockBegin
  2
*D5
 70
     1
 10
0.0
 20
0.0
 30
0.0
  3
*D5
  1

  0
LINE
  5
690E
330
66DB
100
AcDbEntity
  8
30
  6
CONTINUOUS
 62
     0
100
AcDbLine
 10
161.55437709588
 20
-51.74994099999986
 30
0.0
 11
161.55437709588
 21
-87.38865999365771
 31
0.0
  0
LINE
  5
690F
330
66DB
100
AcDbEntity
  8
30
  6
CONTINUOUS
 62
     0
100
AcDbLine
 10
152.55440709588
 20
-37.89997194764001
 30
0.0
 11
152.55440709588
 21
-87.38865999365771
 31
0.0
  0
LINE
  5
6910
330
66DB
100
AcDbEntity
  8
30
  6
CONTINUOUS
 62
     0
100
AcDbLine
 10
159.55437709588
 20
-86.88865999365772
 30
0.0
 11
154.55440709588
 21
-86.88865999365772
 31
0.0
  0
INSERT
  5
6911
330
66DB
100
AcDbEntity
  8
30
  6
CONTINUOUS
 62
     0
100
AcDbBlockReference
  2
_OPEN
 10
161.55437709588
 20
-86.88865999365772
 30
0.0
 41
2.0
 42
2.0
 43
2.0
  0
INSERT
  5
6912
330
66DB
100
AcDbEntity
  8
30
  6
CONTINUOUS
 62
     0
100
AcDbBlockReference
  2
_OPEN
 10
152.55440709588
 20
-86.88865999365772
 30
0.0
 41
2.0
 42
2.0
 43
2.0
 50
180.0
  0
MTEXT
  5
6913
330
66DB
100
AcDbEntity
  8
30
  6
CONTINUOUS
 62
     0
100
AcDbMText
 10
157.05439209588
 20
-83.88865999365771
 30
0.0
 40
4.0
 41
0.0
 71
     5
 72
     1
  1
\A1;9
1001
ACAD
1000
MTEXTBEGIN
1070
    73
1070
     1
1070
    44
1040
1.0
1070
    74
1070
     0
1000
MTEXTEND
  0
POINT
  5
6914
330
66DB
100
AcDbEntity
  8
DEFPOINTS
  6
CONTINUOUS
 62
     0
100
AcDbPoint
 10
161.55437709588
 20
-50.74994099999987
 30
0.0
  0
POINT
  5
6915
330
66DB
100
AcDbEntity
  8
DEFPOINTS
  6
CONTINUOUS
 62
     0
100
AcDbPoint
 10
152.55440709588
 20
-36.89997194764001
 30
0.0
  0
POINT
  5
6916
330
66DB
100
AcDbEntity
  8
DEFPOINTS
  6
CONTINUOUS
 62
     0
100
AcDbPoint
 10
152.55440709588
 20
-86.88865999365772
 30
0.0
  0
ENDBLK
  5
66E6
330
66DB
100
AcDbEntity
  8
0
100
AcDbBlockEnd
  0
BLOCK
  5
66F2
330
66E8
100
AcDbEntity
  8
0
100
AcDbBlockBegin
  2
*D6
 70
     1
 10
0.0
 20
0.0
 30
0.0
  3
*D6
  1

  0
LINE
  5
6905
330
66E8
100
AcDbEntity
  8
30
  6
CONTINUOUS
 62
     0
100
AcDbLine
 10
152.55440709588
 20
-37.89997194764001
 30
0.0
 11
152.55440709588
 21
-87.38865999365771
 31
0.0
  0
LINE
  5
6906
330
66E8
100
AcDbEntity
  8
30
  6
CONTINUOUS
 62
     0
100
AcDbLine
 10
140.55443809588
 20
-24.69999999999987
 30
0.0
 11
140.55443809588
 21
-87.38865999365771
 31
0.0
  0
LINE
  5
6907
330
66E8
100
AcDbEntity
  8
30
  6
CONTINUOUS
 62
     0
100
AcDbLine
 10
150.55440709588
 20
-86.88865999365772
 30
0.0
 11
142.55443809588
 21
-86.88865999365772
 31
0.0
  0
INSERT
  5
6908
330
66E8
100
AcDbEntity
  8
30
  6
CONTINUOUS
 62
     0
100
AcDbBlockReference
  2
_OPEN
 10
152.55440709588
 20
-86.88865999365772
 30
0.0
 41
2.0
 42
2.0
 43
2.0
  0
INSERT
  5
6909
330
66E8
100
AcDbEntity
  8
30
  6
CONTINUOUS
 62
     0
100
AcDbBlockReference
  2
_OPEN
 10
140.55443809588
 20
-86.88865999365772
 30
0.0
 41
2.0
 42
2.0
 43
2.0
 50
180.0
  0
MTEXT
  5
690A
330
66E8
100
AcDbEntity
  8
30
  6
CONTINUOUS
 62
     0
100
AcDbMText
 10
146.55442259588
 20
-83.88865999365771
 30
0.0
 40
4.0
 41
0.0
 71
     5
 72
     1
  1
\A1;12
1001
ACAD
1000
MTEXTBEGIN
1070
    73
1070
     1
1070
    44
1040
1.0
1070
    74
1070
     0
1000
MTEXTEND
  0
POINT
  5
690B
330
66E8
100
AcDbEntity
  8
DEFPOINTS
  6
CONTINUOUS
 62
     0
100
AcDbPoint
 10
152.55440709588
 20
-36.89997194764001
 30
0.0
  0
POINT
  5
690C
330
66E8
100
AcDbEntity
  8
DEFPOINTS
  6
CONTINUOUS
 62
     0
100
AcDbPoint
 10
140.55443809588
 20
-23.69999999999987
 30
0.0
  0
POINT
  5
690D
330
66E8
100
AcDbEntity
  8
DEFPOINTS
  6
CONTINUOUS
 62
     0
100
AcDbPoint
 10
140.55443809588
 20
-86.88865999365772
 30
0.0
  0
ENDBLK
  5
66F3
330
66E8
100
AcDbEntity
  8
0
100
AcDbBlockEnd
  0
BLOCK
  5
6700
330
66F5
100
AcDbEntity
  8
0
100
AcDbBlockBegin
  2
*D7
 70
     1
 10
0.0
 20
0.0
 30
0.0
  3
*D7
  1

  0
LINE
  5
68F3
330
66F5
100
AcDbEntity
  8
30
  6
CONTINUOUS
 62
     0
100
AcDbLine
 10
212.55434809588
 20
-44.00005299999992
 30
0.0
 11
212.55434809588
 21
-98.35339750406797
 31
0.0
  0
LINE
  5
68F4
330
66F5
100
AcDbEntity
  8
30
  6
CONTINUOUS
 62
     0
100
AcDbLine
 10
128.55435109588
 20
2.312547000000112
 30
0.0
 11
128.55435109588
 21
-98.35339750406797
 31
0.0
  0
LINE
  5
68F5
330
66F5
100
AcDbEntity
  8
30
  6
CONTINUOUS
 62
     0
100
AcDbLine
 10
210.55434809588
 20
-97.85339750406798
 30
0.0
 11
130.55435109588
 21
-97.85339750406798
 31
0.0
  0
INSERT
  5
68F6
330
66F5
100
AcDbEntity
  8
30
  6
CONTINUOUS
 62
     0
100
AcDbBlockReference
  2
_OPEN
 10
212.55434809588
 20
-97.85339750406798
 30
0.0
 41
2.0
 42
2.0
 43
2.0
  0
INSERT
  5
68F7
330
66F5
100
AcDbEntity
  8
30
  6
CONTINUOUS
 62
     0
100
AcDbBlockReference
  2
_OPEN
 10
128.55435109588
 20
-97.85339750406798
 30
0.0
 41
2.0
 42
2.0
 43
2.0
 50
180.0
  0
MTEXT
  5
68F8
330
66F5
100
AcDbEntity
  8
30
  6
CONTINUOUS
 62
     0
100
AcDbMText
 10
170.55434959588
 20
-94.85339750406797
 30
0.0
 40
4.0
 41
0.0
 71
     5
 72
     1
  1
\A1;84
1001
ACAD
1000
MTEXTBEGIN
1070
    73
1070
     1
1070
    44
1040
1.0
1070
    74
1070
     0
1000
MTEXTEND
  0
POINT
  5
68F9
330
66F5
100
AcDbEntity
  8
DEFPOINTS
  6
CONTINUOUS
 62
     0
100
AcDbPoint
 10
212.55434809588
 20
-43.00005299999992
 30
0.0
  0
POINT
  5
68FA
330
66F5
100
AcDbEntity
  8
DEFPOINTS
  6
CONTINUOUS
 62
     0
100
AcDbPoint
 10
128.55435109588
 20
3.312547000000112
 30
0.0
  0
POINT
  5
68FB
330
66F5
100
AcDbEntity
  8
DEFPOINTS
  6
CONTINUOUS
 62
     0
100
AcDbPoint
 10
128.55435109588
 20
-97.85339750406798
 30
0.0
  0
ENDBLK
  5
6701
330
66F5
100
AcDbEntity
  8
0
100
AcDbBlockEnd
  0
BLOCK
  5
6761
330
6757
100
AcDbEntity
  8
0
100
AcDbBlockBegin
  2
*D8
 70
     1
 10
0.0
 20
0.0
 30
0.0
  3
*D8
  1

  0
LINE
  5
68D6
330
6757
100
AcDbEntity
  8
30
  6
CONTINUOUS
 62
     0
100
AcDbLine
 10
143.9079910958799
 20
24.99996900000014
 30
0.0
 11
115.975010085654
 21
24.99996900000015
 31
0.0
  0
LINE
  5
68D7
330
6757
100
AcDbEntity
  8
30
  6
CONTINUOUS
 62
     0
100
AcDbLine
 10
139.55443809588
 20
-24.99993999999986
 30
0.0
 11
115.975010085654
 21
-24.99993999999986
 31
0.0
  0
LINE
  5
68D8
330
6757
100
AcDbEntity
  8
30
  6
CONTINUOUS
 62
     0
100
AcDbLine
 10
116.475010085654
 20
22.99996900000015
 30
0.0
 11
116.475010085654
 21
-22.99993999999986
 31
0.0
  0
INSERT
  5
68D9
330
6757
100
AcDbEntity
  8
30
  6
CONTINUOUS
 62
     0
100
AcDbBlockReference
  2
_OPEN
 10
116.475010085654
 20
24.99996900000015
 30
0.0
 41
2.0
 42
2.0
 43
2.0
 50
90.0
  0
INSERT
  5
68DA
330
6757
100
AcDbEntity
  8
30
  6
CONTINUOUS
 62
     0
100
AcDbBlockReference
  2
_OPEN
 10
116.475010085654
 20
-24.99993999999986
 30
0.0
 41
2.0
 42
2.0
 43
2.0
 50
270.0
  0
MTEXT
  5
68DB
330
6757
100
AcDbEntity
  8
30
  6
CONTINUOUS
 62
     0
100
AcDbMText
 10
113.475010085654
 20
0.0000145000001645
 30
0.0
 40
4.0
 41
0.0
 71
     5
 72
     1
  1
\A1;50
 11
0.0000000000000001
 21
1.0
 31
0.0
1001
ACAD
1000
MTEXTBEGIN
1070
    73
1070
     1
1070
    44
1040
1.0
1070
    74
1070
     0
1000
MTEXTEND
  0
POINT
  5
68DC
330
6757
100
AcDbEntity
  8
DEFPOINTS
  6
CONTINUOUS
 62
     0
100
AcDbPoint
 10
144.9079910958799
 20
24.99996900000014
 30
0.0
  0
POINT
  5
68DD
330
6757
100
AcDbEntity
  8
DEFPOINTS
  6
CONTINUOUS
 62
     0
100
AcDbPoint
 10
140.55443809588
 20
-24.99993999999986
 30
0.0
  0
POINT
  5
68DE
330
6757
100
AcDbEntity
  8
DEFPOINTS
  6
CONTINUOUS
 62
     0
100
AcDbPoint
 10
116.475010085654
 20
-24.99993999999986
 30
0.0
  0
ENDBLK
  5
6762
330
6757
100
AcDbEntity
  8
0
100
AcDbBlockEnd
  0
BLOCK
  5
676E
330
676A
100
AcDbEntity
  8
0
100
AcDbBlockBegin
  2
_OPEN30
 70
     0
 10
0.0
 20
0.0
 30
0.0
  3
_OPEN30
  1

  0
LINE
  5
676B
330
676A
100
AcDbEntity
  8
0
  6
BYBLOCK
 62
     0
100
AcDbLine
 10
-1.0
 20
0.26794919
 30
0.0
 11
0.0
 21
0.0
 31
0.0
  0
LINE
  5
676C
330
676A
100
AcDbEntity
  8
0
  6
BYBLOCK
 62
     0
100
AcDbLine
 10
0.0
 20
0.0
 30
0.0
 11
-1.0
 21
-0.26794919
 31
0.0
  0
LINE
  5
676D
330
676A
100
AcDbEntity
  8
0
  6
BYBLOCK
 62
     0
100
AcDbLine
 10
0.0
 20
0.0
 30
0.0
 11
-1.0
 21
0.0
 31
0.0
  0
ENDBLK
  5
676F
330
676A
100
AcDbEntity
  8
0
100
AcDbBlockEnd
  0
BLOCK
  5
6801
330
67FB
100
AcDbEntity
  8
0
100
AcDbBlockBegin
  2
*D10
 70
     1
 10
0.0
 20
0.0
 30
0.0
  3
*D10
  1

  0
LINE
  5
692A
330
67FB
100
AcDbEntity
  8
30
  6
CONTINUOUS
 62
     0
100
AcDbLine
 10
164.6906775088494
 20
-249.9469861679064
 30
0.0
 11
139.269158330066
 21
-227.9623761502449
 31
0.0
  0
MTEXT
  5
692B
330
67FB
100
AcDbEntity
  8
30
  6
CONTINUOUS
 62
     0
100
AcDbMText
 10
159.5927432826251
 20
-240.9110111567155
 30
0.0
 40
4.0
 41
0.0
 71
     5
 72
     1
  1
\A1;R2以下
 11
0.7563862660132089
 21
-0.6541252300489527
 31
0.0
1001
ACAD
1000
MTEXTBEGIN
1070
    73
1070
     1
1070
    44
1040
1.0
1070
    74
1070
     0
1000
MTEXTEND
  0
INSERT
  5
692C
330
67FB
100
AcDbEntity
  8
30
  6
CONTINUOUS
 62
     0
100
AcDbBlockReference
  2
_OPEN30
 10
135.4872269999999
 20
-224.6917500000001
 30
0.0
 41
5.0
 42
5.0
 43
5.0
 50
139.1466464983918
  0
POINT
  5
692D
330
67FB
100
AcDbEntity
  8
DEFPOINTS
  6
CONTINUOUS
 62
     0
100
AcDbPoint
 10
135.4872269999999
 20
-224.6917500000001
 30
0.0
  0
POINT
  5
692E
330
67FB
100
AcDbEntity
  8
DEFPOINTS
  6
CONTINUOUS
 62
     0
100
AcDbPoint
 10
136.9999989999999
 20
-225.9999999999999
 30
0.0
  0
ENDBLK
  5
6802
330
67FB
100
AcDbEntity
  8
0
100
AcDbBlockEnd
  0
BLOCK
  5
680D
330
6803
100
AcDbEntity
  8
0
100
AcDbBlockBegin
  2
*D11
 70
     1
 10
0.0
 20
0.0
 30
0.0
  3
*D11
  1

  0
LINE
  5
692F
330
6803
100
AcDbEntity
  8
30
  6
CONTINUOUS
 62
     0
100
AcDbLine
 10
134.9999989999999
 20
-275.5000009999999
 30
0.0
 11
134.9999989999999
 21
-321.1112359999999
 31
0.0
  0
LINE
  5
6930
330
6803
100
AcDbEntity
  8
30
  6
CONTINUOUS
 62
     0
100
AcDbLine
 10
205.000001
 20
-275.5000009999999
 30
0.0
 11
205.000001
 21
-321.1112359999999
 31
0.0
  0
LINE
  5
6931
330
6803
100
AcDbEntity
  8
30
  6
CONTINUOUS
 62
     0
100
AcDbLine
 10
139.9999989999999
 20
-319.6112359999999
 30
0.0
 11
200.0000009999999
 21
-319.6112359999999
 31
0.0
  0
INSERT
  5
6932
330
6803
100
AcDbEntity
  8
30
  6
CONTINUOUS
 62
     0
100
AcDbBlockReference
  2
_OPEN30
 10
134.9999989999999
 20
-319.6112359999999
 30
0.0
 41
5.0
 42
5.0
 43
5.0
 50
180.0
  0
INSERT
  5
6933
330
6803
100
AcDbEntity
  8
30
  6
CONTINUOUS
 62
     0
100
AcDbBlockReference
  2
_OPEN30
 10
205.000001
 20
-319.6112359999999
 30
0.0
 41
5.0
 42
5.0
 43
5.0
  0
MTEXT
  5
6934
330
6803
100
AcDbEntity
  8
30
  6
CONTINUOUS
 62
     0
100
AcDbMText
 10
169.9999999999999
 20
-316.1112359999999
 30
0.0
 40
4.0
 41
0.0
 71
     5
 72
     1
  1
\A1;74以上
1001
ACAD
1000
MTEXTBEGIN
1070
    73
1070
     1
1070
    44
1040
1.0
1070
    74
1070
     0
1000
MTEXTEND
  0
POINT
  5
6935
330
6803
100
AcDbEntity
  8
DEFPOINTS
  6
CONTINUOUS
 62
     0
100
AcDbPoint
 10
134.9999989999999
 20
-274.000001
 30
0.0
  0
POINT
  5
6936
330
6803
100
AcDbEntity
  8
DEFPOINTS
  6
CONTINUOUS
 62
     0
100
AcDbPoint
 10
205.000001
 20
-274.000001
 30
0.0
  0
POINT
  5
6937
330
6803
100
AcDbEntity
  8
DEFPOINTS
  6
CONTINUOUS
 62
     0
100
AcDbPoint
 10
205.000001
 20
-319.6112359999999
 30
0.0
  0
ENDBLK
  5
680E
330
6803
100
AcDbEntity
  8
0
100
AcDbBlockEnd
  0
BLOCK
  5
6819
330
680F
100
AcDbEntity
  8
0
100
AcDbBlockBegin
  2
*D12
 70
     1
 10
0.0
 20
0.0
 30
0.0
  3
*D12
  1

  0
LINE
  5
6841
330
680F
100
AcDbEntity
  8
30
  6
CONTINUOUS
 62
     0
100
AcDbLine
 10
-12.50000099999996
 20
-217.549705
 30
0.0
 11
-12.50000099999997
 21
-320.1112359999999
 31
0.0
  0
LINE
  5
6842
330
680F
100
AcDbEntity
  8
30
  6
CONTINUOUS
 62
     0
100
AcDbLine
 10
12.5
 20
-303.4494369999999
 30
0.0
 11
12.5
 21
-320.1112359999999
 31
0.0
  0
LINE
  5
6843
330
680F
100
AcDbEntity
  8
30
  6
CONTINUOUS
 62
     0
100
AcDbLine
 10
-10.50000099999997
 20
-319.6112359999999
 30
0.0
 11
10.49999999999999
 21
-319.6112359999999
 31
0.0
  0
INSERT
  5
6844
330
680F
100
AcDbEntity
  8
30
  6
CONTINUOUS
 62
     0
100
AcDbBlockReference
  2
_OPEN
 10
-12.50000099999997
 20
-319.6112359999999
 30
0.0
 41
2.0
 42
2.0
 43
2.0
 50
180.0
  0
INSERT
  5
6845
330
680F
100
AcDbEntity
  8
30
  6
CONTINUOUS
 62
     0
100
AcDbBlockReference
  2
_OPEN
 10
12.5
 20
-319.6112359999999
 30
0.0
 41
2.0
 42
2.0
 43
2.0
  0
MTEXT
  5
6846
330
680F
100
AcDbEntity
  8
30
  6
CONTINUOUS
 62
     0
100
AcDbMText
 10
-0.0000004999999888
 20
-316.6112359999999
 30
0.0
 40
4.0
 41
0.0
 71
     5
 72
     1
  1
\A1;25
1001
ACAD
1000
MTEXTBEGIN
1070
    73
1070
     1
1070
    44
1040
1.0
1070
    74
1070
     0
1000
MTEXTEND
  0
POINT
  5
6847
330
680F
100
AcDbEntity
  8
DEFPOINTS
  6
CONTINUOUS
 62
     0
100
AcDbPoint
 10
-12.50000099999996
 20
-216.5497049999999
 30
0.0
  0
POINT
  5
6848
330
680F
100
AcDbEntity
  8
DEFPOINTS
  6
CONTINUOUS
 62
     0
100
AcDbPoint
 10
12.5
 20
-302.4494369999999
 30
0.0
  0
POINT
  5
6849
330
680F
100
AcDbEntity
  8
DEFPOINTS
  6
CONTINUOUS
 62
     0
100
AcDbPoint
 10
12.5
 20
-319.6112359999999
 30
0.0
  0
ENDBLK
  5
681A
330
680F
100
AcDbEntity
  8
0
100
AcDbBlockEnd
  0
BLOCK
  5
6825
330
681B
100
AcDbEntity
  8
0
100
AcDbBlockBegin
  2
*D13
 70
     1
 10
0.0
 20
0.0
 30
0.0
  3
*D13
  1

  0
LINE
  5
684A
330
681B
100
AcDbEntity
  8
30
  6
CONTINUOUS
 62
     0
100
AcDbLine
 10
-3.273681999999951
 20
-207.999999
 30
0.0
 11
58.06424800000003
 21
-207.999999
 31
0.0
  0
LINE
  5
684B
330
681B
100
AcDbEntity
  8
30
  6
CONTINUOUS
 62
     0
100
AcDbLine
 10
21.09230000000002
 20
-292.0000009999999
 30
0.0
 11
58.06424800000002
 21
-292.0000009999999
 31
0.0
  0
LINE
  5
684C
330
681B
100
AcDbEntity
  8
30
  6
CONTINUOUS
 62
     0
100
AcDbLine
 10
57.56424800000004
 20
-209.999999
 30
0.0
 11
57.56424800000002
 21
-290.0000009999999
 31
0.0
  0
INSERT
  5
684D
330
681B
100
AcDbEntity
  8
30
  6
CONTINUOUS
 62
     0
100
AcDbBlockReference
  2
_OPEN
 10
57.56424800000004
 20
-207.999999
 30
0.0
 41
2.0
 42
2.0
 43
2.0
 50
90.0
  0
INSERT
  5
684E
330
681B
100
AcDbEntity
  8
30
  6
CONTINUOUS
 62
     0
100
AcDbBlockReference
  2
_OPEN
 10
57.56424800000002
 20
-292.0000009999999
 30
0.0
 41
2.0
 42
2.0
 43
2.0
 50
270.0
  0
MTEXT
  5
684F
330
681B
100
AcDbEntity
  8
30
  6
CONTINUOUS
 62
     0
100
AcDbMText
 10
54.56424800000007
 20
-250.0
 30
0.0
 40
4.0
 41
0.0
 71
     5
 72
     1
  1
\A1;84
 11
0.0000000000000001
 21
1.0
 31
0.0
1001
ACAD
1000
MTEXTBEGIN
1070
    73
1070
     1
1070
    44
1040
1.0
1070
    74
1070
     0
1000
MTEXTEND
  0
POINT
  5
6850
330
681B
100
AcDbEntity
  8
DEFPOINTS
  6
CONTINUOUS
 62
     0
100
AcDbPoint
 10
-4.273681999999951
 20
-207.999999
 30
0.0
  0
POINT
  5
6851
330
681B
100
AcDbEntity
  8
DEFPOINTS
  6
CONTINUOUS
 62
     0
100
AcDbPoint
 10
20.09230000000002
 20
-292.0000009999999
 30
0.0
  0
POINT
  5
6852
330
681B
100
AcDbEntity
  8
DEFPOINTS
  6
CONTINUOUS
 62
     0
100
AcDbPoint
 10
57.56424800000002
 20
-292.0000009999999
 30
0.0
  0
ENDBLK
  5
6826
330
681B
100
AcDbEntity
  8
0
100
AcDbBlockEnd
  0
BLOCK
  5
6831
330
6827
100
AcDbEntity
  8
0
100
AcDbBlockBegin
  2
*D14
 70
     1
 10
0.0
 20
0.0
 30
0.0
  3
*D14
  1

  0
LINE
  5
6921
330
6827
100
AcDbEntity
  8
30
  6
CONTINUOUS
 62
     0
100
AcDbLine
 10
204.5000009999999
 20
-224.0
 30
0.0
 11
226.3862769999999
 21
-224.0
 31
0.0
  0
LINE
  5
6922
330
6827
100
AcDbEntity
  8
30
  6
CONTINUOUS
 62
     0
100
AcDbLine
 10
204.5000009999999
 20
-276.000001
 30
0.0
 11
226.3862769999999
 21
-276.000001
 31
0.0
  0
LINE
  5
6923
330
6827
100
AcDbEntity
  8
30
  6
CONTINUOUS
 62
     0
100
AcDbLine
 10
224.8862769999999
 20
-229.0
 30
0.0
 11
224.8862769999999
 21
-271.0000009999999
 31
0.0
  0
INSERT
  5
6924
330
6827
100
AcDbEntity
  8
30
  6
CONTINUOUS
 62
     0
100
AcDbBlockReference
  2
_OPEN30
 10
224.8862769999999
 20
-224.0
 30
0.0
 41
5.0
 42
5.0
 43
5.0
 50
90.0
  0
INSERT
  5
6925
330
6827
100
AcDbEntity
  8
30
  6
CONTINUOUS
 62
     0
100
AcDbBlockReference
  2
_OPEN30
 10
224.8862769999999
 20
-276.000001
 30
0.0
 41
5.0
 42
5.0
 43
5.0
 50
270.0
  0
MTEXT
  5
6926
330
6827
100
AcDbEntity
  8
30
  6
CONTINUOUS
 62
     0
100
AcDbMText
 10
221.3862769999999
 20
-250.0000004999999
 30
0.0
 40
4.0
 41
0.0
 71
     5
 72
     1
  1
\A1;52以上
 11
0.0000000000000001
 21
1.0
 31
0.0
1001
ACAD
1000
MTEXTBEGIN
1070
    73
1070
     1
1070
    44
1040
1.0
1070
    74
1070
     0
1000
MTEXTEND
  0
POINT
  5
6927
330
6827
100
AcDbEntity
  8
DEFPOINTS
  6
CONTINUOUS
 62
     0
100
AcDbPoint
 10
203.000001
 20
-224.0
 30
0.0
  0
POINT
  5
6928
330
6827
100
AcDbEntity
  8
DEFPOINTS
  6
CONTINUOUS
 62
     0
100
AcDbPoint
 10
203.000001
 20
-276.000001
 30
0.0
  0
POINT
  5
6929
330
6827
100
AcDbEntity
  8
DEFPOINTS
  6
CONTINUOUS
 62
     0
100
AcDbPoint
 10
224.8862769999999
 20
-276.000001
 30
0.0
  0
ENDBLK
  5
6832
330
6827
100
AcDbEntity
  8
0
100
AcDbBlockEnd
  0
BLOCK
  5
6882
330
6878
100
AcDbEntity
  8
0
100
AcDbBlockBegin
  2
*D15
 70
     1
 10
0.0
 20
0.0
 30
0.0
  3
*D15
  1

  0
LINE
  5
68BA
330
6878
100
AcDbEntity
  8
30
  6
CONTINUOUS
 62
     0
100
AcDbLine
 10
-37.00000100000005
 20
-50.00000199999997
 30
0.0
 11
-49.34207204197492
 21
-50.00000199999996
 31
0.0
  0
LINE
  5
68BB
330
6878
100
AcDbEntity
  8
30
  6
CONTINUOUS
 62
     0
100
AcDbLine
 10
-37.00000100000005
 20
50.000001
 30
0.0
 11
-49.34207204197489
 21
50.00000100000001
 31
0.0
  0
LINE
  5
68BC
330
6878
100
AcDbEntity
  8
30
  6
CONTINUOUS
 62
     0
100
AcDbLine
 10
-48.84207204197492
 20
-48.00000199999995
 30
0.0
 11
-48.84207204197489
 21
48.000001
 31
0.0
  0
INSERT
  5
68BD
330
6878
100
AcDbEntity
  8
30
  6
CONTINUOUS
 62
     0
100
AcDbBlockReference
  2
_OPEN
 10
-48.84207204197492
 20
-50.00000199999996
 30
0.0
 41
2.0
 42
2.0
 43
2.0
 50
270.0
  0
INSERT
  5
68BE
330
6878
100
AcDbEntity
  8
30
  6
CONTINUOUS
 62
     0
100
AcDbBlockReference
  2
_OPEN
 10
-48.84207204197489
 20
50.00000100000001
 30
0.0
 41
2.0
 42
2.0
 43
2.0
 50
90.0
  0
MTEXT
  5
68BF
330
6878
100
AcDbEntity
  8
30
  6
CONTINUOUS
 62
     0
100
AcDbMText
 10
-51.84207204197491
 20
-0.0000004999999883
 30
0.0
 40
4.0
 41
0.0
 71
     5
 72
     1
  1
\A1;100
 11
0.0000000000000001
 21
1.0
 31
0.0
1001
ACAD
1000
MTEXTBEGIN
1070
    73
1070
     1
1070
    44
1040
1.0
1070
    74
1070
     0
1000
MTEXTEND
  0
POINT
  5
68C0
330
6878
100
AcDbEntity
  8
DEFPOINTS
  6
CONTINUOUS
 62
     0
100
AcDbPoint
 10
-36.00000100000005
 20
-50.00000199999997
 30
0.0
  0
POINT
  5
68C1
330
6878
100
AcDbEntity
  8
DEFPOINTS
  6
CONTINUOUS
 62
     0
100
AcDbPoint
 10
-36.00000100000005
 20
50.000001
 30
0.0
  0
POINT
  5
68C2
330
6878
100
AcDbEntity
  8
DEFPOINTS
  6
CONTINUOUS
 62
     0
100
AcDbPoint
 10
-48.84207204197489
 20
50.00000100000001
 30
0.0
  0
ENDBLK
  5
6883
330
6878
100
AcDbEntity
  8
0
100
AcDbBlockEnd
  0
ENDSEC
  0
SECTION
  2
ENTITIES
  0
LINE
  5
B4
330
1E
100
AcDbEntity
  8
16
100
AcDbLine
 10
0.0
 20
-101.8246001220914
 30
0.0
 11
0.0
 21
105.6073578546832
 31
0.0
  0
LINE
  5
B5
330
1E
100
AcDbEntity
  8
16
100
AcDbLine
 10
71.77465564206305
 20
-0.0000000000000027
 30
0.0
 11
-65.08297204044554
 21
-0.0000000000000027
 31
0.0
  0
MTEXT
  5
BF3
330
1E
100
AcDbEntity
  8
24
  6
CONTINUOUS
100
AcDbMText
 10
140.9820964648286
 20
176.3476821548369
 30
0.0
 40
3.0
 41
0.0
 71
     1
 72
     1
  1
\A1;
1001
ACAD
1000
MTEXTBEGIN
1070
    73
1070
     1
1070
    44
1040
1.0
1070
    74
1070
     0
1000
MTEXTEND
  0
LINE
  5
1C9B
330
1E
100
AcDbEntity
  8
16
100
AcDbLine
 10
252.2681462467816
 20
0.0000000000000999
 30
0.0
 11
120.102898634612
 21
0.0000000000000999
 31
0.0
  0
TEXT
  5
4D9D
330
1E
100
AcDbEntity
  8
19
  6
CONTINUOUS
100
AcDbText
 10
139.1427340724692
 20
195.1403200904996
 30
0.0
 40
5.0
  1
ZNE50-NF 3P FC
  7
STANDARD1
100
AcDbText
  0
TEXT
  5
5C38
330
1E
100
AcDbEntity
  8
30
  6
CONTINUOUS
100
AcDbText
 10
144.6631757589062
 20
163.5458974712127
 30
0.0
 40
5.0
  1
M5×14
  7
STANDARD1
100
AcDbText
  0
MTEXT
  5
5C78
330
1E
100
AcDbEntity
  8
30
  6
CONTINUOUS
100
AcDbMText
 10
162.3297648581359
 20
88.99793930010117
 30
0.0
 40
4.0
 41
0.0
 71
     9
 72
     1
  1

1001
ACAD
1000
MTEXTBEGIN
1070
    73
1070
     1
1070
    44
1040
1.0
1070
    74
1070
     0
1000
MTEXTEND
  0
LEADER
  5
61FF
330
1E
100
AcDbEntity
  8
30
  6
CONTINUOUS
100
AcDbLeader
  3
STANDARD
 73
     0
 40
4.0
 76
     3
 10
176.6878945123547
 20
140.3333695752085
 30
0.0
 10
168.7923146517355
 20
161.571109341412
 30
0.0
 10
142.4230105157821
 20
161.571109341412
 30
0.0
340
6200
213
-9.093890619340072
223
2.0
233
0.0
1001
ACAD
1000
DSTYLE
1002
{
1070
     5
1000
OPEN
1070
    77
1070
     0
1070
    79
1070
     3
1070
   147
1040
1.0
1070
   342
1005
3B2
1002
}
  0
MTEXT
  5
6200
102
{ACAD_REACTORS
330
61FF
102
}
330
1E
100
AcDbEntity
  8
30
  6
CONTINUOUS
100
AcDbMText
 10
160.6290066227675
 20
91.2377397662035
 30
0.0
 40
4.0
 41
0.0
 71
     9
 72
     1
  1

1001
ACAD
1000
MTEXTBEGIN
1070
    73
1070
     1
1070
    44
1040
1.0
1070
    74
1070
     0
1000
MTEXTEND
  0
LINE
  5
640D
330
1E
100
AcDbEntity
  8
10
  6
CONTINOUS
100
AcDbLine
 10
35.99994000000004
 20
23.99997000000002
 30
0.0
 11
35.99994000000004
 21
-24.00003099999997
 31
0.0
  0
LINE
  5
640E
330
1E
100
AcDbEntity
  8
10
  6
CONTINOUS
100
AcDbLine
 10
37.49994000000004
 20
46.50000099999999
 30
0.0
 11
37.49994000000004
 21
-46.50000199999996
 31
0.0
  0
LINE
  5
640F
330
1E
100
AcDbEntity
  8
10
  6
CONTINOUS
100
AcDbLine
 10
10.99993899999992
 20
24.64641600000004
 30
0.0
 11
10.99993899999992
 21
-24.646478
 31
0.0
  0
LINE
  5
6410
330
1E
100
AcDbEntity
  8
10
  6
CONTINOUS
100
AcDbLine
 10
-37.50004600000005
 20
46.50000099999999
 30
0.0
 11
-37.50004600000005
 21
-46.50000199999996
 31
0.0
  0
LINE
  5
6411
330
1E
100
AcDbEntity
  8
10
  6
CONTINOUS
100
AcDbLine
 10
-11.00004599999999
 20
24.64641600000004
 30
0.0
 11
-11.00004599999999
 21
-24.646478
 31
0.0
  0
LINE
  5
6412
330
1E
100
AcDbEntity
  8
10
  6
CONTINOUS
100
AcDbLine
 10
-36.00003100000003
 20
23.99997000000002
 30
0.0
 11
-36.00003100000003
 21
-24.00003099999997
 31
0.0
  0
CIRCLE
  5
6413
330
1E
100
AcDbEntity
  8
10
  6
CONTINOUS
100
AcDbCircle
 10
32.69999999999993
 20
-13.5
 30
0.0
 40
1.8
  0
LINE
  5
6414
330
1E
100
AcDbEntity
  8
10
  6
CONTINOUS
100
AcDbLine
 10
-6.074997000000053
 20
-42.25000099999999
 30
0.0
 11
6.074996999999939
 21
-42.25000099999999
 31
0.0
  0
LINE
  5
6415
330
1E
100
AcDbEntity
  8
10
  6
CONTINOUS
100
AcDbLine
 10
-7.500061000000073
 20
-50.00000199999997
 30
0.0
 11
3.000199999999949
 21
-50.00000199999997
 31
0.0
  0
LINE
  5
6416
330
1E
100
AcDbEntity
  8
10
  6
CONTINOUS
100
AcDbLine
 10
-35.00003100000003
 20
-25.00003200000003
 30
0.0
 11
34.99994000000004
 21
-25.00003200000003
 31
0.0
  0
LINE
  5
6417
330
1E
100
AcDbEntity
  8
10
  6
CONTINOUS
100
AcDbLine
 10
7.499938999999926
 20
-33.95000899999996
 30
0.0
 11
-7.500061000000073
 21
-33.95000899999996
 31
0.0
  0
LINE
  5
6418
330
1E
100
AcDbEntity
  8
10
  6
CONTINOUS
100
AcDbLine
 10
-36.00000100000005
 20
-50.00000199999997
 30
0.0
 11
-32.50006200000001
 21
-50.00000199999997
 31
0.0
  0
LINE
  5
6419
330
1E
100
AcDbEntity
  8
10
  6
CONTINOUS
100
AcDbLine
 10
-32.50006200000001
 20
-38.150033
 30
0.0
 11
-37.50004600000005
 21
-38.150033
 31
0.0
  0
ARC
  5
641A
330
1E
100
AcDbEntity
  8
10
  6
CONTINOUS
100
AcDbCircle
 10
-35.00003100000003
 20
-24.00003099999997
 30
0.0
 40
1.0
100
AcDbArc
 50
179.9999970000006
 51
270.0
  0
LINE
  5
641B
330
1E
100
AcDbEntity
  8
10
  6
CONTINOUS
100
AcDbLine
 10
-36.00000100000005
 20
-46.50000199999996
 30
0.0
 11
-36.00000100000005
 21
-50.00000199999997
 31
0.0
  0
LINE
  5
641C
330
1E
100
AcDbEntity
  8
10
  6
CONTINOUS
100
AcDbLine
 10
-36.00000100000005
 20
-46.50000199999996
 30
0.0
 11
-37.50004600000005
 21
-46.50000199999996
 31
0.0
  0
LINE
  5
641D
330
1E
100
AcDbEntity
  8
24
  6
CONTINOUS
100
AcDbLine
 10
-25.00001600000007
 20
-36.17498899999998
 30
0.0
 11
-25.00001600000007
 21
-48.32501399999998
 31
0.0
  0
LINE
  5
641E
330
1E
100
AcDbEntity
  8
10
  6
CONTINOUS
100
AcDbLine
 10
-7.500061000000073
 20
-33.95000899999996
 30
0.0
 11
-7.500061000000073
 21
-50.00000199999997
 31
0.0
  0
LINE
  5
641F
330
1E
100
AcDbEntity
  8
10
  6
CONTINOUS
100
AcDbLine
 10
-17.50006100000007
 20
-50.00000199999997
 30
0.0
 11
-17.50006100000007
 21
-33.95000899999996
 31
0.0
  0
LINE
  5
6420
330
1E
100
AcDbEntity
  8
10
  6
CONTINOUS
100
AcDbLine
 10
-32.50006200000001
 20
-50.00000199999997
 30
0.0
 11
-32.50006200000001
 21
-33.95000899999996
 31
0.0
  0
LINE
  5
6421
330
1E
100
AcDbEntity
  8
10
  6
CONTINOUS
100
AcDbLine
 10
-11.90007600000001
 20
-46.51023799999996
 30
0.0
 11
-11.90007600000001
 21
-50.00000199999997
 31
0.0
  0
LINE
  5
6422
330
1E
100
AcDbEntity
  8
10
  6
CONTINOUS
100
AcDbLine
 10
-15.50007600000003
 20
-44.91631899999996
 30
0.0
 11
-15.50007600000003
 21
-50.00000199999997
 31
0.0
  0
LINE
  5
6423
330
1E
100
AcDbEntity
  8
10
  6
CONTINOUS
100
AcDbLine
 10
-32.50006200000001
 20
-50.00000199999997
 30
0.0
 11
-17.50006100000007
 21
-50.00000199999997
 31
0.0
  0
LINE
  5
6424
330
1E
100
AcDbEntity
  8
10
  6
CONTINOUS
100
AcDbLine
 10
-11.90007600000001
 20
-50.00000199999997
 30
0.0
 11
-7.500061000000073
 21
-50.00000199999997
 31
0.0
  0
LINE
  5
6425
330
1E
100
AcDbEntity
  8
10
  6
CONTINOUS
100
AcDbLine
 10
-17.50006100000007
 20
-50.00000199999997
 30
0.0
 11
-15.50007600000003
 21
-50.00000199999997
 31
0.0
  0
LINE
  5
6426
330
1E
100
AcDbEntity
  8
10
  6
CONTINOUS
100
AcDbLine
 10
-17.50006100000007
 20
-33.95000899999996
 30
0.0
 11
-32.50006200000001
 21
-33.95000899999996
 31
0.0
  0
LINE
  5
6427
330
1E
100
AcDbEntity
  8
24
  6
CONTINOUS
100
AcDbLine
 10
-31.07499700000005
 20
-42.25000099999999
 30
0.0
 11
-18.92500300000006
 21
-42.25000099999999
 31
0.0
  0
LINE
  5
6428
330
1E
100
AcDbEntity
  8
10
  6
CONTINOUS
100
AcDbLine
 10
-7.500061000000073
 20
-38.150033
 30
0.0
 11
-17.50006100000007
 21
-38.150033
 31
0.0
  0
ARC
  5
6429
330
1E
100
AcDbEntity
  8
12
  6
DASHED
100
AcDbCircle
 10
-12.50001500000007
 20
-42.24993999999995
 30
0.0
 40
3.9
100
AcDbArc
 50
284.476691
 51
217.3004790000006
  0
LINE
  5
642A
330
1E
100
AcDbEntity
  8
10
  6
CONTINOUS
100
AcDbLine
 10
-15.50007600000003
 20
-46.50000199999996
 30
0.0
 11
-11.90007600000001
 21
-46.50000199999996
 31
0.0
  0
CIRCLE
  5
642B
330
1E
100
AcDbEntity
  8
12
  6
DASHED
100
AcDbCircle
 10
-12.50001500000007
 20
-42.24993999999995
 30
0.0
 40
2.45
  0
ARC
  5
642C
330
1E
100
AcDbEntity
  8
10
  6
CONTINOUS
100
AcDbCircle
 10
-16.00007600000003
 20
-44.91631899999996
 30
0.0
 40
0.5
100
AcDbArc
 50
0.0
 51
37.30047900000063
  0
ARC
  5
642D
330
1E
100
AcDbEntity
  8
10
  6
CONTINOUS
100
AcDbCircle
 10
-11.40007600000001
 20
-46.51023799999996
 30
0.0
 40
0.5
100
AcDbArc
 50
104.476691
 51
180.0
  0
ARC
  5
642E
330
1E
100
AcDbEntity
  8
10
  6
CONTINOUS
100
AcDbCircle
 10
-10.64649200000008
 20
-24.646478
 30
0.0
 40
0.353553
100
AcDbArc
 50
180.0
 51
270.0
  0
LINE
  5
642F
330
1E
100
AcDbEntity
  8
10
  6
CONTINOUS
100
AcDbLine
 10
32.49993999999992
 20
-50.00000199999997
 30
0.0
 11
35.99987899999996
 21
-50.00000199999997
 31
0.0
  0
LINE
  5
6430
330
1E
100
AcDbEntity
  8
10
  6
CONTINOUS
100
AcDbLine
 10
37.49994000000004
 20
-38.150033
 30
0.0
 11
32.49993999999992
 21
-38.150033
 31
0.0
  0
LINE
  5
6431
330
1E
100
AcDbEntity
  8
24
  6
CONTINOUS
100
AcDbLine
 10
24.99998599999992
 20
-36.17498899999998
 30
0.0
 11
24.99998599999992
 21
-48.32501399999998
 31
0.0
  0
LINE
  5
6432
330
1E
100
AcDbEntity
  8
18
100
AcDbLine
 10
3.000199999999949
 20
-33.95000899999996
 30
0.0
 11
3.000199999999949
 21
-57.76584299999999
 31
0.0
  0
LINE
  5
6433
330
1E
100
AcDbEntity
  8
18
100
AcDbLine
 10
5.000199999999949
 20
-33.95000899999996
 30
0.0
 11
5.000199999999949
 21
-57.95317
 31
0.0
  0
LINE
  5
6434
330
1E
100
AcDbEntity
  8
10
  6
CONTINOUS
100
AcDbLine
 10
17.49993999999992
 20
-33.95000899999996
 30
0.0
 11
17.49993999999992
 21
-50.00000199999997
 31
0.0
  0
LINE
  5
6435
330
1E
100
AcDbEntity
  8
10
  6
CONTINOUS
100
AcDbLine
 10
7.499938999999926
 20
-50.00000199999997
 30
0.0
 11
7.499938999999926
 21
-33.95000899999996
 31
0.0
  0
LINE
  5
6436
330
1E
100
AcDbEntity
  8
10
  6
CONTINOUS
100
AcDbLine
 10
32.49993999999992
 20
-50.00000199999997
 30
0.0
 11
32.49993999999992
 21
-33.95000899999996
 31
0.0
  0
LINE
  5
6437
330
1E
100
AcDbEntity
  8
10
  6
CONTINOUS
100
AcDbLine
 10
9.499938999999926
 20
-44.91631899999996
 30
0.0
 11
9.499938999999926
 21
-50.00000199999997
 31
0.0
  0
LINE
  5
6438
330
1E
100
AcDbEntity
  8
10
  6
CONTINOUS
100
AcDbLine
 10
13.09993999999994
 20
-46.51023799999996
 30
0.0
 11
13.09993999999994
 21
-50.00000199999997
 31
0.0
  0
LINE
  5
6439
330
1E
100
AcDbEntity
  8
10
  6
CONTINOUS
100
AcDbLine
 10
13.09993999999994
 20
-50.00000199999997
 30
0.0
 11
17.49993999999992
 21
-50.00000199999997
 31
0.0
  0
LINE
  5
643A
330
1E
100
AcDbEntity
  8
18
100
AcDbLine
 10
3.000199999999949
 20
-59.26584299999999
 30
0.0
 11
3.000199999999949
 21
-68.70000899999997
 31
0.0
  0
LINE
  5
643B
330
1E
100
AcDbEntity
  8
18
100
AcDbLine
 10
5.000199999999949
 20
-59.45317
 30
0.0
 11
5.000199999999949
 21
-68.70000899999997
 31
0.0
  0
LINE
  5
643C
330
1E
100
AcDbEntity
  8
18
100
AcDbLine
 10
4.000199999999949
 20
-68.70576899999997
 30
0.0
 11
4.000199999999949
 21
-73.70000899999997
 31
0.0
  0
LINE
  5
643D
330
1E
100
AcDbEntity
  8
18
100
AcDbLine
 10
4.500199999999949
 20
-68.70576899999997
 30
0.0
 11
4.500199999999949
 21
-73.70000899999997
 31
0.0
  0
LINE
  5
643E
330
1E
100
AcDbEntity
  8
18
100
AcDbLine
 10
3.500199999999949
 20
-68.70576899999997
 30
0.0
 11
3.500199999999949
 21
-73.70000899999997
 31
0.0
  0
LINE
  5
643F
330
1E
100
AcDbEntity
  8
18
100
AcDbLine
 10
3.000199999999949
 20
-68.70000899999997
 30
0.0
 11
5.000199999999949
 21
-68.70000899999997
 31
0.0
  0
LINE
  5
6440
330
1E
100
AcDbEntity
  8
10
  6
CONTINOUS
100
AcDbLine
 10
7.499938999999926
 20
-50.00000199999997
 30
0.0
 11
9.499938999999926
 21
-50.00000199999997
 31
0.0
  0
SPLINE
  5
6441
330
1E
100
AcDbEntity
  8
18
100
AcDbSpline
210
0.0
220
0.0
230
1.0
 70
     8
 71
     3
 72
    87
 73
    83
 74
    81
 42
0.0000000001
 43
0.0000000001
 44
0.000001
 12
0.9650863714262262
 22
0.2619318531361934
 32
0.0
 13
0.7925001333850722
 23
0.6098717394539963
 33
0.0
 40
0.0
 40
0.0
 40
0.0
 40
0.0
 40
0.0256358921345302
 40
0.0512720476582059
 40
0.0765076652987507
 40
0.1017430809346209
 40
0.1267763489496837
 40
0.1518096073943623
 40
0.1768371653223105
 40
0.2018649002966637
 40
0.2270747968615084
 40
0.2522853005838209
 40
0.2778404925158125
 40
0.3033963326966418
 40
0.3294269906814105
 40
0.3554582803977325
 40
0.3820636441103885
 40
0.4086695863701826
 40
0.4359150231572477
 40
0.4631611125595966
 40
0.4910614122449064
 40
0.5189622202550839
 40
0.547496133831764
 40
0.5760304330858209
 40
0.6051515420259204
 40
0.634272937176621
 40
0.6639008106476804
 40
0.6935289972579839
 40
0.7235086611357188
 40
0.7534884880625893
 40
0.7836351482557586
 40
0.8137818493825738
 40
0.8439034182577472
 40
0.8740249133161155
 40
0.9039402202935033
 40
0.9338554009394181
 40
0.9634303807540918
 40
0.9930051575491733
 40
1.022126890447032
 40
1.051248321751056
 40
1.07982015790123
 40
1.108391564300358
 40
1.136345023918413
 40
1.164298048587802
 40
1.191613955780425
 40
1.218929317818751
 40
1.245620801095582
 40
1.272311621385202
 40
1.298423087379915
 40
1.324533780283653
 40
1.350148290304309
 40
1.375762144126038
 40
1.401007869430156
 40
1.42625297901072
 40
1.451292488944591
 40
1.476331499136328
 40
1.50135861616857
 40
1.526385431942769
 40
1.551615245219306
 40
1.576846000051409
 40
1.602465822253076
 40
1.62808658774118
 40
1.654231199567024
 40
1.680376669716728
 40
1.707134310253715
 40
1.733892683298833
 40
1.761310684958057
 40
1.788729293318944
 40
1.816819185940551
 40
1.844909556121872
 40
1.873653861170394
 40
1.902398533388604
 40
1.93175663309054
 40
1.961115009716269
 40
1.99103423743218
 40
2.020953615603406
 40
2.051393465699523
 40
2.081833435586275
 40
2.112751701651342
 40
2.143670062246886
 40
2.17501823635315
 40
2.206365879550076
 40
2.206365879550076
 40
2.206365879550076
 40
2.206365879550076
 10
3.000199816158442
 20
-57.76584313564268
 30
0.0
 10
3.008446766197905
 20
-57.76360485006481
 30
0.0
 10
3.025037070922905
 20
-57.75947435155297
 30
0.0
 10
3.050034548294636
 20
-57.75438474813246
 30
0.0
 10
3.075099594060075
 20
-57.75041650702423
 30
0.0
 10
3.100115192931156
 20
-57.74757609218364
 30
0.0
 10
3.125164919900989
 20
-57.74585429327263
 30
0.0
 10
3.150196965012357
 20
-57.74524160234352
 30
0.0
 10
3.175229646443408
 20
-57.74573787387425
 30
0.0
 10
3.200275401348319
 20
-57.74733039148277
 30
0.0
 10
3.225288752810438
 20
-57.75001564810877
 30
0.0
 10
3.250341496625588
 20
-57.75376826976943
 30
0.0
 10
3.27533529436847
 20
-57.75855051789887
 30
0.0
 10
3.300391860326078
 20
-57.76435423589536
 30
0.0
 10
3.325369495458132
 20
-57.77112208957548
 30
0.0
 10
3.350427304557841
 20
-57.7788673020981
 30
0.0
 10
3.375392378786786
 20
-57.78751060978061
 30
0.0
 10
3.40044781899589
 20
-57.79708689064792
 30
0.0
 10
3.425400538504061
 20
-57.80749486404861
 30
0.0
 10
3.450447079267846
 20
-57.8187693426831
 30
0.0
 10
3.475393878210304
 20
-57.83077469946658
 30
0.0
 10
3.500433565966194
 20
-57.84355791241466
 30
0.0
 10
3.52537942151464
 20
-57.85697473010145
 30
0.0
 10
3.550411852360074
 20
-57.87107689971225
 30
0.0
 10
3.575359474480235
 20
-57.88571884448564
 30
0.0
 10
3.600380349801405
 20
-57.90094818640138
 30
0.0
 10
3.625323792234927
 20
-57.91662352487644
 30
0.0
 10
3.650322620939851
 20
-57.93274396425728
 30
0.0
 10
3.675272737498349
 20
-57.94915378109095
 30
0.0
 10
3.700257695958927
 20
-57.96582364640373
 30
0.0
 10
3.725219772438447
 20
-57.98262748835979
 30
0.0
 10
3.750191331778787
 20
-57.99950169344413
 30
0.0
 10
3.775166334388909
 20
-58.01635583406662
 30
0.0
 10
3.800127874066015
 20
-58.03309193369894
 30
0.0
 10
3.825121976173365
 20
-58.04965534255674
 30
0.0
 10
3.850081018183674
 20
-58.06594072161456
 30
0.0
 10
3.875087432797065
 20
-58.08194393010449
 30
0.0
 10
3.900039373741142
 20
-58.09753884505531
 30
0.0
 10
3.925055372324594
 20
-58.11274210006733
 30
0.0
 10
3.950001685297965
 20
-58.12741099434891
 30
0.0
 10
3.975027289706416
 20
-58.14157597187416
 30
0.0
 10
3.999971835572482
 20
-58.15508458173301
 30
0.0
 10
4.025010481025513
 20
-58.16797397773019
 30
0.0
 10
4.049959749848498
 20
-58.18010786051786
 30
0.0
 10
4.075005819771842
 20
-58.19153815379252
 30
0.0
 10
4.099959091409065
 20
-58.20213734879922
 30
0.0
 10
4.125009938436926
 20
-58.21194696844298
 30
0.0
 10
4.149970988913311
 20
-58.2208533183935
 30
0.0
 10
4.175025451185999
 20
-58.22888131136911
 30
0.0
 10
4.199999408360465
 20
-58.23593596874849
 30
0.0
 10
4.225056834886321
 20
-58.24202129529144
 30
0.0
 10
4.250048633975598
 20
-58.24707720428945
 30
0.0
 10
4.275103140920605
 20
-58.25109935741958
 30
0.0
 10
4.300114313677074
 20
-58.2540487954713
 30
0.0
 10
4.32516172899949
 20
-58.25590289822703
 30
0.0
 10
4.350194752761801
 20
-58.25663762764692
 30
0.0
 10
4.375231200625963
 20
-58.25621999593626
 30
0.0
 10
4.400284832924328
 20
-58.2546308654111
 30
0.0
 10
4.425301424293011
 20
-58.25184051467158
 30
0.0
 10
4.450360176901623
 20
-58.24788965621109
 30
0.0
 10
4.475351768030163
 20
-58.24283286515349
 30
0.0
 10
4.500411480928101
 20
-58.23668964630545
 30
0.0
 10
4.525383928625827
 20
-58.2295376951917
 30
0.0
 10
4.550441523691882
 20
-58.22137210263596
 30
0.0
 10
4.575400511461616
 20
-58.21229410405113
 30
0.0
 10
4.60045391909616
 20
-58.20227612301708
 30
0.0
 10
4.625404299925166
 20
-58.19143969091458
 30
0.0
 10
4.650451996584684
 20
-58.17974040630052
 30
0.0
 10
4.675398148590552
 20
-58.16731570085358
 30
0.0
 10
4.700439619229818
 20
-58.15410934102014
 30
0.0
 10
4.725384921306178
 20
-58.14026719481029
 30
0.0
 10
4.75041977071776
 20
-58.12572765915941
 30
0.0
 10
4.775366663674224
 20
-58.11063875597088
 30
0.0
 10
4.800396473496517
 20
-58.09493851868156
 30
0.0
 10
4.825350163162396
 20
-58.07877113532295
 30
0.0
 10
4.850379430803367
 20
-58.06206288410621
 30
0.0
 10
4.875336992171104
 20
-58.04493916904999
 30
0.0
 10
4.900362171405373
 20
-58.02732947381224
 30
0.0
 10
4.92532255236802
 20
-58.00935386939195
 30
0.0
 10
4.950343626436354
 20
-57.9909473721644
 30
0.0
 10
4.975306846254771
 20
-57.97222312911706
 30
0.0
 10
4.991918812353598
 20
-57.9595422211122
 30
0.0
 10
5.000199816158556
 20
-57.95316954055076
 30
0.0
 11
3.000199816158442
 21
-57.76584313564268
 31
0.0
 11
3.025078223152263
 21
-57.75965493456865
 31
0.0
 11
3.05019981615851
 21
-57.75454462410024
 31
0.0
 11
3.075125252139741
 21
-57.75060045849477
 31
0.0
 11
3.100199816158465
 21
-57.74775617562028
 31
0.0
 11
3.125174083703086
 21
-57.74603917899432
 31
0.0
 11
3.150199816158533
 21
-57.74542726741365
 31
0.0
 11
3.175222462663896
 21
-57.7459208130295
 31
0.0
 11
3.200199816158487
 21
-57.74750737669112
 31
0.0
 11
3.225266479197443
 21
-57.75019050894639
 31
0.0
 11
3.250199816158442
 21
-57.75391827253972
 31
0.0
 11
3.275301311745465
 21
-57.75871210464953
 31
0.0
 11
3.30019981615851
 21
-57.76447089155215
 31
0.0
 11
3.32532692156235
 21
-57.77126956407435
 31
0.0
 11
3.350199816158465
 21
-57.77894846219751
 31
0.0
 11
3.375344064456271
 21
-57.78764389168859
 31
0.0
 11
3.400199816158533
 21
-57.79713421294488
 31
0.0
 11
3.425350106884025
 21
-57.80761157615259
 31
0.0
 11
3.450199816158487
 21
-57.81878475207759
 31
0.0
 11
3.475345143816298
 21
-57.8308734972278
 31
0.0
 11
3.500199816158556
 21
-57.84355020713613
 31
0.0
 11
3.52533432408029
 21
-57.85705721937635
 31
0.0
 11
3.55019981615851
 21
-57.87105408547543
 31
0.0
 11
3.575319373128081
 21
-57.88578655272837
 31
0.0
 11
3.600199816158465
 21
-57.90091989445025
 31
0.0
 11
3.62529257998824
 21
-57.91667308282171
 31
0.0
 11
3.650199816158419
 21
-57.93271857930339
 31
0.0
 11
3.675254323240096
 21
-57.94918220292723
 31
0.0
 11
3.700199816158487
 21
-57.96581083683031
 31
0.0
 11
3.725214631179937
 21
-57.98263579680827
 31
0.0
 11
3.750199816158442
 21
-57.99950480171427
 31
0.0
 11
3.775174582637305
 21
-58.01634431582758
 31
0.0
 11
3.800199816158396
 21
-58.03310860863866
 31
0.0
 11
3.825141327007713
 21
-58.04962666160003
 31
0.0
 11
3.850199816158465
 21
-58.06596648024637
 31
0.0
 11
3.875115444381663
 21
-58.08190042203552
 31
0.0
 11
3.900199816158533
 21
-58.09756699101717
 31
0.0
 11
3.92509143926361
 21
-58.1126826177331
 31
0.0
 11
3.950199816158487
 21
-58.12743480339069
 31
0.0
 11
3.975070434259691
 21
-58.14149901532681
 31
0.0
 11
4.000199816158556
 21
-58.15509457980596
 31
0.0
 11
4.02505783976369
 21
-58.16788029740007
 31
0.0
 11
4.05019981615851
 21
-58.18009719873311
 31
0.0
 11
4.075054404341699
 21
-58.19142893964746
 31
0.0
 11
4.100199816158578
 21
-58.20209840276397
 31
0.0
 11
4.12505756628775
 21
-58.21182094137729
 31
0.0
 11
4.150199816158533
 21
-58.22078015052079
 31
0.0
 11
4.175069277194893
 21
-58.22873746591596
 31
0.0
 11
4.200199816158487
 21
-58.23582440062622
 31
0.0
 11
4.225092769129332
 21
-58.24186131961155
 31
0.0
 11
4.250199816158556
 21
-58.24693143874637
 31
0.0
 11
4.275127496477921
 21
-58.25092616406095
 31
0.0
 11
4.30019981615851
 21
-58.25387485872287
 31
0.0
 11
4.32517139305105
 21
-58.25571819129351
 31
0.0
 11
4.350199816158578
 21
-58.25644658144103
 31
0.0
 11
4.375223416038124
 21
-58.2560264304804
 31
0.0
 11
4.400199816158533
 21
-58.25443852778639
 31
0.0
 11
4.425275370460667
 21
-58.25165275259616
 31
0.0
 11
4.450199816158601
 21
-58.24773312621776
 31
0.0
 11
4.475313170725939
 21
-58.24266408454784
 31
0.0
 11
4.500199816158556
 21
-58.23657483548799
 31
0.0
 11
4.525337364324514
 21
-58.22938840064455
 31
0.0
 11
4.55019981615851
 21
-58.22129862192383
 31
0.0
 11
4.575349891111386
 21
-58.21216377259109
 31
0.0
 11
4.600199816158578
 21
-58.20223945185174
 31
0.0
 11
4.625352817327097
 21
-58.19132736093897
 31
0.0
 11
4.650199816158533
 21
-58.17973395387511
 31
0.0
 11
4.67534828500743
 21
-58.16722008453149
 31
0.0
 11
4.700199816158601
 21
-58.15412540570571
 31
0.0
 11
4.725338432214471
 21
-58.14018677732753
 31
0.0
 11
4.750199816158556
 21
-58.12575874733241
 31
0.0
 11
4.775324795526898
 21
-58.11057211839624
 31
0.0
 11
4.80019981615851
 21
-58.09497891874389
 31
0.0
 11
4.82531248263092
 21
-58.07871501963259
 31
0.0
 11
4.850199816158578
 21
-58.06210809178105
 31
0.0
 11
4.875302630488477
 21
-58.04489084995288
 31
0.0
 11
4.900199816158533
 21
-58.02737736569352
 31
0.0
 11
4.925291830929836
 21
-58.00931275425108
 31
0.0
 11
4.950199816158487
 21
-57.99099507158274
 31
0.0
 11
4.975280350306547
 21
-57.97218882184836
 31
0.0
 11
5.000199816158556
 21
-57.95316954055076
 31
0.0
  0
SPLINE
  5
6442
330
1E
100
AcDbEntity
  8
18
100
AcDbSpline
210
0.0
220
0.0
230
1.0
 70
     8
 71
     3
 72
    87
 73
    83
 74
    81
 42
0.0000000001
 43
0.0000000001
 44
0.000001
 12
0.9650863714262262
 22
0.2619318531361934
 32
0.0
 13
0.7925001333850722
 23
0.6098717394539963
 33
0.0
 40
0.0
 40
0.0
 40
0.0
 40
0.0
 40
0.025635892134641
 40
0.0512720476582049
 40
0.0765076652987496
 40
0.1017430809346198
 40
0.1267763489497965
 40
0.151809607394361
 40
0.1768371653224228
 40
0.2018649002966626
 40
0.2270747968616203
 40
0.2522853005839329
 40
0.2778404925158181
 40
0.303396332696641
 40
0.3294269906814171
 40
0.3554582803978394
 40
0.3820636441103786
 40
0.4086695863701625
 40
0.4359150231572385
 40
0.4631611125595992
 40
0.4910614122449336
 40
0.5189622202550853
 40
0.5474961338317384
 40
0.5760304330858094
 40
0.6051515420259376
 40
0.6342729371765791
 40
0.6639008106476839
 40
0.6935289972579874
 40
0.7235086611356755
 40
0.7534884880625932
 40
0.7836351482557626
 40
0.8137818493825143
 40
0.8439034182577033
 40
0.8740249133160402
 40
0.9039402202933965
 40
0.9338554009392183
 40
0.9634303807538765
 40
0.993005157548958
 40
1.022126890446729
 40
1.051248321750723
 40
1.079820157900911
 40
1.108391564300067
 40
1.136345023918069
 40
1.164298048587483
 40
1.191613955780107
 40
1.218929317818466
 40
1.245620801095358
 40
1.272311621384998
 40
1.298423087379736
 40
1.324533780283467
 40
1.35014829030417
 40
1.375762144125888
 40
1.401007869430006
 40
1.426252979010573
 40
1.451292488944448
 40
1.476331499136185
 40
1.501358616168428
 40
1.526385431942629
 40
1.551615245219163
 40
1.576846000051274
 40
1.602465822252931
 40
1.628086587741035
 40
1.654231199566879
 40
1.680376669716582
 40
1.70713431025357
 40
1.733892683298698
 40
1.761310684957911
 40
1.788729293318821
 40
1.816819185940403
 40
1.844909556121725
 40
1.873653861170233
 40
1.902398533388457
 40
1.931756633090392
 40
1.961115009716122
 40
1.991034237432032
 40
2.020953615603259
 40
2.051393465699408
 40
2.081833435586128
 40
2.112751701651194
 40
2.143670062246721
 40
2.175018236353054
 40
2.206365879549962
 40
2.206365879549962
 40
2.206365879549962
 40
2.206365879549962
 10
3.000199816158442
 20
-59.26584313564268
 30
0.0
 10
3.00844676619794
 20
-59.26360485006481
 30
0.0
 10
3.025037070922952
 20
-59.25947435155302
 30
0.0
 10
3.05003454829467
 20
-59.25438474813244
 30
0.0
 10
3.075099594060076
 20
-59.25041650702422
 30
0.0
 10
3.100115192931194
 20
-59.24757609218365
 30
0.0
 10
3.125164919901027
 20
-59.24585429327262
 30
0.0
 10
3.150196965012433
 20
-59.24524160234353
 30
0.0
 10
3.175229646443447
 20
-59.24573787387424
 30
0.0
 10
3.200275401348394
 20
-59.2473303914828
 30
0.0
 10
3.225288752810515
 20
-59.25001564810878
 30
0.0
 10
3.25034149662567
 20
-59.2537682697694
 30
0.0
 10
3.275335294368495
 20
-59.25855051789892
 30
0.0
 10
3.300391860326089
 20
-59.26435423589534
 30
0.0
 10
3.325369495458151
 20
-59.27112208957556
 30
0.0
 10
3.350427304557896
 20
-59.27886730209806
 30
0.0
 10
3.375392378786812
 20
-59.28751060978061
 30
0.0
 10
3.400447818995903
 20
-59.29708689064785
 30
0.0
 10
3.425400538504058
 20
-59.30749486404855
 30
0.0
 10
3.450447079267858
 20
-59.31876934268309
 30
0.0
 10
3.475393878210276
 20
-59.33077469946667
 30
0.0
 10
3.500433565966197
 20
-59.34355791241466
 30
0.0
 10
3.525379421514656
 20
-59.35697473010137
 30
0.0
 10
3.550411852360087
 20
-59.37107689971224
 30
0.0
 10
3.57535947448018
 20
-59.38571884448568
 30
0.0
 10
3.600380349801469
 20
-59.40094818640126
 30
0.0
 10
3.625323792234899
 20
-59.41662352487644
 30
0.0
 10
3.650322620939826
 20
-59.4327439642573
 30
0.0
 10
3.675272737498402
 20
-59.44915378109087
 30
0.0
 10
3.7002576959589
 20
-59.46582364640372
 30
0.0
 10
3.725219772438413
 20
-59.48262748835979
 30
0.0
 10
3.750191331778833
 20
-59.49950169344398
 30
0.0
 10
3.775166334388876
 20
-59.51635583406654
 30
0.0
 10
3.800127874066026
 20
-59.5330919336988
 30
0.0
 10
3.825121976173327
 20
-59.54965534255656
 30
0.0
 10
3.850081018183716
 20
-59.56594072161419
 30
0.0
 10
3.875087432797074
 20
-59.58194393010407
 30
0.0
 10
3.900039373741092
 20
-59.59753884505494
 30
0.0
 10
3.92505537232463
 20
-59.61274210006675
 30
0.0
 10
3.950001685297979
 20
-59.62741099434829
 30
0.0
 10
3.975027289706431
 20
-59.64157597187354
 30
0.0
 10
3.999971835572432
 20
-59.65508458173251
 30
0.0
 10
4.025010481025564
 20
-59.6679739777295
 30
0.0
 10
4.049959749848476
 20
-59.68010786051729
 30
0.0
 10
4.075005819771861
 20
-59.69153815379191
 30
0.0
 10
4.099959091409083
 20
-59.70213734879869
 30
0.0
 10
4.125009938436898
 20
-59.71194696844266
 30
0.0
 10
4.149970988913323
 20
-59.72085331839318
 30
0.0
 10
4.175025451185972
 20
-59.72888131136897
 30
0.0
 10
4.199999408360505
 20
-59.73593596874818
 30
0.0
 10
4.225056834886282
 20
-59.7420212952915
 30
0.0
 10
4.250048633975611
 20
-59.74707720428932
 30
0.0
 10
4.275103140920602
 20
-59.75109935741949
 30
0.0
 10
4.300114313677076
 20
-59.75404879547123
 30
0.0
 10
4.325161728999487
 20
-59.75590289822704
 30
0.0
 10
4.350194752761801
 20
-59.75663762764695
 30
0.0
 10
4.375231200625965
 20
-59.75621999593627
 30
0.0
 10
4.400284832924322
 20
-59.75463086541102
 30
0.0
 10
4.425301424293022
 20
-59.75184051467164
 30
0.0
 10
4.450360176901609
 20
-59.74788965621099
 30
0.0
 10
4.475351768030171
 20
-59.7428328651535
 30
0.0
 10
4.500411480928099
 20
-59.73668964630546
 30
0.0
 10
4.525383928625828
 20
-59.72953769519169
 30
0.0
 10
4.55044152369188
 20
-59.72137210263595
 30
0.0
 10
4.575400511461625
 20
-59.71229410405113
 30
0.0
 10
4.600453919096144
 20
-59.70227612301703
 30
0.0
 10
4.625404299925191
 20
-59.6914396909146
 30
0.0
 10
4.65045199658465
 20
-59.67974040630044
 30
0.0
 10
4.675398148590573
 20
-59.6673157008536
 30
0.0
 10
4.700439619229804
 20
-59.65410934102012
 30
0.0
 10
4.725384921306198
 20
-59.64026719481035
 30
0.0
 10
4.75041977071775
 20
-59.6257276591594
 30
0.0
 10
4.775366663674225
 20
-59.61063875597088
 30
0.0
 10
4.800396473496517
 20
-59.59493851868154
 30
0.0
 10
4.825350163162393
 20
-59.57877113532294
 30
0.0
 10
4.850379430803388
 20
-59.56206288410622
 30
0.0
 10
4.875336992171066
 20
-59.54493916904993
 30
0.0
 10
4.900362171405396
 20
-59.52732947381227
 30
0.0
 10
4.925322552368001
 20
-59.50935386939193
 30
0.0
 10
4.950343626436405
 20
-59.49094737216445
 30
0.0
 10
4.975306846254718
 20
-59.47222312911695
 30
0.0
 10
4.991918812353604
 20
-59.45954222111213
 30
0.0
 10
5.000199816158556
 20
-59.4531695405507
 30
0.0
 11
3.000199816158442
 21
-59.26584313564268
 31
0.0
 11
3.025078223152377
 21
-59.25965493456866
 31
0.0
 11
3.05019981615851
 21
-59.25454462410025
 31
0.0
 11
3.075125252139741
 21
-59.25060045849477
 31
0.0
 11
3.100199816158465
 21
-59.24775617562028
 31
0.0
 11
3.1251740837032
 21
-59.24603917899432
 31
0.0
 11
3.150199816158533
 21
-59.24542726741364
 31
0.0
 11
3.175222462664009
 21
-59.2459208130295
 31
0.0
 11
3.200199816158487
 21
-59.24750737669111
 31
0.0
 11
3.225266479197557
 21
-59.25019050894639
 31
0.0
 11
3.250199816158556
 21
-59.25391827253972
 31
0.0
 11
3.275301311745465
 21
-59.25871210464956
 31
0.0
 11
3.30019981615851
 21
-59.26447089155215
 31
0.0
 11
3.32532692156235
 21
-59.27126956407438
 31
0.0
 11
3.350199816158578
 21
-59.27894846219752
 31
0.0
 11
3.375344064456271
 21
-59.28764389168856
 31
0.0
 11
3.400199816158533
 21
-59.29713421294483
 31
0.0
 11
3.425350106884025
 21
-59.30761157615257
 31
0.0
 11
3.450199816158487
 21
-59.31878475207759
 31
0.0
 11
3.475345143816298
 21
-59.33087349722786
 31
0.0
 11
3.500199816158556
 21
-59.34355020713613
 31
0.0
 11
3.52533432408029
 21
-59.35705721937629
 31
0.0
 11
3.55019981615851
 21
-59.37105408547541
 31
0.0
 11
3.575319373128081
 21
-59.38578655272841
 31
0.0
 11
3.600199816158465
 21
-59.40091989445017
 31
0.0
 11
3.62529257998824
 21
-59.41667308282172
 31
0.0
 11
3.650199816158419
 21
-59.43271857930338
 31
0.0
 11
3.675254323240096
 21
-59.44918220292715
 31
0.0
 11
3.700199816158487
 21
-59.46581083683032
 31
0.0
 11
3.725214631179937
 21
-59.48263579680826
 31
0.0
 11
3.750199816158442
 21
-59.49950480171415
 31
0.0
 11
3.775174582637305
 21
-59.5163443158275
 31
0.0
 11
3.800199816158396
 21
-59.53310860863851
 31
0.0
 11
3.825141327007713
 21
-59.54962666159983
 31
0.0
 11
3.850199816158465
 21
-59.565966480246
 31
0.0
 11
3.875115444381663
 21
-59.58190042203511
 31
0.0
 11
3.900199816158533
 21
-59.59756699101678
 31
0.0
 11
3.92509143926361
 21
-59.61268261773253
 31
0.0
 11
3.950199816158487
 21
-59.62743480339006
 31
0.0
 11
3.975070434259691
 21
-59.64149901532621
 31
0.0
 11
4.000199816158556
 21
-59.65509457980542
 31
0.0
 11
4.02505783976369
 21
-59.66788029739942
 31
0.0
 11
4.05019981615851
 21
-59.68009719873251
 31
0.0
 11
4.075054404341699
 21
-59.69142893964686
 31
0.0
 11
4.100199816158578
 21
-59.70209840276345
 31
0.0
 11
4.12505756628775
 21
-59.71182094137694
 31
0.0
 11
4.150199816158533
 21
-59.72078015052051
 31
0.0
 11
4.175069277194893
 21
-59.72873746591577
 31
0.0
 11
4.200199816158487
 21
-59.735824400626
 31
0.0
 11
4.225092769129332
 21
-59.74186131961153
 31
0.0
 11
4.250199816158556
 21
-59.74693143874628
 31
0.0
 11
4.275127496477921
 21
-59.75092616406087
 31
0.0
 11
4.30019981615851
 21
-59.75387485872281
 31
0.0
 11
4.32517139305105
 21
-59.75571819129351
 31
0.0
 11
4.350199816158578
 21
-59.75644658144105
 31
0.0
 11
4.375223416038124
 21
-59.7560264304804
 31
0.0
 11
4.400199816158533
 21
-59.75443852778636
 31
0.0
 11
4.425275370460667
 21
-59.75165275259616
 31
0.0
 11
4.450199816158601
 21
-59.7477331262177
 31
0.0
 11
4.475313170725939
 21
-59.74266408454784
 31
0.0
 11
4.500199816158556
 21
-59.736574835488
 31
0.0
 11
4.525337364324514
 21
-59.72938840064455
 31
0.0
 11
4.55019981615851
 21
-59.72129862192383
 31
0.0
 11
4.575349891111386
 21
-59.71216377259108
 31
0.0
 11
4.600199816158578
 21
-59.70223945185171
 31
0.0
 11
4.625352817327097
 21
-59.69132736093897
 31
0.0
 11
4.650199816158533
 21
-59.67973395387506
 31
0.0
 11
4.67534828500743
 21
-59.6672200845315
 31
0.0
 11
4.700199816158601
 21
-59.65412540570572
 31
0.0
 11
4.725338432214471
 21
-59.64018677732756
 31
0.0
 11
4.750199816158556
 21
-59.62575874733241
 31
0.0
 11
4.775324795526898
 21
-59.61057211839625
 31
0.0
 11
4.80019981615851
 21
-59.59497891874389
 31
0.0
 11
4.82531248263092
 21
-59.5787150196326
 31
0.0
 11
4.850199816158578
 21
-59.56210809178106
 31
0.0
 11
4.875302630488477
 21
-59.54489084995282
 31
0.0
 11
4.900199816158533
 21
-59.52737736569353
 31
0.0
 11
4.925291830929836
 21
-59.50931275425109
 31
0.0
 11
4.950199816158487
 21
-59.49099507158277
 31
0.0
 11
4.975280350306547
 21
-59.47218882184827
 31
0.0
 11
5.000199816158556
 21
-59.4531695405507
 31
0.0
  0
LINE
  5
6443
330
1E
100
AcDbEntity
  8
10
  6
CONTINOUS
100
AcDbLine
 10
5.000199999999949
 20
-50.00000199999997
 30
0.0
 11
7.499938999999926
 21
-50.00000199999997
 31
0.0
  0
LINE
  5
6444
330
1E
100
AcDbEntity
  8
10
  6
CONTINOUS
100
AcDbLine
 10
17.49993999999992
 20
-50.00000199999997
 30
0.0
 11
33.49993999999992
 21
-50.00000199999997
 31
0.0
  0
LINE
  5
6445
330
1E
100
AcDbEntity
  8
10
  6
CONTINOUS
100
AcDbLine
 10
17.49993999999992
 20
-38.150033
 30
0.0
 11
7.499938999999926
 21
-38.150033
 31
0.0
  0
ARC
  5
6446
330
1E
100
AcDbEntity
  8
10
  6
CONTINOUS
100
AcDbCircle
 10
12.50000099999999
 20
-42.24993999999995
 30
0.0
 40
3.9
100
AcDbArc
 50
284.4766920000007
 51
217.3004790000006
  0
LINE
  5
6447
330
1E
100
AcDbEntity
  8
12
  6
DASHED
100
AcDbLine
 10
9.25648799999999
 20
-42.25000099999999
 30
0.0
 11
15.6600249999999
 21
-42.25000099999999
 31
0.0
  0
LINE
  5
6448
330
1E
100
AcDbEntity
  8
10
  6
CONTINOUS
100
AcDbLine
 10
9.499938999999926
 20
-46.50000199999996
 30
0.0
 11
13.09993999999994
 21
-46.50000199999996
 31
0.0
  0
CIRCLE
  5
6449
330
1E
100
AcDbEntity
  8
12
  6
DASHED
100
AcDbCircle
 10
12.50000099999999
 20
-42.24993999999995
 30
0.0
 40
2.45
  0
ARC
  5
644A
330
1E
100
AcDbEntity
  8
10
  6
CONTINOUS
100
AcDbCircle
 10
8.999938999999926
 20
-44.91631899999996
 30
0.0
 40
0.5
100
AcDbArc
 50
0.0
 51
37.30047900000063
  0
LINE
  5
644B
330
1E
100
AcDbEntity
  8
10
  6
CONTINOUS
100
AcDbLine
 10
8.600000000000022
 20
-42.246047
 30
0.0
 11
8.600000000000022
 21
-42.26091399999998
 31
0.0
  0
LINE
  5
644C
330
1E
100
AcDbEntity
  8
12
  6
DASHED
100
AcDbLine
 10
12.50000099999999
 20
-45.60556599999998
 30
0.0
 11
12.50000099999999
 21
-39.06582199999999
 31
0.0
  0
ARC
  5
644D
330
1E
100
AcDbEntity
  8
10
  6
CONTINOUS
100
AcDbCircle
 10
13.59993999999994
 20
-46.51023799999996
 30
0.0
 40
0.5
100
AcDbArc
 50
104.4766920000006
 51
179.9999910000003
  0
ARC
  5
644E
330
1E
100
AcDbEntity
  8
10
  6
CONTINOUS
100
AcDbCircle
 10
10.646386
 20
-24.646478
 30
0.0
 40
0.353553
100
AcDbArc
 50
270.0
 51
0.0
  0
LINE
  5
644F
330
1E
100
AcDbEntity
  8
10
  6
CONTINOUS
100
AcDbLine
 10
32.49993999999992
 20
-33.95000899999996
 30
0.0
 11
17.49993999999992
 21
-33.95000899999996
 31
0.0
  0
CIRCLE
  5
6450
330
1E
100
AcDbEntity
  8
10
  6
CONTINOUS
100
AcDbCircle
 10
24.19999999999993
 20
-21.19999999999998
 30
0.0
 40
2.75
  0
CIRCLE
  5
6451
330
1E
100
AcDbEntity
  8
10
  6
CONTINOUS
100
AcDbCircle
 10
24.19999999999993
 20
-21.19999999999998
 30
0.0
 40
3.75
  0
CIRCLE
  5
6452
330
1E
100
AcDbEntity
  8
10
  6
CONTINOUS
100
AcDbCircle
 10
24.19999999999993
 20
-21.19999999999998
 30
0.0
 40
2.5
  0
LINE
  5
6453
330
1E
100
AcDbEntity
  8
10
  6
CONTINOUS
100
AcDbLine
 10
35.99987899999996
 20
-46.50000199999996
 30
0.0
 11
35.99987899999996
 21
-50.00000199999997
 31
0.0
  0
LINE
  5
6454
330
1E
100
AcDbEntity
  8
10
  6
CONTINOUS
100
AcDbLine
 10
35.99987899999996
 20
-46.50000199999996
 30
0.0
 11
37.49994000000004
 21
-46.50000199999996
 31
0.0
  0
ARC
  5
6455
330
1E
100
AcDbEntity
  8
10
  6
CONTINOUS
100
AcDbCircle
 10
34.99994000000004
 20
-24.00003099999997
 30
0.0
 40
1.0
100
AcDbArc
 50
270.0
 51
359.9999990000002
  0
LINE
  5
6457
330
1E
100
AcDbEntity
  8
24
  6
CONTINOUS
100
AcDbLine
 10
-6.074997000000053
 20
40.249999
 30
0.0
 11
6.074996999999939
 21
40.249999
 31
0.0
  0
LINE
  5
6458
330
1E
100
AcDbEntity
  8
10
  6
CONTINOUS
100
AcDbLine
 10
-7.500061000000073
 20
50.000001
 30
0.0
 11
7.499938999999926
 21
50.000001
 31
0.0
  0
LINE
  5
6459
330
1E
100
AcDbEntity
  8
10
  6
CONTINOUS
100
AcDbLine
 10
-6.500045999999997
 20
0.8258860000000254
 30
0.0
 11
6.499938999999926
 21
0.8258860000000254
 31
0.0
  0
LINE
  5
645A
330
1E
100
AcDbEntity
  8
10
  6
CONTINOUS
100
AcDbLine
 10
-6.500045999999997
 20
2.900000000000034
 30
0.0
 11
6.499938999999926
 21
2.900000000000034
 31
0.0
  0
LINE
  5
645B
330
1E
100
AcDbEntity
  8
10
  6
CONTINOUS
100
AcDbLine
 10
7.499938999999926
 20
33.95000000000004
 30
0.0
 11
-7.500061000000073
 21
33.95000000000004
 31
0.0
  0
LINE
  5
645C
330
1E
100
AcDbEntity
  8
10
  6
CONTINOUS
100
AcDbLine
 10
34.99997099999996
 20
24.99997000000002
 30
0.0
 11
-35.00003100000003
 21
24.99997000000002
 31
0.0
  0
LINE
  5
645D
330
1E
100
AcDbEntity
  8
10
  6
CONTINOUS
100
AcDbLine
 10
-6.000053000000093
 20
19.88189899999997
 30
0.0
 11
5.999946999999906
 21
19.88189899999997
 31
0.0
  0
LINE
  5
645E
330
1E
100
AcDbEntity
  8
10
  6
CONTINOUS
100
AcDbLine
 10
5.999946999999906
 20
15.39686200000005
 30
0.0
 11
-6.000053000000093
 21
15.39686200000005
 31
0.0
  0
LINE
  5
645F
330
1E
100
AcDbEntity
  8
10
  6
CONTINOUS
100
AcDbLine
 10
5.999946999999906
 20
8.949158000000011
 30
0.0
 11
-6.000053000000093
 21
8.949158000000011
 31
0.0
  0
LINE
  5
6460
330
1E
100
AcDbEntity
  8
10
  6
CONTINOUS
100
AcDbLine
 10
-13.10006099999998
 20
46.51021000000002
 30
0.0
 11
-13.10006099999998
 21
50.000001
 31
0.0
  0
LINE
  5
6461
330
1E
100
AcDbEntity
  8
10
  6
CONTINOUS
100
AcDbLine
 10
-32.50006200000001
 20
50.000001
 30
0.0
 11
-32.50006200000001
 21
33.95000000000004
 31
0.0
  0
LINE
  5
6462
330
1E
100
AcDbEntity
  8
10
  6
CONTINOUS
100
AcDbLine
 10
-36.00000100000005
 20
46.50000099999999
 30
0.0
 11
-36.00000100000005
 21
50.000001
 31
0.0
  0
LINE
  5
6463
330
1E
100
AcDbEntity
  8
12
  6
DASHED
100
AcDbLine
 10
-9.500061000000073
 20
44.91645800000003
 30
0.0
 11
-9.500061000000073
 21
50.000001
 31
0.0
  0
LINE
  5
6464
330
1E
100
AcDbEntity
  8
10
  6
CONTINOUS
100
AcDbLine
 10
-17.50006100000007
 20
33.95000000000004
 30
0.0
 11
-17.50006100000007
 21
50.000001
 31
0.0
  0
LINE
  5
6465
330
1E
100
AcDbEntity
  8
10
  6
CONTINOUS
100
AcDbLine
 10
-7.500061000000073
 20
50.000001
 30
0.0
 11
-7.500061000000073
 21
33.95000000000004
 31
0.0
  0
LINE
  5
6466
330
1E
100
AcDbEntity
  8
10
  6
CONTINOUS
100
AcDbLine
 10
-32.50006200000001
 20
38.14996400000001
 30
0.0
 11
-37.50004600000005
 21
38.14996400000001
 31
0.0
  0
ARC
  5
6467
330
1E
100
AcDbEntity
  8
10
  6
CONTINOUS
100
AcDbCircle
 10
-35.00003100000003
 20
23.99997000000002
 30
0.0
 40
1.0
100
AcDbArc
 50
90.0
 51
179.9999970000006
  0
LINE
  5
6468
330
1E
100
AcDbEntity
  8
10
  6
CONTINOUS
100
AcDbLine
 10
-36.00000100000005
 20
46.50000099999999
 30
0.0
 11
-37.50004600000005
 21
46.50000099999999
 31
0.0
  0
LINE
  5
6469
330
1E
100
AcDbEntity
  8
10
  6
CONTINOUS
100
AcDbLine
 10
-6.500045999999997
 20
16.17330000000004
 30
0.0
 11
-6.500045999999997
 21
0.8258860000000254
 31
0.0
  0
LINE
  5
646A
330
1E
100
AcDbEntity
  8
10
  6
CONTINOUS
100
AcDbLine
 10
-6.000053000000093
 20
19.88189899999997
 30
0.0
 11
-6.000053000000093
 21
2.900000000000034
 31
0.0
  0
LINE
  5
646B
330
1E
100
AcDbEntity
  8
10
  6
CONTINOUS
100
AcDbLine
 10
-6.500045999999997
 20
14.10000000000002
 30
0.0
 11
-6.000053000000093
 21
14.10000000000002
 31
0.0
  0
LINE
  5
646C
330
1E
100
AcDbEntity
  8
10
  6
CONTINOUS
100
AcDbLine
 10
-17.50006100000007
 20
33.95000000000004
 30
0.0
 11
-32.50006200000001
 21
33.95000000000004
 31
0.0
  0
LINE
  5
646D
330
1E
100
AcDbEntity
  8
24
  6
CONTINOUS
100
AcDbLine
 10
-31.07499700000005
 20
40.249999
 30
0.0
 11
-18.92500300000006
 21
40.249999
 31
0.0
  0
LINE
  5
646E
330
1E
100
AcDbEntity
  8
24
  6
CONTINOUS
100
AcDbLine
 10
-25.00001600000007
 20
46.32501200000001
 30
0.0
 11
-25.00001600000007
 21
34.17498700000004
 31
0.0
  0
ARC
  5
646F
330
1E
100
AcDbEntity
  8
10
  6
CONTINOUS
100
AcDbCircle
 10
-10.64649200000008
 20
24.64641600000004
 30
0.0
 40
0.353553
100
AcDbArc
 50
90.0
 51
180.0
  0
LINE
  5
6470
330
1E
100
AcDbEntity
  8
10
  6
CONTINOUS
100
AcDbLine
 10
-6.500045999999997
 20
16.17330000000004
 30
0.0
 11
-6.000053000000093
 21
16.17330000000004
 31
0.0
  0
LINE
  5
6471
330
1E
100
AcDbEntity
  8
12
  6
DASHED
100
AcDbLine
 10
-15.76792300000005
 20
42.24994000000004
 30
0.0
 11
-9.089828000000011
 21
42.24994000000004
 31
0.0
  0
LINE
  5
6472
330
1E
100
AcDbEntity
  8
10
  6
CONTINOUS
100
AcDbLine
 10
-7.500061000000073
 20
38.14996400000001
 30
0.0
 11
-17.50006100000007
 21
38.14996400000001
 31
0.0
  0
ARC
  5
6473
330
1E
100
AcDbEntity
  8
12
  6
DASHED
100
AcDbCircle
 10
-12.50001500000007
 20
42.24994000000004
 30
0.0
 40
3.9
100
AcDbArc
 50
104.4781280000011
 51
37.30277299999978
  0
ARC
  5
6474
330
1E
100
AcDbEntity
  8
10
  6
CONTINOUS
100
AcDbCircle
 10
-9.000061000000073
 20
44.91645800000003
 30
0.0
 40
0.5
100
AcDbArc
 50
180.0000009999997
 51
217.3027729999998
  0
LINE
  5
6475
330
1E
100
AcDbEntity
  8
12
  6
DASHED
100
AcDbLine
 10
-12.50001500000007
 20
45.53292800000003
 30
0.0
 11
-12.50001500000007
 21
38.88491400000003
 31
0.0
  0
CIRCLE
  5
6476
330
1E
100
AcDbEntity
  8
12
  6
DASHED
100
AcDbCircle
 10
-12.50001500000007
 20
42.24994000000004
 30
0.0
 40
2.45
  0
LINE
  5
6477
330
1E
100
AcDbEntity
  8
10
  6
CONTINOUS
100
AcDbLine
 10
-13.10006099999998
 20
46.50000099999999
 30
0.0
 11
-9.500061000000073
 21
46.50000099999999
 31
0.0
  0
ARC
  5
6478
330
1E
100
AcDbEntity
  8
10
  6
CONTINOUS
100
AcDbCircle
 10
-13.60006099999998
 20
46.51021000000002
 30
0.0
 40
0.5
100
AcDbArc
 50
284.4781280000011
 51
0.000000999999775
  0
LINE
  5
6479
330
1E
100
AcDbEntity
  8
10
  6
CONTINOUS
100
AcDbLine
 10
-36.00000100000005
 20
50.000001
 30
0.0
 11
-32.50006200000001
 21
50.000001
 31
0.0
  0
LINE
  5
647A
330
1E
100
AcDbEntity
  8
18
100
AcDbLine
 10
-13.10006099999998
 20
69.32131100000003
 30
0.0
 11
-13.10006099999998
 21
84.750001
 31
0.0
  0
LINE
  5
647B
330
1E
100
AcDbEntity
  8
18
100
AcDbLine
 10
-9.500061000000073
 20
68.43177300000002
 30
0.0
 11
-9.500061000000073
 21
84.750001
 31
0.0
  0
LINE
  5
647C
330
1E
100
AcDbEntity
  8
10
  6
CONTINOUS
100
AcDbLine
 10
-32.50006200000001
 20
50.000001
 30
0.0
 11
-17.50006100000007
 21
50.000001
 31
0.0
  0
LINE
  5
647D
330
1E
100
AcDbEntity
  8
18
100
AcDbLine
 10
-13.10006099999998
 20
50.000001
 30
0.0
 11
-13.10006099999998
 21
67.82131100000004
 31
0.0
  0
LINE
  5
647E
330
1E
100
AcDbEntity
  8
18
100
AcDbLine
 10
-9.500061000000073
 20
50.000001
 30
0.0
 11
-9.500061000000073
 21
66.93177300000002
 31
0.0
  0
LINE
  5
647F
330
1E
100
AcDbEntity
  8
10
  6
CONTINOUS
100
AcDbLine
 10
-9.500061000000073
 20
50.000001
 30
0.0
 11
-7.500061000000073
 21
50.000001
 31
0.0
  0
LINE
  5
6480
330
1E
100
AcDbEntity
  8
10
  6
CONTINOUS
100
AcDbLine
 10
-17.50006100000007
 20
50.000001
 30
0.0
 11
-13.10006099999998
 21
50.000001
 31
0.0
  0
SPLINE
  5
6481
330
1E
100
AcDbEntity
  8
18
100
AcDbSpline
210
0.0
220
0.0
230
1.0
 70
     8
 71
     3
 72
    63
 73
    59
 74
    57
 42
0.0000000001
 43
0.0000000001
 44
0.000001
 12
0.9971903946790977
 22
-0.0749087228548533
 32
0.0
 13
0.5486554005667579
 23
0.8360485939399278
 33
0.0
 40
0.0
 40
0.0
 40
0.0
 40
0.0
 40
0.0657562994106048
 40
0.1315564397077834
 40
0.2021894378562552
 40
0.2728636338097242
 40
0.3502922944421436
 40
0.427747664492197
 40
0.5125408873091468
 40
0.5973492402130092
 40
0.68919158703147
 40
0.7810424454867111
 40
0.8789812432513187
 40
0.9769244311414217
 40
1.079656945122907
 40
1.182391685730673
 40
1.288428568251092
 40
1.394466496580393
 40
1.502136430087242
 40
1.609806664519413
 40
1.717077231151652
 40
1.824347101993717
 40
1.929121691872593
 40
2.033894200650054
 40
2.134168991291482
 40
2.234439134387725
 40
2.32858623721224
 40
2.422727597163663
 40
2.510112686762651
 40
2.597488271593876
 40
2.677976593440465
 40
2.758449539033782
 40
2.832387074939642
 40
2.906301435115233
 40
2.97478794821414
 40
3.043252223126921
 40
3.108374279696121
 40
3.173481270887754
 40
3.238003825479753
 40
3.302527996266908
 40
3.369572269868412
 40
3.436635344012858
 40
3.509097787202249
 40
3.581594744321667
 40
3.661053593915874
 40
3.740534345441376
 40
3.827379817690242
 40
3.9142378874926
 40
4.008166942063942
 40
4.102103032614429
 40
4.202452797442268
 40
4.302806050733162
 40
4.408917222283619
 40
4.515030528511051
 40
4.626171556788816
 40
4.737313897925904
 40
4.852665926631173
 40
4.968017905969042
 40
4.968017905969042
 40
4.968017905969042
 40
4.968017905969042
 10
-13.10006112409439
 20
67.82131068198032
 30
0.0
 10
-13.07820394070709
 20
67.81966877517749
 30
0.0
 10
-13.034664287051
 20
67.81328273468682
 30
0.0
 10
-12.96955327275683
 20
67.79535300265149
 30
0.0
 10
-12.90533844956135
 20
67.76964433293435
 30
0.0
 10
-12.84045693684928
 20
67.73619032426951
 30
0.0
 10
-12.77661231947492
 20
67.69633474831016
 30
0.0
 10
-12.71192365835686
 20
67.64936457046653
 30
0.0
 10
-12.64819925585874
 20
67.59713232056849
 30
0.0
 10
-12.58364780248292
 20
67.53854163969009
 30
0.0
 10
-12.5199292575898
 20
67.47565704995206
 30
0.0
 10
-12.45549404705276
 20
67.40736408019809
 30
0.0
 10
-12.39171274053475
 20
67.33571841797926
 30
0.0
 10
-12.32736072145993
 20
67.25976985551398
 30
0.0
 10
-12.26349393722705
 20
67.18134299566919
 30
0.0
 10
-12.19921809447788
 20
67.09978966614011
 30
0.0
 10
-12.13526398492088
 20
67.0165913984767
 30
0.0
 10
-12.07107870677771
 20
66.93150267039047
 30
0.0
 10
-12.00707183914528
 20
66.84560059673279
 30
0.0
 10
-11.9430166243665
 20
66.75922289250222
 30
0.0
 10
-11.8789242633985
 20
66.67303863578794
 30
0.0
 10
-11.81497216322558
 20
66.58795385891834
 30
0.0
 10
-11.75078421157512
 20
66.50409155586995
 30
0.0
 10
-11.68694159549906
 20
66.42290995792079
 30
0.0
 10
-11.62265901929362
 20
66.3440006528732
 30
0.0
 10
-11.55889257803211
 20
66.26926589003932
 30
0.0
 10
-11.49442118608955
 20
66.19786587611698
 30
0.0
 10
-11.43062137741444
 20
66.13170589028621
 30
0.0
 10
-11.36604405839824
 20
66.06951242721391
 30
0.0
 10
-11.30225758181477
 20
66.01315871376089
 30
0.0
 10
-11.23760034797078
 20
65.96141275242025
 30
0.0
 10
-11.1737639418427
 20
65.91598533853326
 30
0.0
 10
-11.10899950766437
 20
65.87590419011386
 30
0.0
 10
-11.04498361331484
 20
65.84253069573032
 30
0.0
 10
-10.9800611069582
 20
65.81537368287631
 30
0.0
 10
-10.91570924251725
 20
65.79511167284491
 30
0.0
 10
-10.85074376207039
 20
65.78166181751232
 30
0.0
 10
-10.78602407092408
 20
65.77515317136037
 30
0.0
 10
-10.72117781960388
 20
65.77590738743359
 30
0.0
 10
-10.65616018474209
 20
65.78380081584906
 30
0.0
 10
-10.59160525220907
 20
65.79911113647298
 30
0.0
 10
-10.52651989940758
 20
65.82193855584818
 30
0.0
 10
-10.46242107846858
 20
65.8519705414405
 30
0.0
 10
-10.3975945890954
 20
65.88944457200486
 30
0.0
 10
-10.33378702669956
 20
65.93291954999154
 30
0.0
 10
-10.26911910718621
 20
65.98329189343697
 30
0.0
 10
-10.20538861762437
 20
66.03867418383733
 30
0.0
 10
-10.14082947738782
 20
66.10027943789326
 30
0.0
 10
-10.07708078470932
 20
66.16605073087342
 30
0.0
 10
-10.01258781812934
 20
66.23727727965299
 30
0.0
 10
-9.948757164840973
 20
66.31193547354825
 30
0.0
 10
-9.884286006987121
 20
66.39133806819659
 30
0.0
 10
-9.820393764225604
 20
66.47365130173799
 30
0.0
 10
-9.755968054271344
 20
66.56007416051967
 30
0.0
 10
-9.692023146725212
 20
66.64892670999262
 30
0.0
 10
-9.627639825391275
 20
66.74124122394061
 30
0.0
 10
-9.563643490096108
 20
66.83552479248021
 30
0.0
 10
-9.521157196496201
 20
66.89962596016484
 30
0.0
 10
-9.500061034352938
 20
66.93177258020938
 30
0.0
 11
-13.10006112409439
 21
67.82131068198032
 31
0.0
 11
-13.03497229063486
 21
67.81196471699269
 31
0.0
 11
-12.97148969231796
 21
67.79465544841759
 31
0.0
 11
-12.90582573101369
 21
67.76863127343995
 31
0.0
 11
-12.84291826054152
 21
67.73642123953369
 31
0.0
 11
-12.77712922206728
 21
67.69559240222986
 31
0.0
 11
-12.71434682876497
 21
67.65023052010821
 31
0.0
 11
-12.64867107354052
 21
67.59659675661755
 31
0.0
 11
-12.58577539698853
 21
67.53970575492082
 31
0.0
 11
-12.52032283827895
 21
67.47527769710313
 31
0.0
 11
-12.45720396521198
 21
67.40855001123993
 31
0.0
 11
-12.39201607695054
 21
67.33545730728661
 31
0.0
 11
-12.32863253343555
 21
67.26078876628628
 31
0.0
 11
-12.26370831951817
 21
67.18117210606897
 31
0.0
 11
-12.200061101659
 21
67.10052809976883
 31
0.0
 11
-12.13539256997262
 21
67.01649358959184
 31
0.0
 11
-12.07148966988256
 21
66.93187409139682
 31
0.0
 11
-12.00710527529975
 21
66.84557540915773
 31
0.0
 11
-11.94291823810613
 21
66.75912945887773
 31
0.0
 11
-11.87885142327161
 21
66.67309215977297
 31
0.0
 11
-11.81434680632958
 21
66.58738347191263
 31
0.0
 11
-11.75060303329041
 21
66.5042303232064
 31
0.0
 11
-11.68577537455314
 21
66.42192203820093
 31
0.0
 11
-11.62236571823382
 21
66.34424160279781
 31
0.0
 11
-11.55720394277671
 21
66.26803106544173
 31
0.0
 11
-11.49404344936908
 21
66.19821394220924
 31
0.0
 11
-11.42863251100016
 21
66.13050864779586
 31
0.0
 11
-11.36561631834581
 21
66.06996845005051
 31
0.0
 11
-11.30006107922372
 21
66.0122016252688
 31
0.0
 11
-11.23713792184639
 21
65.96201149902367
 31
0.0
 11
-11.17148964744717
 21
65.91546902432696
 31
0.0
 11
-11.10854016051848
 21
65.87668598589982
 31
0.0
 11
-11.04291821567073
 21
65.84266987143696
 31
0.0
 11
-10.97969251265385
 21
65.81634657761293
 31
0.0
 11
-10.9143467838943
 21
65.79591876096481
 31
0.0
 11
-10.85056473458098
 21
65.78277588185762
 31
0.0
 11
-10.78577535211775
 21
65.77635255887424
 31
0.0
 11
-10.72125687395691
 21
65.77707971982033
 31
0.0
 11
-10.6572039203412
 21
65.78486369902782
 31
0.0
 11
-10.59194412744921
 21
65.80022913385119
 31
0.0
 11
-10.52863248856476
 21
65.82234461528884
 31
0.0
 11
-10.4629191145741
 21
65.85288246632138
 31
0.0
 11
-10.40006105678833
 21
65.88900275409912
 31
0.0
 11
-10.33429352063626
 21
65.93359358030972
 31
0.0
 11
-10.27148962501178
 21
65.98230561221749
 31
0.0
 11
-10.20584750470777
 21
66.03916728269439
 31
0.0
 11
-10.14291819323534
 21
66.09903569898205
 31
0.0
 11
-10.07747137313322
 21
66.16641063665287
 31
0.0
 11
-10.01434676145879
 21
66.23597552373047
 31
0.0
 11
-9.949084596269472
 21
66.31220495430489
 31
0.0
 11
-9.88577532968236
 21
66.39006838003365
 31
0.0
 11
-9.820668532325271
 21
66.4738579169948
 31
0.0
 11
-9.75720389790581
 21
66.55890069839222
 31
0.0
 11
-9.692247385568066
 21
66.64908373662479
 31
0.0
 11
-9.628632466129374
 21
66.7402196935397
 31
0.0
 11
-9.563819357349416
 21
66.83564166209453
 31
0.0
 11
-9.500061034352938
 21
66.93177258020938
 31
0.0
  0
SPLINE
  5
6482
330
1E
100
AcDbEntity
  8
18
100
AcDbSpline
210
0.0
220
0.0
230
1.0
 70
     8
 71
     3
 72
    63
 73
    59
 74
    57
 42
0.0000000001
 43
0.0000000001
 44
0.000001
 12
0.9971903946790948
 22
-0.0749087228548903
 32
0.0
 13
0.5486554005669701
 23
0.8360485939397886
 33
0.0
 40
0.0
 40
0.0
 40
0.0
 40
0.0
 40
0.0657562994106209
 40
0.1315564397077696
 40
0.2021894378563043
 40
0.2728636338096956
 40
0.3502922944420183
 40
0.4277476644920718
 40
0.5125408873090216
 40
0.5973492402129682
 40
0.689191587031429
 40
0.7810424454866701
 40
0.8789812432512775
 40
0.9769244311413805
 40
1.079656945122822
 40
1.182391685730633
 40
1.288428568251051
 40
1.394466496580307
 40
1.502136430087201
 40
1.609806664519372
 40
1.717077231151612
 40
1.824347101993677
 40
1.929121691872597
 40
2.033894200650014
 40
2.134168991291442
 40
2.234439134387685
 40
2.3285862372122
 40
2.422727597163623
 40
2.510112686762532
 40
2.597488271593832
 40
2.677976593440421
 40
2.758449539033738
 40
2.832387074939598
 40
2.906301435115189
 40
2.974787948214095
 40
3.043252223126843
 40
3.108374279696065
 40
3.173481270887698
 40
3.238003825479698
 40
3.302527996266852
 40
3.369572269868357
 40
3.436635344012803
 40
3.509097787202193
 40
3.581594744321611
 40
3.661053593915819
 40
3.74053434544132
 40
3.827379817690187
 40
3.914237887492544
 40
4.008166942063887
 40
4.102103032614374
 40
4.202452797442213
 40
4.302806050733106
 40
4.408917222283564
 40
4.515030528510859
 40
4.626171556788762
 40
4.737313897925851
 40
4.852665926631184
 40
4.968017905968959
 40
4.968017905968959
 40
4.968017905968959
 40
4.968017905968959
 10
-13.10006112409439
 20
69.32131068198032
 30
0.0
 10
-13.07820394070709
 20
69.31966877517749
 30
0.0
 10
-13.03466428705104
 20
69.31328273468658
 30
0.0
 10
-12.96955327275677
 20
69.29535300265161
 30
0.0
 10
-12.90533844956145
 20
69.26964433293406
 30
0.0
 10
-12.84045693684923
 20
69.23619032426961
 30
0.0
 10
-12.77661231947503
 20
69.19633474831009
 30
0.0
 10
-12.71192365835696
 20
69.14936457046654
 30
0.0
 10
-12.64819925585886
 20
69.09713232056848
 30
0.0
 10
-12.58364780248291
 20
69.03854163969012
 30
0.0
 10
-12.51992925758981
 20
68.97565704995206
 30
0.0
 10
-12.45549404705276
 20
68.90736408019806
 30
0.0
 10
-12.39171274053474
 20
68.83571841797928
 30
0.0
 10
-12.32736072145995
 20
68.75976985551398
 30
0.0
 10
-12.26349393722701
 20
68.68134299566927
 30
0.0
 10
-12.19921809447789
 20
68.59978966614008
 30
0.0
 10
-12.1352639849209
 20
68.51659139847672
 30
0.0
 10
-12.07107870677768
 20
68.43150267039053
 30
0.0
 10
-12.0070718391453
 20
68.34560059673279
 30
0.0
 10
-11.9430166243665
 20
68.25922289250224
 30
0.0
 10
-11.87892426339851
 20
68.17303863578795
 30
0.0
 10
-11.81497216322555
 20
68.08795385891833
 30
0.0
 10
-11.75078421157516
 20
68.0040915558699
 30
0.0
 10
-11.68694159549904
 20
67.92290995792082
 30
0.0
 10
-11.62265901929362
 20
67.84400065287319
 30
0.0
 10
-11.55889257803211
 20
67.76926589003929
 30
0.0
 10
-11.49442118608954
 20
67.69786587611699
 30
0.0
 10
-11.43062137741449
 20
67.6317058902862
 30
0.0
 10
-11.36604405839816
 20
67.56951242721405
 30
0.0
 10
-11.30225758181482
 20
67.51315871376085
 30
0.0
 10
-11.23760034797077
 20
67.46141275242028
 30
0.0
 10
-11.1737639418427
 20
67.41598533853323
 30
0.0
 10
-11.10899950766437
 20
67.37590419011387
 30
0.0
 10
-11.04498361331484
 20
67.34253069573033
 30
0.0
 10
-10.98006110695822
 20
67.31537368287627
 30
0.0
 10
-10.91570924251721
 20
67.29511167284511
 30
0.0
 10
-10.85074376207041
 20
67.28166181751227
 30
0.0
 10
-10.78602407092408
 20
67.27515317136038
 30
0.0
 10
-10.72117781960388
 20
67.27590738743358
 30
0.0
 10
-10.65616018474209
 20
67.28380081584905
 30
0.0
 10
-10.59160525220907
 20
67.29911113647299
 30
0.0
 10
-10.52651989940758
 20
67.32193855584816
 30
0.0
 10
-10.46242107846858
 20
67.35197054144051
 30
0.0
 10
-10.3975945890954
 20
67.38944457200485
 30
0.0
 10
-10.33378702669956
 20
67.43291954999154
 30
0.0
 10
-10.26911910718621
 20
67.48329189343696
 30
0.0
 10
-10.20538861762437
 20
67.53867418383733
 30
0.0
 10
-10.14082947738782
 20
67.60027943789326
 30
0.0
 10
-10.07708078470932
 20
67.66605073087342
 30
0.0
 10
-10.01258781812933
 20
67.73727727965297
 30
0.0
 10
-9.948757164840973
 20
67.81193547354823
 30
0.0
 10
-9.88428600698711
 20
67.89133806819659
 30
0.0
 10
-9.82039376422567
 20
67.97365130173798
 30
0.0
 10
-9.755968054271228
 20
68.06007416051952
 30
0.0
 10
-9.692023146725269
 20
68.1489267099926
 30
0.0
 10
-9.627639825391277
 20
68.24124122394066
 30
0.0
 10
-9.563643490096014
 20
68.33552479248014
 30
0.0
 10
-9.521157196496078
 20
68.39962596016476
 30
0.0
 10
-9.500061034352825
 20
68.43177258020927
 30
0.0
 11
-13.10006112409439
 21
69.32131068198032
 31
0.0
 11
-13.03497229063486
 21
69.31196471699258
 31
0.0
 11
-12.97148969231796
 21
69.29465544841758
 31
0.0
 11
-12.90582573101369
 21
69.26863127343978
 31
0.0
 11
-12.84291826054152
 21
69.23642123953368
 31
0.0
 11
-12.7771292220674
 21
69.19559240222986
 31
0.0
 11
-12.71434682876508
 21
69.15023052010821
 31
0.0
 11
-12.64867107354064
 21
69.09659675661754
 31
0.0
 11
-12.58577539698853
 21
69.03970575492081
 31
0.0
 11
-12.52032283827895
 21
68.97527769710314
 31
0.0
 11
-12.45720396521198
 21
68.90855001123992
 31
0.0
 11
-12.39201607695054
 21
68.83545730728662
 31
0.0
 11
-12.32863253343555
 21
68.76078876628628
 31
0.0
 11
-12.26370831951817
 21
68.68117210606903
 31
0.0
 11
-12.200061101659
 21
68.60052809976884
 31
0.0
 11
-12.13539256997262
 21
68.51649358959185
 31
0.0
 11
-12.07148966988256
 21
68.43187409139687
 31
0.0
 11
-12.00710527529975
 21
68.34557540915773
 31
0.0
 11
-11.94291823810613
 21
68.25912945887774
 31
0.0
 11
-11.87885142327161
 21
68.17309215977298
 31
0.0
 11
-11.81434680632958
 21
68.08738347191263
 31
0.0
 11
-11.75060303329041
 21
68.00423032320634
 31
0.0
 11
-11.68577537455314
 21
67.92192203820093
 31
0.0
 11
-11.62236571823382
 21
67.84424160279781
 31
0.0
 11
-11.55720394277671
 21
67.76803106544173
 31
0.0
 11
-11.49404344936908
 21
67.69821394220923
 31
0.0
 11
-11.42863251100016
 21
67.63050864779586
 31
0.0
 11
-11.36561631834581
 21
67.56996845005062
 31
0.0
 11
-11.30006107922372
 21
67.5122016252688
 31
0.0
 11
-11.23713792184639
 21
67.46201149902367
 31
0.0
 11
-11.17148964744717
 21
67.41546902432697
 31
0.0
 11
-11.10854016051848
 21
67.37668598589983
 31
0.0
 11
-11.04291821567073
 21
67.34266987143695
 31
0.0
 11
-10.97969251265385
 21
67.31634657761293
 31
0.0
 11
-10.9143467838943
 21
67.29591876096492
 31
0.0
 11
-10.85056473458098
 21
67.28277588185761
 31
0.0
 11
-10.78577535211775
 21
67.27635255887424
 31
0.0
 11
-10.72125687395691
 21
67.27707971982034
 31
0.0
 11
-10.6572039203412
 21
67.28486369902782
 31
0.0
 11
-10.59194412744921
 21
67.30022913385119
 31
0.0
 11
-10.52863248856476
 21
67.32234461528884
 31
0.0
 11
-10.4629191145741
 21
67.35288246632137
 31
0.0
 11
-10.40006105678833
 21
67.38900275409912
 31
0.0
 11
-10.33429352063626
 21
67.43359358030971
 31
0.0
 11
-10.27148962501178
 21
67.48230561221749
 31
0.0
 11
-10.20584750470777
 21
67.53916728269439
 31
0.0
 11
-10.14291819323534
 21
67.59903569898205
 31
0.0
 11
-10.07747137313322
 21
67.66641063665287
 31
0.0
 11
-10.01434676145879
 21
67.73597552373047
 31
0.0
 11
-9.949084596269472
 21
67.81220495430488
 31
0.0
 11
-9.88577532968236
 21
67.89006838003365
 31
0.0
 11
-9.820668532325271
 21
67.9738579169948
 31
0.0
 11
-9.75720389790581
 21
68.05890069839205
 31
0.0
 11
-9.692247385568066
 21
68.14908373662479
 31
0.0
 11
-9.628632466129374
 21
68.2402196935397
 31
0.0
 11
-9.563819357349302
 21
68.33564166209453
 31
0.0
 11
-9.500061034352825
 21
68.43177258020927
 31
0.0
  0
LINE
  5
6483
330
1E
100
AcDbEntity
  8
18
100
AcDbLine
 10
-13.10006099999998
 20
84.750001
 30
0.0
 11
-9.500061000000073
 21
84.750001
 31
0.0
  0
LINE
  5
6484
330
1E
100
AcDbEntity
  8
10
  6
CONTINOUS
100
AcDbLine
 10
11.89993900000001
 20
46.51020600000004
 30
0.0
 11
11.89993900000001
 21
50.000001
 31
0.0
  0
LINE
  5
6485
330
1E
100
AcDbEntity
  8
10
  6
CONTINOUS
100
AcDbLine
 10
35.99987899999996
 20
46.50000099999999
 30
0.0
 11
35.99987899999996
 21
50.000001
 31
0.0
  0
LINE
  5
6486
330
1E
100
AcDbEntity
  8
10
  6
CONTINOUS
100
AcDbLine
 10
15.49993999999992
 20
44.91647799999998
 30
0.0
 11
15.49993999999992
 21
50.000001
 31
0.0
  0
LINE
  5
6487
330
1E
100
AcDbEntity
  8
10
  6
CONTINOUS
100
AcDbLine
 10
17.49993999999992
 20
50.000001
 30
0.0
 11
17.49993999999992
 21
33.95000000000004
 31
0.0
  0
LINE
  5
6488
330
1E
100
AcDbEntity
  8
10
  6
CONTINOUS
100
AcDbLine
 10
32.49993999999992
 20
50.000001
 30
0.0
 11
32.49993999999992
 21
33.95000000000004
 31
0.0
  0
LINE
  5
6489
330
1E
100
AcDbEntity
  8
10
  6
CONTINOUS
100
AcDbLine
 10
7.499938999999926
 20
33.95000000000004
 30
0.0
 11
7.499938999999926
 21
50.000001
 31
0.0
  0
LINE
  5
648A
330
1E
100
AcDbEntity
  8
10
  6
CONTINOUS
100
AcDbLine
 10
37.49994000000004
 20
38.14996400000001
 30
0.0
 11
32.49993999999992
 21
38.14996400000001
 31
0.0
  0
LINE
  5
648B
330
1E
100
AcDbEntity
  8
10
  6
CONTINOUS
100
AcDbLine
 10
6.499938999999926
 20
16.17330000000004
 30
0.0
 11
6.499938999999926
 21
0.8258860000000254
 31
0.0
  0
LINE
  5
648C
330
1E
100
AcDbEntity
  8
10
  6
CONTINOUS
100
AcDbLine
 10
5.999946999999906
 20
19.88189899999997
 30
0.0
 11
5.999946999999906
 21
2.900000000000034
 31
0.0
  0
LINE
  5
648D
330
1E
100
AcDbEntity
  8
10
  6
CONTINOUS
100
AcDbLine
 10
5.999946999999906
 20
14.10000000000002
 30
0.0
 11
6.499938999999926
 21
14.10000000000002
 31
0.0
  0
CIRCLE
  5
648E
330
1E
100
AcDbEntity
  8
10
  6
CONTINOUS
100
AcDbCircle
 10
25.69999999999993
 20
-6.699999999999988
 30
0.0
 40
2.75
  0
LINE
  5
648F
330
1E
100
AcDbEntity
  8
10
  6
CONTINOUS
100
AcDbLine
 10
17.49993999999992
 20
38.14996400000001
 30
0.0
 11
7.499938999999926
 21
38.14996400000001
 31
0.0
  0
ARC
  5
6490
330
1E
100
AcDbEntity
  8
12
  6
DASHED
100
AcDbCircle
 10
12.50000099999999
 20
42.24994000000004
 30
0.0
 40
3.9
100
AcDbArc
 50
104.4783329999995
 51
37.30310200000023
  0
LINE
  5
6491
330
1E
100
AcDbEntity
  8
10
  6
CONTINOUS
100
AcDbLine
 10
5.999946999999906
 20
16.17330000000004
 30
0.0
 11
6.499938999999926
 21
16.17330000000004
 31
0.0
  0
ARC
  5
6492
330
1E
100
AcDbEntity
  8
10
  6
CONTINOUS
100
AcDbCircle
 10
10.646386
 20
24.64641600000004
 30
0.0
 40
0.353553
100
AcDbArc
 50
0.0
 51
90.0
  0
LINE
  5
6493
330
1E
100
AcDbEntity
  8
10
  6
CONTINOUS
100
AcDbLine
 10
11.89993900000001
 20
46.50000099999999
 30
0.0
 11
15.49993999999992
 21
46.50000099999999
 31
0.0
  0
CIRCLE
  5
6494
330
1E
100
AcDbEntity
  8
12
  6
DASHED
100
AcDbCircle
 10
12.50000099999999
 20
42.24994000000004
 30
0.0
 40
2.45
  0
ARC
  5
6495
330
1E
100
AcDbEntity
  8
10
  6
CONTINOUS
100
AcDbCircle
 10
11.39993900000001
 20
46.51020600000004
 30
0.0
 40
0.5
100
AcDbArc
 50
284.4783329999995
 51
0.0
  0
ARC
  5
6496
330
1E
100
AcDbEntity
  8
10
  6
CONTINOUS
100
AcDbCircle
 10
15.99993999999992
 20
44.91647799999998
 30
0.0
 40
0.5
100
AcDbArc
 50
180.0
 51
217.3031020000002
  0
LINE
  5
6497
330
1E
100
AcDbEntity
  8
24
  6
CONTINOUS
100
AcDbLine
 10
18.92500399999994
 20
40.249999
 30
0.0
 11
31.07499799999994
 21
40.249999
 31
0.0
  0
LINE
  5
6498
330
1E
100
AcDbEntity
  8
10
  6
CONTINOUS
100
AcDbLine
 10
32.49993999999992
 20
33.95000000000004
 30
0.0
 11
17.49993999999992
 21
33.95000000000004
 31
0.0
  0
LINE
  5
6499
330
1E
100
AcDbEntity
  8
24
  6
CONTINOUS
100
AcDbLine
 10
24.99998599999992
 20
46.32501200000001
 30
0.0
 11
24.99998599999992
 21
34.17498700000004
 31
0.0
  0
ARC
  5
649A
330
1E
100
AcDbEntity
  8
10
  6
CONTINOUS
100
AcDbCircle
 10
34.99997099999996
 20
23.99997000000002
 30
0.0
 40
1.0
100
AcDbArc
 50
0.0
 51
90.0
  0
LINE
  5
649B
330
1E
100
AcDbEntity
  8
10
  6
CONTINOUS
100
AcDbLine
 10
35.99987899999996
 20
46.50000099999999
 30
0.0
 11
37.49994000000004
 21
46.50000099999999
 31
0.0
  0
LINE
  5
649C
330
1E
100
AcDbEntity
  8
10
  6
CONTINOUS
100
AcDbLine
 10
32.49993999999992
 20
50.000001
 30
0.0
 11
35.99987899999996
 21
50.000001
 31
0.0
  0
LINE
  5
649D
330
1E
100
AcDbEntity
  8
18
100
AcDbLine
 10
11.89993900000001
 20
69.32131100000003
 30
0.0
 11
11.89993900000001
 21
84.750001
 31
0.0
  0
LINE
  5
649E
330
1E
100
AcDbEntity
  8
18
100
AcDbLine
 10
15.49993999999992
 20
68.43177300000002
 30
0.0
 11
15.49993999999992
 21
84.750001
 31
0.0
  0
LINE
  5
649F
330
1E
100
AcDbEntity
  8
10
  6
CONTINOUS
100
AcDbLine
 10
15.49993999999992
 20
50.000001
 30
0.0
 11
17.49993999999992
 21
50.000001
 31
0.0
  0
LINE
  5
64A0
330
1E
100
AcDbEntity
  8
18
100
AcDbLine
 10
15.49993999999992
 20
50.000001
 30
0.0
 11
15.49993999999992
 21
66.93177300000002
 31
0.0
  0
LINE
  5
64A1
330
1E
100
AcDbEntity
  8
18
100
AcDbLine
 10
11.89993900000001
 20
50.000001
 30
0.0
 11
11.89993900000001
 21
67.82131100000004
 31
0.0
  0
LINE
  5
64A2
330
1E
100
AcDbEntity
  8
10
  6
CONTINOUS
100
AcDbLine
 10
7.499938999999926
 20
50.000001
 30
0.0
 11
11.89993900000001
 21
50.000001
 31
0.0
  0
SPLINE
  5
64A3
330
1E
100
AcDbEntity
  8
18
100
AcDbSpline
210
0.0
220
0.0
230
1.0
 70
     8
 71
     3
 72
    63
 73
    59
 74
    57
 42
0.0000000001
 43
0.0000000001
 44
0.000001
 12
0.9971903946790947
 22
-0.0749087228548944
 32
0.0
 13
0.5486554005667585
 23
0.8360485939399275
 33
0.0
 40
0.0
 40
0.0
 40
0.0
 40
0.0
 40
0.0657562994107335
 40
0.1315564397078822
 40
0.2021894378563112
 40
0.2728636338098036
 40
0.3502922944421264
 40
0.4277476644922721
 40
0.5125408873091338
 40
0.5973492402130804
 40
0.6891915870315412
 40
0.7810424454867823
 40
0.8789812432513897
 40
0.9769244311414928
 40
1.079656945122934
 40
1.182391685730745
 40
1.288428568251233
 40
1.39446649658042
 40
1.502136430087314
 40
1.609806664519485
 40
1.717077231151725
 40
1.824347101993789
 40
1.92912169187271
 40
2.033894200650127
 40
2.134168991291555
 40
2.234439134387798
 40
2.328586237212237
 40
2.422727597163738
 40
2.510112686762647
 40
2.597488271593947
 40
2.677976593440536
 40
2.758449539033853
 40
2.832387074939616
 40
2.906301435115308
 40
2.974787948214214
 40
3.04325222312707
 40
3.108374279696182
 40
3.173481270887815
 40
3.238003825479701
 40
3.302527996266855
 40
3.36957226986847
 40
3.436635344012916
 40
3.509097787202307
 40
3.581594744321725
 40
3.661053593915932
 40
3.740534345441433
 40
3.827379817690386
 40
3.914237887492662
 40
4.008166942064004
 40
4.102103032614492
 40
4.20245279744233
 40
4.302806050733224
 40
4.408917222283681
 40
4.515030528510976
 40
4.62617155678888
 40
4.737313897925968
 40
4.852665926631237
 40
4.968017905969012
 40
4.968017905969012
 40
4.968017905969012
 40
4.968017905969012
 10
11.8999394991107
 20
69.32131068198032
 30
0.0
 10
11.92179668249804
 20
69.31966877517748
 30
0.0
 10
11.96533633615413
 20
69.31328273468661
 30
0.0
 10
12.03044735044841
 20
69.29535300265164
 30
0.0
 10
12.09466217364369
 20
69.26964433293399
 30
0.0
 10
12.15954368635596
 20
69.23619032426966
 30
0.0
 10
12.22338830373018
 20
69.19633474831003
 30
0.0
 10
12.28807696484834
 20
69.14936457046664
 30
0.0
 10
12.35180136734635
 20
69.09713232056839
 30
0.0
 10
12.4163528207223
 20
69.03854163969015
 30
0.0
 10
12.48007136561539
 20
68.97565704995206
 30
0.0
 10
12.54450657615244
 20
68.90736408019808
 30
0.0
 10
12.60828788267046
 20
68.83571841797928
 30
0.0
 10
12.67263990174525
 20
68.75976985551398
 30
0.0
 10
12.7365066859782
 20
68.68134299566929
 30
0.0
 10
12.80078252872729
 20
68.59978966614005
 30
0.0
 10
12.86473663828444
 20
68.5165913984768
 30
0.0
 10
12.9289219164275
 20
68.43150267039047
 30
0.0
 10
12.9929287840599
 20
68.34560059673281
 30
0.0
 10
13.0569839988387
 20
68.25922289250224
 30
0.0
 10
13.12107635980669
 20
68.17303863578795
 30
0.0
 10
13.18502845997965
 20
68.08795385891833
 30
0.0
 10
13.24921641163004
 20
68.0040915558699
 30
0.0
 10
13.31305902770616
 20
67.92290995792082
 30
0.0
 10
13.37734160391157
 20
67.84400065287321
 30
0.0
 10
13.44110804517311
 20
67.76926589003934
 30
0.0
 10
13.50557943711554
 20
67.69786587611692
 30
0.0
 10
13.56937924579072
 20
67.63170589028625
 30
0.0
 10
13.63395656480703
 20
67.56951242721402
 30
0.0
 10
13.69774304139038
 20
67.51315871376089
 30
0.0
 10
13.76240027523443
 20
67.46141275242024
 30
0.0
 10
13.82623668136249
 20
67.41598533853329
 30
0.0
 10
13.89100111554075
 20
67.3759041901138
 30
0.0
 10
13.95501700989035
 20
67.34253069573036
 30
0.0
 10
14.019939516247
 20
67.31537368287624
 30
0.0
 10
14.08429138068804
 20
67.29511167284517
 30
0.0
 10
14.14925686113482
 20
67.28166181751226
 30
0.0
 10
14.21397655228109
 20
67.27515317136038
 30
0.0
 10
14.27882280360125
 20
67.27590738743359
 30
0.0
 10
14.34384043846303
 20
67.28380081584909
 30
0.0
 10
14.40839537099611
 20
67.29911113647293
 30
0.0
 10
14.47348072379762
 20
67.32193855584819
 30
0.0
 10
14.53757954473663
 20
67.35197054144049
 30
0.0
 10
14.6024060341098
 20
67.38944457200485
 30
0.0
 10
14.66621359650565
 20
67.43291954999151
 30
0.0
 10
14.73088151601899
 20
67.48329189343701
 30
0.0
 10
14.79461200558094
 20
67.53867418383729
 30
0.0
 10
14.85917114581737
 20
67.60027943789329
 30
0.0
 10
14.92291983849589
 20
67.66605073087344
 30
0.0
 10
14.98741280507587
 20
67.73727727965298
 30
0.0
 10
15.05124345836424
 20
67.81193547354823
 30
0.0
 10
15.11571461621809
 20
67.89133806819659
 30
0.0
 10
15.17960685897954
 20
67.97365130173798
 30
0.0
 10
15.24403256893398
 20
68.06007416051952
 30
0.0
 10
15.30797747647993
 20
68.1489267099926
 30
0.0
 10
15.37236079781395
 20
68.24124122394062
 30
0.0
 10
15.43635713310905
 20
68.3355247924802
 30
0.0
 10
15.47884342670902
 20
68.39962596016476
 30
0.0
 10
15.49993958885227
 20
68.43177258020927
 30
0.0
 11
11.8999394991107
 21
69.32131068198032
 31
0.0
 11
11.96502833257034
 21
69.31196471699258
 31
0.0
 11
12.02851093088725
 21
69.29465544841758
 31
0.0
 11
12.0941748921914
 21
69.26863127343978
 31
0.0
 11
12.15708236266368
 21
69.23642123953368
 31
0.0
 11
12.2228714011378
 21
69.19559240222986
 31
0.0
 11
12.28565379444023
 21
69.15023052010821
 31
0.0
 11
12.35132954966457
 21
69.09659675661754
 31
0.0
 11
12.41422522621667
 21
69.03970575492081
 31
0.0
 11
12.47967778492625
 21
68.97527769710314
 31
0.0
 11
12.54279665799322
 21
68.90855001123992
 31
0.0
 11
12.60798454625467
 21
68.83545730728662
 31
0.0
 11
12.67136808976965
 21
68.76078876628628
 31
0.0
 11
12.73629230368703
 21
68.68117210606903
 31
0.0
 11
12.7999395215462
 21
68.60052809976884
 31
0.0
 11
12.8646080532327
 21
68.51649358959185
 31
0.0
 11
12.92851095332264
 21
68.43187409139687
 31
0.0
 11
12.99289534790545
 21
68.34557540915773
 31
0.0
 11
13.05708238509907
 21
68.25912945887774
 31
0.0
 11
13.12114919993359
 21
68.17309215977298
 31
0.0
 11
13.18565381687562
 21
68.08738347191263
 31
0.0
 11
13.24939758991479
 21
68.00423032320634
 31
0.0
 11
13.31422524865206
 21
67.92192203820093
 31
0.0
 11
13.37763490497138
 21
67.84424160279781
 31
0.0
 11
13.4427966804285
 21
67.76803106544173
 31
0.0
 11
13.505957173836
 21
67.69821394220923
 31
0.0
 11
13.57136811220505
 21
67.63050864779586
 31
0.0
 11
13.63438430485939
 21
67.56996845005062
 31
0.0
 11
13.69993954398148
 21
67.5122016252688
 31
0.0
 11
13.76286270135881
 21
67.46201149902367
 31
0.0
 11
13.82851097575803
 21
67.41546902432697
 31
0.0
 11
13.89146046268661
 21
67.37668598589983
 31
0.0
 11
13.95708240753447
 21
67.34266987143695
 31
0.0
 11
14.02030811055135
 21
67.31634657761293
 31
0.0
 11
14.08565383931102
 21
67.29591876096492
 31
0.0
 11
14.14943588862422
 21
67.28277588185761
 31
0.0
 11
14.21422527108745
 21
67.27635255887424
 31
0.0
 11
14.27874374924817
 21
67.27707971982034
 31
0.0
 11
14.34279670286389
 21
67.28486369902782
 31
0.0
 11
14.408056495756
 21
67.30022913385119
 31
0.0
 11
14.47136813464044
 21
67.32234461528884
 31
0.0
 11
14.5370815086311
 21
67.35288246632137
 31
0.0
 11
14.59993956641687
 21
67.38900275409912
 31
0.0
 11
14.66570710256894
 21
67.43359358030971
 31
0.0
 11
14.72851099819342
 21
67.48230561221749
 31
0.0
 11
14.79415311849754
 21
67.53916728269439
 31
0.0
 11
14.85708242996986
 21
67.59903569898205
 31
0.0
 11
14.92252925007198
 21
67.66641063665287
 31
0.0
 11
14.98565386174641
 21
67.73597552373047
 31
0.0
 11
15.05091602693573
 21
67.81220495430488
 31
0.0
 11
15.11422529352285
 21
67.89006838003365
 31
0.0
 11
15.17933209087994
 21
67.9738579169948
 31
0.0
 11
15.2427967252994
 21
68.05890069839205
 31
0.0
 11
15.30775323763714
 21
68.14908373662479
 31
0.0
 11
15.37136815707583
 21
68.2402196935397
 31
0.0
 11
15.43618126585579
 21
68.33564166209453
 31
0.0
 11
15.49993958885227
 21
68.43177258020927
 31
0.0
  0
SPLINE
  5
64A4
330
1E
100
AcDbEntity
  8
18
100
AcDbSpline
210
0.0
220
0.0
230
1.0
 70
     8
 71
     3
 72
    63
 73
    59
 74
    57
 42
0.0000000001
 43
0.0000000001
 44
0.000001
 12
0.9971903946790947
 22
-0.0749087228548944
 32
0.0
 13
0.5486554005669708
 23
0.8360485939397882
 33
0.0
 40
0.0
 40
0.0
 40
0.0
 40
0.0
 40
0.0657562994107173
 40
0.1315564397078959
 40
0.202189437856262
 40
0.2728636338098322
 40
0.350292294442155
 40
0.4277476644923006
 40
0.5125408873091624
 40
0.597349240213109
 40
0.6891915870315698
 40
0.7810424454868109
 40
0.8789812432514183
 40
0.9769244311415214
 40
1.079656945123007
 40
1.182391685730773
 40
1.288428568251261
 40
1.394466496580494
 40
1.502136430087342
 40
1.609806664519513
 40
1.717077231151753
 40
1.824347101993817
 40
1.929121691872693
 40
2.033894200650155
 40
2.134168991291582
 40
2.234439134387826
 40
2.328586237212264
 40
2.422727597163766
 40
2.510112686762754
 40
2.597488271593978
 40
2.677976593440568
 40
2.758449539033884
 40
2.832387074939648
 40
2.90630143511534
 40
2.974787948214246
 40
3.043252223127136
 40
3.108374279696225
 40
3.173481270887858
 40
3.238003825479744
 40
3.302527996266898
 40
3.369572269868513
 40
3.436635344012959
 40
3.50909778720235
 40
3.581594744321768
 40
3.661053593915975
 40
3.740534345441477
 40
3.827379817690429
 40
3.914237887492705
 40
4.008166942064047
 40
4.102103032614458
 40
4.202452797442297
 40
4.30280605073319
 40
4.408917222283718
 40
4.515030528511081
 40
4.626171556788846
 40
4.737313897925934
 40
4.852665926631267
 40
4.968017905969136
 40
4.968017905969136
 40
4.968017905969136
 40
4.968017905969136
 10
11.8999394991107
 20
67.82131068198032
 30
0.0
 10
11.92179668249803
 20
67.81966877517747
 30
0.0
 10
11.96533633615417
 20
67.81328273468684
 30
0.0
 10
12.03044735044835
 20
67.79535300265155
 30
0.0
 10
12.09466217364379
 20
67.76964433293423
 30
0.0
 10
12.1595436863559
 20
67.73619032426961
 30
0.0
 10
12.22338830373019
 20
67.69633474831007
 30
0.0
 10
12.28807696484833
 20
67.64936457046663
 30
0.0
 10
12.35180136734636
 20
67.59713232056842
 30
0.0
 10
12.41635282072229
 20
67.53854163969015
 30
0.0
 10
12.48007136561539
 20
67.47565704995205
 30
0.0
 10
12.54450657615244
 20
67.40736408019808
 30
0.0
 10
12.60828788267045
 20
67.33571841797926
 30
0.0
 10
12.67263990174527
 20
67.25976985551398
 30
0.0
 10
12.73650668597816
 20
67.18134299566923
 30
0.0
 10
12.80078252872731
 20
67.09978966614004
 30
0.0
 10
12.86473663828446
 20
67.01659139847681
 30
0.0
 10
12.92892191642747
 20
66.93150267039046
 30
0.0
 10
12.99292878405992
 20
66.84560059673279
 30
0.0
 10
13.0569839988387
 20
66.75922289250222
 30
0.0
 10
13.1210763598067
 20
66.67303863578794
 30
0.0
 10
13.18502845997963
 20
66.58795385891834
 30
0.0
 10
13.24921641163008
 20
66.50409155586995
 30
0.0
 10
13.31305902770614
 20
66.42290995792079
 30
0.0
 10
13.37734160391158
 20
66.3440006528732
 30
0.0
 10
13.4411080451731
 20
66.26926589003935
 30
0.0
 10
13.50557943711553
 20
66.19786587611691
 30
0.0
 10
13.56937924579077
 20
66.13170589028626
 30
0.0
 10
13.63395656480696
 20
66.06951242721391
 30
0.0
 10
13.69774304139043
 20
66.0131587137609
 30
0.0
 10
13.76240027523442
 20
65.96141275242024
 30
0.0
 10
13.82623668136249
 20
65.91598533853328
 30
0.0
 10
13.89100111554075
 20
65.87590419011383
 30
0.0
 10
13.95501700989034
 20
65.84253069573033
 30
0.0
 10
14.01993951624703
 20
65.81537368287627
 30
0.0
 10
14.084291380688
 20
65.79511167284497
 30
0.0
 10
14.14925686113484
 20
65.78166181751232
 30
0.0
 10
14.21397655228108
 20
65.77515317136037
 30
0.0
 10
14.27882280360125
 20
65.77590738743359
 30
0.0
 10
14.34384043846303
 20
65.78380081584909
 30
0.0
 10
14.40839537099611
 20
65.79911113647291
 30
0.0
 10
14.47348072379762
 20
65.8219385558482
 30
0.0
 10
14.53757954473663
 20
65.8519705414405
 30
0.0
 10
14.6024060341098
 20
65.88944457200485
 30
0.0
 10
14.66621359650565
 20
65.93291954999152
 30
0.0
 10
14.73088151601899
 20
65.983291893437
 30
0.0
 10
14.79461200558094
 20
66.03867418383728
 30
0.0
 10
14.85917114581736
 20
66.1002794378933
 30
0.0
 10
14.9229198384959
 20
66.16605073087336
 30
0.0
 10
14.98741280507574
 20
66.23727727965302
 30
0.0
 10
15.05124345836414
 20
66.3119354735482
 30
0.0
 10
15.11571461621795
 20
66.39133806819664
 30
0.0
 10
15.17960685897963
 20
66.4736513017379
 30
0.0
 10
15.24403256893373
 20
66.56007416051973
 30
0.0
 10
15.3079774764799
 20
66.64892670999261
 30
0.0
 10
15.37236079781379
 20
66.74124122394068
 30
0.0
 10
15.43635713310913
 20
66.83552479248014
 30
0.0
 10
15.478843426709
 20
66.89962596016485
 30
0.0
 10
15.49993958885227
 20
66.93177258020938
 30
0.0
 11
11.8999394991107
 21
67.82131068198032
 31
0.0
 11
11.96502833257034
 21
67.81196471699269
 31
0.0
 11
12.02851093088725
 21
67.79465544841759
 31
0.0
 11
12.0941748921914
 21
67.76863127343995
 31
0.0
 11
12.15708236266368
 21
67.73642123953369
 31
0.0
 11
12.2228714011378
 21
67.69559240222986
 31
0.0
 11
12.28565379444023
 21
67.65023052010821
 31
0.0
 11
12.35132954966457
 21
67.59659675661755
 31
0.0
 11
12.41422522621667
 21
67.53970575492082
 31
0.0
 11
12.47967778492625
 21
67.47527769710313
 31
0.0
 11
12.54279665799322
 21
67.40855001123993
 31
0.0
 11
12.60798454625467
 21
67.33545730728661
 31
0.0
 11
12.67136808976965
 21
67.26078876628628
 31
0.0
 11
12.73629230368703
 21
67.18117210606897
 31
0.0
 11
12.7999395215462
 21
67.10052809976883
 31
0.0
 11
12.8646080532327
 21
67.01649358959184
 31
0.0
 11
12.92851095332264
 21
66.93187409139682
 31
0.0
 11
12.99289534790545
 21
66.84557540915773
 31
0.0
 11
13.05708238509907
 21
66.75912945887773
 31
0.0
 11
13.12114919993359
 21
66.67309215977297
 31
0.0
 11
13.18565381687562
 21
66.58738347191263
 31
0.0
 11
13.24939758991479
 21
66.5042303232064
 31
0.0
 11
13.31422524865206
 21
66.42192203820093
 31
0.0
 11
13.37763490497138
 21
66.34424160279781
 31
0.0
 11
13.4427966804285
 21
66.26803106544173
 31
0.0
 11
13.505957173836
 21
66.19821394220924
 31
0.0
 11
13.57136811220505
 21
66.13050864779586
 31
0.0
 11
13.63438430485939
 21
66.06996845005051
 31
0.0
 11
13.69993954398148
 21
66.0122016252688
 31
0.0
 11
13.76286270135881
 21
65.96201149902367
 31
0.0
 11
13.82851097575803
 21
65.91546902432696
 31
0.0
 11
13.89146046268661
 21
65.87668598589982
 31
0.0
 11
13.95708240753447
 21
65.84266987143696
 31
0.0
 11
14.02030811055135
 21
65.81634657761293
 31
0.0
 11
14.08565383931102
 21
65.79591876096481
 31
0.0
 11
14.14943588862422
 21
65.78277588185762
 31
0.0
 11
14.21422527108745
 21
65.77635255887424
 31
0.0
 11
14.27874374924817
 21
65.77707971982033
 31
0.0
 11
14.34279670286389
 21
65.78486369902782
 31
0.0
 11
14.408056495756
 21
65.80022913385119
 31
0.0
 11
14.47136813464044
 21
65.82234461528884
 31
0.0
 11
14.5370815086311
 21
65.85288246632138
 31
0.0
 11
14.59993956641687
 21
65.88900275409912
 31
0.0
 11
14.66570710256894
 21
65.93359358030972
 31
0.0
 11
14.72851099819342
 21
65.98230561221749
 31
0.0
 11
14.79415311849754
 21
66.03916728269439
 31
0.0
 11
14.85708242996986
 21
66.09903569898205
 31
0.0
 11
14.92252925007198
 21
66.16641063665287
 31
0.0
 11
14.9856538617463
 21
66.23597552373047
 31
0.0
 11
15.05091602693562
 21
66.31220495430489
 31
0.0
 11
15.11422529352273
 21
66.39006838003365
 31
0.0
 11
15.17933209087994
 21
66.4738579169948
 31
0.0
 11
15.24279672529928
 21
66.55890069839222
 31
0.0
 11
15.30775323763703
 21
66.64908373662479
 31
0.0
 11
15.37136815707572
 21
66.7402196935397
 31
0.0
 11
15.43618126585579
 21
66.83564166209453
 31
0.0
 11
15.49993958885227
 21
66.93177258020938
 31
0.0
  0
LINE
  5
64A5
330
1E
100
AcDbEntity
  8
10
  6
CONTINOUS
100
AcDbLine
 10
17.49993999999992
 20
50.000001
 30
0.0
 11
32.49993999999992
 21
50.000001
 31
0.0
  0
LINE
  5
64A6
330
1E
100
AcDbEntity
  8
18
100
AcDbLine
 10
11.89993900000001
 20
84.750001
 30
0.0
 11
15.49993999999992
 21
84.750001
 31
0.0
  0
LINE
  5
64A7
330
1E
100
AcDbEntity
  8
10
  6
CONTINOUS
100
AcDbLine
 10
207.55431709588
 20
17.80001800000012
 30
0.0
 11
207.55431709588
 21
-17.50003099999986
 31
0.0
  0
LINE
  5
64A8
330
1E
100
AcDbEntity
  8
10
  6
CONTINOUS
100
AcDbLine
 10
140.55443809588
 20
24.64641600000014
 30
0.0
 11
140.55443809588
 21
-24.49993999999986
 31
0.0
  0
LINE
  5
64A9
330
1E
100
AcDbEntity
  8
10
  6
CONTINOUS
100
AcDbLine
 10
152.55440709588
 20
36.90002500000012
 30
0.0
 11
152.55440709588
 21
-36.89997199999988
 31
0.0
  0
LINE
  5
64AA
330
1E
100
AcDbEntity
  8
10
  6
CONTINOUS
100
AcDbLine
 10
144.55443809588
 20
24.64641600000014
 30
0.0
 11
144.55443809588
 21
-24.49993999999986
 31
0.0
  0
LINE
  5
64AB
330
1E
100
AcDbEntity
  8
18
100
AcDbLine
 10
172.5543770958799
 20
49.75006200000011
 30
0.0
 11
172.5543770958799
 21
-49.75000199999988
 31
0.0
  0
LINE
  5
64AC
330
1E
100
AcDbEntity
  8
10
  6
CONTINOUS
100
AcDbLine
 10
212.01215109588
 20
-46.24993099999989
 30
0.0
 11
172.5543770958799
 21
-46.24993099999989
 31
0.0
  0
LINE
  5
64AD
330
1E
100
AcDbEntity
  8
10
  6
CONTINOUS
100
AcDbLine
 10
172.5543770958799
 20
-49.75000199999988
 30
0.0
 11
209.7167940958799
 21
-49.75000199999988
 31
0.0
  0
LINE
  5
64AE
330
1E
100
AcDbEntity
  8
18
100
AcDbLine
 10
160.3944029704596
 20
142.2663655184374
 30
0.0
 11
182.6943919704597
 21
142.2663655184374
 31
0.0
  0
LINE
  5
64AF
330
1E
100
AcDbEntity
  8
18
100
AcDbLine
 10
161.5679569704596
 20
142.2663655184374
 30
0.0
 11
164.5731609704596
 21
145.2715695184374
 31
0.0
  0
LINE
  5
64B0
330
1E
100
AcDbEntity
  8
18
100
AcDbLine
 10
164.3963869704596
 20
142.2663655184374
 30
0.0
 11
167.4015909704596
 21
145.2715695184374
 31
0.0
  0
LINE
  5
64B1
330
1E
100
AcDbEntity
  8
18
100
AcDbLine
 10
133.2815049704596
 20
145.2715695184374
 30
0.0
 11
127.4801889704597
 21
139.4702535184374
 31
0.0
  0
LINE
  5
64B2
330
1E
100
AcDbEntity
  8
18
100
AcDbLine
 10
130.4801889704597
 20
139.6418235184374
 30
0.0
 11
127.4801889704597
 21
136.6418545184374
 31
0.0
  0
LINE
  5
64B3
330
1E
100
AcDbEntity
  8
18
100
AcDbLine
 10
127.4801889704597
 20
133.8133935184374
 30
0.0
 11
130.4801889704597
 21
136.8133935184374
 31
0.0
  0
LINE
  5
64B4
330
1E
100
AcDbEntity
  8
18
100
AcDbLine
 10
127.4801889704597
 20
130.9849635184374
 30
0.0
 11
130.4801889704597
 21
133.9849635184374
 31
0.0
  0
LINE
  5
64B5
330
1E
100
AcDbEntity
  8
18
100
AcDbLine
 10
126.5900219704596
 20
127.2663655184374
 30
0.0
 11
130.4801889704597
 21
131.1565325184374
 31
0.0
  0
LINE
  5
64B6
330
1E
100
AcDbEntity
  8
0
  6
CONTINUOUS
100
AcDbLine
 10
129.4184519704597
 20
127.2663655184374
 30
0.0
 11
130.4801889704597
 21
128.3281025184374
 31
0.0
  0
LINE
  5
64B7
330
1E
100
AcDbEntity
  8
18
100
AcDbLine
 10
130.1867849704597
 20
145.2715695184374
 30
0.0
 11
127.4801889704597
 21
142.5649745184374
 31
0.0
  0
LINE
  5
64B8
330
1E
100
AcDbEntity
  8
18
100
AcDbLine
 10
123.6872959704596
 20
127.2663655184374
 30
0.0
 11
151.6872959704596
 21
127.2663655184374
 31
0.0
  0
LINE
  5
64B9
330
1E
100
AcDbEntity
  8
18
100
AcDbLine
 10
127.5973779704596
 20
130.2663655184374
 30
0.0
 11
124.5973929704596
 21
127.2663655184374
 31
0.0
  0
LINE
  5
64BA
330
1E
100
AcDbEntity
  8
24
  6
CONTINOUS
100
AcDbLine
 10
138.9801889704597
 20
142.6663595184374
 30
0.0
 11
138.9801889704597
 21
127.6663595184374
 31
0.0
  0
LINE
  5
64BB
330
1E
100
AcDbEntity
  8
24
  6
CONTINOUS
100
AcDbLine
 10
139.6301889704597
 20
130.8135575184374
 30
0.0
 11
139.6301889704597
 21
134.1163655184374
 31
0.0
  0
LINE
  5
64BC
330
1E
100
AcDbEntity
  8
24
  6
CONTINOUS
100
AcDbLine
 10
138.3301889704596
 20
130.8135575184374
 30
0.0
 11
138.3301889704596
 21
134.1163655184374
 31
0.0
  0
CIRCLE
  5
64BD
330
1E
100
AcDbEntity
  8
24
  6
CONTINOUS
100
AcDbCircle
 10
138.9801889704597
 20
135.2663655184374
 30
0.0
 40
4.5
  0
LINE
  5
64BE
330
1E
100
AcDbEntity
  8
24
  6
CONTINOUS
100
AcDbLine
 10
130.7301889704597
 20
129.7663655184374
 30
0.0
 11
130.7301889704597
 21
140.7663655184374
 31
0.0
  0
LINE
  5
64BF
330
1E
100
AcDbEntity
  8
24
  6
CONTINOUS
100
AcDbLine
 10
147.2301889704597
 20
129.7663655184374
 30
0.0
 11
147.2301889704597
 21
140.7663655184374
 31
0.0
  0
LINE
  5
64C0
330
1E
100
AcDbEntity
  8
24
  6
CONTINOUS
100
AcDbLine
 10
130.4801889704597
 20
142.2663655184374
 30
0.0
 11
130.4801889704597
 21
127.2663655184374
 31
0.0
  0
LINE
  5
64C1
330
1E
100
AcDbEntity
  8
24
  6
CONTINOUS
100
AcDbLine
 10
147.4801889704597
 20
142.2663655184374
 30
0.0
 11
147.4801889704597
 21
127.2663655184374
 31
0.0
  0
LINE
  5
64C2
330
1E
100
AcDbEntity
  8
18
100
AcDbLine
 10
147.4801889704597
 20
132.3428125184374
 30
0.0
 11
150.4801889704597
 21
135.3428125184374
 31
0.0
  0
LINE
  5
64C3
330
1E
100
AcDbEntity
  8
24
  6
CONTINOUS
100
AcDbLine
 10
146.7301889704597
 20
129.2663655184374
 30
0.0
 11
131.2301889704597
 21
129.2663655184374
 31
0.0
  0
LINE
  5
64C4
330
1E
100
AcDbEntity
  8
24
  6
CONTINOUS
100
AcDbLine
 10
130.7301889704597
 20
132.2663655184374
 30
0.0
 11
135.4301889704596
 21
132.2663655184374
 31
0.0
  0
LINE
  5
64C5
330
1E
100
AcDbEntity
  8
24
  6
CONTINOUS
100
AcDbLine
 10
130.7301889704597
 20
132.0663655184374
 30
0.0
 11
133.5301889704596
 21
129.2663655184374
 31
0.0
  0
ARC
  5
64C6
330
1E
100
AcDbEntity
  8
24
  6
CONTINOUS
100
AcDbCircle
 10
131.2301889704597
 20
129.7663655184374
 30
0.0
 40
0.5
100
AcDbArc
 50
180.0
 51
270.0
  0
LINE
  5
64C7
330
1E
100
AcDbEntity
  8
24
  6
CONTINOUS
100
AcDbLine
 10
137.9801889704597
 20
129.2663655184374
 30
0.0
 11
137.9801889704597
 21
130.8788835184374
 31
0.0
  0
ARC
  5
64C8
330
1E
100
AcDbEntity
  8
24
  6
CONTINOUS
100
AcDbCircle
 10
135.4301889704596
 20
132.5663655184374
 30
0.0
 40
0.3
100
AcDbArc
 50
270.0
 51
301.5184010000008
  0
LINE
  5
64C9
330
1E
100
AcDbEntity
  8
24
  6
CONTINOUS
100
AcDbLine
 10
147.2301889704597
 20
132.2663655184374
 30
0.0
 11
142.5301889704596
 21
132.2663655184374
 31
0.0
  0
LINE
  5
64CA
330
1E
100
AcDbEntity
  8
24
  6
CONTINOUS
100
AcDbLine
 10
139.9801889704597
 20
129.2663655184374
 30
0.0
 11
139.9801889704597
 21
130.8788835184374
 31
0.0
  0
ARC
  5
64CB
330
1E
100
AcDbEntity
  8
24
  6
CONTINOUS
100
AcDbCircle
 10
142.5301889704596
 20
132.5663655184374
 30
0.0
 40
0.3
100
AcDbArc
 50
238.4815989999991
 51
270.0
  0
LINE
  5
64CC
330
1E
100
AcDbEntity
  8
24
  6
CONTINOUS
100
AcDbLine
 10
144.4301889704596
 20
129.2663655184374
 30
0.0
 11
147.2301889704597
 21
132.0663655184374
 31
0.0
  0
ARC
  5
64CD
330
1E
100
AcDbEntity
  8
24
  6
CONTINOUS
100
AcDbCircle
 10
146.7301889704597
 20
129.7663655184374
 30
0.0
 40
0.5
100
AcDbArc
 50
270.0
 51
0.0
  0
LINE
  5
64CE
330
1E
100
AcDbEntity
  8
18
100
AcDbLine
 10
147.4801889704597
 20
129.5143815184374
 30
0.0
 11
150.4801889704597
 21
132.5143825184374
 31
0.0
  0
LINE
  5
64CF
330
1E
100
AcDbEntity
  8
18
100
AcDbLine
 10
148.0606029704596
 20
127.2663655184374
 30
0.0
 11
151.0605879704596
 21
130.2663655184374
 31
0.0
  0
LINE
  5
64D0
330
1E
100
AcDbEntity
  8
18
100
AcDbLine
 10
149.2594399704596
 20
145.2715695184374
 30
0.0
 11
146.2542359704596
 21
142.2663655184374
 31
0.0
  0
LINE
  5
64D1
330
1E
100
AcDbEntity
  8
24
  6
CONTINOUS
100
AcDbLine
 10
130.4801889704597
 20
142.2663655184374
 30
0.0
 11
147.4801889704597
 21
142.2663655184374
 31
0.0
  0
LINE
  5
64D2
330
1E
100
AcDbEntity
  8
24
  6
CONTINOUS
100
AcDbLine
 10
131.6872959704596
 20
135.2663655184374
 30
0.0
 11
146.2075879704596
 21
135.2663655184374
 31
0.0
  0
LINE
  5
64D3
330
1E
100
AcDbEntity
  8
24
  6
CONTINOUS
100
AcDbLine
 10
146.7301889704597
 20
141.2663655184374
 30
0.0
 11
131.2301889704597
 21
141.2663655184374
 31
0.0
  0
LINE
  5
64D4
330
1E
100
AcDbEntity
  8
18
100
AcDbLine
 10
137.7689849704596
 20
142.2663655184374
 30
0.0
 11
140.7742189704596
 21
145.2715695184374
 31
0.0
  0
ARC
  5
64D5
330
1E
100
AcDbEntity
  8
24
  6
CONTINOUS
100
AcDbCircle
 10
131.2301889704597
 20
140.7663655184374
 30
0.0
 40
0.5
100
AcDbArc
 50
90.0
 51
180.0
  0
LINE
  5
64D6
330
1E
100
AcDbEntity
  8
24
  6
CONTINOUS
100
AcDbLine
 10
130.7301889704597
 20
138.2663655184374
 30
0.0
 11
135.4301889704596
 21
138.2663655184374
 31
0.0
  0
LINE
  5
64D7
330
1E
100
AcDbEntity
  8
24
  6
CONTINOUS
100
AcDbLine
 10
130.7301889704597
 20
136.2663655184374
 30
0.0
 11
134.5927069704596
 21
136.2663655184374
 31
0.0
  0
LINE
  5
64D8
330
1E
100
AcDbEntity
  8
24
  6
CONTINOUS
100
AcDbLine
 10
130.7301889704597
 20
134.2663655184374
 30
0.0
 11
134.5927069704596
 21
134.2663655184374
 31
0.0
  0
LINE
  5
64D9
330
1E
100
AcDbEntity
  8
24
  6
CONTINOUS
100
AcDbLine
 10
130.7301889704597
 20
138.4663655184374
 30
0.0
 11
133.5301889704596
 21
141.2663655184374
 31
0.0
  0
LINE
  5
64DA
330
1E
100
AcDbEntity
  8
24
  6
CONTINOUS
100
AcDbLine
 10
138.3301889704596
 20
136.4163655184374
 30
0.0
 11
138.3301889704596
 21
139.7191735184374
 31
0.0
  0
LINE
  5
64DB
330
1E
100
AcDbEntity
  8
24
  6
CONTINOUS
100
AcDbLine
 10
136.5301889704596
 20
134.6163655184374
 30
0.0
 11
137.8301889704596
 21
134.6163655184374
 31
0.0
  0
LINE
  5
64DC
330
1E
100
AcDbEntity
  8
24
  6
CONTINOUS
100
AcDbLine
 10
136.5301889704596
 20
135.9163655184373
 30
0.0
 11
137.8301889704596
 21
135.9163655184373
 31
0.0
  0
LINE
  5
64DD
330
1E
100
AcDbEntity
  8
24
  6
CONTINOUS
100
AcDbLine
 10
136.5301889704596
 20
134.6163655184374
 30
0.0
 11
136.5301889704596
 21
135.9163655184373
 31
0.0
  0
ARC
  5
64DE
330
1E
100
AcDbEntity
  8
24
  6
CONTINOUS
100
AcDbCircle
 10
137.8301889704596
 20
136.4163655184374
 30
0.0
 40
0.5
100
AcDbArc
 50
270.0
 51
0.0
  0
ARC
  5
64DF
330
1E
100
AcDbEntity
  8
24
  6
CONTINOUS
100
AcDbCircle
 10
137.8301889704596
 20
134.1163655184374
 30
0.0
 40
0.5
100
AcDbArc
 50
0.0
 51
90.0
  0
ARC
  5
64E0
330
1E
100
AcDbEntity
  8
24
  6
CONTINOUS
100
AcDbCircle
 10
135.4301889704596
 20
137.9663655184374
 30
0.0
 40
0.3
100
AcDbArc
 50
58.48159899999915
 51
90.0
  0
LINE
  5
64E1
330
1E
100
AcDbEntity
  8
24
  6
CONTINOUS
100
AcDbLine
 10
137.9801889704597
 20
141.2663655184374
 30
0.0
 11
137.9801889704597
 21
139.6538475184374
 31
0.0
  0
LINE
  5
64E2
330
1E
100
AcDbEntity
  8
18
100
AcDbLine
 10
135.1172919704596
 20
145.2715695184374
 30
0.0
 11
132.1120879704597
 21
142.2663655184374
 31
0.0
  0
LINE
  5
64E3
330
1E
100
AcDbEntity
  8
18
100
AcDbLine
 10
137.9457219704596
 20
145.2715695184374
 30
0.0
 11
134.9405179704597
 21
142.2663655184374
 31
0.0
  0
ARC
  5
64E4
330
1E
100
AcDbEntity
  8
24
  6
CONTINOUS
100
AcDbCircle
 10
146.7301889704597
 20
140.7663655184374
 30
0.0
 40
0.5
100
AcDbArc
 50
0.0
 51
90.0
  0
LINE
  5
64E5
330
1E
100
AcDbEntity
  8
24
  6
CONTINOUS
100
AcDbLine
 10
147.2301889704597
 20
138.2663655184374
 30
0.0
 11
142.5301889704596
 21
138.2663655184374
 31
0.0
  0
LINE
  5
64E6
330
1E
100
AcDbEntity
  8
24
  6
CONTINOUS
100
AcDbLine
 10
139.6301889704597
 20
139.7191735184374
 30
0.0
 11
139.6301889704597
 21
136.4163655184374
 31
0.0
  0
LINE
  5
64E7
330
1E
100
AcDbEntity
  8
24
  6
CONTINOUS
100
AcDbLine
 10
140.1301889704597
 20
135.9163655184373
 30
0.0
 11
141.4301889704596
 21
135.9163655184373
 31
0.0
  0
LINE
  5
64E8
330
1E
100
AcDbEntity
  8
24
  6
CONTINOUS
100
AcDbLine
 10
140.1301889704597
 20
134.6163655184374
 30
0.0
 11
141.4301889704596
 21
134.6163655184374
 31
0.0
  0
ARC
  5
64E9
330
1E
100
AcDbEntity
  8
24
  6
CONTINOUS
100
AcDbCircle
 10
140.1301889704597
 20
136.4163655184374
 30
0.0
 40
0.5
100
AcDbArc
 50
180.0
 51
270.0
  0
ARC
  5
64EA
330
1E
100
AcDbEntity
  8
24
  6
CONTINOUS
100
AcDbCircle
 10
140.1301889704597
 20
134.1163655184374
 30
0.0
 40
0.5
100
AcDbArc
 50
90.0
 51
180.0
  0
LINE
  5
64EB
330
1E
100
AcDbEntity
  8
24
  6
CONTINOUS
100
AcDbLine
 10
141.4301889704596
 20
134.6163655184374
 30
0.0
 11
141.4301889704596
 21
135.9163655184373
 31
0.0
  0
LINE
  5
64EC
330
1E
100
AcDbEntity
  8
24
  6
CONTINOUS
100
AcDbLine
 10
139.9801889704597
 20
141.2663655184374
 30
0.0
 11
139.9801889704597
 21
139.6538475184374
 31
0.0
  0
ARC
  5
64ED
330
1E
100
AcDbEntity
  8
24
  6
CONTINOUS
100
AcDbCircle
 10
142.5301889704596
 20
137.9663655184374
 30
0.0
 40
0.3
100
AcDbArc
 50
90.0
 51
121.5184010000008
  0
LINE
  5
64EE
330
1E
100
AcDbEntity
  8
24
  6
CONTINOUS
100
AcDbLine
 10
147.2301889704597
 20
136.2663655184374
 30
0.0
 11
143.3676719704596
 21
136.2663655184374
 31
0.0
  0
LINE
  5
64EF
330
1E
100
AcDbEntity
  8
24
  6
CONTINOUS
100
AcDbLine
 10
147.2301889704597
 20
134.2663655184374
 30
0.0
 11
143.3676719704596
 21
134.2663655184374
 31
0.0
  0
LINE
  5
64F0
330
1E
100
AcDbEntity
  8
24
  6
CONTINOUS
100
AcDbLine
 10
144.4301889704596
 20
141.2663655184374
 30
0.0
 11
147.2301889704597
 21
138.4663655184374
 31
0.0
  0
LINE
  5
64F1
330
1E
100
AcDbEntity
  8
18
100
AcDbLine
 10
140.5973779704596
 20
142.2663655184374
 30
0.0
 11
143.6025819704597
 21
145.2715695184374
 31
0.0
  0
LINE
  5
64F2
330
1E
100
AcDbEntity
  8
18
100
AcDbLine
 10
143.4258089704596
 20
142.2663655184374
 30
0.0
 11
146.4310129704596
 21
145.2715695184374
 31
0.0
  0
LINE
  5
64F3
330
1E
100
AcDbEntity
  8
18
100
AcDbLine
 10
150.4853929704596
 20
143.8333065184374
 30
0.0
 11
147.4801889704597
 21
140.8281025184374
 31
0.0
  0
LINE
  5
64F4
330
1E
100
AcDbEntity
  8
18
100
AcDbLine
 10
147.4801889704597
 20
135.1712425184374
 30
0.0
 11
150.4801889704597
 21
138.1712425184374
 31
0.0
  0
LINE
  5
64F5
330
1E
100
AcDbEntity
  8
18
100
AcDbLine
 10
147.4801889704597
 20
137.9996725184374
 30
0.0
 11
150.4801889704597
 21
140.9996725184374
 31
0.0
  0
LINE
  5
64F6
330
1E
100
AcDbEntity
  8
10
  6
CONTINOUS
100
AcDbLine
 10
138.85443809588
 20
-23.69999999999987
 30
0.0
 11
140.55443809588
 21
-23.69999999999987
 31
0.0
  0
LINE
  5
64F7
330
1E
100
AcDbEntity
  8
10
  6
CONTINOUS
100
AcDbLine
 10
138.85443809588
 20
-18.69999999999987
 30
0.0
 11
140.55443809588
 21
-18.69999999999987
 31
0.0
  0
LINE
  5
64F8
330
1E
100
AcDbEntity
  8
10
  6
CONTINOUS
100
AcDbLine
 10
138.35443809588
 20
-19.20000099999987
 30
0.0
 11
138.35443809588
 21
-23.19999999999987
 31
0.0
  0
ARC
  5
64F9
330
1E
100
AcDbEntity
  8
10
  6
CONTINOUS
100
AcDbCircle
 10
138.85443809588
 20
-23.19999999999987
 30
0.0
 40
0.5
100
AcDbArc
 50
180.0
 51
270.0
  0
ARC
  5
64FA
330
1E
100
AcDbEntity
  8
10
  6
CONTINOUS
100
AcDbCircle
 10
138.85443809588
 20
-19.20000099999987
 30
0.0
 40
0.5
100
AcDbArc
 50
90.0
 51
180.0
  0
LINE
  5
64FB
330
1E
100
AcDbEntity
  8
10
  6
CONTINOUS
100
AcDbLine
 10
161.55437709588
 20
-49.74994099999986
 30
0.0
 11
161.55437709588
 21
-37.89997199999987
 31
0.0
  0
LINE
  5
64FC
330
1E
100
AcDbEntity
  8
18
100
AcDbLine
 10
172.5543770958799
 20
-59.45316999999988
 30
0.0
 11
172.5543770958799
 21
-68.70000899999985
 31
0.0
  0
LINE
  5
64FD
330
1E
100
AcDbEntity
  8
18
100
AcDbLine
 10
170.5543770958799
 20
-59.26584299999991
 30
0.0
 11
170.5543770958799
 21
-68.70000899999985
 31
0.0
  0
LINE
  5
64FE
330
1E
100
AcDbEntity
  8
18
100
AcDbLine
 10
171.05437709588
 20
-68.70576899999986
 30
0.0
 11
171.05437709588
 21
-73.70000899999985
 31
0.0
  0
LINE
  5
64FF
330
1E
100
AcDbEntity
  8
18
100
AcDbLine
 10
172.05437709588
 20
-68.70576899999986
 30
0.0
 11
172.05437709588
 21
-73.70000899999985
 31
0.0
  0
LINE
  5
6500
330
1E
100
AcDbEntity
  8
18
100
AcDbLine
 10
171.5543770958799
 20
-68.70576899999986
 30
0.0
 11
171.5543770958799
 21
-73.70000899999985
 31
0.0
  0
LINE
  5
6501
330
1E
100
AcDbEntity
  8
18
100
AcDbLine
 10
170.5543770958799
 20
-68.70000899999985
 30
0.0
 11
172.5543770958799
 21
-68.70000899999985
 31
0.0
  0
LINE
  5
6502
330
1E
100
AcDbEntity
  8
10
  6
CONTINOUS
100
AcDbLine
 10
161.55437709588
 20
-49.74994099999986
 30
0.0
 11
172.5543770958799
 21
-49.74994099999986
 31
0.0
  0
LINE
  5
6503
330
1E
100
AcDbEntity
  8
18
100
AcDbLine
 10
170.5543770958799
 20
-49.74994099999986
 30
0.0
 11
170.5543770958799
 21
-57.7658429999999
 31
0.0
  0
LINE
  5
6504
330
1E
100
AcDbEntity
  8
18
100
AcDbLine
 10
172.5543770958799
 20
-49.75000199999988
 30
0.0
 11
172.5543770958799
 21
-57.95316999999989
 31
0.0
  0
SPLINE
  5
6505
330
1E
100
AcDbEntity
  8
18
100
AcDbSpline
210
0.0
220
0.0
230
1.0
 70
     8
 71
     3
 72
    87
 73
    83
 74
    81
 42
0.0000000001
 43
0.0000000001
 44
0.000001
 12
0.9650863714265648
 22
0.2619318531349453
 32
0.0
 13
0.7925001333818887
 23
0.6098717394581329
 33
0.0
 40
0.0
 40
0.0
 40
0.0
 40
0.0
 40
0.025635892134538
 40
0.051272047658309
 40
0.0765076652988744
 40
0.1017430809347203
 40
0.1267763489498075
 40
0.1518096073944857
 40
0.1768371653224258
 40
0.2018649002966563
 40
0.227074796861505
 40
0.2522853005838311
 40
0.2778404925158074
 40
0.3033963326965277
 40
0.3294269906811905
 40
0.355458280397611
 40
0.3820636441102724
 40
0.4086695863700747
 40
0.4359150231571342
 40
0.4631611125595771
 40
0.4910614122446787
 40
0.5189622202549773
 40
0.5474961338316522
 40
0.5760304330856949
 40
0.605151542025805
 40
0.6342729371765034
 40
0.6639008106476693
 40
0.6935289972580523
 40
0.7235086611356073
 40
0.7534884880624783
 40
0.7836351482557417
 40
0.81378184938256
 40
0.8439034182579268
 40
0.8740249133162835
 40
0.9039402202936724
 40
0.9338554009395895
 40
0.9634303807543584
 40
0.993005157549528
 40
1.022126890447391
 40
1.051248321751511
 40
1.079820157901788
 40
1.108391564300912
 40
1.136345023919163
 40
1.164298048588552
 40
1.19161395578109
 40
1.218929317819423
 40
1.245620801096336
 40
1.27231162138597
 40
1.298423087380681
 40
1.324533780284404
 40
1.350148290305074
 40
1.375762144126693
 40
1.401007869430824
 40
1.426252979011493
 40
1.451292488945254
 40
1.476331499137083
 40
1.501358616169341
 40
1.52638543194353
 40
1.551615245220083
 40
1.57684600005207
 40
1.602465822253723
 40
1.62808658774183
 40
1.654231199567676
 40
1.680376669717501
 40
1.707134310254474
 40
1.733892683299593
 40
1.76131068495872
 40
1.788729293319713
 40
1.816819185941203
 40
1.844909556122528
 40
1.873653861171053
 40
1.902398533389275
 40
1.931756633091193
 40
1.961115009716934
 40
1.991034237432735
 40
2.020953615603963
 40
2.051393465700004
 40
2.081833435586744
 40
2.112751701651716
 40
2.14367006224718
 40
2.175018236353253
 40
2.206365879550034
 40
2.206365879550034
 40
2.206365879550034
 40
2.206365879550034
 10
170.554377193063
 20
-57.76584313564258
 30
0.0
 10
170.5626241431025
 20
-57.76360485006473
 30
0.0
 10
170.5792144478275
 20
-57.75947435155285
 30
0.0
 10
170.6042119251993
 20
-57.75438474813237
 30
0.0
 10
170.6292769709647
 20
-57.75041650702411
 30
0.0
 10
170.6542925698358
 20
-57.74757609218356
 30
0.0
 10
170.6793422968056
 20
-57.74585429327252
 30
0.0
 10
170.7043743419171
 20
-57.74524160234342
 30
0.0
 10
170.729407023348
 20
-57.74573787387415
 30
0.0
 10
170.7544527782529
 20
-57.74733039148269
 30
0.0
 10
170.779466129715
 20
-57.75001564810867
 30
0.0
 10
170.8045188735301
 20
-57.7537682697693
 30
0.0
 10
170.8295126712729
 20
-57.75855051789877
 30
0.0
 10
170.8545692372305
 20
-57.76435423589524
 30
0.0
 10
170.8795468723625
 20
-57.77112208957543
 30
0.0
 10
170.9046046814623
 20
-57.77886730209798
 30
0.0
 10
170.9295697556912
 20
-57.78751060978051
 30
0.0
 10
170.9546251959003
 20
-57.7970868906478
 30
0.0
 10
170.9795779154085
 20
-57.80749486404854
 30
0.0
 10
171.0046244561723
 20
-57.81876934268288
 30
0.0
 10
171.0295712551147
 20
-57.8307746994666
 30
0.0
 10
171.0546109428706
 20
-57.84355791241452
 30
0.0
 10
171.0795567984191
 20
-57.85697473010134
 30
0.0
 10
171.1045892292645
 20
-57.87107689971218
 30
0.0
 10
171.1295368513847
 20
-57.8857188444855
 30
0.0
 10
171.1545577267058
 20
-57.90094818640134
 30
0.0
 10
171.1795011691395
 20
-57.91662352487632
 30
0.0
 10
171.2044999978445
 20
-57.93274396425712
 30
0.0
 10
171.2294501144028
 20
-57.94915378109094
 30
0.0
 10
171.2544350728633
 20
-57.96582364640362
 30
0.0
 10
171.279397149343
 20
-57.98262748835966
 30
0.0
 10
171.3043687086833
 20
-57.99950169344412
 30
0.0
 10
171.3293437112937
 20
-58.01635583406642
 30
0.0
 10
171.3543052509708
 20
-58.03309193369887
 30
0.0
 10
171.3792993530781
 20
-58.04965534255662
 30
0.0
 10
171.4042583950885
 20
-58.06594072161449
 30
0.0
 10
171.4292648097019
 20
-58.08194393010437
 30
0.0
 10
171.4542167506462
 20
-58.09753884505518
 30
0.0
 10
171.4792327492296
 20
-58.11274210006727
 30
0.0
 10
171.5041790622031
 20
-58.12741099434881
 30
0.0
 10
171.5292046666117
 20
-58.14157597187403
 30
0.0
 10
171.5541492124777
 20
-58.15508458173296
 30
0.0
 10
171.5791878579309
 20
-58.16797397773004
 30
0.0
 10
171.6041371267539
 20
-58.18010786051774
 30
0.0
 10
171.6291831966772
 20
-58.19153815379246
 30
0.0
 10
171.6541364683144
 20
-58.20213734879914
 30
0.0
 10
171.6791873153423
 20
-58.21194696844286
 30
0.0
 10
171.7041483658188
 20
-58.22085331839339
 30
0.0
 10
171.7292028280914
 20
-58.22888131136899
 30
0.0
 10
171.7541767852659
 20
-58.2359359687484
 30
0.0
 10
171.7792342117918
 20
-58.24202129529131
 30
0.0
 10
171.804226010881
 20
-58.24707720428937
 30
0.0
 10
171.829280517826
 20
-58.25109935741949
 30
0.0
 10
171.8542916905825
 20
-58.25404879547119
 30
0.0
 10
171.8793391059049
 20
-58.25590289822695
 30
0.0
 10
171.9043721296672
 20
-58.25663762764683
 30
0.0
 10
171.9294085775314
 20
-58.25621999593618
 30
0.0
 10
171.9544622098298
 20
-58.25463086541098
 30
0.0
 10
171.9794788011985
 20
-58.25184051467152
 30
0.0
 10
172.0045375538069
 20
-58.24788965621096
 30
0.0
 10
172.0295291449355
 20
-58.24283286515337
 30
0.0
 10
172.0545888578334
 20
-58.23668964630538
 30
0.0
 10
172.0795613055312
 20
-58.22953769519158
 30
0.0
 10
172.1046189005973
 20
-58.22137210263588
 30
0.0
 10
172.1295778883671
 20
-58.21229410405103
 30
0.0
 10
172.1546312960015
 20
-58.202276123017
 30
0.0
 10
172.1795816768306
 20
-58.19143969091442
 30
0.0
 10
172.2046293734901
 20
-58.17974040630049
 30
0.0
 10
172.2295755254958
 20
-58.16731570085344
 30
0.0
 10
172.2546169961352
 20
-58.15410934102006
 30
0.0
 10
172.2795622982115
 20
-58.14026719481018
 30
0.0
 10
172.3045971476231
 20
-58.12572765915932
 30
0.0
 10
172.3295440405796
 20
-58.11063875597078
 30
0.0
 10
172.3545738504018
 20
-58.09493851868149
 30
0.0
 10
172.3795275400676
 20
-58.0787711353228
 30
0.0
 10
172.4045568077086
 20
-58.06206288410614
 30
0.0
 10
172.4295143690762
 20
-58.04493916904986
 30
0.0
 10
172.4545395483105
 20
-58.02732947381219
 30
0.0
 10
172.479499929273
 20
-58.00935386939185
 30
0.0
 10
172.5045210033412
 20
-57.99094737216433
 30
0.0
 10
172.5294842231594
 20
-57.97222312911697
 30
0.0
 10
172.5460961892581
 20
-57.95954222111205
 30
0.0
 10
172.554377193063
 20
-57.9531695405506
 30
0.0
 11
170.554377193063
 21
-57.76584313564258
 31
0.0
 11
170.5792556000568
 21
-57.75965493456856
 31
0.0
 11
170.6043771930632
 21
-57.75454462410015
 31
0.0
 11
170.6293026290444
 21
-57.75060045849468
 31
0.0
 11
170.6543771930631
 21
-57.74775617562018
 31
0.0
 11
170.6793514606077
 21
-57.74603917899423
 31
0.0
 11
170.7043771930632
 21
-57.74542726741355
 31
0.0
 11
170.7293998395686
 21
-57.7459208130294
 31
0.0
 11
170.754377193063
 21
-57.74750737669101
 31
0.0
 11
170.779443856102
 21
-57.75019050894629
 31
0.0
 11
170.804377193063
 21
-57.75391827253962
 31
0.0
 11
170.82947868865
 21
-57.75871210464943
 31
0.0
 11
170.854377193063
 21
-57.76447089155205
 31
0.0
 11
170.8795042984667
 21
-57.77126956407425
 31
0.0
 11
170.9043771930629
 21
-57.77894846219742
 31
0.0
 11
170.9295214413607
 21
-57.78764389168848
 31
0.0
 11
170.954377193063
 21
-57.79713421294478
 31
0.0
 11
170.9795274837885
 21
-57.80761157615249
 31
0.0
 11
171.004377193063
 21
-57.81878475207749
 31
0.0
 11
171.0295225207206
 21
-57.83087349722769
 31
0.0
 11
171.054377193063
 21
-57.84355020713603
 31
0.0
 11
171.0795117009847
 21
-57.85705721937624
 31
0.0
 11
171.1043771930629
 21
-57.87105408547533
 31
0.0
 11
171.1294967500325
 21
-57.88578655272828
 31
0.0
 11
171.1543771930629
 21
-57.90091989445016
 31
0.0
 11
171.1794699568928
 21
-57.91667308282161
 31
0.0
 11
171.2043771930631
 21
-57.93271857930328
 31
0.0
 11
171.2294317001445
 21
-57.94918220292713
 31
0.0
 11
171.2543771930629
 21
-57.96581083683022
 31
0.0
 11
171.2793920080845
 21
-57.98263579680817
 31
0.0
 11
171.304377193063
 21
-57.99950480171417
 31
0.0
 11
171.3293519595421
 21
-58.01634431582748
 31
0.0
 11
171.3543771930632
 21
-58.03310860863856
 31
0.0
 11
171.3793187039125
 21
-58.04962666159993
 31
0.0
 11
171.4043771930632
 21
-58.06596648024627
 31
0.0
 11
171.4292928212866
 21
-58.08190042203541
 31
0.0
 11
171.4543771930635
 21
-58.09756699101708
 31
0.0
 11
171.4792688161686
 21
-58.112682617733
 31
0.0
 11
171.5043771930636
 21
-58.12743480339058
 31
0.0
 11
171.5292478111649
 21
-58.14149901532672
 31
0.0
 11
171.5543771930638
 21
-58.15509457980586
 31
0.0
 11
171.5792352166691
 21
-58.16788029739997
 31
0.0
 11
171.604377193064
 21
-58.18009719873301
 31
0.0
 11
171.629231781247
 21
-58.19142893964737
 31
0.0
 11
171.6543771930639
 21
-58.20209840276387
 31
0.0
 11
171.6792349431932
 21
-58.21182094137718
 31
0.0
 11
171.704377193064
 21
-58.2207801505207
 31
0.0
 11
171.7292466541003
 21
-58.22873746591587
 31
0.0
 11
171.7543771930639
 21
-58.23582440062613
 31
0.0
 11
171.7792701460348
 21
-58.24186131961146
 31
0.0
 11
171.8043771930639
 21
-58.24693143874627
 31
0.0
 11
171.8293048733833
 21
-58.25092616406085
 31
0.0
 11
171.854377193064
 21
-58.25387485872276
 31
0.0
 11
171.8793487699564
 21
-58.25571819129341
 31
0.0
 11
171.904377193064
 21
-58.25644658144092
 31
0.0
 11
171.9294007929436
 21
-58.2560264304803
 31
0.0
 11
171.954377193064
 21
-58.25443852778629
 31
0.0
 11
171.9794527473661
 21
-58.25165275259606
 31
0.0
 11
172.0043771930639
 21
-58.24773312621765
 31
0.0
 11
172.0294905476313
 21
-58.24266408454774
 31
0.0
 11
172.0543771930639
 21
-58.2365748354879
 31
0.0
 11
172.0795147412299
 21
-58.22938840064445
 31
0.0
 11
172.104377193064
 21
-58.22129862192373
 31
0.0
 11
172.1295272680168
 21
-58.21216377259098
 31
0.0
 11
172.154377193064
 21
-58.20223945185164
 31
0.0
 11
172.1795301942324
 21
-58.19132736093887
 31
0.0
 11
172.204377193064
 21
-58.17973395387501
 31
0.0
 11
172.2295256619128
 21
-58.16722008453139
 31
0.0
 11
172.254377193064
 21
-58.15412540570561
 31
0.0
 11
172.2795158091198
 21
-58.14018677732743
 31
0.0
 11
172.3043771930639
 21
-58.12575874733231
 31
0.0
 11
172.3295021724322
 21
-58.11057211839615
 31
0.0
 11
172.3543771930638
 21
-58.09497891874379
 31
0.0
 11
172.3794898595361
 21
-58.0787150196325
 31
0.0
 11
172.4043771930638
 21
-58.06210809178096
 31
0.0
 11
172.4294800073936
 21
-58.04489084995278
 31
0.0
 11
172.4543771930636
 21
-58.02737736569342
 31
0.0
 11
172.4794692078348
 21
-58.00931275425099
 31
0.0
 11
172.5043771930634
 21
-57.99099507158264
 31
0.0
 11
172.5294577272112
 21
-57.97218882184826
 31
0.0
 11
172.554377193063
 21
-57.9531695405506
 31
0.0
  0
SPLINE
  5
6506
330
1E
100
AcDbEntity
  8
18
100
AcDbSpline
210
0.0
220
0.0
230
1.0
 70
     8
 71
     3
 72
    87
 73
    83
 74
    81
 42
0.0000000001
 43
0.0000000001
 44
0.000001
 12
0.9650863714256241
 22
0.2619318531384122
 32
0.0
 13
0.7925001333818887
 23
0.6098717394581329
 33
0.0
 40
0.0
 40
0.0
 40
0.0
 40
0.0
 40
0.025635892134538
 40
0.0512720476578634
 40
0.0765076652984287
 40
0.1017430809342747
 40
0.1267763489493618
 40
0.151809607393925
 40
0.1768371653219794
 40
0.2018649002963252
 40
0.2270747968611829
 40
0.2522853005835216
 40
0.2778404925154023
 40
0.303396332696161
 40
0.3294269906808238
 40
0.3554582803971524
 40
0.3820636441097251
 40
0.4086695863695274
 40
0.4359150231564489
 40
0.4631611125587883
 40
0.4910614122438898
 40
0.5189622202541368
 40
0.5474961338307579
 40
0.5760304330847868
 40
0.6051515420248538
 40
0.6342729371754487
 40
0.6639008106466751
 40
0.6935289972570274
 40
0.7235086611345823
 40
0.753488488061406
 40
0.7836351482546853
 40
0.8137818493815036
 40
0.8439034182568546
 40
0.8740249133152111
 40
0.9039402202926002
 40
0.9338554009385171
 40
0.9634303807532862
 40
0.9930051575484558
 40
1.022126890446319
 40
1.051248321750454
 40
1.079820157900744
 40
1.108391564299841
 40
1.136345023918092
 40
1.164298048587481
 40
1.191613955780007
 40
1.218929317818351
 40
1.245620801095264
 40
1.272311621384898
 40
1.298423087379609
 40
1.324533780283333
 40
1.350148290304002
 40
1.375762144125622
 40
1.401007869429738
 40
1.426252979010411
 40
1.451292488944176
 40
1.476331499136005
 40
1.501358616168264
 40
1.526385431942455
 40
1.551615245219005
 40
1.576846000051001
 40
1.602465822252642
 40
1.628086587740749
 40
1.654231199566595
 40
1.68037666971642
 40
1.707134310253393
 40
1.733892683298523
 40
1.761310684957638
 40
1.788729293318655
 40
1.81681918594012
 40
1.844909556121445
 40
1.873653861169957
 40
1.902398533388193
 40
1.931756633090111
 40
1.961115009715852
 40
1.991034237431652
 40
2.020953615602881
 40
2.051393465698954
 40
2.08183343558566
 40
2.112751701650633
 40
2.14367006224608
 40
2.175018236352221
 40
2.20636587954895
 40
2.20636587954895
 40
2.20636587954895
 40
2.20636587954895
 10
170.5543771930639
 20
-59.26584313564259
 30
0.0
 10
170.5626241431033
 20
-59.26360485006469
 30
0.0
 10
170.5792144478282
 20
-59.25947435155292
 30
0.0
 10
170.6042119251999
 20
-59.25438474813232
 30
0.0
 10
170.6292769709652
 20
-59.25041650702413
 30
0.0
 10
170.6542925698362
 20
-59.24757609218355
 30
0.0
 10
170.6793422968061
 20
-59.24585429327251
 30
0.0
 10
170.7043743419174
 20
-59.2452416023435
 30
0.0
 10
170.7294070233485
 20
-59.24573787387423
 30
0.0
 10
170.7544527782534
 20
-59.24733039148279
 30
0.0
 10
170.7794661297156
 20
-59.25001564810888
 30
0.0
 10
170.8045188735306
 20
-59.25376826976958
 30
0.0
 10
170.8295126712735
 20
-59.25855051789911
 30
0.0
 10
170.854569237231
 20
-59.26435423589584
 30
0.0
 10
170.8795468723629
 20
-59.27112208957591
 30
0.0
 10
170.9046046814626
 20
-59.27886730209858
 30
0.0
 10
170.9295697556914
 20
-59.28751060978118
 30
0.0
 10
170.9546251959005
 20
-59.29708689064845
 30
0.0
 10
170.9795779154087
 20
-59.30749486404909
 30
0.0
 10
171.0046244561723
 20
-59.31876934268348
 30
0.0
 10
171.0295712551147
 20
-59.3307746994672
 30
0.0
 10
171.0546109428706
 20
-59.34355791241495
 30
0.0
 10
171.0795567984191
 20
-59.35697473010169
 30
0.0
 10
171.1045892292645
 20
-59.37107689971249
 30
0.0
 10
171.1295368513846
 20
-59.38571884448577
 30
0.0
 10
171.154557726706
 20
-59.40094818640132
 30
0.0
 10
171.1795011691394
 20
-59.41662352487649
 30
0.0
 10
171.2044999978445
 20
-59.43274396425717
 30
0.0
 10
171.2294501144028
 20
-59.44915378109104
 30
0.0
 10
171.2544350728634
 20
-59.4658236464036
 30
0.0
 10
171.2793971493429
 20
-59.48262748835968
 30
0.0
 10
171.3043687086833
 20
-59.49950169344415
 30
0.0
 10
171.3293437112937
 20
-59.51635583406642
 30
0.0
 10
171.3543052509708
 20
-59.53309193369886
 30
0.0
 10
171.3792993530781
 20
-59.54965534255663
 30
0.0
 10
171.4042583950885
 20
-59.5659407216145
 30
0.0
 10
171.4292648097019
 20
-59.58194393010437
 30
0.0
 10
171.4542167506462
 20
-59.59753884505518
 30
0.0
 10
171.4792327492296
 20
-59.61274210006727
 30
0.0
 10
171.5041790622031
 20
-59.62741099434884
 30
0.0
 10
171.5292046666116
 20
-59.64157597187409
 30
0.0
 10
171.5541492124778
 20
-59.65508458173298
 30
0.0
 10
171.5791878579309
 20
-59.66797397773004
 30
0.0
 10
171.6041371267539
 20
-59.68010786051774
 30
0.0
 10
171.6291831966773
 20
-59.69153815379242
 30
0.0
 10
171.6541364683144
 20
-59.70213734879916
 30
0.0
 10
171.6791873153424
 20
-59.71194696844285
 30
0.0
 10
171.7041483658187
 20
-59.72085331839338
 30
0.0
 10
171.7292028280914
 20
-59.72888131136901
 30
0.0
 10
171.7541767852659
 20
-59.73593596874839
 30
0.0
 10
171.7792342117918
 20
-59.74202129529131
 30
0.0
 10
171.8042260108809
 20
-59.7470772042894
 30
0.0
 10
171.829280517826
 20
-59.75109935741937
 30
0.0
 10
171.8542916905825
 20
-59.75404879547113
 30
0.0
 10
171.8793391059049
 20
-59.75590289822695
 30
0.0
 10
171.9043721296672
 20
-59.75663762764686
 30
0.0
 10
171.9294085775314
 20
-59.75621999593617
 30
0.0
 10
171.9544622098298
 20
-59.75463086541095
 30
0.0
 10
171.9794788011985
 20
-59.75184051467152
 30
0.0
 10
172.0045375538069
 20
-59.74788965621088
 30
0.0
 10
172.0295291449355
 20
-59.74283286515341
 30
0.0
 10
172.0545888578334
 20
-59.73668964630536
 30
0.0
 10
172.0795613055312
 20
-59.72953769519159
 30
0.0
 10
172.1046189005973
 20
-59.72137210263588
 30
0.0
 10
172.1295778883671
 20
-59.71229410405104
 30
0.0
 10
172.1546312960015
 20
-59.70227612301695
 30
0.0
 10
172.1795816768306
 20
-59.69143969091445
 30
0.0
 10
172.2046293734901
 20
-59.67974040630039
 30
0.0
 10
172.229575525496
 20
-59.66731570085347
 30
0.0
 10
172.2546169961351
 20
-59.65410934102002
 30
0.0
 10
172.2795622982116
 20
-59.64026719481024
 30
0.0
 10
172.3045971476231
 20
-59.62572765915933
 30
0.0
 10
172.3295440405795
 20
-59.61063875597076
 30
0.0
 10
172.3545738504018
 20
-59.59493851868149
 30
0.0
 10
172.3795275400677
 20
-59.57877113532282
 30
0.0
 10
172.4045568077086
 20
-59.56206288410613
 30
0.0
 10
172.4295143690762
 20
-59.54493916904979
 30
0.0
 10
172.4545395483104
 20
-59.52732947381219
 30
0.0
 10
172.479499929273
 20
-59.50935386939182
 30
0.0
 10
172.5045210033413
 20
-59.49094737216442
 30
0.0
 10
172.5294842231594
 20
-59.47222312911684
 30
0.0
 10
172.5460961892581
 20
-59.45954222111204
 30
0.0
 10
172.554377193063
 20
-59.4531695405506
 30
0.0
 11
170.5543771930639
 21
-59.26584313564259
 31
0.0
 11
170.5792556000577
 21
-59.25965493456856
 31
0.0
 11
170.6043771930636
 21
-59.25454462410015
 31
0.0
 11
170.6293026290448
 21
-59.25060045849467
 31
0.0
 11
170.6543771930636
 21
-59.24775617562018
 31
0.0
 11
170.6793514606082
 21
-59.24603917899422
 31
0.0
 11
170.7043771930635
 21
-59.24542726741361
 31
0.0
 11
170.729399839569
 21
-59.24592081302948
 31
0.0
 11
170.7543771930636
 21
-59.24750737669113
 31
0.0
 11
170.7794438561025
 21
-59.25019050894649
 31
0.0
 11
170.8043771930636
 21
-59.2539182725399
 31
0.0
 11
170.8294786886505
 21
-59.2587121046498
 31
0.0
 11
170.8543771930634
 21
-59.26447089155259
 31
0.0
 11
170.8795042984671
 21
-59.27126956407478
 31
0.0
 11
170.9043771930632
 21
-59.27894846219802
 31
0.0
 11
170.9295214413609
 21
-59.28764389168915
 31
0.0
 11
170.9543771930632
 21
-59.29713421294543
 31
0.0
 11
170.9795274837886
 21
-59.30761157615306
 31
0.0
 11
171.004377193063
 21
-59.31878475207806
 31
0.0
 11
171.0295225207206
 21
-59.33087349722827
 31
0.0
 11
171.054377193063
 21
-59.34355020713649
 31
0.0
 11
171.0795117009847
 21
-59.35705721937658
 31
0.0
 11
171.1043771930629
 21
-59.37105408547565
 31
0.0
 11
171.1294967500325
 21
-59.3857865527285
 31
0.0
 11
171.1543771930629
 21
-59.40091989445019
 31
0.0
 11
171.1794699568928
 21
-59.41667308282176
 31
0.0
 11
171.2043771930631
 21
-59.43271857930337
 31
0.0
 11
171.2294317001445
 21
-59.44918220292722
 31
0.0
 11
171.2543771930629
 21
-59.46581083683021
 31
0.0
 11
171.2793920080845
 21
-59.48263579680819
 31
0.0
 11
171.304377193063
 21
-59.4995048017142
 31
0.0
 11
171.3293519595421
 21
-59.51634431582748
 31
0.0
 11
171.3543771930632
 21
-59.53310860863855
 31
0.0
 11
171.3793187039125
 21
-59.54962666159993
 31
0.0
 11
171.4043771930632
 21
-59.56596648024627
 31
0.0
 11
171.4292928212866
 21
-59.58190042203542
 31
0.0
 11
171.4543771930635
 21
-59.59756699101707
 31
0.0
 11
171.4792688161686
 21
-59.612682617733
 31
0.0
 11
171.5043771930636
 21
-59.62743480339061
 31
0.0
 11
171.5292478111649
 21
-59.64149901532677
 31
0.0
 11
171.5543771930638
 21
-59.65509457980586
 31
0.0
 11
171.5792352166691
 21
-59.66788029739998
 31
0.0
 11
171.604377193064
 21
-59.680097198733
 31
0.0
 11
171.629231781247
 21
-59.69142893964733
 31
0.0
 11
171.6543771930639
 21
-59.70209840276386
 31
0.0
 11
171.6792349431932
 21
-59.71182094137718
 31
0.0
 11
171.704377193064
 21
-59.72078015052069
 31
0.0
 11
171.7292466541003
 21
-59.72873746591587
 31
0.0
 11
171.7543771930639
 21
-59.73582440062613
 31
0.0
 11
171.7792701460348
 21
-59.74186131961146
 31
0.0
 11
171.8043771930639
 21
-59.74693143874628
 31
0.0
 11
171.8293048733833
 21
-59.75092616406077
 31
0.0
 11
171.854377193064
 21
-59.75387485872271
 31
0.0
 11
171.8793487699564
 21
-59.75571819129341
 31
0.0
 11
171.904377193064
 21
-59.75644658144095
 31
0.0
 11
171.9294007929436
 21
-59.75602643048031
 31
0.0
 11
171.954377193064
 21
-59.75443852778626
 31
0.0
 11
171.9794527473661
 21
-59.75165275259605
 31
0.0
 11
172.0043771930639
 21
-59.7477331262176
 31
0.0
 11
172.0294905476313
 21
-59.74266408454774
 31
0.0
 11
172.0543771930639
 21
-59.7365748354879
 31
0.0
 11
172.0795147412299
 21
-59.72938840064445
 31
0.0
 11
172.104377193064
 21
-59.72129862192374
 31
0.0
 11
172.1295272680168
 21
-59.71216377259098
 31
0.0
 11
172.154377193064
 21
-59.70223945185161
 31
0.0
 11
172.1795301942324
 21
-59.69132736093887
 31
0.0
 11
172.204377193064
 21
-59.67973395387495
 31
0.0
 11
172.2295256619128
 21
-59.66722008453139
 31
0.0
 11
172.254377193064
 21
-59.65412540570561
 31
0.0
 11
172.2795158091198
 21
-59.64018677732745
 31
0.0
 11
172.3043771930639
 21
-59.62575874733231
 31
0.0
 11
172.3295021724322
 21
-59.61057211839615
 31
0.0
 11
172.3543771930638
 21
-59.59497891874379
 31
0.0
 11
172.3794898595361
 21
-59.5787150196325
 31
0.0
 11
172.4043771930638
 21
-59.56210809178095
 31
0.0
 11
172.4294800073936
 21
-59.54489084995272
 31
0.0
 11
172.4543771930636
 21
-59.52737736569343
 31
0.0
 11
172.4794692078348
 21
-59.50931275425098
 31
0.0
 11
172.5043771930634
 21
-59.49099507158267
 31
0.0
 11
172.5294577272112
 21
-59.47218882184817
 31
0.0
 11
172.554377193063
 21
-59.4531695405506
 31
0.0
  0
LINE
  5
6507
330
1E
100
AcDbEntity
  8
10
  6
CONTINOUS
100
AcDbLine
 10
161.55437709588
 20
-37.89997199999987
 30
0.0
 11
153.55440709588
 21
-37.89997199999987
 31
0.0
  0
ARC
  5
6508
330
1E
100
AcDbEntity
  8
10
  6
CONTINOUS
100
AcDbCircle
 10
153.55440709588
 20
-36.89997199999988
 30
0.0
 40
1.0
100
AcDbArc
 50
179.9999970000006
 51
270.0
  0
LINE
  5
6509
330
1E
100
AcDbEntity
  8
10
  6
CONTINOUS
100
AcDbLine
 10
141.05443809588
 20
-24.99993999999986
 30
0.0
 11
152.55440709588
 21
-24.99993999999986
 31
0.0
  0
LINE
  5
650A
330
1E
100
AcDbEntity
  8
10
  6
CONTINOUS
100
AcDbLine
 10
140.85443809588
 20
-24.94999999999987
 30
0.0
 11
144.8366180958799
 21
-24.94999999999987
 31
0.0
  0
ARC
  5
650B
330
1E
100
AcDbEntity
  8
10
  6
CONTINOUS
100
AcDbCircle
 10
141.05443809588
 20
-24.49993999999986
 30
0.0
 40
0.5
100
AcDbArc
 50
180.0
 51
270.0
  0
ARC
  5
650C
330
1E
100
AcDbEntity
  8
10
  6
CONTINOUS
100
AcDbCircle
 10
140.85443809588
 20
-24.64999999999986
 30
0.0
 40
0.3
100
AcDbArc
 50
180.0
 51
270.0
  0
ARC
  5
650D
330
1E
100
AcDbEntity
  8
10
  6
CONTINOUS
100
AcDbCircle
 10
145.05443809588
 20
-24.49993999999986
 30
0.0
 40
0.5
100
AcDbArc
 50
180.0
 51
270.0
  0
LINE
  5
650E
330
1E
100
AcDbEntity
  8
10
  6
CONTINOUS
100
AcDbLine
 10
140.85443809588
 20
-17.44999999999987
 30
0.0
 11
144.55443809588
 21
-17.44999999999987
 31
0.0
  0
ARC
  5
650F
330
1E
100
AcDbEntity
  8
10
  6
CONTINOUS
100
AcDbCircle
 10
140.85443809588
 20
-17.74999999999988
 30
0.0
 40
0.3
100
AcDbArc
 50
90.0
 51
180.0
  0
LINE
  5
6510
330
1E
100
AcDbEntity
  8
10
  6
CONTINOUS
100
AcDbLine
 10
161.55437709588
 20
-46.24993999999986
 30
0.0
 11
172.5543770958799
 21
-46.24993999999986
 31
0.0
  0
LINE
  5
6511
330
1E
100
AcDbEntity
  8
18
100
AcDbLine
 10
167.3944039704597
 20
127.2663655184374
 30
0.0
 11
205.1943919704597
 21
127.2663655184374
 31
0.0
  0
LINE
  5
6512
330
1E
100
AcDbEntity
  8
0
  6
CONTINUOUS
100
AcDbLine
 10
201.1512709704596
 20
130.2663655184374
 30
0.0
 11
198.1512709704596
 21
127.2663655184374
 31
0.0
  0
LINE
  5
6513
330
1E
100
AcDbEntity
  8
0
  6
CONTINUOUS
100
AcDbLine
 10
181.1943919704597
 20
142.2663655184374
 30
0.0
 11
181.1943919704597
 21
128.2057055184374
 31
0.0
  0
LINE
  5
6514
330
1E
100
AcDbEntity
  8
24
  6
CONTINOUS
100
AcDbLine
 10
190.0002149704596
 20
137.7663655184374
 30
0.0
 11
190.0002149704596
 21
132.7663655184374
 31
0.0
  0
LINE
  5
6515
330
1E
100
AcDbEntity
  8
24
  6
CONTINOUS
100
AcDbLine
 10
177.0002139704596
 20
139.7663655184374
 30
0.0
 11
177.0002139704596
 21
130.7663655184374
 31
0.0
  0
LINE
  5
6516
330
1E
100
AcDbEntity
  8
24
  6
CONTINOUS
100
AcDbLine
 10
190.0002149704596
 20
132.7663655184374
 30
0.0
 11
191.0002149704596
 21
133.7663655184374
 31
0.0
  0
ARC
  5
6517
330
1E
100
AcDbEntity
  8
24
  6
CONTINOUS
100
AcDbCircle
 10
185.2002139704596
 20
135.2663655184374
 30
0.0
 40
11.5
100
AcDbArc
 50
163.1999890000002
 51
196.7999849999996
  0
LINE
  5
6518
330
1E
100
AcDbEntity
  8
24
  6
CONTINOUS
100
AcDbLine
 10
178.4943919704596
 20
129.2663655184374
 30
0.0
 11
178.4943919704596
 21
141.2663655184374
 31
0.0
  0
LINE
  5
6519
330
1E
100
AcDbEntity
  8
24
  6
CONTINOUS
100
AcDbLine
 10
180.8943919704596
 20
132.5663655184374
 30
0.0
 11
180.8943919704596
 21
134.5663655184374
 31
0.0
  0
LINE
  5
651A
330
1E
100
AcDbEntity
  8
24
  6
CONTINOUS
100
AcDbLine
 10
178.8943919704596
 20
133.9663655184374
 30
0.0
 11
178.8943919704596
 21
132.5663655184374
 31
0.0
  0
SPLINE
  5
651B
330
1E
100
AcDbEntity
  8
24
  6
CONTINOUS
100
AcDbSpline
210
0.0
220
0.0
230
1.0
 70
     8
 71
     3
 72
    71
 73
    67
 74
    65
 42
0.0000000001
 43
0.0000000001
 44
0.000001
 12
0.2169304578185634
 22
0.9761870601839733
 32
0.0
 13
0.2169304578186913
 23
0.9761870601839449
 33
0.0
 40
0.0
 40
0.0
 40
0.0
 40
0.0
 40
0.1296676152133164
 40
0.2593353661303503
 40
0.3888620587091842
 40
0.5183882630552862
 40
0.6475267039589557
 40
0.7766641595440522
 40
0.9052195797374514
 40
1.033773477100897
 40
1.161657696846872
 40
1.289541252873559
 40
1.41683334018238
 40
1.544124711226197
 40
1.670973814695157
 40
1.797822167178425
 40
1.924426044889838
 40
2.051029163199954
 40
2.17763226683863
 40
2.304236174937168
 40
2.431082895359997
 40
2.557930403629448
 40
2.68521391997904
 40
2.812498180487601
 40
2.94036061324619
 40
3.06822372864503
 40
3.196740440945162
 40
3.325258472010623
 40
3.454367662412955
 40
3.583477762589816
 40
3.713024407423731
 40
3.842571583175994
 40
3.972349638440249
 40
4.102127800249436
 40
4.231905962058653
 40
4.361684017322992
 40
4.491231193075199
 40
4.620777837909114
 40
4.749887938085948
 40
4.878997128488252
 40
5.007515159553721
 40
5.13603187185405
 40
5.263894987252681
 40
5.391757420011299
 40
5.519041680519847
 40
5.646325196869422
 40
5.773172705138882
 40
5.900019425561773
 40
6.026623333660336
 40
6.153226437298927
 40
6.279829555609071
 40
6.406433433320452
 40
6.533281785803771
 40
6.660130889272722
 40
6.787422260316493
 40
6.914714347625288
 40
7.042597903651988
 40
7.170482123397924
 40
7.299036020761557
 40
7.427591440954998
 40
7.556728896539961
 40
7.685867337443653
 40
7.815393541789863
 40
7.944920234368665
 40
8.074587985285754
 40
8.204255600499065
 40
8.204255600499065
 40
8.204255600499065
 40
8.204255600499065
 10
178.1943916140717
 20
131.2163657508437
 30
0.0
 10
178.2037678991158
 20
131.2585590335424
 30
0.0
 10
178.2226106919256
 20
131.3429255639986
 30
0.0
 10
178.2508477091657
 20
131.4694332553982
 30
0.0
 10
178.2787607406213
 20
131.5959648210685
 30
0.0
 10
178.3060272374321
 20
131.7224572933965
 30
0.0
 10
178.3323624460067
 20
131.8490151436949
 30
0.0
 10
178.3574273082567
 20
131.9755018411008
 30
0.0
 10
178.3809488542937
 20
132.1020876067129
 30
0.0
 10
178.4025816881166
 20
132.2285877061094
 30
0.0
 10
178.4220530970348
 20
132.3552130187849
 30
0.0
 10
178.4392318880519
 20
132.4817457542829
 30
0.0
 10
178.4540462104016
 20
132.6083787326189
 30
0.0
 10
178.4663797117313
 20
132.734931618443
 30
0.0
 10
178.4761484111342
 20
132.8615605729735
 30
0.0
 10
178.4832483084104
 20
132.9881384075312
 30
0.0
 10
178.4875843048495
 20
133.114759638539
 30
0.0
 10
178.4890612917475
 20
133.2413656943664
 30
0.0
 10
178.487578322625
 20
133.3679716666268
 30
0.0
 10
178.4832425506343
 20
133.4945922970758
 30
0.0
 10
178.4761553382355
 20
133.6211696646517
 30
0.0
 10
178.4664179812225
 20
133.7477971805293
 30
0.0
 10
178.4541406250582
 20
133.8743495574385
 30
0.0
 10
178.4394136696006
 20
134.0009801622158
 30
0.0
 10
178.4223592057381
 20
134.1275126470867
 30
0.0
 10
178.403055794883
 20
134.254136614536
 30
0.0
 10
178.3816392394691
 20
134.3806409937771
 30
0.0
 10
178.3583409917405
 20
134.5072332713845
 30
0.0
 10
178.33346414082
 20
134.6337253595152
 30
0.0
 10
178.3072387548156
 20
134.7602939924382
 30
0.0
 10
178.2799642146898
 20
134.88678933277
 30
0.0
 10
178.2518789787669
 20
135.0133346895286
 30
0.0
 10
178.2232697938075
 20
135.1398413872131
 30
0.0
 10
178.1943916140715
 20
135.2663657508436
 30
0.0
 10
178.1655134343358
 20
135.3928901144742
 30
0.0
 10
178.1369042493763
 20
135.5193968121587
 30
0.0
 10
178.1088190134534
 20
135.6459421689174
 30
0.0
 10
178.0815444733278
 20
135.7724375092492
 30
0.0
 10
178.0553190873232
 20
135.899006142172
 30
0.0
 10
178.0304422364027
 20
136.0254982303027
 30
0.0
 10
178.0071439886742
 20
136.1520905079103
 30
0.0
 10
177.9857274332605
 20
136.2785948871513
 30
0.0
 10
177.9664240224049
 20
136.4052188546006
 30
0.0
 10
177.9493695585426
 20
136.5317513394715
 30
0.0
 10
177.9346426030852
 20
136.6583819442489
 30
0.0
 10
177.9223652469207
 20
136.784934321158
 30
0.0
 10
177.9126278899077
 20
136.9115618370356
 30
0.0
 10
177.9055406775086
 20
137.0381392046114
 30
0.0
 10
177.9012049055182
 20
137.1647598350606
 30
0.0
 10
177.8997219363955
 20
137.2913658073208
 30
0.0
 10
177.9011989232936
 20
137.4179718631483
 30
0.0
 10
177.9055349197325
 20
137.5445930941562
 30
0.0
 10
177.9126348170085
 20
137.6711709287137
 30
0.0
 10
177.9224035164114
 20
137.7977998832444
 30
0.0
 10
177.9347370177413
 20
137.9243527690683
 30
0.0
 10
177.9495513400906
 20
138.0509857474044
 30
0.0
 10
177.9667301311076
 20
138.1775184829024
 30
0.0
 10
177.986201540026
 20
138.304143795578
 30
0.0
 10
178.0078343738488
 20
138.4306438949745
 30
0.0
 10
178.0313559198863
 20
138.5572296605865
 30
0.0
 10
178.056420782136
 20
138.6837163579925
 30
0.0
 10
178.0827559907109
 20
138.8102742082909
 30
0.0
 10
178.1100224875216
 20
138.9367666806188
 30
0.0
 10
178.1379355189776
 20
139.0632982462892
 30
0.0
 10
178.1661725362173
 20
139.1898059376888
 30
0.0
 10
178.1850153290275
 20
139.2741724681449
 30
0.0
 10
178.1943916140717
 20
139.3163657508437
 30
0.0
 11
178.1943916140717
 21
131.2163657508437
 31
0.0
 11
178.2226088578181
 21
131.3429260853312
 31
0.0
 11
178.2508065977619
 21
131.4694907508437
 31
0.0
 11
178.2786602516386
 21
131.5959871525962
 31
0.0
 11
178.3059042869254
 21
131.7226157508436
 31
0.0
 11
178.3321624715484
 21
131.8490564346847
 31
0.0
 11
178.3572137887003
 21
131.9757407508437
 31
0.0
 11
178.3806473517306
 21
132.1021423581547
 31
0.0
 11
178.4022642102252
 21
132.2288657508436
 31
0.0
 11
178.421682106684
 21
132.3552671802957
 31
0.0
 11
178.438867654387
 21
132.4819907508437
 31
0.0
 11
178.4536399714632
 21
132.608422774569
 31
0.0
 11
178.4659682070669
 21
132.7351157508437
 31
0.0
 11
178.4757072801247
 21
132.8615904438499
 31
0.0
 11
178.4827929498944
 21
132.9882407508437
 31
0.0
 11
178.4871092732402
 21
133.1147710382271
 31
0.0
 11
178.488568964499
 21
133.2413657508437
 31
0.0
 11
178.4871043214054
 21
133.3679603914465
 31
0.0
 11
178.4827892326065
 21
133.4944907508437
 31
0.0
 11
178.4757172748088
 21
133.6211401887151
 31
0.0
 11
178.4660103363296
 21
133.7476157508436
 31
0.0
 11
178.4537394329822
 21
133.8743063995905
 31
0.0
 11
178.4390547578765
 21
134.0007407508437
 31
0.0
 11
178.4219951744606
 21
134.1274600235984
 31
0.0
 11
178.4027449794562
 21
134.2538657508437
 31
0.0
 11
178.3813387098682
 21
134.380587171353
 31
0.0
 11
178.3581218911488
 21
134.5069907508436
 31
0.0
 11
178.3332517027945
 21
134.6336819418144
 31
0.0
 11
178.3071000145225
 21
134.7601157508437
 31
0.0
 11
178.2798380221969
 21
134.8867613890127
 31
0.0
 11
178.2518122790169
 21
135.0132407508436
 31
0.0
 11
178.2232287877408
 21
135.1398319352087
 31
0.0
 11
178.1943916140717
 21
135.2663657508436
 31
0.0
 11
178.1655544404024
 21
135.3928995664785
 31
0.0
 11
178.1369709491264
 21
135.5194907508437
 31
0.0
 11
178.1089452059463
 21
135.6459701126747
 31
0.0
 11
178.0816832136207
 21
135.7726157508436
 31
0.0
 11
178.0555315253487
 21
135.8990495598729
 31
0.0
 11
178.0306613369945
 21
136.0257407508436
 31
0.0
 11
178.0074445182751
 21
136.1521443303343
 31
0.0
 11
177.9860382486872
 21
136.2788657508438
 31
0.0
 11
177.9667880536826
 21
136.4052714780888
 31
0.0
 11
177.9497284702667
 21
136.5319907508437
 31
0.0
 11
177.9350437951611
 21
136.6584251020968
 31
0.0
 11
177.9227728918136
 21
136.7851157508436
 31
0.0
 11
177.9130659533343
 21
136.9115913129722
 31
0.0
 11
177.9059939955365
 21
137.0382407508436
 31
0.0
 11
177.9016789067377
 21
137.1647711102409
 31
0.0
 11
177.9002142636441
 21
137.2913657508436
 31
0.0
 11
177.9016739549028
 21
137.4179604634603
 31
0.0
 11
177.9059902782485
 21
137.5444907508436
 31
0.0
 11
177.9130759480181
 21
137.6711410578375
 31
0.0
 11
177.9228150210758
 21
137.7976157508437
 31
0.0
 11
177.9351432566796
 21
137.9243087271183
 31
0.0
 11
177.9499155737555
 21
138.0507407508436
 31
0.0
 11
177.9671011214584
 21
138.1774643213917
 31
0.0
 11
177.9865190179174
 21
138.3038657508437
 31
0.0
 11
178.0081358764121
 21
138.4305891435328
 31
0.0
 11
178.0315694394426
 21
138.5569907508438
 31
0.0
 11
178.0566207565943
 21
138.6836750670026
 31
0.0
 11
178.0828789412175
 21
138.8101157508437
 31
0.0
 11
178.1101229765044
 21
138.9367443490912
 31
0.0
 11
178.1379766303812
 21
139.0632407508437
 31
0.0
 11
178.166174370325
 21
139.1898054163562
 31
0.0
 11
178.1943916140717
 21
139.3163657508437
 31
0.0
  0
SPLINE
  5
651C
330
1E
100
AcDbEntity
  8
24
  6
CONTINOUS
100
AcDbSpline
210
0.0
220
0.0
230
1.0
 70
     8
 71
     3
 72
    79
 73
    75
 74
    73
 42
0.0000000001
 43
0.0000000001
 44
0.000001
 12
0.216930457819766
 22
0.9761870601837062
 32
0.0
 13
0.2169304578196485
 23
0.9761870601837323
 33
0.0
 40
0.0
 40
0.0
 40
0.0
 40
0.0
 40
0.1152356051514049
 40
0.230471322857068
 40
0.3455886675656575
 40
0.4607057863457092
 40
0.5755618983185502
 40
0.6904175998101421
 40
0.8048923384914283
 40
0.9193664704322623
 40
1.033380092391126
 40
1.147393109798348
 40
1.260928734878986
 40
1.374463629316245
 40
1.487555640969534
 40
1.600646799382724
 40
1.713383730785946
 40
1.826119700542913
 40
1.938653292388643
 40
2.051187089729607
 40
2.163714936530522
 40
2.276243025951324
 40
2.388953957463594
 40
2.50166515926057
 40
2.61473132571182
 40
2.727797781106259
 40
2.841356917840318
 40
2.954917317288892
 40
3.068999216327162
 40
3.183082075707255
 40
3.29762785588288
 40
3.412174309172398
 40
3.527067813493209
 40
3.641961722514658
 40
3.757061948391199
 40
3.872162289022309
 40
3.987362235385462
 40
4.102562152992943
 40
4.217762070600722
 40
4.332962016963822
 40
4.448062357594932
 40
4.5631625834715
 40
4.678056492492922
 40
4.792949996813677
 40
4.907496450103223
 40
5.022042230278876
 40
5.136125089658997
 40
5.250206988697221
 40
5.363767388145811
 40
5.47732652487987
 40
5.590392980274325
 40
5.703459146725555
 40
5.816170348522551
 40
5.928881280034878
 40
6.041409369455592
 40
6.153937216256449
 40
6.266471013597442
 40
6.379004605443205
 40
6.491740575200143
 40
6.604477506603365
 40
6.717568665016565
 40
6.830660676669968
 40
6.944195571107072
 40
7.057731196187794
 40
7.171744213594942
 40
7.285757835553825
 40
7.400231967494694
 40
7.514706706176114
 40
7.629562407667622
 40
7.744418519640463
 40
7.859535638420463
 40
7.974652983129136
 40
8.089888700834798
 40
8.205124305986119
 40
8.205124305986119
 40
8.205124305986119
 40
8.205124305986119
 10
177.2943916140716
 20
131.2163657508437
 30
0.0
 10
177.3027243182658
 20
131.2538629197174
 30
0.0
 10
177.3194135029913
 20
131.3288520060075
 30
0.0
 10
177.3443471246933
 20
131.4413175267535
 30
0.0
 10
177.3690078337743
 20
131.5538029136051
 30
0.0
 10
177.3932073639925
 20
131.6662592172834
 30
0.0
 10
177.4167838272112
 20
131.7787590075081
 30
0.0
 10
177.4395389862617
 20
131.8912097527874
 30
0.0
 10
177.4613186297345
 20
132.0037243116933
 30
0.0
 10
177.4819190969664
 20
132.1161760143064
 30
0.0
 10
177.5011892237182
 20
132.2287077679298
 30
0.0
 10
177.5189680927472
 20
132.3411686184192
 30
0.0
 10
177.535145791504
 20
132.453710358529
 30
0.0
 10
177.5495661574905
 20
132.5661819667069
 30
0.0
 10
177.5621132697785
 20
132.6787295901351
 30
0.0
 10
177.5726382986337
 20
132.791218009048
 30
0.0
 10
177.5810168273704
 20
132.9037684383071
 30
0.0
 10
177.5871086669389
 20
133.0162807700209
 30
0.0
 10
177.5907807094868
 20
133.1288306619115
 30
0.0
 10
177.5920663855581
 20
133.2413633582095
 30
0.0
 10
177.5909952548555
 20
133.3538962820912
 30
0.0
 10
177.5876028888524
 20
133.4664419794399
 30
0.0
 10
177.5819202674971
 20
133.5789562787975
 30
0.0
 10
177.5739789686834
 20
133.6915132919037
 30
0.0
 10
177.5638163509415
 20
133.8040102611165
 30
0.0
 10
177.5514559842007
 20
133.916571212105
 30
0.0
 10
177.5369467808604
 20
134.0290407428707
 30
0.0
 10
177.5204805132201
 20
134.1415811126598
 30
0.0
 10
177.5022928883309
 20
134.2540319709698
 30
0.0
 10
177.4825682391485
 20
134.3665559284427
 30
0.0
 10
177.4615458842615
 20
134.4790014219509
 30
0.0
 10
177.4394098667512
 20
134.5915077142666
 30
0.0
 10
177.4163962399441
 20
134.7039556906634
 30
0.0
 10
177.3926939936953
 20
134.8164487586857
 30
0.0
 10
177.3685304629839
 20
134.928913940796
 30
0.0
 10
177.344010225963
 20
135.0414062036422
 30
0.0
 10
177.3192594819009
 20
135.1538819176058
 30
0.0
 10
177.2943916140721
 20
135.2663657508438
 30
0.0
 10
177.2695237462406
 20
135.3788495840813
 30
0.0
 10
177.2447730021795
 20
135.4913252980451
 30
0.0
 10
177.2202527651583
 20
135.6038175608913
 30
0.0
 10
177.196089234447
 20
135.7162827430015
 30
0.0
 10
177.1723869881981
 20
135.828775811024
 30
0.0
 10
177.149373361391
 20
135.9412237874207
 30
0.0
 10
177.1272373438808
 20
136.0537300797364
 30
0.0
 10
177.1062149889937
 20
136.1661755732445
 30
0.0
 10
177.0864903398114
 20
136.2786995307176
 30
0.0
 10
177.0683027149224
 20
136.3911503890275
 30
0.0
 10
177.0518364472818
 20
136.5036907588166
 30
0.0
 10
177.0373272439416
 20
136.6161602895824
 30
0.0
 10
177.0249668772008
 20
136.7287212405709
 30
0.0
 10
177.0148042594593
 20
136.8412182097837
 30
0.0
 10
177.0068629606456
 20
136.9537752228898
 30
0.0
 10
177.0011803392903
 20
137.0662895222474
 30
0.0
 10
176.9977879732875
 20
137.1788352195962
 30
0.0
 10
176.9967168425849
 20
137.2913681434779
 30
0.0
 10
176.998002518656
 20
137.4039008397758
 30
0.0
 10
177.0016745612041
 20
137.5164507316664
 30
0.0
 10
177.0077664007727
 20
137.6289630633802
 30
0.0
 10
177.0161449295093
 20
137.7415134926394
 30
0.0
 10
177.0266699583648
 20
137.8540019115523
 30
0.0
 10
177.0392170706525
 20
137.9665495349804
 30
0.0
 10
177.0536374366393
 20
138.0790211431583
 30
0.0
 10
177.0698151353961
 20
138.1915628832681
 30
0.0
 10
177.0875940044249
 20
138.3040237337575
 30
0.0
 10
177.106864131177
 20
138.4165554873809
 30
0.0
 10
177.1274645984086
 20
138.5290071899941
 30
0.0
 10
177.1492442418815
 20
138.6415217488999
 30
0.0
 10
177.1719994009321
 20
138.7539724941792
 30
0.0
 10
177.1955758641508
 20
138.8664722844039
 30
0.0
 10
177.2197753943689
 20
138.9789285880823
 30
0.0
 10
177.2444361034499
 20
139.0914139749339
 30
0.0
 10
177.2693697251518
 20
139.2038794956798
 30
0.0
 10
177.2860589098774
 20
139.2788685819699
 30
0.0
 10
177.2943916140716
 20
139.3163657508437
 30
0.0
 11
177.2943916140716
 21
131.2163657508437
 31
0.0
 11
177.3193992236533
 21
131.3288553164216
 31
0.0
 11
177.3443125504186
 21
131.4413657508437
 31
0.0
 11
177.3689364472059
 21
131.5538187094515
 31
0.0
 11
177.3931256126541
 21
131.6663657508437
 31
0.0
 11
177.4166551468847
 21
131.7787858947724
 31
0.0
 11
177.4394061805707
 21
131.8913657508438
 31
0.0
 11
177.461131776306
 21
132.0037599932062
 31
0.0
 11
177.4817296339606
 21
132.1163657508437
 31
0.0
 11
177.5009501787349
 21
132.228747592007
 31
0.0
 11
177.5187299445116
 21
132.3413657508437
 31
0.0
 11
177.5348608439177
 21
132.453749619417
 31
0.0
 11
177.5492754514907
 21
132.5663657508437
 31
0.0
 11
177.5617818490363
 21
132.6787641265598
 31
0.0
 11
177.5722930860605
 21
132.7913657508436
 31
0.0
 11
177.5806388046024
 21
132.9037933564165
 31
0.0
 11
177.5867097793832
 21
133.0163657508437
 31
0.0
 11
177.5903843487754
 21
133.1288393419497
 31
0.0
 11
177.5916745844877
 21
133.2413657508437
 31
0.0
 11
177.5906096843772
 21
133.3538885669055
 31
0.0
 11
177.5872250418706
 21
133.4663657508437
 31
0.0
 11
177.5815467239892
 21
133.5789335639391
 31
0.0
 11
177.5736208138953
 21
133.6913657508437
 31
0.0
 11
177.5634558274226
 21
133.8039740661341
 31
0.0
 11
177.5511215629252
 21
133.9163657508436
 31
0.0
 11
177.5366293603333
 21
134.028996364111
 31
0.0
 11
177.520225501792
 21
134.1413657508436
 31
0.0
 11
177.5020468379375
 21
134.2539899803826
 31
0.0
 11
177.4823850451992
 21
134.3663657508437
 31
0.0
 11
177.4613697622316
 21
134.4789672365505
 31
0.0
 11
177.4392911583189
 21
134.5913657508436
 31
0.0
 11
177.4162887207578
 21
134.7039330901168
 31
0.0
 11
177.3926348063228
 21
134.8163657508437
 31
0.0
 11
177.3684755966765
 21
134.9289019450317
 31
0.0
 11
177.3439810851829
 21
135.0413657508436
 31
0.0
 11
177.3192421368777
 21
135.1538780268755
 31
0.0
 11
177.2943916140711
 21
135.2663657508436
 31
0.0
 11
177.2695410912644
 21
135.3788534748119
 31
0.0
 11
177.2448021429594
 21
135.4913657508437
 31
0.0
 11
177.2203076314658
 21
135.6038295566556
 31
0.0
 11
177.1961484218195
 21
135.7163657508437
 31
0.0
 11
177.1724945073844
 21
135.8287984115705
 31
0.0
 11
177.1494920698233
 21
135.9413657508436
 31
0.0
 11
177.1274134659106
 21
136.0537642651367
 31
0.0
 11
177.106398182943
 21
136.1663657508436
 31
0.0
 11
177.0867363902048
 21
136.2787415213048
 31
0.0
 11
177.0685577263503
 21
136.3913657508436
 31
0.0
 11
177.052153867809
 21
136.5037351375764
 31
0.0
 11
177.0376616652171
 21
136.6163657508437
 31
0.0
 11
177.0253274007197
 21
136.7287574355533
 31
0.0
 11
177.0151624142473
 21
136.8413657508437
 31
0.0
 11
177.0072365041535
 21
136.9537979377483
 31
0.0
 11
177.0015581862721
 21
137.0663657508438
 31
0.0
 11
176.9981735437657
 21
137.1788429347818
 31
0.0
 11
176.9971086436553
 21
137.2913657508436
 31
0.0
 11
176.9983988793675
 21
137.4038921597376
 31
0.0
 11
177.0020734487599
 21
137.5163657508437
 31
0.0
 11
177.0081444235406
 21
137.6289381452708
 31
0.0
 11
177.0164901420826
 21
137.7413657508437
 31
0.0
 11
177.0270013791068
 21
137.8539673751275
 31
0.0
 11
177.0395077766524
 21
137.9663657508437
 31
0.0
 11
177.0539223842256
 21
138.0789818822703
 31
0.0
 11
177.0700532836317
 21
138.1913657508437
 31
0.0
 11
177.0878330494083
 21
138.3039839096802
 31
0.0
 11
177.1070535941827
 21
138.4163657508436
 31
0.0
 11
177.1276514518372
 21
138.5289715084811
 31
0.0
 11
177.1493770475726
 21
138.6413657508437
 31
0.0
 11
177.1721280812586
 21
138.753945606915
 31
0.0
 11
177.1956576154892
 21
138.8663657508437
 31
0.0
 11
177.2198467809373
 21
138.9789127922358
 31
0.0
 11
177.2444706777246
 21
139.0913657508437
 31
0.0
 11
177.2693840044899
 21
139.2038761852658
 31
0.0
 11
177.2943916140716
 21
139.3163657508437
 31
0.0
  0
LINE
  5
651D
330
1E
100
AcDbEntity
  8
0
  6
CONTINUOUS
100
AcDbLine
 10
182.6943919704597
 20
142.2663655184374
 30
0.0
 11
182.6943919704597
 21
127.2663655184374
 31
0.0
  0
LINE
  5
651E
330
1E
100
AcDbEntity
  8
24
  6
CONTINOUS
100
AcDbLine
 10
192.6943919704597
 20
139.7663655184374
 30
0.0
 11
192.6943919704597
 21
130.7663655184374
 31
0.0
  0
LINE
  5
651F
330
1E
100
AcDbEntity
  8
24
  6
CONTINOUS
100
AcDbLine
 10
192.6943919704597
 20
133.1232075184374
 30
0.0
 11
195.6943919704597
 21
136.1232075184374
 31
0.0
  0
LINE
  5
6520
330
1E
100
AcDbEntity
  8
0
  6
CONTINUOUS
100
AcDbLine
 10
181.1943919704597
 20
128.2057055184374
 30
0.0
 11
182.6943919704597
 21
128.2057055184374
 31
0.0
  0
LINE
  5
6521
330
1E
100
AcDbEntity
  8
24
  6
CONTINOUS
100
AcDbLine
 10
182.6943919704597
 20
132.7663655184374
 30
0.0
 11
177.0002139704596
 21
132.7663655184374
 31
0.0
  0
LINE
  5
6522
330
1E
100
AcDbEntity
  8
24
  6
CONTINOUS
100
AcDbLine
 10
177.0002139704596
 20
133.2663655184374
 30
0.0
 11
177.5916399704597
 21
133.2663655184374
 31
0.0
  0
LINE
  5
6523
330
1E
100
AcDbEntity
  8
24
  6
CONTINOUS
100
AcDbLine
 10
177.2943919704596
 20
131.2163655184374
 30
0.0
 11
178.1943919704597
 21
131.2163655184374
 31
0.0
  0
ARC
  5
6524
330
1E
100
AcDbEntity
  8
24
  6
CONTINOUS
100
AcDbCircle
 10
175.7344869704596
 20
132.3663655184374
 30
0.0
 40
1.6
100
AcDbArc
 50
197.0334099999991
 51
270.0
  0
LINE
  5
6525
330
1E
100
AcDbEntity
  8
24
  6
CONTINOUS
100
AcDbLine
 10
175.7344869704596
 20
130.7663655184374
 30
0.0
 11
177.0002139704596
 21
130.7663655184374
 31
0.0
  0
SPLINE
  5
6526
330
1E
100
AcDbEntity
  8
24
  6
CONTINOUS
100
AcDbSpline
210
0.0
220
0.0
230
1.0
 70
     8
 71
     3
 72
    55
 73
    51
 74
    49
 42
0.0000000001
 43
0.0000000001
 44
0.000001
 12
-0.2169304578160424
 22
0.9761870601845336
 32
0.0
 13
0.0046239517060918
 23
0.9999893094781661
 33
0.0
 40
0.0
 40
0.0
 40
0.0
 40
0.0
 40
0.0437569220238802
 40
0.0875135305951314
 40
0.1312755701087971
 40
0.1750376094503562
 40
0.218793824145049
 40
0.2625500362757249
 40
0.3062892585533372
 40
0.3500284758650455
 40
0.3937398216690676
 40
0.4374511601531584
 40
0.481124257457098
 40
0.5247973450301843
 40
0.5684224514579919
 40
0.6120475457281093
 40
0.6556157063047701
 40
0.699183852282803
 40
0.7426877102869477
 40
0.7861915579188793
 40
0.8296272735879842
 40
0.8730629775103466
 40
0.9164281475954428
 40
0.9597933047015697
 40
1.003086366766069
 40
1.04637941469406
 40
1.089599731301274
 40
1.1328200328904
 40
1.175967996175499
 40
1.219115943425289
 40
1.262193000575659
 40
1.3052700407849
 40
1.348278752327459
 40
1.391287446239252
 40
1.434231893442854
 40
1.477176333852259
 40
1.52006293837589
 40
1.562949535944112
 40
1.60578557612624
 40
1.648621609266651
 40
1.691414829409679
 40
1.734208042473192
 40
1.776966654796341
 40
1.819725259758327
 40
1.862457945136826
 40
1.905190623241589
 40
1.947906558642013
 40
1.990622487063942
 40
2.033331354958188
 40
2.076039743334782
 40
2.076039743334782
 40
2.076039743334782
 40
2.076039743334782
 10
177.2943916140716
 20
131.2163657508437
 30
0.0
 10
177.2912275443625
 20
131.2306040645347
 30
0.0
 10
177.2848886095439
 20
131.2590781868384
 30
0.0
 10
177.2753530515031
 20
131.3017851138224
 30
0.0
 10
177.2658059371975
 20
131.3444912054275
 30
0.0
 10
177.2562590972607
 20
131.3871972239591
 30
0.0
 10
177.2467254672639
 20
131.4299042043971
 30
0.0
 10
177.2372185344698
 20
131.4726093464748
 30
0.0
 10
177.2277502026641
 20
131.5153172639469
 30
0.0
 10
177.2183348172725
 20
131.5580215757326
 30
0.0
 10
177.2089834849085
 20
131.6007304509742
 30
0.0
 10
177.199711182592
 20
131.6434340078206
 30
0.0
 10
177.1905281693582
 20
131.6861438190227
 30
0.0
 10
177.1814501031569
 20
131.7288466840684
 30
0.0
 10
177.1724866038107
 20
131.7715574056303
 30
0.0
 10
177.1636539200468
 20
131.8142596690226
 30
0.0
 10
177.1549611346347
 20
131.8569712681537
 30
0.0
 10
177.1464249340576
 20
131.8996732423747
 30
0.0
 10
177.138053992757
 20
131.9423860875348
 30
0.0
 10
177.1298602926302
 20
131.9850883491829
 30
0.0
 10
177.1218473846174
 20
132.0278018015057
 30
0.0
 10
177.1140272484448
 20
132.0705039852229
 30
0.0
 10
177.1064034266496
 20
132.1132177750379
 30
0.0
 10
177.0989878261478
 20
132.1559199609709
 30
0.0
 10
177.0917841021448
 20
132.1986340326269
 30
0.0
 10
177.0848040096056
 20
132.2413363119403
 30
0.0
 10
177.0780513942705
 20
132.2840506119598
 30
0.0
 10
177.0715376612062
 20
132.3267530867669
 30
0.0
 10
177.065266800284
 20
132.3694675353239
 30
0.0
 10
177.0592499158556
 20
132.4121702958196
 30
0.0
 10
177.0534913299584
 20
132.4548848153726
 30
0.0
 10
177.0480017853404
 20
132.4975879675585
 30
0.0
 10
177.0427859934931
 20
132.540302478636
 30
0.0
 10
177.0378542704541
 20
132.5830062472956
 30
0.0
 10
177.0332117701534
 20
132.6257208873377
 30
0.0
 10
177.028863345812
 20
132.6684255649962
 30
0.0
 10
177.024809645902
 20
132.7111398628697
 30
0.0
 10
177.0210550056583
 20
132.7538452211207
 30
0.0
 10
177.0176005460524
 20
132.7965590026636
 30
0.0
 10
177.0144501406709
 20
132.8392650827293
 30
0.0
 10
177.0116053458924
 20
132.8819783075924
 30
0.0
 10
177.0090696281812
 20
132.9246851498022
 30
0.0
 10
177.0068449210284
 20
132.9673977747325
 30
0.0
 10
177.0049344636559
 20
133.0101054202895
 30
0.0
 10
177.0033406212329
 20
133.0528174092337
 30
0.0
 10
177.0020663458797
 20
133.095525905101
 30
0.0
 10
177.0011142914172
 20
133.1382372153268
 30
0.0
 10
177.0004870116396
 20
133.1809466095845
 30
0.0
 10
177.0001880809499
 20
133.2236570222202
 30
0.0
 10
177.0002074021205
 20
133.2521297735765
 30
0.0
 10
177.0002732292956
 20
133.2663657508437
 30
0.0
 11
177.2943916140716
 21
131.2163657508437
 31
0.0
 11
177.2848832666985
 21
131.2590767797723
 31
0.0
 11
177.2753507237057
 21
131.3017824175104
 31
0.0
 11
177.2658051191221
 21
131.3444907027158
 31
0.0
 11
177.2562599454051
 21
131.3871990841771
 31
0.0
 11
177.2467287806554
 21
131.4299046263679
 31
0.0
 11
177.2372226739223
 21
131.4726157508439
 31
0.0
 11
177.2277576271481
 21
131.5153185912746
 31
0.0
 11
177.2183423040095
 21
131.5580324175106
 31
0.0
 11
177.2089950105721
 21
131.6007326515914
 31
0.0
 11
177.1997220588458
 21
131.6434490841774
 31
0.0
 11
177.1905437938216
 21
131.6861468477341
 31
0.0
 11
177.1814644753185
 21
131.7288657508442
 31
0.0
 11
177.1725063507165
 21
131.7715612076878
 31
0.0
 11
177.1636719187412
 21
131.8142824175109
 31
0.0
 11
177.1549850323492
 21
131.8569757742273
 31
0.0
 11
177.146446754428
 21
131.8996990841775
 31
0.0
 11
177.1380812637778
 21
131.9423910536198
 31
0.0
 11
177.129884617003
 21
131.9851157508442
 31
0.0
 11
177.1218772402546
 21
132.0278070067028
 31
0.0
 11
177.1140542183293
 21
132.0705324175107
 31
0.0
 11
177.1064358866775
 21
132.1132231547312
 31
0.0
 11
177.0990175395796
 21
132.1559490841772
 31
0.0
 11
177.0918191854001
 21
132.1986395165668
 31
0.0
 11
177.0848365619273
 21
132.2413657508438
 31
0.0
 11
177.0780890985757
 21
132.2840561205134
 31
0.0
 11
177.0715731028575
 21
132.3267824175105
 31
0.0
 11
177.0653071216132
 21
132.3694729835311
 31
0.0
 11
177.0592883251047
 21
132.4121990841772
 31
0.0
 11
177.0535342822132
 21
132.4548901148028
 31
0.0
 11
177.0480432277158
 21
132.497615750844
 31
0.0
 11
177.0428315879021
 21
132.5403075338395
 31
0.0
 11
177.0378988097378
 21
132.5830324175107
 31
0.0
 11
177.0332591888934
 21
132.6257255042222
 31
0.0
 11
177.0289093814119
 21
132.6684490841774
 31
0.0
 11
177.0248580553496
 21
132.7111439049014
 31
0.0
 11
177.0211024977581
 21
132.7538657508442
 31
0.0
 11
177.017649935296
 21
132.7965624276272
 31
0.0
 11
177.0144990249914
 21
132.8392824175108
 31
0.0
 11
177.0116557013991
 21
132.8819810734515
 31
0.0
 11
177.009119829326
 21
132.9246990841774
 31
0.0
 11
177.0068962463809
 21
132.9673998405892
 31
0.0
 11
177.0049859345915
 21
133.010115750844
 31
0.0
 11
177.0033929160238
 21
133.0528187327481
 31
0.0
 11
177.0021189950741
 21
133.0955324175105
 31
0.0
 11
177.0011675096792
 21
133.1382377539587
 31
0.0
 11
177.0005408226751
 21
133.180949084177
 31
0.0
 11
177.0002418468941
 21
133.223656903583
 31
0.0
 11
177.0002732292956
 21
133.2663657508437
 31
0.0
  0
LINE
  5
6527
330
1E
100
AcDbEntity
  8
24
  6
CONTINOUS
100
AcDbLine
 10
181.1943919704597
 20
129.2663655184374
 30
0.0
 11
180.4943919704596
 21
132.0663655184374
 31
0.0
  0
LINE
  5
6528
330
1E
100
AcDbEntity
  8
24
  6
CONTINOUS
100
AcDbLine
 10
178.4943919704596
 20
132.0663655184374
 30
0.0
 11
179.1943919704597
 21
129.2663655184374
 31
0.0
  0
LINE
  5
6529
330
1E
100
AcDbEntity
  8
24
  6
CONTINOUS
100
AcDbLine
 10
178.4943919704596
 20
129.2663655184374
 30
0.0
 11
181.1943919704597
 21
129.2663655184374
 31
0.0
  0
LINE
  5
652A
330
1E
100
AcDbEntity
  8
24
  6
CONTINOUS
100
AcDbLine
 10
178.4943919704596
 20
132.2663655184374
 30
0.0
 11
178.5943919704596
 21
132.2663655184374
 31
0.0
  0
ARC
  5
652B
330
1E
100
AcDbEntity
  8
24
  6
CONTINOUS
100
AcDbCircle
 10
178.5943919704596
 20
132.5663655184374
 30
0.0
 40
0.3
100
AcDbArc
 50
270.0
 51
0.0
  0
LINE
  5
652C
330
1E
100
AcDbEntity
  8
24
  6
CONTINOUS
100
AcDbLine
 10
180.8943919704596
 20
131.8092585184374
 30
0.0
 11
180.8943919704596
 21
130.4663655184374
 31
0.0
  0
LINE
  5
652D
330
1E
100
AcDbEntity
  8
24
  6
CONTINOUS
100
AcDbLine
 10
180.4943919704596
 20
132.2663655184374
 30
0.0
 11
180.5943919704597
 21
132.2663655184374
 31
0.0
  0
LINE
  5
652E
330
1E
100
AcDbEntity
  8
24
  6
CONTINOUS
100
AcDbLine
 10
180.7479449704596
 20
132.1628125184374
 30
0.0
 11
180.6407829704596
 21
132.2699745184374
 31
0.0
  0
LINE
  5
652F
330
1E
100
AcDbEntity
  8
24
  6
CONTINOUS
100
AcDbLine
 10
180.4943919704596
 20
132.0663655184374
 30
0.0
 11
180.4943919704596
 21
132.2663655184374
 31
0.0
  0
ARC
  5
6530
330
1E
100
AcDbEntity
  8
24
  6
CONTINOUS
100
AcDbCircle
 10
180.5943919704597
 20
132.5663655184374
 30
0.0
 40
0.3
100
AcDbArc
 50
270.0
 51
0.0
  0
ARC
  5
6531
330
1E
100
AcDbEntity
  8
24
  6
CONTINOUS
100
AcDbCircle
 10
180.3943919704596
 20
131.8092585184374
 30
0.0
 40
0.5
100
AcDbArc
 50
0.0
 51
45.0
  0
LINE
  5
6532
330
1E
100
AcDbEntity
  8
0
  6
CONTINUOUS
100
AcDbLine
 10
195.6943919704597
 20
133.2947775184374
 30
0.0
 11
189.6659799704595
 21
127.2663655184374
 31
0.0
  0
LINE
  5
6533
330
1E
100
AcDbEntity
  8
24
  6
CONTINOUS
100
AcDbLine
 10
182.6943919704597
 20
130.7663655184374
 30
0.0
 11
192.6943919704597
 21
130.7663655184374
 31
0.0
  0
LINE
  5
6534
330
1E
100
AcDbEntity
  8
24
  6
CONTINOUS
100
AcDbLine
 10
182.6943919704597
 20
133.2663655184374
 30
0.0
 11
190.0002149704596
 21
133.2663655184374
 31
0.0
  0
LINE
  5
6535
330
1E
100
AcDbEntity
  8
24
  6
CONTINOUS
100
AcDbLine
 10
182.6943919704597
 20
132.7663655184374
 30
0.0
 11
190.0002149704596
 21
132.7663655184374
 31
0.0
  0
LINE
  5
6536
330
1E
100
AcDbEntity
  8
0
  6
CONTINUOUS
100
AcDbLine
 10
187.5091199704596
 20
130.7663655184374
 30
0.0
 11
184.0091189704596
 21
127.2663655184374
 31
0.0
  0
LINE
  5
6537
330
1E
100
AcDbEntity
  8
24
  6
CONTINOUS
100
AcDbLine
 10
184.6806889704596
 20
130.7663655184374
 30
0.0
 11
182.6943919704597
 21
128.7800675184374
 31
0.0
  0
LINE
  5
6538
330
1E
100
AcDbEntity
  8
0
  6
CONTINUOUS
100
AcDbLine
 10
190.3375499704596
 20
130.7663655184374
 30
0.0
 11
186.8375499704596
 21
127.2663655184374
 31
0.0
  0
LINE
  5
6539
330
1E
100
AcDbEntity
  8
0
  6
CONTINUOUS
100
AcDbLine
 10
195.6943919704597
 20
130.4663475184374
 30
0.0
 11
192.4944099704596
 21
127.2663655184374
 31
0.0
  0
LINE
  5
653A
330
1E
100
AcDbEntity
  8
0
  6
CONTINUOUS
100
AcDbLine
 10
198.3228409704597
 20
130.2663655184374
 30
0.0
 11
195.3228399704596
 21
127.2663655184374
 31
0.0
  0
LINE
  5
653B
330
1E
100
AcDbEntity
  8
0
  6
CENTER
100
AcDbLine
 10
166.8944029704596
 20
135.2663655184374
 30
0.0
 11
196.8944039704597
 21
135.2663655184374
 31
0.0
  0
LINE
  5
653C
330
1E
100
AcDbEntity
  8
24
  6
CONTINOUS
100
AcDbLine
 10
182.6943919704597
 20
137.7663655184374
 30
0.0
 11
177.0002139704596
 21
137.7663655184374
 31
0.0
  0
LINE
  5
653D
330
1E
100
AcDbEntity
  8
18
100
AcDbLine
 10
181.3669689704596
 20
142.2663655184374
 30
0.0
 11
184.3721719704596
 21
145.2715695184374
 31
0.0
  0
LINE
  5
653E
330
1E
100
AcDbEntity
  8
18
100
AcDbLine
 10
172.8816779704597
 20
142.2663655184374
 30
0.0
 11
175.8868819704596
 21
145.2715695184374
 31
0.0
  0
LINE
  5
653F
330
1E
100
AcDbEntity
  8
18
100
AcDbLine
 10
167.2248169704596
 20
142.2663655184374
 30
0.0
 11
170.2300209704596
 21
145.2715695184374
 31
0.0
  0
LINE
  5
6540
330
1E
100
AcDbEntity
  8
18
100
AcDbLine
 10
170.0532479704596
 20
142.2663655184374
 30
0.0
 11
173.0584509704597
 21
145.2715695184374
 31
0.0
  0
LINE
  5
6541
330
1E
100
AcDbEntity
  8
24
  6
CONTINOUS
100
AcDbLine
 10
177.2943919704596
 20
139.3163655184374
 30
0.0
 11
178.1943919704597
 21
139.3163655184374
 31
0.0
  0
ARC
  5
6542
330
1E
100
AcDbEntity
  8
24
  6
CONTINOUS
100
AcDbCircle
 10
175.7344869704596
 20
138.1663655184373
 30
0.0
 40
1.6
100
AcDbArc
 50
90.0
 51
162.9665900000007
  0
LINE
  5
6543
330
1E
100
AcDbEntity
  8
24
  6
CONTINOUS
100
AcDbLine
 10
177.0002139704596
 20
139.7663655184374
 30
0.0
 11
175.7344869704596
 21
139.7663655184374
 31
0.0
  0
LINE
  5
6544
330
1E
100
AcDbEntity
  8
24
  6
CONTINOUS
100
AcDbLine
 10
178.8943919704596
 20
136.5663655184374
 30
0.0
 11
178.8943919704596
 21
137.9663655184374
 31
0.0
  0
LINE
  5
6545
330
1E
100
AcDbEntity
  8
24
  6
CONTINOUS
100
AcDbLine
 10
180.8943919704596
 20
137.9663655184374
 30
0.0
 11
180.8943919704596
 21
135.9663655184374
 31
0.0
  0
SPLINE
  5
6546
330
1E
100
AcDbEntity
  8
24
  6
CONTINOUS
100
AcDbSpline
210
0.0
220
0.0
230
1.0
 70
     8
 71
     3
 72
    55
 73
    51
 74
    49
 42
0.0000000001
 43
0.0000000001
 44
0.000001
 12
0.0034274732673631
 22
0.9999941261962501
 32
0.0
 13
-0.2169304578161108
 23
0.9761870601845185
 33
0.0
 40
0.0
 40
0.0
 40
0.0
 40
0.0
 40
0.0427086049426755
 40
0.0854177080221229
 40
0.1281352723290847
 40
0.1708528366910554
 40
0.2135895949017242
 40
0.2563263532965072
 40
0.2990929617673927
 40
0.3418595701321567
 40
0.3846662484938283
 40
0.4274729470214588
 40
0.4703280074135278
 40
0.5131830885103263
 40
0.5560931903518192
 40
0.5990033122573751
 40
0.6419737794885129
 40
0.684944265765866
 40
0.7279791425818361
 40
0.7710140376812758
 40
0.8141161053717379
 40
0.8572181901295568
 40
0.9003890705753731
 40
0.9435599668249437
 40
0.9868002107146427
 40
1.03004046910193
 40
1.073349544004195
 40
1.116658633328749
 40
1.160034714256811
 40
1.203410808311474
 40
1.246851066592744
 40
1.29029133665778
 40
1.333792105760731
 40
1.37729288520736
 40
1.420849610856968
 40
1.464406346476274
 40
1.508013246268086
 40
1.551620154672188
 40
1.595270672544862
 40
1.638921197651842
 40
1.682608233658668
 40
1.726295275366327
 40
1.770011200883237
 40
1.813727130701576
 40
1.857463630821796
 40
1.901200133772521
 40
1.944948554768513
 40
1.988696977123447
 40
2.032448518077295
 40
2.076200740729718
 40
2.076200740729718
 40
2.076200740729718
 40
2.076200740729718
 10
178.4916353902147
 20
137.2663657508437
 30
0.0
 10
178.4916841844152
 20
137.2806018688706
 30
0.0
 10
178.4916671592677
 20
137.309074788639
 30
0.0
 10
178.4913043543153
 20
137.3517854288505
 30
0.0
 10
178.4906014924137
 20
137.3944948467602
 30
0.0
 10
178.4895597191599
 20
137.4372065513403
 30
0.0
 10
178.488179202654
 20
137.4799150529849
 30
0.0
 10
178.4864601531128
 20
137.5226276272868
 30
0.0
 10
178.4844031739396
 20
137.5653352218496
 30
0.0
 10
178.4820081386179
 20
137.6080485364601
 30
0.0
 10
178.4792760191036
 20
137.6507549953223
 30
0.0
 10
178.47621360996
 20
137.6934685773165
 30
0.0
 10
178.4728295970546
 20
137.7361740502497
 30
0.0
 10
178.4691303405707
 20
137.7788879482655
 30
0.0
 10
178.4651249724658
 20
137.8215926458031
 30
0.0
 10
178.4608194059345
 20
137.8643067600312
 30
0.0
 10
178.4562232199587
 20
137.9070108077019
 30
0.0
 10
178.4513418848401
 20
137.9497250392889
 30
0.0
 10
178.4461854136521
 20
137.9924285457979
 30
0.0
 10
178.4407590400799
 20
138.0351427913364
 30
0.0
 10
178.4350733606163
 20
138.0778458792639
 30
0.0
 10
178.4291332301357
 20
138.120560065169
 30
0.0
 10
178.4229495984258
 20
138.1632628476069
 30
0.0
 10
178.41652699467
 20
138.2059768982986
 30
0.0
 10
178.4098766634626
 20
138.24867947709
 30
0.0
 10
178.4030028751619
 20
138.2913932951254
 30
0.0
 10
178.3959171044003
 20
138.3340957085357
 30
0.0
 10
178.3886241994312
 20
138.376809150572
 30
0.0
 10
178.3811365306769
 20
138.4195115491789
 30
0.0
 10
178.3734588589712
 20
138.4622246072293
 30
0.0
 10
178.3656036018835
 20
138.5049271068137
 30
0.0
 10
178.3575755197847
 20
138.5476397281221
 30
0.0
 10
178.3493869876569
 20
138.5903424105802
 30
0.0
 10
178.3410428585253
 20
138.6330545050251
 30
0.0
 10
178.3325553829476
 20
138.6757573564277
 30
0.0
 10
178.3239306058973
 20
138.718468766527
 30
0.0
 10
178.3151815412848
 20
138.761171956891
 30
0.0
 10
178.3063145335811
 20
138.8038827324465
 30
0.0
 10
178.2973422631122
 20
138.8465863711683
 30
0.0
 10
178.2882714543021
 20
138.8892964859153
 30
0.0
 10
178.2791143715
 20
138.9320006317656
 30
0.0
 10
178.2698781938775
 20
138.9747100393466
 30
0.0
 10
178.2605747070594
 20
139.0174146875408
 30
0.0
 10
178.251212190403
 20
139.0601233062537
 30
0.0
 10
178.2418024517677
 20
139.1028285657383
 30
0.0
 10
178.2323543703563
 20
139.1455364481272
 30
0.0
 10
178.2228791080966
 20
139.188242376951
 30
0.0
 10
178.2133863334459
 20
139.2309495502255
 30
0.0
 10
178.2038858998349
 20
139.2736563180267
 30
0.0
 10
178.1975553439685
 20
139.3021289663078
 30
0.0
 10
178.1943916140717
 20
139.3163657508437
 30
0.0
 11
178.4916353902147
 21
137.2663657508437
 31
0.0
 11
178.491611816634
 21
137.3090748527906
 31
0.0
 11
178.4912485794456
 21
137.3517824175104
 31
0.0
 11
178.4905458959776
 21
137.3944942103628
 31
0.0
 11
178.4895043227936
 21
137.4371990841772
 31
0.0
 11
178.48812372418
 21
137.4799135475058
 31
0.0
 11
178.4864051789262
 21
137.5226157508439
 31
0.0
 11
178.4843478613236
 21
137.5653328603113
 31
0.0
 11
178.4819537065104
 21
137.6080324175107
 31
0.0
 11
178.4792221079264
 21
137.650751870101
 31
0.0
 11
178.47616221354
 21
137.6934490841775
 31
0.0
 11
178.4727783079341
 21
137.7361703548418
 31
0.0
 11
178.4690820053169
 21
137.7788657508442
 31
0.0
 11
178.4650763093185
 21
137.8215884927391
 31
0.0
 11
178.4607741364695
 21
137.8642824175108
 31
0.0
 11
178.4561771827827
 21
137.9070063021761
 31
0.0
 11
178.4512996616265
 21
137.9496990841775
 31
0.0
 11
178.4461420287509
 21
137.9924237903356
 31
0.0
 11
178.4407198808062
 21
138.0351157508441
 31
0.0
 11
178.4350326503074
 21
138.0778409723518
 31
0.0
 11
178.4290970755878
 21
138.1205324175106
 31
0.0
 11
178.4229115517979
 21
138.1632578779599
 31
0.0
 11
178.4164937729399
 21
138.2059490841772
 31
0.0
 11
178.4098412670509
 21
138.2486745273144
 31
0.0
 11
178.4029724998317
 21
138.2913657508438
 31
0.0
 11
178.3958844671672
 21
138.3340908758328
 31
0.0
 11
178.3885968071589
 21
138.3767824175105
 31
0.0
 11
178.3811067583098
 21
138.4195069306604
 31
0.0
 11
178.3734343415236
 21
138.4621990841771
 31
0.0
 11
178.3655766751732
 21
138.5049227719221
 31
0.0
 11
178.3575537734552
 21
138.5476157508438
 31
0.0
 11
178.3493628874148
 21
138.5903384217082
 31
0.0
 11
178.3410237734828
 21
138.6330324175107
 31
0.0
 11
178.3325342536202
 21
138.6757538018358
 31
0.0
 11
178.323914372634
 21
138.7184490841774
 31
0.0
 11
178.3151635261906
 21
138.7611689231666
 31
0.0
 11
178.3063010439309
 21
138.8038657508442
 31
0.0
 11
178.2973273444366
 21
138.8465839042122
 31
0.0
 11
178.2882606208943
 21
138.8892824175108
 31
0.0
 11
178.2791025342094
 21
138.9319987692864
 31
0.0
 11
178.2698699370449
 21
138.9746990841774
 31
0.0
 11
178.2605660323814
 21
139.0174134802447
 31
0.0
 11
178.2512066126244
 21
139.060115750844
 31
0.0
 11
178.2417970240923
 21
139.1028280584252
 31
0.0
 11
178.2323514147577
 21
139.1455324175104
 31
0.0
 11
178.2228769408581
 21
139.1882425897099
 31
0.0
 11
178.2133858972915
 21
139.230949084177
 31
0.0
 11
178.2038873249577
 21
139.2736570994711
 31
0.0
 11
178.1943916140717
 21
139.3163657508437
 31
0.0
  0
LINE
  5
6547
330
1E
100
AcDbEntity
  8
24
  6
CONTINOUS
100
AcDbLine
 10
177.9002719704597
 20
137.2663655184374
 30
0.0
 11
178.4943919704596
 21
137.2663655184374
 31
0.0
  0
LINE
  5
6548
330
1E
100
AcDbEntity
  8
24
  6
CONTINOUS
100
AcDbLine
 10
178.4943919704596
 20
136.2663655184374
 30
0.0
 11
178.5943919704596
 21
136.2663655184374
 31
0.0
  0
LINE
  5
6549
330
1E
100
AcDbEntity
  8
24
  6
CONTINOUS
100
AcDbLine
 10
178.4943919704596
 20
134.2663655184374
 30
0.0
 11
178.5943919704596
 21
134.2663655184374
 31
0.0
  0
ARC
  5
654A
330
1E
100
AcDbEntity
  8
24
  6
CONTINOUS
100
AcDbCircle
 10
178.5943919704596
 20
136.5663655184374
 30
0.0
 40
0.3
100
AcDbArc
 50
270.0
 51
0.0
  0
ARC
  5
654B
330
1E
100
AcDbEntity
  8
24
  6
CONTINOUS
100
AcDbCircle
 10
178.5943919704596
 20
133.9663655184374
 30
0.0
 40
0.3
100
AcDbArc
 50
0.0
 51
90.0
  0
LINE
  5
654C
330
1E
100
AcDbEntity
  8
24
  6
CONTINOUS
100
AcDbLine
 10
180.4943919704596
 20
134.8663655184374
 30
0.0
 11
180.4943919704596
 21
135.6663655184374
 31
0.0
  0
LINE
  5
654D
330
1E
100
AcDbEntity
  8
24
  6
CONTINOUS
100
AcDbLine
 10
180.4943919704596
 20
135.6663655184374
 30
0.0
 11
180.5943919704597
 21
135.6663655184374
 31
0.0
  0
LINE
  5
654E
330
1E
100
AcDbEntity
  8
24
  6
CONTINOUS
100
AcDbLine
 10
180.4943919704596
 20
134.8663655184374
 30
0.0
 11
180.5943919704597
 21
134.8663655184374
 31
0.0
  0
ARC
  5
654F
330
1E
100
AcDbEntity
  8
24
  6
CONTINOUS
100
AcDbCircle
 10
180.5943919704597
 20
135.9663655184374
 30
0.0
 40
0.3
100
AcDbArc
 50
270.0
 51
0.0
  0
ARC
  5
6550
330
1E
100
AcDbEntity
  8
24
  6
CONTINOUS
100
AcDbCircle
 10
180.5943919704597
 20
134.5663655184374
 30
0.0
 40
0.3
100
AcDbArc
 50
0.0
 51
90.0
  0
LINE
  5
6551
330
1E
100
AcDbEntity
  8
24
  6
CONTINOUS
100
AcDbLine
 10
178.4943919704596
 20
141.2663655184374
 30
0.0
 11
181.1943919704597
 21
141.2663655184374
 31
0.0
  0
LINE
  5
6552
330
1E
100
AcDbEntity
  8
24
  6
CONTINOUS
100
AcDbLine
 10
178.4943919704596
 20
138.4663655184374
 30
0.0
 11
179.1943919704597
 21
141.2663655184374
 31
0.0
  0
LINE
  5
6553
330
1E
100
AcDbEntity
  8
24
  6
CONTINOUS
100
AcDbLine
 10
178.4943919704596
 20
138.2663655184374
 30
0.0
 11
178.5943919704596
 21
138.2663655184374
 31
0.0
  0
ARC
  5
6554
330
1E
100
AcDbEntity
  8
24
  6
CONTINOUS
100
AcDbCircle
 10
178.5943919704596
 20
137.9663655184374
 30
0.0
 40
0.3
100
AcDbArc
 50
0.0
 51
90.0
  0
LINE
  5
6555
330
1E
100
AcDbEntity
  8
24
  6
CONTINOUS
100
AcDbLine
 10
180.4943919704596
 20
138.4663655184374
 30
0.0
 11
180.4943919704596
 21
138.2663655184374
 31
0.0
  0
LINE
  5
6556
330
1E
100
AcDbEntity
  8
24
  6
CONTINOUS
100
AcDbLine
 10
180.7479449704596
 20
138.3699195184374
 30
0.0
 11
180.6407829704596
 21
138.2627575184374
 31
0.0
  0
LINE
  5
6557
330
1E
100
AcDbEntity
  8
24
  6
CONTINOUS
100
AcDbLine
 10
180.4943919704596
 20
138.2663655184374
 30
0.0
 11
180.5943919704597
 21
138.2663655184374
 31
0.0
  0
LINE
  5
6558
330
1E
100
AcDbEntity
  8
24
  6
CONTINOUS
100
AcDbLine
 10
181.1943919704597
 20
141.2663655184374
 30
0.0
 11
180.4943919704596
 21
138.4663655184374
 31
0.0
  0
LINE
  5
6559
330
1E
100
AcDbEntity
  8
24
  6
CONTINOUS
100
AcDbLine
 10
180.8943919704596
 20
138.7234725184374
 30
0.0
 11
180.8943919704596
 21
140.0663655184374
 31
0.0
  0
ARC
  5
655A
330
1E
100
AcDbEntity
  8
24
  6
CONTINOUS
100
AcDbCircle
 10
180.3943919704596
 20
138.7234725184374
 30
0.0
 40
0.5
100
AcDbArc
 50
315.0
 51
0.0
  0
ARC
  5
655B
330
1E
100
AcDbEntity
  8
24
  6
CONTINOUS
100
AcDbCircle
 10
180.5943919704597
 20
137.9663655184374
 30
0.0
 40
0.3
100
AcDbArc
 50
0.0
 51
90.0
  0
LINE
  5
655C
330
1E
100
AcDbEntity
  8
18
100
AcDbLine
 10
178.7153119704596
 20
145.2715695184374
 30
0.0
 11
175.7101079704597
 21
142.2663655184374
 31
0.0
  0
LINE
  5
655D
330
1E
100
AcDbEntity
  8
18
100
AcDbLine
 10
178.5385379704596
 20
142.2663655184374
 30
0.0
 11
181.5437419704596
 21
145.2715695184374
 31
0.0
  0
LINE
  5
655E
330
1E
100
AcDbEntity
  8
24
  6
CONTINOUS
100
AcDbLine
 10
190.0002149704596
 20
137.7663655184374
 30
0.0
 11
191.0002149704596
 21
136.7663655184374
 31
0.0
  0
LINE
  5
655F
330
1E
100
AcDbEntity
  8
24
  6
CONTINOUS
100
AcDbLine
 10
182.6943919704597
 20
139.7663655184374
 30
0.0
 11
192.6943919704597
 21
139.7663655184374
 31
0.0
  0
LINE
  5
6560
330
1E
100
AcDbEntity
  8
0
  6
CONTINUOUS
100
AcDbLine
 10
191.0238289704595
 20
142.7663655184374
 30
0.0
 11
188.0238289704596
 21
139.7663655184374
 31
0.0
  0
LINE
  5
6561
330
1E
100
AcDbEntity
  8
0
  6
CONTINUOUS
100
AcDbLine
 10
185.3669689704596
 20
142.7663655184374
 30
0.0
 11
182.6943919704597
 21
140.0937885184374
 31
0.0
  0
LINE
  5
6562
330
1E
100
AcDbEntity
  8
0
  6
CONTINUOUS
100
AcDbLine
 10
188.1953989704596
 20
142.7663655184374
 30
0.0
 11
185.1953989704596
 21
139.7663655184374
 31
0.0
  0
LINE
  5
6563
330
1E
100
AcDbEntity
  8
24
  6
CONTINOUS
100
AcDbLine
 10
182.6943919704597
 20
137.2663655184374
 30
0.0
 11
190.0002149704596
 21
137.2663655184374
 31
0.0
  0
LINE
  5
6564
330
1E
100
AcDbEntity
  8
24
  6
CONTINOUS
100
AcDbLine
 10
190.0002149704596
 20
137.7663655184374
 30
0.0
 11
182.6943919704597
 21
137.7663655184374
 31
0.0
  0
LINE
  5
6565
330
1E
100
AcDbEntity
  8
0
  6
CONTINUOUS
100
AcDbLine
 10
193.8522589704596
 20
142.7663655184374
 30
0.0
 11
190.8522589704596
 21
139.7663655184374
 31
0.0
  0
LINE
  5
6566
330
1E
100
AcDbEntity
  8
0
  6
CONTINUOUS
100
AcDbLine
 10
192.6943919704597
 20
138.7800685184374
 30
0.0
 11
195.6943919704597
 21
141.7800685184374
 31
0.0
  0
LINE
  5
6567
330
1E
100
AcDbEntity
  8
24
  6
CONTINOUS
100
AcDbLine
 10
192.6943919704597
 20
135.9516375184374
 30
0.0
 11
195.6943919704597
 21
138.9516385184374
 31
0.0
  0
LINE
  5
6568
330
1E
100
AcDbEntity
  8
24
  6
CONTINOUS
100
AcDbLine
 10
191.0002149704596
 20
133.7663655184374
 30
0.0
 11
191.0002149704596
 21
136.7663655184374
 31
0.0
  0
LINE
  5
6569
330
1E
100
AcDbEntity
  8
18
100
AcDbLine
 10
202.1943919704597
 20
132.9810565184374
 30
0.0
 11
205.1943919704597
 21
135.9810565184374
 31
0.0
  0
LINE
  5
656A
330
1E
100
AcDbEntity
  8
18
100
AcDbLine
 10
205.1943919704597
 20
127.2663655184374
 30
0.0
 11
205.1943919704597
 21
145.6663595184374
 31
0.0
  0
LINE
  5
656B
330
1E
100
AcDbEntity
  8
18
100
AcDbLine
 10
205.1943919704597
 20
131.4810565184374
 30
0.0
 11
200.9797009704596
 21
127.2663655184374
 31
0.0
  0
LINE
  5
656C
330
1E
100
AcDbEntity
  8
18
100
AcDbLine
 10
202.1943919704597
 20
138.6379175184374
 30
0.0
 11
205.1943919704597
 21
141.6379175184374
 31
0.0
  0
LINE
  5
656D
330
1E
100
AcDbEntity
  8
18
100
AcDbLine
 10
202.1943919704597
 20
135.8094875184373
 30
0.0
 11
205.1943919704597
 21
138.8094875184374
 31
0.0
  0
LINE
  5
656E
330
1E
100
AcDbEntity
  8
18
100
AcDbLine
 10
205.1943919704597
 20
144.4663475184374
 30
0.0
 11
202.1943919704597
 21
141.4663475184374
 31
0.0
  0
LINE
  5
656F
330
1E
100
AcDbEntity
  8
10
  6
CONTINOUS
100
AcDbLine
 10
207.55431709588
 20
-17.50003099999986
 30
0.0
 11
209.7208620958801
 21
-18.08055499999989
 31
0.0
  0
LINE
  5
6570
330
1E
100
AcDbEntity
  8
10
  6
CONTINOUS
100
AcDbLine
 10
207.5543470958799
 20
-16.70002399999987
 30
0.0
 11
208.3328050958799
 21
-16.70002399999987
 31
0.0
  0
LINE
  5
6571
330
1E
100
AcDbEntity
  8
10
  6
CONTINOUS
100
AcDbLine
 10
211.6864100958799
 20
-48.09729799999985
 30
0.0
 11
212.52396309588
 21
-43.34729799999985
 31
0.0
  0
LINE
  5
6572
330
1E
100
AcDbEntity
  8
10
  6
CONTINOUS
100
AcDbLine
 10
212.1543540958799
 20
-47.60007199999989
 30
0.0
 11
212.1543540958799
 21
-45.44345699999991
 31
0.0
  0
ARC
  5
6573
330
1E
100
AcDbEntity
  8
10
  6
CONTINOUS
100
AcDbCircle
 10
211.8543350958799
 20
-47.60007199999989
 30
0.0
 40
0.3
100
AcDbArc
 50
270.0
 51
0.000009999999378
  0
ARC
  5
6574
330
1E
100
AcDbEntity
  8
10
  6
CONTINOUS
100
AcDbCircle
 10
209.7167940958799
 20
-47.75000199999988
 30
0.0
 40
2.0
100
AcDbArc
 50
270.0
 51
349.9999999999998
  0
LINE
  5
6575
330
1E
100
AcDbEntity
  8
10
  6
CONTINOUS
100
AcDbLine
 10
211.72118809588
 20
-47.90005999999988
 30
0.0
 11
211.8543350958799
 21
-47.90005999999988
 31
0.0
  0
LINE
  5
6576
330
1E
100
AcDbEntity
  8
10
  6
CONTINOUS
100
AcDbLine
 10
212.55434809588
 20
-27.50003199999992
 30
0.0
 11
212.55434809588
 21
-43.00005299999992
 31
0.0
  0
ARC
  5
6577
330
1E
100
AcDbEntity
  8
10
  6
CONTINOUS
100
AcDbCircle
 10
210.55434809588
 20
-43.00000099999988
 30
0.0
 40
2.0
100
AcDbArc
 50
349.9999999999998
 51
0.0
  0
LINE
  5
6578
330
1E
100
AcDbEntity
  8
10
  6
CONTINOUS
100
AcDbLine
 10
212.55434809588
 20
-27.50003199999992
 30
0.0
 11
211.17284009588
 21
-19.66511099999985
 31
0.0
  0
LINE
  5
6579
330
1E
100
AcDbEntity
  8
10
  6
CONTINOUS
100
AcDbLine
 10
212.1543540958799
 20
-25.2315529999999
 30
0.0
 11
212.1543540958799
 21
-18.50008299999984
 31
0.0
  0
LINE
  5
657A
330
1E
100
AcDbEntity
  8
10
  6
CONTINOUS
100
AcDbLine
 10
212.1543540958799
 20
-19.10005899999987
 30
0.0
 11
210.9830050958799
 21
-19.10005899999987
 31
0.0
  0
LINE
  5
657B
330
1E
100
AcDbEntity
  8
10
  6
CONTINOUS
100
AcDbLine
 10
212.1543540958799
 20
-18.50008299999984
 30
0.0
 11
209.15428209588
 21
-15.50001099999986
 31
0.0
  0
ARC
  5
657C
330
1E
100
AcDbEntity
  8
10
  6
CONTINOUS
100
AcDbCircle
 10
209.20322409588
 20
-20.01240699999988
 30
0.0
 40
2.0
100
AcDbArc
 50
10.00000000000021
 51
74.99999999999883
  0
LINE
  5
657D
330
1E
100
AcDbEntity
  8
10
  6
CONTINOUS
100
AcDbLine
 10
208.6543470958801
 20
-15.50001099999986
 30
0.0
 11
209.15428209588
 21
-15.50001099999986
 31
0.0
  0
LINE
  5
657E
330
1E
100
AcDbEntity
  8
10
  6
CONTINOUS
100
AcDbLine
 10
208.6543470958801
 20
-15.50001099999986
 30
0.0
 11
208.3328050958799
 21
-16.70002399999987
 31
0.0
  0
LINE
  5
6580
330
1E
100
AcDbEntity
  8
10
  6
CONTINOUS
100
AcDbLine
 10
211.17305509588
 20
46.24996800000007
 30
0.0
 11
172.5543770958799
 21
46.24996800000007
 31
0.0
  0
LINE
  5
6581
330
1E
100
AcDbEntity
  8
10
  6
CONTINOUS
100
AcDbLine
 10
172.5543770958799
 20
49.75006200000011
 30
0.0
 11
209.7167940958799
 21
49.75006200000011
 31
0.0
  0
LINE
  5
6582
330
1E
100
AcDbEntity
  8
12
  6
DASHED
100
AcDbLine
 10
169.55434809588
 20
39.54994000000009
 30
0.0
 11
212.55434809588
 21
39.54994000000009
 31
0.0
  0
LINE
  5
6583
330
1E
100
AcDbEntity
  8
12
  6
DASHED
100
AcDbLine
 10
169.55434809588
 20
44.44994000000012
 30
0.0
 11
212.32954809588
 21
44.44994000000012
 31
0.0
  0
LINE
  5
6584
330
1E
100
AcDbEntity
  8
18
100
AcDbLine
 10
164.05434809588
 20
84.75000100000009
 30
0.0
 11
210.05434809588
 21
84.75000100000009
 31
0.0
  0
SPLINE
  5
6585
330
1E
100
AcDbEntity
  8
18
100
AcDbSpline
210
0.0
220
0.0
230
1.0
 70
     8
 71
     3
 72
    79
 73
    75
 74
    73
 42
0.0000000001
 43
0.0000000001
 44
0.000001
 12
0.9484512258515863
 22
0.3169231329212549
 32
0.0
 13
0.9493309074172593
 23
0.3142782655901022
 33
0.0
 40
0.0
 40
0.0
 40
0.0
 40
0.0
 40
0.6730713111126145
 40
1.346136252936381
 40
2.014521325384224
 40
2.682879922484885
 40
3.34224749042387
 40
4.001564063224054
 40
4.650222587408852
 40
5.2988016476206
 40
5.939509386861465
 40
6.580248983651229
 40
7.219454051929316
 40
7.858693399613397
 40
8.501167345076575
 40
9.143671891980201
 40
9.791958553601631
 40
10.44026940806969
 40
11.09475767622917
 40
11.74927345063665
 40
12.40745419298961
 40
13.06564276037553
 40
13.72352224533717
 40
14.38139110546917
 40
15.03507647170971
 40
15.68873112530637
 40
16.33595105523389
 40
16.98314086422315
 40
17.62465005910355
 40
18.26612124752659
 40
18.90521949145684
 40
19.54427623820996
 40
20.18703951415781
 40
20.82976716523816
 40
21.48349744235745
 40
22.13736759313076
 40
22.80140907938417
 40
23.46550320758661
 40
24.13188591151055
 40
24.79825082029704
 40
25.45777952156445
 40
26.11721323193052
 40
26.76538234262121
 40
27.41354379481293
 40
28.05442263660049
 40
28.69529969655483
 40
29.33445055066052
 40
29.9736054961463
 40
30.61641780597736
 40
31.25923935334255
 40
31.91001100290881
 40
32.56085323650776
 40
33.21905740849486
 40
33.87729433253447
 40
34.53845786260652
 40
35.19962205425798
 40
35.85809120017138
 40
36.51652906252796
 40
37.16819846915282
 40
37.81984899789662
 40
38.46477375150843
 40
39.10967547396085
 40
39.74992350492097
 40
40.3901458983272
 40
41.02939555404975
 40
41.66862026271149
 40
42.3119338083538
 40
42.95528980227
 40
43.60654160297679
 40
44.25782784569396
 40
44.91835393947883
 40
45.57890511304893
 40
46.24811102998016
 40
46.91733306507745
 40
46.91733306507745
 40
46.91733306507745
 40
46.91733306507745
 10
164.054347672613
 20
67.84423612244335
 30
0.0
 10
164.2671394426498
 20
67.91534007864242
 30
0.0
 10
164.69259065264
 20
68.05793636194258
 30
0.0
 10
165.3302631236588
 20
68.26842014290871
 30
0.0
 10
165.9687116162514
 20
68.4714646537742
 30
0.0
 10
166.6062807759883
 20
68.66195620703539
 30
0.0
 10
167.2453870585557
 20
68.83618860618662
 30
0.0
 10
167.8833030058598
 20
68.98879555498684
 30
0.0
 10
168.5231490084611
 20
69.11601840420104
 30
0.0
 10
169.1621376174478
 20
69.21273331647902
 30
0.0
 10
169.8028075393456
 20
69.27456554762326
 30
0.0
 10
170.4426198839158
 20
69.3036802672428
 30
0.0
 10
171.0825714661053
 20
69.30218805118629
 30
0.0
 10
171.7223813619857
 20
69.27257227106814
 30
0.0
 10
172.3615359453881
 20
69.2170086351479
 30
0.0
 10
173.0011961973325
 20
69.13776751115287
 30
0.0
 10
173.6398077556489
 20
69.03727078717034
 30
0.0
 10
174.2791336392483
 20
68.91752801758122
 30
0.0
 10
174.9172255006503
 20
68.78120153793834
 30
0.0
 10
175.5558424920987
 20
68.63227418695119
 30
0.0
 10
176.1938174599537
 20
68.47544079696273
 30
0.0
 10
176.8319996791626
 20
68.3148284950046
 30
0.0
 10
177.4702355208302
 20
68.15485086133683
 30
0.0
 10
178.1081946854383
 20
67.99997405136188
 30
0.0
 10
178.7468894607165
 20
67.85428351059952
 30
0.0
 10
179.3850089555478
 20
67.72250689432709
 30
0.0
 10
180.0243957678827
 20
67.60862525235601
 30
0.0
 10
180.6630870816453
 20
67.51560552677827
 30
0.0
 10
181.3028364470539
 20
67.44582278722107
 30
0.0
 10
181.9422201334958
 20
67.40196723445729
 30
0.0
 10
182.5821442221261
 20
67.38672432503529
 30
0.0
 10
183.2225306056939
 20
67.40252724979935
 30
0.0
 10
183.8624316269387
 20
67.45224441377141
 30
0.0
 10
184.5034608317576
 20
67.53832375630167
 30
0.0
 10
185.141846309027
 20
67.66290366649949
 30
0.0
 10
185.7807251696639
 20
67.81767921802788
 30
0.0
 10
186.4177111334934
 20
67.99323854539588
 30
0.0
 10
187.0552701324404
 20
68.18177916222952
 30
0.0
 10
187.6924227979207
 20
68.3743262392565
 30
0.0
 10
188.3293578990409
 20
68.56234982728193
 30
0.0
 10
188.9675220914071
 20
68.73778160053999
 30
0.0
 10
189.6051742706373
 20
68.8913625759761
 30
0.0
 10
190.2454789578854
 20
69.01513651264723
 30
0.0
 10
190.8846640120168
 20
69.10848813937767
 30
0.0
 10
191.5250798175433
 20
69.17178287076179
 30
0.0
 10
192.1647403821675
 20
69.2052082948277
 30
0.0
 10
192.8046859828347
 20
69.20882213475628
 30
0.0
 10
193.4447631841001
 20
69.18301750170226
 30
0.0
 10
194.0842029272156
 20
69.12784613579548
 30
0.0
 10
194.7243656109251
 20
69.04355982203495
 30
0.0
 10
195.3627821215613
 20
68.93066046284372
 30
0.0
 10
196.0018139752364
 20
68.79454579684638
 30
0.0
 10
196.6395026989602
 20
68.64144010240209
 30
0.0
 10
197.2777581918551
 20
68.47651967706408
 30
0.0
 10
197.915499361178
 20
68.30582733170223
 30
0.0
 10
198.5532539484234
 20
68.13488723485651
 30
0.0
 10
199.1914812775275
 20
67.96924899164588
 30
0.0
 10
199.8293108334736
 20
67.81488958372293
 30
0.0
 10
200.4686172255875
 20
67.67704425003784
 30
0.0
 10
201.1071267310752
 20
67.55801520251292
 30
0.0
 10
201.7468119471039
 20
67.45920240161183
 30
0.0
 10
202.3857348343833
 20
67.3826344281331
 30
0.0
 10
203.0255168518631
 20
67.32994292031993
 30
0.0
 10
203.6650362194732
 20
67.30289552310555
 30
0.0
 10
204.3048084882306
 20
67.30337122371134
 30
0.0
 10
204.9449611079503
 20
67.33298286434669
 30
0.0
 10
205.5842957472053
 20
67.39357745018259
 30
0.0
 10
206.2242901045204
 20
67.48259903525952
 30
0.0
 10
206.8628558097076
 20
67.5972899290446
 30
0.0
 10
207.5025609228829
 20
67.73552996155086
 30
0.0
 10
208.1406770874355
 20
67.89419549882405
 30
0.0
 10
208.7800453661467
 20
68.07149040697719
 30
0.0
 10
209.4179739136098
 20
68.26410576353083
 30
0.0
 10
209.8425766186655
 20
68.40113709299136
 30
0.0
 10
210.054347672613
 20
68.47124440648638
 30
0.0
 11
164.054347672613
 21
67.84423612244335
 31
0.0
 11
164.6927555689901
 21
68.05745113632757
 31
0.0
 11
165.3321254503908
 21
68.26774283060233
 31
0.0
 11
165.9693012447168
 21
68.46959832955092
 31
0.0
 11
166.6099032281687
 21
68.66020879465229
 31
0.0
 11
167.2462658433446
 21
68.83285946657752
 31
0.0
 11
167.8876810059464
 21
68.98545365363974
 31
0.0
 11
168.5240501244018
 21
69.11112104621349
 31
0.0
 11
169.165458783724
 21
69.20729704661015
 31
0.0
 11
169.8031732127864
 21
69.2691586161698
 31
0.0
 11
170.4432365615017
 21
69.29859278466903
 31
0.0
 11
171.0824410167855
 21
69.29750986227076
 31
0.0
 11
171.7210143392794
 21
69.26833136716014
 31
0.0
 11
172.3611112331635
 21
69.21311806258306
 31
0.0
 11
172.9987921170572
 21
69.1345374654865
 31
0.0
 11
173.6392631792701
 21
69.03417691759516
 31
0.0
 11
174.276569894835
 21
68.91523575105127
 31
0.0
 11
174.9167688628703
 21
68.77922070185978
 31
0.0
 11
175.5543476726128
 21
68.63128794419894
 31
0.0
 11
176.1936681094943
 21
68.47485513771521
 31
0.0
 11
176.8321254503905
 21
68.31490396103906
 31
0.0
 11
177.4704360190747
 21
68.15564000562442
 31
0.0
 11
178.1099032281682
 21
68.00113076662187
 31
0.0
 11
178.7473820457994
 21
67.85647496804897
 31
0.0
 11
179.3876810059459
 21
67.72501532599811
 31
0.0
 11
180.024955808944
 21
67.61199118178222
 31
0.0
 11
180.6654587837236
 21
67.51919793985284
 31
0.0
 11
181.3032356294387
 21
67.45009842547306
 31
0.0
 11
181.9432365615015
 21
67.40669225140855
 31
0.0
 11
182.5821633548124
 21
67.39188941627934
 31
0.0
 11
183.2210143392793
 21
67.40810523952273
 31
0.0
 11
183.8618219262205
 21
67.45820788091162
 31
0.0
 11
184.4987921170571
 21
67.54404388305243
 31
0.0
 11
185.1407259259758
 21
67.66767344827745
 31
0.0
 11
185.776569894835
 21
67.82014845747044
 31
0.0
 11
186.4171202943383
 21
67.99520926108463
 31
0.0
 11
187.054347672613
 21
68.18219242471262
 31
0.0
 11
187.6926356274492
 21
68.37364605041135
 31
0.0
 11
188.3321254503908
 21
68.56098254333044
 31
0.0
 11
188.9684472579553
 21
68.7343972769102
 31
0.0
 11
189.6099032281688
 21
68.88732557187556
 31
0.0
 11
190.2463103585312
 21
69.01024492943019
 31
0.0
 11
190.8876810059466
 21
69.10382360836557
 31
0.0
 11
191.5254531491192
 21
69.16685051684452
 31
0.0
 11
192.1654587837244
 21
69.20026010868252
 31
0.0
 11
192.80459911327
 21
69.20392881156259
 31
0.0
 11
193.4432365615023
 21
69.17821386817438
 31
0.0
 11
194.0836792531396
 21
69.12307017887643
 31
0.0
 11
194.72101433928
 21
69.0392636821894
 31
0.0
 11
195.3620225597194
 21
68.92695964599555
 31
0.0
 11
195.9987921170577
 21
68.79234859516508
 31
0.0
 11
196.6390295844896
 21
68.63961122691579
 31
0.0
 11
197.2765698948354
 21
68.47584864789694
 31
0.0
 11
197.9154888047186
 21
68.30579037548112
 31
0.0
 11
198.5543476726131
 21
68.13550413027051
 31
0.0
 11
199.1919370553387
 21
67.97100075917659
 31
0.0
 11
199.832125450391
 21
67.81705533217068
 31
0.0
 11
200.4692263783848
 21
67.68003207231707
 31
0.0
 11
201.1099032281687
 21
67.56094585529062
 31
0.0
 11
201.7473195227679
 21
67.46282177546042
 31
0.0
 11
202.3876810059465
 21
67.38643254855451
 31
0.0
 11
203.0257942612614
 21
67.33419367168988
 31
0.0
 11
203.6654587837241
 21
67.30747557269335
 31
0.0
 11
204.304707847028
 21
67.30821759327106
 31
0.0
 11
204.9432365615019
 21
67.33803508843935
 31
0.0
 11
205.5837274896599
 21
67.39823133784579
 31
0.0
 11
206.2210143392795
 21
67.48639318034212
 31
0.0
 11
206.8620982190201
 21
67.60102543536412
 31
0.0
 11
207.4987921170572
 21
67.73811962822394
 31
0.0
 11
208.139914338334
 21
67.8970446178407
 31
0.0
 11
208.7765698948351
 21
68.07310613572529
 31
0.0
 11
209.4173370477554
 21
68.26611934227831
 31
0.0
 11
210.054347672613
 21
68.47124440648638
 31
0.0
  0
SPLINE
  5
6586
330
1E
100
AcDbEntity
  8
18
100
AcDbSpline
210
0.0
220
0.0
230
1.0
 70
     8
 71
     3
 72
    79
 73
    75
 74
    73
 42
0.0000000001
 43
0.0000000001
 44
0.000001
 12
0.9484512258515863
 22
0.3169231329212549
 32
0.0
 13
0.9493309074172593
 23
0.3142782655901022
 33
0.0
 40
0.0
 40
0.0
 40
0.0
 40
0.0
 40
0.6730713111126145
 40
1.346136252936346
 40
2.014521325384223
 40
2.682879922484884
 40
3.342247490423869
 40
4.001564063224053
 40
4.650222587408851
 40
5.298801647620599
 40
5.939509386861464
 40
6.580248983651231
 40
7.219454051929318
 40
7.858693399613398
 40
8.501167345076577
 40
9.143671891980215
 40
9.791958553601627
 40
10.44026940806969
 40
11.09475767622916
 40
11.74927345063665
 40
12.40745419298961
 40
13.06564276037554
 40
13.72352224533716
 40
14.38139110546916
 40
15.0350764717097
 40
15.68873112530637
 40
16.33595105523388
 40
16.98314086422316
 40
17.62465005910354
 40
18.26612124752658
 40
18.90521949145684
 40
19.54427623820996
 40
20.18703951415779
 40
20.82976716523814
 40
21.48349744235745
 40
22.13736759313075
 40
22.80140907938416
 40
23.4655032075866
 40
24.13188591151054
 40
24.79825082029703
 40
25.45777952156444
 40
26.11721323193054
 40
26.76538234262121
 40
27.41354379481293
 40
28.05442263660047
 40
28.69529969655481
 40
29.33445055066051
 40
29.97360549614629
 40
30.61641780597735
 40
31.25923935334254
 40
31.9100110029088
 40
32.56085323650778
 40
33.21905740849485
 40
33.87729433253447
 40
34.53845786260652
 40
35.19962205425797
 40
35.85809120017137
 40
36.51652906252795
 40
37.16819846915281
 40
37.8198489978966
 40
38.46477375150842
 40
39.10967547396084
 40
39.74992350492096
 40
40.39014589832718
 40
41.02939555404974
 40
41.66862026271147
 40
42.31193380835378
 40
42.95528980227
 40
43.60654160297677
 40
44.25782784569395
 40
44.91835393947882
 40
45.57890511304891
 40
46.24811102998015
 40
46.91733306507743
 40
46.91733306507743
 40
46.91733306507743
 40
46.91733306507743
 10
164.054347672613
 20
66.34423612244335
 30
0.0
 10
164.2671394426498
 20
66.41534007864243
 30
0.0
 10
164.69259065264
 20
66.55793636194264
 30
0.0
 10
165.3302631236589
 20
66.76842014290851
 30
0.0
 10
165.9687116162513
 20
66.97146465377425
 30
0.0
 10
166.6062807759883
 20
67.16195620703539
 30
0.0
 10
167.2453870585557
 20
67.33618860618662
 30
0.0
 10
167.8833030058598
 20
67.48879555498684
 30
0.0
 10
168.5231490084611
 20
67.61601840420103
 30
0.0
 10
169.1621376174478
 20
67.71273331647904
 30
0.0
 10
169.8028075393457
 20
67.77456554762324
 30
0.0
 10
170.4426198839158
 20
67.80368026724289
 30
0.0
 10
171.0825714661052
 20
67.80218805118625
 30
0.0
 10
171.7223813619858
 20
67.77257227106817
 30
0.0
 10
172.3615359453881
 20
67.71700863514794
 30
0.0
 10
173.0011961973325
 20
67.63776751115267
 30
0.0
 10
173.639807755649
 20
67.53727078717043
 30
0.0
 10
174.2791336392483
 20
67.41752801758119
 30
0.0
 10
174.9172255006503
 20
67.28120153793835
 30
0.0
 10
175.5558424920987
 20
67.13227418695116
 30
0.0
 10
176.1938174599537
 20
66.97544079696275
 30
0.0
 10
176.8319996791626
 20
66.81482849500454
 30
0.0
 10
177.4702355208302
 20
66.65485086133684
 30
0.0
 10
178.1081946854383
 20
66.49997405136187
 30
0.0
 10
178.7468894607166
 20
66.35428351059953
 30
0.0
 10
179.3850089555478
 20
66.22250689432707
 30
0.0
 10
180.0243957678827
 20
66.10862525235603
 30
0.0
 10
180.6630870816453
 20
66.0156055267782
 30
0.0
 10
181.3028364470539
 20
65.94582278722112
 30
0.0
 10
181.9422201334957
 20
65.90196723445727
 30
0.0
 10
182.5821442221262
 20
65.88672432503521
 30
0.0
 10
183.2225306056939
 20
65.90252724979954
 30
0.0
 10
183.8624316269386
 20
65.95224441377133
 30
0.0
 10
184.5034608317576
 20
66.03832375630168
 30
0.0
 10
185.141846309027
 20
66.1629036664995
 30
0.0
 10
185.7807251696639
 20
66.31767921802787
 30
0.0
 10
186.4177111334934
 20
66.49323854539588
 30
0.0
 10
187.0552701324404
 20
66.6817791622295
 30
0.0
 10
187.6924227979207
 20
66.8743262392565
 30
0.0
 10
188.3293578990409
 20
67.06234982728195
 30
0.0
 10
188.9675220914071
 20
67.23778160053996
 30
0.0
 10
189.6051742706372
 20
67.39136257597627
 30
0.0
 10
190.2454789578854
 20
67.51513651264719
 30
0.0
 10
190.8846640120168
 20
67.60848813937776
 30
0.0
 10
191.5250798175433
 20
67.6717828707615
 30
0.0
 10
192.1647403821675
 20
67.70520829482771
 30
0.0
 10
192.8046859828348
 20
67.70882213475648
 30
0.0
 10
193.4447631841001
 20
67.68301750170225
 30
0.0
 10
194.0842029272156
 20
67.62784613579549
 30
0.0
 10
194.724365610925
 20
67.54355982203495
 30
0.0
 10
195.3627821215614
 20
67.43066046284379
 30
0.0
 10
196.0018139752364
 20
67.29454579684617
 30
0.0
 10
196.6395026989601
 20
67.14144010240215
 30
0.0
 10
197.2777581918552
 20
66.97651967706406
 30
0.0
 10
197.915499361178
 20
66.80582733170223
 30
0.0
 10
198.5532539484234
 20
66.63488723485651
 30
0.0
 10
199.1914812775275
 20
66.4692489916459
 30
0.0
 10
199.8293108334736
 20
66.3148895837229
 30
0.0
 10
200.4686172255876
 20
66.17704425003779
 30
0.0
 10
201.1071267310752
 20
66.0580152025131
 30
0.0
 10
201.746811947104
 20
65.95920240161177
 30
0.0
 10
202.3857348343832
 20
65.88263442813313
 30
0.0
 10
203.0255168518631
 20
65.82994292031992
 30
0.0
 10
203.6650362194732
 20
65.80289552310555
 30
0.0
 10
204.3048084882306
 20
65.80337122371135
 30
0.0
 10
204.9449611079503
 20
65.83298286434668
 30
0.0
 10
205.5842957472053
 20
65.89357745018259
 30
0.0
 10
206.2242901045204
 20
65.98259903525953
 30
0.0
 10
206.8628558097076
 20
66.09728992904462
 30
0.0
 10
207.5025609228829
 20
66.23552996155083
 30
0.0
 10
208.1406770874354
 20
66.39419549882406
 30
0.0
 10
208.7800453661468
 20
66.57149040697712
 30
0.0
 10
209.4179739136098
 20
66.76410576353084
 30
0.0
 10
209.8425766186655
 20
66.90113709299136
 30
0.0
 10
210.054347672613
 20
66.97124440648638
 30
0.0
 11
164.054347672613
 21
66.34423612244335
 31
0.0
 11
164.6927555689901
 21
66.55745113632757
 31
0.0
 11
165.3321254503908
 21
66.76774283060222
 31
0.0
 11
165.9693012447168
 21
66.96959832955092
 31
0.0
 11
166.6099032281687
 21
67.16020879465229
 31
0.0
 11
167.2462658433446
 21
67.33285946657751
 31
0.0
 11
167.8876810059464
 21
67.48545365363973
 31
0.0
 11
168.5240501244018
 21
67.61112104621348
 31
0.0
 11
169.165458783724
 21
67.70729704661015
 31
0.0
 11
169.8031732127864
 21
67.76915861616981
 31
0.0
 11
170.4432365615017
 21
67.79859278466908
 31
0.0
 11
171.0824410167855
 21
67.79750986227075
 31
0.0
 11
171.7210143392794
 21
67.76833136716014
 31
0.0
 11
172.3611112331635
 21
67.71311806258307
 31
0.0
 11
172.9987921170572
 21
67.63453746548639
 31
0.0
 11
173.6392631792701
 21
67.53417691759516
 31
0.0
 11
174.276569894835
 21
67.41523575105127
 31
0.0
 11
174.9167688628703
 21
67.27922070185979
 31
0.0
 11
175.5543476726128
 21
67.13128794419894
 31
0.0
 11
176.1936681094943
 21
66.97485513771521
 31
0.0
 11
176.8321254503905
 21
66.814903961039
 31
0.0
 11
177.4704360190747
 21
66.65564000562442
 31
0.0
 11
178.1099032281682
 21
66.50113076662186
 31
0.0
 11
178.7473820457994
 21
66.35647496804897
 31
0.0
 11
179.3876810059459
 21
66.22501532599812
 31
0.0
 11
180.024955808944
 21
66.11199118178221
 31
0.0
 11
180.6654587837236
 21
66.01919793985278
 31
0.0
 11
181.3032356294387
 21
65.95009842547305
 31
0.0
 11
181.9432365615015
 21
65.90669225140856
 31
0.0
 11
182.5821633548124
 21
65.89188941627934
 31
0.0
 11
183.2210143392793
 21
65.90810523952284
 31
0.0
 11
183.8618219262205
 21
65.95820788091161
 31
0.0
 11
184.4987921170571
 21
66.04404388305242
 31
0.0
 11
185.1407259259758
 21
66.16767344827746
 31
0.0
 11
185.776569894835
 21
66.32014845747043
 31
0.0
 11
186.4171202943383
 21
66.49520926108464
 31
0.0
 11
187.054347672613
 21
66.68219242471263
 31
0.0
 11
187.6926356274492
 21
66.87364605041135
 31
0.0
 11
188.3321254503908
 21
67.06098254333044
 31
0.0
 11
188.9684472579553
 21
67.2343972769102
 31
0.0
 11
189.6099032281688
 21
67.38732557187567
 31
0.0
 11
190.2463103585312
 21
67.51024492943018
 31
0.0
 11
190.8876810059466
 21
67.60382360836557
 31
0.0
 11
191.5254531491192
 21
67.66685051684435
 31
0.0
 11
192.1654587837244
 21
67.70026010868251
 31
0.0
 11
192.80459911327
 21
67.7039288115627
 31
0.0
 11
193.4432365615023
 21
67.67821386817438
 31
0.0
 11
194.0836792531396
 21
67.62307017887643
 31
0.0
 11
194.72101433928
 21
67.5392636821894
 31
0.0
 11
195.3620225597194
 21
67.42695964599555
 31
0.0
 11
195.9987921170577
 21
67.29234859516497
 31
0.0
 11
196.6390295844896
 21
67.13961122691578
 31
0.0
 11
197.2765698948354
 21
66.97584864789694
 31
0.0
 11
197.9154888047186
 21
66.80579037548112
 31
0.0
 11
198.5543476726131
 21
66.63550413027052
 31
0.0
 11
199.1919370553387
 21
66.47100075917659
 31
0.0
 11
199.832125450391
 21
66.31705533217068
 31
0.0
 11
200.4692263783848
 21
66.18003207231708
 31
0.0
 11
201.1099032281687
 21
66.06094585529074
 31
0.0
 11
201.7473195227679
 21
65.96282177546043
 31
0.0
 11
202.3876810059465
 21
65.88643254855451
 31
0.0
 11
203.0257942612614
 21
65.83419367168987
 31
0.0
 11
203.6654587837241
 21
65.80747557269335
 31
0.0
 11
204.304707847028
 21
65.80821759327107
 31
0.0
 11
204.9432365615019
 21
65.83803508843935
 31
0.0
 11
205.5837274896599
 21
65.89823133784578
 31
0.0
 11
206.2210143392795
 21
65.98639318034212
 31
0.0
 11
206.8620982190201
 21
66.10102543536412
 31
0.0
 11
207.4987921170572
 21
66.23811962822394
 31
0.0
 11
208.139914338334
 21
66.3970446178407
 31
0.0
 11
208.7765698948351
 21
66.57310613572524
 31
0.0
 11
209.4173370477554
 21
66.76611934227832
 31
0.0
 11
210.054347672613
 21
66.97124440648638
 31
0.0
  0
LINE
  5
6587
330
1E
100
AcDbEntity
  8
10
  6
CONTINOUS
100
AcDbLine
 10
161.55437709588
 20
49.75006200000011
 30
0.0
 11
161.55437709588
 21
37.90002500000012
 31
0.0
  0
LINE
  5
6588
330
1E
100
AcDbEntity
  8
10
  6
CONTINOUS
100
AcDbLine
 10
140.55443809588
 20
14.67098400000013
 30
0.0
 11
134.7832280958799
 21
17.12071000000013
 31
0.0
  0
LINE
  5
6589
330
1E
100
AcDbEntity
  8
10
  6
CONTINOUS
100
AcDbLine
 10
135.56711209588
 20
18.96069100000015
 30
0.0
 11
140.55443809588
 21
16.8437040000001
 31
0.0
  0
LINE
  5
658A
330
1E
100
AcDbEntity
  8
10
  6
CONTINOUS
100
AcDbLine
 10
134.3095610958799
 20
21.12343600000012
 30
0.0
 11
140.55443809588
 21
18.47264700000009
 31
0.0
  0
LINE
  5
658B
330
1E
100
AcDbEntity
  8
10
  6
CONTINOUS
100
AcDbLine
 10
132.3559040958799
 20
16.52090600000012
 30
0.0
 11
140.55443809588
 21
13.04084300000009
 31
0.0
  0
ARC
  5
658C
330
1E
100
AcDbEntity
  8
30
  6
CONTINUOUS
100
AcDbCircle
 10
160.49016409588
 20
3.312547000000108
 30
0.0
 40
31.93581299999999
100
AcDbArc
 50
158.070515
 51
180.0
  0
CIRCLE
  5
658D
330
1E
100
AcDbEntity
  8
10
  6
CONTINOUS
100
AcDbCircle
 10
135.17396209588
 20
18.04122400000009
 30
0.0
 40
1.0
  0
LINE
  5
658E
330
1E
100
AcDbEntity
  8
10
  6
CONTINOUS
100
AcDbLine
 10
133.6539390958799
 20
20.85854900000008
 30
0.0
 11
132.09102809588
 21
17.17652500000012
 31
0.0
  0
ARC
  5
658F
330
1E
100
AcDbEntity
  8
10
  6
CONTINOUS
100
AcDbCircle
 10
132.5512750958799
 20
16.98117100000011
 30
0.0
 40
0.5
100
AcDbArc
 50
156.999998
 51
247.000000999999
  0
ARC
  5
6590
330
1E
100
AcDbEntity
  8
10
  6
CONTINOUS
100
AcDbCircle
 10
134.11420009588
 20
20.66319100000014
 30
0.0
 40
0.5
100
AcDbArc
 50
67.00002300000154
 51
156.999998
  0
LINE
  5
6591
330
1E
100
AcDbEntity
  8
10
  6
CONTINOUS
100
AcDbLine
 10
161.55437709588
 20
37.90002500000012
 30
0.0
 11
153.55440709588
 21
37.90002500000012
 31
0.0
  0
LINE
  5
6592
330
1E
100
AcDbEntity
  8
10
  6
CONTINOUS
100
AcDbLine
 10
140.9079910958799
 20
24.99997000000012
 30
0.0
 11
152.55440709588
 21
24.99997000000012
 31
0.0
  0
ARC
  5
6593
330
1E
100
AcDbEntity
  8
10
  6
CONTINOUS
100
AcDbCircle
 10
140.9079910958799
 20
24.64641600000014
 30
0.0
 40
0.353553
100
AcDbArc
 50
90.0
 51
180.0
  0
ARC
  5
6594
330
1E
100
AcDbEntity
  8
10
  6
CONTINOUS
100
AcDbCircle
 10
144.9079910958799
 20
24.64641600000014
 30
0.0
 40
0.353553
100
AcDbArc
 50
90.0
 51
180.0
  0
ARC
  5
6595
330
1E
100
AcDbEntity
  8
10
  6
CONTINOUS
100
AcDbCircle
 10
153.55440709588
 20
36.90002500000012
 30
0.0
 40
1.0
100
AcDbArc
 50
90.0
 51
180.0
  0
LINE
  5
6596
330
1E
100
AcDbEntity
  8
12
  6
DASHED
100
AcDbLine
 10
161.55437709588
 20
38.0999400000001
 30
0.0
 11
169.55434809588
 21
38.0999400000001
 31
0.0
  0
LINE
  5
6597
330
1E
100
AcDbEntity
  8
12
  6
DASHED
100
AcDbLine
 10
161.55437709588
 20
45.89994000000011
 30
0.0
 11
169.55434809588
 21
45.89994000000011
 31
0.0
  0
LINE
  5
6598
330
1E
100
AcDbEntity
  8
10
  6
CONTINOUS
100
AcDbLine
 10
161.55437709588
 20
46.25006200000011
 30
0.0
 11
172.5543770958799
 21
46.25006200000011
 31
0.0
  0
LINE
  5
6599
330
1E
100
AcDbEntity
  8
10
  6
CONTINOUS
100
AcDbLine
 10
169.55434809588
 20
45.89994000000011
 30
0.0
 11
169.55434809588
 21
38.0999400000001
 31
0.0
  0
LINE
  5
659A
330
1E
100
AcDbEntity
  8
18
100
AcDbLine
 10
164.05434809588
 20
84.75000100000009
 30
0.0
 11
164.05434809588
 21
67.84423600000012
 31
0.0
  0
LINE
  5
659B
330
1E
100
AcDbEntity
  8
18
100
AcDbLine
 10
164.05434809588
 20
66.34423600000012
 30
0.0
 11
164.05434809588
 21
49.75006200000011
 31
0.0
  0
LINE
  5
659C
330
1E
100
AcDbEntity
  8
10
  6
CONTINOUS
100
AcDbLine
 10
161.55437709588
 20
49.75006200000011
 30
0.0
 11
172.5543770958799
 21
49.75006200000011
 31
0.0
  0
LINE
  5
659D
330
1E
100
AcDbEntity
  8
10
  6
CONTINOUS
100
AcDbLine
 10
211.6864100958799
 20
48.09735800000014
 30
0.0
 11
212.52396309588
 21
43.34735800000014
 31
0.0
  0
LINE
  5
659E
330
1E
100
AcDbEntity
  8
10
  6
CONTINOUS
100
AcDbLine
 10
207.55431709588
 20
17.80001800000012
 30
0.0
 11
208.7543170958801
 21
17.80001800000012
 31
0.0
  0
ARC
  5
659F
330
1E
100
AcDbEntity
  8
10
  6
CONTINOUS
100
AcDbCircle
 10
203.8543170958799
 20
14.60001800000007
 30
0.0
 40
4.2
100
AcDbArc
 50
331.7574629999999
 51
28.24253700000001
  0
LINE
  5
65A0
330
1E
100
AcDbEntity
  8
10
  6
CONTINOUS
100
AcDbLine
 10
212.55434809588
 20
43.00006200000011
 30
0.0
 11
212.55434809588
 21
15.80007900000014
 31
0.0
  0
LINE
  5
65A1
330
1E
100
AcDbEntity
  8
10
  6
CONTINOUS
100
AcDbLine
 10
208.9659110958799
 20
16.6000060000001
 30
0.0
 11
211.46316509588
 21
15.30007900000013
 31
0.0
  0
LINE
  5
65A2
330
1E
100
AcDbEntity
  8
10
  6
CONTINOUS
100
AcDbLine
 10
211.46316509588
 20
15.30007900000013
 30
0.0
 11
212.05431709588
 21
15.30007900000013
 31
0.0
  0
ARC
  5
65A3
330
1E
100
AcDbEntity
  8
10
  6
CONTINOUS
100
AcDbCircle
 10
212.05431709588
 20
15.80007900000014
 30
0.0
 40
0.5
100
AcDbArc
 50
270.0
 51
0.0
  0
LINE
  5
65A4
330
1E
100
AcDbEntity
  8
10
  6
CONTINOUS
100
AcDbLine
 10
208.7543170958801
 20
17.80001800000012
 30
0.0
 11
208.9659110958799
 21
16.6000060000001
 31
0.0
  0
ARC
  5
65A5
330
1E
100
AcDbEntity
  8
10
  6
CONTINOUS
100
AcDbCircle
 10
211.17305509588
 20
45.24996800000006
 30
0.0
 40
1.0
100
AcDbArc
 50
10.00000000000021
 51
90.0
  0
ARC
  5
65A6
330
1E
100
AcDbEntity
  8
10
  6
CONTINOUS
100
AcDbCircle
 10
210.55434809588
 20
43.00006200000011
 30
0.0
 40
2.0
100
AcDbArc
 50
0.0
 51
10.00000000000021
  0
LINE
  5
65A7
330
1E
100
AcDbEntity
  8
18
100
AcDbLine
 10
210.05434809588
 20
84.75000100000009
 30
0.0
 11
210.05434809588
 21
68.47124400000011
 31
0.0
  0
LINE
  5
65A8
330
1E
100
AcDbEntity
  8
18
100
AcDbLine
 10
210.05434809588
 20
66.97124400000011
 30
0.0
 11
210.05434809588
 21
49.75006200000011
 31
0.0
  0
ARC
  5
65A9
330
1E
100
AcDbEntity
  8
10
  6
CONTINOUS
100
AcDbCircle
 10
209.7167940958799
 20
47.75006200000011
 30
0.0
 40
2.0
100
AcDbArc
 50
10.00000000000021
 51
90.0
  0
DIMENSION
  5
663E
330
1E
100
AcDbEntity
  8
30
  6
CONTINUOUS
100
AcDbDimension
  2
*D1
 10
37.49994000000004
 20
-97.85339750406798
 30
0.0
 11
-0.0000530000000081
 21
-94.85339750406797
 31
0.0
 70
    32
  3
STANDARD
100
AcDbAlignedDimension
 13
-37.50004600000005
 23
-46.50000199999996
 33
0.0
 14
37.49994000000004
 24
-46.50000199999996
 34
0.0
100
AcDbRotatedDimension
1001
ACAD
1000
DSTYLE
1002
{
1070
    79
1070
     3
1002
}
  0
DIMENSION
  5
664B
330
1E
100
AcDbEntity
  8
30
  6
CONTINUOUS
100
AcDbDimension
  2
*D2
 10
-0.0000000000000023
 20
-86.88865999365772
 30
0.0
 11
-12.50000800000004
 21
-83.88865999365771
 31
0.0
 70
    32
  3
STANDARD
100
AcDbAlignedDimension
 13
-25.00001600000007
 23
-48.32501399999998
 33
0.0
 14
0.0
 24
-50.00000199999996
 34
0.0
100
AcDbRotatedDimension
1001
ACAD
1000
DSTYLE
1002
{
1070
    79
1070
     3
1002
}
  0
DIMENSION
  5
6658
330
1E
100
AcDbEntity
  8
30
  6
CONTINUOUS
100
AcDbDimension
  2
*D3
 10
24.99998599999992
 20
-86.88865999365772
 30
0.0
 11
12.49999299999995
 21
-83.88865999365771
 31
0.0
 70
    32
  3
STANDARD
100
AcDbAlignedDimension
 13
0.0
 23
-50.00000199999996
 33
0.0
 14
24.99998599999992
 24
-48.32501399999998
 34
0.0
100
AcDbRotatedDimension
1001
ACAD
1000
DSTYLE
1002
{
1070
    79
1070
     3
1002
}
  0
LINE
  5
6665
330
1E
100
AcDbEntity
  8
24
  6
CONTINOUS
100
AcDbLine
 10
18.92500399999994
 20
-42.25000099999999
 30
0.0
 11
31.07499799999994
 21
-42.25000099999999
 31
0.0
  0
DIMENSION
  5
66CD
330
1E
100
AcDbEntity
  8
30
  6
CONTINUOUS
100
AcDbDimension
  2
*D4
 10
161.55437709588
 20
-86.88865999365772
 30
0.0
 11
187.05436259588
 21
-83.88865999365771
 31
0.0
 70
    32
  3
STANDARD
100
AcDbAlignedDimension
 13
212.55434809588
 23
-43.00000099999988
 33
0.0
 14
161.55437709588
 24
-49.74994099999986
 34
0.0
100
AcDbRotatedDimension
1001
ACAD
1000
DSTYLE
1002
{
1070
    79
1070
     3
1002
}
  0
DIMENSION
  5
66DA
330
1E
100
AcDbEntity
  8
30
  6
CONTINUOUS
100
AcDbDimension
  2
*D5
 10
152.55440709588
 20
-86.88865999365772
 30
0.0
 11
157.05439209588
 21
-83.88865999365771
 31
0.0
 70
    32
  3
STANDARD
100
AcDbAlignedDimension
 13
161.55437709588
 23
-50.74994099999987
 33
0.0
 14
152.55440709588
 24
-36.89997194764001
 34
0.0
100
AcDbRotatedDimension
1001
ACAD
1000
DSTYLE
1002
{
1070
    79
1070
     3
1002
}
  0
DIMENSION
  5
66E7
330
1E
100
AcDbEntity
  8
30
  6
CONTINUOUS
100
AcDbDimension
  2
*D6
 10
140.55443809588
 20
-86.88865999365772
 30
0.0
 11
146.55442259588
 21
-83.88865999365771
 31
0.0
 70
    32
  3
STANDARD
100
AcDbAlignedDimension
 13
152.55440709588
 23
-36.89997194764001
 33
0.0
 14
140.55443809588
 24
-23.69999999999987
 34
0.0
100
AcDbRotatedDimension
1001
ACAD
1000
DSTYLE
1002
{
1070
    79
1070
     3
1002
}
  0
DIMENSION
  5
66F4
330
1E
100
AcDbEntity
  8
30
  6
CONTINUOUS
100
AcDbDimension
  2
*D7
 10
128.55435109588
 20
-97.85339750406798
 30
0.0
 11
170.55434959588
 21
-94.85339750406797
 31
0.0
 70
    32
  3
STANDARD
100
AcDbAlignedDimension
 13
212.55434809588
 23
-43.00005299999992
 33
0.0
 14
128.55435109588
 24
3.312547000000112
 34
0.0
100
AcDbRotatedDimension
1001
ACAD
1000
DSTYLE
1002
{
1070
    79
1070
     3
1002
}
  0
DIMENSION
  5
6756
330
1E
100
AcDbEntity
  8
30
  6
CONTINUOUS
100
AcDbDimension
  2
*D8
 10
116.475010085654
 20
-24.99993999999986
 30
0.0
 11
113.475010085654
 21
0.0000145000001645
 31
0.0
 70
    32
  3
STANDARD
100
AcDbAlignedDimension
 13
144.9079910958799
 23
24.99996900000014
 33
0.0
 14
140.55443809588
 24
-24.99993999999986
 34
0.0
 50
90.0
100
AcDbRotatedDimension
1001
ACAD
1000
DSTYLE
1002
{
1070
    79
1070
     3
1002
}
  0
LINE
  5
67D5
330
1E
100
AcDbEntity
  8
18
  6
DIVIDE
100
AcDbLine
 10
132.4999989999999
 20
-200.9999989999999
 30
0.0
 11
207.500001
 21
-200.9999989999999
 31
0.0
  0
DIMENSION
  5
67D6
330
1E
100
AcDbEntity
  8
30
  6
CONTINUOUS
100
AcDbDimension
  2
*D10
 10
136.9999989999999
 20
-225.9999999999999
 30
0.0
 11
157.3033049774538
 21
-243.5583630877617
 31
0.0
 70
   164
  1
R2以下
  3
FSTD1
100
AcDbRadialDimension
 15
135.4872269999999
 25
-224.6917500000001
 35
0.0
 40
0.0
1001
ACAD
1000
DSTYLE
1002
{
1070
   140
1040
4.0
1002
}
  0
LINE
  5
67D7
330
1E
100
AcDbEntity
  8
18
  6
DIVIDE
100
AcDbLine
 10
132.4999989999999
 20
-301.000002
 30
0.0
 11
207.500001
 21
-301.000002
 31
0.0
  0
LINE
  5
67D8
330
1E
100
AcDbEntity
  8
11
 48
2.0
100
AcDbLine
 10
136.9999989999999
 20
-276.000001
 30
0.0
 11
203.000001
 21
-276.000001
 31
0.0
  0
LINE
  5
67D9
330
1E
100
AcDbEntity
  8
11
 48
2.0
100
AcDbLine
 10
136.9999989999999
 20
-224.0
 30
0.0
 11
203.000001
 21
-224.0
 31
0.0
  0
DIMENSION
  5
67DA
330
1E
100
AcDbEntity
  8
30
  6
CONTINUOUS
100
AcDbDimension
  2
*D11
 10
205.000001
 20
-319.6112359999999
 30
0.0
 11
169.9999999999999
 21
-316.1112359999999
 31
0.0
 70
    32
  1
74以上
  3
FSTD1
100
AcDbAlignedDimension
 13
134.9999989999999
 23
-274.000001
 33
0.0
 14
205.000001
 24
-274.000001
 34
0.0
100
AcDbRotatedDimension
1001
ACAD
1000
DSTYLE
1002
{
1070
   140
1040
4.0
1002
}
  0
LINE
  5
67DB
330
1E
100
AcDbEntity
  8
16
100
AcDbLine
 10
239.1068323442413
 20
-250.0
 30
0.0
 11
89.65302159325338
 21
-250.0
 31
0.0
  0
DIMENSION
  5
67DC
330
1E
100
AcDbEntity
  8
30
  6
CONTINUOUS
100
AcDbDimension
  2
*D12
 10
12.5
 20
-319.6112359999999
 30
0.0
 11
-0.0000004999999888
 21
-316.6112359999999
 31
0.0
 70
    32
  1
25
  3
STANDARD
100
AcDbAlignedDimension
 13
-12.50000099999996
 23
-216.5497049999999
 33
0.0
 14
12.5
 24
-302.4494369999999
 34
0.0
100
AcDbRotatedDimension
  0
LINE
  5
67DD
330
1E
100
AcDbEntity
  8
18
  6
DIVIDE
100
AcDbLine
 10
-37.50000099999997
 20
-301.000002
 30
0.0
 11
-37.50000099999997
 21
-200.9999989999999
 31
0.0
  0
LINE
  5
67DE
330
1E
100
AcDbEntity
  8
18
  6
DIVIDE
100
AcDbLine
 10
37.5
 20
-301.000002
 30
0.0
 11
37.5
 21
-200.9999989999999
 31
0.0
  0
DIMENSION
  5
67DF
330
1E
100
AcDbEntity
  8
30
  6
CONTINUOUS
100
AcDbDimension
  2
*D13
 10
57.56424800000002
 20
-292.0000009999999
 30
0.0
 11
54.56424800000007
 21
-250.0
 31
0.0
 70
    32
  1
84
  3
STANDARD
100
AcDbAlignedDimension
 13
-4.273681999999951
 23
-207.999999
 33
0.0
 14
20.09230000000002
 24
-292.0000009999999
 34
0.0
 50
90.0
100
AcDbRotatedDimension
  0
LINE
  5
67E0
330
1E
100
AcDbEntity
  8
11
 48
2.0
100
AcDbLine
 10
134.9999989999999
 20
-274.000001
 30
0.0
 11
134.9999989999999
 21
-226.0
 31
0.0
  0
LINE
  5
67E1
330
1E
100
AcDbEntity
  8
18
  6
DIVIDE
100
AcDbLine
 10
132.4999989999999
 20
-301.000002
 30
0.0
 11
132.4999989999999
 21
-200.9999989999999
 31
0.0
  0
LINE
  5
67E2
330
1E
100
AcDbEntity
  8
16
100
AcDbLine
 10
0.0
 20
-347.7519397628455
 30
0.0
 11
0.0
 21
-148.6166007905139
 31
0.0
  0
LINE
  5
67E3
330
1E
100
AcDbEntity
  8
12
  6
CONTINUOUS
 62
     3
100
AcDbLine
 10
4.046451000000047
 20
-292.0000009999999
 30
0.0
 11
20.09230000000002
 21
-292.0000009999999
 31
0.0
  0
LINE
  5
67E4
330
1E
100
AcDbEntity
  8
18
  6
DIVIDE
100
AcDbLine
 10
-37.50000099999997
 20
-301.000002
 30
0.0
 11
37.5
 21
-301.000002
 31
0.0
  0
LINE
  5
67E5
330
1E
100
AcDbEntity
  8
16
100
AcDbLine
 10
58.04454104338322
 20
-250.0
 30
0.0
 11
-51.20451162428839
 21
-250.0
 31
0.0
  0
LINE
  5
67E6
330
1E
100
AcDbEntity
  8
12
  6
CONTINUOUS
 62
     3
100
AcDbLine
 10
12.5
 20
-282.8000038224183
 30
0.0
 11
12.5
 21
-302.4494364444583
 31
0.0
  0
CIRCLE
  5
67E7
330
1E
100
AcDbEntity
  8
12
  6
CONTINUOUS
 62
     3
100
AcDbCircle
 10
12.5
 20
-292.0000009999999
 30
0.0
 40
2.5
  0
CIRCLE
  5
67E8
330
1E
100
AcDbEntity
  8
12
  6
CONTINUOUS
 62
     3
100
AcDbCircle
 10
12.5
 20
-292.0000009999999
 30
0.0
 40
4.0
  0
ARC
  5
67E9
330
1E
100
AcDbEntity
  8
11
 48
2.0
100
AcDbCircle
 10
136.9999989999999
 20
-274.000001
 30
0.0
 40
2.0
100
AcDbArc
 50
180.0
 51
270.0
  0
LINE
  5
67EA
330
1E
100
AcDbEntity
  8
30
  6
CONTINUOUS
100
AcDbLine
 10
12.11420300000003
 20
-177.671482
 30
0.0
 11
53.40467000000001
 21
-177.671482
 31
0.0
  0
TEXT
  5
67EB
330
1E
100
AcDbEntity
  8
30
  6
CONTINUOUS
100
AcDbText
 10
13.82488499999999
 20
-176.1714819999999
 30
0.0
 40
4.0
  1
M4 又は %%c5
  7
MOJI
100
AcDbText
  0
LINE
  5
67EC
330
1E
100
AcDbEntity
  8
18
  6
DIVIDE
100
AcDbLine
 10
-37.50000099999997
 20
-200.9999989999999
 30
0.0
 11
37.5
 21
-200.9999989999999
 31
0.0
  0
LINE
  5
67ED
330
1E
100
AcDbEntity
  8
30
  6
CONTINUOUS
100
AcDbLine
 10
-10.45154099999996
 20
-204.5642879999999
 30
0.0
 11
12.11420300000003
 21
-177.671482
 31
0.0
  0
LINE
  5
67EE
330
1E
100
AcDbEntity
  8
12
  6
CONTINUOUS
 62
     3
100
AcDbLine
 10
-20.37545691394149
 20
-207.999999
 30
0.0
 11
-4.273682435557731
 21
-207.999999
 31
0.0
  0
CIRCLE
  5
67EF
330
1E
100
AcDbEntity
  8
12
  6
CONTINUOUS
 62
     3
100
AcDbCircle
 10
-12.50000099999996
 20
-207.999999
 30
0.0
 40
4.0
  0
LINE
  5
67F0
330
1E
100
AcDbEntity
  8
12
  6
CONTINUOUS
 62
     3
100
AcDbLine
 10
-12.50000099999996
 20
-198.3999929999999
 30
0.0
 11
-12.50000099999996
 21
-216.5497049999999
 31
0.0
  0
LINE
  5
67F1
330
1E
100
AcDbEntity
  8
30
  6
CONTINUOUS
100
AcDbLine
 10
-10.45154099999996
 20
-204.5642879999999
 30
0.0
 11
-6.211297999999999
 21
-201.5952379999999
 31
0.0
  0
LINE
  5
67F2
330
1E
100
AcDbEntity
  8
12
  6
CONTINUOUS
 62
     3
100
AcDbLine
 10
-10.45154099999996
 20
-204.5642879999999
 30
0.0
 11
-8.263907999999986
 21
-199.872894
 31
0.0
  0
CIRCLE
  5
67F3
330
1E
100
AcDbEntity
  8
12
  6
CONTINUOUS
 62
     3
100
AcDbCircle
 10
-12.50000099999996
 20
-207.999999
 30
0.0
 40
2.5
  0
ARC
  5
67F4
330
1E
100
AcDbEntity
  8
11
 48
2.0
100
AcDbCircle
 10
136.9999989999999
 20
-226.0
 30
0.0
 40
2.0
100
AcDbArc
 50
90.0
 51
179.9999990000002
  0
LINE
  5
67F5
330
1E
100
AcDbEntity
  8
11
 48
2.0
100
AcDbLine
 10
205.000001
 20
-274.000001
 30
0.0
 11
205.000001
 21
-226.0
 31
0.0
  0
DIMENSION
  5
67F6
330
1E
100
AcDbEntity
  8
30
  6
CONTINUOUS
100
AcDbDimension
  2
*D14
 10
224.8862769999999
 20
-276.000001
 30
0.0
 11
221.3862769999999
 21
-250.0000004999999
 31
0.0
 70
    32
  1
52以上
  3
FSTD1
100
AcDbAlignedDimension
 13
203.000001
 23
-224.0
 33
0.0
 14
203.000001
 24
-276.000001
 34
0.0
 50
90.0
100
AcDbRotatedDimension
1001
ACAD
1000
DSTYLE
1002
{
1070
   140
1040
4.0
1002
}
  0
LINE
  5
67F7
330
1E
100
AcDbEntity
  8
18
  6
DIVIDE
100
AcDbLine
 10
207.500001
 20
-301.000002
 30
0.0
 11
207.500001
 21
-200.9999989999999
 31
0.0
  0
LINE
  5
67F8
330
1E
100
AcDbEntity
  8
16
100
AcDbLine
 10
170.0
 20
-348.5993337838806
 30
0.0
 11
170.0
 21
-149.4639948115489
 31
0.0
  0
ARC
  5
67F9
330
1E
100
AcDbEntity
  8
11
 48
2.0
100
AcDbCircle
 10
203.000001
 20
-274.000001
 30
0.0
 40
2.0
100
AcDbArc
 50
270.0
 51
0.0
  0
ARC
  5
67FA
330
1E
100
AcDbEntity
  8
11
 48
2.0
100
AcDbCircle
 10
203.000001
 20
-226.0
 30
0.0
 40
2.0
100
AcDbArc
 50
0.0
 51
90.0
  0
DIMENSION
  5
6877
330
1E
100
AcDbEntity
  8
30
  6
CONTINUOUS
100
AcDbDimension
  2
*D15
 10
-48.84207204197489
 20
50.00000100000001
 30
0.0
 11
-51.84207204197491
 21
-0.0000004999999883
 31
0.0
 70
    32
  3
STANDARD
100
AcDbAlignedDimension
 13
-36.00000100000005
 23
-50.00000199999997
 33
0.0
 14
-36.00000100000005
 24
50.000001
 34
0.0
 50
90.0
100
AcDbRotatedDimension
1001
ACAD
1000
DSTYLE
1002
{
1070
    79
1070
     3
1002
}
  0
TEXT
  5
68C3
330
1E
100
AcDbEntity
  8
19
  6
CONTINUOUS
100
AcDbText
 10
139.1427340724692
 20
187.2952356889408
 30
0.0
 40
5.0
  1
NE50-NF  3P FC
  7
STANDARD1
100
AcDbText
  0
VIEWPORT
  5
9AC
330
1A
100
AcDbEntity
 67
     1
  8
0
  6
CONTINUOUS
100
AcDbViewport
 10
171.999535
 20
144.1384739999999
 30
0.0
 40
488.867686
 41
292.351491
 68
    -1
 69
     1
1001
ACAD
1000
MVIEW
1002
{
1070
    16
1010
0.0
1020
0.0
1030
0.0
1010
0.0
1020
0.0
1030
1.0
1040
0.0
1040
292.351491
1040
171.999535
1040
144.1384739999999
1040
50.0
1040
0.0
1040
0.0
1070
     0
1070
   100
1070
     1
1070
     1
1070
     0
1070
     0
1070
     0
1070
     0
1040
0.0
1040
0.0
1040
0.0
1040
10.0
1040
10.0
1040
10.0
1040
10.0
1070
     0
1002
{
1002
}
1002
}
  0
ENDSEC
  0
SECTION
  2
OBJECTS
  0
DICTIONARY
  5
C
330
0
100
AcDbDictionary
  3
ACAD_GROUP
350
D
  3
ACAD_LAYOUT
350
19
  3
ACAD_MLINESTYLE
350
16
  3
ACAD_PLOTSETTINGS
350
18
  3
ACAD_PLOTSTYLENAME
350
E
  3
ACADDIM
350
5C76
  3
ACDBHEADERROUNDTRIPXREC
350
6952
  3
ACDBVARIABLEDICTIONARY
350
5697
  0
DICTIONARY
  5
178
330
1E
100
AcDbDictionary
280
     1
  3
ACAD_LAYOUTSELFREF
360
6974
  0
DICTIONARY
  5
17A
330
1A
100
AcDbDictionary
280
     1
  3
ACAD_LAYOUTSELFREF
360
6973
  0
DICTIONARY
  5
D
102
{ACAD_REACTORS
330
C
102
}
330
C
100
AcDbDictionary
  0
DICTIONARY
  5
19
102
{ACAD_REACTORS
330
C
102
}
330
C
100
AcDbDictionary
  0
DICTIONARY
  5
16
102
{ACAD_REACTORS
330
C
102
}
330
C
100
AcDbDictionary
  3
STANDARD
350
17
  0
DICTIONARY
  5
18
102
{ACAD_REACTORS
330
C
102
}
330
C
100
AcDbDictionary
  0
ACDBDICTIONARYWDFLT
  5
E
102
{ACAD_REACTORS
330
C
102
}
330
C
100
AcDbDictionary
281
     1
  3
Normal
350
F
100
AcDbDictionaryWithDefault
340
F
  0
XRECORD
  5
5C76
102
{ACAD_REACTORS
330
C
102
}
330
C
100
AcDbXrecord
 90
   990106
  3

 60
     0
 61
     0
 62
     1
 63
     3
 64
     0
 65
     0
 66
     0
 67
     3
 68
     1
 69
     0
 70
     0
 71
     0
 72
     0
 40
0.0
170
     0
340
6200
  0
DICTIONARY
  5
6952
102
{ACAD_REACTORS
330
C
102
}
330
C
100
AcDbDictionary
  3
CEPSNTYPE
350
695C
  3
DIMSTYLEDATA
350
6960
  3
FINGERPRINTGUID
350
695D
  3
HYPERLINKBASE
350
6955
  3
INSUNITS
350
695B
  3
LAYOUTDICT
350
6957
  3
LWETCUNION
350
695A
  3
PLOTSETDICT
350
6958
  3
PLOTSTYLNAMDICT
350
6959
  3
PSVPSCALE
350
695F
  3
PUCSBASE
350
6963
  3
PUCSORGBACK
350
6969
  3
PUCSORGBOTTOM
350
6965
  3
PUCSORGFRONT
350
6968
  3
PUCSORGLEFT
350
6966
  3
PUCSORGRIGHT
350
6967
  3
PUCSORGTOP
350
6964
  3
PUCSORTHOREF
350
6961
  3
PUCSORTHOVIEW
350
6962
  3
STYLESHEET
350
6956
  3
TSTACKALIGN
350
6953
  3
TSTACKSIZE
350
6954
  3
UCSBASE
350
696C
  3
UCSORGBACK
350
6972
  3
UCSORGBOTTOM
350
696E
  3
UCSORGFRONT
350
6971
  3
UCSORGLEFT
350
696F
  3
UCSORGRIGHT
350
6970
  3
UCSORGTOP
350
696D
  3
UCSORTHOREF
350
696A
  3
UCSORTHOVIEW
350
696B
  3
VERSIONGUID
350
695E
  0
DICTIONARY
  5
5697
102
{ACAD_REACTORS
330
C
102
}
330
C
100
AcDbDictionary
  3
DIMASSOC
350
5698
  0
XRECORD
  5
6974
102
{ACAD_REACTORS
330
178
102
}
330
178
100
AcDbXrecord
340
1E
  0
XRECORD
  5
6973
102
{ACAD_REACTORS
330
17A
102
}
330
17A
100
AcDbXrecord
340
1A
  0
MLINESTYLE
  5
17
102
{ACAD_REACTORS
330
16
102
}
330
16
100
AcDbMlineStyle
  2
STANDARD
 70
     0
  3

 62
   256
 51
90.0
 52
90.0
 71
     2
 49
0.5
 62
   256
  6
BYLAYER
 49
-0.5
 62
   256
  6
BYLAYER
  0
ACDBPLACEHOLDER
  5
F
102
{ACAD_REACTORS
330
E
102
}
330
E
100
AcDbPlaceHolder
280
     0
  0
XRECORD
  5
695C
102
{ACAD_REACTORS
330
6952
102
}
330
6952
100
AcDbXrecord
 90
        0
  0
XRECORD
  5
6960
102
{ACAD_REACTORS
330
6952
102
}
330
6952
100
AcDbXrecord
1000
DSTYLE
1002
{
1070
    79
 70
     3
1070
   341
340
3B2
1070
   342
340
3B2
1002
}
  0
XRECORD
  5
695D
102
{ACAD_REACTORS
330
6952
102
}
330
6952
100
AcDbXrecord
  1

  0
XRECORD
  5
6955
102
{ACAD_REACTORS
330
6952
102
}
330
6952
100
AcDbXrecord
  1

  0
XRECORD
  5
695B
102
{ACAD_REACTORS
330
6952
102
}
330
6952
100
AcDbXrecord
 90
        0
  0
XRECORD
  5
6957
102
{ACAD_REACTORS
330
6952
102
}
330
6952
100
AcDbXrecord
340
19
  0
XRECORD
  5
695A
102
{ACAD_REACTORS
330
6952
102
}
330
6952
100
AcDbXrecord
 90
    10781
  0
XRECORD
  5
6958
102
{ACAD_REACTORS
330
6952
102
}
330
6952
100
AcDbXrecord
340
18
  0
XRECORD
  5
6959
102
{ACAD_REACTORS
330
6952
102
}
330
6952
100
AcDbXrecord
340
E
  0
XRECORD
  5
695F
102
{ACAD_REACTORS
330
6952
102
}
330
6952
100
AcDbXrecord
 40
0.0
  0
XRECORD
  5
6963
102
{ACAD_REACTORS
330
6952
102
}
330
6952
100
AcDbXrecord
340
0
  0
XRECORD
  5
6969
102
{ACAD_REACTORS
330
6952
102
}
330
6952
100
AcDbXrecord
 10
0.0
 20
0.0
 30
0.0
  0
XRECORD
  5
6965
102
{ACAD_REACTORS
330
6952
102
}
330
6952
100
AcDbXrecord
 10
0.0
 20
0.0
 30
0.0
  0
XRECORD
  5
6968
102
{ACAD_REACTORS
330
6952
102
}
330
6952
100
AcDbXrecord
 10
0.0
 20
0.0
 30
0.0
  0
XRECORD
  5
6966
102
{ACAD_REACTORS
330
6952
102
}
330
6952
100
AcDbXrecord
 10
0.0
 20
0.0
 30
0.0
  0
XRECORD
  5
6967
102
{ACAD_REACTORS
330
6952
102
}
330
6952
100
AcDbXrecord
 10
0.0
 20
0.0
 30
0.0
  0
XRECORD
  5
6964
102
{ACAD_REACTORS
330
6952
102
}
330
6952
100
AcDbXrecord
 10
0.0
 20
0.0
 30
0.0
  0
XRECORD
  5
6961
102
{ACAD_REACTORS
330
6952
102
}
330
6952
100
AcDbXrecord
340
0
  0
XRECORD
  5
6962
102
{ACAD_REACTORS
330
6952
102
}
330
6952
100
AcDbXrecord
 70
     0
  0
XRECORD
  5
6956
102
{ACAD_REACTORS
330
6952
102
}
330
6952
100
AcDbXrecord
  1
monochrome.ctb
  0
XRECORD
  5
6953
102
{ACAD_REACTORS
330
6952
102
}
330
6952
100
AcDbXrecord
 90
        1
  0
XRECORD
  5
6954
102
{ACAD_REACTORS
330
6952
102
}
330
6952
100
AcDbXrecord
 90
       70
  0
XRECORD
  5
696C
102
{ACAD_REACTORS
330
6952
102
}
330
6952
100
AcDbXrecord
340
0
  0
XRECORD
  5
6972
102
{ACAD_REACTORS
330
6952
102
}
330
6952
100
AcDbXrecord
 10
0.0
 20
0.0
 30
0.0
  0
XRECORD
  5
696E
102
{ACAD_REACTORS
330
6952
102
}
330
6952
100
AcDbXrecord
 10
0.0
 20
0.0
 30
0.0
  0
XRECORD
  5
6971
102
{ACAD_REACTORS
330
6952
102
}
330
6952
100
AcDbXrecord
 10
0.0
 20
0.0
 30
0.0
  0
XRECORD
  5
696F
102
{ACAD_REACTORS
330
6952
102
}
330
6952
100
AcDbXrecord
 10
0.0
 20
0.0
 30
0.0
  0
XRECORD
  5
6970
102
{ACAD_REACTORS
330
6952
102
}
330
6952
100
AcDbXrecord
 10
0.0
 20
0.0
 30
0.0
  0
XRECORD
  5
696D
102
{ACAD_REACTORS
330
6952
102
}
330
6952
100
AcDbXrecord
 10
0.0
 20
0.0
 30
0.0
  0
XRECORD
  5
696A
102
{ACAD_REACTORS
330
6952
102
}
330
6952
100
AcDbXrecord
340
0
  0
XRECORD
  5
696B
102
{ACAD_REACTORS
330
6952
102
}
330
6952
100
AcDbXrecord
 70
     0
  0
XRECORD
  5
695E
102
{ACAD_REACTORS
330
6952
102
}
330
6952
100
AcDbXrecord
  1
{E091ABF9-1DC5-40FC-9D2A-21B9FE1C767C}
  0
DICTIONARYVAR
  5
5698
102
{ACAD_REACTORS
330
5697
102
}
330
5697
100
DictionaryVariables
280
     0
  1
1
  0
ENDSEC
  0
EOF
