  0
SECTION
  2
HEADER
  9
$ACADVER
  1
AC1014
  9
$ACADMAINTVER
 70
     9
  9
$DWGCODEPAGE
  3
ANSI_932
  9
$INSBASE
 10
0.0
 20
0.0
 30
0.0
  9
$EXTMIN
 10
-83.96411608460175
 20
-348.6359603755261
 30
-0.0000000000000058
  9
$EXTMAX
 10
374.054652686264
 20
167.2497943289363
 30
0.0000000000000104
  9
$LIMMIN
 10
-296.316999476111
 20
-370.7034300441653
  9
$LIMMAX
 10
623.3128432133979
 20
328.6261559379898
  9
$ORTHOMODE
 70
     0
  9
$REGENMODE
 70
     1
  9
$FILLMODE
 70
     1
  9
$QTEXTMODE
 70
     0
  9
$MIRRTEXT
 70
     1
  9
$DRAGMODE
 70
     2
  9
$LTSCALE
 40
10.0
  9
$OSMODE
 70
    37
  9
$ATTMODE
 70
     1
  9
$TEXTSIZE
 40
5.0
  9
$TRACEWID
 40
0.05
  9
$TEXTSTYLE
  7
STANDARD1
  9
$CLAYER
  8
30
  9
$CELTYPE
  6
CONTINUOUS
  9
$CECOLOR
 62
   256
  9
$CELTSCALE
 40
1.0
  9
$DELOBJ
 70
     1
  9
$DISPSILH
 70
     0
  9
$DIMSCALE
 40
1.0
  9
$DIMASZ
 40
2.0
  9
$DIMEXO
 40
1.0
  9
$DIMDLI
 40
0.5
  9
$DIMRND
 40
0.0
  9
$DIMDLE
 40
0.0
  9
$DIMEXE
 40
0.5
  9
$DIMTP
 40
0.0
  9
$DIMTM
 40
0.0
  9
$DIMTXT
 40
4.0
  9
$DIMCEN
 40
0.09
  9
$DIMTSZ
 40
0.0
  9
$DIMTOL
 70
     0
  9
$DIMLIM
 70
     0
  9
$DIMTIH
 70
     0
  9
$DIMTOH
 70
     1
  9
$DIMSE1
 70
     0
  9
$DIMSE2
 70
     0
  9
$DIMTAD
 70
     3
  9
$DIMZIN
 70
    12
  9
$DIMBLK
  1
OPEN
  9
$DIMASO
 70
     1
  9
$DIMSHO
 70
     1
  9
$DIMPOST
  1

  9
$DIMAPOST
  1

  9
$DIMALT
 70
     0
  9
$DIMALTD
 70
     2
  9
$DIMALTF
 40
25.4
  9
$DIMLFAC
 40
1.0
  9
$DIMTOFL
 70
     0
  9
$DIMTVP
 40
0.0
  9
$DIMTIX
 70
     0
  9
$DIMSOXD
 70
     0
  9
$DIMSAH
 70
     0
  9
$DIMBLK1
  1

  9
$DIMBLK2
  1

  9
$DIMSTYLE
  2
STANDARD
  9
$DIMCLRD
 70
     0
  9
$DIMCLRE
 70
     0
  9
$DIMCLRT
 70
     0
  9
$DIMTFAC
 40
1.0
  9
$DIMGAP
 40
1.0
  9
$DIMJUST
 70
     0
  9
$DIMSD1
 70
     0
  9
$DIMSD2
 70
     0
  9
$DIMTOLJ
 70
     1
  9
$DIMTZIN
 70
     0
  9
$DIMALTZ
 70
     0
  9
$DIMALTTZ
 70
     0
  9
$DIMFIT
 70
     3
  9
$DIMUPT
 70
     0
  9
$DIMUNIT
 70
     2
  9
$DIMDEC
 70
     1
  9
$DIMTDEC
 70
     1
  9
$DIMALTU
 70
     2
  9
$DIMALTTD
 70
     2
  9
$DIMTXSTY
  7
STANDARD
  9
$DIMAUNIT
 70
     0
  9
$LUNITS
 70
     2
  9
$LUPREC
 70
     4
  9
$SKETCHINC
 40
0.1
  9
$FILLETRAD
 40
0.0
  9
$AUNITS
 70
     0
  9
$AUPREC
 70
     0
  9
$MENU
  1
.
  9
$ELEVATION
 40
0.0
  9
$PELEVATION
 40
0.0
  9
$THICKNESS
 40
0.0
  9
$LIMCHECK
 70
     0
  9
$BLIPMODE
 70
     0
  9
$CHAMFERA
 40
0.0
  9
$CHAMFERB
 40
0.0
  9
$CHAMFERC
 40
0.0
  9
$CHAMFERD
 40
0.0
  9
$SKPOLY
 70
     0
  9
$TDCREATE
 40
2452286.555658657
  9
$TDUPDATE
 40
2453118.424356551
  9
$TDINDWG
 40
1.2369303935
  9
$TDUSRTIMER
 40
1.2369238773
  9
$USRTIMER
 70
     1
  9
$ANGBASE
 50
0.0
  9
$ANGDIR
 70
     0
  9
$PDMODE
 70
     0
  9
$PDSIZE
 40
0.0
  9
$PLINEWID
 40
0.0
  9
$COORDS
 70
     1
  9
$SPLFRAME
 70
     0
  9
$SPLINETYPE
 70
     6
  9
$SPLINESEGS
 70
     8
  9
$ATTDIA
 70
     0
  9
$ATTREQ
 70
     1
  9
$HANDLING
 70
 22529
  9
$HANDSEED
  5
76C7
  9
$SURFTAB1
 70
     6
  9
$SURFTAB2
 70
     6
  9
$SURFTYPE
 70
     6
  9
$SURFU
 70
     6
  9
$SURFV
 70
     6
  9
$UCSNAME
  2

  9
$UCSORG
 10
0.0
 20
0.0
 30
0.0
  9
$UCSXDIR
 10
1.0
 20
0.0
 30
0.0
  9
$UCSYDIR
 10
0.0
 20
1.0
 30
0.0
  9
$PUCSNAME
  2

  9
$PUCSORG
 10
0.0
 20
0.0
 30
0.0
  9
$PUCSXDIR
 10
1.0
 20
0.0
 30
0.0
  9
$PUCSYDIR
 10
0.0
 20
1.0
 30
0.0
  9
$USERI1
 70
     0
  9
$USERI2
 70
     0
  9
$USERI3
 70
     0
  9
$USERI4
 70
     0
  9
$USERI5
 70
     0
  9
$USERR1
 40
0.0
  9
$USERR2
 40
0.0
  9
$USERR3
 40
0.0
  9
$USERR4
 40
0.0
  9
$USERR5
 40
0.0
  9
$WORLDVIEW
 70
     1
  9
$SHADEDGE
 70
     3
  9
$SHADEDIF
 70
    70
  9
$TILEMODE
 70
     1
  9
$MAXACTVP
 70
    48
  9
$PINSBASE
 10
0.0
 20
0.0
 30
0.0
  9
$PLIMCHECK
 70
     0
  9
$PEXTMIN
 10
4.273573
 20
5.205245999999998
 30
0.0
  9
$PEXTMAX
 10
194.610095
 20
283.0697009999996
 30
0.0
  9
$PLIMMIN
 10
-5.873749
 20
-5.87375
  9
$PLIMMAX
 10
204.099579
 20
291.1369009999999
  9
$UNITMODE
 70
     0
  9
$VISRETAIN
 70
     1
  9
$PLINEGEN
 70
     0
  9
$PSLTSCALE
 70
     1
  9
$TREEDEPTH
 70
  3020
  9
$PICKSTYLE
 70
     1
  9
$CMLSTYLE
  2
STANDARD
  9
$CMLJUST
 70
     0
  9
$CMLSCALE
 40
1.0
  9
$PROXYGRAPHICS
 70
     1
  9
$MEASUREMENT
 70
     0
  0
ENDSEC
  0
SECTION
  2
CLASSES
  0
CLASS
  1
ACDBDICTIONARYWDFLT
  2
AcDbDictionaryWithDefault
  3
AutoCAD 2000
 90
        0
280
     0
281
     0
  0
CLASS
  1
ACDBPLACEHOLDER
  2
AcDbPlaceHolder
  3
AutoCAD 2000
 90
        0
280
     0
281
     0
  0
CLASS
  1
LAYOUT
  2
AcDbLayout
  3
AutoCAD 2000
 90
        0
280
     0
281
     0
  0
CLASS
  1
LONG_TRANSACTION
  2
AcDbLongTransaction
  3
AutoCAD 2000
 90
        0
280
     0
281
     0
  0
CLASS
  1
LWPOLYLINE
  2
AcDbPolyline
  3
AutoCAD 2000
 90
        0
280
     0
281
     1
  0
CLASS
  1
HATCH
  2
AcDbHatch
  3
AutoCAD 2000
 90
        0
280
     0
281
     1
  0
CLASS
  1
XRECORD
  2
AcDbXrecord
  3
AutoCAD 2000
 90
        0
280
     0
281
     0
  0
CLASS
  1
LONG_TRANSACTION
  2
AcDbLongTransaction
  3
AutoCAD 2000
 90
        0
280
     0
281
     0
  0
CLASS
  1
LWPOLYLINE
  2
AcDbPolyline
  3
AutoCAD 2000
 90
        0
280
     0
281
     1
  0
CLASS
  1
HATCH
  2
AcDbHatch
  3
AutoCAD 2000
 90
        0
280
     0
281
     1
  0
CLASS
  1
XRECORD
  2
AcDbXrecord
  3
AutoCAD 2000
 90
        0
280
     0
281
     0
  0
CLASS
  1
LONG_TRANSACTION
  2
AcDbLongTransaction
  3
AutoCAD 2000
 90
        0
280
     0
281
     0
  0
CLASS
  1
LWPOLYLINE
  2
AcDbPolyline
  3
AutoCAD 2000
 90
        0
280
     0
281
     1
  0
CLASS
  1
HATCH
  2
AcDbHatch
  3
AutoCAD 2000
 90
        0
280
     0
281
     1
  0
CLASS
  1
XRECORD
  2
AcDbXrecord
  3
AutoCAD 2000
 90
        0
280
     0
281
     0
  0
CLASS
  1
LONG_TRANSACTION
  2
AcDbLongTransaction
  3
AutoCAD 2000
 90
        0
280
     0
281
     0
  0
CLASS
  1
LWPOLYLINE
  2
AcDbPolyline
  3
AutoCAD 2000
 90
        0
280
     0
281
     1
  0
CLASS
  1
HATCH
  2
AcDbHatch
  3
AutoCAD 2000
 90
        0
280
     0
281
     1
  0
CLASS
  1
XRECORD
  2
AcDbXrecord
  3
AutoCAD 2000
 90
        0
280
     0
281
     0
  0
CLASS
  1
LONG_TRANSACTION
  2
AcDbLongTransaction
  3
AutoCAD 2000
 90
        0
280
     0
281
     0
  0
CLASS
  1
LWPOLYLINE
  2
AcDbPolyline
  3
AutoCAD 2000
 90
        0
280
     0
281
     1
  0
CLASS
  1
HATCH
  2
AcDbHatch
  3
AutoCAD 2000
 90
        0
280
     0
281
     1
  0
CLASS
  1
XRECORD
  2
AcDbXrecord
  3
AutoCAD 2000
 90
        0
280
     0
281
     0
  0
CLASS
  1
LONG_TRANSACTION
  2
AcDbLongTransaction
  3
AutoCAD 2000
 90
        0
280
     0
281
     0
  0
CLASS
  1
LWPOLYLINE
  2
AcDbPolyline
  3
AutoCAD 2000
 90
        0
280
     0
281
     1
  0
CLASS
  1
HATCH
  2
AcDbHatch
  3
AutoCAD 2000
 90
        0
280
     0
281
     1
  0
CLASS
  1
XRECORD
  2
AcDbXrecord
  3
AutoCAD 2000
 90
        0
280
     0
281
     0
  0
CLASS
  1
LONG_TRANSACTION
  2
AcDbLongTransaction
  3
AutoCAD 2000
 90
        0
280
     0
281
     0
  0
CLASS
  1
LWPOLYLINE
  2
AcDbPolyline
  3
AutoCAD 2000
 90
        0
280
     0
281
     1
  0
CLASS
  1
HATCH
  2
AcDbHatch
  3
AutoCAD 2000
 90
        0
280
     0
281
     1
  0
CLASS
  1
XRECORD
  2
AcDbXrecord
  3
AutoCAD 2000
 90
        0
280
     0
281
     0
  0
CLASS
  1
LONG_TRANSACTION
  2
AcDbLongTransaction
  3
AutoCAD 2000
 90
        0
280
     0
281
     0
  0
CLASS
  1
LWPOLYLINE
  2
AcDbPolyline
  3
AutoCAD 2000
 90
        0
280
     0
281
     1
  0
CLASS
  1
HATCH
  2
AcDbHatch
  3
AutoCAD 2000
 90
        0
280
     0
281
     1
  0
CLASS
  1
XRECORD
  2
AcDbXrecord
  3
AutoCAD 2000
 90
        0
280
     0
281
     0
  0
CLASS
  1
LONG_TRANSACTION
  2
AcDbLongTransaction
  3
AutoCAD 2000
 90
        0
280
     0
281
     0
  0
CLASS
  1
LWPOLYLINE
  2
AcDbPolyline
  3
AutoCAD 2000
 90
        0
280
     0
281
     1
  0
CLASS
  1
HATCH
  2
AcDbHatch
  3
AutoCAD 2000
 90
        0
280
     0
281
     1
  0
CLASS
  1
XRECORD
  2
AcDbXrecord
  3
AutoCAD 2000
 90
        0
280
     0
281
     0
  0
CLASS
  1
LONG_TRANSACTION
  2
AcDbLongTransaction
  3
AutoCAD 2000
 90
        0
280
     0
281
     0
  0
CLASS
  1
LWPOLYLINE
  2
AcDbPolyline
  3
AutoCAD 2000
 90
        0
280
     0
281
     1
  0
CLASS
  1
HATCH
  2
AcDbHatch
  3
AutoCAD 2000
 90
        0
280
     0
281
     1
  0
CLASS
  1
XRECORD
  2
AcDbXrecord
  3
AutoCAD 2000
 90
        0
280
     0
281
     0
  0
CLASS
  1
LONG_TRANSACTION
  2
AcDbLongTransaction
  3
AutoCAD 2000
 90
        0
280
     0
281
     0
  0
CLASS
  1
LWPOLYLINE
  2
AcDbPolyline
  3
AutoCAD 2000
 90
        0
280
     0
281
     1
  0
CLASS
  1
HATCH
  2
AcDbHatch
  3
AutoCAD 2000
 90
        0
280
     0
281
     1
  0
CLASS
  1
XRECORD
  2
AcDbXrecord
  3
AutoCAD 2000
 90
        0
280
     0
281
     0
  0
CLASS
  1
LONG_TRANSACTION
  2
AcDbLongTransaction
  3
AutoCAD 2000
 90
        0
280
     0
281
     0
  0
CLASS
  1
LWPOLYLINE
  2
AcDbPolyline
  3
AutoCAD 2000
 90
        0
280
     0
281
     1
  0
CLASS
  1
HATCH
  2
AcDbHatch
  3
AutoCAD 2000
 90
        0
280
     0
281
     1
  0
CLASS
  1
XRECORD
  2
AcDbXrecord
  3
AutoCAD 2000
 90
        0
280
     0
281
     0
  0
CLASS
  1
LONG_TRANSACTION
  2
AcDbLongTransaction
  3
AutoCAD 2000
 90
        0
280
     0
281
     0
  0
CLASS
  1
LWPOLYLINE
  2
AcDbPolyline
  3
AutoCAD 2000
 90
        0
280
     0
281
     1
  0
CLASS
  1
HATCH
  2
AcDbHatch
  3
AutoCAD 2000
 90
        0
280
     0
281
     1
  0
CLASS
  1
XRECORD
  2
AcDbXrecord
  3
AutoCAD 2000
 90
        0
280
     0
281
     0
  0
CLASS
  1
LONG_TRANSACTION
  2
AcDbLongTransaction
  3
AutoCAD 2000
 90
        0
280
     0
281
     0
  0
CLASS
  1
LWPOLYLINE
  2
AcDbPolyline
  3
AutoCAD 2000
 90
        0
280
     0
281
     1
  0
CLASS
  1
HATCH
  2
AcDbHatch
  3
AutoCAD 2000
 90
        0
280
     0
281
     1
  0
CLASS
  1
XRECORD
  2
AcDbXrecord
  3
AutoCAD 2000
 90
        0
280
     0
281
     0
  0
CLASS
  1
LONG_TRANSACTION
  2
AcDbLongTransaction
  3
AutoCAD 2000
 90
        0
280
     0
281
     0
  0
CLASS
  1
LWPOLYLINE
  2
AcDbPolyline
  3
AutoCAD 2000
 90
        0
280
     0
281
     1
  0
CLASS
  1
HATCH
  2
AcDbHatch
  3
AutoCAD 2000
 90
        0
280
     0
281
     1
  0
CLASS
  1
XRECORD
  2
AcDbXrecord
  3
AutoCAD 2000
 90
        0
280
     0
281
     0
  0
CLASS
  1
LONG_TRANSACTION
  2
AcDbLongTransaction
  3
AutoCAD 2000
 90
        0
280
     0
281
     0
  0
CLASS
  1
LWPOLYLINE
  2
AcDbPolyline
  3
AutoCAD 2000
 90
        0
280
     0
281
     1
  0
CLASS
  1
HATCH
  2
AcDbHatch
  3
AutoCAD 2000
 90
        0
280
     0
281
     1
  0
CLASS
  1
XRECORD
  2
AcDbXrecord
  3
AutoCAD 2000
 90
        0
280
     0
281
     0
  0
CLASS
  1
LONG_TRANSACTION
  2
AcDbLongTransaction
  3
AutoCAD 2000
 90
        0
280
     0
281
     0
  0
CLASS
  1
LWPOLYLINE
  2
AcDbPolyline
  3
AutoCAD 2000
 90
        0
280
     0
281
     1
  0
CLASS
  1
HATCH
  2
AcDbHatch
  3
AutoCAD 2000
 90
        0
280
     0
281
     1
  0
CLASS
  1
XRECORD
  2
AcDbXrecord
  3
AutoCAD 2000
 90
        0
280
     0
281
     0
  0
CLASS
  1
LONG_TRANSACTION
  2
AcDbLongTransaction
  3
AutoCAD 2000
 90
        0
280
     0
281
     0
  0
CLASS
  1
LWPOLYLINE
  2
AcDbPolyline
  3
AutoCAD 2000
 90
        0
280
     0
281
     1
  0
CLASS
  1
HATCH
  2
AcDbHatch
  3
AutoCAD 2000
 90
        0
280
     0
281
     1
  0
CLASS
  1
XRECORD
  2
AcDbXrecord
  3
AutoCAD 2000
 90
        0
280
     0
281
     0
  0
CLASS
  1
LONG_TRANSACTION
  2
AcDbLongTransaction
  3
AutoCAD 2000
 90
        0
280
     0
281
     0
  0
CLASS
  1
LWPOLYLINE
  2
AcDbPolyline
  3
AutoCAD 2000
 90
        0
280
     0
281
     1
  0
CLASS
  1
HATCH
  2
AcDbHatch
  3
AutoCAD 2000
 90
        0
280
     0
281
     1
  0
CLASS
  1
XRECORD
  2
AcDbXrecord
  3
AutoCAD 2000
 90
        0
280
     0
281
     0
  0
CLASS
  1
LONG_TRANSACTION
  2
AcDbLongTransaction
  3
AutoCAD 2000
 90
        0
280
     0
281
     0
  0
CLASS
  1
LWPOLYLINE
  2
AcDbPolyline
  3
AutoCAD 2000
 90
        0
280
     0
281
     1
  0
CLASS
  1
HATCH
  2
AcDbHatch
  3
AutoCAD 2000
 90
        0
280
     0
281
     1
  0
CLASS
  1
XRECORD
  2
AcDbXrecord
  3
AutoCAD 2000
 90
        0
280
     0
281
     0
  0
CLASS
  1
LONG_TRANSACTION
  2
AcDbLongTransaction
  3
AutoCAD 2000
 90
        0
280
     0
281
     0
  0
CLASS
  1
LWPOLYLINE
  2
AcDbPolyline
  3
AutoCAD 2000
 90
        0
280
     0
281
     1
  0
CLASS
  1
HATCH
  2
AcDbHatch
  3
AutoCAD 2000
 90
        0
280
     0
281
     1
  0
CLASS
  1
XRECORD
  2
AcDbXrecord
  3
AutoCAD 2000
 90
        0
280
     0
281
     0
  0
CLASS
  1
LONG_TRANSACTION
  2
AcDbLongTransaction
  3
AutoCAD 2000
 90
        0
280
     0
281
     0
  0
CLASS
  1
LWPOLYLINE
  2
AcDbPolyline
  3
AutoCAD 2000
 90
        0
280
     0
281
     1
  0
CLASS
  1
HATCH
  2
AcDbHatch
  3
AutoCAD 2000
 90
        0
280
     0
281
     1
  0
CLASS
  1
XRECORD
  2
AcDbXrecord
  3
AutoCAD 2000
 90
        0
280
     0
281
     0
  0
CLASS
  1
LONG_TRANSACTION
  2
AcDbLongTransaction
  3
AutoCAD 2000
 90
        0
280
     0
281
     0
  0
CLASS
  1
LWPOLYLINE
  2
AcDbPolyline
  3
AutoCAD 2000
 90
        0
280
     0
281
     1
  0
CLASS
  1
HATCH
  2
AcDbHatch
  3
AutoCAD 2000
 90
        0
280
     0
281
     1
  0
CLASS
  1
XRECORD
  2
AcDbXrecord
  3
AutoCAD 2000
 90
        0
280
     0
281
     0
  0
CLASS
  1
LONG_TRANSACTION
  2
AcDbLongTransaction
  3
AutoCAD 2000
 90
        0
280
     0
281
     0
  0
CLASS
  1
LWPOLYLINE
  2
AcDbPolyline
  3
AutoCAD 2000
 90
        0
280
     0
281
     1
  0
CLASS
  1
HATCH
  2
AcDbHatch
  3
AutoCAD 2000
 90
        0
280
     0
281
     1
  0
CLASS
  1
XRECORD
  2
AcDbXrecord
  3
AutoCAD 2000
 90
        0
280
     0
281
     0
  0
CLASS
  1
LONG_TRANSACTION
  2
AcDbLongTransaction
  3
AutoCAD 2000
 90
        0
280
     0
281
     0
  0
CLASS
  1
LWPOLYLINE
  2
AcDbPolyline
  3
AutoCAD 2000
 90
        0
280
     0
281
     1
  0
CLASS
  1
HATCH
  2
AcDbHatch
  3
AutoCAD 2000
 90
        0
280
     0
281
     1
  0
CLASS
  1
XRECORD
  2
AcDbXrecord
  3
AutoCAD 2000
 90
        0
280
     0
281
     0
  0
CLASS
  1
LONG_TRANSACTION
  2
AcDbLongTransaction
  3
AutoCAD 2000
 90
        0
280
     0
281
     0
  0
CLASS
  1
LWPOLYLINE
  2
AcDbPolyline
  3
AutoCAD 2000
 90
        0
280
     0
281
     1
  0
CLASS
  1
HATCH
  2
AcDbHatch
  3
AutoCAD 2000
 90
        0
280
     0
281
     1
  0
CLASS
  1
XRECORD
  2
AcDbXrecord
  3
AutoCAD 2000
 90
        0
280
     0
281
     0
  0
CLASS
  1
LONG_TRANSACTION
  2
AcDbLongTransaction
  3
AutoCAD 2000
 90
        0
280
     0
281
     0
  0
CLASS
  1
LWPOLYLINE
  2
AcDbPolyline
  3
AutoCAD 2000
 90
        0
280
     0
281
     1
  0
CLASS
  1
HATCH
  2
AcDbHatch
  3
AutoCAD 2000
 90
        0
280
     0
281
     1
  0
CLASS
  1
XRECORD
  2
AcDbXrecord
  3
AutoCAD 2000
 90
        0
280
     0
281
     0
  0
CLASS
  1
LONG_TRANSACTION
  2
AcDbLongTransaction
  3
AutoCAD 2000
 90
        0
280
     0
281
     0
  0
CLASS
  1
LWPOLYLINE
  2
AcDbPolyline
  3
AutoCAD 2000
 90
        0
280
     0
281
     1
  0
CLASS
  1
HATCH
  2
AcDbHatch
  3
AutoCAD 2000
 90
        0
280
     0
281
     1
  0
CLASS
  1
XRECORD
  2
AcDbXrecord
  3
AutoCAD 2000
 90
        0
280
     0
281
     0
  0
CLASS
  1
LONG_TRANSACTION
  2
AcDbLongTransaction
  3
AutoCAD 2000
 90
        0
280
     0
281
     0
  0
CLASS
  1
LWPOLYLINE
  2
AcDbPolyline
  3
AutoCAD 2000
 90
        0
280
     0
281
     1
  0
CLASS
  1
HATCH
  2
AcDbHatch
  3
AutoCAD 2000
 90
        0
280
     0
281
     1
  0
CLASS
  1
XRECORD
  2
AcDbXrecord
  3
AutoCAD 2000
 90
        0
280
     0
281
     0
  0
CLASS
  1
LONG_TRANSACTION
  2
AcDbLongTransaction
  3
AutoCAD 2000
 90
        0
280
     0
281
     0
  0
CLASS
  1
LWPOLYLINE
  2
AcDbPolyline
  3
AutoCAD 2000
 90
        0
280
     0
281
     1
  0
CLASS
  1
HATCH
  2
AcDbHatch
  3
AutoCAD 2000
 90
        0
280
     0
281
     1
  0
CLASS
  1
XRECORD
  2
AcDbXrecord
  3
AutoCAD 2000
 90
        0
280
     0
281
     0
  0
CLASS
  1
LONG_TRANSACTION
  2
AcDbLongTransaction
  3
AutoCAD 2000
 90
        0
280
     0
281
     0
  0
CLASS
  1
LWPOLYLINE
  2
AcDbPolyline
  3
AutoCAD 2000
 90
        0
280
     0
281
     1
  0
CLASS
  1
HATCH
  2
AcDbHatch
  3
AutoCAD 2000
 90
        0
280
     0
281
     1
  0
CLASS
  1
XRECORD
  2
AcDbXrecord
  3
AutoCAD 2000
 90
        0
280
     0
281
     0
  0
CLASS
  1
LONG_TRANSACTION
  2
AcDbLongTransaction
  3
AutoCAD 2000
 90
        0
280
     0
281
     0
  0
CLASS
  1
LWPOLYLINE
  2
AcDbPolyline
  3
AutoCAD 2000
 90
        0
280
     0
281
     1
  0
CLASS
  1
HATCH
  2
AcDbHatch
  3
AutoCAD 2000
 90
        0
280
     0
281
     1
  0
CLASS
  1
XRECORD
  2
AcDbXrecord
  3
AutoCAD 2000
 90
        0
280
     0
281
     0
  0
CLASS
  1
LONG_TRANSACTION
  2
AcDbLongTransaction
  3
AutoCAD 2000
 90
        0
280
     0
281
     0
  0
CLASS
  1
LWPOLYLINE
  2
AcDbPolyline
  3
AutoCAD 2000
 90
        0
280
     0
281
     1
  0
CLASS
  1
HATCH
  2
AcDbHatch
  3
AutoCAD 2000
 90
        0
280
     0
281
     1
  0
CLASS
  1
XRECORD
  2
AcDbXrecord
  3
AutoCAD 2000
 90
        0
280
     0
281
     0
  0
CLASS
  1
DICTIONARYVAR
  2
AcDbDictionaryVar
  3
AutoCAD 2000
 90
        0
280
     0
281
     0
  0
CLASS
  1
LONG_TRANSACTION
  2
AcDbLongTransaction
  3
AutoCAD 2000
 90
        0
280
     0
281
     0
  0
CLASS
  1
LWPOLYLINE
  2
AcDbPolyline
  3
AutoCAD 2000
 90
        0
280
     0
281
     1
  0
CLASS
  1
HATCH
  2
AcDbHatch
  3
AutoCAD 2000
 90
        0
280
     0
281
     1
  0
CLASS
  1
XRECORD
  2
AcDbXrecord
  3
AutoCAD 2000
 90
        0
280
     0
281
     0
  0
CLASS
  1
LONG_TRANSACTION
  2
AcDbLongTransaction
  3
AutoCAD 2000
 90
        0
280
     0
281
     0
  0
CLASS
  1
LWPOLYLINE
  2
AcDbPolyline
  3
AutoCAD 2000
 90
        0
280
     0
281
     1
  0
CLASS
  1
HATCH
  2
AcDbHatch
  3
AutoCAD 2000
 90
        0
280
     0
281
     1
  0
CLASS
  1
XRECORD
  2
AcDbXrecord
  3
AutoCAD 2000
 90
        0
280
     0
281
     0
  0
CLASS
  1
LONG_TRANSACTION
  2
AcDbLongTransaction
  3
AutoCAD 2000
 90
        0
280
     0
281
     0
  0
CLASS
  1
LWPOLYLINE
  2
AcDbPolyline
  3
AutoCAD 2000
 90
        0
280
     0
281
     1
  0
CLASS
  1
HATCH
  2
AcDbHatch
  3
AutoCAD 2000
 90
        0
280
     0
281
     1
  0
CLASS
  1
XRECORD
  2
AcDbXrecord
  3
AutoCAD 2000
 90
        0
280
     0
281
     0
  0
CLASS
  1
LONG_TRANSACTION
  2
AcDbLongTransaction
  3
AutoCAD 2000
 90
        0
280
     0
281
     0
  0
CLASS
  1
LWPOLYLINE
  2
AcDbPolyline
  3
AutoCAD 2000
 90
        0
280
     0
281
     1
  0
CLASS
  1
HATCH
  2
AcDbHatch
  3
AutoCAD 2000
 90
        0
280
     0
281
     1
  0
CLASS
  1
XRECORD
  2
AcDbXrecord
  3
AutoCAD 2000
 90
        0
280
     0
281
     0
  0
CLASS
  1
LONG_TRANSACTION
  2
AcDbLongTransaction
  3
AutoCAD 2000
 90
        0
280
     0
281
     0
  0
CLASS
  1
LWPOLYLINE
  2
AcDbPolyline
  3
AutoCAD 2000
 90
        0
280
     0
281
     1
  0
CLASS
  1
HATCH
  2
AcDbHatch
  3
AutoCAD 2000
 90
        0
280
     0
281
     1
  0
CLASS
  1
XRECORD
  2
AcDbXrecord
  3
AutoCAD 2000
 90
        0
280
     0
281
     0
  0
CLASS
  1
LONG_TRANSACTION
  2
AcDbLongTransaction
  3
AutoCAD 2000
 90
        0
280
     0
281
     0
  0
CLASS
  1
LWPOLYLINE
  2
AcDbPolyline
  3
AutoCAD 2000
 90
        0
280
     0
281
     1
  0
CLASS
  1
HATCH
  2
AcDbHatch
  3
AutoCAD 2000
 90
        0
280
     0
281
     1
  0
CLASS
  1
XRECORD
  2
AcDbXrecord
  3
AutoCAD 2000
 90
        0
280
     0
281
     0
  0
CLASS
  1
LONG_TRANSACTION
  2
AcDbLongTransaction
  3
AutoCAD 2000
 90
        0
280
     0
281
     0
  0
CLASS
  1
LWPOLYLINE
  2
AcDbPolyline
  3
AutoCAD 2000
 90
        0
280
     0
281
     1
  0
CLASS
  1
HATCH
  2
AcDbHatch
  3
AutoCAD 2000
 90
        0
280
     0
281
     1
  0
CLASS
  1
XRECORD
  2
AcDbXrecord
  3
AutoCAD 2000
 90
        0
280
     0
281
     0
  0
CLASS
  1
LONG_TRANSACTION
  2
AcDbLongTransaction
  3
AutoCAD 2000
 90
        0
280
     0
281
     0
  0
CLASS
  1
LWPOLYLINE
  2
AcDbPolyline
  3
AutoCAD 2000
 90
        0
280
     0
281
     1
  0
CLASS
  1
HATCH
  2
AcDbHatch
  3
AutoCAD 2000
 90
        0
280
     0
281
     1
  0
CLASS
  1
XRECORD
  2
AcDbXrecord
  3
AutoCAD 2000
 90
        0
280
     0
281
     0
  0
CLASS
  1
LONG_TRANSACTION
  2
AcDbLongTransaction
  3
AutoCAD 2000
 90
        0
280
     0
281
     0
  0
CLASS
  1
LWPOLYLINE
  2
AcDbPolyline
  3
AutoCAD 2000
 90
        0
280
     0
281
     1
  0
CLASS
  1
HATCH
  2
AcDbHatch
  3
AutoCAD 2000
 90
        0
280
     0
281
     1
  0
CLASS
  1
XRECORD
  2
AcDbXrecord
  3
AutoCAD 2000
 90
        0
280
     0
281
     0
  0
CLASS
  1
LONG_TRANSACTION
  2
AcDbLongTransaction
  3
AutoCAD 2000
 90
        0
280
     0
281
     0
  0
CLASS
  1
LWPOLYLINE
  2
AcDbPolyline
  3
AutoCAD 2000
 90
        0
280
     0
281
     1
  0
CLASS
  1
HATCH
  2
AcDbHatch
  3
AutoCAD 2000
 90
        0
280
     0
281
     1
  0
CLASS
  1
XRECORD
  2
AcDbXrecord
  3
AutoCAD 2000
 90
        0
280
     0
281
     0
  0
CLASS
  1
LONG_TRANSACTION
  2
AcDbLongTransaction
  3
AutoCAD 2000
 90
        0
280
     0
281
     0
  0
CLASS
  1
LWPOLYLINE
  2
AcDbPolyline
  3
AutoCAD 2000
 90
        0
280
     0
281
     1
  0
CLASS
  1
HATCH
  2
AcDbHatch
  3
AutoCAD 2000
 90
        0
280
     0
281
     1
  0
CLASS
  1
XRECORD
  2
AcDbXrecord
  3
AutoCAD 2000
 90
        0
280
     0
281
     0
  0
CLASS
  1
LONG_TRANSACTION
  2
AcDbLongTransaction
  3
AutoCAD 2000
 90
        0
280
     0
281
     0
  0
CLASS
  1
LWPOLYLINE
  2
AcDbPolyline
  3
AutoCAD 2000
 90
        0
280
     0
281
     1
  0
CLASS
  1
HATCH
  2
AcDbHatch
  3
AutoCAD 2000
 90
        0
280
     0
281
     1
  0
CLASS
  1
XRECORD
  2
AcDbXrecord
  3
AutoCAD 2000
 90
        0
280
     0
281
     0
  0
CLASS
  1
LONG_TRANSACTION
  2
AcDbLongTransaction
  3
AutoCAD 2000
 90
        0
280
     0
281
     0
  0
CLASS
  1
LWPOLYLINE
  2
AcDbPolyline
  3
AutoCAD 2000
 90
        0
280
     0
281
     1
  0
CLASS
  1
HATCH
  2
AcDbHatch
  3
AutoCAD 2000
 90
        0
280
     0
281
     1
  0
CLASS
  1
XRECORD
  2
AcDbXrecord
  3
AutoCAD 2000
 90
        0
280
     0
281
     0
  0
CLASS
  1
LONG_TRANSACTION
  2
AcDbLongTransaction
  3
AutoCAD 2000
 90
        0
280
     0
281
     0
  0
CLASS
  1
LWPOLYLINE
  2
AcDbPolyline
  3
AutoCAD 2000
 90
        0
280
     0
281
     1
  0
CLASS
  1
HATCH
  2
AcDbHatch
  3
AutoCAD 2000
 90
        0
280
     0
281
     1
  0
CLASS
  1
XRECORD
  2
AcDbXrecord
  3
AutoCAD 2000
 90
        0
280
     0
281
     0
  0
CLASS
  1
LONG_TRANSACTION
  2
AcDbLongTransaction
  3
AutoCAD 2000
 90
        0
280
     0
281
     0
  0
CLASS
  1
LWPOLYLINE
  2
AcDbPolyline
  3
AutoCAD 2000
 90
        0
280
     0
281
     1
  0
CLASS
  1
HATCH
  2
AcDbHatch
  3
AutoCAD 2000
 90
        0
280
     0
281
     1
  0
CLASS
  1
XRECORD
  2
AcDbXrecord
  3
AutoCAD 2000
 90
        0
280
     0
281
     0
  0
ENDSEC
  0
SECTION
  2
TABLES
  0
TABLE
  2
VPORT
  5
8
330
0
100
AcDbSymbolTable
 70
     2
  0
VPORT
  5
76A3
330
8
100
AcDbSymbolTableRecord
100
AcDbViewportTableRecord
  2
*ACTIVE
 70
     0
 10
0.0
 20
0.0
 11
1.0
 21
1.0
 12
145.045268300831
 22
-90.69308302329488
 13
0.0
 23
0.0
 14
1.0
 24
1.0
 15
10.0
 25
10.0
 16
0.0
 26
0.0
 36
1.0
 17
0.0
 27
0.0
 37
0.0
 40
522.9046085099652
 41
2.156818181818181
 42
50.0
 43
0.0
 44
0.0
 50
0.0
 51
0.0
 71
     0
 72
   100
 73
     1
 74
     1
 75
     0
 76
     0
 77
     0
 78
     0
  0
ENDTAB
  0
TABLE
  2
LTYPE
  5
5
330
0
100
AcDbSymbolTable
 70
     8
  0
LTYPE
  5
13
330
5
100
AcDbSymbolTableRecord
100
AcDbLinetypeTableRecord
  2
BYBLOCK
 70
     0
  3

 72
    65
 73
     0
 40
0.0
  0
LTYPE
  5
14
330
5
100
AcDbSymbolTableRecord
100
AcDbLinetypeTableRecord
  2
BYLAYER
 70
     0
  3

 72
    65
 73
     0
 40
0.0
  0
LTYPE
  5
15
330
5
100
AcDbSymbolTableRecord
100
AcDbLinetypeTableRecord
  2
CONTINUOUS
 70
     0
  3
Solid line
 72
    65
 73
     0
 40
0.0
  0
LTYPE
  5
22
330
5
100
AcDbSymbolTableRecord
100
AcDbLinetypeTableRecord
  2
CONTINOUS
 70
     0
  3
Solid line
 72
    65
 73
     0
 40
0.0
  0
LTYPE
  5
23
330
5
100
AcDbSymbolTableRecord
100
AcDbLinetypeTableRecord
  2
DASHED
 70
     0
  3
__ __ __ __ __ __ __ __ __ __ __ __ __ __ __
 72
    65
 73
     2
 40
0.75
 49
0.5
 74
     0
 49
-0.25
 74
     0
  0
LTYPE
  5
24
330
5
100
AcDbSymbolTableRecord
100
AcDbLinetypeTableRecord
  2
DASHDOT
 70
     0
  3
__ . __ . __ . __ . __ . __ . __ . __ . __ . __
 72
    65
 73
     4
 40
1.0
 49
0.5
 74
     0
 49
-0.25
 74
     0
 49
0.0
 74
     0
 49
-0.25
 74
     0
  0
LTYPE
  5
4C47
330
5
100
AcDbSymbolTableRecord
100
AcDbLinetypeTableRecord
  2
DIVIDE
 70
     0
  3
Divide ____ . . ____ . . ____ . . ____ . . ____
 72
    65
 73
     6
 40
1.25
 49
0.5
 74
     0
 49
-0.25
 74
     0
 49
0.0
 74
     0
 49
-0.25
 74
     0
 49
0.0
 74
     0
 49
-0.25
 74
     0
  0
LTYPE
  5
6A3B
330
5
100
AcDbSymbolTableRecord
100
AcDbLinetypeTableRecord
  2
CENTER
 70
     0
  3
Center ____ _ ____ _ ____ _ ____ _ ____ _ ____
 72
    65
 73
     4
 40
50.8
 49
31.75
 74
     0
 49
-6.349999999999997
 74
     0
 49
6.349999999999997
 74
     0
 49
-6.349999999999997
 74
     0
  0
LTYPE
  5
6CFC
330
5
100
AcDbSymbolTableRecord
100
AcDbLinetypeTableRecord
  2
PHANTOM
 70
     0
  3
Phantom ______  __  __  ______  __  __  ______
 72
    65
 73
     6
 40
63.5
 49
31.75
 74
     0
 49
-6.349999999999997
 74
     0
 49
6.349999999999997
 74
     0
 49
-6.349999999999997
 74
     0
 49
6.349999999999997
 74
     0
 49
-6.349999999999997
 74
     0
  0
LTYPE
  5
70BC
330
5
100
AcDbSymbolTableRecord
100
AcDbLinetypeTableRecord
  2
HIDDEN
 70
     0
  3
Hidden __ __ __ __ __ __ __ __ __ __ __ __ __ _
 72
    65
 73
     2
 40
9.524999999999996
 49
6.349999999999997
 74
     0
 49
-3.174999999999998
 74
     0
  0
ENDTAB
  0
TABLE
  2
LAYER
  5
2
330
0
100
AcDbSymbolTable
 70
    14
  0
LAYER
  5
10
330
2
100
AcDbSymbolTableRecord
100
AcDbLayerTableRecord
  2
0
 70
     0
 62
     7
  6
CONTINOUS
  0
LAYER
  5
2F
330
2
100
AcDbSymbolTableRecord
100
AcDbLayerTableRecord
  2
10
 70
     0
 62
     4
  6
CONTINOUS
  0
LAYER
  5
31
330
2
100
AcDbSymbolTableRecord
100
AcDbLayerTableRecord
  2
12
 70
     0
 62
     3
  6
CONTINOUS
  0
LAYER
  5
35
330
2
100
AcDbSymbolTableRecord
100
AcDbLayerTableRecord
  2
16
 70
     4
 62
     6
  6
DASHDOT
  0
LAYER
  5
38
330
2
100
AcDbSymbolTableRecord
100
AcDbLayerTableRecord
  2
19
 70
     0
 62
     7
  6
CONTINOUS
  0
LAYER
  5
3C
330
2
100
AcDbSymbolTableRecord
100
AcDbLayerTableRecord
  2
11
 70
     0
 62
     1
  6
CONTINOUS
  0
LAYER
  5
3D
330
2
100
AcDbSymbolTableRecord
100
AcDbLayerTableRecord
  2
24
 70
     0
 62
     2
  6
CONTINOUS
  0
LAYER
  5
3A2
330
2
100
AcDbSymbolTableRecord
100
AcDbLayerTableRecord
  2
30
 70
     0
 62
     9
  6
CONTINUOUS
  0
LAYER
  5
3A4
330
2
100
AcDbSymbolTableRecord
100
AcDbLayerTableRecord
  2
DEFPOINTS
 70
     0
 62
     7
  6
CONTINUOUS
  0
LAYER
  5
3BBA
330
2
100
AcDbSymbolTableRecord
100
AcDbLayerTableRecord
  2
18
 70
     0
 62
     5
  6
DIVIDE
  0
LAYER
  5
6A3C
330
2
100
AcDbSymbolTableRecord
100
AcDbLayerTableRecord
  2
FF
 70
     0
 62
     4
  6
CONTINUOUS
  0
LAYER
  5
6A3D
330
2
100
AcDbSymbolTableRecord
100
AcDbLayerTableRecord
  2
43
 70
     0
 62
     6
  6
CONTINUOUS
  0
LAYER
  5
6A3E
330
2
100
AcDbSymbolTableRecord
100
AcDbLayerTableRecord
  2
44
 70
     0
 62
     3
  6
CONTINUOUS
  0
LAYER
  5
6A3F
330
2
100
AcDbSymbolTableRecord
100
AcDbLayerTableRecord
  2
48
 70
     0
 62
     6
  6
CENTER
  0
ENDTAB
  0
TABLE
  2
STYLE
  5
3
330
0
100
AcDbSymbolTable
 70
     4
  0
STYLE
  5
11
330
3
100
AcDbSymbolTableRecord
100
AcDbTextStyleTableRecord
  2
STANDARD
 70
     0
 40
0.0
 41
1.0
 50
0.0
 71
     0
 42
2.0
  3
txt.shx
  4
bigfont.shx
  0
STYLE
  5
42
330
3
100
AcDbSymbolTableRecord
100
AcDbTextStyleTableRecord
  2
STANDARD1
 70
     0
 40
0.0
 41
1.0
 50
0.0
 71
     0
 42
5.0
  3
MONOTXT
  4
BIGFONT
  0
STYLE
  5
63A9
330
3
100
AcDbSymbolTableRecord
100
AcDbTextStyleTableRecord
  2
MOJI
 70
     0
 40
0.0
 41
1.0
 50
0.0
 71
     0
 42
2.5
  3
txt.shx
  4
bigfont.shx
  0
STYLE
  5
7047
330
3
100
AcDbSymbolTableRecord
100
AcDbTextStyleTableRecord
  2
SMP-SET
 70
     0
 40
0.0
 41
1.0
 50
0.0
 71
     0
 42
3.0
  3
SIMPLEX
  4
BIGFONT
  0
ENDTAB
  0
TABLE
  2
VIEW
  5
6
330
0
100
AcDbSymbolTable
 70
     3
  0
VIEW
  5
230C
330
6
100
AcDbSymbolTableRecord
100
AcDbViewTableRecord
  2
OLE1
 70
     0
 40
148.912488
 10
429.497628
 20
2.560627
 41
103.145806
 11
0.0
 21
0.0
 31
1.0
 12
0.0
 22
0.0
 32
0.0
 42
50.0
 43
0.0
 44
0.0
 50
0.0
 71
     0
  0
VIEW
  5
230E
330
6
100
AcDbSymbolTableRecord
100
AcDbViewTableRecord
  2
OLE2
 70
     0
 40
170.778692
 10
322.66497
 20
-5.978304
 41
102.467215
 11
0.0
 21
0.0
 31
1.0
 12
0.0
 22
0.0
 32
0.0
 42
50.0
 43
0.0
 44
0.0
 50
0.0
 71
     0
  0
VIEW
  5
23AA
330
6
100
AcDbSymbolTableRecord
100
AcDbViewTableRecord
  2
OLE3
 70
     0
 40
591.7897389999998
 10
84.79698199999999
 20
-46.09335999999998
 41
388.792096
 11
0.0
 21
0.0
 31
1.0
 12
0.0
 22
0.0
 32
0.0
 42
50.0
 43
0.0
 44
0.0
 50
0.0
 71
     0
  0
ENDTAB
  0
TABLE
  2
UCS
  5
7
330
0
100
AcDbSymbolTable
 70
     0
  0
ENDTAB
  0
TABLE
  2
APPID
  5
9
330
0
100
AcDbSymbolTable
 70
     2
  0
APPID
  5
12
330
9
100
AcDbSymbolTableRecord
100
AcDbRegAppTableRecord
  2
ACAD
 70
     0
  0
APPID
  5
ECD
330
9
100
AcDbSymbolTableRecord
100
AcDbRegAppTableRecord
  2
CONTENTBLOCKICON
 70
     0
  0
ENDTAB
  0
TABLE
  2
DIMSTYLE
  5
A
330
0
100
AcDbSymbolTable
 70
     2
  0
DIMSTYLE
105
175
102
{ACAD_REACTORS
330
6DA6
330
6DB3
330
6DA3
330
6DA2
330
6DA1
330
6DEE
330
6DE2
330
6E09
330
6DE3
330
7159
330
711F
330
711E
330
7164
330
7162
330
7121
330
7120
330
7165
330
6F8B
330
6F8C
330
7003
330
700B
330
7002
330
7404
330
7410
330
7411
330
7420
330
7418
330
7442
102
}
330
A
100
AcDbSymbolTableRecord
100
AcDbDimStyleTableRecord
  2
STANDARD
 70
     0
  3

  4

  5
OPEN
  6

  7

 40
1.0
 41
2.0
 42
1.0
 43
0.5
 44
0.5
 45
0.0
 46
0.0
 47
0.0
 48
0.0
140
4.0
141
0.09
142
0.0
143
25.4
144
1.0
145
0.0
146
1.0
147
1.0
 71
     0
 72
     0
 73
     0
 74
     1
 75
     0
 76
     0
 77
     3
 78
    12
170
     0
171
     2
172
     0
173
     0
174
     0
175
     0
176
     0
177
     0
178
     0
270
     2
271
     1
272
     1
273
     2
274
     2
340
11
275
     0
280
     0
281
     0
282
     0
283
     1
284
     0
285
     0
286
     0
287
     3
288
     0
  0
DIMSTYLE
105
63AA
330
A
100
AcDbSymbolTableRecord
100
AcDbDimStyleTableRecord
  2
FSTD1
 70
     0
  3

  4

  5

  6
OPEN30
  7
OPEN30
 40
1.0
 41
5.0
 42
1.5
 43
3.75
 44
1.5
 45
0.0
 46
0.0
 47
0.0
 48
0.0
140
5.0
141
2.5
142
0.0
143
0.0394
144
1.0
145
0.0
146
1.0
147
1.5
 71
     0
 72
     0
 73
     0
 74
     0
 75
     0
 76
     0
 77
     1
 78
     8
170
     0
171
     4
172
     1
173
     1
174
     0
175
     0
176
     0
177
     0
178
     0
270
     2
271
     4
272
     4
273
     2
274
     4
340
11
275
     0
280
     0
281
     0
282
     0
283
     1
284
     8
285
     8
286
     8
287
     3
288
     0
  0
ENDTAB
  0
TABLE
  2
BLOCK_RECORD
  5
1
330
0
100
AcDbSymbolTable
 70
    88
  0
BLOCK_RECORD
  5
1E
102
{ACAD_XDICTIONARY
360
178
102
}
330
1
100
AcDbSymbolTableRecord
100
AcDbBlockTableRecord
  2
*MODEL_SPACE
  0
BLOCK_RECORD
  5
1A
102
{ACAD_XDICTIONARY
360
17A
102
}
330
1
100
AcDbSymbolTableRecord
100
AcDbBlockTableRecord
  2
*PAPER_SPACE
  0
BLOCK_RECORD
  5
3B2
330
1
100
AcDbSymbolTableRecord
100
AcDbBlockTableRecord
  2
_OPEN
  0
BLOCK_RECORD
  5
632C
330
1
100
AcDbSymbolTableRecord
100
AcDbBlockTableRecord
  2
_OPEN30
  0
BLOCK_RECORD
  5
6481
330
1
100
AcDbSymbolTableRecord
100
AcDbBlockTableRecord
  2
*D2
  0
BLOCK_RECORD
  5
648D
330
1
100
AcDbSymbolTableRecord
100
AcDbBlockTableRecord
  2
*D3
  0
BLOCK_RECORD
  5
6499
330
1
100
AcDbSymbolTableRecord
100
AcDbBlockTableRecord
  2
*D4
  0
BLOCK_RECORD
  5
64A5
330
1
100
AcDbSymbolTableRecord
100
AcDbBlockTableRecord
  2
*D5
  0
BLOCK_RECORD
  5
64B1
330
1
100
AcDbSymbolTableRecord
100
AcDbBlockTableRecord
  2
*D6
  0
BLOCK_RECORD
  5
64BD
330
1
100
AcDbSymbolTableRecord
100
AcDbBlockTableRecord
  2
*D7
  0
BLOCK_RECORD
  5
64C9
330
1
100
AcDbSymbolTableRecord
100
AcDbBlockTableRecord
  2
*D8
  0
BLOCK_RECORD
  5
64D3
330
1
100
AcDbSymbolTableRecord
100
AcDbBlockTableRecord
  2
*D9
  0
BLOCK_RECORD
  5
64DF
330
1
100
AcDbSymbolTableRecord
100
AcDbBlockTableRecord
  2
*D10
  0
BLOCK_RECORD
  5
64EB
330
1
100
AcDbSymbolTableRecord
100
AcDbBlockTableRecord
  2
*D11
  0
BLOCK_RECORD
  5
6667
330
1
100
AcDbSymbolTableRecord
100
AcDbBlockTableRecord
  2
*D12
  0
BLOCK_RECORD
  5
6673
330
1
100
AcDbSymbolTableRecord
100
AcDbBlockTableRecord
  2
*D13
  0
BLOCK_RECORD
  5
667F
330
1
100
AcDbSymbolTableRecord
100
AcDbBlockTableRecord
  2
*D14
  0
BLOCK_RECORD
  5
668B
330
1
100
AcDbSymbolTableRecord
100
AcDbBlockTableRecord
  2
*D15
  0
BLOCK_RECORD
  5
6697
330
1
100
AcDbSymbolTableRecord
100
AcDbBlockTableRecord
  2
*D16
  0
BLOCK_RECORD
  5
66A3
330
1
100
AcDbSymbolTableRecord
100
AcDbBlockTableRecord
  2
*D17
  0
BLOCK_RECORD
  5
66B1
330
1
100
AcDbSymbolTableRecord
100
AcDbBlockTableRecord
  2
*D18
  0
BLOCK_RECORD
  5
66BF
330
1
100
AcDbSymbolTableRecord
100
AcDbBlockTableRecord
  2
*D19
  0
BLOCK_RECORD
  5
674F
330
1
100
AcDbSymbolTableRecord
100
AcDbBlockTableRecord
  2
*D20
  0
BLOCK_RECORD
  5
67AB
330
1
100
AcDbSymbolTableRecord
100
AcDbBlockTableRecord
  2
*D21
  0
BLOCK_RECORD
  5
67B4
330
1
100
AcDbSymbolTableRecord
100
AcDbBlockTableRecord
  2
*D22
  0
BLOCK_RECORD
  5
67C0
330
1
100
AcDbSymbolTableRecord
100
AcDbBlockTableRecord
  2
*D23
  0
BLOCK_RECORD
  5
6A16
330
1
100
AcDbSymbolTableRecord
100
AcDbBlockTableRecord
  2
*D24
  0
BLOCK_RECORD
  5
6A24
330
1
100
AcDbSymbolTableRecord
100
AcDbBlockTableRecord
  2
*D25
  0
BLOCK_RECORD
  5
6A2F
330
1
100
AcDbSymbolTableRecord
100
AcDbBlockTableRecord
  2
*D26
  0
BLOCK_RECORD
  5
6A60
330
1
100
AcDbSymbolTableRecord
100
AcDbBlockTableRecord
  2
*D27
  0
BLOCK_RECORD
  5
6A6B
330
1
100
AcDbSymbolTableRecord
100
AcDbBlockTableRecord
  2
*D28
  0
BLOCK_RECORD
  5
6A79
330
1
100
AcDbSymbolTableRecord
100
AcDbBlockTableRecord
  2
*D29
  0
BLOCK_RECORD
  5
6C90
330
1
100
AcDbSymbolTableRecord
100
AcDbBlockTableRecord
  2
*D30
  0
BLOCK_RECORD
  5
6C9C
330
1
100
AcDbSymbolTableRecord
100
AcDbBlockTableRecord
  2
*D31
  0
BLOCK_RECORD
  5
6CA8
330
1
100
AcDbSymbolTableRecord
100
AcDbBlockTableRecord
  2
*D32
  0
BLOCK_RECORD
  5
6CB4
330
1
100
AcDbSymbolTableRecord
100
AcDbBlockTableRecord
  2
*D33
  0
BLOCK_RECORD
  5
6CC0
330
1
100
AcDbSymbolTableRecord
100
AcDbBlockTableRecord
  2
*D34
  0
BLOCK_RECORD
  5
6CCC
330
1
100
AcDbSymbolTableRecord
100
AcDbBlockTableRecord
  2
*D35
  0
BLOCK_RECORD
  5
6CD8
330
1
100
AcDbSymbolTableRecord
100
AcDbBlockTableRecord
  2
*D36
  0
BLOCK_RECORD
  5
6CE4
330
1
100
AcDbSymbolTableRecord
100
AcDbBlockTableRecord
  2
*D37
  0
BLOCK_RECORD
  5
6CF0
330
1
100
AcDbSymbolTableRecord
100
AcDbBlockTableRecord
  2
*D38
  0
BLOCK_RECORD
  5
6E25
330
1
100
AcDbSymbolTableRecord
100
AcDbBlockTableRecord
  2
*D39
  0
BLOCK_RECORD
  5
6E31
330
1
100
AcDbSymbolTableRecord
100
AcDbBlockTableRecord
  2
*D40
  0
BLOCK_RECORD
  5
6E3D
330
1
100
AcDbSymbolTableRecord
100
AcDbBlockTableRecord
  2
*D41
  0
BLOCK_RECORD
  5
6E49
330
1
100
AcDbSymbolTableRecord
100
AcDbBlockTableRecord
  2
*D42
  0
BLOCK_RECORD
  5
6E55
330
1
100
AcDbSymbolTableRecord
100
AcDbBlockTableRecord
  2
*D43
  0
BLOCK_RECORD
  5
6E61
330
1
100
AcDbSymbolTableRecord
100
AcDbBlockTableRecord
  2
*D44
  0
BLOCK_RECORD
  5
6E6D
330
1
100
AcDbSymbolTableRecord
100
AcDbBlockTableRecord
  2
*D45
  0
BLOCK_RECORD
  5
6E79
330
1
100
AcDbSymbolTableRecord
100
AcDbBlockTableRecord
  2
*D46
  0
BLOCK_RECORD
  5
6E85
330
1
100
AcDbSymbolTableRecord
100
AcDbBlockTableRecord
  2
*D47
  0
BLOCK_RECORD
  5
6F57
330
1
100
AcDbSymbolTableRecord
100
AcDbBlockTableRecord
  2
*D48
  0
BLOCK_RECORD
  5
6F63
330
1
100
AcDbSymbolTableRecord
100
AcDbBlockTableRecord
  2
*D49
  0
BLOCK_RECORD
  5
6F9D
330
1
100
AcDbSymbolTableRecord
100
AcDbBlockTableRecord
  2
*D50
  0
BLOCK_RECORD
  5
6FA9
330
1
100
AcDbSymbolTableRecord
100
AcDbBlockTableRecord
  2
*D51
  0
BLOCK_RECORD
  5
6FC7
330
1
100
AcDbSymbolTableRecord
100
AcDbBlockTableRecord
  2
*D52
  0
BLOCK_RECORD
  5
6FD3
330
1
100
AcDbSymbolTableRecord
100
AcDbBlockTableRecord
  2
*D53
  0
BLOCK_RECORD
  5
6FDF
330
1
100
AcDbSymbolTableRecord
100
AcDbBlockTableRecord
  2
*D54
  0
BLOCK_RECORD
  5
700E
330
1
100
AcDbSymbolTableRecord
100
AcDbBlockTableRecord
  2
*D55
  0
BLOCK_RECORD
  5
7017
330
1
100
AcDbSymbolTableRecord
100
AcDbBlockTableRecord
  2
*D56
  0
BLOCK_RECORD
  5
7023
330
1
100
AcDbSymbolTableRecord
100
AcDbBlockTableRecord
  2
*D57
  0
BLOCK_RECORD
  5
7056
330
1
100
AcDbSymbolTableRecord
100
AcDbBlockTableRecord
  2
*D58
  0
BLOCK_RECORD
  5
7062
330
1
100
AcDbSymbolTableRecord
100
AcDbBlockTableRecord
  2
*D59
  0
BLOCK_RECORD
  5
706E
330
1
100
AcDbSymbolTableRecord
100
AcDbBlockTableRecord
  2
*D60
  0
BLOCK_RECORD
  5
707A
330
1
100
AcDbSymbolTableRecord
100
AcDbBlockTableRecord
  2
*D61
  0
BLOCK_RECORD
  5
7086
330
1
100
AcDbSymbolTableRecord
100
AcDbBlockTableRecord
  2
*D62
  0
BLOCK_RECORD
  5
7092
330
1
100
AcDbSymbolTableRecord
100
AcDbBlockTableRecord
  2
*D63
  0
BLOCK_RECORD
  5
70A0
330
1
100
AcDbSymbolTableRecord
100
AcDbBlockTableRecord
  2
*D64
  0
BLOCK_RECORD
  5
70AE
330
1
100
AcDbSymbolTableRecord
100
AcDbBlockTableRecord
  2
*D65
  0
BLOCK_RECORD
  5
716D
330
1
100
AcDbSymbolTableRecord
100
AcDbBlockTableRecord
  2
*D66
  0
BLOCK_RECORD
  5
7179
330
1
100
AcDbSymbolTableRecord
100
AcDbBlockTableRecord
  2
*D67
  0
BLOCK_RECORD
  5
7185
330
1
100
AcDbSymbolTableRecord
100
AcDbBlockTableRecord
  2
*D68
  0
BLOCK_RECORD
  5
7191
330
1
100
AcDbSymbolTableRecord
100
AcDbBlockTableRecord
  2
*D69
  0
BLOCK_RECORD
  5
719D
330
1
100
AcDbSymbolTableRecord
100
AcDbBlockTableRecord
  2
*D70
  0
BLOCK_RECORD
  5
71AB
330
1
100
AcDbSymbolTableRecord
100
AcDbBlockTableRecord
  2
*D71
  0
BLOCK_RECORD
  5
71B7
330
1
100
AcDbSymbolTableRecord
100
AcDbBlockTableRecord
  2
*D72
  0
BLOCK_RECORD
  5
71C5
330
1
100
AcDbSymbolTableRecord
100
AcDbBlockTableRecord
  2
*D73
  0
BLOCK_RECORD
  5
7348
330
1
100
AcDbSymbolTableRecord
100
AcDbBlockTableRecord
  2
*D74
  0
BLOCK_RECORD
  5
7354
330
1
100
AcDbSymbolTableRecord
100
AcDbBlockTableRecord
  2
*D75
  0
BLOCK_RECORD
  5
735F
330
1
100
AcDbSymbolTableRecord
100
AcDbBlockTableRecord
  2
*D76
  0
BLOCK_RECORD
  5
736D
330
1
100
AcDbSymbolTableRecord
100
AcDbBlockTableRecord
  2
*D77
  0
BLOCK_RECORD
  5
737B
330
1
100
AcDbSymbolTableRecord
100
AcDbBlockTableRecord
  2
*D78
  0
BLOCK_RECORD
  5
7387
330
1
100
AcDbSymbolTableRecord
100
AcDbBlockTableRecord
  2
*D79
  0
BLOCK_RECORD
  5
7471
330
1
100
AcDbSymbolTableRecord
100
AcDbBlockTableRecord
  2
*D80
  0
BLOCK_RECORD
  5
747D
330
1
100
AcDbSymbolTableRecord
100
AcDbBlockTableRecord
  2
*D81
  0
BLOCK_RECORD
  5
7489
330
1
100
AcDbSymbolTableRecord
100
AcDbBlockTableRecord
  2
*D82
  0
BLOCK_RECORD
  5
7494
330
1
100
AcDbSymbolTableRecord
100
AcDbBlockTableRecord
  2
*D83
  0
BLOCK_RECORD
  5
74A2
330
1
100
AcDbSymbolTableRecord
100
AcDbBlockTableRecord
  2
*D84
  0
BLOCK_RECORD
  5
74AE
330
1
100
AcDbSymbolTableRecord
100
AcDbBlockTableRecord
  2
*D85
  0
BLOCK_RECORD
  5
7628
330
1
100
AcDbSymbolTableRecord
100
AcDbBlockTableRecord
  2
_DOTSMALL
  0
ENDTAB
  0
ENDSEC
  0
SECTION
  2
BLOCKS
  0
BLOCK
  5
1F
330
1E
100
AcDbEntity
  8
0
100
AcDbBlockBegin
  2
*MODEL_SPACE
 70
     0
 10
0.0
 20
0.0
 30
0.0
  3
*MODEL_SPACE
  1

  0
ENDBLK
  5
20
330
1E
100
AcDbEntity
  8
0
100
AcDbBlockEnd
  0
BLOCK
  5
1B
330
1A
100
AcDbEntity
 67
     1
  8
0
100
AcDbBlockBegin
  2
*PAPER_SPACE
 70
     0
 10
0.0
 20
0.0
 30
0.0
  3
*PAPER_SPACE
  1

  0
ENDBLK
  5
1C
330
1A
100
AcDbEntity
 67
     1
  8
0
100
AcDbBlockEnd
  0
BLOCK
  5
3B6
330
3B2
100
AcDbEntity
  8
0
100
AcDbBlockBegin
  2
_OPEN
 70
     0
 10
0.0
 20
0.0
 30
0.0
  3
_OPEN
  1

  0
LINE
  5
3B3
330
3B2
100
AcDbEntity
  8
30
  6
CONTINUOUS
 62
     0
100
AcDbLine
 10
-1.0
 20
0.166667
 30
0.0
 11
0.0
 21
0.0
 31
0.0
  0
LINE
  5
3B4
330
3B2
100
AcDbEntity
  8
30
  6
CONTINUOUS
 62
     0
100
AcDbLine
 10
-1.0
 20
-0.166667
 30
0.0
 11
0.0
 21
0.0
 31
0.0
  0
LINE
  5
3B5
330
3B2
100
AcDbEntity
  8
30
  6
CONTINUOUS
 62
     0
100
AcDbLine
 10
0.0
 20
0.0
 30
0.0
 11
-1.0
 21
0.0
 31
0.0
  0
ENDBLK
  5
3B7
330
3B2
100
AcDbEntity
  8
0
100
AcDbBlockEnd
  0
BLOCK
  5
6330
330
632C
100
AcDbEntity
  8
0
100
AcDbBlockBegin
  2
_OPEN30
 70
     0
 10
0.0
 20
0.0
 30
0.0
  3
_OPEN30
  1

  0
LINE
  5
632D
330
632C
100
AcDbEntity
  8
0
  6
BYBLOCK
 62
     0
100
AcDbLine
 10
-1.0
 20
0.26794919
 30
0.0
 11
0.0
 21
0.0
 31
0.0
  0
LINE
  5
632E
330
632C
100
AcDbEntity
  8
0
  6
BYBLOCK
 62
     0
100
AcDbLine
 10
0.0
 20
0.0
 30
0.0
 11
-1.0
 21
-0.26794919
 31
0.0
  0
LINE
  5
632F
330
632C
100
AcDbEntity
  8
0
  6
BYBLOCK
 62
     0
100
AcDbLine
 10
0.0
 20
0.0
 30
0.0
 11
-1.0
 21
0.0
 31
0.0
  0
ENDBLK
  5
6331
330
632C
100
AcDbEntity
  8
0
100
AcDbBlockEnd
  0
BLOCK
  5
648B
330
6481
100
AcDbEntity
  8
0
100
AcDbBlockBegin
  2
*D2
 70
     1
 10
0.0
 20
0.0
 30
0.0
  3
*D2
  1

  0
LINE
  5
6BF9
330
6481
100
AcDbEntity
  8
30
  6
CONTINUOUS
 62
     0
100
AcDbLine
 10
-176.4060736704904
 20
99.7500012401781
 30
0.0
 11
-115.3450242863157
 21
99.75000124017807
 31
0.0
  0
LINE
  5
6BFA
330
6481
100
AcDbEntity
  8
30
  6
CONTINUOUS
 62
     0
100
AcDbLine
 10
-155.9061342020983
 20
49.75000124025109
 30
0.0
 11
-115.3450242863157
 21
49.75000124025108
 31
0.0
  0
LINE
  5
6BFB
330
6481
100
AcDbEntity
  8
30
  6
CONTINUOUS
 62
     0
100
AcDbLine
 10
-115.8450242863157
 20
97.75000124017807
 30
0.0
 11
-115.8450242863157
 21
51.7500012402511
 31
0.0
  0
INSERT
  5
6BFC
330
6481
100
AcDbEntity
  8
30
  6
CONTINUOUS
 62
     0
100
AcDbBlockReference
  2
_OPEN
 10
-115.8450242863157
 20
99.75000124017807
 30
0.0
 41
2.0
 42
2.0
 43
2.0
 50
90.0
  0
INSERT
  5
6BFD
330
6481
100
AcDbEntity
  8
30
  6
CONTINUOUS
 62
     0
100
AcDbBlockReference
  2
_OPEN
 10
-115.8450242863157
 20
49.75000124025108
 30
0.0
 41
2.0
 42
2.0
 43
2.0
 50
270.0
  0
MTEXT
  5
6BFE
330
6481
100
AcDbEntity
  8
30
  6
CONTINUOUS
 62
     0
100
AcDbMText
 10
-118.8450242863158
 20
74.75000124021457
 30
0.0
 40
4.0
 41
0.0
 71
     5
 72
     1
  1
\A1;50
 11
0.0000000000000001
 21
1.0
 31
0.0
1001
ACAD
1000
MTEXTBEGIN
1070
    73
1070
     1
1070
    44
1040
1.0
1070
    74
1070
     0
1000
MTEXTEND
1000
MTEXTBEGIN
1070
    73
1070
     1
1070
    44
1040
1.0
1070
    74
1070
     0
1000
MTEXTEND
1000
MTEXTBEGIN
1070
    73
1070
     1
1070
    44
1040
1.0
1070
    74
1070
     0
1000
MTEXTEND
1000
MTEXTBEGIN
1070
    73
1070
     1
1070
    44
1040
1.0
1070
    74
1070
     0
1000
MTEXTEND
1000
MTEXTBEGIN
1070
    73
1070
     1
1070
    44
1040
1.0
1070
    74
1070
     0
1000
MTEXTEND
1000
MTEXTBEGIN
1070
    73
1070
     1
1070
    44
1040
1.0
1070
    74
1070
     0
1000
MTEXTEND
1000
MTEXTBEGIN
1070
    73
1070
     1
1070
    44
1040
1.0
1070
    74
1070
     0
1000
MTEXTEND
  0
POINT
  5
6BFF
330
6481
100
AcDbEntity
  8
DEFPOINTS
  6
CONTINUOUS
 62
     0
100
AcDbPoint
 10
-177.4060736704904
 20
99.7500012401781
 30
0.0
  0
POINT
  5
6C00
330
6481
100
AcDbEntity
  8
DEFPOINTS
  6
CONTINUOUS
 62
     0
100
AcDbPoint
 10
-156.9061342020984
 20
49.75000124025109
 30
0.0
  0
POINT
  5
6C01
330
6481
100
AcDbEntity
  8
DEFPOINTS
  6
CONTINUOUS
 62
     0
100
AcDbPoint
 10
-115.8450242863157
 20
49.75000124025108
 30
0.0
  0
ENDBLK
  5
648C
330
6481
100
AcDbEntity
  8
0
100
AcDbBlockEnd
  0
BLOCK
  5
6497
330
648D
100
AcDbEntity
  8
0
100
AcDbBlockBegin
  2
*D3
 70
     1
 10
0.0
 20
0.0
 30
0.0
  3
*D3
  1

  0
LINE
  5
6BCC
330
648D
100
AcDbEntity
  8
30
  6
CONTINUOUS
 62
     0
100
AcDbLine
 10
-176.245988193753
 20
42.00000104691095
 30
0.0
 11
-127.9708496182371
 21
42.00000104691095
 31
0.0
  0
LINE
  5
6BCD
330
648D
100
AcDbEntity
  8
30
  6
CONTINUOUS
 62
     0
100
AcDbLine
 10
-176.245988193753
 20
-42.00000104691187
 30
0.0
 11
-127.9708496182372
 21
-42.00000104691188
 31
0.0
  0
LINE
  5
6BCE
330
648D
100
AcDbEntity
  8
30
  6
CONTINUOUS
 62
     0
100
AcDbLine
 10
-128.4708496182372
 20
40.00000104691095
 30
0.0
 11
-128.4708496182372
 21
-40.00000104691188
 31
0.0
  0
INSERT
  5
6BCF
330
648D
100
AcDbEntity
  8
30
  6
CONTINUOUS
 62
     0
100
AcDbBlockReference
  2
_OPEN
 10
-128.4708496182372
 20
42.00000104691095
 30
0.0
 41
2.0
 42
2.0
 43
2.0
 50
90.0
  0
INSERT
  5
6BD0
330
648D
100
AcDbEntity
  8
30
  6
CONTINUOUS
 62
     0
100
AcDbBlockReference
  2
_OPEN
 10
-128.4708496182372
 20
-42.00000104691188
 30
0.0
 41
2.0
 42
2.0
 43
2.0
 50
270.0
  0
MTEXT
  5
6BD1
330
648D
100
AcDbEntity
  8
30
  6
CONTINUOUS
 62
     0
100
AcDbMText
 10
-131.4708496182372
 20
-0.0000000000004749
 30
0.0
 40
4.0
 41
0.0
 71
     5
 72
     1
  1
\A1;84
 11
0.0000000000000001
 21
1.0
 31
0.0
1001
ACAD
1000
MTEXTBEGIN
1070
    73
1070
     1
1070
    44
1040
1.0
1070
    74
1070
     0
1000
MTEXTEND
1000
MTEXTBEGIN
1070
    73
1070
     1
1070
    44
1040
1.0
1070
    74
1070
     0
1000
MTEXTEND
1000
MTEXTBEGIN
1070
    73
1070
     1
1070
    44
1040
1.0
1070
    74
1070
     0
1000
MTEXTEND
1000
MTEXTBEGIN
1070
    73
1070
     1
1070
    44
1040
1.0
1070
    74
1070
     0
1000
MTEXTEND
1000
MTEXTBEGIN
1070
    73
1070
     1
1070
    44
1040
1.0
1070
    74
1070
     0
1000
MTEXTEND
1000
MTEXTBEGIN
1070
    73
1070
     1
1070
    44
1040
1.0
1070
    74
1070
     0
1000
MTEXTEND
1000
MTEXTBEGIN
1070
    73
1070
     1
1070
    44
1040
1.0
1070
    74
1070
     0
1000
MTEXTEND
  0
POINT
  5
6BD2
330
648D
100
AcDbEntity
  8
DEFPOINTS
  6
CONTINUOUS
 62
     0
100
AcDbPoint
 10
-177.245988193753
 20
42.00000104691095
 30
0.0
  0
POINT
  5
6BD3
330
648D
100
AcDbEntity
  8
DEFPOINTS
  6
CONTINUOUS
 62
     0
100
AcDbPoint
 10
-177.245988193753
 20
-42.00000104691187
 30
0.0
  0
POINT
  5
6BD4
330
648D
100
AcDbEntity
  8
DEFPOINTS
  6
CONTINUOUS
 62
     0
100
AcDbPoint
 10
-128.4708496182372
 20
-42.00000104691188
 30
0.0
  0
ENDBLK
  5
6498
330
648D
100
AcDbEntity
  8
0
100
AcDbBlockEnd
  0
BLOCK
  5
64A3
330
6499
100
AcDbEntity
  8
0
100
AcDbBlockBegin
  2
*D4
 70
     1
 10
0.0
 20
0.0
 30
0.0
  3
*D4
  1

  0
LINE
  5
6BE7
330
6499
100
AcDbEntity
  8
30
  6
CONTINUOUS
 62
     0
100
AcDbLine
 10
-205.4061986825518
 20
-47.25000115285697
 30
0.0
 11
-205.4061986825518
 21
-94.98966437759396
 31
0.0
  0
LINE
  5
6BE8
330
6499
100
AcDbEntity
  8
30
  6
CONTINUOUS
 62
     0
100
AcDbLine
 10
-155.4060731220699
 20
-47.25000115285697
 30
0.0
 11
-155.4060731220699
 21
-94.98966437759396
 31
0.0
  0
LINE
  5
6BE9
330
6499
100
AcDbEntity
  8
30
  6
CONTINUOUS
 62
     0
100
AcDbLine
 10
-203.4061986825518
 20
-94.48966437759395
 30
0.0
 11
-157.4060731220699
 21
-94.48966437759395
 31
0.0
  0
INSERT
  5
6BEA
330
6499
100
AcDbEntity
  8
30
  6
CONTINUOUS
 62
     0
100
AcDbBlockReference
  2
_OPEN
 10
-205.4061986825518
 20
-94.48966437759395
 30
0.0
 41
2.0
 42
2.0
 43
2.0
 50
180.0
  0
INSERT
  5
6BEB
330
6499
100
AcDbEntity
  8
30
  6
CONTINUOUS
 62
     0
100
AcDbBlockReference
  2
_OPEN
 10
-155.4060731220699
 20
-94.48966437759395
 30
0.0
 41
2.0
 42
2.0
 43
2.0
  0
MTEXT
  5
6BEC
330
6499
100
AcDbEntity
  8
30
  6
CONTINUOUS
 62
     0
100
AcDbMText
 10
-180.4061359023108
 20
-91.48966437759396
 30
0.0
 40
4.0
 41
0.0
 71
     5
 72
     1
  1
\A1;50
1001
ACAD
1000
MTEXTBEGIN
1070
    73
1070
     1
1070
    44
1040
1.0
1070
    74
1070
     0
1000
MTEXTEND
1000
MTEXTBEGIN
1070
    73
1070
     1
1070
    44
1040
1.0
1070
    74
1070
     0
1000
MTEXTEND
1000
MTEXTBEGIN
1070
    73
1070
     1
1070
    44
1040
1.0
1070
    74
1070
     0
1000
MTEXTEND
1000
MTEXTBEGIN
1070
    73
1070
     1
1070
    44
1040
1.0
1070
    74
1070
     0
1000
MTEXTEND
1000
MTEXTBEGIN
1070
    73
1070
     1
1070
    44
1040
1.0
1070
    74
1070
     0
1000
MTEXTEND
1000
MTEXTBEGIN
1070
    73
1070
     1
1070
    44
1040
1.0
1070
    74
1070
     0
1000
MTEXTEND
1000
MTEXTBEGIN
1070
    73
1070
     1
1070
    44
1040
1.0
1070
    74
1070
     0
1000
MTEXTEND
  0
POINT
  5
6BED
330
6499
100
AcDbEntity
  8
DEFPOINTS
  6
CONTINUOUS
 62
     0
100
AcDbPoint
 10
-205.4061986825518
 20
-46.25000115285698
 30
0.0
  0
POINT
  5
6BEE
330
6499
100
AcDbEntity
  8
DEFPOINTS
  6
CONTINUOUS
 62
     0
100
AcDbPoint
 10
-155.4060731220699
 20
-46.25000115285698
 30
0.0
  0
POINT
  5
6BEF
330
6499
100
AcDbEntity
  8
DEFPOINTS
  6
CONTINUOUS
 62
     0
100
AcDbPoint
 10
-155.4060731220699
 20
-94.48966437759395
 30
0.0
  0
ENDBLK
  5
64A4
330
6499
100
AcDbEntity
  8
0
100
AcDbBlockEnd
  0
BLOCK
  5
64AF
330
64A5
100
AcDbEntity
  8
0
100
AcDbBlockBegin
  2
*D5
 70
     1
 10
0.0
 20
0.0
 30
0.0
  3
*D5
  1

  0
LINE
  5
6BDE
330
64A5
100
AcDbEntity
  8
30
  6
CONTINUOUS
 62
     0
100
AcDbLine
 10
-204.4061518913053
 20
-25.00003111578299
 30
0.0
 11
-204.4061518913053
 21
-81.54379696341337
 31
0.0
  0
LINE
  5
6BDF
330
64A5
100
AcDbEntity
  8
30
  6
CONTINUOUS
 62
     0
100
AcDbLine
 10
-156.9060731594619
 20
-25.00003111578299
 30
0.0
 11
-156.9060731594619
 21
-81.54379696341337
 31
0.0
  0
LINE
  5
6BE0
330
64A5
100
AcDbEntity
  8
30
  6
CONTINUOUS
 62
     0
100
AcDbLine
 10
-202.4061518913053
 20
-81.04379696341338
 30
0.0
 11
-158.9060731594621
 21
-81.04379696341338
 31
0.0
  0
INSERT
  5
6BE1
330
64A5
100
AcDbEntity
  8
30
  6
CONTINUOUS
 62
     0
100
AcDbBlockReference
  2
_OPEN
 10
-204.4061518913053
 20
-81.04379696341338
 30
0.0
 41
2.0
 42
2.0
 43
2.0
 50
180.0
  0
INSERT
  5
6BE2
330
64A5
100
AcDbEntity
  8
30
  6
CONTINUOUS
 62
     0
100
AcDbBlockReference
  2
_OPEN
 10
-156.9060731594619
 20
-81.04379696341338
 30
0.0
 41
2.0
 42
2.0
 43
2.0
  0
MTEXT
  5
6BE3
330
64A5
100
AcDbEntity
  8
30
  6
CONTINUOUS
 62
     0
100
AcDbMText
 10
-180.6561125253838
 20
-78.04379696341339
 30
0.0
 40
4.0
 41
0.0
 71
     5
 72
     1
  1
\A1;47.5
1001
ACAD
1000
MTEXTBEGIN
1070
    73
1070
     1
1070
    44
1040
1.0
1070
    74
1070
     0
1000
MTEXTEND
1000
MTEXTBEGIN
1070
    73
1070
     1
1070
    44
1040
1.0
1070
    74
1070
     0
1000
MTEXTEND
1000
MTEXTBEGIN
1070
    73
1070
     1
1070
    44
1040
1.0
1070
    74
1070
     0
1000
MTEXTEND
1000
MTEXTBEGIN
1070
    73
1070
     1
1070
    44
1040
1.0
1070
    74
1070
     0
1000
MTEXTEND
1000
MTEXTBEGIN
1070
    73
1070
     1
1070
    44
1040
1.0
1070
    74
1070
     0
1000
MTEXTEND
1000
MTEXTBEGIN
1070
    73
1070
     1
1070
    44
1040
1.0
1070
    74
1070
     0
1000
MTEXTEND
1000
MTEXTBEGIN
1070
    73
1070
     1
1070
    44
1040
1.0
1070
    74
1070
     0
1000
MTEXTEND
  0
POINT
  5
6BE4
330
64A5
100
AcDbEntity
  8
DEFPOINTS
  6
CONTINUOUS
 62
     0
100
AcDbPoint
 10
-204.4061518913053
 20
-24.000031115783
 30
0.0
  0
POINT
  5
6BE5
330
64A5
100
AcDbEntity
  8
DEFPOINTS
  6
CONTINUOUS
 62
     0
100
AcDbPoint
 10
-156.9060731594619
 20
-24.000031115783
 30
0.0
  0
POINT
  5
6BE6
330
64A5
100
AcDbEntity
  8
DEFPOINTS
  6
CONTINUOUS
 62
     0
100
AcDbPoint
 10
-156.9060731594619
 20
-81.04379696341338
 30
0.0
  0
ENDBLK
  5
64B0
330
64A5
100
AcDbEntity
  8
0
100
AcDbBlockEnd
  0
BLOCK
  5
64BB
330
64B1
100
AcDbEntity
  8
0
100
AcDbBlockBegin
  2
*D6
 70
     1
 10
0.0
 20
0.0
 30
0.0
  3
*D6
  1

  0
LINE
  5
6C02
330
64B1
100
AcDbEntity
  8
30
  6
CONTINUOUS
 62
     0
100
AcDbLine
 10
-199.9810107446061
 20
39.99999958291414
 30
0.0
 11
-222.0496096253844
 21
39.99999958291414
 31
0.0
  0
LINE
  5
6C03
330
64B1
100
AcDbEntity
  8
30
  6
CONTINUOUS
 62
     0
100
AcDbLine
 10
-212.5919940154486
 20
0.0000000000000003
 30
0.0
 11
-222.0496096253844
 21
0.000000000000003
 31
0.0
  0
LINE
  5
6C04
330
64B1
100
AcDbEntity
  8
30
  6
CONTINUOUS
 62
     0
100
AcDbLine
 10
-221.5496096253844
 20
37.99999958291415
 30
0.0
 11
-221.5496096253844
 21
2.000000000000002
 31
0.0
  0
INSERT
  5
6C05
330
64B1
100
AcDbEntity
  8
30
  6
CONTINUOUS
 62
     0
100
AcDbBlockReference
  2
_OPEN
 10
-221.5496096253844
 20
39.99999958291414
 30
0.0
 41
2.0
 42
2.0
 43
2.0
 50
90.0
  0
INSERT
  5
6C06
330
64B1
100
AcDbEntity
  8
30
  6
CONTINUOUS
 62
     0
100
AcDbBlockReference
  2
_OPEN
 10
-221.5496096253844
 20
0.0000000000000028
 30
0.0
 41
2.0
 42
2.0
 43
2.0
 50
270.0
  0
MTEXT
  5
6C07
330
64B1
100
AcDbEntity
  8
30
  6
CONTINUOUS
 62
     0
100
AcDbMText
 10
-224.5496096253844
 20
19.99999979145703
 30
0.0
 40
4.0
 41
0.0
 71
     5
 72
     1
  1
\A1;40
 11
0.0000000000000001
 21
1.0
 31
0.0
1001
ACAD
1000
MTEXTBEGIN
1070
    73
1070
     1
1070
    44
1040
1.0
1070
    74
1070
     0
1000
MTEXTEND
1000
MTEXTBEGIN
1070
    73
1070
     1
1070
    44
1040
1.0
1070
    74
1070
     0
1000
MTEXTEND
1000
MTEXTBEGIN
1070
    73
1070
     1
1070
    44
1040
1.0
1070
    74
1070
     0
1000
MTEXTEND
1000
MTEXTBEGIN
1070
    73
1070
     1
1070
    44
1040
1.0
1070
    74
1070
     0
1000
MTEXTEND
1000
MTEXTBEGIN
1070
    73
1070
     1
1070
    44
1040
1.0
1070
    74
1070
     0
1000
MTEXTEND
1000
MTEXTBEGIN
1070
    73
1070
     1
1070
    44
1040
1.0
1070
    74
1070
     0
1000
MTEXTEND
1000
MTEXTBEGIN
1070
    73
1070
     1
1070
    44
1040
1.0
1070
    74
1070
     0
1000
MTEXTEND
  0
POINT
  5
6C08
330
64B1
100
AcDbEntity
  8
DEFPOINTS
  6
CONTINUOUS
 62
     0
100
AcDbPoint
 10
-198.9810107446061
 20
39.99999958291414
 30
0.0
  0
POINT
  5
6C09
330
64B1
100
AcDbEntity
  8
DEFPOINTS
  6
CONTINUOUS
 62
     0
100
AcDbPoint
 10
-211.5919940154486
 20
0.0
 30
0.0
  0
POINT
  5
6C0A
330
64B1
100
AcDbEntity
  8
DEFPOINTS
  6
CONTINUOUS
 62
     0
100
AcDbPoint
 10
-221.5496096253844
 20
0.0000000000000028
 30
0.0
  0
ENDBLK
  5
64BC
330
64B1
100
AcDbEntity
  8
0
100
AcDbBlockEnd
  0
BLOCK
  5
64C7
330
64BD
100
AcDbEntity
  8
0
100
AcDbBlockBegin
  2
*D7
 70
     1
 10
0.0
 20
0.0
 30
0.0
  3
*D7
  1

  0
LINE
  5
6BF0
330
64BD
100
AcDbEntity
  8
30
  6
CONTINUOUS
 62
     0
100
AcDbLine
 10
-192.905998386139
 20
-49.07501340538196
 30
0.0
 11
-192.905998386139
 21
-67.84423486139617
 31
0.0
  0
LINE
  5
6BF1
330
64BD
100
AcDbEntity
  8
30
  6
CONTINUOUS
 62
     0
100
AcDbLine
 10
-167.9060276573023
 20
-49.07501340538196
 30
0.0
 11
-167.9060276573023
 21
-67.84423486139617
 31
0.0
  0
LINE
  5
6BF2
330
64BD
100
AcDbEntity
  8
30
  6
CONTINUOUS
 62
     0
100
AcDbLine
 10
-190.9059983861389
 20
-67.34423486139617
 30
0.0
 11
-169.9060276573023
 21
-67.34423486139617
 31
0.0
  0
INSERT
  5
6BF3
330
64BD
100
AcDbEntity
  8
30
  6
CONTINUOUS
 62
     0
100
AcDbBlockReference
  2
_OPEN
 10
-192.905998386139
 20
-67.34423486139617
 30
0.0
 41
2.0
 42
2.0
 43
2.0
 50
180.0
  0
INSERT
  5
6BF4
330
64BD
100
AcDbEntity
  8
30
  6
CONTINUOUS
 62
     0
100
AcDbBlockReference
  2
_OPEN
 10
-167.9060276573023
 20
-67.34423486139617
 30
0.0
 41
2.0
 42
2.0
 43
2.0
  0
MTEXT
  5
6BF5
330
64BD
100
AcDbEntity
  8
30
  6
CONTINUOUS
 62
     0
100
AcDbMText
 10
-180.4060130217207
 20
-64.34423486139618
 30
0.0
 40
4.0
 41
0.0
 71
     5
 72
     1
  1
\A1;25
1001
ACAD
1000
MTEXTBEGIN
1070
    73
1070
     1
1070
    44
1040
1.0
1070
    74
1070
     0
1000
MTEXTEND
1000
MTEXTBEGIN
1070
    73
1070
     1
1070
    44
1040
1.0
1070
    74
1070
     0
1000
MTEXTEND
1000
MTEXTBEGIN
1070
    73
1070
     1
1070
    44
1040
1.0
1070
    74
1070
     0
1000
MTEXTEND
1000
MTEXTBEGIN
1070
    73
1070
     1
1070
    44
1040
1.0
1070
    74
1070
     0
1000
MTEXTEND
1000
MTEXTBEGIN
1070
    73
1070
     1
1070
    44
1040
1.0
1070
    74
1070
     0
1000
MTEXTEND
1000
MTEXTBEGIN
1070
    73
1070
     1
1070
    44
1040
1.0
1070
    74
1070
     0
1000
MTEXTEND
1000
MTEXTBEGIN
1070
    73
1070
     1
1070
    44
1040
1.0
1070
    74
1070
     0
1000
MTEXTEND
  0
POINT
  5
6BF6
330
64BD
100
AcDbEntity
  8
DEFPOINTS
  6
CONTINUOUS
 62
     0
100
AcDbPoint
 10
-192.905998386139
 20
-48.07501340538196
 30
0.0
  0
POINT
  5
6BF7
330
64BD
100
AcDbEntity
  8
DEFPOINTS
  6
CONTINUOUS
 62
     0
100
AcDbPoint
 10
-167.9060276573023
 20
-48.07501340538196
 30
0.0
  0
POINT
  5
6BF8
330
64BD
100
AcDbEntity
  8
DEFPOINTS
  6
CONTINUOUS
 62
     0
100
AcDbPoint
 10
-167.9060276573023
 20
-67.34423486139617
 30
0.0
  0
ENDBLK
  5
64C8
330
64BD
100
AcDbEntity
  8
0
100
AcDbBlockEnd
  0
BLOCK
  5
64D1
330
64C9
100
AcDbEntity
  8
0
100
AcDbBlockBegin
  2
*D8
 70
     1
 10
0.0
 20
0.0
 30
0.0
  3
*D8
  1

  0
LINE
  5
6C0B
330
64C9
100
AcDbEntity
  8
30
  6
CONTINUOUS
 62
     0
100
AcDbLine
 10
-180.4060130217203
 20
-13.85502181118508
 30
0.0
 11
-180.4060130217203
 21
-14.35502181118499
 31
0.0
  0
LINE
  5
6C0C
330
64C9
100
AcDbEntity
  8
30
  6
CONTINUOUS
 62
     0
100
AcDbLine
 10
-204.4061518913055
 20
-13.85502181118499
 30
0.0
 11
-204.4061518913055
 21
-14.35502181118499
 31
0.0
  0
LINE
  5
6C0D
330
64C9
100
AcDbEntity
  8
30
  6
CONTINUOUS
 62
     0
100
AcDbLine
 10
-182.4060130217205
 20
-14.85502181118499
 30
0.0
 11
-202.4061518913057
 21
-14.85502181118499
 31
0.0
  0
INSERT
  5
6C0E
330
64C9
100
AcDbEntity
  8
30
  6
CONTINUOUS
 62
     0
100
AcDbBlockReference
  2
_OPEN
 10
-180.4060130217203
 20
-14.85502181118499
 30
0.0
 41
2.0
 42
2.0
 43
2.0
  0
INSERT
  5
6C0F
330
64C9
100
AcDbEntity
  8
30
  6
CONTINUOUS
 62
     0
100
AcDbBlockReference
  2
_OPEN
 10
-204.4061518913055
 20
-14.85502181118499
 30
0.0
 41
2.0
 42
2.0
 43
2.0
 50
180.0
  0
MTEXT
  5
6C10
330
64C9
100
AcDbEntity
  8
30
  6
CONTINUOUS
 62
     0
100
AcDbMText
 10
-192.4060824565131
 20
-11.85502181118499
 30
0.0
 40
4.0
 41
0.0
 71
     5
 72
     1
  1
\A1;24
1001
ACAD
1000
MTEXTBEGIN
1070
    73
1070
     1
1070
    44
1040
1.0
1070
    74
1070
     0
1000
MTEXTEND
1000
MTEXTBEGIN
1070
    73
1070
     1
1070
    44
1040
1.0
1070
    74
1070
     0
1000
MTEXTEND
1000
MTEXTBEGIN
1070
    73
1070
     1
1070
    44
1040
1.0
1070
    74
1070
     0
1000
MTEXTEND
1000
MTEXTBEGIN
1070
    73
1070
     1
1070
    44
1040
1.0
1070
    74
1070
     0
1000
MTEXTEND
1000
MTEXTBEGIN
1070
    73
1070
     1
1070
    44
1040
1.0
1070
    74
1070
     0
1000
MTEXTEND
1000
MTEXTBEGIN
1070
    73
1070
     1
1070
    44
1040
1.0
1070
    74
1070
     0
1000
MTEXTEND
1000
MTEXTBEGIN
1070
    73
1070
     1
1070
    44
1040
1.0
1070
    74
1070
     0
1000
MTEXTEND
  0
POINT
  5
6C11
330
64C9
100
AcDbEntity
  8
DEFPOINTS
  6
CONTINUOUS
 62
     0
100
AcDbPoint
 10
-180.4060130217203
 20
-14.85502181118508
 30
0.0
  0
POINT
  5
6C12
330
64C9
100
AcDbEntity
  8
DEFPOINTS
  6
CONTINUOUS
 62
     0
100
AcDbPoint
 10
-204.4061518913055
 20
-14.85502181118499
 30
0.0
  0
POINT
  5
6C13
330
64C9
100
AcDbEntity
  8
DEFPOINTS
  6
CONTINUOUS
 62
     0
100
AcDbPoint
 10
-204.4061518913055
 20
-14.85502181118499
 30
0.0
  0
ENDBLK
  5
64D2
330
64C9
100
AcDbEntity
  8
0
100
AcDbBlockEnd
  0
BLOCK
  5
64DD
330
64D3
100
AcDbEntity
  8
0
100
AcDbBlockBegin
  2
*D9
 70
     1
 10
0.0
 20
0.0
 30
0.0
  3
*D9
  1

  0
LINE
  5
6BC3
330
64D3
100
AcDbEntity
  8
30
  6
CONTINUOUS
 62
     0
100
AcDbLine
 10
-212.5919940154486
 20
0.0000000000000003
 30
0.0
 11
-222.0496096253844
 21
0.000000000000003
 31
0.0
  0
LINE
  5
6BC4
330
64D3
100
AcDbEntity
  8
30
  6
CONTINUOUS
 62
     0
100
AcDbLine
 10
-199.9810107446061
 20
-42.00000104691187
 30
0.0
 11
-222.0496096253844
 21
-42.00000104691186
 31
0.0
  0
LINE
  5
6BC5
330
64D3
100
AcDbEntity
  8
30
  6
CONTINUOUS
 62
     0
100
AcDbLine
 10
-221.5496096253844
 20
-1.999999999999995
 30
0.0
 11
-221.5496096253844
 21
-40.00000104691186
 31
0.0
  0
INSERT
  5
6BC6
330
64D3
100
AcDbEntity
  8
30
  6
CONTINUOUS
 62
     0
100
AcDbBlockReference
  2
_OPEN
 10
-221.5496096253844
 20
0.0000000000000028
 30
0.0
 41
2.0
 42
2.0
 43
2.0
 50
90.0
  0
INSERT
  5
6BC7
330
64D3
100
AcDbEntity
  8
30
  6
CONTINUOUS
 62
     0
100
AcDbBlockReference
  2
_OPEN
 10
-221.5496096253844
 20
-42.00000104691186
 30
0.0
 41
2.0
 42
2.0
 43
2.0
 50
270.0
  0
MTEXT
  5
6BC8
330
64D3
100
AcDbEntity
  8
30
  6
CONTINUOUS
 62
     0
100
AcDbMText
 10
-224.5496096253844
 20
-21.00000052345595
 30
0.0
 40
4.0
 41
0.0
 71
     5
 72
     1
  1
\A1;42
 11
0.0000000000000001
 21
1.0
 31
0.0
1001
ACAD
1000
MTEXTBEGIN
1070
    73
1070
     1
1070
    44
1040
1.0
1070
    74
1070
     0
1000
MTEXTEND
1000
MTEXTBEGIN
1070
    73
1070
     1
1070
    44
1040
1.0
1070
    74
1070
     0
1000
MTEXTEND
1000
MTEXTBEGIN
1070
    73
1070
     1
1070
    44
1040
1.0
1070
    74
1070
     0
1000
MTEXTEND
1000
MTEXTBEGIN
1070
    73
1070
     1
1070
    44
1040
1.0
1070
    74
1070
     0
1000
MTEXTEND
1000
MTEXTBEGIN
1070
    73
1070
     1
1070
    44
1040
1.0
1070
    74
1070
     0
1000
MTEXTEND
1000
MTEXTBEGIN
1070
    73
1070
     1
1070
    44
1040
1.0
1070
    74
1070
     0
1000
MTEXTEND
1000
MTEXTBEGIN
1070
    73
1070
     1
1070
    44
1040
1.0
1070
    74
1070
     0
1000
MTEXTEND
  0
POINT
  5
6BC9
330
64D3
100
AcDbEntity
  8
DEFPOINTS
  6
CONTINUOUS
 62
     0
100
AcDbPoint
 10
-211.5919940154486
 20
0.0
 30
0.0
  0
POINT
  5
6BCA
330
64D3
100
AcDbEntity
  8
DEFPOINTS
  6
CONTINUOUS
 62
     0
100
AcDbPoint
 10
-198.9810107446061
 20
-42.00000104691187
 30
0.0
  0
POINT
  5
6BCB
330
64D3
100
AcDbEntity
  8
DEFPOINTS
  6
CONTINUOUS
 62
     0
100
AcDbPoint
 10
-221.5496096253844
 20
-42.00000104691186
 30
0.0
  0
ENDBLK
  5
64DE
330
64D3
100
AcDbEntity
  8
0
100
AcDbBlockEnd
  0
BLOCK
  5
64E9
330
64DF
100
AcDbEntity
  8
0
100
AcDbBlockBegin
  2
*D10
 70
     1
 10
0.0
 20
0.0
 30
0.0
  3
*D10
  1

  0
LINE
  5
6BBA
330
64DF
100
AcDbEntity
  8
30
  6
CONTINUOUS
 62
     0
100
AcDbLine
 10
-155.9061342020983
 20
49.75000124025109
 30
0.0
 11
-115.3450242863157
 21
49.75000124025108
 31
0.0
  0
LINE
  5
6BBB
330
64DF
100
AcDbEntity
  8
30
  6
CONTINUOUS
 62
     0
100
AcDbLine
 10
-155.9061342020983
 20
-49.75000124010498
 30
0.0
 11
-115.3450242863157
 21
-49.75000124010499
 31
0.0
  0
LINE
  5
6BBC
330
64DF
100
AcDbEntity
  8
30
  6
CONTINUOUS
 62
     0
100
AcDbLine
 10
-115.8450242863157
 20
47.75000124025107
 30
0.0
 11
-115.8450242863157
 21
-47.75000124010499
 31
0.0
  0
INSERT
  5
6BBD
330
64DF
100
AcDbEntity
  8
30
  6
CONTINUOUS
 62
     0
100
AcDbBlockReference
  2
_OPEN
 10
-115.8450242863157
 20
49.75000124025108
 30
0.0
 41
2.0
 42
2.0
 43
2.0
 50
90.0
  0
INSERT
  5
6BBE
330
64DF
100
AcDbEntity
  8
30
  6
CONTINUOUS
 62
     0
100
AcDbBlockReference
  2
_OPEN
 10
-115.8450242863157
 20
-49.75000124010499
 30
0.0
 41
2.0
 42
2.0
 43
2.0
 50
270.0
  0
MTEXT
  5
6BBF
330
64DF
100
AcDbEntity
  8
30
  6
CONTINUOUS
 62
     0
100
AcDbMText
 10
-118.8450242863157
 20
0.0000000000730299
 30
0.0
 40
4.0
 41
0.0
 71
     5
 72
     1
  1
\A1;100
 11
0.0000000000000001
 21
1.0
 31
0.0
1001
ACAD
1000
MTEXTBEGIN
1070
    73
1070
     1
1070
    44
1040
1.0
1070
    74
1070
     0
1000
MTEXTEND
1000
MTEXTBEGIN
1070
    73
1070
     1
1070
    44
1040
1.0
1070
    74
1070
     0
1000
MTEXTEND
1000
MTEXTBEGIN
1070
    73
1070
     1
1070
    44
1040
1.0
1070
    74
1070
     0
1000
MTEXTEND
1000
MTEXTBEGIN
1070
    73
1070
     1
1070
    44
1040
1.0
1070
    74
1070
     0
1000
MTEXTEND
1000
MTEXTBEGIN
1070
    73
1070
     1
1070
    44
1040
1.0
1070
    74
1070
     0
1000
MTEXTEND
1000
MTEXTBEGIN
1070
    73
1070
     1
1070
    44
1040
1.0
1070
    74
1070
     0
1000
MTEXTEND
1000
MTEXTBEGIN
1070
    73
1070
     1
1070
    44
1040
1.0
1070
    74
1070
     0
1000
MTEXTEND
  0
POINT
  5
6BC0
330
64DF
100
AcDbEntity
  8
DEFPOINTS
  6
CONTINUOUS
 62
     0
100
AcDbPoint
 10
-156.9061342020984
 20
49.75000124025109
 30
0.0
  0
POINT
  5
6BC1
330
64DF
100
AcDbEntity
  8
DEFPOINTS
  6
CONTINUOUS
 62
     0
100
AcDbPoint
 10
-156.9061342020984
 20
-49.75000124010498
 30
0.0
  0
POINT
  5
6BC2
330
64DF
100
AcDbEntity
  8
DEFPOINTS
  6
CONTINUOUS
 62
     0
100
AcDbPoint
 10
-115.8450242863157
 20
-49.75000124010499
 30
0.0
  0
ENDBLK
  5
64EA
330
64DF
100
AcDbEntity
  8
0
100
AcDbBlockEnd
  0
BLOCK
  5
64F5
330
64EB
100
AcDbEntity
  8
0
100
AcDbBlockBegin
  2
*D11
 70
     1
 10
0.0
 20
0.0
 30
0.0
  3
*D11
  1

  0
LINE
  5
6BB1
330
64EB
100
AcDbEntity
  8
30
  6
CONTINUOUS
 62
     0
100
AcDbLine
 10
-156.9060426668114
 20
24.9999701056991
 30
0.0
 11
-140.009427293583
 21
24.99997010569909
 31
0.0
  0
LINE
  5
6BB2
330
64EB
100
AcDbEntity
  8
30
  6
CONTINUOUS
 62
     0
100
AcDbLine
 10
-156.906073807198
 20
-25.00003114071091
 30
0.0
 11
-140.009427293583
 21
-25.00003114071091
 31
0.0
  0
LINE
  5
6BB3
330
64EB
100
AcDbEntity
  8
30
  6
CONTINUOUS
 62
     0
100
AcDbLine
 10
-140.509427293583
 20
22.9999701056991
 30
0.0
 11
-140.509427293583
 21
-23.00003114071091
 31
0.0
  0
INSERT
  5
6BB4
330
64EB
100
AcDbEntity
  8
30
  6
CONTINUOUS
 62
     0
100
AcDbBlockReference
  2
_OPEN
 10
-140.509427293583
 20
24.99997010569909
 30
0.0
 41
2.0
 42
2.0
 43
2.0
 50
90.0
  0
INSERT
  5
6BB5
330
64EB
100
AcDbEntity
  8
30
  6
CONTINUOUS
 62
     0
100
AcDbBlockReference
  2
_OPEN
 10
-140.509427293583
 20
-25.00003114071091
 30
0.0
 41
2.0
 42
2.0
 43
2.0
 50
270.0
  0
MTEXT
  5
6BB6
330
64EB
100
AcDbEntity
  8
30
  6
CONTINUOUS
 62
     0
100
AcDbMText
 10
-143.5094272935828
 20
-0.000030517505932
 30
0.0
 40
4.0
 41
0.0
 71
     5
 72
     1
  1
\A1;50
 11
0.0000000000000001
 21
1.0
 31
0.0
1001
ACAD
1000
MTEXTBEGIN
1070
    73
1070
     1
1070
    44
1040
1.0
1070
    74
1070
     0
1000
MTEXTEND
1000
MTEXTBEGIN
1070
    73
1070
     1
1070
    44
1040
1.0
1070
    74
1070
     0
1000
MTEXTEND
1000
MTEXTBEGIN
1070
    73
1070
     1
1070
    44
1040
1.0
1070
    74
1070
     0
1000
MTEXTEND
1000
MTEXTBEGIN
1070
    73
1070
     1
1070
    44
1040
1.0
1070
    74
1070
     0
1000
MTEXTEND
1000
MTEXTBEGIN
1070
    73
1070
     1
1070
    44
1040
1.0
1070
    74
1070
     0
1000
MTEXTEND
1000
MTEXTBEGIN
1070
    73
1070
     1
1070
    44
1040
1.0
1070
    74
1070
     0
1000
MTEXTEND
1000
MTEXTBEGIN
1070
    73
1070
     1
1070
    44
1040
1.0
1070
    74
1070
     0
1000
MTEXTEND
  0
POINT
  5
6BB7
330
64EB
100
AcDbEntity
  8
DEFPOINTS
  6
CONTINUOUS
 62
     0
100
AcDbPoint
 10
-157.9060426668115
 20
24.9999701056991
 30
0.0
  0
POINT
  5
6BB8
330
64EB
100
AcDbEntity
  8
DEFPOINTS
  6
CONTINUOUS
 62
     0
100
AcDbPoint
 10
-157.906073807198
 20
-25.00003114071091
 30
0.0
  0
POINT
  5
6BB9
330
64EB
100
AcDbEntity
  8
DEFPOINTS
  6
CONTINUOUS
 62
     0
100
AcDbPoint
 10
-140.509427293583
 20
-25.00003114071091
 30
0.0
  0
ENDBLK
  5
64F6
330
64EB
100
AcDbEntity
  8
0
100
AcDbBlockEnd
  0
BLOCK
  5
6671
330
6667
100
AcDbEntity
  8
0
100
AcDbBlockBegin
  2
*D12
 70
     1
 10
0.0
 20
0.0
 30
0.0
  3
*D12
  1

  0
LINE
  5
6C14
330
6667
100
AcDbEntity
  8
30
  6
CONTINUOUS
 62
     0
100
AcDbLine
 10
337.5448722641463
 20
2.312532077410462
 30
0.0
 11
337.5448722641463
 21
-94.98967963641948
 31
0.0
  0
LINE
  5
6C15
330
6667
100
AcDbEntity
  8
30
  6
CONTINUOUS
 62
     0
100
AcDbLine
 10
421.544868580695
 20
-44.00006821062139
 30
0.0
 11
421.544868580695
 21
-94.98967963641948
 31
0.0
  0
LINE
  5
6C16
330
6667
100
AcDbEntity
  8
30
  6
CONTINUOUS
 62
     0
100
AcDbLine
 10
339.5448722641463
 20
-94.48967963641948
 30
0.0
 11
419.5448685806946
 21
-94.48967963641948
 31
0.0
  0
INSERT
  5
6C17
330
6667
100
AcDbEntity
  8
30
  6
CONTINUOUS
 62
     0
100
AcDbBlockReference
  2
_OPEN
 10
337.5448722641463
 20
-94.48967963641948
 30
0.0
 41
2.0
 42
2.0
 43
2.0
 50
180.0
  0
INSERT
  5
6C18
330
6667
100
AcDbEntity
  8
30
  6
CONTINUOUS
 62
     0
100
AcDbBlockReference
  2
_OPEN
 10
421.544868580695
 20
-94.48967963641948
 30
0.0
 41
2.0
 42
2.0
 43
2.0
  0
MTEXT
  5
6C19
330
6667
100
AcDbEntity
  8
30
  6
CONTINUOUS
 62
     0
100
AcDbMText
 10
379.5448704224206
 20
-91.48967963641949
 30
0.0
 40
4.0
 41
0.0
 71
     5
 72
     1
  1
\A1;84
1001
ACAD
1000
MTEXTBEGIN
1070
    73
1070
     1
1070
    44
1040
1.0
1070
    74
1070
     0
1000
MTEXTEND
1000
MTEXTBEGIN
1070
    73
1070
     1
1070
    44
1040
1.0
1070
    74
1070
     0
1000
MTEXTEND
1000
MTEXTBEGIN
1070
    73
1070
     1
1070
    44
1040
1.0
1070
    74
1070
     0
1000
MTEXTEND
1000
MTEXTBEGIN
1070
    73
1070
     1
1070
    44
1040
1.0
1070
    74
1070
     0
1000
MTEXTEND
1000
MTEXTBEGIN
1070
    73
1070
     1
1070
    44
1040
1.0
1070
    74
1070
     0
1000
MTEXTEND
1000
MTEXTBEGIN
1070
    73
1070
     1
1070
    44
1040
1.0
1070
    74
1070
     0
1000
MTEXTEND
1000
MTEXTBEGIN
1070
    73
1070
     1
1070
    44
1040
1.0
1070
    74
1070
     0
1000
MTEXTEND
  0
POINT
  5
6C1A
330
6667
100
AcDbEntity
  8
DEFPOINTS
  6
CONTINUOUS
 62
     0
100
AcDbPoint
 10
337.5448722641463
 20
3.312532077410466
 30
0.0
  0
POINT
  5
6C1B
330
6667
100
AcDbEntity
  8
DEFPOINTS
  6
CONTINUOUS
 62
     0
100
AcDbPoint
 10
421.544868580695
 20
-43.00006821062139
 30
0.0
  0
POINT
  5
6C1C
330
6667
100
AcDbEntity
  8
DEFPOINTS
  6
CONTINUOUS
 62
     0
100
AcDbPoint
 10
421.544868580695
 20
-94.48967963641948
 30
0.0
  0
ENDBLK
  5
6672
330
6667
100
AcDbEntity
  8
0
100
AcDbBlockEnd
  0
BLOCK
  5
667D
330
6673
100
AcDbEntity
  8
0
100
AcDbBlockBegin
  2
*D13
 70
     1
 10
0.0
 20
0.0
 30
0.0
  3
*D13
  1

  0
LINE
  5
6C1D
330
6673
100
AcDbEntity
  8
30
  6
CONTINUOUS
 62
     0
100
AcDbLine
 10
361.5449281201588
 20
-37.8999871869765
 30
0.0
 11
361.5449281201588
 21
-81.54381222223889
 31
0.0
  0
LINE
  5
6C1E
330
6673
100
AcDbEntity
  8
30
  6
CONTINUOUS
 62
     0
100
AcDbLine
 10
421.5448685800222
 20
-44.00006821062139
 30
0.0
 11
421.5448685800222
 21
-81.54381222223889
 31
0.0
  0
LINE
  5
6C1F
330
6673
100
AcDbEntity
  8
30
  6
CONTINUOUS
 62
     0
100
AcDbLine
 10
363.5449281201588
 20
-81.0438122222389
 30
0.0
 11
419.544868580022
 21
-81.0438122222389
 31
0.0
  0
INSERT
  5
6C20
330
6673
100
AcDbEntity
  8
30
  6
CONTINUOUS
 62
     0
100
AcDbBlockReference
  2
_OPEN
 10
361.5449281201588
 20
-81.0438122222389
 30
0.0
 41
2.0
 42
2.0
 43
2.0
 50
180.0
  0
INSERT
  5
6C21
330
6673
100
AcDbEntity
  8
30
  6
CONTINUOUS
 62
     0
100
AcDbBlockReference
  2
_OPEN
 10
421.5448685800222
 20
-81.0438122222389
 30
0.0
 41
2.0
 42
2.0
 43
2.0
  0
MTEXT
  5
6C22
330
6673
100
AcDbEntity
  8
30
  6
CONTINUOUS
 62
     0
100
AcDbMText
 10
391.5448983500906
 20
-78.0438122222389
 30
0.0
 40
4.0
 41
0.0
 71
     5
 72
     1
  1
\A1;60
1001
ACAD
1000
MTEXTBEGIN
1070
    73
1070
     1
1070
    44
1040
1.0
1070
    74
1070
     0
1000
MTEXTEND
1000
MTEXTBEGIN
1070
    73
1070
     1
1070
    44
1040
1.0
1070
    74
1070
     0
1000
MTEXTEND
1000
MTEXTBEGIN
1070
    73
1070
     1
1070
    44
1040
1.0
1070
    74
1070
     0
1000
MTEXTEND
1000
MTEXTBEGIN
1070
    73
1070
     1
1070
    44
1040
1.0
1070
    74
1070
     0
1000
MTEXTEND
1000
MTEXTBEGIN
1070
    73
1070
     1
1070
    44
1040
1.0
1070
    74
1070
     0
1000
MTEXTEND
1000
MTEXTBEGIN
1070
    73
1070
     1
1070
    44
1040
1.0
1070
    74
1070
     0
1000
MTEXTEND
1000
MTEXTBEGIN
1070
    73
1070
     1
1070
    44
1040
1.0
1070
    74
1070
     0
1000
MTEXTEND
  0
POINT
  5
6C23
330
6673
100
AcDbEntity
  8
DEFPOINTS
  6
CONTINUOUS
 62
     0
100
AcDbPoint
 10
361.5449281201588
 20
-36.8999871869765
 30
0.0
  0
POINT
  5
6C24
330
6673
100
AcDbEntity
  8
DEFPOINTS
  6
CONTINUOUS
 62
     0
100
AcDbPoint
 10
421.5448685800222
 20
-43.00006821062139
 30
0.0
  0
POINT
  5
6C25
330
6673
100
AcDbEntity
  8
DEFPOINTS
  6
CONTINUOUS
 62
     0
100
AcDbPoint
 10
421.5448685800222
 20
-81.0438122222389
 30
0.0
  0
ENDBLK
  5
667E
330
6673
100
AcDbEntity
  8
0
100
AcDbBlockEnd
  0
BLOCK
  5
6689
330
667F
100
AcDbEntity
  8
0
100
AcDbBlockBegin
  2
*D14
 70
     1
 10
0.0
 20
0.0
 30
0.0
  3
*D14
  1

  0
LINE
  5
6C51
330
667F
100
AcDbEntity
  8
30
  6
CONTINUOUS
 62
     0
100
AcDbLine
 10
370.5448978269349
 20
-50.74995546384642
 30
0.0
 11
370.5448978269349
 21
-67.8442501202217
 31
0.0
  0
LINE
  5
6C52
330
667F
100
AcDbEntity
  8
30
  6
CONTINUOUS
 62
     0
100
AcDbLine
 10
421.544868580695
 20
-44.00006821062139
 30
0.0
 11
421.544868580695
 21
-67.8442501202217
 31
0.0
  0
LINE
  5
6C53
330
667F
100
AcDbEntity
  8
30
  6
CONTINUOUS
 62
     0
100
AcDbLine
 10
372.5448978269349
 20
-67.3442501202217
 30
0.0
 11
419.5448685806946
 21
-67.3442501202217
 31
0.0
  0
INSERT
  5
6C54
330
667F
100
AcDbEntity
  8
30
  6
CONTINUOUS
 62
     0
100
AcDbBlockReference
  2
_OPEN
 10
370.5448978269349
 20
-67.3442501202217
 30
0.0
 41
2.0
 42
2.0
 43
2.0
 50
180.0
  0
INSERT
  5
6C55
330
667F
100
AcDbEntity
  8
30
  6
CONTINUOUS
 62
     0
100
AcDbBlockReference
  2
_OPEN
 10
421.544868580695
 20
-67.3442501202217
 30
0.0
 41
2.0
 42
2.0
 43
2.0
  0
MTEXT
  5
6C56
330
667F
100
AcDbEntity
  8
30
  6
CONTINUOUS
 62
     0
100
AcDbMText
 10
396.0448832038148
 20
-64.3442501202217
 30
0.0
 40
4.0
 41
0.0
 71
     5
 72
     1
  1
\A1;51
1001
ACAD
1000
MTEXTBEGIN
1070
    73
1070
     1
1070
    44
1040
1.0
1070
    74
1070
     0
1000
MTEXTEND
1000
MTEXTBEGIN
1070
    73
1070
     1
1070
    44
1040
1.0
1070
    74
1070
     0
1000
MTEXTEND
1000
MTEXTBEGIN
1070
    73
1070
     1
1070
    44
1040
1.0
1070
    74
1070
     0
1000
MTEXTEND
1000
MTEXTBEGIN
1070
    73
1070
     1
1070
    44
1040
1.0
1070
    74
1070
     0
1000
MTEXTEND
1000
MTEXTBEGIN
1070
    73
1070
     1
1070
    44
1040
1.0
1070
    74
1070
     0
1000
MTEXTEND
1000
MTEXTBEGIN
1070
    73
1070
     1
1070
    44
1040
1.0
1070
    74
1070
     0
1000
MTEXTEND
1000
MTEXTBEGIN
1070
    73
1070
     1
1070
    44
1040
1.0
1070
    74
1070
     0
1000
MTEXTEND
  0
POINT
  5
6C57
330
667F
100
AcDbEntity
  8
DEFPOINTS
  6
CONTINUOUS
 62
     0
100
AcDbPoint
 10
370.5448978269349
 20
-49.74995546384644
 30
0.0
  0
POINT
  5
6C58
330
667F
100
AcDbEntity
  8
DEFPOINTS
  6
CONTINUOUS
 62
     0
100
AcDbPoint
 10
421.544868580695
 20
-43.00006821062139
 30
0.0
  0
POINT
  5
6C59
330
667F
100
AcDbEntity
  8
DEFPOINTS
  6
CONTINUOUS
 62
     0
100
AcDbPoint
 10
421.544868580695
 20
-67.3442501202217
 30
0.0
  0
ENDBLK
  5
668A
330
667F
100
AcDbEntity
  8
0
100
AcDbBlockEnd
  0
BLOCK
  5
6695
330
668B
100
AcDbEntity
  8
0
100
AcDbBlockBegin
  2
*D15
 70
     1
 10
0.0
 20
0.0
 30
0.0
  3
*D15
  1

  0
LINE
  5
6C6D
330
668B
100
AcDbEntity
  8
30
  6
CONTINUOUS
 62
     0
100
AcDbLine
 10
378.544868580695
 20
46.89992485029462
 30
0.0
 11
378.544868580695
 21
59.26475053604848
 31
0.0
  0
LINE
  5
6C6E
330
668B
100
AcDbEntity
  8
30
  6
CONTINUOUS
 62
     0
100
AcDbLine
 10
421.544868580695
 20
44.00004684824351
 30
0.0
 11
421.544868580695
 21
59.26475053604848
 31
0.0
  0
LINE
  5
6C6F
330
668B
100
AcDbEntity
  8
30
  6
CONTINUOUS
 62
     0
100
AcDbLine
 10
380.544868580695
 20
58.76475053604848
 30
0.0
 11
419.5448685806946
 21
58.76475053604848
 31
0.0
  0
INSERT
  5
6C70
330
668B
100
AcDbEntity
  8
30
  6
CONTINUOUS
 62
     0
100
AcDbBlockReference
  2
_OPEN
 10
378.544868580695
 20
58.76475053604848
 30
0.0
 41
2.0
 42
2.0
 43
2.0
 50
180.0
  0
INSERT
  5
6C71
330
668B
100
AcDbEntity
  8
30
  6
CONTINUOUS
 62
     0
100
AcDbBlockReference
  2
_OPEN
 10
421.544868580695
 20
58.76475053604848
 30
0.0
 41
2.0
 42
2.0
 43
2.0
  0
MTEXT
  5
6C72
330
668B
100
AcDbEntity
  8
30
  6
CONTINUOUS
 62
     0
100
AcDbMText
 10
400.0448685806948
 20
61.76475053604848
 30
0.0
 40
4.0
 41
0.0
 71
     5
 72
     1
  1
\A1;43
1001
ACAD
1000
MTEXTBEGIN
1070
    73
1070
     1
1070
    44
1040
1.0
1070
    74
1070
     0
1000
MTEXTEND
1000
MTEXTBEGIN
1070
    73
1070
     1
1070
    44
1040
1.0
1070
    74
1070
     0
1000
MTEXTEND
1000
MTEXTBEGIN
1070
    73
1070
     1
1070
    44
1040
1.0
1070
    74
1070
     0
1000
MTEXTEND
1000
MTEXTBEGIN
1070
    73
1070
     1
1070
    44
1040
1.0
1070
    74
1070
     0
1000
MTEXTEND
1000
MTEXTBEGIN
1070
    73
1070
     1
1070
    44
1040
1.0
1070
    74
1070
     0
1000
MTEXTEND
1000
MTEXTBEGIN
1070
    73
1070
     1
1070
    44
1040
1.0
1070
    74
1070
     0
1000
MTEXTEND
1000
MTEXTBEGIN
1070
    73
1070
     1
1070
    44
1040
1.0
1070
    74
1070
     0
1000
MTEXTEND
  0
POINT
  5
6C73
330
668B
100
AcDbEntity
  8
DEFPOINTS
  6
CONTINUOUS
 62
     0
100
AcDbPoint
 10
378.544868580695
 20
45.89992485029465
 30
0.0
  0
POINT
  5
6C74
330
668B
100
AcDbEntity
  8
DEFPOINTS
  6
CONTINUOUS
 62
     0
100
AcDbPoint
 10
421.544868580695
 20
43.0000468482435
 30
0.0
  0
POINT
  5
6C75
330
668B
100
AcDbEntity
  8
DEFPOINTS
  6
CONTINUOUS
 62
     0
100
AcDbPoint
 10
421.544868580695
 20
58.76475053604848
 30
0.0
  0
ENDBLK
  5
6696
330
668B
100
AcDbEntity
  8
0
100
AcDbBlockEnd
  0
BLOCK
  5
66A1
330
6697
100
AcDbEntity
  8
0
100
AcDbBlockBegin
  2
*D16
 70
     1
 10
0.0
 20
0.0
 30
0.0
  3
*D16
  1

  0
LINE
  5
6C76
330
6697
100
AcDbEntity
  8
30
  6
CONTINUOUS
 62
     0
100
AcDbLine
 10
373.0448685806948
 20
100.7499859813524
 30
0.0
 11
373.0448685806948
 21
107.8837932594371
 31
0.0
  0
LINE
  5
6C77
330
6697
100
AcDbEntity
  8
30
  6
CONTINUOUS
 62
     0
100
AcDbLine
 10
419.0448685806948
 20
100.7499859813524
 30
0.0
 11
419.0448685806948
 21
107.8837932594371
 31
0.0
  0
LINE
  5
6C78
330
6697
100
AcDbEntity
  8
30
  6
CONTINUOUS
 62
     0
100
AcDbLine
 10
375.0448685806948
 20
107.383793259437
 30
0.0
 11
417.044868580695
 21
107.383793259437
 31
0.0
  0
INSERT
  5
6C79
330
6697
100
AcDbEntity
  8
30
  6
CONTINUOUS
 62
     0
100
AcDbBlockReference
  2
_OPEN
 10
373.0448685806948
 20
107.383793259437
 30
0.0
 41
2.0
 42
2.0
 43
2.0
 50
180.0
  0
INSERT
  5
6C7A
330
6697
100
AcDbEntity
  8
30
  6
CONTINUOUS
 62
     0
100
AcDbBlockReference
  2
_OPEN
 10
419.0448685806948
 20
107.383793259437
 30
0.0
 41
2.0
 42
2.0
 43
2.0
  0
MTEXT
  5
6C7B
330
6697
100
AcDbEntity
  8
30
  6
CONTINUOUS
 62
     0
100
AcDbMText
 10
396.0448685806948
 20
110.3837932594371
 30
0.0
 40
4.0
 41
0.0
 71
     5
 72
     1
  1
\A1;46
1001
ACAD
1000
MTEXTBEGIN
1070
    73
1070
     1
1070
    44
1040
1.0
1070
    74
1070
     0
1000
MTEXTEND
1000
MTEXTBEGIN
1070
    73
1070
     1
1070
    44
1040
1.0
1070
    74
1070
     0
1000
MTEXTEND
1000
MTEXTBEGIN
1070
    73
1070
     1
1070
    44
1040
1.0
1070
    74
1070
     0
1000
MTEXTEND
1000
MTEXTBEGIN
1070
    73
1070
     1
1070
    44
1040
1.0
1070
    74
1070
     0
1000
MTEXTEND
1000
MTEXTBEGIN
1070
    73
1070
     1
1070
    44
1040
1.0
1070
    74
1070
     0
1000
MTEXTEND
1000
MTEXTBEGIN
1070
    73
1070
     1
1070
    44
1040
1.0
1070
    74
1070
     0
1000
MTEXTEND
1000
MTEXTBEGIN
1070
    73
1070
     1
1070
    44
1040
1.0
1070
    74
1070
     0
1000
MTEXTEND
  0
POINT
  5
6C7C
330
6697
100
AcDbEntity
  8
DEFPOINTS
  6
CONTINUOUS
 62
     0
100
AcDbPoint
 10
373.0448685806948
 20
99.74998598135259
 30
0.0
  0
POINT
  5
6C7D
330
6697
100
AcDbEntity
  8
DEFPOINTS
  6
CONTINUOUS
 62
     0
100
AcDbPoint
 10
419.0448685806948
 20
99.74998598135259
 30
0.0
  0
POINT
  5
6C7E
330
6697
100
AcDbEntity
  8
DEFPOINTS
  6
CONTINUOUS
 62
     0
100
AcDbPoint
 10
419.0448685806948
 20
107.383793259437
 30
0.0
  0
ENDBLK
  5
66A2
330
6697
100
AcDbEntity
  8
0
100
AcDbBlockEnd
  0
BLOCK
  5
66AF
330
66A3
100
AcDbEntity
  8
0
100
AcDbBlockBegin
  2
*D17
 70
     1
 10
0.0
 20
0.0
 30
0.0
  3
*D17
  1

  0
LINE
  5
6C3E
330
66A3
100
AcDbEntity
  8
30
  6
CONTINUOUS
 62
     0
100
AcDbLine
 10
353.5449585090239
 20
-25.49995483440942
 30
0.0
 11
353.5449585090239
 21
-62.26666417942642
 31
0.0
  0
LINE
  5
6C3F
330
66A3
100
AcDbEntity
  8
30
  6
CONTINUOUS
 62
     0
100
AcDbLine
 10
349.544958550733
 20
-25.4999548344084
 30
0.0
 11
349.544958550733
 21
-62.26666417942642
 31
0.0
  0
LINE
  5
6C40
330
66A3
100
AcDbEntity
  8
30
  6
CONTINUOUS
 62
     0
100
AcDbLine
 10
355.5449585090239
 20
-61.76666417942642
 30
0.0
 11
357.5449585090239
 21
-61.76666417942642
 31
0.0
  0
LINE
  5
6C41
330
66A3
100
AcDbEntity
  8
30
  6
CONTINUOUS
 62
     0
100
AcDbLine
 10
347.544958550733
 20
-61.76666417942642
 30
0.0
 11
340.8782918840663
 21
-61.76666417942642
 31
0.0
  0
INSERT
  5
6C42
330
66A3
100
AcDbEntity
  8
30
  6
CONTINUOUS
 62
     0
100
AcDbBlockReference
  2
_OPEN
 10
353.5449585090239
 20
-61.76666417942642
 30
0.0
 41
2.0
 42
2.0
 43
2.0
 50
180.0
  0
INSERT
  5
6C43
330
66A3
100
AcDbEntity
  8
30
  6
CONTINUOUS
 62
     0
100
AcDbBlockReference
  2
_OPEN
 10
349.544958550733
 20
-61.76666417942642
 30
0.0
 41
2.0
 42
2.0
 43
2.0
  0
MTEXT
  5
6C44
330
66A3
100
AcDbEntity
  8
30
  6
CONTINUOUS
 62
     0
100
AcDbMText
 10
343.2116252173996
 20
-58.76666417942642
 30
0.0
 40
4.0
 41
0.0
 71
     5
 72
     1
  1
\A1;4
1001
ACAD
1000
MTEXTBEGIN
1070
    73
1070
     1
1070
    44
1040
1.0
1070
    74
1070
     0
1000
MTEXTEND
1000
MTEXTBEGIN
1070
    73
1070
     1
1070
    44
1040
1.0
1070
    74
1070
     0
1000
MTEXTEND
1000
MTEXTBEGIN
1070
    73
1070
     1
1070
    44
1040
1.0
1070
    74
1070
     0
1000
MTEXTEND
1000
MTEXTBEGIN
1070
    73
1070
     1
1070
    44
1040
1.0
1070
    74
1070
     0
1000
MTEXTEND
1000
MTEXTBEGIN
1070
    73
1070
     1
1070
    44
1040
1.0
1070
    74
1070
     0
1000
MTEXTEND
1000
MTEXTBEGIN
1070
    73
1070
     1
1070
    44
1040
1.0
1070
    74
1070
     0
1000
MTEXTEND
1000
MTEXTBEGIN
1070
    73
1070
     1
1070
    44
1040
1.0
1070
    74
1070
     0
1000
MTEXTEND
  0
POINT
  5
6C45
330
66A3
100
AcDbEntity
  8
DEFPOINTS
  6
CONTINUOUS
 62
     0
100
AcDbPoint
 10
353.5449585090239
 20
-24.49995483440942
 30
0.0
  0
POINT
  5
6C46
330
66A3
100
AcDbEntity
  8
DEFPOINTS
  6
CONTINUOUS
 62
     0
100
AcDbPoint
 10
349.544958550733
 20
-24.4999548344084
 30
0.0
  0
POINT
  5
6C47
330
66A3
100
AcDbEntity
  8
DEFPOINTS
  6
CONTINUOUS
 62
     0
100
AcDbPoint
 10
349.544958550733
 20
-61.76666417942642
 30
0.0
  0
ENDBLK
  5
66B0
330
66A3
100
AcDbEntity
  8
0
100
AcDbBlockEnd
  0
BLOCK
  5
66BD
330
66B1
100
AcDbEntity
  8
0
100
AcDbBlockBegin
  2
*D18
 70
     1
 10
0.0
 20
0.0
 30
0.0
  3
*D18
  1

  0
LINE
  5
6C35
330
66B1
100
AcDbEntity
  8
30
  6
CONTINUOUS
 62
     0
100
AcDbLine
 10
353.5449585090239
 20
-25.4999548344104
 30
0.0
 11
353.5449585090239
 21
-81.54381222223889
 31
0.0
  0
LINE
  5
6C36
330
66B1
100
AcDbEntity
  8
30
  6
CONTINUOUS
 62
     0
100
AcDbLine
 10
361.5449281201588
 20
-37.8999871869765
 30
0.0
 11
361.5449281201588
 21
-81.54381222223889
 31
0.0
  0
LINE
  5
6C37
330
66B1
100
AcDbEntity
  8
30
  6
CONTINUOUS
 62
     0
100
AcDbLine
 10
355.5449585090239
 20
-81.0438122222389
 30
0.0
 11
359.5449281201588
 21
-81.0438122222389
 31
0.0
  0
INSERT
  5
6C38
330
66B1
100
AcDbEntity
  8
30
  6
CONTINUOUS
 62
     0
100
AcDbBlockReference
  2
_OPEN
 10
353.5449585090239
 20
-81.0438122222389
 30
0.0
 41
2.0
 42
2.0
 43
2.0
 50
180.0
  0
INSERT
  5
6C39
330
66B1
100
AcDbEntity
  8
30
  6
CONTINUOUS
 62
     0
100
AcDbBlockReference
  2
_OPEN
 10
361.5449281201588
 20
-81.0438122222389
 30
0.0
 41
2.0
 42
2.0
 43
2.0
  0
MTEXT
  5
6C3A
330
66B1
100
AcDbEntity
  8
30
  6
CONTINUOUS
 62
     0
100
AcDbMText
 10
357.5449433145915
 20
-78.0438122222389
 30
0.0
 40
4.0
 41
0.0
 71
     5
 72
     1
  1
\A1;8
1001
ACAD
1000
MTEXTBEGIN
1070
    73
1070
     1
1070
    44
1040
1.0
1070
    74
1070
     0
1000
MTEXTEND
1000
MTEXTBEGIN
1070
    73
1070
     1
1070
    44
1040
1.0
1070
    74
1070
     0
1000
MTEXTEND
1000
MTEXTBEGIN
1070
    73
1070
     1
1070
    44
1040
1.0
1070
    74
1070
     0
1000
MTEXTEND
1000
MTEXTBEGIN
1070
    73
1070
     1
1070
    44
1040
1.0
1070
    74
1070
     0
1000
MTEXTEND
1000
MTEXTBEGIN
1070
    73
1070
     1
1070
    44
1040
1.0
1070
    74
1070
     0
1000
MTEXTEND
1000
MTEXTBEGIN
1070
    73
1070
     1
1070
    44
1040
1.0
1070
    74
1070
     0
1000
MTEXTEND
1000
MTEXTBEGIN
1070
    73
1070
     1
1070
    44
1040
1.0
1070
    74
1070
     0
1000
MTEXTEND
  0
POINT
  5
6C3B
330
66B1
100
AcDbEntity
  8
DEFPOINTS
  6
CONTINUOUS
 62
     0
100
AcDbPoint
 10
353.5449585090239
 20
-24.49995483441041
 30
0.0
  0
POINT
  5
6C3C
330
66B1
100
AcDbEntity
  8
DEFPOINTS
  6
CONTINUOUS
 62
     0
100
AcDbPoint
 10
361.5449281201588
 20
-36.8999871869765
 30
0.0
  0
POINT
  5
6C3D
330
66B1
100
AcDbEntity
  8
DEFPOINTS
  6
CONTINUOUS
 62
     0
100
AcDbPoint
 10
361.5449281201588
 20
-81.0438122222389
 30
0.0
  0
ENDBLK
  5
66BE
330
66B1
100
AcDbEntity
  8
0
100
AcDbBlockEnd
  0
BLOCK
  5
66CB
330
66BF
100
AcDbEntity
  8
0
100
AcDbBlockBegin
  2
*D19
 70
     1
 10
0.0
 20
0.0
 30
0.0
  3
*D19
  1

  0
LINE
  5
6C63
330
66BF
100
AcDbEntity
  8
30
  6
CONTINUOUS
 62
     0
100
AcDbLine
 10
419.0448685806948
 20
100.7499859813524
 30
0.0
 11
419.0448685806948
 21
107.8837932594371
 31
0.0
  0
LINE
  5
6C64
330
66BF
100
AcDbEntity
  8
30
  6
CONTINUOUS
 62
     0
100
AcDbLine
 10
421.544868580695
 20
44.00004684824351
 30
0.0
 11
421.544868580695
 21
107.883793259437
 31
0.0
  0
LINE
  5
6C65
330
66BF
100
AcDbEntity
  8
30
  6
CONTINUOUS
 62
     0
100
AcDbLine
 10
417.044868580695
 20
107.383793259437
 30
0.0
 11
415.0448685806948
 21
107.383793259437
 31
0.0
  0
LINE
  5
6C66
330
66BF
100
AcDbEntity
  8
30
  6
CONTINUOUS
 62
     0
100
AcDbLine
 10
423.5448685806946
 20
107.383793259437
 30
0.0
 11
435.5448685806948
 21
107.383793259437
 31
0.0
  0
INSERT
  5
6C67
330
66BF
100
AcDbEntity
  8
30
  6
CONTINUOUS
 62
     0
100
AcDbBlockReference
  2
_OPEN
 10
419.0448685806948
 20
107.383793259437
 30
0.0
 41
2.0
 42
2.0
 43
2.0
  0
INSERT
  5
6C68
330
66BF
100
AcDbEntity
  8
30
  6
CONTINUOUS
 62
     0
100
AcDbBlockReference
  2
_OPEN
 10
421.544868580695
 20
107.383793259437
 30
0.0
 41
2.0
 42
2.0
 43
2.0
 50
180.0
  0
MTEXT
  5
6C69
330
66BF
100
AcDbEntity
  8
30
  6
CONTINUOUS
 62
     0
100
AcDbMText
 10
430.544868580695
 20
110.3837932594371
 30
0.0
 40
4.0
 41
0.0
 71
     5
 72
     1
  1
\A1;2.5
1001
ACAD
1000
MTEXTBEGIN
1070
    73
1070
     1
1070
    44
1040
1.0
1070
    74
1070
     0
1000
MTEXTEND
1000
MTEXTBEGIN
1070
    73
1070
     1
1070
    44
1040
1.0
1070
    74
1070
     0
1000
MTEXTEND
1000
MTEXTBEGIN
1070
    73
1070
     1
1070
    44
1040
1.0
1070
    74
1070
     0
1000
MTEXTEND
1000
MTEXTBEGIN
1070
    73
1070
     1
1070
    44
1040
1.0
1070
    74
1070
     0
1000
MTEXTEND
1000
MTEXTBEGIN
1070
    73
1070
     1
1070
    44
1040
1.0
1070
    74
1070
     0
1000
MTEXTEND
1000
MTEXTBEGIN
1070
    73
1070
     1
1070
    44
1040
1.0
1070
    74
1070
     0
1000
MTEXTEND
1000
MTEXTBEGIN
1070
    73
1070
     1
1070
    44
1040
1.0
1070
    74
1070
     0
1000
MTEXTEND
  0
POINT
  5
6C6A
330
66BF
100
AcDbEntity
  8
DEFPOINTS
  6
CONTINUOUS
 62
     0
100
AcDbPoint
 10
419.0448685806948
 20
99.74998598135259
 30
0.0
  0
POINT
  5
6C6B
330
66BF
100
AcDbEntity
  8
DEFPOINTS
  6
CONTINUOUS
 62
     0
100
AcDbPoint
 10
421.544868580695
 20
43.0000468482435
 30
0.0
  0
POINT
  5
6C6C
330
66BF
100
AcDbEntity
  8
DEFPOINTS
  6
CONTINUOUS
 62
     0
100
AcDbPoint
 10
421.544868580695
 20
107.383793259437
 30
0.0
  0
ENDBLK
  5
66CC
330
66BF
100
AcDbEntity
  8
0
100
AcDbBlockEnd
  0
BLOCK
  5
6759
330
674F
100
AcDbEntity
  8
0
100
AcDbBlockBegin
  2
*D20
 70
     1
 10
0.0
 20
0.0
 30
0.0
  3
*D20
  1

  0
LINE
  5
6BD5
330
674F
100
AcDbEntity
  8
30
  6
CONTINUOUS
 62
     0
100
AcDbLine
 10
-171.9106513313479
 20
-208.8473930239059
 30
0.0
 11
-133.2819292071911
 21
-208.8473930239059
 31
0.0
  0
LINE
  5
6BD6
330
674F
100
AcDbEntity
  8
30
  6
CONTINUOUS
 62
     0
100
AcDbLine
 10
-171.3325593782998
 20
-292.8473950181631
 30
0.0
 11
-133.2819292071911
 21
-292.8473950181631
 31
0.0
  0
LINE
  5
6BD7
330
674F
100
AcDbEntity
  8
30
  6
CONTINUOUS
 62
     0
100
AcDbLine
 10
-133.781929207191
 20
-210.8473930239059
 30
0.0
 11
-133.781929207191
 21
-290.8473950181631
 31
0.0
  0
INSERT
  5
6BD8
330
674F
100
AcDbEntity
  8
30
  6
CONTINUOUS
 62
     0
100
AcDbBlockReference
  2
_OPEN
 10
-133.781929207191
 20
-208.8473930239059
 30
0.0
 41
2.0
 42
2.0
 43
2.0
 50
90.0
  0
INSERT
  5
6BD9
330
674F
100
AcDbEntity
  8
30
  6
CONTINUOUS
 62
     0
100
AcDbBlockReference
  2
_OPEN
 10
-133.781929207191
 20
-292.8473950181631
 30
0.0
 41
2.0
 42
2.0
 43
2.0
 50
270.0
  0
MTEXT
  5
6BDA
330
674F
100
AcDbEntity
  8
30
  6
CONTINUOUS
 62
     0
100
AcDbMText
 10
-136.781929207191
 20
-250.8473940210345
 30
0.0
 40
4.0
 41
0.0
 71
     5
 72
     1
  1
\A1;84
 11
0.0000000000000001
 21
1.0
 31
0.0
1001
ACAD
1000
MTEXTBEGIN
1070
    73
1070
     1
1070
    44
1040
1.0
1070
    74
1070
     0
1000
MTEXTEND
1000
MTEXTBEGIN
1070
    73
1070
     1
1070
    44
1040
1.0
1070
    74
1070
     0
1000
MTEXTEND
1000
MTEXTBEGIN
1070
    73
1070
     1
1070
    44
1040
1.0
1070
    74
1070
     0
1000
MTEXTEND
1000
MTEXTBEGIN
1070
    73
1070
     1
1070
    44
1040
1.0
1070
    74
1070
     0
1000
MTEXTEND
1000
MTEXTBEGIN
1070
    73
1070
     1
1070
    44
1040
1.0
1070
    74
1070
     0
1000
MTEXTEND
1000
MTEXTBEGIN
1070
    73
1070
     1
1070
    44
1040
1.0
1070
    74
1070
     0
1000
MTEXTEND
1000
MTEXTBEGIN
1070
    73
1070
     1
1070
    44
1040
1.0
1070
    74
1070
     0
1000
MTEXTEND
  0
POINT
  5
6BDB
330
674F
100
AcDbEntity
  8
DEFPOINTS
  6
CONTINUOUS
 62
     0
100
AcDbPoint
 10
-172.9106513313479
 20
-208.8473930239059
 30
0.0
  0
POINT
  5
6BDC
330
674F
100
AcDbEntity
  8
DEFPOINTS
  6
CONTINUOUS
 62
     0
100
AcDbPoint
 10
-172.3325593782998
 20
-292.8473950181631
 30
0.0
  0
POINT
  5
6BDD
330
674F
100
AcDbEntity
  8
DEFPOINTS
  6
CONTINUOUS
 62
     0
100
AcDbPoint
 10
-133.781929207191
 20
-292.8473950181631
 30
0.0
  0
ENDBLK
  5
675A
330
674F
100
AcDbEntity
  8
0
100
AcDbBlockEnd
  0
BLOCK
  5
67B2
330
67AB
100
AcDbEntity
  8
0
100
AcDbBlockBegin
  2
*D21
 70
     1
 10
0.0
 20
0.0
 30
0.0
  3
*D21
  1

  0
LINE
  5
6C2F
330
67AB
100
AcDbEntity
  8
11
 62
     0
100
AcDbLine
 10
364.5911175711546
 20
-240.0989801754517
 30
0.0
 11
351.6660796711941
 21
-228.7937940512339
 31
0.0
  0
MTEXT
  5
6C30
330
67AB
100
AcDbEntity
  8
11
 62
     0
100
AcDbMText
 10
362.9592872616853
 20
-233.3574491214398
 30
0.0
 40
5.0
 41
0.0
 71
     5
 72
     1
  1
\A1;R2
 11
0.7526985305482006
 21
-0.6583653409092704
 31
0.0
1001
ACAD
1000
MTEXTBEGIN
1070
    73
1070
     1
1070
    44
1040
1.0
1070
    74
1070
     0
1000
MTEXTEND
1000
MTEXTBEGIN
1070
    73
1070
     1
1070
    44
1040
1.0
1070
    74
1070
     0
1000
MTEXTEND
1000
MTEXTBEGIN
1070
    73
1070
     1
1070
    44
1040
1.0
1070
    74
1070
     0
1000
MTEXTEND
1000
MTEXTBEGIN
1070
    73
1070
     1
1070
    44
1040
1.0
1070
    74
1070
     0
1000
MTEXTEND
1000
MTEXTBEGIN
1070
    73
1070
     1
1070
    44
1040
1.0
1070
    74
1070
     0
1000
MTEXTEND
1000
MTEXTBEGIN
1070
    73
1070
     1
1070
    44
1040
1.0
1070
    74
1070
     0
1000
MTEXTEND
1000
MTEXTBEGIN
1070
    73
1070
     1
1070
    44
1040
1.0
1070
    74
1070
     0
1000
MTEXTEND
  0
LINE
  5
6C31
330
67AB
100
AcDbEntity
  8
11
 62
     0
100
AcDbLine
 10
346.4059381555339
 20
-224.1928884806245
 30
0.0
 11
347.9025870184532
 21
-225.5019673466875
 31
0.0
  0
INSERT
  5
6C32
330
67AB
100
AcDbEntity
  8
11
 62
     0
100
AcDbBlockReference
  2
_OPEN30
 10
347.9025870184532
 20
-225.5019673466875
 30
0.0
 41
5.0
 42
5.0
 43
5.0
 50
138.8246767612119
  0
POINT
  5
6C33
330
67AB
100
AcDbEntity
  8
DEFPOINTS
 62
     0
100
AcDbPoint
 10
347.9025870184532
 20
-225.5019673466875
 30
0.0
  0
POINT
  5
6C34
330
67AB
100
AcDbEntity
  8
DEFPOINTS
 62
     0
100
AcDbPoint
 10
346.4059381555339
 20
-224.1928884806245
 30
0.0
  0
ENDBLK
  5
67B3
330
67AB
100
AcDbEntity
  8
0
100
AcDbBlockEnd
  0
BLOCK
  5
67BE
330
67B4
100
AcDbEntity
  8
0
100
AcDbBlockBegin
  2
*D22
 70
     1
 10
0.0
 20
0.0
 30
0.0
  3
*D22
  1

  0
LINE
  5
6C26
330
67B4
100
AcDbEntity
  8
30
  6
CONTINUOUS
 62
     0
100
AcDbLine
 10
347.4814041087878
 20
-275.8473946193118
 30
0.0
 11
347.4814041087878
 21
-320.8215689840651
 31
0.0
  0
LINE
  5
6C27
330
67B4
100
AcDbEntity
  8
30
  6
CONTINUOUS
 62
     0
100
AcDbLine
 10
392.481405803905
 20
-275.8473946193118
 30
0.0
 11
392.481405803905
 21
-320.8215689840651
 31
0.0
  0
LINE
  5
6C28
330
67B4
100
AcDbEntity
  8
30
  6
CONTINUOUS
 62
     0
100
AcDbLine
 10
349.4814041087878
 20
-320.3215689840651
 30
0.0
 11
390.481405803905
 21
-320.3215689840651
 31
0.0
  0
INSERT
  5
6C29
330
67B4
100
AcDbEntity
  8
30
  6
CONTINUOUS
 62
     0
100
AcDbBlockReference
  2
_OPEN
 10
347.4814041087878
 20
-320.3215689840651
 30
0.0
 41
2.0
 42
2.0
 43
2.0
 50
180.0
  0
INSERT
  5
6C2A
330
67B4
100
AcDbEntity
  8
30
  6
CONTINUOUS
 62
     0
100
AcDbBlockReference
  2
_OPEN
 10
392.481405803905
 20
-320.3215689840651
 30
0.0
 41
2.0
 42
2.0
 43
2.0
  0
MTEXT
  5
6C2B
330
67B4
100
AcDbEntity
  8
30
  6
CONTINUOUS
 62
     0
100
AcDbMText
 10
369.9814049563463
 20
-317.3215689840651
 30
0.0
 40
4.0
 41
0.0
 71
     5
 72
     1
  1
\A1;50
1001
ACAD
1000
MTEXTBEGIN
1070
    73
1070
     1
1070
    44
1040
1.0
1070
    74
1070
     0
1000
MTEXTEND
1000
MTEXTBEGIN
1070
    73
1070
     1
1070
    44
1040
1.0
1070
    74
1070
     0
1000
MTEXTEND
1000
MTEXTBEGIN
1070
    73
1070
     1
1070
    44
1040
1.0
1070
    74
1070
     0
1000
MTEXTEND
1000
MTEXTBEGIN
1070
    73
1070
     1
1070
    44
1040
1.0
1070
    74
1070
     0
1000
MTEXTEND
1000
MTEXTBEGIN
1070
    73
1070
     1
1070
    44
1040
1.0
1070
    74
1070
     0
1000
MTEXTEND
1000
MTEXTBEGIN
1070
    73
1070
     1
1070
    44
1040
1.0
1070
    74
1070
     0
1000
MTEXTEND
1000
MTEXTBEGIN
1070
    73
1070
     1
1070
    44
1040
1.0
1070
    74
1070
     0
1000
MTEXTEND
  0
POINT
  5
6C2C
330
67B4
100
AcDbEntity
  8
DEFPOINTS
  6
CONTINUOUS
 62
     0
100
AcDbPoint
 10
347.4814041087878
 20
-274.8473946193118
 30
0.0
  0
POINT
  5
6C2D
330
67B4
100
AcDbEntity
  8
DEFPOINTS
  6
CONTINUOUS
 62
     0
100
AcDbPoint
 10
392.481405803905
 20
-274.8473946193118
 30
0.0
  0
POINT
  5
6C2E
330
67B4
100
AcDbEntity
  8
DEFPOINTS
  6
CONTINUOUS
 62
     0
100
AcDbPoint
 10
392.481405803905
 20
-320.3215689840651
 30
0.0
  0
ENDBLK
  5
67BF
330
67B4
100
AcDbEntity
  8
0
100
AcDbBlockEnd
  0
BLOCK
  5
67CA
330
67C0
100
AcDbEntity
  8
0
100
AcDbBlockBegin
  2
*D23
 70
     1
 10
0.0
 20
0.0
 30
0.0
  3
*D23
  1

  0
LINE
  5
6C48
330
67C0
100
AcDbEntity
  8
30
  6
CONTINUOUS
 62
     0
100
AcDbLine
 10
391.4814057540486
 20
-224.8473933729012
 30
0.0
 11
417.8545004675426
 21
-224.8473933729012
 31
0.0
  0
LINE
  5
6C49
330
67C0
100
AcDbEntity
  8
30
  6
CONTINUOUS
 62
     0
100
AcDbLine
 10
391.4814057540486
 20
-276.847394669168
 30
0.0
 11
417.8545004675426
 21
-276.847394669168
 31
0.0
  0
LINE
  5
6C4A
330
67C0
100
AcDbEntity
  8
30
  6
CONTINUOUS
 62
     0
100
AcDbLine
 10
417.3545004675426
 20
-226.8473933729012
 30
0.0
 11
417.3545004675426
 21
-274.847394669168
 31
0.0
  0
INSERT
  5
6C4B
330
67C0
100
AcDbEntity
  8
30
  6
CONTINUOUS
 62
     0
100
AcDbBlockReference
  2
_OPEN
 10
417.3545004675426
 20
-224.8473933729012
 30
0.0
 41
2.0
 42
2.0
 43
2.0
 50
90.0
  0
INSERT
  5
6C4C
330
67C0
100
AcDbEntity
  8
30
  6
CONTINUOUS
 62
     0
100
AcDbBlockReference
  2
_OPEN
 10
417.3545004675426
 20
-276.847394669168
 30
0.0
 41
2.0
 42
2.0
 43
2.0
 50
270.0
  0
MTEXT
  5
6C4D
330
67C0
100
AcDbEntity
  8
30
  6
CONTINUOUS
 62
     0
100
AcDbMText
 10
414.354500467543
 20
-250.8473940210345
 30
0.0
 40
4.0
 41
0.0
 71
     5
 72
     1
  1
\A1;52
 11
0.0000000000000001
 21
1.0
 31
0.0
1001
ACAD
1000
MTEXTBEGIN
1070
    73
1070
     1
1070
    44
1040
1.0
1070
    74
1070
     0
1000
MTEXTEND
1000
MTEXTBEGIN
1070
    73
1070
     1
1070
    44
1040
1.0
1070
    74
1070
     0
1000
MTEXTEND
1000
MTEXTBEGIN
1070
    73
1070
     1
1070
    44
1040
1.0
1070
    74
1070
     0
1000
MTEXTEND
1000
MTEXTBEGIN
1070
    73
1070
     1
1070
    44
1040
1.0
1070
    74
1070
     0
1000
MTEXTEND
1000
MTEXTBEGIN
1070
    73
1070
     1
1070
    44
1040
1.0
1070
    74
1070
     0
1000
MTEXTEND
1000
MTEXTBEGIN
1070
    73
1070
     1
1070
    44
1040
1.0
1070
    74
1070
     0
1000
MTEXTEND
1000
MTEXTBEGIN
1070
    73
1070
     1
1070
    44
1040
1.0
1070
    74
1070
     0
1000
MTEXTEND
  0
POINT
  5
6C4E
330
67C0
100
AcDbEntity
  8
DEFPOINTS
  6
CONTINUOUS
 62
     0
100
AcDbPoint
 10
390.4814057540486
 20
-224.8473933729012
 30
0.0
  0
POINT
  5
6C4F
330
67C0
100
AcDbEntity
  8
DEFPOINTS
  6
CONTINUOUS
 62
     0
100
AcDbPoint
 10
390.4814057540486
 20
-276.847394669168
 30
0.0
  0
POINT
  5
6C50
330
67C0
100
AcDbEntity
  8
DEFPOINTS
  6
CONTINUOUS
 62
     0
100
AcDbPoint
 10
417.3545004675426
 20
-276.847394669168
 30
0.0
  0
ENDBLK
  5
67CB
330
67C0
100
AcDbEntity
  8
0
100
AcDbBlockEnd
  0
BLOCK
  5
6A22
330
6A16
100
AcDbEntity
  8
0
100
AcDbBlockBegin
  2
*D24
 70
     1
 10
0.0
 20
0.0
 30
0.0
  3
*D24
  1

  0
LINE
  5
6A17
330
6A16
100
AcDbEntity
  8
0
  6
BYBLOCK
 62
     0
100
AcDbLine
 10
465.6780680122928
 20
21.94979026806322
 30
0.0
 11
465.6780680122928
 21
8.978338887052586
 31
0.0
  0
LINE
  5
6A18
330
6A16
100
AcDbEntity
  8
0
  6
BYBLOCK
 62
     0
100
AcDbLine
 10
472.6780681618619
 20
20.62959239407433
 30
0.0
 11
472.6780681618619
 21
8.978338887052586
 31
0.0
  0
LINE
  5
6A19
330
6A16
100
AcDbEntity
  8
0
  6
BYBLOCK
 62
     0
100
AcDbLine
 10
460.678068012293
 20
10.47833888705258
 30
0.0
 11
455.6780680122932
 21
10.47833888705258
 31
0.0
  0
LINE
  5
6A1A
330
6A16
100
AcDbEntity
  8
0
  6
BYBLOCK
 62
     0
100
AcDbLine
 10
477.678068161862
 20
10.47833888705258
 30
0.0
 11
482.6780681618621
 21
10.47833888705258
 31
0.0
  0
LINE
  5
6A1B
330
6A16
100
AcDbEntity
  8
0
  6
BYBLOCK
 62
     0
100
AcDbLine
 10
465.6780680122928
 20
10.47833888705258
 30
0.0
 11
472.6780681618619
 21
10.47833888705258
 31
0.0
  0
INSERT
  5
6A1C
330
6A16
100
AcDbEntity
  8
0
  6
BYBLOCK
 62
     0
100
AcDbBlockReference
  2
_OPEN30
 10
465.6780680122928
 20
10.47833888705258
 30
0.0
 41
5.0
 42
5.0
 43
5.0
  0
INSERT
  5
6A1D
330
6A16
100
AcDbEntity
  8
0
  6
BYBLOCK
 62
     0
100
AcDbBlockReference
  2
_OPEN30
 10
472.6780681618619
 20
10.47833888705258
 30
0.0
 41
5.0
 42
5.0
 43
5.0
 50
180.0
  0
TEXT
  5
6A1E
330
6A16
100
AcDbEntity
  8
0
  6
BYBLOCK
 62
     0
100
AcDbText
 10
467.511401420411
 20
11.97833888705255
 30
0.0
 40
5.0
  1
7
  7
MOJI
100
AcDbText
  0
POINT
  5
6A1F
330
6A16
100
AcDbEntity
  8
DEFPOINTS
  6
BYBLOCK
 62
     0
100
AcDbPoint
 10
465.6780680122928
 20
23.44979026806322
 30
0.0
  0
POINT
  5
6A20
330
6A16
100
AcDbEntity
  8
DEFPOINTS
  6
BYBLOCK
 62
     0
100
AcDbPoint
 10
472.6780681618619
 20
22.12959239407433
 30
0.0
  0
POINT
  5
6A21
330
6A16
100
AcDbEntity
  8
DEFPOINTS
  6
BYBLOCK
 62
     0
100
AcDbPoint
 10
472.6780681618619
 20
10.47833888705258
 30
0.0
  0
ENDBLK
  5
6A23
330
6A16
100
AcDbEntity
  8
0
100
AcDbBlockEnd
  0
BLOCK
  5
6A2D
330
6A24
100
AcDbEntity
  8
0
100
AcDbBlockBegin
  2
*D25
 70
     1
 10
0.0
 20
0.0
 30
0.0
  3
*D25
  1

  0
LINE
  5
6A25
330
6A24
100
AcDbEntity
  8
0
  6
BYBLOCK
 62
     0
100
AcDbLine
 10
464.2488973827481
 20
26.56811494168421
 30
0.0
 11
459.8124917095297
 21
24.2619699543431
 31
0.0
  0
LINE
  5
6A26
330
6A24
100
AcDbEntity
  8
0
  6
BYBLOCK
 62
     0
100
AcDbLine
 10
481.1072389409766
 20
35.33146589358063
 30
0.0
 11
485.5436446141946
 21
37.63761088092178
 31
0.0
  0
TEXT
  5
6A27
330
6A24
100
AcDbEntity
  8
0
  6
BYBLOCK
 62
     0
100
AcDbText
 10
494.8118436252884
 20
39.63783614090739
 30
0.0
 40
5.0
  1
%%c9
 50
27.46644093520667
  7
MOJI
100
AcDbText
  0
LINE
  5
6A28
330
6A24
100
AcDbEntity
  8
0
  6
BYBLOCK
 62
     0
100
AcDbLine
 10
468.6853030559658
 20
28.87425992902537
 30
0.0
 11
476.6708332677585
 21
33.02532090623946
 31
0.0
  0
INSERT
  5
6A29
330
6A24
100
AcDbEntity
  8
0
  6
BYBLOCK
 62
     0
100
AcDbBlockReference
  2
_OPEN30
 10
468.6853030559658
 20
28.87425992902537
 30
0.0
 41
5.0
 42
5.0
 43
5.0
 50
27.46644093520666
  0
INSERT
  5
6A2A
330
6A24
100
AcDbEntity
  8
0
  6
BYBLOCK
 62
     0
100
AcDbBlockReference
  2
_OPEN30
 10
476.6708332677585
 20
33.02532090623946
 30
0.0
 41
5.0
 42
5.0
 43
5.0
 50
207.4664409352066
  0
POINT
  5
6A2B
330
6A24
100
AcDbEntity
  8
DEFPOINTS
  6
BYBLOCK
 62
     0
100
AcDbPoint
 10
476.6708332677585
 20
33.02532090623946
 30
0.0
  0
POINT
  5
6A2C
330
6A24
100
AcDbEntity
  8
DEFPOINTS
  6
BYBLOCK
 62
     0
100
AcDbPoint
 10
468.6853030559658
 20
28.87425992902537
 30
0.0
  0
ENDBLK
  5
6A2E
330
6A24
100
AcDbEntity
  8
0
100
AcDbBlockEnd
  0
BLOCK
  5
6A39
330
6A2F
100
AcDbEntity
  8
0
100
AcDbBlockBegin
  2
*D26
 70
     1
 10
0.0
 20
0.0
 30
0.0
  3
*D26
  1

  0
LINE
  5
6A30
330
6A2F
100
AcDbEntity
  8
FF
 62
     0
100
AcDbLine
 10
464.1780680122931
 20
38.44979056720172
 30
0.0
 11
450.054126864012
 21
38.44979056720172
 31
0.0
  0
LINE
  5
6A31
330
6A2F
100
AcDbEntity
  8
FF
 62
     0
100
AcDbLine
 10
464.1780680122931
 20
23.44979026806322
 30
0.0
 11
450.054126864012
 21
23.44979026806323
 31
0.0
  0
LINE
  5
6A32
330
6A2F
100
AcDbEntity
  8
FF
 62
     0
100
AcDbLine
 10
451.5541268640118
 20
33.44979056720172
 30
0.0
 11
451.5541268640118
 21
28.44979026806323
 31
0.0
  0
MTEXT
  5
6A33
330
6A2F
100
AcDbEntity
  8
FF
 62
     0
100
AcDbMText
 10
446.0368578947028
 20
31.16082856568368
 30
0.0
 40
5.0
 41
0.0
 71
     5
 72
     1
  1
\A1;Max.15
 11
0.0000000000000001
 21
1.0
 31
0.0
1001
ACAD
1000
MTEXTBEGIN
1070
    73
1070
     1
1070
    44
1040
1.0
1070
    74
1070
     0
1000
MTEXTEND
1000
MTEXTBEGIN
1070
    73
1070
     1
1070
    44
1040
1.0
1070
    74
1070
     0
1000
MTEXTEND
1000
MTEXTBEGIN
1070
    73
1070
     1
1070
    44
1040
1.0
1070
    74
1070
     0
1000
MTEXTEND
1000
MTEXTBEGIN
1070
    73
1070
     1
1070
    44
1040
1.0
1070
    74
1070
     0
1000
MTEXTEND
1000
MTEXTBEGIN
1070
    73
1070
     1
1070
    44
1040
1.0
1070
    74
1070
     0
1000
MTEXTEND
1000
MTEXTBEGIN
1070
    73
1070
     1
1070
    44
1040
1.0
1070
    74
1070
     0
1000
MTEXTEND
1000
MTEXTBEGIN
1070
    73
1070
     1
1070
    44
1040
1.0
1070
    74
1070
     0
1000
MTEXTEND
1000
MTEXTBEGIN
1070
    73
1070
     1
1070
    44
1040
1.0
1070
    74
1070
     0
1000
MTEXTEND
  0
INSERT
  5
6A34
330
6A2F
100
AcDbEntity
  8
FF
 62
     0
100
AcDbBlockReference
  2
_OPEN30
 10
451.5541268640118
 20
38.44979056720172
 30
0.0
 41
5.0
 42
5.0
 43
5.0
 50
90.0
  0
INSERT
  5
6A35
330
6A2F
100
AcDbEntity
  8
FF
 62
     0
100
AcDbBlockReference
  2
_OPEN30
 10
451.5541268640118
 20
23.44979026806323
 30
0.0
 41
5.0
 42
5.0
 43
5.0
 50
270.0
  0
POINT
  5
6A36
330
6A2F
100
AcDbEntity
  8
DEFPOINTS
 62
     0
100
AcDbPoint
 10
465.6780680122928
 20
38.44979056720172
 30
0.0
  0
POINT
  5
6A37
330
6A2F
100
AcDbEntity
  8
DEFPOINTS
 62
     0
100
AcDbPoint
 10
465.6780680122928
 20
23.44979026806322
 30
0.0
  0
POINT
  5
6A38
330
6A2F
100
AcDbEntity
  8
DEFPOINTS
 62
     0
100
AcDbPoint
 10
451.5541268640118
 20
23.44979026806323
 30
0.0
  0
ENDBLK
  5
6A3A
330
6A2F
100
AcDbEntity
  8
0
100
AcDbBlockEnd
  0
BLOCK
  5
6A69
330
6A60
100
AcDbEntity
  8
0
100
AcDbBlockBegin
  2
*D27
 70
     1
 10
0.0
 20
0.0
 30
0.0
  3
*D27
  1

  0
LINE
  5
6C7F
330
6A60
100
AcDbEntity
  8
30
  6
CONTINUOUS
 62
     0
100
AcDbLine
 10
550.015514563049
 20
28.96868912258858
 30
0.0
 11
542.3488478963821
 21
28.96868912258858
 31
0.0
  0
LINE
  5
6C80
330
6A60
100
AcDbEntity
  8
30
  6
CONTINUOUS
 62
     0
100
AcDbLine
 10
542.3488478963821
 20
28.96868912258858
 30
0.0
 11
523.4384675741281
 21
19.13864155679715
 31
0.0
  0
MTEXT
  5
6C81
330
6A60
100
AcDbEntity
  8
30
  6
CONTINUOUS
 62
     0
100
AcDbMText
 10
546.6821812297156
 20
31.96868912258858
 30
0.0
 40
4.0
 41
0.0
 71
     5
 72
     1
  1
\A1;%%C9
1001
ACAD
1000
MTEXTBEGIN
1070
    73
1070
     1
1070
    44
1040
1.0
1070
    74
1070
     0
1000
MTEXTEND
1000
MTEXTBEGIN
1070
    73
1070
     1
1070
    44
1040
1.0
1070
    74
1070
     0
1000
MTEXTEND
1000
MTEXTBEGIN
1070
    73
1070
     1
1070
    44
1040
1.0
1070
    74
1070
     0
1000
MTEXTEND
1000
MTEXTBEGIN
1070
    73
1070
     1
1070
    44
1040
1.0
1070
    74
1070
     0
1000
MTEXTEND
1000
MTEXTBEGIN
1070
    73
1070
     1
1070
    44
1040
1.0
1070
    74
1070
     0
1000
MTEXTEND
1000
MTEXTBEGIN
1070
    73
1070
     1
1070
    44
1040
1.0
1070
    74
1070
     0
1000
MTEXTEND
1000
MTEXTBEGIN
1070
    73
1070
     1
1070
    44
1040
1.0
1070
    74
1070
     0
1000
MTEXTEND
  0
INSERT
  5
6C82
330
6A60
100
AcDbEntity
  8
30
  6
CONTINUOUS
 62
     0
100
AcDbBlockReference
  2
_OPEN
 10
521.6639053048411
 20
18.21618356186067
 30
0.0
 41
2.0
 42
2.0
 43
2.0
 50
207.4664409352066
  0
LINE
  5
6C83
330
6A60
100
AcDbEntity
  8
30
  6
CONTINUOUS
 62
     0
100
AcDbLine
 10
517.5811401989448
 20
16.14065307325359
 30
0.0
 11
517.7611401989447
 21
16.14065307325364
 31
0.0
  0
LINE
  5
6C84
330
6A60
100
AcDbEntity
  8
30
  6
CONTINUOUS
 62
     0
100
AcDbLine
 10
517.6711401989447
 20
16.05065307325357
 30
0.0
 11
517.6711401989447
 21
16.23065307325362
 31
0.0
  0
POINT
  5
6C85
330
6A60
100
AcDbEntity
  8
DEFPOINTS
  6
CONTINUOUS
 62
     0
100
AcDbPoint
 10
521.6639053048411
 20
18.21618356186067
 30
0.0
  0
POINT
  5
6C86
330
6A60
100
AcDbEntity
  8
DEFPOINTS
  6
CONTINUOUS
 62
     0
100
AcDbPoint
 10
513.6783750930484
 20
14.06512258464656
 30
0.0
  0
ENDBLK
  5
6A6A
330
6A60
100
AcDbEntity
  8
0
100
AcDbBlockEnd
  0
BLOCK
  5
6A77
330
6A6B
100
AcDbEntity
  8
0
100
AcDbBlockBegin
  2
*D28
 70
     1
 10
0.0
 20
0.0
 30
0.0
  3
*D28
  1

  0
LINE
  5
6C87
330
6A6B
100
AcDbEntity
  8
30
  6
CONTINUOUS
 62
     0
100
AcDbLine
 10
510.6711400493757
 20
7.64065292368445
 30
0.0
 11
510.6711400493757
 21
-4.830798457326189
 31
0.0
  0
LINE
  5
6C88
330
6A6B
100
AcDbEntity
  8
30
  6
CONTINUOUS
 62
     0
100
AcDbLine
 10
517.6711401989447
 20
6.320455049695556
 30
0.0
 11
517.6711401989447
 21
-4.830798457326189
 31
0.0
  0
LINE
  5
6C89
330
6A6B
100
AcDbEntity
  8
30
  6
CONTINUOUS
 62
     0
100
AcDbLine
 10
512.6711400493758
 20
-4.330798457326189
 30
0.0
 11
515.6711401989447
 21
-4.330798457326189
 31
0.0
  0
INSERT
  5
6C8A
330
6A6B
100
AcDbEntity
  8
30
  6
CONTINUOUS
 62
     0
100
AcDbBlockReference
  2
_OPEN
 10
510.6711400493757
 20
-4.330798457326189
 30
0.0
 41
2.0
 42
2.0
 43
2.0
 50
180.0
  0
INSERT
  5
6C8B
330
6A6B
100
AcDbEntity
  8
30
  6
CONTINUOUS
 62
     0
100
AcDbBlockReference
  2
_OPEN
 10
517.6711401989447
 20
-4.330798457326189
 30
0.0
 41
2.0
 42
2.0
 43
2.0
  0
MTEXT
  5
6C8C
330
6A6B
100
AcDbEntity
  8
30
  6
CONTINUOUS
 62
     0
100
AcDbMText
 10
514.1711401241601
 20
-1.330798457326189
 30
0.0
 40
4.0
 41
0.0
 71
     5
 72
     1
  1
\A1;7
1001
ACAD
1000
MTEXTBEGIN
1070
    73
1070
     1
1070
    44
1040
1.0
1070
    74
1070
     0
1000
MTEXTEND
1000
MTEXTBEGIN
1070
    73
1070
     1
1070
    44
1040
1.0
1070
    74
1070
     0
1000
MTEXTEND
1000
MTEXTBEGIN
1070
    73
1070
     1
1070
    44
1040
1.0
1070
    74
1070
     0
1000
MTEXTEND
1000
MTEXTBEGIN
1070
    73
1070
     1
1070
    44
1040
1.0
1070
    74
1070
     0
1000
MTEXTEND
1000
MTEXTBEGIN
1070
    73
1070
     1
1070
    44
1040
1.0
1070
    74
1070
     0
1000
MTEXTEND
1000
MTEXTBEGIN
1070
    73
1070
     1
1070
    44
1040
1.0
1070
    74
1070
     0
1000
MTEXTEND
1000
MTEXTBEGIN
1070
    73
1070
     1
1070
    44
1040
1.0
1070
    74
1070
     0
1000
MTEXTEND
  0
POINT
  5
6C8D
330
6A6B
100
AcDbEntity
  8
DEFPOINTS
  6
CONTINUOUS
 62
     0
100
AcDbPoint
 10
510.6711400493757
 20
8.64065292368445
 30
0.0
  0
POINT
  5
6C8E
330
6A6B
100
AcDbEntity
  8
DEFPOINTS
  6
CONTINUOUS
 62
     0
100
AcDbPoint
 10
517.6711401989447
 20
7.320455049695556
 30
0.0
  0
POINT
  5
6C8F
330
6A6B
100
AcDbEntity
  8
DEFPOINTS
  6
CONTINUOUS
 62
     0
100
AcDbPoint
 10
517.6711401989447
 20
-4.330798457326189
 30
0.0
  0
ENDBLK
  5
6A78
330
6A6B
100
AcDbEntity
  8
0
100
AcDbBlockEnd
  0
BLOCK
  5
6A83
330
6A79
100
AcDbEntity
  8
0
100
AcDbBlockBegin
  2
*D29
 70
     1
 10
0.0
 20
0.0
 30
0.0
  3
*D29
  1

  0
LINE
  5
6C5A
330
6A79
100
AcDbEntity
  8
30
  6
CONTINUOUS
 62
     0
100
AcDbLine
 10
509.6711400493758
 20
23.64065322282294
 30
0.0
 11
490.5299299317855
 21
23.64065322282294
 31
0.0
  0
LINE
  5
6C5B
330
6A79
100
AcDbEntity
  8
30
  6
CONTINUOUS
 62
     0
100
AcDbLine
 10
509.6711400493758
 20
8.64065292368445
 30
0.0
 11
490.5299299317855
 21
8.640652923684458
 31
0.0
  0
LINE
  5
6C5C
330
6A79
100
AcDbEntity
  8
30
  6
CONTINUOUS
 62
     0
100
AcDbLine
 10
491.0299299317855
 20
21.64065322282294
 30
0.0
 11
491.0299299317855
 21
10.64065292368445
 31
0.0
  0
INSERT
  5
6C5D
330
6A79
100
AcDbEntity
  8
30
  6
CONTINUOUS
 62
     0
100
AcDbBlockReference
  2
_OPEN
 10
491.0299299317855
 20
23.64065322282294
 30
0.0
 41
2.0
 42
2.0
 43
2.0
 50
90.0
  0
INSERT
  5
6C5E
330
6A79
100
AcDbEntity
  8
30
  6
CONTINUOUS
 62
     0
100
AcDbBlockReference
  2
_OPEN
 10
491.0299299317855
 20
8.640652923684458
 30
0.0
 41
2.0
 42
2.0
 43
2.0
 50
270.0
  0
MTEXT
  5
6C5F
330
6A79
100
AcDbEntity
  8
30
  6
CONTINUOUS
 62
     0
100
AcDbMText
 10
488.0299299317854
 20
16.14065307325378
 30
0.0
 40
4.0
 41
0.0
 71
     5
 72
     1
  1
\A1;Max.15
 11
0.0000000000000001
 21
1.0
 31
0.0
1001
ACAD
1000
MTEXTBEGIN
1070
    73
1070
     1
1070
    44
1040
1.0
1070
    74
1070
     0
1000
MTEXTEND
1000
MTEXTBEGIN
1070
    73
1070
     1
1070
    44
1040
1.0
1070
    74
1070
     0
1000
MTEXTEND
1000
MTEXTBEGIN
1070
    73
1070
     1
1070
    44
1040
1.0
1070
    74
1070
     0
1000
MTEXTEND
1000
MTEXTBEGIN
1070
    73
1070
     1
1070
    44
1040
1.0
1070
    74
1070
     0
1000
MTEXTEND
1000
MTEXTBEGIN
1070
    73
1070
     1
1070
    44
1040
1.0
1070
    74
1070
     0
1000
MTEXTEND
1000
MTEXTBEGIN
1070
    73
1070
     1
1070
    44
1040
1.0
1070
    74
1070
     0
1000
MTEXTEND
1000
MTEXTBEGIN
1070
    73
1070
     1
1070
    44
1040
1.0
1070
    74
1070
     0
1000
MTEXTEND
  0
POINT
  5
6C60
330
6A79
100
AcDbEntity
  8
DEFPOINTS
  6
CONTINUOUS
 62
     0
100
AcDbPoint
 10
510.6711400493757
 20
23.64065322282294
 30
0.0
  0
POINT
  5
6C61
330
6A79
100
AcDbEntity
  8
DEFPOINTS
  6
CONTINUOUS
 62
     0
100
AcDbPoint
 10
510.6711400493757
 20
8.64065292368445
 30
0.0
  0
POINT
  5
6C62
330
6A79
100
AcDbEntity
  8
DEFPOINTS
  6
CONTINUOUS
 62
     0
100
AcDbPoint
 10
491.0299299317855
 20
8.640652923684458
 30
0.0
  0
ENDBLK
  5
6A84
330
6A79
100
AcDbEntity
  8
0
100
AcDbBlockEnd
  0
BLOCK
  5
6C9A
330
6C90
100
AcDbEntity
  8
0
100
AcDbBlockBegin
  2
*D30
 70
     1
 10
0.0
 20
0.0
 30
0.0
  3
*D30
  1

  0
LINE
  5
6C91
330
6C90
100
AcDbEntity
  8
0
 62
     0
100
AcDbLine
 10
188.4356117005855
 20
191.2132318013005
 30
0.0
 11
188.4356117005855
 21
137.6237382359144
 31
0.0
  0
LINE
  5
6C92
330
6C90
100
AcDbEntity
  8
0
 62
     0
100
AcDbLine
 10
260.435582977838
 20
191.2132318013005
 30
0.0
 11
260.435582977838
 21
137.6237382359144
 31
0.0
  0
LINE
  5
6C93
330
6C90
100
AcDbEntity
  8
0
 62
     0
100
AcDbLine
 10
193.435611700586
 20
139.1237382359139
 30
0.0
 11
255.4355829778379
 21
139.1237382359139
 31
0.0
  0
INSERT
  5
6C94
330
6C90
100
AcDbEntity
  8
0
 62
     0
100
AcDbBlockReference
  2
_OPEN30
 10
188.4356117005855
 20
139.1237382359139
 30
0.0
 41
5.0
 42
5.0
 43
5.0
 50
180.0
  0
INSERT
  5
6C95
330
6C90
100
AcDbEntity
  8
0
 62
     0
100
AcDbBlockReference
  2
_OPEN30
 10
260.435582977838
 20
139.1237382359139
 30
0.0
 41
5.0
 42
5.0
 43
5.0
  0
MTEXT
  5
6C96
330
6C90
100
AcDbEntity
  8
0
 62
     0
100
AcDbMText
 10
224.4355973392119
 20
143.1237382359143
 30
0.0
 40
5.0
 41
0.0
 71
     5
 72
     1
  1
\A1;72
1001
ACAD
1000
MTEXTBEGIN
1070
    73
1070
     1
1070
    44
1040
1.0
1070
    74
1070
     0
1000
MTEXTEND
1000
MTEXTBEGIN
1070
    73
1070
     1
1070
    44
1040
1.0
1070
    74
1070
     0
1000
MTEXTEND
1000
MTEXTBEGIN
1070
    73
1070
     1
1070
    44
1040
1.0
1070
    74
1070
     0
1000
MTEXTEND
1000
MTEXTBEGIN
1070
    73
1070
     1
1070
    44
1040
1.0
1070
    74
1070
     0
1000
MTEXTEND
1000
MTEXTBEGIN
1070
    73
1070
     1
1070
    44
1040
1.0
1070
    74
1070
     0
1000
MTEXTEND
1000
MTEXTBEGIN
1070
    73
1070
     1
1070
    44
1040
1.0
1070
    74
1070
     0
1000
MTEXTEND
1000
MTEXTBEGIN
1070
    73
1070
     1
1070
    44
1040
1.0
1070
    74
1070
     0
1000
MTEXTEND
  0
POINT
  5
6C97
330
6C90
100
AcDbEntity
  8
DEFPOINTS
 62
     0
100
AcDbPoint
 10
188.4356117005855
 20
192.7132318013006
 30
0.0
  0
POINT
  5
6C98
330
6C90
100
AcDbEntity
  8
DEFPOINTS
 62
     0
100
AcDbPoint
 10
260.435582977838
 20
192.7132318013006
 30
0.0
  0
POINT
  5
6C99
330
6C90
100
AcDbEntity
  8
DEFPOINTS
 62
     0
100
AcDbPoint
 10
260.435582977838
 20
139.1237382359139
 30
0.0
  0
ENDBLK
  5
6C9B
330
6C90
100
AcDbEntity
  8
0
100
AcDbBlockEnd
  0
BLOCK
  5
6CA6
330
6C9C
100
AcDbEntity
  8
0
100
AcDbBlockBegin
  2
*D31
 70
     1
 10
0.0
 20
0.0
 30
0.0
  3
*D31
  1

  0
LINE
  5
6C9D
330
6C9C
100
AcDbEntity
  8
0
 62
     0
100
AcDbLine
 10
186.9355964044039
 20
168.9632617642265
 30
0.0
 11
186.9355964044039
 21
124.6930240248832
 31
0.0
  0
LINE
  5
6C9E
330
6C9C
100
AcDbEntity
  8
0
 62
     0
100
AcDbLine
 10
261.9355830152301
 20
168.9632617642265
 30
0.0
 11
261.9355830152301
 21
124.6930240248832
 31
0.0
  0
LINE
  5
6C9F
330
6C9C
100
AcDbEntity
  8
0
 62
     0
100
AcDbLine
 10
191.9355964044039
 20
126.1930240248831
 30
0.0
 11
256.9355830152301
 21
126.1930240248831
 31
0.0
  0
INSERT
  5
6CA0
330
6C9C
100
AcDbEntity
  8
0
 62
     0
100
AcDbBlockReference
  2
_OPEN30
 10
186.9355964044039
 20
126.1930240248831
 30
0.0
 41
5.0
 42
5.0
 43
5.0
 50
180.0
  0
INSERT
  5
6CA1
330
6C9C
100
AcDbEntity
  8
0
 62
     0
100
AcDbBlockReference
  2
_OPEN30
 10
261.9355830152301
 20
126.1930240248831
 30
0.0
 41
5.0
 42
5.0
 43
5.0
  0
MTEXT
  5
6CA2
330
6C9C
100
AcDbEntity
  8
0
 62
     0
100
AcDbMText
 10
224.435589709817
 20
130.1930240248831
 30
0.0
 40
5.0
 41
0.0
 71
     5
 72
     1
  1
\A1;75
1001
ACAD
1000
MTEXTBEGIN
1070
    73
1070
     1
1070
    44
1040
1.0
1070
    74
1070
     0
1000
MTEXTEND
1000
MTEXTBEGIN
1070
    73
1070
     1
1070
    44
1040
1.0
1070
    74
1070
     0
1000
MTEXTEND
1000
MTEXTBEGIN
1070
    73
1070
     1
1070
    44
1040
1.0
1070
    74
1070
     0
1000
MTEXTEND
1000
MTEXTBEGIN
1070
    73
1070
     1
1070
    44
1040
1.0
1070
    74
1070
     0
1000
MTEXTEND
1000
MTEXTBEGIN
1070
    73
1070
     1
1070
    44
1040
1.0
1070
    74
1070
     0
1000
MTEXTEND
1000
MTEXTBEGIN
1070
    73
1070
     1
1070
    44
1040
1.0
1070
    74
1070
     0
1000
MTEXTEND
1000
MTEXTBEGIN
1070
    73
1070
     1
1070
    44
1040
1.0
1070
    74
1070
     0
1000
MTEXTEND
  0
POINT
  5
6CA3
330
6C9C
100
AcDbEntity
  8
DEFPOINTS
 62
     0
100
AcDbPoint
 10
186.9355964044039
 20
170.4632617642265
 30
0.0
  0
POINT
  5
6CA4
330
6C9C
100
AcDbEntity
  8
DEFPOINTS
 62
     0
100
AcDbPoint
 10
261.9355830152301
 20
170.4632617642265
 30
0.0
  0
POINT
  5
6CA5
330
6C9C
100
AcDbEntity
  8
DEFPOINTS
 62
     0
100
AcDbPoint
 10
261.9355830152301
 20
126.1930240248831
 30
0.0
  0
ENDBLK
  5
6CA7
330
6C9C
100
AcDbEntity
  8
0
100
AcDbBlockEnd
  0
BLOCK
  5
6CB2
330
6CA8
100
AcDbEntity
  8
0
100
AcDbBlockBegin
  2
*D32
 70
     1
 10
0.0
 20
0.0
 30
0.0
  3
*D32
  1

  0
LINE
  5
6CA9
330
6CA8
100
AcDbEntity
  8
0
 62
     0
100
AcDbLine
 10
199.4356272335853
 20
167.1382495117016
 30
0.0
 11
199.4356272335853
 21
149.3310841350393
 31
0.0
  0
LINE
  5
6CAA
330
6CA8
100
AcDbEntity
  8
0
 62
     0
100
AcDbLine
 10
249.4356284799976
 20
167.1382495117016
 30
0.0
 11
249.4356284799976
 21
149.3310841350393
 31
0.0
  0
LINE
  5
6CAB
330
6CA8
100
AcDbEntity
  8
0
 62
     0
100
AcDbLine
 10
204.4356272335853
 20
150.8310841350393
 30
0.0
 11
244.4356284799976
 21
150.8310841350393
 31
0.0
  0
INSERT
  5
6CAC
330
6CA8
100
AcDbEntity
  8
0
 62
     0
100
AcDbBlockReference
  2
_OPEN30
 10
199.4356272335853
 20
150.8310841350393
 30
0.0
 41
5.0
 42
5.0
 43
5.0
 50
180.0
  0
INSERT
  5
6CAD
330
6CA8
100
AcDbEntity
  8
0
 62
     0
100
AcDbBlockReference
  2
_OPEN30
 10
249.4356284799976
 20
150.8310841350393
 30
0.0
 41
5.0
 42
5.0
 43
5.0
  0
MTEXT
  5
6CAE
330
6CA8
100
AcDbEntity
  8
0
 62
     0
100
AcDbMText
 10
224.4356278567914
 20
154.8310841350389
 30
0.0
 40
5.0
 41
0.0
 71
     5
 72
     1
  1
\A1;50
1001
ACAD
1000
MTEXTBEGIN
1070
    73
1070
     1
1070
    44
1040
1.0
1070
    74
1070
     0
1000
MTEXTEND
1000
MTEXTBEGIN
1070
    73
1070
     1
1070
    44
1040
1.0
1070
    74
1070
     0
1000
MTEXTEND
1000
MTEXTBEGIN
1070
    73
1070
     1
1070
    44
1040
1.0
1070
    74
1070
     0
1000
MTEXTEND
1000
MTEXTBEGIN
1070
    73
1070
     1
1070
    44
1040
1.0
1070
    74
1070
     0
1000
MTEXTEND
1000
MTEXTBEGIN
1070
    73
1070
     1
1070
    44
1040
1.0
1070
    74
1070
     0
1000
MTEXTEND
1000
MTEXTBEGIN
1070
    73
1070
     1
1070
    44
1040
1.0
1070
    74
1070
     0
1000
MTEXTEND
1000
MTEXTBEGIN
1070
    73
1070
     1
1070
    44
1040
1.0
1070
    74
1070
     0
1000
MTEXTEND
  0
POINT
  5
6CAF
330
6CA8
100
AcDbEntity
  8
DEFPOINTS
 62
     0
100
AcDbPoint
 10
199.4356272335853
 20
168.6382495117016
 30
0.0
  0
POINT
  5
6CB0
330
6CA8
100
AcDbEntity
  8
DEFPOINTS
 62
     0
100
AcDbPoint
 10
249.4356284799976
 20
168.6382495117016
 30
0.0
  0
POINT
  5
6CB1
330
6CA8
100
AcDbEntity
  8
DEFPOINTS
 62
     0
100
AcDbPoint
 10
249.4356284799976
 20
150.8310841350393
 30
0.0
  0
ENDBLK
  5
6CB3
330
6CA8
100
AcDbEntity
  8
0
100
AcDbBlockEnd
  0
BLOCK
  5
6CBE
330
6CB4
100
AcDbEntity
  8
0
100
AcDbBlockBegin
  2
*D33
 70
     1
 10
0.0
 20
0.0
 30
0.0
  3
*D33
  1

  0
LINE
  5
6CB5
330
6CB4
100
AcDbEntity
  8
0
 62
     0
100
AcDbLine
 10
180.8058082131613
 20
216.7132629170835
 30
0.0
 11
169.5592420609104
 21
216.7132629170835
 31
0.0
  0
LINE
  5
6CB6
330
6CB4
100
AcDbEntity
  8
0
 62
     0
100
AcDbLine
 10
191.8606453926939
 20
256.7132624999976
 30
0.0
 11
169.5592420609104
 21
256.7132624999976
 31
0.0
  0
LINE
  5
6CB7
330
6CB4
100
AcDbEntity
  8
0
 62
     0
100
AcDbLine
 10
171.0592420609104
 20
221.7132629170836
 30
0.0
 11
171.0592420609104
 21
251.7132624999975
 31
0.0
  0
INSERT
  5
6CB8
330
6CB4
100
AcDbEntity
  8
0
 62
     0
100
AcDbBlockReference
  2
_OPEN30
 10
171.0592420609104
 20
216.7132629170835
 30
0.0
 41
5.0
 42
5.0
 43
5.0
 50
270.0
  0
INSERT
  5
6CB9
330
6CB4
100
AcDbEntity
  8
0
 62
     0
100
AcDbBlockReference
  2
_OPEN30
 10
171.0592420609104
 20
256.7132624999976
 30
0.0
 41
5.0
 42
5.0
 43
5.0
 50
90.0
  0
MTEXT
  5
6CBA
330
6CB4
100
AcDbEntity
  8
0
 62
     0
100
AcDbMText
 10
167.0592420609104
 20
236.7132627085406
 30
0.0
 40
5.0
 41
0.0
 71
     5
 72
     1
  1
\A1;40
 11
0.0000000000000001
 21
1.0
 31
0.0
1001
ACAD
1000
MTEXTBEGIN
1070
    73
1070
     1
1070
    44
1040
1.0
1070
    74
1070
     0
1000
MTEXTEND
1000
MTEXTBEGIN
1070
    73
1070
     1
1070
    44
1040
1.0
1070
    74
1070
     0
1000
MTEXTEND
1000
MTEXTBEGIN
1070
    73
1070
     1
1070
    44
1040
1.0
1070
    74
1070
     0
1000
MTEXTEND
1000
MTEXTBEGIN
1070
    73
1070
     1
1070
    44
1040
1.0
1070
    74
1070
     0
1000
MTEXTEND
1000
MTEXTBEGIN
1070
    73
1070
     1
1070
    44
1040
1.0
1070
    74
1070
     0
1000
MTEXTEND
1000
MTEXTBEGIN
1070
    73
1070
     1
1070
    44
1040
1.0
1070
    74
1070
     0
1000
MTEXTEND
1000
MTEXTBEGIN
1070
    73
1070
     1
1070
    44
1040
1.0
1070
    74
1070
     0
1000
MTEXTEND
  0
POINT
  5
6CBB
330
6CB4
100
AcDbEntity
  8
DEFPOINTS
 62
     0
100
AcDbPoint
 10
182.3058082131613
 20
216.7132629170835
 30
0.0
  0
POINT
  5
6CBC
330
6CB4
100
AcDbEntity
  8
DEFPOINTS
 62
     0
100
AcDbPoint
 10
193.3606453926939
 20
256.7132624999976
 30
0.0
  0
POINT
  5
6CBD
330
6CB4
100
AcDbEntity
  8
DEFPOINTS
 62
     0
100
AcDbPoint
 10
171.0592420609104
 20
256.7132624999976
 30
0.0
  0
ENDBLK
  5
6CBF
330
6CB4
100
AcDbEntity
  8
0
100
AcDbBlockEnd
  0
BLOCK
  5
6CCA
330
6CC0
100
AcDbEntity
  8
0
100
AcDbBlockBegin
  2
*D34
 70
     1
 10
0.0
 20
0.0
 30
0.0
  3
*D34
  1

  0
LINE
  5
6CC1
330
6CC0
100
AcDbEntity
  8
0
 62
     0
100
AcDbLine
 10
180.8058082131613
 20
216.7132629170835
 30
0.0
 11
169.5592420609104
 21
216.7132629170835
 31
0.0
  0
LINE
  5
6CC2
330
6CC0
100
AcDbEntity
  8
0
 62
     0
100
AcDbLine
 10
191.8606453926939
 20
174.7132618701715
 30
0.0
 11
169.5592420609104
 21
174.7132618701715
 31
0.0
  0
LINE
  5
6CC3
330
6CC0
100
AcDbEntity
  8
0
 62
     0
100
AcDbLine
 10
171.0592420609104
 20
211.7132629170836
 30
0.0
 11
171.0592420609104
 21
179.7132618701715
 31
0.0
  0
INSERT
  5
6CC4
330
6CC0
100
AcDbEntity
  8
0
 62
     0
100
AcDbBlockReference
  2
_OPEN30
 10
171.0592420609104
 20
216.7132629170835
 30
0.0
 41
5.0
 42
5.0
 43
5.0
 50
90.0
  0
INSERT
  5
6CC5
330
6CC0
100
AcDbEntity
  8
0
 62
     0
100
AcDbBlockReference
  2
_OPEN30
 10
171.0592420609104
 20
174.7132618701715
 30
0.0
 41
5.0
 42
5.0
 43
5.0
 50
270.0
  0
MTEXT
  5
6CC6
330
6CC0
100
AcDbEntity
  8
0
 62
     0
100
AcDbMText
 10
167.0592420609104
 20
195.7132623936273
 30
0.0
 40
5.0
 41
0.0
 71
     5
 72
     1
  1
\A1;42
 11
0.0000000000000001
 21
1.0
 31
0.0
1001
ACAD
1000
MTEXTBEGIN
1070
    73
1070
     1
1070
    44
1040
1.0
1070
    74
1070
     0
1000
MTEXTEND
1000
MTEXTBEGIN
1070
    73
1070
     1
1070
    44
1040
1.0
1070
    74
1070
     0
1000
MTEXTEND
1000
MTEXTBEGIN
1070
    73
1070
     1
1070
    44
1040
1.0
1070
    74
1070
     0
1000
MTEXTEND
1000
MTEXTBEGIN
1070
    73
1070
     1
1070
    44
1040
1.0
1070
    74
1070
     0
1000
MTEXTEND
1000
MTEXTBEGIN
1070
    73
1070
     1
1070
    44
1040
1.0
1070
    74
1070
     0
1000
MTEXTEND
1000
MTEXTBEGIN
1070
    73
1070
     1
1070
    44
1040
1.0
1070
    74
1070
     0
1000
MTEXTEND
1000
MTEXTBEGIN
1070
    73
1070
     1
1070
    44
1040
1.0
1070
    74
1070
     0
1000
MTEXTEND
  0
POINT
  5
6CC7
330
6CC0
100
AcDbEntity
  8
DEFPOINTS
 62
     0
100
AcDbPoint
 10
182.3058082131613
 20
216.7132629170835
 30
0.0
  0
POINT
  5
6CC8
330
6CC0
100
AcDbEntity
  8
DEFPOINTS
 62
     0
100
AcDbPoint
 10
193.3606453926939
 20
174.7132618701715
 30
0.0
  0
POINT
  5
6CC9
330
6CC0
100
AcDbEntity
  8
DEFPOINTS
 62
     0
100
AcDbPoint
 10
171.0592420609104
 20
174.7132618701715
 30
0.0
  0
ENDBLK
  5
6CCB
330
6CC0
100
AcDbEntity
  8
0
100
AcDbBlockEnd
  0
BLOCK
  5
6CD6
330
6CCC
100
AcDbEntity
  8
0
100
AcDbBlockBegin
  2
*D35
 70
     1
 10
0.0
 20
0.0
 30
0.0
  3
*D35
  1

  0
LINE
  5
6CCD
330
6CCC
100
AcDbEntity
  8
0
 62
     0
100
AcDbLine
 10
261.9355219352016
 20
266.4632641573346
 30
0.0
 11
308.2813883991298
 21
266.4632641573346
 31
0.0
  0
LINE
  5
6CCE
330
6CCC
100
AcDbEntity
  8
0
 62
     0
100
AcDbLine
 10
261.9355219352016
 20
166.9632616769785
 30
0.0
 11
308.2813883991298
 21
166.9632616769785
 31
0.0
  0
LINE
  5
6CCF
330
6CCC
100
AcDbEntity
  8
0
 62
     0
100
AcDbLine
 10
306.7813883991298
 20
261.4632641573346
 30
0.0
 11
306.7813883991298
 21
171.9632616769786
 31
0.0
  0
INSERT
  5
6CD0
330
6CCC
100
AcDbEntity
  8
0
 62
     0
100
AcDbBlockReference
  2
_OPEN30
 10
306.7813883991298
 20
266.4632641573346
 30
0.0
 41
5.0
 42
5.0
 43
5.0
 50
90.0
  0
INSERT
  5
6CD1
330
6CCC
100
AcDbEntity
  8
0
 62
     0
100
AcDbBlockReference
  2
_OPEN30
 10
306.7813883991298
 20
166.9632616769785
 30
0.0
 41
5.0
 42
5.0
 43
5.0
 50
270.0
  0
MTEXT
  5
6CD2
330
6CCC
100
AcDbEntity
  8
0
 62
     0
100
AcDbMText
 10
302.7813883991297
 20
216.7132629171566
 30
0.0
 40
5.0
 41
0.0
 71
     5
 72
     1
  1
\A1;100
 11
0.0000000000000001
 21
1.0
 31
0.0
1001
ACAD
1000
MTEXTBEGIN
1070
    73
1070
     1
1070
    44
1040
1.0
1070
    74
1070
     0
1000
MTEXTEND
1000
MTEXTBEGIN
1070
    73
1070
     1
1070
    44
1040
1.0
1070
    74
1070
     0
1000
MTEXTEND
1000
MTEXTBEGIN
1070
    73
1070
     1
1070
    44
1040
1.0
1070
    74
1070
     0
1000
MTEXTEND
1000
MTEXTBEGIN
1070
    73
1070
     1
1070
    44
1040
1.0
1070
    74
1070
     0
1000
MTEXTEND
1000
MTEXTBEGIN
1070
    73
1070
     1
1070
    44
1040
1.0
1070
    74
1070
     0
1000
MTEXTEND
1000
MTEXTBEGIN
1070
    73
1070
     1
1070
    44
1040
1.0
1070
    74
1070
     0
1000
MTEXTEND
1000
MTEXTBEGIN
1070
    73
1070
     1
1070
    44
1040
1.0
1070
    74
1070
     0
1000
MTEXTEND
  0
POINT
  5
6CD3
330
6CCC
100
AcDbEntity
  8
DEFPOINTS
 62
     0
100
AcDbPoint
 10
260.4355219352016
 20
266.4632641573346
 30
0.0
  0
POINT
  5
6CD4
330
6CCC
100
AcDbEntity
  8
DEFPOINTS
 62
     0
100
AcDbPoint
 10
260.4355219352016
 20
166.9632616769785
 30
0.0
  0
POINT
  5
6CD5
330
6CCC
100
AcDbEntity
  8
DEFPOINTS
 62
     0
100
AcDbPoint
 10
306.7813883991298
 20
166.9632616769785
 30
0.0
  0
ENDBLK
  5
6CD7
330
6CCC
100
AcDbEntity
  8
0
100
AcDbBlockEnd
  0
BLOCK
  5
6CE2
330
6CD8
100
AcDbEntity
  8
0
100
AcDbBlockBegin
  2
*D36
 70
     1
 10
0.0
 20
0.0
 30
0.0
  3
*D36
  1

  0
LINE
  5
6CD9
330
6CD8
100
AcDbEntity
  8
0
 62
     0
100
AcDbLine
 10
241.845830412502
 20
258.7132029289836
 30
0.0
 11
293.2401038884361
 21
258.7132029289836
 31
0.0
  0
LINE
  5
6CDA
330
6CD8
100
AcDbEntity
  8
0
 62
     0
100
AcDbLine
 10
240.8856434874965
 20
174.7132618701715
 30
0.0
 11
293.2401038884361
 21
174.7132618701715
 31
0.0
  0
LINE
  5
6CDB
330
6CD8
100
AcDbEntity
  8
0
 62
     0
100
AcDbLine
 10
291.7401038884361
 20
253.7132029289836
 30
0.0
 11
291.7401038884361
 21
179.7132618701715
 31
0.0
  0
INSERT
  5
6CDC
330
6CD8
100
AcDbEntity
  8
0
 62
     0
100
AcDbBlockReference
  2
_OPEN30
 10
291.7401038884361
 20
258.7132029289836
 30
0.0
 41
5.0
 42
5.0
 43
5.0
 50
90.0
  0
INSERT
  5
6CDD
330
6CD8
100
AcDbEntity
  8
0
 62
     0
100
AcDbBlockReference
  2
_OPEN30
 10
291.7401038884361
 20
174.7132618701715
 30
0.0
 41
5.0
 42
5.0
 43
5.0
 50
270.0
  0
MTEXT
  5
6CDE
330
6CD8
100
AcDbEntity
  8
0
 62
     0
100
AcDbMText
 10
287.7401038884361
 20
216.7132323995776
 30
0.0
 40
5.0
 41
0.0
 71
     5
 72
     1
  1
\A1;84
 11
0.0000000000000001
 21
1.0
 31
0.0
1001
ACAD
1000
MTEXTBEGIN
1070
    73
1070
     1
1070
    44
1040
1.0
1070
    74
1070
     0
1000
MTEXTEND
1000
MTEXTBEGIN
1070
    73
1070
     1
1070
    44
1040
1.0
1070
    74
1070
     0
1000
MTEXTEND
1000
MTEXTBEGIN
1070
    73
1070
     1
1070
    44
1040
1.0
1070
    74
1070
     0
1000
MTEXTEND
1000
MTEXTBEGIN
1070
    73
1070
     1
1070
    44
1040
1.0
1070
    74
1070
     0
1000
MTEXTEND
1000
MTEXTBEGIN
1070
    73
1070
     1
1070
    44
1040
1.0
1070
    74
1070
     0
1000
MTEXTEND
1000
MTEXTBEGIN
1070
    73
1070
     1
1070
    44
1040
1.0
1070
    74
1070
     0
1000
MTEXTEND
1000
MTEXTBEGIN
1070
    73
1070
     1
1070
    44
1040
1.0
1070
    74
1070
     0
1000
MTEXTEND
  0
POINT
  5
6CDF
330
6CD8
100
AcDbEntity
  8
DEFPOINTS
 62
     0
100
AcDbPoint
 10
240.3458304125019
 20
258.7132029289836
 30
0.0
  0
POINT
  5
6CE0
330
6CD8
100
AcDbEntity
  8
DEFPOINTS
 62
     0
100
AcDbPoint
 10
239.3856434874964
 20
174.7132618701715
 30
0.0
  0
POINT
  5
6CE1
330
6CD8
100
AcDbEntity
  8
DEFPOINTS
 62
     0
100
AcDbPoint
 10
291.7401038884361
 20
174.7132618701715
 30
0.0
  0
ENDBLK
  5
6CE3
330
6CD8
100
AcDbEntity
  8
0
100
AcDbBlockEnd
  0
BLOCK
  5
6CEE
330
6CE4
100
AcDbEntity
  8
0
100
AcDbBlockBegin
  2
*D37
 70
     1
 10
0.0
 20
0.0
 30
0.0
  3
*D37
  1

  0
LINE
  5
6CE5
330
6CE4
100
AcDbEntity
  8
0
 62
     0
100
AcDbLine
 10
260.9356134704885
 20
241.7132330227826
 30
0.0
 11
279.2482118529808
 21
241.7132330227826
 31
0.0
  0
LINE
  5
6CE6
330
6CE4
100
AcDbEntity
  8
0
 62
     0
100
AcDbLine
 10
260.935582330102
 20
191.7132317763726
 30
0.0
 11
279.2482118529808
 21
191.7132317763726
 31
0.0
  0
LINE
  5
6CE7
330
6CE4
100
AcDbEntity
  8
0
 62
     0
100
AcDbLine
 10
277.7482118529808
 20
236.7132330227823
 30
0.0
 11
277.7482118529808
 21
196.7132317763726
 31
0.0
  0
INSERT
  5
6CE8
330
6CE4
100
AcDbEntity
  8
0
 62
     0
100
AcDbBlockReference
  2
_OPEN30
 10
277.7482118529808
 20
241.7132330227826
 30
0.0
 41
5.0
 42
5.0
 43
5.0
 50
90.0
  0
INSERT
  5
6CE9
330
6CE4
100
AcDbEntity
  8
0
 62
     0
100
AcDbBlockReference
  2
_OPEN30
 10
277.7482118529808
 20
191.7132317763726
 30
0.0
 41
5.0
 42
5.0
 43
5.0
 50
270.0
  0
MTEXT
  5
6CEA
330
6CE4
100
AcDbEntity
  8
0
 62
     0
100
AcDbMText
 10
273.7482118529807
 20
216.7132323995776
 30
0.0
 40
5.0
 41
0.0
 71
     5
 72
     1
  1
\A1;50
 11
0.0000000000000001
 21
1.0
 31
0.0
1001
ACAD
1000
MTEXTBEGIN
1070
    73
1070
     1
1070
    44
1040
1.0
1070
    74
1070
     0
1000
MTEXTEND
1000
MTEXTBEGIN
1070
    73
1070
     1
1070
    44
1040
1.0
1070
    74
1070
     0
1000
MTEXTEND
1000
MTEXTBEGIN
1070
    73
1070
     1
1070
    44
1040
1.0
1070
    74
1070
     0
1000
MTEXTEND
1000
MTEXTBEGIN
1070
    73
1070
     1
1070
    44
1040
1.0
1070
    74
1070
     0
1000
MTEXTEND
1000
MTEXTBEGIN
1070
    73
1070
     1
1070
    44
1040
1.0
1070
    74
1070
     0
1000
MTEXTEND
1000
MTEXTBEGIN
1070
    73
1070
     1
1070
    44
1040
1.0
1070
    74
1070
     0
1000
MTEXTEND
1000
MTEXTBEGIN
1070
    73
1070
     1
1070
    44
1040
1.0
1070
    74
1070
     0
1000
MTEXTEND
  0
POINT
  5
6CEB
330
6CE4
100
AcDbEntity
  8
DEFPOINTS
 62
     0
100
AcDbPoint
 10
259.4356134704885
 20
241.7132330227826
 30
0.0
  0
POINT
  5
6CEC
330
6CE4
100
AcDbEntity
  8
DEFPOINTS
 62
     0
100
AcDbPoint
 10
259.435582330102
 20
191.7132317763726
 30
0.0
  0
POINT
  5
6CED
330
6CE4
100
AcDbEntity
  8
DEFPOINTS
 62
     0
100
AcDbPoint
 10
277.7482118529808
 20
191.7132317763726
 30
0.0
  0
ENDBLK
  5
6CEF
330
6CE4
100
AcDbEntity
  8
0
100
AcDbBlockEnd
  0
BLOCK
  5
6CFA
330
6CF0
100
AcDbEntity
  8
0
100
AcDbBlockBegin
  2
*D38
 70
     1
 10
0.0
 20
0.0
 30
0.0
  3
*D38
  1

  0
LINE
  5
6CF1
330
6CF0
100
AcDbEntity
  8
0
 62
     0
100
AcDbLine
 10
241.4355824668096
 20
316.4632641572616
 30
0.0
 11
308.2813883991298
 21
316.4632641572616
 31
0.0
  0
LINE
  5
6CF2
330
6CF0
100
AcDbEntity
  8
0
 62
     0
100
AcDbLine
 10
261.9355219352016
 20
266.4632641573346
 30
0.0
 11
308.2813883991298
 21
266.4632641573346
 31
0.0
  0
LINE
  5
6CF3
330
6CF0
100
AcDbEntity
  8
0
 62
     0
100
AcDbLine
 10
306.7813883991298
 20
311.4632641572616
 30
0.0
 11
306.7813883991298
 21
271.4632641573345
 31
0.0
  0
INSERT
  5
6CF4
330
6CF0
100
AcDbEntity
  8
0
 62
     0
100
AcDbBlockReference
  2
_OPEN30
 10
306.7813883991298
 20
316.4632641572616
 30
0.0
 41
5.0
 42
5.0
 43
5.0
 50
90.0
  0
INSERT
  5
6CF5
330
6CF0
100
AcDbEntity
  8
0
 62
     0
100
AcDbBlockReference
  2
_OPEN30
 10
306.7813883991298
 20
266.4632641573346
 30
0.0
 41
5.0
 42
5.0
 43
5.0
 50
270.0
  0
MTEXT
  5
6CF6
330
6CF0
100
AcDbEntity
  8
0
 62
     0
100
AcDbMText
 10
302.7813883991297
 20
291.4632641572982
 30
0.0
 40
5.0
 41
0.0
 71
     5
 72
     1
  1
\A1;50
 11
0.0000000000000001
 21
1.0
 31
0.0
1001
ACAD
1000
MTEXTBEGIN
1070
    73
1070
     1
1070
    44
1040
1.0
1070
    74
1070
     0
1000
MTEXTEND
1000
MTEXTBEGIN
1070
    73
1070
     1
1070
    44
1040
1.0
1070
    74
1070
     0
1000
MTEXTEND
1000
MTEXTBEGIN
1070
    73
1070
     1
1070
    44
1040
1.0
1070
    74
1070
     0
1000
MTEXTEND
1000
MTEXTBEGIN
1070
    73
1070
     1
1070
    44
1040
1.0
1070
    74
1070
     0
1000
MTEXTEND
1000
MTEXTBEGIN
1070
    73
1070
     1
1070
    44
1040
1.0
1070
    74
1070
     0
1000
MTEXTEND
1000
MTEXTBEGIN
1070
    73
1070
     1
1070
    44
1040
1.0
1070
    74
1070
     0
1000
MTEXTEND
1000
MTEXTBEGIN
1070
    73
1070
     1
1070
    44
1040
1.0
1070
    74
1070
     0
1000
MTEXTEND
  0
POINT
  5
6CF7
330
6CF0
100
AcDbEntity
  8
DEFPOINTS
 62
     0
100
AcDbPoint
 10
239.9355824668095
 20
316.4632641572616
 30
0.0
  0
POINT
  5
6CF8
330
6CF0
100
AcDbEntity
  8
DEFPOINTS
 62
     0
100
AcDbPoint
 10
260.4355219352016
 20
266.4632641573346
 30
0.0
  0
POINT
  5
6CF9
330
6CF0
100
AcDbEntity
  8
DEFPOINTS
 62
     0
100
AcDbPoint
 10
306.7813883991298
 20
266.4632641573346
 30
0.0
  0
ENDBLK
  5
6CFB
330
6CF0
100
AcDbEntity
  8
0
100
AcDbBlockEnd
  0
BLOCK
  5
6E2F
330
6E25
100
AcDbEntity
  8
0
100
AcDbBlockBegin
  2
*D39
 70
     1
 10
0.0
 20
0.0
 30
0.0
  3
*D39
  1

  0
LINE
  5
6F0F
330
6E25
100
AcDbEntity
  8
30
  6
CONTINUOUS
 62
     0
100
AcDbLine
 10
-36.0000314149934
 20
-25.00003111578299
 30
0.0
 11
-36.0000314149934
 21
-78.08952468116911
 31
0.0
  0
LINE
  5
6F10
330
6E25
100
AcDbEntity
  8
30
  6
CONTINUOUS
 62
     0
100
AcDbLine
 10
35.9999398622586
 20
-25.00003111578299
 30
0.0
 11
35.9999398622586
 21
-78.08952468116911
 31
0.0
  0
LINE
  5
6F11
330
6E25
100
AcDbEntity
  8
30
  6
CONTINUOUS
 62
     0
100
AcDbLine
 10
-34.0000314149934
 20
-77.58952468116911
 30
0.0
 11
33.9999398622586
 21
-77.58952468116911
 31
0.0
  0
INSERT
  5
6F12
330
6E25
100
AcDbEntity
  8
30
  6
CONTINUOUS
 62
     0
100
AcDbBlockReference
  2
_OPEN
 10
-36.0000314149934
 20
-77.58952468116911
 30
0.0
 41
2.0
 42
2.0
 43
2.0
 50
180.0
  0
INSERT
  5
6F13
330
6E25
100
AcDbEntity
  8
30
  6
CONTINUOUS
 62
     0
100
AcDbBlockReference
  2
_OPEN
 10
35.9999398622586
 20
-77.58952468116911
 30
0.0
 41
2.0
 42
2.0
 43
2.0
  0
MTEXT
  5
6F14
330
6E25
100
AcDbEntity
  8
30
  6
CONTINUOUS
 62
     0
100
AcDbMText
 10
-0.0000457763674005
 20
-74.58952468116911
 30
0.0
 40
4.0
 41
0.0
 71
     5
 72
     1
  1
\A1;72
1001
ACAD
1000
MTEXTBEGIN
1070
    73
1070
     1
1070
    44
1040
1.0
1070
    74
1070
     0
1000
MTEXTEND
1000
MTEXTBEGIN
1070
    73
1070
     1
1070
    44
1040
1.0
1070
    74
1070
     0
1000
MTEXTEND
1000
MTEXTBEGIN
1070
    73
1070
     1
1070
    44
1040
1.0
1070
    74
1070
     0
1000
MTEXTEND
1000
MTEXTBEGIN
1070
    73
1070
     1
1070
    44
1040
1.0
1070
    74
1070
     0
1000
MTEXTEND
1000
MTEXTBEGIN
1070
    73
1070
     1
1070
    44
1040
1.0
1070
    74
1070
     0
1000
MTEXTEND
1000
MTEXTBEGIN
1070
    73
1070
     1
1070
    44
1040
1.0
1070
    74
1070
     0
1000
MTEXTEND
1000
MTEXTBEGIN
1070
    73
1070
     1
1070
    44
1040
1.0
1070
    74
1070
     0
1000
MTEXTEND
  0
POINT
  5
6F15
330
6E25
100
AcDbEntity
  8
DEFPOINTS
  6
CONTINUOUS
 62
     0
100
AcDbPoint
 10
-36.0000314149934
 20
-24.000031115783
 30
0.0
  0
POINT
  5
6F16
330
6E25
100
AcDbEntity
  8
DEFPOINTS
  6
CONTINUOUS
 62
     0
100
AcDbPoint
 10
35.9999398622586
 20
-24.000031115783
 30
0.0
  0
POINT
  5
6F17
330
6E25
100
AcDbEntity
  8
DEFPOINTS
  6
CONTINUOUS
 62
     0
100
AcDbPoint
 10
35.9999398622586
 20
-77.58952468116911
 30
0.0
  0
ENDBLK
  5
6E30
330
6E25
100
AcDbEntity
  8
0
100
AcDbBlockEnd
  0
BLOCK
  5
6E3B
330
6E31
100
AcDbEntity
  8
0
100
AcDbBlockBegin
  2
*D40
 70
     1
 10
0.0
 20
0.0
 30
0.0
  3
*D40
  1

  0
LINE
  5
6F06
330
6E31
100
AcDbEntity
  8
30
  6
CONTINUOUS
 62
     0
100
AcDbLine
 10
-37.50004671117531
 20
-47.25000115285701
 30
0.0
 11
-37.50004671117531
 21
-91.0202388922004
 31
0.0
  0
LINE
  5
6F07
330
6E31
100
AcDbEntity
  8
30
  6
CONTINUOUS
 62
     0
100
AcDbLine
 10
37.49993989965076
 20
-47.25000115285701
 30
0.0
 11
37.49993989965076
 21
-91.0202388922004
 31
0.0
  0
LINE
  5
6F08
330
6E31
100
AcDbEntity
  8
30
  6
CONTINUOUS
 62
     0
100
AcDbLine
 10
-35.50004671117531
 20
-90.52023889220041
 30
0.0
 11
35.49993989965077
 21
-90.52023889220041
 31
0.0
  0
INSERT
  5
6F09
330
6E31
100
AcDbEntity
  8
30
  6
CONTINUOUS
 62
     0
100
AcDbBlockReference
  2
_OPEN
 10
-37.50004671117531
 20
-90.52023889220041
 30
0.0
 41
2.0
 42
2.0
 43
2.0
 50
180.0
  0
INSERT
  5
6F0A
330
6E31
100
AcDbEntity
  8
30
  6
CONTINUOUS
 62
     0
100
AcDbBlockReference
  2
_OPEN
 10
37.49993989965076
 20
-90.52023889220041
 30
0.0
 41
2.0
 42
2.0
 43
2.0
  0
MTEXT
  5
6F0B
330
6E31
100
AcDbEntity
  8
30
  6
CONTINUOUS
 62
     0
100
AcDbMText
 10
-0.0000534057622728
 20
-87.52023889220039
 30
0.0
 40
4.0
 41
0.0
 71
     5
 72
     1
  1
\A1;75
1001
ACAD
1000
MTEXTBEGIN
1070
    73
1070
     1
1070
    44
1040
1.0
1070
    74
1070
     0
1000
MTEXTEND
1000
MTEXTBEGIN
1070
    73
1070
     1
1070
    44
1040
1.0
1070
    74
1070
     0
1000
MTEXTEND
1000
MTEXTBEGIN
1070
    73
1070
     1
1070
    44
1040
1.0
1070
    74
1070
     0
1000
MTEXTEND
1000
MTEXTBEGIN
1070
    73
1070
     1
1070
    44
1040
1.0
1070
    74
1070
     0
1000
MTEXTEND
1000
MTEXTBEGIN
1070
    73
1070
     1
1070
    44
1040
1.0
1070
    74
1070
     0
1000
MTEXTEND
1000
MTEXTBEGIN
1070
    73
1070
     1
1070
    44
1040
1.0
1070
    74
1070
     0
1000
MTEXTEND
1000
MTEXTBEGIN
1070
    73
1070
     1
1070
    44
1040
1.0
1070
    74
1070
     0
1000
MTEXTEND
  0
POINT
  5
6F0C
330
6E31
100
AcDbEntity
  8
DEFPOINTS
  6
CONTINUOUS
 62
     0
100
AcDbPoint
 10
-37.50004671117531
 20
-46.250001152857
 30
0.0
  0
POINT
  5
6F0D
330
6E31
100
AcDbEntity
  8
DEFPOINTS
  6
CONTINUOUS
 62
     0
100
AcDbPoint
 10
37.49993989965076
 20
-46.250001152857
 30
0.0
  0
POINT
  5
6F0E
330
6E31
100
AcDbEntity
  8
DEFPOINTS
  6
CONTINUOUS
 62
     0
100
AcDbPoint
 10
37.49993989965076
 20
-90.52023889220041
 30
0.0
  0
ENDBLK
  5
6E3C
330
6E31
100
AcDbEntity
  8
0
100
AcDbBlockEnd
  0
BLOCK
  5
6E47
330
6E3D
100
AcDbEntity
  8
0
100
AcDbBlockBegin
  2
*D41
 70
     1
 10
0.0
 20
0.0
 30
0.0
  3
*D41
  1

  0
LINE
  5
6EFD
330
6E3D
100
AcDbEntity
  8
30
  6
CONTINUOUS
 62
     0
100
AcDbLine
 10
-25.00001588199401
 20
-49.07501340538196
 30
0.0
 11
-25.00001588199401
 21
-66.38217878204429
 31
0.0
  0
LINE
  5
6EFE
330
6E3D
100
AcDbEntity
  8
30
  6
CONTINUOUS
 62
     0
100
AcDbLine
 10
24.99998536441819
 20
-49.07501340538196
 30
0.0
 11
24.99998536441819
 21
-66.38217878204429
 31
0.0
  0
LINE
  5
6EFF
330
6E3D
100
AcDbEntity
  8
30
  6
CONTINUOUS
 62
     0
100
AcDbLine
 10
-23.00001588199401
 20
-65.88217878204429
 30
0.0
 11
22.99998536441817
 21
-65.88217878204429
 31
0.0
  0
INSERT
  5
6F00
330
6E3D
100
AcDbEntity
  8
30
  6
CONTINUOUS
 62
     0
100
AcDbBlockReference
  2
_OPEN
 10
-25.00001588199401
 20
-65.88217878204429
 30
0.0
 41
2.0
 42
2.0
 43
2.0
 50
180.0
  0
INSERT
  5
6F01
330
6E3D
100
AcDbEntity
  8
30
  6
CONTINUOUS
 62
     0
100
AcDbBlockReference
  2
_OPEN
 10
24.99998536441819
 20
-65.88217878204429
 30
0.0
 41
2.0
 42
2.0
 43
2.0
  0
MTEXT
  5
6F02
330
6E3D
100
AcDbEntity
  8
30
  6
CONTINUOUS
 62
     0
100
AcDbMText
 10
-0.0000152587879112
 20
-62.88217878204427
 30
0.0
 40
4.0
 41
0.0
 71
     5
 72
     1
  1
\A1;50
1001
ACAD
1000
MTEXTBEGIN
1070
    73
1070
     1
1070
    44
1040
1.0
1070
    74
1070
     0
1000
MTEXTEND
1000
MTEXTBEGIN
1070
    73
1070
     1
1070
    44
1040
1.0
1070
    74
1070
     0
1000
MTEXTEND
1000
MTEXTBEGIN
1070
    73
1070
     1
1070
    44
1040
1.0
1070
    74
1070
     0
1000
MTEXTEND
1000
MTEXTBEGIN
1070
    73
1070
     1
1070
    44
1040
1.0
1070
    74
1070
     0
1000
MTEXTEND
1000
MTEXTBEGIN
1070
    73
1070
     1
1070
    44
1040
1.0
1070
    74
1070
     0
1000
MTEXTEND
1000
MTEXTBEGIN
1070
    73
1070
     1
1070
    44
1040
1.0
1070
    74
1070
     0
1000
MTEXTEND
1000
MTEXTBEGIN
1070
    73
1070
     1
1070
    44
1040
1.0
1070
    74
1070
     0
1000
MTEXTEND
  0
POINT
  5
6F03
330
6E3D
100
AcDbEntity
  8
DEFPOINTS
  6
CONTINUOUS
 62
     0
100
AcDbPoint
 10
-25.00001588199401
 20
-48.07501340538196
 30
0.0
  0
POINT
  5
6F04
330
6E3D
100
AcDbEntity
  8
DEFPOINTS
  6
CONTINUOUS
 62
     0
100
AcDbPoint
 10
24.99998536441819
 20
-48.07501340538196
 30
0.0
  0
POINT
  5
6F05
330
6E3D
100
AcDbEntity
  8
DEFPOINTS
  6
CONTINUOUS
 62
     0
100
AcDbPoint
 10
24.99998536441819
 20
-65.88217878204429
 30
0.0
  0
ENDBLK
  5
6E48
330
6E3D
100
AcDbEntity
  8
0
100
AcDbBlockEnd
  0
BLOCK
  5
6E53
330
6E49
100
AcDbEntity
  8
0
100
AcDbBlockBegin
  2
*D42
 70
     1
 10
0.0
 20
0.0
 30
0.0
  3
*D42
  1

  0
LINE
  5
6EEB
330
6E49
100
AcDbEntity
  8
30
  6
CONTINUOUS
 62
     0
100
AcDbLine
 10
-43.12983490241802
 20
0.0000000000000003
 30
0.0
 11
-53.87640105466871
 21
0.0000000000000033
 31
0.0
  0
LINE
  5
6EEC
330
6E49
100
AcDbEntity
  8
30
  6
CONTINUOUS
 62
     0
100
AcDbLine
 10
-32.07499772288551
 20
39.999999582914
 30
0.0
 11
-53.87640105466871
 21
39.999999582914
 31
0.0
  0
LINE
  5
6EED
330
6E49
100
AcDbEntity
  8
30
  6
CONTINUOUS
 62
     0
100
AcDbLine
 10
-53.37640105466872
 20
2.000000000000003
 30
0.0
 11
-53.37640105466872
 21
37.99999958291401
 31
0.0
  0
INSERT
  5
6EEE
330
6E49
100
AcDbEntity
  8
30
  6
CONTINUOUS
 62
     0
100
AcDbBlockReference
  2
_OPEN
 10
-53.37640105466872
 20
0.0000000000000032
 30
0.0
 41
2.0
 42
2.0
 43
2.0
 50
270.0
  0
INSERT
  5
6EEF
330
6E49
100
AcDbEntity
  8
30
  6
CONTINUOUS
 62
     0
100
AcDbBlockReference
  2
_OPEN
 10
-53.37640105466872
 20
39.999999582914
 30
0.0
 41
2.0
 42
2.0
 43
2.0
 50
90.0
  0
MTEXT
  5
6EF0
330
6E49
100
AcDbEntity
  8
30
  6
CONTINUOUS
 62
     0
100
AcDbMText
 10
-56.37640105466871
 20
19.99999979145698
 30
0.0
 40
4.0
 41
0.0
 71
     5
 72
     1
  1
\A1;40
 11
0.0000000000000001
 21
1.0
 31
0.0
1001
ACAD
1000
MTEXTBEGIN
1070
    73
1070
     1
1070
    44
1040
1.0
1070
    74
1070
     0
1000
MTEXTEND
1000
MTEXTBEGIN
1070
    73
1070
     1
1070
    44
1040
1.0
1070
    74
1070
     0
1000
MTEXTEND
1000
MTEXTBEGIN
1070
    73
1070
     1
1070
    44
1040
1.0
1070
    74
1070
     0
1000
MTEXTEND
1000
MTEXTBEGIN
1070
    73
1070
     1
1070
    44
1040
1.0
1070
    74
1070
     0
1000
MTEXTEND
1000
MTEXTBEGIN
1070
    73
1070
     1
1070
    44
1040
1.0
1070
    74
1070
     0
1000
MTEXTEND
1000
MTEXTBEGIN
1070
    73
1070
     1
1070
    44
1040
1.0
1070
    74
1070
     0
1000
MTEXTEND
1000
MTEXTBEGIN
1070
    73
1070
     1
1070
    44
1040
1.0
1070
    74
1070
     0
1000
MTEXTEND
  0
POINT
  5
6EF1
330
6E49
100
AcDbEntity
  8
DEFPOINTS
  6
CONTINUOUS
 62
     0
100
AcDbPoint
 10
-42.12983490241803
 20
0.0
 30
0.0
  0
POINT
  5
6EF2
330
6E49
100
AcDbEntity
  8
DEFPOINTS
  6
CONTINUOUS
 62
     0
100
AcDbPoint
 10
-31.07499772288551
 20
39.999999582914
 30
0.0
  0
POINT
  5
6EF3
330
6E49
100
AcDbEntity
  8
DEFPOINTS
  6
CONTINUOUS
 62
     0
100
AcDbPoint
 10
-53.37640105466872
 20
39.999999582914
 30
0.0
  0
ENDBLK
  5
6E54
330
6E49
100
AcDbEntity
  8
0
100
AcDbBlockEnd
  0
BLOCK
  5
6E5F
330
6E55
100
AcDbEntity
  8
0
100
AcDbBlockBegin
  2
*D43
 70
     1
 10
0.0
 20
0.0
 30
0.0
  3
*D43
  1

  0
LINE
  5
6EF4
330
6E55
100
AcDbEntity
  8
30
  6
CONTINUOUS
 62
     0
100
AcDbLine
 10
-43.12983490241802
 20
0.0000000000000003
 30
0.0
 11
-53.87640105466871
 21
0.0000000000000033
 31
0.0
  0
LINE
  5
6EF5
330
6E55
100
AcDbEntity
  8
30
  6
CONTINUOUS
 62
     0
100
AcDbLine
 10
-32.07499772288549
 20
-42.00000104691198
 30
0.0
 11
-53.87640105466871
 21
-42.00000104691198
 31
0.0
  0
LINE
  5
6EF6
330
6E55
100
AcDbEntity
  8
30
  6
CONTINUOUS
 62
     0
100
AcDbLine
 10
-53.37640105466871
 20
-1.999999999999995
 30
0.0
 11
-53.37640105466872
 21
-40.00000104691197
 31
0.0
  0
INSERT
  5
6EF7
330
6E55
100
AcDbEntity
  8
30
  6
CONTINUOUS
 62
     0
100
AcDbBlockReference
  2
_OPEN
 10
-53.37640105466871
 20
0.0000000000000032
 30
0.0
 41
2.0
 42
2.0
 43
2.0
 50
90.0
  0
INSERT
  5
6EF8
330
6E55
100
AcDbEntity
  8
30
  6
CONTINUOUS
 62
     0
100
AcDbBlockReference
  2
_OPEN
 10
-53.37640105466872
 20
-42.00000104691198
 30
0.0
 41
2.0
 42
2.0
 43
2.0
 50
270.0
  0
MTEXT
  5
6EF9
330
6E55
100
AcDbEntity
  8
30
  6
CONTINUOUS
 62
     0
100
AcDbMText
 10
-56.37640105466871
 20
-21.00000052345599
 30
0.0
 40
4.0
 41
0.0
 71
     5
 72
     1
  1
\A1;42
 11
0.0000000000000001
 21
1.0
 31
0.0
1001
ACAD
1000
MTEXTBEGIN
1070
    73
1070
     1
1070
    44
1040
1.0
1070
    74
1070
     0
1000
MTEXTEND
1000
MTEXTBEGIN
1070
    73
1070
     1
1070
    44
1040
1.0
1070
    74
1070
     0
1000
MTEXTEND
1000
MTEXTBEGIN
1070
    73
1070
     1
1070
    44
1040
1.0
1070
    74
1070
     0
1000
MTEXTEND
1000
MTEXTBEGIN
1070
    73
1070
     1
1070
    44
1040
1.0
1070
    74
1070
     0
1000
MTEXTEND
1000
MTEXTBEGIN
1070
    73
1070
     1
1070
    44
1040
1.0
1070
    74
1070
     0
1000
MTEXTEND
1000
MTEXTBEGIN
1070
    73
1070
     1
1070
    44
1040
1.0
1070
    74
1070
     0
1000
MTEXTEND
1000
MTEXTBEGIN
1070
    73
1070
     1
1070
    44
1040
1.0
1070
    74
1070
     0
1000
MTEXTEND
  0
POINT
  5
6EFA
330
6E55
100
AcDbEntity
  8
DEFPOINTS
  6
CONTINUOUS
 62
     0
100
AcDbPoint
 10
-42.12983490241803
 20
0.0
 30
0.0
  0
POINT
  5
6EFB
330
6E55
100
AcDbEntity
  8
DEFPOINTS
  6
CONTINUOUS
 62
     0
100
AcDbPoint
 10
-31.07499772288551
 20
-42.00000104691198
 30
0.0
  0
POINT
  5
6EFC
330
6E55
100
AcDbEntity
  8
DEFPOINTS
  6
CONTINUOUS
 62
     0
100
AcDbPoint
 10
-53.37640105466872
 20
-42.00000104691198
 30
0.0
  0
ENDBLK
  5
6E60
330
6E55
100
AcDbEntity
  8
0
100
AcDbBlockEnd
  0
BLOCK
  5
6E6B
330
6E61
100
AcDbEntity
  8
0
100
AcDbBlockBegin
  2
*D44
 70
     1
 10
0.0
 20
0.0
 30
0.0
  3
*D44
  1

  0
LINE
  5
6F33
330
6E61
100
AcDbEntity
  8
30
  6
CONTINUOUS
 62
     0
100
AcDbLine
 10
36.99987881962221
 20
49.750001240251
 30
0.0
 11
82.84574528355042
 21
49.750001240251
 31
0.0
  0
LINE
  5
6F34
330
6E61
100
AcDbEntity
  8
30
  6
CONTINUOUS
 62
     0
100
AcDbLine
 10
36.99987881962221
 20
-49.75000124010501
 30
0.0
 11
82.8457452835504
 21
-49.75000124010502
 31
0.0
  0
LINE
  5
6F35
330
6E61
100
AcDbEntity
  8
30
  6
CONTINUOUS
 62
     0
100
AcDbLine
 10
82.34574528355043
 20
47.75000124025098
 30
0.0
 11
82.3457452835504
 21
-47.75000124010502
 31
0.0
  0
INSERT
  5
6F36
330
6E61
100
AcDbEntity
  8
30
  6
CONTINUOUS
 62
     0
100
AcDbBlockReference
  2
_OPEN
 10
82.34574528355043
 20
49.750001240251
 30
0.0
 41
2.0
 42
2.0
 43
2.0
 50
90.0
  0
INSERT
  5
6F37
330
6E61
100
AcDbEntity
  8
30
  6
CONTINUOUS
 62
     0
100
AcDbBlockReference
  2
_OPEN
 10
82.3457452835504
 20
-49.75000124010502
 30
0.0
 41
2.0
 42
2.0
 43
2.0
 50
270.0
  0
MTEXT
  5
6F38
330
6E61
100
AcDbEntity
  8
30
  6
CONTINUOUS
 62
     0
100
AcDbMText
 10
79.3457452835504
 20
0.0000000000730036
 30
0.0
 40
4.0
 41
0.0
 71
     5
 72
     1
  1
\A1;100
 11
0.0000000000000001
 21
1.0
 31
0.0
1001
ACAD
1000
MTEXTBEGIN
1070
    73
1070
     1
1070
    44
1040
1.0
1070
    74
1070
     0
1000
MTEXTEND
1000
MTEXTBEGIN
1070
    73
1070
     1
1070
    44
1040
1.0
1070
    74
1070
     0
1000
MTEXTEND
1000
MTEXTBEGIN
1070
    73
1070
     1
1070
    44
1040
1.0
1070
    74
1070
     0
1000
MTEXTEND
1000
MTEXTBEGIN
1070
    73
1070
     1
1070
    44
1040
1.0
1070
    74
1070
     0
1000
MTEXTEND
1000
MTEXTBEGIN
1070
    73
1070
     1
1070
    44
1040
1.0
1070
    74
1070
     0
1000
MTEXTEND
1000
MTEXTBEGIN
1070
    73
1070
     1
1070
    44
1040
1.0
1070
    74
1070
     0
1000
MTEXTEND
1000
MTEXTBEGIN
1070
    73
1070
     1
1070
    44
1040
1.0
1070
    74
1070
     0
1000
MTEXTEND
  0
POINT
  5
6F39
330
6E61
100
AcDbEntity
  8
DEFPOINTS
  6
CONTINUOUS
 62
     0
100
AcDbPoint
 10
35.99987881962221
 20
49.750001240251
 30
0.0
  0
POINT
  5
6F3A
330
6E61
100
AcDbEntity
  8
DEFPOINTS
  6
CONTINUOUS
 62
     0
100
AcDbPoint
 10
35.99987881962221
 20
-49.75000124010501
 30
0.0
  0
POINT
  5
6F3B
330
6E61
100
AcDbEntity
  8
DEFPOINTS
  6
CONTINUOUS
 62
     0
100
AcDbPoint
 10
82.3457452835504
 20
-49.75000124010502
 30
0.0
  0
ENDBLK
  5
6E6C
330
6E61
100
AcDbEntity
  8
0
100
AcDbBlockEnd
  0
BLOCK
  5
6E77
330
6E6D
100
AcDbEntity
  8
0
100
AcDbBlockBegin
  2
*D45
 70
     1
 10
0.0
 20
0.0
 30
0.0
  3
*D45
  1

  0
LINE
  5
6F4E
330
6E6D
100
AcDbEntity
  8
30
  6
CONTINUOUS
 62
     0
100
AcDbLine
 10
16.91018729692268
 20
41.9999400119
 30
0.0
 11
67.80446077285674
 21
41.99994001189999
 31
0.0
  0
LINE
  5
6F4F
330
6E6D
100
AcDbEntity
  8
30
  6
CONTINUOUS
 62
     0
100
AcDbLine
 10
15.95000037191725
 20
-42.00000104691198
 30
0.0
 11
67.80446077285671
 21
-42.00000104691203
 31
0.0
  0
LINE
  5
6F50
330
6E6D
100
AcDbEntity
  8
30
  6
CONTINUOUS
 62
     0
100
AcDbLine
 10
67.30446077285674
 20
39.99994001189999
 30
0.0
 11
67.30446077285671
 21
-40.00000104691203
 31
0.0
  0
INSERT
  5
6F51
330
6E6D
100
AcDbEntity
  8
30
  6
CONTINUOUS
 62
     0
100
AcDbBlockReference
  2
_OPEN
 10
67.30446077285674
 20
41.99994001189999
 30
0.0
 41
2.0
 42
2.0
 43
2.0
 50
90.0
  0
INSERT
  5
6F52
330
6E6D
100
AcDbEntity
  8
30
  6
CONTINUOUS
 62
     0
100
AcDbBlockReference
  2
_OPEN
 10
67.30446077285671
 20
-42.00000104691203
 30
0.0
 41
2.0
 42
2.0
 43
2.0
 50
270.0
  0
MTEXT
  5
6F53
330
6E6D
100
AcDbEntity
  8
30
  6
CONTINUOUS
 62
     0
100
AcDbMText
 10
64.30446077285672
 20
-0.0000305175060087
 30
0.0
 40
4.0
 41
0.0
 71
     5
 72
     1
  1
\A1;84
 11
0.0000000000000001
 21
1.0
 31
0.0
1001
ACAD
1000
MTEXTBEGIN
1070
    73
1070
     1
1070
    44
1040
1.0
1070
    74
1070
     0
1000
MTEXTEND
1000
MTEXTBEGIN
1070
    73
1070
     1
1070
    44
1040
1.0
1070
    74
1070
     0
1000
MTEXTEND
1000
MTEXTBEGIN
1070
    73
1070
     1
1070
    44
1040
1.0
1070
    74
1070
     0
1000
MTEXTEND
1000
MTEXTBEGIN
1070
    73
1070
     1
1070
    44
1040
1.0
1070
    74
1070
     0
1000
MTEXTEND
1000
MTEXTBEGIN
1070
    73
1070
     1
1070
    44
1040
1.0
1070
    74
1070
     0
1000
MTEXTEND
1000
MTEXTBEGIN
1070
    73
1070
     1
1070
    44
1040
1.0
1070
    74
1070
     0
1000
MTEXTEND
1000
MTEXTBEGIN
1070
    73
1070
     1
1070
    44
1040
1.0
1070
    74
1070
     0
1000
MTEXTEND
  0
POINT
  5
6F54
330
6E6D
100
AcDbEntity
  8
DEFPOINTS
  6
CONTINUOUS
 62
     0
100
AcDbPoint
 10
15.91018729692267
 20
41.99994001190001
 30
0.0
  0
POINT
  5
6F55
330
6E6D
100
AcDbEntity
  8
DEFPOINTS
  6
CONTINUOUS
 62
     0
100
AcDbPoint
 10
14.95000037191727
 20
-42.00000104691198
 30
0.0
  0
POINT
  5
6F56
330
6E6D
100
AcDbEntity
  8
DEFPOINTS
  6
CONTINUOUS
 62
     0
100
AcDbPoint
 10
67.30446077285671
 20
-42.00000104691203
 30
0.0
  0
ENDBLK
  5
6E78
330
6E6D
100
AcDbEntity
  8
0
100
AcDbBlockEnd
  0
BLOCK
  5
6E83
330
6E79
100
AcDbEntity
  8
0
100
AcDbBlockBegin
  2
*D46
 70
     1
 10
0.0
 20
0.0
 30
0.0
  3
*D46
  1

  0
LINE
  5
6F18
330
6E79
100
AcDbEntity
  8
30
  6
CONTINUOUS
 62
     0
100
AcDbLine
 10
35.99997035490918
 20
24.99997010569898
 30
0.0
 11
53.81256873740142
 21
24.99997010569898
 31
0.0
  0
LINE
  5
6F19
330
6E79
100
AcDbEntity
  8
30
  6
CONTINUOUS
 62
     0
100
AcDbLine
 10
35.99993921452261
 20
-25.000031140711
 30
0.0
 11
53.81256873740142
 21
-25.000031140711
 31
0.0
  0
LINE
  5
6F1A
330
6E79
100
AcDbEntity
  8
30
  6
CONTINUOUS
 62
     0
100
AcDbLine
 10
53.31256873740144
 20
22.99997010569898
 30
0.0
 11
53.31256873740142
 21
-23.000031140711
 31
0.0
  0
INSERT
  5
6F1B
330
6E79
100
AcDbEntity
  8
30
  6
CONTINUOUS
 62
     0
100
AcDbBlockReference
  2
_OPEN
 10
53.31256873740144
 20
24.99997010569898
 30
0.0
 41
2.0
 42
2.0
 43
2.0
 50
90.0
  0
INSERT
  5
6F1C
330
6E79
100
AcDbEntity
  8
30
  6
CONTINUOUS
 62
     0
100
AcDbBlockReference
  2
_OPEN
 10
53.31256873740142
 20
-25.000031140711
 30
0.0
 41
2.0
 42
2.0
 43
2.0
 50
270.0
  0
MTEXT
  5
6F1D
330
6E79
100
AcDbEntity
  8
30
  6
CONTINUOUS
 62
     0
100
AcDbMText
 10
50.31256873740143
 20
-0.0000305175060007
 30
0.0
 40
4.0
 41
0.0
 71
     5
 72
     1
  1
\A1;50
 11
0.0000000000000001
 21
1.0
 31
0.0
1001
ACAD
1000
MTEXTBEGIN
1070
    73
1070
     1
1070
    44
1040
1.0
1070
    74
1070
     0
1000
MTEXTEND
1000
MTEXTBEGIN
1070
    73
1070
     1
1070
    44
1040
1.0
1070
    74
1070
     0
1000
MTEXTEND
1000
MTEXTBEGIN
1070
    73
1070
     1
1070
    44
1040
1.0
1070
    74
1070
     0
1000
MTEXTEND
1000
MTEXTBEGIN
1070
    73
1070
     1
1070
    44
1040
1.0
1070
    74
1070
     0
1000
MTEXTEND
1000
MTEXTBEGIN
1070
    73
1070
     1
1070
    44
1040
1.0
1070
    74
1070
     0
1000
MTEXTEND
1000
MTEXTBEGIN
1070
    73
1070
     1
1070
    44
1040
1.0
1070
    74
1070
     0
1000
MTEXTEND
1000
MTEXTBEGIN
1070
    73
1070
     1
1070
    44
1040
1.0
1070
    74
1070
     0
1000
MTEXTEND
  0
POINT
  5
6F1E
330
6E79
100
AcDbEntity
  8
DEFPOINTS
  6
CONTINUOUS
 62
     0
100
AcDbPoint
 10
34.99997035490918
 20
24.99997010569898
 30
0.0
  0
POINT
  5
6F1F
330
6E79
100
AcDbEntity
  8
DEFPOINTS
  6
CONTINUOUS
 62
     0
100
AcDbPoint
 10
34.99993921452261
 20
-25.000031140711
 30
0.0
  0
POINT
  5
6F20
330
6E79
100
AcDbEntity
  8
DEFPOINTS
  6
CONTINUOUS
 62
     0
100
AcDbPoint
 10
53.31256873740142
 20
-25.000031140711
 30
0.0
  0
ENDBLK
  5
6E84
330
6E79
100
AcDbEntity
  8
0
100
AcDbBlockEnd
  0
BLOCK
  5
6E8F
330
6E85
100
AcDbEntity
  8
0
100
AcDbBlockBegin
  2
*D47
 70
     1
 10
0.0
 20
0.0
 30
0.0
  3
*D47
  1

  0
LINE
  5
6F3C
330
6E85
100
AcDbEntity
  8
30
  6
CONTINUOUS
 62
     0
100
AcDbLine
 10
16.49993935123017
 20
99.75000124017805
 30
0.0
 11
82.8457452835504
 21
99.750001240178
 31
0.0
  0
LINE
  5
6F3D
330
6E85
100
AcDbEntity
  8
30
  6
CONTINUOUS
 62
     0
100
AcDbLine
 10
36.99987881962221
 20
49.750001240251
 30
0.0
 11
82.8457452835504
 21
49.750001240251
 31
0.0
  0
LINE
  5
6F3E
330
6E85
100
AcDbEntity
  8
30
  6
CONTINUOUS
 62
     0
100
AcDbLine
 10
82.3457452835504
 20
97.750001240178
 30
0.0
 11
82.3457452835504
 21
51.750001240251
 31
0.0
  0
INSERT
  5
6F3F
330
6E85
100
AcDbEntity
  8
30
  6
CONTINUOUS
 62
     0
100
AcDbBlockReference
  2
_OPEN
 10
82.3457452835504
 20
99.750001240178
 30
0.0
 41
2.0
 42
2.0
 43
2.0
 50
90.0
  0
INSERT
  5
6F40
330
6E85
100
AcDbEntity
  8
30
  6
CONTINUOUS
 62
     0
100
AcDbBlockReference
  2
_OPEN
 10
82.3457452835504
 20
49.750001240251
 30
0.0
 41
2.0
 42
2.0
 43
2.0
 50
270.0
  0
MTEXT
  5
6F41
330
6E85
100
AcDbEntity
  8
30
  6
CONTINUOUS
 62
     0
100
AcDbMText
 10
79.34574528355039
 20
74.75000124021452
 30
0.0
 40
4.0
 41
0.0
 71
     5
 72
     1
  1
\A1;50
 11
0.0000000000000001
 21
1.0
 31
0.0
1001
ACAD
1000
MTEXTBEGIN
1070
    73
1070
     1
1070
    44
1040
1.0
1070
    74
1070
     0
1000
MTEXTEND
1000
MTEXTBEGIN
1070
    73
1070
     1
1070
    44
1040
1.0
1070
    74
1070
     0
1000
MTEXTEND
1000
MTEXTBEGIN
1070
    73
1070
     1
1070
    44
1040
1.0
1070
    74
1070
     0
1000
MTEXTEND
1000
MTEXTBEGIN
1070
    73
1070
     1
1070
    44
1040
1.0
1070
    74
1070
     0
1000
MTEXTEND
1000
MTEXTBEGIN
1070
    73
1070
     1
1070
    44
1040
1.0
1070
    74
1070
     0
1000
MTEXTEND
1000
MTEXTBEGIN
1070
    73
1070
     1
1070
    44
1040
1.0
1070
    74
1070
     0
1000
MTEXTEND
1000
MTEXTBEGIN
1070
    73
1070
     1
1070
    44
1040
1.0
1070
    74
1070
     0
1000
MTEXTEND
  0
POINT
  5
6F42
330
6E85
100
AcDbEntity
  8
DEFPOINTS
  6
CONTINUOUS
 62
     0
100
AcDbPoint
 10
15.49993935123018
 20
99.75000124017805
 30
0.0
  0
POINT
  5
6F43
330
6E85
100
AcDbEntity
  8
DEFPOINTS
  6
CONTINUOUS
 62
     0
100
AcDbPoint
 10
35.99987881962221
 20
49.750001240251
 30
0.0
  0
POINT
  5
6F44
330
6E85
100
AcDbEntity
  8
DEFPOINTS
  6
CONTINUOUS
 62
     0
100
AcDbPoint
 10
82.3457452835504
 20
49.750001240251
 30
0.0
  0
ENDBLK
  5
6E90
330
6E85
100
AcDbEntity
  8
0
100
AcDbBlockEnd
  0
BLOCK
  5
6F61
330
6F57
100
AcDbEntity
  8
0
100
AcDbBlockBegin
  2
*D48
 70
     1
 10
0.0
 20
0.0
 30
0.0
  3
*D48
  1

  0
LINE
  5
6F58
330
6F57
100
AcDbEntity
  8
0
 62
     0
100
AcDbLine
 10
224.5662592932348
 20
74.40341875668815
 30
0.0
 11
286.1395448499903
 21
74.40341875668815
 31
0.0
  0
LINE
  5
6F59
330
6F57
100
AcDbEntity
  8
0
 62
     0
100
AcDbLine
 10
248.9322419562993
 20
-9.596583237569246
 30
0.0
 11
286.1395448499903
 21
-9.596583237569255
 31
0.0
  0
LINE
  5
6F5A
330
6F57
100
AcDbEntity
  8
0
 62
     0
100
AcDbLine
 10
284.6395448499904
 20
69.40341875668813
 30
0.0
 11
284.6395448499904
 21
-4.596583237569253
 31
0.0
  0
INSERT
  5
6F5B
330
6F57
100
AcDbEntity
  8
0
 62
     0
100
AcDbBlockReference
  2
_OPEN30
 10
284.6395448499904
 20
74.40341875668815
 30
0.0
 41
5.0
 42
5.0
 43
5.0
 50
90.0
  0
INSERT
  5
6F5C
330
6F57
100
AcDbEntity
  8
0
 62
     0
100
AcDbBlockReference
  2
_OPEN30
 10
284.6395448499904
 20
-9.596583237569255
 30
0.0
 41
5.0
 42
5.0
 43
5.0
 50
270.0
  0
MTEXT
  5
6F5D
330
6F57
100
AcDbEntity
  8
0
 62
     0
100
AcDbMText
 10
280.6395448499904
 20
32.40341775955949
 30
0.0
 40
5.0
 41
0.0
 71
     5
 72
     1
  1
\A1;84
 11
0.0000000000000001
 21
1.0
 31
0.0
1001
ACAD
1000
MTEXTBEGIN
1070
    73
1070
     1
1070
    44
1040
1.0
1070
    74
1070
     0
1000
MTEXTEND
1000
MTEXTBEGIN
1070
    73
1070
     1
1070
    44
1040
1.0
1070
    74
1070
     0
1000
MTEXTEND
1000
MTEXTBEGIN
1070
    73
1070
     1
1070
    44
1040
1.0
1070
    74
1070
     0
1000
MTEXTEND
1000
MTEXTBEGIN
1070
    73
1070
     1
1070
    44
1040
1.0
1070
    74
1070
     0
1000
MTEXTEND
1000
MTEXTBEGIN
1070
    73
1070
     1
1070
    44
1040
1.0
1070
    74
1070
     0
1000
MTEXTEND
1000
MTEXTBEGIN
1070
    73
1070
     1
1070
    44
1040
1.0
1070
    74
1070
     0
1000
MTEXTEND
1000
MTEXTBEGIN
1070
    73
1070
     1
1070
    44
1040
1.0
1070
    74
1070
     0
1000
MTEXTEND
  0
POINT
  5
6F5E
330
6F57
100
AcDbEntity
  8
DEFPOINTS
 62
     0
100
AcDbPoint
 10
223.0662592932348
 20
74.40341875668817
 30
0.0
  0
POINT
  5
6F5F
330
6F57
100
AcDbEntity
  8
DEFPOINTS
 62
     0
100
AcDbPoint
 10
247.4322419562993
 20
-9.596583237569246
 30
0.0
  0
POINT
  5
6F60
330
6F57
100
AcDbEntity
  8
DEFPOINTS
 62
     0
100
AcDbPoint
 10
284.6395448499904
 20
-9.596583237569255
 30
0.0
  0
ENDBLK
  5
6F62
330
6F57
100
AcDbEntity
  8
0
100
AcDbBlockEnd
  0
BLOCK
  5
6F6D
330
6F63
100
AcDbEntity
  8
0
100
AcDbBlockBegin
  2
*D49
 70
     1
 10
0.0
 20
0.0
 30
0.0
  3
*D49
  1

  0
LINE
  5
6F64
330
6F63
100
AcDbEntity
  8
0
 62
     0
100
AcDbLine
 10
214.8399407287925
 20
64.35371335421617
 30
0.0
 11
214.8399407287925
 21
-39.27284486275187
 31
0.0
  0
LINE
  5
6F65
330
6F63
100
AcDbEntity
  8
0
 62
     0
100
AcDbLine
 10
239.8399413519974
 20
-21.54601868202744
 30
0.0
 11
239.8399413519974
 21
-39.27284486275187
 31
0.0
  0
LINE
  5
6F66
330
6F63
100
AcDbEntity
  8
0
 62
     0
100
AcDbLine
 10
219.8399407287926
 20
-37.77284486275187
 30
0.0
 11
234.8399413519976
 21
-37.77284486275187
 31
0.0
  0
INSERT
  5
6F67
330
6F63
100
AcDbEntity
  8
0
 62
     0
100
AcDbBlockReference
  2
_OPEN30
 10
214.8399407287925
 20
-37.77284486275187
 30
0.0
 41
5.0
 42
5.0
 43
5.0
 50
180.0
  0
INSERT
  5
6F68
330
6F63
100
AcDbEntity
  8
0
 62
     0
100
AcDbBlockReference
  2
_OPEN30
 10
239.8399413519974
 20
-37.77284486275187
 30
0.0
 41
5.0
 42
5.0
 43
5.0
  0
MTEXT
  5
6F69
330
6F63
100
AcDbEntity
  8
0
 62
     0
100
AcDbMText
 10
227.339941040395
 20
-33.77284486275186
 30
0.0
 40
5.0
 41
0.0
 71
     5
 72
     1
  1
\A1;25
1001
ACAD
1000
MTEXTBEGIN
1070
    73
1070
     1
1070
    44
1040
1.0
1070
    74
1070
     0
1000
MTEXTEND
1000
MTEXTBEGIN
1070
    73
1070
     1
1070
    44
1040
1.0
1070
    74
1070
     0
1000
MTEXTEND
1000
MTEXTBEGIN
1070
    73
1070
     1
1070
    44
1040
1.0
1070
    74
1070
     0
1000
MTEXTEND
1000
MTEXTBEGIN
1070
    73
1070
     1
1070
    44
1040
1.0
1070
    74
1070
     0
1000
MTEXTEND
1000
MTEXTBEGIN
1070
    73
1070
     1
1070
    44
1040
1.0
1070
    74
1070
     0
1000
MTEXTEND
1000
MTEXTBEGIN
1070
    73
1070
     1
1070
    44
1040
1.0
1070
    74
1070
     0
1000
MTEXTEND
1000
MTEXTBEGIN
1070
    73
1070
     1
1070
    44
1040
1.0
1070
    74
1070
     0
1000
MTEXTEND
  0
POINT
  5
6F6A
330
6F63
100
AcDbEntity
  8
DEFPOINTS
 62
     0
100
AcDbPoint
 10
214.8399407287925
 20
65.85371335421617
 30
0.0
  0
POINT
  5
6F6B
330
6F63
100
AcDbEntity
  8
DEFPOINTS
 62
     0
100
AcDbPoint
 10
239.8399413519974
 20
-20.04601868202743
 30
0.0
  0
POINT
  5
6F6C
330
6F63
100
AcDbEntity
  8
DEFPOINTS
 62
     0
100
AcDbPoint
 10
239.8399413519974
 20
-37.77284486275187
 30
0.0
  0
ENDBLK
  5
6F6E
330
6F63
100
AcDbEntity
  8
0
100
AcDbBlockEnd
  0
BLOCK
  5
6FA7
330
6F9D
100
AcDbEntity
  8
0
100
AcDbBlockBegin
  2
*D50
 70
     1
 10
0.0
 20
0.0
 30
0.0
  3
*D50
  1

  0
LINE
  5
727E
330
6F9D
100
AcDbEntity
  8
30
  6
CONTINUOUS
 62
     0
100
AcDbLine
 10
-3.653776282331556
 20
-208.8473930239058
 30
0.0
 11
57.41950927442402
 21
-208.8473930239058
 31
0.0
  0
LINE
  5
727F
330
6F9D
100
AcDbEntity
  8
30
  6
CONTINUOUS
 62
     0
100
AcDbLine
 10
20.71220638073294
 20
-292.8473950181631
 30
0.0
 11
57.41950927442401
 21
-292.8473950181631
 31
0.0
  0
LINE
  5
7280
330
6F9D
100
AcDbEntity
  8
30
  6
CONTINUOUS
 62
     0
100
AcDbLine
 10
56.91950927442402
 20
-210.8473930239058
 30
0.0
 11
56.91950927442401
 21
-290.8473950181631
 31
0.0
  0
INSERT
  5
7281
330
6F9D
100
AcDbEntity
  8
30
  6
CONTINUOUS
 62
     0
100
AcDbBlockReference
  2
_OPEN
 10
56.91950927442402
 20
-208.8473930239058
 30
0.0
 41
2.0
 42
2.0
 43
2.0
 50
90.0
  0
INSERT
  5
7282
330
6F9D
100
AcDbEntity
  8
30
  6
CONTINUOUS
 62
     0
100
AcDbBlockReference
  2
_OPEN
 10
56.91950927442401
 20
-292.8473950181631
 30
0.0
 41
2.0
 42
2.0
 43
2.0
 50
270.0
  0
MTEXT
  5
7283
330
6F9D
100
AcDbEntity
  8
30
  6
CONTINUOUS
 62
     0
100
AcDbMText
 10
53.91950927442406
 20
-250.8473940210345
 30
0.0
 40
4.0
 41
0.0
 71
     5
 72
     1
  1
\A1;84
 11
0.0000000000000001
 21
1.0
 31
0.0
1001
ACAD
1000
MTEXTBEGIN
1070
    73
1070
     1
1070
    44
1040
1.0
1070
    74
1070
     0
1000
MTEXTEND
1000
MTEXTBEGIN
1070
    73
1070
     1
1070
    44
1040
1.0
1070
    74
1070
     0
1000
MTEXTEND
1000
MTEXTBEGIN
1070
    73
1070
     1
1070
    44
1040
1.0
1070
    74
1070
     0
1000
MTEXTEND
1000
MTEXTBEGIN
1070
    73
1070
     1
1070
    44
1040
1.0
1070
    74
1070
     0
1000
MTEXTEND
1000
MTEXTBEGIN
1070
    73
1070
     1
1070
    44
1040
1.0
1070
    74
1070
     0
1000
MTEXTEND
1000
MTEXTBEGIN
1070
    73
1070
     1
1070
    44
1040
1.0
1070
    74
1070
     0
1000
MTEXTEND
1000
MTEXTBEGIN
1070
    73
1070
     1
1070
    44
1040
1.0
1070
    74
1070
     0
1000
MTEXTEND
  0
POINT
  5
7284
330
6F9D
100
AcDbEntity
  8
DEFPOINTS
  6
CONTINUOUS
 62
     0
100
AcDbPoint
 10
-4.653776282331556
 20
-208.8473930239058
 30
0.0
  0
POINT
  5
7285
330
6F9D
100
AcDbEntity
  8
DEFPOINTS
  6
CONTINUOUS
 62
     0
100
AcDbPoint
 10
19.71220638073294
 20
-292.8473950181631
 30
0.0
  0
POINT
  5
7286
330
6F9D
100
AcDbEntity
  8
DEFPOINTS
  6
CONTINUOUS
 62
     0
100
AcDbPoint
 10
56.91950927442401
 20
-292.8473950181631
 30
0.0
  0
ENDBLK
  5
6FA8
330
6F9D
100
AcDbEntity
  8
0
100
AcDbBlockEnd
  0
BLOCK
  5
6FB3
330
6FA9
100
AcDbEntity
  8
0
100
AcDbBlockBegin
  2
*D51
 70
     1
 10
0.0
 20
0.0
 30
0.0
  3
*D51
  1

  0
LINE
  5
7287
330
6FA9
100
AcDbEntity
  8
30
  6
CONTINUOUS
 62
     0
100
AcDbLine
 10
-12.88009484677376
 20
-218.3970984263778
 30
0.0
 11
-12.88009484677377
 21
-321.5236566433458
 31
0.0
  0
LINE
  5
7288
330
6FA9
100
AcDbEntity
  8
30
  6
CONTINUOUS
 62
     0
100
AcDbLine
 10
12.11990577643121
 20
-304.2968304626213
 30
0.0
 11
12.11990577643121
 21
-321.5236566433458
 31
0.0
  0
LINE
  5
7289
330
6FA9
100
AcDbEntity
  8
30
  6
CONTINUOUS
 62
     0
100
AcDbLine
 10
-10.88009484677376
 20
-321.0236566433458
 30
0.0
 11
10.11990577643121
 21
-321.0236566433458
 31
0.0
  0
INSERT
  5
728A
330
6FA9
100
AcDbEntity
  8
30
  6
CONTINUOUS
 62
     0
100
AcDbBlockReference
  2
_OPEN
 10
-12.88009484677377
 20
-321.0236566433458
 30
0.0
 41
2.0
 42
2.0
 43
2.0
 50
180.0
  0
INSERT
  5
728B
330
6FA9
100
AcDbEntity
  8
30
  6
CONTINUOUS
 62
     0
100
AcDbBlockReference
  2
_OPEN
 10
12.11990577643121
 20
-321.0236566433458
 30
0.0
 41
2.0
 42
2.0
 43
2.0
  0
MTEXT
  5
728C
330
6FA9
100
AcDbEntity
  8
30
  6
CONTINUOUS
 62
     0
100
AcDbMText
 10
-0.3800945351712784
 20
-318.0236566433458
 30
0.0
 40
4.0
 41
0.0
 71
     5
 72
     1
  1
\A1;25
1001
ACAD
1000
MTEXTBEGIN
1070
    73
1070
     1
1070
    44
1040
1.0
1070
    74
1070
     0
1000
MTEXTEND
1000
MTEXTBEGIN
1070
    73
1070
     1
1070
    44
1040
1.0
1070
    74
1070
     0
1000
MTEXTEND
1000
MTEXTBEGIN
1070
    73
1070
     1
1070
    44
1040
1.0
1070
    74
1070
     0
1000
MTEXTEND
1000
MTEXTBEGIN
1070
    73
1070
     1
1070
    44
1040
1.0
1070
    74
1070
     0
1000
MTEXTEND
1000
MTEXTBEGIN
1070
    73
1070
     1
1070
    44
1040
1.0
1070
    74
1070
     0
1000
MTEXTEND
1000
MTEXTBEGIN
1070
    73
1070
     1
1070
    44
1040
1.0
1070
    74
1070
     0
1000
MTEXTEND
1000
MTEXTBEGIN
1070
    73
1070
     1
1070
    44
1040
1.0
1070
    74
1070
     0
1000
MTEXTEND
  0
POINT
  5
728D
330
6FA9
100
AcDbEntity
  8
DEFPOINTS
  6
CONTINUOUS
 62
     0
100
AcDbPoint
 10
-12.88009484677376
 20
-217.3970984263778
 30
0.0
  0
POINT
  5
728E
330
6FA9
100
AcDbEntity
  8
DEFPOINTS
  6
CONTINUOUS
 62
     0
100
AcDbPoint
 10
12.11990577643121
 20
-303.2968304626213
 30
0.0
  0
POINT
  5
728F
330
6FA9
100
AcDbEntity
  8
DEFPOINTS
  6
CONTINUOUS
 62
     0
100
AcDbPoint
 10
12.11990577643121
 20
-321.0236566433458
 30
0.0
  0
ENDBLK
  5
6FB4
330
6FA9
100
AcDbEntity
  8
0
100
AcDbBlockEnd
  0
BLOCK
  5
6FD1
330
6FC7
100
AcDbEntity
  8
0
100
AcDbBlockBegin
  2
*D52
 70
     1
 10
0.0
 20
0.0
 30
0.0
  3
*D52
  1

  0
LINE
  5
6FC8
330
6FC7
100
AcDbEntity
  8
0
 62
     0
100
AcDbLine
 10
361.6120069324163
 20
6.903417161282161
 30
0.0
 11
361.6120069324163
 21
-39.27284486275187
 31
0.0
  0
LINE
  5
6FC9
330
6FC7
100
AcDbEntity
  8
0
 62
     0
100
AcDbLine
 10
431.6120086275335
 20
6.903417161282161
 30
0.0
 11
431.6120086275335
 21
-39.27284486275187
 31
0.0
  0
LINE
  5
6FCA
330
6FC7
100
AcDbEntity
  8
0
 62
     0
100
AcDbLine
 10
366.6120069324163
 20
-37.77284486275187
 30
0.0
 11
426.6120086275335
 21
-37.77284486275187
 31
0.0
  0
INSERT
  5
6FCB
330
6FC7
100
AcDbEntity
  8
0
 62
     0
100
AcDbBlockReference
  2
_OPEN30
 10
361.6120069324163
 20
-37.77284486275187
 30
0.0
 41
5.0
 42
5.0
 43
5.0
 50
180.0
  0
INSERT
  5
6FCC
330
6FC7
100
AcDbEntity
  8
0
 62
     0
100
AcDbBlockReference
  2
_OPEN30
 10
431.6120086275335
 20
-37.77284486275187
 30
0.0
 41
5.0
 42
5.0
 43
5.0
  0
MTEXT
  5
6FCD
330
6FC7
100
AcDbEntity
  8
0
 62
     0
100
AcDbMText
 10
396.6120077799748
 20
-33.77284486275186
 30
0.0
 40
5.0
 41
0.0
 71
     5
 72
     1
  1
\A1;74
1001
ACAD
1000
MTEXTBEGIN
1070
    73
1070
     1
1070
    44
1040
1.0
1070
    74
1070
     0
1000
MTEXTEND
1000
MTEXTBEGIN
1070
    73
1070
     1
1070
    44
1040
1.0
1070
    74
1070
     0
1000
MTEXTEND
1000
MTEXTBEGIN
1070
    73
1070
     1
1070
    44
1040
1.0
1070
    74
1070
     0
1000
MTEXTEND
1000
MTEXTBEGIN
1070
    73
1070
     1
1070
    44
1040
1.0
1070
    74
1070
     0
1000
MTEXTEND
1000
MTEXTBEGIN
1070
    73
1070
     1
1070
    44
1040
1.0
1070
    74
1070
     0
1000
MTEXTEND
1000
MTEXTBEGIN
1070
    73
1070
     1
1070
    44
1040
1.0
1070
    74
1070
     0
1000
MTEXTEND
1000
MTEXTBEGIN
1070
    73
1070
     1
1070
    44
1040
1.0
1070
    74
1070
     0
1000
MTEXTEND
  0
POINT
  5
6FCE
330
6FC7
100
AcDbEntity
  8
DEFPOINTS
 62
     0
100
AcDbPoint
 10
361.6120069324163
 20
8.403417161282161
 30
0.0
  0
POINT
  5
6FCF
330
6FC7
100
AcDbEntity
  8
DEFPOINTS
 62
     0
100
AcDbPoint
 10
431.6120086275335
 20
8.403417161282161
 30
0.0
  0
POINT
  5
6FD0
330
6FC7
100
AcDbEntity
  8
DEFPOINTS
 62
     0
100
AcDbPoint
 10
431.6120086275335
 20
-37.77284486275187
 30
0.0
  0
ENDBLK
  5
6FD2
330
6FC7
100
AcDbEntity
  8
0
100
AcDbBlockEnd
  0
BLOCK
  5
6FDD
330
6FD3
100
AcDbEntity
  8
0
100
AcDbBlockBegin
  2
*D53
 70
     1
 10
0.0
 20
0.0
 30
0.0
  3
*D53
  1

  0
LINE
  5
6FD4
330
6FD3
100
AcDbEntity
  8
0
 62
     0
100
AcDbLine
 10
431.1120085776771
 20
58.40341840769271
 30
0.0
 11
454.1874538430463
 21
58.40341840769269
 31
0.0
  0
LINE
  5
6FD5
330
6FD3
100
AcDbEntity
  8
0
 62
     0
100
AcDbLine
 10
431.1120085776771
 20
6.403417111425762
 30
0.0
 11
454.1874538430463
 21
6.403417111425754
 31
0.0
  0
LINE
  5
6FD6
330
6FD3
100
AcDbEntity
  8
0
 62
     0
100
AcDbLine
 10
452.6874538430463
 20
53.40341840769269
 30
0.0
 11
452.6874538430463
 21
11.40341711142575
 31
0.0
  0
INSERT
  5
6FD7
330
6FD3
100
AcDbEntity
  8
0
 62
     0
100
AcDbBlockReference
  2
_OPEN30
 10
452.6874538430463
 20
58.40341840769269
 30
0.0
 41
5.0
 42
5.0
 43
5.0
 50
90.0
  0
INSERT
  5
6FD8
330
6FD3
100
AcDbEntity
  8
0
 62
     0
100
AcDbBlockReference
  2
_OPEN30
 10
452.6874538430463
 20
6.403417111425754
 30
0.0
 41
5.0
 42
5.0
 43
5.0
 50
270.0
  0
MTEXT
  5
6FD9
330
6FD3
100
AcDbEntity
  8
0
 62
     0
100
AcDbMText
 10
448.6874538430463
 20
32.4034177595593
 30
0.0
 40
5.0
 41
0.0
 71
     5
 72
     1
  1
\A1;52
 11
0.0000000000000001
 21
1.0
 31
0.0
1001
ACAD
1000
MTEXTBEGIN
1070
    73
1070
     1
1070
    44
1040
1.0
1070
    74
1070
     0
1000
MTEXTEND
1000
MTEXTBEGIN
1070
    73
1070
     1
1070
    44
1040
1.0
1070
    74
1070
     0
1000
MTEXTEND
1000
MTEXTBEGIN
1070
    73
1070
     1
1070
    44
1040
1.0
1070
    74
1070
     0
1000
MTEXTEND
1000
MTEXTBEGIN
1070
    73
1070
     1
1070
    44
1040
1.0
1070
    74
1070
     0
1000
MTEXTEND
1000
MTEXTBEGIN
1070
    73
1070
     1
1070
    44
1040
1.0
1070
    74
1070
     0
1000
MTEXTEND
1000
MTEXTBEGIN
1070
    73
1070
     1
1070
    44
1040
1.0
1070
    74
1070
     0
1000
MTEXTEND
1000
MTEXTBEGIN
1070
    73
1070
     1
1070
    44
1040
1.0
1070
    74
1070
     0
1000
MTEXTEND
  0
POINT
  5
6FDA
330
6FD3
100
AcDbEntity
  8
DEFPOINTS
 62
     0
100
AcDbPoint
 10
429.6120085776771
 20
58.40341840769271
 30
0.0
  0
POINT
  5
6FDB
330
6FD3
100
AcDbEntity
  8
DEFPOINTS
 62
     0
100
AcDbPoint
 10
429.6120085776771
 20
6.403417111425762
 30
0.0
  0
POINT
  5
6FDC
330
6FD3
100
AcDbEntity
  8
DEFPOINTS
 62
     0
100
AcDbPoint
 10
452.6874538430463
 20
6.403417111425754
 30
0.0
  0
ENDBLK
  5
6FDE
330
6FD3
100
AcDbEntity
  8
0
100
AcDbBlockEnd
  0
BLOCK
  5
6FE6
330
6FDF
100
AcDbEntity
  8
0
100
AcDbBlockBegin
  2
*D54
 70
     1
 10
0.0
 20
0.0
 30
0.0
  3
*D54
  1

  0
LINE
  5
6FE0
330
6FDF
100
AcDbEntity
  8
0
 62
     0
100
AcDbLine
 10
376.0931078205458
 20
37.31438113568775
 30
0.0
 11
365.703817547897
 21
52.89244254301443
 31
0.0
  0
MTEXT
  5
6FE1
330
6FDF
100
AcDbEntity
  8
0
 62
     0
100
AcDbMText
 10
376.2768013299098
 20
44.24816565827919
 30
0.0
 40
5.0
 41
0.0
 71
     5
 72
     1
  1
\A1;R2
 11
0.5548449742164756
 21
-0.8319537574809784
 31
0.0
1001
ACAD
1000
MTEXTBEGIN
1070
    73
1070
     1
1070
    44
1040
1.0
1070
    74
1070
     0
1000
MTEXTEND
1000
MTEXTBEGIN
1070
    73
1070
     1
1070
    44
1040
1.0
1070
    74
1070
     0
1000
MTEXTEND
1000
MTEXTBEGIN
1070
    73
1070
     1
1070
    44
1040
1.0
1070
    74
1070
     0
1000
MTEXTEND
1000
MTEXTBEGIN
1070
    73
1070
     1
1070
    44
1040
1.0
1070
    74
1070
     0
1000
MTEXTEND
1000
MTEXTBEGIN
1070
    73
1070
     1
1070
    44
1040
1.0
1070
    74
1070
     0
1000
MTEXTEND
1000
MTEXTBEGIN
1070
    73
1070
     1
1070
    44
1040
1.0
1070
    74
1070
     0
1000
MTEXTEND
1000
MTEXTBEGIN
1070
    73
1070
     1
1070
    44
1040
1.0
1070
    74
1070
     0
1000
MTEXTEND
  0
LINE
  5
6FE2
330
6FDF
100
AcDbEntity
  8
0
 62
     0
100
AcDbLine
 10
362.4435725358531
 20
57.7809667508957
 30
0.0
 11
362.9295926768146
 21
57.05221133041937
 31
0.0
  0
INSERT
  5
6FE3
330
6FDF
100
AcDbEntity
  8
0
 62
     0
100
AcDbBlockReference
  2
_OPEN30
 10
362.9295926768146
 20
57.05221133041937
 30
0.0
 41
5.0
 42
5.0
 43
5.0
 50
123.7000376553611
  0
POINT
  5
6FE4
330
6FDF
100
AcDbEntity
  8
DEFPOINTS
 62
     0
100
AcDbPoint
 10
362.9295926768146
 20
57.05221133041937
 30
0.0
  0
POINT
  5
6FE5
330
6FDF
100
AcDbEntity
  8
DEFPOINTS
 62
     0
100
AcDbPoint
 10
362.4435725358531
 20
57.7809667508957
 30
0.0
  0
ENDBLK
  5
6FE7
330
6FDF
100
AcDbEntity
  8
0
100
AcDbBlockEnd
  0
BLOCK
  5
7015
330
700E
100
AcDbEntity
  8
0
100
AcDbBlockBegin
  2
*D55
 70
     1
 10
0.0
 20
0.0
 30
0.0
  3
*D55
  1

  0
LINE
  5
7312
330
700E
100
AcDbEntity
  8
30
  6
CONTINUOUS
 62
     0
100
AcDbLine
 10
154.2065799815131
 20
-241.2220260191808
 30
0.0
 11
146.5399133148463
 21
-241.2220260191808
 31
0.0
  0
LINE
  5
7313
330
700E
100
AcDbEntity
  8
30
  6
CONTINUOUS
 62
     0
100
AcDbLine
 10
146.5399133148463
 20
-241.2220260191808
 30
0.0
 11
137.6302096401067
 21
-227.8625079651364
 31
0.0
  0
MTEXT
  5
7314
330
700E
100
AcDbEntity
  8
30
  6
CONTINUOUS
 62
     0
100
AcDbMText
 10
150.8732466481795
 20
-238.2220260191806
 30
0.0
 40
4.0
 41
0.0
 71
     5
 72
     1
  1
\A1;R2
1001
ACAD
1000
MTEXTBEGIN
1070
    73
1070
     1
1070
    44
1040
1.0
1070
    74
1070
     0
1000
MTEXTEND
1000
MTEXTBEGIN
1070
    73
1070
     1
1070
    44
1040
1.0
1070
    74
1070
     0
1000
MTEXTEND
1000
MTEXTBEGIN
1070
    73
1070
     1
1070
    44
1040
1.0
1070
    74
1070
     0
1000
MTEXTEND
1000
MTEXTBEGIN
1070
    73
1070
     1
1070
    44
1040
1.0
1070
    74
1070
     0
1000
MTEXTEND
1000
MTEXTBEGIN
1070
    73
1070
     1
1070
    44
1040
1.0
1070
    74
1070
     0
1000
MTEXTEND
  0
INSERT
  5
7315
330
700E
100
AcDbEntity
  8
30
  6
CONTINUOUS
 62
     0
100
AcDbBlockReference
  2
_OPEN
 10
136.5205196916737
 20
-226.1986004501746
 30
0.0
 41
2.0
 42
2.0
 43
2.0
 50
123.7000376553647
  0
LINE
  5
7316
330
700E
100
AcDbEntity
  8
30
  6
CONTINUOUS
 62
     0
100
AcDbLine
 10
135.9444995507122
 20
-225.4698450296983
 30
0.0
 11
136.1244995507121
 21
-225.469845029698
 31
0.0
  0
LINE
  5
7317
330
700E
100
AcDbEntity
  8
30
  6
CONTINUOUS
 62
     0
100
AcDbLine
 10
136.0344995507118
 20
-225.5598450296981
 30
0.0
 11
136.0344995507122
 21
-225.3798450296981
 31
0.0
  0
POINT
  5
7318
330
700E
100
AcDbEntity
  8
DEFPOINTS
  6
CONTINUOUS
 62
     0
100
AcDbPoint
 10
136.5205196916737
 20
-226.1986004501746
 30
0.0
  0
POINT
  5
7319
330
700E
100
AcDbEntity
  8
DEFPOINTS
  6
CONTINUOUS
 62
     0
100
AcDbPoint
 10
136.0344995507122
 20
-225.469845029698
 30
0.0
  0
ENDBLK
  5
7016
330
700E
100
AcDbEntity
  8
0
100
AcDbBlockEnd
  0
BLOCK
  5
7021
330
7017
100
AcDbEntity
  8
0
100
AcDbBlockBegin
  2
*D56
 70
     1
 10
0.0
 20
0.0
 30
0.0
  3
*D56
  1

  0
LINE
  5
7290
330
7017
100
AcDbEntity
  8
30
  6
CONTINUOUS
 62
     0
100
AcDbLine
 10
135.2029339472754
 20
-275.8473946193118
 30
0.0
 11
135.2029339472754
 21
-321.5236566433458
 31
0.0
  0
LINE
  5
7291
330
7017
100
AcDbEntity
  8
30
  6
CONTINUOUS
 62
     0
100
AcDbLine
 10
205.2029356423926
 20
-275.8473946193118
 30
0.0
 11
205.2029356423926
 21
-321.5236566433458
 31
0.0
  0
LINE
  5
7292
330
7017
100
AcDbEntity
  8
30
  6
CONTINUOUS
 62
     0
100
AcDbLine
 10
137.2029339472754
 20
-321.0236566433458
 30
0.0
 11
203.2029356423926
 21
-321.0236566433458
 31
0.0
  0
INSERT
  5
7293
330
7017
100
AcDbEntity
  8
30
  6
CONTINUOUS
 62
     0
100
AcDbBlockReference
  2
_OPEN
 10
135.2029339472754
 20
-321.0236566433458
 30
0.0
 41
2.0
 42
2.0
 43
2.0
 50
180.0
  0
INSERT
  5
7294
330
7017
100
AcDbEntity
  8
30
  6
CONTINUOUS
 62
     0
100
AcDbBlockReference
  2
_OPEN
 10
205.2029356423926
 20
-321.0236566433458
 30
0.0
 41
2.0
 42
2.0
 43
2.0
  0
MTEXT
  5
7295
330
7017
100
AcDbEntity
  8
30
  6
CONTINUOUS
 62
     0
100
AcDbMText
 10
170.2029347948339
 20
-318.0236566433458
 30
0.0
 40
4.0
 41
0.0
 71
     5
 72
     1
  1
\A1;74
1001
ACAD
1000
MTEXTBEGIN
1070
    73
1070
     1
1070
    44
1040
1.0
1070
    74
1070
     0
1000
MTEXTEND
1000
MTEXTBEGIN
1070
    73
1070
     1
1070
    44
1040
1.0
1070
    74
1070
     0
1000
MTEXTEND
1000
MTEXTBEGIN
1070
    73
1070
     1
1070
    44
1040
1.0
1070
    74
1070
     0
1000
MTEXTEND
1000
MTEXTBEGIN
1070
    73
1070
     1
1070
    44
1040
1.0
1070
    74
1070
     0
1000
MTEXTEND
1000
MTEXTBEGIN
1070
    73
1070
     1
1070
    44
1040
1.0
1070
    74
1070
     0
1000
MTEXTEND
1000
MTEXTBEGIN
1070
    73
1070
     1
1070
    44
1040
1.0
1070
    74
1070
     0
1000
MTEXTEND
1000
MTEXTBEGIN
1070
    73
1070
     1
1070
    44
1040
1.0
1070
    74
1070
     0
1000
MTEXTEND
  0
POINT
  5
7296
330
7017
100
AcDbEntity
  8
DEFPOINTS
  6
CONTINUOUS
 62
     0
100
AcDbPoint
 10
135.2029339472754
 20
-274.8473946193116
 30
0.0
  0
POINT
  5
7297
330
7017
100
AcDbEntity
  8
DEFPOINTS
  6
CONTINUOUS
 62
     0
100
AcDbPoint
 10
205.2029356423926
 20
-274.8473946193116
 30
0.0
  0
POINT
  5
7298
330
7017
100
AcDbEntity
  8
DEFPOINTS
  6
CONTINUOUS
 62
     0
100
AcDbPoint
 10
205.2029356423926
 20
-321.0236566433458
 30
0.0
  0
ENDBLK
  5
7022
330
7017
100
AcDbEntity
  8
0
100
AcDbBlockEnd
  0
BLOCK
  5
702D
330
7023
100
AcDbEntity
  8
0
100
AcDbBlockBegin
  2
*D57
 70
     1
 10
0.0
 20
0.0
 30
0.0
  3
*D57
  1

  0
LINE
  5
7299
330
7023
100
AcDbEntity
  8
30
  6
CONTINUOUS
 62
     0
100
AcDbLine
 10
204.202935592536
 20
-224.8473933729012
 30
0.0
 11
226.7783808579053
 21
-224.8473933729012
 31
0.0
  0
LINE
  5
729A
330
7023
100
AcDbEntity
  8
30
  6
CONTINUOUS
 62
     0
100
AcDbLine
 10
204.202935592536
 20
-276.847394669168
 30
0.0
 11
226.7783808579053
 21
-276.847394669168
 31
0.0
  0
LINE
  5
729B
330
7023
100
AcDbEntity
  8
30
  6
CONTINUOUS
 62
     0
100
AcDbLine
 10
226.2783808579053
 20
-226.8473933729012
 30
0.0
 11
226.2783808579053
 21
-274.847394669168
 31
0.0
  0
INSERT
  5
729C
330
7023
100
AcDbEntity
  8
30
  6
CONTINUOUS
 62
     0
100
AcDbBlockReference
  2
_OPEN
 10
226.2783808579053
 20
-224.8473933729012
 30
0.0
 41
2.0
 42
2.0
 43
2.0
 50
90.0
  0
INSERT
  5
729D
330
7023
100
AcDbEntity
  8
30
  6
CONTINUOUS
 62
     0
100
AcDbBlockReference
  2
_OPEN
 10
226.2783808579053
 20
-276.847394669168
 30
0.0
 41
2.0
 42
2.0
 43
2.0
 50
270.0
  0
MTEXT
  5
729E
330
7023
100
AcDbEntity
  8
30
  6
CONTINUOUS
 62
     0
100
AcDbMText
 10
223.2783808579053
 20
-250.8473940210345
 30
0.0
 40
4.0
 41
0.0
 71
     5
 72
     1
  1
\A1;52
 11
0.0000000000000001
 21
1.0
 31
0.0
1001
ACAD
1000
MTEXTBEGIN
1070
    73
1070
     1
1070
    44
1040
1.0
1070
    74
1070
     0
1000
MTEXTEND
1000
MTEXTBEGIN
1070
    73
1070
     1
1070
    44
1040
1.0
1070
    74
1070
     0
1000
MTEXTEND
1000
MTEXTBEGIN
1070
    73
1070
     1
1070
    44
1040
1.0
1070
    74
1070
     0
1000
MTEXTEND
1000
MTEXTBEGIN
1070
    73
1070
     1
1070
    44
1040
1.0
1070
    74
1070
     0
1000
MTEXTEND
1000
MTEXTBEGIN
1070
    73
1070
     1
1070
    44
1040
1.0
1070
    74
1070
     0
1000
MTEXTEND
1000
MTEXTBEGIN
1070
    73
1070
     1
1070
    44
1040
1.0
1070
    74
1070
     0
1000
MTEXTEND
1000
MTEXTBEGIN
1070
    73
1070
     1
1070
    44
1040
1.0
1070
    74
1070
     0
1000
MTEXTEND
  0
POINT
  5
729F
330
7023
100
AcDbEntity
  8
DEFPOINTS
  6
CONTINUOUS
 62
     0
100
AcDbPoint
 10
203.2029355925362
 20
-224.8473933729012
 30
0.0
  0
POINT
  5
72A0
330
7023
100
AcDbEntity
  8
DEFPOINTS
  6
CONTINUOUS
 62
     0
100
AcDbPoint
 10
203.2029355925362
 20
-276.847394669168
 30
0.0
  0
POINT
  5
72A1
330
7023
100
AcDbEntity
  8
DEFPOINTS
  6
CONTINUOUS
 62
     0
100
AcDbPoint
 10
226.2783808579053
 20
-276.847394669168
 30
0.0
  0
ENDBLK
  5
702E
330
7023
100
AcDbEntity
  8
0
100
AcDbBlockEnd
  0
BLOCK
  5
7060
330
7056
100
AcDbEntity
  8
0
100
AcDbBlockBegin
  2
*D58
 70
     1
 10
0.0
 20
0.0
 30
0.0
  3
*D58
  1

  0
LINE
  5
7057
330
7056
100
AcDbEntity
  8
0
 62
     0
100
AcDbLine
 10
377.5788294546903
 20
264.1132030262034
 30
0.0
 11
377.5788294546903
 21
278.7449922387174
 31
0.0
  0
LINE
  5
7058
330
7056
100
AcDbEntity
  8
0
 62
     0
100
AcDbLine
 10
420.5788294546904
 20
261.2133250241526
 30
0.0
 11
420.5788294546904
 21
278.7449922387174
 31
0.0
  0
LINE
  5
7059
330
7056
100
AcDbEntity
  8
0
 62
     0
100
AcDbLine
 10
382.5788294546903
 20
277.2449922387175
 30
0.0
 11
415.5788294546903
 21
277.2449922387175
 31
0.0
  0
INSERT
  5
705A
330
7056
100
AcDbEntity
  8
0
 62
     0
100
AcDbBlockReference
  2
_OPEN30
 10
377.5788294546903
 20
277.2449922387175
 30
0.0
 41
5.0
 42
5.0
 43
5.0
 50
180.0
  0
INSERT
  5
705B
330
7056
100
AcDbEntity
  8
0
 62
     0
100
AcDbBlockReference
  2
_OPEN30
 10
420.5788294546904
 20
277.2449922387175
 30
0.0
 41
5.0
 42
5.0
 43
5.0
  0
MTEXT
  5
705C
330
7056
100
AcDbEntity
  8
0
 62
     0
100
AcDbMText
 10
399.0788294546903
 20
281.2449922387175
 30
0.0
 40
5.0
 41
0.0
 71
     5
 72
     1
  1
\A1;43
1001
ACAD
1000
MTEXTBEGIN
1070
    73
1070
     1
1070
    44
1040
1.0
1070
    74
1070
     0
1000
MTEXTEND
1000
MTEXTBEGIN
1070
    73
1070
     1
1070
    44
1040
1.0
1070
    74
1070
     0
1000
MTEXTEND
1000
MTEXTBEGIN
1070
    73
1070
     1
1070
    44
1040
1.0
1070
    74
1070
     0
1000
MTEXTEND
1000
MTEXTBEGIN
1070
    73
1070
     1
1070
    44
1040
1.0
1070
    74
1070
     0
1000
MTEXTEND
1000
MTEXTBEGIN
1070
    73
1070
     1
1070
    44
1040
1.0
1070
    74
1070
     0
1000
MTEXTEND
1000
MTEXTBEGIN
1070
    73
1070
     1
1070
    44
1040
1.0
1070
    74
1070
     0
1000
MTEXTEND
1000
MTEXTBEGIN
1070
    73
1070
     1
1070
    44
1040
1.0
1070
    74
1070
     0
1000
MTEXTEND
  0
POINT
  5
705D
330
7056
100
AcDbEntity
  8
DEFPOINTS
 62
     0
100
AcDbPoint
 10
377.5788294546903
 20
262.6132030262035
 30
0.0
  0
POINT
  5
705E
330
7056
100
AcDbEntity
  8
DEFPOINTS
 62
     0
100
AcDbPoint
 10
420.5788294546904
 20
259.7133250241526
 30
0.0
  0
POINT
  5
705F
330
7056
100
AcDbEntity
  8
DEFPOINTS
 62
     0
100
AcDbPoint
 10
420.5788294546904
 20
277.2449922387175
 30
0.0
  0
ENDBLK
  5
7061
330
7056
100
AcDbEntity
  8
0
100
AcDbBlockEnd
  0
BLOCK
  5
706C
330
7062
100
AcDbEntity
  8
0
100
AcDbBlockBegin
  2
*D59
 70
     1
 10
0.0
 20
0.0
 30
0.0
  3
*D59
  1

  0
LINE
  5
7063
330
7062
100
AcDbEntity
  8
0
 62
     0
100
AcDbLine
 10
372.0788294546903
 20
317.9632641572616
 30
0.0
 11
372.0788294546903
 21
324.5648039407821
 31
0.0
  0
LINE
  5
7064
330
7062
100
AcDbEntity
  8
0
 62
     0
100
AcDbLine
 10
418.0788294546903
 20
317.9632641572616
 30
0.0
 11
418.0788294546903
 21
324.5648039407821
 31
0.0
  0
LINE
  5
7065
330
7062
100
AcDbEntity
  8
0
 62
     0
100
AcDbLine
 10
377.0788294546903
 20
323.0648039407822
 30
0.0
 11
413.0788294546903
 21
323.0648039407822
 31
0.0
  0
INSERT
  5
7066
330
7062
100
AcDbEntity
  8
0
 62
     0
100
AcDbBlockReference
  2
_OPEN30
 10
372.0788294546903
 20
323.0648039407822
 30
0.0
 41
5.0
 42
5.0
 43
5.0
 50
180.0
  0
INSERT
  5
7067
330
7062
100
AcDbEntity
  8
0
 62
     0
100
AcDbBlockReference
  2
_OPEN30
 10
418.0788294546903
 20
323.0648039407822
 30
0.0
 41
5.0
 42
5.0
 43
5.0
  0
MTEXT
  5
7068
330
7062
100
AcDbEntity
  8
0
 62
     0
100
AcDbMText
 10
395.0788294546903
 20
327.0648039407822
 30
0.0
 40
5.0
 41
0.0
 71
     5
 72
     1
  1
\A1;46
1001
ACAD
1000
MTEXTBEGIN
1070
    73
1070
     1
1070
    44
1040
1.0
1070
    74
1070
     0
1000
MTEXTEND
1000
MTEXTBEGIN
1070
    73
1070
     1
1070
    44
1040
1.0
1070
    74
1070
     0
1000
MTEXTEND
1000
MTEXTBEGIN
1070
    73
1070
     1
1070
    44
1040
1.0
1070
    74
1070
     0
1000
MTEXTEND
1000
MTEXTBEGIN
1070
    73
1070
     1
1070
    44
1040
1.0
1070
    74
1070
     0
1000
MTEXTEND
1000
MTEXTBEGIN
1070
    73
1070
     1
1070
    44
1040
1.0
1070
    74
1070
     0
1000
MTEXTEND
1000
MTEXTBEGIN
1070
    73
1070
     1
1070
    44
1040
1.0
1070
    74
1070
     0
1000
MTEXTEND
1000
MTEXTBEGIN
1070
    73
1070
     1
1070
    44
1040
1.0
1070
    74
1070
     0
1000
MTEXTEND
  0
POINT
  5
7069
330
7062
100
AcDbEntity
  8
DEFPOINTS
 62
     0
100
AcDbPoint
 10
372.0788294546903
 20
316.4632641572616
 30
0.0
  0
POINT
  5
706A
330
7062
100
AcDbEntity
  8
DEFPOINTS
 62
     0
100
AcDbPoint
 10
418.0788294546903
 20
316.4632641572616
 30
0.0
  0
POINT
  5
706B
330
7062
100
AcDbEntity
  8
DEFPOINTS
 62
     0
100
AcDbPoint
 10
418.0788294546903
 20
323.0648039407822
 30
0.0
  0
ENDBLK
  5
706D
330
7062
100
AcDbEntity
  8
0
100
AcDbBlockEnd
  0
BLOCK
  5
7078
330
706E
100
AcDbEntity
  8
0
100
AcDbBlockBegin
  2
*D60
 70
     1
 10
0.0
 20
0.0
 30
0.0
  3
*D60
  1

  0
LINE
  5
706F
330
706E
100
AcDbEntity
  8
0
 62
     0
100
AcDbLine
 10
336.5788331381421
 20
218.5258102533195
 30
0.0
 11
336.5788331381421
 21
124.6930240248832
 31
0.0
  0
LINE
  5
7070
330
706E
100
AcDbEntity
  8
0
 62
     0
100
AcDbLine
 10
420.5788294546904
 20
172.2132099652876
 30
0.0
 11
420.5788294546904
 21
124.6930240248832
 31
0.0
  0
LINE
  5
7071
330
706E
100
AcDbEntity
  8
0
 62
     0
100
AcDbLine
 10
341.5788331381421
 20
126.1930240248831
 30
0.0
 11
415.5788294546903
 21
126.1930240248831
 31
0.0
  0
INSERT
  5
7072
330
706E
100
AcDbEntity
  8
0
 62
     0
100
AcDbBlockReference
  2
_OPEN30
 10
336.5788331381421
 20
126.1930240248831
 30
0.0
 41
5.0
 42
5.0
 43
5.0
 50
180.0
  0
INSERT
  5
7073
330
706E
100
AcDbEntity
  8
0
 62
     0
100
AcDbBlockReference
  2
_OPEN30
 10
420.5788294546904
 20
126.1930240248831
 30
0.0
 41
5.0
 42
5.0
 43
5.0
  0
MTEXT
  5
7074
330
706E
100
AcDbEntity
  8
0
 62
     0
100
AcDbMText
 10
378.578831296416
 20
130.1930240248831
 30
0.0
 40
5.0
 41
0.0
 71
     5
 72
     1
  1
\A1;84
1001
ACAD
1000
MTEXTBEGIN
1070
    73
1070
     1
1070
    44
1040
1.0
1070
    74
1070
     0
1000
MTEXTEND
1000
MTEXTBEGIN
1070
    73
1070
     1
1070
    44
1040
1.0
1070
    74
1070
     0
1000
MTEXTEND
1000
MTEXTBEGIN
1070
    73
1070
     1
1070
    44
1040
1.0
1070
    74
1070
     0
1000
MTEXTEND
1000
MTEXTBEGIN
1070
    73
1070
     1
1070
    44
1040
1.0
1070
    74
1070
     0
1000
MTEXTEND
1000
MTEXTBEGIN
1070
    73
1070
     1
1070
    44
1040
1.0
1070
    74
1070
     0
1000
MTEXTEND
1000
MTEXTBEGIN
1070
    73
1070
     1
1070
    44
1040
1.0
1070
    74
1070
     0
1000
MTEXTEND
1000
MTEXTBEGIN
1070
    73
1070
     1
1070
    44
1040
1.0
1070
    74
1070
     0
1000
MTEXTEND
  0
POINT
  5
7075
330
706E
100
AcDbEntity
  8
DEFPOINTS
 62
     0
100
AcDbPoint
 10
336.5788331381421
 20
220.0258102533195
 30
0.0
  0
POINT
  5
7076
330
706E
100
AcDbEntity
  8
DEFPOINTS
 62
     0
100
AcDbPoint
 10
420.5788294546904
 20
173.7132099652876
 30
0.0
  0
POINT
  5
7077
330
706E
100
AcDbEntity
  8
DEFPOINTS
 62
     0
100
AcDbPoint
 10
420.5788294546904
 20
126.1930240248831
 30
0.0
  0
ENDBLK
  5
7079
330
706E
100
AcDbEntity
  8
0
100
AcDbBlockEnd
  0
BLOCK
  5
7084
330
707A
100
AcDbEntity
  8
0
100
AcDbBlockBegin
  2
*D61
 70
     1
 10
0.0
 20
0.0
 30
0.0
  3
*D61
  1

  0
LINE
  5
707B
330
707A
100
AcDbEntity
  8
0
 62
     0
100
AcDbLine
 10
360.5788889941543
 20
178.3132909889326
 30
0.0
 11
360.5788889941543
 21
137.6237382359144
 31
0.0
  0
LINE
  5
707C
330
707A
100
AcDbEntity
  8
0
 62
     0
100
AcDbLine
 10
420.5484449599572
 20
170.3659654811785
 30
0.0
 11
420.5484449599572
 21
137.6237382359144
 31
0.0
  0
LINE
  5
707D
330
707A
100
AcDbEntity
  8
0
 62
     0
100
AcDbLine
 10
365.5788889941542
 20
139.1237382359139
 30
0.0
 11
415.5484449599573
 21
139.1237382359139
 31
0.0
  0
INSERT
  5
707E
330
707A
100
AcDbEntity
  8
0
 62
     0
100
AcDbBlockReference
  2
_OPEN30
 10
360.5788889941543
 20
139.1237382359139
 30
0.0
 41
5.0
 42
5.0
 43
5.0
 50
180.0
  0
INSERT
  5
707F
330
707A
100
AcDbEntity
  8
0
 62
     0
100
AcDbBlockReference
  2
_OPEN30
 10
420.5484449599572
 20
139.1237382359139
 30
0.0
 41
5.0
 42
5.0
 43
5.0
  0
MTEXT
  5
7080
330
707A
100
AcDbEntity
  8
0
 62
     0
100
AcDbMText
 10
390.5636669770558
 20
143.1237382359143
 30
0.0
 40
5.0
 41
0.0
 71
     5
 72
     1
  1
\A1;60
1001
ACAD
1000
MTEXTBEGIN
1070
    73
1070
     1
1070
    44
1040
1.0
1070
    74
1070
     0
1000
MTEXTEND
1000
MTEXTBEGIN
1070
    73
1070
     1
1070
    44
1040
1.0
1070
    74
1070
     0
1000
MTEXTEND
1000
MTEXTBEGIN
1070
    73
1070
     1
1070
    44
1040
1.0
1070
    74
1070
     0
1000
MTEXTEND
1000
MTEXTBEGIN
1070
    73
1070
     1
1070
    44
1040
1.0
1070
    74
1070
     0
1000
MTEXTEND
1000
MTEXTBEGIN
1070
    73
1070
     1
1070
    44
1040
1.0
1070
    74
1070
     0
1000
MTEXTEND
1000
MTEXTBEGIN
1070
    73
1070
     1
1070
    44
1040
1.0
1070
    74
1070
     0
1000
MTEXTEND
1000
MTEXTBEGIN
1070
    73
1070
     1
1070
    44
1040
1.0
1070
    74
1070
     0
1000
MTEXTEND
  0
POINT
  5
7081
330
707A
100
AcDbEntity
  8
DEFPOINTS
 62
     0
100
AcDbPoint
 10
360.5788889941543
 20
179.8132909889326
 30
0.0
  0
POINT
  5
7082
330
707A
100
AcDbEntity
  8
DEFPOINTS
 62
     0
100
AcDbPoint
 10
420.5484449599572
 20
171.8659654811785
 30
0.0
  0
POINT
  5
7083
330
707A
100
AcDbEntity
  8
DEFPOINTS
 62
     0
100
AcDbPoint
 10
420.5484449599572
 20
139.1237382359139
 30
0.0
  0
ENDBLK
  5
7085
330
707A
100
AcDbEntity
  8
0
100
AcDbBlockEnd
  0
BLOCK
  5
7090
330
7086
100
AcDbEntity
  8
0
100
AcDbBlockBegin
  2
*D62
 70
     1
 10
0.0
 20
0.0
 30
0.0
  3
*D62
  1

  0
LINE
  5
7087
330
7086
100
AcDbEntity
  8
0
 62
     0
100
AcDbLine
 10
369.5788587009303
 20
165.4633227120623
 30
0.0
 11
369.5788587009303
 21
149.3310841350393
 31
0.0
  0
LINE
  5
7088
330
7086
100
AcDbEntity
  8
0
 62
     0
100
AcDbLine
 10
420.5484449599572
 20
171.8659654811785
 30
0.0
 11
420.5484449599572
 21
149.3310841350393
 31
0.0
  0
LINE
  5
7089
330
7086
100
AcDbEntity
  8
0
 62
     0
100
AcDbLine
 10
374.5788587009303
 20
150.8310841350393
 30
0.0
 11
415.5484449599573
 21
150.8310841350393
 31
0.0
  0
INSERT
  5
708A
330
7086
100
AcDbEntity
  8
0
 62
     0
100
AcDbBlockReference
  2
_OPEN30
 10
369.5788587009303
 20
150.8310841350393
 30
0.0
 41
5.0
 42
5.0
 43
5.0
 50
180.0
  0
INSERT
  5
708B
330
7086
100
AcDbEntity
  8
0
 62
     0
100
AcDbBlockReference
  2
_OPEN30
 10
420.5484449599572
 20
150.8310841350393
 30
0.0
 41
5.0
 42
5.0
 43
5.0
  0
MTEXT
  5
708C
330
7086
100
AcDbEntity
  8
0
 62
     0
100
AcDbMText
 10
395.0636518304438
 20
154.8310841350389
 30
0.0
 40
5.0
 41
0.0
 71
     5
 72
     1
  1
\A1;51
1001
ACAD
1000
MTEXTBEGIN
1070
    73
1070
     1
1070
    44
1040
1.0
1070
    74
1070
     0
1000
MTEXTEND
1000
MTEXTBEGIN
1070
    73
1070
     1
1070
    44
1040
1.0
1070
    74
1070
     0
1000
MTEXTEND
1000
MTEXTBEGIN
1070
    73
1070
     1
1070
    44
1040
1.0
1070
    74
1070
     0
1000
MTEXTEND
1000
MTEXTBEGIN
1070
    73
1070
     1
1070
    44
1040
1.0
1070
    74
1070
     0
1000
MTEXTEND
1000
MTEXTBEGIN
1070
    73
1070
     1
1070
    44
1040
1.0
1070
    74
1070
     0
1000
MTEXTEND
1000
MTEXTBEGIN
1070
    73
1070
     1
1070
    44
1040
1.0
1070
    74
1070
     0
1000
MTEXTEND
1000
MTEXTBEGIN
1070
    73
1070
     1
1070
    44
1040
1.0
1070
    74
1070
     0
1000
MTEXTEND
  0
POINT
  5
708D
330
7086
100
AcDbEntity
  8
DEFPOINTS
 62
     0
100
AcDbPoint
 10
369.5788587009303
 20
166.9633227120626
 30
0.0
  0
POINT
  5
708E
330
7086
100
AcDbEntity
  8
DEFPOINTS
 62
     0
100
AcDbPoint
 10
420.5484449599572
 20
173.3659654811785
 30
0.0
  0
POINT
  5
708F
330
7086
100
AcDbEntity
  8
DEFPOINTS
 62
     0
100
AcDbPoint
 10
420.5484449599572
 20
150.8310841350393
 30
0.0
  0
ENDBLK
  5
7091
330
7086
100
AcDbEntity
  8
0
100
AcDbBlockEnd
  0
BLOCK
  5
709E
330
7092
100
AcDbEntity
  8
0
100
AcDbBlockBegin
  2
*D63
 70
     1
 10
0.0
 20
0.0
 30
0.0
  3
*D63
  1

  0
LINE
  5
7093
330
7092
100
AcDbEntity
  8
0
 62
     0
100
AcDbLine
 10
352.5789193830194
 20
190.7133233414993
 30
0.0
 11
352.5789193830194
 21
153.3075189586377
 31
0.0
  0
LINE
  5
7094
330
7092
100
AcDbEntity
  8
0
 62
     0
100
AcDbLine
 10
348.5789194247284
 20
190.7133233415006
 30
0.0
 11
348.5789194247284
 21
153.3075189586377
 31
0.0
  0
LINE
  5
7095
330
7092
100
AcDbEntity
  8
0
 62
     0
100
AcDbLine
 10
357.5789193830194
 20
154.8075189586377
 30
0.0
 11
362.5789193830194
 21
154.8075189586377
 31
0.0
  0
LINE
  5
7096
330
7092
100
AcDbEntity
  8
0
 62
     0
100
AcDbLine
 10
343.5789194247283
 20
154.8075189586377
 30
0.0
 11
332.245586091395
 21
154.8075189586377
 31
0.0
  0
LINE
  5
7097
330
7092
100
AcDbEntity
  8
0
 62
     0
100
AcDbLine
 10
352.5789193830194
 20
154.8075189586377
 30
0.0
 11
348.5789194247284
 21
154.8075189586377
 31
0.0
  0
INSERT
  5
7098
330
7092
100
AcDbEntity
  8
0
 62
     0
100
AcDbBlockReference
  2
_OPEN30
 10
352.5789193830194
 20
154.8075189586377
 30
0.0
 41
5.0
 42
5.0
 43
5.0
 50
180.0
  0
INSERT
  5
7099
330
7092
100
AcDbEntity
  8
0
 62
     0
100
AcDbBlockReference
  2
_OPEN30
 10
348.5789194247284
 20
154.8075189586377
 30
0.0
 41
5.0
 42
5.0
 43
5.0
  0
MTEXT
  5
709A
330
7092
100
AcDbEntity
  8
0
 62
     0
100
AcDbMText
 10
335.4122527580617
 20
158.8075189586374
 30
0.0
 40
5.0
 41
0.0
 71
     5
 72
     1
  1
\A1;4
1001
ACAD
1000
MTEXTBEGIN
1070
    73
1070
     1
1070
    44
1040
1.0
1070
    74
1070
     0
1000
MTEXTEND
1000
MTEXTBEGIN
1070
    73
1070
     1
1070
    44
1040
1.0
1070
    74
1070
     0
1000
MTEXTEND
1000
MTEXTBEGIN
1070
    73
1070
     1
1070
    44
1040
1.0
1070
    74
1070
     0
1000
MTEXTEND
1000
MTEXTBEGIN
1070
    73
1070
     1
1070
    44
1040
1.0
1070
    74
1070
     0
1000
MTEXTEND
1000
MTEXTBEGIN
1070
    73
1070
     1
1070
    44
1040
1.0
1070
    74
1070
     0
1000
MTEXTEND
1000
MTEXTBEGIN
1070
    73
1070
     1
1070
    44
1040
1.0
1070
    74
1070
     0
1000
MTEXTEND
1000
MTEXTBEGIN
1070
    73
1070
     1
1070
    44
1040
1.0
1070
    74
1070
     0
1000
MTEXTEND
  0
POINT
  5
709B
330
7092
100
AcDbEntity
  8
DEFPOINTS
 62
     0
100
AcDbPoint
 10
352.5789193830194
 20
192.2133233414996
 30
0.0
  0
POINT
  5
709C
330
7092
100
AcDbEntity
  8
DEFPOINTS
 62
     0
100
AcDbPoint
 10
348.5789194247284
 20
192.2133233415006
 30
0.0
  0
POINT
  5
709D
330
7092
100
AcDbEntity
  8
DEFPOINTS
 62
     0
100
AcDbPoint
 10
348.5789194247284
 20
154.8075189586377
 30
0.0
  0
ENDBLK
  5
709F
330
7092
100
AcDbEntity
  8
0
100
AcDbBlockEnd
  0
BLOCK
  5
70AC
330
70A0
100
AcDbEntity
  8
0
100
AcDbBlockBegin
  2
*D64
 70
     1
 10
0.0
 20
0.0
 30
0.0
  3
*D64
  1

  0
LINE
  5
70A1
330
70A0
100
AcDbEntity
  8
0
 62
     0
100
AcDbLine
 10
360.5788889941543
 20
176.8132909889326
 30
0.0
 11
360.5788889941543
 21
137.6237382359144
 31
0.0
  0
LINE
  5
70A2
330
70A0
100
AcDbEntity
  8
0
 62
     0
100
AcDbLine
 10
352.5789193830194
 20
190.7133233414986
 30
0.0
 11
352.5789193830194
 21
137.6237382359144
 31
0.0
  0
LINE
  5
70A3
330
70A0
100
AcDbEntity
  8
0
 62
     0
100
AcDbLine
 10
365.5788889941542
 20
139.1237382359139
 30
0.0
 11
370.5788889941542
 21
139.1237382359139
 31
0.0
  0
LINE
  5
70A4
330
70A0
100
AcDbEntity
  8
0
 62
     0
100
AcDbLine
 10
347.5789193830194
 20
139.1237382359139
 30
0.0
 11
342.5789193830193
 21
139.1237382359139
 31
0.0
  0
LINE
  5
70A5
330
70A0
100
AcDbEntity
  8
0
 62
     0
100
AcDbLine
 10
360.5788889941543
 20
139.1237382359139
 30
0.0
 11
352.5789193830194
 21
139.1237382359139
 31
0.0
  0
INSERT
  5
70A6
330
70A0
100
AcDbEntity
  8
0
 62
     0
100
AcDbBlockReference
  2
_OPEN30
 10
360.5788889941543
 20
139.1237382359139
 30
0.0
 41
5.0
 42
5.0
 43
5.0
 50
180.0
  0
INSERT
  5
70A7
330
70A0
100
AcDbEntity
  8
0
 62
     0
100
AcDbBlockReference
  2
_OPEN30
 10
352.5789193830194
 20
139.1237382359139
 30
0.0
 41
5.0
 42
5.0
 43
5.0
  0
MTEXT
  5
70A8
330
70A0
100
AcDbEntity
  8
0
 62
     0
100
AcDbMText
 10
356.5789041885868
 20
143.1237382359143
 30
0.0
 40
5.0
 41
0.0
 71
     5
 72
     1
  1
\A1;8
1001
ACAD
1000
MTEXTBEGIN
1070
    73
1070
     1
1070
    44
1040
1.0
1070
    74
1070
     0
1000
MTEXTEND
1000
MTEXTBEGIN
1070
    73
1070
     1
1070
    44
1040
1.0
1070
    74
1070
     0
1000
MTEXTEND
1000
MTEXTBEGIN
1070
    73
1070
     1
1070
    44
1040
1.0
1070
    74
1070
     0
1000
MTEXTEND
1000
MTEXTBEGIN
1070
    73
1070
     1
1070
    44
1040
1.0
1070
    74
1070
     0
1000
MTEXTEND
1000
MTEXTBEGIN
1070
    73
1070
     1
1070
    44
1040
1.0
1070
    74
1070
     0
1000
MTEXTEND
1000
MTEXTBEGIN
1070
    73
1070
     1
1070
    44
1040
1.0
1070
    74
1070
     0
1000
MTEXTEND
1000
MTEXTBEGIN
1070
    73
1070
     1
1070
    44
1040
1.0
1070
    74
1070
     0
1000
MTEXTEND
  0
POINT
  5
70A9
330
70A0
100
AcDbEntity
  8
DEFPOINTS
 62
     0
100
AcDbPoint
 10
360.5788889941543
 20
178.3132909889326
 30
0.0
  0
POINT
  5
70AA
330
70A0
100
AcDbEntity
  8
DEFPOINTS
 62
     0
100
AcDbPoint
 10
352.5789193830194
 20
192.2133233414986
 30
0.0
  0
POINT
  5
70AB
330
70A0
100
AcDbEntity
  8
DEFPOINTS
 62
     0
100
AcDbPoint
 10
352.5789193830194
 20
139.1237382359139
 30
0.0
  0
ENDBLK
  5
70AD
330
70A0
100
AcDbEntity
  8
0
100
AcDbBlockEnd
  0
BLOCK
  5
70BA
330
70AE
100
AcDbEntity
  8
0
100
AcDbBlockBegin
  2
*D65
 70
     1
 10
0.0
 20
0.0
 30
0.0
  3
*D65
  1

  0
LINE
  5
70AF
330
70AE
100
AcDbEntity
  8
0
 62
     0
100
AcDbLine
 10
418.0788294546903
 20
317.9632641572616
 30
0.0
 11
418.0788294546903
 21
324.5648039407821
 31
0.0
  0
LINE
  5
70B0
330
70AE
100
AcDbEntity
  8
0
 62
     0
100
AcDbLine
 10
420.5788294546904
 20
261.2133250241526
 30
0.0
 11
420.5788294546904
 21
324.5648039407821
 31
0.0
  0
LINE
  5
70B1
330
70AE
100
AcDbEntity
  8
0
 62
     0
100
AcDbLine
 10
413.0788294546903
 20
323.0648039407822
 30
0.0
 11
408.0788294546903
 21
323.0648039407822
 31
0.0
  0
LINE
  5
70B2
330
70AE
100
AcDbEntity
  8
0
 62
     0
100
AcDbLine
 10
425.5788294546904
 20
323.0648039407822
 30
0.0
 11
443.5788294546902
 21
323.0648039407822
 31
0.0
  0
LINE
  5
70B3
330
70AE
100
AcDbEntity
  8
0
 62
     0
100
AcDbLine
 10
418.0788294546903
 20
323.0648039407822
 30
0.0
 11
420.5788294546904
 21
323.0648039407822
 31
0.0
  0
INSERT
  5
70B4
330
70AE
100
AcDbEntity
  8
0
 62
     0
100
AcDbBlockReference
  2
_OPEN30
 10
418.0788294546903
 20
323.0648039407822
 30
0.0
 41
5.0
 42
5.0
 43
5.0
  0
INSERT
  5
70B5
330
70AE
100
AcDbEntity
  8
0
 62
     0
100
AcDbBlockReference
  2
_OPEN30
 10
420.5788294546904
 20
323.0648039407822
 30
0.0
 41
5.0
 42
5.0
 43
5.0
 50
180.0
  0
MTEXT
  5
70B6
330
70AE
100
AcDbEntity
  8
0
 62
     0
100
AcDbMText
 10
437.0788294546904
 20
327.0648039407822
 30
0.0
 40
5.0
 41
0.0
 71
     5
 72
     1
  1
\A1;2.5
1001
ACAD
1000
MTEXTBEGIN
1070
    73
1070
     1
1070
    44
1040
1.0
1070
    74
1070
     0
1000
MTEXTEND
1000
MTEXTBEGIN
1070
    73
1070
     1
1070
    44
1040
1.0
1070
    74
1070
     0
1000
MTEXTEND
1000
MTEXTBEGIN
1070
    73
1070
     1
1070
    44
1040
1.0
1070
    74
1070
     0
1000
MTEXTEND
1000
MTEXTBEGIN
1070
    73
1070
     1
1070
    44
1040
1.0
1070
    74
1070
     0
1000
MTEXTEND
1000
MTEXTBEGIN
1070
    73
1070
     1
1070
    44
1040
1.0
1070
    74
1070
     0
1000
MTEXTEND
1000
MTEXTBEGIN
1070
    73
1070
     1
1070
    44
1040
1.0
1070
    74
1070
     0
1000
MTEXTEND
1000
MTEXTBEGIN
1070
    73
1070
     1
1070
    44
1040
1.0
1070
    74
1070
     0
1000
MTEXTEND
  0
POINT
  5
70B7
330
70AE
100
AcDbEntity
  8
DEFPOINTS
 62
     0
100
AcDbPoint
 10
418.0788294546903
 20
316.4632641572616
 30
0.0
  0
POINT
  5
70B8
330
70AE
100
AcDbEntity
  8
DEFPOINTS
 62
     0
100
AcDbPoint
 10
420.5788294546904
 20
259.7133250241526
 30
0.0
  0
POINT
  5
70B9
330
70AE
100
AcDbEntity
  8
DEFPOINTS
 62
     0
100
AcDbPoint
 10
420.5788294546904
 20
323.0648039407822
 30
0.0
  0
ENDBLK
  5
70BB
330
70AE
100
AcDbEntity
  8
0
100
AcDbBlockEnd
  0
BLOCK
  5
7177
330
716D
100
AcDbEntity
  8
0
100
AcDbBlockBegin
  2
*D66
 70
     1
 10
0.0
 20
0.0
 30
0.0
  3
*D66
  1

  0
LINE
  5
723D
330
716D
100
AcDbEntity
  8
30
  6
CONTINUOUS
 62
     0
100
AcDbLine
 10
203.1854629012314
 20
46.89994010912006
 30
0.0
 11
203.1854629012314
 21
61.03172932163399
 31
0.0
  0
LINE
  5
723E
330
716D
100
AcDbEntity
  8
30
  6
CONTINUOUS
 62
     0
100
AcDbLine
 10
246.1854629012317
 20
44.0000621070691
 30
0.0
 11
246.1854629012317
 21
61.03172932163399
 31
0.0
  0
LINE
  5
723F
330
716D
100
AcDbEntity
  8
30
  6
CONTINUOUS
 62
     0
100
AcDbLine
 10
205.1854629012314
 20
60.53172932163398
 30
0.0
 11
244.1854629012317
 21
60.53172932163398
 31
0.0
  0
INSERT
  5
7240
330
716D
100
AcDbEntity
  8
30
  6
CONTINUOUS
 62
     0
100
AcDbBlockReference
  2
_OPEN
 10
203.1854629012314
 20
60.53172932163398
 30
0.0
 41
2.0
 42
2.0
 43
2.0
 50
180.0
  0
INSERT
  5
7241
330
716D
100
AcDbEntity
  8
30
  6
CONTINUOUS
 62
     0
100
AcDbBlockReference
  2
_OPEN
 10
246.1854629012317
 20
60.53172932163398
 30
0.0
 41
2.0
 42
2.0
 43
2.0
  0
MTEXT
  5
7242
330
716D
100
AcDbEntity
  8
30
  6
CONTINUOUS
 62
     0
100
AcDbMText
 10
224.6854629012315
 20
63.53172932163399
 30
0.0
 40
4.0
 41
0.0
 71
     5
 72
     1
  1
\A1;43
1001
ACAD
1000
MTEXTBEGIN
1070
    73
1070
     1
1070
    44
1040
1.0
1070
    74
1070
     0
1000
MTEXTEND
1000
MTEXTBEGIN
1070
    73
1070
     1
1070
    44
1040
1.0
1070
    74
1070
     0
1000
MTEXTEND
1000
MTEXTBEGIN
1070
    73
1070
     1
1070
    44
1040
1.0
1070
    74
1070
     0
1000
MTEXTEND
1000
MTEXTBEGIN
1070
    73
1070
     1
1070
    44
1040
1.0
1070
    74
1070
     0
1000
MTEXTEND
1000
MTEXTBEGIN
1070
    73
1070
     1
1070
    44
1040
1.0
1070
    74
1070
     0
1000
MTEXTEND
1000
MTEXTBEGIN
1070
    73
1070
     1
1070
    44
1040
1.0
1070
    74
1070
     0
1000
MTEXTEND
1000
MTEXTBEGIN
1070
    73
1070
     1
1070
    44
1040
1.0
1070
    74
1070
     0
1000
MTEXTEND
  0
POINT
  5
7243
330
716D
100
AcDbEntity
  8
DEFPOINTS
  6
CONTINUOUS
 62
     0
100
AcDbPoint
 10
203.1854629012314
 20
45.89994010912007
 30
0.0
  0
POINT
  5
7244
330
716D
100
AcDbEntity
  8
DEFPOINTS
  6
CONTINUOUS
 62
     0
100
AcDbPoint
 10
246.1854629012317
 20
43.0000621070691
 30
0.0
  0
POINT
  5
7245
330
716D
100
AcDbEntity
  8
DEFPOINTS
  6
CONTINUOUS
 62
     0
100
AcDbPoint
 10
246.1854629012317
 20
60.53172932163398
 30
0.0
  0
ENDBLK
  5
7178
330
716D
100
AcDbEntity
  8
0
100
AcDbBlockEnd
  0
BLOCK
  5
7183
330
7179
100
AcDbEntity
  8
0
100
AcDbBlockBegin
  2
*D67
 70
     1
 10
0.0
 20
0.0
 30
0.0
  3
*D67
  1

  0
LINE
  5
7234
330
7179
100
AcDbEntity
  8
30
  6
CONTINUOUS
 62
     0
100
AcDbLine
 10
197.6854629012317
 20
100.7500012401778
 30
0.0
 11
197.6854629012317
 21
106.8515410236987
 31
0.0
  0
LINE
  5
7235
330
7179
100
AcDbEntity
  8
30
  6
CONTINUOUS
 62
     0
100
AcDbLine
 10
243.6854629012314
 20
100.7500012401778
 30
0.0
 11
243.6854629012314
 21
106.8515410236987
 31
0.0
  0
LINE
  5
7236
330
7179
100
AcDbEntity
  8
30
  6
CONTINUOUS
 62
     0
100
AcDbLine
 10
199.6854629012315
 20
106.3515410236987
 30
0.0
 11
241.6854629012314
 21
106.3515410236987
 31
0.0
  0
INSERT
  5
7237
330
7179
100
AcDbEntity
  8
30
  6
CONTINUOUS
 62
     0
100
AcDbBlockReference
  2
_OPEN
 10
197.6854629012317
 20
106.3515410236987
 30
0.0
 41
2.0
 42
2.0
 43
2.0
 50
180.0
  0
INSERT
  5
7238
330
7179
100
AcDbEntity
  8
30
  6
CONTINUOUS
 62
     0
100
AcDbBlockReference
  2
_OPEN
 10
243.6854629012314
 20
106.3515410236987
 30
0.0
 41
2.0
 42
2.0
 43
2.0
  0
MTEXT
  5
7239
330
7179
100
AcDbEntity
  8
30
  6
CONTINUOUS
 62
     0
100
AcDbMText
 10
220.6854629012314
 20
109.3515410236987
 30
0.0
 40
4.0
 41
0.0
 71
     5
 72
     1
  1
\A1;46
1001
ACAD
1000
MTEXTBEGIN
1070
    73
1070
     1
1070
    44
1040
1.0
1070
    74
1070
     0
1000
MTEXTEND
1000
MTEXTBEGIN
1070
    73
1070
     1
1070
    44
1040
1.0
1070
    74
1070
     0
1000
MTEXTEND
1000
MTEXTBEGIN
1070
    73
1070
     1
1070
    44
1040
1.0
1070
    74
1070
     0
1000
MTEXTEND
1000
MTEXTBEGIN
1070
    73
1070
     1
1070
    44
1040
1.0
1070
    74
1070
     0
1000
MTEXTEND
1000
MTEXTBEGIN
1070
    73
1070
     1
1070
    44
1040
1.0
1070
    74
1070
     0
1000
MTEXTEND
1000
MTEXTBEGIN
1070
    73
1070
     1
1070
    44
1040
1.0
1070
    74
1070
     0
1000
MTEXTEND
1000
MTEXTBEGIN
1070
    73
1070
     1
1070
    44
1040
1.0
1070
    74
1070
     0
1000
MTEXTEND
  0
POINT
  5
723A
330
7179
100
AcDbEntity
  8
DEFPOINTS
  6
CONTINUOUS
 62
     0
100
AcDbPoint
 10
197.6854629012317
 20
99.75000124017812
 30
0.0
  0
POINT
  5
723B
330
7179
100
AcDbEntity
  8
DEFPOINTS
  6
CONTINUOUS
 62
     0
100
AcDbPoint
 10
243.6854629012314
 20
99.75000124017812
 30
0.0
  0
POINT
  5
723C
330
7179
100
AcDbEntity
  8
DEFPOINTS
  6
CONTINUOUS
 62
     0
100
AcDbPoint
 10
243.6854629012314
 20
106.3515410236987
 30
0.0
  0
ENDBLK
  5
7184
330
7179
100
AcDbEntity
  8
0
100
AcDbBlockEnd
  0
BLOCK
  5
718F
330
7185
100
AcDbEntity
  8
0
100
AcDbBlockBegin
  2
*D68
 70
     1
 10
0.0
 20
0.0
 30
0.0
  3
*D68
  1

  0
LINE
  5
7262
330
7185
100
AcDbEntity
  8
30
  6
CONTINUOUS
 62
     0
100
AcDbLine
 10
186.1855224406956
 20
-37.89997192815089
 30
0.0
 11
186.1855224406956
 21
-78.08952468116901
 31
0.0
  0
LINE
  5
7263
330
7185
100
AcDbEntity
  8
30
  6
CONTINUOUS
 62
     0
100
AcDbLine
 10
246.1550784064987
 20
-45.84729743590489
 30
0.0
 11
246.1550784064987
 21
-78.08952468116901
 31
0.0
  0
LINE
  5
7264
330
7185
100
AcDbEntity
  8
30
  6
CONTINUOUS
 62
     0
100
AcDbLine
 10
188.1855224406956
 20
-77.58952468116901
 30
0.0
 11
244.1550784064987
 21
-77.58952468116901
 31
0.0
  0
INSERT
  5
7265
330
7185
100
AcDbEntity
  8
30
  6
CONTINUOUS
 62
     0
100
AcDbBlockReference
  2
_OPEN
 10
186.1855224406956
 20
-77.58952468116901
 30
0.0
 41
2.0
 42
2.0
 43
2.0
 50
180.0
  0
INSERT
  5
7266
330
7185
100
AcDbEntity
  8
30
  6
CONTINUOUS
 62
     0
100
AcDbBlockReference
  2
_OPEN
 10
246.1550784064987
 20
-77.58952468116901
 30
0.0
 41
2.0
 42
2.0
 43
2.0
  0
MTEXT
  5
7267
330
7185
100
AcDbEntity
  8
30
  6
CONTINUOUS
 62
     0
100
AcDbMText
 10
216.1703004235969
 20
-74.58952468116901
 30
0.0
 40
4.0
 41
0.0
 71
     5
 72
     1
  1
\A1;60
1001
ACAD
1000
MTEXTBEGIN
1070
    73
1070
     1
1070
    44
1040
1.0
1070
    74
1070
     0
1000
MTEXTEND
1000
MTEXTBEGIN
1070
    73
1070
     1
1070
    44
1040
1.0
1070
    74
1070
     0
1000
MTEXTEND
1000
MTEXTBEGIN
1070
    73
1070
     1
1070
    44
1040
1.0
1070
    74
1070
     0
1000
MTEXTEND
1000
MTEXTBEGIN
1070
    73
1070
     1
1070
    44
1040
1.0
1070
    74
1070
     0
1000
MTEXTEND
1000
MTEXTBEGIN
1070
    73
1070
     1
1070
    44
1040
1.0
1070
    74
1070
     0
1000
MTEXTEND
1000
MTEXTBEGIN
1070
    73
1070
     1
1070
    44
1040
1.0
1070
    74
1070
     0
1000
MTEXTEND
1000
MTEXTBEGIN
1070
    73
1070
     1
1070
    44
1040
1.0
1070
    74
1070
     0
1000
MTEXTEND
  0
POINT
  5
7268
330
7185
100
AcDbEntity
  8
DEFPOINTS
  6
CONTINUOUS
 62
     0
100
AcDbPoint
 10
186.1855224406956
 20
-36.89997192815089
 30
0.0
  0
POINT
  5
7269
330
7185
100
AcDbEntity
  8
DEFPOINTS
  6
CONTINUOUS
 62
     0
100
AcDbPoint
 10
246.1550784064987
 20
-44.84729743590491
 30
0.0
  0
POINT
  5
726A
330
7185
100
AcDbEntity
  8
DEFPOINTS
  6
CONTINUOUS
 62
     0
100
AcDbPoint
 10
246.1550784064987
 20
-77.58952468116901
 30
0.0
  0
ENDBLK
  5
7190
330
7185
100
AcDbEntity
  8
0
100
AcDbBlockEnd
  0
BLOCK
  5
719B
330
7191
100
AcDbEntity
  8
0
100
AcDbBlockBegin
  2
*D69
 70
     1
 10
0.0
 20
0.0
 30
0.0
  3
*D69
  1

  0
LINE
  5
7259
330
7191
100
AcDbEntity
  8
30
  6
CONTINUOUS
 62
     0
100
AcDbLine
 10
195.1854921474717
 20
-50.7499402050209
 30
0.0
 11
195.1854921474717
 21
-66.38217878204419
 31
0.0
  0
LINE
  5
725A
330
7191
100
AcDbEntity
  8
30
  6
CONTINUOUS
 62
     0
100
AcDbLine
 10
246.1550784064987
 20
-44.34729743590489
 30
0.0
 11
246.1550784064987
 21
-66.38217878204419
 31
0.0
  0
LINE
  5
725B
330
7191
100
AcDbEntity
  8
30
  6
CONTINUOUS
 62
     0
100
AcDbLine
 10
197.1854921474717
 20
-65.88217878204419
 30
0.0
 11
244.1550784064987
 21
-65.88217878204419
 31
0.0
  0
INSERT
  5
725C
330
7191
100
AcDbEntity
  8
30
  6
CONTINUOUS
 62
     0
100
AcDbBlockReference
  2
_OPEN
 10
195.1854921474717
 20
-65.88217878204419
 30
0.0
 41
2.0
 42
2.0
 43
2.0
 50
180.0
  0
INSERT
  5
725D
330
7191
100
AcDbEntity
  8
30
  6
CONTINUOUS
 62
     0
100
AcDbBlockReference
  2
_OPEN
 10
246.1550784064987
 20
-65.88217878204419
 30
0.0
 41
2.0
 42
2.0
 43
2.0
  0
MTEXT
  5
725E
330
7191
100
AcDbEntity
  8
30
  6
CONTINUOUS
 62
     0
100
AcDbMText
 10
220.670285276985
 20
-62.88217878204419
 30
0.0
 40
4.0
 41
0.0
 71
     5
 72
     1
  1
\A1;51
1001
ACAD
1000
MTEXTBEGIN
1070
    73
1070
     1
1070
    44
1040
1.0
1070
    74
1070
     0
1000
MTEXTEND
1000
MTEXTBEGIN
1070
    73
1070
     1
1070
    44
1040
1.0
1070
    74
1070
     0
1000
MTEXTEND
1000
MTEXTBEGIN
1070
    73
1070
     1
1070
    44
1040
1.0
1070
    74
1070
     0
1000
MTEXTEND
1000
MTEXTBEGIN
1070
    73
1070
     1
1070
    44
1040
1.0
1070
    74
1070
     0
1000
MTEXTEND
1000
MTEXTBEGIN
1070
    73
1070
     1
1070
    44
1040
1.0
1070
    74
1070
     0
1000
MTEXTEND
1000
MTEXTBEGIN
1070
    73
1070
     1
1070
    44
1040
1.0
1070
    74
1070
     0
1000
MTEXTEND
1000
MTEXTBEGIN
1070
    73
1070
     1
1070
    44
1040
1.0
1070
    74
1070
     0
1000
MTEXTEND
  0
POINT
  5
725F
330
7191
100
AcDbEntity
  8
DEFPOINTS
  6
CONTINUOUS
 62
     0
100
AcDbPoint
 10
195.1854921474717
 20
-49.74994020502091
 30
0.0
  0
POINT
  5
7260
330
7191
100
AcDbEntity
  8
DEFPOINTS
  6
CONTINUOUS
 62
     0
100
AcDbPoint
 10
246.1550784064987
 20
-43.34729743590489
 30
0.0
  0
POINT
  5
7261
330
7191
100
AcDbEntity
  8
DEFPOINTS
  6
CONTINUOUS
 62
     0
100
AcDbPoint
 10
246.1550784064987
 20
-65.88217878204419
 30
0.0
  0
ENDBLK
  5
719C
330
7191
100
AcDbEntity
  8
0
100
AcDbBlockEnd
  0
BLOCK
  5
71A9
330
719D
100
AcDbEntity
  8
0
100
AcDbBlockBegin
  2
*D70
 70
     1
 10
0.0
 20
0.0
 30
0.0
  3
*D70
  1

  0
LINE
  5
722A
330
719D
100
AcDbEntity
  8
30
  6
CONTINUOUS
 62
     0
100
AcDbLine
 10
243.6854629012314
 20
100.7500012401778
 30
0.0
 11
243.6854629012314
 21
106.8515410236987
 31
0.0
  0
LINE
  5
722B
330
719D
100
AcDbEntity
  8
30
  6
CONTINUOUS
 62
     0
100
AcDbLine
 10
246.1854629012317
 20
44.0000621070691
 30
0.0
 11
246.1854629012317
 21
106.8515410236987
 31
0.0
  0
LINE
  5
722C
330
719D
100
AcDbEntity
  8
30
  6
CONTINUOUS
 62
     0
100
AcDbLine
 10
241.6854629012314
 20
106.3515410236987
 30
0.0
 11
239.6854629012314
 21
106.3515410236987
 31
0.0
  0
LINE
  5
722D
330
719D
100
AcDbEntity
  8
30
  6
CONTINUOUS
 62
     0
100
AcDbLine
 10
248.1854629012318
 20
106.3515410236987
 30
0.0
 11
260.1854629012318
 21
106.3515410236987
 31
0.0
  0
INSERT
  5
722E
330
719D
100
AcDbEntity
  8
30
  6
CONTINUOUS
 62
     0
100
AcDbBlockReference
  2
_OPEN
 10
243.6854629012314
 20
106.3515410236987
 30
0.0
 41
2.0
 42
2.0
 43
2.0
  0
INSERT
  5
722F
330
719D
100
AcDbEntity
  8
30
  6
CONTINUOUS
 62
     0
100
AcDbBlockReference
  2
_OPEN
 10
246.1854629012317
 20
106.3515410236987
 30
0.0
 41
2.0
 42
2.0
 43
2.0
 50
180.0
  0
MTEXT
  5
7230
330
719D
100
AcDbEntity
  8
30
  6
CONTINUOUS
 62
     0
100
AcDbMText
 10
255.1854629012314
 20
109.3515410236987
 30
0.0
 40
4.0
 41
0.0
 71
     5
 72
     1
  1
\A1;2.5
1001
ACAD
1000
MTEXTBEGIN
1070
    73
1070
     1
1070
    44
1040
1.0
1070
    74
1070
     0
1000
MTEXTEND
1000
MTEXTBEGIN
1070
    73
1070
     1
1070
    44
1040
1.0
1070
    74
1070
     0
1000
MTEXTEND
1000
MTEXTBEGIN
1070
    73
1070
     1
1070
    44
1040
1.0
1070
    74
1070
     0
1000
MTEXTEND
1000
MTEXTBEGIN
1070
    73
1070
     1
1070
    44
1040
1.0
1070
    74
1070
     0
1000
MTEXTEND
1000
MTEXTBEGIN
1070
    73
1070
     1
1070
    44
1040
1.0
1070
    74
1070
     0
1000
MTEXTEND
1000
MTEXTBEGIN
1070
    73
1070
     1
1070
    44
1040
1.0
1070
    74
1070
     0
1000
MTEXTEND
1000
MTEXTBEGIN
1070
    73
1070
     1
1070
    44
1040
1.0
1070
    74
1070
     0
1000
MTEXTEND
  0
POINT
  5
7231
330
719D
100
AcDbEntity
  8
DEFPOINTS
  6
CONTINUOUS
 62
     0
100
AcDbPoint
 10
243.6854629012314
 20
99.75000124017812
 30
0.0
  0
POINT
  5
7232
330
719D
100
AcDbEntity
  8
DEFPOINTS
  6
CONTINUOUS
 62
     0
100
AcDbPoint
 10
246.1854629012317
 20
43.0000621070691
 30
0.0
  0
POINT
  5
7233
330
719D
100
AcDbEntity
  8
DEFPOINTS
  6
CONTINUOUS
 62
     0
100
AcDbPoint
 10
246.1854629012317
 20
106.3515410236987
 30
0.0
  0
ENDBLK
  5
71AA
330
719D
100
AcDbEntity
  8
0
100
AcDbBlockEnd
  0
BLOCK
  5
71B5
330
71AB
100
AcDbEntity
  8
0
100
AcDbBlockBegin
  2
*D71
 70
     1
 10
0.0
 20
0.0
 30
0.0
  3
*D71
  1

  0
LINE
  5
7250
330
71AB
100
AcDbEntity
  8
30
  6
CONTINUOUS
 62
     0
100
AcDbLine
 10
162.1854665846834
 20
2.312547336236076
 30
0.0
 11
162.1854665846834
 21
-91.0202388922003
 31
0.0
  0
LINE
  5
7251
330
71AB
100
AcDbEntity
  8
30
  6
CONTINUOUS
 62
     0
100
AcDbLine
 10
246.1854629012317
 20
-44.00005295179589
 30
0.0
 11
246.1854629012317
 21
-91.0202388922003
 31
0.0
  0
LINE
  5
7252
330
71AB
100
AcDbEntity
  8
30
  6
CONTINUOUS
 62
     0
100
AcDbLine
 10
164.1854665846834
 20
-90.52023889220029
 30
0.0
 11
244.1854629012317
 21
-90.52023889220029
 31
0.0
  0
INSERT
  5
7253
330
71AB
100
AcDbEntity
  8
30
  6
CONTINUOUS
 62
     0
100
AcDbBlockReference
  2
_OPEN
 10
162.1854665846834
 20
-90.52023889220029
 30
0.0
 41
2.0
 42
2.0
 43
2.0
 50
180.0
  0
INSERT
  5
7254
330
71AB
100
AcDbEntity
  8
30
  6
CONTINUOUS
 62
     0
100
AcDbBlockReference
  2
_OPEN
 10
246.1854629012317
 20
-90.52023889220029
 30
0.0
 41
2.0
 42
2.0
 43
2.0
  0
MTEXT
  5
7255
330
71AB
100
AcDbEntity
  8
30
  6
CONTINUOUS
 62
     0
100
AcDbMText
 10
204.1854647429576
 20
-87.5202388922003
 30
0.0
 40
4.0
 41
0.0
 71
     5
 72
     1
  1
\A1;84
1001
ACAD
1000
MTEXTBEGIN
1070
    73
1070
     1
1070
    44
1040
1.0
1070
    74
1070
     0
1000
MTEXTEND
1000
MTEXTBEGIN
1070
    73
1070
     1
1070
    44
1040
1.0
1070
    74
1070
     0
1000
MTEXTEND
1000
MTEXTBEGIN
1070
    73
1070
     1
1070
    44
1040
1.0
1070
    74
1070
     0
1000
MTEXTEND
1000
MTEXTBEGIN
1070
    73
1070
     1
1070
    44
1040
1.0
1070
    74
1070
     0
1000
MTEXTEND
1000
MTEXTBEGIN
1070
    73
1070
     1
1070
    44
1040
1.0
1070
    74
1070
     0
1000
MTEXTEND
1000
MTEXTBEGIN
1070
    73
1070
     1
1070
    44
1040
1.0
1070
    74
1070
     0
1000
MTEXTEND
1000
MTEXTBEGIN
1070
    73
1070
     1
1070
    44
1040
1.0
1070
    74
1070
     0
1000
MTEXTEND
  0
POINT
  5
7256
330
71AB
100
AcDbEntity
  8
DEFPOINTS
  6
CONTINUOUS
 62
     0
100
AcDbPoint
 10
162.1854665846834
 20
3.312547336236077
 30
0.0
  0
POINT
  5
7257
330
71AB
100
AcDbEntity
  8
DEFPOINTS
  6
CONTINUOUS
 62
     0
100
AcDbPoint
 10
246.1854629012317
 20
-43.00005295179589
 30
0.0
  0
POINT
  5
7258
330
71AB
100
AcDbEntity
  8
DEFPOINTS
  6
CONTINUOUS
 62
     0
100
AcDbPoint
 10
246.1854629012317
 20
-90.52023889220029
 30
0.0
  0
ENDBLK
  5
71B6
330
71AB
100
AcDbEntity
  8
0
100
AcDbBlockEnd
  0
BLOCK
  5
71C3
330
71B7
100
AcDbEntity
  8
0
100
AcDbBlockBegin
  2
*D72
 70
     1
 10
0.0
 20
0.0
 30
0.0
  3
*D72
  1

  0
LINE
  5
7274
330
71B7
100
AcDbEntity
  8
30
  6
CONTINUOUS
 62
     0
100
AcDbLine
 10
178.1855528295608
 20
-25.49993957558389
 30
0.0
 11
178.1855528295608
 21
-62.40574395844578
 31
0.0
  0
LINE
  5
7275
330
71B7
100
AcDbEntity
  8
30
  6
CONTINUOUS
 62
     0
100
AcDbLine
 10
174.1855528712694
 20
-25.4999395755829
 30
0.0
 11
174.1855528712694
 21
-62.40574395844578
 31
0.0
  0
LINE
  5
7276
330
71B7
100
AcDbEntity
  8
30
  6
CONTINUOUS
 62
     0
100
AcDbLine
 10
180.1855528295608
 20
-61.9057439584458
 30
0.0
 11
182.1855528295608
 21
-61.9057439584458
 31
0.0
  0
LINE
  5
7277
330
71B7
100
AcDbEntity
  8
30
  6
CONTINUOUS
 62
     0
100
AcDbLine
 10
172.1855528712698
 20
-61.9057439584458
 30
0.0
 11
165.5188862046029
 21
-61.9057439584458
 31
0.0
  0
INSERT
  5
7278
330
71B7
100
AcDbEntity
  8
30
  6
CONTINUOUS
 62
     0
100
AcDbBlockReference
  2
_OPEN
 10
178.1855528295608
 20
-61.9057439584458
 30
0.0
 41
2.0
 42
2.0
 43
2.0
 50
180.0
  0
INSERT
  5
7279
330
71B7
100
AcDbEntity
  8
30
  6
CONTINUOUS
 62
     0
100
AcDbBlockReference
  2
_OPEN
 10
174.1855528712694
 20
-61.9057439584458
 30
0.0
 41
2.0
 42
2.0
 43
2.0
  0
MTEXT
  5
727A
330
71B7
100
AcDbEntity
  8
30
  6
CONTINUOUS
 62
     0
100
AcDbMText
 10
167.8522195379364
 20
-59.4057439584458
 30
0.0
 40
4.0
 41
0.0
 71
     5
 72
     1
  1
\A1;4
1001
ACAD
1000
MTEXTBEGIN
1070
    73
1070
     1
1070
    44
1040
1.0
1070
    74
1070
     0
1000
MTEXTEND
1000
MTEXTBEGIN
1070
    73
1070
     1
1070
    44
1040
1.0
1070
    74
1070
     0
1000
MTEXTEND
1000
MTEXTBEGIN
1070
    73
1070
     1
1070
    44
1040
1.0
1070
    74
1070
     0
1000
MTEXTEND
1000
MTEXTBEGIN
1070
    73
1070
     1
1070
    44
1040
1.0
1070
    74
1070
     0
1000
MTEXTEND
1000
MTEXTBEGIN
1070
    73
1070
     1
1070
    44
1040
1.0
1070
    74
1070
     0
1000
MTEXTEND
1000
MTEXTBEGIN
1070
    73
1070
     1
1070
    44
1040
1.0
1070
    74
1070
     0
1000
MTEXTEND
1000
MTEXTBEGIN
1070
    73
1070
     1
1070
    44
1040
1.0
1070
    74
1070
     0
1000
MTEXTEND
  0
POINT
  5
727B
330
71B7
100
AcDbEntity
  8
DEFPOINTS
  6
CONTINUOUS
 62
     0
100
AcDbPoint
 10
178.1855528295608
 20
-24.49993957558389
 30
0.0
  0
POINT
  5
727C
330
71B7
100
AcDbEntity
  8
DEFPOINTS
  6
CONTINUOUS
 62
     0
100
AcDbPoint
 10
174.1855528712694
 20
-24.4999395755829
 30
0.0
  0
POINT
  5
727D
330
71B7
100
AcDbEntity
  8
DEFPOINTS
  6
CONTINUOUS
 62
     0
100
AcDbPoint
 10
174.1855528712694
 20
-61.9057439584458
 30
0.0
  0
ENDBLK
  5
71C4
330
71B7
100
AcDbEntity
  8
0
100
AcDbBlockEnd
  0
BLOCK
  5
71D1
330
71C5
100
AcDbEntity
  8
0
100
AcDbBlockBegin
  2
*D73
 70
     1
 10
0.0
 20
0.0
 30
0.0
  3
*D73
  1

  0
LINE
  5
726B
330
71C5
100
AcDbEntity
  8
30
  6
CONTINUOUS
 62
     0
100
AcDbLine
 10
186.1855224406956
 20
-39.39997192815089
 30
0.0
 11
186.1855224406956
 21
-78.08952468116901
 31
0.0
  0
LINE
  5
726C
330
71C5
100
AcDbEntity
  8
30
  6
CONTINUOUS
 62
     0
100
AcDbLine
 10
178.1855528295608
 20
-25.49993957558489
 30
0.0
 11
178.1855528295608
 21
-78.08952468116901
 31
0.0
  0
LINE
  5
726D
330
71C5
100
AcDbEntity
  8
30
  6
CONTINUOUS
 62
     0
100
AcDbLine
 10
184.1855224406956
 20
-77.58952468116901
 30
0.0
 11
180.1855528295608
 21
-77.58952468116901
 31
0.0
  0
INSERT
  5
726E
330
71C5
100
AcDbEntity
  8
30
  6
CONTINUOUS
 62
     0
100
AcDbBlockReference
  2
_OPEN
 10
186.1855224406956
 20
-77.58952468116901
 30
0.0
 41
2.0
 42
2.0
 43
2.0
  0
INSERT
  5
726F
330
71C5
100
AcDbEntity
  8
30
  6
CONTINUOUS
 62
     0
100
AcDbBlockReference
  2
_OPEN
 10
178.1855528295608
 20
-77.58952468116901
 30
0.0
 41
2.0
 42
2.0
 43
2.0
 50
180.0
  0
MTEXT
  5
7270
330
71C5
100
AcDbEntity
  8
30
  6
CONTINUOUS
 62
     0
100
AcDbMText
 10
182.1855376351281
 20
-74.58952468116901
 30
0.0
 40
4.0
 41
0.0
 71
     5
 72
     1
  1
\A1;8
1001
ACAD
1000
MTEXTBEGIN
1070
    73
1070
     1
1070
    44
1040
1.0
1070
    74
1070
     0
1000
MTEXTEND
1000
MTEXTBEGIN
1070
    73
1070
     1
1070
    44
1040
1.0
1070
    74
1070
     0
1000
MTEXTEND
1000
MTEXTBEGIN
1070
    73
1070
     1
1070
    44
1040
1.0
1070
    74
1070
     0
1000
MTEXTEND
1000
MTEXTBEGIN
1070
    73
1070
     1
1070
    44
1040
1.0
1070
    74
1070
     0
1000
MTEXTEND
1000
MTEXTBEGIN
1070
    73
1070
     1
1070
    44
1040
1.0
1070
    74
1070
     0
1000
MTEXTEND
1000
MTEXTBEGIN
1070
    73
1070
     1
1070
    44
1040
1.0
1070
    74
1070
     0
1000
MTEXTEND
1000
MTEXTBEGIN
1070
    73
1070
     1
1070
    44
1040
1.0
1070
    74
1070
     0
1000
MTEXTEND
  0
POINT
  5
7271
330
71C5
100
AcDbEntity
  8
DEFPOINTS
  6
CONTINUOUS
 62
     0
100
AcDbPoint
 10
186.1855224406956
 20
-38.39997192815089
 30
0.0
  0
POINT
  5
7272
330
71C5
100
AcDbEntity
  8
DEFPOINTS
  6
CONTINUOUS
 62
     0
100
AcDbPoint
 10
178.1855528295608
 20
-24.49993957558489
 30
0.0
  0
POINT
  5
7273
330
71C5
100
AcDbEntity
  8
DEFPOINTS
  6
CONTINUOUS
 62
     0
100
AcDbPoint
 10
178.1855528295608
 20
-77.58952468116901
 30
0.0
  0
ENDBLK
  5
71D2
330
71C5
100
AcDbEntity
  8
0
100
AcDbBlockEnd
  0
BLOCK
  5
7352
330
7348
100
AcDbEntity
  8
0
100
AcDbBlockBegin
  2
*D74
 70
     1
 10
0.0
 20
0.0
 30
0.0
  3
*D74
  1

  0
LINE
  5
7349
330
7348
100
AcDbEntity
  8
0
 62
     0
100
AcDbLine
 10
492.6292614199483
 20
0.8701988015932331
 30
0.0
 11
474.3608812687968
 21
0.8701988015932384
 31
0.0
  0
LINE
  5
734A
330
7348
100
AcDbEntity
  8
0
 62
     0
100
AcDbLine
 10
492.6292614199483
 20
-14.12980149754526
 30
0.0
 11
474.3608812687968
 21
-14.12980149754525
 31
0.0
  0
LINE
  5
734B
330
7348
100
AcDbEntity
  8
0
 62
     0
100
AcDbLine
 10
475.8608812687968
 20
-4.129801198406759
 30
0.0
 11
475.8608812687968
 21
-9.129801497545251
 31
0.0
  0
INSERT
  5
734C
330
7348
100
AcDbEntity
  8
0
 62
     0
100
AcDbBlockReference
  2
_OPEN30
 10
475.8608812687968
 20
0.8701988015932379
 30
0.0
 41
5.0
 42
5.0
 43
5.0
 50
90.0
  0
INSERT
  5
734D
330
7348
100
AcDbEntity
  8
0
 62
     0
100
AcDbBlockReference
  2
_OPEN30
 10
475.8608812687968
 20
-14.12980149754525
 30
0.0
 41
5.0
 42
5.0
 43
5.0
 50
270.0
  0
MTEXT
  5
734E
330
7348
100
AcDbEntity
  8
0
 62
     0
100
AcDbMText
 10
471.8608812687968
 20
-6.62980134797593
 30
0.0
 40
5.0
 41
0.0
 71
     5
 72
     1
  1
\A1;Max.15
 11
0.0000000000000001
 21
1.0
 31
0.0
1001
ACAD
1000
MTEXTBEGIN
1070
    73
1070
     1
1070
    44
1040
1.0
1070
    74
1070
     0
1000
MTEXTEND
1000
MTEXTBEGIN
1070
    73
1070
     1
1070
    44
1040
1.0
1070
    74
1070
     0
1000
MTEXTEND
1000
MTEXTBEGIN
1070
    73
1070
     1
1070
    44
1040
1.0
1070
    74
1070
     0
1000
MTEXTEND
1000
MTEXTBEGIN
1070
    73
1070
     1
1070
    44
1040
1.0
1070
    74
1070
     0
1000
MTEXTEND
  0
POINT
  5
734F
330
7348
100
AcDbEntity
  8
DEFPOINTS
 62
     0
100
AcDbPoint
 10
494.1292614199483
 20
0.8701988015932329
 30
0.0
  0
POINT
  5
7350
330
7348
100
AcDbEntity
  8
DEFPOINTS
 62
     0
100
AcDbPoint
 10
494.1292614199483
 20
-14.12980149754526
 30
0.0
  0
POINT
  5
7351
330
7348
100
AcDbEntity
  8
DEFPOINTS
 62
     0
100
AcDbPoint
 10
475.8608812687968
 20
-14.12980149754525
 30
0.0
  0
ENDBLK
  5
7353
330
7348
100
AcDbEntity
  8
0
100
AcDbBlockEnd
  0
BLOCK
  5
735D
330
7354
100
AcDbEntity
  8
0
100
AcDbBlockBegin
  2
*D75
 70
     1
 10
0.0
 20
0.0
 30
0.0
  3
*D75
  1

  0
LINE
  5
7355
330
7354
100
AcDbEntity
  8
0
 62
     0
100
AcDbLine
 10
533.3406932897927
 20
6.430515547555612
 30
0.0
 11
509.9331296496782
 21
-3.060220584480132
 31
0.0
  0
LINE
  5
7356
330
7354
100
AcDbEntity
  8
0
 62
     0
100
AcDbLine
 10
492.3253934893563
 20
-10.19938211147199
 30
0.0
 11
487.691778710324
 21
-12.07810882910146
 31
0.0
  0
MTEXT
  5
7357
330
7354
100
AcDbEntity
  8
0
 62
     0
100
AcDbMText
 10
526.5862818327863
 20
8.008183757467945
 30
0.0
 40
5.0
 41
0.0
 71
     5
 72
     1
  1
\A1;%%C9
 11
0.9267229558064313
 21
0.3757453435258927
 31
0.0
1001
ACAD
1000
MTEXTBEGIN
1070
    73
1070
     1
1070
    44
1040
1.0
1070
    74
1070
     0
1000
MTEXTEND
1000
MTEXTBEGIN
1070
    73
1070
     1
1070
    44
1040
1.0
1070
    74
1070
     0
1000
MTEXTEND
1000
MTEXTBEGIN
1070
    73
1070
     1
1070
    44
1040
1.0
1070
    74
1070
     0
1000
MTEXTEND
1000
MTEXTBEGIN
1070
    73
1070
     1
1070
    44
1040
1.0
1070
    74
1070
     0
1000
MTEXTEND
  0
LINE
  5
7358
330
7354
100
AcDbEntity
  8
0
 62
     0
100
AcDbLine
 10
496.9590082683883
 20
-8.320655393842542
 30
0.0
 11
505.2995148706461
 21
-4.938947302109596
 31
0.0
  0
INSERT
  5
7359
330
7354
100
AcDbEntity
  8
0
 62
     0
100
AcDbBlockReference
  2
_OPEN30
 10
496.9590082683883
 20
-8.320655393842542
 30
0.0
 41
5.0
 42
5.0
 43
5.0
 50
22.07038710538332
  0
INSERT
  5
735A
330
7354
100
AcDbEntity
  8
0
 62
     0
100
AcDbBlockReference
  2
_OPEN30
 10
505.2995148706461
 20
-4.938947302109596
 30
0.0
 41
5.0
 42
5.0
 43
5.0
 50
202.0703871053833
  0
POINT
  5
735B
330
7354
100
AcDbEntity
  8
DEFPOINTS
 62
     0
100
AcDbPoint
 10
505.2995148706461
 20
-4.938947302109596
 30
0.0
  0
POINT
  5
735C
330
7354
100
AcDbEntity
  8
DEFPOINTS
 62
     0
100
AcDbPoint
 10
496.9590082683883
 20
-8.320655393842542
 30
0.0
  0
ENDBLK
  5
735E
330
7354
100
AcDbEntity
  8
0
100
AcDbBlockEnd
  0
BLOCK
  5
736B
330
735F
100
AcDbEntity
  8
0
100
AcDbBlockBegin
  2
*D76
 70
     1
 10
0.0
 20
0.0
 30
0.0
  3
*D76
  1

  0
LINE
  5
7360
330
735F
100
AcDbEntity
  8
0
 62
     0
100
AcDbLine
 10
494.1292614199483
 20
-15.62980149754523
 30
0.0
 11
494.1292614199483
 21
-27.48071259907772
 31
0.0
  0
LINE
  5
7361
330
735F
100
AcDbEntity
  8
0
 62
     0
100
AcDbLine
 10
501.1292615695174
 20
-16.94999937153414
 30
0.0
 11
501.1292615695174
 21
-27.48071259907772
 31
0.0
  0
LINE
  5
7362
330
735F
100
AcDbEntity
  8
0
 62
     0
100
AcDbLine
 10
489.1292614199484
 20
-25.98071259907772
 30
0.0
 11
484.1292614199483
 21
-25.98071259907772
 31
0.0
  0
LINE
  5
7363
330
735F
100
AcDbEntity
  8
0
 62
     0
100
AcDbLine
 10
506.1292615695172
 20
-25.98071259907772
 30
0.0
 11
511.1292615695171
 21
-25.98071259907772
 31
0.0
  0
LINE
  5
7364
330
735F
100
AcDbEntity
  8
0
 62
     0
100
AcDbLine
 10
494.1292614199483
 20
-25.98071259907772
 30
0.0
 11
501.1292615695174
 21
-25.98071259907772
 31
0.0
  0
INSERT
  5
7365
330
735F
100
AcDbEntity
  8
0
 62
     0
100
AcDbBlockReference
  2
_OPEN30
 10
494.1292614199483
 20
-25.98071259907772
 30
0.0
 41
5.0
 42
5.0
 43
5.0
  0
INSERT
  5
7366
330
735F
100
AcDbEntity
  8
0
 62
     0
100
AcDbBlockReference
  2
_OPEN30
 10
501.1292615695174
 20
-25.98071259907772
 30
0.0
 41
5.0
 42
5.0
 43
5.0
 50
180.0
  0
MTEXT
  5
7367
330
735F
100
AcDbEntity
  8
0
 62
     0
100
AcDbMText
 10
497.6292614947328
 20
-21.98071259907771
 30
0.0
 40
5.0
 41
0.0
 71
     5
 72
     1
  1
\A1;7
1001
ACAD
1000
MTEXTBEGIN
1070
    73
1070
     1
1070
    44
1040
1.0
1070
    74
1070
     0
1000
MTEXTEND
1000
MTEXTBEGIN
1070
    73
1070
     1
1070
    44
1040
1.0
1070
    74
1070
     0
1000
MTEXTEND
1000
MTEXTBEGIN
1070
    73
1070
     1
1070
    44
1040
1.0
1070
    74
1070
     0
1000
MTEXTEND
1000
MTEXTBEGIN
1070
    73
1070
     1
1070
    44
1040
1.0
1070
    74
1070
     0
1000
MTEXTEND
  0
POINT
  5
7368
330
735F
100
AcDbEntity
  8
DEFPOINTS
 62
     0
100
AcDbPoint
 10
494.1292614199483
 20
-14.12980149754526
 30
0.0
  0
POINT
  5
7369
330
735F
100
AcDbEntity
  8
DEFPOINTS
 62
     0
100
AcDbPoint
 10
501.1292615695174
 20
-15.44999937153414
 30
0.0
  0
POINT
  5
736A
330
735F
100
AcDbEntity
  8
DEFPOINTS
 62
     0
100
AcDbPoint
 10
501.1292615695174
 20
-25.98071259907772
 30
0.0
  0
ENDBLK
  5
736C
330
735F
100
AcDbEntity
  8
0
100
AcDbBlockEnd
  0
BLOCK
  5
7379
330
736D
100
AcDbEntity
  8
0
100
AcDbBlockBegin
  2
*D77
 70
     1
 10
0.0
 20
0.0
 30
0.0
  3
*D77
  1

  0
LINE
  5
736E
330
736D
100
AcDbEntity
  8
0
 62
     0
100
AcDbLine
 10
493.3243892513313
 20
59.66072752363664
 30
0.0
 11
506.7385555768046
 21
59.66072752363664
 31
0.0
  0
LINE
  5
736F
330
736D
100
AcDbEntity
  8
0
 62
     0
100
AcDbLine
 10
494.5969904066024
 20
67.9607277230626
 30
0.0
 11
506.7385555768046
 21
67.9607277230626
 31
0.0
  0
LINE
  5
7370
330
736D
100
AcDbEntity
  8
0
 62
     0
100
AcDbLine
 10
505.2385555768046
 20
54.66072752363664
 30
0.0
 11
505.2385555768046
 21
49.66072752363664
 31
0.0
  0
LINE
  5
7371
330
736D
100
AcDbEntity
  8
0
 62
     0
100
AcDbLine
 10
505.2385555768046
 20
72.96072772306259
 30
0.0
 11
505.2385555768046
 21
90.96072772306259
 31
0.0
  0
LINE
  5
7372
330
736D
100
AcDbEntity
  8
0
 62
     0
100
AcDbLine
 10
505.2385555768046
 20
59.66072752363664
 30
0.0
 11
505.2385555768046
 21
67.9607277230626
 31
0.0
  0
INSERT
  5
7373
330
736D
100
AcDbEntity
  8
0
 62
     0
100
AcDbBlockReference
  2
_OPEN30
 10
505.2385555768046
 20
59.66072752363664
 30
0.0
 41
5.0
 42
5.0
 43
5.0
 50
90.0
  0
INSERT
  5
7374
330
736D
100
AcDbEntity
  8
0
 62
     0
100
AcDbBlockReference
  2
_OPEN30
 10
505.2385555768046
 20
67.9607277230626
 30
0.0
 41
5.0
 42
5.0
 43
5.0
 50
270.0
  0
MTEXT
  5
7375
330
736D
100
AcDbEntity
  8
0
 62
     0
100
AcDbMText
 10
501.2385555768046
 20
84.46072772306269
 30
0.0
 40
5.0
 41
0.0
 71
     5
 72
     1
  1
\A1;8.3
 11
0.0000000000000001
 21
1.0
 31
0.0
1001
ACAD
1000
MTEXTBEGIN
1070
    73
1070
     1
1070
    44
1040
1.0
1070
    74
1070
     0
1000
MTEXTEND
1000
MTEXTBEGIN
1070
    73
1070
     1
1070
    44
1040
1.0
1070
    74
1070
     0
1000
MTEXTEND
1000
MTEXTBEGIN
1070
    73
1070
     1
1070
    44
1040
1.0
1070
    74
1070
     0
1000
MTEXTEND
1000
MTEXTBEGIN
1070
    73
1070
     1
1070
    44
1040
1.0
1070
    74
1070
     0
1000
MTEXTEND
  0
POINT
  5
7376
330
736D
100
AcDbEntity
  8
DEFPOINTS
 62
     0
100
AcDbPoint
 10
491.8243892513313
 20
59.66072752363664
 30
0.0
  0
POINT
  5
7377
330
736D
100
AcDbEntity
  8
DEFPOINTS
 62
     0
100
AcDbPoint
 10
493.0969904066023
 20
67.9607277230626
 30
0.0
  0
POINT
  5
7378
330
736D
100
AcDbEntity
  8
DEFPOINTS
 62
     0
100
AcDbPoint
 10
505.2385555768046
 20
67.9607277230626
 30
0.0
  0
ENDBLK
  5
737A
330
736D
100
AcDbEntity
  8
0
100
AcDbBlockEnd
  0
BLOCK
  5
7385
330
737B
100
AcDbEntity
  8
0
100
AcDbBlockBegin
  2
*D78
 70
     1
 10
0.0
 20
0.0
 30
0.0
  3
*D78
  1

  0
LINE
  5
737C
330
737B
100
AcDbEntity
  8
0
 62
     0
100
AcDbLine
 10
476.0969904066024
 20
50.16072732421161
 30
0.0
 11
476.0969904066024
 21
38.10941061113236
 31
0.0
  0
LINE
  5
737D
330
737B
100
AcDbEntity
  8
0
 62
     0
100
AcDbLine
 10
493.0969904066023
 20
50.16072732421161
 30
0.0
 11
493.0969904066023
 21
38.10941061113236
 31
0.0
  0
LINE
  5
737E
330
737B
100
AcDbEntity
  8
0
 62
     0
100
AcDbLine
 10
481.0969904066023
 20
39.60941061113237
 30
0.0
 11
488.0969904066024
 21
39.60941061113237
 31
0.0
  0
INSERT
  5
737F
330
737B
100
AcDbEntity
  8
0
 62
     0
100
AcDbBlockReference
  2
_OPEN30
 10
476.0969904066024
 20
39.60941061113237
 30
0.0
 41
5.0
 42
5.0
 43
5.0
 50
180.0
  0
INSERT
  5
7380
330
737B
100
AcDbEntity
  8
0
 62
     0
100
AcDbBlockReference
  2
_OPEN30
 10
493.0969904066023
 20
39.60941061113237
 30
0.0
 41
5.0
 42
5.0
 43
5.0
  0
MTEXT
  5
7381
330
737B
100
AcDbEntity
  8
0
 62
     0
100
AcDbMText
 10
484.5969904066024
 20
43.60941061113235
 30
0.0
 40
5.0
 41
0.0
 71
     5
 72
     1
  1
\A1;17
1001
ACAD
1000
MTEXTBEGIN
1070
    73
1070
     1
1070
    44
1040
1.0
1070
    74
1070
     0
1000
MTEXTEND
1000
MTEXTBEGIN
1070
    73
1070
     1
1070
    44
1040
1.0
1070
    74
1070
     0
1000
MTEXTEND
1000
MTEXTBEGIN
1070
    73
1070
     1
1070
    44
1040
1.0
1070
    74
1070
     0
1000
MTEXTEND
1000
MTEXTBEGIN
1070
    73
1070
     1
1070
    44
1040
1.0
1070
    74
1070
     0
1000
MTEXTEND
  0
POINT
  5
7382
330
737B
100
AcDbEntity
  8
DEFPOINTS
 62
     0
100
AcDbPoint
 10
476.0969904066024
 20
51.66072732421159
 30
0.0
  0
POINT
  5
7383
330
737B
100
AcDbEntity
  8
DEFPOINTS
 62
     0
100
AcDbPoint
 10
493.0969904066023
 20
51.66072732421159
 30
0.0
  0
POINT
  5
7384
330
737B
100
AcDbEntity
  8
DEFPOINTS
 62
     0
100
AcDbPoint
 10
493.0969904066023
 20
39.60941061113237
 30
0.0
  0
ENDBLK
  5
7386
330
737B
100
AcDbEntity
  8
0
100
AcDbBlockEnd
  0
BLOCK
  5
7391
330
7387
100
AcDbEntity
  8
0
100
AcDbBlockBegin
  2
*D79
 70
     1
 10
0.0
 20
0.0
 30
0.0
  3
*D79
  1

  0
LINE
  5
7388
330
7387
100
AcDbEntity
  8
0
 62
     0
100
AcDbLine
 10
536.8111926644655
 20
51.10006720406762
 30
0.0
 11
536.8111926644655
 21
38.10941061113236
 31
0.0
  0
LINE
  5
7389
330
7387
100
AcDbEntity
  8
0
 62
     0
100
AcDbLine
 10
560.8111933749194
 20
50.16072732421161
 30
0.0
 11
560.8111933749194
 21
38.10941061113236
 31
0.0
  0
LINE
  5
738A
330
7387
100
AcDbEntity
  8
0
 62
     0
100
AcDbLine
 10
541.8111926644654
 20
39.60941061113237
 30
0.0
 11
555.8111933749194
 21
39.60941061113237
 31
0.0
  0
INSERT
  5
738B
330
7387
100
AcDbEntity
  8
0
 62
     0
100
AcDbBlockReference
  2
_OPEN30
 10
536.8111926644655
 20
39.60941061113237
 30
0.0
 41
5.0
 42
5.0
 43
5.0
 50
180.0
  0
INSERT
  5
738C
330
7387
100
AcDbEntity
  8
0
 62
     0
100
AcDbBlockReference
  2
_OPEN30
 10
560.8111933749194
 20
39.60941061113237
 30
0.0
 41
5.0
 42
5.0
 43
5.0
  0
MTEXT
  5
738D
330
7387
100
AcDbEntity
  8
0
 62
     0
100
AcDbMText
 10
548.8111930196923
 20
43.60941061113235
 30
0.0
 40
5.0
 41
0.0
 71
     5
 72
     1
  1
\A1;24
1001
ACAD
1000
MTEXTBEGIN
1070
    73
1070
     1
1070
    44
1040
1.0
1070
    74
1070
     0
1000
MTEXTEND
1000
MTEXTBEGIN
1070
    73
1070
     1
1070
    44
1040
1.0
1070
    74
1070
     0
1000
MTEXTEND
1000
MTEXTBEGIN
1070
    73
1070
     1
1070
    44
1040
1.0
1070
    74
1070
     0
1000
MTEXTEND
1000
MTEXTBEGIN
1070
    73
1070
     1
1070
    44
1040
1.0
1070
    74
1070
     0
1000
MTEXTEND
  0
POINT
  5
738E
330
7387
100
AcDbEntity
  8
DEFPOINTS
 62
     0
100
AcDbPoint
 10
536.8111926644655
 20
52.60006720406761
 30
0.0
  0
POINT
  5
738F
330
7387
100
AcDbEntity
  8
DEFPOINTS
 62
     0
100
AcDbPoint
 10
560.8111933749194
 20
51.66072732421159
 30
0.0
  0
POINT
  5
7390
330
7387
100
AcDbEntity
  8
DEFPOINTS
 62
     0
100
AcDbPoint
 10
560.8111933749194
 20
39.60941061113237
 30
0.0
  0
ENDBLK
  5
7392
330
7387
100
AcDbEntity
  8
0
100
AcDbBlockEnd
  0
BLOCK
  5
747B
330
7471
100
AcDbEntity
  8
0
100
AcDbBlockBegin
  2
*D80
 70
     1
 10
0.0
 20
0.0
 30
0.0
  3
*D80
  1

  0
LINE
  5
750F
330
7471
100
AcDbEntity
  8
30
  6
CONTINUOUS
 62
     0
100
AcDbLine
 10
271.5850983943166
 20
-249.2767768517078
 30
0.0
 11
271.5850983943166
 21
-260.8280935647869
 31
0.0
  0
LINE
  5
7510
330
7471
100
AcDbEntity
  8
30
  6
CONTINUOUS
 62
     0
100
AcDbLine
 10
288.5850983943166
 20
-249.2767768517078
 30
0.0
 11
288.5850983943166
 21
-260.8280935647869
 31
0.0
  0
LINE
  5
7511
330
7471
100
AcDbEntity
  8
30
  6
CONTINUOUS
 62
     0
100
AcDbLine
 10
273.5850983943166
 20
-260.3280935647869
 30
0.0
 11
286.5850983943166
 21
-260.3280935647869
 31
0.0
  0
INSERT
  5
7512
330
7471
100
AcDbEntity
  8
30
  6
CONTINUOUS
 62
     0
100
AcDbBlockReference
  2
_OPEN
 10
271.5850983943166
 20
-260.3280935647869
 30
0.0
 41
2.0
 42
2.0
 43
2.0
 50
180.0
  0
INSERT
  5
7513
330
7471
100
AcDbEntity
  8
30
  6
CONTINUOUS
 62
     0
100
AcDbBlockReference
  2
_OPEN
 10
288.5850983943166
 20
-260.3280935647869
 30
0.0
 41
2.0
 42
2.0
 43
2.0
  0
MTEXT
  5
7514
330
7471
100
AcDbEntity
  8
30
  6
CONTINUOUS
 62
     0
100
AcDbMText
 10
280.0850983943167
 20
-257.3280935647868
 30
0.0
 40
4.0
 41
0.0
 71
     5
 72
     1
  1
\A1;17
1001
ACAD
1000
MTEXTBEGIN
1070
    73
1070
     1
1070
    44
1040
1.0
1070
    74
1070
     0
1000
MTEXTEND
1000
MTEXTBEGIN
1070
    73
1070
     1
1070
    44
1040
1.0
1070
    74
1070
     0
1000
MTEXTEND
1000
MTEXTBEGIN
1070
    73
1070
     1
1070
    44
1040
1.0
1070
    74
1070
     0
1000
MTEXTEND
1000
MTEXTBEGIN
1070
    73
1070
     1
1070
    44
1040
1.0
1070
    74
1070
     0
1000
MTEXTEND
  0
POINT
  5
7515
330
7471
100
AcDbEntity
  8
DEFPOINTS
  6
CONTINUOUS
 62
     0
100
AcDbPoint
 10
271.5850983943166
 20
-248.2767768517077
 30
0.0
  0
POINT
  5
7516
330
7471
100
AcDbEntity
  8
DEFPOINTS
  6
CONTINUOUS
 62
     0
100
AcDbPoint
 10
288.5850983943166
 20
-248.2767768517077
 30
0.0
  0
POINT
  5
7517
330
7471
100
AcDbEntity
  8
DEFPOINTS
  6
CONTINUOUS
 62
     0
100
AcDbPoint
 10
288.5850983943166
 20
-260.3280935647869
 30
0.0
  0
ENDBLK
  5
747C
330
7471
100
AcDbEntity
  8
0
100
AcDbBlockEnd
  0
BLOCK
  5
7487
330
747D
100
AcDbEntity
  8
0
100
AcDbBlockBegin
  2
*D81
 70
     1
 10
0.0
 20
0.0
 30
0.0
  3
*D81
  1

  0
LINE
  5
7523
330
747D
100
AcDbEntity
  8
30
  6
CONTINUOUS
 62
     0
100
AcDbLine
 10
332.2993006521798
 20
-248.3374369718517
 30
0.0
 11
332.2993006521798
 21
-260.8280935647869
 31
0.0
  0
LINE
  5
7524
330
747D
100
AcDbEntity
  8
30
  6
CONTINUOUS
 62
     0
100
AcDbLine
 10
356.2993013626337
 20
-249.2767768517078
 30
0.0
 11
356.2993013626337
 21
-260.8280935647869
 31
0.0
  0
LINE
  5
7525
330
747D
100
AcDbEntity
  8
30
  6
CONTINUOUS
 62
     0
100
AcDbLine
 10
334.2993006521798
 20
-260.3280935647869
 30
0.0
 11
354.2993013626337
 21
-260.3280935647869
 31
0.0
  0
INSERT
  5
7526
330
747D
100
AcDbEntity
  8
30
  6
CONTINUOUS
 62
     0
100
AcDbBlockReference
  2
_OPEN
 10
332.2993006521798
 20
-260.3280935647869
 30
0.0
 41
2.0
 42
2.0
 43
2.0
 50
180.0
  0
INSERT
  5
7527
330
747D
100
AcDbEntity
  8
30
  6
CONTINUOUS
 62
     0
100
AcDbBlockReference
  2
_OPEN
 10
356.2993013626337
 20
-260.3280935647869
 30
0.0
 41
2.0
 42
2.0
 43
2.0
  0
MTEXT
  5
7528
330
747D
100
AcDbEntity
  8
30
  6
CONTINUOUS
 62
     0
100
AcDbMText
 10
344.2993010074067
 20
-257.3280935647868
 30
0.0
 40
4.0
 41
0.0
 71
     5
 72
     1
  1
\A1;24
1001
ACAD
1000
MTEXTBEGIN
1070
    73
1070
     1
1070
    44
1040
1.0
1070
    74
1070
     0
1000
MTEXTEND
1000
MTEXTBEGIN
1070
    73
1070
     1
1070
    44
1040
1.0
1070
    74
1070
     0
1000
MTEXTEND
1000
MTEXTBEGIN
1070
    73
1070
     1
1070
    44
1040
1.0
1070
    74
1070
     0
1000
MTEXTEND
1000
MTEXTBEGIN
1070
    73
1070
     1
1070
    44
1040
1.0
1070
    74
1070
     0
1000
MTEXTEND
  0
POINT
  5
7529
330
747D
100
AcDbEntity
  8
DEFPOINTS
  6
CONTINUOUS
 62
     0
100
AcDbPoint
 10
332.2993006521798
 20
-247.3374369718518
 30
0.0
  0
POINT
  5
752A
330
747D
100
AcDbEntity
  8
DEFPOINTS
  6
CONTINUOUS
 62
     0
100
AcDbPoint
 10
356.2993013626337
 20
-248.2767768517077
 30
0.0
  0
POINT
  5
752B
330
747D
100
AcDbEntity
  8
DEFPOINTS
  6
CONTINUOUS
 62
     0
100
AcDbPoint
 10
356.2993013626337
 20
-260.3280935647869
 30
0.0
  0
ENDBLK
  5
7488
330
747D
100
AcDbEntity
  8
0
100
AcDbBlockEnd
  0
BLOCK
  5
7492
330
7489
100
AcDbEntity
  8
0
100
AcDbBlockBegin
  2
*D82
 70
     1
 10
0.0
 20
0.0
 30
0.0
  3
*D82
  1

  0
LINE
  5
74F5
330
7489
100
AcDbEntity
  8
30
  6
CONTINUOUS
 62
     0
100
AcDbLine
 10
331.2440378612705
 20
-295.636212241677
 30
0.0
 11
323.5773711946038
 21
-295.636212241677
 31
0.0
  0
LINE
  5
74F6
330
7489
100
AcDbEntity
  8
30
  6
CONTINUOUS
 62
     0
100
AcDbLine
 10
323.5773711946038
 20
-295.636212241677
 30
0.0
 11
302.6410687699731
 21
-304.1249607909771
 31
0.0
  0
MTEXT
  5
74F7
330
7489
100
AcDbEntity
  8
30
  6
CONTINUOUS
 62
     0
100
AcDbMText
 10
327.9107045279372
 20
-292.636212241677
 30
0.0
 40
4.0
 41
0.0
 71
     5
 72
     1
  1
\A1;%%C9
1001
ACAD
1000
MTEXTBEGIN
1070
    73
1070
     1
1070
    44
1040
1.0
1070
    74
1070
     0
1000
MTEXTEND
1000
MTEXTBEGIN
1070
    73
1070
     1
1070
    44
1040
1.0
1070
    74
1070
     0
1000
MTEXTEND
1000
MTEXTBEGIN
1070
    73
1070
     1
1070
    44
1040
1.0
1070
    74
1070
     0
1000
MTEXTEND
1000
MTEXTBEGIN
1070
    73
1070
     1
1070
    44
1040
1.0
1070
    74
1070
     0
1000
MTEXTEND
  0
INSERT
  5
74F8
330
7489
100
AcDbEntity
  8
30
  6
CONTINUOUS
 62
     0
100
AcDbBlockReference
  2
_OPEN
 10
300.7876228583603
 20
-304.8764514780288
 30
0.0
 41
2.0
 42
2.0
 43
2.0
 50
202.0703871053838
  0
LINE
  5
74F9
330
7489
100
AcDbEntity
  8
30
  6
CONTINUOUS
 62
     0
100
AcDbLine
 10
296.5273695572316
 20
-306.5673055238953
 30
0.0
 11
296.7073695572316
 21
-306.5673055238953
 31
0.0
  0
LINE
  5
74FA
330
7489
100
AcDbEntity
  8
30
  6
CONTINUOUS
 62
     0
100
AcDbLine
 10
296.6173695572316
 20
-306.6573055238955
 30
0.0
 11
296.6173695572316
 21
-306.4773055238954
 31
0.0
  0
POINT
  5
74FB
330
7489
100
AcDbEntity
  8
DEFPOINTS
  6
CONTINUOUS
 62
     0
100
AcDbPoint
 10
300.7876228583603
 20
-304.8764514780288
 30
0.0
  0
POINT
  5
74FC
330
7489
100
AcDbEntity
  8
DEFPOINTS
  6
CONTINUOUS
 62
     0
100
AcDbPoint
 10
292.4471162561028
 20
-308.258159569762
 30
0.0
  0
ENDBLK
  5
7493
330
7489
100
AcDbEntity
  8
0
100
AcDbBlockEnd
  0
BLOCK
  5
74A0
330
7494
100
AcDbEntity
  8
0
100
AcDbBlockBegin
  2
*D83
 70
     1
 10
0.0
 20
0.0
 30
0.0
  3
*D83
  1

  0
LINE
  5
74FD
330
7494
100
AcDbEntity
  8
30
  6
CONTINUOUS
 62
     0
100
AcDbLine
 10
289.6173694076626
 20
-315.0673056734647
 30
0.0
 11
289.6173694076626
 21
-326.4182167749972
 31
0.0
  0
LINE
  5
74FE
330
7494
100
AcDbEntity
  8
30
  6
CONTINUOUS
 62
     0
100
AcDbLine
 10
296.6173695572316
 20
-316.3875035474536
 30
0.0
 11
296.6173695572316
 21
-326.4182167749972
 31
0.0
  0
LINE
  5
74FF
330
7494
100
AcDbEntity
  8
30
  6
CONTINUOUS
 62
     0
100
AcDbLine
 10
291.6173694076626
 20
-325.9182167749971
 30
0.0
 11
294.6173695572316
 21
-325.9182167749971
 31
0.0
  0
INSERT
  5
7500
330
7494
100
AcDbEntity
  8
30
  6
CONTINUOUS
 62
     0
100
AcDbBlockReference
  2
_OPEN
 10
289.6173694076626
 20
-325.9182167749971
 30
0.0
 41
2.0
 42
2.0
 43
2.0
 50
180.0
  0
INSERT
  5
7501
330
7494
100
AcDbEntity
  8
30
  6
CONTINUOUS
 62
     0
100
AcDbBlockReference
  2
_OPEN
 10
296.6173695572316
 20
-325.9182167749971
 30
0.0
 41
2.0
 42
2.0
 43
2.0
  0
MTEXT
  5
7502
330
7494
100
AcDbEntity
  8
30
  6
CONTINUOUS
 62
     0
100
AcDbMText
 10
293.1173694824471
 20
-322.9182167749971
 30
0.0
 40
4.0
 41
0.0
 71
     5
 72
     1
  1
\A1;7
1001
ACAD
1000
MTEXTBEGIN
1070
    73
1070
     1
1070
    44
1040
1.0
1070
    74
1070
     0
1000
MTEXTEND
1000
MTEXTBEGIN
1070
    73
1070
     1
1070
    44
1040
1.0
1070
    74
1070
     0
1000
MTEXTEND
1000
MTEXTBEGIN
1070
    73
1070
     1
1070
    44
1040
1.0
1070
    74
1070
     0
1000
MTEXTEND
1000
MTEXTBEGIN
1070
    73
1070
     1
1070
    44
1040
1.0
1070
    74
1070
     0
1000
MTEXTEND
  0
POINT
  5
7503
330
7494
100
AcDbEntity
  8
DEFPOINTS
  6
CONTINUOUS
 62
     0
100
AcDbPoint
 10
289.6173694076626
 20
-314.0673056734647
 30
0.0
  0
POINT
  5
7504
330
7494
100
AcDbEntity
  8
DEFPOINTS
  6
CONTINUOUS
 62
     0
100
AcDbPoint
 10
296.6173695572316
 20
-315.3875035474535
 30
0.0
  0
POINT
  5
7505
330
7494
100
AcDbEntity
  8
DEFPOINTS
  6
CONTINUOUS
 62
     0
100
AcDbPoint
 10
296.6173695572316
 20
-325.9182167749971
 30
0.0
  0
ENDBLK
  5
74A1
330
7494
100
AcDbEntity
  8
0
100
AcDbBlockEnd
  0
BLOCK
  5
74AC
330
74A2
100
AcDbEntity
  8
0
100
AcDbBlockBegin
  2
*D84
 70
     1
 10
0.0
 20
0.0
 30
0.0
  3
*D84
  1

  0
LINE
  5
7506
330
74A2
100
AcDbEntity
  8
30
  6
CONTINUOUS
 62
     0
100
AcDbLine
 10
288.6173694076627
 20
-299.0673053743261
 30
0.0
 11
270.8489892565109
 21
-299.0673053743261
 31
0.0
  0
LINE
  5
7507
330
74A2
100
AcDbEntity
  8
30
  6
CONTINUOUS
 62
     0
100
AcDbLine
 10
288.6173694076627
 20
-314.0673056734647
 30
0.0
 11
270.8489892565109
 21
-314.0673056734647
 31
0.0
  0
LINE
  5
7508
330
74A2
100
AcDbEntity
  8
30
  6
CONTINUOUS
 62
     0
100
AcDbLine
 10
271.348989256511
 20
-301.0673053743261
 30
0.0
 11
271.348989256511
 21
-312.0673056734647
 31
0.0
  0
INSERT
  5
7509
330
74A2
100
AcDbEntity
  8
30
  6
CONTINUOUS
 62
     0
100
AcDbBlockReference
  2
_OPEN
 10
271.348989256511
 20
-299.0673053743261
 30
0.0
 41
2.0
 42
2.0
 43
2.0
 50
90.0
  0
INSERT
  5
750A
330
74A2
100
AcDbEntity
  8
30
  6
CONTINUOUS
 62
     0
100
AcDbBlockReference
  2
_OPEN
 10
271.348989256511
 20
-314.0673056734647
 30
0.0
 41
2.0
 42
2.0
 43
2.0
 50
270.0
  0
MTEXT
  5
750B
330
74A2
100
AcDbEntity
  8
30
  6
CONTINUOUS
 62
     0
100
AcDbMText
 10
268.348989256511
 20
-306.5673055238953
 30
0.0
 40
4.0
 41
0.0
 71
     5
 72
     1
  1
\A1;Max.15
 11
0.0000000000000001
 21
1.0
 31
0.0
1001
ACAD
1000
MTEXTBEGIN
1070
    73
1070
     1
1070
    44
1040
1.0
1070
    74
1070
     0
1000
MTEXTEND
1000
MTEXTBEGIN
1070
    73
1070
     1
1070
    44
1040
1.0
1070
    74
1070
     0
1000
MTEXTEND
1000
MTEXTBEGIN
1070
    73
1070
     1
1070
    44
1040
1.0
1070
    74
1070
     0
1000
MTEXTEND
1000
MTEXTBEGIN
1070
    73
1070
     1
1070
    44
1040
1.0
1070
    74
1070
     0
1000
MTEXTEND
  0
POINT
  5
750C
330
74A2
100
AcDbEntity
  8
DEFPOINTS
  6
CONTINUOUS
 62
     0
100
AcDbPoint
 10
289.6173694076626
 20
-299.0673053743261
 30
0.0
  0
POINT
  5
750D
330
74A2
100
AcDbEntity
  8
DEFPOINTS
  6
CONTINUOUS
 62
     0
100
AcDbPoint
 10
289.6173694076626
 20
-314.0673056734647
 30
0.0
  0
POINT
  5
750E
330
74A2
100
AcDbEntity
  8
DEFPOINTS
  6
CONTINUOUS
 62
     0
100
AcDbPoint
 10
271.348989256511
 20
-314.0673056734647
 30
0.0
  0
ENDBLK
  5
74AD
330
74A2
100
AcDbEntity
  8
0
100
AcDbBlockEnd
  0
BLOCK
  5
74BA
330
74AE
100
AcDbEntity
  8
0
100
AcDbBlockBegin
  2
*D85
 70
     1
 10
0.0
 20
0.0
 30
0.0
  3
*D85
  1

  0
LINE
  5
75A7
330
74AE
100
AcDbEntity
  8
30
  6
CONTINUOUS
 62
     0
100
AcDbLine
 10
288.3124972390456
 20
-240.2767766522828
 30
0.0
 11
303.8933302311856
 21
-240.2767766522828
 31
0.0
  0
LINE
  5
75A8
330
74AE
100
AcDbEntity
  8
30
  6
CONTINUOUS
 62
     0
100
AcDbLine
 10
289.5850983943166
 20
-231.9767764528568
 30
0.0
 11
303.8933302311856
 21
-231.9767764528568
 31
0.0
  0
LINE
  5
75A9
330
74AE
100
AcDbEntity
  8
30
  6
CONTINUOUS
 62
     0
100
AcDbLine
 10
303.3933302311854
 20
-238.2767766522828
 30
0.0
 11
303.3933302311854
 21
-233.9767764528568
 31
0.0
  0
LINE
  5
75AA
330
74AE
100
AcDbEntity
  8
30
  6
CONTINUOUS
 62
     0
100
AcDbLine
 10
303.3933302311854
 20
-231.9767764528568
 30
0.0
 11
303.3933302311854
 21
-223.010631449603
 31
0.0
  0
LINE
  5
75AB
330
74AE
100
AcDbEntity
  8
30
  6
CONTINUOUS
 62
     0
100
AcDbLine
 10
303.3933302311854
 20
-223.010631449603
 30
0.0
 11
307.0599968978523
 21
-223.010631449603
 31
0.0
  0
INSERT
  5
75AC
330
74AE
100
AcDbEntity
  8
30
  6
CONTINUOUS
 62
     0
100
AcDbBlockReference
  2
_OPEN
 10
303.3933302311854
 20
-240.2767766522828
 30
0.0
 41
2.0
 42
2.0
 43
2.0
 50
270.0
  0
INSERT
  5
75AD
330
74AE
100
AcDbEntity
  8
30
  6
CONTINUOUS
 62
     0
100
AcDbBlockReference
  2
_OPEN
 10
303.3933302311854
 20
-231.9767764528568
 30
0.0
 41
2.0
 42
2.0
 43
2.0
 50
90.0
  0
MTEXT
  5
75AE
330
74AE
100
AcDbEntity
  8
30
  6
CONTINUOUS
 62
     0
100
AcDbMText
 10
305.726663564519
 20
-220.010631449603
 30
0.0
 40
4.0
 41
0.0
 71
     5
 72
     1
  1
\A1;8
1001
ACAD
1000
MTEXTBEGIN
1070
    73
1070
     1
1070
    44
1040
1.0
1070
    74
1070
     0
1000
MTEXTEND
1000
MTEXTBEGIN
1070
    73
1070
     1
1070
    44
1040
1.0
1070
    74
1070
     0
1000
MTEXTEND
1000
MTEXTBEGIN
1070
    73
1070
     1
1070
    44
1040
1.0
1070
    74
1070
     0
1000
MTEXTEND
  0
POINT
  5
75AF
330
74AE
100
AcDbEntity
  8
DEFPOINTS
  6
CONTINUOUS
 62
     0
100
AcDbPoint
 10
287.3124972390456
 20
-240.2767766522828
 30
0.0
  0
POINT
  5
75B0
330
74AE
100
AcDbEntity
  8
DEFPOINTS
  6
CONTINUOUS
 62
     0
100
AcDbPoint
 10
288.5850983943166
 20
-231.9767764528568
 30
0.0
  0
POINT
  5
75B1
330
74AE
100
AcDbEntity
  8
DEFPOINTS
  6
CONTINUOUS
 62
     0
100
AcDbPoint
 10
303.3933302311854
 20
-231.9767764528568
 30
0.0
  0
ENDBLK
  5
74BB
330
74AE
100
AcDbEntity
  8
0
100
AcDbBlockEnd
  0
BLOCK
  5
762A
330
7628
100
AcDbEntity
  8
0
100
AcDbBlockBegin
  2
_DOTSMALL
 70
     0
 10
0.0
 20
0.0
 30
0.0
  3
_DOTSMALL
  1

  0
LWPOLYLINE
  5
7629
330
7628
100
AcDbEntity
  8
0
  6
BYBLOCK
 62
     0
100
AcDbPolyline
 90
        2
 70
     1
 43
0.5
 10
-0.0625
 20
0.0
 42
1.0
 10
0.0625
 20
0.0
 42
1.0
  0
ENDBLK
  5
762B
330
7628
100
AcDbEntity
  8
0
100
AcDbBlockEnd
  0
ENDSEC
  0
SECTION
  2
ENTITIES
  0
LINE
  5
B4
330
1E
100
AcDbEntity
  8
16
100
AcDbLine
 10
0.0
 20
-101.8246001220914
 30
0.0
 11
0.0
 21
105.6073578546832
 31
0.0
  0
LINE
  5
B5
330
1E
100
AcDbEntity
  8
16
100
AcDbLine
 10
71.77465564206305
 20
-0.0000000000000027
 30
0.0
 11
-83.90588178115756
 21
-0.0000000000000027
 31
0.0
  0
MTEXT
  5
BF3
330
1E
100
AcDbEntity
  8
24
  6
CONTINUOUS
100
AcDbMText
 10
140.9820964648283
 20
176.3476821548369
 30
0.0
 40
3.0
 41
0.0
 71
     1
 72
     1
  1
\A1;
1001
ACAD
1000
MTEXTBEGIN
1070
    73
1070
     1
1070
    44
1040
1.0
1070
    74
1070
     0
1000
MTEXTEND
1000
MTEXTBEGIN
1070
    73
1070
     1
1070
    44
1040
1.0
1070
    74
1070
     0
1000
MTEXTEND
1000
MTEXTBEGIN
1070
    73
1070
     1
1070
    44
1040
1.0
1070
    74
1070
     0
1000
MTEXTEND
1000
MTEXTBEGIN
1070
    73
1070
     1
1070
    44
1040
1.0
1070
    74
1070
     0
1000
MTEXTEND
1000
MTEXTBEGIN
1070
    73
1070
     1
1070
    44
1040
1.0
1070
    74
1070
     0
1000
MTEXTEND
1000
MTEXTBEGIN
1070
    73
1070
     1
1070
    44
1040
1.0
1070
    74
1070
     0
1000
MTEXTEND
1000
MTEXTBEGIN
1070
    73
1070
     1
1070
    44
1040
1.0
1070
    74
1070
     0
1000
MTEXTEND
1000
MTEXTBEGIN
1070
    73
1070
     1
1070
    44
1040
1.0
1070
    74
1070
     0
1000
MTEXTEND
  0
LINE
  5
1C9B
330
1E
100
AcDbEntity
  8
16
100
AcDbLine
 10
252.2681462467815
 20
0.0000000000000999
 30
0.0
 11
120.102898634612
 21
0.0000000000000999
 31
0.0
  0
LINE
  5
2260
330
1E
100
AcDbEntity
  8
16
100
AcDbLine
 10
68.52380301423583
 20
-250.8473940210349
 30
0.0
 11
-80.93000773675209
 21
-250.8473940210349
 31
0.0
  0
LINE
  5
2261
330
1E
100
AcDbEntity
  8
16
100
AcDbLine
 10
-0.3800945351711884
 20
-348.5993337838806
 30
0.0
 11
-0.3800945351711884
 21
-149.4639948115489
 31
0.0
  0
LINE
  5
4C5A
330
1E
100
AcDbEntity
  8
16
100
AcDbLine
 10
88.49441808474184
 20
-0.0000000000000027
 30
0.0
 11
-83.90588178115756
 21
-0.0000000000000027
 31
0.0
  0
MTEXT
  5
5C78
330
1E
100
AcDbEntity
  8
30
  6
CONTINUOUS
100
AcDbMText
 10
162.3297648581359
 20
88.99793930010117
 30
0.0
 40
4.0
 41
0.0
 71
     9
 72
     1
  1

1001
ACAD
1000
MTEXTBEGIN
1070
    73
1070
     1
1070
    44
1040
1.0
1070
    74
1070
     0
1000
MTEXTEND
1000
MTEXTBEGIN
1070
    73
1070
     1
1070
    44
1040
1.0
1070
    74
1070
     0
1000
MTEXTEND
1000
MTEXTBEGIN
1070
    73
1070
     1
1070
    44
1040
1.0
1070
    74
1070
     0
1000
MTEXTEND
1000
MTEXTBEGIN
1070
    73
1070
     1
1070
    44
1040
1.0
1070
    74
1070
     0
1000
MTEXTEND
1000
MTEXTBEGIN
1070
    73
1070
     1
1070
    44
1040
1.0
1070
    74
1070
     0
1000
MTEXTEND
1000
MTEXTBEGIN
1070
    73
1070
     1
1070
    44
1040
1.0
1070
    74
1070
     0
1000
MTEXTEND
1000
MTEXTBEGIN
1070
    73
1070
     1
1070
    44
1040
1.0
1070
    74
1070
     0
1000
MTEXTEND
1000
MTEXTBEGIN
1070
    73
1070
     1
1070
    44
1040
1.0
1070
    74
1070
     0
1000
MTEXTEND
  0
LINE
  5
6173
330
1E
100
AcDbEntity
  8
16
100
AcDbLine
 10
170.2029347948343
 20
-348.5993337838806
 30
0.0
 11
170.2029347948343
 21
-149.4639948115489
 31
0.0
  0
LINE
  5
6177
330
1E
100
AcDbEntity
  8
16
100
AcDbLine
 10
239.1068323442413
 20
-250.8473940210349
 30
0.0
 11
89.65302159325338
 21
-250.8473940210349
 31
0.0
  0
MTEXT
  5
6200
330
1E
100
AcDbEntity
  8
30
  6
CONTINUOUS
100
AcDbMText
 10
160.6290066227675
 20
91.2377397662035
 30
0.0
 40
4.0
 41
0.0
 71
     9
 72
     1
  1

1001
ACAD
1000
MTEXTBEGIN
1070
    73
1070
     1
1070
    44
1040
1.0
1070
    74
1070
     0
1000
MTEXTEND
1000
MTEXTBEGIN
1070
    73
1070
     1
1070
    44
1040
1.0
1070
    74
1070
     0
1000
MTEXTEND
1000
MTEXTBEGIN
1070
    73
1070
     1
1070
    44
1040
1.0
1070
    74
1070
     0
1000
MTEXTEND
1000
MTEXTBEGIN
1070
    73
1070
     1
1070
    44
1040
1.0
1070
    74
1070
     0
1000
MTEXTEND
1000
MTEXTBEGIN
1070
    73
1070
     1
1070
    44
1040
1.0
1070
    74
1070
     0
1000
MTEXTEND
1000
MTEXTBEGIN
1070
    73
1070
     1
1070
    44
1040
1.0
1070
    74
1070
     0
1000
MTEXTEND
1000
MTEXTBEGIN
1070
    73
1070
     1
1070
    44
1040
1.0
1070
    74
1070
     0
1000
MTEXTEND
1000
MTEXTBEGIN
1070
    73
1070
     1
1070
    44
1040
1.0
1070
    74
1070
     0
1000
MTEXTEND
  0
LINE
  5
6D93
330
1E
100
AcDbEntity
  8
24
  6
CONTINOUS
100
AcDbLine
 10
-6.074997099681096
 20
39.999999582914
 30
0.0
 11
6.074997099680786
 21
39.999999582914
 31
0.0
  0
LINE
  5
6D94
330
1E
100
AcDbEntity
  8
24
  6
CONTINOUS
100
AcDbLine
 10
7.499939151804595
 20
33.70000084015298
 30
0.0
 11
-7.500061222118487
 21
33.70000084015298
 31
0.0
  0
LINE
  5
6D95
330
1E
100
AcDbEntity
  8
10
  6
CONTINOUS
100
AcDbLine
 10
-7.500061222118487
 20
49.75000124017796
 30
0.0
 11
7.499939151804595
 21
49.75000124017796
 31
0.0
  0
LINE
  5
6D96
330
1E
100
AcDbEntity
  8
10
  6
CONTINOUS
100
AcDbLine
 10
5.999946743806987
 20
8.949157937929982
 30
0.0
 11
-6.000053555331504
 21
8.949157937929982
 31
0.0
  0
LINE
  5
6D97
330
1E
100
AcDbEntity
  8
10
  6
CONTINOUS
100
AcDbLine
 10
5.999946743806987
 20
15.39686218267697
 30
0.0
 11
-6.000053555331504
 21
15.39686218267697
 31
0.0
  0
LINE
  5
6D98
330
1E
100
AcDbEntity
  8
10
  6
CONTINOUS
100
AcDbLine
 10
-6.000053555331504
 20
19.88189967101402
 30
0.0
 11
5.999946743806987
 21
19.88189967101402
 31
0.0
  0
LINE
  5
6D99
330
1E
100
AcDbEntity
  8
10
  6
CONTINOUS
100
AcDbLine
 10
-6.500045938400916
 20
2.900000072364973
 30
0.0
 11
6.499939126876483
 21
2.900000072364973
 31
0.0
  0
LINE
  5
6D9A
330
1E
100
AcDbEntity
  8
10
  6
CONTINOUS
100
AcDbLine
 10
-6.500045938400916
 20
0.8258863704569987
 30
0.0
 11
6.499939126876483
 21
0.8258863704569987
 31
0.0
  0
LINE
  5
6D9B
330
1E
100
AcDbEntity
  8
24
  6
CONTINOUS
100
AcDbLine
 10
7.499939151804595
 20
-33.700008469402
 30
0.0
 11
-7.500061222118487
 21
-33.700008469402
 31
0.0
  0
LINE
  5
6D9C
330
1E
100
AcDbEntity
  8
24
  6
CONTINOUS
100
AcDbLine
 10
-6.074997099681096
 20
-42.00000104691198
 30
0.0
 11
6.074997099680897
 21
-42.00000104691198
 31
0.0
  0
LINE
  5
6D9D
330
1E
100
AcDbEntity
  8
10
  6
CONTINOUS
100
AcDbLine
 10
-7.500061222118487
 20
-49.75000124017899
 30
0.0
 11
7.499939151804595
 21
-49.75000124017899
 31
0.0
  0
LINE
  5
6D9E
330
1E
100
AcDbEntity
  8
10
  6
CONTINOUS
100
AcDbLine
 10
34.99997035490918
 20
24.99997010569898
 30
0.0
 11
-35.00003139006543
 21
24.99997010569898
 31
0.0
  0
LINE
  5
6D9F
330
1E
100
AcDbEntity
  8
10
  6
CONTINOUS
100
AcDbLine
 10
-35.00003139006543
 20
-25.000031140711
 30
0.0
 11
34.99993983733043
 21
-25.000031140711
 31
0.0
  0
DIMENSION
  5
6DA1
330
1E
100
AcDbEntity
  8
30
  6
CONTINUOUS
100
AcDbDimension
  2
*D39
 10
35.9999398622586
 20
-77.58952468116911
 30
0.0
 11
-0.0000457763674005
 21
-74.58952468116911
 31
0.0
 70
    32
  1
72
  3
STANDARD
100
AcDbAlignedDimension
 13
-36.0000314149934
 23
-24.000031115783
 33
0.0
 14
35.9999398622586
 24
-24.000031115783
 34
0.0
100
AcDbRotatedDimension
1001
ACAD
1000
DSTYLE
1002
{
1070
    79
1070
     3
1002
}
  0
DIMENSION
  5
6DA2
330
1E
100
AcDbEntity
  8
30
  6
CONTINUOUS
100
AcDbDimension
  2
*D40
 10
37.49993989965076
 20
-90.52023889220041
 30
0.0
 11
-0.0000534057622728
 21
-87.52023889220039
 31
0.0
 70
    32
  1
75
  3
STANDARD
100
AcDbAlignedDimension
 13
-37.50004671117531
 23
-46.250001152857
 33
0.0
 14
37.49993989965076
 24
-46.250001152857
 34
0.0
100
AcDbRotatedDimension
1001
ACAD
1000
DSTYLE
1002
{
1070
    79
1070
     3
1002
}
  0
DIMENSION
  5
6DA3
330
1E
100
AcDbEntity
  8
30
  6
CONTINUOUS
100
AcDbDimension
  2
*D41
 10
24.99998536441819
 20
-65.88217878204429
 30
0.0
 11
-0.0000152587879112
 21
-62.88217878204427
 31
0.0
 70
    32
  1
50
  3
STANDARD
100
AcDbAlignedDimension
 13
-25.00001588199401
 23
-48.07501340538196
 33
0.0
 14
24.99998536441819
 24
-48.07501340538196
 34
0.0
100
AcDbRotatedDimension
1001
ACAD
1000
DSTYLE
1002
{
1070
    79
1070
     3
1002
}
  0
LINE
  5
6DA4
330
1E
100
AcDbEntity
  8
10
  6
CONTINOUS
100
AcDbLine
 10
-37.50004671117531
 20
46.25000115300188
 30
0.0
 11
-37.50004671117531
 21
-46.250001152857
 31
0.0
  0
DIMENSION
  5
6DA6
330
1E
100
AcDbEntity
  8
30
  6
CONTINUOUS
100
AcDbDimension
  2
*D42
 10
-53.37640105466872
 20
39.999999582914
 30
0.0
 11
-56.37640105466871
 21
19.99999979145698
 31
0.0
 70
    32
  1
40
  3
STANDARD
100
AcDbAlignedDimension
 13
-42.12983490241803
 23
0.0
 33
0.0
 14
-31.07499772288551
 24
39.999999582914
 34
0.0
 50
90.0
100
AcDbRotatedDimension
1001
ACAD
1000
DSTYLE
1002
{
1070
    79
1070
     3
1002
}
  0
LINE
  5
6DA7
330
1E
100
AcDbEntity
  8
10
  6
CONTINOUS
100
AcDbLine
 10
-15.50007668033382
 20
-46.250001152857
 30
0.0
 11
-15.50007668033382
 21
-49.75000124010501
 31
0.0
  0
LINE
  5
6DA8
330
1E
100
AcDbEntity
  8
10
  6
CONTINOUS
100
AcDbLine
 10
-11.90007659059221
 20
-46.26023755760002
 30
0.0
 11
-11.90007659059221
 21
-49.75000124010501
 31
0.0
  0
LINE
  5
6DA9
330
1E
100
AcDbEntity
  8
24
  6
CONTINOUS
100
AcDbLine
 10
-7.500061222118487
 20
-33.700008469402
 30
0.0
 11
-7.500061222118487
 21
-49.75000124017899
 31
0.0
  0
LINE
  5
6DAA
330
1E
100
AcDbEntity
  8
10
  6
CONTINOUS
100
AcDbLine
 10
-36.00000088993757
 20
-46.250001152857
 30
0.0
 11
-36.00000088993757
 21
-49.75000124010501
 31
0.0
  0
LINE
  5
6DAB
330
1E
100
AcDbEntity
  8
24
  6
CONTINOUS
100
AcDbLine
 10
-32.50006184532358
 20
-49.75000124017899
 30
0.0
 11
-32.50006184532358
 21
-33.700008469402
 31
0.0
  0
LINE
  5
6DAC
330
1E
100
AcDbEntity
  8
24
  6
CONTINOUS
100
AcDbLine
 10
-17.5000614714006
 20
-49.75000124017899
 30
0.0
 11
-17.5000614714006
 21
-33.700008469402
 31
0.0
  0
LINE
  5
6DAD
330
1E
100
AcDbEntity
  8
10
  6
CONTINOUS
100
AcDbLine
 10
-32.50006184532358
 20
-49.75000124017899
 30
0.0
 11
-17.5000614714006
 21
-49.75000124017899
 31
0.0
  0
LINE
  5
6DAE
330
1E
100
AcDbEntity
  8
10
  6
CONTINOUS
100
AcDbLine
 10
-36.00000088993757
 20
-49.75000124010501
 30
0.0
 11
-32.50006184532358
 21
-49.75000124017899
 31
0.0
  0
LINE
  5
6DAF
330
1E
100
AcDbEntity
  8
10
  6
CONTINOUS
100
AcDbLine
 10
-11.90007659059221
 20
-49.75000124010501
 30
0.0
 11
-7.500061222118487
 21
-49.75000124017899
 31
0.0
  0
LINE
  5
6DB0
330
1E
100
AcDbEntity
  8
10
  6
CONTINOUS
100
AcDbLine
 10
-17.5000614714006
 20
-49.75000124017899
 30
0.0
 11
-15.50007668033382
 21
-49.75000124010501
 31
0.0
  0
LINE
  5
6DB1
330
1E
100
AcDbEntity
  8
10
  6
CONTINOUS
100
AcDbLine
 10
-36.00000088993757
 20
-46.250001152857
 30
0.0
 11
-37.50004671117531
 21
-46.250001152857
 31
0.0
  0
LINE
  5
6DB2
330
1E
100
AcDbEntity
  8
10
  6
CONTINOUS
100
AcDbLine
 10
-32.50006184532358
 20
-37.90003298816396
 30
0.0
 11
-37.50004671117531
 21
-37.90003298816396
 31
0.0
  0
DIMENSION
  5
6DB3
330
1E
100
AcDbEntity
  8
30
  6
CONTINUOUS
100
AcDbDimension
  2
*D43
 10
-53.37640105466872
 20
-42.00000104691198
 30
0.0
 11
-56.37640105466871
 21
-21.00000052345599
 31
0.0
 70
    32
  1
42
  3
STANDARD
100
AcDbAlignedDimension
 13
-42.12983490241803
 23
0.0
 33
0.0
 14
-31.07499772288551
 24
-42.00000104691198
 34
0.0
 50
90.0
100
AcDbRotatedDimension
1001
ACAD
1000
DSTYLE
1002
{
1070
    79
1070
     3
1002
}
  0
LINE
  5
6DB4
330
1E
100
AcDbEntity
  8
10
  6
CONTINOUS
100
AcDbLine
 10
-36.0000314149936
 20
23.99997008077098
 30
0.0
 11
-36.0000314149936
 21
-24.000031115783
 31
0.0
  0
LINE
  5
6DB5
330
1E
100
AcDbEntity
  8
10
  6
CONTINOUS
100
AcDbLine
 10
-11.00004605057778
 20
24.64641671569598
 30
0.0
 11
-11.00004605057778
 21
-24.64647775071099
 31
0.0
  0
LINE
  5
6DB6
330
1E
100
AcDbEntity
  8
24
  6
CONTINOUS
100
AcDbLine
 10
-17.5000614714006
 20
-33.700008469402
 30
0.0
 11
-32.50006184532358
 21
-33.700008469402
 31
0.0
  0
LINE
  5
6DB7
330
1E
100
AcDbEntity
  8
24
  6
CONTINOUS
100
AcDbLine
 10
-31.07499772288551
 20
-42.00000104691198
 30
0.0
 11
-18.92500352352351
 21
-42.00000104691198
 31
0.0
  0
LINE
  5
6DB8
330
1E
100
AcDbEntity
  8
24
  6
CONTINOUS
100
AcDbLine
 10
-25.00001588199401
 20
-35.92498868844099
 30
0.0
 11
-25.00001588199401
 21
-48.07501340538196
 31
0.0
  0
ARC
  5
6DB9
330
1E
100
AcDbEntity
  8
10
  6
CONTINOUS
100
AcDbCircle
 10
-35.00003139006543
 20
-24.000031115783
 30
0.0
 40
1.000000024927997
100
AcDbArc
 50
180.0
 51
270.0
  0
LINE
  5
6DBA
330
1E
100
AcDbEntity
  8
10
  6
CONTINOUS
100
AcDbLine
 10
-7.500061222118487
 20
-37.90003298816396
 30
0.0
 11
-17.5000614714006
 21
-37.90003298816396
 31
0.0
  0
ARC
  5
6DBB
330
1E
100
AcDbEntity
  8
12
  6
DASHED
100
AcDbCircle
 10
-12.50001557039129
 20
-41.999940011754
 30
0.0
 40
3.90000009722024
100
AcDbArc
 50
284.4766913361197
 51
217.300478842835
  0
CIRCLE
  5
6DBC
330
1E
100
AcDbEntity
  8
12
  6
DASHED
100
AcDbCircle
 10
-12.50001557039129
 20
-41.999940011754
 30
0.0
 40
2.4500000610741
  0
LINE
  5
6DBD
330
1E
100
AcDbEntity
  8
10
  6
CONTINOUS
100
AcDbLine
 10
-15.50007668033382
 20
-46.250001152857
 30
0.0
 11
-11.90007659059221
 21
-46.250001152857
 31
0.0
  0
ARC
  5
6DBE
330
1E
100
AcDbEntity
  8
10
  6
CONTINOUS
100
AcDbCircle
 10
-16.00007669118807
 20
-44.66631829206602
 30
0.0
 40
0.5000000124641
100
AcDbArc
 50
359.9999998593968
 51
37.30047884294547
  0
LINE
  5
6DBF
330
1E
100
AcDbEntity
  8
10
  6
CONTINOUS
100
AcDbLine
 10
-15.50007668033382
 20
-46.250001152857
 30
0.0
 11
-15.50007667872401
 21
-44.666318293293
 31
0.0
  0
ARC
  5
6DC0
330
1E
100
AcDbEntity
  8
10
  6
CONTINOUS
100
AcDbCircle
 10
-11.40007657813689
 20
-46.260237557566
 30
0.0
 40
0.50000001246403
100
AcDbArc
 50
104.4766913361196
 51
180.0000000038983
  0
ARC
  5
6DC1
330
1E
100
AcDbEntity
  8
10
  6
CONTINOUS
100
AcDbCircle
 10
-10.64649266057781
 20
-24.64647775071099
 30
0.0
 40
0.35355339
100
AcDbArc
 50
180.0
 51
270.0
  0
ARC
  5
6DC2
330
1E
100
AcDbEntity
  8
10
  6
CONTINOUS
100
AcDbCircle
 10
-35.00003139006543
 20
23.99997008077098
 30
0.0
 40
1.000000024928199
100
AcDbArc
 50
90.0
 51
180.0
  0
LINE
  5
6DC3
330
1E
100
AcDbEntity
  8
10
  6
CONTINOUS
100
AcDbLine
 10
-6.500045938400916
 20
16.17330063119799
 30
0.0
 11
-6.500045938400916
 21
0.8258863704569987
 31
0.0
  0
LINE
  5
6DC4
330
1E
100
AcDbEntity
  8
10
  6
CONTINOUS
100
AcDbLine
 10
-6.000053555331504
 20
19.88189967101402
 30
0.0
 11
-6.000053555331504
 21
2.900000072364973
 31
0.0
  0
ARC
  5
6DC5
330
1E
100
AcDbEntity
  8
10
  6
CONTINOUS
100
AcDbCircle
 10
-10.64649266057793
 20
24.64641671569788
 30
0.0
 40
0.35355339
100
AcDbArc
 50
90.0
 51
180.0000000003224
  0
LINE
  5
6DC6
330
1E
100
AcDbEntity
  8
10
  6
CONTINOUS
100
AcDbLine
 10
-6.500045938400916
 20
16.17330063119799
 30
0.0
 11
-6.000053555331504
 21
16.17330063119799
 31
0.0
  0
LINE
  5
6DC7
330
1E
100
AcDbEntity
  8
10
  6
CONTINOUS
100
AcDbLine
 10
-6.500045938400916
 20
14.10000035156099
 30
0.0
 11
-6.000053555331504
 21
14.10000035156099
 31
0.0
  0
LINE
  5
6DC8
330
1E
100
AcDbEntity
  8
10
  6
CONTINOUS
100
AcDbLine
 10
-36.00000088993757
 20
46.25000115300188
 30
0.0
 11
-37.50004671117531
 21
46.25000115300188
 31
0.0
  0
LINE
  5
6DC9
330
1E
100
AcDbEntity
  8
10
  6
CONTINOUS
100
AcDbLine
 10
-32.50006184532358
 20
37.89996432375701
 30
0.0
 11
-37.50004671117531
 21
37.89996432375701
 31
0.0
  0
LINE
  5
6DCA
330
1E
100
AcDbEntity
  8
18
100
AcDbLine
 10
-9.500061271974914
 20
49.750001240251
 30
0.0
 11
-9.500061271974914
 21
99.75000124017805
 31
0.0
  0
LINE
  5
6DCB
330
1E
100
AcDbEntity
  8
18
100
AcDbLine
 10
-13.10006136171648
 20
49.750001240251
 30
0.0
 11
-13.10006136171648
 21
99.75000124017805
 31
0.0
  0
LINE
  5
6DCC
330
1E
100
AcDbEntity
  8
24
  6
CONTINOUS
100
AcDbLine
 10
-17.5000614714006
 20
33.70000084015298
 30
0.0
 11
-32.50006184532358
 21
33.70000084015298
 31
0.0
  0
LINE
  5
6DCD
330
1E
100
AcDbEntity
  8
10
  6
CONTINOUS
100
AcDbLine
 10
-32.50006184532358
 20
49.75000124017796
 30
0.0
 11
-17.5000614714006
 21
49.75000124017796
 31
0.0
  0
LINE
  5
6DCE
330
1E
100
AcDbEntity
  8
24
  6
CONTINOUS
100
AcDbLine
 10
-32.50006184532358
 20
49.75000124017796
 30
0.0
 11
-32.50006184532358
 21
33.70000084015298
 31
0.0
  0
LINE
  5
6DCF
330
1E
100
AcDbEntity
  8
10
  6
CONTINOUS
100
AcDbLine
 10
-36.00000088993757
 20
46.25000115300188
 30
0.0
 11
-36.00000088993757
 21
49.750001240251
 31
0.0
  0
LINE
  5
6DD0
330
1E
100
AcDbEntity
  8
24
  6
CONTINOUS
100
AcDbLine
 10
-31.07499772288551
 20
39.999999582914
 30
0.0
 11
-18.92500352352358
 21
39.999999582914
 31
0.0
  0
LINE
  5
6DD1
330
1E
100
AcDbEntity
  8
24
  6
CONTINOUS
100
AcDbLine
 10
-25.00001588199401
 20
46.07501194138499
 30
0.0
 11
-25.00001588199401
 21
33.92498722444399
 31
0.0
  0
LINE
  5
6DD2
330
1E
100
AcDbEntity
  8
10
  6
CONTINOUS
100
AcDbLine
 10
-36.00000088993757
 20
49.750001240251
 30
0.0
 11
-32.50006184532358
 21
49.75000124017796
 31
0.0
  0
LINE
  5
6DD3
330
1E
100
AcDbEntity
  8
24
  6
CONTINOUS
100
AcDbLine
 10
-7.500061222118487
 20
49.75000124017796
 30
0.0
 11
-7.500061222118487
 21
33.70000084015298
 31
0.0
  0
LINE
  5
6DD4
330
1E
100
AcDbEntity
  8
10
  6
CONTINOUS
100
AcDbLine
 10
-9.500061271974914
 20
46.25000115300188
 30
0.0
 11
-9.500061271974914
 21
49.750001240251
 31
0.0
  0
LINE
  5
6DD5
330
1E
100
AcDbEntity
  8
10
  6
CONTINOUS
100
AcDbLine
 10
-13.10006136171648
 20
46.26020999311598
 30
0.0
 11
-13.10006136171648
 21
49.750001240251
 31
0.0
  0
LINE
  5
6DD6
330
1E
100
AcDbEntity
  8
24
  6
CONTINOUS
100
AcDbLine
 10
-17.5000614714006
 20
33.70000084015298
 30
0.0
 11
-17.5000614714006
 21
49.75000124017796
 31
0.0
  0
LINE
  5
6DD7
330
1E
100
AcDbEntity
  8
10
  6
CONTINOUS
100
AcDbLine
 10
-7.500061222118487
 20
37.89996432375701
 30
0.0
 11
-17.5000614714006
 21
37.89996432375701
 31
0.0
  0
CIRCLE
  5
6DD8
330
1E
100
AcDbEntity
  8
12
  6
DASHED
100
AcDbCircle
 10
-12.50001557039129
 20
41.99994001190001
 30
0.0
 40
2.4500000610741
  0
ARC
  5
6DD9
330
1E
100
AcDbEntity
  8
12
  6
DASHED
100
AcDbCircle
 10
-12.50001557039129
 20
41.99994001190001
 30
0.0
 40
3.900000097219778
100
AcDbArc
 50
104.4781277800514
 51
37.30277348754507
  0
LINE
  5
6DDA
330
1E
100
AcDbEntity
  8
10
  6
CONTINOUS
100
AcDbLine
 10
-13.10006136171648
 20
46.25000115300188
 30
0.0
 11
-9.500061271974914
 21
46.25000115300188
 31
0.0
  0
ARC
  5
6DDB
330
1E
100
AcDbEntity
  8
10
  6
CONTINOUS
100
AcDbCircle
 10
-13.60006137250568
 20
46.26020998661997
 30
0.0
 40
0.50000001246427
100
AcDbArc
 50
284.4781277797723
 51
0.0000007443878061
  0
LINE
  5
6DDC
330
1E
100
AcDbEntity
  8
10
  6
CONTINOUS
100
AcDbLine
 10
-9.500061271974914
 20
46.25000115300188
 30
0.0
 11
-9.500061262257304
 21
44.66645844836501
 31
0.0
  0
ARC
  5
6DDD
330
1E
100
AcDbEntity
  8
10
  6
CONTINOUS
100
AcDbCircle
 10
-9.000061249793077
 20
44.666458455764
 30
0.0
 40
0.5000000124642
100
AcDbArc
 50
180.0000008478654
 51
217.3027734879874
  0
LINE
  5
6DDE
330
1E
100
AcDbEntity
  8
10
  6
CONTINOUS
100
AcDbLine
 10
-9.500061271974914
 20
49.750001240251
 30
0.0
 11
-7.500061222118487
 21
49.75000124017796
 31
0.0
  0
LINE
  5
6DDF
330
1E
100
AcDbEntity
  8
10
  6
CONTINOUS
100
AcDbLine
 10
-17.5000614714006
 20
49.75000124017796
 30
0.0
 11
-13.10006136171648
 21
49.750001240251
 31
0.0
  0
LINE
  5
6DE0
330
1E
100
AcDbEntity
  8
18
100
AcDbLine
 10
-13.10006136171648
 20
99.75000124017805
 30
0.0
 11
-9.500061271974914
 21
99.75000124017805
 31
0.0
  0
LINE
  5
6DE1
330
1E
100
AcDbEntity
  8
10
  6
CONTINOUS
100
AcDbLine
 10
37.49993989965076
 20
46.25000115300188
 30
0.0
 11
37.49993989965076
 21
-46.250001152857
 31
0.0
  0
DIMENSION
  5
6DE2
330
1E
100
AcDbEntity
  8
30
  6
CONTINUOUS
100
AcDbDimension
  2
*D44
 10
82.3457452835504
 20
-49.75000124010502
 30
0.0
 11
79.3457452835504
 21
0.0000000000730036
 31
0.0
 70
    32
  1
100
  3
STANDARD
100
AcDbAlignedDimension
 13
35.99987881962221
 23
49.750001240251
 33
0.0
 14
35.99987881962221
 24
-49.75000124010501
 34
0.0
 50
90.0
100
AcDbRotatedDimension
1001
ACAD
1000
DSTYLE
1002
{
1070
    79
1070
     3
1002
}
  0
DIMENSION
  5
6DE3
330
1E
100
AcDbEntity
  8
30
  6
CONTINUOUS
100
AcDbDimension
  2
*D45
 10
67.30446077285671
 20
-42.00000104691203
 30
0.0
 11
64.30446077285672
 21
-0.0000305175060087
 31
0.0
 70
    32
  1
84
  3
STANDARD
100
AcDbAlignedDimension
 13
15.91018729692267
 23
41.99994001190001
 33
0.0
 14
14.95000037191727
 24
-42.00000104691198
 34
0.0
 50
90.0
100
AcDbRotatedDimension
1001
ACAD
1000
DSTYLE
1002
{
1070
    79
1070
     3
1002
}
  0
LINE
  5
6DE4
330
1E
100
AcDbEntity
  8
10
  6
CONTINOUS
100
AcDbLine
 10
35.99987881962221
 20
-46.250001152857
 30
0.0
 11
35.99987881962221
 21
-49.75000124010501
 31
0.0
  0
LINE
  5
6DE5
330
1E
100
AcDbEntity
  8
24
  6
CONTINOUS
100
AcDbLine
 10
32.49993977500975
 20
-49.75000124010501
 30
0.0
 11
32.49993977500975
 21
-33.700008469402
 31
0.0
  0
LINE
  5
6DE6
330
1E
100
AcDbEntity
  8
10
  6
CONTINOUS
100
AcDbLine
 10
13.09993929140259
 20
-46.26023739536996
 30
0.0
 11
13.09993929140259
 21
-49.75000124010501
 31
0.0
  0
LINE
  5
6DE7
330
1E
100
AcDbEntity
  8
10
  6
CONTINOUS
100
AcDbLine
 10
9.499939201660991
 20
-46.250001152857
 30
0.0
 11
9.499939201660991
 21
-49.75000124010501
 31
0.0
  0
LINE
  5
6DE8
330
1E
100
AcDbEntity
  8
24
  6
CONTINOUS
100
AcDbLine
 10
7.499939151804595
 20
-49.75000124017899
 30
0.0
 11
7.499939151804595
 21
-33.700008469402
 31
0.0
  0
LINE
  5
6DE9
330
1E
100
AcDbEntity
  8
24
  6
CONTINOUS
100
AcDbLine
 10
17.49993940108657
 20
-33.700008469402
 30
0.0
 11
17.49993940108657
 21
-49.75000124017899
 31
0.0
  0
LINE
  5
6DEA
330
1E
100
AcDbEntity
  8
10
  6
CONTINOUS
100
AcDbLine
 10
17.49993940108657
 20
-49.75000124017899
 30
0.0
 11
33.49993979993797
 21
-49.75000124017899
 31
0.0
  0
LINE
  5
6DEB
330
1E
100
AcDbEntity
  8
10
  6
CONTINOUS
100
AcDbLine
 10
7.499939151804595
 20
-49.75000124017899
 30
0.0
 11
9.499939201660991
 21
-49.75000124010501
 31
0.0
  0
LINE
  5
6DEC
330
1E
100
AcDbEntity
  8
10
  6
CONTINOUS
100
AcDbLine
 10
13.09993929140259
 20
-49.75000124010501
 30
0.0
 11
17.49993940108657
 21
-49.75000124017899
 31
0.0
  0
LINE
  5
6DED
330
1E
100
AcDbEntity
  8
10
  6
CONTINOUS
100
AcDbLine
 10
32.49993977500975
 20
-49.75000124010501
 30
0.0
 11
35.99987881962221
 21
-49.75000124010501
 31
0.0
  0
DIMENSION
  5
6DEE
330
1E
100
AcDbEntity
  8
30
  6
CONTINUOUS
100
AcDbDimension
  2
*D46
 10
53.31256873740142
 20
-25.000031140711
 30
0.0
 11
50.31256873740143
 21
-0.0000305175060007
 31
0.0
 70
    32
  1
50
  3
STANDARD
100
AcDbAlignedDimension
 13
34.99997035490918
 23
24.99997010569898
 33
0.0
 14
34.99993921452261
 24
-25.000031140711
 34
0.0
 50
90.0
100
AcDbRotatedDimension
1001
ACAD
1000
DSTYLE
1002
{
1070
    79
1070
     3
1002
}
  0
LINE
  5
6DEF
330
1E
100
AcDbEntity
  8
10
  6
CONTINOUS
100
AcDbLine
 10
35.9999398622586
 20
23.99997008077098
 30
0.0
 11
35.9999398622586
 21
-24.000031115783
 31
0.0
  0
LINE
  5
6DF0
330
1E
100
AcDbEntity
  8
10
  6
CONTINOUS
100
AcDbLine
 10
10.99993923905324
 20
24.646416715702
 30
0.0
 11
10.99993923905324
 21
-24.64647775071199
 31
0.0
  0
LINE
  5
6DF1
330
1E
100
AcDbEntity
  8
24
  6
CONTINOUS
100
AcDbLine
 10
32.49993977500975
 20
-33.700008469402
 30
0.0
 11
17.49993940108657
 21
-33.700008469402
 31
0.0
  0
LINE
  5
6DF2
330
1E
100
AcDbEntity
  8
10
  6
CONTINOUS
100
AcDbLine
 10
18.92500352352669
 20
-42.00000104691198
 30
0.0
 11
31.07499772288869
 21
-42.00000104691198
 31
0.0
  0
CIRCLE
  5
6DF3
330
1E
100
AcDbEntity
  8
12
  6
DASHED
100
AcDbCircle
 10
12.5000003116034
 20
-41.999940011754
 30
0.0
 40
2.4500000610741
  0
ARC
  5
6DF4
330
1E
100
AcDbEntity
  8
12
  6
DASHED
100
AcDbCircle
 10
12.5000003116034
 20
-41.999940011754
 30
0.0
 40
3.9000000972199
100
AcDbArc
 50
284.4766918647986
 51
217.300478815292
  0
LINE
  5
6DF5
330
1E
100
AcDbEntity
  8
12
  6
DASHED
100
AcDbLine
 10
9.256487708467917
 20
-42.00000104691198
 30
0.0
 11
15.66002482796756
 21
-42.00000104691198
 31
0.0
  0
LINE
  5
6DF6
330
1E
100
AcDbEntity
  8
10
  6
CONTINOUS
100
AcDbLine
 10
17.49993940108657
 20
-37.90003298816396
 30
0.0
 11
7.499939151804595
 21
-37.90003298816396
 31
0.0
  0
LINE
  5
6DF7
330
1E
100
AcDbEntity
  8
10
  6
CONTINOUS
100
AcDbLine
 10
9.499939201660991
 20
-46.250001152857
 30
0.0
 11
13.09993929140259
 21
-46.250001152857
 31
0.0
  0
ARC
  5
6DF8
330
1E
100
AcDbEntity
  8
10
  6
CONTINOUS
100
AcDbCircle
 10
8.999939190165687
 20
-44.666318289895
 30
0.0
 40
0.50000001246411
100
AcDbArc
 50
359.9999999154316
 51
37.30047881538492
  0
LINE
  5
6DF9
330
1E
100
AcDbEntity
  8
10
  6
CONTINOUS
100
AcDbLine
 10
8.600000214383385
 20
-41.99604680368802
 30
0.0
 11
8.600000214383385
 21
-42.01091362839699
 31
0.0
  0
LINE
  5
6DFA
330
1E
100
AcDbEntity
  8
10
  6
CONTINOUS
100
AcDbLine
 10
9.499939201660991
 20
-46.250001152857
 30
0.0
 11
9.397673409369588
 21
-44.36332075763298
 31
0.0
  0
LINE
  5
6DFB
330
1E
100
AcDbEntity
  8
12
  6
DASHED
100
AcDbLine
 10
12.5000003116034
 20
-45.355565413029
 30
0.0
 11
12.5000003116034
 21
-38.81582146313697
 31
0.0
  0
ARC
  5
6DFC
330
1E
100
AcDbEntity
  8
10
  6
CONTINOUS
100
AcDbCircle
 10
13.59993932351298
 20
-46.260237471376
 30
0.0
 40
0.5000000124638401
100
AcDbArc
 50
104.4766918622679
 51
179.9999912903519
  0
ARC
  5
6DFD
330
1E
100
AcDbEntity
  8
10
  6
CONTINOUS
100
AcDbCircle
 10
10.6463858490535
 20
-24.64647775071199
 30
0.0
 40
0.35355339
100
AcDbArc
 50
270.0000000000341
 51
0.0
  0
LINE
  5
6DFE
330
1E
100
AcDbEntity
  8
24
  6
CONTINOUS
100
AcDbLine
 10
24.99998536441819
 20
-35.92498868844099
 30
0.0
 11
24.99998536441819
 21
-48.07501340538196
 31
0.0
  0
LINE
  5
6DFF
330
1E
100
AcDbEntity
  8
10
  6
CONTINOUS
100
AcDbLine
 10
35.99987881962221
 20
-46.250001152857
 30
0.0
 11
37.49993989965076
 21
-46.250001152857
 31
0.0
  0
LINE
  5
6E00
330
1E
100
AcDbEntity
  8
10
  6
CONTINOUS
100
AcDbLine
 10
37.49993989965076
 20
-37.90003298816396
 30
0.0
 11
32.49993977500975
 21
-37.90003298816396
 31
0.0
  0
ARC
  5
6E01
330
1E
100
AcDbEntity
  8
10
  6
CONTINOUS
100
AcDbCircle
 10
34.99993983733043
 20
-24.000031115783
 30
0.0
 40
1.000000024928209
100
AcDbArc
 50
270.0
 51
0.0
  0
CIRCLE
  5
6E02
330
1E
100
AcDbEntity
  8
10
  6
CONTINOUS
100
AcDbCircle
 10
32.69999999999999
 20
-13.5
 30
0.0
 40
1.8000000448708
  0
LINE
  5
6E03
330
1E
100
AcDbEntity
  8
10
  6
CONTINOUS
100
AcDbLine
 10
6.499939126876483
 20
16.17330063119799
 30
0.0
 11
6.499939126876483
 21
0.8258863704569987
 31
0.0
  0
LINE
  5
6E04
330
1E
100
AcDbEntity
  8
10
  6
CONTINOUS
100
AcDbLine
 10
5.999946743806987
 20
19.88189967101402
 30
0.0
 11
5.999946743806987
 21
2.900000072364973
 31
0.0
  0
ARC
  5
6E05
330
1E
100
AcDbEntity
  8
10
  6
CONTINOUS
100
AcDbCircle
 10
10.64638584905289
 20
24.64641671570088
 30
0.0
 40
0.35355339
100
AcDbArc
 50
0.0000000001661013
 51
90.00000000006512
  0
LINE
  5
6E06
330
1E
100
AcDbEntity
  8
10
  6
CONTINOUS
100
AcDbLine
 10
5.999946743806987
 20
16.17330063119799
 30
0.0
 11
6.499939126876483
 21
16.17330063119799
 31
0.0
  0
LINE
  5
6E07
330
1E
100
AcDbEntity
  8
10
  6
CONTINOUS
100
AcDbLine
 10
5.999946743806987
 20
14.10000035156099
 30
0.0
 11
6.499939126876483
 21
14.10000035156099
 31
0.0
  0
ARC
  5
6E08
330
1E
100
AcDbEntity
  8
10
  6
CONTINOUS
100
AcDbCircle
 10
34.99997035490918
 20
23.99997008077098
 30
0.0
 40
1.000000024927997
100
AcDbArc
 50
0.0
 51
90.0
  0
DIMENSION
  5
6E09
330
1E
100
AcDbEntity
  8
30
  6
CONTINUOUS
100
AcDbDimension
  2
*D47
 10
82.3457452835504
 20
49.750001240251
 30
0.0
 11
79.34574528355039
 21
74.75000124021452
 31
0.0
 70
    32
  1
50
  3
STANDARD
100
AcDbAlignedDimension
 13
15.49993935123018
 23
99.75000124017805
 33
0.0
 14
35.99987881962221
 24
49.750001240251
 34
0.0
 50
90.0
100
AcDbRotatedDimension
1001
ACAD
1000
DSTYLE
1002
{
1070
    79
1070
     3
1002
}
  0
LINE
  5
6E0A
330
1E
100
AcDbEntity
  8
18
100
AcDbLine
 10
11.89993926148869
 20
49.750001240251
 30
0.0
 11
11.89993926148869
 21
99.75000124017805
 31
0.0
  0
LINE
  5
6E0B
330
1E
100
AcDbEntity
  8
18
100
AcDbLine
 10
15.49993935123018
 20
49.750001240251
 30
0.0
 11
15.49993935123018
 21
99.75000124017805
 31
0.0
  0
LINE
  5
6E0C
330
1E
100
AcDbEntity
  8
24
  6
CONTINOUS
100
AcDbLine
 10
18.92500352352501
 20
39.999999582914
 30
0.0
 11
31.07499772288676
 21
39.999999582914
 31
0.0
  0
LINE
  5
6E0D
330
1E
100
AcDbEntity
  8
24
  6
CONTINOUS
100
AcDbLine
 10
32.49993977500975
 20
33.70000084015298
 30
0.0
 11
17.49993940108657
 21
33.70000084015298
 31
0.0
  0
LINE
  5
6E0E
330
1E
100
AcDbEntity
  8
10
  6
CONTINOUS
100
AcDbLine
 10
17.49993940108657
 20
49.75000124017796
 30
0.0
 11
32.49993977500975
 21
49.75000124017796
 31
0.0
  0
LINE
  5
6E0F
330
1E
100
AcDbEntity
  8
24
  6
CONTINOUS
100
AcDbLine
 10
7.499939151804595
 20
33.70000084015298
 30
0.0
 11
7.499939151804595
 21
49.75000124017796
 31
0.0
  0
LINE
  5
6E10
330
1E
100
AcDbEntity
  8
24
  6
CONTINOUS
100
AcDbLine
 10
17.49993940108657
 20
49.75000124017796
 30
0.0
 11
17.49993940108657
 21
33.70000084015298
 31
0.0
  0
LINE
  5
6E11
330
1E
100
AcDbEntity
  8
10
  6
CONTINOUS
100
AcDbLine
 10
15.49993935123018
 20
46.25000115300188
 30
0.0
 11
15.49993935123018
 21
49.750001240251
 31
0.0
  0
LINE
  5
6E12
330
1E
100
AcDbEntity
  8
10
  6
CONTINOUS
100
AcDbLine
 10
11.89993926148869
 20
46.26020603991699
 30
0.0
 11
11.89993926148869
 21
49.750001240251
 31
0.0
  0
CIRCLE
  5
6E13
330
1E
100
AcDbEntity
  8
12
  6
DASHED
100
AcDbCircle
 10
12.5000003116034
 20
41.99994001190001
 30
0.0
 40
2.4500000610741
  0
ARC
  5
6E14
330
1E
100
AcDbEntity
  8
12
  6
DASHED
100
AcDbCircle
 10
12.5000003116034
 20
41.99994001190001
 30
0.0
 40
3.90000009722017
100
AcDbArc
 50
104.478333036378
 51
37.3031017677423
  0
LINE
  5
6E15
330
1E
100
AcDbEntity
  8
12
  6
DASHED
100
AcDbLine
 10
9.232092472006002
 20
41.99994001190001
 30
0.0
 11
15.91018729692267
 21
41.99994001190001
 31
0.0
  0
LINE
  5
6E16
330
1E
100
AcDbEntity
  8
10
  6
CONTINOUS
100
AcDbLine
 10
17.49993940108657
 20
37.89996432375701
 30
0.0
 11
7.499939151804595
 21
37.89996432375701
 31
0.0
  0
LINE
  5
6E17
330
1E
100
AcDbEntity
  8
12
  6
DASHED
100
AcDbLine
 10
12.5000003116034
 20
45.28292804588497
 30
0.0
 11
12.5000003116034
 21
38.63491472918898
 31
0.0
  0
LINE
  5
6E18
330
1E
100
AcDbEntity
  8
10
  6
CONTINOUS
100
AcDbLine
 10
15.49993935123018
 20
46.25000115300188
 30
0.0
 11
15.49993935131126
 21
44.66647851623
 31
0.0
  0
ARC
  5
6E19
330
1E
100
AcDbEntity
  8
12
  6
DASHED
100
AcDbCircle
 10
15.99993936377541
 20
44.666478516292
 30
0.0
 40
0.50000001246411
100
AcDbArc
 50
180.0000000070999
 51
217.3031017677933
  0
ARC
  5
6E1A
330
1E
100
AcDbEntity
  8
10
  6
CONTINOUS
100
AcDbCircle
 10
11.39993924910487
 20
46.260206039606
 30
0.0
 40
0.5000000124644
100
AcDbArc
 50
284.4783330363496
 51
0.0000000356433822
  0
LINE
  5
6E1B
330
1E
100
AcDbEntity
  8
10
  6
CONTINOUS
100
AcDbLine
 10
11.89993926148869
 20
46.25000115300188
 30
0.0
 11
15.49993935123018
 21
46.25000115300188
 31
0.0
  0
LINE
  5
6E1C
330
1E
100
AcDbEntity
  8
10
  6
CONTINOUS
100
AcDbLine
 10
7.499939151804595
 20
49.75000124017796
 30
0.0
 11
11.89993926148869
 21
49.750001240251
 31
0.0
  0
LINE
  5
6E1D
330
1E
100
AcDbEntity
  8
10
  6
CONTINOUS
100
AcDbLine
 10
15.49993935123018
 20
49.750001240251
 30
0.0
 11
17.49993940108657
 21
49.75000124017796
 31
0.0
  0
LINE
  5
6E1E
330
1E
100
AcDbEntity
  8
10
  6
CONTINOUS
100
AcDbLine
 10
35.99987881962221
 20
46.25000115300188
 30
0.0
 11
35.99987881962221
 21
49.750001240251
 31
0.0
  0
LINE
  5
6E1F
330
1E
100
AcDbEntity
  8
24
  6
CONTINOUS
100
AcDbLine
 10
32.49993977500975
 20
49.75000124017796
 30
0.0
 11
32.49993977500975
 21
33.70000084015298
 31
0.0
  0
LINE
  5
6E20
330
1E
100
AcDbEntity
  8
24
  6
CONTINOUS
100
AcDbLine
 10
24.9999853644164
 20
46.07501194138499
 30
0.0
 11
24.9999853644164
 21
33.92498722444399
 31
0.0
  0
LINE
  5
6E21
330
1E
100
AcDbEntity
  8
10
  6
CONTINOUS
100
AcDbLine
 10
37.49993989965076
 20
37.89996432375701
 30
0.0
 11
32.49993977500975
 21
37.89996432375701
 31
0.0
  0
LINE
  5
6E22
330
1E
100
AcDbEntity
  8
10
  6
CONTINOUS
100
AcDbLine
 10
35.99987881962221
 20
46.25000115300188
 30
0.0
 11
37.49993989965076
 21
46.25000115300188
 31
0.0
  0
LINE
  5
6E23
330
1E
100
AcDbEntity
  8
10
  6
CONTINOUS
100
AcDbLine
 10
32.49993977500975
 20
49.75000124017796
 30
0.0
 11
35.99987881962221
 21
49.750001240251
 31
0.0
  0
LINE
  5
6E24
330
1E
100
AcDbEntity
  8
18
100
AcDbLine
 10
11.89993926148869
 20
99.75000124017805
 30
0.0
 11
15.49993935123018
 21
99.75000124017805
 31
0.0
  0
LINE
  5
6F88
330
1E
100
AcDbEntity
  8
18
  6
DIVIDE
100
AcDbLine
 10
-37.88009546997894
 20
-201.8473928244818
 30
0.0
 11
37.11990639963664
 21
-201.8473928244818
 31
0.0
  0
LINE
  5
6F8A
330
1E
100
AcDbEntity
  8
18
  6
DIVIDE
100
AcDbLine
 10
-37.88009546997894
 20
-301.8473952175888
 30
0.0
 11
37.11990639963664
 21
-301.8473952175888
 31
0.0
  0
DIMENSION
  5
6F8B
330
1E
100
AcDbEntity
  8
30
  6
CONTINUOUS
100
AcDbDimension
  2
*D50
 10
56.91950927442401
 20
-292.8473950181631
 30
0.0
 11
53.91950927442406
 21
-250.8473940210345
 31
0.0
 70
    32
  1
84
  3
STANDARD
100
AcDbAlignedDimension
 13
-4.653776282331556
 23
-208.8473930239058
 33
0.0
 14
19.71220638073294
 24
-292.8473950181631
 34
0.0
 50
90.0
100
AcDbRotatedDimension
1001
ACAD
1000
DSTYLE
1002
{
1070
    79
1070
     3
1002
}
  0
DIMENSION
  5
6F8C
330
1E
100
AcDbEntity
  8
30
  6
CONTINUOUS
100
AcDbDimension
  2
*D51
 10
12.11990577643121
 20
-321.0236566433458
 30
0.0
 11
-0.3800945351712784
 21
-318.0236566433458
 31
0.0
 70
    32
  1
25
  3
STANDARD
100
AcDbAlignedDimension
 13
-12.88009484677376
 23
-217.3970984263778
 33
0.0
 14
12.11990577643121
 24
-303.2968304626213
 34
0.0
100
AcDbRotatedDimension
1001
ACAD
1000
DSTYLE
1002
{
1070
    79
1070
     3
1002
}
  0
LINE
  5
6F8D
330
1E
100
AcDbEntity
  8
18
  6
DIVIDE
100
AcDbLine
 10
-37.88009546997894
 20
-301.8473952175888
 30
0.0
 11
-37.88009546997894
 21
-201.8473928244818
 31
0.0
  0
LINE
  5
6F8E
330
1E
100
AcDbEntity
  8
12
  6
CONTINUOUS
 62
     3
100
AcDbLine
 10
-12.88009484677376
 20
-199.2473866810796
 30
0.0
 11
-12.88009484677376
 21
-217.3970984263778
 31
0.0
  0
CIRCLE
  5
6F8F
330
1E
100
AcDbEntity
  8
12
  6
CONTINUOUS
 62
     3
100
AcDbCircle
 10
-12.88009484677396
 20
-208.8473930239058
 30
0.0
 40
4.000000099712798
  0
CIRCLE
  5
6F90
330
1E
100
AcDbEntity
  8
12
  6
CONTINUOUS
 62
     3
100
AcDbCircle
 10
-12.88009484677396
 20
-208.8473930239058
 30
0.0
 40
2.500000062320419
  0
LINE
  5
6F91
330
1E
100
AcDbEntity
  8
12
  6
CONTINUOUS
 62
     3
100
AcDbLine
 10
-20.75555076071537
 20
-208.8473930239058
 30
0.0
 11
-4.653776282331556
 21
-208.8473930239058
 31
0.0
  0
LINE
  5
6F92
330
1E
100
AcDbEntity
  8
30
  6
CONTINUOUS
100
AcDbLine
 10
-10.83167606672878
 20
-205.4117007648025
 30
0.0
 11
-8.64404295848478
 21
-200.72030645242
 31
0.0
  0
LINE
  5
6F93
330
1E
100
AcDbEntity
  8
30
  6
CONTINUOUS
100
AcDbLine
 10
-10.83167606672878
 20
-205.4117007648025
 30
0.0
 11
-6.591433078107447
 21
-202.4426506459954
 31
0.0
  0
LINE
  5
6F94
330
1E
100
AcDbEntity
  8
18
  6
DIVIDE
100
AcDbLine
 10
37.11990639963664
 20
-301.8473952175888
 30
0.0
 11
37.11990639963664
 21
-201.8473928244818
 31
0.0
  0
LINE
  5
6F96
330
1E
100
AcDbEntity
  8
12
  6
CONTINUOUS
 62
     3
100
AcDbLine
 10
3.666357286236438
 20
-292.8473950181631
 30
0.0
 11
19.71220638073294
 21
-292.8473950181631
 31
0.0
  0
CIRCLE
  5
6F97
330
1E
100
AcDbEntity
  8
12
  6
CONTINUOUS
 62
     3
100
AcDbCircle
 10
12.11990577643121
 20
-292.8473950181631
 30
0.0
 40
4.000000099712798
  0
CIRCLE
  5
6F98
330
1E
100
AcDbEntity
  8
12
  6
CONTINUOUS
 62
     3
100
AcDbCircle
 10
12.11990577643121
 20
-292.8473950181631
 30
0.0
 40
2.5000000623206
  0
LINE
  5
6F99
330
1E
100
AcDbEntity
  8
12
  6
CONTINUOUS
 62
     3
100
AcDbLine
 10
12.11990577643121
 20
-283.6473978405813
 30
0.0
 11
12.11990577643121
 21
-303.2968304626213
 31
0.0
  0
LINE
  5
6F9A
330
1E
100
AcDbEntity
  8
30
  6
CONTINUOUS
100
AcDbLine
 10
-10.83167606672878
 20
-205.4117007648025
 30
0.0
 11
11.73406772071871
 21
-178.5188945365513
 31
0.0
  0
LINE
  5
6F9B
330
1E
100
AcDbEntity
  8
30
  6
CONTINUOUS
100
AcDbLine
 10
11.73406772071871
 20
-178.5188945365513
 30
0.0
 11
53.02453509824972
 21
-178.5188945365513
 31
0.0
  0
TEXT
  5
6F9C
330
1E
100
AcDbEntity
  8
30
  6
CONTINUOUS
100
AcDbText
 10
13.44475013082663
 20
-177.0188945365515
 30
0.0
 40
5.0
  1
M4 or %%c5
  7
MOJI
100
AcDbText
  0
LINE
  5
6FFD
330
1E
100
AcDbEntity
  8
11
 48
2.0
100
AcDbLine
 10
137.2029339971319
 20
-224.8473933729016
 30
0.0
 11
203.2029355925362
 21
-224.8473933729016
 31
0.0
  0
LINE
  5
6FFE
330
1E
100
AcDbEntity
  8
18
  6
DIVIDE
100
AcDbLine
 10
132.7029338600264
 20
-201.8473928244818
 30
0.0
 11
207.7029357296423
 21
-201.8473928244818
 31
0.0
  0
LINE
  5
6FFF
330
1E
100
AcDbEntity
  8
11
 48
2.0
100
AcDbLine
 10
127.0883707317844
 20
-250.8473940210349
 30
0.0
 11
213.142938306658
 21
-250.8473940210349
 31
0.0
  0
LINE
  5
7000
330
1E
100
AcDbEntity
  8
11
 48
2.0
100
AcDbLine
 10
137.2029339971319
 20
-276.847394669168
 30
0.0
 11
203.2029355925362
 21
-276.847394669168
 31
0.0
  0
LINE
  5
7001
330
1E
100
AcDbEntity
  8
18
  6
DIVIDE
100
AcDbLine
 10
132.7029338600264
 20
-301.8473952175888
 30
0.0
 11
207.7029357296423
 21
-301.8473952175888
 31
0.0
  0
DIMENSION
  5
7002
330
1E
100
AcDbEntity
  8
30
  6
CONTINUOUS
100
AcDbDimension
  2
*D55
 10
136.0344995507122
 20
-225.469845029698
 30
0.0
 11
150.8732466481795
 21
-241.2220260191808
 31
0.0
 70
   164
  1
R2
  3
STANDARD
100
AcDbRadialDimension
 15
136.5205196916737
 25
-226.1986004501746
 35
0.0
 40
0.0
1001
ACAD
1000
DSTYLE
1002
{
1070
    79
1070
     3
1002
}
  0
DIMENSION
  5
7003
330
1E
100
AcDbEntity
  8
30
  6
CONTINUOUS
100
AcDbDimension
  2
*D56
 10
205.2029356423926
 20
-321.0236566433458
 30
0.0
 11
170.2029347948339
 21
-318.0236566433458
 31
0.0
 70
    32
  1
74
  3
STANDARD
100
AcDbAlignedDimension
 13
135.2029339472754
 23
-274.8473946193116
 33
0.0
 14
205.2029356423926
 24
-274.8473946193116
 34
0.0
100
AcDbRotatedDimension
1001
ACAD
1000
DSTYLE
1002
{
1070
    79
1070
     3
1002
}
  0
LINE
  5
7004
330
1E
100
AcDbEntity
  8
11
 48
2.0
100
AcDbLine
 10
135.2029339472754
 20
-274.8473946193116
 30
0.0
 11
135.2029339472754
 21
-226.8473933729016
 31
0.0
  0
LINE
  5
7005
330
1E
100
AcDbEntity
  8
18
  6
DIVIDE
100
AcDbLine
 10
132.7029338600264
 20
-301.8473952175888
 30
0.0
 11
132.7029338600264
 21
-201.8473928244818
 31
0.0
  0
ARC
  5
7006
330
1E
100
AcDbEntity
  8
11
 48
2.0
100
AcDbCircle
 10
137.2029339971319
 20
-274.8473946193116
 30
0.0
 40
2.000000049856379
100
AcDbArc
 50
180.0
 51
270.0
  0
ARC
  5
7007
330
1E
100
AcDbEntity
  8
11
 48
2.0
100
AcDbCircle
 10
137.2029339971319
 20
-226.8473934227578
 30
0.0
 40
2.000000049855997
100
AcDbArc
 50
90.0
 51
179.9999985717308
  0
LINE
  5
7008
330
1E
100
AcDbEntity
  8
11
 48
2.0
100
AcDbLine
 10
205.2029356423942
 20
-274.8473946193116
 30
0.0
 11
205.2029356423942
 21
-226.8473934227578
 31
0.0
  0
LINE
  5
7009
330
1E
100
AcDbEntity
  8
18
  6
DIVIDE
100
AcDbLine
 10
207.7029357296423
 20
-301.8473952175888
 30
0.0
 11
207.7029357296423
 21
-201.8473928244818
 31
0.0
  0
DIMENSION
  5
700B
330
1E
100
AcDbEntity
  8
30
  6
CONTINUOUS
100
AcDbDimension
  2
*D57
 10
226.2783808579053
 20
-276.847394669168
 30
0.0
 11
223.2783808579053
 21
-250.8473940210345
 31
0.0
 70
    32
  1
52
  3
STANDARD
100
AcDbAlignedDimension
 13
203.2029355925362
 23
-224.8473933729012
 33
0.0
 14
203.2029355925362
 24
-276.847394669168
 34
0.0
 50
90.0
100
AcDbRotatedDimension
1001
ACAD
1000
DSTYLE
1002
{
1070
    79
1070
     3
1002
}
  0
ARC
  5
700C
330
1E
100
AcDbEntity
  8
11
 48
2.0
100
AcDbCircle
 10
203.2029355925362
 20
-274.8473946193116
 30
0.0
 40
2.000000049856399
100
AcDbArc
 50
270.0
 51
0.0
  0
ARC
  5
700D
330
1E
100
AcDbEntity
  8
11
 48
2.0
100
AcDbCircle
 10
203.2029355925362
 20
-226.8473934227578
 30
0.0
 40
2.00000004985658
100
AcDbArc
 50
0.0
 51
90.0
  0
LINE
  5
7117
330
1E
100
AcDbEntity
  8
10
  6
CONTINOUS
100
AcDbLine
 10
195.1854921474717
 20
46.25006218808711
 30
0.0
 11
206.1854924216818
 21
46.25006218808711
 31
0.0
  0
LINE
  5
7118
330
1E
100
AcDbEntity
  8
10
  6
CONTINOUS
100
AcDbLine
 10
195.1854921474717
 20
49.75006227533608
 30
0.0
 11
206.1854924216818
 21
49.75006227533608
 31
0.0
  0
LINE
  5
7119
330
1E
100
AcDbEntity
  8
18
100
AcDbLine
 10
197.6854629012317
 20
99.75000124017812
 30
0.0
 11
243.6854629012314
 21
99.75000124017812
 31
0.0
  0
LINE
  5
711A
330
1E
100
AcDbEntity
  8
10
  6
CONTINOUS
100
AcDbLine
 10
203.1854629012314
 20
44.44994007297395
 30
0.0
 11
245.9606635216486
 21
44.44994007297395
 31
0.0
  0
LINE
  5
711B
330
1E
100
AcDbEntity
  8
10
  6
CONTINOUS
100
AcDbLine
 10
203.1854629012314
 20
39.54993995082607
 30
0.0
 11
246.1854629012317
 21
39.54993995082607
 31
0.0
  0
LINE
  5
711C
330
1E
100
AcDbEntity
  8
10
  6
CONTINOUS
100
AcDbLine
 10
195.1854921474717
 20
-46.24994011777189
 30
0.0
 11
206.1854924216818
 21
-46.24994011777189
 31
0.0
  0
LINE
  5
711D
330
1E
100
AcDbEntity
  8
10
  6
CONTINOUS
100
AcDbLine
 10
195.1854921474717
 20
-49.74994020502091
 30
0.0
 11
206.1854924216818
 21
-49.74994020502091
 31
0.0
  0
DIMENSION
  5
711E
330
1E
100
AcDbEntity
  8
30
  6
CONTINUOUS
100
AcDbDimension
  2
*D66
 10
246.1854629012317
 20
60.53172932163398
 30
0.0
 11
224.6854629012315
 21
63.53172932163399
 31
0.0
 70
    32
  1
43
  3
STANDARD
100
AcDbAlignedDimension
 13
203.1854629012314
 23
45.89994010912007
 33
0.0
 14
246.1854629012317
 24
43.0000621070691
 34
0.0
100
AcDbRotatedDimension
1001
ACAD
1000
DSTYLE
1002
{
1070
    79
1070
     3
1002
}
  0
DIMENSION
  5
711F
330
1E
100
AcDbEntity
  8
30
  6
CONTINUOUS
100
AcDbDimension
  2
*D67
 10
243.6854629012314
 20
106.3515410236987
 30
0.0
 11
220.6854629012314
 21
109.3515410236987
 31
0.0
 70
    32
  1
46
  3
STANDARD
100
AcDbAlignedDimension
 13
197.6854629012317
 23
99.75000124017812
 33
0.0
 14
243.6854629012314
 24
99.75000124017812
 34
0.0
100
AcDbRotatedDimension
1001
ACAD
1000
DSTYLE
1002
{
1070
    79
1070
     3
1002
}
  0
DIMENSION
  5
7120
330
1E
100
AcDbEntity
  8
30
  6
CONTINUOUS
100
AcDbDimension
  2
*D68
 10
246.1550784064987
 20
-77.58952468116901
 30
0.0
 11
216.1703004235969
 21
-74.58952468116901
 31
0.0
 70
    32
  1
60
  3
STANDARD
100
AcDbAlignedDimension
 13
186.1855224406956
 23
-36.89997192815089
 33
0.0
 14
246.1550784064987
 24
-44.84729743590491
 34
0.0
100
AcDbRotatedDimension
1001
ACAD
1000
DSTYLE
1002
{
1070
    79
1070
     3
1002
}
  0
DIMENSION
  5
7121
330
1E
100
AcDbEntity
  8
30
  6
CONTINUOUS
100
AcDbDimension
  2
*D69
 10
246.1550784064987
 20
-65.88217878204419
 30
0.0
 11
220.670285276985
 21
-62.88217878204419
 31
0.0
 70
    32
  1
51
  3
STANDARD
100
AcDbAlignedDimension
 13
195.1854921474717
 23
-49.74994020502091
 33
0.0
 14
246.1550784064987
 24
-43.34729743590489
 34
0.0
100
AcDbRotatedDimension
1001
ACAD
1000
DSTYLE
1002
{
1070
    79
1070
     3
1002
}
  0
LINE
  5
7122
330
1E
100
AcDbEntity
  8
10
  6
CONTINOUS
100
AcDbLine
 10
186.1855224406966
 20
36.90002533388609
 30
0.0
 11
186.1855224406966
 21
24.99997010569909
 31
0.0
  0
LINE
  5
7123
330
1E
100
AcDbEntity
  8
10
  6
CONTINOUS
100
AcDbLine
 10
195.1854921474717
 20
-49.74994020502091
 30
0.0
 11
195.1854921474717
 21
-37.89997195307988
 31
0.0
  0
LINE
  5
7124
330
1E
100
AcDbEntity
  8
10
  6
CONTINOUS
100
AcDbLine
 10
174.1855528712694
 20
13.04084361853908
 30
0.0
 11
174.1855528712694
 21
-24.4999395755829
 31
0.0
  0
LINE
  5
7125
330
1E
100
AcDbEntity
  8
10
  6
CONTINOUS
100
AcDbLine
 10
186.1855224406966
 20
24.99997010569909
 30
0.0
 11
186.1855224406966
 21
-24.99993958804789
 31
0.0
  0
LINE
  5
7126
330
1E
100
AcDbEntity
  8
10
  6
CONTINOUS
100
AcDbLine
 10
178.1855528295608
 20
24.64641671570007
 30
0.0
 11
178.1855528295608
 21
-24.49993957558489
 31
0.0
  0
LINE
  5
7127
330
1E
100
AcDbEntity
  8
10
  6
CONTINOUS
100
AcDbLine
 10
174.6855528837326
 20
-24.99993958804789
 30
0.0
 11
186.1855224406966
 21
-24.99993958804789
 31
0.0
  0
ARC
  5
7128
330
1E
100
AcDbEntity
  8
10
  6
CONTINOUS
100
AcDbCircle
 10
174.6855528837326
 20
-24.4999395755829
 30
0.0
 40
0.50000001246403
100
AcDbArc
 50
180.0
 51
270.0
  0
ARC
  5
7129
330
1E
100
AcDbEntity
  8
10
  6
CONTINOUS
100
AcDbCircle
 10
178.6855528420211
 20
-24.49993957558389
 30
0.0
 40
0.50000001246397
100
AcDbArc
 50
180.0000000001171
 51
269.999999999658
  0
LINE
  5
712A
330
1E
100
AcDbEntity
  8
10
  6
CONTINOUS
100
AcDbLine
 10
186.1855224406966
 20
-24.99993958804789
 30
0.0
 11
186.1855224406966
 21
-36.89997192815089
 31
0.0
  0
LINE
  5
712B
330
1E
100
AcDbEntity
  8
10
  6
CONTINOUS
100
AcDbLine
 10
195.1854921474717
 20
-37.89997195307988
 30
0.0
 11
187.1855224656247
 21
-37.89997195307988
 31
0.0
  0
ARC
  5
712C
330
1E
100
AcDbEntity
  8
10
  6
CONTINOUS
100
AcDbCircle
 10
187.1855224656247
 20
-36.89997192815089
 30
0.0
 40
1.000000024928987
100
AcDbArc
 50
180.0
 51
270.0
  0
LINE
  5
712D
330
1E
100
AcDbEntity
  8
10
  6
CONTINOUS
100
AcDbLine
 10
174.5391062612666
 20
24.99997010569909
 30
0.0
 11
186.1855224406966
 21
24.99997010569909
 31
0.0
  0
LINE
  5
712E
330
1E
100
AcDbEntity
  8
10
  6
CONTINOUS
100
AcDbLine
 10
174.1855528712694
 20
24.64641671569798
 30
0.0
 11
174.1855528712694
 21
18.4726473838411
 31
0.0
  0
LINE
  5
712F
330
1E
100
AcDbEntity
  8
10
  6
CONTINOUS
100
AcDbLine
 10
169.1982274460606
 20
18.96069184631009
 30
0.0
 11
174.1855528712694
 21
16.84370416783108
 31
0.0
  0
LINE
  5
7130
330
1E
100
AcDbEntity
  8
10
  6
CONTINOUS
100
AcDbLine
 10
174.1855528712694
 20
14.67098463438809
 30
0.0
 11
168.4143433796547
 21
17.12071035750107
 31
0.0
  0
LINE
  5
7131
330
1E
100
AcDbEntity
  8
10
  6
CONTINOUS
100
AcDbLine
 10
174.1855528712694
 20
18.4726473838411
 30
0.0
 11
174.1855528712694
 21
13.04084361853908
 31
0.0
  0
ARC
  5
7132
330
1E
100
AcDbEntity
  8
10
  6
CONTINOUS
100
AcDbCircle
 10
174.5391062612666
 20
24.64641671569909
 30
0.0
 40
0.35355338999898
100
AcDbArc
 50
90.0
 51
180.000000000166
  0
ARC
  5
7133
330
1E
100
AcDbEntity
  8
10
  6
CONTINOUS
100
AcDbCircle
 10
178.5391062195608
 20
24.64641671570007
 30
0.0
 40
0.35355339
100
AcDbArc
 50
89.99999999984041
 51
180.0
  0
LINE
  5
7134
330
1E
100
AcDbEntity
  8
18
100
AcDbLine
 10
197.6854629012317
 20
99.75000124017812
 30
0.0
 11
197.6854629012317
 21
49.75006227533608
 31
0.0
  0
LINE
  5
7135
330
1E
100
AcDbEntity
  8
10
  6
CONTINOUS
100
AcDbLine
 10
195.1854921474717
 20
49.75006227533608
 30
0.0
 11
195.1854921474717
 21
37.90002535884211
 31
0.0
  0
LINE
  5
7136
330
1E
100
AcDbEntity
  8
10
  6
CONTINOUS
100
AcDbLine
 10
195.1854921474717
 20
37.90002535884211
 30
0.0
 11
187.1855224655891
 21
37.90002535884211
 31
0.0
  0
ARC
  5
7137
330
1E
100
AcDbEntity
  8
10
  6
CONTINOUS
100
AcDbCircle
 10
187.1855224656076
 20
36.90002533388609
 30
0.0
 40
1.000000024927997
100
AcDbArc
 50
90.00000000103243
 51
180.0
  0
LINE
  5
7138
330
1E
100
AcDbEntity
  8
10
  6
CONTINOUS
100
AcDbLine
 10
203.1854629012314
 20
45.89994010912007
 30
0.0
 11
203.1854629012314
 21
38.09993991468012
 31
0.0
  0
LINE
  5
7139
330
1E
100
AcDbEntity
  8
10
  6
CONTINOUS
100
AcDbLine
 10
195.1854921474717
 20
38.09993991468012
 30
0.0
 11
203.1854629012314
 21
38.09993991468012
 31
0.0
  0
LINE
  5
713A
330
1E
100
AcDbEntity
  8
10
  6
CONTINOUS
100
AcDbLine
 10
195.1854921474717
 20
45.89994010912007
 30
0.0
 11
203.1854629012314
 21
45.89994010912007
 31
0.0
  0
LINE
  5
713B
330
1E
100
AcDbEntity
  8
10
  6
CONTINOUS
100
AcDbLine
 10
246.1854629012317
 20
43.0000621070691
 30
0.0
 11
246.1854629012317
 21
15.80007973957011
 31
0.0
  0
LINE
  5
713C
330
1E
100
AcDbEntity
  8
10
  6
CONTINOUS
100
AcDbLine
 10
206.1854924216818
 20
49.75006227533608
 30
0.0
 11
206.1854924216818
 21
-49.74994020502091
 31
0.0
  0
ARC
  5
713D
330
1E
100
AcDbEntity
  8
10
  6
CONTINOUS
100
AcDbCircle
 10
243.3479096721316
 20
-47.75000119032189
 30
0.0
 40
2.00000004985702
100
AcDbArc
 50
270.0
 51
350.0000000000062
  0
LINE
  5
713E
330
1E
100
AcDbEntity
  8
10
  6
CONTINOUS
100
AcDbLine
 10
206.1854924216818
 20
-49.74994020502091
 30
0.0
 11
243.3479096721316
 21
-49.75000124017888
 31
0.0
  0
LINE
  5
713F
330
1E
100
AcDbEntity
  8
10
  6
CONTINOUS
100
AcDbLine
 10
242.3854322889257
 20
17.80001875426909
 30
0.0
 11
242.5970268234798
 21
16.60000651732407
 31
0.0
  0
LINE
  5
7140
330
1E
100
AcDbEntity
  8
10
  6
CONTINOUS
100
AcDbLine
 10
242.2854628040116
 20
-15.50001106753988
 30
0.0
 11
242.7853972036806
 21
-15.50001106753988
 31
0.0
  0
LINE
  5
7141
330
1E
100
AcDbEntity
  8
10
  6
CONTINOUS
100
AcDbLine
 10
241.1854322590115
 20
-17.50003095382287
 30
0.0
 11
243.3519775094717
 21
-18.08055500404891
 31
0.0
  0
LINE
  5
7142
330
1E
100
AcDbEntity
  8
10
  6
CONTINOUS
100
AcDbLine
 10
245.6432658854617
 20
-46.24993048151188
 30
0.0
 11
206.1854924216818
 21
-46.24994011777189
 31
0.0
  0
LINE
  5
7143
330
1E
100
AcDbEntity
  8
10
  6
CONTINOUS
100
AcDbLine
 10
241.1854322590115
 20
17.80001875426909
 30
0.0
 11
241.1854322590115
 21
-17.50003095382287
 31
0.0
  0
LINE
  5
7144
330
1E
100
AcDbEntity
  8
10
  6
CONTINOUS
100
AcDbLine
 10
242.2854628040116
 20
-15.50001106753988
 30
0.0
 11
241.9639204942146
 21
-16.7000233044849
 31
0.0
  0
LINE
  5
7145
330
1E
100
AcDbEntity
  8
10
  6
CONTINOUS
100
AcDbLine
 10
241.1854627765907
 20
-16.7000233044849
 30
0.0
 11
241.9639204942146
 21
-16.7000233044849
 31
0.0
  0
ARC
  5
7146
330
1E
100
AcDbEntity
  8
10
  6
CONTINOUS
100
AcDbCircle
 10
237.4854321667775
 20
14.60001867449899
 30
0.0
 40
4.200000104698148
100
AcDbArc
 50
331.7574628155623
 51
28.24253718443749
  0
LINE
  5
7147
330
1E
100
AcDbEntity
  8
10
  6
CONTINOUS
100
AcDbLine
 10
241.1854322590115
 20
17.80001875426909
 30
0.0
 11
242.3854322889257
 21
17.80001875426909
 31
0.0
  0
LINE
  5
7148
330
1E
100
AcDbEntity
  8
10
  6
CONTINOUS
100
AcDbLine
 10
246.1854629012317
 20
-27.50003120310491
 30
0.0
 11
246.1854629012317
 21
-43.00005295179589
 31
0.0
  0
LINE
  5
7149
330
1E
100
AcDbEntity
  8
10
  6
CONTINOUS
100
AcDbLine
 10
245.7854689947758
 20
-45.44345657296857
 30
0.0
 11
246.1550784064987
 21
-43.34729743590489
 31
0.0
  0
LINE
  5
714A
330
1E
100
AcDbEntity
  8
10
  6
CONTINOUS
100
AcDbLine
 10
245.3523036747245
 20
-47.9000591774619
 30
0.0
 11
245.7854689947756
 21
-45.44345657296388
 31
0.0
  0
ARC
  5
714B
330
1E
100
AcDbEntity
  8
10
  6
CONTINOUS
100
AcDbCircle
 10
245.4854506767506
 20
-47.60007137701489
 30
0.0
 40
0.30000001939899
100
AcDbArc
 50
270.0
 51
0.0
  0
ARC
  5
714C
330
1E
100
AcDbEntity
  8
10
  6
CONTINOUS
100
AcDbCircle
 10
244.1854628513755
 20
-43.00000107191282
 30
0.0
 40
2.000000049855997
100
AcDbArc
 50
349.9999999999784
 51
359.9985137508663
  0
LINE
  5
714D
330
1E
100
AcDbEntity
  8
10
  6
CONTINOUS
100
AcDbLine
 10
245.7854689947756
 20
-47.60007137701489
 30
0.0
 11
245.7854689947756
 21
-45.44345657296388
 31
0.0
  0
LINE
  5
714E
330
1E
100
AcDbEntity
  8
10
  6
CONTINOUS
100
AcDbLine
 10
245.3523036747245
 20
-47.9000591774619
 30
0.0
 11
245.4854506767506
 21
-47.9000591774619
 31
0.0
  0
LINE
  5
714F
330
1E
100
AcDbEntity
  8
10
  6
CONTINOUS
100
AcDbLine
 10
245.3175252272546
 20
-48.09729755431289
 30
0.0
 11
245.3523036747245
 21
-47.9000591774619
 31
0.0
  0
ARC
  5
7150
330
1E
100
AcDbEntity
  8
10
  6
CONTINOUS
100
AcDbCircle
 10
242.8343394063646
 20
-20.01240670478491
 30
0.0
 40
2.000000049857169
100
AcDbArc
 50
10.00000000000489
 51
75.00000000005276
  0
LINE
  5
7151
330
1E
100
AcDbEntity
  8
10
  6
CONTINOUS
100
AcDbLine
 10
245.7854689947756
 20
-25.23155303346491
 30
0.0
 11
245.7854689947756
 21
-18.50008285863488
 31
0.0
  0
LINE
  5
7152
330
1E
100
AcDbEntity
  8
10
  6
CONTINOUS
100
AcDbLine
 10
245.7854689947756
 20
-25.23155303346259
 30
0.0
 11
246.1854629012317
 21
-27.50003120310491
 31
0.0
  0
LINE
  5
7153
330
1E
100
AcDbEntity
  8
10
  6
CONTINOUS
100
AcDbLine
 10
245.7854689947756
 20
-25.23155303346269
 30
0.0
 11
244.8039549614906
 21
-19.6651103407929
 31
0.0
  0
LINE
  5
7154
330
1E
100
AcDbEntity
  8
10
  6
CONTINOUS
100
AcDbLine
 10
245.7854689947756
 20
-18.50008285863488
 30
0.0
 11
242.7853972036806
 21
-15.50001106753988
 31
0.0
  0
LINE
  5
7155
330
1E
100
AcDbEntity
  8
10
  6
CONTINOUS
100
AcDbLine
 10
245.7854689947756
 20
-19.10005845952791
 30
0.0
 11
244.6141205386408
 21
-19.10005845952791
 31
0.0
  0
ARC
  5
7156
330
1E
100
AcDbEntity
  8
10
  6
CONTINOUS
100
AcDbCircle
 10
245.6854323711886
 20
15.80007973957011
 30
0.0
 40
0.50000001246403
100
AcDbArc
 50
270.0
 51
0.0
  0
LINE
  5
7157
330
1E
100
AcDbEntity
  8
10
  6
CONTINOUS
100
AcDbLine
 10
242.5970268234798
 20
16.60000651732407
 30
0.0
 11
245.0942803037007
 21
15.30007972710611
 31
0.0
  0
LINE
  5
7158
330
1E
100
AcDbEntity
  8
10
  6
CONTINOUS
100
AcDbLine
 10
245.0942803037007
 20
15.30007972710611
 30
0.0
 11
245.6854323711886
 21
15.30007972710611
 31
0.0
  0
DIMENSION
  5
7159
330
1E
100
AcDbEntity
  8
30
  6
CONTINUOUS
100
AcDbDimension
  2
*D70
 10
246.1854629012317
 20
106.3515410236987
 30
0.0
 11
255.1854629012314
 21
109.3515410236987
 31
0.0
 70
    32
  1
2.5
  3
STANDARD
100
AcDbAlignedDimension
 13
243.6854629012314
 23
99.75000124017812
 33
0.0
 14
246.1854629012317
 24
43.0000621070691
 34
0.0
100
AcDbRotatedDimension
1001
ACAD
1000
DSTYLE
1002
{
1070
    79
1070
     3
1002
}
  0
LINE
  5
715A
330
1E
100
AcDbEntity
  8
10
  6
CONTINOUS
100
AcDbLine
 10
206.1854924216818
 20
49.75006227533608
 30
0.0
 11
243.3479096721316
 21
49.75006227533608
 31
0.0
  0
LINE
  5
715B
330
1E
100
AcDbEntity
  8
10
  6
CONTINOUS
100
AcDbLine
 10
244.8041703686028
 20
46.24996806458006
 30
0.0
 11
206.1854924216818
 21
46.25006218808711
 31
0.0
  0
LINE
  5
715C
330
1E
100
AcDbEntity
  8
18
100
AcDbLine
 10
243.6854629012314
 20
99.75000124017812
 30
0.0
 11
243.6854629012314
 21
49.75006227533608
 31
0.0
  0
ARC
  5
715D
330
1E
100
AcDbEntity
  8
10
  6
CONTINOUS
100
AcDbCircle
 10
243.3479096721316
 20
47.75006222547911
 30
0.0
 40
2.00000004985697
100
AcDbArc
 50
9.999999999990066
 51
90.0
  0
ARC
  5
715E
330
1E
100
AcDbEntity
  8
10
  6
CONTINOUS
100
AcDbCircle
 10
244.1854628513747
 20
43.00006210707012
 30
0.0
 40
2.00000004985697
100
AcDbArc
 50
359.9999999999706
 51
9.999999999986957
  0
ARC
  5
715F
330
1E
100
AcDbEntity
  8
10
  6
CONTINOUS
100
AcDbCircle
 10
244.8041703686028
 20
45.24996803965213
 30
0.0
 40
1.000000024927997
100
AcDbArc
 50
10.00000000001534
 51
90.0
  0
LINE
  5
7160
330
1E
100
AcDbEntity
  8
10
  6
CONTINOUS
100
AcDbLine
 10
245.3175252272546
 20
48.09735858947012
 30
0.0
 11
246.1550784064987
 21
43.3473584710611
 31
0.0
  0
DIMENSION
  5
7162
330
1E
100
AcDbEntity
  8
30
  6
CONTINUOUS
100
AcDbDimension
  2
*D71
 10
246.1854629012317
 20
-90.52023889220029
 30
0.0
 11
204.1854647429576
 21
-87.5202388922003
 31
0.0
 70
    32
  1
84
  3
STANDARD
100
AcDbAlignedDimension
 13
162.1854665846834
 23
3.312547336236077
 33
0.0
 14
246.1854629012317
 24
-43.00005295179589
 34
0.0
100
AcDbRotatedDimension
1001
ACAD
1000
DSTYLE
1002
{
1070
    79
1070
     3
1002
}
  0
DIMENSION
  5
7164
330
1E
100
AcDbEntity
  8
30
  6
CONTINUOUS
100
AcDbDimension
  2
*D72
 10
174.1855528712694
 20
-61.9057439584458
 30
0.0
 11
167.8522195379364
 21
-62.40574395844578
 31
0.0
 70
   160
  1
4
  3
STANDARD
100
AcDbAlignedDimension
 13
178.1855528295608
 23
-24.49993957558389
 33
0.0
 14
174.1855528712694
 24
-24.4999395755829
 34
0.0
100
AcDbRotatedDimension
1001
ACAD
1000
DSTYLE
1002
{
1070
    79
1070
     3
1002
}
  0
DIMENSION
  5
7165
330
1E
100
AcDbEntity
  8
30
  6
CONTINUOUS
100
AcDbDimension
  2
*D73
 10
178.1855528295608
 20
-77.58952468116901
 30
0.0
 11
182.1855376351281
 21
-74.58952468116901
 31
0.0
 70
    32
  1
8
  3
STANDARD
100
AcDbAlignedDimension
 13
186.1855224406956
 23
-38.39997192815089
 33
0.0
 14
178.1855528295608
 24
-24.49993957558489
 34
0.0
100
AcDbRotatedDimension
1001
ACAD
1000
DSTYLE
1002
{
1070
    79
1070
     3
1002
}
  0
LINE
  5
7166
330
1E
100
AcDbEntity
  8
10
  6
CONTINOUS
100
AcDbLine
 10
167.2850546769764
 20
20.85854959303812
 30
0.0
 11
165.7221433257086
 21
17.17652504016511
 31
0.0
  0
LINE
  5
7167
330
1E
100
AcDbEntity
  8
10
  6
CONTINOUS
100
AcDbLine
 10
165.9870193892514
 20
16.52090661726011
 30
0.0
 11
174.1855528712694
 21
13.04084361853908
 31
0.0
  0
ARC
  5
7168
330
1E
100
AcDbEntity
  8
30
  6
CONTINUOUS
100
AcDbCircle
 10
194.1212797143175
 20
3.312547336236077
 30
0.0
 40
31.9358131296342
100
AcDbArc
 50
158.0705147354791
 51
180.0
  0
ARC
  5
7169
330
1E
100
AcDbEntity
  8
10
  6
CONTINOUS
100
AcDbCircle
 10
166.1823907965244
 20
16.98117164808651
 30
0.0
 40
0.50000001246406
100
AcDbArc
 50
157.0010620669085
 51
246.9999480088145
  0
LINE
  5
716A
330
1E
100
AcDbEntity
  8
10
  6
CONTINOUS
100
AcDbLine
 10
167.9406766851448
 20
21.12343661231407
 30
0.0
 11
174.1855528712694
 21
18.4726473838411
 31
0.0
  0
CIRCLE
  5
716B
330
1E
100
AcDbEntity
  8
10
  6
CONTINOUS
100
AcDbCircle
 10
168.8050774885994
 20
18.04122483697857
 30
0.0
 40
1.000000024927997
  0
ARC
  5
716C
330
1E
100
AcDbEntity
  8
10
  6
CONTINOUS
100
AcDbCircle
 10
167.7453153131305
 20
20.66319124559047
 30
0.0
 40
0.5000000124641
100
AcDbArc
 50
67.00012609927418
 51
157.0011288050461
  0
TEXT
  5
72B1
330
1E
100
AcDbEntity
  8
0
  6
CONTINUOUS
100
AcDbText
 10
194.8719519575023
 20
162.2371392297695
 30
0.0
 40
5.0
  1
ZE60-NF 3P FC
  7
SMP-SET
100
AcDbText
  0
TEXT
  5
72B2
330
1E
100
AcDbEntity
  8
0
  6
CONTINUOUS
100
AcDbText
 10
194.8719519575023
 20
152.2371392297695
 30
0.0
 40
5.0
  1
ZS60-NF 3P FC
  7
SMP-SET
100
AcDbText
  0
TEXT
  5
72B3
330
1E
100
AcDbEntity
  8
0
  6
CONTINUOUS
100
AcDbText
 10
194.8719519575023
 20
142.2371392297695
 30
0.0
 40
5.0
  1
ZE100-NF 3P FC
  7
SMP-SET
100
AcDbText
  0
DIMENSION
  5
7404
330
1E
100
AcDbEntity
  8
30
  6
CONTINUOUS
100
AcDbDimension
  2
*D82
 10
292.4471162561028
 20
-308.258159569762
 30
0.0
 11
327.9107045279372
 21
-295.636212241677
 31
0.0
 70
   163
  1
%%C9
  3
STANDARD
100
AcDbDiametricDimension
 15
300.7876228583603
 25
-304.8764514780288
 35
0.0
 40
0.0
1001
ACAD
1000
DSTYLE
1002
{
1070
    79
1070
     3
1002
}
  0
LINE
  5
7405
330
1E
100
AcDbEntity
  8
0
100
AcDbLine
 10
329.8202209953775
 20
-228.9715726378568
 30
0.0
 11
326.8150171803777
 21
-231.9767764528568
 31
0.0
  0
LINE
  5
7406
330
1E
100
AcDbEntity
  8
0
100
AcDbLine
 10
325.7993004901466
 20
-245.0267767706916
 30
0.0
 11
328.9927831581897
 21
-245.0267767706916
 31
0.0
  0
LINE
  5
7407
330
1E
100
AcDbEntity
  8
0
100
AcDbLine
 10
325.7993004901466
 20
-235.5267765338738
 30
0.0
 11
328.9927831581897
 21
-235.5267765338738
 31
0.0
  0
LINE
  5
7408
330
1E
100
AcDbEntity
  8
0
100
AcDbLine
 10
317.9993125027376
 20
-240.2767766522828
 30
0.0
 11
347.9993132505836
 21
-240.2767766522828
 31
0.0
  0
LINE
  5
7409
330
1E
100
AcDbEntity
  8
0
100
AcDbLine
 10
311.4993124528818
 20
-231.9767764528568
 30
0.0
 11
333.7993006895716
 21
-231.9767764528568
 31
0.0
  0
LINE
  5
740A
330
1E
100
AcDbEntity
  8
0
100
AcDbLine
 10
318.4993126273786
 20
-248.2767768517077
 30
0.0
 11
356.2993013626337
 21
-248.2767768517077
 31
0.0
  0
LINE
  5
740B
330
1E
100
AcDbEntity
  8
30
  6
CONTINUOUS
100
AcDbLine
 10
325.7330118392308
 20
-304.3553683653898
 30
0.0
 11
329.106852255366
 21
-305.4482944180251
 31
0.0
  0
LINE
  5
740C
330
1E
100
AcDbEntity
  8
30
  6
CONTINUOUS
100
AcDbLine
 10
329.0593363850411
 20
-303.2149188130347
 30
0.0
 11
325.7330118392308
 21
-304.3553683653898
 31
0.0
  0
LINE
  5
740D
330
1E
100
AcDbEntity
  8
30
  6
CONTINUOUS
100
AcDbLine
 10
325.7330118392308
 20
-306.1135623789451
 30
0.0
 11
329.106852255366
 21
-306.1135623789451
 31
0.0
  0
LINE
  5
740E
330
1E
100
AcDbEntity
  8
30
  6
CONTINUOUS
100
AcDbLine
 10
325.7567850331828
 20
-307.1114490615355
 30
0.0
 11
329.106852255366
 21
-307.1114490615355
 31
0.0
  0
TEXT
  5
740F
330
1E
100
AcDbEntity
  8
30
  6
CONTINUOUS
100
AcDbText
 10
320.6336174282736
 20
-307.7250023151676
 30
0.0
 40
5.0
  1
t 6
100
AcDbText
  0
DIMENSION
  5
7410
330
1E
100
AcDbEntity
  8
30
  6
CONTINUOUS
100
AcDbDimension
  2
*D83
 10
296.6173695572316
 20
-325.9182167749971
 30
0.0
 11
293.1173694824471
 21
-322.9182167749971
 31
0.0
 70
    32
  1
7
  3
STANDARD
100
AcDbAlignedDimension
 13
289.6173694076626
 23
-314.0673056734647
 33
0.0
 14
296.6173695572316
 24
-315.3875035474535
 34
0.0
100
AcDbRotatedDimension
1001
ACAD
1000
DSTYLE
1002
{
1070
    79
1070
     3
1002
}
  0
DIMENSION
  5
7411
330
1E
100
AcDbEntity
  8
30
  6
CONTINUOUS
100
AcDbDimension
  2
*D84
 10
271.348989256511
 20
-314.0673056734647
 30
0.0
 11
271.348989256511
 21
-306.5673055238953
 31
0.0
 70
   160
  1
Max.15
  3
STANDARD
100
AcDbAlignedDimension
 13
289.6173694076626
 23
-299.0673053743261
 33
0.0
 14
289.6173694076626
 24
-314.0673056734647
 34
0.0
 50
90.0
100
AcDbRotatedDimension
1001
ACAD
1000
DSTYLE
1002
{
1070
    79
1070
     3
1002
}
  0
LINE
  5
7412
330
1E
100
AcDbEntity
  8
0
100
AcDbLine
 10
305.2173758751296
 20
-306.5673055238953
 30
0.0
 11
288.4173724045778
 21
-306.5673055238953
 31
0.0
  0
LINE
  5
7413
330
1E
100
AcDbEntity
  8
0
100
AcDbLine
 10
289.6173694076626
 20
-299.0673053743261
 30
0.0
 11
318.9934535139788
 21
-299.0673053743261
 31
0.0
  0
LINE
  5
7414
330
1E
100
AcDbEntity
  8
0
100
AcDbLine
 10
289.6173694076626
 20
-314.0673056734647
 30
0.0
 11
318.9934535139788
 21
-314.0673056734647
 31
0.0
  0
CIRCLE
  5
7415
330
1E
100
AcDbEntity
  8
0
100
AcDbCircle
 10
296.6173695572316
 20
-306.5673055238953
 30
0.0
 40
4.5
  0
LINE
  5
7416
330
1E
100
AcDbEntity
  8
0
100
AcDbLine
 10
296.6173695572316
 20
-315.3875035474535
 30
0.0
 11
296.6173695572316
 21
-298.7890002762853
 31
0.0
  0
LINE
  5
7417
330
1E
100
AcDbEntity
  8
0
100
AcDbLine
 10
289.6173694076626
 20
-299.0673053743261
 30
0.0
 11
289.6173694076626
 21
-314.0673056734647
 31
0.0
  0
DIMENSION
  5
7418
330
1E
100
AcDbEntity
  8
30
  6
CONTINUOUS
100
AcDbDimension
  2
*D85
 10
303.3933302311854
 20
-231.9767764528568
 30
0.0
 11
305.726663564519
 21
-223.010631449603
 31
0.0
 70
   160
  1
8
  3
STANDARD
100
AcDbAlignedDimension
 13
287.3124972390456
 23
-240.2767766522828
 33
0.0
 14
288.5850983943166
 24
-231.9767764528568
 34
0.0
 50
90.0
100
AcDbRotatedDimension
1001
ACAD
1000
DSTYLE
1002
{
1070
   271
1070
     0
1070
    79
1070
     3
1002
}
  0
LINE
  5
7419
330
1E
100
AcDbEntity
  8
0
100
AcDbLine
 10
291.5903022093166
 20
-231.7098356380918
 30
0.0
 11
288.5850983943166
 21
-234.7150394530918
 31
0.0
  0
LINE
  5
741A
330
1E
100
AcDbEntity
  8
0
100
AcDbLine
 10
290.3643486790637
 20
-228.9715726378568
 30
0.0
 11
287.3591448640634
 21
-231.9767764528568
 31
0.0
  0
LINE
  5
741B
330
1E
100
AcDbEntity
  8
0
100
AcDbLine
 10
288.5850983943166
 20
-243.2003301919578
 30
0.0
 11
291.5850984691017
 21
-240.2003301171735
 31
0.0
  0
LINE
  5
741C
330
1E
100
AcDbEntity
  8
0
100
AcDbLine
 10
288.5850983943166
 20
-246.0287604382468
 30
0.0
 11
291.5850984691017
 21
-243.0287603634628
 31
0.0
  0
LINE
  5
741D
330
1E
100
AcDbEntity
  8
0
100
AcDbLine
 10
288.5850983943166
 20
-240.3718999456698
 30
0.0
 11
291.5850984691017
 21
-237.3718998708848
 31
0.0
  0
LINE
  5
741E
330
1E
100
AcDbEntity
  8
0
100
AcDbLine
 10
264.7922047754657
 20
-248.2767768517077
 30
0.0
 11
292.7922054734557
 21
-248.2767768517077
 31
0.0
  0
LINE
  5
741F
330
1E
100
AcDbEntity
  8
0
100
AcDbLine
 10
288.5850983943166
 20
-237.5434696993808
 30
0.0
 11
291.5850984691017
 21
-234.5434696245956
 31
0.0
  0
DIMENSION
  5
7420
330
1E
100
AcDbEntity
  8
30
  6
CONTINUOUS
100
AcDbDimension
  2
*D80
 10
288.5850983943166
 20
-260.3280935647869
 30
0.0
 11
280.0850983943167
 21
-257.3280935647868
 31
0.0
 70
    32
  1
17
  3
STANDARD
100
AcDbAlignedDimension
 13
271.5850983943166
 23
-248.2767768517077
 33
0.0
 14
288.5850983943166
 24
-248.2767768517077
 34
0.0
100
AcDbRotatedDimension
1001
ACAD
1000
DSTYLE
1002
{
1070
    79
1070
     3
1002
}
  0
LINE
  5
7421
330
1E
100
AcDbEntity
  8
0
100
AcDbLine
 10
272.5579840434206
 20
-228.9715726378568
 30
0.0
 11
268.5850983195325
 21
-232.9444583617448
 31
0.0
  0
LINE
  5
7422
330
1E
100
AcDbEntity
  8
0
100
AcDbLine
 10
267.6949310610136
 20
-248.2767768517077
 30
0.0
 11
271.5850983943166
 21
-244.3866095184048
 31
0.0
  0
LINE
  5
7423
330
1E
100
AcDbEntity
  8
0
100
AcDbLine
 10
268.5850983195325
 20
-244.5581793469008
 30
0.0
 11
271.5850983943166
 21
-241.5581792721158
 31
0.0
  0
LINE
  5
7424
330
1E
100
AcDbEntity
  8
0
100
AcDbLine
 10
268.5850983195325
 20
-241.7297491006118
 30
0.0
 11
271.5850983943166
 21
-238.7297490258267
 31
0.0
  0
LINE
  5
7425
330
1E
100
AcDbEntity
  8
0
100
AcDbLine
 10
271.5850983943166
 20
-235.9013187795377
 30
0.0
 11
268.5850983195325
 21
-238.9012883367438
 31
0.0
  0
LINE
  5
7426
330
1E
100
AcDbEntity
  8
0
100
AcDbLine
 10
271.5850983943175
 20
-233.0728885332498
 30
0.0
 11
268.5850983195325
 21
-236.0728886080338
 31
0.0
  0
LINE
  5
7427
330
1E
100
AcDbEntity
  8
0
100
AcDbLine
 10
268.7022871737086
 20
-245.2767767769238
 30
0.0
 11
265.7023023577135
 21
-248.2767768517077
 31
0.0
  0
LINE
  5
7428
330
1E
100
AcDbEntity
  8
0
100
AcDbLine
 10
278.8738941226128
 20
-231.9767764528568
 30
0.0
 11
281.8791285084376
 21
-228.9715726378568
 31
0.0
  0
LINE
  5
7429
330
1E
100
AcDbEntity
  8
0
100
AcDbLine
 10
279.0506308201976
 20
-228.9715726378568
 30
0.0
 11
276.0454270051976
 21
-231.9767764528568
 31
0.0
  0
LINE
  5
742A
330
1E
100
AcDbEntity
  8
0
100
AcDbLine
 10
276.2222005739086
 20
-228.9715726378568
 30
0.0
 11
273.2169967589086
 21
-231.9767764528568
 31
0.0
  0
LINE
  5
742B
330
1E
100
AcDbEntity
  8
0
100
AcDbLine
 10
281.7022874977756
 20
-231.9767764528568
 30
0.0
 11
284.7074913127757
 21
-228.9715726378568
 31
0.0
  0
LINE
  5
742C
330
1E
100
AcDbEntity
  8
0
100
AcDbLine
 10
284.5307177440636
 20
-231.9767764528568
 30
0.0
 11
287.5359215590636
 21
-228.9715726378568
 31
0.0
  0
LINE
  5
742D
330
1E
100
AcDbEntity
  8
0
100
AcDbLine
 10
271.5850983943166
 20
-231.9767764528568
 30
0.0
 11
288.5850983943166
 21
-231.9767764528568
 31
0.0
  0
CIRCLE
  5
742E
330
1E
100
AcDbEntity
  8
0
100
AcDbCircle
 10
280.0850983943167
 20
-240.2767766522828
 30
0.0
 40
4.75000011840899
  0
LINE
  5
742F
330
1E
100
AcDbEntity
  8
0
100
AcDbLine
 10
272.7922049748916
 20
-240.2767766522828
 30
0.0
 11
287.3124972390456
 21
-240.2767766522828
 31
0.0
  0
LINE
  5
7430
330
1E
100
AcDbEntity
  8
0
100
AcDbLine
 10
277.8350983382285
 20
-238.0267765961938
 30
0.0
 11
282.2100984472896
 21
-242.4017767052548
 31
0.0
  0
LINE
  5
7431
330
1E
100
AcDbEntity
  8
0
100
AcDbLine
 10
276.7263336621516
 20
-243.6355413844478
 30
0.0
 11
283.4438631264827
 21
-236.9180119201168
 31
0.0
  0
CIRCLE
  5
7432
330
1E
100
AcDbEntity
  8
0
100
AcDbCircle
 10
280.0850983943167
 20
-240.2767766522828
 30
0.0
 40
5.500061172262999
  0
LINE
  5
7433
330
1E
100
AcDbEntity
  8
0
100
AcDbLine
 10
271.5850983943166
 20
-231.9767764528568
 30
0.0
 11
271.5850983943166
 21
-248.2767768517077
 31
0.0
  0
LINE
  5
7434
330
1E
100
AcDbEntity
  8
0
100
AcDbLine
 10
270.5233613073027
 20
-248.2767768517077
 30
0.0
 11
271.5850983943166
 21
-247.2150397646938
 31
0.0
  0
LINE
  5
7435
330
1E
100
AcDbEntity
  8
0
100
AcDbLine
 10
280.0850983943167
 20
-232.8767825713298
 30
0.0
 11
280.0850983943167
 21
-247.8767829452528
 31
0.0
  0
LINE
  5
7436
330
1E
100
AcDbEntity
  8
0
100
AcDbLine
 10
288.5850983943166
 20
-231.9767764528568
 30
0.0
 11
288.5850983943166
 21
-248.2767768517077
 31
0.0
  0
LINE
  5
7437
330
1E
100
AcDbEntity
  8
0
100
AcDbLine
 10
289.1655122271457
 20
-248.2767768517077
 30
0.0
 11
292.1654970431406
 21
-245.2767767769238
 31
0.0
  0
LINE
  5
7438
330
1E
100
AcDbEntity
  8
0
100
AcDbLine
 10
315.5012961952217
 20
-231.9767764528568
 30
0.0
 11
318.5065000102216
 21
-228.9715726378568
 31
0.0
  0
LINE
  5
7439
330
1E
100
AcDbEntity
  8
0
100
AcDbLine
 10
318.3297264415106
 20
-231.9767764528568
 30
0.0
 11
321.3349302565106
 21
-228.9715726378568
 31
0.0
  0
LINE
  5
743A
330
1E
100
AcDbEntity
  8
0
100
AcDbLine
 10
321.1581566877995
 20
-231.9767764528568
 30
0.0
 11
324.1633605027995
 21
-228.9715726378568
 31
0.0
  0
LINE
  5
743B
330
1E
100
AcDbEntity
  8
0
100
AcDbLine
 10
323.9865869340885
 20
-231.9767764528568
 30
0.0
 11
326.9917907490886
 21
-228.9715726378568
 31
0.0
  0
LINE
  5
743C
330
1E
100
AcDbEntity
  8
0
100
AcDbLine
 10
312.6728659489326
 20
-231.9767764528568
 30
0.0
 11
315.6780697639326
 21
-228.9715726378568
 31
0.0
  0
LINE
  5
743D
330
1E
100
AcDbEntity
  8
0
100
AcDbLine
 10
323.7993004402893
 20
-237.5267765837298
 30
0.0
 11
323.7993004402893
 21
-243.0267767208348
 31
0.0
  0
ARC
  5
743E
330
1E
100
AcDbEntity
  8
0
100
AcDbCircle
 10
325.7993004901466
 20
-243.0267767208348
 30
0.0
 40
2.00000004985734
100
AcDbArc
 50
180.0
 51
270.0
  0
ARC
  5
743F
330
1E
100
AcDbEntity
  8
0
100
AcDbCircle
 10
325.7993004901466
 20
-237.5267765837298
 30
0.0
 40
2.000000049855997
100
AcDbArc
 50
90.0
 51
180.0
  0
LINE
  5
7440
330
1E
100
AcDbEntity
  8
30
  6
CONTINUOUS
100
AcDbLine
 10
347.1723556854708
 20
-225.8084663258096
 30
0.0
 11
373.9889933668198
 21
-225.8084663258096
 31
0.0
  0
TEXT
  5
7441
330
1E
100
AcDbEntity
  8
30
  6
CONTINUOUS
100
AcDbText
 10
348.8830380955787
 20
-224.3084663258098
 30
0.0
 40
5.0
  1
M8×15
  7
MOJI
100
AcDbText
  0
DIMENSION
  5
7442
330
1E
100
AcDbEntity
  8
30
  6
CONTINUOUS
100
AcDbDimension
  2
*D81
 10
356.2993013626337
 20
-260.3280935647869
 30
0.0
 11
344.2993010074067
 21
-257.3280935647868
 31
0.0
 70
    32
  1
24
  3
STANDARD
100
AcDbAlignedDimension
 13
332.2993006521798
 23
-247.3374369718518
 33
0.0
 14
356.2993013626337
 24
-248.2767768517077
 34
0.0
100
AcDbRotatedDimension
1001
ACAD
1000
DSTYLE
1002
{
1070
    79
1070
     3
1002
}
  0
LINE
  5
7443
330
1E
100
AcDbEntity
  8
30
  6
CONTINUOUS
100
AcDbLine
 10
337.5493007830526
 20
-237.2767765774978
 30
0.0
 11
347.1723556854708
 21
-225.8084663258096
 31
0.0
  0
LINE
  5
7444
330
1E
100
AcDbEntity
  8
0
100
AcDbLine
 10
343.7993009388536
 20
-242.4199346646918
 30
0.0
 11
346.7993010136388
 21
-239.4199345899078
 31
0.0
  0
LINE
  5
7445
330
1E
100
AcDbEntity
  8
0
100
AcDbLine
 10
343.7993009388536
 20
-239.5915044184028
 30
0.0
 11
346.7993010136388
 21
-236.5915043436188
 31
0.0
  0
LINE
  5
7446
330
1E
100
AcDbEntity
  8
0
100
AcDbLine
 10
346.7993010136388
 20
-242.2483648361958
 30
0.0
 11
340.7708889981266
 21
-248.2767768517077
 31
0.0
  0
LINE
  5
7447
330
1E
100
AcDbEntity
  8
0
100
AcDbLine
 10
346.7993010136388
 20
-245.0767950824848
 30
0.0
 11
343.5993192444156
 21
-248.2767768517077
 31
0.0
  0
LINE
  5
7448
330
1E
100
AcDbEntity
  8
0
100
AcDbLine
 10
343.7993009388536
 20
-236.7630741721136
 30
0.0
 11
346.7993010136388
 21
-233.7630740973298
 31
0.0
  0
LINE
  5
7449
330
1E
100
AcDbEntity
  8
0
100
AcDbLine
 10
336.8045045045716
 20
-229.6157193749518
 30
0.0
 11
333.7993006895716
 21
-232.6209231899518
 31
0.0
  0
LINE
  5
744A
330
1E
100
AcDbEntity
  8
0
100
AcDbLine
 10
333.7993006895716
 20
-242.5767797613747
 30
0.0
 11
341.2993008765336
 21
-242.5767797613747
 31
0.0
  0
LINE
  5
744B
330
1E
100
AcDbEntity
  8
0
100
AcDbLine
 10
333.7993006895716
 20
-237.9767735431898
 30
0.0
 11
341.2993008765336
 21
-237.9767735431898
 31
0.0
  0
LINE
  5
744C
330
1E
100
AcDbEntity
  8
0
100
AcDbLine
 10
333.7993006895716
 20
-243.2767767270668
 30
0.0
 11
341.2993008765336
 21
-243.2767767270668
 31
0.0
  0
LINE
  5
744D
330
1E
100
AcDbEntity
  8
0
100
AcDbLine
 10
333.7993006895716
 20
-237.2767765774978
 30
0.0
 11
341.2993008765336
 21
-237.2767765774978
 31
0.0
  0
LINE
  5
744E
330
1E
100
AcDbEntity
  8
0
100
AcDbLine
 10
333.7993006895716
 20
-235.7767765401058
 30
0.0
 11
343.7993009388536
 21
-235.7767765401058
 31
0.0
  0
LINE
  5
744F
330
1E
100
AcDbEntity
  8
0
100
AcDbLine
 10
333.7993006895716
 20
-244.7767767644598
 30
0.0
 11
343.7993009388536
 21
-244.7767767644598
 31
0.0
  0
LINE
  5
7450
330
1E
100
AcDbEntity
  8
0
100
AcDbLine
 10
338.6140285927977
 20
-244.7767767644598
 30
0.0
 11
335.1140285055487
 21
-248.2767768517077
 31
0.0
  0
LINE
  5
7451
330
1E
100
AcDbEntity
  8
0
100
AcDbLine
 10
339.3003079067806
 20
-232.7767764653208
 30
0.0
 11
336.3003078319957
 21
-235.7767765401058
 31
0.0
  0
LINE
  5
7452
330
1E
100
AcDbEntity
  8
0
100
AcDbLine
 10
332.2993006521798
 20
-231.9767764528568
 30
0.0
 11
332.2993006521798
 21
-247.3374369718518
 31
0.0
  0
LINE
  5
7453
330
1E
100
AcDbEntity
  8
0
100
AcDbLine
 10
333.7993006895716
 20
-231.9767764528568
 30
0.0
 11
333.7993006895716
 21
-248.2767768517077
 31
0.0
  0
LINE
  5
7454
330
1E
100
AcDbEntity
  8
0
100
AcDbLine
 10
327.7993005400026
 20
-240.3030228616398
 30
0.0
 11
328.9927831581897
 21
-239.5902485202218
 31
0.0
  0
LINE
  5
7455
330
1E
100
AcDbEntity
  8
0
100
AcDbLine
 10
327.7993005400026
 20
-235.5267765338738
 30
0.0
 11
327.7993005400026
 21
-245.0267767706916
 31
0.0
  0
LINE
  5
7456
330
1E
100
AcDbEntity
  8
0
100
AcDbLine
 10
330.7993006147877
 20
-234.7767765151778
 30
0.0
 11
330.7993006147877
 21
-245.7767767893878
 31
0.0
  0
LINE
  5
7457
330
1E
100
AcDbEntity
  8
0
100
AcDbLine
 10
328.9927831581897
 20
-234.7767765151778
 30
0.0
 11
328.9927831581897
 21
-245.7767767893878
 31
0.0
  0
LINE
  5
7458
330
1E
100
AcDbEntity
  8
0
100
AcDbLine
 10
330.7993006147877
 20
-242.5767797613747
 30
0.0
 11
332.2993006521798
 21
-242.5767797613747
 31
0.0
  0
LINE
  5
7459
330
1E
100
AcDbEntity
  8
0
100
AcDbLine
 10
330.7993006147877
 20
-243.2767767270668
 30
0.0
 11
332.2993006521798
 21
-243.2767767270668
 31
0.0
  0
LINE
  5
745A
330
1E
100
AcDbEntity
  8
0
100
AcDbLine
 10
327.7993005400026
 20
-241.1266351424378
 30
0.0
 11
328.9927831581897
 21
-240.4138608010208
 31
0.0
  0
LINE
  5
745B
330
1E
100
AcDbEntity
  8
0
100
AcDbLine
 10
328.9927831581897
 20
-245.7767767893878
 30
0.0
 11
330.7993006147877
 21
-245.7767767893878
 31
0.0
  0
LINE
  5
745C
330
1E
100
AcDbEntity
  8
0
100
AcDbLine
 10
332.2993006521798
 20
-247.3374369718518
 30
0.0
 11
333.7993006895716
 21
-247.3374369718518
 31
0.0
  0
LINE
  5
745D
330
1E
100
AcDbEntity
  8
0
100
AcDbLine
 10
335.7855983465086
 20
-244.7767767644598
 30
0.0
 11
333.7993006895716
 21
-246.7630744213958
 31
0.0
  0
LINE
  5
745E
330
1E
100
AcDbEntity
  8
0
100
AcDbLine
 10
330.7993006147877
 20
-237.9767735431898
 30
0.0
 11
332.2993006521798
 21
-237.9767735431898
 31
0.0
  0
LINE
  5
745F
330
1E
100
AcDbEntity
  8
0
100
AcDbLine
 10
330.7993006147877
 20
-237.2767765774978
 30
0.0
 11
332.2993006521798
 21
-237.2767765774978
 31
0.0
  0
LINE
  5
7460
330
1E
100
AcDbEntity
  8
0
100
AcDbLine
 10
328.9927831581897
 20
-234.7767765151778
 30
0.0
 11
330.7993006147877
 21
-234.7767765151778
 31
0.0
  0
LINE
  5
7461
330
1E
100
AcDbEntity
  8
0
100
AcDbLine
 10
336.4718776604916
 20
-232.7767764653208
 30
0.0
 11
333.7993006895716
 21
-235.4493534362398
 31
0.0
  0
LINE
  5
7462
330
1E
100
AcDbEntity
  8
0
100
AcDbLine
 10
343.7993009388536
 20
-235.7767765401058
 30
0.0
 11
343.7993009388536
 21
-244.7767767644598
 31
0.0
  0
LINE
  5
7463
330
1E
100
AcDbEntity
  8
0
100
AcDbLine
 10
341.2993008765336
 20
-237.2767765774978
 30
0.0
 11
341.2993008765336
 21
-243.2767767270668
 31
0.0
  0
LINE
  5
7464
330
1E
100
AcDbEntity
  8
0
100
AcDbLine
 10
341.4424588390866
 20
-244.7767767644598
 30
0.0
 11
337.9424587518377
 21
-248.2767768517077
 31
0.0
  0
LINE
  5
7465
330
1E
100
AcDbEntity
  8
30
  6
CONTINUOUS
100
AcDbLine
 10
337.5493007830526
 20
-237.2767765774978
 30
0.0
 11
341.7895437716738
 21
-234.3077264586906
 31
0.0
  0
LINE
  5
7466
330
1E
100
AcDbEntity
  8
0
100
AcDbLine
 10
342.1287381530696
 20
-232.7767764653208
 30
0.0
 11
339.1287380782847
 21
-235.7767765401058
 31
0.0
  0
LINE
  5
7467
330
1E
100
AcDbEntity
  8
30
  6
CONTINUOUS
100
AcDbLine
 10
337.5493007830526
 20
-237.2767765774978
 30
0.0
 11
339.7369338912964
 21
-232.5853822651152
 31
0.0
  0
LINE
  5
7468
330
1E
100
AcDbEntity
  8
0
100
AcDbLine
 10
344.9571683993585
 20
-232.7767764653208
 30
0.0
 11
341.9571683245736
 21
-235.7767765401058
 31
0.0
  0
LINE
  5
7469
330
1E
100
AcDbEntity
  8
0
100
AcDbLine
 10
356.2993013626337
 20
-248.2767768517077
 30
0.0
 11
356.2993013626337
 21
-229.8767824965448
 31
0.0
  0
LINE
  5
746A
330
1E
100
AcDbEntity
  8
0
100
AcDbLine
 10
356.2993013626337
 20
-231.0767947334898
 30
0.0
 11
353.2993012878486
 21
-234.0767948082747
 31
0.0
  0
LINE
  5
746B
330
1E
100
AcDbEntity
  8
0
100
AcDbLine
 10
356.2993013626337
 20
-244.0620854723566
 30
0.0
 11
352.0846099832827
 21
-248.2767768517077
 31
0.0
  0
LINE
  5
746C
330
1E
100
AcDbEntity
  8
0
100
AcDbLine
 10
353.2993012878486
 20
-242.5620855471418
 30
0.0
 11
356.2993013626337
 21
-239.5620854723568
 31
0.0
  0
LINE
  5
746D
330
1E
100
AcDbEntity
  8
0
100
AcDbLine
 10
353.2993012878486
 20
-239.7336553008527
 30
0.0
 11
356.2993013626337
 21
-236.7336552260677
 31
0.0
  0
LINE
  5
746E
330
1E
100
AcDbEntity
  8
0
100
AcDbLine
 10
353.2993012878486
 20
-236.9052250545638
 30
0.0
 11
356.2993013626337
 21
-233.9052249797788
 31
0.0
  0
LINE
  5
746F
330
1E
100
AcDbEntity
  8
0
100
AcDbLine
 10
352.2561798117776
 20
-245.2767767769238
 30
0.0
 11
349.2561797369937
 21
-248.2767768517077
 31
0.0
  0
LINE
  5
7470
330
1E
100
AcDbEntity
  8
0
100
AcDbLine
 10
349.4277495654896
 20
-245.2767767769238
 30
0.0
 11
346.4277494907046
 21
-248.2767768517077
 31
0.0
  0
LINE
  5
7643
330
1E
100
AcDbEntity
  8
10
  6
CONTINOUS
100
AcDbLine
 10
-4.353615150946258
 20
-11.70355314071197
 30
0.0
 11
3.64638484905374
 21
-11.70355314071197
 31
0.0
  0
LINE
  5
7644
330
1E
100
AcDbEntity
  8
10
  6
CONTINOUS
100
AcDbLine
 10
-4.353615150946258
 20
-15.70355314071196
 30
0.0
 11
3.64638484905374
 21
-15.70355314071196
 31
0.0
  0
LINE
  5
7645
330
1E
100
AcDbEntity
  8
10
  6
CONTINOUS
100
AcDbLine
 10
-3.853615150946259
 20
-12.70355314071196
 30
0.0
 11
-4.353615150946258
 21
-12.20355314071198
 31
0.0
  0
LINE
  5
7646
330
1E
100
AcDbEntity
  8
10
  6
CONTINOUS
100
AcDbLine
 10
-3.853615150946259
 20
-12.70355314071196
 30
0.0
 11
-1.853615150946258
 21
-12.70355314071196
 31
0.0
  0
LINE
  5
7647
330
1E
100
AcDbEntity
  8
10
  6
CONTINOUS
100
AcDbLine
 10
-3.853615150946259
 20
-14.70355314071198
 30
0.0
 11
-1.853615150946258
 21
-14.70355314071198
 31
0.0
  0
LINE
  5
7648
330
1E
100
AcDbEntity
  8
10
  6
CONTINOUS
100
AcDbLine
 10
-1.853615150946258
 20
-12.70355314071196
 30
0.0
 11
-1.353615150946258
 21
-12.20355314071198
 31
0.0
  0
LINE
  5
7649
330
1E
100
AcDbEntity
  8
10
  6
CONTINOUS
100
AcDbLine
 10
-4.353615150946258
 20
-12.20355314071198
 30
0.0
 11
-1.353615150946258
 21
-12.20355314071198
 31
0.0
  0
LINE
  5
764A
330
1E
100
AcDbEntity
  8
10
  6
CONTINOUS
100
AcDbLine
 10
-1.853615150946258
 20
-12.70355314071196
 30
0.0
 11
-1.853615150946258
 21
-14.70355314071198
 31
0.0
  0
LINE
  5
764B
330
1E
100
AcDbEntity
  8
10
  6
CONTINOUS
100
AcDbLine
 10
-3.853615150946259
 20
-12.70355314071196
 30
0.0
 11
-3.853615150946259
 21
-14.70355314071198
 31
0.0
  0
LINE
  5
764C
330
1E
100
AcDbEntity
  8
10
  6
CONTINOUS
100
AcDbLine
 10
-4.353615150946258
 20
-15.20355314071196
 30
0.0
 11
-1.353615150946258
 21
-15.20355314071196
 31
0.0
  0
LINE
  5
764D
330
1E
100
AcDbEntity
  8
10
  6
CONTINOUS
100
AcDbLine
 10
-1.853615150946258
 20
-14.70355314071198
 30
0.0
 11
-1.353615150946258
 21
-15.20355314071196
 31
0.0
  0
LINE
  5
764E
330
1E
100
AcDbEntity
  8
10
  6
CONTINOUS
100
AcDbLine
 10
-3.853615150946259
 20
-14.70355314071198
 30
0.0
 11
-4.353615150946258
 21
-15.20355314071196
 31
0.0
  0
LINE
  5
764F
330
1E
100
AcDbEntity
  8
10
  6
CONTINOUS
100
AcDbLine
 10
-4.353615150946258
 20
-15.70355314071196
 30
0.0
 11
-4.353615150946258
 21
-11.70355314071197
 31
0.0
  0
LINE
  5
7650
330
1E
100
AcDbEntity
  8
10
  6
CONTINOUS
100
AcDbLine
 10
-1.353615150946258
 20
-12.20355314071198
 30
0.0
 11
-1.353615150946258
 21
-15.20355314071196
 31
0.0
  0
LINE
  5
7651
330
1E
100
AcDbEntity
  8
10
  6
CONTINOUS
100
AcDbLine
 10
3.64638484905374
 20
-15.70355314071196
 30
0.0
 11
3.64638484905374
 21
-11.70355314071197
 31
0.0
  0
CIRCLE
  5
7652
330
1E
100
AcDbEntity
  8
10
  6
CONTINOUS
100
AcDbCircle
 10
25.34644584905371
 20
-7.053553140711972
 30
0.0
 40
2.75
  0
CIRCLE
  5
7653
330
1E
100
AcDbEntity
  8
10
  6
CONTINOUS
100
AcDbCircle
 10
23.84644584905371
 20
-21.55355314071197
 30
0.0
 40
2.5
  0
CIRCLE
  5
7654
330
1E
100
AcDbEntity
  8
10
  6
CONTINOUS
100
AcDbCircle
 10
23.84644584905371
 20
-21.55355314071197
 30
0.0
 40
3.75
  0
CIRCLE
  5
7655
330
1E
100
AcDbEntity
  8
10
  6
CONTINOUS
100
AcDbCircle
 10
23.84644584905371
 20
-21.55355314071197
 30
0.0
 40
2.75
  0
TEXT
  5
7656
330
1E
100
AcDbEntity
  8
0
  6
CONTINUOUS
100
AcDbText
 10
194.5825388025617
 20
133.2736562425041
 30
0.0
 40
5.0
  1
ZE100-NM 3P FC
  7
SMP-SET
100
AcDbText
  0
LINE
  5
7696
330
1E
100
AcDbEntity
  8
10
  6
CONTINOUS
100
AcDbLine
 10
172.4855534406966
 20
-18.6999995880479
 30
0.0
 11
174.1855534406966
 21
-18.6999995880479
 31
0.0
  0
LINE
  5
7697
330
1E
100
AcDbEntity
  8
10
  6
CONTINOUS
100
AcDbLine
 10
172.4855534406966
 20
-23.69999958804789
 30
0.0
 11
174.1855534406966
 21
-23.69999958804789
 31
0.0
  0
ARC
  5
7698
330
1E
100
AcDbEntity
  8
10
  6
CONTINOUS
100
AcDbCircle
 10
172.4855534406966
 20
-19.1999995880479
 30
0.0
 40
0.5
100
AcDbArc
 50
90.0
 51
180.0
  0
ARC
  5
7699
330
1E
100
AcDbEntity
  8
10
  6
CONTINOUS
100
AcDbCircle
 10
172.4855534406966
 20
-23.19999958804789
 30
0.0
 40
0.5
100
AcDbArc
 50
180.0
 51
270.0
  0
LINE
  5
769A
330
1E
100
AcDbEntity
  8
10
  6
CONTINOUS
100
AcDbLine
 10
171.9855534406966
 20
-19.1999995880479
 30
0.0
 11
171.9855534406966
 21
-23.19999958804789
 31
0.0
  0
LINE
  5
769B
330
1E
100
AcDbEntity
  8
10
  6
CONTINOUS
100
AcDbLine
 10
174.4855534406966
 20
-24.9499995880479
 30
0.0
 11
178.4677334406966
 21
-24.9499995880479
 31
0.0
  0
LINE
  5
769C
330
1E
100
AcDbEntity
  8
10
  6
CONTINOUS
100
AcDbLine
 10
174.1855534406966
 20
-23.69999958804789
 30
0.0
 11
174.1855534406966
 21
-24.49993958804789
 31
0.0
  0
LINE
  5
769D
330
1E
100
AcDbEntity
  8
10
  6
CONTINOUS
100
AcDbLine
 10
174.1855534406966
 20
-23.69999958804789
 30
0.0
 11
174.1855534406966
 21
-18.6999995880479
 31
0.0
  0
ARC
  5
769E
330
1E
100
AcDbEntity
  8
10
  6
CONTINOUS
100
AcDbCircle
 10
174.4855534406966
 20
-24.64999958804791
 30
0.0
 40
0.3
100
AcDbArc
 50
180.0
 51
270.0
  0
ARC
  5
769F
330
1E
100
AcDbEntity
  8
10
  6
CONTINOUS
100
AcDbCircle
 10
174.6855534406966
 20
-24.49993958804789
 30
0.0
 40
0.5
100
AcDbArc
 50
180.0
 51
270.0
  0
ARC
  5
76A0
330
1E
100
AcDbEntity
  8
10
  6
CONTINOUS
100
AcDbCircle
 10
178.6855534406966
 20
-24.49993958804789
 30
0.0
 40
0.5
100
AcDbArc
 50
180.0
 51
270.0
  0
LINE
  5
76A1
330
1E
100
AcDbEntity
  8
10
  6
CONTINOUS
100
AcDbLine
 10
174.4855534406966
 20
-17.4499995880479
 30
0.0
 11
178.1855534406966
 21
-17.4499995880479
 31
0.0
  0
ARC
  5
76A2
330
1E
100
AcDbEntity
  8
10
  6
CONTINOUS
100
AcDbCircle
 10
174.4855534406966
 20
-17.74999958804791
 30
0.0
 40
0.3
100
AcDbArc
 50
90.0
 51
180.0
  0
VIEWPORT
  5
9AC
330
1A
100
AcDbEntity
 67
     1
  8
0
  6
CONTINUOUS
100
AcDbViewport
 10
171.999535
 20
144.1384739999999
 30
0.0
 40
488.867686
 41
292.351491
 68
    -1
 69
     1
1001
ACAD
1000
MVIEW
1002
{
1070
    16
1010
0.0
1020
0.0
1030
0.0
1010
0.0
1020
0.0
1030
1.0
1040
0.0
1040
292.351491
1040
171.999535
1040
144.1384739999999
1040
50.0
1040
0.0
1040
0.0
1070
     0
1070
   100
1070
     1
1070
     1
1070
     0
1070
     0
1070
     0
1070
     0
1040
0.0
1040
0.0
1040
0.0
1040
10.0
1040
10.0
1040
10.0
1040
10.0
1070
     0
1002
{
1002
}
1002
}
  0
ENDSEC
  0
SECTION
  2
OBJECTS
  0
DICTIONARY
  5
C
330
0
100
AcDbDictionary
  3
ACAD_GROUP
350
D
  3
ACAD_LAYOUT
350
19
  3
ACAD_MLINESTYLE
350
16
  3
ACAD_PLOTSETTINGS
350
18
  3
ACAD_PLOTSTYLENAME
350
E
  3
ACADDIM
350
5C76
  3
ACDBHEADERROUNDTRIPXREC
350
76A4
  3
ACDBVARIABLEDICTIONARY
350
5697
  0
DICTIONARY
  5
178
330
1E
100
AcDbDictionary
280
     1
  3
ACAD_LAYOUTSELFREF
360
76C6
  0
DICTIONARY
  5
17A
330
1A
100
AcDbDictionary
280
     1
  3
ACAD_LAYOUTSELFREF
360
76C5
  0
DICTIONARY
  5
D
102
{ACAD_REACTORS
330
C
102
}
330
C
100
AcDbDictionary
  0
DICTIONARY
  5
19
102
{ACAD_REACTORS
330
C
102
}
330
C
100
AcDbDictionary
  0
DICTIONARY
  5
16
102
{ACAD_REACTORS
330
C
102
}
330
C
100
AcDbDictionary
  3
STANDARD
350
17
  0
DICTIONARY
  5
18
102
{ACAD_REACTORS
330
C
102
}
330
C
100
AcDbDictionary
  0
ACDBDICTIONARYWDFLT
  5
E
102
{ACAD_REACTORS
330
C
102
}
330
C
100
AcDbDictionary
281
     1
  3
Normal
350
F
100
AcDbDictionaryWithDefault
340
F
  0
XRECORD
  5
5C76
102
{ACAD_REACTORS
330
C
102
}
330
C
100
AcDbXrecord
 90
   990106
  3

 60
     0
 61
     0
 62
     1
 63
     3
 64
     0
 65
     0
 66
     0
 67
     3
 68
     1
 69
     0
 70
     0
 71
     0
 72
     0
 40
0.0
170
     0
340
6200
  0
DICTIONARY
  5
76A4
102
{ACAD_REACTORS
330
C
102
}
330
C
100
AcDbDictionary
  3
CEPSNTYPE
350
76AE
  3
DIMSTYLEDATA
350
76B2
  3
FINGERPRINTGUID
350
76AF
  3
HYPERLINKBASE
350
76A7
  3
INSUNITS
350
76AD
  3
LAYOUTDICT
350
76A9
  3
LWETCUNION
350
76AC
  3
PLOTSETDICT
350
76AA
  3
PLOTSTYLNAMDICT
350
76AB
  3
PSVPSCALE
350
76B1
  3
PUCSBASE
350
76B5
  3
PUCSORGBACK
350
76BB
  3
PUCSORGBOTTOM
350
76B7
  3
PUCSORGFRONT
350
76BA
  3
PUCSORGLEFT
350
76B8
  3
PUCSORGRIGHT
350
76B9
  3
PUCSORGTOP
350
76B6
  3
PUCSORTHOREF
350
76B3
  3
PUCSORTHOVIEW
350
76B4
  3
STYLESHEET
350
76A8
  3
TSTACKALIGN
350
76A5
  3
TSTACKSIZE
350
76A6
  3
UCSBASE
350
76BE
  3
UCSORGBACK
350
76C4
  3
UCSORGBOTTOM
350
76C0
  3
UCSORGFRONT
350
76C3
  3
UCSORGLEFT
350
76C1
  3
UCSORGRIGHT
350
76C2
  3
UCSORGTOP
350
76BF
  3
UCSORTHOREF
350
76BC
  3
UCSORTHOVIEW
350
76BD
  3
VERSIONGUID
350
76B0
  0
DICTIONARY
  5
5697
102
{ACAD_REACTORS
330
C
102
}
330
C
100
AcDbDictionary
  3
DIMASSOC
350
5698
  0
XRECORD
  5
76C6
102
{ACAD_REACTORS
330
178
102
}
330
178
100
AcDbXrecord
340
1E
  0
XRECORD
  5
76C5
102
{ACAD_REACTORS
330
17A
102
}
330
17A
100
AcDbXrecord
340
1A
  0
MLINESTYLE
  5
17
102
{ACAD_REACTORS
330
16
102
}
330
16
100
AcDbMlineStyle
  2
STANDARD
 70
     0
  3

 62
   256
 51
90.0
 52
90.0
 71
     2
 49
0.5
 62
   256
  6
BYLAYER
 49
-0.5
 62
   256
  6
BYLAYER
  0
ACDBPLACEHOLDER
  5
F
102
{ACAD_REACTORS
330
E
102
}
330
E
100
AcDbPlaceHolder
280
     0
  0
XRECORD
  5
76AE
102
{ACAD_REACTORS
330
76A4
102
}
330
76A4
100
AcDbXrecord
 90
        0
  0
XRECORD
  5
76B2
102
{ACAD_REACTORS
330
76A4
102
}
330
76A4
100
AcDbXrecord
1000
DSTYLE
1002
{
1070
    79
 70
     3
1070
   341
340
3B2
1070
   342
340
3B2
1002
}
  0
XRECORD
  5
76AF
102
{ACAD_REACTORS
330
76A4
102
}
330
76A4
100
AcDbXrecord
  1

  0
XRECORD
  5
76A7
102
{ACAD_REACTORS
330
76A4
102
}
330
76A4
100
AcDbXrecord
  1

  0
XRECORD
  5
76AD
102
{ACAD_REACTORS
330
76A4
102
}
330
76A4
100
AcDbXrecord
 90
        0
  0
XRECORD
  5
76A9
102
{ACAD_REACTORS
330
76A4
102
}
330
76A4
100
AcDbXrecord
340
19
  0
XRECORD
  5
76AC
102
{ACAD_REACTORS
330
76A4
102
}
330
76A4
100
AcDbXrecord
 90
    10781
  0
XRECORD
  5
76AA
102
{ACAD_REACTORS
330
76A4
102
}
330
76A4
100
AcDbXrecord
340
18
  0
XRECORD
  5
76AB
102
{ACAD_REACTORS
330
76A4
102
}
330
76A4
100
AcDbXrecord
340
E
  0
XRECORD
  5
76B1
102
{ACAD_REACTORS
330
76A4
102
}
330
76A4
100
AcDbXrecord
 40
0.0
  0
XRECORD
  5
76B5
102
{ACAD_REACTORS
330
76A4
102
}
330
76A4
100
AcDbXrecord
340
0
  0
XRECORD
  5
76BB
102
{ACAD_REACTORS
330
76A4
102
}
330
76A4
100
AcDbXrecord
 10
0.0
 20
0.0
 30
0.0
  0
XRECORD
  5
76B7
102
{ACAD_REACTORS
330
76A4
102
}
330
76A4
100
AcDbXrecord
 10
0.0
 20
0.0
 30
0.0
  0
XRECORD
  5
76BA
102
{ACAD_REACTORS
330
76A4
102
}
330
76A4
100
AcDbXrecord
 10
0.0
 20
0.0
 30
0.0
  0
XRECORD
  5
76B8
102
{ACAD_REACTORS
330
76A4
102
}
330
76A4
100
AcDbXrecord
 10
0.0
 20
0.0
 30
0.0
  0
XRECORD
  5
76B9
102
{ACAD_REACTORS
330
76A4
102
}
330
76A4
100
AcDbXrecord
 10
0.0
 20
0.0
 30
0.0
  0
XRECORD
  5
76B6
102
{ACAD_REACTORS
330
76A4
102
}
330
76A4
100
AcDbXrecord
 10
0.0
 20
0.0
 30
0.0
  0
XRECORD
  5
76B3
102
{ACAD_REACTORS
330
76A4
102
}
330
76A4
100
AcDbXrecord
340
0
  0
XRECORD
  5
76B4
102
{ACAD_REACTORS
330
76A4
102
}
330
76A4
100
AcDbXrecord
 70
     0
  0
XRECORD
  5
76A8
102
{ACAD_REACTORS
330
76A4
102
}
330
76A4
100
AcDbXrecord
  1
kiki.ctb
  0
XRECORD
  5
76A5
102
{ACAD_REACTORS
330
76A4
102
}
330
76A4
100
AcDbXrecord
 90
        1
  0
XRECORD
  5
76A6
102
{ACAD_REACTORS
330
76A4
102
}
330
76A4
100
AcDbXrecord
 90
       70
  0
XRECORD
  5
76BE
102
{ACAD_REACTORS
330
76A4
102
}
330
76A4
100
AcDbXrecord
340
0
  0
XRECORD
  5
76C4
102
{ACAD_REACTORS
330
76A4
102
}
330
76A4
100
AcDbXrecord
 10
0.0
 20
0.0
 30
0.0
  0
XRECORD
  5
76C0
102
{ACAD_REACTORS
330
76A4
102
}
330
76A4
100
AcDbXrecord
 10
0.0
 20
0.0
 30
0.0
  0
XRECORD
  5
76C3
102
{ACAD_REACTORS
330
76A4
102
}
330
76A4
100
AcDbXrecord
 10
0.0
 20
0.0
 30
0.0
  0
XRECORD
  5
76C1
102
{ACAD_REACTORS
330
76A4
102
}
330
76A4
100
AcDbXrecord
 10
0.0
 20
0.0
 30
0.0
  0
XRECORD
  5
76C2
102
{ACAD_REACTORS
330
76A4
102
}
330
76A4
100
AcDbXrecord
 10
0.0
 20
0.0
 30
0.0
  0
XRECORD
  5
76BF
102
{ACAD_REACTORS
330
76A4
102
}
330
76A4
100
AcDbXrecord
 10
0.0
 20
0.0
 30
0.0
  0
XRECORD
  5
76BC
102
{ACAD_REACTORS
330
76A4
102
}
330
76A4
100
AcDbXrecord
340
0
  0
XRECORD
  5
76BD
102
{ACAD_REACTORS
330
76A4
102
}
330
76A4
100
AcDbXrecord
 70
     0
  0
XRECORD
  5
76B0
102
{ACAD_REACTORS
330
76A4
102
}
330
76A4
100
AcDbXrecord
  1
{9D72D671-4925-4B25-9076-6745D87D9B2C}
  0
DICTIONARYVAR
  5
5698
102
{ACAD_REACTORS
330
5697
102
}
330
5697
100
DictionaryVariables
280
     0
  1
1
  0
ENDSEC
  0
EOF
