  0
SECTION
  2
HEADER
  9
$ACADVER
  1
AC1014
  9
$ACADMAINTVER
 70
     9
  9
$DWGCODEPAGE
  3
ANSI_932
  9
$INSBASE
 10
0.0
 20
0.0
 30
0.0
  9
$EXTMIN
 10
-83.96411608460175
 20
-348.6359603755261
 30
-0.0000000000000129
  9
$EXTMAX
 10
252.3232547581196
 20
191.6862071976417
 30
0.0000000000000024
  9
$LIMMIN
 10
-296.316999476111
 20
-370.7034300441653
  9
$LIMMAX
 10
623.3128432133979
 20
328.6261559379898
  9
$ORTHOMODE
 70
     1
  9
$REGENMODE
 70
     1
  9
$FILLMODE
 70
     1
  9
$QTEXTMODE
 70
     0
  9
$MIRRTEXT
 70
     1
  9
$DRAGMODE
 70
     2
  9
$LTSCALE
 40
8.0
  9
$OSMODE
 70
    37
  9
$ATTMODE
 70
     1
  9
$TEXTSIZE
 40
5.0
  9
$TRACEWID
 40
0.05
  9
$TEXTSTYLE
  7
STANDARD1
  9
$CLAYER
  8
30
  9
$CELTYPE
  6
CONTINUOUS
  9
$CECOLOR
 62
   256
  9
$CELTSCALE
 40
1.0
  9
$DELOBJ
 70
     1
  9
$DISPSILH
 70
     0
  9
$DIMSCALE
 40
1.0
  9
$DIMASZ
 40
2.0
  9
$DIMEXO
 40
1.0
  9
$DIMDLI
 40
0.5
  9
$DIMRND
 40
0.0
  9
$DIMDLE
 40
0.0
  9
$DIMEXE
 40
0.5
  9
$DIMTP
 40
0.0
  9
$DIMTM
 40
0.0
  9
$DIMTXT
 40
4.0
  9
$DIMCEN
 40
0.09
  9
$DIMTSZ
 40
0.0
  9
$DIMTOL
 70
     0
  9
$DIMLIM
 70
     0
  9
$DIMTIH
 70
     0
  9
$DIMTOH
 70
     1
  9
$DIMSE1
 70
     0
  9
$DIMSE2
 70
     0
  9
$DIMTAD
 70
     3
  9
$DIMZIN
 70
    12
  9
$DIMBLK
  1
OPEN
  9
$DIMASO
 70
     1
  9
$DIMSHO
 70
     1
  9
$DIMPOST
  1

  9
$DIMAPOST
  1

  9
$DIMALT
 70
     0
  9
$DIMALTD
 70
     2
  9
$DIMALTF
 40
25.4
  9
$DIMLFAC
 40
1.0
  9
$DIMTOFL
 70
     0
  9
$DIMTVP
 40
0.0
  9
$DIMTIX
 70
     0
  9
$DIMSOXD
 70
     0
  9
$DIMSAH
 70
     0
  9
$DIMBLK1
  1

  9
$DIMBLK2
  1

  9
$DIMSTYLE
  2
STANDARD
  9
$DIMCLRD
 70
     0
  9
$DIMCLRE
 70
     0
  9
$DIMCLRT
 70
     0
  9
$DIMTFAC
 40
1.0
  9
$DIMGAP
 40
1.0
  9
$DIMJUST
 70
     0
  9
$DIMSD1
 70
     0
  9
$DIMSD2
 70
     0
  9
$DIMTOLJ
 70
     1
  9
$DIMTZIN
 70
     0
  9
$DIMALTZ
 70
     0
  9
$DIMALTTZ
 70
     0
  9
$DIMFIT
 70
     3
  9
$DIMUPT
 70
     0
  9
$DIMUNIT
 70
     2
  9
$DIMDEC
 70
     1
  9
$DIMTDEC
 70
     1
  9
$DIMALTU
 70
     2
  9
$DIMALTTD
 70
     2
  9
$DIMTXSTY
  7
STANDARD
  9
$DIMAUNIT
 70
     0
  9
$LUNITS
 70
     2
  9
$LUPREC
 70
     4
  9
$SKETCHINC
 40
0.1
  9
$FILLETRAD
 40
0.0
  9
$AUNITS
 70
     0
  9
$AUPREC
 70
     0
  9
$MENU
  1
.
  9
$ELEVATION
 40
0.0
  9
$PELEVATION
 40
0.0
  9
$THICKNESS
 40
0.0
  9
$LIMCHECK
 70
     0
  9
$BLIPMODE
 70
     0
  9
$CHAMFERA
 40
0.0
  9
$CHAMFERB
 40
0.0
  9
$CHAMFERC
 40
0.0
  9
$CHAMFERD
 40
0.0
  9
$SKPOLY
 70
     0
  9
$TDCREATE
 40
2452286.555658657
  9
$TDUPDATE
 40
2453164.139917164
  9
$TDINDWG
 40
1.2949117014
  9
$TDUSRTIMER
 40
1.2949102431
  9
$USRTIMER
 70
     1
  9
$ANGBASE
 50
0.0
  9
$ANGDIR
 70
     0
  9
$PDMODE
 70
     0
  9
$PDSIZE
 40
0.0
  9
$PLINEWID
 40
0.0
  9
$COORDS
 70
     2
  9
$SPLFRAME
 70
     0
  9
$SPLINETYPE
 70
     6
  9
$SPLINESEGS
 70
     8
  9
$ATTDIA
 70
     0
  9
$ATTREQ
 70
     1
  9
$HANDLING
 70
 22529
  9
$HANDSEED
  5
88DA
  9
$SURFTAB1
 70
     6
  9
$SURFTAB2
 70
     6
  9
$SURFTYPE
 70
     6
  9
$SURFU
 70
     6
  9
$SURFV
 70
     6
  9
$UCSNAME
  2

  9
$UCSORG
 10
0.0
 20
0.0
 30
0.0
  9
$UCSXDIR
 10
1.0
 20
0.0
 30
0.0
  9
$UCSYDIR
 10
0.0
 20
1.0
 30
0.0
  9
$PUCSNAME
  2

  9
$PUCSORG
 10
0.0
 20
0.0
 30
0.0
  9
$PUCSXDIR
 10
1.0
 20
0.0
 30
0.0
  9
$PUCSYDIR
 10
0.0
 20
1.0
 30
0.0
  9
$USERI1
 70
     0
  9
$USERI2
 70
     0
  9
$USERI3
 70
     0
  9
$USERI4
 70
     0
  9
$USERI5
 70
     0
  9
$USERR1
 40
0.0
  9
$USERR2
 40
0.0
  9
$USERR3
 40
0.0
  9
$USERR4
 40
0.0
  9
$USERR5
 40
0.0
  9
$WORLDVIEW
 70
     1
  9
$SHADEDGE
 70
     3
  9
$SHADEDIF
 70
    70
  9
$TILEMODE
 70
     1
  9
$MAXACTVP
 70
    48
  9
$PINSBASE
 10
0.0
 20
0.0
 30
0.0
  9
$PLIMCHECK
 70
     0
  9
$PEXTMIN
 10
4.273573
 20
5.205245999999998
 30
0.0
  9
$PEXTMAX
 10
194.610095
 20
283.0697009999996
 30
0.0
  9
$PLIMMIN
 10
-5.873749
 20
-5.87375
  9
$PLIMMAX
 10
204.099579
 20
291.1369009999999
  9
$UNITMODE
 70
     0
  9
$VISRETAIN
 70
     1
  9
$PLINEGEN
 70
     0
  9
$PSLTSCALE
 70
     1
  9
$TREEDEPTH
 70
  3020
  9
$PICKSTYLE
 70
     1
  9
$CMLSTYLE
  2
STANDARD
  9
$CMLJUST
 70
     0
  9
$CMLSCALE
 40
1.0
  9
$PROXYGRAPHICS
 70
     1
  9
$MEASUREMENT
 70
     0
  0
ENDSEC
  0
SECTION
  2
CLASSES
  0
CLASS
  1
ACDBDICTIONARYWDFLT
  2
AcDbDictionaryWithDefault
  3
AutoCAD 2000
 90
        0
280
     0
281
     0
  0
CLASS
  1
ACDBPLACEHOLDER
  2
AcDbPlaceHolder
  3
AutoCAD 2000
 90
        0
280
     0
281
     0
  0
CLASS
  1
LAYOUT
  2
AcDbLayout
  3
AutoCAD 2000
 90
        0
280
     0
281
     0
  0
CLASS
  1
LONG_TRANSACTION
  2
AcDbLongTransaction
  3
AutoCAD 2000
 90
        0
280
     0
281
     0
  0
CLASS
  1
LWPOLYLINE
  2
AcDbPolyline
  3
AutoCAD 2000
 90
        0
280
     0
281
     1
  0
CLASS
  1
HATCH
  2
AcDbHatch
  3
AutoCAD 2000
 90
        0
280
     0
281
     1
  0
CLASS
  1
XRECORD
  2
AcDbXrecord
  3
AutoCAD 2000
 90
        0
280
     0
281
     0
  0
CLASS
  1
LONG_TRANSACTION
  2
AcDbLongTransaction
  3
AutoCAD 2000
 90
        0
280
     0
281
     0
  0
CLASS
  1
LWPOLYLINE
  2
AcDbPolyline
  3
AutoCAD 2000
 90
        0
280
     0
281
     1
  0
CLASS
  1
HATCH
  2
AcDbHatch
  3
AutoCAD 2000
 90
        0
280
     0
281
     1
  0
CLASS
  1
XRECORD
  2
AcDbXrecord
  3
AutoCAD 2000
 90
        0
280
     0
281
     0
  0
CLASS
  1
LONG_TRANSACTION
  2
AcDbLongTransaction
  3
AutoCAD 2000
 90
        0
280
     0
281
     0
  0
CLASS
  1
LWPOLYLINE
  2
AcDbPolyline
  3
AutoCAD 2000
 90
        0
280
     0
281
     1
  0
CLASS
  1
HATCH
  2
AcDbHatch
  3
AutoCAD 2000
 90
        0
280
     0
281
     1
  0
CLASS
  1
XRECORD
  2
AcDbXrecord
  3
AutoCAD 2000
 90
        0
280
     0
281
     0
  0
CLASS
  1
LONG_TRANSACTION
  2
AcDbLongTransaction
  3
AutoCAD 2000
 90
        0
280
     0
281
     0
  0
CLASS
  1
LWPOLYLINE
  2
AcDbPolyline
  3
AutoCAD 2000
 90
        0
280
     0
281
     1
  0
CLASS
  1
HATCH
  2
AcDbHatch
  3
AutoCAD 2000
 90
        0
280
     0
281
     1
  0
CLASS
  1
XRECORD
  2
AcDbXrecord
  3
AutoCAD 2000
 90
        0
280
     0
281
     0
  0
CLASS
  1
LONG_TRANSACTION
  2
AcDbLongTransaction
  3
AutoCAD 2000
 90
        0
280
     0
281
     0
  0
CLASS
  1
LWPOLYLINE
  2
AcDbPolyline
  3
AutoCAD 2000
 90
        0
280
     0
281
     1
  0
CLASS
  1
HATCH
  2
AcDbHatch
  3
AutoCAD 2000
 90
        0
280
     0
281
     1
  0
CLASS
  1
XRECORD
  2
AcDbXrecord
  3
AutoCAD 2000
 90
        0
280
     0
281
     0
  0
CLASS
  1
LONG_TRANSACTION
  2
AcDbLongTransaction
  3
AutoCAD 2000
 90
        0
280
     0
281
     0
  0
CLASS
  1
LWPOLYLINE
  2
AcDbPolyline
  3
AutoCAD 2000
 90
        0
280
     0
281
     1
  0
CLASS
  1
HATCH
  2
AcDbHatch
  3
AutoCAD 2000
 90
        0
280
     0
281
     1
  0
CLASS
  1
XRECORD
  2
AcDbXrecord
  3
AutoCAD 2000
 90
        0
280
     0
281
     0
  0
CLASS
  1
LONG_TRANSACTION
  2
AcDbLongTransaction
  3
AutoCAD 2000
 90
        0
280
     0
281
     0
  0
CLASS
  1
LWPOLYLINE
  2
AcDbPolyline
  3
AutoCAD 2000
 90
        0
280
     0
281
     1
  0
CLASS
  1
HATCH
  2
AcDbHatch
  3
AutoCAD 2000
 90
        0
280
     0
281
     1
  0
CLASS
  1
XRECORD
  2
AcDbXrecord
  3
AutoCAD 2000
 90
        0
280
     0
281
     0
  0
CLASS
  1
LONG_TRANSACTION
  2
AcDbLongTransaction
  3
AutoCAD 2000
 90
        0
280
     0
281
     0
  0
CLASS
  1
LWPOLYLINE
  2
AcDbPolyline
  3
AutoCAD 2000
 90
        0
280
     0
281
     1
  0
CLASS
  1
HATCH
  2
AcDbHatch
  3
AutoCAD 2000
 90
        0
280
     0
281
     1
  0
CLASS
  1
XRECORD
  2
AcDbXrecord
  3
AutoCAD 2000
 90
        0
280
     0
281
     0
  0
CLASS
  1
LONG_TRANSACTION
  2
AcDbLongTransaction
  3
AutoCAD 2000
 90
        0
280
     0
281
     0
  0
CLASS
  1
LWPOLYLINE
  2
AcDbPolyline
  3
AutoCAD 2000
 90
        0
280
     0
281
     1
  0
CLASS
  1
HATCH
  2
AcDbHatch
  3
AutoCAD 2000
 90
        0
280
     0
281
     1
  0
CLASS
  1
XRECORD
  2
AcDbXrecord
  3
AutoCAD 2000
 90
        0
280
     0
281
     0
  0
CLASS
  1
LONG_TRANSACTION
  2
AcDbLongTransaction
  3
AutoCAD 2000
 90
        0
280
     0
281
     0
  0
CLASS
  1
LWPOLYLINE
  2
AcDbPolyline
  3
AutoCAD 2000
 90
        0
280
     0
281
     1
  0
CLASS
  1
HATCH
  2
AcDbHatch
  3
AutoCAD 2000
 90
        0
280
     0
281
     1
  0
CLASS
  1
XRECORD
  2
AcDbXrecord
  3
AutoCAD 2000
 90
        0
280
     0
281
     0
  0
CLASS
  1
LONG_TRANSACTION
  2
AcDbLongTransaction
  3
AutoCAD 2000
 90
        0
280
     0
281
     0
  0
CLASS
  1
LWPOLYLINE
  2
AcDbPolyline
  3
AutoCAD 2000
 90
        0
280
     0
281
     1
  0
CLASS
  1
HATCH
  2
AcDbHatch
  3
AutoCAD 2000
 90
        0
280
     0
281
     1
  0
CLASS
  1
XRECORD
  2
AcDbXrecord
  3
AutoCAD 2000
 90
        0
280
     0
281
     0
  0
CLASS
  1
LONG_TRANSACTION
  2
AcDbLongTransaction
  3
AutoCAD 2000
 90
        0
280
     0
281
     0
  0
CLASS
  1
LWPOLYLINE
  2
AcDbPolyline
  3
AutoCAD 2000
 90
        0
280
     0
281
     1
  0
CLASS
  1
HATCH
  2
AcDbHatch
  3
AutoCAD 2000
 90
        0
280
     0
281
     1
  0
CLASS
  1
XRECORD
  2
AcDbXrecord
  3
AutoCAD 2000
 90
        0
280
     0
281
     0
  0
CLASS
  1
LONG_TRANSACTION
  2
AcDbLongTransaction
  3
AutoCAD 2000
 90
        0
280
     0
281
     0
  0
CLASS
  1
LWPOLYLINE
  2
AcDbPolyline
  3
AutoCAD 2000
 90
        0
280
     0
281
     1
  0
CLASS
  1
HATCH
  2
AcDbHatch
  3
AutoCAD 2000
 90
        0
280
     0
281
     1
  0
CLASS
  1
XRECORD
  2
AcDbXrecord
  3
AutoCAD 2000
 90
        0
280
     0
281
     0
  0
CLASS
  1
LONG_TRANSACTION
  2
AcDbLongTransaction
  3
AutoCAD 2000
 90
        0
280
     0
281
     0
  0
CLASS
  1
LWPOLYLINE
  2
AcDbPolyline
  3
AutoCAD 2000
 90
        0
280
     0
281
     1
  0
CLASS
  1
HATCH
  2
AcDbHatch
  3
AutoCAD 2000
 90
        0
280
     0
281
     1
  0
CLASS
  1
XRECORD
  2
AcDbXrecord
  3
AutoCAD 2000
 90
        0
280
     0
281
     0
  0
CLASS
  1
LONG_TRANSACTION
  2
AcDbLongTransaction
  3
AutoCAD 2000
 90
        0
280
     0
281
     0
  0
CLASS
  1
LWPOLYLINE
  2
AcDbPolyline
  3
AutoCAD 2000
 90
        0
280
     0
281
     1
  0
CLASS
  1
HATCH
  2
AcDbHatch
  3
AutoCAD 2000
 90
        0
280
     0
281
     1
  0
CLASS
  1
XRECORD
  2
AcDbXrecord
  3
AutoCAD 2000
 90
        0
280
     0
281
     0
  0
CLASS
  1
LONG_TRANSACTION
  2
AcDbLongTransaction
  3
AutoCAD 2000
 90
        0
280
     0
281
     0
  0
CLASS
  1
LWPOLYLINE
  2
AcDbPolyline
  3
AutoCAD 2000
 90
        0
280
     0
281
     1
  0
CLASS
  1
HATCH
  2
AcDbHatch
  3
AutoCAD 2000
 90
        0
280
     0
281
     1
  0
CLASS
  1
XRECORD
  2
AcDbXrecord
  3
AutoCAD 2000
 90
        0
280
     0
281
     0
  0
CLASS
  1
LONG_TRANSACTION
  2
AcDbLongTransaction
  3
AutoCAD 2000
 90
        0
280
     0
281
     0
  0
CLASS
  1
LWPOLYLINE
  2
AcDbPolyline
  3
AutoCAD 2000
 90
        0
280
     0
281
     1
  0
CLASS
  1
HATCH
  2
AcDbHatch
  3
AutoCAD 2000
 90
        0
280
     0
281
     1
  0
CLASS
  1
XRECORD
  2
AcDbXrecord
  3
AutoCAD 2000
 90
        0
280
     0
281
     0
  0
CLASS
  1
LONG_TRANSACTION
  2
AcDbLongTransaction
  3
AutoCAD 2000
 90
        0
280
     0
281
     0
  0
CLASS
  1
LWPOLYLINE
  2
AcDbPolyline
  3
AutoCAD 2000
 90
        0
280
     0
281
     1
  0
CLASS
  1
HATCH
  2
AcDbHatch
  3
AutoCAD 2000
 90
        0
280
     0
281
     1
  0
CLASS
  1
XRECORD
  2
AcDbXrecord
  3
AutoCAD 2000
 90
        0
280
     0
281
     0
  0
CLASS
  1
LONG_TRANSACTION
  2
AcDbLongTransaction
  3
AutoCAD 2000
 90
        0
280
     0
281
     0
  0
CLASS
  1
LWPOLYLINE
  2
AcDbPolyline
  3
AutoCAD 2000
 90
        0
280
     0
281
     1
  0
CLASS
  1
HATCH
  2
AcDbHatch
  3
AutoCAD 2000
 90
        0
280
     0
281
     1
  0
CLASS
  1
XRECORD
  2
AcDbXrecord
  3
AutoCAD 2000
 90
        0
280
     0
281
     0
  0
CLASS
  1
LONG_TRANSACTION
  2
AcDbLongTransaction
  3
AutoCAD 2000
 90
        0
280
     0
281
     0
  0
CLASS
  1
LWPOLYLINE
  2
AcDbPolyline
  3
AutoCAD 2000
 90
        0
280
     0
281
     1
  0
CLASS
  1
HATCH
  2
AcDbHatch
  3
AutoCAD 2000
 90
        0
280
     0
281
     1
  0
CLASS
  1
XRECORD
  2
AcDbXrecord
  3
AutoCAD 2000
 90
        0
280
     0
281
     0
  0
CLASS
  1
LONG_TRANSACTION
  2
AcDbLongTransaction
  3
AutoCAD 2000
 90
        0
280
     0
281
     0
  0
CLASS
  1
LWPOLYLINE
  2
AcDbPolyline
  3
AutoCAD 2000
 90
        0
280
     0
281
     1
  0
CLASS
  1
HATCH
  2
AcDbHatch
  3
AutoCAD 2000
 90
        0
280
     0
281
     1
  0
CLASS
  1
XRECORD
  2
AcDbXrecord
  3
AutoCAD 2000
 90
        0
280
     0
281
     0
  0
CLASS
  1
LONG_TRANSACTION
  2
AcDbLongTransaction
  3
AutoCAD 2000
 90
        0
280
     0
281
     0
  0
CLASS
  1
LWPOLYLINE
  2
AcDbPolyline
  3
AutoCAD 2000
 90
        0
280
     0
281
     1
  0
CLASS
  1
HATCH
  2
AcDbHatch
  3
AutoCAD 2000
 90
        0
280
     0
281
     1
  0
CLASS
  1
XRECORD
  2
AcDbXrecord
  3
AutoCAD 2000
 90
        0
280
     0
281
     0
  0
CLASS
  1
LONG_TRANSACTION
  2
AcDbLongTransaction
  3
AutoCAD 2000
 90
        0
280
     0
281
     0
  0
CLASS
  1
LWPOLYLINE
  2
AcDbPolyline
  3
AutoCAD 2000
 90
        0
280
     0
281
     1
  0
CLASS
  1
HATCH
  2
AcDbHatch
  3
AutoCAD 2000
 90
        0
280
     0
281
     1
  0
CLASS
  1
XRECORD
  2
AcDbXrecord
  3
AutoCAD 2000
 90
        0
280
     0
281
     0
  0
CLASS
  1
LONG_TRANSACTION
  2
AcDbLongTransaction
  3
AutoCAD 2000
 90
        0
280
     0
281
     0
  0
CLASS
  1
LWPOLYLINE
  2
AcDbPolyline
  3
AutoCAD 2000
 90
        0
280
     0
281
     1
  0
CLASS
  1
HATCH
  2
AcDbHatch
  3
AutoCAD 2000
 90
        0
280
     0
281
     1
  0
CLASS
  1
XRECORD
  2
AcDbXrecord
  3
AutoCAD 2000
 90
        0
280
     0
281
     0
  0
CLASS
  1
LONG_TRANSACTION
  2
AcDbLongTransaction
  3
AutoCAD 2000
 90
        0
280
     0
281
     0
  0
CLASS
  1
LWPOLYLINE
  2
AcDbPolyline
  3
AutoCAD 2000
 90
        0
280
     0
281
     1
  0
CLASS
  1
HATCH
  2
AcDbHatch
  3
AutoCAD 2000
 90
        0
280
     0
281
     1
  0
CLASS
  1
XRECORD
  2
AcDbXrecord
  3
AutoCAD 2000
 90
        0
280
     0
281
     0
  0
CLASS
  1
LONG_TRANSACTION
  2
AcDbLongTransaction
  3
AutoCAD 2000
 90
        0
280
     0
281
     0
  0
CLASS
  1
LWPOLYLINE
  2
AcDbPolyline
  3
AutoCAD 2000
 90
        0
280
     0
281
     1
  0
CLASS
  1
HATCH
  2
AcDbHatch
  3
AutoCAD 2000
 90
        0
280
     0
281
     1
  0
CLASS
  1
XRECORD
  2
AcDbXrecord
  3
AutoCAD 2000
 90
        0
280
     0
281
     0
  0
CLASS
  1
LONG_TRANSACTION
  2
AcDbLongTransaction
  3
AutoCAD 2000
 90
        0
280
     0
281
     0
  0
CLASS
  1
LWPOLYLINE
  2
AcDbPolyline
  3
AutoCAD 2000
 90
        0
280
     0
281
     1
  0
CLASS
  1
HATCH
  2
AcDbHatch
  3
AutoCAD 2000
 90
        0
280
     0
281
     1
  0
CLASS
  1
XRECORD
  2
AcDbXrecord
  3
AutoCAD 2000
 90
        0
280
     0
281
     0
  0
CLASS
  1
LONG_TRANSACTION
  2
AcDbLongTransaction
  3
AutoCAD 2000
 90
        0
280
     0
281
     0
  0
CLASS
  1
LWPOLYLINE
  2
AcDbPolyline
  3
AutoCAD 2000
 90
        0
280
     0
281
     1
  0
CLASS
  1
HATCH
  2
AcDbHatch
  3
AutoCAD 2000
 90
        0
280
     0
281
     1
  0
CLASS
  1
XRECORD
  2
AcDbXrecord
  3
AutoCAD 2000
 90
        0
280
     0
281
     0
  0
CLASS
  1
LONG_TRANSACTION
  2
AcDbLongTransaction
  3
AutoCAD 2000
 90
        0
280
     0
281
     0
  0
CLASS
  1
LWPOLYLINE
  2
AcDbPolyline
  3
AutoCAD 2000
 90
        0
280
     0
281
     1
  0
CLASS
  1
HATCH
  2
AcDbHatch
  3
AutoCAD 2000
 90
        0
280
     0
281
     1
  0
CLASS
  1
XRECORD
  2
AcDbXrecord
  3
AutoCAD 2000
 90
        0
280
     0
281
     0
  0
CLASS
  1
LONG_TRANSACTION
  2
AcDbLongTransaction
  3
AutoCAD 2000
 90
        0
280
     0
281
     0
  0
CLASS
  1
LWPOLYLINE
  2
AcDbPolyline
  3
AutoCAD 2000
 90
        0
280
     0
281
     1
  0
CLASS
  1
HATCH
  2
AcDbHatch
  3
AutoCAD 2000
 90
        0
280
     0
281
     1
  0
CLASS
  1
XRECORD
  2
AcDbXrecord
  3
AutoCAD 2000
 90
        0
280
     0
281
     0
  0
CLASS
  1
LONG_TRANSACTION
  2
AcDbLongTransaction
  3
AutoCAD 2000
 90
        0
280
     0
281
     0
  0
CLASS
  1
LWPOLYLINE
  2
AcDbPolyline
  3
AutoCAD 2000
 90
        0
280
     0
281
     1
  0
CLASS
  1
HATCH
  2
AcDbHatch
  3
AutoCAD 2000
 90
        0
280
     0
281
     1
  0
CLASS
  1
XRECORD
  2
AcDbXrecord
  3
AutoCAD 2000
 90
        0
280
     0
281
     0
  0
CLASS
  1
LONG_TRANSACTION
  2
AcDbLongTransaction
  3
AutoCAD 2000
 90
        0
280
     0
281
     0
  0
CLASS
  1
LWPOLYLINE
  2
AcDbPolyline
  3
AutoCAD 2000
 90
        0
280
     0
281
     1
  0
CLASS
  1
HATCH
  2
AcDbHatch
  3
AutoCAD 2000
 90
        0
280
     0
281
     1
  0
CLASS
  1
XRECORD
  2
AcDbXrecord
  3
AutoCAD 2000
 90
        0
280
     0
281
     0
  0
CLASS
  1
LONG_TRANSACTION
  2
AcDbLongTransaction
  3
AutoCAD 2000
 90
        0
280
     0
281
     0
  0
CLASS
  1
LWPOLYLINE
  2
AcDbPolyline
  3
AutoCAD 2000
 90
        0
280
     0
281
     1
  0
CLASS
  1
HATCH
  2
AcDbHatch
  3
AutoCAD 2000
 90
        0
280
     0
281
     1
  0
CLASS
  1
XRECORD
  2
AcDbXrecord
  3
AutoCAD 2000
 90
        0
280
     0
281
     0
  0
CLASS
  1
DICTIONARYVAR
  2
AcDbDictionaryVar
  3
AutoCAD 2000
 90
        0
280
     0
281
     0
  0
CLASS
  1
LONG_TRANSACTION
  2
AcDbLongTransaction
  3
AutoCAD 2000
 90
        0
280
     0
281
     0
  0
CLASS
  1
LWPOLYLINE
  2
AcDbPolyline
  3
AutoCAD 2000
 90
        0
280
     0
281
     1
  0
CLASS
  1
HATCH
  2
AcDbHatch
  3
AutoCAD 2000
 90
        0
280
     0
281
     1
  0
CLASS
  1
XRECORD
  2
AcDbXrecord
  3
AutoCAD 2000
 90
        0
280
     0
281
     0
  0
CLASS
  1
LONG_TRANSACTION
  2
AcDbLongTransaction
  3
AutoCAD 2000
 90
        0
280
     0
281
     0
  0
CLASS
  1
LWPOLYLINE
  2
AcDbPolyline
  3
AutoCAD 2000
 90
        0
280
     0
281
     1
  0
CLASS
  1
HATCH
  2
AcDbHatch
  3
AutoCAD 2000
 90
        0
280
     0
281
     1
  0
CLASS
  1
XRECORD
  2
AcDbXrecord
  3
AutoCAD 2000
 90
        0
280
     0
281
     0
  0
CLASS
  1
LONG_TRANSACTION
  2
AcDbLongTransaction
  3
AutoCAD 2000
 90
        0
280
     0
281
     0
  0
CLASS
  1
LWPOLYLINE
  2
AcDbPolyline
  3
AutoCAD 2000
 90
        0
280
     0
281
     1
  0
CLASS
  1
HATCH
  2
AcDbHatch
  3
AutoCAD 2000
 90
        0
280
     0
281
     1
  0
CLASS
  1
XRECORD
  2
AcDbXrecord
  3
AutoCAD 2000
 90
        0
280
     0
281
     0
  0
CLASS
  1
LONG_TRANSACTION
  2
AcDbLongTransaction
  3
AutoCAD 2000
 90
        0
280
     0
281
     0
  0
CLASS
  1
LWPOLYLINE
  2
AcDbPolyline
  3
AutoCAD 2000
 90
        0
280
     0
281
     1
  0
CLASS
  1
HATCH
  2
AcDbHatch
  3
AutoCAD 2000
 90
        0
280
     0
281
     1
  0
CLASS
  1
XRECORD
  2
AcDbXrecord
  3
AutoCAD 2000
 90
        0
280
     0
281
     0
  0
CLASS
  1
LONG_TRANSACTION
  2
AcDbLongTransaction
  3
AutoCAD 2000
 90
        0
280
     0
281
     0
  0
CLASS
  1
LWPOLYLINE
  2
AcDbPolyline
  3
AutoCAD 2000
 90
        0
280
     0
281
     1
  0
CLASS
  1
HATCH
  2
AcDbHatch
  3
AutoCAD 2000
 90
        0
280
     0
281
     1
  0
CLASS
  1
XRECORD
  2
AcDbXrecord
  3
AutoCAD 2000
 90
        0
280
     0
281
     0
  0
CLASS
  1
LONG_TRANSACTION
  2
AcDbLongTransaction
  3
AutoCAD 2000
 90
        0
280
     0
281
     0
  0
CLASS
  1
LWPOLYLINE
  2
AcDbPolyline
  3
AutoCAD 2000
 90
        0
280
     0
281
     1
  0
CLASS
  1
HATCH
  2
AcDbHatch
  3
AutoCAD 2000
 90
        0
280
     0
281
     1
  0
CLASS
  1
XRECORD
  2
AcDbXrecord
  3
AutoCAD 2000
 90
        0
280
     0
281
     0
  0
CLASS
  1
LONG_TRANSACTION
  2
AcDbLongTransaction
  3
AutoCAD 2000
 90
        0
280
     0
281
     0
  0
CLASS
  1
LWPOLYLINE
  2
AcDbPolyline
  3
AutoCAD 2000
 90
        0
280
     0
281
     1
  0
CLASS
  1
HATCH
  2
AcDbHatch
  3
AutoCAD 2000
 90
        0
280
     0
281
     1
  0
CLASS
  1
XRECORD
  2
AcDbXrecord
  3
AutoCAD 2000
 90
        0
280
     0
281
     0
  0
CLASS
  1
LONG_TRANSACTION
  2
AcDbLongTransaction
  3
AutoCAD 2000
 90
        0
280
     0
281
     0
  0
CLASS
  1
LWPOLYLINE
  2
AcDbPolyline
  3
AutoCAD 2000
 90
        0
280
     0
281
     1
  0
CLASS
  1
HATCH
  2
AcDbHatch
  3
AutoCAD 2000
 90
        0
280
     0
281
     1
  0
CLASS
  1
XRECORD
  2
AcDbXrecord
  3
AutoCAD 2000
 90
        0
280
     0
281
     0
  0
CLASS
  1
LONG_TRANSACTION
  2
AcDbLongTransaction
  3
AutoCAD 2000
 90
        0
280
     0
281
     0
  0
CLASS
  1
LWPOLYLINE
  2
AcDbPolyline
  3
AutoCAD 2000
 90
        0
280
     0
281
     1
  0
CLASS
  1
HATCH
  2
AcDbHatch
  3
AutoCAD 2000
 90
        0
280
     0
281
     1
  0
CLASS
  1
XRECORD
  2
AcDbXrecord
  3
AutoCAD 2000
 90
        0
280
     0
281
     0
  0
CLASS
  1
LONG_TRANSACTION
  2
AcDbLongTransaction
  3
AutoCAD 2000
 90
        0
280
     0
281
     0
  0
CLASS
  1
LWPOLYLINE
  2
AcDbPolyline
  3
AutoCAD 2000
 90
        0
280
     0
281
     1
  0
CLASS
  1
HATCH
  2
AcDbHatch
  3
AutoCAD 2000
 90
        0
280
     0
281
     1
  0
CLASS
  1
XRECORD
  2
AcDbXrecord
  3
AutoCAD 2000
 90
        0
280
     0
281
     0
  0
CLASS
  1
LONG_TRANSACTION
  2
AcDbLongTransaction
  3
AutoCAD 2000
 90
        0
280
     0
281
     0
  0
CLASS
  1
LWPOLYLINE
  2
AcDbPolyline
  3
AutoCAD 2000
 90
        0
280
     0
281
     1
  0
CLASS
  1
HATCH
  2
AcDbHatch
  3
AutoCAD 2000
 90
        0
280
     0
281
     1
  0
CLASS
  1
XRECORD
  2
AcDbXrecord
  3
AutoCAD 2000
 90
        0
280
     0
281
     0
  0
CLASS
  1
LONG_TRANSACTION
  2
AcDbLongTransaction
  3
AutoCAD 2000
 90
        0
280
     0
281
     0
  0
CLASS
  1
LWPOLYLINE
  2
AcDbPolyline
  3
AutoCAD 2000
 90
        0
280
     0
281
     1
  0
CLASS
  1
HATCH
  2
AcDbHatch
  3
AutoCAD 2000
 90
        0
280
     0
281
     1
  0
CLASS
  1
XRECORD
  2
AcDbXrecord
  3
AutoCAD 2000
 90
        0
280
     0
281
     0
  0
CLASS
  1
LONG_TRANSACTION
  2
AcDbLongTransaction
  3
AutoCAD 2000
 90
        0
280
     0
281
     0
  0
CLASS
  1
LWPOLYLINE
  2
AcDbPolyline
  3
AutoCAD 2000
 90
        0
280
     0
281
     1
  0
CLASS
  1
HATCH
  2
AcDbHatch
  3
AutoCAD 2000
 90
        0
280
     0
281
     1
  0
CLASS
  1
XRECORD
  2
AcDbXrecord
  3
AutoCAD 2000
 90
        0
280
     0
281
     0
  0
CLASS
  1
LONG_TRANSACTION
  2
AcDbLongTransaction
  3
AutoCAD 2000
 90
        0
280
     0
281
     0
  0
CLASS
  1
LWPOLYLINE
  2
AcDbPolyline
  3
AutoCAD 2000
 90
        0
280
     0
281
     1
  0
CLASS
  1
HATCH
  2
AcDbHatch
  3
AutoCAD 2000
 90
        0
280
     0
281
     1
  0
CLASS
  1
XRECORD
  2
AcDbXrecord
  3
AutoCAD 2000
 90
        0
280
     0
281
     0
  0
ENDSEC
  0
SECTION
  2
TABLES
  0
TABLE
  2
VPORT
  5
8
330
0
100
AcDbSymbolTable
 70
     2
  0
VPORT
  5
88B6
330
8
100
AcDbSymbolTableRecord
100
AcDbViewportTableRecord
  2
*ACTIVE
 70
     0
 10
0.0
 20
0.0
 11
1.0
 21
1.0
 12
84.1795693367589
 22
-78.47487658894215
 13
0.0
 23
0.0
 14
1.0
 24
1.0
 15
10.0
 25
10.0
 16
0.0
 26
0.0
 36
1.0
 17
0.0
 27
0.0
 37
0.0
 40
547.2642082700395
 41
2.152360515021459
 42
50.0
 43
0.0
 44
0.0
 50
0.0
 51
0.0
 71
     0
 72
   100
 73
     1
 74
     1
 75
     0
 76
     0
 77
     0
 78
     0
  0
ENDTAB
  0
TABLE
  2
LTYPE
  5
5
330
0
100
AcDbSymbolTable
 70
     8
  0
LTYPE
  5
13
330
5
100
AcDbSymbolTableRecord
100
AcDbLinetypeTableRecord
  2
BYBLOCK
 70
     0
  3

 72
    65
 73
     0
 40
0.0
  0
LTYPE
  5
14
330
5
100
AcDbSymbolTableRecord
100
AcDbLinetypeTableRecord
  2
BYLAYER
 70
     0
  3

 72
    65
 73
     0
 40
0.0
  0
LTYPE
  5
15
330
5
100
AcDbSymbolTableRecord
100
AcDbLinetypeTableRecord
  2
CONTINUOUS
 70
     0
  3
Solid line
 72
    65
 73
     0
 40
0.0
  0
LTYPE
  5
22
330
5
100
AcDbSymbolTableRecord
100
AcDbLinetypeTableRecord
  2
CONTINOUS
 70
     0
  3
Solid line
 72
    65
 73
     0
 40
0.0
  0
LTYPE
  5
23
330
5
100
AcDbSymbolTableRecord
100
AcDbLinetypeTableRecord
  2
DASHED
 70
     0
  3
__ __ __ __ __ __ __ __ __ __ __ __ __ __ __
 72
    65
 73
     2
 40
0.75
 49
0.5
 74
     0
 49
-0.25
 74
     0
  0
LTYPE
  5
24
330
5
100
AcDbSymbolTableRecord
100
AcDbLinetypeTableRecord
  2
DASHDOT
 70
     0
  3
__ . __ . __ . __ . __ . __ . __ . __ . __ . __
 72
    65
 73
     4
 40
1.0
 49
0.5
 74
     0
 49
-0.25
 74
     0
 49
0.0
 74
     0
 49
-0.25
 74
     0
  0
LTYPE
  5
4C47
330
5
100
AcDbSymbolTableRecord
100
AcDbLinetypeTableRecord
  2
DIVIDE
 70
     0
  3
Divide ____ . . ____ . . ____ . . ____ . . ____
 72
    65
 73
     6
 40
1.25
 49
0.5
 74
     0
 49
-0.25
 74
     0
 49
0.0
 74
     0
 49
-0.25
 74
     0
 49
0.0
 74
     0
 49
-0.25
 74
     0
  0
LTYPE
  5
6A3B
330
5
100
AcDbSymbolTableRecord
100
AcDbLinetypeTableRecord
  2
CENTER
 70
     0
  3
Center ____ _ ____ _ ____ _ ____ _ ____ _ ____
 72
    65
 73
     4
 40
50.8
 49
31.75
 74
     0
 49
-6.349999999999997
 74
     0
 49
6.349999999999997
 74
     0
 49
-6.349999999999997
 74
     0
  0
LTYPE
  5
6CFC
330
5
100
AcDbSymbolTableRecord
100
AcDbLinetypeTableRecord
  2
PHANTOM
 70
     0
  3
Phantom ______  __  __  ______  __  __  ______
 72
    65
 73
     6
 40
63.5
 49
31.75
 74
     0
 49
-6.349999999999997
 74
     0
 49
6.349999999999997
 74
     0
 49
-6.349999999999997
 74
     0
 49
6.349999999999997
 74
     0
 49
-6.349999999999997
 74
     0
  0
LTYPE
  5
70BC
330
5
100
AcDbSymbolTableRecord
100
AcDbLinetypeTableRecord
  2
HIDDEN
 70
     0
  3
Hidden __ __ __ __ __ __ __ __ __ __ __ __ __ _
 72
    65
 73
     2
 40
9.524999999999996
 49
6.349999999999997
 74
     0
 49
-3.174999999999998
 74
     0
  0
ENDTAB
  0
TABLE
  2
LAYER
  5
2
330
0
100
AcDbSymbolTable
 70
    15
  0
LAYER
  5
10
330
2
100
AcDbSymbolTableRecord
100
AcDbLayerTableRecord
  2
0
 70
     0
 62
     7
  6
CONTINOUS
  0
LAYER
  5
2F
330
2
100
AcDbSymbolTableRecord
100
AcDbLayerTableRecord
  2
10
 70
     0
 62
     4
  6
CONTINOUS
  0
LAYER
  5
31
330
2
100
AcDbSymbolTableRecord
100
AcDbLayerTableRecord
  2
12
 70
     0
 62
     3
  6
CONTINOUS
  0
LAYER
  5
35
330
2
100
AcDbSymbolTableRecord
100
AcDbLayerTableRecord
  2
16
 70
     0
 62
     6
  6
DASHDOT
  0
LAYER
  5
38
330
2
100
AcDbSymbolTableRecord
100
AcDbLayerTableRecord
  2
19
 70
     0
 62
     7
  6
CONTINOUS
  0
LAYER
  5
3C
330
2
100
AcDbSymbolTableRecord
100
AcDbLayerTableRecord
  2
11
 70
     0
 62
     1
  6
CONTINOUS
  0
LAYER
  5
3D
330
2
100
AcDbSymbolTableRecord
100
AcDbLayerTableRecord
  2
24
 70
     0
 62
     2
  6
CONTINOUS
  0
LAYER
  5
3A2
330
2
100
AcDbSymbolTableRecord
100
AcDbLayerTableRecord
  2
30
 70
     0
 62
     9
  6
CONTINUOUS
  0
LAYER
  5
3A4
330
2
100
AcDbSymbolTableRecord
100
AcDbLayerTableRecord
  2
DEFPOINTS
 70
     0
 62
     7
  6
CONTINUOUS
  0
LAYER
  5
3BBA
330
2
100
AcDbSymbolTableRecord
100
AcDbLayerTableRecord
  2
18
 70
     0
 62
     5
  6
DIVIDE
  0
LAYER
  5
6A3C
330
2
100
AcDbSymbolTableRecord
100
AcDbLayerTableRecord
  2
FF
 70
     0
 62
     4
  6
CONTINUOUS
  0
LAYER
  5
6A3D
330
2
100
AcDbSymbolTableRecord
100
AcDbLayerTableRecord
  2
43
 70
     0
 62
     6
  6
CONTINUOUS
  0
LAYER
  5
6A3E
330
2
100
AcDbSymbolTableRecord
100
AcDbLayerTableRecord
  2
44
 70
     0
 62
     3
  6
CONTINUOUS
  0
LAYER
  5
6A3F
330
2
100
AcDbSymbolTableRecord
100
AcDbLayerTableRecord
  2
48
 70
     0
 62
     6
  6
CENTER
  0
LAYER
  5
7E8E
330
2
100
AcDbSymbolTableRecord
100
AcDbLayerTableRecord
  2
102
 70
     0
 62
    50
  6
CONTINUOUS
  0
ENDTAB
  0
TABLE
  2
STYLE
  5
3
330
0
100
AcDbSymbolTable
 70
     5
  0
STYLE
  5
11
330
3
100
AcDbSymbolTableRecord
100
AcDbTextStyleTableRecord
  2
STANDARD
 70
     0
 40
0.0
 41
1.0
 50
0.0
 71
     0
 42
2.0
  3
txt.shx
  4
bigfont.shx
  0
STYLE
  5
42
330
3
100
AcDbSymbolTableRecord
100
AcDbTextStyleTableRecord
  2
STANDARD1
 70
     0
 40
0.0
 41
1.0
 50
0.0
 71
     0
 42
5.0
  3
MONOTXT
  4
BIGFONT
  0
STYLE
  5
63A9
330
3
100
AcDbSymbolTableRecord
100
AcDbTextStyleTableRecord
  2
MOJI
 70
     0
 40
0.0
 41
1.0
 50
0.0
 71
     0
 42
2.5
  3
txt.shx
  4
bigfont.shx
  0
STYLE
  5
7047
330
3
100
AcDbSymbolTableRecord
100
AcDbTextStyleTableRecord
  2
SMP-SET
 70
     0
 40
0.0
 41
1.0
 50
0.0
 71
     0
 42
3.0
  3
SIMPLEX
  4
BIGFONT
  0
STYLE
  5
7E8F
330
3
100
AcDbSymbolTableRecord
100
AcDbTextStyleTableRecord
  2
MX_NOTE_STANDARD
 70
     0
 40
0.0
 41
1.0
 50
0.0
 71
     0
 42
5.891046
  3
txt.shx
  4
extfont.shx
  0
ENDTAB
  0
TABLE
  2
VIEW
  5
6
330
0
100
AcDbSymbolTable
 70
     3
  0
VIEW
  5
230C
330
6
100
AcDbSymbolTableRecord
100
AcDbViewTableRecord
  2
OLE1
 70
     0
 40
148.912488
 10
429.497628
 20
2.560627
 41
103.145806
 11
0.0
 21
0.0
 31
1.0
 12
0.0
 22
0.0
 32
0.0
 42
50.0
 43
0.0
 44
0.0
 50
0.0
 71
     0
  0
VIEW
  5
230E
330
6
100
AcDbSymbolTableRecord
100
AcDbViewTableRecord
  2
OLE2
 70
     0
 40
170.778692
 10
322.66497
 20
-5.978304
 41
102.467215
 11
0.0
 21
0.0
 31
1.0
 12
0.0
 22
0.0
 32
0.0
 42
50.0
 43
0.0
 44
0.0
 50
0.0
 71
     0
  0
VIEW
  5
23AA
330
6
100
AcDbSymbolTableRecord
100
AcDbViewTableRecord
  2
OLE3
 70
     0
 40
591.7897389999998
 10
84.79698199999999
 20
-46.09335999999998
 41
388.792096
 11
0.0
 21
0.0
 31
1.0
 12
0.0
 22
0.0
 32
0.0
 42
50.0
 43
0.0
 44
0.0
 50
0.0
 71
     0
  0
ENDTAB
  0
TABLE
  2
UCS
  5
7
330
0
100
AcDbSymbolTable
 70
     0
  0
ENDTAB
  0
TABLE
  2
APPID
  5
9
330
0
100
AcDbSymbolTable
 70
     2
  0
APPID
  5
12
330
9
100
AcDbSymbolTableRecord
100
AcDbRegAppTableRecord
  2
ACAD
 70
     0
  0
APPID
  5
ECD
330
9
100
AcDbSymbolTableRecord
100
AcDbRegAppTableRecord
  2
CONTENTBLOCKICON
 70
     0
  0
ENDTAB
  0
TABLE
  2
DIMSTYLE
  5
A
330
0
100
AcDbSymbolTable
 70
     3
  0
DIMSTYLE
105
175
102
{ACAD_REACTORS
330
7952
330
7953
330
8367
330
8361
330
8363
330
8404
330
8403
330
8402
330
8488
330
8489
330
848C
330
848B
330
848A
330
848D
330
853A
330
8539
330
853B
330
8581
330
8580
330
857D
330
857F
330
857E
330
8789
102
}
330
A
100
AcDbSymbolTableRecord
100
AcDbDimStyleTableRecord
  2
STANDARD
 70
     0
  3

  4

  5
OPEN
  6

  7

 40
1.0
 41
2.0
 42
1.0
 43
0.5
 44
0.5
 45
0.0
 46
0.0
 47
0.0
 48
0.0
140
4.0
141
0.09
142
0.0
143
25.4
144
1.0
145
0.0
146
1.0
147
1.0
 71
     0
 72
     0
 73
     0
 74
     1
 75
     0
 76
     0
 77
     3
 78
    12
170
     0
171
     2
172
     0
173
     0
174
     0
175
     0
176
     0
177
     0
178
     0
270
     2
271
     1
272
     1
273
     2
274
     2
340
11
275
     0
280
     0
281
     0
282
     0
283
     1
284
     0
285
     0
286
     0
287
     3
288
     0
  0
DIMSTYLE
105
63AA
330
A
100
AcDbSymbolTableRecord
100
AcDbDimStyleTableRecord
  2
FSTD1
 70
     0
  3

  4

  5

  6
OPEN30
  7
OPEN30
 40
1.0
 41
5.0
 42
1.5
 43
3.75
 44
1.5
 45
0.0
 46
0.0
 47
0.0
 48
0.0
140
5.0
141
2.5
142
0.0
143
0.0394
144
1.0
145
0.0
146
1.0
147
1.5
 71
     0
 72
     0
 73
     0
 74
     0
 75
     0
 76
     0
 77
     1
 78
     8
170
     0
171
     4
172
     1
173
     1
174
     0
175
     0
176
     0
177
     0
178
     0
270
     2
271
     4
272
     4
273
     2
274
     4
340
11
275
     0
280
     0
281
     0
282
     0
283
     1
284
     8
285
     8
286
     8
287
     3
288
     0
  0
DIMSTYLE
105
7E90
330
A
100
AcDbSymbolTableRecord
100
AcDbDimStyleTableRecord
  2
MXDIMSTYLE
 70
     0
  3

  4

  5

  6

  7

 40
1.414212999999999
 41
2.5
 42
0.5
 43
3.75
 44
1.0
 45
0.0
 46
0.0
 47
0.0
 48
0.0
140
4.1656
141
2.5
142
0.0
143
0.03937
144
0.7071069999999999
145
0.0
146
1.0
147
1.0
 71
     0
 72
     0
 73
     0
 74
     0
 75
     0
 76
     0
 77
     1
 78
     8
170
     0
171
     4
172
     1
173
     0
174
     0
175
     0
176
     0
177
     0
178
     0
270
     2
271
     4
272
     4
273
     2
274
     4
340
7E8F
275
     0
280
     0
281
     0
282
     0
283
     1
284
     0
285
     0
286
     0
287
     3
288
     1
  0
ENDTAB
  0
TABLE
  2
BLOCK_RECORD
  5
1
330
0
100
AcDbSymbolTable
 70
    27
  0
BLOCK_RECORD
  5
1E
102
{ACAD_XDICTIONARY
360
178
102
}
330
1
100
AcDbSymbolTableRecord
100
AcDbBlockTableRecord
  2
*MODEL_SPACE
  0
BLOCK_RECORD
  5
1A
102
{ACAD_XDICTIONARY
360
17A
102
}
330
1
100
AcDbSymbolTableRecord
100
AcDbBlockTableRecord
  2
*PAPER_SPACE
  0
BLOCK_RECORD
  5
3B2
330
1
100
AcDbSymbolTableRecord
100
AcDbBlockTableRecord
  2
_OPEN
  0
BLOCK_RECORD
  5
632C
330
1
100
AcDbSymbolTableRecord
100
AcDbBlockTableRecord
  2
_OPEN30
  0
BLOCK_RECORD
  5
7962
330
1
100
AcDbSymbolTableRecord
100
AcDbBlockTableRecord
  2
*D2
  0
BLOCK_RECORD
  5
796E
330
1
100
AcDbSymbolTableRecord
100
AcDbBlockTableRecord
  2
*D3
  0
BLOCK_RECORD
  5
836D
330
1
100
AcDbSymbolTableRecord
100
AcDbBlockTableRecord
  2
*D4
  0
BLOCK_RECORD
  5
8379
330
1
100
AcDbSymbolTableRecord
100
AcDbBlockTableRecord
  2
*D5
  0
BLOCK_RECORD
  5
8385
330
1
100
AcDbSymbolTableRecord
100
AcDbBlockTableRecord
  2
*D6
  0
BLOCK_RECORD
  5
8405
330
1
100
AcDbSymbolTableRecord
100
AcDbBlockTableRecord
  2
*D7
  0
BLOCK_RECORD
  5
8411
330
1
100
AcDbSymbolTableRecord
100
AcDbBlockTableRecord
  2
*D8
  0
BLOCK_RECORD
  5
841D
330
1
100
AcDbSymbolTableRecord
100
AcDbBlockTableRecord
  2
*D9
  0
BLOCK_RECORD
  5
848E
330
1
100
AcDbSymbolTableRecord
100
AcDbBlockTableRecord
  2
*D10
  0
BLOCK_RECORD
  5
849A
330
1
100
AcDbSymbolTableRecord
100
AcDbBlockTableRecord
  2
*D11
  0
BLOCK_RECORD
  5
84A6
330
1
100
AcDbSymbolTableRecord
100
AcDbBlockTableRecord
  2
*D12
  0
BLOCK_RECORD
  5
84B2
330
1
100
AcDbSymbolTableRecord
100
AcDbBlockTableRecord
  2
*D13
  0
BLOCK_RECORD
  5
84BE
330
1
100
AcDbSymbolTableRecord
100
AcDbBlockTableRecord
  2
*D14
  0
BLOCK_RECORD
  5
84CA
330
1
100
AcDbSymbolTableRecord
100
AcDbBlockTableRecord
  2
*D15
  0
BLOCK_RECORD
  5
853C
330
1
100
AcDbSymbolTableRecord
100
AcDbBlockTableRecord
  2
*D16
  0
BLOCK_RECORD
  5
8549
330
1
100
AcDbSymbolTableRecord
100
AcDbBlockTableRecord
  2
*D17
  0
BLOCK_RECORD
  5
8555
330
1
100
AcDbSymbolTableRecord
100
AcDbBlockTableRecord
  2
*D18
  0
BLOCK_RECORD
  5
8582
330
1
100
AcDbSymbolTableRecord
100
AcDbBlockTableRecord
  2
*D19
  0
BLOCK_RECORD
  5
858F
330
1
100
AcDbSymbolTableRecord
100
AcDbBlockTableRecord
  2
*D20
  0
BLOCK_RECORD
  5
859B
330
1
100
AcDbSymbolTableRecord
100
AcDbBlockTableRecord
  2
*D21
  0
BLOCK_RECORD
  5
85A7
330
1
100
AcDbSymbolTableRecord
100
AcDbBlockTableRecord
  2
*D22
  0
BLOCK_RECORD
  5
85B3
330
1
100
AcDbSymbolTableRecord
100
AcDbBlockTableRecord
  2
*D23
  0
BLOCK_RECORD
  5
878A
330
1
100
AcDbSymbolTableRecord
100
AcDbBlockTableRecord
  2
*D24
  0
BLOCK_RECORD
  5
879D
330
1
100
AcDbSymbolTableRecord
100
AcDbBlockTableRecord
  2
A$C49827007
  0
ENDTAB
  0
ENDSEC
  0
SECTION
  2
BLOCKS
  0
BLOCK
  5
1F
330
1E
100
AcDbEntity
  8
0
100
AcDbBlockBegin
  2
*MODEL_SPACE
 70
     0
 10
0.0
 20
0.0
 30
0.0
  3
*MODEL_SPACE
  1

  0
ENDBLK
  5
20
330
1E
100
AcDbEntity
  8
0
100
AcDbBlockEnd
  0
BLOCK
  5
1B
330
1A
100
AcDbEntity
 67
     1
  8
0
100
AcDbBlockBegin
  2
*PAPER_SPACE
 70
     0
 10
0.0
 20
0.0
 30
0.0
  3
*PAPER_SPACE
  1

  0
ENDBLK
  5
1C
330
1A
100
AcDbEntity
 67
     1
  8
0
100
AcDbBlockEnd
  0
BLOCK
  5
3B6
330
3B2
100
AcDbEntity
  8
0
100
AcDbBlockBegin
  2
_OPEN
 70
     0
 10
0.0
 20
0.0
 30
0.0
  3
_OPEN
  1

  0
LINE
  5
3B3
330
3B2
100
AcDbEntity
  8
30
  6
CONTINUOUS
 62
     0
100
AcDbLine
 10
-1.0
 20
0.166667
 30
0.0
 11
0.0
 21
0.0
 31
0.0
  0
LINE
  5
3B4
330
3B2
100
AcDbEntity
  8
30
  6
CONTINUOUS
 62
     0
100
AcDbLine
 10
-1.0
 20
-0.166667
 30
0.0
 11
0.0
 21
0.0
 31
0.0
  0
LINE
  5
3B5
330
3B2
100
AcDbEntity
  8
30
  6
CONTINUOUS
 62
     0
100
AcDbLine
 10
0.0
 20
0.0
 30
0.0
 11
-1.0
 21
0.0
 31
0.0
  0
ENDBLK
  5
3B7
330
3B2
100
AcDbEntity
  8
0
100
AcDbBlockEnd
  0
BLOCK
  5
6330
330
632C
100
AcDbEntity
  8
0
100
AcDbBlockBegin
  2
_OPEN30
 70
     0
 10
0.0
 20
0.0
 30
0.0
  3
_OPEN30
  1

  0
LINE
  5
632D
330
632C
100
AcDbEntity
  8
0
  6
BYBLOCK
 62
     0
100
AcDbLine
 10
-1.0
 20
0.26794919
 30
0.0
 11
0.0
 21
0.0
 31
0.0
  0
LINE
  5
632E
330
632C
100
AcDbEntity
  8
0
  6
BYBLOCK
 62
     0
100
AcDbLine
 10
0.0
 20
0.0
 30
0.0
 11
-1.0
 21
-0.26794919
 31
0.0
  0
LINE
  5
632F
330
632C
100
AcDbEntity
  8
0
  6
BYBLOCK
 62
     0
100
AcDbLine
 10
0.0
 20
0.0
 30
0.0
 11
-1.0
 21
0.0
 31
0.0
  0
ENDBLK
  5
6331
330
632C
100
AcDbEntity
  8
0
100
AcDbBlockEnd
  0
BLOCK
  5
796C
330
7962
100
AcDbEntity
  8
0
100
AcDbBlockBegin
  2
*D2
 70
     1
 10
0.0
 20
0.0
 30
0.0
  3
*D2
  1

  0
LINE
  5
834D
330
7962
100
AcDbEntity
  8
30
  6
CONTINUOUS
 62
     0
100
AcDbLine
 10
-12.88009484677388
 20
-199.2473866810794
 30
0.0
 11
-12.88009484677389
 21
-328.4706243182528
 31
0.0
  0
LINE
  5
834E
330
7962
100
AcDbEntity
  8
30
  6
CONTINUOUS
 62
     0
100
AcDbLine
 10
12.11990577643121
 20
-316.5973940210349
 30
0.0
 11
12.11990577643121
 21
-328.4706243182528
 31
0.0
  0
LINE
  5
834F
330
7962
100
AcDbEntity
  8
30
  6
CONTINUOUS
 62
     0
100
AcDbLine
 10
-10.88009484677389
 20
-327.9706243182528
 30
0.0
 11
10.11990577643121
 21
-327.9706243182528
 31
0.0
  0
INSERT
  5
8350
330
7962
100
AcDbEntity
  8
30
  6
CONTINUOUS
 62
     0
100
AcDbBlockReference
  2
_OPEN
 10
-12.88009484677389
 20
-327.9706243182528
 30
0.0
 41
2.0
 42
2.0
 43
2.0
 50
180.0
  0
INSERT
  5
8351
330
7962
100
AcDbEntity
  8
30
  6
CONTINUOUS
 62
     0
100
AcDbBlockReference
  2
_OPEN
 10
12.11990577643121
 20
-327.9706243182528
 30
0.0
 41
2.0
 42
2.0
 43
2.0
  0
MTEXT
  5
8352
330
7962
100
AcDbEntity
  8
30
  6
CONTINUOUS
 62
     0
100
AcDbMText
 10
-0.3800945351713414
 20
-324.9706243182528
 30
0.0
 40
4.0
 41
0.0
 71
     5
 72
     1
  1
\A1;25
1001
ACAD
1000
MTEXTBEGIN
1070
    73
1070
     1
1070
    44
1040
1.0
1070
    74
1070
     0
1000
MTEXTEND
1000
MTEXTBEGIN
1070
    73
1070
     1
1070
    44
1040
1.0
1070
    74
1070
     0
1000
MTEXTEND
  0
POINT
  5
8353
330
7962
100
AcDbEntity
  8
DEFPOINTS
  6
CONTINUOUS
 62
     0
100
AcDbPoint
 10
-12.88009484677388
 20
-198.2473866810794
 30
0.0
  0
POINT
  5
8354
330
7962
100
AcDbEntity
  8
DEFPOINTS
  6
CONTINUOUS
 62
     0
100
AcDbPoint
 10
12.11990577643121
 20
-315.5973940210349
 30
0.0
  0
POINT
  5
8355
330
7962
100
AcDbEntity
  8
DEFPOINTS
  6
CONTINUOUS
 62
     0
100
AcDbPoint
 10
12.11990577643121
 20
-327.9706243182528
 30
0.0
  0
ENDBLK
  5
796D
330
7962
100
AcDbEntity
  8
0
100
AcDbBlockEnd
  0
BLOCK
  5
7978
330
796E
100
AcDbEntity
  8
0
100
AcDbBlockBegin
  2
*D3
 70
     1
 10
0.0
 20
0.0
 30
0.0
  3
*D3
  1

  0
LINE
  5
8357
330
796E
100
AcDbEntity
  8
30
  6
CONTINUOUS
 62
     0
100
AcDbLine
 10
-3.653790970728983
 20
-193.8474540210348
 30
0.0
 11
57.50154676373615
 21
-193.8474540210348
 31
0.0
  0
LINE
  5
8358
330
796E
100
AcDbEntity
  8
30
  6
CONTINUOUS
 62
     0
100
AcDbLine
 10
13.11990577643121
 20
-307.8473350210348
 30
0.0
 11
57.50154676373615
 21
-307.8473350210348
 31
0.0
  0
LINE
  5
8359
330
796E
100
AcDbEntity
  8
30
  6
CONTINUOUS
 62
     0
100
AcDbLine
 10
57.00154676373617
 20
-195.8474540210348
 30
0.0
 11
57.00154676373614
 21
-305.8473350210348
 31
0.0
  0
INSERT
  5
835A
330
796E
100
AcDbEntity
  8
30
  6
CONTINUOUS
 62
     0
100
AcDbBlockReference
  2
_OPEN
 10
57.00154676373617
 20
-193.8474540210348
 30
0.0
 41
2.0
 42
2.0
 43
2.0
 50
90.0
  0
INSERT
  5
835B
330
796E
100
AcDbEntity
  8
30
  6
CONTINUOUS
 62
     0
100
AcDbBlockReference
  2
_OPEN
 10
57.00154676373614
 20
-307.8473350210348
 30
0.0
 41
2.0
 42
2.0
 43
2.0
 50
270.0
  0
MTEXT
  5
835C
330
796E
100
AcDbEntity
  8
30
  6
CONTINUOUS
 62
     0
100
AcDbMText
 10
54.00154676373619
 20
-250.8473945210348
 30
0.0
 40
4.0
 41
0.0
 71
     5
 72
     1
  1
\A1;114
 11
0.0000000000000001
 21
1.0
 31
0.0
1001
ACAD
1000
MTEXTBEGIN
1070
    73
1070
     1
1070
    44
1040
1.0
1070
    74
1070
     0
1000
MTEXTEND
1000
MTEXTBEGIN
1070
    73
1070
     1
1070
    44
1040
1.0
1070
    74
1070
     0
1000
MTEXTEND
  0
POINT
  5
835D
330
796E
100
AcDbEntity
  8
DEFPOINTS
  6
CONTINUOUS
 62
     0
100
AcDbPoint
 10
-4.653790970728983
 20
-193.8474540210348
 30
0.0
  0
POINT
  5
835E
330
796E
100
AcDbEntity
  8
DEFPOINTS
  6
CONTINUOUS
 62
     0
100
AcDbPoint
 10
12.11990577643121
 20
-307.8473350210348
 30
0.0
  0
POINT
  5
835F
330
796E
100
AcDbEntity
  8
DEFPOINTS
  6
CONTINUOUS
 62
     0
100
AcDbPoint
 10
57.00154676373614
 20
-307.8473350210348
 30
0.0
  0
ENDBLK
  5
7979
330
796E
100
AcDbEntity
  8
0
100
AcDbBlockEnd
  0
BLOCK
  5
8377
330
836D
100
AcDbEntity
  8
0
100
AcDbBlockBegin
  2
*D4
 70
     1
 10
0.0
 20
0.0
 30
0.0
  3
*D4
  1

  0
LINE
  5
8390
330
836D
100
AcDbEntity
  8
30
  6
CONTINUOUS
 62
     0
100
AcDbLine
 10
135.2029339472756
 20
-260.0973958158649
 30
0.0
 11
135.2029339472756
 21
-304.3119248701383
 31
0.0
  0
LINE
  5
8391
330
836D
100
AcDbEntity
  8
30
  6
CONTINUOUS
 62
     0
100
AcDbLine
 10
205.2029356423926
 20
-260.0973958158649
 30
0.0
 11
205.2029356423926
 21
-304.3119248701383
 31
0.0
  0
LINE
  5
8392
330
836D
100
AcDbEntity
  8
30
  6
CONTINUOUS
 62
     0
100
AcDbLine
 10
137.2029339472756
 20
-303.8119248701383
 30
0.0
 11
203.2029356423926
 21
-303.8119248701383
 31
0.0
  0
INSERT
  5
8393
330
836D
100
AcDbEntity
  8
30
  6
CONTINUOUS
 62
     0
100
AcDbBlockReference
  2
_OPEN
 10
135.2029339472756
 20
-303.8119248701383
 30
0.0
 41
2.0
 42
2.0
 43
2.0
 50
180.0
  0
INSERT
  5
8394
330
836D
100
AcDbEntity
  8
30
  6
CONTINUOUS
 62
     0
100
AcDbBlockReference
  2
_OPEN
 10
205.2029356423926
 20
-303.8119248701383
 30
0.0
 41
2.0
 42
2.0
 43
2.0
  0
MTEXT
  5
8395
330
836D
100
AcDbEntity
  8
30
  6
CONTINUOUS
 62
     0
100
AcDbMText
 10
170.202934794834
 20
-300.8119248701383
 30
0.0
 40
4.0
 41
0.0
 71
     5
 72
     1
  1
\A1;74
1001
ACAD
1000
MTEXTBEGIN
1070
    73
1070
     1
1070
    44
1040
1.0
1070
    74
1070
     0
1000
MTEXTEND
1000
MTEXTBEGIN
1070
    73
1070
     1
1070
    44
1040
1.0
1070
    74
1070
     0
1000
MTEXTEND
  0
POINT
  5
8396
330
836D
100
AcDbEntity
  8
DEFPOINTS
  6
CONTINUOUS
 62
     0
100
AcDbPoint
 10
135.2029339472756
 20
-259.0973958158648
 30
0.0
  0
POINT
  5
8397
330
836D
100
AcDbEntity
  8
DEFPOINTS
  6
CONTINUOUS
 62
     0
100
AcDbPoint
 10
205.2029356423926
 20
-259.0973958158648
 30
0.0
  0
POINT
  5
8398
330
836D
100
AcDbEntity
  8
DEFPOINTS
  6
CONTINUOUS
 62
     0
100
AcDbPoint
 10
205.2029356423926
 20
-303.8119248701383
 30
0.0
  0
ENDBLK
  5
8378
330
836D
100
AcDbEntity
  8
0
100
AcDbBlockEnd
  0
BLOCK
  5
8383
330
8379
100
AcDbEntity
  8
0
100
AcDbBlockBegin
  2
*D5
 70
     1
 10
0.0
 20
0.0
 30
0.0
  3
*D5
  1

  0
LINE
  5
8399
330
8379
100
AcDbEntity
  8
30
  6
CONTINUOUS
 62
     0
100
AcDbLine
 10
204.2029355925363
 20
-209.0973945694546
 30
0.0
 11
226.0217630279429
 21
-209.0973945694546
 31
0.0
  0
LINE
  5
839A
330
8379
100
AcDbEntity
  8
30
  6
CONTINUOUS
 62
     0
100
AcDbLine
 10
204.2029355925363
 20
-261.097395865721
 30
0.0
 11
226.0217630279429
 21
-261.097395865721
 31
0.0
  0
LINE
  5
839B
330
8379
100
AcDbEntity
  8
30
  6
CONTINUOUS
 62
     0
100
AcDbLine
 10
225.5217630279429
 20
-211.0973945694546
 30
0.0
 11
225.5217630279429
 21
-259.097395865721
 31
0.0
  0
INSERT
  5
839C
330
8379
100
AcDbEntity
  8
30
  6
CONTINUOUS
 62
     0
100
AcDbBlockReference
  2
_OPEN
 10
225.5217630279429
 20
-209.0973945694546
 30
0.0
 41
2.0
 42
2.0
 43
2.0
 50
90.0
  0
INSERT
  5
839D
330
8379
100
AcDbEntity
  8
30
  6
CONTINUOUS
 62
     0
100
AcDbBlockReference
  2
_OPEN
 10
225.5217630279429
 20
-261.097395865721
 30
0.0
 41
2.0
 42
2.0
 43
2.0
 50
270.0
  0
MTEXT
  5
839E
330
8379
100
AcDbEntity
  8
30
  6
CONTINUOUS
 62
     0
100
AcDbMText
 10
222.521763027943
 20
-235.0973952175877
 30
0.0
 40
4.0
 41
0.0
 71
     5
 72
     1
  1
\A1;52
 11
0.0000000000000001
 21
1.0
 31
0.0
1001
ACAD
1000
MTEXTBEGIN
1070
    73
1070
     1
1070
    44
1040
1.0
1070
    74
1070
     0
1000
MTEXTEND
1000
MTEXTBEGIN
1070
    73
1070
     1
1070
    44
1040
1.0
1070
    74
1070
     0
1000
MTEXTEND
  0
POINT
  5
839F
330
8379
100
AcDbEntity
  8
DEFPOINTS
  6
CONTINUOUS
 62
     0
100
AcDbPoint
 10
203.2029355925363
 20
-209.0973945694546
 30
0.0
  0
POINT
  5
83A0
330
8379
100
AcDbEntity
  8
DEFPOINTS
  6
CONTINUOUS
 62
     0
100
AcDbPoint
 10
203.2029355925363
 20
-261.097395865721
 30
0.0
  0
POINT
  5
83A1
330
8379
100
AcDbEntity
  8
DEFPOINTS
  6
CONTINUOUS
 62
     0
100
AcDbPoint
 10
225.5217630279429
 20
-261.097395865721
 30
0.0
  0
ENDBLK
  5
8384
330
8379
100
AcDbEntity
  8
0
100
AcDbBlockEnd
  0
BLOCK
  5
838E
330
8385
100
AcDbEntity
  8
0
100
AcDbBlockBegin
  2
*D6
 70
     1
 10
0.0
 20
0.0
 30
0.0
  3
*D6
  1

  0
LINE
  5
83A2
330
8385
100
AcDbEntity
  8
30
  6
CONTINUOUS
 62
     0
100
AcDbLine
 10
162.6009959540037
 20
-227.0230155245306
 30
0.0
 11
154.9343292873354
 21
-227.0230155245306
 31
0.0
  0
LINE
  5
83A3
330
8385
100
AcDbEntity
  8
30
  6
CONTINUOUS
 62
     0
100
AcDbLine
 10
154.9343292873354
 20
-227.0230155245306
 30
0.0
 11
140.1788325382422
 21
-213.7702261276298
 31
0.0
  0
MTEXT
  5
83A4
330
8385
100
AcDbEntity
  8
30
  6
CONTINUOUS
 62
     0
100
AcDbMText
 10
159.2676626206704
 20
-224.0230155245304
 30
0.0
 40
4.0
 41
0.0
 71
     5
 72
     1
  1
\A1;R2
1001
ACAD
1000
MTEXTBEGIN
1070
    73
1070
     1
1070
    44
1040
1.0
1070
    74
1070
     0
1000
MTEXTEND
1000
MTEXTBEGIN
1070
    73
1070
     1
1070
    44
1040
1.0
1070
    74
1070
     0
1000
MTEXTEND
  0
INSERT
  5
83A5
330
8385
100
AcDbEntity
  8
30
  6
CONTINUOUS
 62
     0
100
AcDbBlockReference
  2
_OPEN
 10
138.6908832862328
 20
-212.4338103901272
 30
0.0
 41
2.0
 42
2.0
 43
2.0
 50
138.071102511198
  0
LINE
  5
83A6
330
8385
100
AcDbEntity
  8
30
  6
CONTINUOUS
 62
     0
100
AcDbLine
 10
137.1129339971319
 20
-211.0973946193106
 30
0.0
 11
137.2929339971319
 21
-211.0973946193106
 31
0.0
  0
LINE
  5
83A7
330
8385
100
AcDbEntity
  8
30
  6
CONTINUOUS
 62
     0
100
AcDbLine
 10
137.2029339971319
 20
-211.1873946193106
 30
0.0
 11
137.2029339971319
 21
-211.0073946193106
 31
0.0
  0
POINT
  5
83A8
330
8385
100
AcDbEntity
  8
DEFPOINTS
  6
CONTINUOUS
 62
     0
100
AcDbPoint
 10
138.6908832862328
 20
-212.4338103901272
 30
0.0
  0
POINT
  5
83A9
330
8385
100
AcDbEntity
  8
DEFPOINTS
  6
CONTINUOUS
 62
     0
100
AcDbPoint
 10
137.2029339971319
 20
-211.0973946193106
 30
0.0
  0
ENDBLK
  5
838F
330
8385
100
AcDbEntity
  8
0
100
AcDbBlockEnd
  0
BLOCK
  5
840F
330
8405
100
AcDbEntity
  8
0
100
AcDbBlockBegin
  2
*D7
 70
     1
 10
0.0
 20
0.0
 30
0.0
  3
*D7
  1

  0
LINE
  5
86F3
330
8405
100
AcDbEntity
  8
30
  6
CONTINUOUS
 62
     0
100
AcDbLine
 10
-36.000031
 20
-10.00003094764008
 30
0.0
 11
-36.000031
 21
-91.37966406577334
 31
0.0
  0
LINE
  5
86F4
330
8405
100
AcDbEntity
  8
30
  6
CONTINUOUS
 62
     0
100
AcDbLine
 10
35.99994000000001
 20
-10.00003101745328
 30
0.0
 11
35.99994
 21
-91.37966406577334
 31
0.0
  0
LINE
  5
86F5
330
8405
100
AcDbEntity
  8
30
  6
CONTINUOUS
 62
     0
100
AcDbLine
 10
-34.00003100000001
 20
-90.87966406577335
 30
0.0
 11
33.99994
 21
-90.87966406577335
 31
0.0
  0
INSERT
  5
86F6
330
8405
100
AcDbEntity
  8
30
  6
CONTINUOUS
 62
     0
100
AcDbBlockReference
  2
_OPEN
 10
-36.000031
 20
-90.87966406577335
 30
0.0
 41
2.0
 42
2.0
 43
2.0
 50
180.0
  0
INSERT
  5
86F7
330
8405
100
AcDbEntity
  8
30
  6
CONTINUOUS
 62
     0
100
AcDbBlockReference
  2
_OPEN
 10
35.99994
 20
-90.87966406577335
 30
0.0
 41
2.0
 42
2.0
 43
2.0
  0
MTEXT
  5
86F8
330
8405
100
AcDbEntity
  8
30
  6
CONTINUOUS
 62
     0
100
AcDbMText
 10
-0.0000455000000057
 20
-87.87966406577334
 30
0.0
 40
4.0
 41
0.0
 71
     5
 72
     1
  1
\A1;72
1001
ACAD
1000
MTEXTBEGIN
1070
    73
1070
     1
1070
    44
1040
1.0
1070
    74
1070
     0
1000
MTEXTEND
1000
MTEXTBEGIN
1070
    73
1070
     1
1070
    44
1040
1.0
1070
    74
1070
     0
1000
MTEXTEND
  0
POINT
  5
86F9
330
8405
100
AcDbEntity
  8
DEFPOINTS
  6
CONTINUOUS
 62
     0
100
AcDbPoint
 10
-36.000031
 20
-9.000030947640084
 30
0.0
  0
POINT
  5
86FA
330
8405
100
AcDbEntity
  8
DEFPOINTS
  6
CONTINUOUS
 62
     0
100
AcDbPoint
 10
35.99994000000001
 20
-9.000031017453295
 30
0.0
  0
POINT
  5
86FB
330
8405
100
AcDbEntity
  8
DEFPOINTS
  6
CONTINUOUS
 62
     0
100
AcDbPoint
 10
35.99994
 20
-90.87966406577335
 30
0.0
  0
ENDBLK
  5
8410
330
8405
100
AcDbEntity
  8
0
100
AcDbBlockEnd
  0
BLOCK
  5
841B
330
8411
100
AcDbEntity
  8
0
100
AcDbBlockBegin
  2
*D8
 70
     1
 10
0.0
 20
0.0
 30
0.0
  3
*D8
  1

  0
LINE
  5
86FC
330
8411
100
AcDbEntity
  8
30
  6
CONTINUOUS
 62
     0
100
AcDbLine
 10
-37.50006799999999
 20
-62.25000199999985
 30
0.0
 11
-37.50006799999999
 21
-103.8693829728197
 31
0.0
  0
LINE
  5
86FD
330
8411
100
AcDbEntity
  8
30
  6
CONTINUOUS
 62
     0
100
AcDbLine
 10
37.500029
 20
-62.25000199999985
 30
0.0
 11
37.500029
 21
-103.8693829728197
 31
0.0
  0
LINE
  5
86FE
330
8411
100
AcDbEntity
  8
30
  6
CONTINUOUS
 62
     0
100
AcDbLine
 10
-35.500068
 20
-103.3693829728197
 30
0.0
 11
35.50002899999999
 21
-103.3693829728197
 31
0.0
  0
INSERT
  5
86FF
330
8411
100
AcDbEntity
  8
30
  6
CONTINUOUS
 62
     0
100
AcDbBlockReference
  2
_OPEN
 10
-37.50006799999999
 20
-103.3693829728197
 30
0.0
 41
2.0
 42
2.0
 43
2.0
 50
180.0
  0
INSERT
  5
8700
330
8411
100
AcDbEntity
  8
30
  6
CONTINUOUS
 62
     0
100
AcDbBlockReference
  2
_OPEN
 10
37.500029
 20
-103.3693829728197
 30
0.0
 41
2.0
 42
2.0
 43
2.0
  0
MTEXT
  5
8701
330
8411
100
AcDbEntity
  8
30
  6
CONTINUOUS
 62
     0
100
AcDbMText
 10
-0.0000195000000003
 20
-100.3693829728196
 30
0.0
 40
4.0
 41
0.0
 71
     5
 72
     1
  1
\A1;75
1001
ACAD
1000
MTEXTBEGIN
1070
    73
1070
     1
1070
    44
1040
1.0
1070
    74
1070
     0
1000
MTEXTEND
1000
MTEXTBEGIN
1070
    73
1070
     1
1070
    44
1040
1.0
1070
    74
1070
     0
1000
MTEXTEND
  0
POINT
  5
8702
330
8411
100
AcDbEntity
  8
DEFPOINTS
  6
CONTINUOUS
 62
     0
100
AcDbPoint
 10
-37.50006799999999
 20
-61.25000199999984
 30
0.0
  0
POINT
  5
8703
330
8411
100
AcDbEntity
  8
DEFPOINTS
  6
CONTINUOUS
 62
     0
100
AcDbPoint
 10
37.500029
 20
-61.25000199999984
 30
0.0
  0
POINT
  5
8704
330
8411
100
AcDbEntity
  8
DEFPOINTS
  6
CONTINUOUS
 62
     0
100
AcDbPoint
 10
37.500029
 20
-103.3693829728197
 30
0.0
  0
ENDBLK
  5
841C
330
8411
100
AcDbEntity
  8
0
100
AcDbBlockEnd
  0
BLOCK
  5
8427
330
841D
100
AcDbEntity
  8
0
100
AcDbBlockBegin
  2
*D9
 70
     1
 10
0.0
 20
0.0
 30
0.0
  3
*D9
  1

  0
LINE
  5
8705
330
841D
100
AcDbEntity
  8
30
  6
CONTINUOUS
 62
     0
100
AcDbLine
 10
-25.000016
 20
-64.57501399999987
 30
0.0
 11
-25.000016
 21
-78.88994427182135
 31
0.0
  0
LINE
  5
8706
330
841D
100
AcDbEntity
  8
30
  6
CONTINUOUS
 62
     0
100
AcDbLine
 10
24.999986
 20
-64.57501399999987
 30
0.0
 11
24.999986
 21
-78.88994427182135
 31
0.0
  0
LINE
  5
8707
330
841D
100
AcDbEntity
  8
30
  6
CONTINUOUS
 62
     0
100
AcDbLine
 10
-23.00001599999999
 20
-78.38994427182135
 30
0.0
 11
22.99998599999999
 21
-78.38994427182135
 31
0.0
  0
INSERT
  5
8708
330
841D
100
AcDbEntity
  8
30
  6
CONTINUOUS
 62
     0
100
AcDbBlockReference
  2
_OPEN
 10
-25.000016
 20
-78.38994427182135
 30
0.0
 41
2.0
 42
2.0
 43
2.0
 50
180.0
  0
INSERT
  5
8709
330
841D
100
AcDbEntity
  8
30
  6
CONTINUOUS
 62
     0
100
AcDbBlockReference
  2
_OPEN
 10
24.999986
 20
-78.38994427182135
 30
0.0
 41
2.0
 42
2.0
 43
2.0
  0
MTEXT
  5
870A
330
841D
100
AcDbEntity
  8
30
  6
CONTINUOUS
 62
     0
100
AcDbMText
 10
-0.0000149999999975
 20
-75.38994427182135
 30
0.0
 40
4.0
 41
0.0
 71
     5
 72
     1
  1
\A1;50
1001
ACAD
1000
MTEXTBEGIN
1070
    73
1070
     1
1070
    44
1040
1.0
1070
    74
1070
     0
1000
MTEXTEND
1000
MTEXTBEGIN
1070
    73
1070
     1
1070
    44
1040
1.0
1070
    74
1070
     0
1000
MTEXTEND
  0
POINT
  5
870B
330
841D
100
AcDbEntity
  8
DEFPOINTS
  6
CONTINUOUS
 62
     0
100
AcDbPoint
 10
-25.000016
 20
-63.57501399999986
 30
0.0
  0
POINT
  5
870C
330
841D
100
AcDbEntity
  8
DEFPOINTS
  6
CONTINUOUS
 62
     0
100
AcDbPoint
 10
24.999986
 20
-63.57501399999986
 30
0.0
  0
POINT
  5
870D
330
841D
100
AcDbEntity
  8
DEFPOINTS
  6
CONTINUOUS
 62
     0
100
AcDbPoint
 10
24.999986
 20
-78.38994427182135
 30
0.0
  0
ENDBLK
  5
8428
330
841D
100
AcDbEntity
  8
0
100
AcDbBlockEnd
  0
BLOCK
  5
8498
330
848E
100
AcDbEntity
  8
0
100
AcDbBlockBegin
  2
*D10
 70
     1
 10
0.0
 20
0.0
 30
0.0
  3
*D10
  1

  0
LINE
  5
8752
330
848E
100
AcDbEntity
  8
30
  6
CONTINUOUS
 62
     0
100
AcDbLine
 10
-38.50004600000001
 20
0.0000000000000003
 30
0.0
 11
-52.36736388216262
 21
0.0000000000000042
 31
0.0
  0
LINE
  5
8753
330
848E
100
AcDbEntity
  8
30
  6
CONTINUOUS
 62
     0
100
AcDbLine
 10
-32.0749975425077
 20
54.99999934266297
 30
0.0
 11
-52.36736388216261
 21
54.99999934266299
 31
0.0
  0
LINE
  5
8754
330
848E
100
AcDbEntity
  8
30
  6
CONTINUOUS
 62
     0
100
AcDbLine
 10
-51.86736388216262
 20
2.000000000000003
 30
0.0
 11
-51.8673638821626
 21
52.99999934266299
 31
0.0
  0
INSERT
  5
8755
330
848E
100
AcDbEntity
  8
30
  6
CONTINUOUS
 62
     0
100
AcDbBlockReference
  2
_OPEN
 10
-51.86736388216262
 20
0.0000000000000041
 30
0.0
 41
2.0
 42
2.0
 43
2.0
 50
270.0
  0
INSERT
  5
8756
330
848E
100
AcDbEntity
  8
30
  6
CONTINUOUS
 62
     0
100
AcDbBlockReference
  2
_OPEN
 10
-51.8673638821626
 20
54.99999934266299
 30
0.0
 41
2.0
 42
2.0
 43
2.0
 50
90.0
  0
MTEXT
  5
8757
330
848E
100
AcDbEntity
  8
30
  6
CONTINUOUS
 62
     0
100
AcDbMText
 10
-54.86736388216262
 20
27.49999967133148
 30
0.0
 40
4.0
 41
0.0
 71
     5
 72
     1
  1
\A1;55
 11
0.0000000000000001
 21
1.0
 31
0.0
1001
ACAD
1000
MTEXTBEGIN
1070
    73
1070
     1
1070
    44
1040
1.0
1070
    74
1070
     0
1000
MTEXTEND
1000
MTEXTBEGIN
1070
    73
1070
     1
1070
    44
1040
1.0
1070
    74
1070
     0
1000
MTEXTEND
  0
POINT
  5
8758
330
848E
100
AcDbEntity
  8
DEFPOINTS
  6
CONTINUOUS
 62
     0
100
AcDbPoint
 10
-37.50004600000001
 20
0.0
 30
0.0
  0
POINT
  5
8759
330
848E
100
AcDbEntity
  8
DEFPOINTS
  6
CONTINUOUS
 62
     0
100
AcDbPoint
 10
-31.0749975425077
 20
54.99999934266297
 30
0.0
  0
POINT
  5
875A
330
848E
100
AcDbEntity
  8
DEFPOINTS
  6
CONTINUOUS
 62
     0
100
AcDbPoint
 10
-51.8673638821626
 20
54.99999934266299
 30
0.0
  0
ENDBLK
  5
8499
330
848E
100
AcDbEntity
  8
0
100
AcDbBlockEnd
  0
BLOCK
  5
84A4
330
849A
100
AcDbEntity
  8
0
100
AcDbBlockBegin
  2
*D11
 70
     1
 10
0.0
 20
0.0
 30
0.0
  3
*D11
  1

  0
LINE
  5
8764
330
849A
100
AcDbEntity
  8
30
  6
CONTINUOUS
 62
     0
100
AcDbLine
 10
-32.07499700000001
 20
-57.00000099999988
 30
0.0
 11
-52.36736388216262
 21
-57.00000099999988
 31
0.0
  0
LINE
  5
8765
330
849A
100
AcDbEntity
  8
30
  6
CONTINUOUS
 62
     0
100
AcDbLine
 10
-38.50004600000001
 20
0.0000000000000003
 30
0.0
 11
-52.36736388216261
 21
0.0000000000000042
 31
0.0
  0
LINE
  5
8766
330
849A
100
AcDbEntity
  8
30
  6
CONTINUOUS
 62
     0
100
AcDbLine
 10
-51.86736388216262
 20
-55.00000099999986
 30
0.0
 11
-51.8673638821626
 21
-1.999999999999995
 31
0.0
  0
INSERT
  5
8767
330
849A
100
AcDbEntity
  8
30
  6
CONTINUOUS
 62
     0
100
AcDbBlockReference
  2
_OPEN
 10
-51.86736388216262
 20
-57.00000099999988
 30
0.0
 41
2.0
 42
2.0
 43
2.0
 50
270.0
  0
INSERT
  5
8768
330
849A
100
AcDbEntity
  8
30
  6
CONTINUOUS
 62
     0
100
AcDbBlockReference
  2
_OPEN
 10
-51.8673638821626
 20
0.0000000000000041
 30
0.0
 41
2.0
 42
2.0
 43
2.0
 50
90.0
  0
MTEXT
  5
8769
330
849A
100
AcDbEntity
  8
30
  6
CONTINUOUS
 62
     0
100
AcDbMText
 10
-54.86736388216261
 20
-28.50000049999994
 30
0.0
 40
4.0
 41
0.0
 71
     5
 72
     1
  1
\A1;57
 11
0.0000000000000001
 21
1.0
 31
0.0
1001
ACAD
1000
MTEXTBEGIN
1070
    73
1070
     1
1070
    44
1040
1.0
1070
    74
1070
     0
1000
MTEXTEND
1000
MTEXTBEGIN
1070
    73
1070
     1
1070
    44
1040
1.0
1070
    74
1070
     0
1000
MTEXTEND
  0
POINT
  5
876A
330
849A
100
AcDbEntity
  8
DEFPOINTS
  6
CONTINUOUS
 62
     0
100
AcDbPoint
 10
-31.07499700000001
 20
-57.00000099999988
 30
0.0
  0
POINT
  5
876B
330
849A
100
AcDbEntity
  8
DEFPOINTS
  6
CONTINUOUS
 62
     0
100
AcDbPoint
 10
-37.50004600000001
 20
0.0
 30
0.0
  0
POINT
  5
876C
330
849A
100
AcDbEntity
  8
DEFPOINTS
  6
CONTINUOUS
 62
     0
100
AcDbPoint
 10
-51.8673638821626
 20
0.0000000000000041
 30
0.0
  0
ENDBLK
  5
84A5
330
849A
100
AcDbEntity
  8
0
100
AcDbBlockEnd
  0
BLOCK
  5
84B0
330
84A6
100
AcDbEntity
  8
0
100
AcDbBlockBegin
  2
*D12
 70
     1
 10
0.0
 20
0.0
 30
0.0
  3
*D12
  1

  0
LINE
  5
870E
330
84A6
100
AcDbEntity
  8
30
  6
CONTINUOUS
 62
     0
100
AcDbLine
 10
36.99987899999999
 20
64.75000099999999
 30
0.0
 11
77.38328004080841
 21
64.75000099999999
 31
0.0
  0
LINE
  5
870F
330
84A6
100
AcDbEntity
  8
30
  6
CONTINUOUS
 62
     0
100
AcDbLine
 10
33.99990099999998
 20
-65.25000199999985
 30
0.0
 11
77.38328004080837
 21
-65.25000199999985
 31
0.0
  0
LINE
  5
8710
330
84A6
100
AcDbEntity
  8
30
  6
CONTINUOUS
 62
     0
100
AcDbLine
 10
76.88328004080841
 20
62.75000099999999
 30
0.0
 11
76.88328004080839
 21
-63.25000199999984
 31
0.0
  0
INSERT
  5
8711
330
84A6
100
AcDbEntity
  8
30
  6
CONTINUOUS
 62
     0
100
AcDbBlockReference
  2
_OPEN
 10
76.88328004080841
 20
64.75000099999999
 30
0.0
 41
2.0
 42
2.0
 43
2.0
 50
90.0
  0
INSERT
  5
8712
330
84A6
100
AcDbEntity
  8
30
  6
CONTINUOUS
 62
     0
100
AcDbBlockReference
  2
_OPEN
 10
76.88328004080839
 20
-65.25000199999985
 30
0.0
 41
2.0
 42
2.0
 43
2.0
 50
270.0
  0
MTEXT
  5
8713
330
84A6
100
AcDbEntity
  8
30
  6
CONTINUOUS
 62
     0
100
AcDbMText
 10
73.88328004080841
 20
-0.2500004999999178
 30
0.0
 40
4.0
 41
0.0
 71
     5
 72
     1
  1
\A1;130
 11
0.0000000000000001
 21
1.0
 31
0.0
1001
ACAD
1000
MTEXTBEGIN
1070
    73
1070
     1
1070
    44
1040
1.0
1070
    74
1070
     0
1000
MTEXTEND
1000
MTEXTBEGIN
1070
    73
1070
     1
1070
    44
1040
1.0
1070
    74
1070
     0
1000
MTEXTEND
  0
POINT
  5
8714
330
84A6
100
AcDbEntity
  8
DEFPOINTS
  6
CONTINUOUS
 62
     0
100
AcDbPoint
 10
35.99987899999999
 20
64.75000099999999
 30
0.0
  0
POINT
  5
8715
330
84A6
100
AcDbEntity
  8
DEFPOINTS
  6
CONTINUOUS
 62
     0
100
AcDbPoint
 10
32.99990099999998
 20
-65.25000199999985
 30
0.0
  0
POINT
  5
8716
330
84A6
100
AcDbEntity
  8
DEFPOINTS
  6
CONTINUOUS
 62
     0
100
AcDbPoint
 10
76.88328004080839
 20
-65.25000199999985
 30
0.0
  0
ENDBLK
  5
84B1
330
84A6
100
AcDbEntity
  8
0
100
AcDbBlockEnd
  0
BLOCK
  5
84BC
330
84B2
100
AcDbEntity
  8
0
100
AcDbBlockBegin
  2
*D13
 70
     1
 10
0.0
 20
0.0
 30
0.0
  3
*D13
  1

  0
LINE
  5
877F
330
84B2
100
AcDbEntity
  8
30
  6
CONTINUOUS
 62
     0
100
AcDbLine
 10
16.91018747730046
 20
56.9999397716489
 30
0.0
 11
64.32723591670067
 21
56.9999397716489
 31
0.0
  0
LINE
  5
8780
330
84B2
100
AcDbEntity
  8
30
  6
CONTINUOUS
 62
     0
100
AcDbLine
 10
16.674962
 20
-56.99994099999987
 30
0.0
 11
64.32723591670065
 21
-56.99994099999988
 31
0.0
  0
LINE
  5
8781
330
84B2
100
AcDbEntity
  8
30
  6
CONTINUOUS
 62
     0
100
AcDbLine
 10
63.82723591670067
 20
54.99993977164891
 30
0.0
 11
63.82723591670065
 21
-54.99994099999987
 31
0.0
  0
INSERT
  5
8782
330
84B2
100
AcDbEntity
  8
30
  6
CONTINUOUS
 62
     0
100
AcDbBlockReference
  2
_OPEN
 10
63.82723591670067
 20
56.9999397716489
 30
0.0
 41
2.0
 42
2.0
 43
2.0
 50
90.0
  0
INSERT
  5
8783
330
84B2
100
AcDbEntity
  8
30
  6
CONTINUOUS
 62
     0
100
AcDbBlockReference
  2
_OPEN
 10
63.82723591670065
 20
-56.99994099999988
 30
0.0
 41
2.0
 42
2.0
 43
2.0
 50
270.0
  0
MTEXT
  5
8784
330
84B2
100
AcDbEntity
  8
30
  6
CONTINUOUS
 62
     0
100
AcDbMText
 10
60.82723591670067
 20
-0.0000006141754767
 30
0.0
 40
4.0
 41
0.0
 71
     5
 72
     1
  1
\A1;114
 11
0.0000000000000001
 21
1.0
 31
0.0
1001
ACAD
1000
MTEXTBEGIN
1070
    73
1070
     1
1070
    44
1040
1.0
1070
    74
1070
     0
1000
MTEXTEND
1000
MTEXTBEGIN
1070
    73
1070
     1
1070
    44
1040
1.0
1070
    74
1070
     0
1000
MTEXTEND
  0
POINT
  5
8785
330
84B2
100
AcDbEntity
  8
DEFPOINTS
  6
CONTINUOUS
 62
     0
100
AcDbPoint
 10
15.91018747730046
 20
56.99993977164892
 30
0.0
  0
POINT
  5
8786
330
84B2
100
AcDbEntity
  8
DEFPOINTS
  6
CONTINUOUS
 62
     0
100
AcDbPoint
 10
15.67496199999999
 20
-56.99994099999987
 30
0.0
  0
POINT
  5
8787
330
84B2
100
AcDbEntity
  8
DEFPOINTS
  6
CONTINUOUS
 62
     0
100
AcDbPoint
 10
63.82723591670065
 20
-56.99994099999988
 30
0.0
  0
ENDBLK
  5
84BD
330
84B2
100
AcDbEntity
  8
0
100
AcDbBlockEnd
  0
BLOCK
  5
84C8
330
84BE
100
AcDbEntity
  8
0
100
AcDbBlockBegin
  2
*D14
 70
     1
 10
0.0
 20
0.0
 30
0.0
  3
*D14
  1

  0
LINE
  5
86B1
330
84BE
100
AcDbEntity
  8
30
  6
CONTINUOUS
 62
     0
100
AcDbLine
 10
35.99997053528699
 20
39.99996986544788
 30
0.0
 11
53.13633935493978
 21
39.99996986544788
 31
0.0
  0
LINE
  5
86B2
330
84BE
100
AcDbEntity
  8
30
  6
CONTINUOUS
 62
     0
100
AcDbLine
 10
35.99993939490035
 20
-10.00003138096206
 30
0.0
 11
53.13633935493975
 21
-10.00003138096207
 31
0.0
  0
LINE
  5
86B3
330
84BE
100
AcDbEntity
  8
30
  6
CONTINUOUS
 62
     0
100
AcDbLine
 10
52.63633935493977
 20
37.99996986544789
 30
0.0
 11
52.63633935493976
 21
-8.00003138096207
 31
0.0
  0
INSERT
  5
86B4
330
84BE
100
AcDbEntity
  8
30
  6
CONTINUOUS
 62
     0
100
AcDbBlockReference
  2
_OPEN
 10
52.63633935493977
 20
39.99996986544788
 30
0.0
 41
2.0
 42
2.0
 43
2.0
 50
90.0
  0
INSERT
  5
86B5
330
84BE
100
AcDbEntity
  8
30
  6
CONTINUOUS
 62
     0
100
AcDbBlockReference
  2
_OPEN
 10
52.63633935493976
 20
-10.00003138096207
 30
0.0
 41
2.0
 42
2.0
 43
2.0
 50
270.0
  0
MTEXT
  5
86B6
330
84BE
100
AcDbEntity
  8
30
  6
CONTINUOUS
 62
     0
100
AcDbMText
 10
49.63633935493978
 20
14.99996924224292
 30
0.0
 40
4.0
 41
0.0
 71
     5
 72
     1
  1
\A1;50
 11
0.0000000000000001
 21
1.0
 31
0.0
1001
ACAD
1000
MTEXTBEGIN
1070
    73
1070
     1
1070
    44
1040
1.0
1070
    74
1070
     0
1000
MTEXTEND
1000
MTEXTBEGIN
1070
    73
1070
     1
1070
    44
1040
1.0
1070
    74
1070
     0
1000
MTEXTEND
  0
POINT
  5
86B7
330
84BE
100
AcDbEntity
  8
DEFPOINTS
  6
CONTINUOUS
 62
     0
100
AcDbPoint
 10
34.99997053528699
 20
39.99996986544788
 30
0.0
  0
POINT
  5
86B8
330
84BE
100
AcDbEntity
  8
DEFPOINTS
  6
CONTINUOUS
 62
     0
100
AcDbPoint
 10
34.99993939490035
 20
-10.00003138096206
 30
0.0
  0
POINT
  5
86B9
330
84BE
100
AcDbEntity
  8
DEFPOINTS
  6
CONTINUOUS
 62
     0
100
AcDbPoint
 10
52.63633935493976
 20
-10.00003138096207
 30
0.0
  0
ENDBLK
  5
84C9
330
84BE
100
AcDbEntity
  8
0
100
AcDbBlockEnd
  0
BLOCK
  5
84D4
330
84CA
100
AcDbEntity
  8
0
100
AcDbBlockBegin
  2
*D15
 70
     1
 10
0.0
 20
0.0
 30
0.0
  3
*D15
  1

  0
LINE
  5
8717
330
84CA
100
AcDbEntity
  8
30
  6
CONTINUOUS
 62
     0
100
AcDbLine
 10
37.99987899999999
 20
64.75000099999999
 30
0.0
 11
77.38328004080837
 21
64.75000099999999
 31
0.0
  0
LINE
  5
8718
330
84CA
100
AcDbEntity
  8
30
  6
CONTINUOUS
 62
     0
100
AcDbLine
 10
16.49993953160796
 20
114.7500009999268
 30
0.0
 11
77.38328004080837
 21
114.7500009999268
 31
0.0
  0
LINE
  5
8719
330
84CA
100
AcDbEntity
  8
30
  6
CONTINUOUS
 62
     0
100
AcDbLine
 10
76.88328004080837
 20
66.750001
 30
0.0
 11
76.88328004080839
 21
112.7500009999268
 31
0.0
  0
INSERT
  5
871A
330
84CA
100
AcDbEntity
  8
30
  6
CONTINUOUS
 62
     0
100
AcDbBlockReference
  2
_OPEN
 10
76.88328004080837
 20
64.75000099999999
 30
0.0
 41
2.0
 42
2.0
 43
2.0
 50
270.0
  0
INSERT
  5
871B
330
84CA
100
AcDbEntity
  8
30
  6
CONTINUOUS
 62
     0
100
AcDbBlockReference
  2
_OPEN
 10
76.88328004080839
 20
114.7500009999268
 30
0.0
 41
2.0
 42
2.0
 43
2.0
 50
90.0
  0
MTEXT
  5
871C
330
84CA
100
AcDbEntity
  8
30
  6
CONTINUOUS
 62
     0
100
AcDbMText
 10
73.88328004080836
 20
89.75000099996346
 30
0.0
 40
4.0
 41
0.0
 71
     5
 72
     1
  1
\A1;50
 11
0.0000000000000001
 21
1.0
 31
0.0
1001
ACAD
1000
MTEXTBEGIN
1070
    73
1070
     1
1070
    44
1040
1.0
1070
    74
1070
     0
1000
MTEXTEND
1000
MTEXTBEGIN
1070
    73
1070
     1
1070
    44
1040
1.0
1070
    74
1070
     0
1000
MTEXTEND
  0
POINT
  5
871D
330
84CA
100
AcDbEntity
  8
DEFPOINTS
  6
CONTINUOUS
 62
     0
100
AcDbPoint
 10
36.99987899999999
 20
64.75000099999999
 30
0.0
  0
POINT
  5
871E
330
84CA
100
AcDbEntity
  8
DEFPOINTS
  6
CONTINUOUS
 62
     0
100
AcDbPoint
 10
15.49993953160796
 20
114.7500009999268
 30
0.0
  0
POINT
  5
871F
330
84CA
100
AcDbEntity
  8
DEFPOINTS
  6
CONTINUOUS
 62
     0
100
AcDbPoint
 10
76.88328004080839
 20
114.7500009999268
 30
0.0
  0
ENDBLK
  5
84D5
330
84CA
100
AcDbEntity
  8
0
100
AcDbBlockEnd
  0
BLOCK
  5
8547
330
853C
100
AcDbEntity
  8
0
100
AcDbBlockBegin
  2
*D16
 70
     1
 10
0.0
 20
0.0
 30
0.0
  3
*D16
  1

  0
LINE
  5
8729
330
853C
100
AcDbEntity
  8
30
  6
CONTINUOUS
 62
     0
100
AcDbLine
 10
200.9232747744074
 20
115.250001289352
 30
0.0
 11
200.9232747744074
 21
124.643024427814
 31
0.0
  0
LINE
  5
872A
330
853C
100
AcDbEntity
  8
30
  6
CONTINUOUS
 62
     0
100
AcDbLine
 10
203.4232747744075
 20
59.00000115624293
 30
0.0
 11
203.4232747744075
 21
124.643024427814
 31
0.0
  0
LINE
  5
872B
330
853C
100
AcDbEntity
  8
30
  6
CONTINUOUS
 62
     0
100
AcDbLine
 10
198.9232747744074
 20
124.143024427814
 30
0.0
 11
196.9232747744074
 21
124.143024427814
 31
0.0
  0
LINE
  5
872C
330
853C
100
AcDbEntity
  8
30
  6
CONTINUOUS
 62
     0
100
AcDbLine
 10
205.4232747744075
 20
124.143024427814
 30
0.0
 11
217.4232747744075
 21
124.143024427814
 31
0.0
  0
INSERT
  5
872D
330
853C
100
AcDbEntity
  8
30
  6
CONTINUOUS
 62
     0
100
AcDbBlockReference
  2
_OPEN
 10
200.9232747744074
 20
124.143024427814
 30
0.0
 41
2.0
 42
2.0
 43
2.0
  0
INSERT
  5
872E
330
853C
100
AcDbEntity
  8
30
  6
CONTINUOUS
 62
     0
100
AcDbBlockReference
  2
_OPEN
 10
203.4232747744075
 20
124.143024427814
 30
0.0
 41
2.0
 42
2.0
 43
2.0
 50
180.0
  0
MTEXT
  5
872F
330
853C
100
AcDbEntity
  8
30
  6
CONTINUOUS
 62
     0
100
AcDbMText
 10
212.4232747744076
 20
127.143024427814
 30
0.0
 40
4.0
 41
0.0
 71
     5
 72
     1
  1
\A1;2.5
1001
ACAD
1000
MTEXTBEGIN
1070
    73
1070
     1
1070
    44
1040
1.0
1070
    74
1070
     0
1000
MTEXTEND
1000
MTEXTBEGIN
1070
    73
1070
     1
1070
    44
1040
1.0
1070
    74
1070
     0
1000
MTEXTEND
  0
POINT
  5
8730
330
853C
100
AcDbEntity
  8
DEFPOINTS
  6
CONTINUOUS
 62
     0
100
AcDbPoint
 10
200.9232747744074
 20
114.250001289352
 30
0.0
  0
POINT
  5
8731
330
853C
100
AcDbEntity
  8
DEFPOINTS
  6
CONTINUOUS
 62
     0
100
AcDbPoint
 10
203.4232747744075
 20
58.00000115624293
 30
0.0
  0
POINT
  5
8732
330
853C
100
AcDbEntity
  8
DEFPOINTS
  6
CONTINUOUS
 62
     0
100
AcDbPoint
 10
203.4232747744075
 20
124.143024427814
 30
0.0
  0
ENDBLK
  5
8548
330
853C
100
AcDbEntity
  8
0
100
AcDbBlockEnd
  0
BLOCK
  5
8553
330
8549
100
AcDbEntity
  8
0
100
AcDbBlockBegin
  2
*D17
 70
     1
 10
0.0
 20
0.0
 30
0.0
  3
*D17
  1

  0
LINE
  5
856B
330
8549
100
AcDbEntity
  8
30
  6
CONTINUOUS
 62
     0
100
AcDbLine
 10
154.9232747744078
 20
115.250001289352
 30
0.0
 11
154.9232747744078
 21
124.643024427814
 31
0.0
  0
LINE
  5
856C
330
8549
100
AcDbEntity
  8
30
  6
CONTINUOUS
 62
     0
100
AcDbLine
 10
200.9232747744074
 20
115.250001289352
 30
0.0
 11
200.9232747744074
 21
124.643024427814
 31
0.0
  0
LINE
  5
856D
330
8549
100
AcDbEntity
  8
30
  6
CONTINUOUS
 62
     0
100
AcDbLine
 10
156.9232747744078
 20
124.143024427814
 30
0.0
 11
198.9232747744074
 21
124.143024427814
 31
0.0
  0
INSERT
  5
856E
330
8549
100
AcDbEntity
  8
30
  6
CONTINUOUS
 62
     0
100
AcDbBlockReference
  2
_OPEN
 10
154.9232747744078
 20
124.143024427814
 30
0.0
 41
2.0
 42
2.0
 43
2.0
 50
180.0
  0
INSERT
  5
856F
330
8549
100
AcDbEntity
  8
30
  6
CONTINUOUS
 62
     0
100
AcDbBlockReference
  2
_OPEN
 10
200.9232747744074
 20
124.143024427814
 30
0.0
 41
2.0
 42
2.0
 43
2.0
  0
MTEXT
  5
8570
330
8549
100
AcDbEntity
  8
30
  6
CONTINUOUS
 62
     0
100
AcDbMText
 10
177.9232747744075
 20
127.143024427814
 30
0.0
 40
4.0
 41
0.0
 71
     5
 72
     1
  1
\A1;46
1001
ACAD
1000
MTEXTBEGIN
1070
    73
1070
     1
1070
    44
1040
1.0
1070
    74
1070
     0
1000
MTEXTEND
1000
MTEXTBEGIN
1070
    73
1070
     1
1070
    44
1040
1.0
1070
    74
1070
     0
1000
MTEXTEND
  0
POINT
  5
8571
330
8549
100
AcDbEntity
  8
DEFPOINTS
  6
CONTINUOUS
 62
     0
100
AcDbPoint
 10
154.9232747744078
 20
114.250001289352
 30
0.0
  0
POINT
  5
8572
330
8549
100
AcDbEntity
  8
DEFPOINTS
  6
CONTINUOUS
 62
     0
100
AcDbPoint
 10
200.9232747744074
 20
114.250001289352
 30
0.0
  0
POINT
  5
8573
330
8549
100
AcDbEntity
  8
DEFPOINTS
  6
CONTINUOUS
 62
     0
100
AcDbPoint
 10
200.9232747744074
 20
124.143024427814
 30
0.0
  0
ENDBLK
  5
8554
330
8549
100
AcDbEntity
  8
0
100
AcDbBlockEnd
  0
BLOCK
  5
855F
330
8555
100
AcDbEntity
  8
0
100
AcDbBlockBegin
  2
*D18
 70
     1
 10
0.0
 20
0.0
 30
0.0
  3
*D18
  1

  0
LINE
  5
8720
330
8555
100
AcDbEntity
  8
30
  6
CONTINUOUS
 62
     0
100
AcDbLine
 10
160.4232747744074
 20
61.89987915829397
 30
0.0
 11
160.4232747744074
 21
83.05775882022256
 31
0.0
  0
LINE
  5
8721
330
8555
100
AcDbEntity
  8
30
  6
CONTINUOUS
 62
     0
100
AcDbLine
 10
203.4232747744075
 20
59.00000115624293
 30
0.0
 11
203.4232747744075
 21
83.05775882022256
 31
0.0
  0
LINE
  5
8722
330
8555
100
AcDbEntity
  8
30
  6
CONTINUOUS
 62
     0
100
AcDbLine
 10
162.4232747744074
 20
82.55775882022254
 30
0.0
 11
201.4232747744075
 21
82.55775882022254
 31
0.0
  0
INSERT
  5
8723
330
8555
100
AcDbEntity
  8
30
  6
CONTINUOUS
 62
     0
100
AcDbBlockReference
  2
_OPEN
 10
160.4232747744074
 20
82.55775882022254
 30
0.0
 41
2.0
 42
2.0
 43
2.0
 50
180.0
  0
INSERT
  5
8724
330
8555
100
AcDbEntity
  8
30
  6
CONTINUOUS
 62
     0
100
AcDbBlockReference
  2
_OPEN
 10
203.4232747744075
 20
82.55775882022254
 30
0.0
 41
2.0
 42
2.0
 43
2.0
  0
MTEXT
  5
8725
330
8555
100
AcDbEntity
  8
30
  6
CONTINUOUS
 62
     0
100
AcDbMText
 10
181.9232747744075
 20
85.55775882022256
 30
0.0
 40
4.0
 41
0.0
 71
     5
 72
     1
  1
\A1;43
1001
ACAD
1000
MTEXTBEGIN
1070
    73
1070
     1
1070
    44
1040
1.0
1070
    74
1070
     0
1000
MTEXTEND
1000
MTEXTBEGIN
1070
    73
1070
     1
1070
    44
1040
1.0
1070
    74
1070
     0
1000
MTEXTEND
  0
POINT
  5
8726
330
8555
100
AcDbEntity
  8
DEFPOINTS
  6
CONTINUOUS
 62
     0
100
AcDbPoint
 10
160.4232747744074
 20
60.89987915829397
 30
0.0
  0
POINT
  5
8727
330
8555
100
AcDbEntity
  8
DEFPOINTS
  6
CONTINUOUS
 62
     0
100
AcDbPoint
 10
203.4232747744075
 20
58.00000115624293
 30
0.0
  0
POINT
  5
8728
330
8555
100
AcDbEntity
  8
DEFPOINTS
  6
CONTINUOUS
 62
     0
100
AcDbPoint
 10
203.4232747744075
 20
82.55775882022254
 30
0.0
  0
ENDBLK
  5
8560
330
8555
100
AcDbEntity
  8
0
100
AcDbBlockEnd
  0
BLOCK
  5
858D
330
8582
100
AcDbEntity
  8
0
100
AcDbBlockBegin
  2
*D19
 70
     1
 10
0.0
 20
0.0
 30
0.0
  3
*D19
  1

  0
LINE
  5
8637
330
8582
100
AcDbEntity
  8
30
  6
CONTINUOUS
 62
     0
100
AcDbLine
 10
135.9233647744075
 20
-11.49993999999985
 30
0.0
 11
135.9233647744075
 21
-81.97660301854526
 31
0.0
  0
LINE
  5
8638
330
8582
100
AcDbEntity
  8
30
  6
CONTINUOUS
 62
     0
100
AcDbLine
 10
131.9233647744075
 20
-11.49993999999985
 30
0.0
 11
131.9233647744075
 21
-81.97660301854526
 31
0.0
  0
LINE
  5
8639
330
8582
100
AcDbEntity
  8
30
  6
CONTINUOUS
 62
     0
100
AcDbLine
 10
137.9233647744075
 20
-81.47660301854527
 30
0.0
 11
139.9233647744075
 21
-81.47660301854527
 31
0.0
  0
LINE
  5
863A
330
8582
100
AcDbEntity
  8
30
  6
CONTINUOUS
 62
     0
100
AcDbLine
 10
129.9233647744076
 20
-81.47660301854527
 30
0.0
 11
122.7569445030592
 21
-81.47660301854527
 31
0.0
  0
INSERT
  5
863B
330
8582
100
AcDbEntity
  8
30
  6
CONTINUOUS
 62
     0
100
AcDbBlockReference
  2
_OPEN
 10
135.9233647744075
 20
-81.47660301854527
 30
0.0
 41
2.0
 42
2.0
 43
2.0
 50
180.0
  0
INSERT
  5
863C
330
8582
100
AcDbEntity
  8
30
  6
CONTINUOUS
 62
     0
100
AcDbBlockReference
  2
_OPEN
 10
131.9233647744075
 20
-81.47660301854527
 30
0.0
 41
2.0
 42
2.0
 43
2.0
  0
MTEXT
  5
863D
330
8582
100
AcDbEntity
  8
30
  6
CONTINUOUS
 62
     0
100
AcDbMText
 10
125.0902778363927
 20
-78.47660301854526
 30
0.0
 40
4.0
 41
0.0
 71
     5
 72
     1
  1
\A1;4
1001
ACAD
1000
MTEXTBEGIN
1070
    73
1070
     1
1070
    44
1040
1.0
1070
    74
1070
     0
1000
MTEXTEND
1000
MTEXTBEGIN
1070
    73
1070
     1
1070
    44
1040
1.0
1070
    74
1070
     0
1000
MTEXTEND
  0
POINT
  5
863E
330
8582
100
AcDbEntity
  8
DEFPOINTS
  6
CONTINUOUS
 62
     0
100
AcDbPoint
 10
135.9233647744075
 20
-10.49993999999986
 30
0.0
  0
POINT
  5
863F
330
8582
100
AcDbEntity
  8
DEFPOINTS
  6
CONTINUOUS
 62
     0
100
AcDbPoint
 10
131.9233647744075
 20
-10.49993999999986
 30
0.0
  0
POINT
  5
8640
330
8582
100
AcDbEntity
  8
DEFPOINTS
  6
CONTINUOUS
 62
     0
100
AcDbPoint
 10
131.9233647744075
 20
-81.47660301854527
 30
0.0
  0
ENDBLK
  5
858E
330
8582
100
AcDbEntity
  8
0
100
AcDbBlockEnd
  0
BLOCK
  5
8599
330
858F
100
AcDbEntity
  8
0
100
AcDbBlockBegin
  2
*D20
 70
     1
 10
0.0
 20
0.0
 30
0.0
  3
*D20
  1

  0
LINE
  5
8624
330
858F
100
AcDbEntity
  8
30
  6
CONTINUOUS
 62
     0
100
AcDbLine
 10
135.9233647744075
 20
-12.49993999999986
 30
0.0
 11
135.9233647744075
 21
-93.81775155113627
 31
0.0
  0
LINE
  5
8625
330
858F
100
AcDbEntity
  8
30
  6
CONTINUOUS
 62
     0
100
AcDbLine
 10
143.4233343138716
 20
-52.39984997635485
 30
0.0
 11
143.4233343138716
 21
-93.81775155113627
 31
0.0
  0
LINE
  5
8626
330
858F
100
AcDbEntity
  8
30
  6
CONTINUOUS
 62
     0
100
AcDbLine
 10
137.9233647744075
 20
-93.31775155113628
 30
0.0
 11
141.4233343138716
 21
-93.31775155113628
 31
0.0
  0
INSERT
  5
8627
330
858F
100
AcDbEntity
  8
30
  6
CONTINUOUS
 62
     0
100
AcDbBlockReference
  2
_OPEN
 10
135.9233647744075
 20
-93.31775155113628
 30
0.0
 41
2.0
 42
2.0
 43
2.0
 50
180.0
  0
INSERT
  5
8628
330
858F
100
AcDbEntity
  8
30
  6
CONTINUOUS
 62
     0
100
AcDbBlockReference
  2
_OPEN
 10
143.4233343138716
 20
-93.31775155113628
 30
0.0
 41
2.0
 42
2.0
 43
2.0
  0
MTEXT
  5
8629
330
858F
100
AcDbEntity
  8
30
  6
CONTINUOUS
 62
     0
100
AcDbMText
 10
139.4233495083041
 20
-90.31775155113626
 30
0.0
 40
4.0
 41
0.0
 71
     5
 72
     1
  1
\A1;8
1001
ACAD
1000
MTEXTBEGIN
1070
    73
1070
     1
1070
    44
1040
1.0
1070
    74
1070
     0
1000
MTEXTEND
1000
MTEXTBEGIN
1070
    73
1070
     1
1070
    44
1040
1.0
1070
    74
1070
     0
1000
MTEXTEND
  0
POINT
  5
862A
330
858F
100
AcDbEntity
  8
DEFPOINTS
  6
CONTINUOUS
 62
     0
100
AcDbPoint
 10
135.9233647744075
 20
-11.49993999999985
 30
0.0
  0
POINT
  5
862B
330
858F
100
AcDbEntity
  8
DEFPOINTS
  6
CONTINUOUS
 62
     0
100
AcDbPoint
 10
143.4233343138716
 20
-51.39984997635487
 30
0.0
  0
POINT
  5
862C
330
858F
100
AcDbEntity
  8
DEFPOINTS
  6
CONTINUOUS
 62
     0
100
AcDbPoint
 10
143.4233343138716
 20
-93.31775155113628
 30
0.0
  0
ENDBLK
  5
859A
330
858F
100
AcDbEntity
  8
0
100
AcDbBlockEnd
  0
BLOCK
  5
85A5
330
859B
100
AcDbEntity
  8
0
100
AcDbBlockBegin
  2
*D21
 70
     1
 10
0.0
 20
0.0
 30
0.0
  3
*D21
  1

  0
LINE
  5
8641
330
859B
100
AcDbEntity
  8
30
  6
CONTINUOUS
 62
     0
100
AcDbLine
 10
119.4232777744075
 20
13.81336600000014
 30
0.0
 11
119.4232777744075
 21
-106.3692602611287
 31
0.0
  0
LINE
  5
8642
330
859B
100
AcDbEntity
  8
30
  6
CONTINUOUS
 62
     0
100
AcDbLine
 10
203.4232747744075
 20
-58.49993099999985
 30
0.0
 11
203.4232747744075
 21
-106.3692602611287
 31
0.0
  0
LINE
  5
8643
330
859B
100
AcDbEntity
  8
30
  6
CONTINUOUS
 62
     0
100
AcDbLine
 10
121.4232777744076
 20
-105.8692602611287
 30
0.0
 11
201.4232747744075
 21
-105.8692602611287
 31
0.0
  0
INSERT
  5
8644
330
859B
100
AcDbEntity
  8
30
  6
CONTINUOUS
 62
     0
100
AcDbBlockReference
  2
_OPEN
 10
119.4232777744075
 20
-105.8692602611287
 30
0.0
 41
2.0
 42
2.0
 43
2.0
 50
180.0
  0
INSERT
  5
8645
330
859B
100
AcDbEntity
  8
30
  6
CONTINUOUS
 62
     0
100
AcDbBlockReference
  2
_OPEN
 10
203.4232747744075
 20
-105.8692602611287
 30
0.0
 41
2.0
 42
2.0
 43
2.0
  0
MTEXT
  5
8646
330
859B
100
AcDbEntity
  8
30
  6
CONTINUOUS
 62
     0
100
AcDbMText
 10
161.4232762744075
 20
-102.8692602611287
 30
0.0
 40
4.0
 41
0.0
 71
     5
 72
     1
  1
\A1;84
1001
ACAD
1000
MTEXTBEGIN
1070
    73
1070
     1
1070
    44
1040
1.0
1070
    74
1070
     0
1000
MTEXTEND
1000
MTEXTBEGIN
1070
    73
1070
     1
1070
    44
1040
1.0
1070
    74
1070
     0
1000
MTEXTEND
  0
POINT
  5
8647
330
859B
100
AcDbEntity
  8
DEFPOINTS
  6
CONTINUOUS
 62
     0
100
AcDbPoint
 10
119.4232777744075
 20
14.81336600000014
 30
0.0
  0
POINT
  5
8648
330
859B
100
AcDbEntity
  8
DEFPOINTS
  6
CONTINUOUS
 62
     0
100
AcDbPoint
 10
203.4232747744075
 20
-57.49993099999985
 30
0.0
  0
POINT
  5
8649
330
859B
100
AcDbEntity
  8
DEFPOINTS
  6
CONTINUOUS
 62
     0
100
AcDbPoint
 10
203.4232747744075
 20
-105.8692602611287
 30
0.0
  0
ENDBLK
  5
85A6
330
859B
100
AcDbEntity
  8
0
100
AcDbBlockEnd
  0
BLOCK
  5
85B1
330
85A7
100
AcDbEntity
  8
0
100
AcDbBlockBegin
  2
*D22
 70
     1
 10
0.0
 20
0.0
 30
0.0
  3
*D22
  1

  0
LINE
  5
85ED
330
85A7
100
AcDbEntity
  8
30
  6
CONTINUOUS
 62
     0
100
AcDbLine
 10
143.4233343138716
 20
-52.39984997635485
 30
0.0
 11
143.4233343138716
 21
-93.87954135408243
 31
0.0
  0
LINE
  5
85EE
330
85A7
100
AcDbEntity
  8
30
  6
CONTINUOUS
 62
     0
100
AcDbLine
 10
203.4232747744075
 20
-58.49993099999985
 30
0.0
 11
203.4232747744075
 21
-93.87954135408243
 31
0.0
  0
LINE
  5
85EF
330
85A7
100
AcDbEntity
  8
30
  6
CONTINUOUS
 62
     0
100
AcDbLine
 10
145.4233343138714
 20
-93.37954135408244
 30
0.0
 11
201.4232747744075
 21
-93.37954135408244
 31
0.0
  0
INSERT
  5
85F0
330
85A7
100
AcDbEntity
  8
30
  6
CONTINUOUS
 62
     0
100
AcDbBlockReference
  2
_OPEN
 10
143.4233343138716
 20
-93.37954135408244
 30
0.0
 41
2.0
 42
2.0
 43
2.0
 50
180.0
  0
INSERT
  5
85F1
330
85A7
100
AcDbEntity
  8
30
  6
CONTINUOUS
 62
     0
100
AcDbBlockReference
  2
_OPEN
 10
203.4232747744075
 20
-93.37954135408244
 30
0.0
 41
2.0
 42
2.0
 43
2.0
  0
MTEXT
  5
85F2
330
85A7
100
AcDbEntity
  8
30
  6
CONTINUOUS
 62
     0
100
AcDbMText
 10
173.4233045441396
 20
-90.37954135408243
 30
0.0
 40
4.0
 41
0.0
 71
     5
 72
     1
  1
\A1;60
1001
ACAD
1000
MTEXTBEGIN
1070
    73
1070
     1
1070
    44
1040
1.0
1070
    74
1070
     0
1000
MTEXTEND
1000
MTEXTBEGIN
1070
    73
1070
     1
1070
    44
1040
1.0
1070
    74
1070
     0
1000
MTEXTEND
  0
POINT
  5
85F3
330
85A7
100
AcDbEntity
  8
DEFPOINTS
  6
CONTINUOUS
 62
     0
100
AcDbPoint
 10
143.4233343138716
 20
-51.39984997635487
 30
0.0
  0
POINT
  5
85F4
330
85A7
100
AcDbEntity
  8
DEFPOINTS
  6
CONTINUOUS
 62
     0
100
AcDbPoint
 10
203.4232747744075
 20
-57.49993099999985
 30
0.0
  0
POINT
  5
85F5
330
85A7
100
AcDbEntity
  8
DEFPOINTS
  6
CONTINUOUS
 62
     0
100
AcDbPoint
 10
203.4232747744075
 20
-93.37954135408244
 30
0.0
  0
ENDBLK
  5
85B2
330
85A7
100
AcDbEntity
  8
0
100
AcDbBlockEnd
  0
BLOCK
  5
85BD
330
85B3
100
AcDbEntity
  8
0
100
AcDbBlockBegin
  2
*D23
 70
     1
 10
0.0
 20
0.0
 30
0.0
  3
*D23
  1

  0
LINE
  5
85F6
330
85B3
100
AcDbEntity
  8
30
  6
CONTINUOUS
 62
     0
100
AcDbLine
 10
152.4233040206476
 20
-65.24981825322488
 30
0.0
 11
152.4233040206476
 21
-81.38982156013046
 31
0.0
  0
LINE
  5
85F7
330
85B3
100
AcDbEntity
  8
30
  6
CONTINUOUS
 62
     0
100
AcDbLine
 10
203.4232747744075
 20
-58.49993099999985
 30
0.0
 11
203.4232747744075
 21
-81.38982156013046
 31
0.0
  0
LINE
  5
85F8
330
85B3
100
AcDbEntity
  8
30
  6
CONTINUOUS
 62
     0
100
AcDbLine
 10
154.4233040206476
 20
-80.88982156013045
 30
0.0
 11
201.4232747744075
 21
-80.88982156013045
 31
0.0
  0
INSERT
  5
85F9
330
85B3
100
AcDbEntity
  8
30
  6
CONTINUOUS
 62
     0
100
AcDbBlockReference
  2
_OPEN
 10
152.4233040206476
 20
-80.88982156013045
 30
0.0
 41
2.0
 42
2.0
 43
2.0
 50
180.0
  0
INSERT
  5
85FA
330
85B3
100
AcDbEntity
  8
30
  6
CONTINUOUS
 62
     0
100
AcDbBlockReference
  2
_OPEN
 10
203.4232747744075
 20
-80.88982156013045
 30
0.0
 41
2.0
 42
2.0
 43
2.0
  0
MTEXT
  5
85FB
330
85B3
100
AcDbEntity
  8
30
  6
CONTINUOUS
 62
     0
100
AcDbMText
 10
177.9232893975275
 20
-77.88982156013045
 30
0.0
 40
4.0
 41
0.0
 71
     5
 72
     1
  1
\A1;51
1001
ACAD
1000
MTEXTBEGIN
1070
    73
1070
     1
1070
    44
1040
1.0
1070
    74
1070
     0
1000
MTEXTEND
1000
MTEXTBEGIN
1070
    73
1070
     1
1070
    44
1040
1.0
1070
    74
1070
     0
1000
MTEXTEND
  0
POINT
  5
85FC
330
85B3
100
AcDbEntity
  8
DEFPOINTS
  6
CONTINUOUS
 62
     0
100
AcDbPoint
 10
152.4233040206476
 20
-64.24981825322487
 30
0.0
  0
POINT
  5
85FD
330
85B3
100
AcDbEntity
  8
DEFPOINTS
  6
CONTINUOUS
 62
     0
100
AcDbPoint
 10
203.4232747744075
 20
-57.49993099999985
 30
0.0
  0
POINT
  5
85FE
330
85B3
100
AcDbEntity
  8
DEFPOINTS
  6
CONTINUOUS
 62
     0
100
AcDbPoint
 10
203.4232747744075
 20
-80.88982156013045
 30
0.0
  0
ENDBLK
  5
85BE
330
85B3
100
AcDbEntity
  8
0
100
AcDbBlockEnd
  0
BLOCK
  5
8794
330
878A
100
AcDbEntity
  8
0
100
AcDbBlockBegin
  2
*D24
 70
     1
 10
0.0
 20
0.0
 30
0.0
  3
*D24
  1

  0
LINE
  5
878B
330
878A
100
AcDbEntity
  8
30
  6
CONTINUOUS
 62
     0
100
AcDbLine
 10
206.2029356423941
 20
-235.8473940210348
 30
0.0
 11
215.7489879456688
 21
-235.8473940210348
 31
0.0
  0
LINE
  5
878C
330
878A
100
AcDbEntity
  8
30
  6
CONTINUOUS
 62
     0
100
AcDbLine
 10
206.2029356423941
 20
-250.8473940210349
 30
0.0
 11
215.7489879456688
 21
-250.8473940210349
 31
0.0
  0
LINE
  5
878D
330
878A
100
AcDbEntity
  8
30
  6
CONTINUOUS
 62
     0
100
AcDbLine
 10
215.2489879456688
 20
-237.8473940210347
 30
0.0
 11
215.2489879456688
 21
-248.8473940210349
 31
0.0
  0
INSERT
  5
878E
330
878A
100
AcDbEntity
  8
30
  6
CONTINUOUS
 62
     0
100
AcDbBlockReference
  2
_OPEN
 10
215.2489879456688
 20
-235.8473940210348
 30
0.0
 41
2.0
 42
2.0
 43
2.0
 50
90.0
  0
INSERT
  5
878F
330
878A
100
AcDbEntity
  8
30
  6
CONTINUOUS
 62
     0
100
AcDbBlockReference
  2
_OPEN
 10
215.2489879456688
 20
-250.8473940210349
 30
0.0
 41
2.0
 42
2.0
 43
2.0
 50
270.0
  0
MTEXT
  5
8790
330
878A
100
AcDbEntity
  8
30
  6
CONTINUOUS
 62
     0
100
AcDbMText
 10
212.2489879456689
 20
-243.3473940210348
 30
0.0
 40
4.0
 41
0.0
 71
     5
 72
     1
  1
\A1;15
 11
0.0000000000000001
 21
1.0
 31
0.0
1001
ACAD
1000
MTEXTBEGIN
1070
    73
1070
     1
1070
    44
1040
1.0
1070
    74
1070
     0
1000
MTEXTEND
1000
MTEXTBEGIN
1070
    73
1070
     1
1070
    44
1040
1.0
1070
    74
1070
     0
1000
MTEXTEND
  0
POINT
  5
8791
330
878A
100
AcDbEntity
  8
DEFPOINTS
  6
CONTINUOUS
 62
     0
100
AcDbPoint
 10
205.2029356423942
 20
-235.8473940210348
 30
0.0
  0
POINT
  5
8792
330
878A
100
AcDbEntity
  8
DEFPOINTS
  6
CONTINUOUS
 62
     0
100
AcDbPoint
 10
205.2029356423942
 20
-250.8473940210349
 30
0.0
  0
POINT
  5
8793
330
878A
100
AcDbEntity
  8
DEFPOINTS
  6
CONTINUOUS
 62
     0
100
AcDbPoint
 10
215.2489879456688
 20
-250.8473940210349
 30
0.0
  0
ENDBLK
  5
8795
330
878A
100
AcDbEntity
  8
0
100
AcDbBlockEnd
  0
BLOCK
  5
87CE
330
879D
100
AcDbEntity
  8
0
100
AcDbBlockBegin
  2
A$C49827007
 70
     0
 10
0.0
 20
0.0
 30
0.0
  3
A$C49827007
  1

  0
CIRCLE
  5
879E
330
879D
100
AcDbEntity
  8
0
  6
CONTINUOUS
100
AcDbCircle
 10
-27.4
 20
-13.35005999999998
 30
0.0
 40
1.75
  0
CIRCLE
  5
879F
330
879D
100
AcDbEntity
  8
0
  6
CONTINUOUS
100
AcDbCircle
 10
-27.4
 20
-4.350059999999984
 30
0.0
 40
1.75
  0
CIRCLE
  5
87A0
330
879D
100
AcDbEntity
  8
0
  6
CONTINUOUS
100
AcDbCircle
 10
-27.4
 20
-4.350059999999984
 30
0.0
 40
2.1
  0
CIRCLE
  5
87A1
330
879D
100
AcDbEntity
  8
0
  6
CONTINUOUS
100
AcDbCircle
 10
-27.4
 20
-13.35005999999998
 30
0.0
 40
2.1
  0
LINE
  5
87A2
330
879D
100
AcDbEntity
  8
0
  6
CONTINUOUS
100
AcDbLine
 10
-1.500070000000008
 20
-13.84987499999999
 30
0.0
 11
1.499929999999991
 21
-13.84987499999999
 31
0.0
  0
LINE
  5
87A3
330
879D
100
AcDbEntity
  8
0
  6
CONTINUOUS
100
AcDbLine
 10
-1.500070000000008
 20
-16.84987499999999
 30
0.0
 11
1.499929999999991
 21
-16.84987499999999
 31
0.0
  0
LINE
  5
87A4
330
879D
100
AcDbEntity
  8
0
  6
CONTINUOUS
100
AcDbLine
 10
-3.400070000000013
 20
-17.14987200000001
 30
0.0
 11
3.399929999999982
 21
-17.14987200000001
 31
0.0
  0
ARC
  5
87A5
330
879D
100
AcDbEntity
  8
0
  6
CONTINUOUS
100
AcDbCircle
 10
-3.400070000000013
 20
-16.649872
 30
0.0
 40
0.5
100
AcDbArc
 50
180.0
 51
270.0
  0
LINE
  5
87A6
330
879D
100
AcDbEntity
  8
0
  6
CONTINUOUS
100
AcDbLine
 10
-1.500070000000008
 20
-13.84987499999999
 30
0.0
 11
-1.500070000000008
 21
-16.84987499999999
 31
0.0
  0
LINE
  5
87A7
330
879D
100
AcDbEntity
  8
0
  6
CONTINUOUS
100
AcDbLine
 10
-3.900070000000013
 20
-14.04987199999998
 30
0.0
 11
-3.900070000000013
 21
-16.649872
 31
0.0
  0
LINE
  5
87A8
330
879D
100
AcDbEntity
  8
0
  6
CONTINUOUS
100
AcDbLine
 10
1.499929999999991
 20
-13.84987499999999
 30
0.0
 11
1.499929999999991
 21
-16.84987499999999
 31
0.0
  0
LINE
  5
87A9
330
879D
100
AcDbEntity
  8
0
  6
CONTINUOUS
100
AcDbLine
 10
3.899929999999982
 20
-14.04987199999998
 30
0.0
 11
3.899929999999982
 21
-16.649872
 31
0.0
  0
ARC
  5
87AA
330
879D
100
AcDbEntity
  8
0
  6
CONTINUOUS
100
AcDbCircle
 10
3.399929999999982
 20
-16.649872
 30
0.0
 40
0.5
100
AcDbArc
 50
270.0
 51
0.0
  0
CIRCLE
  5
87AB
330
879D
100
AcDbEntity
  8
0
  6
CONTINUOUS
100
AcDbCircle
 10
24.20000799999998
 20
-21.20000099999998
 30
0.0
 40
3.1
  0
CIRCLE
  5
87AC
330
879D
100
AcDbEntity
  8
0
  6
CONTINUOUS
100
AcDbCircle
 10
24.20000799999998
 20
-21.20000099999998
 30
0.0
 40
3.75
  0
CIRCLE
  5
87AD
330
879D
100
AcDbEntity
  8
0
  6
CONTINUOUS
100
AcDbCircle
 10
25.70013099999998
 20
-6.700000999999986
 30
0.0
 40
2.85
  0
CIRCLE
  5
87AE
330
879D
100
AcDbEntity
  8
0
  6
CONTINUOUS
100
AcDbCircle
 10
32.69999999999999
 20
-13.5
 30
0.0
 40
1.8
  0
LINE
  5
87AF
330
879D
100
AcDbEntity
  8
0
  6
PHANTOM
100
AcDbLine
 10
-13.100061
 20
49.75000099999999
 30
0.0
 11
-13.100061
 21
99.750001
 31
0.0
  0
LINE
  5
87B0
330
879D
100
AcDbEntity
  8
0
  6
PHANTOM
100
AcDbLine
 10
-9.500061000000014
 20
49.75000099999999
 30
0.0
 11
-9.500061000000014
 21
99.750001
 31
0.0
  0
LINE
  5
87B1
330
879D
100
AcDbEntity
  8
0
  6
PHANTOM
100
AcDbLine
 10
-13.100061
 20
99.750001
 30
0.0
 11
-9.500061000000014
 21
99.750001
 31
0.0
  0
LINE
  5
87B2
330
879D
100
AcDbEntity
  8
0
  6
PHANTOM
100
AcDbLine
 10
15.49993999999998
 20
49.75000099999999
 30
0.0
 11
15.49993999999998
 21
99.750001
 31
0.0
  0
LINE
  5
87B3
330
879D
100
AcDbEntity
  8
0
  6
PHANTOM
100
AcDbLine
 10
11.89993899999999
 20
49.75000099999999
 30
0.0
 11
11.89993899999999
 21
99.750001
 31
0.0
  0
LINE
  5
87B4
330
879D
100
AcDbEntity
  8
0
  6
PHANTOM
100
AcDbLine
 10
11.89993899999999
 20
99.750001
 30
0.0
 11
15.49993999999998
 21
99.750001
 31
0.0
  0
LINE
  5
87B5
330
879D
100
AcDbEntity
  8
0
  6
CONTINUOUS
100
AcDbLine
 10
57.50002899999998
 20
-52.65000199999997
 30
0.0
 11
57.50002899999998
 21
-59.25000199999995
 31
0.0
  0
SPLINE
  5
87B6
330
879D
100
AcDbEntity
  8
0
  6
CONTINUOUS
100
AcDbSpline
210
0.0
220
0.0
230
1.0
 70
     8
 71
     3
 72
    87
 73
    83
 74
    81
 42
0.0000000001
 43
0.0000000001
 44
0.000001
 12
0.2426581112077736
 22
-0.9701118703866455
 32
0.0
 13
-0.6507913734550554
 23
-0.7592566023660793
 33
0.0
 40
0.0
 40
0.0
 40
0.0
 40
0.0
 40
0.1255431072398599
 40
0.2511269969225576
 40
0.3839024650050823
 40
0.5167054937989225
 40
0.6570174880253977
 40
0.7973457869491436
 40
0.9443722598956309
 40
1.091407705447826
 40
1.243648881242699
 40
1.395894469434884
 40
1.55154075016939
 40
1.707189016119118
 40
1.864243005435205
 40
2.021297271111129
 40
2.177682715433798
 40
2.334066829371487
 40
2.487479342050967
 40
2.640884439585033
 40
2.788215043043666
 40
2.93552725274975
 40
3.074193840372288
 40
3.212820851634023
 40
3.341840283566289
 40
3.470785858719994
 40
3.592177629147736
 40
3.713561721970669
 40
3.832521465735073
 40
3.951501595424083
 40
4.072666054292791
 40
4.193862121060595
 40
4.320363008755458
 40
4.446892611283526
 40
4.580090452955629
 40
4.713319024124961
 40
4.851879281796322
 40
4.990452016149661
 40
5.131461119323006
 40
5.272472174600241
 40
5.412524634283906
 40
5.552569795738055
 40
5.688372575418823
 40
5.824149734484421
 40
5.953138789480012
 40
6.082069389293643
 40
6.204074917685054
 40
6.325981557416984
 40
6.44521514379643
 40
6.564373394739003
 40
6.689588957363648
 40
6.814992378289005
 40
6.950709179302386
 40
7.08650537872513
 40
7.229860454445704
 40
7.373238090393536
 40
7.518262641620814
 40
7.663280399564093
 40
7.804167203037668
 40
7.945042545922921
 40
8.079615931208056
 40
8.214168470955868
 40
8.341935309688137
 40
8.469668073173552
 40
8.591574124563633
 40
8.713434931530152
 40
8.83244780263505
 40
8.951467293301362
 40
9.071921336912295
 40
9.192398541145598
 40
9.318011224275116
 40
9.443651947668433
 40
9.577122760985567
 40
9.710618434358124
 40
9.853270735784253
 40
9.995951296353382
 40
10.1464183613068
 40
10.29689822043584
 40
10.45231410938838
 40
10.60773471966133
 40
10.76467115198074
 40
10.92160673161709
 40
10.92160673161709
 40
10.92160673161709
 40
10.92160673161709
 10
49.04860106496812
 20
-51.65000161432772
 30
0.0
 10
49.05875574939411
 20
-51.69059856718725
 30
0.0
 10
49.08275473885939
 20
-51.7709177727642
 30
0.0
 10
49.12879828930641
 20
-51.89041994300612
 30
0.0
 10
49.18376949517148
 20
-52.0087522730023
 30
0.0
 10
49.24778190185751
 20
-52.12801584479294
 30
0.0
 10
49.31880689674585
 20
-52.24617481875466
 30
0.0
 10
49.39726144596722
 20
-52.36523833800706
 30
0.0
 10
49.48100505168473
 20
-52.48339081309017
 30
0.0
 10
49.57043884209016
 20
-52.60229391513689
 30
0.0
 10
49.66357549648098
 20
-52.72053557971801
 30
0.0
 10
49.76062495926158
 20
-52.83931247727418
 30
0.0
 10
49.85996262762004
 20
-52.95766530594281
 30
0.0
 10
49.96143177790311
 20
-53.0763104605667
 30
0.0
 10
50.06381956328052
 20
-53.19478336449718
 30
0.0
 10
50.16653073792801
 20
-53.31330098280146
 30
0.0
 10
50.26880760229953
 20
-53.43189968979475
 30
0.0
 10
50.36953496910228
 20
-53.55022870249521
 30
0.0
 10
50.46842190811513
 20
-53.66881347840403
 30
0.0
 10
50.56327316750231
 20
-53.78681142954684
 30
0.0
 10
50.65386952940406
 20
-53.90557160190383
 30
0.0
 10
50.73739142277638
 20
-54.02345839057812
 30
0.0
 10
50.81402310596674
 20
-54.14252094943629
 30
0.0
 10
50.88070879788598
 20
-54.26051544706025
 30
0.0
 10
50.93754065813296
 20
-54.38000896186975
 30
0.0
 10
50.98186550396682
 20
-54.49866393280366
 30
0.0
 10
51.01280458067473
 20
-54.61887955496799
 30
0.0
 10
51.03056434146679
 20
-54.73837367565735
 30
0.0
 10
51.03553978630523
 20
-54.85825410573113
 30
0.0
 10
51.02871913200444
 20
-54.97794629048446
 30
0.0
 10
51.01046997469119
 20
-55.09717204734698
 30
0.0
 10
50.98154610247022
 20
-55.21681185101916
 30
0.0
 10
50.94277635072237
 20
-55.33550052539668
 30
0.0
 10
50.89434984308187
 20
-55.45488506904976
 30
0.0
 10
50.83770794459891
 20
-55.57306715012158
 30
0.0
 10
50.77356726477656
 20
-55.69189224128352
 30
0.0
 10
50.70442538294704
 20
-55.80994149498827
 30
0.0
 10
50.63105384513111
 20
-55.92845643191049
 30
0.0
 10
50.55562667704656
 20
-56.0466365258914
 30
0.0
 10
50.47942851201833
 20
-56.16490593659037
 30
0.0
 10
50.40402442573032
 20
-56.2833054862995
 30
0.0
 10
50.33135252844524
 20
-56.40137520386059
 30
0.0
 10
50.26236482770711
 20
-56.52000384772148
 30
0.0
 10
50.1997458078403
 20
-56.63798576039312
 30
0.0
 10
50.14432401075011
 20
-56.7570233884296
 30
0.0
 10
50.0989170584067
 20
-56.8753912181647
 30
0.0
 10
50.06473982434992
 20
-56.9950708328891
 30
0.0
 10
50.04403934798161
 20
-57.11463917509799
 30
0.0
 10
50.03927128997829
 20
-57.23501628791286
 30
0.0
 10
50.05184015380887
 20
-57.35605107000944
 30
0.0
 10
50.08405385953754
 20
-57.47549526020536
 30
0.0
 10
50.13242458768926
 20
-57.59506710255422
 30
0.0
 10
50.19301101682628
 20
-57.71284692773668
 30
0.0
 10
50.26430052586597
 20
-57.83141516623224
 30
0.0
 10
50.3419566503041
 20
-57.94894687678031
 30
0.0
 10
50.42435087698858
 20
-58.06695331547317
 30
0.0
 10
50.50798624336395
 20
-58.18475481063732
 30
0.0
 10
50.590181908452
 20
-58.30256486680419
 30
0.0
 10
50.66866383395493
 20
-58.42124129284526
 30
0.0
 10
50.74147608649882
 20
-58.53941909760735
 30
0.0
 10
50.80861464681205
 20
-58.6585045329533
 30
0.0
 10
50.86807384730957
 20
-58.77675597030709
 30
0.0
 10
50.91990755632348
 20
-58.89607783772223
 30
0.0
 10
50.96232672733484
 20
-59.01463168453661
 30
0.0
 10
50.99494571148246
 20
-59.13422939180508
 30
0.0
 10
51.01648116994915
 20
-59.25341350689131
 30
0.0
 10
51.02587523238893
 20
-59.37320786797416
 30
0.0
 10
51.023629878853
 20
-59.4928685126473
 30
0.0
 10
51.00978421404709
 20
-59.61222933611987
 30
0.0
 10
50.98486559006184
 20
-59.7319979412066
 30
0.0
 10
50.94928482161669
 20
-59.85084011556063
 30
0.0
 10
50.9030071235033
 20
-59.97056314451248
 30
0.0
 10
50.84710644094065
 20
-60.08901139175261
 30
0.0
 10
50.78087585375385
 20
-60.20850793968825
 30
0.0
 10
50.70613418450689
 20
-60.32650735278366
 30
0.0
 10
50.62267775750078
 20
-60.44545539018542
 30
0.0
 10
50.53341568199462
 20
-60.5633840723777
 30
0.0
 10
50.43823678041847
 20
-60.68206793969673
 30
0.0
 10
50.3397200452777
 20
-60.80014530544777
 30
0.0
 10
50.23832401026631
 20
-60.91860141451604
 30
0.0
 10
50.13594457161882
 20
-61.03687656558872
 30
0.0
 10
50.06755040548852
 20
-61.1160505101957
 30
0.0
 10
50.03350629835001
 20
-61.15576863519073
 30
0.0
 11
49.04860106496812
 21
-51.65000161432772
 31
0.0
 11
49.08428132279169
 21
-51.77036769875917
 31
0.0
 11
49.12919406695465
 21
-51.88764578984899
 31
0.0
 11
49.184906697933
 21
-52.00816724197753
 31
0.0
 11
49.24750786364973
 21
-52.12528996537045
 31
0.0
 11
49.31962291875269
 21
-52.24565137387693
 31
0.0
 11
49.39667341497662
 21
-52.36293414089198
 31
0.0
 11
49.48156319507083
 21
-52.48297790044042
 31
0.0
 11
49.56982168085861
 21
-52.60057831641359
 31
0.0
 11
49.66392895143227
 21
-52.72024950543536
 31
0.0
 11
49.76016351065769
 21
-52.83822249193514
 31
0.0
 11
49.860146049141
 21
-52.95750892826714
 31
0.0
 11
49.96122931149017
 21
-53.07586666745669
 31
0.0
 11
50.06384754953174
 21
-53.19475926958617
 31
0.0
 11
50.16662937991128
 21
-53.31351084297828
 31
0.0
 11
50.26868185208312
 21
-53.43200851802169
 31
0.0
 11
50.36997401247615
 21
-53.55115501849986
 31
0.0
 11
50.46806918559224
 21
-53.66910727866002
 31
0.0
 11
50.56402213935917
 21
-53.78879919402152
 31
0.0
 11
50.65317803124557
 21
-53.90609170870101
 31
0.0
 11
50.73812722521267
 21
-54.02644336954315
 31
0.0
 11
50.81289714451853
 21
-54.14322471475713
 31
0.0
 11
50.88079136830817
 21
-54.26408754506482
 31
0.0
 11
50.9358448157219
 21
-54.38077144623838
 31
0.0
 11
50.98051666691738
 21
-54.50173172058652
 31
0.0
 11
51.01073413687567
 21
-54.61930240912653
 31
0.0
 11
51.02852332769842
 21
-54.73937589610816
 31
0.0
 11
51.03358722899209
 21
-54.85822780429399
 31
0.0
 11
51.02690399085677
 21
-54.97702007162962
 31
0.0
 11
51.00878181792913
 21
-55.09682160893353
 31
0.0
 11
50.98046940498432
 21
-55.21466424715118
 31
0.0
 11
50.94140249023524
 21
-55.33498150078589
 31
0.0
 11
50.89403031867298
 21
-55.45230842267276
 31
0.0
 11
50.83676517946187
 21
-55.57256795989909
 31
0.0
 11
50.7737517595164
 21
-55.68995259819423
 31
0.0
 11
50.70394420031316
 21
-55.80964327317254
 31
0.0
 11
50.63121587111496
 21
-55.92759677371568
 31
0.0
 11
50.55554223889487
 21
-56.04658049897338
 31
0.0
 11
50.47935907607044
 21
-56.16524094923727
 31
0.0
 11
50.40432544178449
 21
-56.28349784088555
 31
0.0
 11
50.33111779698484
 21
-56.40288512475888
 31
0.0
 11
50.26312524153286
 21
-56.52044120742814
 31
0.0
 11
50.19976668718914
 21
-56.64052930028054
 31
0.0
 11
50.14568617599917
 21
-56.75763390648802
 31
0.0
 11
50.09993332293086
 21
-56.87817347580218
 31
0.0
 11
50.06684525158724
 21
-56.99560659464228
 31
0.0
 11
50.04658351118658
 21
-57.11581765132388
 31
0.0
 11
50.0421199740847
 21
-57.23496768535582
 31
0.0
 11
50.05468305893284
 21
-57.35346182684549
 31
0.0
 11
50.08641931381058
 21
-57.47458882337557
 31
0.0
 11
50.1327848721501
 21
-57.59110600236713
 31
0.0
 11
50.19430002282367
 21
-57.7120809353028
 31
0.0
 11
50.26379025283387
 21
-57.82875017788871
 31
0.0
 11
50.34245654663817
 21
-57.94859293510151
 31
0.0
 11
50.42418760198343
 21
-58.06639435341018
 31
0.0
 11
50.50782527500058
 21
-58.1848715734439
 31
0.0
 11
50.59046532059816
 21
-58.30403852893172
 31
0.0
 11
50.66803077589927
 21
-58.42165094909861
 31
0.0
 11
50.7417751262129
 21
-58.54168270445319
 31
0.0
 11
50.8076793551281
 21
-58.65901394223786
 31
0.0
 11
50.86792200250503
 21
-58.77932687997469
 31
0.0
 11
50.91860249611746
 21
-58.89661222919365
 31
0.0
 11
50.96137424968739
 21
-59.01697105549629
 31
0.0
 11
50.9932159979418
 21
-59.13464522324314
 31
0.0
 11
51.014600167973
 21
-59.2546152310179
 31
0.0
 11
51.02394976033252
 21
-59.37326040996453
 31
0.0
 11
51.02173475820646
 21
-59.49225940653953
 31
0.0
 11
51.00800838072132
 21
-59.61192890477756
 31
0.0
 11
50.98357982375938
 21
-59.72990358206118
 31
0.0
 11
50.94774537539669
 21
-59.85029651782659
 31
0.0
 11
50.90260386863511
 21
-59.96754775758279
 31
0.0
 11
50.84582274900473
 21
-60.08833839970939
 31
0.0
 11
50.78127539683699
 21
-60.20519193310434
 31
0.0
 11
50.70520968297677
 21
-60.32587208744268
 31
0.0
 11
50.62349572292117
 21
-60.44283610862581
 31
0.0
 11
50.53286629782172
 21
-60.56294712220783
 31
0.0
 11
50.43889740365475
 21
-60.68048028414728
 31
0.0
 11
50.33947278983953
 21
-60.79993259043157
 31
0.0
 11
50.2385458063577
 21
-60.91812445966882
 31
0.0
 11
50.13596516909778
 21
-61.03689425366349
 31
0.0
 11
50.03350629835001
 21
-61.15576863519073
 31
0.0
  0
SPLINE
  5
87B7
330
879D
100
AcDbEntity
  8
0
  6
CONTINUOUS
100
AcDbSpline
210
0.0
220
0.0
230
1.0
 70
     8
 71
     3
 72
   103
 73
    99
 74
    97
 42
0.0000000001
 43
0.0000000001
 44
0.000001
 12
-0.1460598731528251
 22
-0.9892757519794875
 32
0.0
 13
-0.6507913734557392
 23
-0.7592566023654931
 33
0.0
 40
0.0
 40
0.0
 40
0.0
 40
0.0
 40
0.0992148049618795
 40
0.198450855274276
 40
0.2991918449174821
 40
0.3999707082522265
 40
0.5055226260205644
 40
0.6111074689316708
 40
0.7229832868367304
 40
0.8348810781762489
 40
0.9532329816860672
 40
1.071598448427096
 40
1.195560466578958
 40
1.319529684239312
 40
1.447624425078859
 40
1.57572265626353
 40
1.706139080341103
 40
1.836556709619794
 40
1.96731977532053
 40
2.098082250560354
 40
2.227175107473179
 40
2.356265290536667
 40
2.481779205107974
 40
2.607287235308589
 40
2.727589743030089
 40
2.847880855542893
 40
2.962001982168474
 40
3.076112305780763
 40
3.18435828376037
 40
3.292590400752442
 40
3.395963251857056
 40
3.499320453464687
 40
3.599434287607131
 40
3.699534305879502
 40
3.798644495691045
 40
3.897762018577541
 40
3.998322440707008
 40
4.098895379829226
 40
4.202881361595779
 40
4.306880821111406
 40
4.415697995214027
 40
4.524527016484206
 40
4.63872095655108
 40
4.752932096020644
 40
4.871056166221662
 40
4.989186932195091
 40
5.108762578627827
 40
5.228338385966843
 40
5.346650867975471
 40
5.464957107350633
 40
5.57951248471206
 40
5.694052170575994
 40
5.803115987365048
 40
5.912147381374025
 40
6.015399359949308
 40
6.118596498721774
 40
6.218087423711246
 40
6.317519389539799
 40
6.418155387201036
 40
6.518871388049713
 40
6.624883584407281
 40
6.73094951332369
 40
6.842957611970206
 40
6.954991486461313
 40
7.071327186492646
 40
7.187672479775243
 40
7.305753166103134
 40
7.423834835036649
 40
7.541530943804164
 40
7.659224707889604
 40
7.774652355269362
 40
7.890073277760563
 40
8.001654483968581
 40
8.113221956146334
 40
8.220140322919142
 40
8.327046616758467
 40
8.429821994414819
 40
8.532583017928825
 40
8.632529891937849
 40
8.732463018464653
 40
8.831604253796651
 40
8.930737586309705
 40
9.031674516945827
 40
9.132630294658639
 40
9.23765590769706
 40
9.342700025649946
 40
9.453253790294581
 40
9.563822326996852
 40
9.680626525641642
 40
9.797441323871304
 40
9.920449251963411
 40
10.04346762082084
 40
10.17127138227984
 40
10.29908004362732
 40
10.42961237722013
 40
10.56014638154075
 40
10.69112022020316
 40
10.82209282240741
 40
10.82209282240741
 40
10.82209282240741
 40
10.82209282240741
 10
47.78611410631746
 20
-51.65000161432772
 30
0.0
 10
47.78128367237493
 20
-51.6827185479231
 30
0.0
 10
47.77553686018019
 20
-51.74879494598542
 30
0.0
 10
47.77809161531417
 20
-51.84868496769501
 30
0.0
 10
47.7915242177288
 20
-51.9482164678201
 30
0.0
 10
47.81487326574441
 20
-52.04801431510059
 30
0.0
 10
47.84728973492813
 20
-52.14692861960156
 30
0.0
 10
47.88844569880369
 20
-52.24651373851511
 30
0.0
 10
47.93694210726252
 20
-52.34508631730861
 30
0.0
 10
47.99298129333434
 20
-52.44446521238888
 30
0.0
 10
48.05481414822955
 20
-52.54289898567541
 30
0.0
 10
48.12280067441438
 20
-52.64208680132332
 30
0.0
 10
48.19506510379088
 20
-52.74052653636895
 30
0.0
 10
48.2719038464427
 20
-52.83956795296951
 30
0.0
 10
48.35161615471128
 20
-52.93808608200759
 30
0.0
 10
48.43423051442442
 20
-53.03699613769143
 30
0.0
 10
48.51837963796525
 20
-53.13562106871478
 30
0.0
 10
48.60370512341293
 20
-53.23440531039404
 30
0.0
 10
48.68925722950351
 20
-53.3331456223836
 30
0.0
 10
48.77422777711487
 20
-53.43180550663709
 30
0.0
 10
48.85810384051087
 20
-53.53066936732783
 30
0.0
 10
48.93963850478306
 20
-53.62921587221119
 30
0.0
 10
49.01873397520043
 20
-53.72821018296729
 30
0.0
 10
49.09376941973523
 20
-53.82666475537334
 30
0.0
 10
49.16496547433995
 20
-53.92580190484604
 30
0.0
 10
49.23049427272103
 20
-54.02425877508977
 30
0.0
 10
49.29069399433609
 20
-54.12366356811924
 30
0.0
 10
49.3441913059334
 20
-54.22229700888324
 30
0.0
 10
49.39161312125897
 20
-54.32182595467391
 30
0.0
 10
49.43190158040768
 20
-54.42060998352707
 30
0.0
 10
49.46536676393358
 20
-54.5201971726981
 30
0.0
 10
49.49131454429386
 20
-54.61922403974888
 30
0.0
 10
49.50966467595573
 20
-54.7188328997353
 30
0.0
 10
49.52007757038799
 20
-54.81817450800223
 30
0.0
 10
49.52217349267709
 20
-54.91770670159607
 30
0.0
 10
49.5163376051243
 20
-55.01723386657617
 30
0.0
 10
49.50270722249868
 20
-55.11648230747455
 30
0.0
 10
49.48157586530754
 20
-55.2160541988195
 30
0.0
 10
49.45330792872269
 20
-55.31502701790532
 30
0.0
 10
49.41789180057455
 20
-55.41457969026113
 30
0.0
 10
49.37602807016178
 20
-55.5133481675829
 30
0.0
 10
49.32739101114371
 20
-55.61274882364664
 30
0.0
 10
49.27306176423728
 20
-55.71120260720507
 30
0.0
 10
49.21344435354384
 20
-55.81016002738091
 30
0.0
 10
49.15047834029442
 20
-55.90857217378396
 30
0.0
 10
49.08475327726169
 20
-56.00731105048483
 30
0.0
 10
49.01787872045218
 20
-56.1058566675086
 30
0.0
 10
48.95091302175333
 20
-56.20441337331218
 30
0.0
 10
48.88495008401569
 20
-56.30313880833083
 30
0.0
 10
48.82156502270844
 20
-56.40156099006986
 30
0.0
 10
48.76137252047699
 20
-56.5005088186513
 30
0.0
 10
48.70630761655037
 20
-56.59890065788153
 30
0.0
 10
48.65669858779746
 20
-56.698116566294
 30
0.0
 10
48.61456994673812
 20
-56.79668930049246
 30
0.0
 10
48.58042098179445
 20
-56.89626409524692
 30
0.0
 10
48.55594590750896
 20
-56.99543728776871
 30
0.0
 10
48.54234039004944
 20
-57.09542749968291
 30
0.0
 10
48.54070189760397
 20
-57.19555224964597
 30
0.0
 10
48.55269509842042
 20
-57.29537465024152
 30
0.0
 10
48.57638361589652
 20
-57.39523225557337
 30
0.0
 10
48.61010603657497
 20
-57.49403653189421
 30
0.0
 10
48.65277650889208
 20
-57.5933654211825
 30
0.0
 10
48.7021952047748
 20
-57.69173868952634
 30
0.0
 10
48.75775776719632
 20
-57.79069297953587
 30
0.0
 10
48.81721845695292
 20
-57.88903251507472
 30
0.0
 10
48.87984099867517
 20
-57.98777374450679
 30
0.0
 10
48.94376828817953
 20
-58.08636524002531
 30
0.0
 10
49.00832628959647
 20
-58.18508261677948
 30
0.0
 10
49.07256786859263
 20
-58.28385304175057
 30
0.0
 10
49.13544208336077
 20
-58.3824545013164
 30
0.0
 10
49.19639409782072
 20
-58.48137058702213
 30
0.0
 10
49.25405033598831
 20
-58.57989711382067
 30
0.0
 10
49.30812160838768
 20
-58.67898092035975
 30
0.0
 10
49.35706809975069
 20
-58.77755576584483
 30
0.0
 10
49.4006541146277
 20
-58.87692568121317
 30
0.0
 10
49.43789734961364
 20
-58.97572881091692
 30
0.0
 10
49.46889658717126
 20
-59.07522141516773
 30
0.0
 10
49.49296894325841
 20
-59.17424256068652
 30
0.0
 10
49.5099226663097
 20
-59.2737742851445
 30
0.0
 10
49.51936547873775
 20
-59.37310009632401
 30
0.0
 10
49.52084170206429
 20
-59.47259991459635
 30
0.0
 10
49.51413604860275
 20
-59.57223083166138
 30
0.0
 10
49.49878254642341
 20
-59.67151153398122
 30
0.0
 10
49.47518918510691
 20
-59.77115888883502
 30
0.0
 10
49.44388639459928
 20
-59.87008862406245
 30
0.0
 10
49.40488796755401
 20
-59.96966836398991
 30
0.0
 10
49.35912959079018
 20
-60.06836161356626
 30
0.0
 10
49.30620865120669
 20
-60.1678526346789
 30
0.0
 10
49.24741342275391
 20
-60.26642102642078
 30
0.0
 10
49.18206643538795
 20
-60.36576396684193
 30
0.0
 10
49.11171357752941
 20
-60.46417625031304
 30
0.0
 10
49.03607884881887
 20
-60.56322575137688
 30
0.0
 10
48.95707996952904
 20
-60.66166668055636
 30
0.0
 10
48.87468568284934
 20
-60.76056033363081
 30
0.0
 10
48.79048956426256
 20
-60.85912074486954
 30
0.0
 10
48.70489738698596
 20
-60.95786970691801
 30
0.0
 10
48.61902099711991
 20
-61.05656547428785
 30
0.0
 10
48.56191824490792
 20
-61.12262136420653
 30
0.0
 10
48.53350629835007
 20
-61.15576863519073
 30
0.0
 11
47.78611410631746
 21
-51.65000161432772
 31
0.0
 11
47.77739840273873
 21
-51.74883292869711
 31
0.0
 11
47.77985866900244
 21
-51.84803842726239
 31
0.0
 11
47.79310359865536
 21
-51.94790488812428
 31
0.0
 11
47.81588414911644
 21
-52.04607524019715
 31
0.0
 11
47.84852660737008
 21
-52.14645287568885
 31
0.0
 11
47.88866184712136
 21
-52.24411205313197
 31
0.0
 11
47.9378656670301
 21
-52.34458680722127
 31
0.0
 11
47.99266306347909
 21
-52.44214886606667
 31
0.0
 11
48.05547124475435
 21
-52.54245988152749
 31
0.0
 11
48.1222548303416
 21
-52.64018567900151
 31
0.0
 11
48.19550226462244
 21
-52.74019263164518
 31
0.0
 11
48.27138710662186
 21
-52.83822249193626
 31
0.0
 11
48.35187321037841
 21
-52.93787311062136
 31
0.0
 11
48.4339055829227
 21
-53.03625930487097
 31
0.0
 11
48.51848022593441
 21
-53.13553452966228
 31
0.0
 11
48.60365594984717
 21
-53.2342961178055
 31
0.0
 11
48.6892093836567
 21
-53.33318791150308
 31
0.0
 11
48.77446833019909
 21
-53.43233293074016
 31
0.0
 11
48.85790190331359
 21
-53.53084081273461
 31
0.0
 11
48.94011057558639
 21
-53.63036974367472
 31
0.0
 11
49.01835901582572
 21
-53.72850701097559
 31
0.0
 11
49.09433496981789
 21
-53.82840655660925
 31
0.0
 11
49.16438309948077
 21
-53.92621224343099
 31
0.0
 11
49.23089379670241
 21
-54.02644336954387
 31
0.0
 11
49.28991299208988
 21
-54.12411816725231
 31
0.0
 11
49.34421430007549
 21
-54.22448018247846
 31
0.0
 11
49.39066957950966
 21
-54.32225082783594
 31
0.0
 11
49.43142356387986
 21
-54.42251699541316
 31
0.0
 11
49.4642483258675
 21
-54.52053985921551
 31
0.0
 11
49.4903236320848
 21
-54.62055380834787
 31
0.0
 11
49.50838194464157
 21
-54.7190255176444
 31
0.0
 11
49.51871654865986
 21
-54.81859062128257
 31
0.0
 11
49.52085839368812
 21
-54.91767766488356
 31
0.0
 11
49.5150941826906
 21
-55.01662743421713
 31
0.0
 11
49.5015091678615
 21
-55.11626600627844
 31
0.0
 11
49.48070770372812
 21
-55.21466424715169
 31
0.0
 11
49.45226099170259
 21
-55.31468357952467
 31
0.0
 11
49.41749810643961
 21
-55.41270106008632
 31
0.0
 11
49.37513759438822
 21
-55.5129345888387
 31
0.0
 11
49.3274063854924
 21
-55.61073787302084
 31
0.0
 11
49.27244089901558
 21
-55.71083304921106
 31
0.0
 11
49.21369047765242
 21
-55.8087746859555
 31
0.0
 11
49.15018239530738
 21
-55.90837393177229
 31
0.0
 11
49.08487608808011
 21
-56.00681149889015
 31
0.0
 11
49.01786981427441
 21
-56.10584930927828
 31
0.0
 11
48.95080586403469
 21
-56.20484831182485
 31
0.0
 11
48.88522674436214
 21
-56.3033228764096
 31
0.0
 11
48.82132245277528
 21
-56.40288512475951
 31
0.0
 11
48.76196677468627
 21
-56.50086408541159
 31
0.0
 11
48.70621910198557
 21
-56.60092193769415
 31
0.0
 11
48.65767698639036
 21
-56.69858773384725
 31
0.0
 11
48.615091461047
 21
-56.79895875062868
 31
0.0
 11
48.58187281243317
 21
-56.89672126386884
 31
0.0
 11
48.5574857797656
 21
-56.99699556356325
 31
0.0
 11
48.54430558610612
 21
-57.09560964000818
 31
0.0
 11
48.54294830794737
 21
-57.19503237649789
 31
0.0
 11
48.55456194443437
 21
-57.29499603018595
 31
0.0
 11
48.57748291250723
 21
-57.39306918943251
 31
0.0
 11
48.61136341804652
 21
-57.49352165600686
 31
0.0
 11
48.65292392879601
 21
-57.59110600236724
 31
0.0
 11
48.70294829157296
 21
-57.69132264436843
 31
0.0
 11
48.75756330927345
 21
-57.78914281530188
 31
0.0
 11
48.81756730196517
 21
-57.88880981973353
 31
0.0
 11
48.87969300639923
 21
-57.98717962823653
 31
0.0
 11
48.94383167695463
 21
-58.08632232305598
 31
0.0
 11
49.00835476115579
 21
-58.18521644117109
 31
0.0
 11
49.07241916621254
 21
-58.28394901501164
 31
0.0
 11
49.13558946861615
 21
-58.38325325410571
 31
0.0
 11
49.19601950090186
 21
-58.48159832736421
 31
0.0
 11
49.25418781237624
 21
-58.58129006704027
 31
0.0
 11
49.30748695473301
 21
-58.67931853052517
 31
0.0
 11
49.35694047603161
 21
-58.77932687997489
 31
0.0
 11
49.3997838252601
 21
-58.87728609543057
 31
0.0
 11
49.43737978236459
 21
-58.97736369290953
 31
0.0
 11
49.46784945290673
 21
-59.0755186800894
 31
0.0
 11
49.49200461090303
 21
-59.17540050584412
 31
0.0
 11
49.5087027657111
 21
-59.27394272509818
 31
0.0
 11
49.51805548036137
 21
-59.3734373187789
 31
0.0
 11
49.51948624581246
 21
-59.47256830693039
 31
0.0
 11
49.51277290945379
 21
-59.57147413171354
 31
0.0
 11
49.49747905730465
 21
-59.67124574151707
 31
0.0
 11
49.4743267482481
 21
-59.76951094464816
 31
0.0
 11
49.4427871214675
 21
-59.86968899258584
 31
0.0
 11
49.40460417222475
 21
-59.96754775758269
 31
0.0
 11
49.35823096183469
 21
-60.06790546220864
 31
0.0
 11
49.30642168821758
 21
-60.1655845705172
 31
0.0
 11
49.24669131785242
 21
-60.26596141748139
 31
0.0
 11
49.18259580306036
 21
-60.36362138345186
 31
0.0
 11
49.11119818070885
 21
-60.46378792779886
 31
0.0
 11
49.03666674094225
 21
-60.5616581963865
 31
0.0
 11
48.95677953990127
 21
-60.66141711720429
 31
0.0
 11
48.87506959547383
 21
-60.75969500932115
 31
0.0
 11
48.79037259305665
 21
-60.85901828392156
 31
0.0
 11
48.70496317762114
 21
-60.95773182225596
 31
0.0
 11
48.61907477423855
 21
-61.05661221923369
 31
0.0
 11
48.53350629835007
 21
-61.15576863519073
 31
0.0
  0
LINE
  5
87B8
330
879D
100
AcDbEntity
  8
0
  6
CONTINUOUS
100
AcDbLine
 10
51.04901699999999
 20
-59.25000199999995
 30
0.0
 11
57.50002899999998
 21
-59.25000199999995
 31
0.0
  0
LINE
  5
87B9
330
879D
100
AcDbEntity
  8
0
  6
CONTINUOUS
100
AcDbLine
 10
37.50002899999997
 20
-59.25000199999995
 30
0.0
 11
49.54901699999999
 21
-59.25000199999995
 31
0.0
  0
LINE
  5
87BA
330
879D
100
AcDbEntity
  8
0
  6
CONTINUOUS
100
AcDbLine
 10
50.88051799999998
 20
-54.30000199999998
 30
0.0
 11
57.50002899999998
 21
-54.30000199999998
 31
0.0
  0
LINE
  5
87BB
330
879D
100
AcDbEntity
  8
0
  6
CONTINUOUS
100
AcDbLine
 10
49.60820999999999
 20
-52.65000199999997
 30
0.0
 11
57.50002899999998
 21
-52.65000199999997
 31
0.0
  0
LINE
  5
87BC
330
879D
100
AcDbEntity
  8
0
  6
CONTINUOUS
100
AcDbLine
 10
50.14314899999999
 20
-57.60000199999999
 30
0.0
 11
57.50002899999998
 21
-57.60000199999999
 31
0.0
  0
LINE
  5
87BD
330
879D
100
AcDbEntity
  8
0
  6
CONTINUOUS
100
AcDbLine
 10
50.62379400000001
 20
-55.95000199999998
 30
0.0
 11
57.50002899999998
 21
-55.95000199999998
 31
0.0
  0
LINE
  5
87BE
330
879D
100
AcDbEntity
  8
0
  6
CONTINUOUS
100
AcDbLine
 10
37.50002899999997
 20
-54.30000199999998
 30
0.0
 11
49.380518
 21
-54.30000199999998
 31
0.0
  0
LINE
  5
87BF
330
879D
100
AcDbEntity
  8
0
  6
CONTINUOUS
100
AcDbLine
 10
37.50002899999997
 20
-52.65000199999997
 30
0.0
 11
48.12923699999998
 21
-52.65000199999997
 31
0.0
  0
LINE
  5
87C0
330
879D
100
AcDbEntity
  8
0
  6
CONTINUOUS
100
AcDbLine
 10
37.50002899999997
 20
-55.95000199999998
 30
0.0
 11
49.123794
 21
-55.95000199999998
 31
0.0
  0
LINE
  5
87C1
330
879D
100
AcDbEntity
  8
0
  6
CONTINUOUS
100
AcDbLine
 10
37.50002899999997
 20
-57.60000199999999
 30
0.0
 11
48.643149
 21
-57.60000199999999
 31
0.0
  0
LINE
  5
87C2
330
879D
100
AcDbEntity
  8
0
  6
CONTINUOUS
100
AcDbLine
 10
57.50002899999998
 20
-56.97500199999999
 30
0.0
 11
62.50002899999998
 21
-56.97500199999999
 31
0.0
  0
LINE
  5
87C3
330
879D
100
AcDbEntity
  8
0
  6
CONTINUOUS
100
AcDbLine
 10
57.50002899999998
 20
-58.22500199999999
 30
0.0
 11
62.50002899999998
 21
-58.22500199999999
 31
0.0
  0
LINE
  5
87C4
330
879D
100
AcDbEntity
  8
0
  6
CONTINUOUS
100
AcDbLine
 10
57.50002899999998
 20
-58.42500199999998
 30
0.0
 11
62.50002899999998
 21
-58.42500199999998
 31
0.0
  0
LINE
  5
87C5
330
879D
100
AcDbEntity
  8
0
  6
CONTINUOUS
100
AcDbLine
 10
57.50002899999998
 20
-58.62500199999995
 30
0.0
 11
62.50002899999998
 21
-58.62500199999995
 31
0.0
  0
LINE
  5
87C6
330
879D
100
AcDbEntity
  8
0
  6
CONTINUOUS
100
AcDbLine
 10
57.50002899999998
 20
-53.27500199999997
 30
0.0
 11
62.50002899999998
 21
-53.27500199999997
 31
0.0
  0
LINE
  5
87C7
330
879D
100
AcDbEntity
  8
0
  6
CONTINUOUS
100
AcDbLine
 10
57.50002899999998
 20
-53.47500199999998
 30
0.0
 11
62.50002899999998
 21
-53.47500199999998
 31
0.0
  0
LINE
  5
87C8
330
879D
100
AcDbEntity
  8
0
  6
CONTINUOUS
100
AcDbLine
 10
57.50002899999998
 20
-53.67500199999998
 30
0.0
 11
62.50002899999998
 21
-53.67500199999998
 31
0.0
  0
LINE
  5
87C9
330
879D
100
AcDbEntity
  8
0
  6
CONTINUOUS
100
AcDbLine
 10
57.50002899999998
 20
-55.32500199999998
 30
0.0
 11
62.50002899999998
 21
-55.32500199999998
 31
0.0
  0
LINE
  5
87CA
330
879D
100
AcDbEntity
  8
0
  6
CONTINUOUS
100
AcDbLine
 10
57.50002899999998
 20
-55.12500199999998
 30
0.0
 11
62.50002899999998
 21
-55.12500199999998
 31
0.0
  0
LINE
  5
87CB
330
879D
100
AcDbEntity
  8
0
  6
CONTINUOUS
100
AcDbLine
 10
57.50002899999998
 20
-54.92500199999998
 30
0.0
 11
62.50002899999998
 21
-54.92500199999998
 31
0.0
  0
LINE
  5
87CC
330
879D
100
AcDbEntity
  8
0
  6
CONTINUOUS
100
AcDbLine
 10
57.50002899999998
 20
-56.57500199999998
 30
0.0
 11
62.50002899999998
 21
-56.57500199999998
 31
0.0
  0
LINE
  5
87CD
330
879D
100
AcDbEntity
  8
0
  6
CONTINUOUS
100
AcDbLine
 10
57.50002899999998
 20
-56.77500199999997
 30
0.0
 11
62.50002899999998
 21
-56.77500199999997
 31
0.0
  0
ENDBLK
  5
87CF
330
879D
100
AcDbEntity
  8
0
100
AcDbBlockEnd
  0
ENDSEC
  0
SECTION
  2
ENTITIES
  0
LINE
  5
B4
330
1E
100
AcDbEntity
  8
16
100
AcDbLine
 10
0.0
 20
-101.8246001220914
 30
0.0
 11
0.0
 21
105.6073578546832
 31
0.0
  0
LINE
  5
B5
330
1E
100
AcDbEntity
  8
16
100
AcDbLine
 10
71.77465564206305
 20
-0.0000000000000027
 30
0.0
 11
-83.90588178115756
 21
-0.0000000000000027
 31
0.0
  0
MTEXT
  5
BF3
330
1E
100
AcDbEntity
  8
24
  6
CONTINUOUS
100
AcDbMText
 10
140.9820964648283
 20
176.3476821548369
 30
0.0
 40
3.0
 41
0.0
 71
     1
 72
     1
  1
\A1;
1001
ACAD
1000
MTEXTBEGIN
1070
    73
1070
     1
1070
    44
1040
1.0
1070
    74
1070
     0
1000
MTEXTEND
1000
MTEXTBEGIN
1070
    73
1070
     1
1070
    44
1040
1.0
1070
    74
1070
     0
1000
MTEXTEND
  0
LINE
  5
1C9B
330
1E
100
AcDbEntity
  8
16
100
AcDbLine
 10
252.2681462467815
 20
0.0000000000000999
 30
0.0
 11
120.102898634612
 21
0.0000000000000999
 31
0.0
  0
LINE
  5
2260
330
1E
100
AcDbEntity
  8
16
100
AcDbLine
 10
68.52380301423583
 20
-250.8473940210349
 30
0.0
 11
-80.93000773675209
 21
-250.8473940210349
 31
0.0
  0
LINE
  5
2261
330
1E
100
AcDbEntity
  8
16
100
AcDbLine
 10
-0.3800945351711884
 20
-348.5993337838806
 30
0.0
 11
-0.3800945351711884
 21
-149.4639948115489
 31
0.0
  0
MTEXT
  5
5C78
330
1E
100
AcDbEntity
  8
30
  6
CONTINUOUS
100
AcDbMText
 10
162.3297648581359
 20
88.99793930010117
 30
0.0
 40
4.0
 41
0.0
 71
     9
 72
     1
  1

1001
ACAD
1000
MTEXTBEGIN
1070
    73
1070
     1
1070
    44
1040
1.0
1070
    74
1070
     0
1000
MTEXTEND
1000
MTEXTBEGIN
1070
    73
1070
     1
1070
    44
1040
1.0
1070
    74
1070
     0
1000
MTEXTEND
  0
LINE
  5
6173
330
1E
100
AcDbEntity
  8
16
100
AcDbLine
 10
170.2029347948343
 20
-348.5993337838806
 30
0.0
 11
170.2029347948343
 21
-149.4639948115489
 31
0.0
  0
LINE
  5
6177
330
1E
100
AcDbEntity
  8
16
100
AcDbLine
 10
239.1068323442413
 20
-250.8473940210349
 30
0.0
 11
89.65302159325338
 21
-250.8473940210349
 31
0.0
  0
MTEXT
  5
6200
330
1E
100
AcDbEntity
  8
30
  6
CONTINUOUS
100
AcDbMText
 10
160.6290066227675
 20
91.2377397662035
 30
0.0
 40
4.0
 41
0.0
 71
     9
 72
     1
  1

1001
ACAD
1000
MTEXTBEGIN
1070
    73
1070
     1
1070
    44
1040
1.0
1070
    74
1070
     0
1000
MTEXTEND
1000
MTEXTBEGIN
1070
    73
1070
     1
1070
    44
1040
1.0
1070
    74
1070
     0
1000
MTEXTEND
  0
TEXT
  5
7337
330
1E
100
AcDbEntity
  8
0
  6
CONTINUOUS
100
AcDbText
 10
150.2736027495826
 20
186.6773592415844
 30
0.0
 40
5.0
  1
ZAE100-NF 3P FC
  7
SMP-SET
100
AcDbText
  0
LINE
  5
794D
330
1E
100
AcDbEntity
  8
30
  6
CONTINUOUS
100
AcDbLine
 10
-12.88010953517138
 20
-189.8474539213219
 30
0.0
 11
9.685634252276107
 21
-162.9546476930712
 31
0.0
  0
LINE
  5
7950
330
1E
100
AcDbEntity
  8
12
  6
CONTINUOUS
 62
     3
100
AcDbLine
 10
3.666357286236318
 20
-307.8473350210348
 30
0.0
 11
19.71220638073281
 21
-307.8473350210348
 31
0.0
  0
DIMENSION
  5
7952
330
1E
100
AcDbEntity
  8
30
  6
CONTINUOUS
100
AcDbDimension
  2
*D2
 10
12.11990577643121
 20
-327.9706243182528
 30
0.0
 11
-0.3800945351713414
 21
-324.9706243182528
 31
0.0
 70
    32
  1
25
  3
STANDARD
100
AcDbAlignedDimension
 13
-12.88009484677388
 23
-198.2473866810794
 33
0.0
 14
12.11990577643121
 24
-315.5973940210349
 34
0.0
100
AcDbRotatedDimension
1001
ACAD
1000
DSTYLE
1002
{
1070
    79
1070
     3
1002
}
  0
DIMENSION
  5
7953
330
1E
100
AcDbEntity
  8
30
  6
CONTINUOUS
100
AcDbDimension
  2
*D3
 10
57.00154676373614
 20
-307.8473350210348
 30
0.0
 11
54.00154676373619
 21
-250.8473945210348
 31
0.0
 70
    32
  3
STANDARD
100
AcDbAlignedDimension
 13
-4.653790970728983
 23
-193.8474540210348
 33
0.0
 14
12.11990577643121
 24
-307.8473350210348
 34
0.0
 50
90.0
100
AcDbRotatedDimension
1001
ACAD
1000
DSTYLE
1002
{
1070
    79
1070
     3
1002
}
  0
CIRCLE
  5
7956
330
1E
100
AcDbEntity
  8
12
  6
CONTINUOUS
 62
     3
100
AcDbCircle
 10
-12.88010953517138
 20
-193.8474540210348
 30
0.0
 40
4.000000099712798
  0
CIRCLE
  5
7957
330
1E
100
AcDbEntity
  8
12
  6
CONTINUOUS
 62
     3
100
AcDbCircle
 10
-12.88010953517138
 20
-193.8474540210348
 30
0.0
 40
2.500000062320419
  0
LINE
  5
7958
330
1E
100
AcDbEntity
  8
12
  6
CONTINUOUS
 62
     3
100
AcDbLine
 10
-20.75556544911268
 20
-193.8474540210348
 30
0.0
 11
-4.653790970728985
 21
-193.8474540210348
 31
0.0
  0
LINE
  5
7959
330
1E
100
AcDbEntity
  8
12
  6
CONTINUOUS
 62
     3
100
AcDbLine
 10
-12.88009484677388
 20
-198.2473866810794
 30
0.0
 11
-12.88009484677388
 21
-216.3970984263773
 31
0.0
  0
LINE
  5
795A
330
1E
100
AcDbEntity
  8
30
  6
CONTINUOUS
100
AcDbLine
 10
-12.88010953517138
 20
-189.8474539213219
 30
0.0
 11
-8.639866546550116
 21
-186.8784038025149
 31
0.0
  0
LINE
  5
795B
330
1E
100
AcDbEntity
  8
30
  6
CONTINUOUS
100
AcDbLine
 10
-12.88010953517138
 20
-189.8474539213219
 30
0.0
 11
-10.69247642692742
 21
-185.1560596089395
 31
0.0
  0
LINE
  5
795D
330
1E
100
AcDbEntity
  8
12
  6
CONTINUOUS
 62
     3
100
AcDbLine
 10
12.11990577643121
 20
-298.647337843453
 30
0.0
 11
12.11990577643121
 21
-318.2967704654928
 31
0.0
  0
CIRCLE
  5
795E
330
1E
100
AcDbEntity
  8
12
  6
CONTINUOUS
 62
     3
100
AcDbCircle
 10
12.11990577643115
 20
-307.8473350210348
 30
0.0
 40
4.000000099712798
  0
CIRCLE
  5
795F
330
1E
100
AcDbEntity
  8
12
  6
CONTINUOUS
 62
     3
100
AcDbCircle
 10
12.11990577643115
 20
-307.8473350210348
 30
0.0
 40
2.5000000623206
  0
TEXT
  5
7960
330
1E
100
AcDbEntity
  8
30
  6
CONTINUOUS
100
AcDbText
 10
11.396316662384
 20
-161.4546476930712
 30
0.0
 40
5.0
  1
M4 or %%c5
  7
MOJI
100
AcDbText
  0
LINE
  5
7961
330
1E
100
AcDbEntity
  8
30
  6
CONTINUOUS
100
AcDbLine
 10
9.685634252276107
 20
-162.9546476930712
 30
0.0
 11
50.97610162980711
 21
-162.9546476930712
 31
0.0
  0
LINE
  5
7C1D
330
1E
100
AcDbEntity
  8
0
100
AcDbLine
 10
180.9678978239823
 20
160.8663033992098
 30
0.0
 11
183.9731016389823
 21
163.8715072142097
 31
0.0
  0
LINE
  5
7C1E
330
1E
100
AcDbEntity
  8
0
100
AcDbLine
 10
180.6374838852093
 20
152.5663031997836
 30
0.0
 11
210.6374846330552
 21
152.5663031997836
 31
0.0
  0
LINE
  5
7C1F
330
1E
100
AcDbEntity
  8
0
100
AcDbLine
 10
174.1374838353533
 20
160.8663033992098
 30
0.0
 11
196.4374720720434
 21
160.8663033992098
 31
0.0
  0
LINE
  5
7C20
330
1E
100
AcDbEntity
  8
0
100
AcDbLine
 10
181.1374840098505
 20
144.5663030003586
 30
0.0
 11
218.9374727451053
 21
144.5663030003586
 31
0.0
  0
LINE
  5
7C29
330
1E
100
AcDbEntity
  8
0
100
AcDbLine
 10
144.340458880247
 20
160.8663033992098
 30
0.0
 11
147.3456626952473
 21
163.8715072142097
 31
0.0
  0
LINE
  5
7C2A
330
1E
100
AcDbEntity
  8
0
100
AcDbLine
 10
134.2232697767884
 20
160.8663033992098
 30
0.0
 11
151.2232697767883
 21
160.8663033992098
 31
0.0
  0
CIRCLE
  5
7C2B
330
1E
100
AcDbEntity
  8
0
100
AcDbCircle
 10
142.7232697767884
 20
152.5663031997836
 30
0.0
 40
4.75000011840899
  0
LINE
  5
7C2C
330
1E
100
AcDbEntity
  8
0
100
AcDbLine
 10
135.4303763573634
 20
152.5663031997836
 30
0.0
 11
149.9506686215172
 21
152.5663031997836
 31
0.0
  0
LINE
  5
7C2D
330
1E
100
AcDbEntity
  8
0
100
AcDbLine
 10
139.3645050446234
 20
149.2075384676188
 30
0.0
 11
146.0820345089542
 21
155.9250679319498
 31
0.0
  0
LINE
  5
7C2E
330
1E
100
AcDbEntity
  8
0
100
AcDbLine
 10
127.430376157937
 20
144.5663030003586
 30
0.0
 11
155.4303768559273
 21
144.5663030003586
 31
0.0
  0
CIRCLE
  5
7C2F
330
1E
100
AcDbEntity
  8
0
100
AcDbCircle
 10
142.7232697767884
 20
152.5663031997836
 30
0.0
 40
5.500061172262999
  0
LINE
  5
7C30
330
1E
100
AcDbEntity
  8
0
100
AcDbLine
 10
131.2232697020043
 20
148.2849005051658
 30
0.0
 11
134.2232697767884
 21
151.2849005799508
 31
0.0
  0
LINE
  5
7C31
330
1E
100
AcDbEntity
  8
0
100
AcDbLine
 10
142.7232697767884
 20
159.9662972807366
 30
0.0
 11
142.7232697767884
 21
144.9662969068136
 31
0.0
  0
LINE
  5
7C32
330
1E
100
AcDbEntity
  8
0
100
AcDbLine
 10
134.2232697767884
 20
160.8663033992098
 30
0.0
 11
134.2232697767884
 21
144.5663030003586
 31
0.0
  0
LINE
  5
7C33
330
1E
100
AcDbEntity
  8
0
100
AcDbLine
 10
130.3331024434854
 20
144.5663030003586
 30
0.0
 11
134.2232697767884
 21
148.4564703336618
 31
0.0
  0
LINE
  5
7C34
330
1E
100
AcDbEntity
  8
0
100
AcDbLine
 10
131.3404585561803
 20
147.5663030751428
 30
0.0
 11
128.3404737401853
 21
144.5663030003586
 31
0.0
  0
LINE
  5
7C35
330
1E
100
AcDbEntity
  8
0
100
AcDbLine
 10
133.1615326897743
 20
144.5663030003586
 30
0.0
 11
134.2232697767884
 21
145.6280400873728
 31
0.0
  0
LINE
  5
7C36
330
1E
100
AcDbEntity
  8
0
100
AcDbLine
 10
138.8603719563802
 20
163.8715072142097
 30
0.0
 11
135.8551681413803
 21
160.8663033992098
 31
0.0
  0
LINE
  5
7C37
330
1E
100
AcDbEntity
  8
0
100
AcDbLine
 10
135.1961554258924
 20
163.8715072142097
 30
0.0
 11
131.2232697020043
 21
159.8986214903217
 31
0.0
  0
LINE
  5
7C38
330
1E
100
AcDbEntity
  8
0
100
AcDbLine
 10
131.2232697020043
 20
151.1133307514547
 30
0.0
 11
134.2232697767884
 21
154.1133308262398
 31
0.0
  0
LINE
  5
7C39
330
1E
100
AcDbEntity
  8
0
100
AcDbLine
 10
134.2232697767884
 20
156.9417610725288
 30
0.0
 11
131.2232697020043
 21
153.9417915153226
 31
0.0
  0
LINE
  5
7C3A
330
1E
100
AcDbEntity
  8
0
100
AcDbLine
 10
134.2232697767892
 20
159.7701913188168
 30
0.0
 11
131.2232697020043
 21
156.7701912440328
 31
0.0
  0
LINE
  5
7C3B
330
1E
100
AcDbEntity
  8
0
100
AcDbLine
 10
140.4732697207002
 20
154.8163032558727
 30
0.0
 11
144.8482698297613
 21
150.4413031468117
 31
0.0
  0
LINE
  5
7C3C
330
1E
100
AcDbEntity
  8
0
100
AcDbLine
 10
141.6888022026693
 20
163.8715072142097
 30
0.0
 11
138.6835983876694
 21
160.8663033992098
 31
0.0
  0
LINE
  5
7C3D
330
1E
100
AcDbEntity
  8
0
100
AcDbLine
 10
141.5120655050843
 20
160.8663033992098
 30
0.0
 11
144.5172998909093
 21
163.8715072142097
 31
0.0
  0
LINE
  5
7C3F
330
1E
100
AcDbEntity
  8
0
100
AcDbLine
 10
151.2232697767883
 20
149.6427496601088
 30
0.0
 11
154.2232698515733
 21
152.6427497348927
 31
0.0
  0
LINE
  5
7C40
330
1E
100
AcDbEntity
  8
0
100
AcDbLine
 10
151.2232697767883
 20
160.8663033992098
 30
0.0
 11
151.2232697767883
 21
144.5663030003586
 31
0.0
  0
LINE
  5
7C41
330
1E
100
AcDbEntity
  8
0
100
AcDbLine
 10
151.8036836096173
 20
144.5663030003586
 30
0.0
 11
154.803668425612
 21
147.5663030751428
 31
0.0
  0
LINE
  5
7C42
330
1E
100
AcDbEntity
  8
0
100
AcDbLine
 10
151.2232697767883
 20
146.8143194138197
 30
0.0
 11
154.2232698515733
 21
149.8143194886038
 31
0.0
  0
LINE
  5
7C43
330
1E
100
AcDbEntity
  8
0
100
AcDbLine
 10
154.2284735917883
 20
161.1332442139748
 30
0.0
 11
151.2232697767883
 21
158.1280403989747
 31
0.0
  0
LINE
  5
7C44
330
1E
100
AcDbEntity
  8
0
100
AcDbLine
 10
151.2232697767883
 20
152.4711799063966
 30
0.0
 11
154.2232698515733
 21
155.4711799811816
 31
0.0
  0
LINE
  5
7C45
330
1E
100
AcDbEntity
  8
0
100
AcDbLine
 10
151.2232697767883
 20
155.2996101526856
 30
0.0
 11
154.2232698515733
 21
158.2996102274708
 31
0.0
  0
LINE
  5
7C46
330
1E
100
AcDbEntity
  8
0
100
AcDbLine
 10
147.1688891265353
 20
160.8663033992098
 30
0.0
 11
150.1740929415351
 21
163.8715072142097
 31
0.0
  0
LINE
  5
7C47
330
1E
100
AcDbEntity
  8
0
100
AcDbLine
 10
153.0025200615353
 20
163.8715072142097
 30
0.0
 11
149.9973162465354
 21
160.8663033992098
 31
0.0
  0
LINE
  5
7C48
330
1E
100
AcDbEntity
  8
0
100
AcDbLine
 10
175.3110373314043
 20
160.8663033992098
 30
0.0
 11
178.3162411464043
 21
163.8715072142097
 31
0.0
  0
LINE
  5
7C49
330
1E
100
AcDbEntity
  8
0
100
AcDbLine
 10
178.1394675776931
 20
160.8663033992098
 30
0.0
 11
181.1446713926933
 21
163.8715072142097
 31
0.0
  0
TEXT
  5
7C4F
330
1E
100
AcDbEntity
  8
30
  6
CONTINUOUS
100
AcDbText
 10
211.5212023668698
 20
168.5346411246783
 30
0.0
 40
5.0
  1
M8×15
  7
MOJI
100
AcDbText
  0
LINE
  5
7C52
330
1E
100
AcDbEntity
  8
0
100
AcDbLine
 10
218.9374727451053
 20
161.7662851185768
 30
0.0
 11
215.9374726703205
 21
158.7662850437918
 31
0.0
  0
LINE
  5
7C53
330
1E
100
AcDbEntity
  8
0
100
AcDbLine
 10
218.9374727451053
 20
148.7809943797096
 30
0.0
 11
214.722781365754
 21
144.5663030003586
 31
0.0
  0
LINE
  5
7C54
330
1E
100
AcDbEntity
  8
0
100
AcDbLine
 10
215.9374726703205
 20
150.2809943049248
 30
0.0
 11
218.9374727451053
 21
153.2809943797098
 31
0.0
  0
LINE
  5
7C55
330
1E
100
AcDbEntity
  8
0
100
AcDbLine
 10
215.9374726703205
 20
153.1094245512138
 30
0.0
 11
218.9374727451053
 21
156.1094246259988
 31
0.0
  0
LINE
  5
7C56
330
1E
100
AcDbEntity
  8
0
100
AcDbLine
 10
215.9374726703205
 20
155.9378547975027
 30
0.0
 11
218.9374727451053
 21
158.9378548722876
 31
0.0
  0
LINE
  5
7C57
330
1E
100
AcDbEntity
  8
0
100
AcDbLine
 10
206.4374723213254
 20
157.0663033119608
 30
0.0
 11
206.4374723213254
 21
148.0663030876066
 31
0.0
  0
LINE
  5
7C58
330
1E
100
AcDbEntity
  8
0
100
AcDbLine
 10
203.937472259005
 20
155.5663032745687
 30
0.0
 11
203.937472259005
 21
149.5663031249998
 31
0.0
  0
LINE
  5
7C59
330
1E
100
AcDbEntity
  8
0
100
AcDbLine
 10
209.4374723961103
 20
150.5947150158708
 30
0.0
 11
203.4090603805984
 21
144.5663030003586
 31
0.0
  0
LINE
  5
7C5A
330
1E
100
AcDbEntity
  8
0
100
AcDbLine
 10
194.9374720346513
 20
160.8663033992098
 30
0.0
 11
194.9374720346513
 21
145.5056428802146
 31
0.0
  0
LINE
  5
7C5B
330
1E
100
AcDbEntity
  8
0
100
AcDbLine
 10
196.4374720720434
 20
160.8663033992098
 30
0.0
 11
196.4374720720434
 21
144.5663030003586
 31
0.0
  0
LINE
  5
7C5C
330
1E
100
AcDbEntity
  8
0
100
AcDbLine
 10
186.4374718227612
 20
155.3163032683368
 30
0.0
 11
186.4374718227612
 21
149.8163031312317
 31
0.0
  0
LINE
  5
7C5D
330
1E
100
AcDbEntity
  8
0
100
AcDbLine
 10
190.4374719224741
 20
157.3163033181927
 30
0.0
 11
190.4374719224741
 21
147.8163030813748
 31
0.0
  0
LINE
  5
7C5E
330
1E
100
AcDbEntity
  8
0
100
AcDbLine
 10
193.4374719972591
 20
158.0663033368888
 30
0.0
 11
193.4374719972591
 21
147.0663030626786
 31
0.0
  0
LINE
  5
7C5F
330
1E
100
AcDbEntity
  8
0
100
AcDbLine
 10
191.6309545406613
 20
158.0663033368888
 30
0.0
 11
191.6309545406613
 21
147.0663030626786
 31
0.0
  0
LINE
  5
7C60
330
1E
100
AcDbEntity
  8
0
100
AcDbLine
 10
196.4374720720434
 20
149.5663031249998
 30
0.0
 11
203.937472259005
 21
149.5663031249998
 31
0.0
  0
LINE
  5
7C61
330
1E
100
AcDbEntity
  8
0
100
AcDbLine
 10
196.4374720720434
 20
148.0663030876066
 30
0.0
 11
206.4374723213254
 21
148.0663030876066
 31
0.0
  0
LINE
  5
7C62
330
1E
100
AcDbEntity
  8
0
100
AcDbLine
 10
201.2521999752693
 20
148.0663030876066
 30
0.0
 11
197.7521998880203
 21
144.5663030003586
 31
0.0
  0
LINE
  5
7C63
330
1E
100
AcDbEntity
  8
0
100
AcDbLine
 10
188.4374718726181
 20
147.8163030813748
 30
0.0
 11
191.6309545406613
 21
147.8163030813748
 31
0.0
  0
ARC
  5
7C64
330
1E
100
AcDbEntity
  8
0
100
AcDbCircle
 10
188.4374718726181
 20
149.8163031312317
 30
0.0
 40
2.00000004985734
100
AcDbArc
 50
180.0
 51
270.0
  0
LINE
  5
7C65
330
1E
100
AcDbEntity
  8
0
100
AcDbLine
 10
194.9374720346513
 20
145.5056428802146
 30
0.0
 11
196.4374720720434
 21
145.5056428802146
 31
0.0
  0
LINE
  5
7C66
330
1E
100
AcDbEntity
  8
0
100
AcDbLine
 10
191.6309545406613
 20
147.0663030626786
 30
0.0
 11
193.4374719972591
 21
147.0663030626786
 31
0.0
  0
LINE
  5
7C67
330
1E
100
AcDbEntity
  8
0
100
AcDbLine
 10
193.4374719972591
 20
149.5663031249998
 30
0.0
 11
194.9374720346513
 21
149.5663031249998
 31
0.0
  0
LINE
  5
7C68
330
1E
100
AcDbEntity
  8
0
100
AcDbLine
 10
198.4237697289804
 20
148.0663030876066
 30
0.0
 11
196.4374720720434
 21
146.0800054306706
 31
0.0
  0
LINE
  5
7C69
330
1E
100
AcDbEntity
  8
0
100
AcDbLine
 10
212.0659209479613
 20
147.5663030751428
 30
0.0
 11
209.0659208731763
 21
144.5663030003586
 31
0.0
  0
LINE
  5
7C6A
330
1E
100
AcDbEntity
  8
0
100
AcDbLine
 10
204.0806302215583
 20
148.0663030876066
 30
0.0
 11
200.5806301343092
 21
144.5663030003586
 31
0.0
  0
LINE
  5
7C6B
330
1E
100
AcDbEntity
  8
0
100
AcDbLine
 10
209.4374723961103
 20
147.7662847695818
 30
0.0
 11
206.237490626887
 21
144.5663030003586
 31
0.0
  0
LINE
  5
7C6C
330
1E
100
AcDbEntity
  8
0
100
AcDbLine
 10
214.8943511942493
 20
147.5663030751428
 30
0.0
 11
211.8943511194653
 21
144.5663030003586
 31
0.0
  0
LINE
  5
7C6D
330
1E
100
AcDbEntity
  8
30
  6
CONTINUOUS
100
AcDbLine
 10
200.1874650543437
 20
155.5663308729903
 30
0.0
 11
202.3750981625875
 21
160.257725185373
 31
0.0
  0
LINE
  5
7C6E
330
1E
100
AcDbEntity
  8
30
  6
CONTINUOUS
100
AcDbLine
 10
200.1874650543437
 20
155.5663308729903
 30
0.0
 11
204.4277080429648
 21
158.5353809917974
 31
0.0
  0
LINE
  5
7C6F
330
1E
100
AcDbEntity
  8
30
  6
CONTINUOUS
100
AcDbLine
 10
200.1874650543437
 20
155.5663308729903
 30
0.0
 11
209.8105199567619
 21
167.0346411246784
 31
0.0
  0
LINE
  5
7C70
330
1E
100
AcDbEntity
  8
0
100
AcDbLine
 10
196.4374720720434
 20
150.2663000906918
 30
0.0
 11
203.937472259005
 21
150.2663000906918
 31
0.0
  0
LINE
  5
7C71
330
1E
100
AcDbEntity
  8
0
100
AcDbLine
 10
196.4374720720434
 20
154.8663063088767
 30
0.0
 11
203.937472259005
 21
154.8663063088767
 31
0.0
  0
LINE
  5
7C72
330
1E
100
AcDbEntity
  8
0
100
AcDbLine
 10
196.4374720720434
 20
155.5663032745687
 30
0.0
 11
203.937472259005
 21
155.5663032745687
 31
0.0
  0
LINE
  5
7C73
330
1E
100
AcDbEntity
  8
0
100
AcDbLine
 10
196.4374720720434
 20
157.0663033119608
 30
0.0
 11
206.4374723213254
 21
157.0663033119608
 31
0.0
  0
LINE
  5
7C74
330
1E
100
AcDbEntity
  8
0
100
AcDbLine
 10
201.9384792892524
 20
160.0663033867457
 30
0.0
 11
198.9384792144673
 21
157.0663033119608
 31
0.0
  0
LINE
  5
7C75
330
1E
100
AcDbEntity
  8
0
100
AcDbLine
 10
192.4583923778493
 20
163.8715072142097
 30
0.0
 11
189.4531885628493
 21
160.8663033992098
 31
0.0
  0
LINE
  5
7C76
330
1E
100
AcDbEntity
  8
0
100
AcDbLine
 10
190.4374719224741
 20
151.7164447096288
 30
0.0
 11
191.6309545406613
 21
152.4292190510458
 31
0.0
  0
LINE
  5
7C77
330
1E
100
AcDbEntity
  8
0
100
AcDbLine
 10
190.4374719224741
 20
152.5400569904268
 30
0.0
 11
191.6309545406613
 21
153.2528313318447
 31
0.0
  0
LINE
  5
7C78
330
1E
100
AcDbEntity
  8
0
100
AcDbLine
 10
188.4374718726181
 20
157.3163033181927
 30
0.0
 11
191.6309545406613
 21
157.3163033181927
 31
0.0
  0
ARC
  5
7C79
330
1E
100
AcDbEntity
  8
0
100
AcDbCircle
 10
188.4374718726181
 20
155.3163032683368
 30
0.0
 40
2.000000049855997
100
AcDbArc
 50
90.0
 51
180.0
  0
LINE
  5
7C7A
330
1E
100
AcDbEntity
  8
0
100
AcDbLine
 10
183.7963280702713
 20
160.8663033992098
 30
0.0
 11
186.8015318852711
 21
163.8715072142097
 31
0.0
  0
LINE
  5
7C7B
330
1E
100
AcDbEntity
  8
0
100
AcDbLine
 10
186.6247583165601
 20
160.8663033992098
 30
0.0
 11
189.6299621315604
 21
163.8715072142097
 31
0.0
  0
LINE
  5
7C7C
330
1E
100
AcDbEntity
  8
0
100
AcDbLine
 10
191.6309545406613
 20
158.0663033368888
 30
0.0
 11
193.4374719972591
 21
158.0663033368888
 31
0.0
  0
LINE
  5
7C7D
330
1E
100
AcDbEntity
  8
0
100
AcDbLine
 10
193.4374719972591
 20
150.2663000906918
 30
0.0
 11
194.9374720346513
 21
150.2663000906918
 31
0.0
  0
LINE
  5
7C7E
330
1E
100
AcDbEntity
  8
0
100
AcDbLine
 10
193.4374719972591
 20
154.8663063088767
 30
0.0
 11
194.9374720346513
 21
154.8663063088767
 31
0.0
  0
LINE
  5
7C7F
330
1E
100
AcDbEntity
  8
0
100
AcDbLine
 10
193.4374719972591
 20
155.5663032745687
 30
0.0
 11
194.9374720346513
 21
155.5663032745687
 31
0.0
  0
LINE
  5
7C80
330
1E
100
AcDbEntity
  8
0
100
AcDbLine
 10
199.1100490429631
 20
160.0663033867457
 30
0.0
 11
196.4374720720434
 21
157.3937264158268
 31
0.0
  0
LINE
  5
7C81
330
1E
100
AcDbEntity
  8
0
100
AcDbLine
 10
199.4426758870432
 20
163.2273604771147
 30
0.0
 11
196.4374720720434
 21
160.2221566621146
 31
0.0
  0
LINE
  5
7C82
330
1E
100
AcDbEntity
  8
0
100
AcDbLine
 10
207.5953397818302
 20
160.0663033867457
 30
0.0
 11
204.5953397070451
 21
157.0663033119608
 31
0.0
  0
LINE
  5
7C83
330
1E
100
AcDbEntity
  8
0
100
AcDbLine
 10
204.7669095355413
 20
160.0663033867457
 30
0.0
 11
201.7669094607564
 21
157.0663033119608
 31
0.0
  0
LINE
  5
7C84
330
1E
100
AcDbEntity
  8
0
100
AcDbLine
 10
206.4374723213254
 20
150.4231451873748
 30
0.0
 11
209.4374723961103
 21
153.4231452621585
 31
0.0
  0
LINE
  5
7C85
330
1E
100
AcDbEntity
  8
0
100
AcDbLine
 10
206.4374723213254
 20
153.2515754336636
 30
0.0
 11
209.4374723961103
 21
156.2515755084476
 31
0.0
  0
LINE
  5
7C86
330
1E
100
AcDbEntity
  8
0
100
AcDbLine
 10
206.4374723213254
 20
156.0800056799526
 30
0.0
 11
209.4374723961103
 21
159.0800057547368
 31
0.0
  0
LINE
  5
7C87
330
1E
100
AcDbEntity
  8
0
100
AcDbLine
 10
218.9374727451053
 20
144.5663030003586
 30
0.0
 11
218.9374727451053
 21
162.9662973555216
 31
0.0
  0
LINE
  5
804A
330
1E
100
AcDbEntity
  8
10
  6
CONTINOUS
100
AcDbLine
 10
35.99994000000001
 20
38.99997000000002
 30
0.0
 11
35.99994000000001
 21
-9.000030999999976
 31
0.0
  0
LINE
  5
804B
330
1E
100
AcDbEntity
  8
10
  6
CONTINOUS
100
AcDbLine
 10
37.49994
 20
61.250001
 30
0.0
 11
37.49994
 21
-28.81197299999996
 31
0.0
  0
LINE
  5
804C
330
1E
100
AcDbEntity
  8
10
  6
CONTINOUS
100
AcDbLine
 10
10.99993899999998
 20
39.64641600000003
 30
0.0
 11
10.99993899999998
 21
-9.646478
 31
0.0
  0
LINE
  5
804D
330
1E
100
AcDbEntity
  8
10
  6
CONTINOUS
100
AcDbLine
 10
-37.50004600000001
 20
61.250001
 30
0.0
 11
-37.50004600000001
 21
-28.81197299999996
 31
0.0
  0
LINE
  5
804E
330
1E
100
AcDbEntity
  8
10
  6
CONTINOUS
100
AcDbLine
 10
-11.000046
 20
39.64641600000003
 30
0.0
 11
-11.000046
 21
-9.646478
 31
0.0
  0
LINE
  5
804F
330
1E
100
AcDbEntity
  8
10
  6
CONTINOUS
100
AcDbLine
 10
-36.000031
 20
38.99997000000002
 30
0.0
 11
-36.000031
 21
-9.000030999999976
 31
0.0
  0
LINE
  5
8050
330
1E
100
AcDbEntity
  8
10
  6
CONTINOUS
100
AcDbLine
 10
-8.000099000000004
 20
-65.25000199999985
 30
0.0
 11
7.999900999999994
 21
-65.25000199999985
 31
0.0
  0
LINE
  5
8051
330
1E
100
AcDbEntity
  8
10
  6
CONTINOUS
100
AcDbLine
 10
-6.299987000000001
 20
-19.80000199999993
 30
0.0
 11
6.300012999999991
 21
-19.80000199999993
 31
0.0
  0
LINE
  5
8052
330
1E
100
AcDbEntity
  8
24
  6
CONTINOUS
100
AcDbLine
 10
6.499900999999994
 20
-49.50000199999984
 30
0.0
 11
-6.500099000000004
 21
-49.50000199999984
 31
0.0
  0
LINE
  5
8053
330
1E
100
AcDbEntity
  8
24
  6
CONTINOUS
100
AcDbLine
 10
-6.074996999999996
 20
-57.00000099999988
 30
0.0
 11
6.074997000000009
 21
-57.00000099999988
 31
0.0
  0
LINE
  5
8054
330
1E
100
AcDbEntity
  8
10
  6
CONTINOUS
100
AcDbLine
 10
-35.000031
 20
-10.00003200000002
 30
0.0
 11
34.99994
 21
-10.00003200000002
 31
0.0
  0
LINE
  5
8055
330
1E
100
AcDbEntity
  8
10
  6
CONTINOUS
100
AcDbLine
 10
7.499938999999981
 20
-18.70000899999996
 30
0.0
 11
-7.500061000000016
 21
-18.70000899999996
 31
0.0
  0
ARC
  5
8056
330
1E
100
AcDbEntity
  8
10
  6
CONTINOUS
100
AcDbCircle
 10
-35.000031
 20
-9.000030999999976
 30
0.0
 40
1.0
100
AcDbArc
 50
179.999996999999
 51
270.0
  0
LINE
  5
8057
330
1E
100
AcDbEntity
  8
10
  6
CONTINOUS
100
AcDbLine
 10
-37.49995700000001
 20
-28.81197299999996
 30
0.0
 11
-34.99992200000001
 21
-28.81197299999996
 31
0.0
  0
LINE
  5
8058
330
1E
100
AcDbEntity
  8
10
  6
CONTINOUS
100
AcDbLine
 10
-37.000068
 20
-52.90003399999982
 30
0.0
 11
-33.000068
 21
-52.90003399999982
 31
0.0
  0
LINE
  5
8059
330
1E
100
AcDbEntity
  8
10
  6
CONTINOUS
100
AcDbLine
 10
-33.000068
 20
-65.25000199999985
 30
0.0
 11
-35.200007
 21
-65.25000199999985
 31
0.0
  0
LINE
  5
805A
330
1E
100
AcDbEntity
  8
10
  6
CONTINOUS
100
AcDbLine
 10
-32.50006799999999
 20
-62.45000199999987
 30
0.0
 11
-35.700007
 21
-62.45000199999987
 31
0.0
  0
LINE
  5
805B
330
1E
100
AcDbEntity
  8
10
  6
CONTINOUS
100
AcDbLine
 10
-32.500062
 20
-22.90003299999999
 30
0.0
 11
-37.50004600000001
 21
-22.90003299999999
 31
0.0
  0
LINE
  5
805C
330
1E
100
AcDbEntity
  8
10
  6
CONTINOUS
100
AcDbLine
 10
-37.49995700000001
 20
-28.81197299999996
 30
0.0
 11
-37.499957
 21
-61.25000199999984
 31
0.0
  0
LINE
  5
805D
330
1E
100
AcDbEntity
  8
10
  6
CONTINOUS
100
AcDbLine
 10
-35.700007
 20
-62.25000199999985
 30
0.0
 11
-35.700007
 21
-64.75000199999985
 31
0.0
  0
ARC
  5
805E
330
1E
100
AcDbEntity
  8
10
  6
CONTINOUS
100
AcDbCircle
 10
-35.200007
 20
-64.75000199999985
 30
0.0
 40
0.5
100
AcDbArc
 50
180.0
 51
270.0
  0
ARC
  5
805F
330
1E
100
AcDbEntity
  8
10
  6
CONTINOUS
100
AcDbCircle
 10
-37.000068
 20
-61.25000199999984
 30
0.0
 40
0.5
100
AcDbArc
 50
180.0
 51
270.0
  0
LINE
  5
8060
330
1E
100
AcDbEntity
  8
10
  6
CONTINOUS
100
AcDbLine
 10
-36.200007
 20
-61.75000199999985
 30
0.0
 11
-37.000068
 21
-61.75000199999985
 31
0.0
  0
ARC
  5
8061
330
1E
100
AcDbEntity
  8
10
  6
CONTINOUS
100
AcDbCircle
 10
-36.200007
 20
-62.25000199999985
 30
0.0
 40
0.5
100
AcDbArc
 50
0.0
 51
90.0
  0
LINE
  5
8062
330
1E
100
AcDbEntity
  8
10
  6
CONTINOUS
100
AcDbLine
 10
-37.50006799999999
 20
-53.89992799999987
 30
0.0
 11
-37.500084
 21
-53.89992799999987
 31
0.0
  0
ARC
  5
8063
330
1E
100
AcDbEntity
  8
10
  6
CONTINOUS
100
AcDbCircle
 10
-37.000068
 20
-52.40003399999983
 30
0.0
 40
0.5
100
AcDbArc
 50
180.0
 51
270.0
  0
LINE
  5
8064
330
1E
100
AcDbEntity
  8
10
  6
CONTINOUS
100
AcDbLine
 10
-33.000068
 20
-65.25000199999985
 30
0.0
 11
-17.00009899999999
 21
-65.25000199999985
 31
0.0
  0
ARC
  5
8065
330
1E
100
AcDbEntity
  8
24
  6
CONTINOUS
100
AcDbCircle
 10
-17.00009899999999
 20
-64.75000199999985
 30
0.0
 40
0.5
100
AcDbArc
 50
180.0
 51
270.0
  0
ARC
  5
8066
330
1E
100
AcDbEntity
  8
10
  6
CONTINOUS
100
AcDbCircle
 10
-17.00009899999999
 20
-52.40003399999983
 30
0.0
 40
0.5
100
AcDbArc
 50
180.0
 51
270.0
  0
LINE
  5
8067
330
1E
100
AcDbEntity
  8
24
  6
CONTINOUS
100
AcDbLine
 10
-32.50006799999999
 20
-64.75000199999985
 30
0.0
 11
-32.50006799999999
 21
-59.45256199999988
 31
0.0
  0
LINE
  5
8068
330
1E
100
AcDbEntity
  8
24
  6
CONTINOUS
100
AcDbLine
 10
-17.500099
 20
-64.75000199999985
 30
0.0
 11
-17.500099
 21
-59.45256199999988
 31
0.0
  0
LINE
  5
8069
330
1E
100
AcDbEntity
  8
24
  6
CONTINOUS
100
AcDbLine
 10
-25.000016
 20
-50.92498899999987
 30
0.0
 11
-25.000016
 21
-63.57501399999986
 31
0.0
  0
ARC
  5
806A
330
1E
100
AcDbEntity
  8
24
  6
CONTINOUS
100
AcDbCircle
 10
-33.000068
 20
-64.75000199999985
 30
0.0
 40
0.5
100
AcDbArc
 50
270.0
 51
0.0
  0
LINE
  5
806B
330
1E
100
AcDbEntity
  8
24
  6
CONTINOUS
100
AcDbLine
 10
-18.50009899999999
 20
-49.50000199999984
 30
0.0
 11
-31.500099
 21
-49.50000199999984
 31
0.0
  0
LINE
  5
806C
330
1E
100
AcDbEntity
  8
24
  6
CONTINOUS
100
AcDbLine
 10
-31.07499700000001
 20
-57.00000099999988
 30
0.0
 11
-18.92500299999999
 21
-57.00000099999988
 31
0.0
  0
LINE
  5
806D
330
1E
100
AcDbEntity
  8
24
  6
CONTINOUS
100
AcDbLine
 10
-32.50006799999999
 20
-55.04731999999986
 30
0.0
 11
-32.50006799999999
 21
-50.50000199999985
 31
0.0
  0
ARC
  5
806E
330
1E
100
AcDbEntity
  8
24
  6
CONTINOUS
100
AcDbCircle
 10
-22.92258971858403
 20
-57.24994099999985
 30
0.0
 40
9.827494281415964
100
AcDbArc
 50
167.0483672722334
 51
192.9516327277664
  0
ARC
  5
806F
330
1E
100
AcDbEntity
  8
10
  6
CONTINOUS
100
AcDbCircle
 10
-33.000068
 20
-52.40003399999983
 30
0.0
 40
0.5
100
AcDbArc
 50
270.0
 51
0.0
  0
ARC
  5
8070
330
1E
100
AcDbEntity
  8
24
  6
CONTINOUS
100
AcDbCircle
 10
-31.50006799999999
 20
-50.50000199999985
 30
0.0
 40
1.0
100
AcDbArc
 50
90.0
 51
180.0
  0
LINE
  5
8071
330
1E
100
AcDbEntity
  8
24
  6
CONTINOUS
100
AcDbLine
 10
-17.500099
 20
-55.04731999999986
 30
0.0
 11
-17.500099
 21
-50.50000199999985
 31
0.0
  0
ARC
  5
8072
330
1E
100
AcDbEntity
  8
24
  6
CONTINOUS
100
AcDbCircle
 10
-27.07757828141597
 20
-57.24994099999985
 30
0.0
 40
9.827494281415972
100
AcDbArc
 50
347.0483672722335
 51
12.95163272776636
  0
ARC
  5
8073
330
1E
100
AcDbEntity
  8
24
  6
CONTINOUS
100
AcDbCircle
 10
-18.50009899999999
 20
-50.50000199999985
 30
0.0
 40
1.0
100
AcDbArc
 50
0.0
 51
90.0
  0
LINE
  5
8074
330
1E
100
AcDbEntity
  8
24
  6
CONTINOUS
100
AcDbLine
 10
-7.500099000000004
 20
-59.45244399999985
 30
0.0
 11
-7.500099000000004
 21
-64.75000199999985
 31
0.0
  0
LINE
  5
8075
330
1E
100
AcDbEntity
  8
10
  6
CONTINOUS
100
AcDbLine
 10
-11.90011399999998
 20
-61.76023799999985
 30
0.0
 11
-11.90011399999998
 21
-64.75000199999985
 31
0.0
  0
LINE
  5
8076
330
1E
100
AcDbEntity
  8
10
  6
CONTINOUS
100
AcDbLine
 10
-15.50011399999999
 20
-60.16631899999985
 30
0.0
 11
-15.50011399999999
 21
-64.75000199999985
 31
0.0
  0
LINE
  5
8077
330
1E
100
AcDbEntity
  8
10
  6
CONTINOUS
100
AcDbLine
 10
-11.40011399999998
 20
-65.25000199999985
 30
0.0
 11
-8.000099000000004
 21
-65.25000199999985
 31
0.0
  0
LINE
  5
8078
330
1E
100
AcDbEntity
  8
10
  6
CONTINOUS
100
AcDbLine
 10
-16.00011399999998
 20
-65.25000199999985
 30
0.0
 11
-17.00009899999999
 21
-65.25000199999985
 31
0.0
  0
ARC
  5
8079
330
1E
100
AcDbEntity
  8
10
  6
CONTINOUS
100
AcDbCircle
 10
-16.00011399999998
 20
-64.75000199999985
 30
0.0
 40
0.5
100
AcDbArc
 50
270.0
 51
0.0
  0
ARC
  5
807A
330
1E
100
AcDbEntity
  8
10
  6
CONTINOUS
100
AcDbCircle
 10
-11.40011399999998
 20
-64.75000199999985
 30
0.0
 40
0.5
100
AcDbArc
 50
180.0
 51
270.0
  0
ARC
  5
807B
330
1E
100
AcDbEntity
  8
24
  6
CONTINOUS
100
AcDbCircle
 10
-8.000099000000004
 20
-64.75000199999985
 30
0.0
 40
0.5
100
AcDbArc
 50
270.0
 51
0.0
  0
LINE
  5
807C
330
1E
100
AcDbEntity
  8
10
  6
CONTINOUS
100
AcDbLine
 10
-17.00009899999999
 20
-52.90003399999982
 30
0.0
 11
-8.000099000000004
 21
-52.90003399999982
 31
0.0
  0
ARC
  5
807D
330
1E
100
AcDbEntity
  8
12
  6
DASHED
100
AcDbCircle
 10
-12.50005299999999
 20
-57.49994099999987
 30
0.0
 40
3.9
100
AcDbArc
 50
284.476691
 51
217.3004790000006
  0
LINE
  5
807E
330
1E
100
AcDbEntity
  8
12
  6
DASHED
100
AcDbLine
 10
-15.00011399999999
 20
-61.75000199999985
 30
0.0
 11
-12.40011399999998
 21
-61.75000199999985
 31
0.0
  0
ARC
  5
807F
330
1E
100
AcDbEntity
  8
12
  6
DASHED
100
AcDbCircle
 10
-15.00011399999999
 20
-62.25000199999985
 30
0.0
 40
0.5
100
AcDbArc
 50
90.0
 51
180.0
  0
ARC
  5
8080
330
1E
100
AcDbEntity
  8
12
  6
DASHED
100
AcDbCircle
 10
-16.00011399999998
 20
-60.16631899999985
 30
0.0
 40
0.5
100
AcDbArc
 50
0.0
 51
37.30047900000063
  0
ARC
  5
8081
330
1E
100
AcDbEntity
  8
12
  6
DASHED
100
AcDbCircle
 10
-11.40011399999998
 20
-61.76023799999985
 30
0.0
 40
0.5
100
AcDbArc
 50
104.476691
 51
180.0
  0
ARC
  5
8082
330
1E
100
AcDbEntity
  8
12
  6
DASHED
100
AcDbCircle
 10
-12.40011399999998
 20
-62.25000199999985
 30
0.0
 40
0.5
100
AcDbArc
 50
0.0
 51
90.0
  0
LINE
  5
8083
330
1E
100
AcDbEntity
  8
24
  6
CONTINOUS
100
AcDbLine
 10
-7.500099000000004
 20
-50.50000199999985
 30
0.0
 11
-7.500099000000004
 21
-55.04743699999986
 31
0.0
  0
ARC
  5
8084
330
1E
100
AcDbEntity
  8
24
  6
CONTINOUS
100
AcDbCircle
 10
2.077546592010991
 20
-57.24994099999985
 30
0.0
 40
9.827630592010994
100
AcDbArc
 50
167.0492508884331
 51
192.9507491115668
  0
ARC
  5
8085
330
1E
100
AcDbEntity
  8
24
  6
CONTINOUS
100
AcDbCircle
 10
-6.500099000000004
 20
-50.50000199999985
 30
0.0
 40
1.0
100
AcDbArc
 50
90.0
 51
180.0
  0
ARC
  5
8086
330
1E
100
AcDbEntity
  8
10
  6
CONTINOUS
100
AcDbCircle
 10
-8.000099000000004
 20
-52.40003399999983
 30
0.0
 40
0.5
100
AcDbArc
 50
270.0
 51
0.0
  0
ARC
  5
8087
330
1E
100
AcDbEntity
  8
10
  6
CONTINOUS
100
AcDbCircle
 10
-17.199987
 20
-22.60009599999994
 30
0.0
 40
0.5
100
AcDbArc
 50
180.0
 51
270.0
  0
LINE
  5
8088
330
1E
100
AcDbEntity
  8
10
  6
CONTINOUS
100
AcDbLine
 10
-7.500061000000016
 20
-22.90003299999999
 30
0.0
 11
-17.50006100000001
 21
-22.90003299999999
 31
0.0
  0
LINE
  5
8089
330
1E
100
AcDbEntity
  8
10
  6
CONTINOUS
100
AcDbLine
 10
-34.99992200000001
 20
-23.20009599999996
 30
0.0
 11
-34.99992200000001
 21
-28.81197299999996
 31
0.0
  0
LINE
  5
808A
330
1E
100
AcDbEntity
  8
10
  6
CONTINOUS
100
AcDbLine
 10
-31.29995599999999
 20
-19.80000199999993
 30
0.0
 11
-18.699987
 21
-19.80000199999993
 31
0.0
  0
LINE
  5
808B
330
1E
100
AcDbEntity
  8
10
  6
CONTINOUS
100
AcDbLine
 10
-17.50006100000001
 20
-18.70000899999996
 30
0.0
 11
-32.500062
 21
-18.70000899999996
 31
0.0
  0
LINE
  5
808C
330
1E
100
AcDbEntity
  8
10
  6
CONTINOUS
100
AcDbLine
 10
-32.500062
 20
-22.30001699999996
 30
0.0
 11
-32.500062
 21
-18.70000899999996
 31
0.0
  0
ARC
  5
808D
330
1E
100
AcDbEntity
  8
10
  6
CONTINOUS
100
AcDbCircle
 10
-31.29995599999999
 20
-20.80000199999993
 30
0.0
 40
1.0
100
AcDbArc
 50
90.0
 51
180.0
  0
ARC
  5
808E
330
1E
100
AcDbEntity
  8
10
  6
CONTINOUS
100
AcDbCircle
 10
-32.79995600000001
 20
-22.70009599999996
 30
0.0
 40
0.5
100
AcDbArc
 50
270.0
 51
0.0
  0
LINE
  5
808F
330
1E
100
AcDbEntity
  8
10
  6
CONTINOUS
100
AcDbLine
 10
-34.99992200000001
 20
-23.20009599999996
 30
0.0
 11
-32.79995600000001
 21
-23.20009599999996
 31
0.0
  0
LINE
  5
8090
330
1E
100
AcDbEntity
  8
10
  6
CONTINOUS
100
AcDbLine
 10
-32.500062
 20
-23.10017499999998
 30
0.0
 11
-32.500062
 21
-22.30001699999996
 31
0.0
  0
LINE
  5
8091
330
1E
100
AcDbEntity
  8
10
  6
CONTINOUS
100
AcDbLine
 10
-32.299956
 20
-20.80000199999993
 30
0.0
 11
-32.299956
 21
-22.70009599999996
 31
0.0
  0
LINE
  5
8092
330
1E
100
AcDbEntity
  8
10
  6
CONTINOUS
100
AcDbLine
 10
-17.50006100000001
 20
-22.90003299999999
 30
0.0
 11
-17.50006100000001
 21
-18.70000899999996
 31
0.0
  0
ARC
  5
8093
330
1E
100
AcDbEntity
  8
10
  6
CONTINOUS
100
AcDbCircle
 10
-18.699987
 20
-20.80000199999993
 30
0.0
 40
1.0
100
AcDbArc
 50
0.0
 51
90.0
  0
LINE
  5
8094
330
1E
100
AcDbEntity
  8
10
  6
CONTINOUS
100
AcDbLine
 10
-17.699987
 20
-20.80000199999993
 30
0.0
 11
-17.699987
 21
-22.60009599999994
 31
0.0
  0
LINE
  5
8095
330
1E
100
AcDbEntity
  8
10
  6
CONTINOUS
100
AcDbLine
 10
-17.699987
 20
-20.80000199999993
 30
0.0
 11
-17.699987
 21
-22.60009599999994
 31
0.0
  0
LINE
  5
8096
330
1E
100
AcDbEntity
  8
10
  6
CONTINOUS
100
AcDbLine
 10
-17.199987
 20
-23.10009599999995
 30
0.0
 11
-7.800385000000018
 21
-23.10009599999995
 31
0.0
  0
ARC
  5
8097
330
1E
100
AcDbEntity
  8
10
  6
CONTINOUS
100
AcDbCircle
 10
-10.646492
 20
-9.646478
 30
0.0
 40
0.353553
100
AcDbArc
 50
180.0
 51
270.0
  0
ARC
  5
8098
330
1E
100
AcDbEntity
  8
10
  6
CONTINOUS
100
AcDbCircle
 10
-6.299987000000001
 20
-20.80000199999993
 30
0.0
 40
1.0
100
AcDbArc
 50
90.0
 51
180.0
  0
LINE
  5
8099
330
1E
100
AcDbEntity
  8
10
  6
CONTINOUS
100
AcDbLine
 10
-7.500061000000016
 20
-18.70000899999996
 30
0.0
 11
-7.500061000000016
 21
-22.90003299999999
 31
0.0
  0
LINE
  5
809A
330
1E
100
AcDbEntity
  8
10
  6
CONTINOUS
100
AcDbLine
 10
-7.300385000000018
 20
-20.80000199999993
 30
0.0
 11
-7.300385000000018
 21
-22.60009599999994
 31
0.0
  0
ARC
  5
809B
330
1E
100
AcDbEntity
  8
10
  6
CONTINOUS
100
AcDbCircle
 10
-7.800385000000018
 20
-22.60009599999994
 30
0.0
 40
0.5
100
AcDbArc
 50
270.0
 51
0.0
  0
LINE
  5
809D
330
1E
100
AcDbEntity
  8
10
  6
CONTINOUS
100
AcDbLine
 10
37.50002899999997
 20
-28.81197299999996
 30
0.0
 11
34.99955099999999
 21
-28.81197299999996
 31
0.0
  0
LINE
  5
809E
330
1E
100
AcDbEntity
  8
10
  6
CONTINOUS
100
AcDbLine
 10
36.999901
 20
-52.90003399999982
 30
0.0
 11
32.99990099999998
 21
-52.90003399999982
 31
0.0
  0
ARC
  5
809F
330
1E
100
AcDbEntity
  8
10
  6
CONTINOUS
100
AcDbCircle
 10
36.19984
 20
-62.25000199999985
 30
0.0
 40
0.5
100
AcDbArc
 50
90.0
 51
180.0
  0
LINE
  5
80A0
330
1E
100
AcDbEntity
  8
10
  6
CONTINOUS
100
AcDbLine
 10
37.49994
 20
-22.90003299999999
 30
0.0
 11
32.49993999999998
 21
-22.90003299999999
 31
0.0
  0
LINE
  5
80A1
330
1E
100
AcDbEntity
  8
10
  6
CONTINOUS
100
AcDbLine
 10
16.99990099999999
 20
-65.25000199999985
 30
0.0
 11
32.99990099999998
 21
-65.25000199999985
 31
0.0
  0
ARC
  5
80A2
330
1E
100
AcDbEntity
  8
24
  6
CONTINOUS
100
AcDbCircle
 10
18.49990099999998
 20
-50.50000199999985
 30
0.0
 40
1.0
100
AcDbArc
 50
90.0
 51
180.0
  0
LINE
  5
80A3
330
1E
100
AcDbEntity
  8
24
  6
CONTINOUS
100
AcDbLine
 10
17.49990099999999
 20
-59.45244399999985
 30
0.0
 11
17.49990099999999
 21
-64.75000199999985
 31
0.0
  0
LINE
  5
80A4
330
1E
100
AcDbEntity
  8
24
  6
CONTINOUS
100
AcDbLine
 10
7.499900999999994
 20
-64.75000199999985
 30
0.0
 11
7.499900999999994
 21
-59.45256199999988
 31
0.0
  0
LINE
  5
80A5
330
1E
100
AcDbEntity
  8
10
  6
CONTINOUS
100
AcDbLine
 10
9.499900999999994
 20
-60.16631899999985
 30
0.0
 11
9.499900999999994
 21
-64.75000199999985
 31
0.0
  0
LINE
  5
80A6
330
1E
100
AcDbEntity
  8
10
  6
CONTINOUS
100
AcDbLine
 10
13.099901
 20
-61.76023799999985
 30
0.0
 11
13.099901
 21
-64.75000199999985
 31
0.0
  0
ARC
  5
80A7
330
1E
100
AcDbEntity
  8
10
  6
CONTINOUS
100
AcDbCircle
 10
8.999900999999994
 20
-64.75000199999985
 30
0.0
 40
0.5
100
AcDbArc
 50
270.0
 51
0.0
  0
LINE
  5
80A8
330
1E
100
AcDbEntity
  8
10
  6
CONTINOUS
100
AcDbLine
 10
8.999900999999994
 20
-65.25000199999985
 30
0.0
 11
7.999900999999994
 21
-65.25000199999985
 31
0.0
  0
ARC
  5
80A9
330
1E
100
AcDbEntity
  8
24
  6
CONTINOUS
100
AcDbCircle
 10
7.999900999999994
 20
-64.75000199999985
 30
0.0
 40
0.5
100
AcDbArc
 50
180.0
 51
270.0
  0
LINE
  5
80AA
330
1E
100
AcDbEntity
  8
10
  6
CONTINOUS
100
AcDbLine
 10
13.599901
 20
-65.25000199999985
 30
0.0
 11
16.99990099999999
 21
-65.25000199999985
 31
0.0
  0
ARC
  5
80AB
330
1E
100
AcDbEntity
  8
10
  6
CONTINOUS
100
AcDbCircle
 10
13.599901
 20
-64.75000199999985
 30
0.0
 40
0.5
100
AcDbArc
 50
180.0
 51
270.0
  0
ARC
  5
80AC
330
1E
100
AcDbEntity
  8
24
  6
CONTINOUS
100
AcDbCircle
 10
16.99990099999999
 20
-64.75000199999985
 30
0.0
 40
0.5
100
AcDbArc
 50
270.0
 51
0.0
  0
LINE
  5
80AD
330
1E
100
AcDbEntity
  8
10
  6
CONTINOUS
100
AcDbLine
 10
7.999900999999994
 20
-52.90003399999982
 30
0.0
 11
16.99990099999999
 21
-52.90003399999982
 31
0.0
  0
ARC
  5
80AE
330
1E
100
AcDbEntity
  8
12
  6
DASHED
100
AcDbCircle
 10
12.499962
 20
-57.49994099999987
 30
0.0
 40
3.9
100
AcDbArc
 50
284.4766919999996
 51
217.3004790000006
  0
ARC
  5
80AF
330
1E
100
AcDbEntity
  8
10
  6
CONTINOUS
100
AcDbCircle
 10
8.999900999999994
 20
-60.16631899999985
 30
0.0
 40
0.5
100
AcDbArc
 50
0.0
 51
37.30047900000063
  0
ARC
  5
80B0
330
1E
100
AcDbEntity
  8
12
  6
DASHED
100
AcDbCircle
 10
9.999900999999994
 20
-62.25000199999985
 30
0.0
 40
0.5
100
AcDbArc
 50
90.0
 51
180.0
  0
LINE
  5
80B1
330
1E
100
AcDbEntity
  8
24
  6
CONTINOUS
100
AcDbLine
 10
7.499900999999994
 20
-55.04731999999986
 30
0.0
 11
7.499900999999994
 21
-50.50000199999985
 31
0.0
  0
ARC
  5
80B2
330
1E
100
AcDbEntity
  8
24
  6
CONTINOUS
100
AcDbCircle
 10
-2.077578281415971
 20
-57.24994099999985
 30
0.0
 40
9.827494281415972
100
AcDbArc
 50
347.0483672722335
 51
12.95163272776641
  0
LINE
  5
80B3
330
1E
100
AcDbEntity
  8
10
  6
CONTINOUS
100
AcDbLine
 10
8.599962000000003
 20
-56.9960469999999
 30
0.0
 11
8.599962000000003
 21
-57.01091399999986
 31
0.0
  0
LINE
  5
80B4
330
1E
100
AcDbEntity
  8
10
  6
CONTINOUS
100
AcDbLine
 10
9.324962000000011
 20
-56.99994099999987
 30
0.0
 11
8.549962000000007
 21
-56.99994099999987
 31
0.0
  0
ARC
  5
80B5
330
1E
100
AcDbEntity
  8
24
  6
CONTINOUS
100
AcDbCircle
 10
6.499900999999994
 20
-50.50000199999985
 30
0.0
 40
1.0
100
AcDbArc
 50
0.0
 51
90.0
  0
ARC
  5
80B6
330
1E
100
AcDbEntity
  8
10
  6
CONTINOUS
100
AcDbCircle
 10
7.999900999999994
 20
-52.40003399999983
 30
0.0
 40
0.5
100
AcDbArc
 50
180.0
 51
270.0
  0
LINE
  5
80B7
330
1E
100
AcDbEntity
  8
24
  6
CONTINOUS
100
AcDbLine
 10
17.49990099999999
 20
-50.50000199999985
 30
0.0
 11
17.49990099999999
 21
-55.04743699999986
 31
0.0
  0
LINE
  5
80B8
330
1E
100
AcDbEntity
  8
10
  6
CONTINOUS
100
AcDbLine
 10
12.499962
 20
-53.04994099999987
 30
0.0
 11
12.499962
 21
-53.82494099999989
 31
0.0
  0
LINE
  5
80B9
330
1E
100
AcDbEntity
  8
12
  6
DASHED
100
AcDbLine
 10
14.087462
 20
-56.99994099999987
 30
0.0
 11
10.912462
 21
-56.99994099999987
 31
0.0
  0
CIRCLE
  5
80BA
330
1E
100
AcDbEntity
  8
12
  6
DASHED
100
AcDbCircle
 10
12.499962
 20
-56.99994099999987
 30
0.0
 40
2.45
  0
LINE
  5
80BB
330
1E
100
AcDbEntity
  8
12
  6
DASHED
100
AcDbLine
 10
12.499962
 20
-55.41244099999989
 30
0.0
 11
12.499962
 21
-58.58744099999986
 31
0.0
  0
LINE
  5
80BC
330
1E
100
AcDbEntity
  8
12
  6
DASHED
100
AcDbLine
 10
9.999900999999994
 20
-61.75000199999985
 30
0.0
 11
12.599901
 21
-61.75000199999985
 31
0.0
  0
LINE
  5
80BD
330
1E
100
AcDbEntity
  8
10
  6
CONTINOUS
100
AcDbLine
 10
12.499962
 20
-60.67494099999986
 30
0.0
 11
12.499962
 21
-61.44994099999989
 31
0.0
  0
ARC
  5
80BE
330
1E
100
AcDbEntity
  8
12
  6
DASHED
100
AcDbCircle
 10
13.599901
 20
-61.76023799999985
 30
0.0
 40
0.5
100
AcDbArc
 50
104.4766919999996
 51
179.9999910000003
  0
ARC
  5
80BF
330
1E
100
AcDbEntity
  8
12
  6
DASHED
100
AcDbCircle
 10
12.599901
 20
-62.25000199999985
 30
0.0
 40
0.5
100
AcDbArc
 50
0.0
 51
90.0
  0
ARC
  5
80C0
330
1E
100
AcDbEntity
  8
24
  6
CONTINOUS
100
AcDbCircle
 10
27.077546592011
 20
-57.24994099999985
 30
0.0
 40
9.827630592010992
100
AcDbArc
 50
167.0492508884331
 51
192.9507491115668
  0
LINE
  5
80C1
330
1E
100
AcDbEntity
  8
10
  6
CONTINOUS
100
AcDbLine
 10
16.44996200000001
 20
-56.99994099999987
 30
0.0
 11
15.67496199999999
 21
-56.99994099999987
 31
0.0
  0
ARC
  5
80C2
330
1E
100
AcDbEntity
  8
10
  6
CONTINOUS
100
AcDbCircle
 10
16.99990099999999
 20
-52.40003399999983
 30
0.0
 40
0.5
100
AcDbArc
 50
270.0
 51
0.0
  0
LINE
  5
80C3
330
1E
100
AcDbEntity
  8
24
  6
CONTINOUS
100
AcDbLine
 10
32.49990099999996
 20
-64.75000199999985
 30
0.0
 11
32.49990099999996
 21
-59.45256199999988
 31
0.0
  0
LINE
  5
80C4
330
1E
100
AcDbEntity
  8
10
  6
CONTINOUS
100
AcDbLine
 10
35.69984000000001
 20
-62.25000199999985
 30
0.0
 11
35.69984000000001
 21
-64.75000199999985
 31
0.0
  0
LINE
  5
80C5
330
1E
100
AcDbEntity
  8
24
  6
CONTINOUS
100
AcDbLine
 10
24.999986
 20
-50.92498899999987
 30
0.0
 11
24.999986
 21
-63.57501399999986
 31
0.0
  0
LINE
  5
80C6
330
1E
100
AcDbEntity
  8
10
  6
CONTINOUS
100
AcDbLine
 10
32.99990099999998
 20
-65.25000199999985
 30
0.0
 11
35.19984
 21
-65.25000199999985
 31
0.0
  0
ARC
  5
80C7
330
1E
100
AcDbEntity
  8
24
  6
CONTINOUS
100
AcDbCircle
 10
32.99990099999998
 20
-64.75000199999985
 30
0.0
 40
0.5
100
AcDbArc
 50
180.0
 51
270.0
  0
ARC
  5
80C8
330
1E
100
AcDbEntity
  8
10
  6
CONTINOUS
100
AcDbCircle
 10
35.19984
 20
-64.75000199999985
 30
0.0
 40
0.5
100
AcDbArc
 50
270.0
 51
0.0
  0
LINE
  5
80C9
330
1E
100
AcDbEntity
  8
24
  6
CONTINOUS
100
AcDbLine
 10
31.49990099999998
 20
-49.50000199999984
 30
0.0
 11
18.49990099999998
 21
-49.50000199999984
 31
0.0
  0
LINE
  5
80CA
330
1E
100
AcDbEntity
  8
24
  6
CONTINOUS
100
AcDbLine
 10
32.49990099999996
 20
-55.04731999999986
 30
0.0
 11
32.49990099999996
 21
-50.50000199999985
 31
0.0
  0
ARC
  5
80CB
330
1E
100
AcDbEntity
  8
24
  6
CONTINOUS
100
AcDbCircle
 10
22.92242171858403
 20
-57.24994099999985
 30
0.0
 40
9.827494281415972
100
AcDbArc
 50
347.0483672722335
 51
12.95163272776641
  0
LINE
  5
80CC
330
1E
100
AcDbEntity
  8
10
  6
CONTINOUS
100
AcDbLine
 10
32.49990099999996
 20
-62.45000199999987
 30
0.0
 11
35.69984000000001
 21
-62.45000199999987
 31
0.0
  0
ARC
  5
80CD
330
1E
100
AcDbEntity
  8
24
  6
CONTINOUS
100
AcDbCircle
 10
31.49990099999998
 20
-50.50000199999985
 30
0.0
 40
1.0
100
AcDbArc
 50
0.0
 51
90.0
  0
ARC
  5
80CE
330
1E
100
AcDbEntity
  8
10
  6
CONTINOUS
100
AcDbCircle
 10
32.99990099999998
 20
-52.40003399999983
 30
0.0
 40
0.5
100
AcDbArc
 50
180.0
 51
270.0
  0
ARC
  5
80CF
330
1E
100
AcDbEntity
  8
10
  6
CONTINOUS
100
AcDbCircle
 10
18.69961499999998
 20
-20.80000199999993
 30
0.0
 40
1.0
100
AcDbArc
 50
90.0
 51
180.0
  0
LINE
  5
80D0
330
1E
100
AcDbEntity
  8
10
  6
CONTINOUS
100
AcDbLine
 10
32.49993999999998
 20
-18.70000899999996
 30
0.0
 11
17.49993999999999
 21
-18.70000899999996
 31
0.0
  0
LINE
  5
80D1
330
1E
100
AcDbEntity
  8
10
  6
CONTINOUS
100
AcDbLine
 10
7.800012999999991
 20
-23.10009599999995
 30
0.0
 11
17.19961499999999
 21
-23.10009599999995
 31
0.0
  0
LINE
  5
80D2
330
1E
100
AcDbEntity
  8
10
  6
CONTINOUS
100
AcDbLine
 10
17.49993999999999
 20
-22.90003299999999
 30
0.0
 11
7.499938999999981
 21
-22.90003299999999
 31
0.0
  0
LINE
  5
80D3
330
1E
100
AcDbEntity
  8
10
  6
CONTINOUS
100
AcDbLine
 10
7.499938999999981
 20
-22.200152
 30
0.0
 11
7.499938999999981
 21
-18.70000899999996
 31
0.0
  0
ARC
  5
80D4
330
1E
100
AcDbEntity
  8
10
  6
CONTINOUS
100
AcDbCircle
 10
6.300012999999991
 20
-20.80000199999993
 30
0.0
 40
1.0
100
AcDbArc
 50
0.0
 51
90.0
  0
ARC
  5
80D5
330
1E
100
AcDbEntity
  8
10
  6
CONTINOUS
100
AcDbCircle
 10
7.800012999999991
 20
-22.60009599999994
 30
0.0
 40
0.5
100
AcDbArc
 50
180.0
 51
270.0
  0
LINE
  5
80D6
330
1E
100
AcDbEntity
  8
10
  6
CONTINOUS
100
AcDbLine
 10
7.499938999999981
 20
-23.00004100000001
 30
0.0
 11
7.499938999999981
 21
-22.200152
 31
0.0
  0
LINE
  5
80D7
330
1E
100
AcDbEntity
  8
10
  6
CONTINOUS
100
AcDbLine
 10
7.300012999999991
 20
-20.80000199999993
 30
0.0
 11
7.300012999999991
 21
-22.60009599999994
 31
0.0
  0
LINE
  5
80D8
330
1E
100
AcDbEntity
  8
10
  6
CONTINOUS
100
AcDbLine
 10
17.49993999999999
 20
-18.70000899999996
 30
0.0
 11
17.49993999999999
 21
-22.20033999999997
 31
0.0
  0
LINE
  5
80D9
330
1E
100
AcDbEntity
  8
10
  6
CONTINOUS
100
AcDbLine
 10
17.49993999999999
 20
-22.20033999999997
 30
0.0
 11
17.49993999999999
 21
-22.99985199999996
 31
0.0
  0
LINE
  5
80DA
330
1E
100
AcDbEntity
  8
10
  6
CONTINOUS
100
AcDbLine
 10
17.69961499999998
 20
-20.80000199999993
 30
0.0
 11
17.69961499999998
 21
-22.60009599999994
 31
0.0
  0
ARC
  5
80DB
330
1E
100
AcDbEntity
  8
10
  6
CONTINOUS
100
AcDbCircle
 10
17.19961499999999
 20
-22.60009599999994
 30
0.0
 40
0.5
100
AcDbArc
 50
270.0
 51
0.0
  0
ARC
  5
80DC
330
1E
100
AcDbEntity
  8
10
  6
CONTINOUS
100
AcDbCircle
 10
10.64638599999999
 20
-9.646478
 30
0.0
 40
0.353553
100
AcDbArc
 50
270.0
 51
0.0
  0
LINE
  5
80DD
330
1E
100
AcDbEntity
  8
10
  6
CONTINOUS
100
AcDbLine
 10
34.99955099999999
 20
-23.20009599999996
 30
0.0
 11
34.99955099999999
 21
-28.81197299999996
 31
0.0
  0
LINE
  5
80DE
330
1E
100
AcDbEntity
  8
10
  6
CONTINOUS
100
AcDbLine
 10
31.29958399999998
 20
-19.80000199999993
 30
0.0
 11
18.69961499999998
 21
-19.80000199999993
 31
0.0
  0
ARC
  5
80DF
330
1E
100
AcDbEntity
  8
10
  6
CONTINOUS
100
AcDbCircle
 10
31.29958399999998
 20
-20.80000199999993
 30
0.0
 40
1.0
100
AcDbArc
 50
0.0
 51
90.0
  0
LINE
  5
80E0
330
1E
100
AcDbEntity
  8
10
  6
CONTINOUS
100
AcDbLine
 10
32.49993999999998
 20
-22.29982999999998
 30
0.0
 11
32.49993999999998
 21
-18.70000899999996
 31
0.0
  0
LINE
  5
80E1
330
1E
100
AcDbEntity
  8
10
  6
CONTINOUS
100
AcDbLine
 10
34.99955099999999
 20
-23.20009599999996
 30
0.0
 11
32.79958399999998
 21
-23.20009599999996
 31
0.0
  0
LINE
  5
80E2
330
1E
100
AcDbEntity
  8
10
  6
CONTINOUS
100
AcDbLine
 10
32.49993999999998
 20
-23.10036299999996
 30
0.0
 11
32.49993999999998
 21
-22.29982999999998
 31
0.0
  0
LINE
  5
80E3
330
1E
100
AcDbEntity
  8
10
  6
CONTINOUS
100
AcDbLine
 10
32.29958399999998
 20
-20.80000199999993
 30
0.0
 11
32.29958399999998
 21
-22.70009599999996
 31
0.0
  0
ARC
  5
80E4
330
1E
100
AcDbEntity
  8
10
  6
CONTINOUS
100
AcDbCircle
 10
32.79958399999998
 20
-22.70009599999996
 30
0.0
 40
0.5
100
AcDbArc
 50
180.0
 51
270.0
  0
LINE
  5
80EB
330
1E
100
AcDbEntity
  8
10
  6
CONTINOUS
100
AcDbLine
 10
36.19984
 20
-61.75000199999985
 30
0.0
 11
36.999901
 21
-61.75000199999985
 31
0.0
  0
ARC
  5
80EC
330
1E
100
AcDbEntity
  8
10
  6
CONTINOUS
100
AcDbCircle
 10
36.999901
 20
-61.25000199999984
 30
0.0
 40
0.5
100
AcDbArc
 50
270.0
 51
0.0
  0
ARC
  5
80ED
330
1E
100
AcDbEntity
  8
10
  6
CONTINOUS
100
AcDbCircle
 10
36.999901
 20
-52.40003399999983
 30
0.0
 40
0.5
100
AcDbArc
 50
270.0
 51
0.0
  0
LINE
  5
80F6
330
1E
100
AcDbEntity
  8
10
  6
CONTINOUS
100
AcDbLine
 10
37.50002899999997
 20
-28.81197299999996
 30
0.0
 11
37.49990100000001
 21
-61.25000199999984
 31
0.0
  0
LINE
  5
80F8
330
1E
100
AcDbEntity
  8
10
  6
CONTINOUS
100
AcDbLine
 10
37.49994
 20
-28.81197299999996
 30
0.0
 11
37.49994
 21
-31.25000199999997
 31
0.0
  0
LINE
  5
8107
330
1E
100
AcDbEntity
  8
10
  6
CONTINOUS
100
AcDbLine
 10
-6.000053000000008
 20
34.88189899999996
 30
0.0
 11
5.999946999999991
 21
34.88189899999996
 31
0.0
  0
LINE
  5
8108
330
1E
100
AcDbEntity
  8
10
  6
CONTINOUS
100
AcDbLine
 10
5.999946999999991
 20
30.39686200000005
 30
0.0
 11
-6.000053000000008
 21
30.39686200000005
 31
0.0
  0
LINE
  5
8109
330
1E
100
AcDbEntity
  8
10
  6
CONTINOUS
100
AcDbLine
 10
5.999946999999991
 20
23.94915800000001
 30
0.0
 11
-6.000053000000008
 21
23.94915800000001
 31
0.0
  0
LINE
  5
810C
330
1E
100
AcDbEntity
  8
24
  6
CONTINOUS
100
AcDbLine
 10
-6.074997000000009
 20
54.999999
 30
0.0
 11
6.074996999999996
 21
54.999999
 31
0.0
  0
LINE
  5
810D
330
1E
100
AcDbEntity
  8
10
  6
CONTINOUS
100
AcDbLine
 10
-7.500061000000016
 20
64.75000099999999
 30
0.0
 11
7.499938999999981
 21
64.75000099999999
 31
0.0
  0
LINE
  5
8110
330
1E
100
AcDbEntity
  8
10
  6
CONTINOUS
100
AcDbLine
 10
-6.500046000000011
 20
15.82588600000002
 30
0.0
 11
6.499938999999981
 21
15.82588600000002
 31
0.0
  0
LINE
  5
8111
330
1E
100
AcDbEntity
  8
10
  6
CONTINOUS
100
AcDbLine
 10
-6.500046000000011
 20
17.90000000000003
 30
0.0
 11
6.499938999999981
 21
17.90000000000003
 31
0.0
  0
LINE
  5
8112
330
1E
100
AcDbEntity
  8
24
  6
CONTINOUS
100
AcDbLine
 10
7.499938999999981
 20
48.70000000000004
 30
0.0
 11
-7.500061000000016
 21
48.70000000000004
 31
0.0
  0
LINE
  5
8113
330
1E
100
AcDbEntity
  8
10
  6
CONTINOUS
100
AcDbLine
 10
34.99997099999998
 20
39.99997000000002
 30
0.0
 11
-35.000031
 21
39.99997000000002
 31
0.0
  0
LINE
  5
8114
330
1E
100
AcDbEntity
  8
18
100
AcDbLine
 10
-13.100061
 20
64.75000099999999
 30
0.0
 11
-13.100061
 21
114.7500009999999
 31
0.0
  0
LINE
  5
8115
330
1E
100
AcDbEntity
  8
18
100
AcDbLine
 10
-9.500061000000014
 20
64.75000099999999
 30
0.0
 11
-9.500061000000014
 21
114.7500009999999
 31
0.0
  0
ARC
  5
8116
330
1E
100
AcDbEntity
  8
10
  6
CONTINOUS
100
AcDbCircle
 10
-35.000031
 20
38.99997000000002
 30
0.0
 40
1.0
100
AcDbArc
 50
90.0
 51
179.999996999999
  0
LINE
  5
8117
330
1E
100
AcDbEntity
  8
10
  6
CONTINOUS
100
AcDbLine
 10
-36.00000099999999
 20
64.75000099999999
 30
0.0
 11
-32.500062
 21
64.75000099999999
 31
0.0
  0
LINE
  5
8118
330
1E
100
AcDbEntity
  8
10
  6
CONTINOUS
100
AcDbLine
 10
-32.500062
 20
52.89996400000001
 30
0.0
 11
-37.50004600000001
 21
52.89996400000001
 31
0.0
  0
LINE
  5
8119
330
1E
100
AcDbEntity
  8
10
  6
CONTINOUS
100
AcDbLine
 10
-36.00000099999999
 20
61.250001
 30
0.0
 11
-36.00000099999999
 21
64.75000099999999
 31
0.0
  0
LINE
  5
811A
330
1E
100
AcDbEntity
  8
10
  6
CONTINOUS
100
AcDbLine
 10
-36.00000099999999
 20
61.250001
 30
0.0
 11
-37.50004600000001
 21
61.250001
 31
0.0
  0
LINE
  5
811B
330
1E
100
AcDbEntity
  8
10
  6
CONTINOUS
100
AcDbLine
 10
-6.000053000000008
 20
34.88189899999996
 30
0.0
 11
-6.000053000000008
 21
17.90000000000003
 31
0.0
  0
LINE
  5
8124
330
1E
100
AcDbEntity
  8
10
  6
CONTINOUS
100
AcDbLine
 10
-6.500046000000011
 20
31.17330000000003
 30
0.0
 11
-6.500046000000011
 21
15.82588600000002
 31
0.0
  0
LINE
  5
8125
330
1E
100
AcDbEntity
  8
10
  6
CONTINOUS
100
AcDbLine
 10
-6.500046000000011
 20
29.10000000000001
 30
0.0
 11
-6.000053000000008
 21
29.10000000000001
 31
0.0
  0
LINE
  5
8126
330
1E
100
AcDbEntity
  8
10
  6
CONTINOUS
100
AcDbLine
 10
-6.500046000000011
 20
31.17330000000003
 30
0.0
 11
-6.000053000000008
 21
31.17330000000003
 31
0.0
  0
LINE
  5
8127
330
1E
100
AcDbEntity
  8
10
  6
CONTINOUS
100
AcDbLine
 10
-17.50006100000001
 20
64.75000099999999
 30
0.0
 11
-13.100061
 21
64.75000099999999
 31
0.0
  0
LINE
  5
8128
330
1E
100
AcDbEntity
  8
10
  6
CONTINOUS
100
AcDbLine
 10
-7.500061000000016
 20
52.89996400000001
 30
0.0
 11
-17.50006100000001
 21
52.89996400000001
 31
0.0
  0
LINE
  5
8129
330
1E
100
AcDbEntity
  8
24
  6
CONTINOUS
100
AcDbLine
 10
-25.000016
 20
61.07501200000001
 30
0.0
 11
-25.000016
 21
48.92498700000004
 31
0.0
  0
LINE
  5
812A
330
1E
100
AcDbEntity
  8
24
  6
CONTINOUS
100
AcDbLine
 10
-32.500062
 20
64.75000099999999
 30
0.0
 11
-32.500062
 21
48.70000000000004
 31
0.0
  0
LINE
  5
812B
330
1E
100
AcDbEntity
  8
24
  6
CONTINOUS
100
AcDbLine
 10
-17.50006100000001
 20
48.70000000000004
 30
0.0
 11
-17.50006100000001
 21
64.75000099999999
 31
0.0
  0
LINE
  5
812C
330
1E
100
AcDbEntity
  8
24
  6
CONTINOUS
100
AcDbLine
 10
-17.50006100000001
 20
48.70000000000004
 30
0.0
 11
-32.500062
 21
48.70000000000004
 31
0.0
  0
LINE
  5
812D
330
1E
100
AcDbEntity
  8
24
  6
CONTINOUS
100
AcDbLine
 10
-31.07499700000001
 20
54.999999
 30
0.0
 11
-18.925003
 21
54.999999
 31
0.0
  0
LINE
  5
812E
330
1E
100
AcDbEntity
  8
10
  6
CONTINOUS
100
AcDbLine
 10
-32.500062
 20
64.75000099999999
 30
0.0
 11
-17.50006100000001
 21
64.75000099999999
 31
0.0
  0
LINE
  5
812F
330
1E
100
AcDbEntity
  8
24
  6
CONTINOUS
100
AcDbLine
 10
-7.500061000000016
 20
64.75000099999999
 30
0.0
 11
-7.500061000000016
 21
48.70000000000004
 31
0.0
  0
ARC
  5
8130
330
1E
100
AcDbEntity
  8
10
  6
CONTINOUS
100
AcDbCircle
 10
-10.646492
 20
39.64641600000003
 30
0.0
 40
0.353553
100
AcDbArc
 50
90.0
 51
180.0
  0
LINE
  5
8131
330
1E
100
AcDbEntity
  8
10
  6
CONTINOUS
100
AcDbLine
 10
-9.500061000000014
 20
64.75000099999999
 30
0.0
 11
-7.500061000000016
 21
64.75000099999999
 31
0.0
  0
ARC
  5
8132
330
1E
100
AcDbEntity
  8
12
  6
DASHED
100
AcDbCircle
 10
-12.50001499999999
 20
56.99994000000003
 30
0.0
 40
3.9
100
AcDbArc
 50
104.4781280000003
 51
37.30277299999978
  0
LINE
  5
8133
330
1E
100
AcDbEntity
  8
10
  6
CONTINOUS
100
AcDbLine
 10
-9.500061000000014
 20
59.66645800000002
 30
0.0
 11
-9.500061000000014
 21
64.75000099999999
 31
0.0
  0
CIRCLE
  5
8134
330
1E
100
AcDbEntity
  8
12
  6
DASHED
100
AcDbCircle
 10
-12.50001499999999
 20
56.99994000000003
 30
0.0
 40
2.45
  0
LINE
  5
8135
330
1E
100
AcDbEntity
  8
10
  6
CONTINOUS
100
AcDbLine
 10
-10.912515
 20
56.99994000000003
 30
0.0
 11
-14.08751500000001
 21
56.99994000000003
 31
0.0
  0
LINE
  5
8136
330
1E
100
AcDbEntity
  8
10
  6
CONTINOUS
100
AcDbLine
 10
-15.675015
 20
56.99994000000003
 30
0.0
 11
-16.450015
 21
56.99994000000003
 31
0.0
  0
LINE
  5
8137
330
1E
100
AcDbEntity
  8
10
  6
CONTINOUS
100
AcDbLine
 10
-12.50001499999999
 20
53.82494000000002
 30
0.0
 11
-12.50001499999999
 21
53.04993999999999
 31
0.0
  0
LINE
  5
8138
330
1E
100
AcDbEntity
  8
10
  6
CONTINOUS
100
AcDbLine
 10
-12.50001499999999
 20
58.58744000000001
 30
0.0
 11
-12.50001499999999
 21
55.41244
 31
0.0
  0
ARC
  5
8139
330
1E
100
AcDbEntity
  8
10
  6
CONTINOUS
100
AcDbCircle
 10
-9.000061000000014
 20
59.66645800000002
 30
0.0
 40
0.5
100
AcDbArc
 50
180.0000010000013
 51
217.3027729999998
  0
LINE
  5
813A
330
1E
100
AcDbEntity
  8
10
  6
CONTINOUS
100
AcDbLine
 10
-8.550015000000001
 20
56.99994000000003
 30
0.0
 11
-9.325015000000007
 21
56.99994000000003
 31
0.0
  0
LINE
  5
813B
330
1E
100
AcDbEntity
  8
12
  6
DASHED
100
AcDbLine
 10
-13.100061
 20
61.250001
 30
0.0
 11
-9.500061000000014
 21
61.250001
 31
0.0
  0
LINE
  5
813C
330
1E
100
AcDbEntity
  8
10
  6
CONTINOUS
100
AcDbLine
 10
-13.100061
 20
61.26021000000003
 30
0.0
 11
-13.100061
 21
64.75000099999999
 31
0.0
  0
ARC
  5
813D
330
1E
100
AcDbEntity
  8
10
  6
CONTINOUS
100
AcDbCircle
 10
-13.600061
 20
61.26021000000003
 30
0.0
 40
0.5
100
AcDbArc
 50
284.4781280000002
 51
0.0000010000014034
  0
LINE
  5
813E
330
1E
100
AcDbEntity
  8
18
100
AcDbLine
 10
-12.50001499999999
 20
60.94994000000003
 30
0.0
 11
-12.50001499999999
 21
60.17493999999999
 31
0.0
  0
LINE
  5
813F
330
1E
100
AcDbEntity
  8
18
100
AcDbLine
 10
-13.100061
 20
114.7500009999999
 30
0.0
 11
-9.500061000000014
 21
114.7500009999999
 31
0.0
  0
LINE
  5
8140
330
1E
100
AcDbEntity
  8
18
100
AcDbLine
 10
15.49993999999998
 20
64.75000099999999
 30
0.0
 11
15.49993999999998
 21
114.7500009999999
 31
0.0
  0
LINE
  5
8141
330
1E
100
AcDbEntity
  8
18
100
AcDbLine
 10
11.89993899999999
 20
64.75000099999999
 30
0.0
 11
11.89993899999999
 21
114.7500009999999
 31
0.0
  0
ARC
  5
8142
330
1E
100
AcDbEntity
  8
10
  6
CONTINOUS
100
AcDbCircle
 10
34.99997099999998
 20
38.99997000000002
 30
0.0
 40
1.0
100
AcDbArc
 50
0.0
 51
90.0
  0
LINE
  5
8143
330
1E
100
AcDbEntity
  8
10
  6
CONTINOUS
100
AcDbLine
 10
35.99987899999999
 20
61.250001
 30
0.0
 11
37.49994
 21
61.250001
 31
0.0
  0
LINE
  5
8144
330
1E
100
AcDbEntity
  8
10
  6
CONTINOUS
100
AcDbLine
 10
37.49994
 20
52.89996400000001
 30
0.0
 11
32.49993999999998
 21
52.89996400000001
 31
0.0
  0
LINE
  5
8145
330
1E
100
AcDbEntity
  8
10
  6
CONTINOUS
100
AcDbLine
 10
5.999946999999991
 20
34.88189899999996
 30
0.0
 11
5.999946999999991
 21
17.90000000000003
 31
0.0
  0
LINE
  5
814A
330
1E
100
AcDbEntity
  8
10
  6
CONTINOUS
100
AcDbLine
 10
6.499938999999981
 20
31.17330000000003
 30
0.0
 11
6.499938999999981
 21
15.82588600000002
 31
0.0
  0
LINE
  5
814B
330
1E
100
AcDbEntity
  8
10
  6
CONTINOUS
100
AcDbLine
 10
5.999946999999991
 20
29.10000000000001
 30
0.0
 11
6.499938999999981
 21
29.10000000000001
 31
0.0
  0
LINE
  5
814C
330
1E
100
AcDbEntity
  8
10
  6
CONTINOUS
100
AcDbLine
 10
5.999946999999991
 20
31.17330000000003
 30
0.0
 11
6.499938999999981
 21
31.17330000000003
 31
0.0
  0
LINE
  5
814F
330
1E
100
AcDbEntity
  8
10
  6
CONTINOUS
100
AcDbLine
 10
17.49993999999999
 20
64.75000099999999
 30
0.0
 11
32.49993999999998
 21
64.75000099999999
 31
0.0
  0
LINE
  5
8150
330
1E
100
AcDbEntity
  8
24
  6
CONTINOUS
100
AcDbLine
 10
32.49993999999998
 20
48.70000000000004
 30
0.0
 11
17.49993999999999
 21
48.70000000000004
 31
0.0
  0
LINE
  5
8151
330
1E
100
AcDbEntity
  8
24
  6
CONTINOUS
100
AcDbLine
 10
17.49993999999999
 20
64.75000099999999
 30
0.0
 11
17.49993999999999
 21
48.70000000000004
 31
0.0
  0
LINE
  5
8152
330
1E
100
AcDbEntity
  8
24
  6
CONTINOUS
100
AcDbLine
 10
7.499938999999981
 20
48.70000000000004
 30
0.0
 11
7.499938999999981
 21
64.75000099999999
 31
0.0
  0
ARC
  5
8153
330
1E
100
AcDbEntity
  8
10
  6
CONTINOUS
100
AcDbCircle
 10
10.64638599999999
 20
39.64641600000003
 30
0.0
 40
0.353553
100
AcDbArc
 50
0.0
 51
90.0
  0
ARC
  5
8154
330
1E
100
AcDbEntity
  8
12
  6
DASHED
100
AcDbCircle
 10
12.50000099999998
 20
56.99994000000003
 30
0.0
 40
3.9
100
AcDbArc
 50
104.4783329999995
 51
37.30310200000103
  0
LINE
  5
8155
330
1E
100
AcDbEntity
  8
12
  6
DASHED
100
AcDbLine
 10
9.232092999999991
 20
56.99994000000003
 30
0.0
 11
15.91018799999999
 21
56.99994000000003
 31
0.0
  0
LINE
  5
8156
330
1E
100
AcDbEntity
  8
10
  6
CONTINOUS
100
AcDbLine
 10
7.499938999999981
 20
64.75000099999999
 30
0.0
 11
11.89993899999999
 21
64.75000099999999
 31
0.0
  0
LINE
  5
8157
330
1E
100
AcDbEntity
  8
10
  6
CONTINOUS
100
AcDbLine
 10
17.49993999999999
 20
52.89996400000001
 30
0.0
 11
7.499938999999981
 21
52.89996400000001
 31
0.0
  0
LINE
  5
8158
330
1E
100
AcDbEntity
  8
10
  6
CONTINOUS
100
AcDbLine
 10
15.49993999999998
 20
59.66647799999998
 30
0.0
 11
15.49993999999998
 21
64.75000099999999
 31
0.0
  0
ARC
  5
8159
330
1E
100
AcDbEntity
  8
10
  6
CONTINOUS
100
AcDbCircle
 10
15.99993999999998
 20
59.66647799999998
 30
0.0
 40
0.5
100
AcDbArc
 50
180.0
 51
217.303102000001
  0
LINE
  5
815A
330
1E
100
AcDbEntity
  8
12
  6
DASHED
100
AcDbLine
 10
11.89993899999999
 20
61.250001
 30
0.0
 11
15.49993999999998
 21
61.250001
 31
0.0
  0
LINE
  5
815B
330
1E
100
AcDbEntity
  8
10
  6
CONTINOUS
100
AcDbLine
 10
11.89993899999999
 20
61.26020600000003
 30
0.0
 11
11.89993899999999
 21
64.75000099999999
 31
0.0
  0
ARC
  5
815C
330
1E
100
AcDbEntity
  8
10
  6
CONTINOUS
100
AcDbCircle
 10
11.39993899999999
 20
61.26020600000003
 30
0.0
 40
0.5
100
AcDbArc
 50
284.4783329999994
 51
0.0
  0
LINE
  5
815D
330
1E
100
AcDbEntity
  8
10
  6
CONTINOUS
100
AcDbLine
 10
15.49993999999998
 20
64.75000099999999
 30
0.0
 11
17.49993999999999
 21
64.75000099999999
 31
0.0
  0
LINE
  5
815E
330
1E
100
AcDbEntity
  8
24
  6
CONTINOUS
100
AcDbLine
 10
24.99998599999999
 20
61.07501200000001
 30
0.0
 11
24.99998599999999
 21
48.92498700000004
 31
0.0
  0
LINE
  5
815F
330
1E
100
AcDbEntity
  8
24
  6
CONTINOUS
100
AcDbLine
 10
32.49993999999998
 20
64.75000099999999
 30
0.0
 11
32.49993999999998
 21
48.70000000000004
 31
0.0
  0
LINE
  5
8160
330
1E
100
AcDbEntity
  8
24
  6
CONTINOUS
100
AcDbLine
 10
18.92500399999997
 20
54.999999
 30
0.0
 11
31.07499799999999
 21
54.999999
 31
0.0
  0
LINE
  5
8161
330
1E
100
AcDbEntity
  8
10
  6
CONTINOUS
100
AcDbLine
 10
35.99987899999999
 20
61.250001
 30
0.0
 11
35.99987899999999
 21
64.75000099999999
 31
0.0
  0
LINE
  5
8162
330
1E
100
AcDbEntity
  8
10
  6
CONTINOUS
100
AcDbLine
 10
32.49993999999998
 20
64.75000099999999
 30
0.0
 11
35.99987899999999
 21
64.75000099999999
 31
0.0
  0
LINE
  5
8163
330
1E
100
AcDbEntity
  8
18
100
AcDbLine
 10
11.89993899999999
 20
114.7500009999999
 30
0.0
 11
15.49993999999998
 21
114.7500009999999
 31
0.0
  0
LINE
  5
8164
330
1E
100
AcDbEntity
  8
10
  6
CONTINOUS
100
AcDbLine
 10
203.0232807744075
 20
-10.7315529999999
 30
0.0
 11
203.0232807744075
 21
-4.500023999999881
 31
0.0
  0
LINE
  5
8165
330
1E
100
AcDbEntity
  8
10
  6
CONTINOUS
100
AcDbLine
 10
143.4233337744076
 20
51.89996400000001
 30
0.0
 11
143.4233337744076
 21
-22.39997199999987
 31
0.0
  0
LINE
  5
8166
330
1E
100
AcDbEntity
  8
10
  6
CONTINOUS
100
AcDbLine
 10
135.4233647744075
 20
39.14641600000015
 30
0.0
 11
135.4233647744075
 21
-9.999939999999867
 31
0.0
  0
LINE
  5
8167
330
1E
100
AcDbEntity
  8
10
  6
CONTINOUS
100
AcDbLine
 10
163.4233037744076
 20
64.75000099999999
 30
0.0
 11
163.4233037744076
 21
-32.05000199999986
 31
0.0
  0
LINE
  5
816A
330
1E
100
AcDbEntity
  8
10
  6
CONTINOUS
100
AcDbLine
 10
203.4232747744075
 20
-13.00003199999991
 30
0.0
 11
202.0417667744076
 21
-5.165110999999853
 31
0.0
  0
LINE
  5
816B
330
1E
100
AcDbEntity
  8
10
  6
CONTINOUS
100
AcDbLine
 10
131.4233647744075
 20
39.14641600000015
 30
0.0
 11
131.4233647744075
 21
-9.999939999999867
 31
0.0
  0
LINE
  5
816D
330
1E
100
AcDbEntity
  8
10
  6
CONTINOUS
100
AcDbLine
 10
163.7232747744076
 20
-37.25000199999985
 30
0.0
 11
183.7232747744075
 21
-37.25000199999985
 31
0.0
  0
LINE
  5
816E
330
1E
100
AcDbEntity
  8
10
  6
CONTINOUS
100
AcDbLine
 10
163.7232747744076
 20
-65.25000199999985
 30
0.0
 11
200.5548557744075
 21
-65.25000199999985
 31
0.0
  0
LINE
  5
816F
330
1E
100
AcDbEntity
  8
10
  6
CONTINOUS
100
AcDbLine
 10
202.0111117744074
 20
-61.74993099999985
 30
0.0
 11
163.7232747744076
 21
-61.74993099999985
 31
0.0
  0
LINE
  5
8170
330
1E
100
AcDbEntity
  8
10
  6
CONTINOUS
100
AcDbLine
 10
163.7232747744076
 20
-45.45000199999987
 30
0.0
 11
183.7232747744075
 21
-45.45000199999987
 31
0.0
  0
LINE
  5
8171
330
1E
100
AcDbEntity
  8
10
  6
CONTINOUS
100
AcDbLine
 10
163.7232747744076
 20
-32.25000199999985
 30
0.0
 11
184.7232747744075
 21
-32.25000199999985
 31
0.0
  0
LINE
  5
8173
330
1E
100
AcDbEntity
  8
10
  6
CONTINOUS
100
AcDbLine
 10
202.8810777744075
 20
-31.74993099999986
 30
0.0
 11
163.4233037744076
 21
-31.74993099999986
 31
0.0
  0
LINE
  5
8180
330
1E
100
AcDbEntity
  8
10
  6
CONTINOUS
100
AcDbLine
 10
131.9233647744075
 20
-10.49993999999986
 30
0.0
 11
143.4233337744076
 21
-10.49993999999986
 31
0.0
  0
LINE
  5
8185
330
1E
100
AcDbEntity
  8
10
  6
CONTINOUS
100
AcDbLine
 10
163.7232747744076
 20
-65.25000199999985
 30
0.0
 11
163.7232747744076
 21
-32.05000199999986
 31
0.0
  0
LINE
  5
8186
330
1E
100
AcDbEntity
  8
10
  6
CONTINOUS
100
AcDbLine
 10
143.4232747744075
 20
-20.80000199999982
 30
0.0
 11
143.4232747744075
 21
-52.40000199999986
 31
0.0
  0
CIRCLE
  5
8187
330
1E
100
AcDbEntity
  8
10
  6
CONTINOUS
100
AcDbCircle
 10
164.5482747744075
 20
-43.92500199999985
 30
0.0
 40
0.825
  0
LINE
  5
8188
330
1E
100
AcDbEntity
  8
10
  6
CONTINOUS
100
AcDbLine
 10
163.7232747744076
 20
-32.25000199999985
 30
0.0
 11
163.7232747744076
 21
-65.25000199999985
 31
0.0
  0
LINE
  5
8189
330
1E
100
AcDbEntity
  8
10
  6
CONTINOUS
100
AcDbLine
 10
144.4232747744075
 20
-53.40000199999986
 30
0.0
 11
152.7232137744075
 21
-53.40000199999986
 31
0.0
  0
ARC
  5
818A
330
1E
100
AcDbEntity
  8
10
  6
CONTINOUS
100
AcDbCircle
 10
144.4232747744075
 20
-52.40000199999986
 30
0.0
 40
1.0
100
AcDbArc
 50
180.0
 51
270.0
  0
LINE
  5
818B
330
1E
100
AcDbEntity
  8
10
  6
CONTINOUS
100
AcDbLine
 10
155.3696597744076
 20
-65.10348699999986
 30
0.0
 11
152.8696597744076
 21
-62.60348699999986
 31
0.0
  0
LINE
  5
818C
330
1E
100
AcDbEntity
  8
10
  6
CONTINOUS
100
AcDbLine
 10
155.7232747744075
 20
-65.25000199999985
 30
0.0
 11
163.7232747744076
 21
-65.25000199999985
 31
0.0
  0
ARC
  5
818D
330
1E
100
AcDbEntity
  8
10
  6
CONTINOUS
100
AcDbCircle
 10
155.7232137744075
 20
-64.74993299999986
 30
0.0
 40
0.5
100
AcDbArc
 50
225.0
 51
270.0
  0
LINE
  5
818E
330
1E
100
AcDbEntity
  8
10
  6
CONTINOUS
100
AcDbLine
 10
163.7232747744076
 20
-61.75000199999985
 30
0.0
 11
152.7232137744075
 21
-61.75000199999985
 31
0.0
  0
LINE
  5
818F
330
1E
100
AcDbEntity
  8
10
  6
CONTINOUS
100
AcDbLine
 10
163.7232747744076
 20
-61.74986299999986
 30
0.0
 11
152.7232737744076
 21
-61.74986299999986
 31
0.0
  0
LINE
  5
8190
330
1E
100
AcDbEntity
  8
10
  6
CONTINOUS
100
AcDbLine
 10
152.7232137744075
 20
-53.40000199999986
 30
0.0
 11
152.7232137744075
 21
-62.24993299999986
 31
0.0
  0
ARC
  5
8191
330
1E
100
AcDbEntity
  8
10
  6
CONTINOUS
100
AcDbCircle
 10
153.2232137744076
 20
-62.24993299999986
 30
0.0
 40
0.5
100
AcDbArc
 50
180.0
 51
225.0
  0
LINE
  5
8192
330
1E
100
AcDbEntity
  8
10
  6
CONTINOUS
100
AcDbLine
 10
143.4232747744075
 20
-23.69997599999988
 30
0.0
 11
152.5232137744076
 21
-23.69997599999988
 31
0.0
  0
LINE
  5
8193
330
1E
100
AcDbEntity
  8
10
  6
CONTINOUS
100
AcDbLine
 10
143.4232747744075
 20
-29.31185199999987
 30
0.0
 11
152.5232137744076
 21
-29.31185199999987
 31
0.0
  0
LINE
  5
8194
330
1E
100
AcDbEntity
  8
10
  6
CONTINOUS
100
AcDbLine
 10
152.4233037744076
 20
-23.39997199999988
 30
0.0
 11
144.4233337744076
 21
-23.39997199999988
 31
0.0
  0
ARC
  5
8195
330
1E
100
AcDbEntity
  8
10
  6
CONTINOUS
100
AcDbCircle
 10
144.4233337744076
 20
-22.39997199999987
 30
0.0
 40
1.0
100
AcDbArc
 50
179.999996999999
 51
270.0
  0
LINE
  5
8197
330
1E
100
AcDbEntity
  8
10
  6
CONTINOUS
100
AcDbLine
 10
152.4233037744076
 20
-32.05000199999986
 30
0.0
 11
152.4233037744076
 21
-23.39997199999988
 31
0.0
  0
LINE
  5
8198
330
1E
100
AcDbEntity
  8
10
  6
CONTINOUS
100
AcDbLine
 10
163.7232747744076
 20
-32.05000199999986
 30
0.0
 11
152.5232137744076
 21
-32.05000199999986
 31
0.0
  0
LINE
  5
8199
330
1E
100
AcDbEntity
  8
10
  6
CONTINOUS
100
AcDbLine
 10
152.4233037744076
 20
-31.74993999999982
 30
0.0
 11
163.4233037744076
 21
-31.74993999999982
 31
0.0
  0
CIRCLE
  5
819A
330
1E
100
AcDbEntity
  8
10
  6
CONTINOUS
100
AcDbCircle
 10
164.5482747744075
 20
-38.97500199999987
 30
0.0
 40
0.825
  0
CIRCLE
  5
819B
330
1E
100
AcDbEntity
  8
10
  6
CONTINOUS
100
AcDbCircle
 10
164.5482747744075
 20
-40.62500199999985
 30
0.0
 40
0.825
  0
CIRCLE
  5
819C
330
1E
100
AcDbEntity
  8
10
  6
CONTINOUS
100
AcDbCircle
 10
164.5482747744075
 20
-42.27500199999986
 30
0.0
 40
0.825
  0
LINE
  5
81B5
330
1E
100
AcDbEntity
  8
10
  6
CONTINOUS
100
AcDbLine
 10
203.4232747744075
 20
-32.25000199999985
 30
0.0
 11
203.4232747744075
 21
-58.49993099999985
 31
0.0
  0
LINE
  5
81B6
330
1E
100
AcDbEntity
  8
10
  6
CONTINOUS
100
AcDbLine
 10
185.7232747744075
 20
-47.45000199999987
 30
0.0
 11
185.7232747744075
 21
-60.74993099999986
 31
0.0
  0
ARC
  5
81B7
330
1E
100
AcDbEntity
  8
10
  6
CONTINOUS
100
AcDbCircle
 10
184.7232747744075
 20
-60.74993099999986
 30
0.0
 40
1.0
100
AcDbArc
 50
270.0
 51
0.0
  0
ARC
  5
81B8
330
1E
100
AcDbEntity
  8
10
  6
CONTINOUS
100
AcDbCircle
 10
183.7232747744075
 20
-47.45000199999987
 30
0.0
 40
2.0
100
AcDbArc
 50
0.0
 51
90.0
  0
LINE
  5
81B9
330
1E
100
AcDbEntity
  8
10
  6
CONTINOUS
100
AcDbLine
 10
202.5244707744075
 20
-63.59729799999985
 30
0.0
 11
203.4232747744075
 21
-58.49993099999985
 31
0.0
  0
ARC
  5
81BA
330
1E
100
AcDbEntity
  8
10
  6
CONTINOUS
100
AcDbCircle
 10
200.5548557744075
 20
-63.25000199999984
 30
0.0
 40
2.0
100
AcDbArc
 50
270.0
 51
350.0000000000013
  0
ARC
  5
81BB
330
1E
100
AcDbEntity
  8
10
  6
CONTINOUS
100
AcDbCircle
 10
202.0111117744074
 20
-60.74993099999986
 30
0.0
 40
1.0
100
AcDbArc
 50
270.0
 51
350.0000000000013
  0
LINE
  5
81BC
330
1E
100
AcDbEntity
  8
10
  6
CONTINOUS
100
AcDbLine
 10
185.7232747744075
 20
-35.25000199999985
 30
0.0
 11
200.5857207744075
 21
-35.25000199999985
 31
0.0
  0
LINE
  5
81BD
330
1E
100
AcDbEntity
  8
10
  6
CONTINOUS
100
AcDbLine
 10
185.7232747744075
 20
-35.35000199999986
 30
0.0
 11
185.7232747744075
 21
-33.25000199999985
 31
0.0
  0
ARC
  5
81BE
330
1E
100
AcDbEntity
  8
10
  6
CONTINOUS
100
AcDbCircle
 10
183.7232747744075
 20
-35.25000199999985
 30
0.0
 40
2.0
100
AcDbArc
 50
270.0
 51
0.0
  0
ARC
  5
81BF
330
1E
100
AcDbEntity
  8
10
  6
CONTINOUS
100
AcDbCircle
 10
184.7232747744075
 20
-33.25000199999985
 30
0.0
 40
1.0
100
AcDbArc
 50
0.0
 51
90.0
  0
LINE
  5
81C0
330
1E
100
AcDbEntity
  8
10
  6
CONTINOUS
100
AcDbLine
 10
203.4232747744075
 20
-13.00003199999991
 30
0.0
 11
203.4232747744075
 21
-28.50005299999989
 31
0.0
  0
ARC
  5
81C1
330
1E
100
AcDbEntity
  8
10
  6
CONTINOUS
100
AcDbCircle
 10
200.5857207744075
 20
-33.25000199999985
 30
0.0
 40
2.0
100
AcDbArc
 50
270.0
 51
350.0000000000013
  0
LINE
  5
81C2
330
1E
100
AcDbEntity
  8
10
  6
CONTINOUS
100
AcDbLine
 10
200.5857207744075
 20
-35.25000199999985
 30
0.0
 11
203.4232747744075
 21
-35.25000199999985
 31
0.0
  0
LINE
  5
81C3
330
1E
100
AcDbEntity
  8
10
  6
CONTINOUS
100
AcDbLine
 10
202.5553367744076
 20
-33.59729799999985
 30
0.0
 11
203.3928897744075
 21
-28.84729799999985
 31
0.0
  0
LINE
  5
81C4
330
1E
100
AcDbEntity
  8
10
  6
CONTINOUS
100
AcDbLine
 10
203.4232747744075
 20
-32.25000199999985
 30
0.0
 11
202.9741127744075
 21
-32.25000199999985
 31
0.0
  0
LINE
  5
81C5
330
1E
100
AcDbEntity
  8
10
  6
CONTINOUS
100
AcDbLine
 10
202.5222127744075
 20
-33.75000199999985
 30
0.0
 11
203.4232747744075
 21
-33.75000199999985
 31
0.0
  0
ARC
  5
81C6
330
1E
100
AcDbEntity
  8
10
  6
CONTINOUS
100
AcDbCircle
 10
201.4232747744075
 20
-28.50000099999988
 30
0.0
 40
2.0
100
AcDbArc
 50
350.0000000000013
 51
0.0
  0
LINE
  5
81C7
330
1E
100
AcDbEntity
  8
10
  6
CONTINOUS
100
AcDbLine
 10
160.4232747744075
 20
54.54987899999999
 30
0.0
 11
203.4232747744075
 21
54.54987899999999
 31
0.0
  0
LINE
  5
81C8
330
1E
100
AcDbEntity
  8
10
  6
CONTINOUS
100
AcDbLine
 10
160.4232747744075
 20
59.449879
 30
0.0
 11
203.1984747744075
 21
59.449879
 31
0.0
  0
LINE
  5
81C9
330
1E
100
AcDbEntity
  8
18
100
AcDbLine
 10
154.9232747744075
 20
114.250001
 30
0.0
 11
200.9232747744075
 21
114.250001
 31
0.0
  0
LINE
  5
81CB
330
1E
100
AcDbEntity
  8
10
  6
CONTINOUS
100
AcDbLine
 10
202.0419817744075
 20
61.24990699999995
 30
0.0
 11
163.4233037744076
 21
61.24990699999995
 31
0.0
  0
LINE
  5
81CC
330
1E
100
AcDbEntity
  8
10
  6
CONTINOUS
100
AcDbLine
 10
163.4233037744076
 20
64.75000099999999
 30
0.0
 11
200.5857207744075
 21
64.75000099999999
 31
0.0
  0
LINE
  5
81CD
330
1E
100
AcDbEntity
  8
18
100
AcDbLine
 10
154.9232747744075
 20
114.250001
 30
0.0
 11
154.9232747744075
 21
64.75000099999999
 31
0.0
  0
LINE
  5
81CE
330
1E
100
AcDbEntity
  8
10
  6
CONTINOUS
100
AcDbLine
 10
131.7769177744075
 20
39.49997000000013
 30
0.0
 11
143.4233337744076
 21
39.49997000000013
 31
0.0
  0
LINE
  5
81D0
330
1E
100
AcDbEntity
  8
10
  6
CONTINOUS
100
AcDbLine
 10
131.4233647744075
 20
29.17098400000014
 30
0.0
 11
125.6521547744075
 21
31.62071000000013
 31
0.0
  0
ARC
  5
81D1
330
1E
100
AcDbEntity
  8
10
  6
CONTINOUS
100
AcDbCircle
 10
123.4202017744076
 20
31.48117100000012
 30
0.0
 40
0.5
100
AcDbArc
 50
156.9999980000015
 51
247.0000009999997
  0
LINE
  5
81D5
330
1E
100
AcDbEntity
  8
10
  6
CONTINOUS
100
AcDbLine
 10
123.2248307744076
 20
31.02090600000014
 30
0.0
 11
131.4233647744075
 21
27.54084300000011
 31
0.0
  0
ARC
  5
81D6
330
1E
100
AcDbEntity
  8
30
  6
CONTINUOUS
100
AcDbCircle
 10
151.3590907744076
 20
17.8125470000001
 30
0.0
 40
31.93581299999999
100
AcDbArc
 50
158.0705149999988
 51
180.0
  0
LINE
  5
81D7
330
1E
100
AcDbEntity
  8
0
  6
CONTINUOUS
100
AcDbLine
 10
119.4232777744075
 20
17.8125470000001
 30
0.0
 11
119.4232777744075
 21
14.81336600000014
 31
0.0
  0
LINE
  5
81D8
330
1E
100
AcDbEntity
  8
10
  6
CONTINOUS
100
AcDbLine
 10
125.1784877744076
 20
35.62343600000014
 30
0.0
 11
131.4233647744075
 21
32.97264700000011
 31
0.0
  0
CIRCLE
  5
81D9
330
1E
100
AcDbEntity
  8
10
  6
CONTINOUS
100
AcDbCircle
 10
126.0428887744076
 20
32.5412240000001
 30
0.0
 40
1.0
  0
LINE
  5
81DA
330
1E
100
AcDbEntity
  8
10
  6
CONTINOUS
100
AcDbLine
 10
124.5228657744075
 20
35.35854900000009
 30
0.0
 11
122.9599547744075
 21
31.67652500000013
 31
0.0
  0
ARC
  5
81DB
330
1E
100
AcDbEntity
  8
10
  6
CONTINOUS
100
AcDbCircle
 10
124.9831267744075
 20
35.16319100000014
 30
0.0
 40
0.5
100
AcDbArc
 50
67.00002300000004
 51
156.9999980000015
  0
LINE
  5
81DC
330
1E
100
AcDbEntity
  8
10
  6
CONTINOUS
100
AcDbLine
 10
126.4360387744075
 20
33.46069100000017
 30
0.0
 11
131.4233647744075
 21
31.3437040000001
 31
0.0
  0
ARC
  5
81DD
330
1E
100
AcDbEntity
  8
10
  6
CONTINOUS
100
AcDbCircle
 10
131.7769177744075
 20
39.14641600000015
 30
0.0
 40
0.353553
100
AcDbArc
 50
90.0
 51
180.0
  0
LINE
  5
81DE
330
1E
100
AcDbEntity
  8
10
  6
CONTINOUS
100
AcDbLine
 10
152.4233037744076
 20
52.89996400000001
 30
0.0
 11
144.4233337744076
 21
52.89996400000001
 31
0.0
  0
ARC
  5
81DF
330
1E
100
AcDbEntity
  8
10
  6
CONTINOUS
100
AcDbCircle
 10
135.7769177744075
 20
39.14641600000015
 30
0.0
 40
0.353553
100
AcDbArc
 50
90.0
 51
180.0
  0
ARC
  5
81E0
330
1E
100
AcDbEntity
  8
10
  6
CONTINOUS
100
AcDbCircle
 10
144.4233337744076
 20
51.89996400000001
 30
0.0
 40
1.0
100
AcDbArc
 50
90.0
 51
180.0
  0
LINE
  5
81E1
330
1E
100
AcDbEntity
  8
10
  6
CONTINOUS
100
AcDbLine
 10
152.4233037744076
 20
64.75000099999999
 30
0.0
 11
163.4233037744076
 21
64.75000099999999
 31
0.0
  0
LINE
  5
81E2
330
1E
100
AcDbEntity
  8
10
  6
CONTINOUS
100
AcDbLine
 10
152.4233037744076
 20
61.250001
 30
0.0
 11
163.4233037744076
 21
61.250001
 31
0.0
  0
LINE
  5
81E3
330
1E
100
AcDbEntity
  8
10
  6
CONTINOUS
100
AcDbLine
 10
160.4232747744075
 20
60.899879
 30
0.0
 11
160.4232747744075
 21
53.09987899999999
 31
0.0
  0
LINE
  5
81E4
330
1E
100
AcDbEntity
  8
10
  6
CONTINOUS
100
AcDbLine
 10
152.4233037744076
 20
64.75000099999999
 30
0.0
 11
152.4233037744076
 21
52.89996400000001
 31
0.0
  0
LINE
  5
81E5
330
1E
100
AcDbEntity
  8
10
  6
CONTINOUS
100
AcDbLine
 10
152.4233037744076
 20
53.09987899999999
 30
0.0
 11
160.4232747744075
 21
53.09987899999999
 31
0.0
  0
LINE
  5
81E6
330
1E
100
AcDbEntity
  8
10
  6
CONTINOUS
100
AcDbLine
 10
152.4233037744076
 20
60.899879
 30
0.0
 11
160.4232747744075
 21
60.899879
 31
0.0
  0
LINE
  5
81E7
330
1E
100
AcDbEntity
  8
18
100
AcDbLine
 10
200.9232747744075
 20
114.250001
 30
0.0
 11
200.9232747744075
 21
64.75000099999999
 31
0.0
  0
LINE
  5
81E8
330
1E
100
AcDbEntity
  8
10
  6
CONTINOUS
100
AcDbLine
 10
203.4232747744075
 20
58.000001
 30
0.0
 11
203.4232747744075
 21
30.30007900000015
 31
0.0
  0
LINE
  5
81E9
330
1E
100
AcDbEntity
  8
10
  6
CONTINOUS
100
AcDbLine
 10
199.6232437744075
 20
32.30001800000013
 30
0.0
 11
199.8348377744076
 21
31.10000600000011
 31
0.0
  0
LINE
  5
81EA
330
1E
100
AcDbEntity
  8
10
  6
CONTINOUS
100
AcDbLine
 10
198.4232437744075
 20
32.30001800000013
 30
0.0
 11
198.4232437744075
 21
-3.000030999999863
 31
0.0
  0
LINE
  5
81EB
330
1E
100
AcDbEntity
  8
10
  6
CONTINOUS
100
AcDbLine
 10
200.2892407744075
 20
-3.500023999999882
 30
0.0
 11
202.0232807744075
 21
-3.500023999999882
 31
0.0
  0
ARC
  5
81EC
330
1E
100
AcDbEntity
  8
10
  6
CONTINOUS
100
AcDbCircle
 10
200.0721507744076
 20
-5.512406999999882
 30
0.0
 40
2.0
100
AcDbArc
 50
9.999999999998609
 51
74.99999999999961
  0
LINE
  5
81ED
330
1E
100
AcDbEntity
  8
10
  6
CONTINOUS
100
AcDbLine
 10
198.4232437744075
 20
-3.000030999999863
 30
0.0
 11
200.5897887744075
 21
-3.58055499999989
 31
0.0
  0
LINE
  5
81EE
330
1E
100
AcDbEntity
  8
10
  6
CONTINOUS
100
AcDbLine
 10
202.0232807744075
 20
-3.500023999999882
 30
0.0
 11
203.0232807744075
 21
-4.500023999999881
 31
0.0
  0
LINE
  5
81EF
330
1E
100
AcDbEntity
  8
10
  6
CONTINOUS
100
AcDbLine
 10
199.8348377744076
 20
31.10000600000011
 30
0.0
 11
202.3320917744075
 21
29.80007900000014
 31
0.0
  0
ARC
  5
81F0
330
1E
100
AcDbEntity
  8
10
  6
CONTINOUS
100
AcDbCircle
 10
194.7232437744075
 20
29.10001800000009
 30
0.0
 40
4.2
100
AcDbArc
 50
331.7574629999995
 51
28.2425370000004
  0
ARC
  5
81F1
330
1E
100
AcDbEntity
  8
10
  6
CONTINOUS
100
AcDbCircle
 10
202.9232437744076
 20
30.30007900000015
 30
0.0
 40
0.5
100
AcDbArc
 50
270.0
 51
0.0
  0
LINE
  5
81F2
330
1E
100
AcDbEntity
  8
10
  6
CONTINOUS
100
AcDbLine
 10
202.3320917744075
 20
29.80007900000014
 30
0.0
 11
202.9232437744076
 21
29.80007900000014
 31
0.0
  0
LINE
  5
81F3
330
1E
100
AcDbEntity
  8
10
  6
CONTINOUS
100
AcDbLine
 10
198.4232437744075
 20
32.30001800000013
 30
0.0
 11
199.6232437744075
 21
32.30001800000013
 31
0.0
  0
LINE
  5
81F4
330
1E
100
AcDbEntity
  8
10
  6
CONTINOUS
100
AcDbLine
 10
202.5553367744076
 20
63.09729700000001
 30
0.0
 11
203.3928897744075
 21
58.34729700000003
 31
0.0
  0
ARC
  5
81F5
330
1E
100
AcDbEntity
  8
10
  6
CONTINOUS
100
AcDbCircle
 10
201.4232747744075
 20
58.000001
 30
0.0
 40
2.0
100
AcDbArc
 50
0.0
 51
9.999999999998609
  0
ARC
  5
81F6
330
1E
100
AcDbEntity
  8
10
  6
CONTINOUS
100
AcDbCircle
 10
200.5857207744075
 20
62.75000099999999
 30
0.0
 40
2.0
100
AcDbArc
 50
9.999999999998609
 51
90.0
  0
ARC
  5
81F7
330
1E
100
AcDbEntity
  8
10
  6
CONTINOUS
100
AcDbCircle
 10
202.0419817744075
 20
60.24990699999995
 30
0.0
 40
1.0
100
AcDbArc
 50
9.999999999998609
 51
90.0
  0
LWPOLYLINE
  5
82B4
330
1E
100
AcDbEntity
  8
18
  6
DIVIDE
100
AcDbPolyline
 90
        4
 70
     1
 43
0.0
 10
-36.85547622668924
 20
-186.0973940210348
 10
37.64452377331076
 20
-186.0973940210348
 10
37.64452377331076
 20
-315.5973940210349
 10
-36.85547622668924
 20
-315.5973940210349
  0
LINE
  5
8356
330
1E
100
AcDbEntity
  8
12
  6
CONTINUOUS
 62
     3
100
AcDbLine
 10
-12.88010953517138
 20
-201.8983412602266
 30
0.0
 11
-12.88010953517138
 21
-185.7965667818429
 31
0.0
  0
LWPOLYLINE
  5
8360
330
1E
100
AcDbEntity
  8
18
  6
DIVIDE
100
AcDbPolyline
 90
        4
 70
     1
 43
0.0
 10
133.7275531033162
 20
-186.0973940210348
 10
208.2275531033161
 20
-186.0973940210348
 10
208.2275531033161
 20
-315.5973940210349
 10
133.7275531033162
 20
-315.5973940210349
  0
DIMENSION
  5
8361
330
1E
100
AcDbEntity
  8
30
  6
CONTINUOUS
100
AcDbDimension
  2
*D5
 10
225.5217630279429
 20
-261.097395865721
 30
0.0
 11
222.521763027943
 21
-235.0973952175877
 31
0.0
 70
    32
  1
52
  3
STANDARD
100
AcDbAlignedDimension
 13
203.2029355925363
 23
-209.0973945694546
 33
0.0
 14
203.2029355925363
 24
-261.097395865721
 34
0.0
 50
90.0
100
AcDbRotatedDimension
1001
ACAD
1000
DSTYLE
1002
{
1070
    79
1070
     3
1002
}
  0
LINE
  5
8362
330
1E
100
AcDbEntity
  8
11
 48
2.0
100
AcDbLine
 10
205.2029356423942
 20
-259.0973958158648
 30
0.0
 11
205.2029356423942
 21
-211.0973946193107
 31
0.0
  0
DIMENSION
  5
8363
330
1E
100
AcDbEntity
  8
30
  6
CONTINUOUS
100
AcDbDimension
  2
*D6
 10
137.2029339971319
 20
-211.0973946193106
 30
0.0
 11
159.2676626206704
 21
-227.0230155245306
 31
0.0
 70
   164
  1
R2
  3
STANDARD
100
AcDbRadialDimension
 15
138.6908832862328
 25
-212.4338103901272
 35
0.0
 40
0.0
1001
ACAD
1000
DSTYLE
1002
{
1070
    79
1070
     3
1002
}
  0
LINE
  5
8364
330
1E
100
AcDbEntity
  8
11
 48
2.0
100
AcDbLine
 10
135.2029339472754
 20
-259.0973958158648
 30
0.0
 11
135.2029339472754
 21
-211.0973945694546
 31
0.0
  0
LINE
  5
8365
330
1E
100
AcDbEntity
  8
11
 48
2.0
100
AcDbLine
 10
137.2029339971319
 20
-261.097395865721
 30
0.0
 11
203.2029355925363
 21
-261.097395865721
 31
0.0
  0
LINE
  5
8366
330
1E
100
AcDbEntity
  8
18
  6
DIVIDE
100
AcDbLine
 10
132.7029338600264
 20
-286.0973964141418
 30
0.0
 11
207.702935729642
 21
-286.0973964141418
 31
0.0
  0
DIMENSION
  5
8367
330
1E
100
AcDbEntity
  8
30
  6
CONTINUOUS
100
AcDbDimension
  2
*D4
 10
205.2029356423926
 20
-303.8119248701383
 30
0.0
 11
170.202934794834
 21
-300.8119248701383
 31
0.0
 70
    32
  1
74
  3
STANDARD
100
AcDbAlignedDimension
 13
135.2029339472756
 23
-259.0973958158648
 33
0.0
 14
205.2029356423926
 24
-259.0973958158648
 34
0.0
100
AcDbRotatedDimension
1001
ACAD
1000
DSTYLE
1002
{
1070
    79
1070
     3
1002
}
  0
ARC
  5
8368
330
1E
100
AcDbEntity
  8
11
 48
2.0
100
AcDbCircle
 10
137.2029339971319
 20
-259.0973958158648
 30
0.0
 40
2.000000049856379
100
AcDbArc
 50
180.0
 51
270.0
  0
LINE
  5
836A
330
1E
100
AcDbEntity
  8
11
 48
2.0
100
AcDbLine
 10
137.2029339971319
 20
-209.0973945694546
 30
0.0
 11
203.2029355925363
 21
-209.0973945694546
 31
0.0
  0
ARC
  5
836B
330
1E
100
AcDbEntity
  8
11
 48
2.0
100
AcDbCircle
 10
137.2029339971319
 20
-211.0973946193107
 30
0.0
 40
2.000000049855997
100
AcDbArc
 50
90.0
 51
179.9999985717308
  0
ARC
  5
836C
330
1E
100
AcDbEntity
  8
11
 48
2.0
100
AcDbCircle
 10
203.2029355925363
 20
-211.0973946193107
 30
0.0
 40
2.00000004985658
100
AcDbArc
 50
0.0
 51
90.0
  0
CIRCLE
  5
83EC
330
1E
100
AcDbEntity
  8
12
  6
DASHED
100
AcDbCircle
 10
12.499986
 20
56.99994000000003
 30
0.0
 40
2.45
  0
LINE
  5
83ED
330
1E
100
AcDbEntity
  8
10
  6
CONTINOUS
100
AcDbLine
 10
12.499986
 20
58.58744000000001
 30
0.0
 11
12.499986
 21
55.41244
 31
0.0
  0
LINE
  5
83EE
330
1E
100
AcDbEntity
  8
10
  6
CONTINOUS
100
AcDbLine
 10
14.087486
 20
56.99994000000003
 30
0.0
 11
10.91248599999999
 21
56.99994000000003
 31
0.0
  0
LINE
  5
83EF
330
1E
100
AcDbEntity
  8
24
  6
CONTINOUS
100
AcDbLine
 10
0.0
 20
61.075012
 30
0.0
 11
0.0
 21
48.92498700000003
 31
0.0
  0
DIMENSION
  5
8402
330
1E
100
AcDbEntity
  8
30
  6
CONTINUOUS
100
AcDbDimension
  2
*D9
 10
24.999986
 20
-78.38994427182135
 30
0.0
 11
-0.0000149999999975
 21
-75.38994427182135
 31
0.0
 70
    32
  1
50
  3
STANDARD
100
AcDbAlignedDimension
 13
-25.000016
 23
-63.57501399999986
 33
0.0
 14
24.999986
 24
-63.57501399999986
 34
0.0
100
AcDbRotatedDimension
1001
ACAD
1000
DSTYLE
1002
{
1070
    79
1070
     3
1002
}
  0
DIMENSION
  5
8403
330
1E
100
AcDbEntity
  8
30
  6
CONTINUOUS
100
AcDbDimension
  2
*D8
 10
37.500029
 20
-103.3693829728197
 30
0.0
 11
-0.0000195000000003
 21
-100.3693829728196
 31
0.0
 70
    32
  1
75
  3
STANDARD
100
AcDbAlignedDimension
 13
-37.50006799999999
 23
-61.25000199999984
 33
0.0
 14
37.500029
 24
-61.25000199999984
 34
0.0
100
AcDbRotatedDimension
1001
ACAD
1000
DSTYLE
1002
{
1070
    79
1070
     3
1002
}
  0
DIMENSION
  5
8404
330
1E
100
AcDbEntity
  8
30
  6
CONTINUOUS
100
AcDbDimension
  2
*D7
 10
35.99994
 20
-90.87966406577335
 30
0.0
 11
-0.0000455000000057
 21
-87.87966406577334
 31
0.0
 70
    32
  1
72
  3
STANDARD
100
AcDbAlignedDimension
 13
-36.000031
 23
-9.000030947640084
 33
0.0
 14
35.99994000000001
 24
-9.000031017453295
 34
0.0
100
AcDbRotatedDimension
1001
ACAD
1000
DSTYLE
1002
{
1070
    79
1070
     3
1002
}
  0
LINE
  5
8483
330
1E
100
AcDbEntity
  8
24
  6
CONTINOUS
100
AcDbLine
 10
18.924935
 20
-56.99994099999987
 30
0.0
 11
31.07492900000002
 21
-56.99994099999987
 31
0.0
  0
ARC
  5
8484
330
1E
100
AcDbEntity
  8
24
  6
CONTINOUS
100
AcDbCircle
 10
27.07734228141598
 20
-57.24988099999984
 30
0.0
 40
9.827494281415964
100
AcDbArc
 50
167.0483672722336
 51
192.9516327277664
  0
ARC
  5
8485
330
1E
100
AcDbEntity
  8
24
  6
CONTINOUS
100
AcDbCircle
 10
22.92235371858403
 20
-57.24988099999984
 30
0.0
 40
9.827494281415972
100
AcDbArc
 50
347.0483672722335
 51
12.95163272776641
  0
LINE
  5
8486
330
1E
100
AcDbEntity
  8
24
  6
CONTINOUS
100
AcDbLine
 10
-6.075050999999986
 20
-56.99994099999987
 30
0.0
 11
6.074943000000032
 21
-56.99994099999987
 31
0.0
  0
LINE
  5
8487
330
1E
100
AcDbEntity
  8
24
  6
CONTINOUS
100
AcDbLine
 10
0.0000000000000142
 20
-50.92498899999987
 30
0.0
 11
0.0000000000000142
 21
-63.57501399999986
 31
0.0
  0
DIMENSION
  5
8488
330
1E
100
AcDbEntity
  8
30
  6
CONTINUOUS
100
AcDbDimension
  2
*D10
 10
-51.8673638821626
 20
54.99999934266299
 30
0.0
 11
-54.86736388216262
 21
27.49999967133148
 31
0.0
 70
    32
  1
<>
  3
STANDARD
100
AcDbAlignedDimension
 13
-37.50004600000001
 23
0.0
 33
0.0
 14
-31.0749975425077
 24
54.99999934266297
 34
0.0
 50
90.0
100
AcDbRotatedDimension
1001
ACAD
1000
DSTYLE
1002
{
1070
    79
1070
     3
1002
}
  0
DIMENSION
  5
8489
330
1E
100
AcDbEntity
  8
30
  6
CONTINUOUS
100
AcDbDimension
  2
*D11
 10
-51.8673638821626
 20
0.0000000000000041
 30
0.0
 11
-54.86736388216261
 21
-28.50000049999994
 31
0.0
 70
    32
  1
<>
  3
STANDARD
100
AcDbAlignedDimension
 13
-31.07499700000001
 23
-57.00000099999988
 33
0.0
 14
-37.50004600000001
 24
0.0
 34
0.0
 50
90.0
100
AcDbRotatedDimension
1001
ACAD
1000
DSTYLE
1002
{
1070
    79
1070
     3
1002
}
  0
DIMENSION
  5
848A
330
1E
100
AcDbEntity
  8
30
  6
CONTINUOUS
100
AcDbDimension
  2
*D14
 10
52.63633935493976
 20
-10.00003138096207
 30
0.0
 11
49.63633935493978
 21
14.99996924224292
 31
0.0
 70
    32
  1
<>
  3
STANDARD
100
AcDbAlignedDimension
 13
34.99997053528699
 23
39.99996986544788
 33
0.0
 14
34.99993939490035
 24
-10.00003138096206
 34
0.0
 50
90.0
100
AcDbRotatedDimension
1001
ACAD
1000
DSTYLE
1002
{
1070
    79
1070
     3
1002
}
  0
DIMENSION
  5
848B
330
1E
100
AcDbEntity
  8
30
  6
CONTINUOUS
100
AcDbDimension
  2
*D13
 10
63.82723591670065
 20
-56.99994099999988
 30
0.0
 11
60.82723591670067
 21
-0.0000006141754767
 31
0.0
 70
    32
  1
<>
  3
STANDARD
100
AcDbAlignedDimension
 13
15.91018747730046
 23
56.99993977164892
 33
0.0
 14
15.67496199999999
 24
-56.99994099999987
 34
0.0
 50
90.0
100
AcDbRotatedDimension
1001
ACAD
1000
DSTYLE
1002
{
1070
    79
1070
     3
1002
}
  0
DIMENSION
  5
848C
330
1E
100
AcDbEntity
  8
30
  6
CONTINUOUS
100
AcDbDimension
  2
*D12
 10
76.88328004080839
 20
-65.25000199999985
 30
0.0
 11
73.88328004080841
 21
-0.2500004999999178
 31
0.0
 70
    32
  1
<>
  3
STANDARD
100
AcDbAlignedDimension
 13
35.99987899999999
 23
64.75000099999999
 33
0.0
 14
32.99990099999998
 24
-65.25000199999985
 34
0.0
 50
90.0
100
AcDbRotatedDimension
1001
ACAD
1000
DSTYLE
1002
{
1070
    79
1070
     3
1002
}
  0
DIMENSION
  5
848D
330
1E
100
AcDbEntity
  8
30
  6
CONTINUOUS
100
AcDbDimension
  2
*D15
 10
76.88328004080839
 20
114.7500009999268
 30
0.0
 11
73.88328004080836
 21
89.75000099996346
 31
0.0
 70
    32
  1
50
  3
STANDARD
100
AcDbAlignedDimension
 13
36.99987899999999
 23
64.75000099999999
 33
0.0
 14
15.49993953160796
 24
114.7500009999268
 34
0.0
 50
90.0
100
AcDbRotatedDimension
1001
ACAD
1000
DSTYLE
1002
{
1070
    79
1070
     3
1002
}
  0
DIMENSION
  5
8539
330
1E
100
AcDbEntity
  8
30
  6
CONTINUOUS
100
AcDbDimension
  2
*D17
 10
200.9232747744074
 20
124.143024427814
 30
0.0
 11
177.9232747744075
 21
127.143024427814
 31
0.0
 70
    32
  1
46
  3
STANDARD
100
AcDbAlignedDimension
 13
154.9232747744078
 23
114.250001289352
 33
0.0
 14
200.9232747744074
 24
114.250001289352
 34
0.0
100
AcDbRotatedDimension
1001
ACAD
1000
DSTYLE
1002
{
1070
    79
1070
     3
1002
}
  0
DIMENSION
  5
853A
330
1E
100
AcDbEntity
  8
30
  6
CONTINUOUS
100
AcDbDimension
  2
*D16
 10
203.4232747744075
 20
124.143024427814
 30
0.0
 11
212.4232747744076
 21
127.143024427814
 31
0.0
 70
    32
  1
2.5
  3
STANDARD
100
AcDbAlignedDimension
 13
200.9232747744074
 23
114.250001289352
 33
0.0
 14
203.4232747744075
 24
58.00000115624293
 34
0.0
100
AcDbRotatedDimension
1001
ACAD
1000
DSTYLE
1002
{
1070
    79
1070
     3
1002
}
  0
DIMENSION
  5
853B
330
1E
100
AcDbEntity
  8
30
  6
CONTINUOUS
100
AcDbDimension
  2
*D18
 10
203.4232747744075
 20
82.55775882022254
 30
0.0
 11
181.9232747744075
 21
85.55775882022256
 31
0.0
 70
    32
  1
43
  3
STANDARD
100
AcDbAlignedDimension
 13
160.4232747744074
 23
60.89987915829397
 33
0.0
 14
203.4232747744075
 24
58.00000115624293
 34
0.0
100
AcDbRotatedDimension
1001
ACAD
1000
DSTYLE
1002
{
1070
    79
1070
     3
1002
}
  0
DIMENSION
  5
857D
330
1E
100
AcDbEntity
  8
30
  6
CONTINUOUS
100
AcDbDimension
  2
*D21
 10
203.4232747744075
 20
-105.8692602611287
 30
0.0
 11
161.4232762744075
 21
-102.8692602611287
 31
0.0
 70
    32
  1
84
  3
STANDARD
100
AcDbAlignedDimension
 13
119.4232777744075
 23
14.81336600000014
 33
0.0
 14
203.4232747744075
 24
-57.49993099999985
 34
0.0
100
AcDbRotatedDimension
1001
ACAD
1000
DSTYLE
1002
{
1070
    79
1070
     3
1002
}
  0
DIMENSION
  5
857E
330
1E
100
AcDbEntity
  8
30
  6
CONTINUOUS
100
AcDbDimension
  2
*D23
 10
203.4232747744075
 20
-80.88982156013045
 30
0.0
 11
177.9232893975275
 21
-77.88982156013045
 31
0.0
 70
    32
  1
51
  3
STANDARD
100
AcDbAlignedDimension
 13
152.4233040206476
 23
-64.24981825322487
 33
0.0
 14
203.4232747744075
 24
-57.49993099999985
 34
0.0
100
AcDbRotatedDimension
1001
ACAD
1000
DSTYLE
1002
{
1070
    79
1070
     3
1002
}
  0
DIMENSION
  5
857F
330
1E
100
AcDbEntity
  8
30
  6
CONTINUOUS
100
AcDbDimension
  2
*D22
 10
203.4232747744075
 20
-93.37954135408244
 30
0.0
 11
173.4233045441396
 21
-90.37954135408243
 31
0.0
 70
    32
  1
60
  3
STANDARD
100
AcDbAlignedDimension
 13
143.4233343138716
 23
-51.39984997635487
 33
0.0
 14
203.4232747744075
 24
-57.49993099999985
 34
0.0
100
AcDbRotatedDimension
1001
ACAD
1000
DSTYLE
1002
{
1070
    79
1070
     3
1002
}
  0
DIMENSION
  5
8580
330
1E
100
AcDbEntity
  8
30
  6
CONTINUOUS
100
AcDbDimension
  2
*D20
 10
143.4233343138716
 20
-93.31775155113628
 30
0.0
 11
139.4233495083041
 21
-93.31775155113628
 31
0.0
 70
   160
  1
8
  3
STANDARD
100
AcDbAlignedDimension
 13
135.9233647744075
 23
-11.49993999999985
 33
0.0
 14
143.4233343138716
 24
-51.39984997635487
 34
0.0
100
AcDbRotatedDimension
1001
ACAD
1000
DSTYLE
1002
{
1070
    79
1070
     3
1002
}
  0
DIMENSION
  5
8581
330
1E
100
AcDbEntity
  8
30
  6
CONTINUOUS
100
AcDbDimension
  2
*D19
 10
131.9233647744075
 20
-81.47660301854527
 30
0.0
 11
125.0902778363927
 21
-81.47660301854527
 31
0.0
 70
   160
  1
4
  3
STANDARD
100
AcDbAlignedDimension
 13
135.9233647744075
 23
-10.49993999999986
 33
0.0
 14
131.9233647744075
 24
-10.49993999999986
 34
0.0
100
AcDbRotatedDimension
1001
ACAD
1000
DSTYLE
1002
{
1070
    79
1070
     3
1002
}
  0
CIRCLE
  5
873C
330
1E
100
AcDbEntity
  8
12
  6
DASHED
100
AcDbCircle
 10
-12.50005299999999
 20
-56.99994099999987
 30
0.0
 40
2.45
  0
LINE
  5
873D
330
1E
100
AcDbEntity
  8
10
  6
CONTINOUS
100
AcDbLine
 10
-12.50005299999999
 20
-53.04994099999987
 30
0.0
 11
-12.50005299999999
 21
-53.82494099999989
 31
0.0
  0
LINE
  5
873E
330
1E
100
AcDbEntity
  8
12
  6
DASHED
100
AcDbLine
 10
-10.912553
 20
-56.99994099999987
 30
0.0
 11
-14.087553
 21
-56.99994099999987
 31
0.0
  0
LINE
  5
873F
330
1E
100
AcDbEntity
  8
12
  6
DASHED
100
AcDbLine
 10
-12.50005299999999
 20
-55.41244099999989
 30
0.0
 11
-12.50005299999999
 21
-58.58744099999986
 31
0.0
  0
LINE
  5
8788
330
1E
100
AcDbEntity
  8
16
100
AcDbLine
 10
220.2022120126633
 20
-235.8473940210348
 30
0.0
 11
106.799073386507
 21
-235.8473940210348
 31
0.0
  0
DIMENSION
  5
8789
330
1E
100
AcDbEntity
  8
30
  6
CONTINUOUS
100
AcDbDimension
  2
*D24
 10
215.2489879456688
 20
-250.8473940210349
 30
0.0
 11
212.2489879456689
 21
-243.3473940210348
 31
0.0
 70
    32
  3
STANDARD
100
AcDbAlignedDimension
 13
205.2029356423942
 23
-235.8473940210348
 33
0.0
 14
205.2029356423942
 24
-250.8473940210349
 34
0.0
 50
90.0
100
AcDbRotatedDimension
1001
ACAD
1000
DSTYLE
1002
{
1070
    79
1070
     3
1002
}
  0
CIRCLE
  5
880D
330
1E
100
AcDbEntity
  8
10
  6
CONTINOUS
100
AcDbCircle
 10
-27.4
 20
1.649940000000014
 30
0.0
 40
1.75
  0
CIRCLE
  5
880E
330
1E
100
AcDbEntity
  8
10
  6
CONTINOUS
100
AcDbCircle
 10
-27.4
 20
10.64994000000001
 30
0.0
 40
1.75
  0
CIRCLE
  5
880F
330
1E
100
AcDbEntity
  8
10
  6
CONTINOUS
100
AcDbCircle
 10
-27.4
 20
10.64994000000001
 30
0.0
 40
2.1
  0
CIRCLE
  5
8810
330
1E
100
AcDbEntity
  8
10
  6
CONTINOUS
100
AcDbCircle
 10
-27.4
 20
1.649940000000014
 30
0.0
 40
2.1
  0
CIRCLE
  5
881D
330
1E
100
AcDbEntity
  8
10
  6
CONTINOUS
100
AcDbCircle
 10
24.20000799999998
 20
-6.200000999999986
 30
0.0
 40
3.1
  0
CIRCLE
  5
881E
330
1E
100
AcDbEntity
  8
10
  6
CONTINOUS
100
AcDbCircle
 10
24.20000799999998
 20
-6.200000999999986
 30
0.0
 40
3.75
  0
CIRCLE
  5
881F
330
1E
100
AcDbEntity
  8
10
  6
CONTINOUS
100
AcDbCircle
 10
25.70013099999998
 20
8.299999000000013
 30
0.0
 40
2.85
  0
CIRCLE
  5
8820
330
1E
100
AcDbEntity
  8
10
  6
CONTINOUS
100
AcDbCircle
 10
32.69999999999999
 20
1.5
 30
0.0
 40
1.8
  0
LINE
  5
8821
330
1E
100
AcDbEntity
  8
18
100
AcDbLine
 10
57.50002899999998
 20
-37.65000199999996
 30
0.0
 11
57.50002899999998
 21
-44.25000199999995
 31
0.0
  0
SPLINE
  5
8822
330
1E
100
AcDbEntity
  8
18
100
AcDbSpline
210
0.0
220
0.0
230
1.0
 70
     8
 71
     3
 72
    87
 73
    83
 74
    81
 42
0.0000000001
 43
0.0000000001
 44
0.000001
 12
0.2426581112077736
 22
-0.9701118703866455
 32
0.0
 13
-0.6507913734550554
 23
-0.7592566023660793
 33
0.0
 40
0.0
 40
0.0
 40
0.0
 40
0.0
 40
0.1255431072398531
 40
0.2511269969225507
 40
0.3839024650050819
 40
0.5167054937989219
 40
0.6570174880254034
 40
0.7973457869491374
 40
0.9443722598956362
 40
1.091407705447826
 40
1.243648881242693
 40
1.395894469434884
 40
1.551540750169384
 40
1.707189016119118
 40
1.864243005435205
 40
2.021297271111128
 40
2.177682715433798
 40
2.334066829371475
 40
2.487479342050973
 40
2.640884439585039
 40
2.788215043043666
 40
2.935527252749744
 40
3.074193840372282
 40
3.212820851634023
 40
3.341840283566289
 40
3.470785858720001
 40
3.592177629147735
 40
3.713561721970668
 40
3.832521465735066
 40
3.951501595424083
 40
4.072666054292797
 40
4.193862121060581
 40
4.320363008755451
 40
4.446892611283519
 40
4.580090452955628
 40
4.71331902412496
 40
4.851879281796321
 40
4.99045201614966
 40
5.131461119323011
 40
5.27247217460024
 40
5.412524634283911
 40
5.552569795738055
 40
5.688372575418822
 40
5.824149734484426
 40
5.953138789480012
 40
6.082069389293635
 40
6.204074917685059
 40
6.325981557416983
 40
6.44521514379643
 40
6.564373394739002
 40
6.68958895736364
 40
6.814992378288984
 40
6.950709179302371
 40
7.086505378725121
 40
7.229860454445701
 40
7.373238090393533
 40
7.51826264162081
 40
7.663280399564089
 40
7.80416720303766
 40
7.945042545922918
 40
8.079615931208055
 40
8.214168470955867
 40
8.341935309688135
 40
8.469668073173551
 40
8.591574124563631
 40
8.713434931530143
 40
8.832447802635048
 40
8.951467293301361
 40
9.071921336912293
 40
9.192398541145596
 40
9.318011224275114
 40
9.443651947668431
 40
9.577122760985565
 40
9.710618434358122
 40
9.853270735784251
 40
9.99595129635338
 40
10.14641836130679
 40
10.29689822043584
 40
10.45231410938838
 40
10.60773471966132
 40
10.76467115198074
 40
10.92160673161709
 40
10.92160673161709
 40
10.92160673161709
 40
10.92160673161709
 10
49.04860106496812
 20
-36.65000161432771
 30
0.0
 10
49.05875574939411
 20
-36.69059856718725
 30
0.0
 10
49.08275473885939
 20
-36.77091777276418
 30
0.0
 10
49.1287982893064
 20
-36.8904199430061
 30
0.0
 10
49.18376949517147
 20
-37.00875227300231
 30
0.0
 10
49.24778190185751
 20
-37.12801584479294
 30
0.0
 10
49.31880689674587
 20
-37.24617481875468
 30
0.0
 10
49.39726144596722
 20
-37.36523833800704
 30
0.0
 10
49.48100505168472
 20
-37.48339081309019
 30
0.0
 10
49.57043884209016
 20
-37.60229391513689
 30
0.0
 10
49.66357549648097
 20
-37.72053557971801
 30
0.0
 10
49.7606249592616
 20
-37.83931247727418
 30
0.0
 10
49.85996262762002
 20
-37.9576653059428
 30
0.0
 10
49.96143177790312
 20
-38.07631046056671
 30
0.0
 10
50.06381956328052
 20
-38.19478336449717
 30
0.0
 10
50.16653073792801
 20
-38.31330098280147
 30
0.0
 10
50.26880760229953
 20
-38.43189968979473
 30
0.0
 10
50.36953496910229
 20
-38.5502287024952
 30
0.0
 10
50.46842190811513
 20
-38.66881347840404
 30
0.0
 10
50.56327316750231
 20
-38.78681142954684
 30
0.0
 10
50.65386952940407
 20
-38.90557160190382
 30
0.0
 10
50.73739142277638
 20
-39.02345839057811
 30
0.0
 10
50.81402310596675
 20
-39.14252094943629
 30
0.0
 10
50.88070879788598
 20
-39.26051544706024
 30
0.0
 10
50.93754065813297
 20
-39.38000896186976
 30
0.0
 10
50.9818655039668
 20
-39.49866393280368
 30
0.0
 10
51.01280458067475
 20
-39.618879554968
 30
0.0
 10
51.03056434146677
 20
-39.73837367565734
 30
0.0
 10
51.03553978630525
 20
-39.85825410573115
 30
0.0
 10
51.02871913200441
 20
-39.97794629048444
 30
0.0
 10
51.01046997469119
 20
-40.09717204734697
 30
0.0
 10
50.98154610247022
 20
-40.21681185101916
 30
0.0
 10
50.94277635072237
 20
-40.33550052539666
 30
0.0
 10
50.89434984308187
 20
-40.45488506904975
 30
0.0
 10
50.8377079445989
 20
-40.57306715012157
 30
0.0
 10
50.77356726477656
 20
-40.69189224128352
 30
0.0
 10
50.70442538294702
 20
-40.80994149498827
 30
0.0
 10
50.63105384513113
 20
-40.92845643191051
 30
0.0
 10
50.55562667704656
 20
-41.04663652589141
 30
0.0
 10
50.47942851201833
 20
-41.16490593659036
 30
0.0
 10
50.40402442573032
 20
-41.28330548629949
 30
0.0
 10
50.33135252844526
 20
-41.40137520386061
 30
0.0
 10
50.2623648277071
 20
-41.52000384772146
 30
0.0
 10
50.19974580784031
 20
-41.63798576039314
 30
0.0
 10
50.14432401075009
 20
-41.75702338842957
 30
0.0
 10
50.09891705840671
 20
-41.8753912181647
 30
0.0
 10
50.06473982434991
 20
-41.99507083288911
 30
0.0
 10
50.04403934798161
 20
-42.11463917509798
 30
0.0
 10
50.03927128997827
 20
-42.23501628791285
 30
0.0
 10
50.0518401538089
 20
-42.35605107000943
 30
0.0
 10
50.08405385953754
 20
-42.47549526020537
 30
0.0
 10
50.13242458768928
 20
-42.59506710255418
 30
0.0
 10
50.19301101682627
 20
-42.71284692773665
 30
0.0
 10
50.26430052586598
 20
-42.83141516623223
 30
0.0
 10
50.3419566503041
 20
-42.94894687678031
 30
0.0
 10
50.42435087698857
 20
-43.06695331547318
 30
0.0
 10
50.50798624336398
 20
-43.18475481063731
 30
0.0
 10
50.59018190845197
 20
-43.3025648668042
 30
0.0
 10
50.66866383395493
 20
-43.42124129284524
 30
0.0
 10
50.74147608649881
 20
-43.53941909760736
 30
0.0
 10
50.80861464681204
 20
-43.65850453295329
 30
0.0
 10
50.86807384730957
 20
-43.77675597030711
 30
0.0
 10
50.91990755632348
 20
-43.89607783772223
 30
0.0
 10
50.96232672733483
 20
-44.01463168453661
 30
0.0
 10
50.99494571148246
 20
-44.13422939180509
 30
0.0
 10
51.01648116994915
 20
-44.25341350689132
 30
0.0
 10
51.02587523238892
 20
-44.37320786797417
 30
0.0
 10
51.02362987885302
 20
-44.4928685126473
 30
0.0
 10
51.00978421404709
 20
-44.61222933611986
 30
0.0
 10
50.98486559006184
 20
-44.73199794120659
 30
0.0
 10
50.94928482161669
 20
-44.85084011556064
 30
0.0
 10
50.9030071235033
 20
-44.97056314451249
 30
0.0
 10
50.84710644094065
 20
-45.0890113917526
 30
0.0
 10
50.78087585375385
 20
-45.20850793968825
 30
0.0
 10
50.70613418450689
 20
-45.32650735278366
 30
0.0
 10
50.62267775750078
 20
-45.44545539018542
 30
0.0
 10
50.53341568199462
 20
-45.56338407237769
 30
0.0
 10
50.43823678041846
 20
-45.68206793969673
 30
0.0
 10
50.33972004527771
 20
-45.80014530544777
 30
0.0
 10
50.23832401026631
 20
-45.91860141451603
 30
0.0
 10
50.13594457161882
 20
-46.03687656558872
 30
0.0
 10
50.06755040548852
 20
-46.1160505101957
 30
0.0
 10
50.03350629835001
 20
-46.15576863519073
 30
0.0
 11
49.04860106496812
 21
-36.65000161432771
 31
0.0
 11
49.08428132279169
 21
-36.77036769875916
 31
0.0
 11
49.12919406695465
 21
-36.88764578984899
 31
0.0
 11
49.184906697933
 21
-37.00816724197753
 31
0.0
 11
49.24750786364973
 21
-37.12528996537045
 31
0.0
 11
49.31962291875269
 21
-37.24565137387694
 31
0.0
 11
49.39667341497662
 21
-37.36293414089197
 31
0.0
 11
49.48156319507083
 21
-37.48297790044043
 31
0.0
 11
49.56982168085861
 21
-37.60057831641359
 31
0.0
 11
49.66392895143227
 21
-37.72024950543535
 31
0.0
 11
49.76016351065769
 21
-37.83822249193514
 31
0.0
 11
49.860146049141
 21
-37.95750892826713
 31
0.0
 11
49.96122931149017
 21
-38.07586666745669
 31
0.0
 11
50.06384754953174
 21
-38.19475926958617
 31
0.0
 11
50.16662937991128
 21
-38.31351084297827
 31
0.0
 11
50.26868185208312
 21
-38.43200851802169
 31
0.0
 11
50.36997401247615
 21
-38.55115501849985
 31
0.0
 11
50.46806918559224
 21
-38.66910727866002
 31
0.0
 11
50.56402213935917
 21
-38.78879919402153
 31
0.0
 11
50.65317803124557
 21
-38.90609170870101
 31
0.0
 11
50.73812722521267
 21
-39.02644336954314
 31
0.0
 11
50.81289714451853
 21
-39.14322471475713
 31
0.0
 11
50.88079136830817
 21
-39.26408754506482
 31
0.0
 11
50.9358448157219
 21
-39.38077144623838
 31
0.0
 11
50.98051666691738
 21
-39.50173172058653
 31
0.0
 11
51.01073413687567
 21
-39.61930240912653
 31
0.0
 11
51.02852332769842
 21
-39.73937589610816
 31
0.0
 11
51.03358722899209
 21
-39.85822780429399
 31
0.0
 11
51.02690399085677
 21
-39.97702007162962
 31
0.0
 11
51.00878181792913
 21
-40.09682160893354
 31
0.0
 11
50.98046940498432
 21
-40.21466424715117
 31
0.0
 11
50.94140249023524
 21
-40.33498150078588
 31
0.0
 11
50.89403031867298
 21
-40.45230842267275
 31
0.0
 11
50.83676517946187
 21
-40.57256795989909
 31
0.0
 11
50.7737517595164
 21
-40.68995259819423
 31
0.0
 11
50.70394420031316
 21
-40.80964327317254
 31
0.0
 11
50.63121587111496
 21
-40.92759677371568
 31
0.0
 11
50.55554223889487
 21
-41.04658049897338
 31
0.0
 11
50.47935907607044
 21
-41.16524094923727
 31
0.0
 11
50.40432544178449
 21
-41.28349784088555
 31
0.0
 11
50.33111779698484
 21
-41.40288512475888
 31
0.0
 11
50.26312524153286
 21
-41.52044120742814
 31
0.0
 11
50.19976668718914
 21
-41.64052930028055
 31
0.0
 11
50.14568617599917
 21
-41.75763390648802
 31
0.0
 11
50.09993332293086
 21
-41.87817347580217
 31
0.0
 11
50.06684525158724
 21
-41.99560659464228
 31
0.0
 11
50.04658351118658
 21
-42.11581765132388
 31
0.0
 11
50.0421199740847
 21
-42.23496768535581
 31
0.0
 11
50.05468305893284
 21
-42.35346182684549
 31
0.0
 11
50.08641931381058
 21
-42.47458882337556
 31
0.0
 11
50.1327848721501
 21
-42.59110600236711
 31
0.0
 11
50.19430002282367
 21
-42.71208093530279
 31
0.0
 11
50.26379025283387
 21
-42.8287501778887
 31
0.0
 11
50.34245654663817
 21
-42.94859293510151
 31
0.0
 11
50.42418760198343
 21
-43.06639435341018
 31
0.0
 11
50.50782527500058
 21
-43.1848715734439
 31
0.0
 11
50.59046532059816
 21
-43.30403852893172
 31
0.0
 11
50.66803077589927
 21
-43.4216509490986
 31
0.0
 11
50.7417751262129
 21
-43.54168270445319
 31
0.0
 11
50.8076793551281
 21
-43.65901394223786
 31
0.0
 11
50.86792200250503
 21
-43.77932687997469
 31
0.0
 11
50.91860249611746
 21
-43.89661222919365
 31
0.0
 11
50.96137424968739
 21
-44.01697105549629
 31
0.0
 11
50.9932159979418
 21
-44.13464522324314
 31
0.0
 11
51.014600167973
 21
-44.25461523101789
 31
0.0
 11
51.02394976033252
 21
-44.37326040996453
 31
0.0
 11
51.02173475820646
 21
-44.49225940653952
 31
0.0
 11
51.00800838072132
 21
-44.61192890477756
 31
0.0
 11
50.98357982375938
 21
-44.72990358206117
 31
0.0
 11
50.94774537539669
 21
-44.85029651782659
 31
0.0
 11
50.90260386863511
 21
-44.96754775758279
 31
0.0
 11
50.84582274900473
 21
-45.08833839970939
 31
0.0
 11
50.78127539683699
 21
-45.20519193310434
 31
0.0
 11
50.70520968297677
 21
-45.32587208744268
 31
0.0
 11
50.62349572292117
 21
-45.44283610862581
 31
0.0
 11
50.53286629782172
 21
-45.56294712220782
 31
0.0
 11
50.43889740365475
 21
-45.68048028414728
 31
0.0
 11
50.33947278983953
 21
-45.79993259043157
 31
0.0
 11
50.2385458063577
 21
-45.91812445966882
 31
0.0
 11
50.13596516909778
 21
-46.03689425366349
 31
0.0
 11
50.03350629835001
 21
-46.15576863519073
 31
0.0
  0
SPLINE
  5
8823
330
1E
100
AcDbEntity
  8
18
100
AcDbSpline
210
0.0
220
0.0
230
1.0
 70
     8
 71
     3
 72
   103
 73
    99
 74
    97
 42
0.0000000001
 43
0.0000000001
 44
0.000001
 12
-0.1460598731528251
 22
-0.9892757519794875
 32
0.0
 13
-0.6507913734557392
 23
-0.7592566023654931
 33
0.0
 40
0.0
 40
0.0
 40
0.0
 40
0.0
 40
0.0992148049618795
 40
0.198450855274276
 40
0.2991918449174892
 40
0.3999707082522197
 40
0.5055226260205644
 40
0.611107468931664
 40
0.7229832868367364
 40
0.8348810781762489
 40
0.9532329816860672
 40
1.07159844842709
 40
1.195560466578953
 40
1.319529684239306
 40
1.447624425078859
 40
1.57572265626353
 40
1.706139080341103
 40
1.836556709619794
 40
1.96731977532053
 40
2.098082250560354
 40
2.227175107473179
 40
2.356265290536667
 40
2.48177920510798
 40
2.60728723530859
 40
2.727589743030084
 40
2.847880855542882
 40
2.962001982168463
 40
3.076112305780764
 40
3.184358283760365
 40
3.292590400752437
 40
3.395963251857057
 40
3.499320453464682
 40
3.599434287607132
 40
3.699534305879496
 40
3.798644495691047
 40
3.897762018577549
 40
3.99832244070701
 40
4.098895379829228
 40
4.202881361595781
 40
4.3068808211114
 40
4.415697995214028
 40
4.524527016484213
 40
4.638720956551068
 40
4.752932096020626
 40
4.871056166221662
 40
4.989186932195084
 40
5.108762578627833
 40
5.228338385966848
 40
5.346650867975476
 40
5.46495710735062
 40
5.579512484712053
 40
5.694052170575994
 40
5.803115987365048
 40
5.912147381374025
 40
6.015399359949288
 40
6.11859649872176
 40
6.218087423711232
 40
6.3175193895398
 40
6.418155387201029
 40
6.518871388049714
 40
6.624883584407282
 40
6.73094951332369
 40
6.842957611970207
 40
6.954991486461308
 40
7.071327186492641
 40
7.187672479775244
 40
7.305753166103135
 40
7.42383483503665
 40
7.541530943804165
 40
7.659224707889605
 40
7.774652355269362
 40
7.890073277760563
 40
8.001654483968581
 40
8.113221956146327
 40
8.220140322919142
 40
8.327046616758467
 40
8.429821994414819
 40
8.532583017928825
 40
8.632529891937842
 40
8.732463018464645
 40
8.831604253796637
 40
8.930737586309705
 40
9.031674516945827
 40
9.132630294658639
 40
9.23765590769706
 40
9.342700025649946
 40
9.453253790294581
 40
9.563822326996852
 40
9.680626525641642
 40
9.797441323871293
 40
9.920449251963413
 40
10.04346762082084
 40
10.17127138227984
 40
10.29908004362732
 40
10.42961237722012
 40
10.56014638154076
 40
10.69112022020316
 40
10.82209282240741
 40
10.82209282240741
 40
10.82209282240741
 40
10.82209282240741
 10
47.78611410631746
 20
-36.65000161432771
 30
0.0
 10
47.78128367237493
 20
-36.6827185479231
 30
0.0
 10
47.77553686018019
 20
-36.74879494598542
 30
0.0
 10
47.77809161531418
 20
-36.84868496769502
 30
0.0
 10
47.79152421772877
 20
-36.94821646782009
 30
0.0
 10
47.81487326574443
 20
-37.0480143151006
 30
0.0
 10
47.84728973492813
 20
-37.14692861960155
 30
0.0
 10
47.88844569880369
 20
-37.24651373851511
 30
0.0
 10
47.93694210726251
 20
-37.3450863173086
 30
0.0
 10
47.99298129333434
 20
-37.44446521238888
 30
0.0
 10
48.05481414822955
 20
-37.54289898567541
 30
0.0
 10
48.12280067441439
 20
-37.64208680132331
 30
0.0
 10
48.19506510379089
 20
-37.74052653636895
 30
0.0
 10
48.27190384644269
 20
-37.8395679529695
 30
0.0
 10
48.35161615471129
 20
-37.9380860820076
 30
0.0
 10
48.43423051442441
 20
-38.03699613769145
 30
0.0
 10
48.51837963796526
 20
-38.13562106871477
 30
0.0
 10
48.60370512341293
 20
-38.23440531039405
 30
0.0
 10
48.68925722950351
 20
-38.33314562238358
 30
0.0
 10
48.77422777711487
 20
-38.43180550663709
 30
0.0
 10
48.85810384051088
 20
-38.53066936732783
 30
0.0
 10
48.93963850478304
 20
-38.62921587221119
 30
0.0
 10
49.01873397520043
 20
-38.72821018296729
 30
0.0
 10
49.09376941973523
 20
-38.82666475537334
 30
0.0
 10
49.16496547433993
 20
-38.92580190484602
 30
0.0
 10
49.23049427272103
 20
-39.02425877508975
 30
0.0
 10
49.29069399433609
 20
-39.12366356811922
 30
0.0
 10
49.34419130593339
 20
-39.22229700888324
 30
0.0
 10
49.39161312125898
 20
-39.3218259546739
 30
0.0
 10
49.43190158040768
 20
-39.42060998352705
 30
0.0
 10
49.46536676393358
 20
-39.5201971726981
 30
0.0
 10
49.49131454429386
 20
-39.61922403974888
 30
0.0
 10
49.50966467595571
 20
-39.71883289973528
 30
0.0
 10
49.52007757038799
 20
-39.81817450800223
 30
0.0
 10
49.52217349267709
 20
-39.91770670159607
 30
0.0
 10
49.51633760512429
 20
-40.01723386657616
 30
0.0
 10
49.50270722249868
 20
-40.11648230747455
 30
0.0
 10
49.48157586530754
 20
-40.21605419881951
 30
0.0
 10
49.45330792872268
 20
-40.31502701790531
 30
0.0
 10
49.41789180057456
 20
-40.41457969026112
 30
0.0
 10
49.37602807016178
 20
-40.51334816758292
 30
0.0
 10
49.32739101114372
 20
-40.61274882364661
 30
0.0
 10
49.2730617642373
 20
-40.71120260720507
 30
0.0
 10
49.21344435354384
 20
-40.81016002738088
 30
0.0
 10
49.15047834029446
 20
-40.90857217378399
 30
0.0
 10
49.08475327726167
 20
-41.00731105048481
 30
0.0
 10
49.01787872045218
 20
-41.1058566675086
 30
0.0
 10
48.95091302175333
 20
-41.20441337331219
 30
0.0
 10
48.88495008401569
 20
-41.30313880833082
 30
0.0
 10
48.82156502270845
 20
-41.40156099006986
 30
0.0
 10
48.76137252047699
 20
-41.50050881865128
 30
0.0
 10
48.70630761655038
 20
-41.59890065788154
 30
0.0
 10
48.65669858779745
 20
-41.69811656629399
 30
0.0
 10
48.61456994673813
 20
-41.79668930049247
 30
0.0
 10
48.58042098179444
 20
-41.89626409524688
 30
0.0
 10
48.55594590750896
 20
-41.9954372877687
 30
0.0
 10
48.54234039004944
 20
-42.09542749968291
 30
0.0
 10
48.54070189760395
 20
-42.19555224964595
 30
0.0
 10
48.55269509842043
 20
-42.29537465024152
 30
0.0
 10
48.57638361589652
 20
-42.39523225557337
 30
0.0
 10
48.61010603657497
 20
-42.49403653189419
 30
0.0
 10
48.65277650889208
 20
-42.5933654211825
 30
0.0
 10
48.7021952047748
 20
-42.69173868952635
 30
0.0
 10
48.75775776719632
 20
-42.79069297953587
 30
0.0
 10
48.81721845695293
 20
-42.88903251507469
 30
0.0
 10
48.87984099867516
 20
-42.98777374450682
 30
0.0
 10
48.94376828817954
 20
-43.08636524002529
 30
0.0
 10
49.00832628959646
 20
-43.18508261677947
 30
0.0
 10
49.07256786859263
 20
-43.28385304175056
 30
0.0
 10
49.13544208336077
 20
-43.3824545013164
 30
0.0
 10
49.19639409782072
 20
-43.48137058702214
 30
0.0
 10
49.25405033598831
 20
-43.57989711382066
 30
0.0
 10
49.30812160838768
 20
-43.67898092035974
 30
0.0
 10
49.35706809975068
 20
-43.77755576584482
 30
0.0
 10
49.4006541146277
 20
-43.87692568121315
 30
0.0
 10
49.43789734961365
 20
-43.97572881091692
 30
0.0
 10
49.46889658717125
 20
-44.07522141516771
 30
0.0
 10
49.4929689432584
 20
-44.17424256068652
 30
0.0
 10
49.50992266630971
 20
-44.27377428514449
 30
0.0
 10
49.51936547873775
 20
-44.37310009632401
 30
0.0
 10
49.5208417020643
 20
-44.47259991459631
 30
0.0
 10
49.51413604860274
 20
-44.57223083166137
 30
0.0
 10
49.49878254642341
 20
-44.67151153398122
 30
0.0
 10
49.47518918510692
 20
-44.77115888883503
 30
0.0
 10
49.44388639459928
 20
-44.87008862406246
 30
0.0
 10
49.40488796755401
 20
-44.9696683639899
 30
0.0
 10
49.35912959079018
 20
-45.06836161356626
 30
0.0
 10
49.30620865120668
 20
-45.16785263467889
 30
0.0
 10
49.2474134227539
 20
-45.26642102642077
 30
0.0
 10
49.18206643538794
 20
-45.36576396684194
 30
0.0
 10
49.11171357752941
 20
-45.46417625031302
 30
0.0
 10
49.03607884881888
 20
-45.56322575137687
 30
0.0
 10
48.95707996952904
 20
-45.66166668055637
 30
0.0
 10
48.87468568284935
 20
-45.76056033363079
 30
0.0
 10
48.79048956426256
 20
-45.85912074486953
 30
0.0
 10
48.70489738698595
 20
-45.957869706918
 30
0.0
 10
48.61902099711991
 20
-46.05656547428785
 30
0.0
 10
48.56191824490792
 20
-46.12262136420653
 30
0.0
 10
48.53350629835007
 20
-46.15576863519073
 30
0.0
 11
47.78611410631746
 21
-36.65000161432771
 31
0.0
 11
47.77739840273873
 21
-36.74883292869711
 31
0.0
 11
47.77985866900244
 21
-36.84803842726239
 31
0.0
 11
47.79310359865536
 21
-36.94790488812429
 31
0.0
 11
47.81588414911644
 21
-37.04607524019714
 31
0.0
 11
47.84852660737008
 21
-37.14645287568885
 31
0.0
 11
47.88866184712136
 21
-37.24411205313196
 31
0.0
 11
47.9378656670301
 21
-37.34458680722127
 31
0.0
 11
47.99266306347909
 21
-37.44214886606667
 31
0.0
 11
48.05547124475435
 21
-37.54245988152749
 31
0.0
 11
48.1222548303416
 21
-37.6401856790015
 31
0.0
 11
48.19550226462244
 21
-37.74019263164518
 31
0.0
 11
48.27138710662186
 21
-37.83822249193625
 31
0.0
 11
48.35187321037841
 21
-37.93787311062135
 31
0.0
 11
48.4339055829227
 21
-38.03625930487097
 31
0.0
 11
48.51848022593441
 21
-38.13553452966228
 31
0.0
 11
48.60365594984717
 21
-38.2342961178055
 31
0.0
 11
48.6892093836567
 21
-38.33318791150307
 31
0.0
 11
48.77446833019909
 21
-38.43233293074016
 31
0.0
 11
48.85790190331359
 21
-38.53084081273461
 31
0.0
 11
48.94011057558639
 21
-38.63036974367472
 31
0.0
 11
49.01835901582572
 21
-38.7285070109756
 31
0.0
 11
49.09433496981789
 21
-38.82840655660925
 31
0.0
 11
49.16438309948077
 21
-38.92621224343098
 31
0.0
 11
49.23089379670241
 21
-39.02644336954385
 31
0.0
 11
49.28991299208988
 21
-39.1241181672523
 31
0.0
 11
49.34421430007549
 21
-39.22448018247846
 31
0.0
 11
49.39066957950966
 21
-39.32225082783594
 31
0.0
 11
49.43142356387986
 21
-39.42251699541315
 31
0.0
 11
49.4642483258675
 21
-39.52053985921551
 31
0.0
 11
49.4903236320848
 21
-39.62055380834785
 31
0.0
 11
49.50838194464157
 21
-39.7190255176444
 31
0.0
 11
49.51871654865986
 21
-39.81859062128256
 31
0.0
 11
49.52085839368812
 21
-39.91767766488356
 31
0.0
 11
49.5150941826906
 21
-40.01662743421714
 31
0.0
 11
49.5015091678615
 21
-40.11626600627844
 31
0.0
 11
49.48070770372812
 21
-40.21466424715169
 31
0.0
 11
49.45226099170259
 21
-40.31468357952467
 31
0.0
 11
49.41749810643961
 21
-40.41270106008631
 31
0.0
 11
49.37513759438822
 21
-40.5129345888387
 31
0.0
 11
49.3274063854924
 21
-40.61073787302084
 31
0.0
 11
49.27244089901558
 21
-40.71083304921105
 31
0.0
 11
49.21369047765242
 21
-40.80877468595548
 31
0.0
 11
49.15018239530738
 21
-40.90837393177229
 31
0.0
 11
49.08487608808011
 21
-41.00681149889014
 31
0.0
 11
49.01786981427441
 21
-41.10584930927828
 31
0.0
 11
48.95080586403469
 21
-41.20484831182486
 31
0.0
 11
48.88522674436214
 21
-41.3033228764096
 31
0.0
 11
48.82132245277528
 21
-41.4028851247595
 31
0.0
 11
48.76196677468627
 21
-41.50086408541159
 31
0.0
 11
48.70621910198557
 21
-41.60092193769414
 31
0.0
 11
48.65767698639036
 21
-41.69858773384725
 31
0.0
 11
48.615091461047
 21
-41.79895875062867
 31
0.0
 11
48.58187281243317
 21
-41.89672126386883
 31
0.0
 11
48.5574857797656
 21
-41.99699556356324
 31
0.0
 11
48.54430558610612
 21
-42.09560964000817
 31
0.0
 11
48.54294830794737
 21
-42.19503237649789
 31
0.0
 11
48.55456194443437
 21
-42.29499603018594
 31
0.0
 11
48.57748291250723
 21
-42.39306918943251
 31
0.0
 11
48.61136341804652
 21
-42.49352165600686
 31
0.0
 11
48.65292392879601
 21
-42.59110600236724
 31
0.0
 11
48.70294829157296
 21
-42.69132264436843
 31
0.0
 11
48.75756330927345
 21
-42.78914281530187
 31
0.0
 11
48.81756730196517
 21
-42.88880981973352
 31
0.0
 11
48.87969300639923
 21
-42.98717962823653
 31
0.0
 11
48.94383167695463
 21
-43.08632232305597
 31
0.0
 11
49.00835476115579
 21
-43.18521644117109
 31
0.0
 11
49.07241916621254
 21
-43.28394901501164
 31
0.0
 11
49.13558946861615
 21
-43.38325325410571
 31
0.0
 11
49.19601950090186
 21
-43.48159832736421
 31
0.0
 11
49.25418781237624
 21
-43.58129006704027
 31
0.0
 11
49.30748695473301
 21
-43.67931853052517
 31
0.0
 11
49.35694047603161
 21
-43.77932687997488
 31
0.0
 11
49.3997838252601
 21
-43.87728609543057
 31
0.0
 11
49.43737978236459
 21
-43.97736369290952
 31
0.0
 11
49.46784945290673
 21
-44.0755186800894
 31
0.0
 11
49.49200461090303
 21
-44.17540050584412
 31
0.0
 11
49.5087027657111
 21
-44.27394272509817
 31
0.0
 11
49.51805548036137
 21
-44.3734373187789
 31
0.0
 11
49.51948624581246
 21
-44.47256830693038
 31
0.0
 11
49.51277290945379
 21
-44.57147413171354
 31
0.0
 11
49.49747905730465
 21
-44.67124574151707
 31
0.0
 11
49.4743267482481
 21
-44.76951094464815
 31
0.0
 11
49.4427871214675
 21
-44.86968899258584
 31
0.0
 11
49.40460417222475
 21
-44.96754775758268
 31
0.0
 11
49.35823096183469
 21
-45.06790546220864
 31
0.0
 11
49.30642168821758
 21
-45.1655845705172
 31
0.0
 11
49.24669131785242
 21
-45.26596141748139
 31
0.0
 11
49.18259580306036
 21
-45.36362138345185
 31
0.0
 11
49.11119818070885
 21
-45.46378792779885
 31
0.0
 11
49.03666674094225
 21
-45.56165819638649
 31
0.0
 11
48.95677953990127
 21
-45.66141711720429
 31
0.0
 11
48.87506959547383
 21
-45.75969500932115
 31
0.0
 11
48.79037259305665
 21
-45.85901828392155
 31
0.0
 11
48.70496317762114
 21
-45.95773182225596
 31
0.0
 11
48.61907477423855
 21
-46.05661221923369
 31
0.0
 11
48.53350629835007
 21
-46.15576863519073
 31
0.0
  0
LINE
  5
8824
330
1E
100
AcDbEntity
  8
18
100
AcDbLine
 10
51.04901699999999
 20
-44.25000199999995
 30
0.0
 11
57.50002899999998
 21
-44.25000199999995
 31
0.0
  0
LINE
  5
8825
330
1E
100
AcDbEntity
  8
18
100
AcDbLine
 10
37.50002899999997
 20
-44.25000199999995
 30
0.0
 11
49.54901699999999
 21
-44.25000199999995
 31
0.0
  0
LINE
  5
8826
330
1E
100
AcDbEntity
  8
18
100
AcDbLine
 10
50.88051799999998
 20
-39.30000199999998
 30
0.0
 11
57.50002899999998
 21
-39.30000199999998
 31
0.0
  0
LINE
  5
8827
330
1E
100
AcDbEntity
  8
18
100
AcDbLine
 10
49.60820999999999
 20
-37.65000199999996
 30
0.0
 11
57.50002899999998
 21
-37.65000199999996
 31
0.0
  0
LINE
  5
8828
330
1E
100
AcDbEntity
  8
18
100
AcDbLine
 10
50.14314899999999
 20
-42.60000199999999
 30
0.0
 11
57.50002899999998
 21
-42.60000199999999
 31
0.0
  0
LINE
  5
8829
330
1E
100
AcDbEntity
  8
18
100
AcDbLine
 10
50.62379400000001
 20
-40.95000199999997
 30
0.0
 11
57.50002899999998
 21
-40.95000199999997
 31
0.0
  0
LINE
  5
882A
330
1E
100
AcDbEntity
  8
18
100
AcDbLine
 10
37.50002899999997
 20
-39.30000199999998
 30
0.0
 11
49.380518
 21
-39.30000199999998
 31
0.0
  0
LINE
  5
882B
330
1E
100
AcDbEntity
  8
18
100
AcDbLine
 10
37.50002899999997
 20
-37.65000199999996
 30
0.0
 11
48.12923699999998
 21
-37.65000199999996
 31
0.0
  0
LINE
  5
882C
330
1E
100
AcDbEntity
  8
18
100
AcDbLine
 10
37.50002899999997
 20
-40.95000199999997
 30
0.0
 11
49.123794
 21
-40.95000199999997
 31
0.0
  0
LINE
  5
882D
330
1E
100
AcDbEntity
  8
18
100
AcDbLine
 10
37.50002899999997
 20
-42.60000199999999
 30
0.0
 11
48.643149
 21
-42.60000199999999
 31
0.0
  0
LINE
  5
882E
330
1E
100
AcDbEntity
  8
18
100
AcDbLine
 10
57.50002899999998
 20
-41.97500199999999
 30
0.0
 11
62.50002899999998
 21
-41.97500199999999
 31
0.0
  0
LINE
  5
882F
330
1E
100
AcDbEntity
  8
18
100
AcDbLine
 10
57.50002899999998
 20
-43.22500199999999
 30
0.0
 11
62.50002899999998
 21
-43.22500199999999
 31
0.0
  0
LINE
  5
8830
330
1E
100
AcDbEntity
  8
18
100
AcDbLine
 10
57.50002899999998
 20
-43.42500199999998
 30
0.0
 11
62.50002899999998
 21
-43.42500199999998
 31
0.0
  0
LINE
  5
8831
330
1E
100
AcDbEntity
  8
18
100
AcDbLine
 10
57.50002899999998
 20
-43.62500199999995
 30
0.0
 11
62.50002899999998
 21
-43.62500199999995
 31
0.0
  0
LINE
  5
8832
330
1E
100
AcDbEntity
  8
18
100
AcDbLine
 10
57.50002899999998
 20
-38.27500199999996
 30
0.0
 11
62.50002899999998
 21
-38.27500199999996
 31
0.0
  0
LINE
  5
8833
330
1E
100
AcDbEntity
  8
18
100
AcDbLine
 10
57.50002899999998
 20
-38.47500199999997
 30
0.0
 11
62.50002899999998
 21
-38.47500199999997
 31
0.0
  0
LINE
  5
8834
330
1E
100
AcDbEntity
  8
18
100
AcDbLine
 10
57.50002899999998
 20
-38.67500199999998
 30
0.0
 11
62.50002899999998
 21
-38.67500199999998
 31
0.0
  0
LINE
  5
8835
330
1E
100
AcDbEntity
  8
18
100
AcDbLine
 10
57.50002899999998
 20
-40.32500199999997
 30
0.0
 11
62.50002899999998
 21
-40.32500199999997
 31
0.0
  0
LINE
  5
8836
330
1E
100
AcDbEntity
  8
18
100
AcDbLine
 10
57.50002899999998
 20
-40.12500199999997
 30
0.0
 11
62.50002899999998
 21
-40.12500199999997
 31
0.0
  0
LINE
  5
8837
330
1E
100
AcDbEntity
  8
18
100
AcDbLine
 10
57.50002899999998
 20
-39.92500199999998
 30
0.0
 11
62.50002899999998
 21
-39.92500199999998
 31
0.0
  0
LINE
  5
8838
330
1E
100
AcDbEntity
  8
18
100
AcDbLine
 10
57.50002899999998
 20
-41.57500199999997
 30
0.0
 11
62.50002899999998
 21
-41.57500199999997
 31
0.0
  0
LINE
  5
8839
330
1E
100
AcDbEntity
  8
18
100
AcDbLine
 10
57.50002899999998
 20
-41.77500199999996
 30
0.0
 11
62.50002899999998
 21
-41.77500199999996
 31
0.0
  0
LINE
  5
883A
330
1E
100
AcDbEntity
  8
18
100
AcDbLine
 10
-13.100061
 20
64.75000099999999
 30
0.0
 11
-13.100061
 21
114.7500009999999
 31
0.0
  0
LINE
  5
883B
330
1E
100
AcDbEntity
  8
18
100
AcDbLine
 10
-9.500061000000014
 20
64.75000099999999
 30
0.0
 11
-9.500061000000014
 21
114.7500009999999
 31
0.0
  0
LINE
  5
883C
330
1E
100
AcDbEntity
  8
18
100
AcDbLine
 10
-13.100061
 20
114.7500009999999
 30
0.0
 11
-9.500061000000014
 21
114.7500009999999
 31
0.0
  0
LINE
  5
883D
330
1E
100
AcDbEntity
  8
18
100
AcDbLine
 10
15.49993999999998
 20
64.75000099999999
 30
0.0
 11
15.49993999999998
 21
114.7500009999999
 31
0.0
  0
LINE
  5
883E
330
1E
100
AcDbEntity
  8
18
100
AcDbLine
 10
11.89993899999999
 20
64.75000099999999
 30
0.0
 11
11.89993899999999
 21
114.7500009999999
 31
0.0
  0
LINE
  5
883F
330
1E
100
AcDbEntity
  8
18
100
AcDbLine
 10
11.89993899999999
 20
114.7500009999999
 30
0.0
 11
15.49993999999998
 21
114.7500009999999
 31
0.0
  0
LINE
  5
8851
330
1E
100
AcDbEntity
  8
10
  6
CONTINOUS
100
AcDbLine
 10
131.4233647744075
 20
-4.599999999999866
 30
0.0
 11
131.4233647744075
 21
-8.799999999999855
 31
0.0
  0
LINE
  5
8852
330
1E
100
AcDbEntity
  8
10
  6
CONTINOUS
100
AcDbLine
 10
132.9233647744075
 20
-3.449999999999887
 30
0.0
 11
132.9233647744075
 21
-9.949999999999887
 31
0.0
  0
LINE
  5
8853
330
1E
100
AcDbEntity
  8
10
  6
CONTINOUS
100
AcDbLine
 10
133.4233647744075
 20
-10.44999999999989
 30
0.0
 11
135.7055447744075
 21
-10.44999999999989
 31
0.0
  0
ARC
  5
8854
330
1E
100
AcDbEntity
  8
10
  6
CONTINOUS
100
AcDbCircle
 10
132.4233647744075
 20
-8.799999999999855
 30
0.0
 40
1.0
100
AcDbArc
 50
180.0
 51
270.0
  0
ARC
  5
8855
330
1E
100
AcDbEntity
  8
10
  6
CONTINOUS
100
AcDbCircle
 10
131.9233647744075
 20
-9.999939999999881
 30
0.0
 40
0.5
100
AcDbArc
 50
180.0
 51
270.0
  0
LINE
  5
8856
330
1E
100
AcDbEntity
  8
10
  6
CONTINOUS
100
AcDbLine
 10
132.4233647744075
 20
-9.799999999999855
 30
0.0
 11
132.9233647744075
 21
-9.799999999999855
 31
0.0
  0
ARC
  5
8857
330
1E
100
AcDbEntity
  8
10
  6
CONTINOUS
100
AcDbCircle
 10
133.4233647744075
 20
-9.949999999999887
 30
0.0
 40
0.5
100
AcDbArc
 50
180.0
 51
270.0
  0
ARC
  5
8858
330
1E
100
AcDbEntity
  8
10
  6
CONTINOUS
100
AcDbCircle
 10
135.9233647744075
 20
-9.999939999999881
 30
0.0
 40
0.5
100
AcDbArc
 50
180.0
 51
270.0
  0
LINE
  5
8859
330
1E
100
AcDbEntity
  8
10
  6
CONTINOUS
100
AcDbLine
 10
133.4233647744075
 20
-2.949999999999887
 30
0.0
 11
135.4233647744075
 21
-2.949999999999887
 31
0.0
  0
ARC
  5
885A
330
1E
100
AcDbEntity
  8
10
  6
CONTINOUS
100
AcDbCircle
 10
132.4233647744075
 20
-4.599999999999866
 30
0.0
 40
1.0
100
AcDbArc
 50
90.0
 51
180.0
  0
LINE
  5
885B
330
1E
100
AcDbEntity
  8
10
  6
CONTINOUS
100
AcDbLine
 10
132.4233647744075
 20
-3.599999999999865
 30
0.0
 11
132.9233647744075
 21
-3.599999999999865
 31
0.0
  0
ARC
  5
885C
330
1E
100
AcDbEntity
  8
10
  6
CONTINOUS
100
AcDbCircle
 10
133.4233647744075
 20
-3.449999999999887
 30
0.0
 40
0.5
100
AcDbArc
 50
90.0
 51
180.0
  0
LINE
  5
88A4
330
1E
100
AcDbEntity
  8
10
  6
CONTINOUS
100
AcDbLine
 10
-4.000061000000015
 20
1.999999999999997
 30
0.0
 11
3.999938999999983
 21
1.999999999999997
 31
0.0
  0
LINE
  5
88A5
330
1E
100
AcDbEntity
  8
10
  6
CONTINOUS
100
AcDbLine
 10
-4.000061000000015
 20
-2.000000000000002
 30
0.0
 11
3.999938999999983
 21
-2.000000000000002
 31
0.0
  0
LINE
  5
88A6
330
1E
100
AcDbEntity
  8
10
  6
CONTINOUS
100
AcDbLine
 10
-1.000061000000014
 20
1.499999999999997
 30
0.0
 11
-1.000061000000014
 21
-1.500000000000002
 31
0.0
  0
LINE
  5
88A7
330
1E
100
AcDbEntity
  8
10
  6
CONTINOUS
100
AcDbLine
 10
-2.000061000000014
 20
0.9999999999999973
 30
0.0
 11
-2.000061000000014
 21
-1.000000000000002
 31
0.0
  0
LINE
  5
88A8
330
1E
100
AcDbEntity
  8
10
  6
CONTINOUS
100
AcDbLine
 10
-2.500061000000014
 20
0.9999999999999973
 30
0.0
 11
-2.500061000000014
 21
-1.000000000000002
 31
0.0
  0
LINE
  5
88A9
330
1E
100
AcDbEntity
  8
10
  6
CONTINOUS
100
AcDbLine
 10
-1.500061000000014
 20
-1.000000000000002
 30
0.0
 11
-1.000061000000014
 21
-1.500000000000002
 31
0.0
  0
LINE
  5
88AA
330
1E
100
AcDbEntity
  8
10
  6
CONTINOUS
100
AcDbLine
 10
-1.500061000000014
 20
0.9999999999999973
 30
0.0
 11
-1.000061000000014
 21
1.499999999999997
 31
0.0
  0
LINE
  5
88AB
330
1E
100
AcDbEntity
  8
10
  6
CONTINOUS
100
AcDbLine
 10
-1.500061000000014
 20
0.9999999999999973
 30
0.0
 11
-1.500061000000014
 21
-1.000000000000002
 31
0.0
  0
LINE
  5
88AC
330
1E
100
AcDbEntity
  8
10
  6
CONTINOUS
100
AcDbLine
 10
-3.500061000000014
 20
0.9999999999999973
 30
0.0
 11
-3.500061000000014
 21
-1.000000000000002
 31
0.0
  0
LINE
  5
88AD
330
1E
100
AcDbEntity
  8
10
  6
CONTINOUS
100
AcDbLine
 10
-3.500061000000014
 20
-1.000000000000002
 30
0.0
 11
-4.000061000000015
 21
-1.500000000000002
 31
0.0
  0
LINE
  5
88AE
330
1E
100
AcDbEntity
  8
10
  6
CONTINOUS
100
AcDbLine
 10
-3.500061000000014
 20
0.9999999999999973
 30
0.0
 11
-4.000061000000015
 21
1.499999999999997
 31
0.0
  0
LINE
  5
88AF
330
1E
100
AcDbEntity
  8
10
  6
CONTINOUS
100
AcDbLine
 10
-3.000061000000014
 20
0.9999999999999973
 30
0.0
 11
-3.000061000000014
 21
-1.000000000000002
 31
0.0
  0
LINE
  5
88B0
330
1E
100
AcDbEntity
  8
10
  6
CONTINOUS
100
AcDbLine
 10
-3.500061000000014
 20
0.9999999999999973
 30
0.0
 11
-1.500061000000014
 21
0.9999999999999973
 31
0.0
  0
LINE
  5
88B1
330
1E
100
AcDbEntity
  8
10
  6
CONTINOUS
100
AcDbLine
 10
-4.000061000000015
 20
-1.500000000000002
 30
0.0
 11
-1.000061000000014
 21
-1.500000000000002
 31
0.0
  0
LINE
  5
88B2
330
1E
100
AcDbEntity
  8
10
  6
CONTINOUS
100
AcDbLine
 10
-3.500061000000014
 20
-1.000000000000002
 30
0.0
 11
-1.500061000000014
 21
-1.000000000000002
 31
0.0
  0
LINE
  5
88B3
330
1E
100
AcDbEntity
  8
10
  6
CONTINOUS
100
AcDbLine
 10
-4.000061000000015
 20
1.499999999999997
 30
0.0
 11
-1.000061000000014
 21
1.499999999999997
 31
0.0
  0
LINE
  5
88B4
330
1E
100
AcDbEntity
  8
10
  6
CONTINOUS
100
AcDbLine
 10
-4.000061000000015
 20
-2.000000000000002
 30
0.0
 11
-4.000061000000015
 21
1.999999999999997
 31
0.0
  0
LINE
  5
88B5
330
1E
100
AcDbEntity
  8
10
  6
CONTINOUS
100
AcDbLine
 10
3.999938999999983
 20
-2.000000000000002
 30
0.0
 11
3.999938999999983
 21
1.999999999999997
 31
0.0
  0
VIEWPORT
  5
9AC
330
1A
100
AcDbEntity
 67
     1
  8
0
  6
CONTINUOUS
100
AcDbViewport
 10
171.999535
 20
144.1384739999999
 30
0.0
 40
488.867686
 41
292.351491
 68
    -1
 69
     1
1001
ACAD
1000
MVIEW
1002
{
1070
    16
1010
0.0
1020
0.0
1030
0.0
1010
0.0
1020
0.0
1030
1.0
1040
0.0
1040
292.351491
1040
171.999535
1040
144.1384739999999
1040
50.0
1040
0.0
1040
0.0
1070
     0
1070
   100
1070
     1
1070
     1
1070
     0
1070
     0
1070
     0
1070
     0
1040
0.0
1040
0.0
1040
0.0
1040
10.0
1040
10.0
1040
10.0
1040
10.0
1070
     0
1002
{
1002
}
1002
}
  0
ENDSEC
  0
SECTION
  2
OBJECTS
  0
DICTIONARY
  5
C
330
0
100
AcDbDictionary
  3
ACAD_GROUP
350
D
  3
ACAD_LAYOUT
350
19
  3
ACAD_MLINESTYLE
350
16
  3
ACAD_PLOTSETTINGS
350
18
  3
ACAD_PLOTSTYLENAME
350
E
  3
ACADDIM
350
5C76
  3
ACDBHEADERROUNDTRIPXREC
350
88B7
  3
ACDBVARIABLEDICTIONARY
350
5697
  0
DICTIONARY
  5
178
330
1E
100
AcDbDictionary
280
     1
  3
ACAD_LAYOUTSELFREF
360
88D9
  0
DICTIONARY
  5
17A
330
1A
100
AcDbDictionary
280
     1
  3
ACAD_LAYOUTSELFREF
360
88D8
  0
DICTIONARY
  5
D
102
{ACAD_REACTORS
330
C
102
}
330
C
100
AcDbDictionary
  0
DICTIONARY
  5
19
102
{ACAD_REACTORS
330
C
102
}
330
C
100
AcDbDictionary
  0
DICTIONARY
  5
16
102
{ACAD_REACTORS
330
C
102
}
330
C
100
AcDbDictionary
  3
STANDARD
350
17
  0
DICTIONARY
  5
18
102
{ACAD_REACTORS
330
C
102
}
330
C
100
AcDbDictionary
  0
ACDBDICTIONARYWDFLT
  5
E
102
{ACAD_REACTORS
330
C
102
}
330
C
100
AcDbDictionary
281
     1
  3
Normal
350
F
100
AcDbDictionaryWithDefault
340
F
  0
XRECORD
  5
5C76
102
{ACAD_REACTORS
330
C
102
}
330
C
100
AcDbXrecord
 90
   990106
  3

 60
     0
 61
     0
 62
     1
 63
     3
 64
     0
 65
     0
 66
     0
 67
     3
 68
     1
 69
     0
 70
     0
 71
     0
 72
     0
 40
0.0
170
     0
340
6200
  0
DICTIONARY
  5
88B7
102
{ACAD_REACTORS
330
C
102
}
330
C
100
AcDbDictionary
  3
CEPSNTYPE
350
88C1
  3
DIMSTYLEDATA
350
88C5
  3
FINGERPRINTGUID
350
88C2
  3
HYPERLINKBASE
350
88BA
  3
INSUNITS
350
88C0
  3
LAYOUTDICT
350
88BC
  3
LWETCUNION
350
88BF
  3
PLOTSETDICT
350
88BD
  3
PLOTSTYLNAMDICT
350
88BE
  3
PSVPSCALE
350
88C4
  3
PUCSBASE
350
88C8
  3
PUCSORGBACK
350
88CE
  3
PUCSORGBOTTOM
350
88CA
  3
PUCSORGFRONT
350
88CD
  3
PUCSORGLEFT
350
88CB
  3
PUCSORGRIGHT
350
88CC
  3
PUCSORGTOP
350
88C9
  3
PUCSORTHOREF
350
88C6
  3
PUCSORTHOVIEW
350
88C7
  3
STYLESHEET
350
88BB
  3
TSTACKALIGN
350
88B8
  3
TSTACKSIZE
350
88B9
  3
UCSBASE
350
88D1
  3
UCSORGBACK
350
88D7
  3
UCSORGBOTTOM
350
88D3
  3
UCSORGFRONT
350
88D6
  3
UCSORGLEFT
350
88D4
  3
UCSORGRIGHT
350
88D5
  3
UCSORGTOP
350
88D2
  3
UCSORTHOREF
350
88CF
  3
UCSORTHOVIEW
350
88D0
  3
VERSIONGUID
350
88C3
  0
DICTIONARY
  5
5697
102
{ACAD_REACTORS
330
C
102
}
330
C
100
AcDbDictionary
  3
DIMASSOC
350
5698
  0
XRECORD
  5
88D9
102
{ACAD_REACTORS
330
178
102
}
330
178
100
AcDbXrecord
340
1E
  0
XRECORD
  5
88D8
102
{ACAD_REACTORS
330
17A
102
}
330
17A
100
AcDbXrecord
340
1A
  0
MLINESTYLE
  5
17
102
{ACAD_REACTORS
330
16
102
}
330
16
100
AcDbMlineStyle
  2
STANDARD
 70
     0
  3

 62
   256
 51
90.0
 52
90.0
 71
     2
 49
0.5
 62
   256
  6
BYLAYER
 49
-0.5
 62
   256
  6
BYLAYER
  0
ACDBPLACEHOLDER
  5
F
102
{ACAD_REACTORS
330
E
102
}
330
E
100
AcDbPlaceHolder
280
     0
  0
XRECORD
  5
88C1
102
{ACAD_REACTORS
330
88B7
102
}
330
88B7
100
AcDbXrecord
 90
        0
  0
XRECORD
  5
88C5
102
{ACAD_REACTORS
330
88B7
102
}
330
88B7
100
AcDbXrecord
1000
DSTYLE
1002
{
1070
    79
 70
     3
1070
   341
340
3B2
1070
   342
340
3B2
1002
}
  0
XRECORD
  5
88C2
102
{ACAD_REACTORS
330
88B7
102
}
330
88B7
100
AcDbXrecord
  1

  0
XRECORD
  5
88BA
102
{ACAD_REACTORS
330
88B7
102
}
330
88B7
100
AcDbXrecord
  1

  0
XRECORD
  5
88C0
102
{ACAD_REACTORS
330
88B7
102
}
330
88B7
100
AcDbXrecord
 90
        0
  0
XRECORD
  5
88BC
102
{ACAD_REACTORS
330
88B7
102
}
330
88B7
100
AcDbXrecord
340
19
  0
XRECORD
  5
88BF
102
{ACAD_REACTORS
330
88B7
102
}
330
88B7
100
AcDbXrecord
 90
    10781
  0
XRECORD
  5
88BD
102
{ACAD_REACTORS
330
88B7
102
}
330
88B7
100
AcDbXrecord
340
18
  0
XRECORD
  5
88BE
102
{ACAD_REACTORS
330
88B7
102
}
330
88B7
100
AcDbXrecord
340
E
  0
XRECORD
  5
88C4
102
{ACAD_REACTORS
330
88B7
102
}
330
88B7
100
AcDbXrecord
 40
0.0
  0
XRECORD
  5
88C8
102
{ACAD_REACTORS
330
88B7
102
}
330
88B7
100
AcDbXrecord
340
0
  0
XRECORD
  5
88CE
102
{ACAD_REACTORS
330
88B7
102
}
330
88B7
100
AcDbXrecord
 10
0.0
 20
0.0
 30
0.0
  0
XRECORD
  5
88CA
102
{ACAD_REACTORS
330
88B7
102
}
330
88B7
100
AcDbXrecord
 10
0.0
 20
0.0
 30
0.0
  0
XRECORD
  5
88CD
102
{ACAD_REACTORS
330
88B7
102
}
330
88B7
100
AcDbXrecord
 10
0.0
 20
0.0
 30
0.0
  0
XRECORD
  5
88CB
102
{ACAD_REACTORS
330
88B7
102
}
330
88B7
100
AcDbXrecord
 10
0.0
 20
0.0
 30
0.0
  0
XRECORD
  5
88CC
102
{ACAD_REACTORS
330
88B7
102
}
330
88B7
100
AcDbXrecord
 10
0.0
 20
0.0
 30
0.0
  0
XRECORD
  5
88C9
102
{ACAD_REACTORS
330
88B7
102
}
330
88B7
100
AcDbXrecord
 10
0.0
 20
0.0
 30
0.0
  0
XRECORD
  5
88C6
102
{ACAD_REACTORS
330
88B7
102
}
330
88B7
100
AcDbXrecord
340
0
  0
XRECORD
  5
88C7
102
{ACAD_REACTORS
330
88B7
102
}
330
88B7
100
AcDbXrecord
 70
     0
  0
XRECORD
  5
88BB
102
{ACAD_REACTORS
330
88B7
102
}
330
88B7
100
AcDbXrecord
  1
NX.ctb
  0
XRECORD
  5
88B8
102
{ACAD_REACTORS
330
88B7
102
}
330
88B7
100
AcDbXrecord
 90
        1
  0
XRECORD
  5
88B9
102
{ACAD_REACTORS
330
88B7
102
}
330
88B7
100
AcDbXrecord
 90
       70
  0
XRECORD
  5
88D1
102
{ACAD_REACTORS
330
88B7
102
}
330
88B7
100
AcDbXrecord
340
0
  0
XRECORD
  5
88D7
102
{ACAD_REACTORS
330
88B7
102
}
330
88B7
100
AcDbXrecord
 10
0.0
 20
0.0
 30
0.0
  0
XRECORD
  5
88D3
102
{ACAD_REACTORS
330
88B7
102
}
330
88B7
100
AcDbXrecord
 10
0.0
 20
0.0
 30
0.0
  0
XRECORD
  5
88D6
102
{ACAD_REACTORS
330
88B7
102
}
330
88B7
100
AcDbXrecord
 10
0.0
 20
0.0
 30
0.0
  0
XRECORD
  5
88D4
102
{ACAD_REACTORS
330
88B7
102
}
330
88B7
100
AcDbXrecord
 10
0.0
 20
0.0
 30
0.0
  0
XRECORD
  5
88D5
102
{ACAD_REACTORS
330
88B7
102
}
330
88B7
100
AcDbXrecord
 10
0.0
 20
0.0
 30
0.0
  0
XRECORD
  5
88D2
102
{ACAD_REACTORS
330
88B7
102
}
330
88B7
100
AcDbXrecord
 10
0.0
 20
0.0
 30
0.0
  0
XRECORD
  5
88CF
102
{ACAD_REACTORS
330
88B7
102
}
330
88B7
100
AcDbXrecord
340
0
  0
XRECORD
  5
88D0
102
{ACAD_REACTORS
330
88B7
102
}
330
88B7
100
AcDbXrecord
 70
     0
  0
XRECORD
  5
88C3
102
{ACAD_REACTORS
330
88B7
102
}
330
88B7
100
AcDbXrecord
  1
{F40C6CF5-88E7-4E52-BA78-31634642C835}
  0
DICTIONARYVAR
  5
5698
102
{ACAD_REACTORS
330
5697
102
}
330
5697
100
DictionaryVariables
280
     0
  1
1
  0
ENDSEC
  0
EOF
