  0
SECTION
  2
HEADER
  9
$ACADVER
  1
AC1015
  9
$ACADMAINTVER
 70
    20
  9
$DWGCODEPAGE
  3
ANSI_932
  9
$INSBASE
 10
0.0
 20
0.0
 30
0.0
  9
$EXTMIN
 10
-105.0127727868744
 20
-350.0231803200377
 30
-0.000000000000013
  9
$EXTMAX
 10
330.062960178514
 20
315.0420730326794
 30
0.0000000000000023
  9
$LIMMIN
 10
-296.316999476111
 20
-370.7034300441653
  9
$LIMMAX
 10
623.3128432133979
 20
328.6261559379898
  9
$ORTHOMODE
 70
     1
  9
$REGENMODE
 70
     1
  9
$FILLMODE
 70
     1
  9
$QTEXTMODE
 70
     0
  9
$MIRRTEXT
 70
     1
  9
$LTSCALE
 40
10.0
  9
$ATTMODE
 70
     1
  9
$TEXTSIZE
 40
5.0
  9
$TRACEWID
 40
0.05
  9
$TEXTSTYLE
  7
STANDARD1
  9
$CLAYER
  8
30
  9
$CELTYPE
  6
CONTINUOUS
  9
$CECOLOR
 62
   256
  9
$CELTSCALE
 40
1.0
  9
$DISPSILH
 70
     0
  9
$DIMSCALE
 40
1.0
  9
$DIMASZ
 40
2.0
  9
$DIMEXO
 40
1.0
  9
$DIMDLI
 40
0.5
  9
$DIMRND
 40
0.0
  9
$DIMDLE
 40
0.0
  9
$DIMEXE
 40
0.5
  9
$DIMTP
 40
0.0
  9
$DIMTM
 40
0.0
  9
$DIMTXT
 40
4.0
  9
$DIMCEN
 40
0.09
  9
$DIMTSZ
 40
0.0
  9
$DIMTOL
 70
     0
  9
$DIMLIM
 70
     0
  9
$DIMTIH
 70
     0
  9
$DIMTOH
 70
     1
  9
$DIMSE1
 70
     0
  9
$DIMSE2
 70
     0
  9
$DIMTAD
 70
     3
  9
$DIMZIN
 70
    12
  9
$DIMBLK
  1
OPEN
  9
$DIMASO
 70
     1
  9
$DIMSHO
 70
     1
  9
$DIMPOST
  1

  9
$DIMAPOST
  1

  9
$DIMALT
 70
     0
  9
$DIMALTD
 70
     2
  9
$DIMALTF
 40
25.4
  9
$DIMLFAC
 40
1.0
  9
$DIMTOFL
 70
     0
  9
$DIMTVP
 40
0.0
  9
$DIMTIX
 70
     0
  9
$DIMSOXD
 70
     0
  9
$DIMSAH
 70
     0
  9
$DIMBLK1
  1

  9
$DIMBLK2
  1

  9
$DIMSTYLE
  2
STANDARD
  9
$DIMCLRD
 70
     0
  9
$DIMCLRE
 70
     0
  9
$DIMCLRT
 70
     0
  9
$DIMTFAC
 40
1.0
  9
$DIMGAP
 40
1.0
  9
$DIMJUST
 70
     0
  9
$DIMSD1
 70
     0
  9
$DIMSD2
 70
     0
  9
$DIMTOLJ
 70
     1
  9
$DIMTZIN
 70
     0
  9
$DIMALTZ
 70
     0
  9
$DIMALTTZ
 70
     0
  9
$DIMUPT
 70
     0
  9
$DIMDEC
 70
     1
  9
$DIMTDEC
 70
     1
  9
$DIMALTU
 70
     2
  9
$DIMALTTD
 70
     2
  9
$DIMTXSTY
  7
STANDARD
  9
$DIMAUNIT
 70
     0
  9
$DIMADEC
 70
     0
  9
$DIMALTRND
 40
0.0
  9
$DIMAZIN
 70
     3
  9
$DIMDSEP
 70
    46
  9
$DIMATFIT
 70
     3
  9
$DIMFRAC
 70
     0
  9
$DIMLDRBLK
  1
OPEN
  9
$DIMLUNIT
 70
     2
  9
$DIMLWD
 70
    -2
  9
$DIMLWE
 70
    -2
  9
$DIMTMOVE
 70
     0
  9
$LUNITS
 70
     2
  9
$LUPREC
 70
     4
  9
$SKETCHINC
 40
0.1
  9
$FILLETRAD
 40
0.0
  9
$AUNITS
 70
     0
  9
$AUPREC
 70
     0
  9
$MENU
  1
.
  9
$ELEVATION
 40
0.0
  9
$PELEVATION
 40
0.0
  9
$THICKNESS
 40
0.0
  9
$LIMCHECK
 70
     0
  9
$CHAMFERA
 40
0.0
  9
$CHAMFERB
 40
0.0
  9
$CHAMFERC
 40
0.0
  9
$CHAMFERD
 40
0.0
  9
$SKPOLY
 70
     0
  9
$TDCREATE
 40
2452286.555658658
  9
$TDUCREATE
 40
2452286.180658658
  9
$TDUPDATE
 40
2455232.608298241
  9
$TDUUPDATE
 40
2455232.233298241
  9
$TDINDWG
 40
1.4213233102
  9
$TDUSRTIMER
 40
1.4213124653
  9
$USRTIMER
 70
     1
  9
$ANGBASE
 50
0.0
  9
$ANGDIR
 70
     0
  9
$PDMODE
 70
     0
  9
$PDSIZE
 40
0.0
  9
$PLINEWID
 40
0.0
  9
$SPLFRAME
 70
     0
  9
$SPLINETYPE
 70
     6
  9
$SPLINESEGS
 70
     8
  9
$HANDSEED
  5
87E9
  9
$SURFTAB1
 70
     6
  9
$SURFTAB2
 70
     6
  9
$SURFTYPE
 70
     6
  9
$SURFU
 70
     6
  9
$SURFV
 70
     6
  9
$UCSBASE
  2

  9
$UCSNAME
  2

  9
$UCSORG
 10
0.0
 20
0.0
 30
0.0
  9
$UCSXDIR
 10
1.0
 20
0.0
 30
0.0
  9
$UCSYDIR
 10
0.0
 20
1.0
 30
0.0
  9
$UCSORTHOREF
  2

  9
$UCSORTHOVIEW
 70
     0
  9
$UCSORGTOP
 10
0.0
 20
0.0
 30
0.0
  9
$UCSORGBOTTOM
 10
0.0
 20
0.0
 30
0.0
  9
$UCSORGLEFT
 10
0.0
 20
0.0
 30
0.0
  9
$UCSORGRIGHT
 10
0.0
 20
0.0
 30
0.0
  9
$UCSORGFRONT
 10
0.0
 20
0.0
 30
0.0
  9
$UCSORGBACK
 10
0.0
 20
0.0
 30
0.0
  9
$PUCSBASE
  2

  9
$PUCSNAME
  2

  9
$PUCSORG
 10
0.0
 20
0.0
 30
0.0
  9
$PUCSXDIR
 10
1.0
 20
0.0
 30
0.0
  9
$PUCSYDIR
 10
0.0
 20
1.0
 30
0.0
  9
$PUCSORTHOREF
  2

  9
$PUCSORTHOVIEW
 70
     0
  9
$PUCSORGTOP
 10
0.0
 20
0.0
 30
0.0
  9
$PUCSORGBOTTOM
 10
0.0
 20
0.0
 30
0.0
  9
$PUCSORGLEFT
 10
0.0
 20
0.0
 30
0.0
  9
$PUCSORGRIGHT
 10
0.0
 20
0.0
 30
0.0
  9
$PUCSORGFRONT
 10
0.0
 20
0.0
 30
0.0
  9
$PUCSORGBACK
 10
0.0
 20
0.0
 30
0.0
  9
$USERI1
 70
     0
  9
$USERI2
 70
     0
  9
$USERI3
 70
     0
  9
$USERI4
 70
     0
  9
$USERI5
 70
     0
  9
$USERR1
 40
0.0
  9
$USERR2
 40
0.0
  9
$USERR3
 40
0.0
  9
$USERR4
 40
0.0
  9
$USERR5
 40
0.0
  9
$WORLDVIEW
 70
     1
  9
$SHADEDGE
 70
     3
  9
$SHADEDIF
 70
    70
  9
$TILEMODE
 70
     1
  9
$MAXACTVP
 70
    48
  9
$PINSBASE
 10
0.0
 20
0.0
 30
0.0
  9
$PLIMCHECK
 70
     0
  9
$PEXTMIN
 10
1.1227499931816
 20
0.7804166500962629
 30
0.0
  9
$PEXTMAX
 10
10.10474993863443
 20
7.023749850866361
 30
0.0
  9
$PLIMMIN
 10
-0.2312499519408218
 20
-0.2312499894870548
  9
$PLIMMAX
 10
11.45874984621061
 20
8.035416452903447
  9
$UNITMODE
 70
     0
  9
$VISRETAIN
 70
     1
  9
$PLINEGEN
 70
     0
  9
$PSLTSCALE
 70
     1
  9
$TREEDEPTH
 70
  3020
  9
$CMLSTYLE
  2
STANDARD
  9
$CMLJUST
 70
     0
  9
$CMLSCALE
 40
1.0
  9
$PROXYGRAPHICS
 70
     1
  9
$MEASUREMENT
 70
     0
  9
$CELWEIGHT
370
    -1
  9
$ENDCAPS
280
     0
  9
$JOINSTYLE
280
     0
  9
$LWDISPLAY
290
     0
  9
$INSUNITS
 70
     0
  9
$HYPERLINKBASE
  1

  9
$STYLESHEET
  1
MONOCHROME.CTB
  9
$XEDIT
290
     1
  9
$CEPSNTYPE
380
     0
  9
$PSTYLEMODE
290
     1
  9
$FINGERPRINTGUID
  2

  9
$VERSIONGUID
  2
{459B1FA7-2AF2-4A34-BD36-1B219312EF88}
  9
$EXTNAMES
290
     1
  9
$PSVPSCALE
 40
0.0
  9
$OLESTARTUP
290
     0
  0
ENDSEC
  0
SECTION
  2
CLASSES
  0
CLASS
  1
ACDBDICTIONARYWDFLT
  2
AcDbDictionaryWithDefault
  3
ObjectDBX Classes
 90
        0
280
     0
281
     0
  0
CLASS
  1
ACDBPLACEHOLDER
  2
AcDbPlaceHolder
  3
ObjectDBX Classes
 90
        0
280
     0
281
     0
  0
CLASS
  1
LAYOUT
  2
AcDbLayout
  3
ObjectDBX Classes
 90
        0
280
     0
281
     0
  0
CLASS
  1
DICTIONARYVAR
  2
AcDbDictionaryVar
  3
ObjectDBX Classes
 90
        0
280
     0
281
     0
  0
CLASS
  1
TABLESTYLE
  2
AcDbTableStyle
  3
ObjectDBX Classes
 90
     4095
280
     0
281
     0
  0
CLASS
  1
SORTENTSTABLE
  2
AcDbSortentsTable
  3
ObjectDBX Classes
 90
        0
280
     0
281
     0
  0
CLASS
  1
MATERIAL
  2
AcDbMaterial
  3
ObjectDBX Classes
 90
     1153
280
     0
281
     0
  0
CLASS
  1
VISUALSTYLE
  2
AcDbVisualStyle
  3
ObjectDBX Classes
 90
     4095
280
     0
281
     0
  0
CLASS
  1
SCALE
  2
AcDbScale
  3
ObjectDBX Classes
 90
     1153
280
     0
281
     0
  0
CLASS
  1
MLEADERSTYLE
  2
AcDbMLeaderStyle
  3
ACDB_MLEADERSTYLE_CLASS
 90
     4095
280
     0
281
     0
  0
CLASS
  1
CELLSTYLEMAP
  2
AcDbCellStyleMap
  3
ObjectDBX Classes
 90
     1152
280
     0
281
     0
  0
CLASS
  1
EXACXREFPANELOBJECT
  2
ExAcXREFPanelObject
  3
EXAC_ESW
 90
    33793
280
     0
281
     0
  0
CLASS
  1
NPOCOLLECTION
  2
AcDbImpNonPersistentObjectsCollection
  3
ObjectDBX Classes
 90
    33921
280
     0
281
     0
  0
ENDSEC
  0
SECTION
  2
TABLES
  0
TABLE
  2
VPORT
  5
8
330
0
100
AcDbSymbolTable
 70
     1
  0
VPORT
  5
84B2
330
8
100
AcDbSymbolTableRecord
100
AcDbViewportTableRecord
  2
*Active
 70
     0
 10
0.0
 20
0.0
 11
1.0
 21
1.0
 12
112.5250936958198
 22
-17.49055364367916
 13
0.0
 23
0.0
 14
1.0
 24
1.0
 15
10.0
 25
10.0
 16
0.0
 26
0.0
 36
1.0
 17
0.0
 27
0.0
 37
0.0
 40
669.2175858398307
 41
1.355208333333333
 42
50.0
 43
0.0
 44
0.0
 50
0.0
 51
0.0
 71
     0
 72
   100
 73
     1
 74
     1
 75
     1
 76
     1
 77
     0
 78
     0
281
     0
 65
     1
110
0.0
120
0.0
130
0.0
111
1.0
121
0.0
131
0.0
112
0.0
122
1.0
132
0.0
 79
     0
146
0.0
  0
ENDTAB
  0
TABLE
  2
LTYPE
  5
5
330
0
100
AcDbSymbolTable
 70
     7
  0
LTYPE
  5
13
330
5
100
AcDbSymbolTableRecord
100
AcDbLinetypeTableRecord
  2
BYBLOCK
 70
     0
  3

 72
    65
 73
     0
 40
0.0
  0
LTYPE
  5
14
330
5
100
AcDbSymbolTableRecord
100
AcDbLinetypeTableRecord
  2
BYLAYER
 70
     0
  3

 72
    65
 73
     0
 40
0.0
  0
LTYPE
  5
15
330
5
100
AcDbSymbolTableRecord
100
AcDbLinetypeTableRecord
  2
CONTINUOUS
 70
     0
  3
Solid line
 72
    65
 73
     0
 40
0.0
  0
LTYPE
  5
22
330
5
100
AcDbSymbolTableRecord
100
AcDbLinetypeTableRecord
  2
CONTINOUS
 70
     0
  3
Solid line
 72
    65
 73
     0
 40
0.0
  0
LTYPE
  5
23
330
5
100
AcDbSymbolTableRecord
100
AcDbLinetypeTableRecord
  2
DASHED
 70
     0
  3
__ __ __ __ __ __ __ __ __ __ __ __ __ __ __
 72
    65
 73
     2
 40
0.75
 49
0.5
 74
     0
 49
-0.25
 74
     0
  0
LTYPE
  5
24
330
5
100
AcDbSymbolTableRecord
100
AcDbLinetypeTableRecord
  2
DASHDOT
 70
     0
  3
__ . __ . __ . __ . __ . __ . __ . __ . __ . __
 72
    65
 73
     4
 40
1.0
 49
0.5
 74
     0
 49
-0.25
 74
     0
 49
0.0
 74
     0
 49
-0.25
 74
     0
  0
LTYPE
  5
4C47
330
5
100
AcDbSymbolTableRecord
100
AcDbLinetypeTableRecord
  2
DIVIDE
 70
     0
  3
Divide ____ . . ____ . . ____ . . ____ . . ____
 72
    65
 73
     6
 40
1.25
 49
0.5
 74
     0
 49
-0.25
 74
     0
 49
0.0
 74
     0
 49
-0.25
 74
     0
 49
0.0
 74
     0
 49
-0.25
 74
     0
  0
LTYPE
  5
638E
330
5
100
AcDbSymbolTableRecord
100
AcDbLinetypeTableRecord
  2
D43
 70
     0
  3
IGESIN-LineFont-D43
 72
    65
 73
     6
 40
11.3
 49
8.0
 74
     0
 49
-0.6
 74
     0
 49
0.75
 74
     0
 49
-0.6
 74
     0
 49
0.75
 74
     0
 49
-0.6
 74
     0
  0
LTYPE
  5
638F
330
5
100
AcDbSymbolTableRecord
100
AcDbLinetypeTableRecord
  2
D417
 70
     0
  3
IGESIN-LineFont-D417
 72
    65
 73
     2
 40
1.35
 49
0.75
 74
     0
 49
-0.6
 74
     0
  0
ENDTAB
  0
TABLE
  2
LAYER
  5
2
102
{ACAD_XDICTIONARY
360
8498
102
}
330
0
100
AcDbSymbolTable
 70
    22
  0
LAYER
  5
10
102
{ACAD_XDICTIONARY
360
851F
102
}
330
2
100
AcDbSymbolTableRecord
100
AcDbLayerTableRecord
  2
0
 70
     0
 62
     7
  6
CONTINOUS
370
    -3
390
F
  0
LAYER
  5
2F
102
{ACAD_XDICTIONARY
360
8521
102
}
330
2
100
AcDbSymbolTableRecord
100
AcDbLayerTableRecord
  2
10
 70
     0
 62
     4
  6
CONTINOUS
370
    -3
390
F
  0
LAYER
  5
31
102
{ACAD_XDICTIONARY
360
8523
102
}
330
2
100
AcDbSymbolTableRecord
100
AcDbLayerTableRecord
  2
12
 70
     0
 62
     3
  6
CONTINOUS
370
    -3
390
F
  0
LAYER
  5
35
102
{ACAD_XDICTIONARY
360
8525
102
}
330
2
100
AcDbSymbolTableRecord
100
AcDbLayerTableRecord
  2
16
 70
     0
 62
     6
  6
DASHDOT
370
    -3
390
F
  0
LAYER
  5
38
102
{ACAD_XDICTIONARY
360
8527
102
}
330
2
100
AcDbSymbolTableRecord
100
AcDbLayerTableRecord
  2
19
 70
     0
 62
     7
  6
CONTINOUS
370
    -3
390
F
  0
LAYER
  5
3C
102
{ACAD_XDICTIONARY
360
8529
102
}
330
2
100
AcDbSymbolTableRecord
100
AcDbLayerTableRecord
  2
11
 70
     0
 62
     1
  6
CONTINOUS
370
    -3
390
F
  0
LAYER
  5
3D
102
{ACAD_XDICTIONARY
360
852B
102
}
330
2
100
AcDbSymbolTableRecord
100
AcDbLayerTableRecord
  2
24
 70
     0
 62
     2
  6
CONTINOUS
370
    -3
390
F
  0
LAYER
  5
3A2
102
{ACAD_XDICTIONARY
360
852D
102
}
330
2
100
AcDbSymbolTableRecord
100
AcDbLayerTableRecord
  2
30
 70
     0
 62
     9
  6
CONTINUOUS
370
    -3
390
F
  0
LAYER
  5
3A4
330
2
100
AcDbSymbolTableRecord
100
AcDbLayerTableRecord
  2
DEFPOINTS
 70
     0
 62
     7
  6
CONTINUOUS
290
     0
370
    -3
390
F
  0
LAYER
  5
3BBA
102
{ACAD_XDICTIONARY
360
852F
102
}
330
2
100
AcDbSymbolTableRecord
100
AcDbLayerTableRecord
  2
18
 70
     0
 62
     5
  6
DIVIDE
370
    -3
390
F
  0
LAYER
  5
5116
102
{ACAD_XDICTIONARY
360
8531
102
}
330
2
100
AcDbSymbolTableRecord
100
AcDbLayerTableRecord
  2
1
 70
     0
 62
     7
  6
CONTINUOUS
370
    -3
390
F
  0
LAYER
  5
5117
102
{ACAD_XDICTIONARY
360
8533
102
}
330
2
100
AcDbSymbolTableRecord
100
AcDbLayerTableRecord
  2
TOP
 70
     0
 62
     7
  6
CONTINUOUS
370
    -3
390
F
  0
LAYER
  5
5C47
102
{ACAD_XDICTIONARY
360
8535
102
}
330
2
100
AcDbSymbolTableRecord
100
AcDbLayerTableRecord
  2
17
 70
     0
 62
     2
  6
DASHDOT
370
    -3
390
F
  0
LAYER
  5
6390
102
{ACAD_XDICTIONARY
360
8537
102
}
330
2
100
AcDbSymbolTableRecord
100
AcDbLayerTableRecord
  2
L225_
 70
     0
 62
     7
  6
CONTINUOUS
370
    -3
390
F
  0
LAYER
  5
6391
102
{ACAD_XDICTIONARY
360
8539
102
}
330
2
100
AcDbSymbolTableRecord
100
AcDbLayerTableRecord
  2
L150_
 70
     0
 62
     7
  6
CONTINUOUS
370
    -3
390
F
  0
LAYER
  5
6392
102
{ACAD_XDICTIONARY
360
853B
102
}
330
2
100
AcDbSymbolTableRecord
100
AcDbLayerTableRecord
  2
L0_
 70
     0
 62
     7
  6
CONTINUOUS
370
    -3
390
F
  0
LAYER
  5
6393
102
{ACAD_XDICTIONARY
360
853D
102
}
330
2
100
AcDbSymbolTableRecord
100
AcDbLayerTableRecord
  2
L170_
 70
     0
 62
     7
  6
CONTINUOUS
370
    -3
390
F
  0
LAYER
  5
6394
102
{ACAD_XDICTIONARY
360
853F
102
}
330
2
100
AcDbSymbolTableRecord
100
AcDbLayerTableRecord
  2
L10_
 70
     0
 62
     7
  6
CONTINUOUS
370
    -3
390
F
  0
LAYER
  5
6395
102
{ACAD_XDICTIONARY
360
8541
102
}
330
2
100
AcDbSymbolTableRecord
100
AcDbLayerTableRecord
  2
L230_
 70
     0
 62
     7
  6
CONTINUOUS
370
    -3
390
F
  0
LAYER
  5
6396
102
{ACAD_XDICTIONARY
360
8543
102
}
330
2
100
AcDbSymbolTableRecord
100
AcDbLayerTableRecord
  2
L210_
 70
     0
 62
     7
  6
CONTINUOUS
370
    -3
390
F
  0
LAYER
  5
7247
102
{ACAD_XDICTIONARY
360
8545
102
}
330
2
100
AcDbSymbolTableRecord
100
AcDbLayerTableRecord
  2
21
 70
     0
 62
     7
  6
CONTINUOUS
370
    -3
390
F
  0
LAYER
  5
7248
102
{ACAD_XDICTIONARY
360
8547
102
}
330
2
100
AcDbSymbolTableRecord
100
AcDbLayerTableRecord
  2
22
 70
     0
 62
     3
  6
CONTINUOUS
370
    -3
390
F
  0
ENDTAB
  0
TABLE
  2
STYLE
  5
3
330
0
100
AcDbSymbolTable
 70
     6
  0
STYLE
  5
11
330
3
100
AcDbSymbolTableRecord
100
AcDbTextStyleTableRecord
  2
STANDARD
 70
     0
 40
0.0
 41
1.0
 50
0.0
 71
     0
 42
2.0
  3
txt.shx
  4
bigfont.shx
  0
STYLE
  5
42
330
3
100
AcDbSymbolTableRecord
100
AcDbTextStyleTableRecord
  2
STANDARD1
 70
     0
 40
0.0
 41
1.0
 50
0.0
 71
     0
 42
5.0
  3
MONOTXT
  4
BIGFONT
  0
STYLE
  5
5016
330
3
100
AcDbSymbolTableRecord
100
AcDbTextStyleTableRecord
  2
UGMTXT
 70
     0
 40
0.0
 41
1.0
 50
0.0
 71
     0
 42
0.2
  3
ugmtxt
  4
bigfont
  0
STYLE
  5
6397
330
3
100
AcDbSymbolTableRecord
100
AcDbTextStyleTableRecord
  2
SYMBOL3
 70
     0
 40
0.0
 41
1.0
 50
0.0
 71
     0
 42
0.2
  3
iges1003
  4

  0
STYLE
  5
6398
330
3
100
AcDbSymbolTableRecord
100
AcDbTextStyleTableRecord
  2
LEROY
 70
     0
 40
0.0
 41
1.0
 50
0.0
 71
     0
 42
0.2
  3
txt
  4

  0
STYLE
  5
6399
330
3
100
AcDbSymbolTableRecord
100
AcDbTextStyleTableRecord
  2
GOTHICLL
 70
     0
 40
0.0
 41
1.0
 50
0.0
 71
     0
 42
0.2
  3
txt
  4

  0
ENDTAB
  0
TABLE
  2
VIEW
  5
6
330
0
100
AcDbSymbolTable
 70
     3
  0
VIEW
  5
230C
330
6
100
AcDbSymbolTableRecord
100
AcDbViewTableRecord
  2
OLE1
 70
     0
 40
148.912488
 10
429.497628
 20
2.560627
 41
103.145806
 11
0.0
 21
0.0
 31
1.0
 12
0.0
 22
0.0
 32
0.0
 42
50.0
 43
0.0
 44
0.0
 50
0.0
 71
     0
281
     0
 72
     0
  0
VIEW
  5
230E
330
6
100
AcDbSymbolTableRecord
100
AcDbViewTableRecord
  2
OLE2
 70
     0
 40
170.778692
 10
322.66497
 20
-5.978304
 41
102.467215
 11
0.0
 21
0.0
 31
1.0
 12
0.0
 22
0.0
 32
0.0
 42
50.0
 43
0.0
 44
0.0
 50
0.0
 71
     0
281
     0
 72
     0
  0
VIEW
  5
23AA
330
6
100
AcDbSymbolTableRecord
100
AcDbViewTableRecord
  2
OLE3
 70
     0
 40
591.7897389999998
 10
84.79698199999999
 20
-46.09335999999998
 41
388.792096
 11
0.0
 21
0.0
 31
1.0
 12
0.0
 22
0.0
 32
0.0
 42
50.0
 43
0.0
 44
0.0
 50
0.0
 71
     0
281
     0
 72
     0
  0
ENDTAB
  0
TABLE
  2
UCS
  5
7
330
0
100
AcDbSymbolTable
 70
     0
  0
ENDTAB
  0
TABLE
  2
APPID
  5
9
330
0
100
AcDbSymbolTable
 70
     5
  0
APPID
  5
12
330
9
100
AcDbSymbolTableRecord
100
AcDbRegAppTableRecord
  2
ACAD
 70
     0
  0
APPID
  5
ECD
330
9
100
AcDbSymbolTableRecord
100
AcDbRegAppTableRecord
  2
CONTENTBLOCKICON
 70
     0
  0
APPID
  5
6919
330
9
100
AcDbSymbolTableRecord
100
AcDbRegAppTableRecord
  2
ACAD_EXEMPT_FROM_CAD_STANDARDS
 70
     0
  0
APPID
  5
8583
330
9
100
AcDbSymbolTableRecord
100
AcDbRegAppTableRecord
  2
ACAD_MLEADERVER
 70
     0
  0
APPID
  5
85C9
330
9
100
AcDbSymbolTableRecord
100
AcDbRegAppTableRecord
  2
ACAD_PSEXT
 70
     0
  0
ENDTAB
  0
TABLE
  2
DIMSTYLE
  5
A
330
0
100
AcDbSymbolTable
 70
     1
100
AcDbDimStyleTable
 71
     1
340
175
  0
DIMSTYLE
105
175
102
{ACAD_REACTORS
330
6749
330
674A
330
67D3
330
67FD
330
6A24
330
6A25
330
6A21
330
6A22
330
6BCC
330
6DBF
330
704F
330
800C
330
8060
330
80AB
330
872C
330
872D
102
}
330
A
100
AcDbSymbolTableRecord
100
AcDbDimStyleTableRecord
  2
STANDARD
 70
     0
 41
2.0
 42
1.0
 43
0.5
 44
0.5
 73
     0
 77
     3
 78
    12
140
4.0
147
1.0
271
     1
272
     1
340
11
341
3B2
342
3B2
  0
ENDTAB
  0
TABLE
  2
BLOCK_RECORD
  5
1
330
0
100
AcDbSymbolTable
 70
    31
  0
BLOCK_RECORD
  5
1E
102
{ACAD_XDICTIONARY
360
178
102
}
330
1
100
AcDbSymbolTableRecord
100
AcDbBlockTableRecord
  2
*MODEL_SPACE
340
6262
  0
BLOCK_RECORD
  5
1A
102
{ACAD_XDICTIONARY
360
17A
102
}
330
1
100
AcDbSymbolTableRecord
100
AcDbBlockTableRecord
  2
*PAPER_SPACE
340
6263
  0
BLOCK_RECORD
  5
3B2
330
1
100
AcDbSymbolTableRecord
100
AcDbBlockTableRecord
  2
_OPEN
340
0
102
{BLKREFS
331
6900
331
6901
331
6909
331
690A
331
6912
331
6913
331
6C5F
331
6C60
331
6C68
331
6C69
331
6C71
331
6C72
331
6C95
331
6C96
331
8035
331
8036
331
8082
331
8083
331
80C4
331
80C5
331
818E
331
818F
331
845A
331
845B
331
861A
331
861B
331
8623
331
8624
331
8638
331
8639
331
8711
331
8712
331
871D
331
871E
331
8764
331
8765
331
876D
331
876E
102
}
  0
BLOCK_RECORD
  5
635C
330
1
100
AcDbSymbolTableRecord
100
AcDbBlockTableRecord
  2
B3337
340
0
102
{BLKREFS
331
6370
102
}
  0
BLOCK_RECORD
  5
6361
330
1
100
AcDbSymbolTableRecord
100
AcDbBlockTableRecord
  2
*D2
340
0
  0
BLOCK_RECORD
  5
636D
330
1
100
AcDbSymbolTableRecord
100
AcDbBlockTableRecord
  2
B3347
340
0
  0
BLOCK_RECORD
  5
6372
330
1
100
AcDbSymbolTableRecord
100
AcDbBlockTableRecord
  2
B3349
340
0
102
{BLKREFS
331
6387
102
}
  0
BLOCK_RECORD
  5
6377
330
1
100
AcDbSymbolTableRecord
100
AcDbBlockTableRecord
  2
*D5
340
0
  0
BLOCK_RECORD
  5
6384
330
1
100
AcDbSymbolTableRecord
100
AcDbBlockTableRecord
  2
B3359
340
0
  0
BLOCK_RECORD
  5
6389
330
1
100
AcDbSymbolTableRecord
100
AcDbBlockTableRecord
  2
B3469
340
0
  0
BLOCK_RECORD
  5
674D
330
1
100
AcDbSymbolTableRecord
100
AcDbBlockTableRecord
  2
*D8
340
0
  0
BLOCK_RECORD
  5
6759
330
1
100
AcDbSymbolTableRecord
100
AcDbBlockTableRecord
  2
*D9
340
0
  0
BLOCK_RECORD
  5
67D4
330
1
100
AcDbSymbolTableRecord
100
AcDbBlockTableRecord
  2
*D10
340
0
  0
BLOCK_RECORD
  5
67FE
330
1
100
AcDbSymbolTableRecord
100
AcDbBlockTableRecord
  2
*D11
340
0
  0
BLOCK_RECORD
  5
6A28
330
1
100
AcDbSymbolTableRecord
100
AcDbBlockTableRecord
  2
*D12
340
0
  0
BLOCK_RECORD
  5
6A34
330
1
100
AcDbSymbolTableRecord
100
AcDbBlockTableRecord
  2
*D13
340
0
  0
BLOCK_RECORD
  5
6A4C
330
1
100
AcDbSymbolTableRecord
100
AcDbBlockTableRecord
  2
*D14
340
0
  0
BLOCK_RECORD
  5
6A58
330
1
100
AcDbSymbolTableRecord
100
AcDbBlockTableRecord
  2
*D15
340
0
  0
BLOCK_RECORD
  5
6A65
330
1
100
AcDbSymbolTableRecord
100
AcDbBlockTableRecord
  2
*D16
340
0
  0
BLOCK_RECORD
  5
6BCD
330
1
100
AcDbSymbolTableRecord
100
AcDbBlockTableRecord
  2
*D17
340
0
  0
BLOCK_RECORD
  5
6DC0
330
1
100
AcDbSymbolTableRecord
100
AcDbBlockTableRecord
  2
*D18
340
0
  0
BLOCK_RECORD
  5
7050
330
1
100
AcDbSymbolTableRecord
100
AcDbBlockTableRecord
  2
*D19
340
0
  0
BLOCK_RECORD
  5
7666
330
1
100
AcDbSymbolTableRecord
100
AcDbBlockTableRecord
  2
B2223
340
0
  0
BLOCK_RECORD
  5
7683
330
1
100
AcDbSymbolTableRecord
100
AcDbBlockTableRecord
  2
B2991
340
0
  0
BLOCK_RECORD
  5
76A0
330
1
100
AcDbSymbolTableRecord
100
AcDbBlockTableRecord
  2
B3373
340
0
  0
BLOCK_RECORD
  5
76A5
330
1
100
AcDbSymbolTableRecord
100
AcDbBlockTableRecord
  2
B3385
340
0
  0
BLOCK_RECORD
  5
800D
330
1
100
AcDbSymbolTableRecord
100
AcDbBlockTableRecord
  2
*D24
340
0
  0
BLOCK_RECORD
  5
8061
330
1
100
AcDbSymbolTableRecord
100
AcDbBlockTableRecord
  2
*D25
340
0
  0
BLOCK_RECORD
  5
80AC
330
1
100
AcDbSymbolTableRecord
100
AcDbBlockTableRecord
  2
*D26
340
0
  0
BLOCK_RECORD
  5
870C
330
1
100
AcDbSymbolTableRecord
100
AcDbBlockTableRecord
  2
*D27
340
0
  0
BLOCK_RECORD
  5
8718
330
1
100
AcDbSymbolTableRecord
100
AcDbBlockTableRecord
  2
*D28
340
0
  0
BLOCK_RECORD
  5
872E
330
1
100
AcDbSymbolTableRecord
100
AcDbBlockTableRecord
  2
*D29
340
0
  0
BLOCK_RECORD
  5
873A
330
1
100
AcDbSymbolTableRecord
100
AcDbBlockTableRecord
  2
*D30
340
0
  0
ENDTAB
  0
ENDSEC
  0
SECTION
  2
BLOCKS
  0
BLOCK
  5
1F
330
1E
100
AcDbEntity
  8
0
100
AcDbBlockBegin
  2
*MODEL_SPACE
 70
     0
 10
0.0
 20
0.0
 30
0.0
  3
*MODEL_SPACE
  1

  0
ENDBLK
  5
20
330
1E
100
AcDbEntity
  8
0
100
AcDbBlockEnd
  0
BLOCK
  5
1B
330
1A
100
AcDbEntity
 67
     1
  8
0
100
AcDbBlockBegin
  2
*PAPER_SPACE
 70
     0
 10
0.0
 20
0.0
 30
0.0
  3
*PAPER_SPACE
  1

  0
ENDBLK
  5
1C
330
1A
100
AcDbEntity
 67
     1
  8
0
100
AcDbBlockEnd
  0
BLOCK
  5
3B6
330
3B2
100
AcDbEntity
  8
0
100
AcDbBlockBegin
  2
_OPEN
 70
     0
 10
0.0
 20
0.0
 30
0.0
  3
_OPEN
  1

  0
LINE
  5
3B3
330
3B2
100
AcDbEntity
  8
30
  6
Continuous
 62
     0
100
AcDbLine
 10
-1.0
 20
0.166667
 30
0.0
 11
0.0
 21
0.0
 31
0.0
  0
LINE
  5
3B4
330
3B2
100
AcDbEntity
  8
30
  6
Continuous
 62
     0
100
AcDbLine
 10
-1.0
 20
-0.166667
 30
0.0
 11
0.0
 21
0.0
 31
0.0
  0
LINE
  5
3B5
330
3B2
100
AcDbEntity
  8
30
  6
Continuous
 62
     0
100
AcDbLine
 10
0.0
 20
0.0
 30
0.0
 11
-1.0
 21
0.0
 31
0.0
  0
ENDBLK
  5
3B7
330
3B2
100
AcDbEntity
  8
0
100
AcDbBlockEnd
  0
BLOCK
  5
635D
330
635C
100
AcDbEntity
  8
L210_
  6
Continuous
 62
     4
100
AcDbBlockBegin
  2
B3337
 70
     0
 10
0.0
 20
0.0
 30
0.0
  3
B3337
  1

  0
TEXT
  5
635E
330
635C
100
AcDbEntity
  8
L210_
  6
Continuous
 62
     4
100
AcDbText
 10
862.0242310000001
 20
1197.5
 30
0.0
 40
8.0
  1
12.5
 41
1.072916671874992
 72
     5
 11
884.91312
 21
1197.5
 31
0.0
100
AcDbText
 73
     2
  0
TEXT
  5
635F
330
635C
100
AcDbEntity
  8
L210_
  6
Continuous
 62
     4
100
AcDbText
 10
887.2242319999996
 20
1197.5
 30
0.0
 40
8.0
  1
(MAX.)
 41
1.025641009615395
 72
     5
 11
922.7797870000001
 21
1197.5
 31
0.0
100
AcDbText
 73
     2
  0
ENDBLK
  5
6360
330
635C
100
AcDbEntity
  8
L210_
  6
Continuous
 62
     4
100
AcDbBlockEnd
  0
BLOCK
  5
6362
330
6361
100
AcDbEntity
  8
0
100
AcDbBlockBegin
  2
*D2
 70
     1
 10
0.0
 20
0.0
 30
0.0
  3
*D2
  1

  0
LINE
  5
6363
330
6361
100
AcDbEntity
  8
0
  6
ByBlock
 62
     4
100
AcDbLine
 10
843.75
 20
1240.0
 30
0.0
 11
843.75
 21
1186.0
 31
0.0
  0
LINE
  5
6364
330
6361
100
AcDbEntity
  8
0
  6
ByBlock
 62
     4
100
AcDbLine
 10
856.25
 20
1240.0
 30
0.0
 11
856.25
 21
1186.0
 31
0.0
  0
LINE
  5
6365
330
6361
100
AcDbEntity
  8
0
  6
ByBlock
 62
     4
100
AcDbLine
 10
836.25
 20
1192.5
 30
0.0
 11
828.7499999999999
 21
1192.5
 31
0.0
  0
LINE
  5
6366
330
6361
100
AcDbEntity
  8
0
  6
ByBlock
 62
     4
100
AcDbLine
 10
863.7500000000001
 20
1192.5
 30
0.0
 11
871.25
 21
1192.5
 31
0.0
  0
SOLID
  5
6367
330
6361
100
AcDbEntity
  8
0
  6
ByBlock
 62
     4
100
AcDbTrace
 10
836.25
 20
1193.75
 30
0.0
 11
836.25
 21
1191.25
 31
0.0
 12
843.75
 22
1192.5
 32
0.0
 13
843.75
 23
1192.5
 33
0.0
  0
SOLID
  5
6368
330
6361
100
AcDbEntity
  8
0
  6
ByBlock
 62
     4
100
AcDbTrace
 10
863.7500000000001
 20
1193.75
 30
0.0
 11
863.7500000000001
 21
1191.25
 31
0.0
 12
856.25
 22
1192.5
 32
0.0
 13
856.25
 23
1192.5
 33
0.0
  0
POINT
  5
6369
330
6361
100
AcDbEntity
  8
DEFPOINTS
  6
ByBlock
 62
     0
100
AcDbPoint
 10
843.75
 20
1244.8
 30
0.0
  0
POINT
  5
636A
330
6361
100
AcDbEntity
  8
DEFPOINTS
  6
ByBlock
 62
     0
100
AcDbPoint
 10
856.25
 20
1244.8
 30
0.0
  0
POINT
  5
636B
330
6361
100
AcDbEntity
  8
DEFPOINTS
  6
ByBlock
 62
     0
100
AcDbPoint
 10
856.25
 20
1192.5
 30
0.0
  0
ENDBLK
  5
636C
330
6361
100
AcDbEntity
  8
0
100
AcDbBlockEnd
  0
BLOCK
  5
636E
330
636D
100
AcDbEntity
  8
L210_
100
AcDbBlockBegin
  2
B3347
 70
     0
 10
0.0
 20
0.0
 30
0.0
  3
B3347
  1

  0
DIMENSION
  5
636F
330
636D
100
AcDbEntity
  8
L210_
100
AcDbDimension
  2
*D2
 10
856.25
 20
1192.5
 30
0.0
 11
624.5930819999998
 21
1066.869629
 31
0.0
  1
 
 71
     5
 42
-1.0
100
AcDbAlignedDimension
 13
843.75
 23
1244.8
 33
0.0
 14
856.25
 24
1244.8
 34
0.0
100
AcDbRotatedDimension
  0
INSERT
  5
6370
330
636D
100
AcDbEntity
  8
L210_
  6
Continuous
 62
     4
100
AcDbBlockReference
  2
B3337
 10
0.0
 20
0.0
 30
0.0
  0
ENDBLK
  5
6371
330
636D
100
AcDbEntity
  8
L210_
100
AcDbBlockEnd
  0
BLOCK
  5
6373
330
6372
100
AcDbEntity
  8
L210_
  6
Continuous
 62
     4
100
AcDbBlockBegin
  2
B3349
 70
     0
 10
0.0
 20
0.0
 30
0.0
  3
B3349
  1

  0
TEXT
  5
6374
330
6372
100
AcDbEntity
  8
L210_
  6
Continuous
 62
     4
100
AcDbText
 10
876.2500000000001
 20
1256.442505
 30
0.0
 40
8.0
  1
8
 50
90.00000831713006
 41
1.291666687500025
 72
     5
 11
876.249999
 21
1263.331394
 31
0.0
100
AcDbText
 73
     2
  0
TEXT
  5
6375
330
6372
100
AcDbEntity
  8
L210_
  6
Continuous
 62
     4
100
AcDbText
 10
876.249999
 20
1265.642504
 30
0.0
 40
8.0
  1
(MAX.)
 50
90.00000161144397
 41
1.025641038461539
 72
     5
 11
876.2499979999999
 21
1301.19806
 31
0.0
100
AcDbText
 73
     2
  0
ENDBLK
  5
6376
330
6372
100
AcDbEntity
  8
L210_
  6
Continuous
 62
     4
100
AcDbBlockEnd
  0
BLOCK
  5
6378
330
6377
100
AcDbEntity
  8
0
100
AcDbBlockBegin
  2
*D5
 70
     1
 10
0.0
 20
0.0
 30
0.0
  3
*D5
  1

  0
LINE
  5
6379
330
6377
100
AcDbEntity
  8
0
  6
ByBlock
 62
     4
100
AcDbLine
 10
858.75
 20
1242.5
 30
0.0
 11
887.7499999999999
 21
1242.5
 31
0.0
  0
LINE
  5
637A
330
6377
100
AcDbEntity
  8
0
  6
ByBlock
 62
     4
100
AcDbLine
 10
885.25
 20
1250.5
 30
0.0
 11
874.75
 21
1250.5
 31
0.0
  0
LINE
  5
637B
330
6377
100
AcDbEntity
  8
0
  6
ByBlock
 62
     4
100
AcDbLine
 10
881.25
 20
1235.0
 30
0.0
 11
881.25
 21
1227.5
 31
0.0
  0
LINE
  5
637C
330
6377
100
AcDbEntity
  8
0
  6
ByBlock
 62
     4
100
AcDbLine
 10
881.25
 20
1258.0
 30
0.0
 11
881.25
 21
1265.5
 31
0.0
  0
LINE
  5
637D
330
6377
100
AcDbEntity
  8
0
  6
ByBlock
 62
     4
100
AcDbLine
 10
881.25
 20
1265.5
 30
0.0
 11
888.7500000000001
 21
1265.5
 31
0.0
  0
SOLID
  5
637E
330
6377
100
AcDbEntity
  8
0
  6
ByBlock
 62
     4
100
AcDbTrace
 10
880.0
 20
1235.0
 30
0.0
 11
882.5000000000001
 21
1235.0
 31
0.0
 12
881.25
 22
1242.5
 32
0.0
 13
881.25
 23
1242.5
 33
0.0
  0
SOLID
  5
637F
330
6377
100
AcDbEntity
  8
0
  6
ByBlock
 62
     4
100
AcDbTrace
 10
880.0
 20
1258.0
 30
0.0
 11
882.5000000000001
 21
1258.0
 31
0.0
 12
881.25
 22
1250.5
 32
0.0
 13
881.25
 23
1250.5
 33
0.0
  0
POINT
  5
6380
330
6377
100
AcDbEntity
  8
DEFPOINTS
  6
ByBlock
 62
     0
100
AcDbPoint
 10
853.95
 20
1242.5
 30
0.0
  0
POINT
  5
6381
330
6377
100
AcDbEntity
  8
DEFPOINTS
  6
ByBlock
 62
     0
100
AcDbPoint
 10
890.0499999999999
 20
1250.5
 30
0.0
  0
POINT
  5
6382
330
6377
100
AcDbEntity
  8
DEFPOINTS
  6
ByBlock
 62
     0
100
AcDbPoint
 10
881.25
 20
1250.5
 30
0.0
  0
ENDBLK
  5
6383
330
6377
100
AcDbEntity
  8
0
100
AcDbBlockEnd
  0
BLOCK
  5
6385
330
6384
100
AcDbEntity
  8
L210_
100
AcDbBlockBegin
  2
B3359
 70
     0
 10
0.0
 20
0.0
 30
0.0
  3
B3359
  1

  0
DIMENSION
  5
6386
330
6384
100
AcDbEntity
  8
L210_
100
AcDbDimension
  2
*D5
 10
881.25
 20
1250.5
 30
0.0
 11
624.5930819999998
 21
1066.869629
 31
0.0
  1
 
 71
     5
 42
-1.0
100
AcDbAlignedDimension
 13
853.95
 23
1242.5
 33
0.0
 14
890.0499999999999
 24
1250.5
 34
0.0
 50
90.0
100
AcDbRotatedDimension
  0
INSERT
  5
6387
330
6384
100
AcDbEntity
  8
L210_
  6
Continuous
 62
     4
100
AcDbBlockReference
  2
B3349
 10
0.0
 20
0.0
 30
0.0
  0
ENDBLK
  5
6388
330
6384
100
AcDbEntity
  8
L210_
100
AcDbBlockEnd
  0
BLOCK
  5
638A
330
6389
100
AcDbEntity
  8
L210_
  6
Continuous
 62
     4
100
AcDbBlockBegin
  2
B3469
 70
     0
 10
0.0
 20
0.0
 30
0.0
  3
B3469
  1

  0
TEXT
  5
638B
330
6389
100
AcDbEntity
  8
L210_
  6
Continuous
 62
     4
100
AcDbText
 10
874.052612
 20
1222.5
 30
0.0
 40
8.0
  1
n
 41
1.5
 72
     5
 11
882.052612
 21
1222.5
 31
0.0
100
AcDbText
 73
     2
  0
TEXT
  5
638C
330
6389
100
AcDbEntity
  8
L210_
  6
Continuous
 62
     4
100
AcDbText
 10
886.0526119999999
 20
1222.5
 30
0.0
 40
8.0
  1
5.5
 41
1.250000000000007
 72
     5
 11
906.052612
 21
1222.5
 31
0.0
100
AcDbText
 73
     2
  0
ENDBLK
  5
638D
330
6389
100
AcDbEntity
  8
L210_
  6
Continuous
 62
     4
100
AcDbBlockEnd
  0
BLOCK
  5
6757
330
674D
100
AcDbEntity
  8
0
100
AcDbBlockBegin
  2
*D8
 70
     1
 10
0.0
 20
0.0
 30
0.0
  3
*D8
  1

  0
LINE
  5
68FD
330
674D
100
AcDbEntity
  8
30
  6
Continuous
 62
     0
370
    -2
100
AcDbLine
 10
-25.0
 20
-66.0
 30
0.0
 11
-25.0
 21
-110.5
 31
0.0
  0
LINE
  5
68FE
330
674D
100
AcDbEntity
  8
30
  6
Continuous
 62
     0
370
    -2
100
AcDbLine
 10
25.0
 20
-66.0
 30
0.0
 11
25.0
 21
-110.5
 31
0.0
  0
LINE
  5
68FF
330
674D
100
AcDbEntity
  8
30
  6
Continuous
 62
     0
370
    -2
100
AcDbLine
 10
-23.0
 20
-110.0
 30
0.0
 11
23.0
 21
-110.0
 31
0.0
  0
INSERT
  5
6900
330
674D
100
AcDbEntity
  8
30
  6
Continuous
 62
     0
370
    -2
100
AcDbBlockReference
  2
_OPEN
 10
-25.0
 20
-110.0
 30
0.0
 41
2.0
 42
2.0
 43
2.0
 50
180.0
  0
INSERT
  5
6901
330
674D
100
AcDbEntity
  8
30
  6
Continuous
 62
     0
370
    -2
100
AcDbBlockReference
  2
_OPEN
 10
25.0
 20
-110.0
 30
0.0
 41
2.0
 42
2.0
 43
2.0
  0
MTEXT
  5
6902
330
674D
100
AcDbEntity
  8
30
  6
Continuous
 62
     0
100
AcDbMText
 10
-0.0000000000000034
 20
-107.0
 30
0.0
 40
4.0
 41
0.0
 71
     5
 72
     1
  1
\A1;50
 73
     1
 44
1.0
1001
ACAD
1000
MTEXTBEGIN
1070
    73
1070
     1
1070
    44
1040
1.0
1070
    74
1070
     0
1000
MTEXTEND
  0
POINT
  5
6903
330
674D
100
AcDbEntity
  8
DEFPOINTS
  6
Continuous
 62
     0
100
AcDbPoint
 10
-25.0
 20
-65.0
 30
0.0
  0
POINT
  5
6904
330
674D
100
AcDbEntity
  8
DEFPOINTS
  6
Continuous
 62
     0
100
AcDbPoint
 10
25.0
 20
-65.0
 30
0.0
  0
POINT
  5
6905
330
674D
100
AcDbEntity
  8
DEFPOINTS
  6
Continuous
 62
     0
100
AcDbPoint
 10
25.0
 20
-110.0
 30
0.0
  0
ENDBLK
  5
6758
330
674D
100
AcDbEntity
  8
0
100
AcDbBlockEnd
  0
BLOCK
  5
6763
330
6759
100
AcDbEntity
  8
0
100
AcDbBlockBegin
  2
*D9
 70
     1
 10
0.0
 20
0.0
 30
0.0
  3
*D9
  1

  0
LINE
  5
8635
330
6759
100
AcDbEntity
  8
30
  6
Continuous
 62
     0
370
    -2
100
AcDbLine
 10
-12.5
 20
-63.50000000000006
 30
0.0
 11
-12.5
 21
-90.5
 31
0.0
  0
LINE
  5
8636
330
6759
100
AcDbEntity
  8
30
  6
Continuous
 62
     0
370
    -2
100
AcDbLine
 10
12.5
 20
-63.5
 30
0.0
 11
12.5
 21
-90.5
 31
0.0
  0
LINE
  5
8637
330
6759
100
AcDbEntity
  8
30
  6
Continuous
 62
     0
370
    -2
100
AcDbLine
 10
-10.5
 20
-90.0
 30
0.0
 11
10.5
 21
-90.0
 31
0.0
  0
INSERT
  5
8638
330
6759
100
AcDbEntity
  8
30
  6
Continuous
 62
     0
370
    -2
100
AcDbBlockReference
  2
_OPEN
 10
-12.5
 20
-90.0
 30
0.0
 41
2.0
 42
2.0
 43
2.0
 50
180.0
  0
INSERT
  5
8639
330
6759
100
AcDbEntity
  8
30
  6
Continuous
 62
     0
370
    -2
100
AcDbBlockReference
  2
_OPEN
 10
12.5
 20
-90.0
 30
0.0
 41
2.0
 42
2.0
 43
2.0
  0
MTEXT
  5
863A
330
6759
100
AcDbEntity
  8
30
  6
Continuous
 62
     0
100
AcDbMText
 10
-0.0000000000000016
 20
-87.0
 30
0.0
 40
4.0
 41
0.0
 71
     5
 72
     1
  1
\A1;25
 73
     1
 44
1.0
1001
ACAD
1000
MTEXTBEGIN
1070
    73
1070
     1
1070
    44
1040
1.0
1070
    74
1070
     0
1000
MTEXTEND
  0
POINT
  5
863B
330
6759
100
AcDbEntity
  8
DEFPOINTS
  6
Continuous
 62
     0
100
AcDbPoint
 10
-12.5
 20
-62.50000000000007
 30
0.0
  0
POINT
  5
863C
330
6759
100
AcDbEntity
  8
DEFPOINTS
  6
Continuous
 62
     0
100
AcDbPoint
 10
12.5
 20
-62.5
 30
0.0
  0
POINT
  5
863D
330
6759
100
AcDbEntity
  8
DEFPOINTS
  6
Continuous
 62
     0
100
AcDbPoint
 10
12.5
 20
-90.0
 30
0.0
  0
ENDBLK
  5
6764
330
6759
100
AcDbEntity
  8
0
100
AcDbBlockEnd
  0
BLOCK
  5
67DE
330
67D4
100
AcDbEntity
  8
0
100
AcDbBlockBegin
  2
*D10
 70
     1
 10
0.0
 20
0.0
 30
0.0
  3
*D10
  1

  0
LINE
  5
6906
330
67D4
100
AcDbEntity
  8
30
  6
Continuous
 62
     0
370
    -2
100
AcDbLine
 10
-26.0
 20
65.0
 30
0.0
 11
-50.49999999999997
 21
65.00000000000001
 31
0.0
  0
LINE
  5
6907
330
67D4
100
AcDbEntity
  8
30
  6
Continuous
 62
     0
370
    -2
100
AcDbLine
 10
-26.0
 20
-65.0
 30
0.0
 11
-50.5
 21
-64.99999999999999
 31
0.0
  0
LINE
  5
6908
330
67D4
100
AcDbEntity
  8
30
  6
Continuous
 62
     0
370
    -2
100
AcDbLine
 10
-49.99999999999997
 20
63.0
 30
0.0
 11
-50.0
 21
-62.99999999999998
 31
0.0
  0
INSERT
  5
6909
330
67D4
100
AcDbEntity
  8
30
  6
Continuous
 62
     0
370
    -2
100
AcDbBlockReference
  2
_OPEN
 10
-49.99999999999997
 20
65.00000000000001
 30
0.0
 41
2.0
 42
2.0
 43
2.0
 50
90.0
  0
INSERT
  5
690A
330
67D4
100
AcDbEntity
  8
30
  6
Continuous
 62
     0
370
    -2
100
AcDbBlockReference
  2
_OPEN
 10
-50.0
 20
-64.99999999999999
 30
0.0
 41
2.0
 42
2.0
 43
2.0
 50
270.0
  0
MTEXT
  5
690B
330
67D4
100
AcDbEntity
  8
30
  6
Continuous
 62
     0
100
AcDbMText
 10
-52.99999999999998
 20
0.0000000000000034
 30
0.0
 40
4.0
 41
0.0
 71
     5
 72
     1
  1
\A1;130
 11
0.0000000000000001
 21
1.0
 31
0.0
 73
     1
 44
1.0
1001
ACAD
1000
MTEXTBEGIN
1070
    73
1070
     1
1070
    44
1040
1.0
1070
    74
1070
     0
1000
MTEXTEND
  0
POINT
  5
690C
330
67D4
100
AcDbEntity
  8
DEFPOINTS
  6
Continuous
 62
     0
100
AcDbPoint
 10
-25.0
 20
65.0
 30
0.0
  0
POINT
  5
690D
330
67D4
100
AcDbEntity
  8
DEFPOINTS
  6
Continuous
 62
     0
100
AcDbPoint
 10
-25.0
 20
-65.0
 30
0.0
  0
POINT
  5
690E
330
67D4
100
AcDbEntity
  8
DEFPOINTS
  6
Continuous
 62
     0
100
AcDbPoint
 10
-50.0
 20
-64.99999999999999
 30
0.0
  0
ENDBLK
  5
67DF
330
67D4
100
AcDbEntity
  8
0
100
AcDbBlockEnd
  0
BLOCK
  5
6808
330
67FE
100
AcDbEntity
  8
0
100
AcDbBlockBegin
  2
*D11
 70
     1
 10
0.0
 20
0.0
 30
0.0
  3
*D11
  1

  0
LINE
  5
690F
330
67FE
100
AcDbEntity
  8
30
  6
Continuous
 62
     0
370
    -2
100
AcDbLine
 10
-23.5
 20
25.99999999999994
 30
0.0
 11
-23.5
 21
30.5
 31
0.0
  0
LINE
  5
6910
330
67FE
100
AcDbEntity
  8
30
  6
Continuous
 62
     0
370
    -2
100
AcDbLine
 10
-1.5
 20
26.0
 30
0.0
 11
-1.499999999999999
 21
30.5
 31
0.0
  0
LINE
  5
6911
330
67FE
100
AcDbEntity
  8
30
  6
Continuous
 62
     0
370
    -2
100
AcDbLine
 10
-21.5
 20
30.0
 30
0.0
 11
-3.5
 21
30.0
 31
0.0
  0
INSERT
  5
6912
330
67FE
100
AcDbEntity
  8
30
  6
Continuous
 62
     0
370
    -2
100
AcDbBlockReference
  2
_OPEN
 10
-23.5
 20
30.0
 30
0.0
 41
2.0
 42
2.0
 43
2.0
 50
180.0
  0
INSERT
  5
6913
330
67FE
100
AcDbEntity
  8
30
  6
Continuous
 62
     0
370
    -2
100
AcDbBlockReference
  2
_OPEN
 10
-1.499999999999999
 20
30.0
 30
0.0
 41
2.0
 42
2.0
 43
2.0
  0
MTEXT
  5
6914
330
67FE
100
AcDbEntity
  8
30
  6
Continuous
 62
     0
100
AcDbMText
 10
-12.5
 20
33.0
 30
0.0
 40
4.0
 41
0.0
 71
     5
 72
     1
  1
\A1;22
 73
     1
 44
1.0
1001
ACAD
1000
MTEXTBEGIN
1070
    73
1070
     1
1070
    44
1040
1.0
1070
    74
1070
     0
1000
MTEXTEND
  0
POINT
  5
6915
330
67FE
100
AcDbEntity
  8
DEFPOINTS
  6
Continuous
 62
     0
100
AcDbPoint
 10
-23.5
 20
24.99999999999995
 30
0.0
  0
POINT
  5
6916
330
67FE
100
AcDbEntity
  8
DEFPOINTS
  6
Continuous
 62
     0
100
AcDbPoint
 10
-1.5
 20
25.0
 30
0.0
  0
POINT
  5
6917
330
67FE
100
AcDbEntity
  8
DEFPOINTS
  6
Continuous
 62
     0
100
AcDbPoint
 10
-1.499999999999999
 20
30.0
 30
0.0
  0
ENDBLK
  5
6809
330
67FE
100
AcDbEntity
  8
0
100
AcDbBlockEnd
  0
BLOCK
  5
6A32
330
6A28
100
AcDbEntity
  8
0
100
AcDbBlockBegin
  2
*D12
 70
     1
 10
0.0
 20
0.0
 30
0.0
  3
*D12
  1

  0
LINE
  5
6C65
330
6A28
100
AcDbEntity
  8
30
  6
Continuous
 62
     0
370
    -2
100
AcDbLine
 10
150.0000610000002
 20
-43.0
 30
0.0
 11
150.0000610000002
 21
-110.5000000000001
 31
0.0
  0
LINE
  5
6C66
330
6A28
100
AcDbEntity
  8
30
  6
Continuous
 62
     0
370
    -2
100
AcDbLine
 10
218.0000000000001
 20
-66.0
 30
0.0
 11
218.0000000000001
 21
-110.5000000000001
 31
0.0
  0
LINE
  5
6C67
330
6A28
100
AcDbEntity
  8
30
  6
Continuous
 62
     0
370
    -2
100
AcDbLine
 10
152.0000610000002
 20
-110.0000000000001
 30
0.0
 11
216.0000000000001
 21
-110.0000000000001
 31
0.0
  0
INSERT
  5
6C68
330
6A28
100
AcDbEntity
  8
30
  6
Continuous
 62
     0
370
    -2
100
AcDbBlockReference
  2
_OPEN
 10
150.0000610000002
 20
-110.0000000000001
 30
0.0
 41
2.0
 42
2.0
 43
2.0
 50
180.0
  0
INSERT
  5
6C69
330
6A28
100
AcDbEntity
  8
30
  6
Continuous
 62
     0
370
    -2
100
AcDbBlockReference
  2
_OPEN
 10
218.0000000000001
 20
-110.0000000000001
 30
0.0
 41
2.0
 42
2.0
 43
2.0
  0
MTEXT
  5
6C6A
330
6A28
100
AcDbEntity
  8
30
  6
Continuous
 62
     0
100
AcDbMText
 10
184.0000305
 20
-107.0000000000001
 30
0.0
 40
4.0
 41
0.0
 71
     5
 72
     1
  1
\A1;68
 73
     1
 44
1.0
1001
ACAD
1000
MTEXTBEGIN
1070
    73
1070
     1
1070
    44
1040
1.0
1070
    74
1070
     0
1000
MTEXTEND
  0
POINT
  5
6C6B
330
6A28
100
AcDbEntity
  8
DEFPOINTS
  6
Continuous
 62
     0
100
AcDbPoint
 10
150.0000610000002
 20
-42.0
 30
0.0
  0
POINT
  5
6C6C
330
6A28
100
AcDbEntity
  8
DEFPOINTS
  6
Continuous
 62
     0
100
AcDbPoint
 10
218.0000000000001
 20
-65.0
 30
0.0
  0
POINT
  5
6C6D
330
6A28
100
AcDbEntity
  8
DEFPOINTS
  6
Continuous
 62
     0
100
AcDbPoint
 10
218.0000000000001
 20
-110.0000000000001
 30
0.0
  0
ENDBLK
  5
6A33
330
6A28
100
AcDbEntity
  8
0
100
AcDbBlockEnd
  0
BLOCK
  5
6A3E
330
6A34
100
AcDbEntity
  8
0
100
AcDbBlockBegin
  2
*D13
 70
     1
 10
0.0
 20
0.0
 30
0.0
  3
*D13
  1

  0
LINE
  5
6C6E
330
6A34
100
AcDbEntity
  8
30
  6
Continuous
 62
     0
370
    -2
100
AcDbLine
 10
157.0000610000002
 20
-66.0
 30
0.0
 11
157.0000610000002
 21
-100.5000000000001
 31
0.0
  0
LINE
  5
6C6F
330
6A34
100
AcDbEntity
  8
30
  6
Continuous
 62
     0
370
    -2
100
AcDbLine
 10
218.0000000000001
 20
-66.0
 30
0.0
 11
218.0000000000001
 21
-100.5000000000001
 31
0.0
  0
LINE
  5
6C70
330
6A34
100
AcDbEntity
  8
30
  6
Continuous
 62
     0
370
    -2
100
AcDbLine
 10
159.0000610000002
 20
-100.0000000000001
 30
0.0
 11
216.0000000000001
 21
-100.0000000000001
 31
0.0
  0
INSERT
  5
6C71
330
6A34
100
AcDbEntity
  8
30
  6
Continuous
 62
     0
370
    -2
100
AcDbBlockReference
  2
_OPEN
 10
157.0000610000002
 20
-100.0000000000001
 30
0.0
 41
2.0
 42
2.0
 43
2.0
 50
180.0
  0
INSERT
  5
6C72
330
6A34
100
AcDbEntity
  8
30
  6
Continuous
 62
     0
370
    -2
100
AcDbBlockReference
  2
_OPEN
 10
218.0000000000001
 20
-100.0000000000001
 30
0.0
 41
2.0
 42
2.0
 43
2.0
  0
MTEXT
  5
6C73
330
6A34
100
AcDbEntity
  8
30
  6
Continuous
 62
     0
100
AcDbMText
 10
187.5000305
 20
-97.00000000000013
 30
0.0
 40
4.0
 41
0.0
 71
     5
 72
     1
  1
\A1;61
 73
     1
 44
1.0
1001
ACAD
1000
MTEXTBEGIN
1070
    73
1070
     1
1070
    44
1040
1.0
1070
    74
1070
     0
1000
MTEXTEND
  0
POINT
  5
6C74
330
6A34
100
AcDbEntity
  8
DEFPOINTS
  6
Continuous
 62
     0
100
AcDbPoint
 10
157.0000610000002
 20
-65.0
 30
0.0
  0
POINT
  5
6C75
330
6A34
100
AcDbEntity
  8
DEFPOINTS
  6
Continuous
 62
     0
100
AcDbPoint
 10
218.0000000000001
 20
-65.0
 30
0.0
  0
POINT
  5
6C76
330
6A34
100
AcDbEntity
  8
DEFPOINTS
  6
Continuous
 62
     0
100
AcDbPoint
 10
218.0000000000001
 20
-100.0000000000001
 30
0.0
  0
ENDBLK
  5
6A3F
330
6A34
100
AcDbEntity
  8
0
100
AcDbBlockEnd
  0
BLOCK
  5
6A56
330
6A4C
100
AcDbEntity
  8
0
100
AcDbBlockBegin
  2
*D14
 70
     1
 10
0.0
 20
0.0
 30
0.0
  3
*D14
  1

  0
LINE
  5
8620
330
6A4C
100
AcDbEntity
  8
30
  6
Continuous
 62
     0
370
    -2
100
AcDbLine
 10
131.0000000000001
 20
1.999982000000043
 30
0.0
 11
131.0000000000001
 21
-120.5000000000001
 31
0.0
  0
LINE
  5
8621
330
6A4C
100
AcDbEntity
  8
30
  6
Continuous
 62
     0
370
    -2
100
AcDbLine
 10
218.0000000000001
 20
-66.0
 30
0.0
 11
218.0000000000001
 21
-120.5000000000001
 31
0.0
  0
LINE
  5
8622
330
6A4C
100
AcDbEntity
  8
30
  6
Continuous
 62
     0
370
    -2
100
AcDbLine
 10
133.0000000000001
 20
-120.0000000000001
 30
0.0
 11
216.0000000000001
 21
-120.0000000000001
 31
0.0
  0
INSERT
  5
8623
330
6A4C
100
AcDbEntity
  8
30
  6
Continuous
 62
     0
370
    -2
100
AcDbBlockReference
  2
_OPEN
 10
131.0000000000001
 20
-120.0000000000001
 30
0.0
 41
2.0
 42
2.0
 43
2.0
 50
180.0
  0
INSERT
  5
8624
330
6A4C
100
AcDbEntity
  8
30
  6
Continuous
 62
     0
370
    -2
100
AcDbBlockReference
  2
_OPEN
 10
218.0000000000001
 20
-120.0000000000001
 30
0.0
 41
2.0
 42
2.0
 43
2.0
  0
MTEXT
  5
8625
330
6A4C
100
AcDbEntity
  8
30
  6
Continuous
 62
     0
100
AcDbMText
 10
174.5000000000001
 20
-117.0000000000001
 30
0.0
 40
4.0
 41
0.0
 71
     5
 72
     1
  1
\A1;87
 73
     1
 44
1.0
1001
ACAD
1000
MTEXTBEGIN
1070
    73
1070
     1
1070
    44
1040
1.0
1070
    74
1070
     0
1000
MTEXTEND
  0
POINT
  5
8626
330
6A4C
100
AcDbEntity
  8
DEFPOINTS
  6
Continuous
 62
     0
100
AcDbPoint
 10
131.0000000000001
 20
2.999982000000044
 30
0.0
  0
POINT
  5
8627
330
6A4C
100
AcDbEntity
  8
DEFPOINTS
  6
Continuous
 62
     0
100
AcDbPoint
 10
218.0000000000001
 20
-65.0
 30
0.0
  0
POINT
  5
8628
330
6A4C
100
AcDbEntity
  8
DEFPOINTS
  6
Continuous
 62
     0
100
AcDbPoint
 10
218.0000000000001
 20
-120.0000000000001
 30
0.0
  0
ENDBLK
  5
6A57
330
6A4C
100
AcDbEntity
  8
0
100
AcDbBlockEnd
  0
BLOCK
  5
6A63
330
6A58
100
AcDbEntity
  8
0
100
AcDbBlockBegin
  2
*D15
 70
     1
 10
0.0
 20
0.0
 30
0.0
  3
*D15
  1

  0
LINE
  5
8615
330
6A58
100
AcDbEntity
  8
30
  6
Continuous
 62
     0
370
    -2
100
AcDbLine
 10
145.0000610000001
 20
-26.0
 30
0.0
 11
145.0000610000001
 21
-110.5000000000001
 31
0.0
  0
LINE
  5
8616
330
6A58
100
AcDbEntity
  8
30
  6
Continuous
 62
     0
370
    -2
100
AcDbLine
 10
150.0000610000002
 20
-43.0
 30
0.0
 11
150.0000610000002
 21
-110.5000000000001
 31
0.0
  0
LINE
  5
8617
330
6A58
100
AcDbEntity
  8
30
  6
Continuous
 62
     0
370
    -2
100
AcDbLine
 10
143.0000610000001
 20
-110.0000000000001
 30
0.0
 11
141.0000610000001
 21
-110.0000000000001
 31
0.0
  0
LINE
  5
8618
330
6A58
100
AcDbEntity
  8
30
  6
Continuous
 62
     0
370
    -2
100
AcDbLine
 10
152.0000610000002
 20
-110.0000000000001
 30
0.0
 11
154.0000610000002
 21
-110.0000000000001
 31
0.0
  0
LINE
  5
8619
330
6A58
100
AcDbEntity
  8
30
  6
Continuous
 62
     0
370
    -2
100
AcDbLine
 10
145.0000610000001
 20
-110.0000000000001
 30
0.0
 11
150.0000610000002
 21
-110.0000000000001
 31
0.0
  0
INSERT
  5
861A
330
6A58
100
AcDbEntity
  8
30
  6
Continuous
 62
     0
370
    -2
100
AcDbBlockReference
  2
_OPEN
 10
145.0000610000001
 20
-110.0000000000001
 30
0.0
 41
2.0
 42
2.0
 43
2.0
  0
INSERT
  5
861B
330
6A58
100
AcDbEntity
  8
30
  6
Continuous
 62
     0
370
    -2
100
AcDbBlockReference
  2
_OPEN
 10
150.0000610000002
 20
-110.0000000000001
 30
0.0
 41
2.0
 42
2.0
 43
2.0
 50
180.0
  0
MTEXT
  5
861C
330
6A58
100
AcDbEntity
  8
30
  6
Continuous
 62
     0
100
AcDbMText
 10
147.5000610000001
 20
-107.0000000000001
 30
0.0
 40
4.0
 41
0.0
 71
     5
 72
     1
  1
\A1;5
 73
     1
 44
1.0
1001
ACAD
1000
MTEXTBEGIN
1070
    73
1070
     1
1070
    44
1040
1.0
1070
    74
1070
     0
1000
MTEXTEND
  0
POINT
  5
861D
330
6A58
100
AcDbEntity
  8
DEFPOINTS
  6
Continuous
 62
     0
100
AcDbPoint
 10
145.0000610000001
 20
-25.0
 30
0.0
  0
POINT
  5
861E
330
6A58
100
AcDbEntity
  8
DEFPOINTS
  6
Continuous
 62
     0
100
AcDbPoint
 10
150.0000610000002
 20
-42.0
 30
0.0
  0
POINT
  5
861F
330
6A58
100
AcDbEntity
  8
DEFPOINTS
  6
Continuous
 62
     0
100
AcDbPoint
 10
150.0000610000002
 20
-110.0000000000001
 30
0.0
  0
ENDBLK
  5
6A64
330
6A58
100
AcDbEntity
  8
0
100
AcDbBlockEnd
  0
BLOCK
  5
6A6F
330
6A65
100
AcDbEntity
  8
0
100
AcDbBlockBegin
  2
*D16
 70
     1
 10
0.0
 20
0.0
 30
0.0
  3
*D16
  1

  0
LINE
  5
6C5C
330
6A65
100
AcDbEntity
  8
30
  6
Continuous
 62
     0
370
    -2
100
AcDbLine
 10
150.0000610000002
 20
-43.0
 30
0.0
 11
150.0000610000002
 21
-120.5000000000001
 31
0.0
  0
LINE
  5
6C5D
330
6A65
100
AcDbEntity
  8
30
  6
Continuous
 62
     0
370
    -2
100
AcDbLine
 10
218.0000000000001
 20
-66.0
 30
0.0
 11
218.0000000000001
 21
-120.5000000000001
 31
0.0
  0
LINE
  5
6C5E
330
6A65
100
AcDbEntity
  8
30
  6
Continuous
 62
     0
370
    -2
100
AcDbLine
 10
152.0000610000002
 20
-120.0000000000001
 30
0.0
 11
216.0000000000001
 21
-120.0000000000001
 31
0.0
  0
INSERT
  5
6C5F
330
6A65
100
AcDbEntity
  8
30
  6
Continuous
 62
     0
370
    -2
100
AcDbBlockReference
  2
_OPEN
 10
150.0000610000002
 20
-120.0000000000001
 30
0.0
 41
2.0
 42
2.0
 43
2.0
 50
180.0
  0
INSERT
  5
6C60
330
6A65
100
AcDbEntity
  8
30
  6
Continuous
 62
     0
370
    -2
100
AcDbBlockReference
  2
_OPEN
 10
218.0000000000001
 20
-120.0000000000001
 30
0.0
 41
2.0
 42
2.0
 43
2.0
  0
MTEXT
  5
6C61
330
6A65
100
AcDbEntity
  8
30
  6
Continuous
 62
     0
100
AcDbMText
 10
184.0000305
 20
-117.0000000000001
 30
0.0
 40
4.0
 41
0.0
 71
     5
 72
     1
  1
\A1;68
 73
     1
 44
1.0
1001
ACAD
1000
MTEXTBEGIN
1070
    73
1070
     1
1070
    44
1040
1.0
1070
    74
1070
     0
1000
MTEXTEND
  0
POINT
  5
6C62
330
6A65
100
AcDbEntity
  8
DEFPOINTS
  6
Continuous
 62
     0
100
AcDbPoint
 10
150.0000610000002
 20
-42.0
 30
0.0
  0
POINT
  5
6C63
330
6A65
100
AcDbEntity
  8
DEFPOINTS
  6
Continuous
 62
     0
100
AcDbPoint
 10
218.0000000000001
 20
-65.0
 30
0.0
  0
POINT
  5
6C64
330
6A65
100
AcDbEntity
  8
DEFPOINTS
  6
Continuous
 62
     0
100
AcDbPoint
 10
218.0000000000001
 20
-120.0000000000001
 30
0.0
  0
ENDBLK
  5
6A70
330
6A65
100
AcDbEntity
  8
0
100
AcDbBlockEnd
  0
BLOCK
  5
6BD7
330
6BCD
100
AcDbEntity
  8
0
100
AcDbBlockBegin
  2
*D17
 70
     1
 10
0.0
 20
0.0
 30
0.0
  3
*D17
  1

  0
LINE
  5
6C92
330
6BCD
100
AcDbEntity
  8
30
  6
Continuous
 62
     0
370
    -2
100
AcDbLine
 10
149.0000610000002
 20
-42.0
 30
0.0
 11
109.5000610000001
 21
-41.99999999999998
 31
0.0
  0
LINE
  5
6C93
330
6BCD
100
AcDbEntity
  8
30
  6
Continuous
 62
     0
370
    -2
100
AcDbLine
 10
149.0000610000002
 20
42.0
 30
0.0
 11
109.5000610000002
 21
42.00000000000001
 31
0.0
  0
LINE
  5
6C94
330
6BCD
100
AcDbEntity
  8
30
  6
Continuous
 62
     0
370
    -2
100
AcDbLine
 10
110.0000610000001
 20
-40.0
 30
0.0
 11
110.0000610000002
 21
40.0
 31
0.0
  0
INSERT
  5
6C95
330
6BCD
100
AcDbEntity
  8
30
  6
Continuous
 62
     0
370
    -2
100
AcDbBlockReference
  2
_OPEN
 10
110.0000610000001
 20
-41.99999999999998
 30
0.0
 41
2.0
 42
2.0
 43
2.0
 50
270.0
  0
INSERT
  5
6C96
330
6BCD
100
AcDbEntity
  8
30
  6
Continuous
 62
     0
370
    -2
100
AcDbBlockReference
  2
_OPEN
 10
110.0000610000002
 20
42.00000000000001
 30
0.0
 41
2.0
 42
2.0
 43
2.0
 50
90.0
  0
MTEXT
  5
6C97
330
6BCD
100
AcDbEntity
  8
30
  6
Continuous
 62
     0
100
AcDbMText
 10
107.0000610000001
 20
0.0000000000000292
 30
0.0
 40
4.0
 41
0.0
 71
     5
 72
     1
  1
\A1;84
 11
0.0000000000000001
 21
1.0
 31
0.0
 73
     1
 44
1.0
1001
ACAD
1000
MTEXTBEGIN
1070
    73
1070
     1
1070
    44
1040
1.0
1070
    74
1070
     0
1000
MTEXTEND
  0
POINT
  5
6C98
330
6BCD
100
AcDbEntity
  8
DEFPOINTS
  6
Continuous
 62
     0
100
AcDbPoint
 10
150.0000610000002
 20
-42.0
 30
0.0
  0
POINT
  5
6C99
330
6BCD
100
AcDbEntity
  8
DEFPOINTS
  6
Continuous
 62
     0
100
AcDbPoint
 10
150.0000610000002
 20
42.0
 30
0.0
  0
POINT
  5
6C9A
330
6BCD
100
AcDbEntity
  8
DEFPOINTS
  6
Continuous
 62
     0
100
AcDbPoint
 10
110.0000610000002
 20
42.00000000000001
 30
0.0
  0
ENDBLK
  5
6BD8
330
6BCD
100
AcDbEntity
  8
0
100
AcDbBlockEnd
  0
BLOCK
  5
6DCA
330
6DC0
100
AcDbEntity
  8
0
100
AcDbBlockBegin
  2
*D18
 70
     1
 10
0.0
 20
0.0
 30
0.0
  3
*D18
  1

  0
LINE
  5
8457
330
6DC0
100
AcDbEntity
  8
30
  6
Continuous
 62
     0
370
    -2
100
AcDbLine
 10
28.0
 20
-194.5
 30
0.0
 11
70.50000000000003
 21
-194.5
 31
0.0
  0
LINE
  5
8458
330
6DC0
100
AcDbEntity
  8
30
  6
Continuous
 62
     0
370
    -2
100
AcDbLine
 10
28.0
 20
-305.5
 30
0.0
 11
70.5
 21
-305.5
 31
0.0
  0
LINE
  5
8459
330
6DC0
100
AcDbEntity
  8
30
  6
Continuous
 62
     0
370
    -2
100
AcDbLine
 10
70.00000000000003
 20
-196.5
 30
0.0
 11
70.0
 21
-303.5
 31
0.0
  0
INSERT
  5
845A
330
6DC0
100
AcDbEntity
  8
30
  6
Continuous
 62
     0
370
    -2
100
AcDbBlockReference
  2
_OPEN
 10
70.00000000000003
 20
-194.5
 30
0.0
 41
2.0
 42
2.0
 43
2.0
 50
90.0
  0
INSERT
  5
845B
330
6DC0
100
AcDbEntity
  8
30
  6
Continuous
 62
     0
370
    -2
100
AcDbBlockReference
  2
_OPEN
 10
70.0
 20
-305.5
 30
0.0
 41
2.0
 42
2.0
 43
2.0
 50
270.0
  0
MTEXT
  5
845C
330
6DC0
100
AcDbEntity
  8
30
  6
Continuous
 62
     0
100
AcDbMText
 10
67.00000000000007
 20
-250.0
 30
0.0
 40
4.0
 41
0.0
 71
     5
 72
     1
  1
\A1;111
 11
0.0000000000000001
 21
1.0
 31
0.0
 73
     1
 44
1.0
1001
ACAD
1000
MTEXTBEGIN
1070
    73
1070
     1
1070
    44
1040
1.0
1070
    74
1070
     0
1000
MTEXTEND
  0
POINT
  5
845D
330
6DC0
100
AcDbEntity
  8
DEFPOINTS
  6
Continuous
 62
     0
100
AcDbPoint
 10
27.0
 20
-194.5
 30
0.0
  0
POINT
  5
845E
330
6DC0
100
AcDbEntity
  8
DEFPOINTS
  6
Continuous
 62
     0
100
AcDbPoint
 10
27.0
 20
-305.5
 30
0.0
  0
POINT
  5
845F
330
6DC0
100
AcDbEntity
  8
DEFPOINTS
  6
Continuous
 62
     0
100
AcDbPoint
 10
70.0
 20
-305.5
 30
0.0
  0
ENDBLK
  5
6DCB
330
6DC0
100
AcDbEntity
  8
0
100
AcDbBlockEnd
  0
BLOCK
  5
705A
330
7050
100
AcDbEntity
  8
0
100
AcDbBlockBegin
  2
*D19
 70
     1
 10
0.0
 20
0.0
 30
0.0
  3
*D19
  1

  0
LINE
  5
818B
330
7050
100
AcDbEntity
  8
30
  6
Continuous
 62
     0
370
    -2
100
AcDbLine
 10
-12.5
 20
281.0
 30
0.0
 11
-12.49999999999999
 21
310.5
 31
0.0
  0
LINE
  5
818C
330
7050
100
AcDbEntity
  8
30
  6
Continuous
 62
     0
370
    -2
100
AcDbLine
 10
12.5
 20
281.0
 30
0.0
 11
12.5
 21
310.5
 31
0.0
  0
LINE
  5
818D
330
7050
100
AcDbEntity
  8
30
  6
Continuous
 62
     0
370
    -2
100
AcDbLine
 10
-10.49999999999999
 20
310.0
 30
0.0
 11
10.5
 21
310.0
 31
0.0
  0
INSERT
  5
818E
330
7050
100
AcDbEntity
  8
30
  6
Continuous
 62
     0
370
    -2
100
AcDbBlockReference
  2
_OPEN
 10
-12.49999999999999
 20
310.0
 30
0.0
 41
2.0
 42
2.0
 43
2.0
 50
180.0
  0
INSERT
  5
818F
330
7050
100
AcDbEntity
  8
30
  6
Continuous
 62
     0
370
    -2
100
AcDbBlockReference
  2
_OPEN
 10
12.5
 20
310.0
 30
0.0
 41
2.0
 42
2.0
 43
2.0
  0
MTEXT
  5
8190
330
7050
100
AcDbEntity
  8
30
  6
Continuous
 62
     0
100
AcDbMText
 10
0.0000000000000055
 20
313.0
 30
0.0
 40
4.0
 41
0.0
 71
     5
 72
     1
  1
\A1;25
 73
     1
 44
1.0
1001
ACAD
1000
MTEXTBEGIN
1070
    73
1070
     1
1070
    44
1040
1.0
1070
    74
1070
     0
1000
MTEXTEND
  0
POINT
  5
8191
330
7050
100
AcDbEntity
  8
DEFPOINTS
  6
Continuous
 62
     0
100
AcDbPoint
 10
-12.5
 20
280.0
 30
0.0
  0
POINT
  5
8192
330
7050
100
AcDbEntity
  8
DEFPOINTS
  6
Continuous
 62
     0
100
AcDbPoint
 10
12.5
 20
280.0
 30
0.0
  0
POINT
  5
8193
330
7050
100
AcDbEntity
  8
DEFPOINTS
  6
Continuous
 62
     0
100
AcDbPoint
 10
12.5
 20
310.0
 30
0.0
  0
ENDBLK
  5
705B
330
7050
100
AcDbEntity
  8
0
100
AcDbBlockEnd
  0
BLOCK
  5
7667
330
7666
100
AcDbEntity
  8
L230_
  6
Continuous
 62
     6
100
AcDbBlockBegin
  2
B2223
 70
     0
 10
0.0
 20
0.0
 30
0.0
  3
B2223
  1

  0
TEXT
  5
7668
330
7666
100
AcDbEntity
  8
L230_
  6
Continuous
 62
     6
100
AcDbText
 10
892.5813599999999
 20
773.0
 30
0.0
 40
8.0
  1
n
 41
1.5
 72
     5
 11
900.5813599999999
 21
773.0
 31
0.0
100
AcDbText
 73
     2
  0
TEXT
  5
7669
330
7666
100
AcDbEntity
  8
L230_
  6
Continuous
 62
     6
100
AcDbText
 10
904.58136
 20
773.0
 30
0.0
 40
8.0
  1
14
 41
1.058333343749993
  7
LEROY
 72
     5
 11
915.8702489999999
 21
773.0
 31
0.0
100
AcDbText
 73
     2
  0
ENDBLK
  5
766A
330
7666
100
AcDbEntity
  8
L230_
  6
Continuous
 62
     6
100
AcDbBlockEnd
  0
BLOCK
  5
7684
330
7683
100
AcDbEntity
  8
L230_
  6
Continuous
 62
     6
100
AcDbBlockBegin
  2
B2991
 70
     0
 10
0.0
 20
0.0
 30
0.0
  3
B2991
  1

  0
TEXT
  5
7685
330
7683
100
AcDbEntity
  8
L230_
  6
Continuous
 62
     6
100
AcDbText
 10
140.566223
 20
748.0
 30
0.0
 40
8.0
  1
t
 41
0.5999999999999979
  7
GOTHICLL
 72
     5
 11
143.766223
 21
748.0
 31
0.0
100
AcDbText
 73
     2
  0
TEXT
  5
7686
330
7683
100
AcDbEntity
  8
L230_
  6
Continuous
 62
     6
100
AcDbText
 10
146.4328919999999
 20
748.0
 30
0.0
 40
8.0
  1
3.2(max.)
 41
1.074166668750001
  7
LEROY
 72
     5
 11
203.721781
 21
748.0
 31
0.0
100
AcDbText
 73
     2
  0
ENDBLK
  5
7687
330
7683
100
AcDbEntity
  8
L230_
  6
Continuous
 62
     6
100
AcDbBlockEnd
  0
BLOCK
  5
76A1
330
76A0
100
AcDbEntity
  8
L230_
  6
Continuous
 62
     6
100
AcDbBlockBegin
  2
B3373
 70
     0
 10
0.0
 20
0.0
 30
0.0
  3
B3373
  1

  0
TEXT
  5
76A2
330
76A0
100
AcDbEntity
  8
L230_
  6
Continuous
 62
     6
100
AcDbText
 10
286.068634
 20
959.0
 30
0.0
 40
8.0
  1
n
 41
1.5
 72
     5
 11
294.068634
 21
959.0
 31
0.0
100
AcDbText
 73
     2
  0
TEXT
  5
76A3
330
76A0
100
AcDbEntity
  8
L230_
  6
Continuous
 62
     6
100
AcDbText
 10
297.401967
 20
959.0
 30
0.0
 40
8.0
  1
12
 41
0.9812500312499974
 72
     5
 11
307.868634
 21
959.0
 31
0.0
100
AcDbText
 73
     2
  0
ENDBLK
  5
76A4
330
76A0
100
AcDbEntity
  8
L230_
  6
Continuous
 62
     6
100
AcDbBlockEnd
  0
BLOCK
  5
76A6
330
76A5
100
AcDbEntity
  8
L230_
  6
Continuous
 62
     6
100
AcDbBlockBegin
  2
B3385
 70
     0
 10
0.0
 20
0.0
 30
0.0
  3
B3385
  1

  0
TEXT
  5
76A7
330
76A5
100
AcDbEntity
  8
L230_
  6
Continuous
 62
     6
100
AcDbText
 10
1056.395142
 20
748.0
 30
0.0
 40
8.0
  1
n
 41
1.5
 72
     5
 11
1064.395142
 21
748.0
 31
0.0
100
AcDbText
 73
     2
  0
TEXT
  5
76A8
330
76A5
100
AcDbEntity
  8
L230_
  6
Continuous
 62
     6
100
AcDbText
 10
1068.395142
 20
748.0
 30
0.0
 40
8.0
  1
15
 41
1.125
 72
     5
 11
1080.395142
 21
748.0
 31
0.0
100
AcDbText
 73
     2
  0
ENDBLK
  5
76A9
330
76A5
100
AcDbEntity
  8
L230_
  6
Continuous
 62
     6
100
AcDbBlockEnd
  0
BLOCK
  5
8017
330
800D
100
AcDbEntity
  8
0
100
AcDbBlockBegin
  2
*D24
 70
     1
 10
0.0
 20
0.0
 30
0.0
  3
*D24
  1

  0
LINE
  5
8032
330
800D
100
AcDbEntity
  8
30
 62
     0
370
    -2
100
AcDbLine
 10
294.8000000000001
 20
55.5
 30
0.0
 11
300.5
 21
55.5
 31
0.0
  0
LINE
  5
8033
330
800D
100
AcDbEntity
  8
30
 62
     0
370
    -2
100
AcDbLine
 10
294.8000000000001
 20
-55.5
 30
0.0
 11
300.5
 21
-55.5
 31
0.0
  0
LINE
  5
8034
330
800D
100
AcDbEntity
  8
30
 62
     0
370
    -2
100
AcDbLine
 10
300.0
 20
53.5
 30
0.0
 11
300.0
 21
-53.5
 31
0.0
  0
INSERT
  5
8035
330
800D
100
AcDbEntity
  8
30
 62
     0
370
    -2
100
AcDbBlockReference
  2
_OPEN
 10
300.0
 20
55.5
 30
0.0
 41
2.0
 42
2.0
 43
2.0
 50
90.0
  0
INSERT
  5
8036
330
800D
100
AcDbEntity
  8
30
 62
     0
370
    -2
100
AcDbBlockReference
  2
_OPEN
 10
300.0
 20
-55.5
 30
0.0
 41
2.0
 42
2.0
 43
2.0
 50
270.0
  0
MTEXT
  5
8037
330
800D
100
AcDbEntity
  8
30
 62
     0
100
AcDbMText
 10
297.0
 20
-1.72549100000003
 30
0.0
 40
4.0
 41
0.0
 71
     5
 72
     1
  1
\A1;111
 11
0.0000000000000001
 21
1.0
 31
0.0
 73
     1
 44
1.0
1001
ACAD
1000
MTEXTBEGIN
1070
    73
1070
     1
1070
    44
1040
1.0
1070
    74
1070
     0
1000
MTEXTEND
  0
POINT
  5
8038
330
800D
100
AcDbEntity
  8
DEFPOINTS
 62
     0
100
AcDbPoint
 10
293.8
 20
55.5
 30
0.0
  0
POINT
  5
8039
330
800D
100
AcDbEntity
  8
DEFPOINTS
 62
     0
100
AcDbPoint
 10
293.8
 20
-55.5
 30
0.0
  0
POINT
  5
803A
330
800D
100
AcDbEntity
  8
DEFPOINTS
 62
     0
100
AcDbPoint
 10
300.0
 20
-55.5
 30
0.0
  0
ENDBLK
  5
8018
330
800D
100
AcDbEntity
  8
0
100
AcDbBlockEnd
  0
BLOCK
  5
806B
330
8061
100
AcDbEntity
  8
0
100
AcDbBlockBegin
  2
*D25
 70
     1
 10
0.0
 20
0.0
 30
0.0
  3
*D25
  1

  0
LINE
  5
807F
330
8061
100
AcDbEntity
  8
30
 62
     0
370
    -2
100
AcDbLine
 10
-12.5
 20
-321.0
 30
0.0
 11
-12.5
 21
-340.5
 31
0.0
  0
LINE
  5
8080
330
8061
100
AcDbEntity
  8
30
 62
     0
370
    -2
100
AcDbLine
 10
12.5
 20
-318.5
 30
0.0
 11
12.5
 21
-340.5
 31
0.0
  0
LINE
  5
8081
330
8061
100
AcDbEntity
  8
30
 62
     0
370
    -2
100
AcDbLine
 10
-10.5
 20
-340.0
 30
0.0
 11
10.5
 21
-340.0
 31
0.0
  0
INSERT
  5
8082
330
8061
100
AcDbEntity
  8
30
 62
     0
370
    -2
100
AcDbBlockReference
  2
_OPEN
 10
-12.5
 20
-340.0
 30
0.0
 41
2.0
 42
2.0
 43
2.0
 50
180.0
  0
INSERT
  5
8083
330
8061
100
AcDbEntity
  8
30
 62
     0
370
    -2
100
AcDbBlockReference
  2
_OPEN
 10
12.5
 20
-340.0
 30
0.0
 41
2.0
 42
2.0
 43
2.0
  0
MTEXT
  5
8084
330
8061
100
AcDbEntity
  8
30
 62
     0
100
AcDbMText
 10
-0.0000000000000016
 20
-337.0
 30
0.0
 40
4.0
 41
0.0
 71
     5
 72
     1
  1
\A1;25
 73
     1
 44
1.0
1001
ACAD
1000
MTEXTBEGIN
1070
    73
1070
     1
1070
    44
1040
1.0
1070
    74
1070
     0
1000
MTEXTEND
  0
POINT
  5
8085
330
8061
100
AcDbEntity
  8
DEFPOINTS
 62
     0
100
AcDbPoint
 10
-12.5
 20
-320.0
 30
0.0
  0
POINT
  5
8086
330
8061
100
AcDbEntity
  8
DEFPOINTS
 62
     0
100
AcDbPoint
 10
12.5
 20
-317.5
 30
0.0
  0
POINT
  5
8087
330
8061
100
AcDbEntity
  8
DEFPOINTS
 62
     0
100
AcDbPoint
 10
12.5
 20
-340.0
 30
0.0
  0
ENDBLK
  5
806C
330
8061
100
AcDbEntity
  8
0
100
AcDbBlockEnd
  0
BLOCK
  5
80B6
330
80AC
100
AcDbEntity
  8
0
100
AcDbBlockBegin
  2
*D26
 70
     1
 10
0.0
 20
0.0
 30
0.0
  3
*D26
  1

  0
LINE
  5
80C1
330
80AC
100
AcDbEntity
  8
30
 62
     0
370
    -2
100
AcDbLine
 10
12.5
 20
-321.0
 30
0.0
 11
12.5
 21
-340.5
 31
0.0
  0
LINE
  5
80C2
330
80AC
100
AcDbEntity
  8
30
 62
     0
370
    -2
100
AcDbLine
 10
35.0
 20
-318.5
 30
0.0
 11
35.0
 21
-340.5
 31
0.0
  0
LINE
  5
80C3
330
80AC
100
AcDbEntity
  8
30
 62
     0
370
    -2
100
AcDbLine
 10
14.5
 20
-340.0
 30
0.0
 11
33.0
 21
-340.0
 31
0.0
  0
INSERT
  5
80C4
330
80AC
100
AcDbEntity
  8
30
 62
     0
370
    -2
100
AcDbBlockReference
  2
_OPEN
 10
12.5
 20
-340.0
 30
0.0
 41
2.0
 42
2.0
 43
2.0
 50
180.0
  0
INSERT
  5
80C5
330
80AC
100
AcDbEntity
  8
30
 62
     0
370
    -2
100
AcDbBlockReference
  2
_OPEN
 10
35.0
 20
-340.0
 30
0.0
 41
2.0
 42
2.0
 43
2.0
  0
MTEXT
  5
80C6
330
80AC
100
AcDbEntity
  8
30
 62
     0
100
AcDbMText
 10
23.75
 20
-337.0
 30
0.0
 40
4.0
 41
0.0
 71
     5
 72
     1
  1
\A1;22.5
 73
     1
 44
1.0
1001
ACAD
1000
MTEXTBEGIN
1070
    73
1070
     1
1070
    44
1040
1.0
1070
    74
1070
     0
1000
MTEXTEND
  0
POINT
  5
80C7
330
80AC
100
AcDbEntity
  8
DEFPOINTS
 62
     0
100
AcDbPoint
 10
12.5
 20
-320.0
 30
0.0
  0
POINT
  5
80C8
330
80AC
100
AcDbEntity
  8
DEFPOINTS
 62
     0
100
AcDbPoint
 10
35.0
 20
-317.5
 30
0.0
  0
POINT
  5
80C9
330
80AC
100
AcDbEntity
  8
DEFPOINTS
 62
     0
100
AcDbPoint
 10
35.0
 20
-340.0
 30
0.0
  0
ENDBLK
  5
80B7
330
80AC
100
AcDbEntity
  8
0
100
AcDbBlockEnd
  0
BLOCK
  5
870D
330
870C
100
AcDbEntity
  8
0
100
AcDbBlockBegin
  2
*D27
 70
     1
 10
0.0
 20
0.0
 30
0.0
  3
*D27
  1

  0
LINE
  5
870E
330
870C
100
AcDbEntity
  8
30
  6
Continuous
 62
     0
370
    -2
100
AcDbLine
 10
-16.5
 20
283.8
 30
0.0
 11
-100.5
 21
283.8
 31
0.0
  0
LINE
  5
870F
330
870C
100
AcDbEntity
  8
30
  6
Continuous
 62
     0
370
    -2
100
AcDbLine
 10
-68.00202340076157
 20
185.0
 30
0.0
 11
-100.5
 21
185.0
 31
0.0
  0
LINE
  5
8710
330
870C
100
AcDbEntity
  8
30
  6
Continuous
 62
     0
370
    -2
100
AcDbLine
 10
-100.0
 20
281.8
 30
0.0
 11
-100.0
 21
187.0
 31
0.0
  0
INSERT
  5
8711
330
870C
100
AcDbEntity
  8
30
  6
Continuous
 62
     0
370
    -2
100
AcDbBlockReference
  2
_OPEN
 10
-100.0
 20
283.8
 30
0.0
 41
2.0
 42
2.0
 43
2.0
 50
90.0
  0
INSERT
  5
8712
330
870C
100
AcDbEntity
  8
30
  6
Continuous
 62
     0
370
    -2
100
AcDbBlockReference
  2
_OPEN
 10
-100.0
 20
185.0
 30
0.0
 41
2.0
 42
2.0
 43
2.0
 50
270.0
  0
MTEXT
  5
8713
330
870C
100
AcDbEntity
  8
30
  6
Continuous
 62
     0
100
AcDbMText
 10
-103.0
 20
234.4
 30
0.0
 40
4.0
 41
0.0
 71
     5
 72
     1
  1
\A1;98.8
 11
0.0000000000000001
 21
1.0
 31
0.0
 73
     1
 44
1.0
1001
ACAD
1000
MTEXTBEGIN
1070
    73
1070
     1
1070
    44
1040
1.0
1070
    74
1070
     0
1000
MTEXTEND
  0
POINT
  5
8714
330
870C
100
AcDbEntity
  8
DEFPOINTS
  6
Continuous
 62
     0
100
AcDbPoint
 10
-15.5
 20
283.8
 30
0.0
  0
POINT
  5
8715
330
870C
100
AcDbEntity
  8
DEFPOINTS
  6
Continuous
 62
     0
100
AcDbPoint
 10
-67.00202340076157
 20
185.0
 30
0.0
  0
POINT
  5
8716
330
870C
100
AcDbEntity
  8
DEFPOINTS
  6
Continuous
 62
     0
100
AcDbPoint
 10
-100.0
 20
185.0
 30
0.0
  0
ENDBLK
  5
8717
330
870C
100
AcDbEntity
  8
0
100
AcDbBlockEnd
  0
BLOCK
  5
8719
330
8718
100
AcDbEntity
  8
0
100
AcDbBlockBegin
  2
*D28
 70
     1
 10
0.0
 20
0.0
 30
0.0
  3
*D28
  1

  0
LINE
  5
871A
330
8718
100
AcDbEntity
  8
30
  6
Continuous
 62
     0
370
    -2
100
AcDbLine
 10
-28.46948199999997
 20
268.8
 30
0.0
 11
-80.49999999999998
 21
268.8
 31
0.0
  0
LINE
  5
871B
330
8718
100
AcDbEntity
  8
30
  6
Continuous
 62
     0
370
    -2
100
AcDbLine
 10
-68.00202340076157
 20
185.0
 30
0.0
 11
-80.5
 21
185.0
 31
0.0
  0
LINE
  5
871C
330
8718
100
AcDbEntity
  8
30
  6
Continuous
 62
     0
370
    -2
100
AcDbLine
 10
-79.99999999999999
 20
266.8
 30
0.0
 11
-80.0
 21
187.0
 31
0.0
  0
INSERT
  5
871D
330
8718
100
AcDbEntity
  8
30
  6
Continuous
 62
     0
370
    -2
100
AcDbBlockReference
  2
_OPEN
 10
-79.99999999999999
 20
268.8
 30
0.0
 41
2.0
 42
2.0
 43
2.0
 50
90.0
  0
INSERT
  5
871E
330
8718
100
AcDbEntity
  8
30
  6
Continuous
 62
     0
370
    -2
100
AcDbBlockReference
  2
_OPEN
 10
-80.0
 20
185.0
 30
0.0
 41
2.0
 42
2.0
 43
2.0
 50
270.0
  0
MTEXT
  5
871F
330
8718
100
AcDbEntity
  8
30
  6
Continuous
 62
     0
100
AcDbMText
 10
-83.00000000000002
 20
226.9
 30
0.0
 40
4.0
 41
0.0
 71
     5
 72
     1
  1
\A1;83.8
 11
0.0000000000000001
 21
1.0
 31
0.0
 73
     1
 44
1.0
1001
ACAD
1000
MTEXTBEGIN
1070
    73
1070
     1
1070
    44
1040
1.0
1070
    74
1070
     0
1000
MTEXTEND
  0
POINT
  5
8720
330
8718
100
AcDbEntity
  8
DEFPOINTS
  6
Continuous
 62
     0
100
AcDbPoint
 10
-27.46948199999997
 20
268.8
 30
0.0
  0
POINT
  5
8721
330
8718
100
AcDbEntity
  8
DEFPOINTS
  6
Continuous
 62
     0
100
AcDbPoint
 10
-67.00202340076157
 20
185.0
 30
0.0
  0
POINT
  5
8722
330
8718
100
AcDbEntity
  8
DEFPOINTS
  6
Continuous
 62
     0
100
AcDbPoint
 10
-80.0
 20
185.0
 30
0.0
  0
ENDBLK
  5
8723
330
8718
100
AcDbEntity
  8
0
100
AcDbBlockEnd
  0
BLOCK
  5
872F
330
872E
100
AcDbEntity
  8
0
100
AcDbBlockBegin
  2
*D29
 70
     1
 10
0.0
 20
0.0
 30
0.0
  3
*D29
  1

  0
LINE
  5
876A
330
872E
100
AcDbEntity
  8
30
  6
Continuous
 62
     0
370
    -2
100
AcDbLine
 10
-16.5
 20
280.0
 30
0.0
 11
-100.5
 21
280.0
 31
0.0
  0
LINE
  5
876B
330
872E
100
AcDbEntity
  8
30
  6
Continuous
 62
     0
370
    -2
100
AcDbLine
 10
-68.00202340076157
 20
238.0
 30
0.0
 11
-100.5
 21
238.0
 31
0.0
  0
LINE
  5
876C
330
872E
100
AcDbEntity
  8
30
  6
Continuous
 62
     0
370
    -2
100
AcDbLine
 10
-100.0
 20
278.0
 30
0.0
 11
-100.0
 21
240.0
 31
0.0
  0
INSERT
  5
876D
330
872E
100
AcDbEntity
  8
30
  6
Continuous
 62
     0
370
    -2
100
AcDbBlockReference
  2
_OPEN
 10
-100.0
 20
280.0
 30
0.0
 41
2.0
 42
2.0
 43
2.0
 50
90.0
  0
INSERT
  5
876E
330
872E
100
AcDbEntity
  8
30
  6
Continuous
 62
     0
370
    -2
100
AcDbBlockReference
  2
_OPEN
 10
-100.0
 20
238.0
 30
0.0
 41
2.0
 42
2.0
 43
2.0
 50
270.0
  0
MTEXT
  5
876F
330
872E
100
AcDbEntity
  8
30
  6
Continuous
 62
     0
100
AcDbMText
 10
-103.0
 20
259.0
 30
0.0
 40
4.0
 41
0.0
 71
     5
 72
     1
  1
\A1;42
 11
0.0000000000000001
 21
1.0
 31
0.0
 73
     1
 44
1.0
1001
ACAD
1000
MTEXTBEGIN
1070
    73
1070
     1
1070
    44
1040
1.0
1070
    74
1070
     0
1000
MTEXTEND
  0
POINT
  5
8770
330
872E
100
AcDbEntity
  8
DEFPOINTS
  6
Continuous
 62
     0
100
AcDbPoint
 10
-15.5
 20
280.0
 30
0.0
  0
POINT
  5
8771
330
872E
100
AcDbEntity
  8
DEFPOINTS
  6
Continuous
 62
     0
100
AcDbPoint
 10
-67.00202340076157
 20
238.0
 30
0.0
  0
POINT
  5
8772
330
872E
100
AcDbEntity
  8
DEFPOINTS
  6
Continuous
 62
     0
100
AcDbPoint
 10
-100.0
 20
238.0
 30
0.0
  0
ENDBLK
  5
8730
330
872E
100
AcDbEntity
  8
0
100
AcDbBlockEnd
  0
BLOCK
  5
873B
330
873A
100
AcDbEntity
  8
0
100
AcDbBlockBegin
  2
*D30
 70
     1
 10
0.0
 20
0.0
 30
0.0
  3
*D30
  1

  0
LINE
  5
8761
330
873A
100
AcDbEntity
  8
30
  6
Continuous
 62
     0
370
    -2
100
AcDbLine
 10
-19.25
 20
265.0
 30
0.0
 11
-80.5
 21
265.0
 31
0.0
  0
LINE
  5
8762
330
873A
100
AcDbEntity
  8
30
  6
Continuous
 62
     0
370
    -2
100
AcDbLine
 10
-68.00202340076157
 20
238.0
 30
0.0
 11
-80.5
 21
238.0
 31
0.0
  0
LINE
  5
8763
330
873A
100
AcDbEntity
  8
30
  6
Continuous
 62
     0
370
    -2
100
AcDbLine
 10
-80.0
 20
263.0
 30
0.0
 11
-80.0
 21
240.0
 31
0.0
  0
INSERT
  5
8764
330
873A
100
AcDbEntity
  8
30
  6
Continuous
 62
     0
370
    -2
100
AcDbBlockReference
  2
_OPEN
 10
-80.0
 20
265.0
 30
0.0
 41
2.0
 42
2.0
 43
2.0
 50
90.0
  0
INSERT
  5
8765
330
873A
100
AcDbEntity
  8
30
  6
Continuous
 62
     0
370
    -2
100
AcDbBlockReference
  2
_OPEN
 10
-80.0
 20
238.0
 30
0.0
 41
2.0
 42
2.0
 43
2.0
 50
270.0
  0
MTEXT
  5
8766
330
873A
100
AcDbEntity
  8
30
  6
Continuous
 62
     0
100
AcDbMText
 10
-83.00000000000004
 20
251.5
 30
0.0
 40
4.0
 41
0.0
 71
     5
 72
     1
  1
\A1;27
 11
0.0000000000000001
 21
1.0
 31
0.0
 73
     1
 44
1.0
1001
ACAD
1000
MTEXTBEGIN
1070
    73
1070
     1
1070
    44
1040
1.0
1070
    74
1070
     0
1000
MTEXTEND
  0
POINT
  5
8767
330
873A
100
AcDbEntity
  8
DEFPOINTS
  6
Continuous
 62
     0
100
AcDbPoint
 10
-18.25
 20
265.0
 30
0.0
  0
POINT
  5
8768
330
873A
100
AcDbEntity
  8
DEFPOINTS
  6
Continuous
 62
     0
100
AcDbPoint
 10
-67.00202340076157
 20
238.0
 30
0.0
  0
POINT
  5
8769
330
873A
100
AcDbEntity
  8
DEFPOINTS
  6
Continuous
 62
     0
100
AcDbPoint
 10
-80.0
 20
238.0
 30
0.0
  0
ENDBLK
  5
873C
330
873A
100
AcDbEntity
  8
0
100
AcDbBlockEnd
  0
ENDSEC
  0
SECTION
  2
ENTITIES
  0
MTEXT
  5
BF3
330
1E
100
AcDbEntity
  8
24
  6
Continuous
100
AcDbMText
 10
140.9820964648285
 20
176.3476821548369
 30
0.0
 40
3.0
 41
0.0
 71
     1
 72
     1
  1
\A1;
 73
     1
 44
1.0
1001
ACAD
1000
MTEXTBEGIN
1070
    73
1070
     1
1070
    44
1040
1.0
1070
    74
1070
     0
1000
MTEXTEND
  0
MTEXT
  5
5C78
330
1E
100
AcDbEntity
  8
30
  6
Continuous
100
AcDbMText
 10
162.3297648581359
 20
88.99793930010117
 30
0.0
 40
4.0
 41
0.0
 71
     9
 72
     1
  1

 73
     1
 44
1.0
1001
ACAD
1000
MTEXTBEGIN
1070
    73
1070
     1
1070
    44
1040
1.0
1070
    74
1070
     0
1000
MTEXTEND
  0
MTEXT
  5
6200
330
1E
100
AcDbEntity
  8
30
  6
Continuous
100
AcDbMText
 10
160.6290066227675
 20
91.2377397662035
 30
0.0
 40
4.0
 41
0.0
 71
     9
 72
     1
  1

 73
     1
 44
1.0
1001
ACAD
1000
MTEXTBEGIN
1070
    73
1070
     1
1070
    44
1040
1.0
1070
    74
1070
     0
1000
MTEXTEND
  0
MTEXT
  5
6269
330
1E
100
AcDbEntity
  8
30
  6
Continuous
100
AcDbMText
 10
134.1806706399479
 20
218.0981872932211
 30
0.0
 40
5.0
 41
98.031
 71
     1
 72
     5
  1
E50-SF 2P RC
  7
STANDARD1
 73
     1
 44
1.0
1001
ACAD
1000
MTEXTBEGIN
1070
    73
1070
     1
1070
    44
1040
1.0
1070
    74
1070
     0
1000
MTEXTEND
  0
LWPOLYLINE
  5
64A3
330
1E
100
AcDbEntity
  8
10
  6
Continuous
100
AcDbPolyline
 90
        2
 70
     0
 43
0.001
 10
150.0000610000002
 20
25.0
 10
145.0000610000001
 20
25.0
  0
LWPOLYLINE
  5
64A9
330
1E
100
AcDbEntity
  8
18
  6
DIVIDE
100
AcDbPolyline
 90
        2
 70
     0
 43
0.001
 10
-25.0
 20
-315.0
 10
-25.0
 20
-185.0
  0
LWPOLYLINE
  5
64AA
330
1E
100
AcDbEntity
  8
18
  6
DIVIDE
100
AcDbPolyline
 90
        2
 70
     0
 43
0.001
 10
25.0
 20
-315.0
 10
25.0
 20
-185.0
  0
LWPOLYLINE
  5
64AB
330
1E
100
AcDbEntity
  8
18
  6
DIVIDE
100
AcDbPolyline
 90
        2
 70
     0
 43
0.001
 10
-25.00012200000015
 20
-185.0
 10
25.0
 20
-185.0
  0
LWPOLYLINE
  5
64AC
330
1E
100
AcDbEntity
  8
18
  6
DIVIDE
100
AcDbPolyline
 90
        2
 70
     0
 43
0.001
 10
-25.00012200000015
 20
-315.0
 10
25.0
 20
-315.0
  0
LWPOLYLINE
  5
64B1
330
1E
100
AcDbEntity
  8
10
  6
CONTINOUS
100
AcDbPolyline
 90
        2
 70
     0
 43
0.001
 10
-25.0
 20
42.0
 10
25.0
 20
42.0
  0
LWPOLYLINE
  5
64B4
330
1E
100
AcDbEntity
  8
10
  6
CONTINOUS
100
AcDbPolyline
 90
        2
 70
     0
 43
0.001
 10
-25.0
 20
-65.0
 10
25.0
 20
-65.0
  0
LWPOLYLINE
  5
64C8
330
1E
100
AcDbEntity
  8
10
  6
CONTINOUS
100
AcDbPolyline
 90
        2
 70
     0
 43
0.001
 10
25.0
 20
-42.0
 10
-25.0
 20
-42.0
  0
LWPOLYLINE
  5
64CA
330
1E
100
AcDbEntity
  8
10
  6
Continuous
100
AcDbPolyline
 90
        2
 70
     0
 43
0.001
 10
218.0000000000001
 20
65.0
 10
157.0000610000002
 20
65.0
  0
LWPOLYLINE
  5
64CB
330
1E
100
AcDbEntity
  8
10
  6
Continuous
100
AcDbPolyline
 90
        2
 70
     0
 43
0.001
 10
157.0000610000002
 20
65.0
 10
157.0000610000002
 20
42.0
  0
LWPOLYLINE
  5
64CC
330
1E
100
AcDbEntity
  8
10
  6
CONTINOUS
100
AcDbPolyline
 90
        2
 70
     0
 43
0.001
 10
-25.0
 20
65.0
 10
25.0
 20
65.0
  0
LWPOLYLINE
  5
650A
330
1E
100
AcDbEntity
  8
10
  6
CONTINOUS
100
AcDbPolyline
 90
        2
 70
     0
 43
0.001
 10
-25.0
 20
-65.0
 10
-25.0
 20
65.0
  0
LWPOLYLINE
  5
650B
330
1E
100
AcDbEntity
  8
10
  6
CONTINOUS
100
AcDbPolyline
 90
        2
 70
     0
 43
0.001
 10
25.0
 20
-65.0
 10
25.0
 20
65.0
  0
LWPOLYLINE
  5
6514
330
1E
100
AcDbEntity
  8
10
  6
Continuous
100
AcDbPolyline
 90
        2
 70
     0
 43
0.001
 10
150.0000610000002
 20
42.0
 10
157.0000610000002
 20
42.0
  0
LWPOLYLINE
  5
651D
330
1E
100
AcDbEntity
  8
10
  6
Continuous
100
AcDbPolyline
 90
        2
 70
     0
 43
0.001
 10
157.0000610000002
 20
-42.0
 10
157.0000610000002
 20
-65.0
  0
LWPOLYLINE
  5
651E
330
1E
100
AcDbEntity
  8
10
  6
Continuous
100
AcDbPolyline
 90
        2
 70
     0
 43
0.001
 10
150.0000610000002
 20
42.0
 10
150.0000610000002
 20
25.0
  0
LWPOLYLINE
  5
652F
330
1E
100
AcDbEntity
  8
10
  6
Continuous
100
AcDbPolyline
 90
        2
 70
     0
 43
0.001
 10
134.245422
 20
21.71545399999991
 10
132.49115
 20
15.9776609999999
  0
LWPOLYLINE
  5
6530
330
1E
100
AcDbEntity
  8
10
  6
Continuous
100
AcDbPolyline
 90
        2
 70
     0
 43
0.001
 10
134.245422
 20
21.71545399999991
 10
145.0000610000001
 20
18.80310099999997
  0
LWPOLYLINE
  5
6531
330
1E
100
AcDbEntity
  8
10
  6
Continuous
100
AcDbPolyline
 90
        2
 70
     0
 43
0.001
 10
132.49115
 20
15.9776609999999
 10
145.0000610000001
 20
11.707764
  0
LWPOLYLINE
  5
6532
330
1E
100
AcDbEntity
  8
18
100
AcDbPolyline
 90
        2
 70
     0
 43
0.001
 10
218.0000000000001
 20
65.0
 10
218.0000000000001
 20
-65.0
  0
LWPOLYLINE
  5
6533
330
1E
100
AcDbEntity
  8
L210_
  6
Continuous
 62
     4
100
AcDbPolyline
 90
        2
 70
     0
 43
0.001
 10
133.365388
 20
18.83707899999989
 42
0.074267
 10
131.0000000000001
 20
2.999982000000044
 42
0.074267
  0
LWPOLYLINE
  5
6540
330
1E
100
AcDbEntity
  8
24
  6
CONTINOUS
100
AcDbPolyline
 90
        2
 70
     1
 43
0.001
 10
17.0
 20
55.50000099999988
 42
1.0
 10
8.0
 20
55.4999990000001
 42
1.0
  0
LWPOLYLINE
  5
6541
330
1E
100
AcDbEntity
  8
24
  6
CONTINOUS
100
AcDbPolyline
 90
        2
 70
     1
 43
0.001
 10
-8.0
 20
55.50000099999988
 42
1.0
 10
-17.0
 20
55.4999990000001
 42
1.0
  0
LWPOLYLINE
  5
6546
330
1E
100
AcDbEntity
  8
24
  6
CONTINOUS
100
AcDbPolyline
 90
        2
 70
     1
 43
0.001
 10
8.0
 20
-55.50000099999988
 42
1.0
 10
17.0
 20
-55.4999990000001
 42
1.0
210
0.0
220
0.0
230
-1.0
  0
LWPOLYLINE
  5
654B
330
1E
100
AcDbEntity
  8
12
  6
DASHED
100
AcDbPolyline
 90
        2
 70
     1
 43
0.001
 10
4.0
 20
55.50000099999988
 42
1.0
 10
-4.0
 20
55.4999990000001
 42
1.0
  0
LWPOLYLINE
  5
654C
330
1E
100
AcDbEntity
  8
12
  6
DASHED
100
AcDbPolyline
 90
        2
 70
     1
 43
0.001
 10
4.0
 20
-55.4999990000001
 42
1.0
 10
-4.0
 20
-55.50000099999988
 42
1.0
  0
LWPOLYLINE
  5
654D
330
1E
100
AcDbEntity
  8
10
  6
CONTINOUS
100
AcDbPolyline
 90
        2
 70
     0
 43
0.001
 10
-6.25
 20
19.5
 10
-18.75
 20
19.5
  0
LWPOLYLINE
  5
654E
330
1E
100
AcDbEntity
  8
10
  6
CONTINOUS
100
AcDbPolyline
 90
        2
 70
     0
 43
0.001
 10
-6.25
 20
19.5
 10
-6.25
 20
-16.89990199999988
  0
LWPOLYLINE
  5
654F
330
1E
100
AcDbEntity
  8
10
  6
CONTINOUS
100
AcDbPolyline
 90
        2
 70
     0
 43
0.001
 10
-1.5
 20
25.0
 10
-1.5
 20
-25.0
  0
LWPOLYLINE
  5
6550
330
1E
100
AcDbEntity
  8
10
  6
CONTINOUS
100
AcDbPolyline
 90
        2
 70
     0
 43
0.001
 10
-1.5
 20
-25.0
 10
-23.5
 20
-25.0
  0
LWPOLYLINE
  5
6551
330
1E
100
AcDbEntity
  8
10
  6
CONTINOUS
100
AcDbPolyline
 90
        2
 70
     0
 43
0.001
 10
-1.5
 20
25.0
 10
-23.5
 20
25.0
  0
LWPOLYLINE
  5
6552
330
1E
100
AcDbEntity
  8
10
  6
CONTINOUS
100
AcDbPolyline
 90
        2
 70
     0
 43
0.001
 10
-23.5
 20
25.0
 10
-23.5
 20
-25.0
  0
LWPOLYLINE
  5
6553
330
1E
100
AcDbEntity
  8
10
  6
CONTINOUS
100
AcDbPolyline
 90
        2
 70
     0
 43
0.001
 10
-6.25
 20
-16.89990199999988
 10
-18.75
 20
-16.89990199999988
  0
LWPOLYLINE
  5
655F
330
1E
100
AcDbEntity
  8
10
  6
Continuous
100
AcDbPolyline
 90
        2
 70
     0
 43
0.001
 10
150.0000610000002
 20
25.0
 10
150.0000610000002
 20
-25.0
  0
LWPOLYLINE
  5
6560
330
1E
100
AcDbEntity
  8
10
  6
Continuous
100
AcDbPolyline
 90
        2
 70
     0
 43
0.001
 10
150.0000610000002
 20
-25.0
 10
145.0000610000001
 20
-25.0
  0
LWPOLYLINE
  5
6561
330
1E
100
AcDbEntity
  8
10
  6
Continuous
100
AcDbPolyline
 90
        2
 70
     0
 43
0.001
 10
145.0000610000001
 20
25.0
 10
145.0000610000001
 20
-25.0
  0
LWPOLYLINE
  5
6562
330
1E
100
AcDbEntity
  8
10
  6
Continuous
100
AcDbPolyline
 90
        2
 70
     0
 43
0.001
 10
150.0000610000002
 20
-25.0
 10
150.0000610000002
 20
-42.0
  0
LWPOLYLINE
  5
6563
330
1E
100
AcDbEntity
  8
10
  6
Continuous
100
AcDbPolyline
 90
        2
 70
     0
 43
0.001
 10
218.0000000000001
 20
-65.0
 10
157.0000610000002
 20
-65.0
  0
LWPOLYLINE
  5
6564
330
1E
100
AcDbEntity
  8
10
  6
Continuous
100
AcDbPolyline
 90
        2
 70
     0
 43
0.001
 10
150.0000610000002
 20
-42.0
 10
157.0000610000002
 20
-42.0
  0
LWPOLYLINE
  5
6565
330
1E
100
AcDbEntity
  8
10
  6
CONTINOUS
100
AcDbPolyline
 90
        2
 70
     0
 43
0.001
 10
-18.75
 20
19.5
 10
-18.75
 20
-16.89990199999988
  0
LWPOLYLINE
  5
6711
330
1E
100
AcDbEntity
  8
10
  6
CONTINOUS
100
AcDbPolyline
 90
        4
 70
     1
 43
0.001
 10
-23.5
 20
25.0
 10
-1.5
 20
25.0
 10
-1.5
 20
-25.0
 10
-23.5
 20
-25.0
  0
LINE
  5
6748
330
1E
100
AcDbEntity
  8
16
100
AcDbLine
 10
0.0
 20
-90.0
 30
0.0
 11
0.0
 21
90.0
 31
0.0
  0
DIMENSION
  5
6749
330
1E
100
AcDbEntity
  8
30
  6
Continuous
100
AcDbDimension
  2
*D8
 10
25.0
 20
-110.0
 30
0.0
 11
-0.0000000000000034
 21
-107.0
 31
0.0
 70
    32
 71
     5
 42
50.0
  3
STANDARD
100
AcDbAlignedDimension
 13
-25.0
 23
-65.0
 33
0.0
 14
25.0
 24
-65.0
 34
0.0
 50
180.0
100
AcDbRotatedDimension
1001
ACAD
1000
DSTYLE
1002
{
1070
    79
1070
     3
1002
}
  0
DIMENSION
  5
674A
330
1E
100
AcDbEntity
  8
30
  6
Continuous
100
AcDbDimension
  2
*D9
 10
12.5
 20
-90.0
 30
0.0
 11
-0.0000000000000016
 21
-87.0
 31
0.0
 70
    32
 71
     5
 42
25.0
  3
STANDARD
100
AcDbAlignedDimension
 13
-12.5
 23
-62.50000000000007
 33
0.0
 14
12.5
 24
-62.5
 34
0.0
 50
180.0
100
AcDbRotatedDimension
1001
ACAD
1000
DSTYLE
1002
{
1070
    79
1070
     3
1002
}
  0
LINE
  5
67A5
330
1E
100
AcDbEntity
  8
24
  6
CONTINOUS
100
AcDbLine
 10
-19.5
 20
-55.5
 30
0.0
 11
-5.5
 21
-55.5
 31
0.0
  0
LINE
  5
67A6
330
1E
100
AcDbEntity
  8
24
  6
CONTINOUS
100
AcDbLine
 10
-12.5
 20
-48.5
 30
0.0
 11
-12.5
 21
-62.50000000000007
 31
0.0
  0
LINE
  5
67A7
330
1E
100
AcDbEntity
  8
24
  6
CONTINOUS
100
AcDbLine
 10
5.5
 20
55.5
 30
0.0
 11
19.5
 21
55.5
 31
0.0
  0
LINE
  5
67A8
330
1E
100
AcDbEntity
  8
24
  6
CONTINOUS
100
AcDbLine
 10
12.5
 20
62.5
 30
0.0
 11
12.5
 21
48.49999999999994
 31
0.0
  0
LINE
  5
67A9
330
1E
100
AcDbEntity
  8
24
  6
CONTINOUS
100
AcDbLine
 10
-19.5
 20
55.5
 30
0.0
 11
-5.5
 21
55.5
 31
0.0
  0
LINE
  5
67AA
330
1E
100
AcDbEntity
  8
24
  6
CONTINOUS
100
AcDbLine
 10
-12.5
 20
62.5
 30
0.0
 11
-12.5
 21
48.49999999999994
 31
0.0
  0
LINE
  5
67AB
330
1E
100
AcDbEntity
  8
12
  6
DASHED
100
AcDbLine
 10
-5.5
 20
55.5
 30
0.0
 11
5.5
 21
55.5
 31
0.0
  0
LINE
  5
67AC
330
1E
100
AcDbEntity
  8
12
  6
DASHED
100
AcDbLine
 10
-5.5
 20
-55.5
 30
0.0
 11
5.5
 21
-55.5
 31
0.0
  0
LINE
  5
67D1
330
1E
100
AcDbEntity
  8
16
100
AcDbLine
 10
80.0
 20
0.0
 30
0.0
 11
-80.0
 21
0.0
 31
0.0
  0
DIMENSION
  5
67D3
330
1E
100
AcDbEntity
  8
30
  6
Continuous
100
AcDbDimension
  2
*D10
 10
-50.0
 20
-64.99999999999999
 30
0.0
 11
-52.99999999999998
 21
0.0000000000000034
 31
0.0
 70
    32
 71
     5
 42
130.0
  3
STANDARD
100
AcDbAlignedDimension
 13
-25.0
 23
65.0
 33
0.0
 14
-25.0
 24
-65.0
 34
0.0
 50
90.0
100
AcDbRotatedDimension
1001
ACAD
1000
DSTYLE
1002
{
1070
   287
1070
     4
1070
   287
1070
     4
1070
   279
1070
     1
1070
    79
1070
     3
1002
}
  0
DIMENSION
  5
67FD
330
1E
100
AcDbEntity
  8
30
  6
Continuous
100
AcDbDimension
  2
*D11
 10
-1.499999999999999
 20
30.0
 30
0.0
 11
-12.5
 21
33.0
 31
0.0
 70
    32
 71
     5
 42
22.0
  3
STANDARD
100
AcDbAlignedDimension
 13
-23.5
 23
24.99999999999995
 33
0.0
 14
-1.5
 24
25.0
 34
0.0
100
AcDbRotatedDimension
1001
ACAD
1000
DSTYLE
1002
{
1070
    79
1070
     3
1002
}
  0
LINE
  5
691F
330
1E
100
AcDbEntity
  8
16
100
AcDbLine
 10
250.0000000000001
 20
0.0
 30
0.0
 11
120.0
 21
0.0000000000001137
 31
0.0
  0
DIMENSION
  5
6A21
330
1E
100
AcDbEntity
  8
30
  6
Continuous
100
AcDbDimension
  2
*D14
 10
218.0000000000001
 20
-120.0000000000001
 30
0.0
 11
174.5000000000001
 21
-117.0000000000001
 31
0.0
 70
    32
 71
     5
 42
87.0
  3
STANDARD
100
AcDbAlignedDimension
 13
131.0000000000001
 23
2.999982000000044
 33
0.0
 14
218.0000000000001
 24
-65.0
 34
0.0
 50
180.0
100
AcDbRotatedDimension
1001
ACAD
1000
DSTYLE
1002
{
1070
    79
1070
     3
1002
}
  0
DIMENSION
  5
6A22
330
1E
100
AcDbEntity
  8
30
  6
Continuous
100
AcDbDimension
  2
*D15
 10
150.0000610000002
 20
-110.0000000000001
 30
0.0
 11
147.5000610000001
 21
-107.0000000000001
 31
0.0
 70
    32
 71
     5
 42
5.000000000000085
  3
STANDARD
100
AcDbAlignedDimension
 13
145.0000610000001
 23
-25.0
 33
0.0
 14
150.0000610000002
 24
-42.0
 34
0.0
 50
180.0
100
AcDbRotatedDimension
1001
ACAD
1000
DSTYLE
1002
{
1070
   172
1070
     1
1070
    79
1070
     3
1002
}
  0
DIMENSION
  5
6A24
330
1E
100
AcDbEntity
  8
30
  6
Continuous
100
AcDbDimension
  2
*D12
 10
218.0000000000001
 20
-110.0000000000001
 30
0.0
 11
184.0000305
 21
-107.0000000000001
 31
0.0
 70
    32
 71
     5
 42
67.99993899999993
  3
STANDARD
100
AcDbAlignedDimension
 13
150.0000610000002
 23
-42.0
 33
0.0
 14
218.0000000000001
 24
-65.0
 34
0.0
 50
180.0
100
AcDbRotatedDimension
1001
ACAD
1000
DSTYLE
1002
{
1070
    79
1070
     3
1002
}
  0
DIMENSION
  5
6A25
330
1E
100
AcDbEntity
  8
30
  6
Continuous
100
AcDbDimension
  2
*D13
 10
218.0000000000001
 20
-100.0000000000001
 30
0.0
 11
187.5000305
 21
-97.00000000000013
 31
0.0
 70
    32
 71
     5
 42
60.99993899999994
  3
STANDARD
100
AcDbAlignedDimension
 13
157.0000610000002
 23
-65.0
 33
0.0
 14
218.0000000000001
 24
-65.0
 34
0.0
 50
180.0
100
AcDbRotatedDimension
1001
ACAD
1000
DSTYLE
1002
{
1070
    79
1070
     3
1002
}
  0
DIMENSION
  5
6BCC
330
1E
100
AcDbEntity
  8
30
  6
Continuous
100
AcDbDimension
  2
*D17
 10
110.0000610000002
 20
42.00000000000001
 30
0.0
 11
107.0000610000001
 21
0.0000000000000292
 31
0.0
 70
    32
 71
     5
 42
84.0
  3
STANDARD
100
AcDbAlignedDimension
 13
150.0000610000002
 23
-42.0
 33
0.0
 14
150.0000610000002
 24
42.0
 34
0.0
 50
90.0
100
AcDbRotatedDimension
1001
ACAD
1000
DSTYLE
1002
{
1070
    79
1070
     3
1002
}
  0
LINE
  5
6D67
330
1E
100
AcDbEntity
  8
16
100
AcDbLine
 10
80.0
 20
-250.0
 30
0.0
 11
-80.0
 21
-250.0
 31
0.0
  0
LINE
  5
6D68
330
1E
100
AcDbEntity
  8
16
100
AcDbLine
 10
0.0
 20
-350.0
 30
0.0
 11
0.0
 21
-150.0
 31
0.0
  0
DIMENSION
  5
6DBF
330
1E
100
AcDbEntity
  8
30
  6
Continuous
100
AcDbDimension
  2
*D18
 10
70.0
 20
-305.5
 30
0.0
 11
67.00000000000007
 21
-250.0
 31
0.0
 70
    32
 71
     5
 42
111.0
  3
STANDARD
100
AcDbAlignedDimension
 13
27.0
 23
-194.5
 33
0.0
 14
27.0
 24
-305.5
 34
0.0
 50
90.0
100
AcDbRotatedDimension
1001
ACAD
1000
DSTYLE
1002
{
1070
    79
1070
     3
1002
}
  0
LWPOLYLINE
  5
702A
330
1E
100
AcDbEntity
  8
10
  6
CONTINOUS
100
AcDbPolyline
 90
        2
 70
     0
 43
0.001
 10
-7.5
 20
151.0
 10
-17.5
 20
151.0
  0
LWPOLYLINE
  5
702B
330
1E
100
AcDbEntity
  8
10
  6
CONTINOUS
100
AcDbPolyline
 90
        2
 70
     0
 43
0.001
 10
-23.5
 20
165.0
 10
-23.5
 20
170.0
  0
LWPOLYLINE
  5
702C
330
1E
100
AcDbEntity
  8
10
  6
CONTINOUS
100
AcDbPolyline
 90
        2
 70
     0
 43
0.001
 10
-1.5
 20
165.0
 10
-1.5
 20
170.0
  0
LWPOLYLINE
  5
702D
330
1E
100
AcDbEntity
  8
10
  6
CONTINOUS
100
AcDbPolyline
 90
        2
 70
     0
 43
0.001
 10
-1.5
 20
165.0
 10
-23.5
 20
165.0
  0
LWPOLYLINE
  5
702E
330
1E
100
AcDbEntity
  8
10
  6
CONTINOUS
100
AcDbPolyline
 90
        4
 70
     0
 43
0.001
 10
25.0
 20
238.0
 10
-25.0
 20
238.0
 10
-25.0
 20
170.0
 10
25.0
 20
170.0
  0
LWPOLYLINE
  5
7032
330
1E
100
AcDbEntity
  8
10
  6
CONTINOUS
100
AcDbPolyline
 90
        2
 70
     0
 43
0.001
 10
25.0
 20
170.0
 10
25.0
 20
238.0
  0
LWPOLYLINE
  5
7034
330
1E
100
AcDbEntity
  8
10
  6
CONTINOUS
100
AcDbPolyline
 90
        2
 70
     0
 43
0.001
 10
-17.5
 20
151.0
 10
-17.95159899999999
 20
165.0
  0
LWPOLYLINE
  5
7035
330
1E
100
AcDbEntity
  8
10
  6
CONTINOUS
100
AcDbPolyline
 90
        2
 70
     0
 43
0.001
 10
-7.5
 20
151.0
 10
-7.048401000000013
 20
165.0
  0
LINE
  5
7036
330
1E
100
AcDbEntity
  8
16
100
AcDbLine
 10
0.0
 20
140.0
 30
0.0
 11
0.0
 21
280.0
 31
0.0
  0
DIMENSION
  5
704F
330
1E
100
AcDbEntity
  8
30
  6
Continuous
100
AcDbDimension
  2
*D19
 10
12.5
 20
310.0
 30
0.0
 11
0.0000000000000055
 21
313.0
 31
0.0
 70
    32
 71
     5
 42
25.0
  3
STANDARD
100
AcDbAlignedDimension
 13
-12.5
 23
280.0
 33
0.0
 14
12.5
 24
280.0
 34
0.0
100
AcDbRotatedDimension
1001
ACAD
1000
DSTYLE
1002
{
1070
    79
1070
     3
1002
}
  0
LWPOLYLINE
  5
7EAE
330
1E
100
AcDbEntity
  8
18
100
AcDbPolyline
 90
        2
 70
     0
 43
0.001
 10
218.0000000000001
 20
-65.0
 10
218.0000000000001
 20
-100.0
  0
LWPOLYLINE
  5
7EAF
330
1E
100
AcDbEntity
  8
18
100
AcDbPolyline
 90
        2
 70
     0
 43
0.001
 10
218.0000000000001
 20
100.0
 10
218.0000000000001
 20
65.0
  0
LWPOLYLINE
  5
7EB0
330
1E
100
AcDbEntity
  8
18
100
AcDbPolyline
 90
        2
 70
     0
 43
0.001
 10
218.0000000000001
 20
65.0
 10
218.0000000000001
 20
-65.0
  0
LWPOLYLINE
  5
7EB1
330
1E
100
AcDbEntity
  8
0
100
AcDbPolyline
 90
        2
 70
     0
 43
0.001
 10
245.0000000000001
 20
49.75
 10
245.0000000000001
 20
61.25
  0
LWPOLYLINE
  5
7EB2
330
1E
100
AcDbEntity
  8
0
100
AcDbPolyline
 90
        2
 70
     0
 43
0.001
 10
260.0
 20
52.5
 10
260.0
 20
58.5
  0
LWPOLYLINE
  5
7EB3
330
1E
100
AcDbEntity
  8
0
100
AcDbPolyline
 90
        2
 70
     0
 43
0.001
 10
256.0999760000001
 20
61.25
 10
256.0999760000001
 20
49.75
  0
LWPOLYLINE
  5
7EB4
330
1E
100
AcDbEntity
  8
0
100
AcDbPolyline
 90
        2
 70
     0
 43
0.001
 10
251.0999760000001
 20
52.625
 10
256.0999760000001
 20
52.625
  0
LWPOLYLINE
  5
7EB5
330
1E
100
AcDbEntity
  8
0
100
AcDbPolyline
 90
        2
 70
     0
 43
0.001
 10
251.0999760000001
 20
58.375
 10
256.0999760000001
 20
58.375
  0
LWPOLYLINE
  5
7EB6
330
1E
100
AcDbEntity
  8
0
100
AcDbPolyline
 90
        2
 70
     0
 43
0.001
 10
251.0999760000001
 20
61.25
 10
256.0999760000001
 20
61.25
  0
LWPOLYLINE
  5
7EB7
330
1E
100
AcDbEntity
  8
0
100
AcDbPolyline
 90
        2
 70
     0
 43
0.001
 10
248.0000000000001
 20
49.0
 10
249.5999760000001
 20
49.0
  0
LWPOLYLINE
  5
7EB8
330
1E
100
AcDbEntity
  8
0
100
AcDbPolyline
 90
        2
 70
     0
 43
0.001
 10
248.0000000000001
 20
62.0
 10
249.5999760000001
 20
62.0
  0
LWPOLYLINE
  5
7EB9
330
1E
100
AcDbEntity
  8
0
100
AcDbPolyline
 90
        2
 70
     0
 43
0.001
 10
251.0999760000001
 20
49.75
 10
256.0999760000001
 20
49.75
  0
LWPOLYLINE
  5
7EBA
330
1E
100
AcDbEntity
  8
0
100
AcDbPolyline
 90
        2
 70
     0
 43
0.001
 10
238.0000000000001
 20
61.5
 10
218.0000000000001
 20
61.5
  0
LWPOLYLINE
  5
7EBB
330
1E
100
AcDbEntity
  8
0
100
AcDbPolyline
 90
        2
 70
     0
 43
0.001
 10
238.0000000000001
 20
49.5
 10
218.0000000000001
 20
49.5
  0
LWPOLYLINE
  5
7EBC
330
1E
100
AcDbEntity
  8
0
100
AcDbPolyline
 90
        2
 70
     0
 43
0.001
 10
260.0
 20
58.5
 10
256.0999760000001
 20
58.5
  0
LWPOLYLINE
  5
7EBD
330
1E
100
AcDbEntity
  8
0
100
AcDbPolyline
 90
        2
 70
     0
 43
0.001
 10
260.0
 20
52.5
 10
256.0999760000001
 20
52.5
  0
LWPOLYLINE
  5
7EBE
330
1E
100
AcDbEntity
  8
0
100
AcDbPolyline
 90
        2
 70
     0
 43
0.001
 10
238.0000000000001
 20
61.5
 10
238.0000000000001
 20
49.5
  0
LWPOLYLINE
  5
7EBF
330
1E
100
AcDbEntity
  8
0
100
AcDbPolyline
 90
        2
 70
     0
 43
0.001
 10
239.0000000000001
 20
61.25
 10
239.0000000000001
 20
49.75
  0
LWPOLYLINE
  5
7EC0
330
1E
100
AcDbEntity
  8
0
100
AcDbPolyline
 90
        2
 70
     0
 43
0.001
 10
245.0000000000001
 20
61.25
 10
239.0000000000001
 20
61.25
  0
LWPOLYLINE
  5
7EC1
330
1E
100
AcDbEntity
  8
0
100
AcDbPolyline
 90
        2
 70
     0
 43
0.001
 10
245.0000000000001
 20
49.75
 10
239.0000000000001
 20
49.75
  0
LWPOLYLINE
  5
7EC2
330
1E
100
AcDbEntity
  8
0
100
AcDbPolyline
 90
        2
 70
     0
 43
0.001
 10
245.0000000000001
 20
58.375
 10
239.0000000000001
 20
58.375
  0
LWPOLYLINE
  5
7EC3
330
1E
100
AcDbEntity
  8
0
100
AcDbPolyline
 90
        2
 70
     0
 43
0.001
 10
245.0000000000001
 20
52.625
 10
239.0000000000001
 20
52.625
  0
LWPOLYLINE
  5
7EC4
330
1E
100
AcDbEntity
  8
0
100
AcDbPolyline
 90
        2
 70
     0
 43
0.001
 10
239.0000000000001
 20
59.5
 10
238.0000000000001
 20
59.5
  0
LWPOLYLINE
  5
7EC5
330
1E
100
AcDbEntity
  8
0
100
AcDbPolyline
 90
        2
 70
     0
 43
0.001
 10
239.0000000000001
 20
51.5
 10
238.0000000000001
 20
51.5
  0
LWPOLYLINE
  5
7EC6
330
1E
100
AcDbEntity
  8
0
100
AcDbPolyline
 90
        2
 70
     0
 43
0.001
 10
249.5999760000001
 20
62.0
 10
249.5999760000001
 20
49.0
  0
LWPOLYLINE
  5
7EC7
330
1E
100
AcDbEntity
  8
0
100
AcDbPolyline
 90
        2
 70
     0
 43
0.001
 10
251.0999760000001
 20
61.59997599999996
 10
251.0999760000001
 20
49.40002400000003
  0
LWPOLYLINE
  5
7EC8
330
1E
100
AcDbEntity
  8
0
100
AcDbPolyline
 90
        2
 70
     0
 43
0.001
 10
251.0999760000001
 20
61.59997599999996
 10
249.5999760000001
 20
61.59997599999996
  0
LWPOLYLINE
  5
7EC9
330
1E
100
AcDbEntity
  8
0
100
AcDbPolyline
 90
        2
 70
     0
 43
0.001
 10
251.0999760000001
 20
49.40002400000003
 10
249.5999760000001
 20
49.40002400000003
  0
LWPOLYLINE
  5
7ECA
330
1E
100
AcDbEntity
  8
0
100
AcDbPolyline
 90
        2
 70
     0
 43
0.001
 10
248.0000000000001
 20
49.0
 10
248.0000000000001
 20
62.0
  0
LWPOLYLINE
  5
7ECB
330
1E
100
AcDbEntity
  8
0
100
AcDbPolyline
 90
        2
 70
     0
 43
0.001
 10
251.0999760000001
 20
56.3660890000001
 10
249.5999760000001
 20
55.50012200000002
  0
LWPOLYLINE
  5
7ECC
330
1E
100
AcDbEntity
  8
0
100
AcDbPolyline
 90
        2
 70
     0
 43
0.001
 10
251.0999760000001
 20
55.5
 10
249.5999760000001
 20
54.63403300000003
  0
LWPOLYLINE
  5
7ECD
330
1E
100
AcDbEntity
  8
0
100
AcDbPolyline
 90
        2
 70
     0
 43
0.001
 10
248.0000000000001
 20
58.5
 10
245.0000000000001
 20
58.5
  0
LWPOLYLINE
  5
7ECE
330
1E
100
AcDbEntity
  8
0
100
AcDbPolyline
 90
        2
 70
     0
 43
0.001
 10
248.0000000000001
 20
52.5
 10
245.0000000000001
 20
52.5
  0
LWPOLYLINE
  5
7ECF
330
1E
100
AcDbEntity
  8
0
100
AcDbPolyline
 90
        2
 70
     0
 43
0.001
 10
238.0000000000001
 20
-49.5
 10
218.0000000000001
 20
-49.5
  0
LWPOLYLINE
  5
7ED0
330
1E
100
AcDbEntity
  8
0
100
AcDbPolyline
 90
        2
 70
     0
 43
0.001
 10
238.0000000000001
 20
-61.5
 10
218.0000000000001
 20
-61.5
  0
LWPOLYLINE
  5
7ED1
330
1E
100
AcDbEntity
  8
0
100
AcDbPolyline
 90
        2
 70
     0
 43
0.001
 10
249.5999760000001
 20
-49.0
 10
249.5999760000001
 20
-62.0
  0
LWPOLYLINE
  5
7ED2
330
1E
100
AcDbEntity
  8
0
100
AcDbPolyline
 90
        2
 70
     0
 43
0.001
 10
239.0000000000001
 20
-51.5
 10
238.0000000000001
 20
-51.5
  0
LWPOLYLINE
  5
7ED3
330
1E
100
AcDbEntity
  8
0
100
AcDbPolyline
 90
        2
 70
     0
 43
0.001
 10
239.0000000000001
 20
-59.5
 10
238.0000000000001
 20
-59.5
  0
LWPOLYLINE
  5
7ED4
330
1E
100
AcDbEntity
  8
0
100
AcDbPolyline
 90
        2
 70
     0
 43
0.001
 10
251.0999760000001
 20
-61.59997599999996
 10
249.5999760000001
 20
-61.59997599999996
  0
LWPOLYLINE
  5
7ED5
330
1E
100
AcDbEntity
  8
0
100
AcDbPolyline
 90
        2
 70
     0
 43
0.001
 10
248.0000000000001
 20
-62.0
 10
248.0000000000001
 20
-49.0
  0
LWPOLYLINE
  5
7ED6
330
1E
100
AcDbEntity
  8
0
100
AcDbPolyline
 90
        2
 70
     0
 43
0.001
 10
245.0000000000001
 20
-61.25
 10
239.0000000000001
 20
-61.25
  0
LWPOLYLINE
  5
7ED7
330
1E
100
AcDbEntity
  8
0
100
AcDbPolyline
 90
        2
 70
     0
 43
0.001
 10
260.0
 20
-58.5
 10
256.0999760000001
 20
-58.5
  0
LWPOLYLINE
  5
7ED8
330
1E
100
AcDbEntity
  8
0
100
AcDbPolyline
 90
        2
 70
     0
 43
0.001
 10
260.0
 20
-52.5
 10
256.0999760000001
 20
-52.5
  0
LWPOLYLINE
  5
7ED9
330
1E
100
AcDbEntity
  8
0
100
AcDbPolyline
 90
        2
 70
     0
 43
0.001
 10
245.0000000000001
 20
-49.75
 10
239.0000000000001
 20
-49.75
  0
LWPOLYLINE
  5
7EDA
330
1E
100
AcDbEntity
  8
0
100
AcDbPolyline
 90
        2
 70
     0
 43
0.001
 10
245.0000000000001
 20
-58.375
 10
239.0000000000001
 20
-58.375
  0
LWPOLYLINE
  5
7EDB
330
1E
100
AcDbEntity
  8
0
100
AcDbPolyline
 90
        2
 70
     0
 43
0.001
 10
245.0000000000001
 20
-61.25
 10
245.0000000000001
 20
-49.75
  0
LWPOLYLINE
  5
7EDC
330
1E
100
AcDbEntity
  8
0
100
AcDbPolyline
 90
        2
 70
     0
 43
0.001
 10
239.0000000000001
 20
-49.75
 10
239.0000000000001
 20
-61.25
  0
LWPOLYLINE
  5
7EDD
330
1E
100
AcDbEntity
  8
0
100
AcDbPolyline
 90
        2
 70
     0
 43
0.001
 10
238.0000000000001
 20
-49.5
 10
238.0000000000001
 20
-61.5
  0
LWPOLYLINE
  5
7EDE
330
1E
100
AcDbEntity
  8
0
100
AcDbPolyline
 90
        2
 70
     0
 43
0.001
 10
260.0
 20
-58.5
 10
260.0
 20
-52.5
  0
LWPOLYLINE
  5
7EDF
330
1E
100
AcDbEntity
  8
0
100
AcDbPolyline
 90
        2
 70
     0
 43
0.001
 10
248.0000000000001
 20
-52.5
 10
245.0000000000001
 20
-52.5
  0
LWPOLYLINE
  5
7EE0
330
1E
100
AcDbEntity
  8
0
100
AcDbPolyline
 90
        2
 70
     0
 43
0.001
 10
248.0000000000001
 20
-58.5
 10
245.0000000000001
 20
-58.5
  0
LWPOLYLINE
  5
7EE1
330
1E
100
AcDbEntity
  8
0
100
AcDbPolyline
 90
        2
 70
     0
 43
0.001
 10
256.0999760000001
 20
-49.75
 10
256.0999760000001
 20
-61.25
  0
LWPOLYLINE
  5
7EE2
330
1E
100
AcDbEntity
  8
0
100
AcDbPolyline
 90
        2
 70
     0
 43
0.001
 10
251.0999760000001
 20
-58.375
 10
256.0999760000001
 20
-58.375
  0
LWPOLYLINE
  5
7EE3
330
1E
100
AcDbEntity
  8
0
100
AcDbPolyline
 90
        2
 70
     0
 43
0.001
 10
251.0999760000001
 20
-52.625
 10
256.0999760000001
 20
-52.625
  0
LWPOLYLINE
  5
7EE4
330
1E
100
AcDbEntity
  8
0
100
AcDbPolyline
 90
        2
 70
     0
 43
0.001
 10
251.0999760000001
 20
-49.75
 10
256.0999760000001
 20
-49.75
  0
LWPOLYLINE
  5
7EE5
330
1E
100
AcDbEntity
  8
0
100
AcDbPolyline
 90
        2
 70
     0
 43
0.001
 10
248.0000000000001
 20
-62.0
 10
249.5999760000001
 20
-62.0
  0
LWPOLYLINE
  5
7EE6
330
1E
100
AcDbEntity
  8
0
100
AcDbPolyline
 90
        2
 70
     0
 43
0.001
 10
248.0000000000001
 20
-49.0
 10
249.5999760000001
 20
-49.0
  0
LWPOLYLINE
  5
7EE7
330
1E
100
AcDbEntity
  8
0
100
AcDbPolyline
 90
        2
 70
     0
 43
0.001
 10
251.0999760000001
 20
-61.25
 10
256.0999760000001
 20
-61.25
  0
LWPOLYLINE
  5
7EE8
330
1E
100
AcDbEntity
  8
0
100
AcDbPolyline
 90
        2
 70
     0
 43
0.001
 10
251.0999760000001
 20
-54.63391100000001
 10
249.5999760000001
 20
-55.49987800000007
  0
LWPOLYLINE
  5
7EE9
330
1E
100
AcDbEntity
  8
0
100
AcDbPolyline
 90
        2
 70
     0
 43
0.001
 10
251.0999760000001
 20
-49.40002400000003
 10
249.5999760000001
 20
-49.40002400000003
  0
LWPOLYLINE
  5
7EEA
330
1E
100
AcDbEntity
  8
0
100
AcDbPolyline
 90
        2
 70
     0
 43
0.001
 10
245.0000000000001
 20
-52.625
 10
239.0000000000001
 20
-52.625
  0
LWPOLYLINE
  5
7EEB
330
1E
100
AcDbEntity
  8
0
100
AcDbPolyline
 90
        2
 70
     0
 43
0.001
 10
251.0999760000001
 20
-49.40002400000003
 10
251.0999760000001
 20
-61.59997599999996
  0
LWPOLYLINE
  5
7EEC
330
1E
100
AcDbEntity
  8
0
100
AcDbPolyline
 90
        2
 70
     0
 43
0.001
 10
251.0999760000001
 20
-55.5
 10
249.5999760000001
 20
-56.36596699999995
  0
LWPOLYLINE
  5
7EED
330
1E
100
AcDbEntity
  8
0
100
AcDbPolyline
 90
        2
 70
     0
 43
0.001
 10
291.5000000000001
 20
55.5
 10
213.0000000000001
 20
55.5
  0
LWPOLYLINE
  5
7EEE
330
1E
100
AcDbEntity
  8
0
100
AcDbPolyline
 90
        2
 70
     0
 43
0.001
 10
291.5000000000001
 20
-55.5
 10
213.0000000000001
 20
-55.5
  0
LWPOLYLINE
  5
7EF5
330
1E
100
AcDbEntity
  8
0
100
AcDbPolyline
 90
        2
 70
     0
 43
0.001
 10
248.0000000000001
 20
-49.0
 10
248.0000000000001
 20
-43.0
  0
LWPOLYLINE
  5
7EF6
330
1E
100
AcDbEntity
  8
0
100
AcDbPolyline
 90
        2
 70
     0
 43
0.001
 10
245.0000000000001
 20
-49.75
 10
245.0000000000001
 20
-43.0
  0
LWPOLYLINE
  5
7EF7
330
1E
100
AcDbEntity
  8
0
100
AcDbPolyline
 90
        2
 70
     0
 43
0.001
 10
245.0000000000001
 20
-43.0
 10
248.0000000000001
 20
-43.0
  0
POLYLINE
  5
7EF8
330
1E
100
AcDbEntity
  8
L150_
  6
Continuous
 62
     7
100
AcDb3dPolyline
 66
     1
 10
0.0
 20
0.0
 30
0.0
 70
    12
 75
     6
  0
VERTEX
  5
7EF9
330
7EF8
100
AcDbEntity
  8
L150_
  6
Continuous
 62
     7
100
AcDbVertex
100
AcDb3dPolylineVertex
 10
245.0000000000001
 20
-80.5
 30
0.0
 70
    48
  0
VERTEX
  5
7EFA
330
7EF8
100
AcDbEntity
  8
L150_
  6
Continuous
 62
     7
100
AcDbVertex
100
AcDb3dPolylineVertex
 10
245.0000000000001
 20
-80.5
 30
0.0
 70
    40
  0
VERTEX
  5
7EFB
330
7EF8
100
AcDbEntity
  8
L150_
  6
Continuous
 62
     7
100
AcDbVertex
100
AcDb3dPolylineVertex
 10
245.0538700000001
 20
-80.51893300000006
 30
0.0
 70
    40
  0
VERTEX
  5
7EFC
330
7EF8
100
AcDbEntity
  8
L150_
  6
Continuous
 62
     7
100
AcDbVertex
100
AcDb3dPolylineVertex
 10
245.1076900000002
 20
-80.53775399999995
 30
0.0
 70
    40
  0
VERTEX
  5
7EFD
330
7EF8
100
AcDbEntity
  8
L150_
  6
Continuous
 62
     7
100
AcDbVertex
100
AcDb3dPolylineVertex
 10
245.1614070000001
 20
-80.55634400000007
 30
0.0
 70
    40
  0
VERTEX
  5
7EFE
330
7EF8
100
AcDbEntity
  8
L150_
  6
Continuous
 62
     7
100
AcDbVertex
100
AcDb3dPolylineVertex
 10
245.2149710000001
 20
-80.57458899999993
 30
0.0
 70
    40
  0
VERTEX
  5
7EFF
330
7EF8
100
AcDbEntity
  8
L150_
  6
Continuous
 62
     7
100
AcDbVertex
100
AcDb3dPolylineVertex
 10
245.2683310000001
 20
-80.59237300000006
 30
0.0
 70
    40
  0
VERTEX
  5
7F00
330
7EF8
100
AcDbEntity
  8
L150_
  6
Continuous
 62
     7
100
AcDbVertex
100
AcDb3dPolylineVertex
 10
245.321436
 20
-80.60957800000004
 30
0.0
 70
    40
  0
VERTEX
  5
7F01
330
7EF8
100
AcDbEntity
  8
L150_
  6
Continuous
 62
     7
100
AcDbVertex
100
AcDb3dPolylineVertex
 10
245.3742350000001
 20
-80.62608899999998
 30
0.0
 70
    40
  0
VERTEX
  5
7F02
330
7EF8
100
AcDbEntity
  8
L150_
  6
Continuous
 62
     7
100
AcDbVertex
100
AcDb3dPolylineVertex
 10
245.4266760000002
 20
-80.64179000000001
 30
0.0
 70
    40
  0
VERTEX
  5
7F03
330
7EF8
100
AcDbEntity
  8
L150_
  6
Continuous
 62
     7
100
AcDbVertex
100
AcDb3dPolylineVertex
 10
245.4787150000001
 20
-80.65653899999995
 30
0.0
 70
    40
  0
VERTEX
  5
7F04
330
7EF8
100
AcDbEntity
  8
L150_
  6
Continuous
 62
     7
100
AcDbVertex
100
AcDb3dPolylineVertex
 10
245.5303290000001
 20
-80.67009299999995
 30
0.0
 70
    40
  0
VERTEX
  5
7F05
330
7EF8
100
AcDbEntity
  8
L150_
  6
Continuous
 62
     7
100
AcDbVertex
100
AcDb3dPolylineVertex
 10
245.5814980000001
 20
-80.68218599999999
 30
0.0
 70
    40
  0
VERTEX
  5
7F06
330
7EF8
100
AcDbEntity
  8
L150_
  6
Continuous
 62
     7
100
AcDbVertex
100
AcDb3dPolylineVertex
 10
245.6322060000001
 20
-80.69254899999998
 30
0.0
 70
    40
  0
VERTEX
  5
7F07
330
7EF8
100
AcDbEntity
  8
L150_
  6
Continuous
 62
     7
100
AcDbVertex
100
AcDb3dPolylineVertex
 10
245.6824350000001
 20
-80.700914
 30
0.0
 70
    40
  0
VERTEX
  5
7F08
330
7EF8
100
AcDbEntity
  8
L150_
  6
Continuous
 62
     7
100
AcDbVertex
100
AcDb3dPolylineVertex
 10
245.7321660000001
 20
-80.70701299999994
 30
0.0
 70
    40
  0
VERTEX
  5
7F09
330
7EF8
100
AcDbEntity
  8
L150_
  6
Continuous
 62
     7
100
AcDbVertex
100
AcDb3dPolylineVertex
 10
245.781383
 20
-80.71057900000004
 30
0.0
 70
    40
  0
VERTEX
  5
7F0A
330
7EF8
100
AcDbEntity
  8
L150_
  6
Continuous
 62
     7
100
AcDbVertex
100
AcDb3dPolylineVertex
 10
245.8300680000001
 20
-80.71134400000005
 30
0.0
 70
    40
  0
VERTEX
  5
7F0B
330
7EF8
100
AcDbEntity
  8
L150_
  6
Continuous
 62
     7
100
AcDbVertex
100
AcDb3dPolylineVertex
 10
245.878217
 20
-80.70916599999998
 30
0.0
 70
    40
  0
VERTEX
  5
7F0C
330
7EF8
100
AcDbEntity
  8
L150_
  6
Continuous
 62
     7
100
AcDbVertex
100
AcDb3dPolylineVertex
 10
245.9258840000001
 20
-80.70440499999994
 30
0.0
 70
    40
  0
VERTEX
  5
7F0D
330
7EF8
100
AcDbEntity
  8
L150_
  6
Continuous
 62
     7
100
AcDbVertex
100
AcDb3dPolylineVertex
 10
245.9731390000001
 20
-80.697545
 30
0.0
 70
    40
  0
VERTEX
  5
7F0E
330
7EF8
100
AcDbEntity
  8
L150_
  6
Continuous
 62
     7
100
AcDbVertex
100
AcDb3dPolylineVertex
 10
246.0200510000001
 20
-80.689074
 30
0.0
 70
    40
  0
VERTEX
  5
7F0F
330
7EF8
100
AcDbEntity
  8
L150_
  6
Continuous
 62
     7
100
AcDbVertex
100
AcDb3dPolylineVertex
 10
246.0666890000001
 20
-80.6794769999999
 30
0.0
 70
    40
  0
VERTEX
  5
7F10
330
7EF8
100
AcDbEntity
  8
L150_
  6
Continuous
 62
     7
100
AcDbVertex
100
AcDb3dPolylineVertex
 10
246.1131220000001
 20
-80.66923899999995
 30
0.0
 70
    40
  0
VERTEX
  5
7F11
330
7EF8
100
AcDbEntity
  8
L150_
  6
Continuous
 62
     7
100
AcDbVertex
100
AcDb3dPolylineVertex
 10
246.1594180000001
 20
-80.65884600000002
 30
0.0
 70
    40
  0
VERTEX
  5
7F12
330
7EF8
100
AcDbEntity
  8
L150_
  6
Continuous
 62
     7
100
AcDbVertex
100
AcDb3dPolylineVertex
 10
246.2056480000001
 20
-80.64878299999998
 30
0.0
 70
    40
  0
VERTEX
  5
7F13
330
7EF8
100
AcDbEntity
  8
L150_
  6
Continuous
 62
     7
100
AcDbVertex
100
AcDb3dPolylineVertex
 10
246.2518520000001
 20
-80.63949000000002
 30
0.0
 70
    40
  0
VERTEX
  5
7F14
330
7EF8
100
AcDbEntity
  8
L150_
  6
Continuous
 62
     7
100
AcDbVertex
100
AcDb3dPolylineVertex
 10
246.2979620000001
 20
-80.63121100000001
 30
0.0
 70
    40
  0
VERTEX
  5
7F15
330
7EF8
100
AcDbEntity
  8
L150_
  6
Continuous
 62
     7
100
AcDbVertex
100
AcDb3dPolylineVertex
 10
246.3438830000001
 20
-80.62414699999996
 30
0.0
 70
    40
  0
VERTEX
  5
7F16
330
7EF8
100
AcDbEntity
  8
L150_
  6
Continuous
 62
     7
100
AcDbVertex
100
AcDb3dPolylineVertex
 10
246.38952
 20
-80.61849699999994
 30
0.0
 70
    40
  0
VERTEX
  5
7F17
330
7EF8
100
AcDbEntity
  8
L150_
  6
Continuous
 62
     7
100
AcDbVertex
100
AcDb3dPolylineVertex
 10
246.4347770000001
 20
-80.61446000000001
 30
0.0
 70
    40
  0
VERTEX
  5
7F18
330
7EF8
100
AcDbEntity
  8
L150_
  6
Continuous
 62
     7
100
AcDbVertex
100
AcDb3dPolylineVertex
 10
246.4795580000001
 20
-80.61223399999994
 30
0.0
 70
    40
  0
VERTEX
  5
7F19
330
7EF8
100
AcDbEntity
  8
L150_
  6
Continuous
 62
     7
100
AcDbVertex
100
AcDb3dPolylineVertex
 10
246.5237680000001
 20
-80.61201900000003
 30
0.0
 70
    40
  0
VERTEX
  5
7F1A
330
7EF8
100
AcDbEntity
  8
L150_
  6
Continuous
 62
     7
100
AcDbVertex
100
AcDb3dPolylineVertex
 10
246.5673120000001
 20
-80.61401399999999
 30
0.0
 70
    40
  0
VERTEX
  5
7F1B
330
7EF8
100
AcDbEntity
  8
L150_
  6
Continuous
 62
     7
100
AcDbVertex
100
AcDb3dPolylineVertex
 10
246.6101340000001
 20
-80.61823900000002
 30
0.0
 70
    40
  0
VERTEX
  5
7F1C
330
7EF8
100
AcDbEntity
  8
L150_
  6
Continuous
 62
     7
100
AcDbVertex
100
AcDb3dPolylineVertex
 10
246.6523450000001
 20
-80.62399800000003
 30
0.0
 70
    40
  0
VERTEX
  5
7F1D
330
7EF8
100
AcDbEntity
  8
L150_
  6
Continuous
 62
     7
100
AcDbVertex
100
AcDb3dPolylineVertex
 10
246.6940930000002
 20
-80.63041799999998
 30
0.0
 70
    40
  0
VERTEX
  5
7F1E
330
7EF8
100
AcDbEntity
  8
L150_
  6
Continuous
 62
     7
100
AcDbVertex
100
AcDb3dPolylineVertex
 10
246.735528
 20
-80.63662499999997
 30
0.0
 70
    40
  0
VERTEX
  5
7F1F
330
7EF8
100
AcDbEntity
  8
L150_
  6
Continuous
 62
     7
100
AcDbVertex
100
AcDb3dPolylineVertex
 10
246.7768010000001
 20
-80.64174300000003
 30
0.0
 70
    40
  0
VERTEX
  5
7F20
330
7EF8
100
AcDbEntity
  8
L150_
  6
Continuous
 62
     7
100
AcDbVertex
100
AcDb3dPolylineVertex
 10
246.8180620000002
 20
-80.64489800000002
 30
0.0
 70
    40
  0
VERTEX
  5
7F21
330
7EF8
100
AcDbEntity
  8
L150_
  6
Continuous
 62
     7
100
AcDbVertex
100
AcDb3dPolylineVertex
 10
246.8594590000001
 20
-80.645217
 30
0.0
 70
    40
  0
VERTEX
  5
7F22
330
7EF8
100
AcDbEntity
  8
L150_
  6
Continuous
 62
     7
100
AcDbVertex
100
AcDb3dPolylineVertex
 10
246.9011430000001
 20
-80.64182500000006
 30
0.0
 70
    40
  0
VERTEX
  5
7F23
330
7EF8
100
AcDbEntity
  8
L150_
  6
Continuous
 62
     7
100
AcDbVertex
100
AcDb3dPolylineVertex
 10
246.9432640000001
 20
-80.63413600000002
 30
0.0
 70
    40
  0
VERTEX
  5
7F24
330
7EF8
100
AcDbEntity
  8
L150_
  6
Continuous
 62
     7
100
AcDbVertex
100
AcDb3dPolylineVertex
 10
246.9859700000001
 20
-80.62271399999998
 30
0.0
 70
    40
  0
VERTEX
  5
7F25
330
7EF8
100
AcDbEntity
  8
L150_
  6
Continuous
 62
     7
100
AcDbVertex
100
AcDb3dPolylineVertex
 10
247.0294090000001
 20
-80.60841399999992
 30
0.0
 70
    40
  0
VERTEX
  5
7F26
330
7EF8
100
AcDbEntity
  8
L150_
  6
Continuous
 62
     7
100
AcDbVertex
100
AcDb3dPolylineVertex
 10
247.0737300000001
 20
-80.59208699999997
 30
0.0
 70
    40
  0
VERTEX
  5
7F27
330
7EF8
100
AcDbEntity
  8
L150_
  6
Continuous
 62
     7
100
AcDbVertex
100
AcDb3dPolylineVertex
 10
247.1190810000002
 20
-80.57458700000006
 30
0.0
 70
    40
  0
VERTEX
  5
7F28
330
7EF8
100
AcDbEntity
  8
L150_
  6
Continuous
 62
     7
100
AcDbVertex
100
AcDb3dPolylineVertex
 10
247.1656110000001
 20
-80.55676700000004
 30
0.0
 70
    40
  0
VERTEX
  5
7F29
330
7EF8
100
AcDbEntity
  8
L150_
  6
Continuous
 62
     7
100
AcDbVertex
100
AcDb3dPolylineVertex
 10
247.2134660000001
 20
-80.53948000000003
 30
0.0
 70
    40
  0
VERTEX
  5
7F2A
330
7EF8
100
AcDbEntity
  8
L150_
  6
Continuous
 62
     7
100
AcDbVertex
100
AcDb3dPolylineVertex
 10
247.2627970000002
 20
-80.52358000000003
 30
0.0
 70
    40
  0
VERTEX
  5
7F2B
330
7EF8
100
AcDbEntity
  8
L150_
  6
Continuous
 62
     7
100
AcDbVertex
100
AcDb3dPolylineVertex
 10
247.3136430000001
 20
-80.50976100000003
 30
0.0
 70
    40
  0
VERTEX
  5
7F2C
330
7EF8
100
AcDbEntity
  8
L150_
  6
Continuous
 62
     7
100
AcDbVertex
100
AcDb3dPolylineVertex
 10
247.3656140000002
 20
-80.49808799999993
 30
0.0
 70
    40
  0
VERTEX
  5
7F2D
330
7EF8
100
AcDbEntity
  8
L150_
  6
Continuous
 62
     7
100
AcDbVertex
100
AcDb3dPolylineVertex
 10
247.4182120000001
 20
-80.48847
 30
0.0
 70
    40
  0
VERTEX
  5
7F2E
330
7EF8
100
AcDbEntity
  8
L150_
  6
Continuous
 62
     7
100
AcDbVertex
100
AcDb3dPolylineVertex
 10
247.4709380000001
 20
-80.48081100000002
 30
0.0
 70
    40
  0
VERTEX
  5
7F2F
330
7EF8
100
AcDbEntity
  8
L150_
  6
Continuous
 62
     7
100
AcDbVertex
100
AcDb3dPolylineVertex
 10
247.5232940000002
 20
-80.47502099999997
 30
0.0
 70
    40
  0
VERTEX
  5
7F30
330
7EF8
100
AcDbEntity
  8
L150_
  6
Continuous
 62
     7
100
AcDbVertex
100
AcDb3dPolylineVertex
 10
247.574782
 20
-80.47100599999998
 30
0.0
 70
    40
  0
VERTEX
  5
7F31
330
7EF8
100
AcDbEntity
  8
L150_
  6
Continuous
 62
     7
100
AcDbVertex
100
AcDb3dPolylineVertex
 10
247.6249040000001
 20
-80.46867400000008
 30
0.0
 70
    40
  0
VERTEX
  5
7F32
330
7EF8
100
AcDbEntity
  8
L150_
  6
Continuous
 62
     7
100
AcDbVertex
100
AcDb3dPolylineVertex
 10
247.6731620000002
 20
-80.46793099999991
 30
0.0
 70
    40
  0
VERTEX
  5
7F33
330
7EF8
100
AcDbEntity
  8
L150_
  6
Continuous
 62
     7
100
AcDbVertex
100
AcDb3dPolylineVertex
 10
247.7191890000002
 20
-80.4686690000001
 30
0.0
 70
    40
  0
VERTEX
  5
7F34
330
7EF8
100
AcDbEntity
  8
L150_
  6
Continuous
 62
     7
100
AcDbVertex
100
AcDb3dPolylineVertex
 10
247.7631480000001
 20
-80.47071700000001
 30
0.0
 70
    40
  0
VERTEX
  5
7F35
330
7EF8
100
AcDbEntity
  8
L150_
  6
Continuous
 62
     7
100
AcDbVertex
100
AcDb3dPolylineVertex
 10
247.8053350000001
 20
-80.47388599999996
 30
0.0
 70
    40
  0
VERTEX
  5
7F36
330
7EF8
100
AcDbEntity
  8
L150_
  6
Continuous
 62
     7
100
AcDbVertex
100
AcDb3dPolylineVertex
 10
247.8460430000001
 20
-80.4779900000001
 30
0.0
 70
    40
  0
VERTEX
  5
7F37
330
7EF8
100
AcDbEntity
  8
L150_
  6
Continuous
 62
     7
100
AcDbVertex
100
AcDb3dPolylineVertex
 10
247.8855690000001
 20
-80.48284100000001
 30
0.0
 70
    40
  0
VERTEX
  5
7F38
330
7EF8
100
AcDbEntity
  8
L150_
  6
Continuous
 62
     7
100
AcDbVertex
100
AcDb3dPolylineVertex
 10
247.9242070000001
 20
-80.488251
 30
0.0
 70
    40
  0
VERTEX
  5
7F39
330
7EF8
100
AcDbEntity
  8
L150_
  6
Continuous
 62
     7
100
AcDbVertex
100
AcDb3dPolylineVertex
 10
247.962253
 20
-80.49403300000006
 30
0.0
 70
    40
  0
VERTEX
  5
7F3A
330
7EF8
100
AcDbEntity
  8
L150_
  6
Continuous
 62
     7
100
AcDbVertex
100
AcDb3dPolylineVertex
 10
248.0000000000001
 20
-80.5
 30
0.0
 70
    40
  0
VERTEX
  5
7F3B
330
7EF8
100
AcDbEntity
  8
L150_
  6
Continuous
 62
     7
100
AcDbVertex
100
AcDb3dPolylineVertex
 10
245.1436770000001
 20
-80.55053699999993
 30
0.0
 70
    48
  0
VERTEX
  5
7F3C
330
7EF8
100
AcDbEntity
  8
L150_
  6
Continuous
 62
     7
100
AcDbVertex
100
AcDb3dPolylineVertex
 10
245.4310300000001
 20
-80.65167199999995
 30
0.0
 70
    48
  0
VERTEX
  5
7F3D
330
7EF8
100
AcDbEntity
  8
L150_
  6
Continuous
 62
     7
100
AcDbVertex
100
AcDb3dPolylineVertex
 10
245.835938
 20
-80.74407999999994
 30
0.0
 70
    48
  0
VERTEX
  5
7F3E
330
7EF8
100
AcDbEntity
  8
L150_
  6
Continuous
 62
     7
100
AcDbVertex
100
AcDb3dPolylineVertex
 10
246.2056270000001
 20
-80.64007600000001
 30
0.0
 70
    48
  0
VERTEX
  5
7F3F
330
7EF8
100
AcDbEntity
  8
L150_
  6
Continuous
 62
     7
100
AcDbVertex
100
AcDb3dPolylineVertex
 10
246.5754390000001
 20
-80.58831799999996
 30
0.0
 70
    48
  0
VERTEX
  5
7F40
330
7EF8
100
AcDbEntity
  8
L150_
  6
Continuous
 62
     7
100
AcDbVertex
100
AcDb3dPolylineVertex
 10
246.8964840000001
 20
-80.69073500000001
 30
0.0
 70
    48
  0
VERTEX
  5
7F41
330
7EF8
100
AcDbEntity
  8
L150_
  6
Continuous
 62
     7
100
AcDbVertex
100
AcDb3dPolylineVertex
 10
247.2454830000001
 20
-80.49969499999997
 30
0.0
 70
    48
  0
VERTEX
  5
7F42
330
7EF8
100
AcDbEntity
  8
L150_
  6
Continuous
 62
     7
100
AcDbVertex
100
AcDb3dPolylineVertex
 10
247.6983640000002
 20
-80.45196500000008
 30
0.0
 70
    48
  0
VERTEX
  5
7F43
330
7EF8
100
AcDbEntity
  8
L150_
  6
Continuous
 62
     7
100
AcDbVertex
100
AcDb3dPolylineVertex
 10
247.899475
 20
-80.48400900000002
 30
0.0
 70
    48
  0
VERTEX
  5
7F44
330
7EF8
100
AcDbEntity
  8
L150_
  6
Continuous
 62
     7
100
AcDbVertex
100
AcDb3dPolylineVertex
 10
248.0000000000001
 20
-80.5
 30
0.0
 70
    48
  0
SEQEND
  5
7F45
330
7EF8
100
AcDbEntity
  8
L150_
  6
Continuous
 62
     7
  0
LWPOLYLINE
  5
7F46
330
1E
100
AcDbEntity
  8
L150_
  6
Continuous
 62
     7
100
AcDbPolyline
 90
        2
 70
     0
 43
0.001
 10
245.0000000000001
 20
49.75
 10
245.0000000000001
 20
43.0
  0
LWPOLYLINE
  5
7F47
330
1E
100
AcDbEntity
  8
L150_
  6
Continuous
 62
     7
100
AcDbPolyline
 90
        2
 70
     0
 43
0.001
 10
248.0000000000001
 20
49.0
 10
248.0000000000001
 20
43.0
  0
LWPOLYLINE
  5
7F48
330
1E
100
AcDbEntity
  8
L150_
  6
Continuous
 62
     7
100
AcDbPolyline
 90
        2
 70
     0
 43
0.001
 10
245.0000000000001
 20
43.0
 10
248.0000000000001
 20
43.0
  0
LWPOLYLINE
  5
7F49
330
1E
100
AcDbEntity
  8
18
100
AcDbPolyline
 90
        2
 70
     0
 43
0.001
 10
221.1999970000002
 20
99.69134499999995
 10
221.1999970000002
 20
-100.3086549999999
  0
LWPOLYLINE
  5
7F4A
330
1E
100
AcDbEntity
  8
L150_
  6
D43
 62
     7
100
AcDbPolyline
 90
        2
 70
     0
 43
0.001
 10
245.0000000000001
 20
-61.25
 10
245.0000000000001
 20
-80.5
  0
LWPOLYLINE
  5
7F4B
330
1E
100
AcDbEntity
  8
L150_
  6
D43
 62
     7
100
AcDbPolyline
 90
        2
 70
     0
 43
0.001
 10
248.0000000000001
 20
-62.0
 10
248.0000000000001
 20
-80.5
  0
POLYLINE
  5
7F4C
330
1E
100
AcDbEntity
  8
18
100
AcDb3dPolyline
 66
     1
 10
0.0
 20
0.0
 30
0.0
 70
    12
 75
     6
  0
VERTEX
  5
7F4D
330
7F4C
100
AcDbEntity
  8
18
100
AcDbVertex
100
AcDb3dPolylineVertex
 10
218.0000000000001
 20
100.0
 30
0.0
 70
    48
  0
VERTEX
  5
7F4E
330
7F4C
100
AcDbEntity
  8
18
100
AcDbVertex
100
AcDb3dPolylineVertex
 10
218.0000000000001
 20
100.0
 30
0.0
 70
    40
  0
VERTEX
  5
7F4F
330
7F4C
100
AcDbEntity
  8
18
100
AcDbVertex
100
AcDb3dPolylineVertex
 10
218.053792
 20
99.97583000000007
 30
0.0
 70
    40
  0
VERTEX
  5
7F50
330
7F4C
100
AcDbEntity
  8
18
100
AcDbVertex
100
AcDb3dPolylineVertex
 10
218.1072300000001
 20
99.95194000000005
 30
0.0
 70
    40
  0
VERTEX
  5
7F51
330
7F4C
100
AcDbEntity
  8
18
100
AcDbVertex
100
AcDb3dPolylineVertex
 10
218.159963
 20
99.92861300000004
 30
0.0
 70
    40
  0
VERTEX
  5
7F52
330
7F4C
100
AcDbEntity
  8
18
100
AcDbVertex
100
AcDb3dPolylineVertex
 10
218.2116350000001
 20
99.90613200000007
 30
0.0
 70
    40
  0
VERTEX
  5
7F53
330
7F4C
100
AcDbEntity
  8
18
100
AcDbVertex
100
AcDb3dPolylineVertex
 10
218.2618950000001
 20
99.88478000000007
 30
0.0
 70
    40
  0
VERTEX
  5
7F54
330
7F4C
100
AcDbEntity
  8
18
100
AcDbVertex
100
AcDb3dPolylineVertex
 10
218.3103870000001
 20
99.86484000000007
 30
0.0
 70
    40
  0
VERTEX
  5
7F55
330
7F4C
100
AcDbEntity
  8
18
100
AcDbVertex
100
AcDb3dPolylineVertex
 10
218.3567590000001
 20
99.84659499999999
 30
0.0
 70
    40
  0
VERTEX
  5
7F56
330
7F4C
100
AcDbEntity
  8
18
100
AcDbVertex
100
AcDb3dPolylineVertex
 10
218.4006560000002
 20
99.83032700000002
 30
0.0
 70
    40
  0
VERTEX
  5
7F57
330
7F4C
100
AcDbEntity
  8
18
100
AcDbVertex
100
AcDb3dPolylineVertex
 10
218.4418800000001
 20
99.8162470000001
 30
0.0
 70
    40
  0
VERTEX
  5
7F58
330
7F4C
100
AcDbEntity
  8
18
100
AcDbVertex
100
AcDb3dPolylineVertex
 10
218.4808440000001
 20
99.80426600000001
 30
0.0
 70
    40
  0
VERTEX
  5
7F59
330
7F4C
100
AcDbEntity
  8
18
100
AcDbVertex
100
AcDb3dPolylineVertex
 10
218.5181150000001
 20
99.79422699999998
 30
0.0
 70
    40
  0
VERTEX
  5
7F5A
330
7F4C
100
AcDbEntity
  8
18
100
AcDbVertex
100
AcDb3dPolylineVertex
 10
218.5542620000001
 20
99.78596700000004
 30
0.0
 70
    40
  0
VERTEX
  5
7F5B
330
7F4C
100
AcDbEntity
  8
18
100
AcDbVertex
100
AcDb3dPolylineVertex
 10
218.5898510000001
 20
99.77932699999996
 30
0.0
 70
    40
  0
VERTEX
  5
7F5C
330
7F4C
100
AcDbEntity
  8
18
100
AcDbVertex
100
AcDb3dPolylineVertex
 10
218.6254500000001
 20
99.77414800000008
 30
0.0
 70
    40
  0
VERTEX
  5
7F5D
330
7F4C
100
AcDbEntity
  8
18
100
AcDbVertex
100
AcDb3dPolylineVertex
 10
218.6616270000001
 20
99.770268
 30
0.0
 70
    40
  0
VERTEX
  5
7F5E
330
7F4C
100
AcDbEntity
  8
18
100
AcDbVertex
100
AcDb3dPolylineVertex
 10
218.6989490000002
 20
99.76752699999998
 30
0.0
 70
    40
  0
VERTEX
  5
7F5F
330
7F4C
100
AcDbEntity
  8
18
100
AcDbVertex
100
AcDb3dPolylineVertex
 10
218.7378310000001
 20
99.76579700000002
 30
0.0
 70
    40
  0
VERTEX
  5
7F60
330
7F4C
100
AcDbEntity
  8
18
100
AcDbVertex
100
AcDb3dPolylineVertex
 10
218.7780770000001
 20
99.76507200000003
 30
0.0
 70
    40
  0
VERTEX
  5
7F61
330
7F4C
100
AcDbEntity
  8
18
100
AcDbVertex
100
AcDb3dPolylineVertex
 10
218.8193380000001
 20
99.76537599999996
 30
0.0
 70
    40
  0
VERTEX
  5
7F62
330
7F4C
100
AcDbEntity
  8
18
100
AcDbVertex
100
AcDb3dPolylineVertex
 10
218.8612630000001
 20
99.76673599999992
 30
0.0
 70
    40
  0
VERTEX
  5
7F63
330
7F4C
100
AcDbEntity
  8
18
100
AcDbVertex
100
AcDb3dPolylineVertex
 10
218.9035050000001
 20
99.7691769999999
 30
0.0
 70
    40
  0
VERTEX
  5
7F64
330
7F4C
100
AcDbEntity
  8
18
100
AcDbVertex
100
AcDb3dPolylineVertex
 10
218.9457140000001
 20
99.77272300000004
 30
0.0
 70
    40
  0
VERTEX
  5
7F65
330
7F4C
100
AcDbEntity
  8
18
100
AcDbVertex
100
AcDb3dPolylineVertex
 10
218.9875400000001
 20
99.77739999999997
 30
0.0
 70
    40
  0
VERTEX
  5
7F66
330
7F4C
100
AcDbEntity
  8
18
100
AcDbVertex
100
AcDb3dPolylineVertex
 10
219.0286360000001
 20
99.783234
 30
0.0
 70
    40
  0
VERTEX
  5
7F67
330
7F4C
100
AcDbEntity
  8
18
100
AcDbVertex
100
AcDb3dPolylineVertex
 10
219.0687240000001
 20
99.79019299999992
 30
0.0
 70
    40
  0
VERTEX
  5
7F68
330
7F4C
100
AcDbEntity
  8
18
100
AcDbVertex
100
AcDb3dPolylineVertex
 10
219.1078250000002
 20
99.79802500000005
 30
0.0
 70
    40
  0
VERTEX
  5
7F69
330
7F4C
100
AcDbEntity
  8
18
100
AcDbVertex
100
AcDb3dPolylineVertex
 10
219.1460320000001
 20
99.80641999999987
 30
0.0
 70
    40
  0
VERTEX
  5
7F6A
330
7F4C
100
AcDbEntity
  8
18
100
AcDbVertex
100
AcDb3dPolylineVertex
 10
219.1834380000001
 20
99.81506999999986
 30
0.0
 70
    40
  0
VERTEX
  5
7F6B
330
7F4C
100
AcDbEntity
  8
18
100
AcDbVertex
100
AcDb3dPolylineVertex
 10
219.2201370000002
 20
99.82366500000001
 30
0.0
 70
    40
  0
VERTEX
  5
7F6C
330
7F4C
100
AcDbEntity
  8
18
100
AcDbVertex
100
AcDb3dPolylineVertex
 10
219.2562200000001
 20
99.83189499999992
 30
0.0
 70
    40
  0
VERTEX
  5
7F6D
330
7F4C
100
AcDbEntity
  8
18
100
AcDbVertex
100
AcDb3dPolylineVertex
 10
219.2917830000001
 20
99.83945299999994
 30
0.0
 70
    40
  0
VERTEX
  5
7F6E
330
7F4C
100
AcDbEntity
  8
18
100
AcDbVertex
100
AcDb3dPolylineVertex
 10
219.3269170000001
 20
99.84602899999993
 30
0.0
 70
    40
  0
VERTEX
  5
7F6F
330
7F4C
100
AcDbEntity
  8
18
100
AcDbVertex
100
AcDb3dPolylineVertex
 10
219.3617270000001
 20
99.85138200000006
 30
0.0
 70
    40
  0
VERTEX
  5
7F70
330
7F4C
100
AcDbEntity
  8
18
100
AcDbVertex
100
AcDb3dPolylineVertex
 10
219.3963630000001
 20
99.855552
 30
0.0
 70
    40
  0
VERTEX
  5
7F71
330
7F4C
100
AcDbEntity
  8
18
100
AcDbVertex
100
AcDb3dPolylineVertex
 10
219.4309860000001
 20
99.85864600000013
 30
0.0
 70
    40
  0
VERTEX
  5
7F72
330
7F4C
100
AcDbEntity
  8
18
100
AcDbVertex
100
AcDb3dPolylineVertex
 10
219.4657540000002
 20
99.86077100000013
 30
0.0
 70
    40
  0
VERTEX
  5
7F73
330
7F4C
100
AcDbEntity
  8
18
100
AcDbVertex
100
AcDb3dPolylineVertex
 10
219.5008300000001
 20
99.862035
 30
0.0
 70
    40
  0
VERTEX
  5
7F74
330
7F4C
100
AcDbEntity
  8
18
100
AcDbVertex
100
AcDb3dPolylineVertex
 10
219.5363730000001
 20
99.86254499999997
 30
0.0
 70
    40
  0
VERTEX
  5
7F75
330
7F4C
100
AcDbEntity
  8
18
100
AcDbVertex
100
AcDb3dPolylineVertex
 10
219.5725450000001
 20
99.86240899999996
 30
0.0
 70
    40
  0
VERTEX
  5
7F76
330
7F4C
100
AcDbEntity
  8
18
100
AcDbVertex
100
AcDb3dPolylineVertex
 10
219.6095050000001
 20
99.86173499999997
 30
0.0
 70
    40
  0
VERTEX
  5
7F77
330
7F4C
100
AcDbEntity
  8
18
100
AcDbVertex
100
AcDb3dPolylineVertex
 10
219.6473260000001
 20
99.86060700000008
 30
0.0
 70
    40
  0
VERTEX
  5
7F78
330
7F4C
100
AcDbEntity
  8
18
100
AcDbVertex
100
AcDb3dPolylineVertex
 10
219.685729
 20
99.859018
 30
0.0
 70
    40
  0
VERTEX
  5
7F79
330
7F4C
100
AcDbEntity
  8
18
100
AcDbVertex
100
AcDb3dPolylineVertex
 10
219.7243470000002
 20
99.85694100000001
 30
0.0
 70
    40
  0
VERTEX
  5
7F7A
330
7F4C
100
AcDbEntity
  8
18
100
AcDbVertex
100
AcDb3dPolylineVertex
 10
219.7628120000002
 20
99.85434499999996
 30
0.0
 70
    40
  0
VERTEX
  5
7F7B
330
7F4C
100
AcDbEntity
  8
18
100
AcDbVertex
100
AcDb3dPolylineVertex
 10
219.8007570000001
 20
99.85120099999996
 30
0.0
 70
    40
  0
VERTEX
  5
7F7C
330
7F4C
100
AcDbEntity
  8
18
100
AcDbVertex
100
AcDb3dPolylineVertex
 10
219.8378140000001
 20
99.84748100000002
 30
0.0
 70
    40
  0
VERTEX
  5
7F7D
330
7F4C
100
AcDbEntity
  8
18
100
AcDbVertex
100
AcDb3dPolylineVertex
 10
219.8736170000001
 20
99.84315600000002
 30
0.0
 70
    40
  0
VERTEX
  5
7F7E
330
7F4C
100
AcDbEntity
  8
18
100
AcDbVertex
100
AcDb3dPolylineVertex
 10
219.9077990000002
 20
99.83819600000003
 30
0.0
 70
    40
  0
VERTEX
  5
7F7F
330
7F4C
100
AcDbEntity
  8
18
100
AcDbVertex
100
AcDb3dPolylineVertex
 10
219.9401170000001
 20
99.83256300000006
 30
0.0
 70
    40
  0
VERTEX
  5
7F80
330
7F4C
100
AcDbEntity
  8
18
100
AcDbVertex
100
AcDb3dPolylineVertex
 10
219.9708340000001
 20
99.82618300000002
 30
0.0
 70
    40
  0
VERTEX
  5
7F81
330
7F4C
100
AcDbEntity
  8
18
100
AcDbVertex
100
AcDb3dPolylineVertex
 10
220.0003400000002
 20
99.81897200000005
 30
0.0
 70
    40
  0
VERTEX
  5
7F82
330
7F4C
100
AcDbEntity
  8
18
100
AcDbVertex
100
AcDb3dPolylineVertex
 10
220.0290220000002
 20
99.81084800000008
 30
0.0
 70
    40
  0
VERTEX
  5
7F83
330
7F4C
100
AcDbEntity
  8
18
100
AcDbVertex
100
AcDb3dPolylineVertex
 10
220.0572690000001
 20
99.80172699999993
 30
0.0
 70
    40
  0
VERTEX
  5
7F84
330
7F4C
100
AcDbEntity
  8
18
100
AcDbVertex
100
AcDb3dPolylineVertex
 10
220.0854690000001
 20
99.79152499999997
 30
0.0
 70
    40
  0
VERTEX
  5
7F85
330
7F4C
100
AcDbEntity
  8
18
100
AcDbVertex
100
AcDb3dPolylineVertex
 10
220.1140120000001
 20
99.78015999999993
 30
0.0
 70
    40
  0
VERTEX
  5
7F86
330
7F4C
100
AcDbEntity
  8
18
100
AcDbVertex
100
AcDb3dPolylineVertex
 10
220.1432850000001
 20
99.76754800000003
 30
0.0
 70
    40
  0
VERTEX
  5
7F87
330
7F4C
100
AcDbEntity
  8
18
100
AcDbVertex
100
AcDb3dPolylineVertex
 10
220.1736140000002
 20
99.75367899999993
 30
0.0
 70
    40
  0
VERTEX
  5
7F88
330
7F4C
100
AcDbEntity
  8
18
100
AcDbVertex
100
AcDb3dPolylineVertex
 10
220.2050720000001
 20
99.73884199999998
 30
0.0
 70
    40
  0
VERTEX
  5
7F89
330
7F4C
100
AcDbEntity
  8
18
100
AcDbVertex
100
AcDb3dPolylineVertex
 10
220.2376660000001
 20
99.72339999999995
 30
0.0
 70
    40
  0
VERTEX
  5
7F8A
330
7F4C
100
AcDbEntity
  8
18
100
AcDbVertex
100
AcDb3dPolylineVertex
 10
220.2714070000001
 20
99.70771400000003
 30
0.0
 70
    40
  0
VERTEX
  5
7F8B
330
7F4C
100
AcDbEntity
  8
18
100
AcDbVertex
100
AcDb3dPolylineVertex
 10
220.3063040000001
 20
99.69214700000009
 30
0.0
 70
    40
  0
VERTEX
  5
7F8C
330
7F4C
100
AcDbEntity
  8
18
100
AcDbVertex
100
AcDb3dPolylineVertex
 10
220.3423660000002
 20
99.677061
 30
0.0
 70
    40
  0
VERTEX
  5
7F8D
330
7F4C
100
AcDbEntity
  8
18
100
AcDbVertex
100
AcDb3dPolylineVertex
 10
220.3796010000001
 20
99.66281800000002
 30
0.0
 70
    40
  0
VERTEX
  5
7F8E
330
7F4C
100
AcDbEntity
  8
18
100
AcDbVertex
100
AcDb3dPolylineVertex
 10
220.4180200000002
 20
99.64978000000009
 30
0.0
 70
    40
  0
VERTEX
  5
7F8F
330
7F4C
100
AcDbEntity
  8
18
100
AcDbVertex
100
AcDb3dPolylineVertex
 10
220.4576340000001
 20
99.63826799999992
 30
0.0
 70
    40
  0
VERTEX
  5
7F90
330
7F4C
100
AcDbEntity
  8
18
100
AcDbVertex
100
AcDb3dPolylineVertex
 10
220.4984760000001
 20
99.62843100000007
 30
0.0
 70
    40
  0
VERTEX
  5
7F91
330
7F4C
100
AcDbEntity
  8
18
100
AcDbVertex
100
AcDb3dPolylineVertex
 10
220.5405800000001
 20
99.62037399999999
 30
0.0
 70
    40
  0
VERTEX
  5
7F92
330
7F4C
100
AcDbEntity
  8
18
100
AcDbVertex
100
AcDb3dPolylineVertex
 10
220.5839810000001
 20
99.61420600000009
 30
0.0
 70
    40
  0
VERTEX
  5
7F93
330
7F4C
100
AcDbEntity
  8
18
100
AcDbVertex
100
AcDb3dPolylineVertex
 10
220.6287140000001
 20
99.61003300000005
 30
0.0
 70
    40
  0
VERTEX
  5
7F94
330
7F4C
100
AcDbEntity
  8
18
100
AcDbVertex
100
AcDb3dPolylineVertex
 10
220.6748130000001
 20
99.60796099999996
 30
0.0
 70
    40
  0
VERTEX
  5
7F95
330
7F4C
100
AcDbEntity
  8
18
100
AcDbVertex
100
AcDb3dPolylineVertex
 10
220.7223150000001
 20
99.60809800000005
 30
0.0
 70
    40
  0
VERTEX
  5
7F96
330
7F4C
100
AcDbEntity
  8
18
100
AcDbVertex
100
AcDb3dPolylineVertex
 10
220.7712530000001
 20
99.61055000000001
 30
0.0
 70
    40
  0
VERTEX
  5
7F97
330
7F4C
100
AcDbEntity
  8
18
100
AcDbVertex
100
AcDb3dPolylineVertex
 10
220.821626
 20
99.61535500000003
 30
0.0
 70
    40
  0
VERTEX
  5
7F98
330
7F4C
100
AcDbEntity
  8
18
100
AcDbVertex
100
AcDb3dPolylineVertex
 10
220.8732880000001
 20
99.62227899999994
 30
0.0
 70
    40
  0
VERTEX
  5
7F99
330
7F4C
100
AcDbEntity
  8
18
100
AcDbVertex
100
AcDb3dPolylineVertex
 10
220.926053
 20
99.63101899999992
 30
0.0
 70
    40
  0
VERTEX
  5
7F9A
330
7F4C
100
AcDbEntity
  8
18
100
AcDbVertex
100
AcDb3dPolylineVertex
 10
220.9797380000001
 20
99.64127200000007
 30
0.0
 70
    40
  0
VERTEX
  5
7F9B
330
7F4C
100
AcDbEntity
  8
18
100
AcDbVertex
100
AcDb3dPolylineVertex
 10
221.0341590000002
 20
99.65273299999999
 30
0.0
 70
    40
  0
VERTEX
  5
7F9C
330
7F4C
100
AcDbEntity
  8
18
100
AcDbVertex
100
AcDb3dPolylineVertex
 10
221.0891320000001
 20
99.66510199999994
 30
0.0
 70
    40
  0
VERTEX
  5
7F9D
330
7F4C
100
AcDbEntity
  8
18
100
AcDbVertex
100
AcDb3dPolylineVertex
 10
221.1444720000001
 20
99.67807300000004
 30
0.0
 70
    40
  0
VERTEX
  5
7F9E
330
7F4C
100
AcDbEntity
  8
18
100
AcDbVertex
100
AcDb3dPolylineVertex
 10
221.1999970000002
 20
99.69134499999995
 30
0.0
 70
    40
  0
VERTEX
  5
7F9F
330
7F4C
100
AcDbEntity
  8
18
100
AcDbVertex
100
AcDb3dPolylineVertex
 10
218.1436000000001
 20
99.935425
 30
0.0
 70
    48
  0
VERTEX
  5
7FA0
330
7F4C
100
AcDbEntity
  8
18
100
AcDbVertex
100
AcDb3dPolylineVertex
 10
218.430817
 20
99.80621300000008
 30
0.0
 70
    48
  0
VERTEX
  5
7FA1
330
7F4C
100
AcDbEntity
  8
18
100
AcDbVertex
100
AcDb3dPolylineVertex
 10
218.6806790000002
 20
99.75708000000008
 30
0.0
 70
    48
  0
VERTEX
  5
7FA2
330
7F4C
100
AcDbEntity
  8
18
100
AcDbVertex
100
AcDb3dPolylineVertex
 10
219.0401610000001
 20
99.7706300000001
 30
0.0
 70
    48
  0
VERTEX
  5
7FA3
330
7F4C
100
AcDbEntity
  8
18
100
AcDbVertex
100
AcDb3dPolylineVertex
 10
219.3304900000002
 20
99.85980199999994
 30
0.0
 70
    48
  0
VERTEX
  5
7FA4
330
7F4C
100
AcDbEntity
  8
18
100
AcDbVertex
100
AcDb3dPolylineVertex
 10
219.5993800000001
 20
99.86633300000006
 30
0.0
 70
    48
  0
VERTEX
  5
7FA5
330
7F4C
100
AcDbEntity
  8
18
100
AcDbVertex
100
AcDb3dPolylineVertex
 10
219.9290160000002
 20
99.84527599999999
 30
0.0
 70
    48
  0
VERTEX
  5
7FA6
330
7F4C
100
AcDbEntity
  8
18
100
AcDbVertex
100
AcDb3dPolylineVertex
 10
220.1313480000001
 20
99.78173800000014
 30
0.0
 70
    48
  0
VERTEX
  5
7FA7
330
7F4C
100
AcDbEntity
  8
18
100
AcDbVertex
100
AcDb3dPolylineVertex
 10
220.4053040000001
 20
99.63305699999999
 30
0.0
 70
    48
  0
VERTEX
  5
7FA8
330
7F4C
100
AcDbEntity
  8
18
100
AcDbVertex
100
AcDb3dPolylineVertex
 10
220.7555540000002
 20
99.58471699999996
 30
0.0
 70
    48
  0
VERTEX
  5
7FA9
330
7F4C
100
AcDbEntity
  8
18
100
AcDbVertex
100
AcDb3dPolylineVertex
 10
221.0518490000002
 20
99.65582300000006
 30
0.0
 70
    48
  0
VERTEX
  5
7FAA
330
7F4C
100
AcDbEntity
  8
18
100
AcDbVertex
100
AcDb3dPolylineVertex
 10
221.1999970000002
 20
99.69134499999995
 30
0.0
 70
    48
  0
SEQEND
  5
7FAB
330
7F4C
100
AcDbEntity
  8
18
  0
POLYLINE
  5
7FAC
330
1E
100
AcDbEntity
  8
18
100
AcDb3dPolyline
 66
     1
 10
0.0
 20
0.0
 30
0.0
 70
    12
 75
     6
  0
VERTEX
  5
7FAD
330
7FAC
100
AcDbEntity
  8
18
100
AcDbVertex
100
AcDb3dPolylineVertex
 10
218.0000000000001
 20
-100.0
 30
0.0
 70
    48
  0
VERTEX
  5
7FAE
330
7FAC
100
AcDbEntity
  8
18
100
AcDbVertex
100
AcDb3dPolylineVertex
 10
218.0000000000001
 20
-100.0
 30
0.0
 70
    40
  0
VERTEX
  5
7FAF
330
7FAC
100
AcDbEntity
  8
18
100
AcDbVertex
100
AcDb3dPolylineVertex
 10
218.053792
 20
-100.02417
 30
0.0
 70
    40
  0
VERTEX
  5
7FB0
330
7FAC
100
AcDbEntity
  8
18
100
AcDbVertex
100
AcDb3dPolylineVertex
 10
218.1072300000001
 20
-100.0480599999999
 30
0.0
 70
    40
  0
VERTEX
  5
7FB1
330
7FAC
100
AcDbEntity
  8
18
100
AcDbVertex
100
AcDb3dPolylineVertex
 10
218.159963
 20
-100.0713869999999
 30
0.0
 70
    40
  0
VERTEX
  5
7FB2
330
7FAC
100
AcDbEntity
  8
18
100
AcDbVertex
100
AcDb3dPolylineVertex
 10
218.2116350000001
 20
-100.0938679999999
 30
0.0
 70
    40
  0
VERTEX
  5
7FB3
330
7FAC
100
AcDbEntity
  8
18
100
AcDbVertex
100
AcDb3dPolylineVertex
 10
218.2618950000001
 20
-100.11522
 30
0.0
 70
    40
  0
VERTEX
  5
7FB4
330
7FAC
100
AcDbEntity
  8
18
100
AcDbVertex
100
AcDb3dPolylineVertex
 10
218.3103870000001
 20
-100.1351599999999
 30
0.0
 70
    40
  0
VERTEX
  5
7FB5
330
7FAC
100
AcDbEntity
  8
18
100
AcDbVertex
100
AcDb3dPolylineVertex
 10
218.3567590000001
 20
-100.153405
 30
0.0
 70
    40
  0
VERTEX
  5
7FB6
330
7FAC
100
AcDbEntity
  8
18
100
AcDbVertex
100
AcDb3dPolylineVertex
 10
218.4006560000002
 20
-100.169673
 30
0.0
 70
    40
  0
VERTEX
  5
7FB7
330
7FAC
100
AcDbEntity
  8
18
100
AcDbVertex
100
AcDb3dPolylineVertex
 10
218.4418800000001
 20
-100.183753
 30
0.0
 70
    40
  0
VERTEX
  5
7FB8
330
7FAC
100
AcDbEntity
  8
18
100
AcDbVertex
100
AcDb3dPolylineVertex
 10
218.4808440000001
 20
-100.195734
 30
0.0
 70
    40
  0
VERTEX
  5
7FB9
330
7FAC
100
AcDbEntity
  8
18
100
AcDbVertex
100
AcDb3dPolylineVertex
 10
218.5181150000001
 20
-100.205773
 30
0.0
 70
    40
  0
VERTEX
  5
7FBA
330
7FAC
100
AcDbEntity
  8
18
100
AcDbVertex
100
AcDb3dPolylineVertex
 10
218.5542620000001
 20
-100.214033
 30
0.0
 70
    40
  0
VERTEX
  5
7FBB
330
7FAC
100
AcDbEntity
  8
18
100
AcDbVertex
100
AcDb3dPolylineVertex
 10
218.5898510000001
 20
-100.220673
 30
0.0
 70
    40
  0
VERTEX
  5
7FBC
330
7FAC
100
AcDbEntity
  8
18
100
AcDbVertex
100
AcDb3dPolylineVertex
 10
218.6254500000001
 20
-100.2258519999999
 30
0.0
 70
    40
  0
VERTEX
  5
7FBD
330
7FAC
100
AcDbEntity
  8
18
100
AcDbVertex
100
AcDb3dPolylineVertex
 10
218.6616270000001
 20
-100.229732
 30
0.0
 70
    40
  0
VERTEX
  5
7FBE
330
7FAC
100
AcDbEntity
  8
18
100
AcDbVertex
100
AcDb3dPolylineVertex
 10
218.6989490000002
 20
-100.232473
 30
0.0
 70
    40
  0
VERTEX
  5
7FBF
330
7FAC
100
AcDbEntity
  8
18
100
AcDbVertex
100
AcDb3dPolylineVertex
 10
218.7378310000001
 20
-100.234203
 30
0.0
 70
    40
  0
VERTEX
  5
7FC0
330
7FAC
100
AcDbEntity
  8
18
100
AcDbVertex
100
AcDb3dPolylineVertex
 10
218.7780770000001
 20
-100.2349280000001
 30
0.0
 70
    40
  0
VERTEX
  5
7FC1
330
7FAC
100
AcDbEntity
  8
18
100
AcDbVertex
100
AcDb3dPolylineVertex
 10
218.8193380000001
 20
-100.234624
 30
0.0
 70
    40
  0
VERTEX
  5
7FC2
330
7FAC
100
AcDbEntity
  8
18
100
AcDbVertex
100
AcDb3dPolylineVertex
 10
218.8612630000001
 20
-100.2332639999999
 30
0.0
 70
    40
  0
VERTEX
  5
7FC3
330
7FAC
100
AcDbEntity
  8
18
100
AcDbVertex
100
AcDb3dPolylineVertex
 10
218.9035050000001
 20
-100.2308230000001
 30
0.0
 70
    40
  0
VERTEX
  5
7FC4
330
7FAC
100
AcDbEntity
  8
18
100
AcDbVertex
100
AcDb3dPolylineVertex
 10
218.9457140000001
 20
-100.2272769999999
 30
0.0
 70
    40
  0
VERTEX
  5
7FC5
330
7FAC
100
AcDbEntity
  8
18
100
AcDbVertex
100
AcDb3dPolylineVertex
 10
218.9875400000001
 20
-100.2226
 30
0.0
 70
    40
  0
VERTEX
  5
7FC6
330
7FAC
100
AcDbEntity
  8
18
100
AcDbVertex
100
AcDb3dPolylineVertex
 10
219.0286360000001
 20
-100.216766
 30
0.0
 70
    40
  0
VERTEX
  5
7FC7
330
7FAC
100
AcDbEntity
  8
18
100
AcDbVertex
100
AcDb3dPolylineVertex
 10
219.0687240000001
 20
-100.209807
 30
0.0
 70
    40
  0
VERTEX
  5
7FC8
330
7FAC
100
AcDbEntity
  8
18
100
AcDbVertex
100
AcDb3dPolylineVertex
 10
219.1078250000002
 20
-100.2019749999999
 30
0.0
 70
    40
  0
VERTEX
  5
7FC9
330
7FAC
100
AcDbEntity
  8
18
100
AcDbVertex
100
AcDb3dPolylineVertex
 10
219.1460320000001
 20
-100.19358
 30
0.0
 70
    40
  0
VERTEX
  5
7FCA
330
7FAC
100
AcDbEntity
  8
18
100
AcDbVertex
100
AcDb3dPolylineVertex
 10
219.1834380000001
 20
-100.18493
 30
0.0
 70
    40
  0
VERTEX
  5
7FCB
330
7FAC
100
AcDbEntity
  8
18
100
AcDbVertex
100
AcDb3dPolylineVertex
 10
219.2201370000002
 20
-100.176335
 30
0.0
 70
    40
  0
VERTEX
  5
7FCC
330
7FAC
100
AcDbEntity
  8
18
100
AcDbVertex
100
AcDb3dPolylineVertex
 10
219.2562200000001
 20
-100.1681049999999
 30
0.0
 70
    40
  0
VERTEX
  5
7FCD
330
7FAC
100
AcDbEntity
  8
18
100
AcDbVertex
100
AcDb3dPolylineVertex
 10
219.2917830000001
 20
-100.1605469999999
 30
0.0
 70
    40
  0
VERTEX
  5
7FCE
330
7FAC
100
AcDbEntity
  8
18
100
AcDbVertex
100
AcDb3dPolylineVertex
 10
219.3269170000001
 20
-100.1539709999999
 30
0.0
 70
    40
  0
VERTEX
  5
7FCF
330
7FAC
100
AcDbEntity
  8
18
100
AcDbVertex
100
AcDb3dPolylineVertex
 10
219.3617270000001
 20
-100.1486179999999
 30
0.0
 70
    40
  0
VERTEX
  5
7FD0
330
7FAC
100
AcDbEntity
  8
18
100
AcDbVertex
100
AcDb3dPolylineVertex
 10
219.3963630000001
 20
-100.144448
 30
0.0
 70
    40
  0
VERTEX
  5
7FD1
330
7FAC
100
AcDbEntity
  8
18
100
AcDbVertex
100
AcDb3dPolylineVertex
 10
219.4309860000001
 20
-100.1413539999999
 30
0.0
 70
    40
  0
VERTEX
  5
7FD2
330
7FAC
100
AcDbEntity
  8
18
100
AcDbVertex
100
AcDb3dPolylineVertex
 10
219.4657540000002
 20
-100.139229
 30
0.0
 70
    40
  0
VERTEX
  5
7FD3
330
7FAC
100
AcDbEntity
  8
18
100
AcDbVertex
100
AcDb3dPolylineVertex
 10
219.5008300000001
 20
-100.137965
 30
0.0
 70
    40
  0
VERTEX
  5
7FD4
330
7FAC
100
AcDbEntity
  8
18
100
AcDbVertex
100
AcDb3dPolylineVertex
 10
219.5363730000001
 20
-100.1374549999999
 30
0.0
 70
    40
  0
VERTEX
  5
7FD5
330
7FAC
100
AcDbEntity
  8
18
100
AcDbVertex
100
AcDb3dPolylineVertex
 10
219.5725450000001
 20
-100.137591
 30
0.0
 70
    40
  0
VERTEX
  5
7FD6
330
7FAC
100
AcDbEntity
  8
18
100
AcDbVertex
100
AcDb3dPolylineVertex
 10
219.6095050000001
 20
-100.138265
 30
0.0
 70
    40
  0
VERTEX
  5
7FD7
330
7FAC
100
AcDbEntity
  8
18
100
AcDbVertex
100
AcDb3dPolylineVertex
 10
219.6473260000001
 20
-100.1393929999999
 30
0.0
 70
    40
  0
VERTEX
  5
7FD8
330
7FAC
100
AcDbEntity
  8
18
100
AcDbVertex
100
AcDb3dPolylineVertex
 10
219.685729
 20
-100.140982
 30
0.0
 70
    40
  0
VERTEX
  5
7FD9
330
7FAC
100
AcDbEntity
  8
18
100
AcDbVertex
100
AcDb3dPolylineVertex
 10
219.7243470000002
 20
-100.143059
 30
0.0
 70
    40
  0
VERTEX
  5
7FDA
330
7FAC
100
AcDbEntity
  8
18
100
AcDbVertex
100
AcDb3dPolylineVertex
 10
219.7628120000002
 20
-100.145655
 30
0.0
 70
    40
  0
VERTEX
  5
7FDB
330
7FAC
100
AcDbEntity
  8
18
100
AcDbVertex
100
AcDb3dPolylineVertex
 10
219.8007570000001
 20
-100.148799
 30
0.0
 70
    40
  0
VERTEX
  5
7FDC
330
7FAC
100
AcDbEntity
  8
18
100
AcDbVertex
100
AcDb3dPolylineVertex
 10
219.8378140000001
 20
-100.1525190000001
 30
0.0
 70
    40
  0
VERTEX
  5
7FDD
330
7FAC
100
AcDbEntity
  8
18
100
AcDbVertex
100
AcDb3dPolylineVertex
 10
219.8736170000001
 20
-100.1568440000001
 30
0.0
 70
    40
  0
VERTEX
  5
7FDE
330
7FAC
100
AcDbEntity
  8
18
100
AcDbVertex
100
AcDb3dPolylineVertex
 10
219.9077990000002
 20
-100.1618039999999
 30
0.0
 70
    40
  0
VERTEX
  5
7FDF
330
7FAC
100
AcDbEntity
  8
18
100
AcDbVertex
100
AcDb3dPolylineVertex
 10
219.9401170000001
 20
-100.167437
 30
0.0
 70
    40
  0
VERTEX
  5
7FE0
330
7FAC
100
AcDbEntity
  8
18
100
AcDbVertex
100
AcDb3dPolylineVertex
 10
219.9708340000001
 20
-100.173817
 30
0.0
 70
    40
  0
VERTEX
  5
7FE1
330
7FAC
100
AcDbEntity
  8
18
100
AcDbVertex
100
AcDb3dPolylineVertex
 10
220.0003400000002
 20
-100.1810279999999
 30
0.0
 70
    40
  0
VERTEX
  5
7FE2
330
7FAC
100
AcDbEntity
  8
18
100
AcDbVertex
100
AcDb3dPolylineVertex
 10
220.0290220000002
 20
-100.1891519999999
 30
0.0
 70
    40
  0
VERTEX
  5
7FE3
330
7FAC
100
AcDbEntity
  8
18
100
AcDbVertex
100
AcDb3dPolylineVertex
 10
220.0572690000001
 20
-100.1982730000001
 30
0.0
 70
    40
  0
VERTEX
  5
7FE4
330
7FAC
100
AcDbEntity
  8
18
100
AcDbVertex
100
AcDb3dPolylineVertex
 10
220.0854690000001
 20
-100.208475
 30
0.0
 70
    40
  0
VERTEX
  5
7FE5
330
7FAC
100
AcDbEntity
  8
18
100
AcDbVertex
100
AcDb3dPolylineVertex
 10
220.1140120000001
 20
-100.2198400000001
 30
0.0
 70
    40
  0
VERTEX
  5
7FE6
330
7FAC
100
AcDbEntity
  8
18
100
AcDbVertex
100
AcDb3dPolylineVertex
 10
220.1432850000001
 20
-100.2324519999999
 30
0.0
 70
    40
  0
VERTEX
  5
7FE7
330
7FAC
100
AcDbEntity
  8
18
100
AcDbVertex
100
AcDb3dPolylineVertex
 10
220.1736140000002
 20
-100.2463209999999
 30
0.0
 70
    40
  0
VERTEX
  5
7FE8
330
7FAC
100
AcDbEntity
  8
18
100
AcDbVertex
100
AcDb3dPolylineVertex
 10
220.2050720000001
 20
-100.261158
 30
0.0
 70
    40
  0
VERTEX
  5
7FE9
330
7FAC
100
AcDbEntity
  8
18
100
AcDbVertex
100
AcDb3dPolylineVertex
 10
220.2376660000001
 20
-100.2766
 30
0.0
 70
    40
  0
VERTEX
  5
7FEA
330
7FAC
100
AcDbEntity
  8
18
100
AcDbVertex
100
AcDb3dPolylineVertex
 10
220.2714070000001
 20
-100.292286
 30
0.0
 70
    40
  0
VERTEX
  5
7FEB
330
7FAC
100
AcDbEntity
  8
18
100
AcDbVertex
100
AcDb3dPolylineVertex
 10
220.3063040000001
 20
-100.307853
 30
0.0
 70
    40
  0
VERTEX
  5
7FEC
330
7FAC
100
AcDbEntity
  8
18
100
AcDbVertex
100
AcDb3dPolylineVertex
 10
220.3423660000002
 20
-100.322939
 30
0.0
 70
    40
  0
VERTEX
  5
7FED
330
7FAC
100
AcDbEntity
  8
18
100
AcDbVertex
100
AcDb3dPolylineVertex
 10
220.3796010000001
 20
-100.337182
 30
0.0
 70
    40
  0
VERTEX
  5
7FEE
330
7FAC
100
AcDbEntity
  8
18
100
AcDbVertex
100
AcDb3dPolylineVertex
 10
220.4180200000002
 20
-100.35022
 30
0.0
 70
    40
  0
VERTEX
  5
7FEF
330
7FAC
100
AcDbEntity
  8
18
100
AcDbVertex
100
AcDb3dPolylineVertex
 10
220.4576340000001
 20
-100.361732
 30
0.0
 70
    40
  0
VERTEX
  5
7FF0
330
7FAC
100
AcDbEntity
  8
18
100
AcDbVertex
100
AcDb3dPolylineVertex
 10
220.4984760000001
 20
-100.371569
 30
0.0
 70
    40
  0
VERTEX
  5
7FF1
330
7FAC
100
AcDbEntity
  8
18
100
AcDbVertex
100
AcDb3dPolylineVertex
 10
220.5405800000001
 20
-100.379626
 30
0.0
 70
    40
  0
VERTEX
  5
7FF2
330
7FAC
100
AcDbEntity
  8
18
100
AcDbVertex
100
AcDb3dPolylineVertex
 10
220.5839810000001
 20
-100.385794
 30
0.0
 70
    40
  0
VERTEX
  5
7FF3
330
7FAC
100
AcDbEntity
  8
18
100
AcDbVertex
100
AcDb3dPolylineVertex
 10
220.6287140000001
 20
-100.3899669999999
 30
0.0
 70
    40
  0
VERTEX
  5
7FF4
330
7FAC
100
AcDbEntity
  8
18
100
AcDbVertex
100
AcDb3dPolylineVertex
 10
220.6748130000001
 20
-100.3920389999999
 30
0.0
 70
    40
  0
VERTEX
  5
7FF5
330
7FAC
100
AcDbEntity
  8
18
100
AcDbVertex
100
AcDb3dPolylineVertex
 10
220.7223150000001
 20
-100.3919019999999
 30
0.0
 70
    40
  0
VERTEX
  5
7FF6
330
7FAC
100
AcDbEntity
  8
18
100
AcDbVertex
100
AcDb3dPolylineVertex
 10
220.7712530000001
 20
-100.38945
 30
0.0
 70
    40
  0
VERTEX
  5
7FF7
330
7FAC
100
AcDbEntity
  8
18
100
AcDbVertex
100
AcDb3dPolylineVertex
 10
220.821626
 20
-100.3846449999999
 30
0.0
 70
    40
  0
VERTEX
  5
7FF8
330
7FAC
100
AcDbEntity
  8
18
100
AcDbVertex
100
AcDb3dPolylineVertex
 10
220.8732880000001
 20
-100.3777209999999
 30
0.0
 70
    40
  0
VERTEX
  5
7FF9
330
7FAC
100
AcDbEntity
  8
18
100
AcDbVertex
100
AcDb3dPolylineVertex
 10
220.926053
 20
-100.3689809999999
 30
0.0
 70
    40
  0
VERTEX
  5
7FFA
330
7FAC
100
AcDbEntity
  8
18
100
AcDbVertex
100
AcDb3dPolylineVertex
 10
220.9797380000001
 20
-100.358728
 30
0.0
 70
    40
  0
VERTEX
  5
7FFB
330
7FAC
100
AcDbEntity
  8
18
100
AcDbVertex
100
AcDb3dPolylineVertex
 10
221.0341590000002
 20
-100.347267
 30
0.0
 70
    40
  0
VERTEX
  5
7FFC
330
7FAC
100
AcDbEntity
  8
18
100
AcDbVertex
100
AcDb3dPolylineVertex
 10
221.0891320000001
 20
-100.334898
 30
0.0
 70
    40
  0
VERTEX
  5
7FFD
330
7FAC
100
AcDbEntity
  8
18
100
AcDbVertex
100
AcDb3dPolylineVertex
 10
221.1444720000001
 20
-100.3219269999999
 30
0.0
 70
    40
  0
VERTEX
  5
7FFE
330
7FAC
100
AcDbEntity
  8
18
100
AcDbVertex
100
AcDb3dPolylineVertex
 10
221.1999970000002
 20
-100.3086549999999
 30
0.0
 70
    40
  0
VERTEX
  5
7FFF
330
7FAC
100
AcDbEntity
  8
18
100
AcDbVertex
100
AcDb3dPolylineVertex
 10
218.1436000000001
 20
-100.064575
 30
0.0
 70
    48
  0
VERTEX
  5
8000
330
7FAC
100
AcDbEntity
  8
18
100
AcDbVertex
100
AcDb3dPolylineVertex
 10
218.430817
 20
-100.193787
 30
0.0
 70
    48
  0
VERTEX
  5
8001
330
7FAC
100
AcDbEntity
  8
18
100
AcDbVertex
100
AcDb3dPolylineVertex
 10
218.6806790000002
 20
-100.24292
 30
0.0
 70
    48
  0
VERTEX
  5
8002
330
7FAC
100
AcDbEntity
  8
18
100
AcDbVertex
100
AcDb3dPolylineVertex
 10
219.0401610000001
 20
-100.22937
 30
0.0
 70
    48
  0
VERTEX
  5
8003
330
7FAC
100
AcDbEntity
  8
18
100
AcDbVertex
100
AcDb3dPolylineVertex
 10
219.3304900000002
 20
-100.140198
 30
0.0
 70
    48
  0
VERTEX
  5
8004
330
7FAC
100
AcDbEntity
  8
18
100
AcDbVertex
100
AcDb3dPolylineVertex
 10
219.5993800000001
 20
-100.1336669999999
 30
0.0
 70
    48
  0
VERTEX
  5
8005
330
7FAC
100
AcDbEntity
  8
18
100
AcDbVertex
100
AcDb3dPolylineVertex
 10
219.9290160000002
 20
-100.154724
 30
0.0
 70
    48
  0
VERTEX
  5
8006
330
7FAC
100
AcDbEntity
  8
18
100
AcDbVertex
100
AcDb3dPolylineVertex
 10
220.1313480000001
 20
-100.218262
 30
0.0
 70
    48
  0
VERTEX
  5
8007
330
7FAC
100
AcDbEntity
  8
18
100
AcDbVertex
100
AcDb3dPolylineVertex
 10
220.4053040000001
 20
-100.366943
 30
0.0
 70
    48
  0
VERTEX
  5
8008
330
7FAC
100
AcDbEntity
  8
18
100
AcDbVertex
100
AcDb3dPolylineVertex
 10
220.7555540000002
 20
-100.415283
 30
0.0
 70
    48
  0
VERTEX
  5
8009
330
7FAC
100
AcDbEntity
  8
18
100
AcDbVertex
100
AcDb3dPolylineVertex
 10
221.0518490000002
 20
-100.3441769999999
 30
0.0
 70
    48
  0
VERTEX
  5
800A
330
7FAC
100
AcDbEntity
  8
18
100
AcDbVertex
100
AcDb3dPolylineVertex
 10
221.1999970000002
 20
-100.3086549999999
 30
0.0
 70
    48
  0
SEQEND
  5
800B
330
7FAC
100
AcDbEntity
  8
18
  0
DIMENSION
  5
800C
330
1E
100
AcDbEntity
  8
30
100
AcDbDimension
  2
*D24
 10
300.0
 20
-55.5
 30
0.0
 11
300.0
 21
-1.72549100000003
 31
0.0
 70
   160
  1
111
 71
     5
 42
111.0
  3
STANDARD
100
AcDbAlignedDimension
 13
293.8
 23
55.5
 33
0.0
 14
293.8
 24
-55.5
 34
0.0
 50
90.0
100
AcDbRotatedDimension
  0
LWPOLYLINE
  5
803B
330
1E
100
AcDbEntity
  8
L225_
  6
Continuous
 62
     3
100
AcDbPolyline
 90
        2
 70
     0
 43
0.001
 10
-12.5
 20
-180.0
 10
-12.5
 20
-209.0
  0
LWPOLYLINE
  5
803C
330
1E
100
AcDbEntity
  8
22
100
AcDbPolyline
 90
        2
 70
     1
 43
0.001
 10
1.621000000000089
 20
-194.5
 42
1.0
 10
-1.621000000000089
 20
-194.5
 42
1.0
  0
LWPOLYLINE
  5
803D
330
1E
100
AcDbEntity
  8
22
100
AcDbPolyline
 90
        2
 70
     1
 43
0.001
 10
1.621000000000089
 20
-305.5
 42
1.0
 10
-1.621000000000089
 20
-305.5
 42
1.0
  0
LWPOLYLINE
  5
803E
330
1E
100
AcDbEntity
  8
22
100
AcDbPolyline
 90
        2
 70
     1
 43
0.001
 10
2.0
 20
-194.5
 42
1.0
 10
-2.0
 20
-194.5
 42
1.0
  0
LWPOLYLINE
  5
803F
330
1E
100
AcDbEntity
  8
L225_
  6
Continuous
 62
     3
100
AcDbPolyline
 90
        2
 70
     0
 43
0.001
 10
12.5
 20
-180.0
 10
12.5
 20
-209.0
  0
LWPOLYLINE
  5
8040
330
1E
100
AcDbEntity
  8
22
100
AcDbPolyline
 90
        2
 70
     1
 43
0.001
 10
2.0
 20
-305.5
 42
1.0
 10
-2.0
 20
-305.5
 42
1.0
  0
LWPOLYLINE
  5
8041
330
1E
100
AcDbEntity
  8
22
100
AcDbPolyline
 90
        2
 70
     1
 43
0.001
 10
19.5
 20
-194.499999
 42
1.0
 10
5.5
 20
-194.500001
 42
1.0
  0
LWPOLYLINE
  5
8042
330
1E
100
AcDbEntity
  8
22
100
AcDbPolyline
 90
        2
 70
     1
 43
0.001
 10
-5.5
 20
-194.499999
 42
1.0
 10
-19.5
 20
-194.500001
 42
1.0
  0
LWPOLYLINE
  5
8043
330
1E
100
AcDbEntity
  8
22
100
AcDbPolyline
 90
        2
 70
     1
 43
0.001
 10
19.5
 20
-305.499999
 42
1.0
 10
5.5
 20
-305.500001
 42
1.0
  0
LWPOLYLINE
  5
8044
330
1E
100
AcDbEntity
  8
22
100
AcDbPolyline
 90
        2
 70
     1
 43
0.001
 10
-5.5
 20
-305.499999
 42
1.0
 10
-19.5
 20
-305.500001
 42
1.0
  0
LWPOLYLINE
  5
8045
330
1E
100
AcDbEntity
  8
L225_
  6
Continuous
 62
     3
100
AcDbPolyline
 90
        2
 70
     0
 43
0.001
 10
27.0
 20
-194.5
 10
-27.0
 20
-194.5
  0
LEADER
  5
8047
330
1E
100
AcDbEntity
  8
30
100
AcDbLeader
  3
STANDARD
 76
     3
 10
-16.83150370606609
 20
-313.3887041697705
 30
0.0
 10
-22.27947116306042
 20
-324.6703174697388
 30
0.0
 10
-41.94530045930423
 20
-324.6703174697388
 30
0.0
1001
ACAD
1000
DSTYLE
1002
{
1070
     5
1000
OPEN
1070
    77
1070
     0
1070
    79
1070
     3
1070
   147
1040
1.0
1002
}
  0
TEXT
  5
8048
330
1E
100
AcDbEntity
  8
30
100
AcDbText
 10
-37.69322641465169
 20
-323.6085183023666
 30
0.0
 40
5.0
  1
%%C14
  7
STANDARD1
100
AcDbText
  0
LWPOLYLINE
  5
8049
330
1E
100
AcDbEntity
  8
L225_
  6
Continuous
 62
     3
100
AcDbPolyline
 90
        2
 70
     0
 43
0.001
 10
-12.5
 20
-320.0
 10
-12.5
 20
-291.0
  0
LWPOLYLINE
  5
804A
330
1E
100
AcDbEntity
  8
L225_
  6
Continuous
 62
     3
100
AcDbPolyline
 90
        2
 70
     0
 43
0.001
 10
12.5
 20
-320.0
 10
12.5
 20
-291.0
  0
LWPOLYLINE
  5
804B
330
1E
100
AcDbEntity
  8
L225_
  6
Continuous
 62
     3
100
AcDbPolyline
 90
        2
 70
     0
 43
0.001
 10
27.0
 20
-305.5
 10
-27.0
 20
-305.5
  0
DIMENSION
  5
8060
330
1E
100
AcDbEntity
  8
30
100
AcDbDimension
  2
*D25
 10
12.5
 20
-340.0
 30
0.0
 11
-0.0000000000000016
 21
-337.0
 31
0.0
 70
    32
 71
     5
 42
25.0
  3
STANDARD
100
AcDbAlignedDimension
 13
-12.5
 23
-320.0
 33
0.0
 14
12.5
 24
-317.5
 34
0.0
100
AcDbRotatedDimension
1001
ACAD
1000
DSTYLE
1002
{
1070
   287
1070
     4
1070
   279
1070
     1
1070
    79
1070
     3
1002
}
  0
LWPOLYLINE
  5
808D
330
1E
100
AcDbEntity
  8
22
100
AcDbPolyline
 90
        2
 70
     1
 43
0.001
 10
-27.5
 20
-249.999999
 42
1.0
 10
-42.5
 20
-250.000001
 42
1.0
210
0.0
220
0.0
230
-1.0
  0
LWPOLYLINE
  5
8091
330
1E
100
AcDbEntity
  8
16
100
AcDbPolyline
 90
        2
 70
     0
 43
0.001
 10
35.0
 20
-235.0
 10
35.0
 20
-346.5
  0
DIMENSION
  5
80AB
330
1E
100
AcDbEntity
  8
30
100
AcDbDimension
  2
*D26
 10
35.0
 20
-340.0
 30
0.0
 11
23.75
 21
-337.0
 31
0.0
 70
    32
 71
     5
 42
22.5
  3
STANDARD
100
AcDbAlignedDimension
 13
12.5
 23
-320.0
 33
0.0
 14
35.0
 24
-317.5
 34
0.0
100
AcDbRotatedDimension
1001
ACAD
1000
DSTYLE
1002
{
1070
   287
1070
     4
1070
   279
1070
     1
1070
    79
1070
     3
1002
}
  0
LWPOLYLINE
  5
813B
330
1E
100
AcDbEntity
  8
12
100
AcDbPolyline
 90
        2
 70
     0
 43
0.001
 10
2.0
 20
238.0
 10
2.0
 20
244.199951
  0
LWPOLYLINE
  5
813C
330
1E
100
AcDbEntity
  8
12
100
AcDbPolyline
 90
        2
 70
     0
 43
0.001
 10
-2.0
 20
238.0
 10
-2.0
 20
244.199951
  0
LWPOLYLINE
  5
813D
330
1E
100
AcDbEntity
  8
0
100
AcDbPolyline
 90
        2
 70
     0
 43
0.001
 10
18.5
 20
258.0
 10
18.5
 20
238.0
  0
LWPOLYLINE
  5
813E
330
1E
100
AcDbEntity
  8
0
100
AcDbPolyline
 90
        2
 70
     0
 43
0.001
 10
6.5
 20
258.0
 10
6.5
 20
238.0
  0
LWPOLYLINE
  5
813F
330
1E
100
AcDbEntity
  8
0
100
AcDbPolyline
 90
        2
 70
     0
 43
0.001
 10
19.0
 20
269.599976
 10
6.0
 20
269.599976
  0
LWPOLYLINE
  5
8140
330
1E
100
AcDbEntity
  8
0
100
AcDbPolyline
 90
        2
 70
     0
 43
0.001
 10
16.5
 20
259.0
 10
16.5
 20
258.0
  0
LWPOLYLINE
  5
8141
330
1E
100
AcDbEntity
  8
0
100
AcDbPolyline
 90
        2
 70
     0
 43
0.001
 10
8.5
 20
259.0
 10
8.5
 20
258.0
  0
LWPOLYLINE
  5
8142
330
1E
100
AcDbEntity
  8
0
100
AcDbPolyline
 90
        2
 70
     0
 43
0.001
 10
6.400024000000027
 20
271.0999759999999
 10
6.400024000000027
 20
269.599976
  0
LWPOLYLINE
  5
8143
330
1E
100
AcDbEntity
  8
0
100
AcDbPolyline
 90
        2
 70
     0
 43
0.001
 10
6.0
 20
268.0
 10
19.0
 20
268.0
  0
LWPOLYLINE
  5
8144
330
1E
100
AcDbEntity
  8
0
100
AcDbPolyline
 90
        2
 70
     0
 43
0.001
 10
6.75
 20
265.0
 10
6.75
 20
259.0
  0
LWPOLYLINE
  5
8145
330
1E
100
AcDbEntity
  8
0
100
AcDbPolyline
 90
        2
 70
     0
 43
0.001
 10
9.5
 20
280.0
 10
9.5
 20
276.099976
  0
LWPOLYLINE
  5
8146
330
1E
100
AcDbEntity
  8
0
100
AcDbPolyline
 90
        2
 70
     0
 43
0.001
 10
15.5
 20
280.0
 10
15.5
 20
276.099976
  0
LWPOLYLINE
  5
8147
330
1E
100
AcDbEntity
  8
0
100
AcDbPolyline
 90
        2
 70
     0
 43
0.001
 10
18.25
 20
265.0
 10
18.25
 20
259.0
  0
LWPOLYLINE
  5
8148
330
1E
100
AcDbEntity
  8
0
100
AcDbPolyline
 90
        2
 70
     0
 43
0.001
 10
9.625
 20
265.0
 10
9.625
 20
259.0
  0
LWPOLYLINE
  5
8149
330
1E
100
AcDbEntity
  8
0
100
AcDbPolyline
 90
        2
 70
     0
 43
0.001
 10
6.75
 20
265.0
 10
18.25
 20
265.0
  0
LWPOLYLINE
  5
814A
330
1E
100
AcDbEntity
  8
0
100
AcDbPolyline
 90
        2
 70
     0
 43
0.001
 10
18.25
 20
259.0
 10
6.75
 20
259.0
  0
LWPOLYLINE
  5
814B
330
1E
100
AcDbEntity
  8
0
100
AcDbPolyline
 90
        2
 70
     0
 43
0.001
 10
18.5
 20
258.0
 10
6.5
 20
258.0
  0
LWPOLYLINE
  5
814C
330
1E
100
AcDbEntity
  8
0
100
AcDbPolyline
 90
        2
 70
     0
 43
0.001
 10
9.5
 20
280.0
 10
15.5
 20
280.0
  0
LWPOLYLINE
  5
814D
330
1E
100
AcDbEntity
  8
0
100
AcDbPolyline
 90
        2
 70
     0
 43
0.001
 10
15.5
 20
268.0
 10
15.5
 20
265.0
  0
LWPOLYLINE
  5
814E
330
1E
100
AcDbEntity
  8
0
100
AcDbPolyline
 90
        2
 70
     0
 43
0.001
 10
9.5
 20
268.0
 10
9.5
 20
265.0
  0
LWPOLYLINE
  5
814F
330
1E
100
AcDbEntity
  8
0
100
AcDbPolyline
 90
        2
 70
     0
 43
0.001
 10
18.25
 20
276.099976
 10
6.75
 20
276.099976
  0
LWPOLYLINE
  5
8150
330
1E
100
AcDbEntity
  8
0
100
AcDbPolyline
 90
        2
 70
     0
 43
0.001
 10
9.625
 20
271.0999759999999
 10
9.625
 20
276.099976
  0
LWPOLYLINE
  5
8151
330
1E
100
AcDbEntity
  8
0
100
AcDbPolyline
 90
        2
 70
     0
 43
0.001
 10
15.375
 20
271.0999759999999
 10
15.375
 20
276.099976
  0
LWPOLYLINE
  5
8152
330
1E
100
AcDbEntity
  8
0
100
AcDbPolyline
 90
        2
 70
     0
 43
0.001
 10
18.25
 20
271.0999759999999
 10
18.25
 20
276.099976
  0
LWPOLYLINE
  5
8153
330
1E
100
AcDbEntity
  8
0
100
AcDbPolyline
 90
        2
 70
     0
 43
0.001
 10
6.0
 20
268.0
 10
6.0
 20
269.599976
  0
LWPOLYLINE
  5
8154
330
1E
100
AcDbEntity
  8
0
100
AcDbPolyline
 90
        2
 70
     0
 43
0.001
 10
19.0
 20
268.0
 10
19.0
 20
269.599976
  0
LWPOLYLINE
  5
8155
330
1E
100
AcDbEntity
  8
0
100
AcDbPolyline
 90
        2
 70
     0
 43
0.001
 10
6.75
 20
271.0999759999999
 10
6.75
 20
276.099976
  0
LWPOLYLINE
  5
8156
330
1E
100
AcDbEntity
  8
0
100
AcDbPolyline
 90
        2
 70
     0
 43
0.001
 10
13.36608899999999
 20
271.0999759999999
 10
12.50012199999992
 20
269.599976
  0
LWPOLYLINE
  5
8157
330
1E
100
AcDbEntity
  8
0
100
AcDbPolyline
 90
        2
 70
     0
 43
0.001
 10
18.59997599999997
 20
271.0999759999999
 10
18.59997599999997
 20
269.599976
  0
LWPOLYLINE
  5
8158
330
1E
100
AcDbEntity
  8
0
100
AcDbPolyline
 90
        2
 70
     0
 43
0.001
 10
15.375
 20
265.0
 10
15.375
 20
259.0
  0
LWPOLYLINE
  5
8159
330
1E
100
AcDbEntity
  8
0
100
AcDbPolyline
 90
        2
 70
     0
 43
0.001
 10
18.59997599999997
 20
271.0999759999999
 10
6.400024000000027
 20
271.0999759999999
  0
LWPOLYLINE
  5
815A
330
1E
100
AcDbEntity
  8
0
100
AcDbPolyline
 90
        2
 70
     0
 43
0.001
 10
12.5
 20
271.0999759999999
 10
11.63403300000004
 20
269.599976
  0
LWPOLYLINE
  5
815B
330
1E
100
AcDbEntity
  8
0
100
AcDbPolyline
 90
        2
 70
     0
 43
0.001
 10
-6.5
 20
258.0
 10
-6.5
 20
238.0
  0
LWPOLYLINE
  5
815C
330
1E
100
AcDbEntity
  8
0
100
AcDbPolyline
 90
        2
 70
     0
 43
0.001
 10
-18.5
 20
258.0
 10
-18.5
 20
238.0
  0
LWPOLYLINE
  5
815D
330
1E
100
AcDbEntity
  8
0
100
AcDbPolyline
 90
        2
 70
     0
 43
0.001
 10
-8.5
 20
259.0
 10
-8.5
 20
258.0
  0
LWPOLYLINE
  5
815E
330
1E
100
AcDbEntity
  8
0
100
AcDbPolyline
 90
        2
 70
     0
 43
0.001
 10
-16.5
 20
259.0
 10
-16.5
 20
258.0
  0
LWPOLYLINE
  5
8160
330
1E
100
AcDbEntity
  8
0
100
AcDbPolyline
 90
        2
 70
     0
 43
0.001
 10
-18.25
 20
265.0
 10
-18.25
 20
259.0
  0
LWPOLYLINE
  5
8161
330
1E
100
AcDbEntity
  8
0
100
AcDbPolyline
 90
        2
 70
     0
 43
0.001
 10
-15.5
 20
280.0
 10
-15.5
 20
276.099976
  0
LWPOLYLINE
  5
8162
330
1E
100
AcDbEntity
  8
0
100
AcDbPolyline
 90
        2
 70
     0
 43
0.001
 10
-9.5
 20
280.0
 10
-9.5
 20
276.099976
  0
LWPOLYLINE
  5
8163
330
1E
100
AcDbEntity
  8
0
100
AcDbPolyline
 90
        2
 70
     0
 43
0.001
 10
-6.75
 20
265.0
 10
-6.75
 20
259.0
  0
LWPOLYLINE
  5
8164
330
1E
100
AcDbEntity
  8
0
100
AcDbPolyline
 90
        2
 70
     0
 43
0.001
 10
-15.375
 20
265.0
 10
-15.375
 20
259.0
  0
LWPOLYLINE
  5
8165
330
1E
100
AcDbEntity
  8
0
100
AcDbPolyline
 90
        2
 70
     0
 43
0.001
 10
-18.25
 20
265.0
 10
-6.75
 20
265.0
  0
LWPOLYLINE
  5
8166
330
1E
100
AcDbEntity
  8
0
100
AcDbPolyline
 90
        2
 70
     0
 43
0.001
 10
-6.75
 20
259.0
 10
-18.25
 20
259.0
  0
LWPOLYLINE
  5
8167
330
1E
100
AcDbEntity
  8
0
100
AcDbPolyline
 90
        2
 70
     0
 43
0.001
 10
-6.5
 20
258.0
 10
-18.5
 20
258.0
  0
LWPOLYLINE
  5
8168
330
1E
100
AcDbEntity
  8
0
100
AcDbPolyline
 90
        2
 70
     0
 43
0.001
 10
-15.5
 20
280.0
 10
-9.5
 20
280.0
  0
LWPOLYLINE
  5
8169
330
1E
100
AcDbEntity
  8
0
100
AcDbPolyline
 90
        2
 70
     0
 43
0.001
 10
-9.5
 20
268.0
 10
-9.5
 20
265.0
  0
LWPOLYLINE
  5
816A
330
1E
100
AcDbEntity
  8
0
100
AcDbPolyline
 90
        2
 70
     0
 43
0.001
 10
-15.5
 20
268.0
 10
-15.5
 20
265.0
  0
LWPOLYLINE
  5
8173
330
1E
100
AcDbEntity
  8
0
100
AcDbPolyline
 90
        2
 70
     0
 43
0.001
 10
-9.625
 20
265.0
 10
-9.625
 20
259.0
  0
LWPOLYLINE
  5
8176
330
1E
100
AcDbEntity
  8
12
100
AcDbPolyline
 90
        2
 70
     0
 43
0.001
 10
2.0
 20
244.199951
 10
-2.0
 20
244.199951
  0
LWPOLYLINE
  5
8196
330
1E
100
AcDbEntity
  8
0
100
AcDbPolyline
 90
        2
 70
     0
 43
0.001
 10
-6.0
 20
269.599976
 10
-19.0
 20
269.599976
  0
LWPOLYLINE
  5
8197
330
1E
100
AcDbEntity
  8
0
100
AcDbPolyline
 90
        2
 70
     0
 43
0.001
 10
-18.59997599999997
 20
271.0999759999999
 10
-18.59997599999997
 20
269.599976
  0
LWPOLYLINE
  5
8198
330
1E
100
AcDbEntity
  8
0
100
AcDbPolyline
 90
        2
 70
     0
 43
0.001
 10
-19.0
 20
268.0
 10
-6.0
 20
268.0
  0
LWPOLYLINE
  5
8199
330
1E
100
AcDbEntity
  8
0
100
AcDbPolyline
 90
        2
 70
     0
 43
0.001
 10
-6.75
 20
276.099976
 10
-18.25
 20
276.099976
  0
LWPOLYLINE
  5
819A
330
1E
100
AcDbEntity
  8
0
100
AcDbPolyline
 90
        2
 70
     0
 43
0.001
 10
-15.375
 20
271.0999759999999
 10
-15.375
 20
276.099976
  0
LWPOLYLINE
  5
819B
330
1E
100
AcDbEntity
  8
0
100
AcDbPolyline
 90
        2
 70
     0
 43
0.001
 10
-9.625
 20
271.0999759999999
 10
-9.625
 20
276.099976
  0
LWPOLYLINE
  5
819C
330
1E
100
AcDbEntity
  8
0
100
AcDbPolyline
 90
        2
 70
     0
 43
0.001
 10
-6.75
 20
271.0999759999999
 10
-6.75
 20
276.099976
  0
LWPOLYLINE
  5
819D
330
1E
100
AcDbEntity
  8
0
100
AcDbPolyline
 90
        2
 70
     0
 43
0.001
 10
-19.0
 20
268.0
 10
-19.0
 20
269.599976
  0
LWPOLYLINE
  5
819E
330
1E
100
AcDbEntity
  8
0
100
AcDbPolyline
 90
        2
 70
     0
 43
0.001
 10
-6.0
 20
268.0
 10
-6.0
 20
269.599976
  0
LWPOLYLINE
  5
819F
330
1E
100
AcDbEntity
  8
0
100
AcDbPolyline
 90
        2
 70
     0
 43
0.001
 10
-18.25
 20
271.0999759999999
 10
-18.25
 20
276.099976
  0
LWPOLYLINE
  5
81A0
330
1E
100
AcDbEntity
  8
0
100
AcDbPolyline
 90
        2
 70
     0
 43
0.001
 10
-11.63391100000001
 20
271.0999759999999
 10
-12.49987800000008
 20
269.599976
  0
LWPOLYLINE
  5
81A1
330
1E
100
AcDbEntity
  8
0
100
AcDbPolyline
 90
        2
 70
     0
 43
0.001
 10
-6.400024000000027
 20
271.0999759999999
 10
-6.400024000000027
 20
269.599976
  0
LWPOLYLINE
  5
81A2
330
1E
100
AcDbEntity
  8
0
100
AcDbPolyline
 90
        2
 70
     0
 43
0.001
 10
-6.400024000000027
 20
271.0999759999999
 10
-18.59997599999997
 20
271.0999759999999
  0
LWPOLYLINE
  5
81A3
330
1E
100
AcDbEntity
  8
0
100
AcDbPolyline
 90
        2
 70
     0
 43
0.001
 10
-12.5
 20
271.0999759999999
 10
-13.36596699999995
 20
269.599976
  0
LWPOLYLINE
  5
8329
330
1E
100
AcDbEntity
  8
18
100
AcDbPolyline
 90
        2
 70
     0
 43
0.001
 10
-67.80865499999996
 20
241.2000120000001
 10
67.19134500000021
 20
241.2000120000001
  0
POLYLINE
  5
832A
330
1E
100
AcDbEntity
  8
18
100
AcDb3dPolyline
 66
     1
 10
0.0
 20
0.0
 30
0.0
 70
    12
 75
     6
  0
VERTEX
  5
832B
330
832A
100
AcDbEntity
  8
18
100
AcDbVertex
100
AcDb3dPolylineVertex
 10
-67.80865499999996
 20
241.1999510000001
 30
0.0
 70
    48
  0
VERTEX
  5
832C
330
832A
100
AcDbEntity
  8
18
100
AcDbVertex
100
AcDb3dPolylineVertex
 10
-67.80865499999996
 20
241.1999510000001
 30
0.0
 70
    40
  0
VERTEX
  5
832D
330
832A
100
AcDbEntity
  8
18
100
AcDbVertex
100
AcDb3dPolylineVertex
 10
-67.78448500000002
 20
241.1461740000001
 30
0.0
 70
    40
  0
VERTEX
  5
832E
330
832A
100
AcDbEntity
  8
18
100
AcDbVertex
100
AcDb3dPolylineVertex
 10
-67.76059499999997
 20
241.0927460000002
 30
0.0
 70
    40
  0
VERTEX
  5
832F
330
832A
100
AcDbEntity
  8
18
100
AcDbVertex
100
AcDb3dPolylineVertex
 10
-67.73726799999995
 20
241.0400200000001
 30
0.0
 70
    40
  0
VERTEX
  5
8330
330
832A
100
AcDbEntity
  8
18
100
AcDbVertex
100
AcDb3dPolylineVertex
 10
-67.71478700000002
 20
240.9883510000001
 30
0.0
 70
    40
  0
VERTEX
  5
8331
330
832A
100
AcDbEntity
  8
18
100
AcDbVertex
100
AcDb3dPolylineVertex
 10
-67.69343499999989
 20
240.9380930000001
 30
0.0
 70
    40
  0
VERTEX
  5
8332
330
832A
100
AcDbEntity
  8
18
100
AcDbVertex
100
AcDb3dPolylineVertex
 10
-67.67349499999998
 20
240.8896000000001
 30
0.0
 70
    40
  0
VERTEX
  5
8333
330
832A
100
AcDbEntity
  8
18
100
AcDbVertex
100
AcDb3dPolylineVertex
 10
-67.65525000000002
 20
240.8432270000001
 30
0.0
 70
    40
  0
VERTEX
  5
8334
330
832A
100
AcDbEntity
  8
18
100
AcDbVertex
100
AcDb3dPolylineVertex
 10
-67.63898200000004
 20
240.7993270000001
 30
0.0
 70
    40
  0
VERTEX
  5
8335
330
832A
100
AcDbEntity
  8
18
100
AcDbVertex
100
AcDb3dPolylineVertex
 10
-67.62490100000002
 20
240.7581000000001
 30
0.0
 70
    40
  0
VERTEX
  5
8336
330
832A
100
AcDbEntity
  8
18
100
AcDbVertex
100
AcDb3dPolylineVertex
 10
-67.61292100000004
 20
240.7191340000001
 30
0.0
 70
    40
  0
VERTEX
  5
8337
330
832A
100
AcDbEntity
  8
18
100
AcDbVertex
100
AcDb3dPolylineVertex
 10
-67.60288099999991
 20
240.6818610000001
 30
0.0
 70
    40
  0
VERTEX
  5
8338
330
832A
100
AcDbEntity
  8
18
100
AcDbVertex
100
AcDb3dPolylineVertex
 10
-67.59462199999996
 20
240.6457130000001
 30
0.0
 70
    40
  0
VERTEX
  5
8339
330
832A
100
AcDbEntity
  8
18
100
AcDbVertex
100
AcDb3dPolylineVertex
 10
-67.58798200000002
 20
240.6101210000002
 30
0.0
 70
    40
  0
VERTEX
  5
833A
330
832A
100
AcDbEntity
  8
18
100
AcDbVertex
100
AcDb3dPolylineVertex
 10
-67.5828019999999
 20
240.5745200000001
 30
0.0
 70
    40
  0
VERTEX
  5
833B
330
832A
100
AcDbEntity
  8
18
100
AcDbVertex
100
AcDb3dPolylineVertex
 10
-67.57892199999989
 20
240.5383410000002
 30
0.0
 70
    40
  0
VERTEX
  5
833C
330
832A
100
AcDbEntity
  8
18
100
AcDbVertex
100
AcDb3dPolylineVertex
 10
-67.57618200000002
 20
240.5010170000001
 30
0.0
 70
    40
  0
VERTEX
  5
833D
330
832A
100
AcDbEntity
  8
18
100
AcDbVertex
100
AcDb3dPolylineVertex
 10
-67.57445199999996
 20
240.4621330000001
 30
0.0
 70
    40
  0
VERTEX
  5
833E
330
832A
100
AcDbEntity
  8
18
100
AcDbVertex
100
AcDb3dPolylineVertex
 10
-67.57372699999996
 20
240.4218850000001
 30
0.0
 70
    40
  0
VERTEX
  5
833F
330
832A
100
AcDbEntity
  8
18
100
AcDbVertex
100
AcDb3dPolylineVertex
 10
-67.57403099999996
 20
240.3806240000001
 30
0.0
 70
    40
  0
VERTEX
  5
8340
330
832A
100
AcDbEntity
  8
18
100
AcDbVertex
100
AcDb3dPolylineVertex
 10
-67.57539099999997
 20
240.3386970000001
 30
0.0
 70
    40
  0
VERTEX
  5
8341
330
832A
100
AcDbEntity
  8
18
100
AcDbVertex
100
AcDb3dPolylineVertex
 10
-67.57783200000004
 20
240.2964540000001
 30
0.0
 70
    40
  0
VERTEX
  5
8342
330
832A
100
AcDbEntity
  8
18
100
AcDbVertex
100
AcDb3dPolylineVertex
 10
-67.58137799999999
 20
240.2542450000001
 30
0.0
 70
    40
  0
VERTEX
  5
8343
330
832A
100
AcDbEntity
  8
18
100
AcDbVertex
100
AcDb3dPolylineVertex
 10
-67.58605499999998
 20
240.2124190000002
 30
0.0
 70
    40
  0
VERTEX
  5
8344
330
832A
100
AcDbEntity
  8
18
100
AcDbVertex
100
AcDb3dPolylineVertex
 10
-67.59188800000003
 20
240.1713260000001
 30
0.0
 70
    40
  0
VERTEX
  5
8345
330
832A
100
AcDbEntity
  8
18
100
AcDbVertex
100
AcDb3dPolylineVertex
 10
-67.59884800000006
 20
240.1312400000001
 30
0.0
 70
    40
  0
VERTEX
  5
8346
330
832A
100
AcDbEntity
  8
18
100
AcDbVertex
100
AcDb3dPolylineVertex
 10
-67.60667999999999
 20
240.0921410000001
 30
0.0
 70
    40
  0
VERTEX
  5
8347
330
832A
100
AcDbEntity
  8
18
100
AcDbVertex
100
AcDb3dPolylineVertex
 10
-67.61507500000004
 20
240.0539380000001
 30
0.0
 70
    40
  0
VERTEX
  5
8348
330
832A
100
AcDbEntity
  8
18
100
AcDbVertex
100
AcDb3dPolylineVertex
 10
-67.62372500000004
 20
240.0165350000001
 30
0.0
 70
    40
  0
VERTEX
  5
8349
330
832A
100
AcDbEntity
  8
18
100
AcDbVertex
100
AcDb3dPolylineVertex
 10
-67.63231900000005
 20
239.9798410000001
 30
0.0
 70
    40
  0
VERTEX
  5
834A
330
832A
100
AcDbEntity
  8
18
100
AcDbVertex
100
AcDb3dPolylineVertex
 10
-67.64054999999996
 20
239.9437600000001
 30
0.0
 70
    40
  0
VERTEX
  5
834B
330
832A
100
AcDbEntity
  8
18
100
AcDbVertex
100
AcDb3dPolylineVertex
 10
-67.64810799999996
 20
239.9082000000001
 30
0.0
 70
    40
  0
VERTEX
  5
834C
330
832A
100
AcDbEntity
  8
18
100
AcDbVertex
100
AcDb3dPolylineVertex
 10
-67.65468299999998
 20
239.8730670000001
 30
0.0
 70
    40
  0
VERTEX
  5
834D
330
832A
100
AcDbEntity
  8
18
100
AcDbVertex
100
AcDb3dPolylineVertex
 10
-67.66003699999996
 20
239.8382570000001
 30
0.0
 70
    40
  0
VERTEX
  5
834E
330
832A
100
AcDbEntity
  8
18
100
AcDbVertex
100
AcDb3dPolylineVertex
 10
-67.66420700000002
 20
239.8036200000001
 30
0.0
 70
    40
  0
VERTEX
  5
834F
330
832A
100
AcDbEntity
  8
18
100
AcDbVertex
100
AcDb3dPolylineVertex
 10
-67.66730099999993
 20
239.7689970000001
 30
0.0
 70
    40
  0
VERTEX
  5
8350
330
832A
100
AcDbEntity
  8
18
100
AcDbVertex
100
AcDb3dPolylineVertex
 10
-67.66942599999993
 20
239.734226
 30
0.0
 70
    40
  0
VERTEX
  5
8351
330
832A
100
AcDbEntity
  8
18
100
AcDbVertex
100
AcDb3dPolylineVertex
 10
-67.67069000000002
 20
239.699148
 30
0.0
 70
    40
  0
VERTEX
  5
8352
330
832A
100
AcDbEntity
  8
18
100
AcDbVertex
100
AcDb3dPolylineVertex
 10
-67.6712
 20
239.6636020000001
 30
0.0
 70
    40
  0
VERTEX
  5
8353
330
832A
100
AcDbEntity
  8
18
100
AcDbVertex
100
AcDb3dPolylineVertex
 10
-67.67106400000002
 20
239.6274270000001
 30
0.0
 70
    40
  0
VERTEX
  5
8354
330
832A
100
AcDbEntity
  8
18
100
AcDbVertex
100
AcDb3dPolylineVertex
 10
-67.67039
 20
239.5904640000001
 30
0.0
 70
    40
  0
VERTEX
  5
8355
330
832A
100
AcDbEntity
  8
18
100
AcDbVertex
100
AcDb3dPolylineVertex
 10
-67.669262
 20
239.5526400000001
 30
0.0
 70
    40
  0
VERTEX
  5
8356
330
832A
100
AcDbEntity
  8
18
100
AcDbVertex
100
AcDb3dPolylineVertex
 10
-67.66767300000004
 20
239.5142350000001
 30
0.0
 70
    40
  0
VERTEX
  5
8357
330
832A
100
AcDbEntity
  8
18
100
AcDbVertex
100
AcDb3dPolylineVertex
 10
-67.66559500000004
 20
239.4756150000002
 30
0.0
 70
    40
  0
VERTEX
  5
8358
330
832A
100
AcDbEntity
  8
18
100
AcDbVertex
100
AcDb3dPolylineVertex
 10
-67.66299900000001
 20
239.4371480000002
 30
0.0
 70
    40
  0
VERTEX
  5
8359
330
832A
100
AcDbEntity
  8
18
100
AcDbVertex
100
AcDb3dPolylineVertex
 10
-67.65985599999997
 20
239.3992010000001
 30
0.0
 70
    40
  0
VERTEX
  5
835A
330
832A
100
AcDbEntity
  8
18
100
AcDbVertex
100
AcDb3dPolylineVertex
 10
-67.65613600000006
 20
239.362142
 30
0.0
 70
    40
  0
VERTEX
  5
835B
330
832A
100
AcDbEntity
  8
18
100
AcDbVertex
100
AcDb3dPolylineVertex
 10
-67.65181100000003
 20
239.3263370000001
 30
0.0
 70
    40
  0
VERTEX
  5
835C
330
832A
100
AcDbEntity
  8
18
100
AcDbVertex
100
AcDb3dPolylineVertex
 10
-67.64685099999995
 20
239.292155
 30
0.0
 70
    40
  0
VERTEX
  5
835D
330
832A
100
AcDbEntity
  8
18
100
AcDbVertex
100
AcDb3dPolylineVertex
 10
-67.64121799999998
 20
239.2598360000002
 30
0.0
 70
    40
  0
VERTEX
  5
835E
330
832A
100
AcDbEntity
  8
18
100
AcDbVertex
100
AcDb3dPolylineVertex
 10
-67.63483799999995
 20
239.2291180000001
 30
0.0
 70
    40
  0
VERTEX
  5
835F
330
832A
100
AcDbEntity
  8
18
100
AcDbVertex
100
AcDb3dPolylineVertex
 10
-67.62762699999996
 20
239.1996120000001
 30
0.0
 70
    40
  0
VERTEX
  5
8360
330
832A
100
AcDbEntity
  8
18
100
AcDbVertex
100
AcDb3dPolylineVertex
 10
-67.61950300000001
 20
239.1709300000001
 30
0.0
 70
    40
  0
VERTEX
  5
8361
330
832A
100
AcDbEntity
  8
18
100
AcDbVertex
100
AcDb3dPolylineVertex
 10
-67.61038200000005
 20
239.1426840000002
 30
0.0
 70
    40
  0
VERTEX
  5
8362
330
832A
100
AcDbEntity
  8
18
100
AcDbVertex
100
AcDb3dPolylineVertex
 10
-67.60018000000002
 20
239.1144840000001
 30
0.0
 70
    40
  0
VERTEX
  5
8363
330
832A
100
AcDbEntity
  8
18
100
AcDbVertex
100
AcDb3dPolylineVertex
 10
-67.58881500000005
 20
239.085943
 30
0.0
 70
    40
  0
VERTEX
  5
8364
330
832A
100
AcDbEntity
  8
18
100
AcDbVertex
100
AcDb3dPolylineVertex
 10
-67.57620199999997
 20
239.0566710000002
 30
0.0
 70
    40
  0
VERTEX
  5
8365
330
832A
100
AcDbEntity
  8
18
100
AcDbVertex
100
AcDb3dPolylineVertex
 10
-67.56233399999996
 20
239.0263440000001
 30
0.0
 70
    40
  0
VERTEX
  5
8366
330
832A
100
AcDbEntity
  8
18
100
AcDbVertex
100
AcDb3dPolylineVertex
 10
-67.54749700000004
 20
238.9948890000001
 30
0.0
 70
    40
  0
VERTEX
  5
8367
330
832A
100
AcDbEntity
  8
18
100
AcDbVertex
100
AcDb3dPolylineVertex
 10
-67.53205500000001
 20
238.9622980000002
 30
0.0
 70
    40
  0
VERTEX
  5
8368
330
832A
100
AcDbEntity
  8
18
100
AcDbVertex
100
AcDb3dPolylineVertex
 10
-67.51636900000005
 20
238.92856
 30
0.0
 70
    40
  0
VERTEX
  5
8369
330
832A
100
AcDbEntity
  8
18
100
AcDbVertex
100
AcDb3dPolylineVertex
 10
-67.50080199999991
 20
238.8936660000002
 30
0.0
 70
    40
  0
VERTEX
  5
836A
330
832A
100
AcDbEntity
  8
18
100
AcDbVertex
100
AcDb3dPolylineVertex
 10
-67.48571500000001
 20
238.8576080000001
 30
0.0
 70
    40
  0
VERTEX
  5
836B
330
832A
100
AcDbEntity
  8
18
100
AcDbVertex
100
AcDb3dPolylineVertex
 10
-67.47147199999997
 20
238.820377
 30
0.0
 70
    40
  0
VERTEX
  5
836C
330
832A
100
AcDbEntity
  8
18
100
AcDbVertex
100
AcDb3dPolylineVertex
 10
-67.45843500000002
 20
238.7819620000001
 30
0.0
 70
    40
  0
VERTEX
  5
836D
330
832A
100
AcDbEntity
  8
18
100
AcDbVertex
100
AcDb3dPolylineVertex
 10
-67.44692300000011
 20
238.7423510000001
 30
0.0
 70
    40
  0
VERTEX
  5
836E
330
832A
100
AcDbEntity
  8
18
100
AcDbVertex
100
AcDb3dPolylineVertex
 10
-67.43708499999991
 20
238.7015130000001
 30
0.0
 70
    40
  0
VERTEX
  5
836F
330
832A
100
AcDbEntity
  8
18
100
AcDbVertex
100
AcDb3dPolylineVertex
 10
-67.42902900000001
 20
238.6594120000001
 30
0.0
 70
    40
  0
VERTEX
  5
8370
330
832A
100
AcDbEntity
  8
18
100
AcDbVertex
100
AcDb3dPolylineVertex
 10
-67.42286100000002
 20
238.6160140000001
 30
0.0
 70
    40
  0
VERTEX
  5
8371
330
832A
100
AcDbEntity
  8
18
100
AcDbVertex
100
AcDb3dPolylineVertex
 10
-67.41868799999996
 20
238.5712840000001
 30
0.0
 70
    40
  0
VERTEX
  5
8372
330
832A
100
AcDbEntity
  8
18
100
AcDbVertex
100
AcDb3dPolylineVertex
 10
-67.41661599999997
 20
238.5251860000002
 30
0.0
 70
    40
  0
VERTEX
  5
8373
330
832A
100
AcDbEntity
  8
18
100
AcDbVertex
100
AcDb3dPolylineVertex
 10
-67.41675299999996
 20
238.4776850000001
 30
0.0
 70
    40
  0
VERTEX
  5
8374
330
832A
100
AcDbEntity
  8
18
100
AcDbVertex
100
AcDb3dPolylineVertex
 10
-67.41920500000003
 20
238.428747
 30
0.0
 70
    40
  0
VERTEX
  5
8375
330
832A
100
AcDbEntity
  8
18
100
AcDbVertex
100
AcDb3dPolylineVertex
 10
-67.42400999999997
 20
238.3783720000001
 30
0.0
 70
    40
  0
VERTEX
  5
8376
330
832A
100
AcDbEntity
  8
18
100
AcDbVertex
100
AcDb3dPolylineVertex
 10
-67.43093399999996
 20
238.3267080000002
 30
0.0
 70
    40
  0
VERTEX
  5
8377
330
832A
100
AcDbEntity
  8
18
100
AcDbVertex
100
AcDb3dPolylineVertex
 10
-67.43967399999997
 20
238.2739410000001
 30
0.0
 70
    40
  0
VERTEX
  5
8378
330
832A
100
AcDbEntity
  8
18
100
AcDbVertex
100
AcDb3dPolylineVertex
 10
-67.44992600000002
 20
238.2202540000001
 30
0.0
 70
    40
  0
VERTEX
  5
8379
330
832A
100
AcDbEntity
  8
18
100
AcDbVertex
100
AcDb3dPolylineVertex
 10
-67.46138799999996
 20
238.1658320000001
 30
0.0
 70
    40
  0
VERTEX
  5
837A
330
832A
100
AcDbEntity
  8
18
100
AcDbVertex
100
AcDb3dPolylineVertex
 10
-67.47375699999996
 20
238.1108590000001
 30
0.0
 70
    40
  0
VERTEX
  5
837B
330
832A
100
AcDbEntity
  8
18
100
AcDbVertex
100
AcDb3dPolylineVertex
 10
-67.48672799999996
 20
238.0555200000001
 30
0.0
 70
    40
  0
VERTEX
  5
837C
330
832A
100
AcDbEntity
  8
18
100
AcDbVertex
100
AcDb3dPolylineVertex
 10
-67.5
 20
238.0000000000001
 30
0.0
 70
    40
  0
VERTEX
  5
837D
330
832A
100
AcDbEntity
  8
18
100
AcDbVertex
100
AcDb3dPolylineVertex
 10
-67.74407999999993
 20
241.0563960000001
 30
0.0
 70
    48
  0
VERTEX
  5
837E
330
832A
100
AcDbEntity
  8
18
100
AcDbVertex
100
AcDb3dPolylineVertex
 10
-67.614868
 20
240.7691650000002
 30
0.0
 70
    48
  0
VERTEX
  5
837F
330
832A
100
AcDbEntity
  8
18
100
AcDbVertex
100
AcDb3dPolylineVertex
 10
-67.565735
 20
240.5192870000001
 30
0.0
 70
    48
  0
VERTEX
  5
8380
330
832A
100
AcDbEntity
  8
18
100
AcDbVertex
100
AcDb3dPolylineVertex
 10
-67.57928499999988
 20
240.1597900000002
 30
0.0
 70
    48
  0
VERTEX
  5
8381
330
832A
100
AcDbEntity
  8
18
100
AcDbVertex
100
AcDb3dPolylineVertex
 10
-67.66845699999996
 20
239.8695070000001
 30
0.0
 70
    48
  0
VERTEX
  5
8382
330
832A
100
AcDbEntity
  8
18
100
AcDbVertex
100
AcDb3dPolylineVertex
 10
-67.67498799999998
 20
239.6005860000002
 30
0.0
 70
    48
  0
VERTEX
  5
8383
330
832A
100
AcDbEntity
  8
18
100
AcDbVertex
100
AcDb3dPolylineVertex
 10
-67.65393099999996
 20
239.270935
 30
0.0
 70
    48
  0
VERTEX
  5
8384
330
832A
100
AcDbEntity
  8
18
100
AcDbVertex
100
AcDb3dPolylineVertex
 10
-67.59039299999996
 20
239.0686040000002
 30
0.0
 70
    48
  0
VERTEX
  5
8385
330
832A
100
AcDbEntity
  8
18
100
AcDbVertex
100
AcDb3dPolylineVertex
 10
-67.44171100000007
 20
238.7946780000001
 30
0.0
 70
    48
  0
VERTEX
  5
8386
330
832A
100
AcDbEntity
  8
18
100
AcDbVertex
100
AcDb3dPolylineVertex
 10
-67.39337199999998
 20
238.4444580000002
 30
0.0
 70
    48
  0
VERTEX
  5
8387
330
832A
100
AcDbEntity
  8
18
100
AcDbVertex
100
AcDb3dPolylineVertex
 10
-67.46447799999998
 20
238.1481320000002
 30
0.0
 70
    48
  0
VERTEX
  5
8388
330
832A
100
AcDbEntity
  8
18
100
AcDbVertex
100
AcDb3dPolylineVertex
 10
-67.5
 20
238.0000000000001
 30
0.0
 70
    48
  0
SEQEND
  5
8389
330
832A
100
AcDbEntity
  8
18
  0
POLYLINE
  5
838A
330
1E
100
AcDbEntity
  8
18
100
AcDb3dPolyline
 66
     1
 10
0.0
 20
0.0
 30
0.0
 70
    12
 75
     6
  0
VERTEX
  5
838B
330
838A
100
AcDbEntity
  8
18
100
AcDbVertex
100
AcDb3dPolylineVertex
 10
67.19134500000021
 20
241.1999510000001
 30
0.0
 70
    48
  0
VERTEX
  5
838C
330
838A
100
AcDbEntity
  8
18
100
AcDbVertex
100
AcDb3dPolylineVertex
 10
67.19134500000021
 20
241.1999510000001
 30
0.0
 70
    40
  0
VERTEX
  5
838D
330
838A
100
AcDbEntity
  8
18
100
AcDbVertex
100
AcDb3dPolylineVertex
 10
67.2155149195965
 20
241.1461740662435
 30
0.0
 70
    40
  0
VERTEX
  5
838E
330
838A
100
AcDbEntity
  8
18
100
AcDbVertex
100
AcDb3dPolylineVertex
 10
67.23940479427094
 20
241.092745623698
 30
0.0
 70
    40
  0
VERTEX
  5
838F
330
838A
100
AcDbEntity
  8
18
100
AcDbVertex
100
AcDb3dPolylineVertex
 10
67.26273167285163
 20
241.0400198354493
 30
0.0
 70
    40
  0
VERTEX
  5
8390
330
838A
100
AcDbEntity
  8
18
100
AcDbVertex
100
AcDb3dPolylineVertex
 10
67.2852126041667
 20
240.9883508645835
 30
0.0
 70
    40
  0
VERTEX
  5
8391
330
838A
100
AcDbEntity
  8
18
100
AcDbVertex
100
AcDb3dPolylineVertex
 10
67.30656463704426
 20
240.9380928741863
 30
0.0
 70
    40
  0
VERTEX
  5
8392
330
838A
100
AcDbEntity
  8
18
100
AcDbVertex
100
AcDb3dPolylineVertex
 10
67.32650482031246
 20
240.8896000273439
 30
0.0
 70
    40
  0
VERTEX
  5
8393
330
838A
100
AcDbEntity
  8
18
100
AcDbVertex
100
AcDb3dPolylineVertex
 10
67.34475020279941
 20
240.8432264871421
 30
0.0
 70
    40
  0
VERTEX
  5
8394
330
838A
100
AcDbEntity
  8
18
100
AcDbVertex
100
AcDb3dPolylineVertex
 10
67.36101783333324
 20
240.7993264166668
 30
0.0
 70
    40
  0
VERTEX
  5
8395
330
838A
100
AcDbEntity
  8
18
100
AcDbVertex
100
AcDb3dPolylineVertex
 10
67.37509861263013
 20
240.7581003595379
 30
0.0
 70
    40
  0
VERTEX
  5
8396
330
838A
100
AcDbEntity
  8
18
100
AcDbVertex
100
AcDb3dPolylineVertex
 10
67.38707884895823
 20
240.7191343815105
 30
0.0
 70
    40
  0
VERTEX
  5
8397
330
838A
100
AcDbEntity
  8
18
100
AcDbVertex
100
AcDb3dPolylineVertex
 10
67.39711870247385
 20
240.6818609288738
 30
0.0
 70
    40
  0
VERTEX
  5
8398
330
838A
100
AcDbEntity
  8
18
100
AcDbVertex
100
AcDb3dPolylineVertex
 10
67.40537833333323
 20
240.6457124479168
 30
0.0
 70
    40
  0
VERTEX
  5
8399
330
838A
100
AcDbEntity
  8
18
100
AcDbVertex
100
AcDb3dPolylineVertex
 10
67.4120179016926
 20
240.6101213849285
 30
0.0
 70
    40
  0
VERTEX
  5
839A
330
838A
100
AcDbEntity
  8
18
100
AcDbVertex
100
AcDb3dPolylineVertex
 10
67.41719756770823
 20
240.574520186198
 30
0.0
 70
    40
  0
VERTEX
  5
839B
330
838A
100
AcDbEntity
  8
18
100
AcDbVertex
100
AcDb3dPolylineVertex
 10
67.42107749153638
 20
240.5383412980144
 30
0.0
 70
    40
  0
VERTEX
  5
839C
330
838A
100
AcDbEntity
  8
18
100
AcDbVertex
100
AcDb3dPolylineVertex
 10
67.42381783333326
 20
240.5010171666668
 30
0.0
 70
    40
  0
VERTEX
  5
839D
330
838A
100
AcDbEntity
  8
18
100
AcDbVertex
100
AcDb3dPolylineVertex
 10
67.42554784798173
 20
240.4621330445965
 30
0.0
 70
    40
  0
VERTEX
  5
839E
330
838A
100
AcDbEntity
  8
18
100
AcDbVertex
100
AcDb3dPolylineVertex
 10
67.42627316927081
 20
240.4218854088543
 30
0.0
 70
    40
  0
VERTEX
  5
839F
330
838A
100
AcDbEntity
  8
18
100
AcDbVertex
100
AcDb3dPolylineVertex
 10
67.42596852571614
 20
240.3806235426433
 30
0.0
 70
    40
  0
VERTEX
  5
83A0
330
838A
100
AcDbEntity
  8
18
100
AcDbVertex
100
AcDb3dPolylineVertex
 10
67.42460864583335
 20
240.3386967291668
 30
0.0
 70
    40
  0
VERTEX
  5
83A1
330
838A
100
AcDbEntity
  8
18
100
AcDbVertex
100
AcDb3dPolylineVertex
 10
67.42216825813807
 20
240.2964542516278
 30
0.0
 70
    40
  0
VERTEX
  5
83A2
330
838A
100
AcDbEntity
  8
18
100
AcDbVertex
100
AcDb3dPolylineVertex
 10
67.41862209114592
 20
240.2542453932293
 30
0.0
 70
    40
  0
VERTEX
  5
83A3
330
838A
100
AcDbEntity
  8
18
100
AcDbVertex
100
AcDb3dPolylineVertex
 10
67.4139448733725
 20
240.2124194371746
 30
0.0
 70
    40
  0
VERTEX
  5
83A4
330
838A
100
AcDbEntity
  8
18
100
AcDbVertex
100
AcDb3dPolylineVertex
 10
67.40811133333346
 20
240.1713256666668
 30
0.0
 70
    40
  0
VERTEX
  5
83A5
330
838A
100
AcDbEntity
  8
18
100
AcDbVertex
100
AcDb3dPolylineVertex
 10
67.4011519293621
 20
240.1312395742189
 30
0.0
 70
    40
  0
VERTEX
  5
83A6
330
838A
100
AcDbEntity
  8
18
100
AcDbVertex
100
AcDb3dPolylineVertex
 10
67.39332003906262
 20
240.0921414895835
 30
0.0
 70
    40
  0
VERTEX
  5
83A7
330
838A
100
AcDbEntity
  8
18
100
AcDbVertex
100
AcDb3dPolylineVertex
 10
67.38492476985689
 20
240.0539379518231
 30
0.0
 70
    40
  0
VERTEX
  5
83A8
330
838A
100
AcDbEntity
  8
18
100
AcDbVertex
100
AcDb3dPolylineVertex
 10
67.37627522916675
 20
240.0165355000001
 30
0.0
 70
    40
  0
VERTEX
  5
83A9
330
838A
100
AcDbEntity
  8
18
100
AcDbVertex
100
AcDb3dPolylineVertex
 10
67.36768052441414
 20
239.9798406731772
 30
0.0
 70
    40
  0
VERTEX
  5
83AA
330
838A
100
AcDbEntity
  8
18
100
AcDbVertex
100
AcDb3dPolylineVertex
 10
67.35944976302089
 20
239.9437600104168
 30
0.0
 70
    40
  0
VERTEX
  5
83AB
330
838A
100
AcDbEntity
  8
18
100
AcDbVertex
100
AcDb3dPolylineVertex
 10
67.3518920524089
 20
239.9082000507814
 30
0.0
 70
    40
  0
VERTEX
  5
83AC
330
838A
100
AcDbEntity
  8
18
100
AcDbVertex
100
AcDb3dPolylineVertex
 10
67.34531650000005
 20
239.8730673333335
 30
0.0
 70
    40
  0
VERTEX
  5
83AD
330
838A
100
AcDbEntity
  8
18
100
AcDbVertex
100
AcDb3dPolylineVertex
 10
67.33996277441409
 20
239.8382572513022
 30
0.0
 70
    40
  0
VERTEX
  5
83AE
330
838A
100
AcDbEntity
  8
18
100
AcDbVertex
100
AcDb3dPolylineVertex
 10
67.33579278906254
 20
239.8036206145835
 30
0.0
 70
    40
  0
VERTEX
  5
83AF
330
838A
100
AcDbEntity
  8
18
100
AcDbVertex
100
AcDb3dPolylineVertex
 10
67.33269901855471
 20
239.7689970872397
 30
0.0
 70
    40
  0
VERTEX
  5
83B0
330
838A
100
AcDbEntity
  8
18
100
AcDbVertex
100
AcDb3dPolylineVertex
 10
67.33057393750002
 20
239.7342263333335
 30
0.0
 70
    40
  0
VERTEX
  5
83B1
330
838A
100
AcDbEntity
  8
18
100
AcDbVertex
100
AcDb3dPolylineVertex
 10
67.32931002050782
 20
239.6991480169273
 30
0.0
 70
    40
  0
VERTEX
  5
83B2
330
838A
100
AcDbEntity
  8
18
100
AcDbVertex
100
AcDb3dPolylineVertex
 10
67.32879974218753
 20
239.6636018020835
 30
0.0
 70
    40
  0
VERTEX
  5
83B3
330
838A
100
AcDbEntity
  8
18
100
AcDbVertex
100
AcDb3dPolylineVertex
 10
67.32893557714845
 20
239.6274273528647
 30
0.0
 70
    40
  0
VERTEX
  5
83B4
330
838A
100
AcDbEntity
  8
18
100
AcDbVertex
100
AcDb3dPolylineVertex
 10
67.32961000000003
 20
239.5904643333335
 30
0.0
 70
    40
  0
VERTEX
  5
83B5
330
838A
100
AcDbEntity
  8
18
100
AcDbVertex
100
AcDb3dPolylineVertex
 10
67.33073825423182
 20
239.5526403444012
 30
0.0
 70
    40
  0
VERTEX
  5
83B6
330
838A
100
AcDbEntity
  8
18
100
AcDbVertex
100
AcDb3dPolylineVertex
 10
67.33232665885424
 20
239.514234734375
 30
0.0
 70
    40
  0
VERTEX
  5
83B7
330
838A
100
AcDbEntity
  8
18
100
AcDbVertex
100
AcDb3dPolylineVertex
 10
67.33440430175789
 20
239.4756147884116
 30
0.0
 70
    40
  0
VERTEX
  5
83B8
330
838A
100
AcDbEntity
  8
18
100
AcDbVertex
100
AcDb3dPolylineVertex
 10
67.3370002708334
 20
239.4371477916668
 30
0.0
 70
    40
  0
VERTEX
  5
83B9
330
838A
100
AcDbEntity
  8
18
100
AcDbVertex
100
AcDb3dPolylineVertex
 10
67.34014365397147
 20
239.3992010292969
 30
0.0
 70
    40
  0
VERTEX
  5
83BA
330
838A
100
AcDbEntity
  8
18
100
AcDbVertex
100
AcDb3dPolylineVertex
 10
67.34386353906264
 20
239.3621417864584
 30
0.0
 70
    40
  0
VERTEX
  5
83BB
330
838A
100
AcDbEntity
  8
18
100
AcDbVertex
100
AcDb3dPolylineVertex
 10
67.34818901399751
 20
239.3263373483073
 30
0.0
 70
    40
  0
VERTEX
  5
83BC
330
838A
100
AcDbEntity
  8
18
100
AcDbVertex
100
AcDb3dPolylineVertex
 10
67.35314916666678
 20
239.292155
 30
0.0
 70
    40
  0
VERTEX
  5
83BD
330
838A
100
AcDbEntity
  8
18
100
AcDbVertex
100
AcDb3dPolylineVertex
 10
67.3587821246746
 20
239.2598360615235
 30
0.0
 70
    40
  0
VERTEX
  5
83BE
330
838A
100
AcDbEntity
  8
18
100
AcDbVertex
100
AcDb3dPolylineVertex
 10
67.36516217447928
 20
239.2291179921876
 30
0.0
 70
    40
  0
VERTEX
  5
83BF
330
838A
100
AcDbEntity
  8
18
100
AcDbVertex
100
AcDb3dPolylineVertex
 10
67.37237264225271
 20
239.1996122861329
 30
0.0
 70
    40
  0
VERTEX
  5
83C0
330
838A
100
AcDbEntity
  8
18
100
AcDbVertex
100
AcDb3dPolylineVertex
 10
67.38049685416678
 20
239.1709304375002
 30
0.0
 70
    40
  0
VERTEX
  5
83C1
330
838A
100
AcDbEntity
  8
18
100
AcDbVertex
100
AcDb3dPolylineVertex
 10
67.38961813639332
 20
239.1426839404299
 30
0.0
 70
    40
  0
VERTEX
  5
83C2
330
838A
100
AcDbEntity
  8
18
100
AcDbVertex
100
AcDb3dPolylineVertex
 10
67.39981981510425
 20
239.1144842890626
 30
0.0
 70
    40
  0
VERTEX
  5
83C3
330
838A
100
AcDbEntity
  8
18
100
AcDbVertex
100
AcDb3dPolylineVertex
 10
67.41118521647144
 20
239.0859429775392
 30
0.0
 70
    40
  0
VERTEX
  5
83C4
330
838A
100
AcDbEntity
  8
18
100
AcDbVertex
100
AcDb3dPolylineVertex
 10
67.42379766666672
 20
239.0566715000002
 30
0.0
 70
    40
  0
VERTEX
  5
83C5
330
838A
100
AcDbEntity
  8
18
100
AcDbVertex
100
AcDb3dPolylineVertex
 10
67.4376662242839
 20
239.0263445719403
 30
0.0
 70
    40
  0
VERTEX
  5
83C6
330
838A
100
AcDbEntity
  8
18
100
AcDbVertex
100
AcDb3dPolylineVertex
 10
67.45250287760422
 20
238.994889794271
 30
0.0
 70
    40
  0
VERTEX
  5
83C7
330
838A
100
AcDbEntity
  8
18
100
AcDbVertex
100
AcDb3dPolylineVertex
 10
67.46794534733078
 20
238.962297989258
 30
0.0
 70
    40
  0
VERTEX
  5
83C8
330
838A
100
AcDbEntity
  8
18
100
AcDbVertex
100
AcDb3dPolylineVertex
 10
67.48363135416671
 20
238.9285599791668
 30
0.0
 70
    40
  0
VERTEX
  5
83C9
330
838A
100
AcDbEntity
  8
18
100
AcDbVertex
100
AcDb3dPolylineVertex
 10
67.49919861881514
 20
238.8936665862631
 30
0.0
 70
    40
  0
VERTEX
  5
83CA
330
838A
100
AcDbEntity
  8
18
100
AcDbVertex
100
AcDb3dPolylineVertex
 10
67.51428486197919
 20
238.8576086328126
 30
0.0
 70
    40
  0
VERTEX
  5
83CB
330
838A
100
AcDbEntity
  8
18
100
AcDbVertex
100
AcDb3dPolylineVertex
 10
67.52852780436203
 20
238.8203769410809
 30
0.0
 70
    40
  0
VERTEX
  5
83CC
330
838A
100
AcDbEntity
  8
18
100
AcDbVertex
100
AcDb3dPolylineVertex
 10
67.54156516666672
 20
238.7819623333335
 30
0.0
 70
    40
  0
VERTEX
  5
83CD
330
838A
100
AcDbEntity
  8
18
100
AcDbVertex
100
AcDb3dPolylineVertex
 10
67.55307725813807
 20
238.7423513102215
 30
0.0
 70
    40
  0
VERTEX
  5
83CE
330
838A
100
AcDbEntity
  8
18
100
AcDbVertex
100
AcDb3dPolylineVertex
 10
67.56291474218753
 20
238.7015130859376
 30
0.0
 70
    40
  0
VERTEX
  5
83CF
330
838A
100
AcDbEntity
  8
18
100
AcDbVertex
100
AcDb3dPolylineVertex
 10
67.57097087076826
 20
238.65941255306
 30
0.0
 70
    40
  0
VERTEX
  5
83D0
330
838A
100
AcDbEntity
  8
18
100
AcDbVertex
100
AcDb3dPolylineVertex
 10
67.57713889583337
 20
238.6160146041668
 30
0.0
 70
    40
  0
VERTEX
  5
83D1
330
838A
100
AcDbEntity
  8
18
100
AcDbVertex
100
AcDb3dPolylineVertex
 10
67.58131206933597
 20
238.5712841318361
 30
0.0
 70
    40
  0
VERTEX
  5
83D2
330
838A
100
AcDbEntity
  8
18
100
AcDbVertex
100
AcDb3dPolylineVertex
 10
67.58338364322921
 20
238.525186028646
 30
0.0
 70
    40
  0
VERTEX
  5
83D3
330
838A
100
AcDbEntity
  8
18
100
AcDbVertex
100
AcDb3dPolylineVertex
 10
67.58324686946619
 20
238.4776851871747
 30
0.0
 70
    40
  0
VERTEX
  5
83D4
330
838A
100
AcDbEntity
  8
18
100
AcDbVertex
100
AcDb3dPolylineVertex
 10
67.58079500000005
 20
238.4287465000002
 30
0.0
 70
    40
  0
VERTEX
  5
83D5
330
838A
100
AcDbEntity
  8
18
100
AcDbVertex
100
AcDb3dPolylineVertex
 10
67.57598959375005
 20
238.378371458008
 30
0.0
 70
    40
  0
VERTEX
  5
83D6
330
838A
100
AcDbEntity
  8
18
100
AcDbVertex
100
AcDb3dPolylineVertex
 10
67.56906543750004
 20
238.3267079453127
 30
0.0
 70
    40
  0
VERTEX
  5
83D7
330
838A
100
AcDbEntity
  8
18
100
AcDbVertex
100
AcDb3dPolylineVertex
 10
67.56032562500006
 20
238.2739404443362
 30
0.0
 70
    40
  0
VERTEX
  5
83D8
330
838A
100
AcDbEntity
  8
18
100
AcDbVertex
100
AcDb3dPolylineVertex
 10
67.55007325000008
 20
238.2202534375002
 30
0.0
 70
    40
  0
VERTEX
  5
83D9
330
838A
100
AcDbEntity
  8
18
100
AcDbVertex
100
AcDb3dPolylineVertex
 10
67.53861140625009
 20
238.1658314072268
 30
0.0
 70
    40
  0
VERTEX
  5
83DA
330
838A
100
AcDbEntity
  8
18
100
AcDbVertex
100
AcDb3dPolylineVertex
 10
67.52624318750005
 20
238.1108588359376
 30
0.0
 70
    40
  0
VERTEX
  5
83DB
330
838A
100
AcDbEntity
  8
18
100
AcDbVertex
100
AcDb3dPolylineVertex
 10
67.51327168750004
 20
238.0555202060548
 30
0.0
 70
    40
  0
VERTEX
  5
83DC
330
838A
100
AcDbEntity
  8
18
100
AcDbVertex
100
AcDb3dPolylineVertex
 10
67.5
 20
238.0000000000001
 30
0.0
 70
    40
  0
VERTEX
  5
83DD
330
838A
100
AcDbEntity
  8
18
100
AcDbVertex
100
AcDb3dPolylineVertex
 10
67.25592000000006
 20
241.0563960000001
 30
0.0
 70
    48
  0
VERTEX
  5
83DE
330
838A
100
AcDbEntity
  8
18
100
AcDbVertex
100
AcDb3dPolylineVertex
 10
67.3851319999999
 20
240.7691650000002
 30
0.0
 70
    48
  0
VERTEX
  5
83DF
330
838A
100
AcDbEntity
  8
18
100
AcDbVertex
100
AcDb3dPolylineVertex
 10
67.43426499999987
 20
240.5192870000001
 30
0.0
 70
    48
  0
VERTEX
  5
83E0
330
838A
100
AcDbEntity
  8
18
100
AcDbVertex
100
AcDb3dPolylineVertex
 10
67.42071500000021
 20
240.1597900000002
 30
0.0
 70
    48
  0
VERTEX
  5
83E1
330
838A
100
AcDbEntity
  8
18
100
AcDbVertex
100
AcDb3dPolylineVertex
 10
67.33154300000001
 20
239.8695070000001
 30
0.0
 70
    48
  0
VERTEX
  5
83E2
330
838A
100
AcDbEntity
  8
18
100
AcDbVertex
100
AcDb3dPolylineVertex
 10
67.32501200000001
 20
239.6005860000002
 30
0.0
 70
    48
  0
VERTEX
  5
83E3
330
838A
100
AcDbEntity
  8
18
100
AcDbVertex
100
AcDb3dPolylineVertex
 10
67.34606900000017
 20
239.270935
 30
0.0
 70
    48
  0
VERTEX
  5
83E4
330
838A
100
AcDbEntity
  8
18
100
AcDbVertex
100
AcDb3dPolylineVertex
 10
67.40960700000004
 20
239.0686040000002
 30
0.0
 70
    48
  0
VERTEX
  5
83E5
330
838A
100
AcDbEntity
  8
18
100
AcDbVertex
100
AcDb3dPolylineVertex
 10
67.55828900000008
 20
238.7946780000001
 30
0.0
 70
    48
  0
VERTEX
  5
83E6
330
838A
100
AcDbEntity
  8
18
100
AcDbVertex
100
AcDb3dPolylineVertex
 10
67.606628
 20
238.4444580000002
 30
0.0
 70
    48
  0
VERTEX
  5
83E7
330
838A
100
AcDbEntity
  8
18
100
AcDbVertex
100
AcDb3dPolylineVertex
 10
67.53552200000012
 20
238.1481320000002
 30
0.0
 70
    48
  0
VERTEX
  5
83E8
330
838A
100
AcDbEntity
  8
18
100
AcDbVertex
100
AcDb3dPolylineVertex
 10
67.5
 20
238.0000000000001
 30
0.0
 70
    48
  0
SEQEND
  5
83E9
330
838A
100
AcDbEntity
  8
18
  0
LWPOLYLINE
  5
83EA
330
1E
100
AcDbEntity
  8
18
100
AcDbPolyline
 90
        2
 70
     0
 43
0.001
 10
-67.80865499999996
 20
238.0
 10
67.19134500000021
 20
238.0
  0
LWPOLYLINE
  5
83EB
330
1E
100
AcDbEntity
  8
L150_
  6
D43
 62
     7
100
AcDbPolyline
 90
        2
 70
     0
 43
0.001
 10
244.999999999999
 20
61.25000000000047
 10
244.9999999999987
 20
80.50000000000045
  0
LWPOLYLINE
  5
83EC
330
1E
100
AcDbEntity
  8
L150_
  6
D43
 62
     7
100
AcDbPolyline
 90
        2
 70
     0
 43
0.001
 10
247.999999999999
 20
62.00000000000053
 10
247.9999999999987
 20
80.50000000000052
  0
POLYLINE
  5
83ED
330
1E
100
AcDbEntity
  8
L150_
  6
Continuous
 62
     7
100
AcDb3dPolyline
 66
     1
 10
0.0
 20
0.0
 30
0.0
 70
    12
 75
     6
  0
VERTEX
  5
83EE
330
83ED
100
AcDbEntity
  8
L150_
  6
Continuous
 62
     7
100
AcDbVertex
100
AcDb3dPolylineVertex
 10
244.9999999999987
 20
80.50000000000045
 30
0.0
 70
    48
  0
VERTEX
  5
83EF
330
83ED
100
AcDbEntity
  8
L150_
  6
Continuous
 62
     7
100
AcDbVertex
100
AcDb3dPolylineVertex
 10
244.9999999999987
 20
80.50000000000045
 30
0.0
 70
    40
  0
VERTEX
  5
83F0
330
83ED
100
AcDbEntity
  8
L150_
  6
Continuous
 62
     7
100
AcDbVertex
100
AcDb3dPolylineVertex
 10
245.0538699999987
 20
80.51893300000051
 30
0.0
 70
    40
  0
VERTEX
  5
83F1
330
83ED
100
AcDbEntity
  8
L150_
  6
Continuous
 62
     7
100
AcDbVertex
100
AcDb3dPolylineVertex
 10
245.1076899999987
 20
80.5377540000004
 30
0.0
 70
    40
  0
VERTEX
  5
83F2
330
83ED
100
AcDbEntity
  8
L150_
  6
Continuous
 62
     7
100
AcDbVertex
100
AcDb3dPolylineVertex
 10
245.1614069999987
 20
80.55634400000055
 30
0.0
 70
    40
  0
VERTEX
  5
83F3
330
83ED
100
AcDbEntity
  8
L150_
  6
Continuous
 62
     7
100
AcDbVertex
100
AcDb3dPolylineVertex
 10
245.2149709999987
 20
80.57458900000041
 30
0.0
 70
    40
  0
VERTEX
  5
83F4
330
83ED
100
AcDbEntity
  8
L150_
  6
Continuous
 62
     7
100
AcDbVertex
100
AcDb3dPolylineVertex
 10
245.2683309999987
 20
80.59237300000054
 30
0.0
 70
    40
  0
VERTEX
  5
83F5
330
83ED
100
AcDbEntity
  8
L150_
  6
Continuous
 62
     7
100
AcDbVertex
100
AcDb3dPolylineVertex
 10
245.3214359999986
 20
80.60957800000053
 30
0.0
 70
    40
  0
VERTEX
  5
83F6
330
83ED
100
AcDbEntity
  8
L150_
  6
Continuous
 62
     7
100
AcDbVertex
100
AcDb3dPolylineVertex
 10
245.3742349999987
 20
80.62608900000046
 30
0.0
 70
    40
  0
VERTEX
  5
83F7
330
83ED
100
AcDbEntity
  8
L150_
  6
Continuous
 62
     7
100
AcDbVertex
100
AcDb3dPolylineVertex
 10
245.4266759999987
 20
80.6417900000005
 30
0.0
 70
    40
  0
VERTEX
  5
83F8
330
83ED
100
AcDbEntity
  8
L150_
  6
Continuous
 62
     7
100
AcDbVertex
100
AcDb3dPolylineVertex
 10
245.4787149999987
 20
80.65653900000043
 30
0.0
 70
    40
  0
VERTEX
  5
83F9
330
83ED
100
AcDbEntity
  8
L150_
  6
Continuous
 62
     7
100
AcDbVertex
100
AcDb3dPolylineVertex
 10
245.5303289999986
 20
80.67009300000043
 30
0.0
 70
    40
  0
VERTEX
  5
83FA
330
83ED
100
AcDbEntity
  8
L150_
  6
Continuous
 62
     7
100
AcDbVertex
100
AcDb3dPolylineVertex
 10
245.5814979999987
 20
80.68218600000049
 30
0.0
 70
    40
  0
VERTEX
  5
83FB
330
83ED
100
AcDbEntity
  8
L150_
  6
Continuous
 62
     7
100
AcDbVertex
100
AcDb3dPolylineVertex
 10
245.6322059999987
 20
80.69254900000045
 30
0.0
 70
    40
  0
VERTEX
  5
83FC
330
83ED
100
AcDbEntity
  8
L150_
  6
Continuous
 62
     7
100
AcDbVertex
100
AcDb3dPolylineVertex
 10
245.6824349999986
 20
80.7009140000005
 30
0.0
 70
    40
  0
VERTEX
  5
83FD
330
83ED
100
AcDbEntity
  8
L150_
  6
Continuous
 62
     7
100
AcDbVertex
100
AcDb3dPolylineVertex
 10
245.7321659999987
 20
80.70701300000044
 30
0.0
 70
    40
  0
VERTEX
  5
83FE
330
83ED
100
AcDbEntity
  8
L150_
  6
Continuous
 62
     7
100
AcDbVertex
100
AcDb3dPolylineVertex
 10
245.7813829999987
 20
80.71057900000054
 30
0.0
 70
    40
  0
VERTEX
  5
83FF
330
83ED
100
AcDbEntity
  8
L150_
  6
Continuous
 62
     7
100
AcDbVertex
100
AcDb3dPolylineVertex
 10
245.8300679999987
 20
80.71134400000053
 30
0.0
 70
    40
  0
VERTEX
  5
8400
330
83ED
100
AcDbEntity
  8
L150_
  6
Continuous
 62
     7
100
AcDbVertex
100
AcDb3dPolylineVertex
 10
245.8782169999986
 20
80.70916600000044
 30
0.0
 70
    40
  0
VERTEX
  5
8401
330
83ED
100
AcDbEntity
  8
L150_
  6
Continuous
 62
     7
100
AcDbVertex
100
AcDb3dPolylineVertex
 10
245.9258839999987
 20
80.70440500000044
 30
0.0
 70
    40
  0
VERTEX
  5
8402
330
83ED
100
AcDbEntity
  8
L150_
  6
Continuous
 62
     7
100
AcDbVertex
100
AcDb3dPolylineVertex
 10
245.9731389999987
 20
80.69754500000049
 30
0.0
 70
    40
  0
VERTEX
  5
8403
330
83ED
100
AcDbEntity
  8
L150_
  6
Continuous
 62
     7
100
AcDbVertex
100
AcDb3dPolylineVertex
 10
246.0200509999987
 20
80.6890740000005
 30
0.0
 70
    40
  0
VERTEX
  5
8404
330
83ED
100
AcDbEntity
  8
L150_
  6
Continuous
 62
     7
100
AcDbVertex
100
AcDb3dPolylineVertex
 10
246.0666889999987
 20
80.6794770000004
 30
0.0
 70
    40
  0
VERTEX
  5
8405
330
83ED
100
AcDbEntity
  8
L150_
  6
Continuous
 62
     7
100
AcDbVertex
100
AcDb3dPolylineVertex
 10
246.1131219999987
 20
80.66923900000046
 30
0.0
 70
    40
  0
VERTEX
  5
8406
330
83ED
100
AcDbEntity
  8
L150_
  6
Continuous
 62
     7
100
AcDbVertex
100
AcDb3dPolylineVertex
 10
246.1594179999987
 20
80.65884600000053
 30
0.0
 70
    40
  0
VERTEX
  5
8407
330
83ED
100
AcDbEntity
  8
L150_
  6
Continuous
 62
     7
100
AcDbVertex
100
AcDb3dPolylineVertex
 10
246.2056479999987
 20
80.64878300000049
 30
0.0
 70
    40
  0
VERTEX
  5
8408
330
83ED
100
AcDbEntity
  8
L150_
  6
Continuous
 62
     7
100
AcDbVertex
100
AcDb3dPolylineVertex
 10
246.2518519999987
 20
80.63949000000052
 30
0.0
 70
    40
  0
VERTEX
  5
8409
330
83ED
100
AcDbEntity
  8
L150_
  6
Continuous
 62
     7
100
AcDbVertex
100
AcDb3dPolylineVertex
 10
246.2979619999987
 20
80.63121100000051
 30
0.0
 70
    40
  0
VERTEX
  5
840A
330
83ED
100
AcDbEntity
  8
L150_
  6
Continuous
 62
     7
100
AcDbVertex
100
AcDb3dPolylineVertex
 10
246.3438829999987
 20
80.62414700000049
 30
0.0
 70
    40
  0
VERTEX
  5
840B
330
83ED
100
AcDbEntity
  8
L150_
  6
Continuous
 62
     7
100
AcDbVertex
100
AcDb3dPolylineVertex
 10
246.3895199999986
 20
80.61849700000044
 30
0.0
 70
    40
  0
VERTEX
  5
840C
330
83ED
100
AcDbEntity
  8
L150_
  6
Continuous
 62
     7
100
AcDbVertex
100
AcDb3dPolylineVertex
 10
246.4347769999986
 20
80.61446000000051
 30
0.0
 70
    40
  0
VERTEX
  5
840D
330
83ED
100
AcDbEntity
  8
L150_
  6
Continuous
 62
     7
100
AcDbVertex
100
AcDb3dPolylineVertex
 10
246.4795579999987
 20
80.61223400000043
 30
0.0
 70
    40
  0
VERTEX
  5
840E
330
83ED
100
AcDbEntity
  8
L150_
  6
Continuous
 62
     7
100
AcDbVertex
100
AcDb3dPolylineVertex
 10
246.5237679999987
 20
80.61201900000053
 30
0.0
 70
    40
  0
VERTEX
  5
840F
330
83ED
100
AcDbEntity
  8
L150_
  6
Continuous
 62
     7
100
AcDbVertex
100
AcDb3dPolylineVertex
 10
246.5673119999987
 20
80.61401400000049
 30
0.0
 70
    40
  0
VERTEX
  5
8410
330
83ED
100
AcDbEntity
  8
L150_
  6
Continuous
 62
     7
100
AcDbVertex
100
AcDb3dPolylineVertex
 10
246.6101339999987
 20
80.61823900000051
 30
0.0
 70
    40
  0
VERTEX
  5
8411
330
83ED
100
AcDbEntity
  8
L150_
  6
Continuous
 62
     7
100
AcDbVertex
100
AcDb3dPolylineVertex
 10
246.6523449999987
 20
80.62399800000051
 30
0.0
 70
    40
  0
VERTEX
  5
8412
330
83ED
100
AcDbEntity
  8
L150_
  6
Continuous
 62
     7
100
AcDbVertex
100
AcDb3dPolylineVertex
 10
246.6940929999988
 20
80.63041800000046
 30
0.0
 70
    40
  0
VERTEX
  5
8413
330
83ED
100
AcDbEntity
  8
L150_
  6
Continuous
 62
     7
100
AcDbVertex
100
AcDb3dPolylineVertex
 10
246.7355279999986
 20
80.63662500000047
 30
0.0
 70
    40
  0
VERTEX
  5
8414
330
83ED
100
AcDbEntity
  8
L150_
  6
Continuous
 62
     7
100
AcDbVertex
100
AcDb3dPolylineVertex
 10
246.7768009999987
 20
80.64174300000052
 30
0.0
 70
    40
  0
VERTEX
  5
8415
330
83ED
100
AcDbEntity
  8
L150_
  6
Continuous
 62
     7
100
AcDbVertex
100
AcDb3dPolylineVertex
 10
246.8180619999988
 20
80.64489800000051
 30
0.0
 70
    40
  0
VERTEX
  5
8416
330
83ED
100
AcDbEntity
  8
L150_
  6
Continuous
 62
     7
100
AcDbVertex
100
AcDb3dPolylineVertex
 10
246.8594589999987
 20
80.64521700000051
 30
0.0
 70
    40
  0
VERTEX
  5
8417
330
83ED
100
AcDbEntity
  8
L150_
  6
Continuous
 62
     7
100
AcDbVertex
100
AcDb3dPolylineVertex
 10
246.9011429999987
 20
80.64182500000056
 30
0.0
 70
    40
  0
VERTEX
  5
8418
330
83ED
100
AcDbEntity
  8
L150_
  6
Continuous
 62
     7
100
AcDbVertex
100
AcDb3dPolylineVertex
 10
246.9432639999987
 20
80.63413600000052
 30
0.0
 70
    40
  0
VERTEX
  5
8419
330
83ED
100
AcDbEntity
  8
L150_
  6
Continuous
 62
     7
100
AcDbVertex
100
AcDb3dPolylineVertex
 10
246.9859699999986
 20
80.62271400000048
 30
0.0
 70
    40
  0
VERTEX
  5
841A
330
83ED
100
AcDbEntity
  8
L150_
  6
Continuous
 62
     7
100
AcDbVertex
100
AcDb3dPolylineVertex
 10
247.0294089999987
 20
80.60841400000043
 30
0.0
 70
    40
  0
VERTEX
  5
841B
330
83ED
100
AcDbEntity
  8
L150_
  6
Continuous
 62
     7
100
AcDbVertex
100
AcDb3dPolylineVertex
 10
247.0737299999986
 20
80.59208700000048
 30
0.0
 70
    40
  0
VERTEX
  5
841C
330
83ED
100
AcDbEntity
  8
L150_
  6
Continuous
 62
     7
100
AcDbVertex
100
AcDb3dPolylineVertex
 10
247.1190809999987
 20
80.57458700000058
 30
0.0
 70
    40
  0
VERTEX
  5
841D
330
83ED
100
AcDbEntity
  8
L150_
  6
Continuous
 62
     7
100
AcDbVertex
100
AcDb3dPolylineVertex
 10
247.1656109999987
 20
80.55676700000054
 30
0.0
 70
    40
  0
VERTEX
  5
841E
330
83ED
100
AcDbEntity
  8
L150_
  6
Continuous
 62
     7
100
AcDbVertex
100
AcDb3dPolylineVertex
 10
247.2134659999987
 20
80.53948000000053
 30
0.0
 70
    40
  0
VERTEX
  5
841F
330
83ED
100
AcDbEntity
  8
L150_
  6
Continuous
 62
     7
100
AcDbVertex
100
AcDb3dPolylineVertex
 10
247.2627969999988
 20
80.52358000000054
 30
0.0
 70
    40
  0
VERTEX
  5
8420
330
83ED
100
AcDbEntity
  8
L150_
  6
Continuous
 62
     7
100
AcDbVertex
100
AcDb3dPolylineVertex
 10
247.3136429999986
 20
80.50976100000054
 30
0.0
 70
    40
  0
VERTEX
  5
8421
330
83ED
100
AcDbEntity
  8
L150_
  6
Continuous
 62
     7
100
AcDbVertex
100
AcDb3dPolylineVertex
 10
247.3656139999988
 20
80.49808800000047
 30
0.0
 70
    40
  0
VERTEX
  5
8422
330
83ED
100
AcDbEntity
  8
L150_
  6
Continuous
 62
     7
100
AcDbVertex
100
AcDb3dPolylineVertex
 10
247.4182119999987
 20
80.48847000000051
 30
0.0
 70
    40
  0
VERTEX
  5
8423
330
83ED
100
AcDbEntity
  8
L150_
  6
Continuous
 62
     7
100
AcDbVertex
100
AcDb3dPolylineVertex
 10
247.4709379999986
 20
80.48081100000052
 30
0.0
 70
    40
  0
VERTEX
  5
8424
330
83ED
100
AcDbEntity
  8
L150_
  6
Continuous
 62
     7
100
AcDbVertex
100
AcDb3dPolylineVertex
 10
247.5232939999988
 20
80.47502100000048
 30
0.0
 70
    40
  0
VERTEX
  5
8425
330
83ED
100
AcDbEntity
  8
L150_
  6
Continuous
 62
     7
100
AcDbVertex
100
AcDb3dPolylineVertex
 10
247.5747819999986
 20
80.4710060000005
 30
0.0
 70
    40
  0
VERTEX
  5
8426
330
83ED
100
AcDbEntity
  8
L150_
  6
Continuous
 62
     7
100
AcDbVertex
100
AcDb3dPolylineVertex
 10
247.6249039999987
 20
80.46867400000058
 30
0.0
 70
    40
  0
VERTEX
  5
8427
330
83ED
100
AcDbEntity
  8
L150_
  6
Continuous
 62
     7
100
AcDbVertex
100
AcDb3dPolylineVertex
 10
247.6731619999987
 20
80.46793100000042
 30
0.0
 70
    40
  0
VERTEX
  5
8428
330
83ED
100
AcDbEntity
  8
L150_
  6
Continuous
 62
     7
100
AcDbVertex
100
AcDb3dPolylineVertex
 10
247.7191889999987
 20
80.46866900000061
 30
0.0
 70
    40
  0
VERTEX
  5
8429
330
83ED
100
AcDbEntity
  8
L150_
  6
Continuous
 62
     7
100
AcDbVertex
100
AcDb3dPolylineVertex
 10
247.7631479999987
 20
80.47071700000056
 30
0.0
 70
    40
  0
VERTEX
  5
842A
330
83ED
100
AcDbEntity
  8
L150_
  6
Continuous
 62
     7
100
AcDbVertex
100
AcDb3dPolylineVertex
 10
247.8053349999987
 20
80.47388600000052
 30
0.0
 70
    40
  0
VERTEX
  5
842B
330
83ED
100
AcDbEntity
  8
L150_
  6
Continuous
 62
     7
100
AcDbVertex
100
AcDb3dPolylineVertex
 10
247.8460429999987
 20
80.47799000000061
 30
0.0
 70
    40
  0
VERTEX
  5
842C
330
83ED
100
AcDbEntity
  8
L150_
  6
Continuous
 62
     7
100
AcDbVertex
100
AcDb3dPolylineVertex
 10
247.8855689999987
 20
80.48284100000053
 30
0.0
 70
    40
  0
VERTEX
  5
842D
330
83ED
100
AcDbEntity
  8
L150_
  6
Continuous
 62
     7
100
AcDbVertex
100
AcDb3dPolylineVertex
 10
247.9242069999987
 20
80.48825100000051
 30
0.0
 70
    40
  0
VERTEX
  5
842E
330
83ED
100
AcDbEntity
  8
L150_
  6
Continuous
 62
     7
100
AcDbVertex
100
AcDb3dPolylineVertex
 10
247.9622529999986
 20
80.49403300000058
 30
0.0
 70
    40
  0
VERTEX
  5
842F
330
83ED
100
AcDbEntity
  8
L150_
  6
Continuous
 62
     7
100
AcDbVertex
100
AcDb3dPolylineVertex
 10
247.9999999999987
 20
80.50000000000052
 30
0.0
 70
    40
  0
VERTEX
  5
8430
330
83ED
100
AcDbEntity
  8
L150_
  6
Continuous
 62
     7
100
AcDbVertex
100
AcDb3dPolylineVertex
 10
245.1436769999987
 20
80.55053700000042
 30
0.0
 70
    48
  0
VERTEX
  5
8431
330
83ED
100
AcDbEntity
  8
L150_
  6
Continuous
 62
     7
100
AcDbVertex
100
AcDb3dPolylineVertex
 10
245.4310299999987
 20
80.65167200000045
 30
0.0
 70
    48
  0
VERTEX
  5
8432
330
83ED
100
AcDbEntity
  8
L150_
  6
Continuous
 62
     7
100
AcDbVertex
100
AcDb3dPolylineVertex
 10
245.8359379999986
 20
80.74408000000042
 30
0.0
 70
    48
  0
VERTEX
  5
8433
330
83ED
100
AcDbEntity
  8
L150_
  6
Continuous
 62
     7
100
AcDbVertex
100
AcDb3dPolylineVertex
 10
246.2056269999987
 20
80.64007600000051
 30
0.0
 70
    48
  0
VERTEX
  5
8434
330
83ED
100
AcDbEntity
  8
L150_
  6
Continuous
 62
     7
100
AcDbVertex
100
AcDb3dPolylineVertex
 10
246.5754389999986
 20
80.58831800000046
 30
0.0
 70
    48
  0
VERTEX
  5
8435
330
83ED
100
AcDbEntity
  8
L150_
  6
Continuous
 62
     7
100
AcDbVertex
100
AcDb3dPolylineVertex
 10
246.8964839999987
 20
80.69073500000053
 30
0.0
 70
    48
  0
VERTEX
  5
8436
330
83ED
100
AcDbEntity
  8
L150_
  6
Continuous
 62
     7
100
AcDbVertex
100
AcDb3dPolylineVertex
 10
247.2454829999987
 20
80.49969500000049
 30
0.0
 70
    48
  0
VERTEX
  5
8437
330
83ED
100
AcDbEntity
  8
L150_
  6
Continuous
 62
     7
100
AcDbVertex
100
AcDb3dPolylineVertex
 10
247.6983639999988
 20
80.45196500000061
 30
0.0
 70
    48
  0
VERTEX
  5
8438
330
83ED
100
AcDbEntity
  8
L150_
  6
Continuous
 62
     7
100
AcDbVertex
100
AcDb3dPolylineVertex
 10
247.8994749999986
 20
80.48400900000054
 30
0.0
 70
    48
  0
VERTEX
  5
8439
330
83ED
100
AcDbEntity
  8
L150_
  6
Continuous
 62
     7
100
AcDbVertex
100
AcDb3dPolylineVertex
 10
247.9999999999987
 20
80.50000000000052
 30
0.0
 70
    48
  0
SEQEND
  5
843A
330
83ED
100
AcDbEntity
  8
L150_
  6
Continuous
 62
     7
  0
LEADER
  5
851D
330
1E
100
AcDbEntity
  8
30
100
AcDbLeader
  3
STANDARD
 76
     3
 10
0.0
 20
-192.5
 30
0.0
 10
-9.578446229259036
 20
-170.0
 30
0.0
 10
-37.5
 20
-170.0
 30
0.0
1001
ACAD
1000
DSTYLE
1002
{
1070
     5
1000
OPEN
1070
    77
1070
     0
1070
    79
1070
     3
1070
   147
1040
1.0
1002
}
  0
TEXT
  5
851E
330
1E
100
AcDbEntity
  8
30
100
AcDbText
 10
-37.5
 20
-169.3363751127696
 30
0.0
 40
5.0
  1
M4x0.7
  7
STANDARD1
100
AcDbText
  0
LINE
  5
860C
330
1E
100
AcDbEntity
  8
12
  6
DASHED
100
AcDbLine
 10
0.0
 20
50.0
 30
0.0
 11
0.0000000000000071
 21
60.99999999999999
 31
0.0
  0
LINE
  5
8614
330
1E
100
AcDbEntity
  8
12
  6
DASHED
100
AcDbLine
 10
0.0
 20
-60.99999999999999
 30
0.0
 11
0.0000000000000071
 21
-50.0
 31
0.0
  0
LWPOLYLINE
  5
8629
330
1E
100
AcDbEntity
  8
24
  6
CONTINOUS
100
AcDbPolyline
 90
        2
 70
     1
 43
0.001
 10
17.0
 20
-55.50000099999988
 42
-1.0
 10
8.0
 20
-55.4999990000001
 42
-1.0
  0
LINE
  5
862A
330
1E
100
AcDbEntity
  8
24
  6
CONTINOUS
100
AcDbLine
 10
5.5
 20
-55.5
 30
0.0
 11
19.5
 21
-55.5
 31
0.0
  0
LINE
  5
862B
330
1E
100
AcDbEntity
  8
24
  6
CONTINOUS
100
AcDbLine
 10
12.5
 20
-62.5
 30
0.0
 11
12.5
 21
-48.49999999999994
 31
0.0
  0
LEADER
  5
8693
330
1E
100
AcDbEntity
  8
30
  6
Continuous
100
AcDbLeader
  3
STANDARD
 76
     3
 10
38.71853282788573
 20
-256.4159034737391
 30
0.0
 10
60.0
 20
-340.0
 30
0.0
 10
247.0
 20
-340.0
 30
0.0
213
6.470981377232305
223
2.0
233
0.0
1001
ACAD
1000
DSTYLE
1002
{
1070
    41
1040
2.5
1070
    77
1070
     0
1070
    79
1070
     3
1070
   147
1040
1.0
1070
   342
1005
3B2
1002
}
  0
LINE
  5
869E
330
1E
100
AcDbEntity
  8
12
100
AcDbLine
 10
-4.041504000000028
 20
241.1999519999999
 30
0.0
 11
-4.041504000000028
 21
238.0
 31
0.0
  0
LINE
  5
869F
330
1E
100
AcDbEntity
  8
12
100
AcDbLine
 10
4.041503999999803
 20
241.1999519999999
 30
0.0
 11
4.041503999999803
 21
238.0
 31
0.0
  0
LINE
  5
86A0
330
1E
100
AcDbEntity
  8
12
100
AcDbLine
 10
-4.041504000000028
 20
241.1999519999999
 30
0.0
 11
4.041503999999803
 21
241.1999519999999
 31
0.0
  0
LEADER
  5
86E5
330
1E
100
AcDbEntity
  8
30
  6
Continuous
100
AcDbLeader
  3
STANDARD
 76
     3
 10
2.0
 20
244.199951
 30
0.0
 10
60.00006100000007
 20
260.0
 30
0.0
 10
162.0260445879558
 20
260.0
 30
0.0
213
6.470981377232305
223
2.0
233
0.0
1001
ACAD
1000
DSTYLE
1002
{
1070
    41
1040
2.5
1070
    77
1070
     0
1070
    79
1070
     3
1070
   147
1040
1.0
1070
   342
1005
3B2
1002
}
  0
TEXT
  5
86E6
330
1E
100
AcDbEntity
  8
30
  6
Continuous
100
AcDbText
 10
61.44422514169992
 20
261.9747881298007
 30
0.0
 40
5.0
  1
M4x0.7 Mounting screw
  7
STANDARD1
100
AcDbText
  0
LEADER
  5
86E7
330
1E
100
AcDbEntity
  8
30
  6
Continuous
100
AcDbLeader
  3
STANDARD
 76
     3
 10
221.0
 20
-80.0
 30
0.0
 10
260.0
 20
-120.0
 30
0.0
 10
330.0
 20
-120.0
 30
0.0
213
6.470981377232305
223
2.0
233
0.0
1001
ACAD
1000
DSTYLE
1002
{
1070
    41
1040
2.5
1070
    77
1070
     0
1070
    79
1070
     3
1070
   147
1040
1.0
1070
   342
1005
3B2
1002
}
  0
TEXT
  5
86E8
330
1E
100
AcDbEntity
  8
30
  6
Continuous
100
AcDbText
 10
261.4441641416998
 20
-118.0252118701992
 30
0.0
 40
5.0
  1
t3.2(max.)
  7
STANDARD1
100
AcDbText
  0
TEXT
  5
86EA
330
1E
100
AcDbEntity
  8
30
  6
Continuous
100
AcDbText
 10
261.4441641416998
 20
-111.0252118701992
 30
0.0
 40
5.0
  1
Mounting plate
  7
STANDARD1
100
AcDbText
  0
TEXT
  5
86EB
330
1E
100
AcDbEntity
  8
30
  6
Continuous
100
AcDbText
 10
61.44422514169992
 20
-338.0252118701993
 30
0.0
 40
5.0
  1
%%C15 for accessory wiring when necessary 
  7
STANDARD1
100
AcDbText
  0
LWPOLYLINE
  5
8703
330
1E
100
AcDbEntity
  8
30
  6
Continuous
100
AcDbPolyline
 90
        2
 70
     0
 43
0.001
 10
320.0155829999999
 20
-80.0000000000001
 10
280.5338019999999
 20
-80.0000000000001
  0
LEADER
  5
8704
330
1E
100
AcDbEntity
  8
30
  6
Continuous
100
AcDbLeader
  3
STANDARD
 76
     3
 10
260.0
 20
-55.5
 30
0.0
 10
280.5338019999999
 20
-80.0000000000001
 30
0.0
 10
320.0155829999999
 20
-80.0000000000001
 30
0.0
213
6.470981377232305
223
2.0
233
0.0
1001
ACAD
1000
DSTYLE
1002
{
1070
    41
1040
2.5
1070
    77
1070
     0
1070
    79
1070
     3
1070
   147
1040
1.0
1070
   342
1005
3B2
1002
}
  0
TEXT
  5
8705
330
1E
100
AcDbEntity
  8
30
  6
Continuous
100
AcDbText
 10
281.9779661416998
 20
-78.02521187019936
 30
0.0
 40
5.0
  1
M6 screw
  7
STANDARD1
100
AcDbText
  0
DIMENSION
  5
872C
330
1E
100
AcDbEntity
  8
30
  6
Continuous
100
AcDbDimension
  2
*D29
 10
-100.0
 20
238.0
 30
0.0
 11
-103.0
 21
259.0
 31
0.0
 70
    32
 71
     5
 42
42.00000000000001
  3
STANDARD
100
AcDbAlignedDimension
 13
-15.5
 23
280.0
 33
0.0
 14
-67.00202340076157
 24
238.0
 34
0.0
 50
90.0
100
AcDbRotatedDimension
1001
ACAD
1000
DSTYLE
1002
{
1070
    79
1070
     3
1002
}
  0
DIMENSION
  5
872D
330
1E
100
AcDbEntity
  8
30
  6
Continuous
100
AcDbDimension
  2
*D30
 10
-80.0
 20
238.0
 30
0.0
 11
-83.00000000000004
 21
251.5
 31
0.0
 70
    32
 71
     5
 42
27.00000000000003
  3
STANDARD
100
AcDbAlignedDimension
 13
-18.25
 23
265.0
 33
0.0
 14
-67.00202340076157
 24
238.0
 34
0.0
 50
90.0
100
AcDbRotatedDimension
1001
ACAD
1000
DSTYLE
1002
{
1070
    79
1070
     3
1002
}
  0
VIEWPORT
  5
9AC
102
{ACAD_XDICTIONARY
360
87BB
102
}
330
1A
100
AcDbEntity
 67
     1
  8
0
  6
Continuous
100
AcDbViewport
 10
5.758012719964252
 20
3.902083231708196
 30
0.0
 40
15.16322143840179
 41
8.746133096049151
 68
     1
 69
     1
 12
5.758012719964252
 22
3.902083231708196
 13
0.0
 23
0.0
 14
10.0
 24
10.0
 15
10.0
 25
10.0
 16
0.0
 26
0.0
 36
1.0
 17
0.0
 27
0.0
 37
0.0
 42
50.0
 43
0.0
 44
0.0
 45
8.746133096049151
 50
0.0
 51
0.0
 72
   100
 90
    32800
  1

281
     0
 71
     1
 74
     0
110
0.0
120
0.0
130
0.0
111
1.0
121
0.0
131
0.0
112
0.0
122
1.0
132
0.0
 79
     0
146
0.0
  0
VIEWPORT
  5
6267
102
{ACAD_XDICTIONARY
360
87C0
102
}
330
1A
100
AcDbEntity
 67
     1
  8
30
  6
Continuous
100
AcDbViewport
 10
5.613749965908018
 20
3.902083250481312
 30
0.0
 40
8.981999945452834
 41
6.243333200770099
 68
     2
 69
     2
 12
107.0904203558153
 22
-39.95474566704796
 13
0.0
 23
0.0
 14
1.0
 24
1.0
 15
10.0
 25
10.0
 16
0.0
 26
0.0
 36
1.0
 17
0.0
 27
0.0
 37
0.0
 42
50.0
 43
0.0
 44
0.0
 45
650.0648328262407
 50
0.0
 51
0.0
 72
   100
 90
    33312
  1

281
     0
 71
     1
 74
     0
110
0.0
120
0.0
130
0.0
111
1.0
121
0.0
131
0.0
112
0.0
122
1.0
132
0.0
 79
     0
146
0.0
  0
ENDSEC
  0
SECTION
  2
OBJECTS
  0
DICTIONARY
  5
C
330
0
100
AcDbDictionary
281
     1
  3
ACAD_COLOR
350
627F
  3
ACAD_GROUP
350
D
  3
ACAD_LAYOUT
350
19
  3
ACAD_MATERIAL
350
627E
  3
ACAD_MLEADERSTYLE
350
8511
  3
ACAD_MLINESTYLE
350
16
  3
ACAD_PLOTSETTINGS
350
18
  3
ACAD_PLOTSTYLENAME
350
E
  3
ACAD_SCALELIST
350
84EF
  3
ACAD_TABLESTYLE
350
6280
  3
ACAD_VISUALSTYLE
350
84DB
  3
ACADDIM
350
5C76
  3
ACDB_RECOMPOSE_DATA
350
87B9
  3
ACDBVARIABLEDICTIONARY
350
5697
  3
DWGPROPS
350
87BA
  0
DICTIONARY
  5
8498
330
2
100
AcDbDictionary
280
     1
281
     1
  3
ACAD_LAYERSTATES
360
8499
  0
DICTIONARY
  5
851F
330
10
100
AcDbDictionary
280
     1
281
     1
  3
ADSK_XREC_LAYER_RECONCILED
360
8520
  0
DICTIONARY
  5
8521
330
2F
100
AcDbDictionary
280
     1
281
     1
  3
ADSK_XREC_LAYER_RECONCILED
360
8522
  0
DICTIONARY
  5
8523
330
31
100
AcDbDictionary
280
     1
281
     1
  3
ADSK_XREC_LAYER_RECONCILED
360
8524
  0
DICTIONARY
  5
8525
330
35
100
AcDbDictionary
280
     1
281
     1
  3
ADSK_XREC_LAYER_RECONCILED
360
8526
  0
DICTIONARY
  5
8527
330
38
100
AcDbDictionary
280
     1
281
     1
  3
ADSK_XREC_LAYER_RECONCILED
360
8528
  0
DICTIONARY
  5
8529
330
3C
100
AcDbDictionary
280
     1
281
     1
  3
ADSK_XREC_LAYER_RECONCILED
360
852A
  0
DICTIONARY
  5
852B
330
3D
100
AcDbDictionary
280
     1
281
     1
  3
ADSK_XREC_LAYER_RECONCILED
360
852C
  0
DICTIONARY
  5
852D
330
3A2
100
AcDbDictionary
280
     1
281
     1
  3
ADSK_XREC_LAYER_RECONCILED
360
852E
  0
DICTIONARY
  5
852F
330
3BBA
100
AcDbDictionary
280
     1
281
     1
  3
ADSK_XREC_LAYER_RECONCILED
360
8530
  0
DICTIONARY
  5
8531
330
5116
100
AcDbDictionary
280
     1
281
     1
  3
ADSK_XREC_LAYER_RECONCILED
360
8532
  0
DICTIONARY
  5
8533
330
5117
100
AcDbDictionary
280
     1
281
     1
  3
ADSK_XREC_LAYER_RECONCILED
360
8534
  0
DICTIONARY
  5
8535
330
5C47
100
AcDbDictionary
280
     1
281
     1
  3
ADSK_XREC_LAYER_RECONCILED
360
8536
  0
DICTIONARY
  5
8537
330
6390
100
AcDbDictionary
280
     1
281
     1
  3
ADSK_XREC_LAYER_RECONCILED
360
8538
  0
DICTIONARY
  5
8539
330
6391
100
AcDbDictionary
280
     1
281
     1
  3
ADSK_XREC_LAYER_RECONCILED
360
853A
  0
DICTIONARY
  5
853B
330
6392
100
AcDbDictionary
280
     1
281
     1
  3
ADSK_XREC_LAYER_RECONCILED
360
853C
  0
DICTIONARY
  5
853D
330
6393
100
AcDbDictionary
280
     1
281
     1
  3
ADSK_XREC_LAYER_RECONCILED
360
853E
  0
DICTIONARY
  5
853F
330
6394
100
AcDbDictionary
280
     1
281
     1
  3
ADSK_XREC_LAYER_RECONCILED
360
8540
  0
DICTIONARY
  5
8541
330
6395
100
AcDbDictionary
280
     1
281
     1
  3
ADSK_XREC_LAYER_RECONCILED
360
8542
  0
DICTIONARY
  5
8543
330
6396
100
AcDbDictionary
280
     1
281
     1
  3
ADSK_XREC_LAYER_RECONCILED
360
8544
  0
DICTIONARY
  5
8545
330
7247
100
AcDbDictionary
280
     1
281
     1
  3
ADSK_XREC_LAYER_RECONCILED
360
8546
  0
DICTIONARY
  5
8547
330
7248
100
AcDbDictionary
280
     1
281
     1
  3
ADSK_XREC_LAYER_RECONCILED
360
8548
  0
DICTIONARY
  5
178
330
1E
100
AcDbDictionary
280
     1
281
     1
  3
ACAD_LAYOUTSELFREF
360
6251
  3
ACAD_SORTENTS
360
6D1B
  0
DICTIONARY
  5
17A
330
1A
100
AcDbDictionary
280
     1
281
     1
  3
ACAD_LAYOUTSELFREF
360
6250
  0
DICTIONARY
  5
87BB
330
9AC
100
AcDbDictionary
280
     1
281
     1
  3
ACAD_XREC_ROUNDTRIP
360
87BC
  0
DICTIONARY
  5
87C0
330
6267
100
AcDbDictionary
280
     1
281
     1
  3
ACAD_XREC_ROUNDTRIP
360
87C1
  0
DICTIONARY
  5
627F
102
{ACAD_REACTORS
330
C
102
}
330
C
100
AcDbDictionary
281
     1
  0
DICTIONARY
  5
D
102
{ACAD_REACTORS
330
C
102
}
330
C
100
AcDbDictionary
281
     1
  0
DICTIONARY
  5
19
102
{ACAD_REACTORS
330
C
102
}
330
C
100
AcDbDictionary
281
     1
  3
Model
350
6262
  3
ﾚｲｱｳﾄ1
350
6263
  0
DICTIONARY
  5
627E
102
{ACAD_REACTORS
330
C
102
}
330
C
100
AcDbDictionary
281
     1
  3
ByBlock
350
84CB
  3
ByLayer
350
84C3
  3
Global
350
84D3
  0
DICTIONARY
  5
8511
102
{ACAD_REACTORS
330
C
102
}
330
C
100
AcDbDictionary
281
     1
  3
Standard
350
8512
  0
DICTIONARY
  5
16
102
{ACAD_REACTORS
330
C
102
}
330
C
100
AcDbDictionary
281
     1
  3
STANDARD
350
17
  0
DICTIONARY
  5
18
102
{ACAD_REACTORS
330
C
102
}
330
C
100
AcDbDictionary
281
     1
  0
ACDBDICTIONARYWDFLT
  5
E
102
{ACAD_REACTORS
330
C
102
}
330
C
100
AcDbDictionary
281
     1
  3
Normal
350
F
100
AcDbDictionaryWithDefault
340
F
  0
DICTIONARY
  5
84EF
102
{ACAD_REACTORS
330
C
102
}
330
C
100
AcDbDictionary
281
     1
  3
A0
350
84F0
  3
A1
350
84F1
  3
A2
350
84F2
  3
A3
350
84F3
  3
A4
350
84F4
  3
A5
350
84F5
  3
A6
350
84F6
  3
A7
350
84F7
  3
A8
350
84F8
  3
A9
350
84F9
  3
B0
350
84FA
  3
B1
350
84FB
  3
B2
350
84FC
  3
B3
350
84FD
  3
B4
350
84FE
  3
B5
350
84FF
  3
B6
350
8500
  3
B7
350
8501
  3
B8
350
8502
  3
B9
350
8503
  3
C0
350
8504
  3
C1
350
8505
  3
C2
350
8506
  3
C3
350
8507
  3
C4
350
8508
  3
C5
350
8509
  3
C6
350
850A
  3
C7
350
850B
  3
C8
350
850C
  3
C9
350
850D
  3
D0
350
850E
  3
D1
350
850F
  3
D2
350
8510
  0
DICTIONARY
  5
6280
102
{ACAD_REACTORS
330
C
102
}
330
C
100
AcDbDictionary
281
     1
  3
Standard
350
6281
  0
DICTIONARY
  5
84DB
102
{ACAD_REACTORS
330
C
102
}
330
C
100
AcDbDictionary
281
     1
  3
2dWireframe
350
84E1
  3
3D Hidden
350
84E3
  3
3dWireframe
350
84E2
  3
Basic
350
84E0
  3
Brighten
350
84E7
  3
ColorChange
350
84EB
  3
Conceptual
350
84E4
  3
Dim
350
84E6
  3
EdgeColorOff
350
84EE
  3
Facepattern
350
84EA
  3
Flat
350
84DC
  3
FlatWithEdges
350
84DD
  3
Gouraud
350
84DE
  3
GouraudWithEdges
350
84DF
  3
JitterOff
350
84EC
  3
Linepattern
350
84E9
  3
OverhangOff
350
84ED
  3
Realistic
350
84E5
  3
Thicken
350
84E8
  0
XRECORD
  5
5C76
102
{ACAD_REACTORS
330
C
102
}
330
C
100
AcDbXrecord
280
     1
 90
   990106
  3

 60
     0
 61
     0
 62
     1
 63
     3
 64
     0
 65
     0
 66
     0
 67
     3
 68
     1
 69
     0
 70
     0
 71
     0
 72
     0
 40
0.0
170
     0
340
6200
  0
XRECORD
  5
87B9
102
{ACAD_REACTORS
330
C
102
}
330
C
100
AcDbXrecord
280
     1
 90
        1
330
6281
  0
DICTIONARY
  5
5697
102
{ACAD_REACTORS
330
C
102
}
330
C
100
AcDbDictionary
281
     1
  3
CANNOSCALE
350
854A
  3
CMLEADERSTYLE
350
8549
  3
CTABLESTYLE
350
70FB
  3
DIMASSOC
350
5698
  3
INDEXCTL
350
854C
  3
PROJECTNAME
350
70FC
  3
SORTENTS
350
854B
  3
XCLIPFRAME
350
87B7
  0
XRECORD
  5
87BA
102
{ACAD_REACTORS
330
C
102
}
330
C
100
AcDbXrecord
280
     1
  1
DWGPROPS COOKIE
  2

  3

  4

  6

  7

  8
cadm
  9

300
=
301
=
302
=
303
=
304
=
305
=
306
=
307
=
308
=
309
=
 40
1.421323124999999
 41
2452286.555658658
 42
2455232.608298241
  1

 90
        0
  0
DICTIONARY
  5
8499
102
{ACAD_REACTORS
330
8498
102
}
330
8498
100
AcDbDictionary
281
     1
  0
XRECORD
  5
8520
102
{ACAD_REACTORS
330
851F
102
}
330
851F
100
AcDbXrecord
280
     1
290
     1
  0
XRECORD
  5
8522
102
{ACAD_REACTORS
330
8521
102
}
330
8521
100
AcDbXrecord
280
     1
290
     1
  0
XRECORD
  5
8524
102
{ACAD_REACTORS
330
8523
102
}
330
8523
100
AcDbXrecord
280
     1
290
     1
  0
XRECORD
  5
8526
102
{ACAD_REACTORS
330
8525
102
}
330
8525
100
AcDbXrecord
280
     1
290
     1
  0
XRECORD
  5
8528
102
{ACAD_REACTORS
330
8527
102
}
330
8527
100
AcDbXrecord
280
     1
290
     1
  0
XRECORD
  5
852A
102
{ACAD_REACTORS
330
8529
102
}
330
8529
100
AcDbXrecord
280
     1
290
     1
  0
XRECORD
  5
852C
102
{ACAD_REACTORS
330
852B
102
}
330
852B
100
AcDbXrecord
280
     1
290
     1
  0
XRECORD
  5
852E
102
{ACAD_REACTORS
330
852D
102
}
330
852D
100
AcDbXrecord
280
     1
290
     1
  0
XRECORD
  5
8530
102
{ACAD_REACTORS
330
852F
102
}
330
852F
100
AcDbXrecord
280
     1
290
     1
  0
XRECORD
  5
8532
102
{ACAD_REACTORS
330
8531
102
}
330
8531
100
AcDbXrecord
280
     1
290
     1
  0
XRECORD
  5
8534
102
{ACAD_REACTORS
330
8533
102
}
330
8533
100
AcDbXrecord
280
     1
290
     1
  0
XRECORD
  5
8536
102
{ACAD_REACTORS
330
8535
102
}
330
8535
100
AcDbXrecord
280
     1
290
     1
  0
XRECORD
  5
8538
102
{ACAD_REACTORS
330
8537
102
}
330
8537
100
AcDbXrecord
280
     1
290
     1
  0
XRECORD
  5
853A
102
{ACAD_REACTORS
330
8539
102
}
330
8539
100
AcDbXrecord
280
     1
290
     1
  0
XRECORD
  5
853C
102
{ACAD_REACTORS
330
853B
102
}
330
853B
100
AcDbXrecord
280
     1
290
     1
  0
XRECORD
  5
853E
102
{ACAD_REACTORS
330
853D
102
}
330
853D
100
AcDbXrecord
280
     1
290
     1
  0
XRECORD
  5
8540
102
{ACAD_REACTORS
330
853F
102
}
330
853F
100
AcDbXrecord
280
     1
290
     1
  0
XRECORD
  5
8542
102
{ACAD_REACTORS
330
8541
102
}
330
8541
100
AcDbXrecord
280
     1
290
     1
  0
XRECORD
  5
8544
102
{ACAD_REACTORS
330
8543
102
}
330
8543
100
AcDbXrecord
280
     1
290
     1
  0
XRECORD
  5
8546
102
{ACAD_REACTORS
330
8545
102
}
330
8545
100
AcDbXrecord
280
     1
290
     1
  0
XRECORD
  5
8548
102
{ACAD_REACTORS
330
8547
102
}
330
8547
100
AcDbXrecord
280
     1
290
     1
  0
XRECORD
  5
6251
102
{ACAD_REACTORS
330
178
102
}
330
178
100
AcDbXrecord
280
     1
340
1E
  0
SORTENTSTABLE
  5
6D1B
102
{ACAD_REACTORS
330
178
102
}
330
178
100
AcDbSortentsTable
330
1E
331
67AA
  5
67AC
331
6546
  5
6546
331
64AA
  5
64AA
331
6A25
  5
6A27
331
6565
  5
6565
331
654F
  5
654F
331
64CB
  5
64CB
331
67AB
  5
67D1
331
64AB
  5
64AB
331
64A3
  5
64A3
331
6748
  5
674A
331
64CC
  5
64CC
331
67AC
  5
67D3
331
64B4
  5
64B4
331
6540
  5
6540
331
64AC
  5
64AC
331
6530
  5
6530
331
650A
  5
650A
331
67D1
  5
67FD
331
6749
  5
67A3
331
655F
  5
655F
331
67A5
  5
67A7
331
6541
  5
6541
331
6531
  5
6531
331
650B
  5
650B
331
674A
  5
67A4
331
6560
  5
6560
331
67A6
  5
67A8
331
6514
  5
6514
331
6200
  5
6200
331
6550
  5
6550
331
6532
  5
6532
331
5C78
  5
5C78
331
67D3
  5
691F
331
6711
  5
6749
331
6A21
  5
6A23
331
6561
  5
6561
331
654B
  5
654B
331
651D
  5
651D
331
6269
  5
6269
331
67A7
  5
67A9
331
6551
  5
6551
331
6533
  5
6533
331
691F
  5
6A22
331
6A22
  5
6A24
331
6562
  5
6562
331
654C
  5
654C
331
64C8
  5
64C8
331
651E
  5
651E
331
67A8
  5
67AA
331
6552
  5
6552
331
67FD
  5
6A21
331
652F
  5
652F
331
6563
  5
6563
331
654D
  5
654D
331
64B1
  5
64B1
331
67A9
  5
67AB
331
64A9
  5
64A9
331
6553
  5
6553
331
BF3
  5
BF3
331
6BCC
  5
6BF5
331
6A24
  5
6A26
331
6564
  5
6564
331
64CA
  5
64CA
331
654E
  5
654E
  0
XRECORD
  5
6250
102
{ACAD_REACTORS
330
17A
102
}
330
17A
100
AcDbXrecord
280
     1
340
1A
  0
XRECORD
  5
87BC
102
{ACAD_REACTORS
330
87BB
102
}
330
87BB
100
AcDbXrecord
280
     1
102
SHADEPLOT
 70
     0
  0
XRECORD
  5
87C1
102
{ACAD_REACTORS
330
87C0
102
}
330
87C0
100
AcDbXrecord
280
     1
102
SHADEPLOT
 70
     0
  0
LAYOUT
  5
6262
102
{ACAD_XDICTIONARY
360
87BD
102
}
102
{ACAD_REACTORS
330
19
102
}
330
19
100
AcDbPlotSettings
  1

  2
自動 RICOH IPSiO NX760 RPCS (PRINT_SERV 上)
  4
A4
  6

 40
5.873749732971191
 41
5.873747825622557
 42
5.873748779296875
 43
5.873748779296875
 44
209.9733276367186
 45
296.9259948730469
 46
9.518622593436273
 47
0.0
 48
0.0
 49
0.0
140
0.0
141
0.0
142
1.0
143
59.23538253321043
 70
 11956
 72
     0
 73
     0
 74
     1
  7
monochrome.ctb
 75
     0
147
0.016881802011481
148
2230.705126592466
149
8890.588780128958
100
AcDbLayout
  1
Model
 70
     1
 71
     0
 10
0.0
 20
0.0
 11
12.0
 21
9.0
 12
0.0
 22
0.0
 32
0.0
 14
0.0
 24
0.0
 34
0.0
 15
0.0
 25
0.0
 35
0.0
146
0.0
 13
0.0
 23
0.0
 33
0.0
 16
1.0
 26
0.0
 36
0.0
 17
0.0
 27
1.0
 37
0.0
 76
     0
330
1E
331
84B2
1001
ACAD_PSEXT
1000
自動 RICOH IPSiO NX760 RPCS (PRINT_SERV 上)
1000
RICOH IPSiO NX760 RPCS
1000
\\PRINT_SERV
1000
RPCS Driver (Windows 2000/XP/Server 2003)
1070
     0
  0
LAYOUT
  5
6263
102
{ACAD_XDICTIONARY
360
849B
102
}
102
{ACAD_REACTORS
330
19
102
}
330
19
100
AcDbPlotSettings
  1

  2
Canon LBP3800 LIPSLX
  4
A4
  6

 40
5.873749732971191
 41
5.873747825622557
 42
5.873748779296875
 43
5.873748779296875
 44
209.9733276367186
 45
296.9259948730469
 46
0.0
 47
0.0
 48
0.0
 49
0.0
140
0.0
141
0.0
142
1.0
143
1.0
 70
   688
 72
     0
 73
     1
 74
     5
  7
monochrome.ctb
 75
    16
147
1.0
148
0.0
149
0.0
100
AcDbLayout
  1
ﾚｲｱｳﾄ1
 70
     1
 71
     1
 10
-0.2312499519408218
 20
-0.2312499894870548
 11
11.45874984621061
 21
8.035416452903447
 12
0.0
 22
0.0
 32
0.0
 14
1.1227499931816
 24
0.7804166500962629
 34
0.0
 15
10.10474993863443
 25
7.023749850866361
 35
0.0
146
0.0
 13
0.0
 23
0.0
 33
0.0
 16
1.0
 26
0.0
 36
0.0
 17
0.0
 27
1.0
 37
0.0
 76
     0
330
1A
331
9AC
  0
MATERIAL
  5
84CB
102
{ACAD_XDICTIONARY
360
84CC
102
}
102
{ACAD_REACTORS
330
627E
102
}
330
627E
100
AcDbMaterial
  1
ByBlock
 72
     0
 43
0.0208333333333333
 43
0.0
 43
0.0
 43
0.0
 43
0.0
 43
0.0208333333333333
 43
0.0
 43
0.0
 43
0.0
 43
0.0
 43
1.0
 43
0.0
 43
0.0
 43
0.0
 43
0.0
 43
1.0
 77
     0
 47
0.0208333333333333
 47
0.0
 47
0.0
 47
0.0
 47
0.0
 47
0.0208333333333333
 47
0.0
 47
0.0
 47
0.0
 47
0.0
 47
1.0
 47
0.0
 47
0.0
 47
0.0
 47
0.0
 47
1.0
171
     0
 49
0.0208333333333333
 49
0.0
 49
0.0
 49
0.0
 49
0.0
 49
0.0208333333333333
 49
0.0
 49
0.0
 49
0.0
 49
0.0
 49
1.0
 49
0.0
 49
0.0
 49
0.0
 49
0.0
 49
1.0
175
     0
142
0.0208333333333333
142
0.0
142
0.0
142
0.0
142
0.0
142
0.0208333333333333
142
0.0
142
0.0
142
0.0
142
0.0
142
1.0
142
0.0
142
0.0
142
0.0
142
0.0
142
1.0
179
     0
144
0.0208333333333333
144
0.0
144
0.0
144
0.0
144
0.0
144
0.0208333333333333
144
0.0
144
0.0
144
0.0
144
0.0
144
1.0
144
0.0
144
0.0
144
0.0
144
0.0
144
1.0
147
0.0208333333333333
147
0.0
147
0.0
147
0.0
147
0.0
147
0.0208333333333333
147
0.0
147
0.0
147
0.0
147
0.0
147
1.0
147
0.0
147
0.0
147
0.0
147
0.0
147
1.0
  0
MATERIAL
  5
84C3
102
{ACAD_XDICTIONARY
360
84C4
102
}
102
{ACAD_REACTORS
330
627E
102
}
330
627E
100
AcDbMaterial
  1
ByLayer
 72
     0
 43
0.0208333333333333
 43
0.0
 43
0.0
 43
0.0
 43
0.0
 43
0.0208333333333333
 43
0.0
 43
0.0
 43
0.0
 43
0.0
 43
1.0
 43
0.0
 43
0.0
 43
0.0
 43
0.0
 43
1.0
 77
     0
 47
0.0208333333333333
 47
0.0
 47
0.0
 47
0.0
 47
0.0
 47
0.0208333333333333
 47
0.0
 47
0.0
 47
0.0
 47
0.0
 47
1.0
 47
0.0
 47
0.0
 47
0.0
 47
0.0
 47
1.0
171
     0
 49
0.0208333333333333
 49
0.0
 49
0.0
 49
0.0
 49
0.0
 49
0.0208333333333333
 49
0.0
 49
0.0
 49
0.0
 49
0.0
 49
1.0
 49
0.0
 49
0.0
 49
0.0
 49
0.0
 49
1.0
175
     0
142
0.0208333333333333
142
0.0
142
0.0
142
0.0
142
0.0
142
0.0208333333333333
142
0.0
142
0.0
142
0.0
142
0.0
142
1.0
142
0.0
142
0.0
142
0.0
142
0.0
142
1.0
179
     0
144
0.0208333333333333
144
0.0
144
0.0
144
0.0
144
0.0
144
0.0208333333333333
144
0.0
144
0.0
144
0.0
144
0.0
144
1.0
144
0.0
144
0.0
144
0.0
144
0.0
144
1.0
147
0.0208333333333333
147
0.0
147
0.0
147
0.0
147
0.0
147
0.0208333333333333
147
0.0
147
0.0
147
0.0
147
0.0
147
1.0
147
0.0
147
0.0
147
0.0
147
0.0
147
1.0
  0
MATERIAL
  5
84D3
102
{ACAD_XDICTIONARY
360
84D4
102
}
102
{ACAD_REACTORS
330
627E
102
}
330
627E
100
AcDbMaterial
  1
Global
 72
     0
 43
0.0208333333333333
 43
0.0
 43
0.0
 43
0.0
 43
0.0
 43
0.0208333333333333
 43
0.0
 43
0.0
 43
0.0
 43
0.0
 43
1.0
 43
0.0
 43
0.0
 43
0.0
 43
0.0
 43
1.0
 77
     0
 47
0.0208333333333333
 47
0.0
 47
0.0
 47
0.0
 47
0.0
 47
0.0208333333333333
 47
0.0
 47
0.0
 47
0.0
 47
0.0
 47
1.0
 47
0.0
 47
0.0
 47
0.0
 47
0.0
 47
1.0
171
     0
 49
0.0208333333333333
 49
0.0
 49
0.0
 49
0.0
 49
0.0
 49
0.0208333333333333
 49
0.0
 49
0.0
 49
0.0
 49
0.0
 49
1.0
 49
0.0
 49
0.0
 49
0.0
 49
0.0
 49
1.0
175
     0
142
0.0208333333333333
142
0.0
142
0.0
142
0.0
142
0.0
142
0.0208333333333333
142
0.0
142
0.0
142
0.0
142
0.0
142
1.0
142
0.0
142
0.0
142
0.0
142
0.0
142
1.0
179
     0
144
0.0208333333333333
144
0.0
144
0.0
144
0.0
144
0.0
144
0.0208333333333333
144
0.0
144
0.0
144
0.0
144
0.0
144
1.0
144
0.0
144
0.0
144
0.0
144
0.0
144
1.0
147
0.0208333333333333
147
0.0
147
0.0
147
0.0
147
0.0
147
0.0208333333333333
147
0.0
147
0.0
147
0.0
147
0.0
147
1.0
147
0.0
147
0.0
147
0.0
147
0.0
147
1.0
  0
MLEADERSTYLE
  5
8512
102
{ACAD_REACTORS
330
8511
102
}
330
8511
100
AcDbMLeaderStyle
170
     2
171
     1
172
     0
 90
        2
 40
0.0
 41
0.0
173
     1
 91
-1056964608
340
13
 92
       -2
290
     1
 42
0.09
291
     1
 43
0.36
  3
Standard
 44
0.18
300

342
11
174
     1
178
     6
175
     1
176
     0
 93
-1056964608
 45
0.18
292
     0
297
     0
 46
0.18
 94
-1056964608
 47
1.0
 49
1.0
140
1.0
293
     1
141
0.0
294
     1
177
     0
142
1.0
295
     0
296
     0
143
0.125
1001
ACAD_MLEADERVER
1070
     2
  0
MLINESTYLE
  5
17
102
{ACAD_REACTORS
330
16
102
}
330
16
100
AcDbMlineStyle
  2
STANDARD
 70
     0
  3

 62
   256
 51
90.0
 52
90.0
 71
     2
 49
0.5
 62
   256
  6
BYLAYER
 49
-0.5
 62
   256
  6
BYLAYER
  0
ACDBPLACEHOLDER
  5
F
102
{ACAD_REACTORS
330
E
102
}
330
E
  0
SCALE
  5
84F0
102
{ACAD_REACTORS
330
84EF
102
}
330
84EF
100
AcDbScale
 70
     0
300
1:1
140
1.0
141
1.0
290
     1
  0
SCALE
  5
84F1
102
{ACAD_REACTORS
330
84EF
102
}
330
84EF
100
AcDbScale
 70
     0
300
1:2
140
1.0
141
2.0
290
     0
  0
SCALE
  5
84F2
102
{ACAD_REACTORS
330
84EF
102
}
330
84EF
100
AcDbScale
 70
     0
300
1:4
140
1.0
141
4.0
290
     0
  0
SCALE
  5
84F3
102
{ACAD_REACTORS
330
84EF
102
}
330
84EF
100
AcDbScale
 70
     0
300
1:5
140
1.0
141
5.0
290
     0
  0
SCALE
  5
84F4
102
{ACAD_REACTORS
330
84EF
102
}
330
84EF
100
AcDbScale
 70
     0
300
1:8
140
1.0
141
8.0
290
     0
  0
SCALE
  5
84F5
102
{ACAD_REACTORS
330
84EF
102
}
330
84EF
100
AcDbScale
 70
     0
300
1:10
140
1.0
141
10.0
290
     0
  0
SCALE
  5
84F6
102
{ACAD_REACTORS
330
84EF
102
}
330
84EF
100
AcDbScale
 70
     0
300
1:16
140
1.0
141
16.0
290
     0
  0
SCALE
  5
84F7
102
{ACAD_REACTORS
330
84EF
102
}
330
84EF
100
AcDbScale
 70
     0
300
1:20
140
1.0
141
20.0
290
     0
  0
SCALE
  5
84F8
102
{ACAD_REACTORS
330
84EF
102
}
330
84EF
100
AcDbScale
 70
     0
300
1:30
140
1.0
141
30.0
290
     0
  0
SCALE
  5
84F9
102
{ACAD_REACTORS
330
84EF
102
}
330
84EF
100
AcDbScale
 70
     0
300
1:40
140
1.0
141
40.0
290
     0
  0
SCALE
  5
84FA
102
{ACAD_REACTORS
330
84EF
102
}
330
84EF
100
AcDbScale
 70
     0
300
1:50
140
1.0
141
50.0
290
     0
  0
SCALE
  5
84FB
102
{ACAD_REACTORS
330
84EF
102
}
330
84EF
100
AcDbScale
 70
     0
300
1:100
140
1.0
141
100.0
290
     0
  0
SCALE
  5
84FC
102
{ACAD_REACTORS
330
84EF
102
}
330
84EF
100
AcDbScale
 70
     0
300
2:1
140
2.0
141
1.0
290
     0
  0
SCALE
  5
84FD
102
{ACAD_REACTORS
330
84EF
102
}
330
84EF
100
AcDbScale
 70
     0
300
4:1
140
4.0
141
1.0
290
     0
  0
SCALE
  5
84FE
102
{ACAD_REACTORS
330
84EF
102
}
330
84EF
100
AcDbScale
 70
     0
300
8:1
140
8.0
141
1.0
290
     0
  0
SCALE
  5
84FF
102
{ACAD_REACTORS
330
84EF
102
}
330
84EF
100
AcDbScale
 70
     0
300
10:1
140
10.0
141
1.0
290
     0
  0
SCALE
  5
8500
102
{ACAD_REACTORS
330
84EF
102
}
330
84EF
100
AcDbScale
 70
     0
300
100:1
140
100.0
141
1.0
290
     0
  0
SCALE
  5
8501
102
{ACAD_REACTORS
330
84EF
102
}
330
84EF
100
AcDbScale
 70
     0
300
1/128" = 1'-0"
140
0.0078125
141
12.0
290
     0
  0
SCALE
  5
8502
102
{ACAD_REACTORS
330
84EF
102
}
330
84EF
100
AcDbScale
 70
     0
300
1/64" = 1'-0"
140
0.015625
141
12.0
290
     0
  0
SCALE
  5
8503
102
{ACAD_REACTORS
330
84EF
102
}
330
84EF
100
AcDbScale
 70
     0
300
1/32" = 1'-0"
140
0.03125
141
12.0
290
     0
  0
SCALE
  5
8504
102
{ACAD_REACTORS
330
84EF
102
}
330
84EF
100
AcDbScale
 70
     0
300
1/16" = 1'-0"
140
0.0625
141
12.0
290
     0
  0
SCALE
  5
8505
102
{ACAD_REACTORS
330
84EF
102
}
330
84EF
100
AcDbScale
 70
     0
300
3/32" = 1'-0"
140
0.09375
141
12.0
290
     0
  0
SCALE
  5
8506
102
{ACAD_REACTORS
330
84EF
102
}
330
84EF
100
AcDbScale
 70
     0
300
1/8" = 1'-0"
140
0.125
141
12.0
290
     0
  0
SCALE
  5
8507
102
{ACAD_REACTORS
330
84EF
102
}
330
84EF
100
AcDbScale
 70
     0
300
3/16" = 1'-0"
140
0.1875
141
12.0
290
     0
  0
SCALE
  5
8508
102
{ACAD_REACTORS
330
84EF
102
}
330
84EF
100
AcDbScale
 70
     0
300
1/4" = 1'-0"
140
0.25
141
12.0
290
     0
  0
SCALE
  5
8509
102
{ACAD_REACTORS
330
84EF
102
}
330
84EF
100
AcDbScale
 70
     0
300
3/8" = 1'-0"
140
0.375
141
12.0
290
     0
  0
SCALE
  5
850A
102
{ACAD_REACTORS
330
84EF
102
}
330
84EF
100
AcDbScale
 70
     0
300
1/2" = 1'-0"
140
0.5
141
12.0
290
     0
  0
SCALE
  5
850B
102
{ACAD_REACTORS
330
84EF
102
}
330
84EF
100
AcDbScale
 70
     0
300
3/4" = 1'-0"
140
0.75
141
12.0
290
     0
  0
SCALE
  5
850C
102
{ACAD_REACTORS
330
84EF
102
}
330
84EF
100
AcDbScale
 70
     0
300
1" = 1'-0"
140
1.0
141
12.0
290
     0
  0
SCALE
  5
850D
102
{ACAD_REACTORS
330
84EF
102
}
330
84EF
100
AcDbScale
 70
     0
300
1-1/2" = 1'-0"
140
1.5
141
12.0
290
     0
  0
SCALE
  5
850E
102
{ACAD_REACTORS
330
84EF
102
}
330
84EF
100
AcDbScale
 70
     0
300
3" = 1'-0"
140
3.0
141
12.0
290
     0
  0
SCALE
  5
850F
102
{ACAD_REACTORS
330
84EF
102
}
330
84EF
100
AcDbScale
 70
     0
300
6" = 1'-0"
140
6.0
141
12.0
290
     0
  0
SCALE
  5
8510
102
{ACAD_REACTORS
330
84EF
102
}
330
84EF
100
AcDbScale
 70
     0
300
1'-0" = 1'-0"
140
12.0
141
12.0
290
     0
  0
TABLESTYLE
  5
6281
102
{ACAD_XDICTIONARY
360
854E
102
}
102
{ACAD_REACTORS
330
6280
102
}
330
6280
100
AcDbTableStyle
  3
Standard
 70
     0
 71
     0
 40
0.06
 41
0.06
280
     0
281
     0
  7
STANDARD
140
0.18
170
     2
 62
     0
 63
     7
283
     0
274
    -2
284
     1
 64
     0
275
    -2
285
     1
 65
     0
276
    -2
286
     1
 66
     0
277
    -2
287
     1
 67
     0
278
    -2
288
     1
 68
     0
279
    -2
289
     1
 69
     0
  7
STANDARD
140
0.25
170
     5
 62
     0
 63
     7
283
     0
274
    -2
284
     1
 64
     0
275
    -2
285
     1
 65
     0
276
    -2
286
     1
 66
     0
277
    -2
287
     1
 67
     0
278
    -2
288
     1
 68
     0
279
    -2
289
     1
 69
     0
  7
STANDARD
140
0.18
170
     5
 62
     0
 63
     7
283
     0
274
    -2
284
     1
 64
     0
275
    -2
285
     1
 65
     0
276
    -2
286
     1
 66
     0
277
    -2
287
     1
 67
     0
278
    -2
288
     1
 68
     0
279
    -2
289
     1
 69
     0
  0
VISUALSTYLE
  5
84E1
102
{ACAD_XDICTIONARY
360
87CD
102
}
102
{ACAD_REACTORS
330
84DB
102
}
330
84DB
100
AcDbVisualStyle
  2

 70
     4
 71
     0
 72
     2
 73
     0
 90
        0
 40
-0.6
 41
-30.0
 62
     5
 63
     7
 74
     1
 91
        4
 64
     7
 65
   257
 75
     1
175
     1
 42
1.0
 92
        0
 66
   257
 43
1.0
 76
     1
 77
     6
 78
     2
 67
     7
 79
     5
170
     0
171
     0
290
     0
174
     0
 93
        1
 44
0.0
173
     0
291
     0
 45
0.0
1001
ACAD
1000
AcDbSavedByObjectVersion
1070
     0
  0
VISUALSTYLE
  5
84E3
102
{ACAD_XDICTIONARY
360
87D1
102
}
102
{ACAD_REACTORS
330
84DB
102
}
330
84DB
100
AcDbVisualStyle
  2

 70
     6
 71
     1
 72
     2
 73
     2
 90
        0
 40
-0.6
 41
-30.0
 62
     5
 63
     7
 74
     2
 91
        2
 64
     7
 65
   257
 75
     2
175
     1
 42
179.0
 92
        0
 66
   257
 43
1.0
 76
     1
 77
     6
 78
     2
 67
     7
 79
     3
170
     0
171
     0
290
     0
174
     0
 93
        1
 44
0.0
173
     0
291
     0
 45
0.0
1001
ACAD
1000
AcDbSavedByObjectVersion
1070
     0
  0
VISUALSTYLE
  5
84E2
102
{ACAD_XDICTIONARY
360
87CF
102
}
102
{ACAD_REACTORS
330
84DB
102
}
330
84DB
100
AcDbVisualStyle
  2

 70
     5
 71
     0
 72
     2
 73
     0
 90
        0
 40
-0.6
 41
-30.0
 62
     5
 63
     7
 74
     1
 91
        4
 64
     7
 65
   257
 75
     1
175
     1
 42
1.0
 92
        0
 66
   257
 43
1.0
 76
     1
 77
     6
 78
     2
 67
     7
 79
     5
170
     0
171
     0
290
     0
174
     0
 93
        1
 44
0.0
173
     0
291
     0
 45
0.0
1001
ACAD
1000
AcDbSavedByObjectVersion
1070
     0
  0
VISUALSTYLE
  5
84E0
102
{ACAD_XDICTIONARY
360
87CB
102
}
102
{ACAD_REACTORS
330
84DB
102
}
330
84DB
100
AcDbVisualStyle
  2

 70
     7
 71
     1
 72
     0
 73
     1
 90
        0
 40
-0.6
 41
-30.0
 62
     5
 63
     7
 74
     0
 91
        4
 64
     7
 65
   257
 75
     1
175
     1
 42
1.0
 92
        8
 66
     7
 43
1.0
 76
     1
 77
     6
 78
     2
 67
     7
 79
     5
170
     0
171
     0
290
     0
174
     0
 93
        1
 44
0.0
173
     0
291
     1
 45
0.0
1001
ACAD
1000
AcDbSavedByObjectVersion
1070
     0
  0
VISUALSTYLE
  5
84E7
102
{ACAD_XDICTIONARY
360
87D9
102
}
102
{ACAD_REACTORS
330
84DB
102
}
330
84DB
100
AcDbVisualStyle
  2

 70
    12
 71
     2
 72
     2
 73
     0
 90
        0
 40
-0.6
 41
-30.0
 62
     5
 63
     7
 74
     1
 91
        4
 64
     7
 65
   257
 75
     1
175
     1
 42
1.0
 92
        8
 66
     7
 43
1.0
 76
     1
 77
     6
 78
     2
 67
     7
 79
     5
170
     0
171
     0
290
     0
174
     0
 93
        1
 44
50.0
173
     0
291
     1
 45
0.0
1001
ACAD
1000
AcDbSavedByObjectVersion
1070
     0
  0
VISUALSTYLE
  5
84EB
102
{ACAD_XDICTIONARY
360
87E1
102
}
102
{ACAD_REACTORS
330
84DB
102
}
330
84DB
100
AcDbVisualStyle
  2

 70
    16
 71
     2
 72
     2
 73
     3
 90
        0
 40
-0.6
 41
-30.0
 62
     5
 63
     8
 74
     1
 91
        4
 64
     7
 65
   257
 75
     1
175
     1
 42
1.0
 92
        8
 66
     8
 43
1.0
 76
     1
 77
     6
 78
     2
 67
     7
 79
     5
170
     0
171
     0
290
     0
174
     0
 93
        1
 44
0.0
173
     0
291
     1
 45
0.0
1001
ACAD
1000
AcDbSavedByObjectVersion
1070
     0
  0
VISUALSTYLE
  5
84E4
102
{ACAD_XDICTIONARY
360
87D3
102
}
102
{ACAD_REACTORS
330
84DB
102
}
330
84DB
100
AcDbVisualStyle
  2

 70
     9
 71
     3
 72
     2
 73
     0
 90
        0
 40
-0.6
 41
-30.0
 62
     5
 63
     7
 74
     2
 91
        2
 64
     7
 65
   257
 75
     1
175
     1
 42
179.0
 92
        8
 66
     7
 43
1.0
 76
     1
 77
     6
 78
     2
 67
     7
 79
     3
170
     0
171
     0
290
     0
174
     0
 93
        1
 44
0.0
173
     0
291
     0
 45
0.0
1001
ACAD
1000
AcDbSavedByObjectVersion
1070
     0
  0
VISUALSTYLE
  5
84E6
102
{ACAD_XDICTIONARY
360
87D7
102
}
102
{ACAD_REACTORS
330
84DB
102
}
330
84DB
100
AcDbVisualStyle
  2

 70
    11
 71
     2
 72
     2
 73
     0
 90
        0
 40
-0.6
 41
-30.0
 62
     5
 63
     7
 74
     1
 91
        4
 64
     7
 65
   257
 75
     1
175
     1
 42
1.0
 92
        8
 66
     7
 43
1.0
 76
     1
 77
     6
 78
     2
 67
     7
 79
     5
170
     0
171
     0
290
     0
174
     0
 93
        1
 44
-50.0
173
     0
291
     1
 45
0.0
1001
ACAD
1000
AcDbSavedByObjectVersion
1070
     0
  0
VISUALSTYLE
  5
84EE
102
{ACAD_XDICTIONARY
360
87E7
102
}
102
{ACAD_REACTORS
330
84DB
102
}
330
84DB
100
AcDbVisualStyle
  2

 70
    22
 71
     2
 72
     2
 73
     0
 90
        0
 40
-0.6
 41
-30.0
 62
     5
 63
     7
 74
     1
 91
        4
 64
     7
 65
   257
 75
     1
175
     1
 42
1.0
 92
        8
 66
     7
 43
1.0
 76
     1
 77
     6
 78
     2
 67
     7
 79
     5
170
     0
171
     0
290
     0
174
     0
 93
        1
 44
0.0
173
     0
291
     1
 45
0.0
1001
ACAD
1000
AcDbSavedByObjectVersion
1070
     0
  0
VISUALSTYLE
  5
84EA
102
{ACAD_XDICTIONARY
360
87DF
102
}
102
{ACAD_REACTORS
330
84DB
102
}
330
84DB
100
AcDbVisualStyle
  2

 70
    15
 71
     2
 72
     2
 73
     0
 90
        0
 40
-0.6
 41
-30.0
 62
     5
 63
     7
 74
     1
 91
        4
 64
     7
 65
   257
 75
     1
175
     1
 42
1.0
 92
        8
 66
     7
 43
1.0
 76
     1
 77
     6
 78
     2
 67
     7
 79
     5
170
     0
171
     0
290
     0
174
     0
 93
        1
 44
0.0
173
     0
291
     1
 45
0.0
1001
ACAD
1000
AcDbSavedByObjectVersion
1070
     0
  0
VISUALSTYLE
  5
84DC
102
{ACAD_XDICTIONARY
360
87C3
102
}
102
{ACAD_REACTORS
330
84DB
102
}
330
84DB
100
AcDbVisualStyle
  2

 70
     0
 71
     2
 72
     1
 73
     1
 90
        2
 40
-0.6
 41
30.0
 62
     5
 63
     7
 74
     0
 91
        4
 64
     7
 65
   257
 75
     1
175
     1
 42
1.0
 92
        8
 66
     7
 43
1.0
 76
     1
 77
     6
 78
     2
 67
     7
 79
     5
170
     0
171
     0
290
     0
174
     0
 93
       13
 44
0.0
173
     0
291
     1
 45
0.0
1001
ACAD
1000
AcDbSavedByObjectVersion
1070
     0
  0
VISUALSTYLE
  5
84DD
102
{ACAD_XDICTIONARY
360
87C5
102
}
102
{ACAD_REACTORS
330
84DB
102
}
330
84DB
100
AcDbVisualStyle
  2

 70
     1
 71
     2
 72
     1
 73
     1
 90
        2
 40
-0.6
 41
30.0
 62
     5
 63
     7
 74
     1
 91
        4
 64
     7
 65
   257
 75
     1
175
     1
 42
1.0
 92
        0
 66
   257
 43
1.0
 76
     1
 77
     6
 78
     2
 67
     7
 79
     5
170
     0
171
     0
290
     0
174
     0
 93
       13
 44
0.0
173
     0
291
     1
 45
0.0
1001
ACAD
1000
AcDbSavedByObjectVersion
1070
     0
  0
VISUALSTYLE
  5
84DE
102
{ACAD_XDICTIONARY
360
87C7
102
}
102
{ACAD_REACTORS
330
84DB
102
}
330
84DB
100
AcDbVisualStyle
  2

 70
     2
 71
     2
 72
     2
 73
     1
 90
        2
 40
-0.6
 41
30.0
 62
     5
 63
     7
 74
     0
 91
        4
 64
     7
 65
   257
 75
     1
175
     1
 42
1.0
 92
        0
 66
     7
 43
1.0
 76
     1
 77
     6
 78
     2
 67
     7
 79
     5
170
     0
171
     0
290
     0
174
     0
 93
       13
 44
0.0
173
     0
291
     1
 45
0.0
1001
ACAD
1000
AcDbSavedByObjectVersion
1070
     0
  0
VISUALSTYLE
  5
84DF
102
{ACAD_XDICTIONARY
360
87C9
102
}
102
{ACAD_REACTORS
330
84DB
102
}
330
84DB
100
AcDbVisualStyle
  2

 70
     3
 71
     2
 72
     2
 73
     1
 90
        2
 40
-0.6
 41
30.0
 62
     5
 63
     7
 74
     1
 91
        4
 64
     7
 65
   257
 75
     1
175
     1
 42
1.0
 92
        0
 66
   257
 43
1.0
 76
     1
 77
     6
 78
     2
 67
     7
 79
     5
170
     0
171
     0
290
     0
174
     0
 93
       13
 44
0.0
173
     0
291
     1
 45
0.0
1001
ACAD
1000
AcDbSavedByObjectVersion
1070
     0
  0
VISUALSTYLE
  5
84EC
102
{ACAD_XDICTIONARY
360
87E3
102
}
102
{ACAD_REACTORS
330
84DB
102
}
330
84DB
100
AcDbVisualStyle
  2

 70
    20
 71
     2
 72
     2
 73
     0
 90
        0
 40
-0.6
 41
-30.0
 62
     5
 63
     7
 74
     1
 91
        4
 64
     7
 65
   257
 75
     1
175
     1
 42
1.0
 92
       10
 66
     7
 43
1.0
 76
     1
 77
     6
 78
     2
 67
     7
 79
     5
170
     0
171
     0
290
     0
174
     0
 93
        1
 44
0.0
173
     0
291
     1
 45
0.0
1001
ACAD
1000
AcDbSavedByObjectVersion
1070
     0
  0
VISUALSTYLE
  5
84E9
102
{ACAD_XDICTIONARY
360
87DD
102
}
102
{ACAD_REACTORS
330
84DB
102
}
330
84DB
100
AcDbVisualStyle
  2

 70
    14
 71
     2
 72
     2
 73
     0
 90
        0
 40
-0.6
 41
-30.0
 62
     5
 63
     7
 74
     1
 91
        4
 64
     7
 65
   257
 75
     7
175
     7
 42
1.0
 92
        8
 66
     7
 43
1.0
 76
     1
 77
     6
 78
     2
 67
     7
 79
     5
170
     0
171
     0
290
     0
174
     0
 93
        1
 44
0.0
173
     0
291
     1
 45
0.0
1001
ACAD
1000
AcDbSavedByObjectVersion
1070
     0
  0
VISUALSTYLE
  5
84ED
102
{ACAD_XDICTIONARY
360
87E5
102
}
102
{ACAD_REACTORS
330
84DB
102
}
330
84DB
100
AcDbVisualStyle
  2

 70
    21
 71
     2
 72
     2
 73
     0
 90
        0
 40
-0.6
 41
-30.0
 62
     5
 63
     7
 74
     1
 91
        4
 64
     7
 65
   257
 75
     1
175
     1
 42
1.0
 92
        9
 66
     7
 43
1.0
 76
     1
 77
     6
 78
     2
 67
     7
 79
     5
170
     0
171
     0
290
     0
174
     0
 93
        1
 44
0.0
173
     0
291
     1
 45
0.0
1001
ACAD
1000
AcDbSavedByObjectVersion
1070
     0
  0
VISUALSTYLE
  5
84E5
102
{ACAD_XDICTIONARY
360
87D5
102
}
102
{ACAD_REACTORS
330
84DB
102
}
330
84DB
100
AcDbVisualStyle
  2

 70
     8
 71
     2
 72
     2
 73
     0
 90
        0
 40
-0.6
 41
-30.0
 62
     5
 63
     7
 74
     1
 91
        0
 64
     7
 65
   257
 75
     1
175
     1
 42
1.0
 92
        8
 66
     8
 43
1.0
 76
     1
 77
     6
 78
     2
 67
     7
 79
     5
170
     0
171
     0
290
     0
174
     0
 93
       13
 44
0.0
173
     0
291
     0
 45
0.0
1001
ACAD
1000
AcDbSavedByObjectVersion
1070
     0
  0
VISUALSTYLE
  5
84E8
102
{ACAD_XDICTIONARY
360
87DB
102
}
102
{ACAD_REACTORS
330
84DB
102
}
330
84DB
100
AcDbVisualStyle
  2

 70
    13
 71
     2
 72
     2
 73
     0
 90
        0
 40
-0.6
 41
-30.0
 62
     5
 63
     7
 74
     1
 91
        4
 64
     7
 65
   257
 75
     1
175
     1
 42
1.0
 92
       12
 66
     7
 43
1.0
 76
     1
 77
     6
 78
     2
 67
     7
 79
     5
170
     0
171
     0
290
     0
174
     0
 93
        1
 44
0.0
173
     0
291
     1
 45
0.0
1001
ACAD
1000
AcDbSavedByObjectVersion
1070
     0
  0
DICTIONARYVAR
  5
854A
102
{ACAD_REACTORS
330
5697
102
}
330
5697
100
DictionaryVariables
280
     0
  1
1:1
  0
DICTIONARYVAR
  5
8549
102
{ACAD_REACTORS
330
5697
102
}
330
5697
100
DictionaryVariables
280
     0
  1
STANDARD
  0
DICTIONARYVAR
  5
70FB
102
{ACAD_REACTORS
330
5697
102
}
330
5697
100
DictionaryVariables
280
     0
  1
STANDARD
  0
DICTIONARYVAR
  5
5698
102
{ACAD_REACTORS
330
5697
102
}
330
5697
100
DictionaryVariables
280
     0
  1
1
  0
DICTIONARYVAR
  5
854C
102
{ACAD_REACTORS
330
5697
102
}
330
5697
100
DictionaryVariables
280
     0
  1
0
  0
DICTIONARYVAR
  5
70FC
102
{ACAD_REACTORS
330
5697
102
}
330
5697
100
DictionaryVariables
280
     0
  1

  0
DICTIONARYVAR
  5
854B
102
{ACAD_REACTORS
330
5697
102
}
330
5697
100
DictionaryVariables
280
     0
  1
127
  0
DICTIONARYVAR
  5
87B7
102
{ACAD_REACTORS
330
5697
102
}
330
5697
100
DictionaryVariables
280
     0
  1
2
  0
DICTIONARY
  5
87BD
330
6262
100
AcDbDictionary
280
     1
281
     1
  3
ACAD_XREC_ROUNDTRIP
360
87BE
  0
DICTIONARY
  5
849B
330
6263
100
AcDbDictionary
280
     1
281
     1
  3
ACAD_XREC_ROUNDTRIP
360
87BF
  3
ADSK_XREC_LAYOUTTHUMBNAIL
360
849C
  0
DICTIONARY
  5
84CC
330
84CB
100
AcDbDictionary
280
     1
281
     1
  3
ACAD_XREC_ROUNDTRIP
360
855B
  3
BUMPTILE
360
84CE
  3
DIFFUSETILE
360
84CD
  3
OPACITYTILE
360
84D1
  3
REFLECTIONTILE
360
84D0
  3
REFRACTIONTILE
360
84D2
  3
SPECULARTILE
360
84CF
  0
DICTIONARY
  5
84C4
330
84C3
100
AcDbDictionary
280
     1
281
     1
  3
ACAD_XREC_ROUNDTRIP
360
855A
  3
BUMPTILE
360
84C6
  3
DIFFUSETILE
360
84C5
  3
OPACITYTILE
360
84C9
  3
REFLECTIONTILE
360
84C8
  3
REFRACTIONTILE
360
84CA
  3
SPECULARTILE
360
84C7
  0
DICTIONARY
  5
84D4
330
84D3
100
AcDbDictionary
280
     1
281
     1
  3
ACAD_XREC_ROUNDTRIP
360
855C
  3
BUMPTILE
360
84D6
  3
DIFFUSETILE
360
84D5
  3
OPACITYTILE
360
84D9
  3
REFLECTIONTILE
360
84D8
  3
REFRACTIONTILE
360
84DA
  3
SPECULARTILE
360
84D7
  0
DICTIONARY
  5
854E
330
6281
100
AcDbDictionary
280
     1
281
     1
  3
ACAD_ROUNDTRIP_2008_TABLESTYLE_CELLSTYLEMAP
360
87B8
  3
ACAD_XREC_ROUNDTRIP
360
87C2
  0
DICTIONARY
  5
87CD
330
84E1
100
AcDbDictionary
280
     1
281
     1
  3
ACAD_XREC_ROUNDTRIP
360
87CE
  0
DICTIONARY
  5
87D1
330
84E3
100
AcDbDictionary
280
     1
281
     1
  3
ACAD_XREC_ROUNDTRIP
360
87D2
  0
DICTIONARY
  5
87CF
330
84E2
100
AcDbDictionary
280
     1
281
     1
  3
ACAD_XREC_ROUNDTRIP
360
87D0
  0
DICTIONARY
  5
87CB
330
84E0
100
AcDbDictionary
280
     1
281
     1
  3
ACAD_XREC_ROUNDTRIP
360
87CC
  0
DICTIONARY
  5
87D9
330
84E7
100
AcDbDictionary
280
     1
281
     1
  3
ACAD_XREC_ROUNDTRIP
360
87DA
  0
DICTIONARY
  5
87E1
330
84EB
100
AcDbDictionary
280
     1
281
     1
  3
ACAD_XREC_ROUNDTRIP
360
87E2
  0
DICTIONARY
  5
87D3
330
84E4
100
AcDbDictionary
280
     1
281
     1
  3
ACAD_XREC_ROUNDTRIP
360
87D4
  0
DICTIONARY
  5
87D7
330
84E6
100
AcDbDictionary
280
     1
281
     1
  3
ACAD_XREC_ROUNDTRIP
360
87D8
  0
DICTIONARY
  5
87E7
330
84EE
100
AcDbDictionary
280
     1
281
     1
  3
ACAD_XREC_ROUNDTRIP
360
87E8
  0
DICTIONARY
  5
87DF
330
84EA
100
AcDbDictionary
280
     1
281
     1
  3
ACAD_XREC_ROUNDTRIP
360
87E0
  0
DICTIONARY
  5
87C3
330
84DC
100
AcDbDictionary
280
     1
281
     1
  3
ACAD_XREC_ROUNDTRIP
360
87C4
  0
DICTIONARY
  5
87C5
330
84DD
100
AcDbDictionary
280
     1
281
     1
  3
ACAD_XREC_ROUNDTRIP
360
87C6
  0
DICTIONARY
  5
87C7
330
84DE
100
AcDbDictionary
280
     1
281
     1
  3
ACAD_XREC_ROUNDTRIP
360
87C8
  0
DICTIONARY
  5
87C9
330
84DF
100
AcDbDictionary
280
     1
281
     1
  3
ACAD_XREC_ROUNDTRIP
360
87CA
  0
DICTIONARY
  5
87E3
330
84EC
100
AcDbDictionary
280
     1
281
     1
  3
ACAD_XREC_ROUNDTRIP
360
87E4
  0
DICTIONARY
  5
87DD
330
84E9
100
AcDbDictionary
280
     1
281
     1
  3
ACAD_XREC_ROUNDTRIP
360
87DE
  0
DICTIONARY
  5
87E5
330
84ED
100
AcDbDictionary
280
     1
281
     1
  3
ACAD_XREC_ROUNDTRIP
360
87E6
  0
DICTIONARY
  5
87D5
330
84E5
100
AcDbDictionary
280
     1
281
     1
  3
ACAD_XREC_ROUNDTRIP
360
87D6
  0
DICTIONARY
  5
87DB
330
84E8
100
AcDbDictionary
280
     1
281
     1
  3
ACAD_XREC_ROUNDTRIP
360
87DC
  0
XRECORD
  5
87BE
102
{ACAD_REACTORS
330
87BD
102
}
330
87BD
100
AcDbXrecord
280
     1
102
SHADEPLOT
 70
     0
102
SHADEPLOTRESLEVEL
 70
     2
102
SHADEPLOTCUSTOMDPI
 70
   300
  0
XRECORD
  5
87BF
102
{ACAD_REACTORS
330
849B
102
}
330
849B
100
AcDbXrecord
280
     1
102
SHADEPLOT
 70
     0
102
SHADEPLOTRESLEVEL
 70
     2
102
SHADEPLOTCUSTOMDPI
 70
   300
  0
XRECORD
  5
849C
102
{ACAD_REACTORS
330
849B
102
}
330
849B
100
AcDbXrecord
280
     1
310
28000000B40000007F00000001000800000000004C590000000000000000000000010000000000000000000000000000FFFFFF000000000000000000000000000000000000000000000000000000000000000000330000006600000099000000CC000000FF00000000330000333300006633000099330000CC330000FF3300
310
0000660000336600006666000099660000CC660000FF66000000990000339900006699000099990000CC990000FF99000000CC000033CC000066CC000099CC0000CCCC0000FFCC000000FF000033FF000066FF000099FF0000CCFF0000FFFF000000003300330033006600330099003300CC003300FF003300003333003333
310
33006633330099333300CC333300FF33330000663300336633006666330099663300CC663300FF66330000993300339933006699330099993300CC993300FF99330000CC330033CC330066CC330099CC3300CCCC3300FFCC330000FF330033FF330066FF330099FF3300CCFF3300FFFF330000006600330066006600660099
310
006600CC006600FF00660000336600333366006633660099336600CC336600FF33660000666600336666006666660099666600CC666600FF66660000996600339966006699660099996600CC996600FF99660000CC660033CC660066CC660099CC6600CCCC6600FFCC660000FF660033FF660066FF660099FF6600CCFF6600
310
FFFF660000009900330099006600990099009900CC009900FF00990000339900333399006633990099339900CC339900FF33990000669900336699006666990099669900CC669900FF66990000999900339999006699990099999900CC999900FF99990000CC990033CC990066CC990099CC9900CCCC9900FFCC990000FF99
310
0033FF990066FF990099FF9900CCFF9900FFFF99000000CC003300CC006600CC009900CC00CC00CC00FF00CC000033CC003333CC006633CC009933CC00CC33CC00FF33CC000066CC003366CC006666CC009966CC00CC66CC00FF66CC000099CC003399CC006699CC009999CC00CC99CC00FF99CC0000CCCC0033CCCC0066CC
310
CC0099CCCC00CCCCCC00FFCCCC0000FFCC0033FFCC0066FFCC0099FFCC00CCFFCC00FFFFCC000000FF003300FF006600FF009900FF00CC00FF00FF00FF000033FF003333FF006633FF009933FF00CC33FF00FF33FF000066FF003366FF006666FF009966FF00CC66FF00FF66FF000099FF003399FF006699FF009999FF00CC
310
99FF00FF99FF0000CCFF0033CCFF0066CCFF0099CCFF00CCCCFF00FFCCFF0000FFFF0033FFFF0066FFFF0099FFFF00CCFFFF00FFFFFF00000000000D0D0D001A1A1A00282828003535350043434300505050005D5D5D006B6B6B00787878008686860093939300A1A1A100AEAEAE00BBBBBB00C9C9C900D6D6D600E4E4E400
310
F1F1F100FFFFFF0000000000000000000000000000000000000000000000000000000000000000000000000000000000EFF5F5F5F5F5F5F5F5F5F5F5F5F5F5F5F5F5F5F5F5F5F5F5F5F5F5F5F5F5F5F5F5F5F5F5F5F5F5F5F5F5F5F5F5F5F5F5F5F5F5F5F5F5F5F5F5F5F5F5F5F5F5F5F5F5F5F5F5F5F5F5F5F5F5F5F5F5F5
310
F5F5F5F5F5F5F5F5F5F5F5F5F5F5F5F5F5F5F5F5F5F5F5F5F5F5F5F5F5F5F5F5F5F5F5F5F5F5F5F5F5F5F5F5F5F5F5F5F5F5F5F5F5F5F5F5F5F5F5F5F5F5F5F5F5F5F5F5F5F5F5F5F5F5F5F5F5F5F5F5F5F5F5F5F5F5F5F5F5F5F5F5F5F5F5F5F5F5F5F5F5EFF5E2E2E2E2E2E2E2E2E2E2E2E2E2E2E2E2E2E2E2E2E2E2E2E2
310
E2E2E2E2E2E2E2E2E2E2E2E2E2E2E2E2E2E2E2E2E2E2E2E2E2E2E2E2E2E2E2E2E2E2E2E2E2E2E2E2E2E2E2E2E2E2E2E2E2E2E2E2E2E2E2E2E2E2E2E2E2E2E2E2E2E2E2E2E2E2E2E2E2E2E2E2E2E2E2E2E2E2E2E2E2E2E2E2E2E2E2E2E2E2E2E2E2E2E2E2E2E2E2E2E2E2E2E2E2E2E2E2E2E2E2E2E2E2E2E2E2E2E2E2E2E2E2
310
E2E2E2E2E2E2E2E2E2E2E2E2E2E2E2E2E2E2E2E2E2E2E2E2E2F5F5EFF5E2E2E2E2E2E2E2E2E2E2E2E2E2E2E2E2E2E2E2E2E2E2E2E2E2E2E2E2E2E2E2E2E2E2E2E2E2E2E2E2E2E2E2E2E2E2E2E2E2E2E2E2E2E2E2E2E2E2E2E2E2E2E2E2E2E2E2E2E2E2E2E2E2E2E2E2E2E2E2E2E2E2E2E2E2E2E2E2E2E2E2E2E2E2E2E2E2E2
310
E2E2E2E2E2E2E2E2E2E2E2E2E2E2E2E2E2E2E2E2E2E2E2E2E2E2E2E2E2E2E2E2E2E2E2E2E2E2E2E2E2E2E2E2E2E2E2E2E2E2E2E2E2E2E2E2E2E2E2E2E2E2E2E2E2E2E2E2E2E2E2E2E2E2E2E2E2E2F5F5EFF5E2E2E2E2E2E2E2E2E2E2E2E2E2E2E2E2E2E2E2E2E2E2E2E2E2E2E2E2E2E2E2E2E2E2E2E2E2E2E2E2E2E2E2E2E2
310
E2E2E2E2E2E2E2E2E2E2E2E2E2E2E2E2E2E2E2E2E2E2E2E2E2E2E2E2E2E2E2E2E2E2E2E2E2E2E2E2E2E2E2E2E2E2E2E2E2E2E2E2E2E2E2E2E2E2E2E2E2E2E2E2E2E2E2E2E2E2E2E2E2E2E2E2E2E2E2E2E2E2E2E2E2E2E2E2E2E2E2E2E2E2E2E2E2E2E2E2E2E2E2E2E2E2E2E2E2E2E2E2E2E2E2E2E2E2E2E2E2E2E2E2E2E2E2
310
E2E2E2E2F5F5EFF5E2E2F5F5F5F5F5F5F5F5E2E2E2E2E2E2E2E2E2F5F5F5F5F5F5F5F5F5F5F5F5F5F5F5F5E2E2E2E2E2E2E2E2E2F5F5F5F5F5F5F5F5F5F5F5F5F5F5F5E2E2E2E2E2E2E2E2E2F5F5F5F5F5F5F5F5F5F5F5F5F5F5F5F5E2E2E2E2E2E2E2E2F5F5F5F5F5F5F5F5F5F5F5F5F5F5F5F5E2E2E2E2E2E2E2E2E2F5F5
310
F5F5F5F5F5F5F5F5F5F5F5F5F5E2E2E2E2E2E2E2E2E2F5F5F5F5F5F5F5F5F5F5F5F5F5F5F5F5E2E2E2E2E2E2E2E2E2F5F5F5F5F5F5F5F5E2E2F5F5EFF5E2E2F5E2E2E2E2E2E2E2E2E2E2E2E2E2E2E2E2E2E2E2E2E2E2E2E2E2E2E2E2E2E2E2E2E2E2E2E2E2E2E2E2E2E2E2E2E2E2E2E2E2E2E2E2E2E2E2E2E2E2E2E2E2E2E2
310
E2E2E2E2E2E2E2E2E2E2E2E2E2E2E2E2E2E2E2E2E2E2E2E2E2E2E2E2E2E2E2E2E2E2E2E2E2E2E2E2E2E2E2E2E2E2E2E2E2E2E2E2E2E2E2E2E2E2E2E2E2E2E2E2E2E2E2E2E2E2E2E2E2E2E2E2E2E2E2E2E2E2E2E2E2E2E2E2E2E2E2E2E2E2E2E2E2E2E2E2E2E2E2E2E2E2E2F5E2E2F5F5EFF5E2E2F5E2E2E2E2E2E2E2E2E2E2
310
E2E2E2E2E2E2E2E2E2E2E2E2E2E2E2E2E2E2E2E2E2E2E2E2E2E2E2E2E2E2E2E2E2E2E2E2E2E2E2E2E2E2E2E2E2E2E2E2E2E2E2E2E2E2E2E2E2E2E2E2E2E2E2E2E2E2E2E2E2E2E2E2E2E2E2E2E2E2E2E2E2E2E2E2E2E2E2E2E2E2E2E2E2E2E2E2E2E2E2E2E2E2E2E2E2E2E2E2E2E2E2E2E2E2E2E2E2E2E2E2E2E2E2E2E2E2E2
310
E2E2E2E2E2E2E2E2E2E2E2E2E2E2E2E2E2E2E2E2E2E2E2E2E2E2E2E2E2E2E2E2E2F5E2E2F5F5EFF5E2E2F5E2E2E2E2E2E2E2E2E2E2E2E2E2E2E2E2E2E2E2E2E2E2E2E2E2E2E2E2E2E2E2E2E2E2E2E2E2E2E2E2E2E2E2E2E2E2E2E2E2E2E2E2E2E2E2E2E2E2E2E2E2E2E2E2E2E2E2E2E2E2E2E2E2E2E2E2E2E2E2E2E2E2E2E2
310
E2E2E2E2E2E2E2E2E2E2E2E2E2E2E2E2E2E2E2E2E2E2E2E2E2E2E2E2E2E2E2E2E2E2E2E2E2E2E2E2E2E2E2E2E2E2E2E2E2E2E2E2E2E2E2E2E2E2E2E2E2E2E2E2E2E2E2E2E2E2E2E2E2E2E2E2E2E2E2E2E2E2E2E2E2E2F5E2E2F5F5EFF5E2E2F5E2E2E2E2E2E2E2E2E2E2E2E2E2E2E2E2E2E2E2E2E2E2E2E2E2E2E2E2E2E2E2
310
E2E2E2E2E2E2E2E2E2E2E2E2E2E2E2E2E2E2E2E2E2E2E2E2E2E2E2E2E2E2E2E2E2E2E2E2E2E2E2E2E2E2E2E2E2E2E2E2E2E2E2E2E2E2E2E2E2E2E2E2E2E2E2E2E2E2E2E2E2E2E2E2E2E2E2E2E2E2E2E2E2E2E2E2E2E2E2E2E2E2E2E2E2E2E2E2E2E2E2E2E2E2E2E2E2E2E2E2E2E2E2E2E2E2E2E2E2E2E2E2E2E2E2E2E2E2E2
310
E2E2E2E2E2E2E2E2E2E2E2E2F5E2E2F5F5EFF5E2E2F5E2E2E2E2E2E2E2E2E2E2E2E2E2E2E2E2E2E2E2E2E2E2E2E2E2E2E2E2E2E2E2E2E2E2E2E2E2E2E2E2E2E2E2E2E2E2E2E2E2E2E2E2E2E2E2E2E2E2E2E2E2E2E2E2E2E2E2E2E2E2E2E2E2E2E2E2E2E2E2E2E2E2E2E2E2E2E2E2E2E2E2E2E2E2E2E2E2E2E2E2E2E2E2E2E2
310
E2E2E2E2E2E2E2E2E2E2E2E2E2E2E2E2E2E2E2E2E2E2E2E2E2E2E2E2E2E2E2E2E2E2E2E2E2E2E2E2E2E2E2E2E2E2E2E2E2E2E2E2E2E2E2E2E2E2E2E2E2E2E2E2E2F5E2E2F5F5EFF5E2E2F5E2E2E2E2E2E2E2E2E2E2E2E2E2E2E2E2E2E2E2E2E2E2E2E2E2E2E2E2E2E2E2E2E2E2E2E2E2E2E2E2E2E2E2E2E2E2E2E2E2E2E2E2
310
E2E2E2E2E2E2E2E2E2E2E2E2E2E2E2E2E2E2E2E2E2E2E2E2E2E2E2E2E2E2E2E2E2E2E2E2E2E2E2E2E2E2E2E2E2E2E2E2E2E2E2E2E2E2E2E2E2E2E2E2E2E2E2E2E2E2E2E2E2E2E2E2E2E2E2E2E2E2E2E2E2E2E2E2E2E2E2E2E2E2E2E2E2E2E2E2E2E2E2E2E2E2E2E2E2E2E2E2E2E2E2E2E2E2E2E2E2E2F5E2E2F5F5EFF5E2E2
310
F5E2E2E2E2E2E2E2E2E2E2E2E2E2E2E2E2E2E2E2E2E2E2E2E2E2E2E2E2E2E2E2E2E2E2E2E2E2E2E2E2E2E2E2E2E2E2E2E2E2E2E2E2E2E2E2E2E2E2E2E2E2E2E2E2E2E2E2E2E2E2E2E2E2E2E2E2E2E2E2E2E2E2E2E2E2E2E2E2E2E2E2E2E2E2E2E2E2E2E2E2E2E2E2E2E2E2E2E2E2E2E2E2E2E2E2E2E2E2E2E2E2E2E2E2E2E2
310
E2E2E2E2E2E2E2E2E2E2E2E2E2E2E2E2E2E2E2E2E2E2E2E2E2E2E2E2E2E2E2E2E2E2E2E2E2E2E2E2E2E2E2E2F5E2E2F5F5EFF5E2E2E2E2E2E2E2E2E2E2E2E2E2E2E2E2E2E2E2E2E2E2E2E2E2E2E2E2E2E2E2E2E2E2E2E2E2E2E2E2E2E2E2E2E2E2E2E2E2E2E2E2E2E2E2E2E2E2E2E2E2E2E2E2E2E2E2E2E2E2E2E2E2E2E2E2
310
E2E2E2E2E2E2E2E2E2E2E2E2E2E2E2E2E2E2E2E2E2E2E2E2E2E2E2E2E2E2E2E2E2E2E2E2E2E2E2E2E2E2E2E2E2E2E2E2E2E2E2E2E2E2E2E2E2E2E2E2E2E2E2E2E2E2E2E2E2E2E2E2E2E2E2E2E2E2E2E2E2E2E2E2E2E2E2E2E2E2E2E2E2E2E2E2E2E2E2E2F5F5EFF5E2E2E2E2E2E2E2E2E2E2E2E2E2E2E2E2E2E2E2E2E2E2E2
310
E2E2E2E2E2E2E2E2E2E2E2E2E2E2E2E2E2E2E2E2E2E2E2E2E2E2E2E2E2E2E2E2E2E2E2E2E2E2E2E2E2E2E2E2E2E2E2E2E2E2E2E2E2E2E2E2E2E2E2E2E2E2E2E2E2E2E2E2E2E2E2E2E2E2E2E2E2E2E2E2E2E2E2E2E2E2E2E2E2E2E2E2E2E2E2E2E2E2E2E2E2E2E2E2E2E2E2E2E2E2E2E2E2E2E2E2E2E2E2E2E2E2E2E2E2E2E2
310
E2E2E2E2E2E2E2E2E2E2E2E2E2E2E2E2E2E2E2E2E2E2E2E2E2E2F5F5EFF5E2E2E2E2E2E2E2E2E2E2E2E2E2E2E2E2E2E2E2E2E2E2E2E2E2E2E2E2E2E2E2E2E2E2E2E2E2E2E2E2E2E2E2E2E2E2E2E2E2E2E2E2E2E2E2E2E2E2E2E2E2E2E2E2E2E2E2E2E2E2E2E2E2E2E2E2E2E2E2E2E2E2E2E2E2E2E2E2E2E2E2E2E2E2E2E2E2
310
E2E2E2E2E2E2E2E2E2E2E2E2E2E2E2E2E2E2E2E2E2E2E2E2E2E2E2E2E2E2E2E2E2E2E2E2E2E2E2E2E2E2E2E2E2E2E2E2E2E2E2E2E2E2E2E2E2E2E2E2E2E2E2E2E2E2E2E2E2E2E2E2E2E2E2E2E2E2E2F5F5EFF5E2E2E2E2E2E2E2E2E2E2E2E2E2E2E2E2E2E2E2E2E2E2E2E2E2E2E2E2E2E2E2E2E2E2E2E2E2E2E2E2E2E2E2E2
310
E2E2E2E2E2E2E2E2E2E2E2E2E2E2E2E2E2E2E2E2E2E2E2E2E2E2E2E2E2E2E2E2E2E2E2E2E2E2E2E2E2E2E2E2E2E2E2E2E2E2E2E2E2E2E2E2E2E2E2E2E2E2E2E2E2E2E2E2E2E2E2E2E2E2E2E2E2E2E2E2E2E2E2E2E2E2E2E2E2E2E2E2E2E2E2E2E2E2E2E2E2E2E2E2E2E2E2E2E2E2E2E2E2E2E2E2E2E2E2E2E2E2E2E2E2E2E2
310
E2E2E2E2E2F5F5EFF5E2E2E2E2E2E2E2E2E2E2E2E2E2E2E2E2E2E2E2F0F0F0F0F0F0F0F0F0F0F0F0F0F0F0F0F0F0F0F0F0F0F0F0F0F0F0F0F0F0F0F0F0F0F0F0F0F0F0F0F0F0F0F0F0F0F0F0F0F0F0F0F0F0F0F0F0F0F0F0F0F0F0F0F0F0F0F0F0F0F0F0F0F0F0F0F0F0F0F0F0F0F0F0F0F0F0F0F0F0F0F0F0F0F0F0F0F0F0
310
F0F0F0F0F0F0F0F0F0F0F0F0F0F0F0F0F0F0F0F0F0F0F0F0F0F0F0F0F0F0F0F0F0F0F0F0F0F0F0E2E2E2E2E2E2E2E2E2E2E2E2E2E2E2E2E2E2E2F5F5EFF5E2E2E2E2E2E2E2E2E2E2E2E2E2E2E2E2E2E2E2F0E2E2E2E2E2E2E2E2E2E2E2E2E2E2E2E2E2E2E2E2E2E2E2E2E2E2E2E2E2E2E2E2E2E2E2E2E2E2E2E2E2E2E2E2E2
310
E2E2E2E2E2E2E2E2E2E2E2E2E2E2E2E2E2E2E2E2E2E2E2E2E2E2E2E2E2E2E2E2E2E2E2E2E2E2E2E2E2E2E2E2E2E2E2E2E2E2E2E2E2E2E2E2E2E2E2E2E2E2E2E2E2E2E2E2E2E2E2E2E2E2E2E2E2E2E2E2E2E2E2E2E2E2E2E2E2E2E2F0E2E2E2E2E2E2E2E2E2E2E2E2E2E2E2E2E2E2E2F5F5EFF5E2E2E2E2E2E2E2E2E2E2E2E2
310
E2E2E2E2E2E2E2F0E2E2E2E2E2E2E2E2E2E2E2E2E2E2E2E2E2E2E2E2E2E2E2E2E2E2E2E2E2E2E2E2E2E2E2E2E2E2E2E2E2E2E2E2E2E2E2E2E2E2E2E2C3E2E2E2E2C3E2E2E2E2E2E2E2E2E2E2E2E2E2E2E2E2E2E2E2E2E2E2E2E2E2E2E2E2E2E2E2E2E2E2E2E2E2E2E2E2E2E2E2E2E2E2E2E2E2E2E2E2E2E2E2E2E2E2E2E2E2
310
E2E2E2E2E2E2E2E2E2E2E2E2E2E2E2E2E2F0E2E2E2E2E2E2E2E2E2E2E2E2E2E2E2E2E2E2E2F5F5EFF5E2E2E2E2E2E2E2E2E2E2E2E2E2E2E2E2E2E2E2F0E2E2E2E2E2E2E2E2E2E2E2E2E2E2E2E2E2E2E2E2E2E2E2E2E2E2E2E2E2E2E2E2E2E2E2E2E2E2E2E2E2E2E2E2E2E2E2E2E2E2F0F0F0F0F0F0F0F0E2E2E2C3C3C3C3C3
310
C3C3C3C3C3C3C3C3C3C3C3C3C3C3C3C3C3C3C3C3C3C3C3C3C3C3C3C3C3C3C3C3C3C3C3E2E2E2E2E2E2E2E2E2E2E2E2E2E2E2E2E2E2E2E2E2E2E2E2E2E2E2E2E2E2E2E2E2E2E2F0E2E2E2E2E2E2E2E2E2E2E2E2E2E2E2E2E2E2E2F5F5EFF5E2E2E2E2E2E2E2E2E2E2E2E2E2E2E2E2E2E2E2F0E2E2E2E2E2E2E2E2E2E2E2E2E2
310
E2E2E2E2E2E2E2E2E2E2E2E2E2E2E2E2E2E2E2E2E2E2E2E2E2E2E2E2E2E2E2E2E2E2E2E2E2F0F0F0E2F0F0F0F0E2E2E2C3C3C3E2C3C3C3E2C3C3C3C3C3C3C3C3C3C3E2C3C3C3C3C3E2C3C3C3C3E2C3C3C3C3C3C3C3C3C3E2E2E2E2E2E2E2E2E2E2E2E2E2E2E2E2E2E2E2E2E2E2E2E2E2E2E2E2E2E2E2E2E2E2E2E2F0E2E2E2
310
E2E2E2E2E2E2E2E2E2E2E2E2E2E2E2E2F5F5EFF5E2E2F5E2E2E2E2E2E2E2E2E2E2E2E2E2E2E2E2F0E2E2E2E2E2E2E2E2E2E2E2E2E2E2E2E2E2E2E2E2E2E2E2E2E2E2E2E2E2E2E2E2E2E2E2E2E2E2E2E2E2E2E2E2E2E2E2E2E2E2F0E2C3E2F0E2E2F0E2E2C3C3C3C3E2C3C3C3C3C3C3C3C3C3C3C3C3C3C3C3C3C3C3C3C3C3C3
310
C3C3C3E2C3C3C3C3C3C3C3C3C3C3E2E2E2E2E2E2E2E2E2E2E2E2E2E2E2E2E2E2E2E2E2E2E2E2E2E2E2E2E2E2E2E2E2E2E2F0E2E2E2E2E2E2E2E2E2E2E2E2E2E2E2E2F5E2E2F5F5EFF5E2E2F5E2E2E2E2E2E2E2E2E2E2E2E2E2E2E2E2F0E2E2E2E2E2E2E2E2E2E2E2E2E2E2E2E2E2E2E2E2E2E2E2E2E2E2E2E2E2E2E2E2E2E2
310
E2E2E2E2E2E2E2E2E2E2E2E2F0F0F0E2F0E2C3E2F0E2E2F0E2E2C3E2E2E2E2E2E2E2E2E2E2E2E2E2E2E2E2E2E2E2E2E2E2E2E2E2E2E2E2E2E2E2E2E2E2E2E2E2E2E2E2E2E2E2E2E2E2E2E2E2E2E2E2E2E2E2E2E2E2E2E2E2E2E2E2E2E2E2E2E2E2E2E2E2E2E2F0E2E2E2E2E2E2E2E2E2E2E2E2E2E2E2E2F5E2E2F5F5EFF5E2
310
E2F5E2E2E2E2E2E2E2E2E2E2E2E2E2E2E2E2F0E2E2E2E2E2E2E2E2E2E2E2E2E2E2E2E2E2E2E2E2E2E2E2E2E2E2E2E2E2E2E2E2E2E2E2E2E2E2E2E2E2E2E2E2E2E2E2E20FF0280FC30FF00FE2F0E2E2C3E2E2E2E2E2E2E2E2E2E2E2E2E2E2E2E2E2E2E2E2E2E2E2E2E2E2E2E2E2E2E2E2E2E2E2E2E2E2E2E2E2E2E2E2E2E2E2
310
E2E2E2E2E2E2E2E2E2E2E2E2E2E2E2E2E2E2E2E2E2E2E2E2E2E2E2E2F0E2E2E2E2E2E2E2E2E2E2E2E2E2E2E2E2F5E2E2F5F5EFF5E2E2F5E2E2E2E2E2E2E2E2E2E2E2E2E2E2E2E2F0E2E2E2E2E2E2E2E2E2E2E2E2E2E2E2E2E2E2E2E2E2E2E2E2E2E2E2E2E2E2E2E2E2E2E2E2E2E2E2E2E2E2E2E2E2E2E2E228282828282828
310
2828C3F0C3F0F0F0E2E2E2E2E2E2E2E2E2E2E2E2E2E2E2E2E2E2E2E2E2E2E2E2E2E2E2E2E2E2E2E2E2E2E2E2E2E2E2E2E2E2E2E2E2E2E2E2E2E2E2E2E2E2E2E2E2E2E2E2E2E2E2E2E2E2E2E2E2E2E2E2E2F0E2E2E2E2E2E2E2E2E2E2E2E2E2E2E2E2F5E2E2F5F5EFF5E2E2F5E2E2E2E2E2E2E2E2E2E2E2E2E2E2E2E2F0E2E2
310
E2E2E2E2E2E2E2E2E2E2E2E2E2E2E2E2E2E2E2E2E2E2E2E2E2E2E2E2E2E2E2E2E2E2E2E2E2E2E2E2E2E2E2E2E2E20F2828282828280FE2C3E2C3E2E2F0E2E2E2E2E2E2E2E2E2E2E2E2E2E2E2E2E2E2E2E2E2E2E2E2E2E2E2E2E2E2E2E2E2E2E2E2E2E2E2E2E2E2E2E2E2E2E2E2E2E2E2E2E2E2E2E2E2E2E2E2E2E2E2E2E2E2
310
E2E2E2E2E2E2E2F0E2E2E2E2E2E2E2E2E2E2E2E2E2E2E2E2F5E2E2F5F5EFF5E2E2F5E2E2E2E2E2E2E2E2E2E2E2E2E2E2E2E2F0E2E2E2E2E2E2E2E2E2E2E2E2E2E2E2E2E2E2E2E2E2E2E2E2E2E2E2E2E2E2E2E2E2E2E2E2E2E2E2E2E2E2E2E2E2E2E2E20FE228E2C3E2280FE2C3E2C3E2E2F0E2E2E2E2E2E2E2E2E2E2E2E2E2
310
E2E2E2E2E2E2E2E2E2E2E2E2E2E2E2E2E2E2E2E2E2E2E2E2E2E2E2E2E2E2E2E2E2E2E2E2E2E2E2E2E2E2E2E2E2E2E2E2E2E2E2E2E2E2E2E2E2E2E2E2F0E2E2E2E2E2E2E2E2E2E2E2E2E2E2E2E2F5E2E2F5F5EFF5E2E2F5E2E2E2E2E2E2E2E2E2E2E2E2E2E2E2E2F0E2E2E2E2E2E2E2E2E2E2E2E2E2E2E2E2E2E2E2E2E2E2E2
310
E2E2E2E2E2E2E2E2E2E2E2E2E2E2E2E2E2E2E2E2E2E2E2E2E20FE228E2C3E2280FE2C3E2C3E2E2F0E2E2E2E2E2E2E2E2E2E2E2E2E2E2E2E2E2E2E2E2E2E2E2E2E2E2E2E2E2E2E2E2E2E2E2E2E2E2E2E2E2E2E2E2E2E2E2E2E2E2E2E2E2E2E2E2E2E2E2E2E2E2E2E2E2E2E2E2E2E2E2E2E2F0E2E2E2E2E2E2E2E2E2E2E2E2E2
310
E2E2E2F5E2E2F5F5EFF5E2E2F5E2E2E2E2E2E2E2E2E2E2E2E2E2E2E2E2F0E2E2E2E2E2E2E2E2E2E2E2E2E2E2E2E2E2E2E2E2E2E2E2E2E2E2E2E2E2E2E2E2E2E2E2E2E2E2E2E2E2E2E2E2E2E2E2E20FE2E2E2C3E2E20FE2C3C3E2E2E2F0E2E2E2E2E2E2E2E2E2E2E2E2E2E2E2E2E2E2E2E2E2E2E2E2E2E2E2E2E2E2E2E2E2E2
310
E2E2E2E2E2E2E2E2E2E2E2E2E2E2E2E2E2E2E2E2E2E2E2E2E2E2E2E2E2E2E2E2E2E2E2E2E2E2E2F0E2E2E2E2E2E2E2E2E2E2E2E2E2E2E2E2F5E2E2F5F5EFF5E2E2F5E2E2E2E2E2E2E2E2E2E2E2E2E2E2E2E2F0E2E2E2E2E2E2E2E2E2E2E2E2E2E2E2E2E2E2E2E2E2E2E2E2E2E2E2E2E2E2E2E2E2E2E2E2E2E2E2E2E2E2E2E2
310
E2E2E2E20FE2E2E2C3E2E20FE2C3C3E2E2E2F0E2E2E2E2E2E2E2E2E2E2E2E2E2E2E2E2E2E2E2E2E2E2E2E2E2E2E2E2E2E2E2E2E2E2E2E2E2E2E2E2E2E2E2E2E2E2E2E2E2E2E2E2E2E2E2E2E2E2E2E2E2E2E2E2E2E2E2E2E2E2E2E2E2F0E2E2E2E2E2E2E2E2E2E2E2E2E2E2E2E2F5E2E2F5F5EFF5E2E2F5E2E2E2E2E2E2E2E2
310
E2E2E2E2E2E2E2E2F0E2E2E2E2E2E2E2E2E2E2E2E2E2E2E2E2E2E2E2E2E2E2E2E2E2E2E2E2E2E2E2E2E2E2E2E2E2E2E2E2E2E2E2E2E2E2E2E20FE2E2E2C3E2E20FE2C3C3E2E2E2F0E2E2E2E2E2E2E2E2E2E2E2E2E2E2E2E2E2E2E2E2E2E2E2E2E2E2E2E2E2E2E2E2E2E2E2E2E2E2E2E2E2E2E2E2E2E2E2E2E2E2E2E2E2E2E2
310
E2E2E2E2E2E2E2E2E2E2E2E2E2E2E2E2E2E2F0E2E2E2E2E2E2E2E2E2E2E2E2E2E2E2E2F5E2E2F5F5EFF5E2E2F5E2E2E2E2E2E2E2E2E2E2E2E2E2E2E2E2F0E2E2E2E2E2E2E2E2E2E2E2E2E2E2E2E2E2E2E2E2E2E2E2E2E2E2E2E2E2E2E2E2E2E2E2E2E2E2E2E2E2E2E2E2E2E2E2E20FE2E2E2C3E2E20FE2C3C3E2E2E2F0E2E2
310
E2E2E2E2E2E2E2E2E2E2E2E2E2E2E2E2E2E2E2E2E2E2E2E2E2E2E2E2E2E2E2E2E2E2E2E2E2E2E2E2E2E2E2E2E2E2E2E2E2E2E2E2E2E2E2E2E2E2E2E2E2E2E2E2E2E2E2E2E2E2E2F0E2E2E2E2E2E2E2E2E2E2E2E2E2E2E2E2F5E2E2F5F5EFF5E2E2F5E2E2E2E2E2E2E2E2E2E2E2E2E2E2E2E2F0E2E2E2E2E2E2E2E2E2E2E2E2
310
E2E2E2E2E2E2E2E2E2E2E2E2E2E2E2E2E2E2E2E2E2E2E2E2E2E2E2E2C3C3C3C3C3C3C3C3C3C3C3C3C3C3C3C328C328C3C3F0F0C3C3E2E2E2E2E2E2E2E2E2E2E2E2E2E2E2E2E2E2E2E2E2E2E2E2E2E2E2E2E2E2E2E2E2E2E2E2E2E2E2E2E2E2E2E2E2E2E2E2E2E2E2E2E2E2E2E2E2E2E2E2E2E2E2E2E2E2E2E2E2E2E2F0E2E2
310
E2E2E2E2E2E2E2E2E2E2E2E2E2E2F5E2E2F5F5EFF5E2E2F5E2E2E2E2E2E2E2E2E2E2E2E2E2E2E2E2F0E2E2E2E2E2E2E2E2E2E2E2E2E2E2E2E2E2E2E2E2E2E2E2E2E2E2E2E2E2E2E2E2E2E2E2E2E2E2E2E2E2E2E2E2E2E2E2E20FE2E2E2C3E2E20F28C328E2E2F0F0E2E2E2E2E2E2E2E2E2E2E2E2E2E2E2E2E2E2E2E2E2E2E2
310
E2E2E2E2E2E2E2E2E2E2E2E2E2E2E2E2E2E2E2E2E2E2E2E2E2E2E2E2E2E2E2E2E2E2E2E2E2E2E2E2E2E2E2E2E2E2E2E2E2E2F0E2E2E2E2E2E2E2E2E2E2E2E2E2E2E2E2F5E2E2F5F5EFF5E2E2F5E2E2E2E2E2E2E2E2E2E2E2E2E2E2E2E2F0E2E2E2E2E2E2E2E2E2E2E2E2E2E2E2E2E2E2E2E2E2E2E2E2E2E2E2E2E2E2E2E2E2
310
E2E2E2E2E2E2E2E2E2E2E2E2E2E2E20FE2E2E2C3E2E20FE2C3E2E2E2E2F0E2E2E2E2E2E2E2E2E2E2E2E2E2E2E2E2E2E2E2E2E2E2E2E2E2E2E2E2E2E2E2E2E2E2E2E2E2E2E2E2E2E2E2E2E2E2E2E2E2E2E2E2E2E2E2E2E2E2E2E2E2E2E2E2E2E2E2E2E2E2E2E2E2F0E2E2E2E2E2E2E2E2E2E2E2E2E2E2E2E2F5E2E2F5F5EFF5
310
E2E2F5E2E2E2E2E2E2E2E2E2E2E2E2E2E2E2E2F0E2E2E2E2E2E2E2E2E2E2E2E2E2E2E2E2E2E2E2E2E2E2E2E2E2E2E2E2E2E2E2E2E2E2E2E2E2E2E2E2E2E2E2E2E2E2E2E20FE2E2E2C3E2E20FE2C3E2E2E2E2F0E2E2E2E2E2E2E2E2E2E2E2E2E2E2E2E2E2E2E2E2E2E2E2E2E2E2E2E2E2E2E2E2E2E2E2E2E2E2E2E2E2E2E2E2
310
E2E2E2E2E2E2E2E2E2E2E2E2E2E2E2E2E2E2E2E2E2E2E2E2E2E2E2E2E2F0E2E2E2E2E2E2E2E2E2E2E2E2E2E2E2E2F5E2E2F5F5EFF5E2E2E2E2E2E2E2E2E2E2E2E2E2E2E2E2E2E2E2F0E2E2E2E2E2E2E2E2E2E2E2E2E2E2E2E2E2E2E2E2E2E2E2E2E2E2E2E2E2E2E2E2E2E2E2E2E2E2E2E2E2E2E2E2E2E2E2E20FE2E2E2C3E2
310
E20FE2E2E2E2E2E2F0E2E2E2E2E2E2E2E2E2E2E2E2E2E2E2E2E2E2E2E2E2E2E2E2E2E2E2E2E2E2E2E2E2E2E2E2E2E2E2E2E2E2E2E2E2E2E2E2E2E2E2E2E2E2E2E2E2E2E2E2E2E2E2E2E2E2E2E2E2E2E2E2E2F0E2E2E2E2E2E2E2E2E2E2E2E2E2E2E2E2E2E2E2F5F5EFF5E2E2E2E2E2E2E2E2E2E2E2E2E2E2E2E2E2E2E2F0E2
310
E2E2E2E2E2E2E2E2E2E2E2E2E2E2E2E2E2E2E2E2E2E2E2E2E2E2E2E2E2E2E2E2E2E2E2E2E2E2E2E2E2E2E2E2E2E2E20FE2E2E2C3E2E20FE2E2E2E2E2E2F0E2E2E2E2E2E2E2E2E2E2E2E2E2E2E2E2E2E2E2E2E2E2E2E2E2E2E2E2E2E2E2E2E2E2E2E2E2E2E2E2E2E2E2E2E2E2E2E2E2E2E2E2E2E2E2E2E2E2E2E2E2E2E2E2E2
310
E2E2E2E2E2E2E2E2F0E2E2E2E2E2E2E2E2E2E2E2E2E2E2E2E2E2E2E2F5F5EFF5E2E2E2E2E2E2E2E2E2E2E2E2E2E2E2E2E2E2E2F0E2E2E2E2E2E2E2E2E2E2E2E2E2E2E2E2E2E2E2E2E2E2E2E2E2E2E2E2E2E2E2E2E2E2E2E2E2E2E2E2E2E2E2E2E2E2E2E20FE228E2C3E2280FE2E2E2E2E2E2F0E2E2E2E2E2E2E2E2E2E2E2E2
310
E2E2E2E2E2E2E2E2E2E2E2E2E2E2E2E2E2E2E2E2E2E2E2E2E2E2E2E2E2E2E2E2E2E2E2E2E2E2E2E2E2E2E2E2E2E2E2E2E2E2E2E2E2E2E2E2E2E2E2E2E2F0E2E2E2E2E2E2E2E2E2E2E2E2E2E2E2E2E2E2E2F5F5EFF5E2E2E2E2E2E2E2E2E2E2E2E2E2E2E2E2E2E2E2F0E2E2E2E2E2E2E2E2E2E2E2E2E2E2E2E2E2E2E2E2E2E2
310
E2E2E2E2E2E2E2E2E2E2E2E2E2E2E2E2E2E2E2E2E2E2E2E2E2E20FE228E2C3E2280FE2E2E2E2E2E2F0E2E2E2E2E2E2E2E2E2E2E2E2E2E2E2E2E2E2E2E2E2E2E2E2E2E2E2E2E2E2E2E2E2E2E2E2E2E2E2E2E2E2E2E2E2E2E2E2E2E2E2E2E2E2E2E2E2E2E2E2E2E2E2E2E2E2E2E2E2E2E2E2E2F0E2E2E2E2E2E2E2E2E2E2E2E2
310
E2E2E2E2E2E2E2F5F5EFF5E2E2E2E2E2E2E2E2E2E2E2E2E2E2E2E2E2E2E2F0E2E2E2E2E2E2E2E2E2E2E2E2E2E2E2E2E2E2E2E2E2E2E2E2E2E2E2E2E2E2E2E2E2E2E2E2E2E2E2E2E2E2E2E2E2E2E2E20F2828282828280FE2E2E2E2E2E2F0E2E2E2E2E2E2E2E2E2E2E2E2E2E2E2E2E2E2E2E2E2E2E2E2E2E2E2E2E2E2E2E2E2
310
E2E2E2E2E2E2E2E2E2E2E2E2E2E2E2E2E2E2E2E2E2E2E2E2E2E2E2E2E2E2E2E2E2E2E2E2E2E2E2E2F0E2E2E2E2E2E2E2E2E2E2E2E2E2E2E2E2E2E2E2F5F5EFF5E2E2E2E2E2E2E2E2E2E2E2E2E2E2E2E2E2E2E2F0E2E2E2E2E2E2E2E2E2E2E2E2E2E2E2E2E2E2E2E2E2E2E2E2E2E2E2E2E2E2E2E2E2E2E2E2E2E2E2E2E2E2E2
310
E2E2E2E2E228282828F028282828F0F0F0F0F0F0E2E2E2E2E2E2E2E2E2E2E2E2E2E2E2E2E2E2E2E2E2E2E2E2E2E2E2E2E2E2E2E2E2E2E2E2E2E2E2E2E2E2E2E2E2E2E2E2E2E2E2E2E2E2E2E2E2E2E2E2E2E2E2E2E2E2E2E2E2E2E2E2E2F0E2E2E2E2E2E2E2E2E2E2E2E2E2E2E2E2E2E2E2F5F5EFF5E2E2E2E2E2E2E2E2E2E2
310
E2E2E2E2E2E2E2E2E2F0E2E2E2E2E2E2E2E2E2E2E2E2E2E2E2E2E2E2E2E2E2E2E2E2E2E2E2E2E2E2E2E2E2E2E2E2E2E2E2E2E2E2E2E2E2E2E2E20F0F28F0C30F280FE2E2E2E2E2E2E2E2E2E2E2E2E2E2E2E2E2E2E2E2E2E2E2E2E2E2E2E2E2E2E2E2E2E2E2E2E2E2E2E2E2E2E2E2E2E2E2E2E2E2E2E2E2E2E2E2E2E2E2E2E2
310
E2E2E2E2E2E2E2E2E2E2E2E2E2E2E2E2E2E2E2F0E2E2E2E2E2E2E2E2E2E2E2E2E2E2E2E2E2E2E2F5F5EFF5E2E2E2E2E2E2E2E2E2E2E2E2E2E2E2E2E2E2E2F0E2E2E2E2E2E2E2E2E2E2E2E2E2E2E2E2E2E2E2E2E2E2E2E2E2E2E2E2E2E2E2E2E2E2E2E2E2E2E2E2E2E2E2E2E2E2E2E2E2E228F0C3E228E2E2E2E2E2E2E2E2E2
310
E2E2E2E2E2E2E2E2E2E2E2E2E2E2E2E2E2E2E2E2E2E2E2E2E2E2E2E2E2E2E2E2E2E2E2E2E2E2E2E2E2E2E2E2E2E2E2E2E2E2E2E2E2E2E2E2E2E2E2E2E2E2E2E2E2E2E2E2E2E2E2E2F0E2E2E2E2E2E2E2E2E2E2E2E2E2E2E2E2E2E2E2F5F5EFF5E2E2F5E2E2E2E2E2E2E2E2E2E2E2E2E2E2E2E2F0E2E2E2E2E2E2E2E2E2E2E2
310
E2E2E2E2E2E2E2E2E2E2E2E2E2E2E2E2E2E2E2E2E2E2E2E2E2E2E2E2E2E2E2E2E2E2E2E2E2F0F0F0E2C3E2E2E2E2E2E2E2E2E2E2E2E2E2E2E2E2E2E2E2E2E2E2E2E2E2E2E2E2E2E2E2E2E2E2E2E2E2E2E2E2E2E2E2E2E2E2E2E2E2E2E2E2E2E2E2E2E2E2E2E2E2E2E2E2E2E2E2E2E2E2E2E2E2E2E2E2E2E2E2E2E2E2E2F0E2
310
E2E2E2E2E2E2E2E2E2E2E2E2E2E2E2F5E2E2F5F5EFF5E2E2F5E2E2E2E2E2E2E2E2E2E2E2E2E2E2E2E2F0E2E2E2E2E2E2E2E2E2E2E2E2E2E2E2E2E2E2E2E2E2E2E2E2E2E2E2E2E2E2E2E2E2E2E2E2E2E2E2E2E2E2E2E2E2E2E2E2E2F0F0E2C3E2E2E2E2E2E2E2E2E2E2E2E2E2E2E2E2E2E2E2E2E2E2E2E2E2E2E2E2E2E2E2E2
310
E2E2E2E2E2E2E2E2E2E2E2E2E2E2E2E2E2E2E2E2E2E2E2E2E2E2E2E2E2E2E2E2E2E2E2E2E2E2E2E2E2E2E2E2E2E2E2E2E2E2E2F0E2E2E2E2E2E2E2E2E2E2E2E2E2E2E2E2F5E2E2F5F5EFF5E2E2F5E2E2E2E2E2E2E2E2E2E2E2E2E2E2E2E2F0E2E2E2E2E2E2E2E2E2E2E2E2E2E2E2E2E2E2E2E2E2E2E2E2E2E2E2E2E2E2E2E2
310
E2E2E2E2E2E2E2E2E2E2E2E2E2E2E2E2E2E2E2E2C3E2E2E2E2E2E2E2E2E2E2E2E2E2E2E2E2E2E2E2E2E2E2E2E2E2E2E2E2E2E2E2E2E2E2E2E2E2E2E2E2E2E2E2E2E2E2E2E2E2E2E2E2E2E2E2E2E2E2E2E2E2E2E2E2E2E2E2E2E2E2E2E2E2E2E2E2E2E2E2E2E2E2E2F0E2E2E2E2E2E2E2E2E2E2E2E2E2E2E2E2F5E2E2F5F5EF
310
F5E2E2F5E2E2E2E2E2E2E2E2E2E2E2E2E2E2E2E2F0E2E2E2E2E2E2E2E2E2E2E2E2E2E2E2E2E2E2E2E2E2E2E2E2E2E2E2E2E2E2E2E2E2E2E2E2E2E2E2E2E2E2E2E2E2E2E2E2E2E2E2E2C3E2E2E2E2E2E2E2E2E2E2E2E2E2E2E2E2E2E2E2E2E2E2E2E2E2E2E2E2E2E2E2E2E2E2E2E2E2E2E2E2E2E2E2E2E2E2E2E2E2E2E2E2E2
310
E2E2E2E2E2E2E2E2E2E2E2E2E2E2E2E2E2E2E2E2E2E2E2E2E2E2E2E2E2E2F0E2E2E2E2E2E2E2E2E2E2E2E2E2E2E2E2F5E2E2F5F5EFF5E2E2F5E2E2E2E2E2E2E2E2E2E2E2E2E2E2E2E2F0E2E2E2E2E2E2E2E2E2E2E2E2E2E2E2E2E2E2E2E2E2E2E2E2E2E2E2E2E2E2E2E2E2E2E2E2E2E2E2E2E2E2E2E2E2E2E2E2E2E2E2E2E2
310
E2E2E2E2E2E2E2E2E2E2E2E2E2E2E2E2E2E2E2E2E2E2E2E2E2E2E2E2E2E2E2E2E2E2E2E2E2E2E2E2E2E2E2E2E2E2E2E2E2E2E2E2E2E2E2E2E2E2E2E2E2E2E2E2E2E2E2E2E2E2E2E2E2E2E2E2E2E2E2E2E2E2E2F0E2E2E2E2E2E2E2E2E2E2E2E2E2E2E2E2F5E2E2F5F5EFF5E2E2F5E2E2E2E2E2E2E2E2E2E2E2E2E2E2E2E2F0
310
E2E2E2E2E2E2E2E2E2E2E2E2E2E2E2E2E2E2E2E2E2E2E2E2E2E2E2E2E2E2E2E2E2E2E2E2E2E2E2E2E2E2E2E2E2E2E2E2E2E2E2E2E2E2E2E2E2E2E2E2E2E2E2E2E2E2E2E2E2E2E2E2E2E2E2E2E2E2E2E2E2E2E2E2E2E2E2E2E2E2E2E2E2E2E2E2E2E2E2E2E2E2E2E2E2E2E2E2E2E2E2E2E2E2E2E2E2E2E2E2E2E2E2E2E2E2E2
310
E2E2E2E2E2E2E2E2E2F0E2E2E2E2E2E2E2E2E2E2E2E2E2E2E2E2F5E2E2F5F5EFF5E2E2F5E2E2E2E2E2E2E2E2E2E2E2E2E2E2E2E2F0E2E2E2E2E2E2E2E2E2E2E2E2E2E2E2E2E2E2E2E2E2E2E2E2E2E2E2E2E2E2E2E2E2E2E2E2E2E2E2E2E2E2E2E2E2E2E2E2E2E2E2E2E2E2E2E2E2E2E2E2E2E2E2E2E2E2E2E2E2E2E2F0F0F0
310
F0F0F0F0F0F0F0F0F0F0F0E2E2E2E2E2E2E2E2E2E2E2E2E2E2E2E2E2E2E2E2E2E2E2E2E2E2E2E2E2E2E2E2E2E2E2E2E2E2E2E2E2E2E2E2E2E2E2E2E2E2E2F0E2E2E2E2E2E2E2E2E2E2E2E2E2E2E2E2F5E2E2F5F5EFF5E2E2F5E2E2E2E2E2E2E2E2E2E2E2E2E2E2E2E2F0E2E2E2E2E2E2E2E2E2E2E2E2E2E2E2E2E2E2E2E2E2
310
E2E2E2E2E2E2E2E2E2E2E2E2E2E2E2E2E2E2E2E2E2E2E2E2E2E2E2E2E2E2E2E2E2E2E2E2E2E2E2E2E2E2E2E2E2E2E2E2E2E2F0F0F0F0F0F0F0F0F0F0F0F0F0F0E2E2E2E2E2E2E2E2E2E2E2E2E2E2E2E2E2E2E2E2E2E2E2E2E2E2E2E2E2E2E2E2E2E2E2E2E2E2E2E2E2E2E2E2E2E2E2E2E2E2E2F0E2E2E2E2E2E2E2E2E2E2E2
310
E2E2E2E2E2F5E2E2F5F5EFF5E2E2F5E2E2E2E2E2E2E2E2E2E2E2E2E2E2E2E2F0E2E2E2E2E2E2E2E2E2E2E2E2E2E2E2E2E2E2E2E2E2E2E2E2E2E2E2E2E2E2E2E2E2E2E2E2E2E2E2E2E2E2E2E2E2E2E2E2E2E2E2E2E2E2E2E2E2E2E2E2E2E2E2E2E2E2E2E2E2E2E2F0E2F0F0E2E2E2F0F0E2E2E2E2F0E2E2E2E2E2E2E2E2E2E2
310
E2E2E2E2E2E2E2E2E2E2E2E2E2E2E2E2E2E2E2E2E2E2E2E2E2E2E2E2E2E2E2E2E2E2E2E2E2E2E2E2E2F0E2E2E2E2E2E2E2E2E2E2E2E2E2E2E2E2F5E2E2F5F5EFF5E2E2F5E2E2E2E2E2E2E2E2E2E2E2E2E2E2E2E2F0E2E2E2E2E2E2E2E2E2E2E2E2E2E2E2E2E2E2E2E2E2E2E2E2E2E2E2E2E2E2E2E2E2E2E2E2E2E2E2E2E2E2
310
E2E2E2E2E2E2F0F0F0F0F0F0F0F0E2E2E2E2E2E2E2E2E2E2E2E2E2E2E2F0E2F0F0F0F0F0F0F0F0F0F0F0F0E2E2E2E2E2E2E2E2E2E2E2E2E2E2E2E2E2E2E2E2E2E2E2E2E2E2E2E2E2E2E2E2E2E2E2E2E2E2E2E2E2E2E2E2E2E2E2E2E2E2E2F0E2E2E2E2E2E2E2E2E2E2E2E2E2E2E2E2F5E2E2F5F5EFF5E2E2F5E2E2E2E2E2E2
310
E2E2E2E2E2E2E2E2E2E2F0E2E2E2E2E2E2E2E2E2E2E2E2E2E2E2E2E2E2E2E2E2E2E2E2E2E2E2E2E2E2E2E2E2E2E2E2E2E2E2E2E2E2E2E2E2E2E2E2F0E2E2F0F0E2E2F0E2E2E2E2E2E2E2E2E2E2E2E2E2E2E2F0E2F0F0F0F0F0F0F0F0F0F0F00FE2E2E2E2E2E2E2E2E2E2E2E2E2E2E2E2E2E2E2E2E2E2E2E2E2E2E2E2E2E2E2
310
E2E2E2E2E2E2E2E2E2E2E2E2E2E2E2E2E2E2E2E2F0E2E2E2E2E2E2E2E2E2E2E2E2E2E2E2E2F5E2E2F5F5EFF5E2E2F5E2E2E2E2E2E2E2E2E2E2E2E2E2E2E2E2F0E2E2E2E2E2E2E2E2E2E2E2E2E2E2E2E2E2E2E2E2E2E2E2E2E2E2E2E2E2E2E2E2E2E2E2E2E2E2E2E2E2E2E2E2E2E2E2E2F0E2E2E2E2E2E2F0E2E2E2E2E2E2E2
310
E2E2E2E2E2E2E2E2F0E2F0F0F0E2E2E2F0F0E2E2E20FE2E2E2E2E2E2E2E2E2E2E2E2E2E2E2E2E2E2E2E2E2E2E2E2E2E2E2E2E2E2E2E2E2E2E2E2E2E2E2E2E2E2E2E2E2E2E2E2E2E2E2F0E2E2E2E2E2E2E2E2E2E2E2E2E2E2E2E2F5E2E2F5F5EFF5E2E2F5E2E2E2E2E2E2E2E2E2E2E2E2E2E2E2E2F0E2E2E2E2E2E2E2E2E2E2
310
E2E2E2E2E2E2E2E2E2E2E2E2E2E2E2E2E2E2E2E2E2E2E2E2E2E2E2E2E2E2E2E2E2E2E2E2E2E2F0E2F0F0F0F0F0F0E2E2E2E2E2E2E2E2E2E2E2E2E2E2E2F0E2F0F0F0E2E2E2E2E2E2E2E20FE2E2E2E2E2E2E2E2E2E2E2E2E2E2E2E2E2E2E2E2E2E2E2E2E2E2E2E2E2E2E2E2E2E2E2E2E2E2E2E2E2E2E2E2E2E2E2E2E2E2E2F0
310
E2E2E2E2E2E2E2E2E2E2E2E2E2E2E2E2F5E2E2F5F5EFF5E2E2F5E2E2E2E2E2E2E2E2E2E2E2E2E2E2E2E2F0E2E2E2E2E2E2E2E2E2E2E2E2E2E2E2E2E2E2E2E2E2E2E2E2E2E2E2E2E2E2E2E2E2E2E2E2E2E2E2E2E2E2E2E2E2E2E2E2F0E2F0E2C3E2F0F0E2E2E2E2E2E2E2E2E2E2E2E2E2E2E2F0E2F0F0F0E2E2E2E2E2E2E2E2
310
0FE2E2E2F5E2E2E2E2E2E2E2E2E2E2E2E2E2E2E2E2E2E2E2E2E2E2E2E2E2E2E2E2E2E2E2E2E2E2E2E2E2E2E2E2E2E2E2E2E2E2E2F0E2E2E2E2E2E2E2E2E2E2E2E2E2E2E2E2F5E2E2F5F5EFF5E2E2F5E2E2E2E2E2E2E2E2E2E2E2E2E2E2E2E2F0E2E2E2E2E2E2E2E2E2E2E2E2E2E2E2E2E2E2E2E2E2E2E2E2E2E2E2E2E2E2E2
310
E2E2E2E2E2E2E2E2E2E2E2E2E2E2E2E2E2F0E2F0E2C3E2F0F0E2E2E2E2E2E2E2E2E2E2E2E2E2E2E2F0E2F0F0F0E2E2E2E2E2E2E2E20FE2E2E2F5E2E2E2E2E2E2E2E2E2E2E2E2E2E2E2E2E2E2E2E2E2E2E2E2E2E2E2E2E2E2E2E2E2E2E2E2E2E2E2E2E2E2E2E2E2E2E2F0E2E2E2E2E2E2E2E2E2E2E2E2E2E2E2E2F5E2E2F5F5
310
EFF5E2E2E2E2E2E2E2E2E2E2E2E2E2E2E2E2E2E2E2F0E2E2E2E2E2E2E2E2E2E2E2E2E2E2E2E2E2E2E2E2E2E2E2E2E2E2E2E2E2E2E2E2E2E2E2E2E2E2E2E2E2E2E2E2F0F0F0F0F02DF02DC32DF0F0E2E2E2E2E2E2E2E2E2E2E2E2E2E2E2F0E2F0F0F02D2D2D2D2D2D2D2D0FE2E2E2F5E2E2E2E2E2E2E2E2E2E2E2E2E2E2E2E2
310
E2E2E2E2E2E2E2E2E2E2E2E2E2E2E2E2E2E2E2E2E2E2E2E2E2E2E2E2E2E2E2F0E2E2E2E2E2E2E2E2E2E2E2E2E2E2E2E2E2E2E2F5F5EFF5E2E2E2E2E2E2E2E2E2E2E2E2E2E2E2E2E2E2E2F0E2E2E2E2E2E2E2E2E2E2E2E2E2E2E2E2E2E2E2E2E2E2E2E2E2E2E2E2E2E2E2E2E2E2E2E2E2E2E2E2E2E2E2E2F0E2E2E22DDCDC28
310
C3DCDC2DE2E2E2E2E2E2E2E2E2E2E2E2E2E2E2F0E2F0F02DE2E2E2E2E2E2E2E20FF5F5F5F5F5F5E2E2E2E2E2E2E2E2E2E2E2E2E2E2E2E2E2E2E2E2E2E2E2E2E2E2E2E2E2E2E2E2E2E2E2E2E2E2E2E2E2E2E2E2E2F0E2E2E2E2E2E2E2E2E2E2E2E2E2E2E2E2E2E2E2F5F5EFF5E2E2E2E2E2E2E2E2E2E2E2E2E2E2E2E2E2E2E2
310
F0E2E2E2E2E2E2E2E2E2E2E2E2E2E2E2E2E2E2E2E2E2E2E2E2E2E2E2E2E2E2E2E2E2E2E2E2E2E2E2E2E2E2E2E2F0E2E2E22DDCDC282828DCDCE2E2E2E2E2E2E2E2E2E2E2E2E2E2E2F0E2F0F02DE2E2E2E2E2E2E2F50FF5F5F5F5F5F5F5F5F5F5F0F0E2E2E2E2E2E2E2E2E2E2E2E2E2E2E2E2E2E2E2E2E2E2E2E2E2E2E2E2E2
310
E2E2E2E2E2E2E2E2E2E2F0E2E2E2E2E2E2E2E2E2E2E2E2E2E2E2E2E2E2E2F5F5EFF5E2E2E2E2E2E2E2E2E2E2E2E2E2E2E2E2E2E2E2F0E2E2E2E2E2E2E2E2E2E2E2E2E2E2E2E2E2E2E2E2E2E2E2E2E2E2E2E2E2E2E2E2E2E2E2E2E2E2E2E2E2E2E2E2F0E2E2E22DE2DCE2C3E2DC2DE2E2E2E2E2E2E2E2E2E2E2E2E2E2E2F0E2
310
F0F02DE2E2E2E2E2E2E2E20FF5F5F5F5F5E2E2E2E2E2E2F0E2E2E2E2E2E2E2E2E2E2E2E2E2E2E2E2E2E2E2E2E2E2E2E2E2E2E2E2E2E2E2E2E2E2E2E2E2E2E2F0E2E2E2E2E2E2E2E2E2E2E2E2E2E2E2E2E2E2E2F5F5EFF5E2E2E2E2E2E2E2E2E2E2E2E2E2E2E2E2E2E2E2F0E2E2E2E2E2E2E2E2E2E2E2E2E2E2E2E2E2E2E2E2
310
E2E2E2E2E2E2E2E2E2E2E2E2E2E2E2E2E2E2E2E2E2E2E2E2F0E2E2E22D2D2D2DC32D2D2DE2E2E2E2E2E2E2E2E2E2E2E2F0F0F0F0F0F0F02DE2E2E2E2E2E2E2E20FE2E2E2F5E2E2E2E2E2E2E2F0E2E2E2E2E2E2E2E2E2E2E2E2E2E2E2E2E2E2E2E2E2E2E2E2E2E2E2E2E2E2E2E2E2E2E2E2E2E2E2F0E2E2E2E2E2E2E2E2E2E2
310
E2E2E2E2E2E2E2E2E2F5F5EFF5E2E2E2E2E2E2E2E2E2E2E2E2E2E2E2E2E2E2E2F0E2E2E2E2E2E2E2E2E2E2E2E2E2E2E2E2E2E2E2E2E2E2E2E2E2E2E2E2E2E2E2E2E2E2E2E2E2E2E2E2E2E2E2E2F0E2E2E22DE2E2E2C3E2E22DE2E2E2E2E2E2E2E2E2E2E2E2F0E2E2F0E2F02DE2E2E2E2E2E2E2E2E20FE2E2E2E2E2E2E2E2E2
310
E2E2F0E2E2E2E2E2E2E2E2E2E2E2E2E2E2E2E2E2E2E2E2E2E2E2E2E2E2E2E2E2E2E2E2E2E2E2E2E2E2E2F0E2E2E2E2E2E2E2E2E2E2E2E2E2E2E2E2E2E2E2F5F5EFF5E2E2E2E2E2E2E2E2E2E2E2E2E2E2E2E2E2E2E2F0E2E2E2E2E2E2E2E2E2E2E2E2E2E2E2E2E2E2E2E2E2E2E2E2E2E2E2E2E2E2E2E2E2E2E2E2E2E2E2E2E2
310
E2E2E2F0E2E2E22D2D2D2DC3E2E22DE2E2E2E2E2E2E2E2E2E2E2E2F0E2E2F0E2F02DE2E2E2E2E2E2E2E2E20FE2E2E2E2E2E2E2E2E2E2E2F0E2E2E2E2E2E2E2E2E2E2E2E2E2E2E2E2E2E2E2E2E2E2E2E2E2E2E2E2E2E2E2E2E2E2E2E2E2E2E2F0E2E2E2E2E2E2E2E2E2E2E2E2E2E2E2E2E2E2E2F5F5EFF5E2E2E2E2E2E2E2E2
310
E2E2E2E2E2E2E2E2E2E2E2F0E2E2E2E2E2E2E2E2E2E2E2E2E2E2E2E2E2E2E2E2E2E2E2E2E2E2E2E2E2E2E2E2E2E2E2E2E2E2E2E2E2E2E2E2F0E2E2E22D2D2D2DC3E2E22DE2E2E2E2E2E2E2E2E2E2E2E2F0E2E2F0E22D2DE2E2E2E2E2E2E2E2E20FE2E2E2E2E2E2E2E2E2E2E2F0E2E2E2E2E2E2E2E2E2E2E2E2E2E2E2E2E2E2
310
E2E2E2E2E2E2E2E2E2E2E2E2E2E2E2E2E2E2E2E2E2F0E2E2E2E2E2E2E2E2E2E2E2E2E2E2E2E2E2E2E2F5F5EFF5E2E2E2E2E2E2E2E2E2E2E2E2E2E2E2E2E2E2E2F0E2E2E2E2E2E2E2E2E2E2E2E2E2E2E2E2E2E2E2E2E2E2E2E2E2E2E2E2E2E2E2E2E2E2E2E2E2E2E2E2E2E2E2E2F0E2E2E22D2DE22DC3E2E22DE2E2E2E2E2E2
310
E2E2E2E2E2E2F0E2E2F0E22D2DE2E2E2E2E2E2E2E2E20FE2E2E2E2E2E2E2E2E2E2E2F0E2E2E2E2E2E2E2E2E2E2E2E2E2E2E2E2E2E2E2E2E2E2E2E2E2E2E2E2E2E2E2E2E2E2E2E2E2E2E2F0E2E2E2E2E2E2E2E2E2E2E2E2E2E2E2E2E2E2E2F5F5EFF5E2E2F5E2E2E2E2E2E2E2E2E2E2E2E2E2E2E2E2F0E2E2E2E2E2E2E2E2E2
310
E2E2E2E2E2E2E2E2E2E2E2E2E2E2E2E2E2E2E2E2E2E2E2E2E2E2E2E2E2E2E2E2E2E2E2F0E2E2E22D2DE22DC3E2E22DE2E2E2E2E2E2E2E2E2E2E2F0F0E2E2F0E22D2DE2E2E2E2E2E2E2E2E20FE2E2E2E2E2E2E2E2E2E2F0F0E2E2E2E2E2E2E2E2E2E2E2E2E2E2E2E2E2E2E2E2E2E2E2E2E2E2E2E2E2E2E2E2E2E2E2E2E2E2E2
310
F0E2E2E2E2E2E2E2E2E2E2E2E2E2E2E2E2F5E2E2F5F5EFF5E2E2F5E2E2E2E2E2E2E2E2E2E2E2E2E2E2E2E2F0E2E2E2E2E2E2E2E2E2E2E2E2E2E2E2E2E2E2E2E2E2E2E2E2E2E2E2E2E2E2E2E2E2E2E2E2E2E2E2E2C3C3C3C3F0C3C3C3C3C3C3C3C3C3C3C3C3C3C3C3C3C3C3C3C3E2E2F0F0C3C3F0C3C3C3C3C3C3C3C3C3C3C3
310
C30FC3C3C3C3C3E2E2E2E2E2F0F0E2E2E2E2E2E2E2E2E2E2E2E2E2E2E2E2E2E2E2E2E2E2E2E2E2E2E2E2E2E2E2E2E2E2E2E2E2E2E2F0E2E2E2E2E2E2E2E2E2E2E2E2E2E2E2E2F5E2E2F5F5EFF5E2E2F5E2E2E2E2E2E2E2E2E2E2E2E2E2E2E2E2F0E2E2E2E2E2E2E2E2E2E2E2E2E2E2E2E2E2E2E2E2E2E2E2E2E2E2E2E2E2E2
310
E2E2E2E2E2E2E2E2E2E2E2E2E2E2F0E2E2E22D2DE22DC3E2E22DE2E2E2E2E2E2E2E2E2E2E2E2F0E2E22DE22D2DE2E2E2E2E2E2E2E2E20FE2E2E2E2E2E2E2E2E2E2E2F0E2E2E2E2E2E2E2E2E2E2E2E2E2E2E2E2E2E2E2E2E2E2E2E2E2E2E2E2E2E2E2E2E2E2E2E2E2E2E2F0E2E2E2E2E2E2E2E2E2E2E2E2E2E2E2E2F5E2E2F5
310
F5EFF5E2E2F5E2E2E2E2E2E2E2E2E2E2E2E2E2E2E2E2F0E2E2E2E2E2E2E2E2E2E2E2E2E2E2E2E2E2E2E2E2E2E2E2E2E2E2E2E2E2E2E2E2E2E2E2E2E2E2E2E2E2E2E2E2F0E2E2E22D2DE22DC3E2E22DE2E2E2E2E2E2E2E2E2E2E2E2F0E2E22D2D2D2DE2E2E2E2E2E2E2E2E20FE2E2E2E2E2E2E2E2E2E2E2F0E2E2E2E2E2E2E2
310
E2E2E2E2E2E2E2E2E2E2E2E2E2E2E2E2E2E2E2E2E2E2E2E2E2E2E2E2E2E2E2E2F0E2E2E2E2E2E2E2E2E2E2E2E2E2E2E2E2F5E2E2F5F5EFF5E2E2F5E2E2E2E2E2E2E2E2E2E2E2E2E2E2E2E2F0E2E2E2E2E2E2E2E2E2E2E2E2E2E2E2E2E2E2E2E2E2E2E2E2E2E2E2E2E2E2E2E2E2E2E2E2E2E2E2E2E2E2E2E2F0E2E2E2F02D2D
310
2DF0E2E22DE2E2E2E2E2E2E2E2E2E2E2E2F0E2E22D2D2D2DE2E2E2E2E2E2E2E2E20FE2E2E2E2E2E2E2E2E2E2E2F0E2E2E2E2E2E2E2E2E2E2E2E2E2E2E2E2E2E2E2E2E2E2E2E2E2E2E2E2E2E2E2E2E2E2E2E2E2E2E2F0E2E2E2E2E2E2E2E2E2E2E2E2E2E2E2E2F5E2E2F5F5EFF5E2E2F5E2E2E2E2E2E2E2E2E2E2E2E2E2E2E2
310
E2F0E2E2E2E2E2E2E2E2E2E2E2E2E2E2E2E2E2E2E2E2E2E2E2E2E2E2E2E2E2E2E2E2E2E2E2E2E2E2E2E2E2E2E2E2F0E2E2E2F0F0F0F0F0E2E22DE2E2E2E2E2E2E2E2E2E2E2E2F0E2E2E2E2E22DE2E2E2E2E2E2E2E2E20FE2E2E2E2E2E2E2E2E2E2E2F0E2E2E2E2E2E2E2E2E2E2E2E2E2E2E2E2E2E2E2E2E2E2E2E2E2E2E2E2
310
E2E2E2E2E2E2E2E2E2E2E2F0E2E2E2E2E2E2E2E2E2E2E2E2E2E2E2E2F5E2E2F5F5EFF5E2E2F5E2E2E2E2E2E2E2E2E2E2E2E2E2E2E2E2F0E2E2E2E2E2E2E2E2E2E2E2E2E2E2E2E2E2E2E2E2E2E2E2E2E2E2E2E2E2E2E2E2E2E2E2E2E2E2E2E2E2E2E2E2F0E2E2E22DF0F0E2C3E2E22DE2E2E2E2E2E2E2E2E2E2E2E2F0E2E2E2
310
E2E22DE2E2E2E2E2E2E2E2E20FE2E2E2E2E2E2E2E2E2E2E2F0E2E2E2E2E2E2E2E2E2E2E2E2E2E2E2E2E2E2E2E2E2E2E2E2E2E2E2E2E2E2E2E2E2E2E2E2E2E2E2F0E2E2E2E2E2E2E2E2E2E2E2E2E2E2E2E2F5E2E2F5F5EFF5E2E2F5E2E2E2E2E2E2E2E2E2E2E2E2E2E2E2E2F0E2E2E2E2E2E2E2E2E2E2E2E2E2E2E2E2E2E2E2
310
E2E2E2E2E2E2E2E2E2E2E2E2E2E2E2E2E2E2E2E2E2E2E2E2E2F0E2E2E22D2D2D2DC32D2D2DE2E2E2E2E2E2E2E2E2E2E2E2F0F0F0F0F0F0F02DE2E2E2E2E2E2E2E20FE2E2E2F5E2E2E2E2E2E2E2F0E2E2E2E2E2E2E2E2E2E2E2E2E2E2E2E2E2E2E2E2E2E2E2E2E2E2E2E2E2E2E2E2E2E2E2E2E2E2E2F0E2E2E2E2E2E2E2E2E2
310
E2E2E2E2E2E2E2F5E2E2F5F5EFF5E2E2F5E2E2E2E2E2E2E2E2E2E2E2E2E2E2E2E2F0E2E2E2E2E2E2E2E2E2E2E2E2E2E2E2E2E2E2E2E2E2E2E2E2E2E2E2E2E2E2E2E2E2E2E2E2E2E2E2E2E2E2E2E2F0E2E2E22DDCDC28C3DCDC2DE2E2E2E2E2E2E2E2E2E2E2E2E2E2E2E2E2E2E22DE2E2E2E2E2E2E2E20FF5F5F5F5F5F5E2E2
310
E2E2E2F0E2E2E2E2E2E2E2E2E2E2E2E2E2E2E2E2E2E2E2E2E2E2E2E2E2E2E2E2E2E2E2E2E2E2E2E2E2E2E2F0E2E2E2E2E2E2E2E2E2E2E2E2E2E2E2E2F5E2E2F5F5EFF5E2E2F5E2E2E2E2E2E2E2E2E2E2E2E2E2E2E2E2F0E2E2E2E2E2E2E2E2E2E2E2E2E2E2E2E2E2E2E2E2E2E2E2E2E2E2E2E2E2E2E2E2E2E2E2E2E2E2E2E2
310
E2E2E2E2F0E2E2E22DDCDC282828DCDCE2E2E2E2E2E2E2E2E2E2E2E2E2E2E2E2E2E2E22DE2E2E2E2E2E2E2F50FF5F5F5F5F5F5F5F5F5F5F0F0E2E2E2E2E2E2E2E2E2E2E2E2E2E2E2E2E2E2E2E2E2E2E2E2E2E2E2E2E2E2E2E2E2E2E2E2E2E2E2F0E2E2E2E2E2E2E2E2E2E2E2E2E2E2E2E2F5E2E2F5F5EFF5E2E2F5E2E2E2E2
310
E2E2E2E2E2E2E2E2E2E2E2E2F0E2E2E2E2E2E2E2E2E2E2E2E2E2E2E2E2E2E2E2E2E2E2E2E2E2E2E2E2E2E2E2E2E2E2E2E2E2E2E2E2E2E2E2E2F0F0F0F0F02DDC2DC32DDC2DE2E2E2E2E2E2E2E2E2E2E2E2E2E2E2E2E2E2E22D2D2D2D2D2D2D2D2D0FF5F5F5F5F5E2E2E2E2E2E2E2E2E2E2E2E2E2E2E2E2E2E2E2E2E2E2E2E2
310
E2E2E2E2E2E2E2E2E2E2E2E2E2E2E2E2E2E2E2E2E2E2F0E2E2E2E2E2E2E2E2E2E2E2E2E2E2E2E2F5E2E2F5F5EFF5E2E2F5E2E2E2E2E2E2E2E2E2E2E2E2E2E2E2E2F0E2E2E2E2E2E2E2E2E2E2E2E2E2E2E2E2E2E2E2E2E2E2E2E2E2E2E2E2E2E2E2E2E2E2E2E2E2E2E2E2E2E2E2E2E2E2E2E2E2E2E2E2C3E2E2E2E2E2E2E2E2
310
E2E2E2E2E2E2E2E2E2E2E2E2E2E2E2E2E2E2E2E2E2E2E20FE2E2E2F5E2E2E2E2E2E2E2E2E2E2E2E2E2E2E2E2E2E2E2E2E2E2E2E2E2E2E2E2E2E2E2E2E2E2E2E2E2E2E2E2E2E2E2E2E2E2E2F0E2E2E2E2E2E2E2E2E2E2E2E2E2E2E2E2F5E2E2F5F5EFF5E2E2F5E2E2E2E2E2E2E2E2E2E2E2E2E2E2E2E2F0E2E2E2E2E2E2E2E2
310
E2E2E2E2E2E2E2E2E2E2E2E2E2E2E2E2E2E2E2E2E2E2E2E2E2E2E2E2E2E2E2E2E2E2E2E2E2E2E2E2E2E2E2E2C3E2E2E2E2E2E2E2E2E2E2E2E2E2E2E2E2E2E2E2E2E2E2E2E2E2E2E2E2E2E2E20FE2E2E2F5E2E2E2E2E2E2E2E2E2E2E2E2E2E2E2E2E2E2E2E2E2E2E2E2E2E2E2E2E2E2E2E2E2E2E2E2E2E2E2E2E2E2E2E2E2E2
310
E2F0E2E2E2E2E2E2E2E2E2E2E2E2E2E2E2E2F5E2E2F5F5EFF5E2E2F5E2E2E2E2E2E2E2E2E2E2E2E2E2E2E2E2F0E2E2E2E2E2E2E2E2E2E2E2E2E2E2E2E2E2E2E2E2E2E2E2E2E2E2E2E2E2E2E2E2E2E2E2E2E2E2E2E2E2E2E2E2E2E2E2E2E2E2E2E2C3E2E2E2E2E2E2E2E2E2E2E2E2E2E2E2E2E2E2E2E2E2E2E2E2E2E2E2E2E2
310
E2E20FE2E2E2F5E2E2E2E2E2E2E2E2E2E2E2E2E2E2E2E2E2E2E2E2E2E2E2E2E2E2E2E2E2E2E2E2E2E2E2E2E2E2E2E2E2E2E2E2E2E2E2F0E2E2E2E2E2E2E2E2E2E2E2E2E2E2E2E2F5E2E2F5F5EFF5E2E2F5E2E2E2E2E2E2E2E2E2E2E2E2E2E2E2E2F0E2E2E2E2E2E2E2E2E2E2E2E2E2E2E2E2E2E2E2E2E2E2E2E2E2E2E2E2E2
310
E2E2E2E2E2E2E2E2E2E2E2E2E2E2E2E2E2E2E2E2E2E2E2C3E2E2E2E2E2E2E2E2E2E2E2E2E2E2E2E2E2E2E2E2E2E2E2E2E2E2E2E2E2E2E20FE2E2E2E2E2E2E2E2E2E2E2E2E2E2E2E2E2E2E2E2E2E2E2E2E2E2E2E2E2E2E2E2E2E2E2E2E2E2E2E2E2E2E2E2E2E2E2E2E2E2E2F0E2E2E2E2E2E2E2E2E2E2E2E2E2E2E2E2F5E2E2
310
F5F5EFF5E2E2E2E2E2E2E2E2E2E2E2E2E2E2E2E2E2E2E2F0E2E2E2E2E2E2E2E2E2E2E2E2E2E2E2E2E2E2E2E2E2E2E2E2E2E2E2E2E2E2E2E2E2E2E2E2E2E2E2E2E2E2E2E2E2E2E2E2E2E2E2E2E2E2E2E2E2E2E2E2E2E2E2E2E2E2E2E2E2E2E2E2E2E2E2E2E2E2E2E2E2E2E2E20FE2E2E2E2E2E2E2E2E2E2E2E2E2E2E2E2E2E2
310
E2E2E2E2E2E2E2E2E2E2E2E2E2E2E2E2E2E2E2E2E2E2E2E2E2E2E2E2E2E2E2E2E2F0E2E2E2E2E2E2E2E2E2E2E2E2E2E2E2E2E2E2E2F5F5EFF5E2E2E2E2E2E2E2E2E2E2E2E2E2E2E2E2E2E2E2F0E2E2E2E2E2E2E2E2E2E2E2E2E2E2E2E2E2E2E2E2E2E2E2E2E2E2E2E2E2E2E2E2E2E2E2E2E2E2E2E2E2E2E2E2E2E2E2E2E2E2
310
E2E2E2E2E2E2E2E2E2E2E2E2E2E2E2E2E2E2E2E2E2E2E2E2E2E2E2E2E2E2E2E2E2E2E2E2E2E2E2E2E2E2E2E2E2E2E2E2E2E2E2E2E2E2E2E2E2E2E2E2E2E2E2E2E2E2E2E2E2E2E2E2E2E2E2E2E2E2E2E2E2E2E2E2E2E2F0E2E2E2E2E2E2E2E2E2E2E2E2E2E2E2E2E2E2E2F5F5EFF5E2E2E2E2E2E2E2E2E2E2E2E2E2E2E2E2E2
310
E2E2F0E2E2E2E2E2E2E2E2E2E2E2E2E2E2E2E2E2E2E2E2E2E2E2E2E2E2E2E2E2E2E2E2E2E2E2E2E2E2E2E2E2E2E2E2E2E2E2E2E2E2E2E2E2E2E2E2E2E2E2E2E2E2E2E2E2E2E2E2E2E2E2E2E2E2E2E2E2E2E2E2E2E2E2E2E2E2E2E2E2E2E2E2E2E2E2E2E2E2E2E2E2E2E2E2E2E2E2E2E2E2E2E2E2E2E2E2E2E2E2E2E2E2E2E2
310
E2E2E2E2E2E2E2E2E2E2E2E2F0E2E2E2E2E2E2E2E2E2E2E2E2E2E2E2E2E2E2E2F5F5EFF5E2E2E2E2E2E2E2E2E2E2E2E2E2E2E2E2E2E2E2F0E2E2E2E2E2E2E2E2E2E2E2E2E2E2E2E2E2E2E2E2E2E2E2E2E2E2E2E2E2E2E2E2E2E2E2E2E2E2E2E2E2E2E2E2E2E2E2E2E2E2E2E2E2E2E2E2E2E2E2E2E2E2E2E2E2E2E2E2E2E2E2
310
E2E2E2E2E2E2E2E2E2E2E2E2E2E2E2E2E2E2E2E2E2E2E2E2E2E2E2E2E2E2E2E2E2E2E2E2E2E2E2E2E2E2E2E2E2E2E2E2E2E2E2E2E2E2E2E2E2E2E2E2E2E2E2E2E2F0E2E2E2E2E2E2E2E2E2E2E2E2E2E2E2E2E2E2E2F5F5EFF5E2E2E2E2E2E2E2E2E2E2E2E2E2E2E2E2E2E2E2F0E2E2E2E2E2E2E2E2E2E2E2E2E2E2E2E2E2E2
310
E2E2E2E2E2E2E2E2E2E2E2E2E2E2E2E2E2E2E2E2E2E2E2E2E2E2E2E2E2E2E2E2E2E2E2E2E2E2E2E2E2E2E2E2E2E2E2E2E2E2E2E2E2E2E2E2E2E2E2E2E2E2E2E2E2E2E2E2E2E2E2E2E2E2E2E2E2E2E2E2E2E2E2E2E2E2E2E2E2E2E2E2E2E2E2E2E2E2E2E2E2E2E2E2E2E2E2E2E2E2E2E2E2E2E2E2E2E2F0E2E2E2E2E2E2E2E2
310
E2E2E2E2E2E2E2E2E2E2E2F5F5EFF5E2E2E2E2E2E2E2E2E2E2E2E2E2E2E2E2E2E2E2F0E2E2E2E2E2E2E2E2E2E2E2E2E2E2E2E2E2E2E2E2E2E2E2E2E2E2E2E2E2E2E2E2E2E2E2E2E2E2E2E2E2E2E2E2E2E2E2E2E2E2E2E2E2E2E2E2E2E2E2E2E2E2E2E2E2E2E2E2E2E2E2E2E2E2E2E2E2E2E2E2E2E2E2E2E2E2E2E2E2E2E2E2
310
E2E2E2E2E2E2E2E2E2E2E2E2E2E2E2E2E2E2E2E2E2E2E2E2E2E2E2E2E2E2E2E2E2E2E2E2E2E2E2E2E2E2E2E2F0E2E2E2E2E2E2E2E2E2E2E2E2E2E2E2E2E2E2E2F5F5EFF5E2E2E2E2E2E2E2E2E2E2E2E2E2E2E2E2E2E2E2F0E2E2E2E2E2E2E2E2E2E2E2E2E2E2E2E2E2E2E2E2E2E2E2E2E2E2E2E2E2E2E2E2E2E2E2E2E2E2E2
310
E2E2E2E2E2E2E2E2E2E2E2E2E2C3E2E2E2E2E2E2E2E2E2E2E2E2E2E2E2E2E2E2E2E2E2E2E2E2E2E2E2E2E2E2E2E2E2E2E2E2E2E2E2E2E2E2E2E2E2E2E2E2E2E2E2E2E2E2E2E2E2E2E2E2E2E2E2E2E2E2E2E2E2E2E2E2E2E2E2E2E2E2E2E2E2E2E2F0E2E2E2E2E2E2E2E2E2E2E2E2E2E2E2E2E2E2E2F5F5EFF5E2E2E2E2E2E2
310
E2E2E2E2E2E2E2E2E2E2E2E2E2F0E2E2E2E2E2E2E2E2E2E2E2E2E2E2E2E2E2E2E2E2E2E2E2E2E2E2E2E2E2E2E2E2E2E2E2E2E2E2E2E2E2E2E2E2E2E2E2E2E2E2E2E2C3E2E2E2E2E2E2E2E2E2E2E2E2E2E2E2E2E2E2E2E2E2E2E2E2E2E2E2E2E2E2E2E2E2E2E2E2E2E2E2E2E2E2E2E2E2E2E2E2E2E2E2E2E2E2E2E2E2E2E2E2
310
E2E2E2E2E2E2E2E2E2E2E2E2E2E2E2E2E2E2E2E2E2E2E2F0E2E2E2E2E2E2E2E2E2E2E2E2E2E2E2E2E2E2E2F5F5EFF5E2E2F5E2E2E2E2E2E2E2E2E2E2E2E2E2E2E2E2F0E2E2E2E2E2E2E2E2E2E2E2E2E2E2E2E2E2E2E2E2E2E2E2E2E2E2E2E2E2E2E2E2E2E2E2E2E2E2E2E2E2E2E2E2E2E2E2E2E22D2D2DC3E2E2E2E2E2E2E2
310
E2E2E2E2E2E2E2E2E2E2E2E2E2E2E2E2E2E2E2E2E2E2E2E2E2E2E2E2E2E2E2E2E2E2E2E2E2E2E2E2E2E2E2E2E2E2E2E2E2E2E2E2E2E2E2E2E2E2E2E2E2E2E2E2E2E2E2E2E2E2E2E2E2E2E2E2F0E2E2E2E2E2E2E2E2E2E2E2E2E2E2E2E2F5E2E2F5F5EFF5E2E2F5E2E2E2E2E2E2E2E2E2E2E2E2E2E2E2E2F0E2E2E2E2E2E2E2
310
E2E2E2E2E2E2E2E2E2E2E2E2E2E2E2E2E2E2E2E2E2E2E2E2E2E2E2E2E2E2E2E2E2E2E2E2E2E2E2E2E2E22DE22DC3E2E2E2E2E2E2E2E2E2E2E2E2E2E2E2E2E2E2E2E2E2E2E2E2E2E2E2E2E2E2E2E2E2E2E2E2E2E2E2E2E2E2E2E2E2E2E2E2E2E2E2E2E2E2E2E2E2E2E2E2E2E2E2E2E2E2E2E2E2E2E2E2E2E2E2E2E2E2E2E2E2
310
E2E2F0E2E2E2E2E2E2E2E2E2E2E2E2E2E2E2E2F5E2E2F5F5EFF5E2E2F5E2E2E2E2E2E2E2E2E2E2E2E2E2E2E2E2F0E2E2E2E2E2E2E2E2E2E2E2E2E2E2E2E2E2E2E2E2E2E2E2E2E2E2E2E2E2E2E2E2E2E2E2E2E2E2E2E2E2E2E2E2E2E2E2E22D2D2D2DC3E2E2E2E2E2E2E2E2E2E2E2E2E2E2E2E2E2E2E2E2E2E2E2E2E2E2E2E2
310
E2E2E2E2E2E2E2E2E2E2E2E2E2E2E2E2E2E2E2E2E2E2E2E2E2E2E2E2E2E2E2E2E2E2E2E2E2E2E2E2E2E2E2E2E2E2E2E2E2E2E2E2E2E2E2F0E2E2E2E2E2E2E2E2E2E2E2E2E2E2E2E2F5E2E2F5F5EFF5E2E2F5E2E2E2E2E2E2E2E2E2E2E2E2E2E2E2E2F0E2E2E2E2E2E2E2E2E2E2E2E2E2E2E2E2E2E2E2E2E2E2E2E2E2E2E2E2
310
E2E2E2E2E2E2E2E2E2E2E2E2E2E2E2E2E2E2E2E22D2D2D2DC32D2D2DE2E2E2E2E2E2E2E2E2E2E2E2E2E2E2E2E2E2E2E2E2E2E2E2E2E2E2E2E2E2E2E2E2E2E2E2E2E2E2E2E2E2E2E2E2E2E2E2E2E2E2E2E2E2E2E2E2E2E2E2E2E2E2E2E2E2E2E2E2E2E2E2E2E2E2E2E2E2E2E2F0E2E2E2E2E2E2E2E2E2E2E2E2E2E2E2E2F5E2
310
E2F5F5EFF5E2E2F5E2E2E2E2E2E2E2E2E2E2E2E2E2E2E2E2F0E2E2E2E2E2E2E2E2E2E2E2E2E2E2E2E2E2E2E2E2E2E2E2E2E2E2E2E2E2E2E2E2E2E2E2E2E2E2E2E2E2E2E2E2E2E2E2E22DE2E2E2C3E2E22DE2E2E2E2E2E2E2E2E2E2E2E2E2E2E2E2E2E2E2E2E2E2E2E2E2E2E2E2E2E2E2E2E2E2E2E2E2E2E2E2E2E2E2E2E2E2
310
E2E2E2E2E2E2E2E2E2E2E2E2E2E2E2E2E2E2E2E2E2E2E2E2E2E2E2E2E2E2E2E2E2E2F0E2E2E2E2E2E2E2E2E2E2E2E2E2E2E2E2F5E2E2F5F5EFF5E2E2F5E2E2E2E2E2E2E2E2E2E2E2E2E2E2E2E2F0E2E2E2E2E2E2E2E2E2E2E2E2E2E2E2E2E2E2E2E2E2E2E2E2E2E2E2E2E2E2E2E2E2E2E2E2E2E2E2E2E2E2E2E2E2E2E2E22D
310
E2E2E2C3E2E22DE2E2E2E2E2E2E2E2E2E2E2E2E2E2E2E2E2E2E2E2E2E2E2E2E2E2E2E2E2E2E2E2E2E2E2E2E2E2E2E2E2E2E2E2E2E2E2E2E2E2E2E2E2E2E2E2E2E2E2E2E2E2E2E2E2E2E2E2E2E2E2E2E2E2E2E2E2E2E2E2F0E2E2E2E2E2E2E2E2E2E2E2E2E2E2E2E2F5E2E2F5F5EFF5E2E2F5E2E2E2E2E2E2E2E2E2E2E2E2E2
310
E2E2E2F0E2E2E2E2E2E2E2E2E2E2E2E2E2E2E2E2E2E2E2E2E2E2E2E2E2E2E2E2E2E2E2E2E2E2E2E2E2E2E2E2E2E2E2E2E2E2E2E22DE2E2E2C3E2E22DE2E2E2E2E2E2E2E2E2E2E2E2E2E2E2E2E2E2E2E2E2E2E2E2E2E2E2E2E2E2E2E2E2E2E2E2E2E2E2E2E2E2E2E2E2E2E2E2E2E2E2E2E2E2E2E2E2E2E2E2E2E2E2E2E2E2E2
310
E2E2E2E2E2E2E2E2E2E2E2E2E2F0E2E2E2E2E2E2E2E2E2E2E2E2E2E2E2E2F5E2E2F5F5EFF5E2E2F5E2E2E2E2E2E2E2E2E2E2E2E2E2E2E2E2F0E2E2E2E2E2E2E2E2E2E2E2E2E2E2E2E2E2E2E2E2E2E2E2E2E2E2E2E2E2E2E2E2E2E2E2E2E2E2E2E2E2E2E2E2E2E2E2E22DE2E2E2C3E2E22DE2E2E2E2E2E2E2E2E2E2E2E2E2E2
310
E2E2E2E2E2E2E2E2E2E2E2E2E2E2E2E2E2E2E2E2E2E2E2E2E2E2E2E2E2E2E2E2E2E2E2E2E2E2E2E2E2E2E2E2E2E2E2E2E2E2E2E2E2E2E2E2E2E2E2E2E2E2E2E2E2E2F0E2E2E2E2E2E2E2E2E2E2E2E2E2E2E2E2F5E2E2F5F5EFF5E2E2F5E2E2E2E2E2E2E2E2E2E2E2E2E2E2E2E2F0E2E2E2E2E2E2E2E2E2E2E2E2E2E2E2E2E2
310
E2E2E2E2E2E2E2E2E2E2E2E2E2E2E2E2E2E2E2E2E2E2E2E2E2E2E2E2E2E2E22DE2E2E2C3E2E22DE2E2E2E2E2E2E2E2E2E2E2E2E2E2E2E2E2E2E2E2E2E2E2E2E2E2E2E2E2E2E2E2E2E2E2E2E2E2E2E2E2E2E2E2E2E2E2E2E2E2E2E2E2E2E2E2E2E2E2E2E2E2E2E2E2E2E2E2E2E2E2E2E2E2E2E2E2E2E2E2F0E2E2E2E2E2E2E2
310
E2E2E2E2E2E2E2E2E2F5E2E2F5F5EFF5E2E2F5E2E2E2E2E2E2E2E2E2E2E2E2E2E2E2E2F0E2E2E2E2E2E2E2E2E2E2E2E2E2E2E2E2E2E2E2E2E2E2E2E2E2E2E2E2E2E2E2E2E2E2E2E2E2E2E2E2E2E2E2E2E2E2E2E22DE2E2E2C3E2E22DE2E2E2E2E2E2E2E2E2E2E2E2E2E2E2F0F0F0F0F0F0F0F0F0E2E2E2E2E2E2E2E2E2E2E2
310
E2E2E2E2E2E2E2E2E2E2E2E2E2E2E2E2E2E2E2E2E2E2E2E2E2E2E2E2E2E2E2E2E2E2E2E2E2E2E2E2E2E2E2E2E2F0E2E2E2E2E2E2E2E2E2E2E2E2E2E2E2E2F5E2E2F5F5EFF5E2E2F5E2E2E2E2E2E2E2E2E2E2E2E2E2E2E2E2F0E2E2E2E2E2E2E2E2E2E2E2E2E2E2E2E2E2E2E2E2E2E2E2E2E2E2E2E2E2E2E2E2E2E2E2E2E2E2
310
E2E2E2E2E2E2E2E2E2E22DE2E2E2C3E2E22DE2E2E2E2E2E2E2E2E2E2E2E2E2E2E2E2F0F0F0F0F0F0F0F0E2E2E2E2E2E2E2E2E2E2E2E2E2E2E2E2E2E2E2E2E2E2E2E2E2E2E2E2E2E2E2E2E2E2E2E2E2E2E2E2E2E2E2E2E2E2E2E2E2E2E2E2E2E2E2E2F0E2E2E2E2E2E2E2E2E2E2E2E2E2E2E2E2F5E2E2F5F5EFF5E2E2F5E2E2
310
E2E2E2E2E2E2E2E2E2E2E2E2E2E2F0E2E2E2E2E2E2E2E2E2E2E2E2E2E2E2E2E2E2E2E2E2E2E2E2E2E2E2E2E2E2E2E2E2E2E2E2E2E2E2E2E2E2E2E2E2E2E2E22DE2E2E2C3E2E22DE2E2E2E2E2E2E2E2E2E2E2E2E2E2E2E2E2E2E2E2E2E2E2E2E2E2E2E2E2E2E2E2E2E2E2E2E2E2E2E2E2E2E2E2E2E2E2E2E2E2E2E2E2E2E2E2
310
E2E2E2E2E2E2E2E2E2E2E2E2E2E2E2E2E2E2E2E2E2E2E2E2F0E2E2E2E2E2E2E2E2E2E2E2E2E2E2E2E2F5E2E2F5F5EFF5E2E2F5E2E2E2E2E2E2E2E2E2E2E2E2E2E2E2E2F0E2E2E2E2E2E2E2E2E2E2E2E2E2E2E2E2E2E2E2E2E2E2E2E2E2E2E2E2E2E2E2E2E2E2E2E2E2E2E20F0F0F0F0F0F0F0F0F0F0F0F0F0F0F0F0F0F0F0F
310
0F0F0F0F0F0F0FE2E2E2E2E2E2E2E2E2E2E2E2E2E2E2E2E2E2E2E2E2E2E2E2E2E2E2E2E2E2E2E2E2E2E2E2E2E2E2E2E2E2E2E2E2E2E2E2E2E2E2E2E2E2E2E2E2E2E2E2E2E2E2E2E2E2E2E2E2E2F0E2E2E2E2E2E2E2E2E2E2E2E2E2E2E2E2F5E2E2F5F5EFF5E2E2F5E2E2E2E2E2E2E2E2E2E2E2E2E2E2E2E2F0E2E2E2E2E2E2
310
E2E2E2E2E2E2E2E2E2E2E2E2E2E2E2E2E2E2E2E2E2E2E2E2E2E2E2E2E2E2E2E2E20F0F0F0F0F0F0F0F0F0F0F0F0F0F0F0F0F0F0F0F0F0F0F0F0F0F0FE2E2E2E2E2E2E2E2E2E2E2E2E2E2E2E2E2E2E2E2E2E2E2E2E2E2E2E2E2E2E2E2E2E2E2E2E2E2E2E2E2E2E2E2E2E2E2E2E2E2E2E2E2E2E2E2E2E2E2E2E2E2E2E2E2E2E2
310
E2E2E2F0E2E2E2E2E2E2E2E2E2E2E2E2E2E2E2E2F5E2E2F5F5EFF5E2E2F5E2E2E2E2E2E2E2E2E2E2E2E2E2E2E2E2F0E2E2E2E2E2E2E2E2E2E2E2E2E2E2E2E2E2E2E2E2E2E2E2E2E2E2E2E2E2E2E2E2E2E2E2E2E2E2E2E2E2E2E2E2E2E2E2E2E2F5E2F5C3F5F5E2E2E2E2E2E2E2E2E2E2E2E2E2E2E2E2E2E2E2E2E2E2E2E2E2
310
E2E2E2E2E2E2E2E2E2E2E2E2E2E2E2E2E2E2E2E2E2E2E2E2E2E2E2E2E2E2E2E2E2E2E2E2E2E2E2E2E2E2E2E2E2E2E2E2E2E2E2E2E2E2E2E2F0E2E2E2E2E2E2E2E2E2E2E2E2E2E2E2E2F5E2E2F5F5EFF5E2E2E2E2E2E2E2E2E2E2E2E2E2E2E2E2E2E2E2F0E2E2E2E2E2E2E2E2E2E2E2E2E2E2E2E2E2E2E2E2E2E2E2E2E2E2E2
310
E2E2E2E2E2E2E2E2E2E2E2E2E2E2E2E2E2E2E2E2E2E2F5F5F5C3F5F5E2E2E2E2E2E2E2E2E2E2E2E2E2E2E2E2E2E2E2E2E2E2E2E2E2E2E2E2E2E2E2E2E2E2E2E2E2E2E2E2E2E2E2E2E2E2E2E2E2E2E2E2E2E2E2E2E2E2E2E2E2E2E2E2E2E2E2E2E2E2E2E2E2E2E2E2E2E2E2E2E2F0E2E2E2E2E2E2E2E2E2E2E2E2E2E2E2E2E2
310
E2E2F5F5EFF5E2E2E2E2E2E2E2E2E2E2E2E2E2E2E2E2E2E2E2F0E2E2E2E2E2E2E2E2E2E2E2E2E2E2E2E2E2E2E2E2E2E2E2E2E2E2E2E2E2E2E2E2E2E2E2E2E2E2E2E2E2E2E2E2E2E2E2E2E2F5F5F5C3F5F5E2E2E2E2E2E2E2E2E2E2E2E2E2E2E2E2E2E2E2E2E2E2E2E2E2E2E2E2E2E2E2E2E2E2E2E2E2E2E2E2E2E2E2E2E2E2
310
E2E2E2E2E2E2E2E2E2E2E2E2E2E2E2E2E2E2E2E2E2E2E2E2E2E2E2E2E2E2E2E2E2E2E2F0E2E2E2E2E2E2E2E2E2E2E2E2E2E2E2E2E2E2E2F5F5EFF5E2E2E2E2E2E2E2E2E2E2E2E2E2E2E2E2E2E2E2F0E2E2E2E2E2E2E2E2E2E2E2E2E2E2E2E2E2E2E2E2E2E2E2E2E2E2E2E2E2E2E2E2E2E2E2E2E2E2E2E2E2E2E2E2E2E2E2E2
310
E2F5F5F5C3F5F5F5E2E2E2E2E2E2E2E2E2E2E2E2E2E2E2E2E2E2E2E2E2E2E2E2E2E2E2E2E2E2E2E2E2E2E2E2E2E2E2E2E2E2E2E2E2E2E2E2E2E2E2E2E2E2E2E2E2E2E2E2E2E2E2E2E2E2E2E2E2E2E2E2E2E2E2E2E2E2E2E2F0E2E2E2E2E2E2E2E2E2E2E2E2E2E2E2E2E2E2E2F5F5EFF5E2E2E2E2E2E2E2E2E2E2E2E2E2E2E2
310
E2E2E2E2F0E2E2E2E2E2E2E2E2E2E2E2E2E2E2E2E2E2E2E2E2E2E2E2E2E2E2E2E2E2E2E2E2E2E2E2E2E2E2E2E2E2E2E2E2E2E2E2E2E2F5F5F5C3F5F5E2E2E2E2E2E2E2E2E2E2E2E2E2E2E2E2E2E2E2E2E2E2E2E2E2E2E2E2E2E2E2E2E2E2E2E2E2E2E2E2E2E2E2E2E2E2E2E2E2E2E2E2E2E2E2E2E2E2E2E2E2E2E2E2E2E2E2
310
E2E2E2E2E2E2E2E2E2E2E2E2E2E2F0E2E2E2E2E2E2E2E2E2E2E2E2E2E2E2E2E2E2E2F5F5EFF5E2E2E2E2E2E2E2E2E2E2E2E2E2E2E2E2E2E2E2F0F0F0F0F0F0F0F0F0F0F0F0F0F0F0F0F0F0F0F0F0F0F0F0F0F0F0F0F0F0F0F0F0F0F0F0F0F0F0F0F0F0F0F0F0F0F0F0F0F0F0F0F0F0F0F0F0F0F0F0F0F0F0F0F0F0F0F0F0F0
310
F0F0F0F0F0F0F0F0F0F0F0F0F0F0F0F0F0F0F0F0F0F0F0F0F0F0F0F0F0F0F0F0F0F0F0F0F0F0F0F0F0F0F0F0F0F0F0F0F0F0F0F0F0F0F0F0F0F0F0F0F0F0F0F0F0F0F0F0E2E2E2E2E2E2E2E2E2E2E2E2E2E2E2E2E2E2E2F5F5EFF5E2E2E2E2E2E2E2E2E2E2E2E2E2E2E2E2E2E2E2E2E2E2E2E2E2E2E2E2E2E2E2E2E2E2E2E2
310
E2E2E2E2E2E2E2E2E2E2E2E2E2E2E2E2E2E2E2E2E2E2E2E2E2E2E2E2E2E2E2E2E2E2E2E2E2E2E2E2E2E2E2E2E2E2E2E2E2E2E2E2E2E2E2E2E2E2E2E2E2E2E2E2E2E2E2E2E2E2E2E2E2E2E2E2E2E2E2E2E2E2E2E2E2E2E2E2E2E2E2E2E2E2E2E2E2E2E2E2E2E2E2E2E2E2E2E2E2E2E2E2E2E2E2E2E2E2E2E2E2E2E2E2E2E2E2
310
E2E2E2E2E2E2E2E2E2E2E2E2E2F5F5EFF5E2E2E2E2E2E2E2E2E2E2E2E2E2E2E2E2E2E2E2E2E2E2E2E2E2E2E2E2E2E2E2E2E2E2E2E2E2E2E2E2E2E2E2E2E2E2E2E2E2E2E2E2E2E2E2E2E2E2E2E2E2E2E2E2E2E2E2E2E2E2E2E2E2E2E2E2E2E2E2E2E2E2E2E2E2E2E2E2E2E2E2E2E2E2E2E2E2E2E2E2E2E2E2E2E2E2E2E2E2E2
310
E2E2E2E2E2E2E2E2E2E2E2E2E2E2E2E2E2E2E2E2E2E2E2E2E2E2E2E2E2E2E2E2E2E2E2E2E2E2E2E2E2E2E2E2E2E2E2E2E2E2E2E2E2E2E2E2E2E2E2E2E2E2E2E2E2E2F5F5EFF5E2E2E2E2E2E2E2E2E2E2E2E2E2E2E2E2E2E2E2E2E2E2E2E2E2E2E2E2E2E2E2E2E2E2E2E2E2E2E2E2E2E2E2E2E2E2E2E2E2E2E2E2E2E2E2E2E2
310
E2E2E2E2E2E2E2E2E2E2E2E2E2E2E2E2E2E2E2E2E2E2E2E2E2E2E2E2E2E2E2E2E2E2E2E2E2E2E2E2E2E2E2E2E2E2E2E2E2E2E2E2E2E2E2E2E2E2E2E2E2E2E2E2E2E2E2E2E2E2E2E2E2E2E2E2E2E2E2E2E2E2E2E2E2E2E2E2E2E2E2E2E2E2E2E2E2E2E2E2E2E2E2E2E2E2E2E2E2E2E2E2E2E2E2E2E2E2E2F5F5EFF5E2E2E2E2
310
E2E2E2E2E2E2E2E2E2E2E2E2E2E2E2E2E2E2E2E2E2E2E2E2E2E2E2E2E2E2E2E2E2E2E2E2E2E2E2E2E2E2E2E2E2E2E2E2E2E2E2E2E2E2E2E2E2E2E2E2E2E2E2E2E2E2E2E2E2E2E2E2E2E2E2E2E2E2E2E2E2E2E2E2E2E2E2E2E2E2E2E2E2E2E2E2E2E2E2E2E2E2E2E2E2E2E2E2E2E2E2E2E2E2E2E2E2E2E2E2E2E2E2E2E2E2E2
310
E2E2E2E2E2E2E2E2E2E2E2E2E2E2E2E2E2E2E2E2E2E2E2E2E2E2E2E2E2E2E2E2E2E2E2E2E2E2E2E2E2E2E2E2E2F5F5EFF5E2E2F5E2E2E2E2E2E2E2E2E2E2E2E2E2E2E2E2E2E2E2E2E2E2E2E2E2E2E2E2E2E2E2E2E2E2E2E2E2E2E2E2E2E2E2E2E2E2E2E2E2E2E2E2E2E2E2E2E2E2E2E2E2E2E2E2E2E2E2E2E2E2E2E2E2E2E2
310
E2E2E2E2E2E2E2E2E2E2E2E2E2E2E2E2E2E2E2E2E2E2E2E2E2E2E2E2E2E2E2E2E2E2E2E2E2E2E2E2E2E2E2E2E2E2E2E2E2E2E2E2E2E2E2E2E2E2E2E2E2E2E2E2E2E2E2E2E2E2E2E2E2E2E2E2E2E2E2E2E2E2E2E2E2E2E2E2E2E2E2E2E2E2E2F5E2E2F5F5EFF5E2E2F5E2E2E2E2E2E2E2E2E2E2E2E2E2E2E2E2E2E2E2E2E2E2
310
E2E2E2E2E2E2E2E2E2E2E2E2E2E2E2E2E2E2E2E2E2E2E2E2E2E2E2E2E2E2E2E2E2E2E2E2E2E2E2E2E2E2E2E2E2E2E2E2E2E2E2E2E2E2E2E2E2E2E2E2E2E2E2E2E2E2E2E2E2E2E2E2E2E2E2E2E2E2E2E2E2E2E2E2E2E2E2E2E2E2E2E2E2E2E2E2E2E2E2E2E2E2E2E2E2E2E2E2E2E2E2E2E2E2E2E2E2E2E2E2E2E2E2E2E2E2E2
310
E2E2E2E2E2E2E2E2E2E2E2E2E2E2E2E2E2E2E2E2E2F5E2E2F5F5EFF5E2E2F5E2E2E2E2E2E2E2E2E2E2E2E2E2E2E2E2E2E2E2E2E2E2E2E2E2E2E2E2E2E2E2E2E2E2E2E2E2E2E2E2E2E2E2E2E2E2E2E2E2E2E2E2E2E2E2E2E2E2E2E2E2E2E2E2E2E2E2E2E2E2E2E2E2E2E2E2E2E2E2E2E2E2E2E2E2E2E2E2E2E2E2E2E2E2E2E2
310
E2E2E2E2E2E2E2E2E2E2E2E2E2E2E2E2E2E2E2E2E2E2E2E2E2E2E2E2E2E2E2E2E2E2E2E2E2E2E2E2E2E2E2E2E2E2E2E2E2E2E2E2E2E2E2E2E2E2E2E2E2E2E2E2E2E2E2E2E2E2E2E2E2E2F5E2E2F5F5EFF5E2E2F5E2E2E2E2E2E2E2E2E2E2E2E2E2E2E2E2E2E2E2E2E2E2E2E2E2E2E2E2E2E2E2E2E2E2E2E2E2E2E2E2E2E2E2
310
E2E2E2E2E2E2E2E2E2E2E2E2E2E2E2E2E2E2E2E2E2E2E2E2E2E2E2E2E2E2E2E2E2E2E2E2E2E2E2E2E2E2E2E2E2E2E2E2E2E2E2E2E2E2E2E2E2E2E2E2E2E2E2E2E2E2E2E2E2E2E2E2E2E2E2E2E2E2E2E2E2E2E2E2E2E2E2E2E2E2E2E2E2E2E2E2E2E2E2E2E2E2E2E2E2E2E2E2E2E2E2E2E2E2E2E2E2E2E2E2E2E2E2E2E2E2E2
310
F5E2E2F5F5EFF5E2E2F5E2E2E2E2E2E2E2E2E2E2E2E2E2E2E2E2E2E2E2E2E2E2E2E2E2E2E2E2E2E2E2E2E2E2E2E2E2E2E2E2E2E2E2E2E2E2E2E2E2E2E2E2E2E2E2E2E2E2E2E2E2E2E2E2E2E2E2E2E2E2E2E2E2E2E2E2E2E2E2E2E2E2E2E2E2E2E2E2E2E2E2E2E2E2E2E2E2E2E2E2E2E2E2E2E2E2E2E2E2E2E2E2E2E2E2E2E2
310
E2E2E2E2E2E2E2E2E2E2E2E2E2E2E2E2E2E2E2E2E2E2E2E2E2E2E2E2E2E2E2E2E2E2E2E2E2E2E2E2E2E2E2E2E2E2E2E2E2E2E2E2E2F5E2E2F5F5EFF5E2E2F5E2E2E2E2E2E2E2E2E2E2E2E2E2E2E2E2E2E2E2E2E2E2E2E2E2E2E2E2E2E2E2E2E2E2E2E2E2E2E2E2E2E2E2E2E2E2E2E2E2E2E2E2E2E2E2E2E2E2E2E2E2E2E2E2
310
E2E2E2E2E2E2E2E2E2E2E2E2E2E2E2E2E2E2E2E2E2E2E2E2E2E2E2E2E2E2E2E2E2E2E2E2E2E2E2E2E2E2E2E2E2E2E2E2E2E2E2E2E2E2E2E2E2E2E2E2E2E2E2E2E2E2E2E2E2E2E2E2E2E2E2E2E2E2E2E2E2E2E2E2E2E2E2E2E2E2E2E2E2E2E2E2E2E2E2E2E2E2E2E2E2E2F5E2E2F5F5EFF5E2E2F5E2E2E2E2E2E2E2E2E2E2E2
310
E2E2E2E2E2E2E2E2E2E2E2E2E2E2E2E2E2E2E2E2E2E2E2E2E2E2E2E2E2E2E2E2E2E2E2E2E2E2E2E2E2E2E2E2E2E2E2E2E2E2E2E2E2E2E2E2E2E2E2E2E2E2E2E2E2E2E2E2E2E2E2E2E2E2E2E2E2E2E2E2E2E2E2E2E2E2E2E2E2E2E2E2E2E2E2E2E2E2E2E2E2E2E2E2E2E2E2E2E2E2E2E2E2E2E2E2E2E2E2E2E2E2E2E2E2E2E2
310
E2E2E2E2E2E2E2E2E2E2E2E2E2E2E2E2E2E2E2E2E2E2E2E2E2E2E2E2E2E2E2E2F5E2E2F5F5EFF5E2E2F5F5F5F5F5F5F5F5E2E2E2E2E2E2E2E2E2F5F5F5F5F5F5F5F5F5F5F5F5F5F5F5F5E2E2E2E2E2E2E2E2E2F5F5F5F5F5F5F5F5F5F5F5F5F5F5F5E2E2E2E2E2E2E2E2E2F5F5F5F5F5F5F5F5F5F5F5F5F5F5F5F5E2E2E2E2
310
E2E2E2E2F5F5F5F5F5F5F5F5F5F5F5F5F5F5F5F5E2E2E2E2E2E2E2E2E2F5F5F5F5F5F5F5F5F5F5F5F5F5F5F5E2E2E2E2E2E2E2E2E2F5F5F5F5F5F5F5F5F5F5F5F5F5F5F5F5E2E2E2E2E2E2E2E2E2F5F5F5F5F5F5F5F5E2E2F5F5EFF5E2E2E2E2E2E2E2E2E2E2E2E2E2E2E2E2E2E2E2E2E2E2E2E2E2E2E2E2E2E2E2E2E2E2E2
310
E2E2E2E2E2E2E2E2E2E2E2E2E2E2E2E2E2E2E2E2E2E2E2E2E2E2E2E2E2E2E2E2E2E2E2E2E2E2E2E2E2E2E2E2E2E2E2E2E2E2E2E2E2E2E2E2E2E2E2E2E2E2E2E2E2E2E2E2E2E2E2E2E2E2E2E2E2E2E2E2E2E2E2E2E2E2E2E2E2E2E2E2E2E2E2E2E2E2E2E2E2E2E2E2E2E2E2E2E2E2E2E2E2E2E2E2E2E2E2E2E2E2E2E2E2E2E2
310
E2E2E2E2E2E2E2E2E2E2E2E2E2E2F5F5EFF5E2E2E2E2E2E2E2E2E2E2E2E2E2E2E2E2E2E2E2E2E2E2E2E2E2E2E2E2E2E2E2E2E2E2E2E2E2E2E2E2E2E2E2E2E2E2E2E2E2E2E2E2E2E2E2E2E2E2E2E2E2E2E2E2E2E2E2E2E2E2E2E2E2E2E2E2E2E2E2E2E2E2E2E2E2E2E2E2E2E2E2E2E2E2E2E2E2E2E2E2E2E2E2E2E2E2E2E2E2
310
E2E2E2E2E2E2E2E2E2E2E2E2E2E2E2E2E2E2E2E2E2E2E2E2E2E2E2E2E2E2E2E2E2E2E2E2E2E2E2E2E2E2E2E2E2E2E2E2E2E2E2E2E2E2E2E2E2E2E2E2E2E2E2E2E2E2E2F5F5EFF5E2E2E2E2E2E2E2E2E2E2E2E2E2E2E2E2E2E2E2E2E2E2E2E2E2E2E2E2E2E2E2E2E2E2E2E2E2E2E2E2E2E2E2E2E2E2E2E2E2E2E2E2E2E2E2E2
310
E2E2E2E2E2E2E2E2E2E2E2E2E2E2E2E2E2E2E2E2E2E2E2E2E2E2E2E2E2E2E2E2E2E2E2E2E2E2E2E2E2E2E2E2E2E2E2E2E2E2E2E2E2E2E2E2E2E2E2E2E2E2E2E2E2E2E2E2E2E2E2E2E2E2E2E2E2E2E2E2E2E2E2E2E2E2E2E2E2E2E2E2E2E2E2E2E2E2E2E2E2E2E2E2E2E2E2E2E2E2E2E2E2E2E2E2E2E2E2E2F5EFEFF5F5F5F5
310
F5F5F5F5F5F5F5F5F5F5F5F5F5F5F5F5F5F5F5F5F5F5F5F5F5F5F5F5F5F5F5F5F5F5F5F5F5F5F5F5F5F5F5F5F5F5F5F5F5F5F5F5F5F5F5F5F5F5F5F5F5F5F5F5F5F5F5F5F5F5F5F5F5F5F5F5F5F5F5F5F5F5F5F5F5F5F5F5F5F5F5F5F5F5F5F5F5F5F5F5F5F5F5F5F5F5F5F5F5F5F5F5F5F5F5F5F5F5F5F5F5F5F5F5F5F5F5
310
F5F5F5F5F5F5F5F5F5F5F5F5F5F5F5F5F5F5F5F5F5F5F5F5F5F5F5F5F5F5F5F5F5F5F5F5F5F5F5F5F5F5F5F5F5F5F5EF
  0
XRECORD
  5
855B
102
{ACAD_REACTORS
330
84CC
102
}
330
84CC
100
AcDbXrecord
280
     1
102
MATERIAL
148
0.0
149
0.0
149
0.0
 93
        0
 94
      127
282
     0
 72
     0
 77
     0
171
     0
175
     0
179
     0
273
     0
  0
XRECORD
  5
84CE
102
{ACAD_REACTORS
330
84CC
102
}
330
84CC
100
AcDbXrecord
280
     1
270
     1
271
     1
  0
XRECORD
  5
84CD
102
{ACAD_REACTORS
330
84CC
102
}
330
84CC
100
AcDbXrecord
280
     1
270
     1
271
     1
  0
XRECORD
  5
84D1
102
{ACAD_REACTORS
330
84CC
102
}
330
84CC
100
AcDbXrecord
280
     1
270
     1
271
     1
  0
XRECORD
  5
84D0
102
{ACAD_REACTORS
330
84CC
102
}
330
84CC
100
AcDbXrecord
280
     1
270
     1
271
     1
  0
XRECORD
  5
84D2
102
{ACAD_REACTORS
330
84CC
102
}
330
84CC
100
AcDbXrecord
280
     1
270
     1
271
     1
  0
XRECORD
  5
84CF
102
{ACAD_REACTORS
330
84CC
102
}
330
84CC
100
AcDbXrecord
280
     1
270
     1
271
     1
  0
XRECORD
  5
855A
102
{ACAD_REACTORS
330
84C4
102
}
330
84C4
100
AcDbXrecord
280
     1
102
MATERIAL
148
0.0
149
0.0
149
0.0
 93
        0
 94
      127
282
     0
 72
     0
 77
     0
171
     0
175
     0
179
     0
273
     0
  0
XRECORD
  5
84C6
102
{ACAD_REACTORS
330
84C4
102
}
330
84C4
100
AcDbXrecord
280
     1
270
     1
271
     1
  0
XRECORD
  5
84C5
102
{ACAD_REACTORS
330
84C4
102
}
330
84C4
100
AcDbXrecord
280
     1
270
     1
271
     1
  0
XRECORD
  5
84C9
102
{ACAD_REACTORS
330
84C4
102
}
330
84C4
100
AcDbXrecord
280
     1
270
     1
271
     1
  0
XRECORD
  5
84C8
102
{ACAD_REACTORS
330
84C4
102
}
330
84C4
100
AcDbXrecord
280
     1
270
     1
271
     1
  0
XRECORD
  5
84CA
102
{ACAD_REACTORS
330
84C4
102
}
330
84C4
100
AcDbXrecord
280
     1
270
     1
271
     1
  0
XRECORD
  5
84C7
102
{ACAD_REACTORS
330
84C4
102
}
330
84C4
100
AcDbXrecord
280
     1
270
     1
271
     1
  0
XRECORD
  5
855C
102
{ACAD_REACTORS
330
84D4
102
}
330
84D4
100
AcDbXrecord
280
     1
102
MATERIAL
148
0.0
149
0.0
149
0.0
 93
        0
 94
      127
282
     0
 72
     0
 77
     0
171
     0
175
     0
179
     0
273
     0
  0
XRECORD
  5
84D6
102
{ACAD_REACTORS
330
84D4
102
}
330
84D4
100
AcDbXrecord
280
     1
270
     1
271
     1
  0
XRECORD
  5
84D5
102
{ACAD_REACTORS
330
84D4
102
}
330
84D4
100
AcDbXrecord
280
     1
270
     1
271
     1
  0
XRECORD
  5
84D9
102
{ACAD_REACTORS
330
84D4
102
}
330
84D4
100
AcDbXrecord
280
     1
270
     1
271
     1
  0
XRECORD
  5
84D8
102
{ACAD_REACTORS
330
84D4
102
}
330
84D4
100
AcDbXrecord
280
     1
270
     1
271
     1
  0
XRECORD
  5
84DA
102
{ACAD_REACTORS
330
84D4
102
}
330
84D4
100
AcDbXrecord
280
     1
270
     1
271
     1
  0
XRECORD
  5
84D7
102
{ACAD_REACTORS
330
84D4
102
}
330
84D4
100
AcDbXrecord
280
     1
270
     1
271
     1
  0
CELLSTYLEMAP
  5
87B8
102
{ACAD_REACTORS
330
854E
102
}
330
854E
100
AcDbCellStyleMap
 90
        3
300
CELLSTYLE
  1
TABLEFORMAT_BEGIN
 90
        5
170
     1
 91
        0
 92
    32768
 62
   257
 93
        1
300
CONTENTFORMAT
  1
CONTENTFORMAT_BEGIN
 90
        0
 91
        0
 92
        4
 93
        0
300

 40
0.0
140
1.0
 94
        5
 62
     0
340
11
144
0.25
309
CONTENTFORMAT_END
171
     1
301
MARGIN
  1
CELLMARGIN_BEGIN
 40
0.06
 40
0.06
 40
0.06
 40
0.06
 40
0.18
 40
0.18
309
CELLMARGIN_END
 94
        6
 95
        1
302
GRIDFORMAT
  1
GRIDFORMAT_BEGIN
 90
        0
 91
        1
 62
     0
 92
       -2
340
0
 93
        0
 40
0.045
309
GRIDFORMAT_END
 95
        2
302
GRIDFORMAT
  1
GRIDFORMAT_BEGIN
 90
        0
 91
        1
 62
     0
 92
       -2
340
0
 93
        0
 40
0.045
309
GRIDFORMAT_END
 95
        4
302
GRIDFORMAT
  1
GRIDFORMAT_BEGIN
 90
        0
 91
        1
 62
     0
 92
       -2
340
0
 93
        0
 40
0.045
309
GRIDFORMAT_END
 95
        8
302
GRIDFORMAT
  1
GRIDFORMAT_BEGIN
 90
        0
 91
        1
 62
     0
 92
       -2
340
0
 93
        0
 40
0.045
309
GRIDFORMAT_END
 95
       16
302
GRIDFORMAT
  1
GRIDFORMAT_BEGIN
 90
        0
 91
        1
 62
     0
 92
       -2
340
0
 93
        0
 40
0.045
309
GRIDFORMAT_END
 95
       32
302
GRIDFORMAT
  1
GRIDFORMAT_BEGIN
 90
        0
 91
        1
 62
     0
 92
       -2
340
0
 93
        0
 40
0.045
309
GRIDFORMAT_END
309
TABLEFORMAT_END
  1
CELLSTYLE_BEGIN
 90
        1
 91
        1
300
_TITLE
309
CELLSTYLE_END
300
CELLSTYLE
  1
TABLEFORMAT_BEGIN
 90
        5
170
     1
 91
        0
 92
        0
 62
   257
 93
        1
300
CONTENTFORMAT
  1
CONTENTFORMAT_BEGIN
 90
        0
 91
        0
 92
        4
 93
        0
300

 40
0.0
140
1.0
 94
        5
 62
     0
340
11
144
0.18
309
CONTENTFORMAT_END
171
     1
301
MARGIN
  1
CELLMARGIN_BEGIN
 40
0.06
 40
0.06
 40
0.06
 40
0.06
 40
0.18
 40
0.18
309
CELLMARGIN_END
 94
        6
 95
        1
302
GRIDFORMAT
  1
GRIDFORMAT_BEGIN
 90
        0
 91
        1
 62
     0
 92
       -2
340
0
 93
        0
 40
0.045
309
GRIDFORMAT_END
 95
        2
302
GRIDFORMAT
  1
GRIDFORMAT_BEGIN
 90
        0
 91
        1
 62
     0
 92
       -2
340
0
 93
        0
 40
0.045
309
GRIDFORMAT_END
 95
        4
302
GRIDFORMAT
  1
GRIDFORMAT_BEGIN
 90
        0
 91
        1
 62
     0
 92
       -2
340
0
 93
        0
 40
0.045
309
GRIDFORMAT_END
 95
        8
302
GRIDFORMAT
  1
GRIDFORMAT_BEGIN
 90
        0
 91
        1
 62
     0
 92
       -2
340
0
 93
        0
 40
0.045
309
GRIDFORMAT_END
 95
       16
302
GRIDFORMAT
  1
GRIDFORMAT_BEGIN
 90
        0
 91
        1
 62
     0
 92
       -2
340
0
 93
        0
 40
0.045
309
GRIDFORMAT_END
 95
       32
302
GRIDFORMAT
  1
GRIDFORMAT_BEGIN
 90
        0
 91
        1
 62
     0
 92
       -2
340
0
 93
        0
 40
0.045
309
GRIDFORMAT_END
309
TABLEFORMAT_END
  1
CELLSTYLE_BEGIN
 90
        2
 91
        1
300
_HEADER
309
CELLSTYLE_END
300
CELLSTYLE
  1
TABLEFORMAT_BEGIN
 90
        5
170
     1
 91
        0
 92
        0
 62
   257
 93
        1
300
CONTENTFORMAT
  1
CONTENTFORMAT_BEGIN
 90
        0
 91
        0
 92
        4
 93
        0
300

 40
0.0
140
1.0
 94
        2
 62
     0
340
11
144
0.18
309
CONTENTFORMAT_END
171
     1
301
MARGIN
  1
CELLMARGIN_BEGIN
 40
0.06
 40
0.06
 40
0.06
 40
0.06
 40
0.18
 40
0.18
309
CELLMARGIN_END
 94
        6
 95
        1
302
GRIDFORMAT
  1
GRIDFORMAT_BEGIN
 90
        0
 91
        1
 62
     0
 92
       -2
340
0
 93
        0
 40
0.045
309
GRIDFORMAT_END
 95
        2
302
GRIDFORMAT
  1
GRIDFORMAT_BEGIN
 90
        0
 91
        1
 62
     0
 92
       -2
340
0
 93
        0
 40
0.045
309
GRIDFORMAT_END
 95
        4
302
GRIDFORMAT
  1
GRIDFORMAT_BEGIN
 90
        0
 91
        1
 62
     0
 92
       -2
340
0
 93
        0
 40
0.045
309
GRIDFORMAT_END
 95
        8
302
GRIDFORMAT
  1
GRIDFORMAT_BEGIN
 90
        0
 91
        1
 62
     0
 92
       -2
340
0
 93
        0
 40
0.045
309
GRIDFORMAT_END
 95
       16
302
GRIDFORMAT
  1
GRIDFORMAT_BEGIN
 90
        0
 91
        1
 62
     0
 92
       -2
340
0
 93
        0
 40
0.045
309
GRIDFORMAT_END
 95
       32
302
GRIDFORMAT
  1
GRIDFORMAT_BEGIN
 90
        0
 91
        1
 62
     0
 92
       -2
340
0
 93
        0
 40
0.045
309
GRIDFORMAT_END
309
TABLEFORMAT_END
  1
CELLSTYLE_BEGIN
 90
        3
 91
        2
300
_DATA
309
CELLSTYLE_END
  0
XRECORD
  5
87C2
102
{ACAD_REACTORS
330
854E
102
}
330
854E
100
AcDbXrecord
280
     1
102
ACAD_ROUNDTRIP_PRE2007_TABLESTYLE
 90
        4
 91
        0
  1

 92
        4
 93
        0
  2

 94
        4
 95
        0
  3

  0
XRECORD
  5
87CE
102
{ACAD_REACTORS
330
87CD
102
}
330
87CD
100
AcDbXrecord
280
     1
102
RTVSPropertyOp0
 70
     1
102
RTVSPropertyOp1
 70
     1
102
RTVSPropertyOp2
 70
     1
102
RTVSPropertyOp3
 70
     1
102
RTVSPropertyOp4
 70
     1
102
RTVSPropertyOp5
 70
     1
102
RTVSPropertyOp6
 70
     1
102
RTVSPropertyOp7
 70
     1
102
RTVSPropertyOp8
 70
     1
102
RTVSPropertyOp9
 70
     1
102
RTVSPropertyOp10
 70
     1
102
RTVSPropertyOp11
 70
     1
102
RTVSPropertyOp12
 70
     1
102
RTVSPropertyOp13
 70
     1
102
RTVSPropertyOp14
 70
     1
102
RTVSPropertyOp15
 70
     1
102
RTVSPropertyOp16
 70
     1
102
RTVSPropertyOp17
 70
     1
102
RTVSPropertyOp18
 70
     1
102
RTVSPropertyOp19
 70
     1
102
RTVSPropertyOp20
 70
     1
102
RTVSPropertyOp21
 70
     1
102
RTVSPropertyOp22
 70
     1
102
RTVSPropertyOp23
 70
     1
102
RTVSPropertyOp24
 70
     1
102
RTVSPropertyOp25
 70
     1
102
RTVSPropertyOp26
 70
     1
102
RTVSPropertyOp27
 70
     1
  0
XRECORD
  5
87D2
102
{ACAD_REACTORS
330
87D1
102
}
330
87D1
100
AcDbXrecord
280
     1
102
RTVSPropertyOp0
 70
     1
102
RTVSPropertyOp1
 70
     1
102
RTVSPropertyOp2
 70
     1
102
RTVSPropertyOp3
 70
     1
102
RTVSPropertyOp4
 70
     1
102
RTVSPropertyOp5
 70
     1
102
RTVSPropertyOp6
 70
     1
102
RTVSPropertyOp7
 70
     1
102
RTVSPropertyOp8
 70
     1
102
RTVSPropertyOp9
 70
     1
102
RTVSPropertyOp10
 70
     1
102
RTVSPropertyOp11
 70
     1
102
RTVSPropertyOp12
 70
     1
102
RTVSPropertyOp13
 70
     1
102
RTVSPropertyOp14
 70
     1
102
RTVSPropertyOp15
 70
     1
102
RTVSPropertyOp16
 70
     1
102
RTVSPropertyOp17
 70
     1
102
RTVSPropertyOp18
 70
     1
102
RTVSPropertyOp19
 70
     1
102
RTVSPropertyOp20
 70
     1
102
RTVSPropertyOp21
 70
     1
102
RTVSPropertyOp22
 70
     1
102
RTVSPropertyOp23
 70
     1
102
RTVSPropertyOp24
 70
     1
102
RTVSPropertyOp25
 70
     1
102
RTVSPropertyOp26
 70
     1
102
RTVSPropertyOp27
 70
     1
  0
XRECORD
  5
87D0
102
{ACAD_REACTORS
330
87CF
102
}
330
87CF
100
AcDbXrecord
280
     1
102
RTVSPropertyOp0
 70
     1
102
RTVSPropertyOp1
 70
     1
102
RTVSPropertyOp2
 70
     1
102
RTVSPropertyOp3
 70
     1
102
RTVSPropertyOp4
 70
     1
102
RTVSPropertyOp5
 70
     1
102
RTVSPropertyOp6
 70
     1
102
RTVSPropertyOp7
 70
     1
102
RTVSPropertyOp8
 70
     1
102
RTVSPropertyOp9
 70
     1
102
RTVSPropertyOp10
 70
     1
102
RTVSPropertyOp11
 70
     1
102
RTVSPropertyOp12
 70
     1
102
RTVSPropertyOp13
 70
     1
102
RTVSPropertyOp14
 70
     1
102
RTVSPropertyOp15
 70
     1
102
RTVSPropertyOp16
 70
     1
102
RTVSPropertyOp17
 70
     1
102
RTVSPropertyOp18
 70
     1
102
RTVSPropertyOp19
 70
     1
102
RTVSPropertyOp20
 70
     1
102
RTVSPropertyOp21
 70
     1
102
RTVSPropertyOp22
 70
     1
102
RTVSPropertyOp23
 70
     1
102
RTVSPropertyOp24
 70
     1
102
RTVSPropertyOp25
 70
     1
102
RTVSPropertyOp26
 70
     1
102
RTVSPropertyOp27
 70
     1
  0
XRECORD
  5
87CC
102
{ACAD_REACTORS
330
87CB
102
}
330
87CB
100
AcDbXrecord
280
     1
102
RTVSPropertyOp0
 70
     1
102
RTVSPropertyOp1
 70
     1
102
RTVSPropertyOp2
 70
     1
102
RTVSPropertyOp3
 70
     1
102
RTVSPropertyOp4
 70
     1
102
RTVSPropertyOp5
 70
     1
102
RTVSPropertyOp6
 70
     1
102
RTVSPropertyOp7
 70
     1
102
RTVSPropertyOp8
 70
     1
102
RTVSPropertyOp9
 70
     1
102
RTVSPropertyOp10
 70
     1
102
RTVSPropertyOp11
 70
     1
102
RTVSPropertyOp12
 70
     1
102
RTVSPropertyOp13
 70
     1
102
RTVSPropertyOp14
 70
     1
102
RTVSPropertyOp15
 70
     1
102
RTVSPropertyOp16
 70
     1
102
RTVSPropertyOp17
 70
     1
102
RTVSPropertyOp18
 70
     1
102
RTVSPropertyOp19
 70
     1
102
RTVSPropertyOp20
 70
     1
102
RTVSPropertyOp21
 70
     1
102
RTVSPropertyOp22
 70
     1
102
RTVSPropertyOp23
 70
     1
102
RTVSPropertyOp24
 70
     1
102
RTVSPropertyOp25
 70
     1
102
RTVSPropertyOp26
 70
     1
102
RTVSPropertyOp27
 70
     1
  0
XRECORD
  5
87DA
102
{ACAD_REACTORS
330
87D9
102
}
330
87D9
100
AcDbXrecord
280
     1
102
RTVSPropertyOp0
 70
     1
102
RTVSPropertyOp1
 70
     1
102
RTVSPropertyOp2
 70
     1
102
RTVSPropertyOp3
 70
     1
102
RTVSPropertyOp4
 70
     1
102
RTVSPropertyOp5
 70
     1
102
RTVSPropertyOp6
 70
     1
102
RTVSPropertyOp7
 70
     1
102
RTVSPropertyOp8
 70
     1
102
RTVSPropertyOp9
 70
     1
102
RTVSPropertyOp10
 70
     1
102
RTVSPropertyOp11
 70
     1
102
RTVSPropertyOp12
 70
     1
102
RTVSPropertyOp13
 70
     1
102
RTVSPropertyOp14
 70
     1
102
RTVSPropertyOp15
 70
     1
102
RTVSPropertyOp16
 70
     1
102
RTVSPropertyOp17
 70
     1
102
RTVSPropertyOp18
 70
     1
102
RTVSPropertyOp19
 70
     1
102
RTVSPropertyOp20
 70
     1
102
RTVSPropertyOp21
 70
     1
102
RTVSPropertyOp22
 70
     1
102
RTVSPropertyOp23
 70
     1
102
RTVSPropertyOp24
 70
     1
102
RTVSPropertyOp25
 70
     1
102
RTVSPropertyOp26
 70
     1
102
RTVSPropertyOp27
 70
     1
  0
XRECORD
  5
87E2
102
{ACAD_REACTORS
330
87E1
102
}
330
87E1
100
AcDbXrecord
280
     1
102
RTVSPropertyOp0
 70
     1
102
RTVSPropertyOp1
 70
     1
102
RTVSPropertyOp2
 70
     1
102
RTVSPropertyOp3
 70
     1
102
RTVSPropertyOp4
 70
     1
102
RTVSPropertyOp5
 70
     1
102
RTVSPropertyOp6
 70
     1
102
RTVSPropertyOp7
 70
     1
102
RTVSPropertyOp8
 70
     1
102
RTVSPropertyOp9
 70
     1
102
RTVSPropertyOp10
 70
     1
102
RTVSPropertyOp11
 70
     1
102
RTVSPropertyOp12
 70
     1
102
RTVSPropertyOp13
 70
     1
102
RTVSPropertyOp14
 70
     1
102
RTVSPropertyOp15
 70
     1
102
RTVSPropertyOp16
 70
     1
102
RTVSPropertyOp17
 70
     1
102
RTVSPropertyOp18
 70
     1
102
RTVSPropertyOp19
 70
     1
102
RTVSPropertyOp20
 70
     1
102
RTVSPropertyOp21
 70
     1
102
RTVSPropertyOp22
 70
     1
102
RTVSPropertyOp23
 70
     1
102
RTVSPropertyOp24
 70
     1
102
RTVSPropertyOp25
 70
     1
102
RTVSPropertyOp26
 70
     1
102
RTVSPropertyOp27
 70
     1
  0
XRECORD
  5
87D4
102
{ACAD_REACTORS
330
87D3
102
}
330
87D3
100
AcDbXrecord
280
     1
102
RTVSPropertyOp0
 70
     1
102
RTVSPropertyOp1
 70
     1
102
RTVSPropertyOp2
 70
     1
102
RTVSPropertyOp3
 70
     1
102
RTVSPropertyOp4
 70
     1
102
RTVSPropertyOp5
 70
     1
102
RTVSPropertyOp6
 70
     1
102
RTVSPropertyOp7
 70
     1
102
RTVSPropertyOp8
 70
     1
102
RTVSPropertyOp9
 70
     1
102
RTVSPropertyOp10
 70
     1
102
RTVSPropertyOp11
 70
     1
102
RTVSPropertyOp12
 70
     1
102
RTVSPropertyOp13
 70
     1
102
RTVSPropertyOp14
 70
     1
102
RTVSPropertyOp15
 70
     1
102
RTVSPropertyOp16
 70
     1
102
RTVSPropertyOp17
 70
     1
102
RTVSPropertyOp18
 70
     1
102
RTVSPropertyOp19
 70
     1
102
RTVSPropertyOp20
 70
     1
102
RTVSPropertyOp21
 70
     1
102
RTVSPropertyOp22
 70
     1
102
RTVSPropertyOp23
 70
     1
102
RTVSPropertyOp24
 70
     1
102
RTVSPropertyOp25
 70
     1
102
RTVSPropertyOp26
 70
     1
102
RTVSPropertyOp27
 70
     1
  0
XRECORD
  5
87D8
102
{ACAD_REACTORS
330
87D7
102
}
330
87D7
100
AcDbXrecord
280
     1
102
RTVSPropertyOp0
 70
     1
102
RTVSPropertyOp1
 70
     1
102
RTVSPropertyOp2
 70
     1
102
RTVSPropertyOp3
 70
     1
102
RTVSPropertyOp4
 70
     1
102
RTVSPropertyOp5
 70
     1
102
RTVSPropertyOp6
 70
     1
102
RTVSPropertyOp7
 70
     1
102
RTVSPropertyOp8
 70
     1
102
RTVSPropertyOp9
 70
     1
102
RTVSPropertyOp10
 70
     1
102
RTVSPropertyOp11
 70
     1
102
RTVSPropertyOp12
 70
     1
102
RTVSPropertyOp13
 70
     1
102
RTVSPropertyOp14
 70
     1
102
RTVSPropertyOp15
 70
     1
102
RTVSPropertyOp16
 70
     1
102
RTVSPropertyOp17
 70
     1
102
RTVSPropertyOp18
 70
     1
102
RTVSPropertyOp19
 70
     1
102
RTVSPropertyOp20
 70
     1
102
RTVSPropertyOp21
 70
     1
102
RTVSPropertyOp22
 70
     1
102
RTVSPropertyOp23
 70
     1
102
RTVSPropertyOp24
 70
     1
102
RTVSPropertyOp25
 70
     1
102
RTVSPropertyOp26
 70
     1
102
RTVSPropertyOp27
 70
     1
  0
XRECORD
  5
87E8
102
{ACAD_REACTORS
330
87E7
102
}
330
87E7
100
AcDbXrecord
280
     1
102
RTVSPropertyOp0
 70
     0
102
RTVSPropertyOp1
 70
     0
102
RTVSPropertyOp2
 70
     0
102
RTVSPropertyOp3
 70
     0
102
RTVSPropertyOp4
 70
     0
102
RTVSPropertyOp5
 70
     0
102
RTVSPropertyOp6
 70
     0
102
RTVSPropertyOp7
 70
     0
102
RTVSPropertyOp8
 70
     0
102
RTVSPropertyOp9
 70
     0
102
RTVSPropertyOp10
 70
     0
102
RTVSPropertyOp11
 70
     0
102
RTVSPropertyOp12
 70
     0
102
RTVSPropertyOp13
 70
     0
102
RTVSPropertyOp14
 70
     2
102
RTVSPropertyOp15
 70
     0
102
RTVSPropertyOp16
 70
     0
102
RTVSPropertyOp17
 70
     0
102
RTVSPropertyOp18
 70
     0
102
RTVSPropertyOp19
 70
     0
102
RTVSPropertyOp20
 70
     0
102
RTVSPropertyOp21
 70
     0
102
RTVSPropertyOp22
 70
     0
102
RTVSPropertyOp23
 70
     0
102
RTVSPropertyOp24
 70
     0
102
RTVSPropertyOp25
 70
     0
102
RTVSPropertyOp26
 70
     0
102
RTVSPropertyOp27
 70
     0
  0
XRECORD
  5
87E0
102
{ACAD_REACTORS
330
87DF
102
}
330
87DF
100
AcDbXrecord
280
     1
102
RTVSPropertyOp0
 70
     1
102
RTVSPropertyOp1
 70
     1
102
RTVSPropertyOp2
 70
     1
102
RTVSPropertyOp3
 70
     1
102
RTVSPropertyOp4
 70
     1
102
RTVSPropertyOp5
 70
     1
102
RTVSPropertyOp6
 70
     1
102
RTVSPropertyOp7
 70
     1
102
RTVSPropertyOp8
 70
     1
102
RTVSPropertyOp9
 70
     1
102
RTVSPropertyOp10
 70
     1
102
RTVSPropertyOp11
 70
     1
102
RTVSPropertyOp12
 70
     1
102
RTVSPropertyOp13
 70
     1
102
RTVSPropertyOp14
 70
     1
102
RTVSPropertyOp15
 70
     1
102
RTVSPropertyOp16
 70
     1
102
RTVSPropertyOp17
 70
     1
102
RTVSPropertyOp18
 70
     1
102
RTVSPropertyOp19
 70
     1
102
RTVSPropertyOp20
 70
     1
102
RTVSPropertyOp21
 70
     1
102
RTVSPropertyOp22
 70
     1
102
RTVSPropertyOp23
 70
     1
102
RTVSPropertyOp24
 70
     1
102
RTVSPropertyOp25
 70
     1
102
RTVSPropertyOp26
 70
     1
102
RTVSPropertyOp27
 70
     1
  0
XRECORD
  5
87C4
102
{ACAD_REACTORS
330
87C3
102
}
330
87C3
100
AcDbXrecord
280
     1
102
RTVSPropertyOp0
 70
     1
102
RTVSPropertyOp1
 70
     1
102
RTVSPropertyOp2
 70
     1
102
RTVSPropertyOp3
 70
     1
102
RTVSPropertyOp4
 70
     1
102
RTVSPropertyOp5
 70
     1
102
RTVSPropertyOp6
 70
     1
102
RTVSPropertyOp7
 70
     1
102
RTVSPropertyOp8
 70
     1
102
RTVSPropertyOp9
 70
     1
102
RTVSPropertyOp10
 70
     1
102
RTVSPropertyOp11
 70
     1
102
RTVSPropertyOp12
 70
     1
102
RTVSPropertyOp13
 70
     1
102
RTVSPropertyOp14
 70
     1
102
RTVSPropertyOp15
 70
     1
102
RTVSPropertyOp16
 70
     1
102
RTVSPropertyOp17
 70
     1
102
RTVSPropertyOp18
 70
     1
102
RTVSPropertyOp19
 70
     1
102
RTVSPropertyOp20
 70
     1
102
RTVSPropertyOp21
 70
     1
102
RTVSPropertyOp22
 70
     1
102
RTVSPropertyOp23
 70
     1
102
RTVSPropertyOp24
 70
     1
102
RTVSPropertyOp25
 70
     1
102
RTVSPropertyOp26
 70
     1
102
RTVSPropertyOp27
 70
     1
  0
XRECORD
  5
87C6
102
{ACAD_REACTORS
330
87C5
102
}
330
87C5
100
AcDbXrecord
280
     1
102
RTVSPropertyOp0
 70
     1
102
RTVSPropertyOp1
 70
     1
102
RTVSPropertyOp2
 70
     1
102
RTVSPropertyOp3
 70
     1
102
RTVSPropertyOp4
 70
     1
102
RTVSPropertyOp5
 70
     1
102
RTVSPropertyOp6
 70
     1
102
RTVSPropertyOp7
 70
     1
102
RTVSPropertyOp8
 70
     1
102
RTVSPropertyOp9
 70
     1
102
RTVSPropertyOp10
 70
     1
102
RTVSPropertyOp11
 70
     1
102
RTVSPropertyOp12
 70
     1
102
RTVSPropertyOp13
 70
     1
102
RTVSPropertyOp14
 70
     1
102
RTVSPropertyOp15
 70
     1
102
RTVSPropertyOp16
 70
     1
102
RTVSPropertyOp17
 70
     1
102
RTVSPropertyOp18
 70
     1
102
RTVSPropertyOp19
 70
     1
102
RTVSPropertyOp20
 70
     1
102
RTVSPropertyOp21
 70
     1
102
RTVSPropertyOp22
 70
     1
102
RTVSPropertyOp23
 70
     1
102
RTVSPropertyOp24
 70
     1
102
RTVSPropertyOp25
 70
     1
102
RTVSPropertyOp26
 70
     1
102
RTVSPropertyOp27
 70
     1
  0
XRECORD
  5
87C8
102
{ACAD_REACTORS
330
87C7
102
}
330
87C7
100
AcDbXrecord
280
     1
102
RTVSPropertyOp0
 70
     1
102
RTVSPropertyOp1
 70
     1
102
RTVSPropertyOp2
 70
     1
102
RTVSPropertyOp3
 70
     1
102
RTVSPropertyOp4
 70
     1
102
RTVSPropertyOp5
 70
     1
102
RTVSPropertyOp6
 70
     1
102
RTVSPropertyOp7
 70
     1
102
RTVSPropertyOp8
 70
     1
102
RTVSPropertyOp9
 70
     1
102
RTVSPropertyOp10
 70
     1
102
RTVSPropertyOp11
 70
     1
102
RTVSPropertyOp12
 70
     1
102
RTVSPropertyOp13
 70
     1
102
RTVSPropertyOp14
 70
     1
102
RTVSPropertyOp15
 70
     1
102
RTVSPropertyOp16
 70
     1
102
RTVSPropertyOp17
 70
     1
102
RTVSPropertyOp18
 70
     1
102
RTVSPropertyOp19
 70
     1
102
RTVSPropertyOp20
 70
     1
102
RTVSPropertyOp21
 70
     1
102
RTVSPropertyOp22
 70
     1
102
RTVSPropertyOp23
 70
     1
102
RTVSPropertyOp24
 70
     1
102
RTVSPropertyOp25
 70
     1
102
RTVSPropertyOp26
 70
     1
102
RTVSPropertyOp27
 70
     1
  0
XRECORD
  5
87CA
102
{ACAD_REACTORS
330
87C9
102
}
330
87C9
100
AcDbXrecord
280
     1
102
RTVSPropertyOp0
 70
     1
102
RTVSPropertyOp1
 70
     1
102
RTVSPropertyOp2
 70
     1
102
RTVSPropertyOp3
 70
     1
102
RTVSPropertyOp4
 70
     1
102
RTVSPropertyOp5
 70
     1
102
RTVSPropertyOp6
 70
     1
102
RTVSPropertyOp7
 70
     1
102
RTVSPropertyOp8
 70
     1
102
RTVSPropertyOp9
 70
     1
102
RTVSPropertyOp10
 70
     1
102
RTVSPropertyOp11
 70
     1
102
RTVSPropertyOp12
 70
     1
102
RTVSPropertyOp13
 70
     1
102
RTVSPropertyOp14
 70
     1
102
RTVSPropertyOp15
 70
     1
102
RTVSPropertyOp16
 70
     1
102
RTVSPropertyOp17
 70
     1
102
RTVSPropertyOp18
 70
     1
102
RTVSPropertyOp19
 70
     1
102
RTVSPropertyOp20
 70
     1
102
RTVSPropertyOp21
 70
     1
102
RTVSPropertyOp22
 70
     1
102
RTVSPropertyOp23
 70
     1
102
RTVSPropertyOp24
 70
     1
102
RTVSPropertyOp25
 70
     1
102
RTVSPropertyOp26
 70
     1
102
RTVSPropertyOp27
 70
     1
  0
XRECORD
  5
87E4
102
{ACAD_REACTORS
330
87E3
102
}
330
87E3
100
AcDbXrecord
280
     1
102
RTVSPropertyOp0
 70
     0
102
RTVSPropertyOp1
 70
     0
102
RTVSPropertyOp2
 70
     0
102
RTVSPropertyOp3
 70
     0
102
RTVSPropertyOp4
 70
     0
102
RTVSPropertyOp5
 70
     0
102
RTVSPropertyOp6
 70
     0
102
RTVSPropertyOp7
 70
     0
102
RTVSPropertyOp8
 70
     0
102
RTVSPropertyOp9
 70
     0
102
RTVSPropertyOp10
 70
     0
102
RTVSPropertyOp11
 70
     0
102
RTVSPropertyOp12
 70
     0
102
RTVSPropertyOp13
 70
     0
102
RTVSPropertyOp14
 70
     2
102
RTVSPropertyOp15
 70
     0
102
RTVSPropertyOp16
 70
     0
102
RTVSPropertyOp17
 70
     0
102
RTVSPropertyOp18
 70
     0
102
RTVSPropertyOp19
 70
     0
102
RTVSPropertyOp20
 70
     0
102
RTVSPropertyOp21
 70
     0
102
RTVSPropertyOp22
 70
     0
102
RTVSPropertyOp23
 70
     0
102
RTVSPropertyOp24
 70
     0
102
RTVSPropertyOp25
 70
     0
102
RTVSPropertyOp26
 70
     0
102
RTVSPropertyOp27
 70
     0
  0
XRECORD
  5
87DE
102
{ACAD_REACTORS
330
87DD
102
}
330
87DD
100
AcDbXrecord
280
     1
102
RTVSPropertyOp0
 70
     1
102
RTVSPropertyOp1
 70
     1
102
RTVSPropertyOp2
 70
     1
102
RTVSPropertyOp3
 70
     1
102
RTVSPropertyOp4
 70
     1
102
RTVSPropertyOp5
 70
     1
102
RTVSPropertyOp6
 70
     1
102
RTVSPropertyOp7
 70
     1
102
RTVSPropertyOp8
 70
     1
102
RTVSPropertyOp9
 70
     1
102
RTVSPropertyOp10
 70
     1
102
RTVSPropertyOp11
 70
     1
102
RTVSPropertyOp12
 70
     1
102
RTVSPropertyOp13
 70
     1
102
RTVSPropertyOp14
 70
     1
102
RTVSPropertyOp15
 70
     1
102
RTVSPropertyOp16
 70
     1
102
RTVSPropertyOp17
 70
     1
102
RTVSPropertyOp18
 70
     1
102
RTVSPropertyOp19
 70
     1
102
RTVSPropertyOp20
 70
     1
102
RTVSPropertyOp21
 70
     1
102
RTVSPropertyOp22
 70
     1
102
RTVSPropertyOp23
 70
     1
102
RTVSPropertyOp24
 70
     1
102
RTVSPropertyOp25
 70
     1
102
RTVSPropertyOp26
 70
     1
102
RTVSPropertyOp27
 70
     1
  0
XRECORD
  5
87E6
102
{ACAD_REACTORS
330
87E5
102
}
330
87E5
100
AcDbXrecord
280
     1
102
RTVSPropertyOp0
 70
     0
102
RTVSPropertyOp1
 70
     0
102
RTVSPropertyOp2
 70
     0
102
RTVSPropertyOp3
 70
     0
102
RTVSPropertyOp4
 70
     0
102
RTVSPropertyOp5
 70
     0
102
RTVSPropertyOp6
 70
     0
102
RTVSPropertyOp7
 70
     0
102
RTVSPropertyOp8
 70
     0
102
RTVSPropertyOp9
 70
     0
102
RTVSPropertyOp10
 70
     0
102
RTVSPropertyOp11
 70
     0
102
RTVSPropertyOp12
 70
     0
102
RTVSPropertyOp13
 70
     0
102
RTVSPropertyOp14
 70
     2
102
RTVSPropertyOp15
 70
     0
102
RTVSPropertyOp16
 70
     0
102
RTVSPropertyOp17
 70
     0
102
RTVSPropertyOp18
 70
     0
102
RTVSPropertyOp19
 70
     0
102
RTVSPropertyOp20
 70
     0
102
RTVSPropertyOp21
 70
     0
102
RTVSPropertyOp22
 70
     0
102
RTVSPropertyOp23
 70
     0
102
RTVSPropertyOp24
 70
     0
102
RTVSPropertyOp25
 70
     0
102
RTVSPropertyOp26
 70
     0
102
RTVSPropertyOp27
 70
     0
  0
XRECORD
  5
87D6
102
{ACAD_REACTORS
330
87D5
102
}
330
87D5
100
AcDbXrecord
280
     1
102
RTVSPropertyOp0
 70
     1
102
RTVSPropertyOp1
 70
     1
102
RTVSPropertyOp2
 70
     1
102
RTVSPropertyOp3
 70
     1
102
RTVSPropertyOp4
 70
     1
102
RTVSPropertyOp5
 70
     1
102
RTVSPropertyOp6
 70
     1
102
RTVSPropertyOp7
 70
     1
102
RTVSPropertyOp8
 70
     1
102
RTVSPropertyOp9
 70
     1
102
RTVSPropertyOp10
 70
     1
102
RTVSPropertyOp11
 70
     1
102
RTVSPropertyOp12
 70
     1
102
RTVSPropertyOp13
 70
     1
102
RTVSPropertyOp14
 70
     1
102
RTVSPropertyOp15
 70
     1
102
RTVSPropertyOp16
 70
     1
102
RTVSPropertyOp17
 70
     1
102
RTVSPropertyOp18
 70
     1
102
RTVSPropertyOp19
 70
     1
102
RTVSPropertyOp20
 70
     1
102
RTVSPropertyOp21
 70
     1
102
RTVSPropertyOp22
 70
     1
102
RTVSPropertyOp23
 70
     1
102
RTVSPropertyOp24
 70
     1
102
RTVSPropertyOp25
 70
     1
102
RTVSPropertyOp26
 70
     1
102
RTVSPropertyOp27
 70
     1
  0
XRECORD
  5
87DC
102
{ACAD_REACTORS
330
87DB
102
}
330
87DB
100
AcDbXrecord
280
     1
102
RTVSPropertyOp0
 70
     1
102
RTVSPropertyOp1
 70
     1
102
RTVSPropertyOp2
 70
     1
102
RTVSPropertyOp3
 70
     1
102
RTVSPropertyOp4
 70
     1
102
RTVSPropertyOp5
 70
     1
102
RTVSPropertyOp6
 70
     1
102
RTVSPropertyOp7
 70
     1
102
RTVSPropertyOp8
 70
     1
102
RTVSPropertyOp9
 70
     1
102
RTVSPropertyOp10
 70
     1
102
RTVSPropertyOp11
 70
     1
102
RTVSPropertyOp12
 70
     1
102
RTVSPropertyOp13
 70
     1
102
RTVSPropertyOp14
 70
     1
102
RTVSPropertyOp15
 70
     1
102
RTVSPropertyOp16
 70
     1
102
RTVSPropertyOp17
 70
     1
102
RTVSPropertyOp18
 70
     1
102
RTVSPropertyOp19
 70
     1
102
RTVSPropertyOp20
 70
     1
102
RTVSPropertyOp21
 70
     1
102
RTVSPropertyOp22
 70
     1
102
RTVSPropertyOp23
 70
     1
102
RTVSPropertyOp24
 70
     1
102
RTVSPropertyOp25
 70
     1
102
RTVSPropertyOp26
 70
     1
102
RTVSPropertyOp27
 70
     1
  0
ENDSEC
  0
EOF
