  0
SECTION
  2
HEADER
  9
$ACADVER
  1
AC1015
  9
$ACADMAINTVER
 70
    20
  9
$DWGCODEPAGE
  3
ANSI_932
  9
$INSBASE
 10
0.0
 20
0.0
 30
0.0
  9
$EXTMIN
 10
-180.0161528359731
 20
-350.0231803200377
 30
-0.000000000000013
  9
$EXTMAX
 10
359.5310795616956
 20
325.1260949370142
 30
0.0000000000000023
  9
$LIMMIN
 10
-296.316999476111
 20
-370.7034300441653
  9
$LIMMAX
 10
623.3128432133979
 20
328.6261559379898
  9
$ORTHOMODE
 70
     0
  9
$REGENMODE
 70
     1
  9
$FILLMODE
 70
     1
  9
$QTEXTMODE
 70
     0
  9
$MIRRTEXT
 70
     1
  9
$LTSCALE
 40
10.0
  9
$ATTMODE
 70
     1
  9
$TEXTSIZE
 40
5.0
  9
$TRACEWID
 40
0.05
  9
$TEXTSTYLE
  7
STANDARD1
  9
$CLAYER
  8
30
  9
$CELTYPE
  6
CONTINUOUS
  9
$CECOLOR
 62
   256
  9
$CELTSCALE
 40
1.0
  9
$DISPSILH
 70
     0
  9
$DIMSCALE
 40
1.0
  9
$DIMASZ
 40
2.0
  9
$DIMEXO
 40
1.0
  9
$DIMDLI
 40
0.5
  9
$DIMRND
 40
0.0
  9
$DIMDLE
 40
0.0
  9
$DIMEXE
 40
0.5
  9
$DIMTP
 40
0.0
  9
$DIMTM
 40
0.0
  9
$DIMTXT
 40
4.0
  9
$DIMCEN
 40
0.09
  9
$DIMTSZ
 40
0.0
  9
$DIMTOL
 70
     0
  9
$DIMLIM
 70
     0
  9
$DIMTIH
 70
     0
  9
$DIMTOH
 70
     1
  9
$DIMSE1
 70
     0
  9
$DIMSE2
 70
     0
  9
$DIMTAD
 70
     3
  9
$DIMZIN
 70
    12
  9
$DIMBLK
  1
OPEN
  9
$DIMASO
 70
     1
  9
$DIMSHO
 70
     1
  9
$DIMPOST
  1

  9
$DIMAPOST
  1

  9
$DIMALT
 70
     0
  9
$DIMALTD
 70
     2
  9
$DIMALTF
 40
25.4
  9
$DIMLFAC
 40
1.0
  9
$DIMTOFL
 70
     0
  9
$DIMTVP
 40
0.0
  9
$DIMTIX
 70
     0
  9
$DIMSOXD
 70
     0
  9
$DIMSAH
 70
     0
  9
$DIMBLK1
  1

  9
$DIMBLK2
  1

  9
$DIMSTYLE
  2
STANDARD
  9
$DIMCLRD
 70
     0
  9
$DIMCLRE
 70
     0
  9
$DIMCLRT
 70
     0
  9
$DIMTFAC
 40
1.0
  9
$DIMGAP
 40
1.0
  9
$DIMJUST
 70
     0
  9
$DIMSD1
 70
     0
  9
$DIMSD2
 70
     0
  9
$DIMTOLJ
 70
     1
  9
$DIMTZIN
 70
     0
  9
$DIMALTZ
 70
     0
  9
$DIMALTTZ
 70
     0
  9
$DIMUPT
 70
     0
  9
$DIMDEC
 70
     1
  9
$DIMTDEC
 70
     1
  9
$DIMALTU
 70
     2
  9
$DIMALTTD
 70
     2
  9
$DIMTXSTY
  7
STANDARD
  9
$DIMAUNIT
 70
     0
  9
$DIMADEC
 70
     0
  9
$DIMALTRND
 40
0.0
  9
$DIMAZIN
 70
     3
  9
$DIMDSEP
 70
    46
  9
$DIMATFIT
 70
     3
  9
$DIMFRAC
 70
     0
  9
$DIMLDRBLK
  1
OPEN
  9
$DIMLUNIT
 70
     2
  9
$DIMLWD
 70
    -2
  9
$DIMLWE
 70
    -2
  9
$DIMTMOVE
 70
     0
  9
$LUNITS
 70
     2
  9
$LUPREC
 70
     4
  9
$SKETCHINC
 40
0.1
  9
$FILLETRAD
 40
0.0
  9
$AUNITS
 70
     0
  9
$AUPREC
 70
     0
  9
$MENU
  1
.
  9
$ELEVATION
 40
0.0
  9
$PELEVATION
 40
0.0
  9
$THICKNESS
 40
0.0
  9
$LIMCHECK
 70
     0
  9
$CHAMFERA
 40
0.0
  9
$CHAMFERB
 40
0.0
  9
$CHAMFERC
 40
0.0
  9
$CHAMFERD
 40
0.0
  9
$SKPOLY
 70
     0
  9
$TDCREATE
 40
2452286.555658658
  9
$TDUCREATE
 40
2452286.180658658
  9
$TDUPDATE
 40
2455233.424982454
  9
$TDUUPDATE
 40
2455233.049982454
  9
$TDINDWG
 40
1.3933670486
  9
$TDUSRTIMER
 40
1.3933558333
  9
$USRTIMER
 70
     1
  9
$ANGBASE
 50
0.0
  9
$ANGDIR
 70
     0
  9
$PDMODE
 70
     0
  9
$PDSIZE
 40
0.0
  9
$PLINEWID
 40
0.0
  9
$SPLFRAME
 70
     0
  9
$SPLINETYPE
 70
     6
  9
$SPLINESEGS
 70
     8
  9
$HANDSEED
  5
98C8
  9
$SURFTAB1
 70
     6
  9
$SURFTAB2
 70
     6
  9
$SURFTYPE
 70
     6
  9
$SURFU
 70
     6
  9
$SURFV
 70
     6
  9
$UCSBASE
  2

  9
$UCSNAME
  2

  9
$UCSORG
 10
0.0
 20
0.0
 30
0.0
  9
$UCSXDIR
 10
1.0
 20
0.0
 30
0.0
  9
$UCSYDIR
 10
0.0
 20
1.0
 30
0.0
  9
$UCSORTHOREF
  2

  9
$UCSORTHOVIEW
 70
     0
  9
$UCSORGTOP
 10
0.0
 20
0.0
 30
0.0
  9
$UCSORGBOTTOM
 10
0.0
 20
0.0
 30
0.0
  9
$UCSORGLEFT
 10
0.0
 20
0.0
 30
0.0
  9
$UCSORGRIGHT
 10
0.0
 20
0.0
 30
0.0
  9
$UCSORGFRONT
 10
0.0
 20
0.0
 30
0.0
  9
$UCSORGBACK
 10
0.0
 20
0.0
 30
0.0
  9
$PUCSBASE
  2

  9
$PUCSNAME
  2

  9
$PUCSORG
 10
0.0
 20
0.0
 30
0.0
  9
$PUCSXDIR
 10
1.0
 20
0.0
 30
0.0
  9
$PUCSYDIR
 10
0.0
 20
1.0
 30
0.0
  9
$PUCSORTHOREF
  2

  9
$PUCSORTHOVIEW
 70
     0
  9
$PUCSORGTOP
 10
0.0
 20
0.0
 30
0.0
  9
$PUCSORGBOTTOM
 10
0.0
 20
0.0
 30
0.0
  9
$PUCSORGLEFT
 10
0.0
 20
0.0
 30
0.0
  9
$PUCSORGRIGHT
 10
0.0
 20
0.0
 30
0.0
  9
$PUCSORGFRONT
 10
0.0
 20
0.0
 30
0.0
  9
$PUCSORGBACK
 10
0.0
 20
0.0
 30
0.0
  9
$USERI1
 70
     0
  9
$USERI2
 70
     0
  9
$USERI3
 70
     0
  9
$USERI4
 70
     0
  9
$USERI5
 70
     0
  9
$USERR1
 40
0.0
  9
$USERR2
 40
0.0
  9
$USERR3
 40
0.0
  9
$USERR4
 40
0.0
  9
$USERR5
 40
0.0
  9
$WORLDVIEW
 70
     1
  9
$SHADEDGE
 70
     3
  9
$SHADEDIF
 70
    70
  9
$TILEMODE
 70
     1
  9
$MAXACTVP
 70
    48
  9
$PINSBASE
 10
0.0
 20
0.0
 30
0.0
  9
$PLIMCHECK
 70
     0
  9
$PEXTMIN
 10
1.1227499931816
 20
0.7804166500962629
 30
0.0
  9
$PEXTMAX
 10
10.10474993863443
 20
7.023749850866361
 30
0.0
  9
$PLIMMIN
 10
-0.2312499519408218
 20
-0.2312499894870548
  9
$PLIMMAX
 10
11.45874984621061
 20
8.035416452903447
  9
$UNITMODE
 70
     0
  9
$VISRETAIN
 70
     1
  9
$PLINEGEN
 70
     0
  9
$PSLTSCALE
 70
     1
  9
$TREEDEPTH
 70
  3020
  9
$CMLSTYLE
  2
STANDARD
  9
$CMLJUST
 70
     0
  9
$CMLSCALE
 40
1.0
  9
$PROXYGRAPHICS
 70
     1
  9
$MEASUREMENT
 70
     0
  9
$CELWEIGHT
370
    -1
  9
$ENDCAPS
280
     0
  9
$JOINSTYLE
280
     0
  9
$LWDISPLAY
290
     0
  9
$INSUNITS
 70
     0
  9
$HYPERLINKBASE
  1

  9
$STYLESHEET
  1
MONOCHROME.CTB
  9
$XEDIT
290
     1
  9
$CEPSNTYPE
380
     0
  9
$PSTYLEMODE
290
     1
  9
$FINGERPRINTGUID
  2

  9
$VERSIONGUID
  2
{70FAA9B9-459F-4976-8F8E-E2BF60347A9B}
  9
$EXTNAMES
290
     1
  9
$PSVPSCALE
 40
0.0
  9
$OLESTARTUP
290
     0
  0
ENDSEC
  0
SECTION
  2
CLASSES
  0
CLASS
  1
ACDBDICTIONARYWDFLT
  2
AcDbDictionaryWithDefault
  3
ObjectDBX Classes
 90
        0
280
     0
281
     0
  0
CLASS
  1
ACDBPLACEHOLDER
  2
AcDbPlaceHolder
  3
ObjectDBX Classes
 90
        0
280
     0
281
     0
  0
CLASS
  1
LAYOUT
  2
AcDbLayout
  3
ObjectDBX Classes
 90
        0
280
     0
281
     0
  0
CLASS
  1
DICTIONARYVAR
  2
AcDbDictionaryVar
  3
ObjectDBX Classes
 90
        0
280
     0
281
     0
  0
CLASS
  1
TABLESTYLE
  2
AcDbTableStyle
  3
ObjectDBX Classes
 90
     4095
280
     0
281
     0
  0
CLASS
  1
SORTENTSTABLE
  2
AcDbSortentsTable
  3
ObjectDBX Classes
 90
        0
280
     0
281
     0
  0
CLASS
  1
MATERIAL
  2
AcDbMaterial
  3
ObjectDBX Classes
 90
     1153
280
     0
281
     0
  0
CLASS
  1
VISUALSTYLE
  2
AcDbVisualStyle
  3
ObjectDBX Classes
 90
     4095
280
     0
281
     0
  0
CLASS
  1
SCALE
  2
AcDbScale
  3
ObjectDBX Classes
 90
     1153
280
     0
281
     0
  0
CLASS
  1
MLEADERSTYLE
  2
AcDbMLeaderStyle
  3
ACDB_MLEADERSTYLE_CLASS
 90
     4095
280
     0
281
     0
  0
CLASS
  1
CELLSTYLEMAP
  2
AcDbCellStyleMap
  3
ObjectDBX Classes
 90
     1152
280
     0
281
     0
  0
CLASS
  1
EXACXREFPANELOBJECT
  2
ExAcXREFPanelObject
  3
EXAC_ESW
 90
    33793
280
     0
281
     0
  0
CLASS
  1
NPOCOLLECTION
  2
AcDbImpNonPersistentObjectsCollection
  3
ObjectDBX Classes
 90
    33921
280
     0
281
     0
  0
ENDSEC
  0
SECTION
  2
TABLES
  0
TABLE
  2
VPORT
  5
8
102
{ACAD_XDICTIONARY
360
9399
102
}
330
0
100
AcDbSymbolTable
 70
     1
  0
VPORT
  5
84B2
330
8
100
AcDbSymbolTableRecord
100
AcDbViewportTableRecord
  2
*Active
 70
     0
 10
0.0
 20
0.0
 11
1.0
 21
1.0
 12
89.75746336286125
 22
-12.44854269151176
 13
0.0
 23
0.0
 14
1.0
 24
1.0
 15
10.0
 25
10.0
 16
0.0
 26
0.0
 36
1.0
 17
0.0
 27
0.0
 37
0.0
 40
679.3645672981988
 41
1.355208333333333
 42
50.0
 43
0.0
 44
0.0
 50
0.0
 51
0.0
 71
     0
 72
   100
 73
     1
 74
     1
 75
     1
 76
     1
 77
     0
 78
     0
281
     0
 65
     1
110
0.0
120
0.0
130
0.0
111
1.0
121
0.0
131
0.0
112
0.0
122
1.0
132
0.0
 79
     0
146
0.0
  0
ENDTAB
  0
TABLE
  2
LTYPE
  5
5
330
0
100
AcDbSymbolTable
 70
     9
  0
LTYPE
  5
13
330
5
100
AcDbSymbolTableRecord
100
AcDbLinetypeTableRecord
  2
BYBLOCK
 70
     0
  3

 72
    65
 73
     0
 40
0.0
  0
LTYPE
  5
14
330
5
100
AcDbSymbolTableRecord
100
AcDbLinetypeTableRecord
  2
BYLAYER
 70
     0
  3

 72
    65
 73
     0
 40
0.0
  0
LTYPE
  5
15
330
5
100
AcDbSymbolTableRecord
100
AcDbLinetypeTableRecord
  2
CONTINUOUS
 70
     0
  3
Solid line
 72
    65
 73
     0
 40
0.0
  0
LTYPE
  5
22
330
5
100
AcDbSymbolTableRecord
100
AcDbLinetypeTableRecord
  2
CONTINOUS
 70
     0
  3
Solid line
 72
    65
 73
     0
 40
0.0
  0
LTYPE
  5
23
330
5
100
AcDbSymbolTableRecord
100
AcDbLinetypeTableRecord
  2
DASHED
 70
     0
  3
__ __ __ __ __ __ __ __ __ __ __ __ __ __ __
 72
    65
 73
     2
 40
0.75
 49
0.5
 74
     0
 49
-0.25
 74
     0
  0
LTYPE
  5
24
330
5
100
AcDbSymbolTableRecord
100
AcDbLinetypeTableRecord
  2
DASHDOT
 70
     0
  3
__ . __ . __ . __ . __ . __ . __ . __ . __ . __
 72
    65
 73
     4
 40
1.0
 49
0.5
 74
     0
 49
-0.25
 74
     0
 49
0.0
 74
     0
 49
-0.25
 74
     0
  0
LTYPE
  5
4C47
330
5
100
AcDbSymbolTableRecord
100
AcDbLinetypeTableRecord
  2
DIVIDE
 70
     0
  3
Divide ____ . . ____ . . ____ . . ____ . . ____
 72
    65
 73
     6
 40
1.25
 49
0.5
 74
     0
 49
-0.25
 74
     0
 49
0.0
 74
     0
 49
-0.25
 74
     0
 49
0.0
 74
     0
 49
-0.25
 74
     0
  0
LTYPE
  5
638E
330
5
100
AcDbSymbolTableRecord
100
AcDbLinetypeTableRecord
  2
D43
 70
     0
  3
IGESIN-LineFont-D43
 72
    65
 73
     6
 40
11.3
 49
8.0
 74
     0
 49
-0.6
 74
     0
 49
0.75
 74
     0
 49
-0.6
 74
     0
 49
0.75
 74
     0
 49
-0.6
 74
     0
  0
LTYPE
  5
638F
330
5
100
AcDbSymbolTableRecord
100
AcDbLinetypeTableRecord
  2
D417
 70
     0
  3
IGESIN-LineFont-D417
 72
    65
 73
     2
 40
1.35
 49
0.75
 74
     0
 49
-0.6
 74
     0
  0
LTYPE
  5
8B58
330
5
100
AcDbSymbolTableRecord
100
AcDbLinetypeTableRecord
  2
D111
 70
     0
  3
IGESIN-LineFont-D111
 72
    65
 73
     6
 40
11.3
 49
8.0
 74
     0
 49
-0.6
 74
     0
 49
0.75
 74
     0
 49
-0.6
 74
     0
 49
0.75
 74
     0
 49
-0.6
 74
     0
  0
LTYPE
  5
8B59
330
5
100
AcDbSymbolTableRecord
100
AcDbLinetypeTableRecord
  2
D1877
 70
     0
  3
IGESIN-LineFont-D1877
 72
    65
 73
     4
 40
9.449999999999999
 49
7.5
 74
     0
 49
-0.6
 74
     0
 49
0.75
 74
     0
 49
-0.6
 74
     0
  0
ENDTAB
  0
TABLE
  2
LAYER
  5
2
102
{ACAD_XDICTIONARY
360
8498
102
}
330
0
100
AcDbSymbolTable
 70
    22
  0
LAYER
  5
10
102
{ACAD_XDICTIONARY
360
90A6
102
}
330
2
100
AcDbSymbolTableRecord
100
AcDbLayerTableRecord
  2
0
 70
     0
 62
     7
  6
CONTINOUS
370
    -3
390
F
  0
LAYER
  5
2F
102
{ACAD_XDICTIONARY
360
90A8
102
}
330
2
100
AcDbSymbolTableRecord
100
AcDbLayerTableRecord
  2
10
 70
     0
 62
     4
  6
CONTINOUS
370
    -3
390
F
  0
LAYER
  5
31
102
{ACAD_XDICTIONARY
360
90AA
102
}
330
2
100
AcDbSymbolTableRecord
100
AcDbLayerTableRecord
  2
12
 70
     0
 62
     3
  6
CONTINOUS
370
    -3
390
F
  0
LAYER
  5
35
102
{ACAD_XDICTIONARY
360
90AC
102
}
330
2
100
AcDbSymbolTableRecord
100
AcDbLayerTableRecord
  2
16
 70
     0
 62
     6
  6
DASHDOT
370
    -3
390
F
  0
LAYER
  5
38
102
{ACAD_XDICTIONARY
360
90AE
102
}
330
2
100
AcDbSymbolTableRecord
100
AcDbLayerTableRecord
  2
19
 70
     0
 62
     7
  6
CONTINOUS
370
    -3
390
F
  0
LAYER
  5
3C
102
{ACAD_XDICTIONARY
360
90B0
102
}
330
2
100
AcDbSymbolTableRecord
100
AcDbLayerTableRecord
  2
11
 70
     0
 62
     1
  6
CONTINOUS
370
    -3
390
F
  0
LAYER
  5
3D
102
{ACAD_XDICTIONARY
360
90B2
102
}
330
2
100
AcDbSymbolTableRecord
100
AcDbLayerTableRecord
  2
24
 70
     0
 62
     2
  6
CONTINOUS
370
    -3
390
F
  0
LAYER
  5
3A2
102
{ACAD_XDICTIONARY
360
90B4
102
}
330
2
100
AcDbSymbolTableRecord
100
AcDbLayerTableRecord
  2
30
 70
     0
 62
     9
  6
CONTINUOUS
370
    -3
390
F
  0
LAYER
  5
3A4
330
2
100
AcDbSymbolTableRecord
100
AcDbLayerTableRecord
  2
DEFPOINTS
 70
     0
 62
     7
  6
CONTINUOUS
290
     0
370
    -3
390
F
  0
LAYER
  5
3BBA
102
{ACAD_XDICTIONARY
360
90B6
102
}
330
2
100
AcDbSymbolTableRecord
100
AcDbLayerTableRecord
  2
18
 70
     0
 62
     5
  6
DIVIDE
370
    -3
390
F
  0
LAYER
  5
5116
102
{ACAD_XDICTIONARY
360
90B8
102
}
330
2
100
AcDbSymbolTableRecord
100
AcDbLayerTableRecord
  2
1
 70
     0
 62
     7
  6
CONTINUOUS
370
    -3
390
F
  0
LAYER
  5
5117
102
{ACAD_XDICTIONARY
360
90BA
102
}
330
2
100
AcDbSymbolTableRecord
100
AcDbLayerTableRecord
  2
TOP
 70
     0
 62
     7
  6
CONTINUOUS
370
    -3
390
F
  0
LAYER
  5
5C47
102
{ACAD_XDICTIONARY
360
90BC
102
}
330
2
100
AcDbSymbolTableRecord
100
AcDbLayerTableRecord
  2
17
 70
     0
 62
     2
  6
DASHDOT
370
    -3
390
F
  0
LAYER
  5
6390
102
{ACAD_XDICTIONARY
360
90BE
102
}
330
2
100
AcDbSymbolTableRecord
100
AcDbLayerTableRecord
  2
L225_
 70
     0
 62
     7
  6
CONTINUOUS
370
    -3
390
F
  0
LAYER
  5
6391
102
{ACAD_XDICTIONARY
360
90C0
102
}
330
2
100
AcDbSymbolTableRecord
100
AcDbLayerTableRecord
  2
L150_
 70
     0
 62
     7
  6
CONTINUOUS
370
    -3
390
F
  0
LAYER
  5
6392
102
{ACAD_XDICTIONARY
360
90C2
102
}
330
2
100
AcDbSymbolTableRecord
100
AcDbLayerTableRecord
  2
L0_
 70
     0
 62
     7
  6
CONTINUOUS
370
    -3
390
F
  0
LAYER
  5
6393
102
{ACAD_XDICTIONARY
360
90C4
102
}
330
2
100
AcDbSymbolTableRecord
100
AcDbLayerTableRecord
  2
L170_
 70
     0
 62
     7
  6
CONTINUOUS
370
    -3
390
F
  0
LAYER
  5
6394
102
{ACAD_XDICTIONARY
360
90C6
102
}
330
2
100
AcDbSymbolTableRecord
100
AcDbLayerTableRecord
  2
L10_
 70
     0
 62
     7
  6
CONTINUOUS
370
    -3
390
F
  0
LAYER
  5
6395
102
{ACAD_XDICTIONARY
360
90C8
102
}
330
2
100
AcDbSymbolTableRecord
100
AcDbLayerTableRecord
  2
L230_
 70
     0
 62
     7
  6
CONTINUOUS
370
    -3
390
F
  0
LAYER
  5
6396
102
{ACAD_XDICTIONARY
360
90CA
102
}
330
2
100
AcDbSymbolTableRecord
100
AcDbLayerTableRecord
  2
L210_
 70
     0
 62
     7
  6
CONTINUOUS
370
    -3
390
F
  0
LAYER
  5
7247
102
{ACAD_XDICTIONARY
360
90CC
102
}
330
2
100
AcDbSymbolTableRecord
100
AcDbLayerTableRecord
  2
21
 70
     0
 62
     7
  6
CONTINUOUS
370
    -3
390
F
  0
LAYER
  5
7248
102
{ACAD_XDICTIONARY
360
90CE
102
}
330
2
100
AcDbSymbolTableRecord
100
AcDbLayerTableRecord
  2
22
 70
     0
 62
     3
  6
CONTINUOUS
370
    -3
390
F
  0
ENDTAB
  0
TABLE
  2
STYLE
  5
3
330
0
100
AcDbSymbolTable
 70
     6
  0
STYLE
  5
11
330
3
100
AcDbSymbolTableRecord
100
AcDbTextStyleTableRecord
  2
STANDARD
 70
     0
 40
0.0
 41
1.0
 50
0.0
 71
     0
 42
2.0
  3
txt.shx
  4
bigfont.shx
  0
STYLE
  5
42
330
3
100
AcDbSymbolTableRecord
100
AcDbTextStyleTableRecord
  2
STANDARD1
 70
     0
 40
0.0
 41
1.0
 50
0.0
 71
     0
 42
5.0
  3
MONOTXT
  4
BIGFONT
  0
STYLE
  5
5016
330
3
100
AcDbSymbolTableRecord
100
AcDbTextStyleTableRecord
  2
UGMTXT
 70
     0
 40
0.0
 41
1.0
 50
0.0
 71
     0
 42
0.2
  3
ugmtxt
  4
bigfont
  0
STYLE
  5
6397
330
3
100
AcDbSymbolTableRecord
100
AcDbTextStyleTableRecord
  2
SYMBOL3
 70
     0
 40
0.0
 41
1.0
 50
0.0
 71
     0
 42
0.2
  3
iges1003
  4

  0
STYLE
  5
6398
330
3
100
AcDbSymbolTableRecord
100
AcDbTextStyleTableRecord
  2
LEROY
 70
     0
 40
0.0
 41
1.0
 50
0.0
 71
     0
 42
0.2
  3
txt
  4

  0
STYLE
  5
6399
330
3
100
AcDbSymbolTableRecord
100
AcDbTextStyleTableRecord
  2
GOTHICLL
 70
     0
 40
0.0
 41
1.0
 50
0.0
 71
     0
 42
0.2
  3
txt
  4

  0
ENDTAB
  0
TABLE
  2
VIEW
  5
6
330
0
100
AcDbSymbolTable
 70
     3
  0
VIEW
  5
230C
330
6
100
AcDbSymbolTableRecord
100
AcDbViewTableRecord
  2
OLE1
 70
     0
 40
148.912488
 10
429.497628
 20
2.560627
 41
103.145806
 11
0.0
 21
0.0
 31
1.0
 12
0.0
 22
0.0
 32
0.0
 42
50.0
 43
0.0
 44
0.0
 50
0.0
 71
     0
281
     0
 72
     0
  0
VIEW
  5
230E
330
6
100
AcDbSymbolTableRecord
100
AcDbViewTableRecord
  2
OLE2
 70
     0
 40
170.778692
 10
322.66497
 20
-5.978304
 41
102.467215
 11
0.0
 21
0.0
 31
1.0
 12
0.0
 22
0.0
 32
0.0
 42
50.0
 43
0.0
 44
0.0
 50
0.0
 71
     0
281
     0
 72
     0
  0
VIEW
  5
23AA
330
6
100
AcDbSymbolTableRecord
100
AcDbViewTableRecord
  2
OLE3
 70
     0
 40
591.7897389999998
 10
84.79698199999999
 20
-46.09335999999998
 41
388.792096
 11
0.0
 21
0.0
 31
1.0
 12
0.0
 22
0.0
 32
0.0
 42
50.0
 43
0.0
 44
0.0
 50
0.0
 71
     0
281
     0
 72
     0
  0
ENDTAB
  0
TABLE
  2
UCS
  5
7
330
0
100
AcDbSymbolTable
 70
     0
  0
ENDTAB
  0
TABLE
  2
APPID
  5
9
330
0
100
AcDbSymbolTable
 70
     5
  0
APPID
  5
12
330
9
100
AcDbSymbolTableRecord
100
AcDbRegAppTableRecord
  2
ACAD
 70
     0
  0
APPID
  5
ECD
330
9
100
AcDbSymbolTableRecord
100
AcDbRegAppTableRecord
  2
CONTENTBLOCKICON
 70
     0
  0
APPID
  5
6919
330
9
100
AcDbSymbolTableRecord
100
AcDbRegAppTableRecord
  2
ACAD_EXEMPT_FROM_CAD_STANDARDS
 70
     0
  0
APPID
  5
93D2
330
9
100
AcDbSymbolTableRecord
100
AcDbRegAppTableRecord
  2
ACAD_MLEADERVER
 70
     0
  0
APPID
  5
94D7
330
9
100
AcDbSymbolTableRecord
100
AcDbRegAppTableRecord
  2
ACAD_PSEXT
 70
     0
  0
ENDTAB
  0
TABLE
  2
DIMSTYLE
  5
A
330
0
100
AcDbSymbolTable
 70
     1
100
AcDbDimStyleTable
 71
     1
340
175
  0
DIMSTYLE
105
175
102
{ACAD_REACTORS
330
6DBF
330
8060
330
873F
330
8740
330
8742
330
8743
330
8745
330
8747
330
8748
330
8749
330
874A
330
874D
330
87DE
330
87DF
330
87E0
330
9128
330
966E
330
966F
330
9670
330
9671
330
986A
330
986B
102
}
330
A
100
AcDbSymbolTableRecord
100
AcDbDimStyleTableRecord
  2
STANDARD
 70
     0
 41
2.0
 42
1.0
 43
0.5
 44
0.5
 73
     0
 77
     3
 78
    12
140
4.0
147
1.0
271
     1
272
     1
340
11
341
3B2
342
3B2
  0
ENDTAB
  0
TABLE
  2
BLOCK_RECORD
  5
1
330
0
100
AcDbSymbolTable
 70
    56
  0
BLOCK_RECORD
  5
1E
102
{ACAD_XDICTIONARY
360
178
102
}
330
1
100
AcDbSymbolTableRecord
100
AcDbBlockTableRecord
  2
*MODEL_SPACE
340
6262
  0
BLOCK_RECORD
  5
1A
102
{ACAD_XDICTIONARY
360
17A
102
}
330
1
100
AcDbSymbolTableRecord
100
AcDbBlockTableRecord
  2
*PAPER_SPACE
340
6263
  0
BLOCK_RECORD
  5
3B2
330
1
100
AcDbSymbolTableRecord
100
AcDbBlockTableRecord
  2
_OPEN
340
0
102
{BLKREFS
331
8082
331
8083
331
9067
331
9068
331
9070
331
9071
331
9079
331
907A
331
908C
331
908D
331
9096
331
9097
331
911F
331
9120
331
9145
331
9146
331
918F
331
9190
331
91A5
331
91A6
331
91AE
331
91AF
331
91B7
331
91B8
331
91DC
331
91DD
331
91E5
331
91E6
331
91EE
331
91EF
331
938F
331
9390
331
9639
331
963A
331
9645
331
9646
331
9651
331
9652
331
965D
331
965E
331
96CD
331
96CE
331
96D6
331
96D7
331
96DF
331
96E0
331
96E8
331
96E9
331
978B
331
978C
331
9797
331
9798
331
9887
331
9888
331
9890
331
9891
102
}
  0
BLOCK_RECORD
  5
635C
330
1
100
AcDbSymbolTableRecord
100
AcDbBlockTableRecord
  2
B3337
340
0
102
{BLKREFS
331
6370
102
}
  0
BLOCK_RECORD
  5
6361
330
1
100
AcDbSymbolTableRecord
100
AcDbBlockTableRecord
  2
*D2
340
0
  0
BLOCK_RECORD
  5
636D
330
1
100
AcDbSymbolTableRecord
100
AcDbBlockTableRecord
  2
B3347
340
0
  0
BLOCK_RECORD
  5
6372
330
1
100
AcDbSymbolTableRecord
100
AcDbBlockTableRecord
  2
B3349
340
0
102
{BLKREFS
331
6387
102
}
  0
BLOCK_RECORD
  5
6377
330
1
100
AcDbSymbolTableRecord
100
AcDbBlockTableRecord
  2
*D5
340
0
  0
BLOCK_RECORD
  5
6384
330
1
100
AcDbSymbolTableRecord
100
AcDbBlockTableRecord
  2
B3359
340
0
  0
BLOCK_RECORD
  5
6389
330
1
100
AcDbSymbolTableRecord
100
AcDbBlockTableRecord
  2
B3469
340
0
  0
BLOCK_RECORD
  5
6DC0
330
1
100
AcDbSymbolTableRecord
100
AcDbBlockTableRecord
  2
*D8
340
0
  0
BLOCK_RECORD
  5
7666
330
1
100
AcDbSymbolTableRecord
100
AcDbBlockTableRecord
  2
B2223
340
0
  0
BLOCK_RECORD
  5
7683
330
1
100
AcDbSymbolTableRecord
100
AcDbBlockTableRecord
  2
B2991
340
0
  0
BLOCK_RECORD
  5
76A0
330
1
100
AcDbSymbolTableRecord
100
AcDbBlockTableRecord
  2
B3373
340
0
  0
BLOCK_RECORD
  5
76A5
330
1
100
AcDbSymbolTableRecord
100
AcDbBlockTableRecord
  2
B3385
340
0
  0
BLOCK_RECORD
  5
8061
330
1
100
AcDbSymbolTableRecord
100
AcDbBlockTableRecord
  2
*D13
340
0
  0
BLOCK_RECORD
  5
87F1
330
1
100
AcDbSymbolTableRecord
100
AcDbBlockTableRecord
  2
*D14
340
0
  0
BLOCK_RECORD
  5
87FD
330
1
100
AcDbSymbolTableRecord
100
AcDbBlockTableRecord
  2
*D15
340
0
  0
BLOCK_RECORD
  5
8809
330
1
100
AcDbSymbolTableRecord
100
AcDbBlockTableRecord
  2
*D16
340
0
  0
BLOCK_RECORD
  5
8815
330
1
100
AcDbSymbolTableRecord
100
AcDbBlockTableRecord
  2
*D17
340
0
  0
BLOCK_RECORD
  5
8821
330
1
100
AcDbSymbolTableRecord
100
AcDbBlockTableRecord
  2
*D18
340
0
  0
BLOCK_RECORD
  5
883B
330
1
100
AcDbSymbolTableRecord
100
AcDbBlockTableRecord
  2
*D19
340
0
  0
BLOCK_RECORD
  5
8849
330
1
100
AcDbSymbolTableRecord
100
AcDbBlockTableRecord
  2
*D20
340
0
  0
BLOCK_RECORD
  5
8855
330
1
100
AcDbSymbolTableRecord
100
AcDbBlockTableRecord
  2
*D21
340
0
  0
BLOCK_RECORD
  5
8861
330
1
100
AcDbSymbolTableRecord
100
AcDbBlockTableRecord
  2
*D22
340
0
  0
BLOCK_RECORD
  5
8886
330
1
100
AcDbSymbolTableRecord
100
AcDbBlockTableRecord
  2
*D23
340
0
  0
BLOCK_RECORD
  5
88D8
330
1
100
AcDbSymbolTableRecord
100
AcDbBlockTableRecord
  2
*D24
340
0
  0
BLOCK_RECORD
  5
88E5
330
1
100
AcDbSymbolTableRecord
100
AcDbBlockTableRecord
  2
*D25
340
0
  0
BLOCK_RECORD
  5
88F2
330
1
100
AcDbSymbolTableRecord
100
AcDbBlockTableRecord
  2
*D26
340
0
  0
BLOCK_RECORD
  5
8AC6
330
1
100
AcDbSymbolTableRecord
100
AcDbBlockTableRecord
  2
B3355
340
0
  0
BLOCK_RECORD
  5
8B1C
330
1
100
AcDbSymbolTableRecord
100
AcDbBlockTableRecord
  2
B3899
340
0
102
{BLKREFS
331
8B23
102
}
  0
BLOCK_RECORD
  5
8B21
330
1
100
AcDbSymbolTableRecord
100
AcDbBlockTableRecord
  2
B3901
340
0
  0
BLOCK_RECORD
  5
8B26
330
1
100
AcDbSymbolTableRecord
100
AcDbBlockTableRecord
  2
B3905
340
0
102
{BLKREFS
331
8B2D
102
}
  0
BLOCK_RECORD
  5
8B2B
330
1
100
AcDbSymbolTableRecord
100
AcDbBlockTableRecord
  2
B3907
340
0
  0
BLOCK_RECORD
  5
8B30
330
1
100
AcDbSymbolTableRecord
100
AcDbBlockTableRecord
  2
B3933
340
0
102
{BLKREFS
331
8B37
102
}
  0
BLOCK_RECORD
  5
8B35
330
1
100
AcDbSymbolTableRecord
100
AcDbBlockTableRecord
  2
B3935
340
0
  0
BLOCK_RECORD
  5
8B3A
330
1
100
AcDbSymbolTableRecord
100
AcDbBlockTableRecord
  2
B3957
340
0
102
{BLKREFS
331
8B41
102
}
  0
BLOCK_RECORD
  5
8B3F
330
1
100
AcDbSymbolTableRecord
100
AcDbBlockTableRecord
  2
B3959
340
0
  0
BLOCK_RECORD
  5
8B44
330
1
100
AcDbSymbolTableRecord
100
AcDbBlockTableRecord
  2
B3963
340
0
102
{BLKREFS
331
8B4B
102
}
  0
BLOCK_RECORD
  5
8B49
330
1
100
AcDbSymbolTableRecord
100
AcDbBlockTableRecord
  2
B3965
340
0
  0
BLOCK_RECORD
  5
8B4E
330
1
100
AcDbSymbolTableRecord
100
AcDbBlockTableRecord
  2
B3987
340
0
102
{BLKREFS
331
8B55
102
}
  0
BLOCK_RECORD
  5
8B53
330
1
100
AcDbSymbolTableRecord
100
AcDbBlockTableRecord
  2
B3989
340
0
  0
BLOCK_RECORD
  5
9129
330
1
100
AcDbSymbolTableRecord
100
AcDbBlockTableRecord
  2
*D40
340
0
  0
BLOCK_RECORD
  5
94E2
102
{ACAD_XDICTIONARY
360
94E5
102
}
330
1
100
AcDbSymbolTableRecord
100
AcDbBlockTableRecord
  2
A$C7B62089D
340
0
  0
BLOCK_RECORD
  5
962C
102
{ACAD_XDICTIONARY
360
9630
102
}
330
1
100
AcDbSymbolTableRecord
100
AcDbBlockTableRecord
  2
A$C07816143
340
0
  0
BLOCK_RECORD
  5
9634
330
1
100
AcDbSymbolTableRecord
100
AcDbBlockTableRecord
  2
*D43
340
0
  0
BLOCK_RECORD
  5
9640
330
1
100
AcDbSymbolTableRecord
100
AcDbBlockTableRecord
  2
*D44
340
0
  0
BLOCK_RECORD
  5
964C
330
1
100
AcDbSymbolTableRecord
100
AcDbBlockTableRecord
  2
*D45
340
0
  0
BLOCK_RECORD
  5
9658
330
1
100
AcDbSymbolTableRecord
100
AcDbBlockTableRecord
  2
*D46
340
0
  0
BLOCK_RECORD
  5
9672
330
1
100
AcDbSymbolTableRecord
100
AcDbBlockTableRecord
  2
*D47
340
0
  0
BLOCK_RECORD
  5
967E
330
1
100
AcDbSymbolTableRecord
100
AcDbBlockTableRecord
  2
*D48
340
0
  0
BLOCK_RECORD
  5
968A
330
1
100
AcDbSymbolTableRecord
100
AcDbBlockTableRecord
  2
*D49
340
0
  0
BLOCK_RECORD
  5
9696
330
1
100
AcDbSymbolTableRecord
100
AcDbBlockTableRecord
  2
*D50
340
0
  0
BLOCK_RECORD
  5
9786
330
1
100
AcDbSymbolTableRecord
100
AcDbBlockTableRecord
  2
*D51
340
0
  0
BLOCK_RECORD
  5
9792
330
1
100
AcDbSymbolTableRecord
100
AcDbBlockTableRecord
  2
*D52
340
0
  0
BLOCK_RECORD
  5
986C
330
1
100
AcDbSymbolTableRecord
100
AcDbBlockTableRecord
  2
*D54
340
0
  0
BLOCK_RECORD
  5
9878
330
1
100
AcDbSymbolTableRecord
100
AcDbBlockTableRecord
  2
*D55
340
0
  0
ENDTAB
  0
ENDSEC
  0
SECTION
  2
BLOCKS
  0
BLOCK
  5
1F
330
1E
100
AcDbEntity
  8
0
100
AcDbBlockBegin
  2
*MODEL_SPACE
 70
     0
 10
0.0
 20
0.0
 30
0.0
  3
*MODEL_SPACE
  1

  0
ENDBLK
  5
20
330
1E
100
AcDbEntity
  8
0
100
AcDbBlockEnd
  0
BLOCK
  5
1B
330
1A
100
AcDbEntity
 67
     1
  8
0
100
AcDbBlockBegin
  2
*PAPER_SPACE
 70
     0
 10
0.0
 20
0.0
 30
0.0
  3
*PAPER_SPACE
  1

  0
ENDBLK
  5
1C
330
1A
100
AcDbEntity
 67
     1
  8
0
100
AcDbBlockEnd
  0
BLOCK
  5
3B6
330
3B2
100
AcDbEntity
  8
0
100
AcDbBlockBegin
  2
_OPEN
 70
     0
 10
0.0
 20
0.0
 30
0.0
  3
_OPEN
  1

  0
LINE
  5
3B3
330
3B2
100
AcDbEntity
  8
30
  6
Continuous
 62
     0
100
AcDbLine
 10
-1.0
 20
0.166667
 30
0.0
 11
0.0
 21
0.0
 31
0.0
  0
LINE
  5
3B4
330
3B2
100
AcDbEntity
  8
30
  6
Continuous
 62
     0
100
AcDbLine
 10
-1.0
 20
-0.166667
 30
0.0
 11
0.0
 21
0.0
 31
0.0
  0
LINE
  5
3B5
330
3B2
100
AcDbEntity
  8
30
  6
Continuous
 62
     0
100
AcDbLine
 10
0.0
 20
0.0
 30
0.0
 11
-1.0
 21
0.0
 31
0.0
  0
ENDBLK
  5
3B7
330
3B2
100
AcDbEntity
  8
0
100
AcDbBlockEnd
  0
BLOCK
  5
635D
330
635C
100
AcDbEntity
  8
L210_
  6
Continuous
 62
     4
100
AcDbBlockBegin
  2
B3337
 70
     0
 10
0.0
 20
0.0
 30
0.0
  3
B3337
  1

  0
TEXT
  5
635E
330
635C
100
AcDbEntity
  8
L210_
  6
Continuous
 62
     4
100
AcDbText
 10
862.0242310000001
 20
1197.5
 30
0.0
 40
8.0
  1
12.5
 41
1.072916671874992
 72
     5
 11
884.91312
 21
1197.5
 31
0.0
100
AcDbText
 73
     2
  0
TEXT
  5
635F
330
635C
100
AcDbEntity
  8
L210_
  6
Continuous
 62
     4
100
AcDbText
 10
887.2242319999996
 20
1197.5
 30
0.0
 40
8.0
  1
(MAX.)
 41
1.025641009615395
 72
     5
 11
922.7797870000001
 21
1197.5
 31
0.0
100
AcDbText
 73
     2
  0
ENDBLK
  5
6360
330
635C
100
AcDbEntity
  8
L210_
  6
Continuous
 62
     4
100
AcDbBlockEnd
  0
BLOCK
  5
6362
330
6361
100
AcDbEntity
  8
0
100
AcDbBlockBegin
  2
*D2
 70
     1
 10
0.0
 20
0.0
 30
0.0
  3
*D2
  1

  0
LINE
  5
6363
330
6361
100
AcDbEntity
  8
0
  6
ByBlock
 62
     4
100
AcDbLine
 10
843.75
 20
1240.0
 30
0.0
 11
843.75
 21
1186.0
 31
0.0
  0
LINE
  5
6364
330
6361
100
AcDbEntity
  8
0
  6
ByBlock
 62
     4
100
AcDbLine
 10
856.25
 20
1240.0
 30
0.0
 11
856.25
 21
1186.0
 31
0.0
  0
LINE
  5
6365
330
6361
100
AcDbEntity
  8
0
  6
ByBlock
 62
     4
100
AcDbLine
 10
836.25
 20
1192.5
 30
0.0
 11
828.7499999999999
 21
1192.5
 31
0.0
  0
LINE
  5
6366
330
6361
100
AcDbEntity
  8
0
  6
ByBlock
 62
     4
100
AcDbLine
 10
863.7500000000001
 20
1192.5
 30
0.0
 11
871.25
 21
1192.5
 31
0.0
  0
SOLID
  5
6367
330
6361
100
AcDbEntity
  8
0
  6
ByBlock
 62
     4
100
AcDbTrace
 10
836.25
 20
1193.75
 30
0.0
 11
836.25
 21
1191.25
 31
0.0
 12
843.75
 22
1192.5
 32
0.0
 13
843.75
 23
1192.5
 33
0.0
  0
SOLID
  5
6368
330
6361
100
AcDbEntity
  8
0
  6
ByBlock
 62
     4
100
AcDbTrace
 10
863.7500000000001
 20
1193.75
 30
0.0
 11
863.7500000000001
 21
1191.25
 31
0.0
 12
856.25
 22
1192.5
 32
0.0
 13
856.25
 23
1192.5
 33
0.0
  0
POINT
  5
6369
330
6361
100
AcDbEntity
  8
DEFPOINTS
  6
ByBlock
 62
     0
100
AcDbPoint
 10
843.75
 20
1244.8
 30
0.0
  0
POINT
  5
636A
330
6361
100
AcDbEntity
  8
DEFPOINTS
  6
ByBlock
 62
     0
100
AcDbPoint
 10
856.25
 20
1244.8
 30
0.0
  0
POINT
  5
636B
330
6361
100
AcDbEntity
  8
DEFPOINTS
  6
ByBlock
 62
     0
100
AcDbPoint
 10
856.25
 20
1192.5
 30
0.0
  0
ENDBLK
  5
636C
330
6361
100
AcDbEntity
  8
0
100
AcDbBlockEnd
  0
BLOCK
  5
636E
330
636D
100
AcDbEntity
  8
L210_
100
AcDbBlockBegin
  2
B3347
 70
     0
 10
0.0
 20
0.0
 30
0.0
  3
B3347
  1

  0
DIMENSION
  5
636F
330
636D
100
AcDbEntity
  8
L210_
100
AcDbDimension
  2
*D2
 10
856.25
 20
1192.5
 30
0.0
 11
624.5930819999998
 21
1066.869629
 31
0.0
  1
 
 71
     5
 42
-1.0
100
AcDbAlignedDimension
 13
843.75
 23
1244.8
 33
0.0
 14
856.25
 24
1244.8
 34
0.0
100
AcDbRotatedDimension
  0
INSERT
  5
6370
330
636D
100
AcDbEntity
  8
L210_
  6
Continuous
 62
     4
100
AcDbBlockReference
  2
B3337
 10
0.0
 20
0.0
 30
0.0
  0
ENDBLK
  5
6371
330
636D
100
AcDbEntity
  8
L210_
100
AcDbBlockEnd
  0
BLOCK
  5
6373
330
6372
100
AcDbEntity
  8
L210_
  6
Continuous
 62
     4
100
AcDbBlockBegin
  2
B3349
 70
     0
 10
0.0
 20
0.0
 30
0.0
  3
B3349
  1

  0
TEXT
  5
6374
330
6372
100
AcDbEntity
  8
L210_
  6
Continuous
 62
     4
100
AcDbText
 10
876.2500000000001
 20
1256.442505
 30
0.0
 40
8.0
  1
8
 50
90.00000831713006
 41
1.291666687500025
 72
     5
 11
876.249999
 21
1263.331394
 31
0.0
100
AcDbText
 73
     2
  0
TEXT
  5
6375
330
6372
100
AcDbEntity
  8
L210_
  6
Continuous
 62
     4
100
AcDbText
 10
876.249999
 20
1265.642504
 30
0.0
 40
8.0
  1
(MAX.)
 50
90.00000161144397
 41
1.025641038461539
 72
     5
 11
876.2499979999999
 21
1301.19806
 31
0.0
100
AcDbText
 73
     2
  0
ENDBLK
  5
6376
330
6372
100
AcDbEntity
  8
L210_
  6
Continuous
 62
     4
100
AcDbBlockEnd
  0
BLOCK
  5
6378
330
6377
100
AcDbEntity
  8
0
100
AcDbBlockBegin
  2
*D5
 70
     1
 10
0.0
 20
0.0
 30
0.0
  3
*D5
  1

  0
LINE
  5
6379
330
6377
100
AcDbEntity
  8
0
  6
ByBlock
 62
     4
100
AcDbLine
 10
858.75
 20
1242.5
 30
0.0
 11
887.7499999999999
 21
1242.5
 31
0.0
  0
LINE
  5
637A
330
6377
100
AcDbEntity
  8
0
  6
ByBlock
 62
     4
100
AcDbLine
 10
885.25
 20
1250.5
 30
0.0
 11
874.75
 21
1250.5
 31
0.0
  0
LINE
  5
637B
330
6377
100
AcDbEntity
  8
0
  6
ByBlock
 62
     4
100
AcDbLine
 10
881.25
 20
1235.0
 30
0.0
 11
881.25
 21
1227.5
 31
0.0
  0
LINE
  5
637C
330
6377
100
AcDbEntity
  8
0
  6
ByBlock
 62
     4
100
AcDbLine
 10
881.25
 20
1258.0
 30
0.0
 11
881.25
 21
1265.5
 31
0.0
  0
LINE
  5
637D
330
6377
100
AcDbEntity
  8
0
  6
ByBlock
 62
     4
100
AcDbLine
 10
881.25
 20
1265.5
 30
0.0
 11
888.7500000000001
 21
1265.5
 31
0.0
  0
SOLID
  5
637E
330
6377
100
AcDbEntity
  8
0
  6
ByBlock
 62
     4
100
AcDbTrace
 10
880.0
 20
1235.0
 30
0.0
 11
882.5000000000001
 21
1235.0
 31
0.0
 12
881.25
 22
1242.5
 32
0.0
 13
881.25
 23
1242.5
 33
0.0
  0
SOLID
  5
637F
330
6377
100
AcDbEntity
  8
0
  6
ByBlock
 62
     4
100
AcDbTrace
 10
880.0
 20
1258.0
 30
0.0
 11
882.5000000000001
 21
1258.0
 31
0.0
 12
881.25
 22
1250.5
 32
0.0
 13
881.25
 23
1250.5
 33
0.0
  0
POINT
  5
6380
330
6377
100
AcDbEntity
  8
DEFPOINTS
  6
ByBlock
 62
     0
100
AcDbPoint
 10
853.95
 20
1242.5
 30
0.0
  0
POINT
  5
6381
330
6377
100
AcDbEntity
  8
DEFPOINTS
  6
ByBlock
 62
     0
100
AcDbPoint
 10
890.0499999999999
 20
1250.5
 30
0.0
  0
POINT
  5
6382
330
6377
100
AcDbEntity
  8
DEFPOINTS
  6
ByBlock
 62
     0
100
AcDbPoint
 10
881.25
 20
1250.5
 30
0.0
  0
ENDBLK
  5
6383
330
6377
100
AcDbEntity
  8
0
100
AcDbBlockEnd
  0
BLOCK
  5
6385
330
6384
100
AcDbEntity
  8
L210_
100
AcDbBlockBegin
  2
B3359
 70
     0
 10
0.0
 20
0.0
 30
0.0
  3
B3359
  1

  0
DIMENSION
  5
6386
330
6384
100
AcDbEntity
  8
L210_
100
AcDbDimension
  2
*D5
 10
881.25
 20
1250.5
 30
0.0
 11
624.5930819999998
 21
1066.869629
 31
0.0
  1
 
 71
     5
 42
-1.0
100
AcDbAlignedDimension
 13
853.95
 23
1242.5
 33
0.0
 14
890.0499999999999
 24
1250.5
 34
0.0
 50
90.0
100
AcDbRotatedDimension
  0
INSERT
  5
6387
330
6384
100
AcDbEntity
  8
L210_
  6
Continuous
 62
     4
100
AcDbBlockReference
  2
B3349
 10
0.0
 20
0.0
 30
0.0
  0
ENDBLK
  5
6388
330
6384
100
AcDbEntity
  8
L210_
100
AcDbBlockEnd
  0
BLOCK
  5
638A
330
6389
100
AcDbEntity
  8
L210_
  6
Continuous
 62
     4
100
AcDbBlockBegin
  2
B3469
 70
     0
 10
0.0
 20
0.0
 30
0.0
  3
B3469
  1

  0
TEXT
  5
638B
330
6389
100
AcDbEntity
  8
L210_
  6
Continuous
 62
     4
100
AcDbText
 10
874.052612
 20
1222.5
 30
0.0
 40
8.0
  1
n
 41
1.5
 72
     5
 11
882.052612
 21
1222.5
 31
0.0
100
AcDbText
 73
     2
  0
TEXT
  5
638C
330
6389
100
AcDbEntity
  8
L210_
  6
Continuous
 62
     4
100
AcDbText
 10
886.0526119999999
 20
1222.5
 30
0.0
 40
8.0
  1
5.5
 41
1.250000000000007
 72
     5
 11
906.052612
 21
1222.5
 31
0.0
100
AcDbText
 73
     2
  0
ENDBLK
  5
638D
330
6389
100
AcDbEntity
  8
L210_
  6
Continuous
 62
     4
100
AcDbBlockEnd
  0
BLOCK
  5
6DCA
330
6DC0
100
AcDbEntity
  8
0
100
AcDbBlockBegin
  2
*D8
 70
     1
 10
0.0
 20
0.0
 30
0.0
  3
*D8
  1

  0
LINE
  5
911C
330
6DC0
100
AcDbEntity
  8
30
  6
Continuous
 62
     0
370
    -2
100
AcDbLine
 10
28.0
 20
-195.0
 30
0.0
 11
70.50000000000003
 21
-195.0
 31
0.0
  0
LINE
  5
911D
330
6DC0
100
AcDbEntity
  8
30
  6
Continuous
 62
     0
370
    -2
100
AcDbLine
 10
28.0
 20
-305.0
 30
0.0
 11
70.5
 21
-305.0
 31
0.0
  0
LINE
  5
911E
330
6DC0
100
AcDbEntity
  8
30
  6
Continuous
 62
     0
370
    -2
100
AcDbLine
 10
70.00000000000003
 20
-197.0
 30
0.0
 11
70.0
 21
-303.0
 31
0.0
  0
INSERT
  5
911F
330
6DC0
100
AcDbEntity
  8
30
  6
Continuous
 62
     0
370
    -2
100
AcDbBlockReference
  2
_OPEN
 10
70.00000000000003
 20
-195.0
 30
0.0
 41
2.0
 42
2.0
 43
2.0
 50
90.0
  0
INSERT
  5
9120
330
6DC0
100
AcDbEntity
  8
30
  6
Continuous
 62
     0
370
    -2
100
AcDbBlockReference
  2
_OPEN
 10
70.0
 20
-305.0
 30
0.0
 41
2.0
 42
2.0
 43
2.0
 50
270.0
  0
MTEXT
  5
9121
330
6DC0
100
AcDbEntity
  8
30
  6
Continuous
 62
     0
100
AcDbMText
 10
67.00000000000007
 20
-250.0
 30
0.0
 40
4.0
 41
0.0
 71
     5
 72
     1
  1
\A1;110
 11
0.0000000000000001
 21
1.0
 31
0.0
 73
     1
 44
1.0
1001
ACAD
1000
MTEXTBEGIN
1070
    73
1070
     1
1070
    44
1040
1.0
1070
    74
1070
     0
1000
MTEXTEND
  0
POINT
  5
9122
330
6DC0
100
AcDbEntity
  8
DEFPOINTS
  6
Continuous
 62
     0
100
AcDbPoint
 10
27.0
 20
-195.0
 30
0.0
  0
POINT
  5
9123
330
6DC0
100
AcDbEntity
  8
DEFPOINTS
  6
Continuous
 62
     0
100
AcDbPoint
 10
27.0
 20
-305.0
 30
0.0
  0
POINT
  5
9124
330
6DC0
100
AcDbEntity
  8
DEFPOINTS
  6
Continuous
 62
     0
100
AcDbPoint
 10
70.0
 20
-305.0
 30
0.0
  0
ENDBLK
  5
6DCB
330
6DC0
100
AcDbEntity
  8
0
100
AcDbBlockEnd
  0
BLOCK
  5
7667
330
7666
100
AcDbEntity
  8
L230_
  6
Continuous
 62
     6
100
AcDbBlockBegin
  2
B2223
 70
     0
 10
0.0
 20
0.0
 30
0.0
  3
B2223
  1

  0
TEXT
  5
7668
330
7666
100
AcDbEntity
  8
L230_
  6
Continuous
 62
     6
100
AcDbText
 10
892.5813599999999
 20
773.0
 30
0.0
 40
8.0
  1
n
 41
1.5
 72
     5
 11
900.5813599999999
 21
773.0
 31
0.0
100
AcDbText
 73
     2
  0
TEXT
  5
7669
330
7666
100
AcDbEntity
  8
L230_
  6
Continuous
 62
     6
100
AcDbText
 10
904.58136
 20
773.0
 30
0.0
 40
8.0
  1
14
 41
1.058333343749993
  7
LEROY
 72
     5
 11
915.8702489999999
 21
773.0
 31
0.0
100
AcDbText
 73
     2
  0
ENDBLK
  5
766A
330
7666
100
AcDbEntity
  8
L230_
  6
Continuous
 62
     6
100
AcDbBlockEnd
  0
BLOCK
  5
7684
330
7683
100
AcDbEntity
  8
L230_
  6
Continuous
 62
     6
100
AcDbBlockBegin
  2
B2991
 70
     0
 10
0.0
 20
0.0
 30
0.0
  3
B2991
  1

  0
TEXT
  5
7685
330
7683
100
AcDbEntity
  8
L230_
  6
Continuous
 62
     6
100
AcDbText
 10
140.566223
 20
748.0
 30
0.0
 40
8.0
  1
t
 41
0.5999999999999979
  7
GOTHICLL
 72
     5
 11
143.766223
 21
748.0
 31
0.0
100
AcDbText
 73
     2
  0
TEXT
  5
7686
330
7683
100
AcDbEntity
  8
L230_
  6
Continuous
 62
     6
100
AcDbText
 10
146.4328919999999
 20
748.0
 30
0.0
 40
8.0
  1
3.2(max.)
 41
1.074166668750001
  7
LEROY
 72
     5
 11
203.721781
 21
748.0
 31
0.0
100
AcDbText
 73
     2
  0
ENDBLK
  5
7687
330
7683
100
AcDbEntity
  8
L230_
  6
Continuous
 62
     6
100
AcDbBlockEnd
  0
BLOCK
  5
76A1
330
76A0
100
AcDbEntity
  8
L230_
  6
Continuous
 62
     6
100
AcDbBlockBegin
  2
B3373
 70
     0
 10
0.0
 20
0.0
 30
0.0
  3
B3373
  1

  0
TEXT
  5
76A2
330
76A0
100
AcDbEntity
  8
L230_
  6
Continuous
 62
     6
100
AcDbText
 10
286.068634
 20
959.0
 30
0.0
 40
8.0
  1
n
 41
1.5
 72
     5
 11
294.068634
 21
959.0
 31
0.0
100
AcDbText
 73
     2
  0
TEXT
  5
76A3
330
76A0
100
AcDbEntity
  8
L230_
  6
Continuous
 62
     6
100
AcDbText
 10
297.401967
 20
959.0
 30
0.0
 40
8.0
  1
12
 41
0.9812500312499974
 72
     5
 11
307.868634
 21
959.0
 31
0.0
100
AcDbText
 73
     2
  0
ENDBLK
  5
76A4
330
76A0
100
AcDbEntity
  8
L230_
  6
Continuous
 62
     6
100
AcDbBlockEnd
  0
BLOCK
  5
76A6
330
76A5
100
AcDbEntity
  8
L230_
  6
Continuous
 62
     6
100
AcDbBlockBegin
  2
B3385
 70
     0
 10
0.0
 20
0.0
 30
0.0
  3
B3385
  1

  0
TEXT
  5
76A7
330
76A5
100
AcDbEntity
  8
L230_
  6
Continuous
 62
     6
100
AcDbText
 10
1056.395142
 20
748.0
 30
0.0
 40
8.0
  1
n
 41
1.5
 72
     5
 11
1064.395142
 21
748.0
 31
0.0
100
AcDbText
 73
     2
  0
TEXT
  5
76A8
330
76A5
100
AcDbEntity
  8
L230_
  6
Continuous
 62
     6
100
AcDbText
 10
1068.395142
 20
748.0
 30
0.0
 40
8.0
  1
15
 41
1.125
 72
     5
 11
1080.395142
 21
748.0
 31
0.0
100
AcDbText
 73
     2
  0
ENDBLK
  5
76A9
330
76A5
100
AcDbEntity
  8
L230_
  6
Continuous
 62
     6
100
AcDbBlockEnd
  0
BLOCK
  5
806B
330
8061
100
AcDbEntity
  8
0
100
AcDbBlockBegin
  2
*D13
 70
     1
 10
0.0
 20
0.0
 30
0.0
  3
*D13
  1

  0
LINE
  5
807F
330
8061
100
AcDbEntity
  8
30
 62
     0
370
    -2
100
AcDbLine
 10
-12.5
 20
-321.0
 30
0.0
 11
-12.5
 21
-340.5
 31
0.0
  0
LINE
  5
8080
330
8061
100
AcDbEntity
  8
30
 62
     0
370
    -2
100
AcDbLine
 10
12.5
 20
-318.5
 30
0.0
 11
12.5
 21
-340.5
 31
0.0
  0
LINE
  5
8081
330
8061
100
AcDbEntity
  8
30
 62
     0
370
    -2
100
AcDbLine
 10
-10.5
 20
-340.0
 30
0.0
 11
10.5
 21
-340.0
 31
0.0
  0
INSERT
  5
8082
330
8061
100
AcDbEntity
  8
30
 62
     0
370
    -2
100
AcDbBlockReference
  2
_OPEN
 10
-12.5
 20
-340.0
 30
0.0
 41
2.0
 42
2.0
 43
2.0
 50
180.0
  0
INSERT
  5
8083
330
8061
100
AcDbEntity
  8
30
 62
     0
370
    -2
100
AcDbBlockReference
  2
_OPEN
 10
12.5
 20
-340.0
 30
0.0
 41
2.0
 42
2.0
 43
2.0
  0
MTEXT
  5
8084
330
8061
100
AcDbEntity
  8
30
 62
     0
100
AcDbMText
 10
-0.0000000000000016
 20
-337.0
 30
0.0
 40
4.0
 41
0.0
 71
     5
 72
     1
  1
\A1;25
 73
     1
 44
1.0
1001
ACAD
1000
MTEXTBEGIN
1070
    73
1070
     1
1070
    44
1040
1.0
1070
    74
1070
     0
1000
MTEXTEND
  0
POINT
  5
8085
330
8061
100
AcDbEntity
  8
DEFPOINTS
 62
     0
100
AcDbPoint
 10
-12.5
 20
-320.0
 30
0.0
  0
POINT
  5
8086
330
8061
100
AcDbEntity
  8
DEFPOINTS
 62
     0
100
AcDbPoint
 10
12.5
 20
-317.5
 30
0.0
  0
POINT
  5
8087
330
8061
100
AcDbEntity
  8
DEFPOINTS
 62
     0
100
AcDbPoint
 10
12.5
 20
-340.0
 30
0.0
  0
ENDBLK
  5
806C
330
8061
100
AcDbEntity
  8
0
100
AcDbBlockEnd
  0
BLOCK
  5
87F2
330
87F1
100
AcDbEntity
  8
0
100
AcDbBlockBegin
  2
*D14
 70
     1
 10
0.0
 20
0.0
 30
0.0
  3
*D14
  1

  0
LINE
  5
9064
330
87F1
100
AcDbEntity
  8
30
  6
Continuous
 62
     0
370
    -2
100
AcDbLine
 10
-25.0
 20
-66.0
 30
0.0
 11
-25.0
 21
-110.5
 31
0.0
  0
LINE
  5
9065
330
87F1
100
AcDbEntity
  8
30
  6
Continuous
 62
     0
370
    -2
100
AcDbLine
 10
25.0
 20
-66.0
 30
0.0
 11
25.0
 21
-110.5
 31
0.0
  0
LINE
  5
9066
330
87F1
100
AcDbEntity
  8
30
  6
Continuous
 62
     0
370
    -2
100
AcDbLine
 10
-23.0
 20
-110.0
 30
0.0
 11
23.0
 21
-110.0
 31
0.0
  0
INSERT
  5
9067
330
87F1
100
AcDbEntity
  8
30
  6
Continuous
 62
     0
370
    -2
100
AcDbBlockReference
  2
_OPEN
 10
-25.0
 20
-110.0
 30
0.0
 41
2.0
 42
2.0
 43
2.0
 50
180.0
  0
INSERT
  5
9068
330
87F1
100
AcDbEntity
  8
30
  6
Continuous
 62
     0
370
    -2
100
AcDbBlockReference
  2
_OPEN
 10
25.0
 20
-110.0
 30
0.0
 41
2.0
 42
2.0
 43
2.0
  0
MTEXT
  5
9069
330
87F1
100
AcDbEntity
  8
30
  6
Continuous
 62
     0
100
AcDbMText
 10
-0.0000000000000034
 20
-107.0
 30
0.0
 40
4.0
 41
0.0
 71
     5
 72
     1
  1
\A1;50
 73
     1
 44
1.0
1001
ACAD
1000
MTEXTBEGIN
1070
    73
1070
     1
1070
    44
1040
1.0
1070
    74
1070
     0
1000
MTEXTEND
  0
POINT
  5
906A
330
87F1
100
AcDbEntity
  8
DEFPOINTS
  6
Continuous
 62
     0
100
AcDbPoint
 10
-25.0
 20
-65.0
 30
0.0
  0
POINT
  5
906B
330
87F1
100
AcDbEntity
  8
DEFPOINTS
  6
Continuous
 62
     0
100
AcDbPoint
 10
25.0
 20
-65.0
 30
0.0
  0
POINT
  5
906C
330
87F1
100
AcDbEntity
  8
DEFPOINTS
  6
Continuous
 62
     0
100
AcDbPoint
 10
25.0
 20
-110.0
 30
0.0
  0
ENDBLK
  5
87F3
330
87F1
100
AcDbEntity
  8
0
100
AcDbBlockEnd
  0
BLOCK
  5
87FE
330
87FD
100
AcDbEntity
  8
0
100
AcDbBlockBegin
  2
*D15
 70
     1
 10
0.0
 20
0.0
 30
0.0
  3
*D15
  1

  0
LINE
  5
906D
330
87FD
100
AcDbEntity
  8
30
  6
Continuous
 62
     0
370
    -2
100
AcDbLine
 10
-13.29998799999998
 20
-63.00000000000006
 30
0.0
 11
-13.29998799999998
 21
-90.5
 31
0.0
  0
LINE
  5
906E
330
87FD
100
AcDbEntity
  8
30
  6
Continuous
 62
     0
370
    -2
100
AcDbLine
 10
11.70001200000001
 20
-63.00000000000006
 30
0.0
 11
11.70001200000001
 21
-90.5
 31
0.0
  0
LINE
  5
906F
330
87FD
100
AcDbEntity
  8
30
  6
Continuous
 62
     0
370
    -2
100
AcDbLine
 10
-11.29998799999998
 20
-90.0
 30
0.0
 11
9.700012000000011
 21
-90.0
 31
0.0
  0
INSERT
  5
9070
330
87FD
100
AcDbEntity
  8
30
  6
Continuous
 62
     0
370
    -2
100
AcDbBlockReference
  2
_OPEN
 10
-13.29998799999998
 20
-90.0
 30
0.0
 41
2.0
 42
2.0
 43
2.0
 50
180.0
  0
INSERT
  5
9071
330
87FD
100
AcDbEntity
  8
30
  6
Continuous
 62
     0
370
    -2
100
AcDbBlockReference
  2
_OPEN
 10
11.70001200000001
 20
-90.0
 30
0.0
 41
2.0
 42
2.0
 43
2.0
  0
MTEXT
  5
9072
330
87FD
100
AcDbEntity
  8
30
  6
Continuous
 62
     0
100
AcDbMText
 10
-0.7999879999999865
 20
-87.0
 30
0.0
 40
4.0
 41
0.0
 71
     5
 72
     1
  1
\A1;25
 73
     1
 44
1.0
1001
ACAD
1000
MTEXTBEGIN
1070
    73
1070
     1
1070
    44
1040
1.0
1070
    74
1070
     0
1000
MTEXTEND
  0
POINT
  5
9073
330
87FD
100
AcDbEntity
  8
DEFPOINTS
  6
Continuous
 62
     0
100
AcDbPoint
 10
-13.29998799999998
 20
-62.00000000000006
 30
0.0
  0
POINT
  5
9074
330
87FD
100
AcDbEntity
  8
DEFPOINTS
  6
Continuous
 62
     0
100
AcDbPoint
 10
11.70001200000001
 20
-62.00000000000006
 30
0.0
  0
POINT
  5
9075
330
87FD
100
AcDbEntity
  8
DEFPOINTS
  6
Continuous
 62
     0
100
AcDbPoint
 10
11.70001200000001
 20
-90.0
 30
0.0
  0
ENDBLK
  5
87FF
330
87FD
100
AcDbEntity
  8
0
100
AcDbBlockEnd
  0
BLOCK
  5
880A
330
8809
100
AcDbEntity
  8
0
100
AcDbBlockBegin
  2
*D16
 70
     1
 10
0.0
 20
0.0
 30
0.0
  3
*D16
  1

  0
LINE
  5
9076
330
8809
100
AcDbEntity
  8
30
  6
Continuous
 62
     0
370
    -2
100
AcDbLine
 10
-26.0
 20
65.0
 30
0.0
 11
-50.49999999999997
 21
65.00000000000001
 31
0.0
  0
LINE
  5
9077
330
8809
100
AcDbEntity
  8
30
  6
Continuous
 62
     0
370
    -2
100
AcDbLine
 10
-26.0
 20
-65.0
 30
0.0
 11
-50.5
 21
-64.99999999999999
 31
0.0
  0
LINE
  5
9078
330
8809
100
AcDbEntity
  8
30
  6
Continuous
 62
     0
370
    -2
100
AcDbLine
 10
-49.99999999999997
 20
63.0
 30
0.0
 11
-50.0
 21
-62.99999999999998
 31
0.0
  0
INSERT
  5
9079
330
8809
100
AcDbEntity
  8
30
  6
Continuous
 62
     0
370
    -2
100
AcDbBlockReference
  2
_OPEN
 10
-49.99999999999997
 20
65.00000000000001
 30
0.0
 41
2.0
 42
2.0
 43
2.0
 50
90.0
  0
INSERT
  5
907A
330
8809
100
AcDbEntity
  8
30
  6
Continuous
 62
     0
370
    -2
100
AcDbBlockReference
  2
_OPEN
 10
-50.0
 20
-64.99999999999999
 30
0.0
 41
2.0
 42
2.0
 43
2.0
 50
270.0
  0
MTEXT
  5
907B
330
8809
100
AcDbEntity
  8
30
  6
Continuous
 62
     0
100
AcDbMText
 10
-52.99999999999998
 20
0.0000000000000034
 30
0.0
 40
4.0
 41
0.0
 71
     5
 72
     1
  1
\A1;130
 11
0.0000000000000001
 21
1.0
 31
0.0
 73
     1
 44
1.0
1001
ACAD
1000
MTEXTBEGIN
1070
    73
1070
     1
1070
    44
1040
1.0
1070
    74
1070
     0
1000
MTEXTEND
  0
POINT
  5
907C
330
8809
100
AcDbEntity
  8
DEFPOINTS
  6
Continuous
 62
     0
100
AcDbPoint
 10
-25.0
 20
65.0
 30
0.0
  0
POINT
  5
907D
330
8809
100
AcDbEntity
  8
DEFPOINTS
  6
Continuous
 62
     0
100
AcDbPoint
 10
-25.0
 20
-65.0
 30
0.0
  0
POINT
  5
907E
330
8809
100
AcDbEntity
  8
DEFPOINTS
  6
Continuous
 62
     0
100
AcDbPoint
 10
-50.0
 20
-64.99999999999999
 30
0.0
  0
ENDBLK
  5
880B
330
8809
100
AcDbEntity
  8
0
100
AcDbBlockEnd
  0
BLOCK
  5
8816
330
8815
100
AcDbEntity
  8
0
100
AcDbBlockBegin
  2
*D17
 70
     1
 10
0.0
 20
0.0
 30
0.0
  3
*D17
  1

  0
LINE
  5
938C
330
8815
100
AcDbEntity
  8
30
  6
Continuous
 62
     0
370
    -2
100
AcDbLine
 10
0.7000120000000153
 20
26.0
 30
0.0
 11
0.7000120000000157
 21
34.5
 31
0.0
  0
LINE
  5
938D
330
8815
100
AcDbEntity
  8
30
  6
Continuous
 62
     0
370
    -2
100
AcDbLine
 10
22.70001200000002
 20
26.0
 30
0.0
 11
22.70001200000002
 21
34.5
 31
0.0
  0
LINE
  5
938E
330
8815
100
AcDbEntity
  8
30
  6
Continuous
 62
     0
370
    -2
100
AcDbLine
 10
2.700012000000014
 20
34.0
 30
0.0
 11
20.70001200000001
 21
34.0
 31
0.0
  0
INSERT
  5
938F
330
8815
100
AcDbEntity
  8
30
  6
Continuous
 62
     0
370
    -2
100
AcDbBlockReference
  2
_OPEN
 10
0.7000120000000157
 20
34.0
 30
0.0
 41
2.0
 42
2.0
 43
2.0
 50
180.0
  0
INSERT
  5
9390
330
8815
100
AcDbEntity
  8
30
  6
Continuous
 62
     0
370
    -2
100
AcDbBlockReference
  2
_OPEN
 10
22.70001200000002
 20
34.0
 30
0.0
 41
2.0
 42
2.0
 43
2.0
  0
MTEXT
  5
9391
330
8815
100
AcDbEntity
  8
30
  6
Continuous
 62
     0
100
AcDbMText
 10
11.70001200000001
 20
37.0
 30
0.0
 40
4.0
 41
0.0
 71
     5
 72
     1
  1
\A1;22
 73
     1
 44
1.0
1001
ACAD
1000
MTEXTBEGIN
1070
    73
1070
     1
1070
    44
1040
1.0
1070
    74
1070
     0
1000
MTEXTEND
  0
POINT
  5
9392
330
8815
100
AcDbEntity
  8
DEFPOINTS
  6
Continuous
 62
     0
100
AcDbPoint
 10
0.7000120000000152
 20
25.0
 30
0.0
  0
POINT
  5
9393
330
8815
100
AcDbEntity
  8
DEFPOINTS
  6
Continuous
 62
     0
100
AcDbPoint
 10
22.70001200000002
 20
25.0
 30
0.0
  0
POINT
  5
9394
330
8815
100
AcDbEntity
  8
DEFPOINTS
  6
Continuous
 62
     0
100
AcDbPoint
 10
22.70001200000002
 20
34.0
 30
0.0
  0
ENDBLK
  5
8817
330
8815
100
AcDbEntity
  8
0
100
AcDbBlockEnd
  0
BLOCK
  5
8822
330
8821
100
AcDbEntity
  8
0
100
AcDbBlockBegin
  2
*D18
 70
     1
 10
0.0
 20
0.0
 30
0.0
  3
*D18
  1

  0
LINE
  5
918C
330
8821
100
AcDbEntity
  8
30
  6
Continuous
 62
     0
370
    -2
100
AcDbLine
 10
131.0000000000001
 20
1.99998200000013
 30
0.0
 11
131.0000000000001
 21
-120.4999999999999
 31
0.0
  0
LINE
  5
918D
330
8821
100
AcDbEntity
  8
30
  6
Continuous
 62
     0
370
    -2
100
AcDbLine
 10
218.0000000000002
 20
-65.9999999999999
 30
0.0
 11
218.0000000000002
 21
-120.4999999999999
 31
0.0
  0
LINE
  5
918E
330
8821
100
AcDbEntity
  8
30
  6
Continuous
 62
     0
370
    -2
100
AcDbLine
 10
133.0000000000001
 20
-119.9999999999999
 30
0.0
 11
216.0000000000002
 21
-119.9999999999999
 31
0.0
  0
INSERT
  5
918F
330
8821
100
AcDbEntity
  8
30
  6
Continuous
 62
     0
370
    -2
100
AcDbBlockReference
  2
_OPEN
 10
131.0000000000001
 20
-119.9999999999999
 30
0.0
 41
2.0
 42
2.0
 43
2.0
 50
180.0
  0
INSERT
  5
9190
330
8821
100
AcDbEntity
  8
30
  6
Continuous
 62
     0
370
    -2
100
AcDbBlockReference
  2
_OPEN
 10
218.0000000000002
 20
-119.9999999999999
 30
0.0
 41
2.0
 42
2.0
 43
2.0
  0
MTEXT
  5
9191
330
8821
100
AcDbEntity
  8
30
  6
Continuous
 62
     0
100
AcDbMText
 10
174.5000000000001
 20
-116.9999999999999
 30
0.0
 40
4.0
 41
0.0
 71
     5
 72
     1
  1
\A1;87
 73
     1
 44
1.0
1001
ACAD
1000
MTEXTBEGIN
1070
    73
1070
     1
1070
    44
1040
1.0
1070
    74
1070
     0
1000
MTEXTEND
  0
POINT
  5
9192
330
8821
100
AcDbEntity
  8
DEFPOINTS
  6
Continuous
 62
     0
100
AcDbPoint
 10
131.0000000000001
 20
2.999982000000128
 30
0.0
  0
POINT
  5
9193
330
8821
100
AcDbEntity
  8
DEFPOINTS
  6
Continuous
 62
     0
100
AcDbPoint
 10
218.0000000000002
 20
-64.99999999999992
 30
0.0
  0
POINT
  5
9194
330
8821
100
AcDbEntity
  8
DEFPOINTS
  6
Continuous
 62
     0
100
AcDbPoint
 10
218.0000000000002
 20
-119.9999999999999
 30
0.0
  0
ENDBLK
  5
8823
330
8821
100
AcDbEntity
  8
0
100
AcDbBlockEnd
  0
BLOCK
  5
883C
330
883B
100
AcDbEntity
  8
0
100
AcDbBlockBegin
  2
*D19
 70
     1
 10
0.0
 20
0.0
 30
0.0
  3
*D19
  1

  0
LINE
  5
91A0
330
883B
100
AcDbEntity
  8
30
  6
Continuous
 62
     0
370
    -2
100
AcDbLine
 10
145.000061
 20
-25.99999999999992
 30
0.0
 11
145.000061
 21
-110.5
 31
0.0
  0
LINE
  5
91A1
330
883B
100
AcDbEntity
  8
30
  6
Continuous
 62
     0
370
    -2
100
AcDbLine
 10
150.0000610000002
 20
-32.99999999999992
 30
0.0
 11
150.0000610000002
 21
-110.5
 31
0.0
  0
LINE
  5
91A2
330
883B
100
AcDbEntity
  8
30
  6
Continuous
 62
     0
370
    -2
100
AcDbLine
 10
143.000061
 20
-110.0
 30
0.0
 11
141.000061
 21
-110.0
 31
0.0
  0
LINE
  5
91A3
330
883B
100
AcDbEntity
  8
30
  6
Continuous
 62
     0
370
    -2
100
AcDbLine
 10
152.0000610000002
 20
-110.0
 30
0.0
 11
154.0000610000002
 21
-110.0
 31
0.0
  0
LINE
  5
91A4
330
883B
100
AcDbEntity
  8
30
  6
Continuous
 62
     0
370
    -2
100
AcDbLine
 10
145.000061
 20
-110.0
 30
0.0
 11
150.0000610000002
 21
-110.0
 31
0.0
  0
INSERT
  5
91A5
330
883B
100
AcDbEntity
  8
30
  6
Continuous
 62
     0
370
    -2
100
AcDbBlockReference
  2
_OPEN
 10
145.000061
 20
-110.0
 30
0.0
 41
2.0
 42
2.0
 43
2.0
  0
INSERT
  5
91A6
330
883B
100
AcDbEntity
  8
30
  6
Continuous
 62
     0
370
    -2
100
AcDbBlockReference
  2
_OPEN
 10
150.0000610000002
 20
-110.0
 30
0.0
 41
2.0
 42
2.0
 43
2.0
 50
180.0
  0
MTEXT
  5
91A7
330
883B
100
AcDbEntity
  8
30
  6
Continuous
 62
     0
100
AcDbMText
 10
147.5000610000001
 20
-107.0
 30
0.0
 40
4.0
 41
0.0
 71
     5
 72
     1
  1
\A1;5
 73
     1
 44
1.0
1001
ACAD
1000
MTEXTBEGIN
1070
    73
1070
     1
1070
    44
1040
1.0
1070
    74
1070
     0
1000
MTEXTEND
  0
POINT
  5
91A8
330
883B
100
AcDbEntity
  8
DEFPOINTS
  6
Continuous
 62
     0
100
AcDbPoint
 10
145.000061
 20
-24.99999999999993
 30
0.0
  0
POINT
  5
91A9
330
883B
100
AcDbEntity
  8
DEFPOINTS
  6
Continuous
 62
     0
100
AcDbPoint
 10
150.0000610000002
 20
-31.99999999999993
 30
0.0
  0
POINT
  5
91AA
330
883B
100
AcDbEntity
  8
DEFPOINTS
  6
Continuous
 62
     0
100
AcDbPoint
 10
150.0000610000002
 20
-110.0
 30
0.0
  0
ENDBLK
  5
883D
330
883B
100
AcDbEntity
  8
0
100
AcDbBlockEnd
  0
BLOCK
  5
884A
330
8849
100
AcDbEntity
  8
0
100
AcDbBlockBegin
  2
*D20
 70
     1
 10
0.0
 20
0.0
 30
0.0
  3
*D20
  1

  0
LINE
  5
91AB
330
8849
100
AcDbEntity
  8
30
  6
Continuous
 62
     0
370
    -2
100
AcDbLine
 10
150.0000610000002
 20
-32.99999999999992
 30
0.0
 11
150.0000610000002
 21
-110.5
 31
0.0
  0
LINE
  5
91AC
330
8849
100
AcDbEntity
  8
30
  6
Continuous
 62
     0
370
    -2
100
AcDbLine
 10
218.0000000000002
 20
-65.9999999999999
 30
0.0
 11
218.0000000000002
 21
-110.5
 31
0.0
  0
LINE
  5
91AD
330
8849
100
AcDbEntity
  8
30
  6
Continuous
 62
     0
370
    -2
100
AcDbLine
 10
152.0000610000002
 20
-110.0
 30
0.0
 11
216.0000000000002
 21
-110.0
 31
0.0
  0
INSERT
  5
91AE
330
8849
100
AcDbEntity
  8
30
  6
Continuous
 62
     0
370
    -2
100
AcDbBlockReference
  2
_OPEN
 10
150.0000610000002
 20
-110.0
 30
0.0
 41
2.0
 42
2.0
 43
2.0
 50
180.0
  0
INSERT
  5
91AF
330
8849
100
AcDbEntity
  8
30
  6
Continuous
 62
     0
370
    -2
100
AcDbBlockReference
  2
_OPEN
 10
218.0000000000002
 20
-110.0
 30
0.0
 41
2.0
 42
2.0
 43
2.0
  0
MTEXT
  5
91B0
330
8849
100
AcDbEntity
  8
30
  6
Continuous
 62
     0
100
AcDbMText
 10
184.0000305000002
 20
-107.0
 30
0.0
 40
4.0
 41
0.0
 71
     5
 72
     1
  1
\A1;68
 73
     1
 44
1.0
1001
ACAD
1000
MTEXTBEGIN
1070
    73
1070
     1
1070
    44
1040
1.0
1070
    74
1070
     0
1000
MTEXTEND
  0
POINT
  5
91B1
330
8849
100
AcDbEntity
  8
DEFPOINTS
  6
Continuous
 62
     0
100
AcDbPoint
 10
150.0000610000002
 20
-31.99999999999993
 30
0.0
  0
POINT
  5
91B2
330
8849
100
AcDbEntity
  8
DEFPOINTS
  6
Continuous
 62
     0
100
AcDbPoint
 10
218.0000000000002
 20
-64.99999999999992
 30
0.0
  0
POINT
  5
91B3
330
8849
100
AcDbEntity
  8
DEFPOINTS
  6
Continuous
 62
     0
100
AcDbPoint
 10
218.0000000000002
 20
-110.0
 30
0.0
  0
ENDBLK
  5
884B
330
8849
100
AcDbEntity
  8
0
100
AcDbBlockEnd
  0
BLOCK
  5
8856
330
8855
100
AcDbEntity
  8
0
100
AcDbBlockBegin
  2
*D21
 70
     1
 10
0.0
 20
0.0
 30
0.0
  3
*D21
  1

  0
LINE
  5
91B4
330
8855
100
AcDbEntity
  8
30
  6
Continuous
 62
     0
370
    -2
100
AcDbLine
 10
152.0000610000002
 20
-51.99999999999992
 30
0.0
 11
152.0000610000002
 21
-100.5
 31
0.0
  0
LINE
  5
91B5
330
8855
100
AcDbEntity
  8
30
  6
Continuous
 62
     0
370
    -2
100
AcDbLine
 10
218.0000000000002
 20
-65.9999999999999
 30
0.0
 11
218.0000000000002
 21
-100.5
 31
0.0
  0
LINE
  5
91B6
330
8855
100
AcDbEntity
  8
30
  6
Continuous
 62
     0
370
    -2
100
AcDbLine
 10
154.0000610000002
 20
-100.0
 30
0.0
 11
216.0000000000002
 21
-100.0
 31
0.0
  0
INSERT
  5
91B7
330
8855
100
AcDbEntity
  8
30
  6
Continuous
 62
     0
370
    -2
100
AcDbBlockReference
  2
_OPEN
 10
152.0000610000002
 20
-100.0
 30
0.0
 41
2.0
 42
2.0
 43
2.0
 50
180.0
  0
INSERT
  5
91B8
330
8855
100
AcDbEntity
  8
30
  6
Continuous
 62
     0
370
    -2
100
AcDbBlockReference
  2
_OPEN
 10
218.0000000000002
 20
-100.0
 30
0.0
 41
2.0
 42
2.0
 43
2.0
  0
MTEXT
  5
91B9
330
8855
100
AcDbEntity
  8
30
  6
Continuous
 62
     0
100
AcDbMText
 10
185.0000305
 20
-97.00000000000002
 30
0.0
 40
4.0
 41
0.0
 71
     5
 72
     1
  1
\A1;66
 73
     1
 44
1.0
1001
ACAD
1000
MTEXTBEGIN
1070
    73
1070
     1
1070
    44
1040
1.0
1070
    74
1070
     0
1000
MTEXTEND
  0
POINT
  5
91BA
330
8855
100
AcDbEntity
  8
DEFPOINTS
  6
Continuous
 62
     0
100
AcDbPoint
 10
152.0000610000002
 20
-50.99999999999989
 30
0.0
  0
POINT
  5
91BB
330
8855
100
AcDbEntity
  8
DEFPOINTS
  6
Continuous
 62
     0
100
AcDbPoint
 10
218.0000000000002
 20
-64.99999999999992
 30
0.0
  0
POINT
  5
91BC
330
8855
100
AcDbEntity
  8
DEFPOINTS
  6
Continuous
 62
     0
100
AcDbPoint
 10
218.0000000000002
 20
-100.0
 30
0.0
  0
ENDBLK
  5
8857
330
8855
100
AcDbEntity
  8
0
100
AcDbBlockEnd
  0
BLOCK
  5
8862
330
8861
100
AcDbEntity
  8
0
100
AcDbBlockBegin
  2
*D22
 70
     1
 10
0.0
 20
0.0
 30
0.0
  3
*D22
  1

  0
LINE
  5
91EB
330
8861
100
AcDbEntity
  8
30
  6
Continuous
 62
     0
370
    -2
100
AcDbLine
 10
157.0000610000002
 20
-65.9999999999999
 30
0.0
 11
157.0000610000002
 21
-90.50000000000002
 31
0.0
  0
LINE
  5
91EC
330
8861
100
AcDbEntity
  8
30
  6
Continuous
 62
     0
370
    -2
100
AcDbLine
 10
218.0000000000002
 20
-65.9999999999999
 30
0.0
 11
218.0000000000002
 21
-90.50000000000002
 31
0.0
  0
LINE
  5
91ED
330
8861
100
AcDbEntity
  8
30
  6
Continuous
 62
     0
370
    -2
100
AcDbLine
 10
159.0000610000002
 20
-90.00000000000005
 30
0.0
 11
216.0000000000002
 21
-90.00000000000005
 31
0.0
  0
INSERT
  5
91EE
330
8861
100
AcDbEntity
  8
30
  6
Continuous
 62
     0
370
    -2
100
AcDbBlockReference
  2
_OPEN
 10
157.0000610000002
 20
-90.00000000000005
 30
0.0
 41
2.0
 42
2.0
 43
2.0
 50
180.0
  0
INSERT
  5
91EF
330
8861
100
AcDbEntity
  8
30
  6
Continuous
 62
     0
370
    -2
100
AcDbBlockReference
  2
_OPEN
 10
218.0000000000002
 20
-90.00000000000005
 30
0.0
 41
2.0
 42
2.0
 43
2.0
  0
MTEXT
  5
91F0
330
8861
100
AcDbEntity
  8
30
  6
Continuous
 62
     0
100
AcDbMText
 10
187.5000305000002
 20
-87.00000000000001
 30
0.0
 40
4.0
 41
0.0
 71
     5
 72
     1
  1
\A1;61
 73
     1
 44
1.0
1001
ACAD
1000
MTEXTBEGIN
1070
    73
1070
     1
1070
    44
1040
1.0
1070
    74
1070
     0
1000
MTEXTEND
  0
POINT
  5
91F1
330
8861
100
AcDbEntity
  8
DEFPOINTS
  6
Continuous
 62
     0
100
AcDbPoint
 10
157.0000610000002
 20
-64.99999999999992
 30
0.0
  0
POINT
  5
91F2
330
8861
100
AcDbEntity
  8
DEFPOINTS
  6
Continuous
 62
     0
100
AcDbPoint
 10
218.0000000000002
 20
-64.99999999999992
 30
0.0
  0
POINT
  5
91F3
330
8861
100
AcDbEntity
  8
DEFPOINTS
  6
Continuous
 62
     0
100
AcDbPoint
 10
218.0000000000002
 20
-90.00000000000005
 30
0.0
  0
ENDBLK
  5
8863
330
8861
100
AcDbEntity
  8
0
100
AcDbBlockEnd
  0
BLOCK
  5
8887
330
8886
100
AcDbEntity
  8
0
100
AcDbBlockBegin
  2
*D23
 70
     1
 10
0.0
 20
0.0
 30
0.0
  3
*D23
  1

  0
LINE
  5
91D9
330
8886
100
AcDbEntity
  8
30
  6
Continuous
 62
     0
370
    -2
100
AcDbLine
 10
149.0000610000002
 20
-31.99999999999993
 30
0.0
 11
109.5000610000002
 21
-31.9999999999999
 31
0.0
  0
LINE
  5
91DA
330
8886
100
AcDbEntity
  8
30
  6
Continuous
 62
     0
370
    -2
100
AcDbLine
 10
149.0000610000002
 20
32.00000000000009
 30
0.0
 11
109.5000610000002
 21
32.0000000000001
 31
0.0
  0
LINE
  5
91DB
330
8886
100
AcDbEntity
  8
30
  6
Continuous
 62
     0
370
    -2
100
AcDbLine
 10
110.0000610000001
 20
-29.99999999999991
 30
0.0
 11
110.0000610000001
 21
30.0000000000001
 31
0.0
  0
INSERT
  5
91DC
330
8886
100
AcDbEntity
  8
30
  6
Continuous
 62
     0
370
    -2
100
AcDbBlockReference
  2
_OPEN
 10
110.0000610000001
 20
-31.9999999999999
 30
0.0
 41
2.0
 42
2.0
 43
2.0
 50
270.0
  0
INSERT
  5
91DD
330
8886
100
AcDbEntity
  8
30
  6
Continuous
 62
     0
370
    -2
100
AcDbBlockReference
  2
_OPEN
 10
110.0000610000002
 20
32.0000000000001
 30
0.0
 41
2.0
 42
2.0
 43
2.0
 50
90.0
  0
MTEXT
  5
91DE
330
8886
100
AcDbEntity
  8
30
  6
Continuous
 62
     0
100
AcDbMText
 10
107.0000610000001
 20
0.0000000000001144
 30
0.0
 40
4.0
 41
0.0
 71
     5
 72
     1
  1
\A1;64
 11
0.0000000000000001
 21
1.0
 31
0.0
 73
     1
 44
1.0
1001
ACAD
1000
MTEXTBEGIN
1070
    73
1070
     1
1070
    44
1040
1.0
1070
    74
1070
     0
1000
MTEXTEND
  0
POINT
  5
91DF
330
8886
100
AcDbEntity
  8
DEFPOINTS
  6
Continuous
 62
     0
100
AcDbPoint
 10
150.0000610000002
 20
-31.99999999999993
 30
0.0
  0
POINT
  5
91E0
330
8886
100
AcDbEntity
  8
DEFPOINTS
  6
Continuous
 62
     0
100
AcDbPoint
 10
150.0000610000002
 20
32.00000000000009
 30
0.0
  0
POINT
  5
91E1
330
8886
100
AcDbEntity
  8
DEFPOINTS
  6
Continuous
 62
     0
100
AcDbPoint
 10
110.0000610000002
 20
32.0000000000001
 30
0.0
  0
ENDBLK
  5
8888
330
8886
100
AcDbEntity
  8
0
100
AcDbBlockEnd
  0
BLOCK
  5
88D9
330
88D8
100
AcDbEntity
  8
0
100
AcDbBlockBegin
  2
*D24
 70
     1
 10
0.0
 20
0.0
 30
0.0
  3
*D24
  1

  0
LINE
  5
9088
330
88D8
100
AcDbEntity
  8
30
  6
Continuous
 62
     0
370
    -2
100
AcDbLine
 10
11.70001200000001
 20
63.00000000000006
 30
0.0
 11
11.70001200000001
 21
100.5
 31
0.0
  0
LINE
  5
9089
330
88D8
100
AcDbEntity
  8
30
  6
Continuous
 62
     0
370
    -2
100
AcDbLine
 10
25.0
 20
65.99975499999982
 30
0.0
 11
25.0
 21
100.5
 31
0.0
  0
LINE
  5
908A
330
88D8
100
AcDbEntity
  8
30
  6
Continuous
 62
     0
370
    -2
100
AcDbLine
 10
13.70001200000001
 20
100.0
 30
0.0
 11
23.0
 21
100.0
 31
0.0
  0
LINE
  5
908B
330
88D8
100
AcDbEntity
  8
30
  6
Continuous
 62
     0
370
    -2
100
AcDbLine
 10
25.0
 20
100.0
 30
0.0
 11
39.66666666666672
 21
100.0
 31
0.0
  0
INSERT
  5
908C
330
88D8
100
AcDbEntity
  8
30
  6
Continuous
 62
     0
370
    -2
100
AcDbBlockReference
  2
_OPEN
 10
11.70001200000001
 20
100.0
 30
0.0
 41
2.0
 42
2.0
 43
2.0
 50
180.0
  0
INSERT
  5
908D
330
88D8
100
AcDbEntity
  8
30
  6
Continuous
 62
     0
370
    -2
100
AcDbBlockReference
  2
_OPEN
 10
25.0
 20
100.0
 30
0.0
 41
2.0
 42
2.0
 43
2.0
  0
MTEXT
  5
908E
330
88D8
100
AcDbEntity
  8
30
  6
Continuous
 62
     0
100
AcDbMText
 10
33.33333333333337
 20
103.0
 30
0.0
 40
4.0
 41
0.0
 71
     5
 72
     1
  1
\A1;13.3
 73
     1
 44
1.0
1001
ACAD
1000
MTEXTBEGIN
1070
    73
1070
     1
1070
    44
1040
1.0
1070
    74
1070
     0
1000
MTEXTEND
  0
POINT
  5
908F
330
88D8
100
AcDbEntity
  8
DEFPOINTS
  6
Continuous
 62
     0
100
AcDbPoint
 10
11.70001200000001
 20
62.00000000000006
 30
0.0
  0
POINT
  5
9090
330
88D8
100
AcDbEntity
  8
DEFPOINTS
  6
Continuous
 62
     0
100
AcDbPoint
 10
25.0
 20
64.99975499999982
 30
0.0
  0
POINT
  5
9091
330
88D8
100
AcDbEntity
  8
DEFPOINTS
  6
Continuous
 62
     0
100
AcDbPoint
 10
25.0
 20
100.0
 30
0.0
  0
ENDBLK
  5
88DA
330
88D8
100
AcDbEntity
  8
0
100
AcDbBlockEnd
  0
BLOCK
  5
88E6
330
88E5
100
AcDbEntity
  8
0
100
AcDbBlockBegin
  2
*D25
 70
     1
 10
0.0
 20
0.0
 30
0.0
  3
*D25
  1

  0
LINE
  5
9092
330
88E5
100
AcDbEntity
  8
30
  6
Continuous
 62
     0
370
    -2
100
AcDbLine
 10
11.70001200000001
 20
63.00000000000006
 30
0.0
 11
11.70001200000001
 21
100.5
 31
0.0
  0
LINE
  5
9093
330
88E5
100
AcDbEntity
  8
30
  6
Continuous
 62
     0
370
    -2
100
AcDbLine
 10
-25.0
 20
66.0
 30
0.0
 11
-25.0
 21
100.5
 31
0.0
  0
LINE
  5
9094
330
88E5
100
AcDbEntity
  8
30
  6
Continuous
 62
     0
370
    -2
100
AcDbLine
 10
9.700012000000015
 20
100.0
 30
0.0
 11
-23.0
 21
100.0
 31
0.0
  0
LINE
  5
9095
330
88E5
100
AcDbEntity
  8
30
  6
Continuous
 62
     0
370
    -2
100
AcDbLine
 10
-25.0
 20
100.0
 30
0.0
 11
-65.80417599999998
 21
100.0
 31
0.0
  0
INSERT
  5
9096
330
88E5
100
AcDbEntity
  8
30
  6
Continuous
 62
     0
370
    -2
100
AcDbBlockReference
  2
_OPEN
 10
11.70001200000001
 20
100.0
 30
0.0
 41
2.0
 42
2.0
 43
2.0
  0
INSERT
  5
9097
330
88E5
100
AcDbEntity
  8
30
  6
Continuous
 62
     0
370
    -2
100
AcDbBlockReference
  2
_OPEN
 10
-25.0
 20
100.0
 30
0.0
 41
2.0
 42
2.0
 43
2.0
 50
180.0
  0
MTEXT
  5
9098
330
88E5
100
AcDbEntity
  8
30
  6
Continuous
 62
     0
100
AcDbMText
 10
-58.80417599999998
 20
103.0
 30
0.0
 40
4.0
 41
0.0
 71
     5
 72
     1
  1
\A1;36.7
 73
     1
 44
1.0
1001
ACAD
1000
MTEXTBEGIN
1070
    73
1070
     1
1070
    44
1040
1.0
1070
    74
1070
     0
1000
MTEXTEND
  0
POINT
  5
9099
330
88E5
100
AcDbEntity
  8
DEFPOINTS
  6
Continuous
 62
     0
100
AcDbPoint
 10
11.70001200000001
 20
62.00000000000006
 30
0.0
  0
POINT
  5
909A
330
88E5
100
AcDbEntity
  8
DEFPOINTS
  6
Continuous
 62
     0
100
AcDbPoint
 10
-25.0
 20
65.0
 30
0.0
  0
POINT
  5
909B
330
88E5
100
AcDbEntity
  8
DEFPOINTS
  6
Continuous
 62
     0
100
AcDbPoint
 10
-25.0
 20
100.0
 30
0.0
  0
ENDBLK
  5
88E7
330
88E5
100
AcDbEntity
  8
0
100
AcDbBlockEnd
  0
BLOCK
  5
88F3
330
88F2
100
AcDbEntity
  8
0
100
AcDbBlockBegin
  2
*D26
 70
     1
 10
0.0
 20
0.0
 30
0.0
  3
*D26
  1

  0
LINE
  5
91E2
330
88F2
100
AcDbEntity
  8
30
  6
Continuous
 62
     0
370
    -2
100
AcDbLine
 10
151.0000610000002
 20
-50.99999999999989
 30
0.0
 11
99.49999999999995
 21
-50.99999999999989
 31
0.0
  0
LINE
  5
91E3
330
88F2
100
AcDbEntity
  8
30
  6
Continuous
 62
     0
370
    -2
100
AcDbLine
 10
151.0000610000002
 20
51.00000000000008
 30
0.0
 11
99.50000000000001
 21
51.00000000000011
 31
0.0
  0
LINE
  5
91E4
330
88F2
100
AcDbEntity
  8
30
  6
Continuous
 62
     0
370
    -2
100
AcDbLine
 10
100.0
 20
-48.99999999999989
 30
0.0
 11
100.0
 21
49.00000000000011
 31
0.0
  0
INSERT
  5
91E5
330
88F2
100
AcDbEntity
  8
30
  6
Continuous
 62
     0
370
    -2
100
AcDbBlockReference
  2
_OPEN
 10
100.0
 20
-50.99999999999989
 30
0.0
 41
2.0
 42
2.0
 43
2.0
 50
270.0
  0
INSERT
  5
91E6
330
88F2
100
AcDbEntity
  8
30
  6
Continuous
 62
     0
370
    -2
100
AcDbBlockReference
  2
_OPEN
 10
100.0
 20
51.00000000000011
 30
0.0
 41
2.0
 42
2.0
 43
2.0
 50
90.0
  0
MTEXT
  5
91E7
330
88F2
100
AcDbEntity
  8
30
  6
Continuous
 62
     0
100
AcDbMText
 10
97.0
 20
0.000000000000115
 30
0.0
 40
4.0
 41
0.0
 71
     5
 72
     1
  1
\A1;102
 11
0.0000000000000001
 21
1.0
 31
0.0
 73
     1
 44
1.0
1001
ACAD
1000
MTEXTBEGIN
1070
    73
1070
     1
1070
    44
1040
1.0
1070
    74
1070
     0
1000
MTEXTEND
  0
POINT
  5
91E8
330
88F2
100
AcDbEntity
  8
DEFPOINTS
  6
Continuous
 62
     0
100
AcDbPoint
 10
152.0000610000002
 20
-50.99999999999989
 30
0.0
  0
POINT
  5
91E9
330
88F2
100
AcDbEntity
  8
DEFPOINTS
  6
Continuous
 62
     0
100
AcDbPoint
 10
152.0000610000002
 20
51.00000000000008
 30
0.0
  0
POINT
  5
91EA
330
88F2
100
AcDbEntity
  8
DEFPOINTS
  6
Continuous
 62
     0
100
AcDbPoint
 10
100.0
 20
51.00000000000011
 30
0.0
  0
ENDBLK
  5
88F4
330
88F2
100
AcDbEntity
  8
0
100
AcDbBlockEnd
  0
BLOCK
  5
8AC7
330
8AC6
100
AcDbEntity
  8
L0_
  6
Continuous
100
AcDbBlockBegin
  2
B3355
 70
     0
 10
0.0
 20
0.0
 30
0.0
  3
B3355
  1

  0
TEXT
  5
8AC8
330
8AC6
100
AcDbEntity
  8
L0_
  6
Continuous
100
AcDbText
 10
2504.063232
 20
1526.651611
 30
0.0
 40
12.0
  1
n
 41
2.25
 72
     5
 11
2522.063232
 21
1526.651611
 31
0.0
100
AcDbText
 73
     2
  0
TEXT
  5
8AC9
330
8AC6
100
AcDbEntity
  8
L0_
  6
Continuous
100
AcDbText
 10
2522.063232
 20
1526.651611
 30
0.0
 40
12.0
  1
17
 41
1.162499999999994
 72
     5
 11
2540.663232
 21
1526.651611
 31
0.0
100
AcDbText
 73
     2
  0
ENDBLK
  5
8ACA
330
8AC6
100
AcDbEntity
  8
L0_
  6
Continuous
100
AcDbBlockEnd
  0
BLOCK
  5
8B1D
330
8B1C
100
AcDbEntity
  8
L0_
  6
Continuous
100
AcDbBlockBegin
  2
B3899
 70
     0
 10
0.0
 20
0.0
 30
0.0
  3
B3899
  1

  0
LWPOLYLINE
  5
8B1E
330
8B1C
100
AcDbEntity
  8
L0_
  6
Continuous
100
AcDbPolyline
 90
        3
 70
     0
 43
0.0
 10
1019.726275
 20
1511.333758
 10
1028.233032
 20
1523.938721
 10
1016.098004
 20
1514.774056
  0
LWPOLYLINE
  5
8B1F
330
8B1C
100
AcDbEntity
  8
L0_
  6
Continuous
100
AcDbPolyline
 90
        4
 70
     0
 43
0.0
 10
1028.233032
 20
1523.938721
 10
982.986267
 20
1476.219727
 10
935.7186890000001
 20
1476.219727
 10
788.1187129999997
 20
1476.219727
  0
ENDBLK
  5
8B20
330
8B1C
100
AcDbEntity
  8
L0_
  6
Continuous
100
AcDbBlockEnd
  0
BLOCK
  5
8B22
330
8B21
100
AcDbEntity
  8
L230_
  6
Continuous
 62
     6
100
AcDbBlockBegin
  2
B3901
 70
     0
 10
0.0
 20
0.0
 30
0.0
  3
B3901
  1

  0
INSERT
  5
8B23
330
8B21
100
AcDbEntity
  8
L0_
  6
Continuous
100
AcDbBlockReference
  2
B3899
 10
0.0
 20
0.0
 30
0.0
  0
TEXT
  5
8B24
330
8B21
100
AcDbEntity
  8
L0_
  6
Continuous
100
AcDbText
 10
795.618683
 20
1483.719727
 30
0.0
 40
12.0
  1
Mounting plate
 41
0.9133333333333332
  7
LEROY
 72
     5
 11
932.6186830000001
 21
1483.719727
 31
0.0
100
AcDbText
 73
     2
  0
ENDBLK
  5
8B25
330
8B21
100
AcDbEntity
  8
L230_
  6
Continuous
 62
     6
100
AcDbBlockEnd
  0
BLOCK
  5
8B27
330
8B26
100
AcDbEntity
  8
L0_
  6
Continuous
100
AcDbBlockBegin
  2
B3905
 70
     0
 10
0.0
 20
0.0
 30
0.0
  3
B3905
  1

  0
LWPOLYLINE
  5
8B28
330
8B26
100
AcDbEntity
  8
L0_
  6
Continuous
100
AcDbPolyline
 90
        3
 70
     0
 43
0.0
 10
1039.109496
 20
1696.744343
 10
1035.509399
 20
1681.969727
 10
1043.706664
 20
1694.778117
  0
LWPOLYLINE
  5
8B29
330
8B26
100
AcDbEntity
  8
L0_
  6
Continuous
100
AcDbPolyline
 90
        4
 70
     0
 43
0.0
 10
1035.509399
 20
1681.969727
 10
1071.543457
 20
1766.219727
 10
1106.842163
 20
1766.219727
 10
1309.642212
 20
1766.219727
  0
ENDBLK
  5
8B2A
330
8B26
100
AcDbEntity
  8
L0_
  6
Continuous
100
AcDbBlockEnd
  0
BLOCK
  5
8B2C
330
8B2B
100
AcDbEntity
  8
L230_
  6
Continuous
 62
     6
100
AcDbBlockBegin
  2
B3907
 70
     0
 10
0.0
 20
0.0
 30
0.0
  3
B3907
  1

  0
INSERT
  5
8B2D
330
8B2B
100
AcDbEntity
  8
L0_
  6
Continuous
100
AcDbBlockReference
  2
B3905
 10
0.0
 20
0.0
 30
0.0
  0
TEXT
  5
8B2E
330
8B2B
100
AcDbEntity
  8
L0_
  6
Continuous
100
AcDbText
 10
1114.342163
 20
1773.719727
 30
0.0
 40
12.0
  1
Insulated stud block
 41
0.8736363636363636
  7
LEROY
 72
     5
 11
1306.542163
 21
1773.719727
 31
0.0
100
AcDbText
 73
     2
  0
ENDBLK
  5
8B2F
330
8B2B
100
AcDbEntity
  8
L230_
  6
Continuous
 62
     6
100
AcDbBlockEnd
  0
BLOCK
  5
8B31
330
8B30
100
AcDbEntity
  8
L0_
  6
Continuous
100
AcDbBlockBegin
  2
B3933
 70
     0
 10
0.0
 20
0.0
 30
0.0
  3
B3933
  1

  0
LWPOLYLINE
  5
8B32
330
8B30
100
AcDbEntity
  8
L0_
  6
Continuous
100
AcDbPolyline
 90
        3
 70
     0
 43
0.0
 10
1126.887015
 20
1556.329278
 10
1115.334717
 20
1566.218384
 10
1123.055288
 20
1553.117133
  0
LWPOLYLINE
  5
8B33
330
8B30
100
AcDbEntity
  8
L0_
  6
Continuous
100
AcDbPolyline
 90
        4
 70
     0
 43
0.0
 10
1115.334717
 20
1566.218384
 10
1182.505737
 20
1486.090942
 10
1207.888916
 20
1486.090942
 10
1271.888916
 20
1486.090942
  0
ENDBLK
  5
8B34
330
8B30
100
AcDbEntity
  8
L0_
  6
Continuous
100
AcDbBlockEnd
  0
BLOCK
  5
8B36
330
8B35
100
AcDbEntity
  8
L230_
  6
Continuous
 62
     6
100
AcDbBlockBegin
  2
B3935
 70
     0
 10
0.0
 20
0.0
 30
0.0
  3
B3935
  1

  0
INSERT
  5
8B37
330
8B35
100
AcDbEntity
  8
L0_
  6
Continuous
100
AcDbBlockReference
  2
B3933
 10
0.0
 20
0.0
 30
0.0
  0
TEXT
  5
8B38
330
8B35
100
AcDbEntity
  8
L0_
  6
Continuous
100
AcDbText
 10
1215.388916
 20
1493.590942
 30
0.0
 40
12.0
  1
screw
 41
0.9499999999999968
  7
LEROY
 72
     5
 11
1268.588916
 21
1493.590942
 31
0.0
100
AcDbText
 73
     2
  0
ENDBLK
  5
8B39
330
8B35
100
AcDbEntity
  8
L230_
  6
Continuous
 62
     6
100
AcDbBlockEnd
  0
BLOCK
  5
8B3B
330
8B3A
100
AcDbEntity
  8
L0_
  6
Continuous
100
AcDbBlockBegin
  2
B3957
 70
     0
 10
0.0
 20
0.0
 30
0.0
  3
B3957
  1

  0
LWPOLYLINE
  5
8B3C
330
8B3A
100
AcDbEntity
  8
L0_
  6
Continuous
100
AcDbPolyline
 90
        3
 70
     0
 43
0.0
 10
2047.357936
 20
1684.909422
 10
2055.170166
 20
1678.448242
 10
2049.875737
 20
1687.093865
  0
LWPOLYLINE
  5
8B3D
330
8B3A
100
AcDbEntity
  8
L0_
  6
Continuous
100
AcDbPolyline
 90
        4
 70
     0
 43
0.0
 10
2055.170166
 20
1678.448242
 10
2005.047852
 20
1736.219482
 10
2001.068848
 20
1736.219482
 10
1862.668823
 20
1736.219482
  0
ENDBLK
  5
8B3E
330
8B3A
100
AcDbEntity
  8
L0_
  6
Continuous
100
AcDbBlockEnd
  0
BLOCK
  5
8B40
330
8B3F
100
AcDbEntity
  8
L230_
  6
Continuous
 62
     6
100
AcDbBlockBegin
  2
B3959
 70
     0
 10
0.0
 20
0.0
 30
0.0
  3
B3959
  1

  0
INSERT
  5
8B41
330
8B3F
100
AcDbEntity
  8
L0_
  6
Continuous
100
AcDbBlockReference
  2
B3957
 10
0.0
 20
0.0
 30
0.0
  0
TEXT
  5
8B42
330
8B3F
100
AcDbEntity
  8
L0_
  6
Continuous
100
AcDbText
 10
1870.168854
 20
1743.719482
 30
0.0
 40
12.0
  1
Tapped hole 
 41
0.8942028985507237
  7
LEROY
 72
     5
 11
1993.568854
 21
1743.719482
 31
0.0
100
AcDbText
 73
     2
  0
ENDBLK
  5
8B43
330
8B3F
100
AcDbEntity
  8
L230_
  6
Continuous
 62
     6
100
AcDbBlockEnd
  0
BLOCK
  5
8B45
330
8B44
100
AcDbEntity
  8
L0_
  6
Continuous
100
AcDbBlockBegin
  2
B3963
 70
     0
 10
0.0
 20
0.0
 30
0.0
  3
B3963
  1

  0
LWPOLYLINE
  5
8B46
330
8B44
100
AcDbEntity
  8
L0_
  6
Continuous
100
AcDbPolyline
 90
        3
 70
     0
 43
0.0
 10
2335.333034
 20
1684.909422
 10
2343.145264
 20
1678.448242
 10
2337.850835
 20
1687.093865
  0
LWPOLYLINE
  5
8B47
330
8B44
100
AcDbEntity
  8
L0_
  6
Continuous
100
AcDbPolyline
 90
        4
 70
     0
 43
0.0
 10
2343.145264
 20
1678.448242
 10
2293.022949
 20
1736.219482
 10
2289.043945
 20
1736.219482
 10
2150.644043
 20
1736.219482
  0
ENDBLK
  5
8B48
330
8B44
100
AcDbEntity
  8
L0_
  6
Continuous
100
AcDbBlockEnd
  0
BLOCK
  5
8B4A
330
8B49
100
AcDbEntity
  8
L230_
  6
Continuous
 62
     6
100
AcDbBlockBegin
  2
B3965
 70
     0
 10
0.0
 20
0.0
 30
0.0
  3
B3965
  1

  0
INSERT
  5
8B4B
330
8B49
100
AcDbEntity
  8
L0_
  6
Continuous
100
AcDbBlockReference
  2
B3963
 10
0.0
 20
0.0
 30
0.0
  0
TEXT
  5
8B4C
330
8B49
100
AcDbEntity
  8
L0_
  6
Continuous
100
AcDbText
 10
2158.143951
 20
1743.719482
 30
0.0
 40
12.0
  1
Tapped hole 
 41
0.8942028985507253
  7
LEROY
 72
     5
 11
2281.543951
 21
1743.719482
 31
0.0
100
AcDbText
 73
     2
  0
ENDBLK
  5
8B4D
330
8B49
100
AcDbEntity
  8
L230_
  6
Continuous
 62
     6
100
AcDbBlockEnd
  0
BLOCK
  5
8B4F
330
8B4E
100
AcDbEntity
  8
L0_
  6
Continuous
100
AcDbBlockBegin
  2
B3987
 70
     0
 10
0.0
 20
0.0
 30
0.0
  3
B3987
  1

  0
LWPOLYLINE
  5
8B50
330
8B4E
100
AcDbEntity
  8
L0_
  6
Continuous
100
AcDbPolyline
 90
        3
 70
     0
 43
0.0
 10
1529.890411
 20
1604.173702
 10
1517.136718999999
 20
1612.455811
 10
1526.514933
 20
1600.485051
  0
LWPOLYLINE
  5
8B51
330
8B4E
100
AcDbEntity
  8
L0_
  6
Continuous
100
AcDbPolyline
 90
        4
 70
     0
 43
0.0
 10
1517.136718999999
 20
1612.455811
 10
1677.268311
 20
1465.919678
 10
1703.945679
 20
1465.919678
 10
1786.545654
 20
1465.919678
  0
ENDBLK
  5
8B52
330
8B4E
100
AcDbEntity
  8
L0_
  6
Continuous
100
AcDbBlockEnd
  0
BLOCK
  5
8B54
330
8B53
100
AcDbEntity
  8
L230_
  6
Continuous
 62
     6
100
AcDbBlockBegin
  2
B3989
 70
     0
 10
0.0
 20
0.0
 30
0.0
  3
B3989
  1

  0
INSERT
  5
8B55
330
8B53
100
AcDbEntity
  8
L0_
  6
Continuous
100
AcDbBlockReference
  2
B3987
 10
0.0
 20
0.0
 30
0.0
  0
TEXT
  5
8B56
330
8B53
100
AcDbEntity
  8
L0_
  6
Continuous
100
AcDbText
 10
1677.315063
 20
1502.164184999999
 30
0.0
 40
12.0
  1
M4x0.7
 41
1.241379310344828
  7
LEROY
 72
     5
 11
1749.315063
 21
1502.164184999999
 31
0.0
100
AcDbText
 73
     2
  0
ENDBLK
  5
8B57
330
8B53
100
AcDbEntity
  8
L230_
  6
Continuous
 62
     6
100
AcDbBlockEnd
  0
BLOCK
  5
912A
330
9129
100
AcDbEntity
  8
0
100
AcDbBlockBegin
  2
*D40
 70
     1
 10
0.0
 20
0.0
 30
0.0
  3
*D40
  1

  0
LINE
  5
9142
330
9129
100
AcDbEntity
  8
30
 62
     0
370
    -2
100
AcDbLine
 10
-12.5
 20
-321.0
 30
0.0
 11
-12.5
 21
-340.5
 31
0.0
  0
LINE
  5
9143
330
9129
100
AcDbEntity
  8
30
 62
     0
370
    -2
100
AcDbLine
 10
-35.0
 20
-339.0
 30
0.0
 11
-35.0
 21
-339.5
 31
0.0
  0
LINE
  5
9144
330
9129
100
AcDbEntity
  8
30
 62
     0
370
    -2
100
AcDbLine
 10
-14.5
 20
-340.0
 30
0.0
 11
-33.0
 21
-340.0
 31
0.0
  0
INSERT
  5
9145
330
9129
100
AcDbEntity
  8
30
 62
     0
370
    -2
100
AcDbBlockReference
  2
_OPEN
 10
-12.5
 20
-340.0
 30
0.0
 41
2.0
 42
2.0
 43
2.0
  0
INSERT
  5
9146
330
9129
100
AcDbEntity
  8
30
 62
     0
370
    -2
100
AcDbBlockReference
  2
_OPEN
 10
-35.0
 20
-340.0
 30
0.0
 41
2.0
 42
2.0
 43
2.0
 50
180.0
  0
MTEXT
  5
9147
330
9129
100
AcDbEntity
  8
30
 62
     0
100
AcDbMText
 10
-23.75
 20
-337.0
 30
0.0
 40
4.0
 41
0.0
 71
     5
 72
     1
  1
\A1;22.5
 73
     1
 44
1.0
1001
ACAD
1000
MTEXTBEGIN
1070
    73
1070
     1
1070
    44
1040
1.0
1070
    74
1070
     0
1000
MTEXTEND
  0
POINT
  5
9148
330
9129
100
AcDbEntity
  8
DEFPOINTS
 62
     0
100
AcDbPoint
 10
-12.5
 20
-320.0
 30
0.0
  0
POINT
  5
9149
330
9129
100
AcDbEntity
  8
DEFPOINTS
 62
     0
100
AcDbPoint
 10
-35.0
 20
-340.0
 30
0.0
  0
POINT
  5
914A
330
9129
100
AcDbEntity
  8
DEFPOINTS
 62
     0
100
AcDbPoint
 10
-35.0
 20
-340.0
 30
0.0
  0
ENDBLK
  5
912B
330
9129
100
AcDbEntity
  8
0
100
AcDbBlockEnd
  0
BLOCK
  5
94E7
330
94E2
100
AcDbEntity
  8
0
100
AcDbBlockBegin
  2
A$C7B62089D
 70
     0
 10
0.0
 20
0.0
 30
0.0
  3
A$C7B62089D
  1

  0
TEXT
  5
94E3
330
94E2
100
AcDbEntity
  8
30
  6
Continuous
100
AcDbText
 10
27.60485799999992
 20
-85.0
 30
0.0
 40
5.0
  1
n15 for accessory wiring when necessary 
 41
1.519577165120593
 72
     5
 11
300.622222
 21
-85.0
 31
0.0
100
AcDbText
 73
     2
  0
LEADER
  5
94E4
330
94E2
100
AcDbEntity
  8
30
  6
Continuous
100
AcDbLeader
  3
STANDARD
 76
     3
 10
3.718532827885723
 20
-6.415903473739092
 30
0.0
 10
25.0
 20
-90.0
 30
0.0
 10
295.0001219999998
 20
-90.0
 30
0.0
213
6.470981377232305
223
2.0
233
0.0
1001
ACAD
1000
DSTYLE
1002
{
1070
    41
1040
2.5
1070
    77
1070
     0
1070
    79
1070
     3
1070
   147
1040
1.0
1070
   342
1005
3B2
1002
}
  0
ENDBLK
  5
94E8
330
94E2
100
AcDbEntity
  8
0
100
AcDbBlockEnd
  0
BLOCK
  5
9632
330
962C
100
AcDbEntity
  8
0
100
AcDbBlockBegin
  2
A$C07816143
 70
     0
 10
0.0
 20
0.0
 30
0.0
  3
A$C07816143
  1

  0
LWPOLYLINE
  5
962D
330
962C
100
AcDbEntity
  8
30
  6
Continuous
100
AcDbPolyline
 90
        2
 70
     0
 43
0.001
 10
52.91555800000002
 20
-24.50000000000012
 10
13.43377700000002
 20
-24.50000000000012
  0
LEADER
  5
962E
330
962C
100
AcDbEntity
  8
30
  6
Continuous
100
AcDbLeader
  3
STANDARD
 76
     3
 10
0.0
 20
-0.0000000000000071
 30
0.0
 10
13.43377700000002
 20
-24.50000000000012
 30
0.0
 10
52.91555800000002
 20
-24.50000000000012
 30
0.0
213
6.470981377232305
223
2.0
233
0.0
1001
ACAD
1000
DSTYLE
1002
{
1070
    41
1040
2.5
1070
    77
1070
     0
1070
    79
1070
     3
1070
   147
1040
1.0
1070
   342
1005
3B2
1002
}
  0
TEXT
  5
962F
330
962C
100
AcDbEntity
  8
30
  6
Continuous
100
AcDbText
 10
14.87794114169986
 20
-22.52521187019937
 30
0.0
 40
5.0
  1
M6 screw
  7
STANDARD1
100
AcDbText
  0
ENDBLK
  5
9633
330
962C
100
AcDbEntity
  8
0
100
AcDbBlockEnd
  0
BLOCK
  5
9635
330
9634
100
AcDbEntity
  8
0
100
AcDbBlockBegin
  2
*D43
 70
     1
 10
0.0
 20
0.0
 30
0.0
  3
*D43
  1

  0
LINE
  5
9636
330
9634
100
AcDbEntity
  8
30
  6
Continuous
 62
     0
370
    -2
100
AcDbLine
 10
8.50000000000003
 20
318.8
 30
0.0
 11
-140.5
 21
318.8
 31
0.0
  0
LINE
  5
9637
330
9634
100
AcDbEntity
  8
30
  6
Continuous
 62
     0
370
    -2
100
AcDbLine
 10
-68.00202340076157
 20
185.0
 30
0.0
 11
-140.5
 21
185.0
 31
0.0
  0
LINE
  5
9638
330
9634
100
AcDbEntity
  8
30
  6
Continuous
 62
     0
370
    -2
100
AcDbLine
 10
-139.9999999999999
 20
316.8
 30
0.0
 11
-140.0
 21
187.0
 31
0.0
  0
INSERT
  5
9639
330
9634
100
AcDbEntity
  8
30
  6
Continuous
 62
     0
370
    -2
100
AcDbBlockReference
  2
_OPEN
 10
-139.9999999999999
 20
318.8
 30
0.0
 41
2.0
 42
2.0
 43
2.0
 50
90.0
  0
INSERT
  5
963A
330
9634
100
AcDbEntity
  8
30
  6
Continuous
 62
     0
370
    -2
100
AcDbBlockReference
  2
_OPEN
 10
-140.0
 20
185.0
 30
0.0
 41
2.0
 42
2.0
 43
2.0
 50
270.0
  0
MTEXT
  5
963B
330
9634
100
AcDbEntity
  8
30
  6
Continuous
 62
     0
100
AcDbMText
 10
-143.0
 20
251.9
 30
0.0
 40
4.0
 41
0.0
 71
     5
 72
     1
  1
\A1;133.8
 11
0.0000000000000001
 21
1.0
 31
0.0
 73
     1
 44
1.0
1001
ACAD
1000
MTEXTBEGIN
1070
    73
1070
     1
1070
    44
1040
1.0
1070
    74
1070
     0
1000
MTEXTEND
  0
POINT
  5
963C
330
9634
100
AcDbEntity
  8
DEFPOINTS
  6
Continuous
 62
     0
100
AcDbPoint
 10
9.500000000000033
 20
318.8
 30
0.0
  0
POINT
  5
963D
330
9634
100
AcDbEntity
  8
DEFPOINTS
  6
Continuous
 62
     0
100
AcDbPoint
 10
-67.00202340076157
 20
185.0
 30
0.0
  0
POINT
  5
963E
330
9634
100
AcDbEntity
  8
DEFPOINTS
  6
Continuous
 62
     0
100
AcDbPoint
 10
-140.0
 20
185.0
 30
0.0
  0
ENDBLK
  5
963F
330
9634
100
AcDbEntity
  8
0
100
AcDbBlockEnd
  0
BLOCK
  5
9641
330
9640
100
AcDbEntity
  8
0
100
AcDbBlockBegin
  2
*D44
 70
     1
 10
0.0
 20
0.0
 30
0.0
  3
*D44
  1

  0
LINE
  5
9642
330
9640
100
AcDbEntity
  8
30
  6
Continuous
 62
     0
370
    -2
100
AcDbLine
 10
-3.469481999999965
 20
303.8
 30
0.0
 11
-120.4999999999999
 21
303.8
 31
0.0
  0
LINE
  5
9643
330
9640
100
AcDbEntity
  8
30
  6
Continuous
 62
     0
370
    -2
100
AcDbLine
 10
-68.00202340076157
 20
185.0
 30
0.0
 11
-120.5
 21
185.0
 31
0.0
  0
LINE
  5
9644
330
9640
100
AcDbEntity
  8
30
  6
Continuous
 62
     0
370
    -2
100
AcDbLine
 10
-119.9999999999999
 20
301.8
 30
0.0
 11
-120.0
 21
187.0
 31
0.0
  0
INSERT
  5
9645
330
9640
100
AcDbEntity
  8
30
  6
Continuous
 62
     0
370
    -2
100
AcDbBlockReference
  2
_OPEN
 10
-119.9999999999999
 20
303.8
 30
0.0
 41
2.0
 42
2.0
 43
2.0
 50
90.0
  0
INSERT
  5
9646
330
9640
100
AcDbEntity
  8
30
  6
Continuous
 62
     0
370
    -2
100
AcDbBlockReference
  2
_OPEN
 10
-120.0
 20
185.0
 30
0.0
 41
2.0
 42
2.0
 43
2.0
 50
270.0
  0
MTEXT
  5
9647
330
9640
100
AcDbEntity
  8
30
  6
Continuous
 62
     0
100
AcDbMText
 10
-123.0
 20
244.4
 30
0.0
 40
4.0
 41
0.0
 71
     5
 72
     1
  1
\A1;118.8
 11
0.0000000000000001
 21
1.0
 31
0.0
 73
     1
 44
1.0
1001
ACAD
1000
MTEXTBEGIN
1070
    73
1070
     1
1070
    44
1040
1.0
1070
    74
1070
     0
1000
MTEXTEND
  0
POINT
  5
9648
330
9640
100
AcDbEntity
  8
DEFPOINTS
  6
Continuous
 62
     0
100
AcDbPoint
 10
-2.469481999999965
 20
303.8
 30
0.0
  0
POINT
  5
9649
330
9640
100
AcDbEntity
  8
DEFPOINTS
  6
Continuous
 62
     0
100
AcDbPoint
 10
-67.00202340076157
 20
185.0
 30
0.0
  0
POINT
  5
964A
330
9640
100
AcDbEntity
  8
DEFPOINTS
  6
Continuous
 62
     0
100
AcDbPoint
 10
-120.0
 20
185.0
 30
0.0
  0
ENDBLK
  5
964B
330
9640
100
AcDbEntity
  8
0
100
AcDbBlockEnd
  0
BLOCK
  5
964D
330
964C
100
AcDbEntity
  8
0
100
AcDbBlockBegin
  2
*D45
 70
     1
 10
0.0
 20
0.0
 30
0.0
  3
*D45
  1

  0
LINE
  5
964E
330
964C
100
AcDbEntity
  8
30
  6
Continuous
 62
     0
370
    -2
100
AcDbLine
 10
-16.5
 20
283.8
 30
0.0
 11
-100.5
 21
283.8
 31
0.0
  0
LINE
  5
964F
330
964C
100
AcDbEntity
  8
30
  6
Continuous
 62
     0
370
    -2
100
AcDbLine
 10
-68.00202340076157
 20
185.0
 30
0.0
 11
-100.5
 21
185.0
 31
0.0
  0
LINE
  5
9650
330
964C
100
AcDbEntity
  8
30
  6
Continuous
 62
     0
370
    -2
100
AcDbLine
 10
-100.0
 20
281.8
 30
0.0
 11
-100.0
 21
187.0
 31
0.0
  0
INSERT
  5
9651
330
964C
100
AcDbEntity
  8
30
  6
Continuous
 62
     0
370
    -2
100
AcDbBlockReference
  2
_OPEN
 10
-100.0
 20
283.8
 30
0.0
 41
2.0
 42
2.0
 43
2.0
 50
90.0
  0
INSERT
  5
9652
330
964C
100
AcDbEntity
  8
30
  6
Continuous
 62
     0
370
    -2
100
AcDbBlockReference
  2
_OPEN
 10
-100.0
 20
185.0
 30
0.0
 41
2.0
 42
2.0
 43
2.0
 50
270.0
  0
MTEXT
  5
9653
330
964C
100
AcDbEntity
  8
30
  6
Continuous
 62
     0
100
AcDbMText
 10
-103.0
 20
234.4
 30
0.0
 40
4.0
 41
0.0
 71
     5
 72
     1
  1
\A1;98.8
 11
0.0000000000000001
 21
1.0
 31
0.0
 73
     1
 44
1.0
1001
ACAD
1000
MTEXTBEGIN
1070
    73
1070
     1
1070
    44
1040
1.0
1070
    74
1070
     0
1000
MTEXTEND
  0
POINT
  5
9654
330
964C
100
AcDbEntity
  8
DEFPOINTS
  6
Continuous
 62
     0
100
AcDbPoint
 10
-15.5
 20
283.8
 30
0.0
  0
POINT
  5
9655
330
964C
100
AcDbEntity
  8
DEFPOINTS
  6
Continuous
 62
     0
100
AcDbPoint
 10
-67.00202340076157
 20
185.0
 30
0.0
  0
POINT
  5
9656
330
964C
100
AcDbEntity
  8
DEFPOINTS
  6
Continuous
 62
     0
100
AcDbPoint
 10
-100.0
 20
185.0
 30
0.0
  0
ENDBLK
  5
9657
330
964C
100
AcDbEntity
  8
0
100
AcDbBlockEnd
  0
BLOCK
  5
9659
330
9658
100
AcDbEntity
  8
0
100
AcDbBlockBegin
  2
*D46
 70
     1
 10
0.0
 20
0.0
 30
0.0
  3
*D46
  1

  0
LINE
  5
965A
330
9658
100
AcDbEntity
  8
30
  6
Continuous
 62
     0
370
    -2
100
AcDbLine
 10
-28.46948199999997
 20
268.8
 30
0.0
 11
-80.49999999999998
 21
268.8
 31
0.0
  0
LINE
  5
965B
330
9658
100
AcDbEntity
  8
30
  6
Continuous
 62
     0
370
    -2
100
AcDbLine
 10
-68.00202340076157
 20
185.0
 30
0.0
 11
-80.5
 21
185.0
 31
0.0
  0
LINE
  5
965C
330
9658
100
AcDbEntity
  8
30
  6
Continuous
 62
     0
370
    -2
100
AcDbLine
 10
-79.99999999999999
 20
266.8
 30
0.0
 11
-80.0
 21
187.0
 31
0.0
  0
INSERT
  5
965D
330
9658
100
AcDbEntity
  8
30
  6
Continuous
 62
     0
370
    -2
100
AcDbBlockReference
  2
_OPEN
 10
-79.99999999999999
 20
268.8
 30
0.0
 41
2.0
 42
2.0
 43
2.0
 50
90.0
  0
INSERT
  5
965E
330
9658
100
AcDbEntity
  8
30
  6
Continuous
 62
     0
370
    -2
100
AcDbBlockReference
  2
_OPEN
 10
-80.0
 20
185.0
 30
0.0
 41
2.0
 42
2.0
 43
2.0
 50
270.0
  0
MTEXT
  5
965F
330
9658
100
AcDbEntity
  8
30
  6
Continuous
 62
     0
100
AcDbMText
 10
-83.00000000000002
 20
226.9
 30
0.0
 40
4.0
 41
0.0
 71
     5
 72
     1
  1
\A1;83.8
 11
0.0000000000000001
 21
1.0
 31
0.0
 73
     1
 44
1.0
1001
ACAD
1000
MTEXTBEGIN
1070
    73
1070
     1
1070
    44
1040
1.0
1070
    74
1070
     0
1000
MTEXTEND
  0
POINT
  5
9660
330
9658
100
AcDbEntity
  8
DEFPOINTS
  6
Continuous
 62
     0
100
AcDbPoint
 10
-27.46948199999997
 20
268.8
 30
0.0
  0
POINT
  5
9661
330
9658
100
AcDbEntity
  8
DEFPOINTS
  6
Continuous
 62
     0
100
AcDbPoint
 10
-67.00202340076157
 20
185.0
 30
0.0
  0
POINT
  5
9662
330
9658
100
AcDbEntity
  8
DEFPOINTS
  6
Continuous
 62
     0
100
AcDbPoint
 10
-80.0
 20
185.0
 30
0.0
  0
ENDBLK
  5
9663
330
9658
100
AcDbEntity
  8
0
100
AcDbBlockEnd
  0
BLOCK
  5
9673
330
9672
100
AcDbEntity
  8
0
100
AcDbBlockBegin
  2
*D47
 70
     1
 10
0.0
 20
0.0
 30
0.0
  3
*D47
  1

  0
LINE
  5
96E5
330
9672
100
AcDbEntity
  8
30
  6
Continuous
 62
     0
370
    -2
100
AcDbLine
 10
7.500000000000031
 20
325.1
 30
0.0
 11
-140.5
 21
325.1000000000001
 31
0.0
  0
LINE
  5
96E6
330
9672
100
AcDbEntity
  8
30
  6
Continuous
 62
     0
370
    -2
100
AcDbLine
 10
-68.00202340076157
 20
238.0
 30
0.0
 11
-140.5
 21
238.0
 31
0.0
  0
LINE
  5
96E7
330
9672
100
AcDbEntity
  8
30
  6
Continuous
 62
     0
370
    -2
100
AcDbLine
 10
-139.9999999999999
 20
323.1000000000002
 30
0.0
 11
-140.0
 21
240.0
 31
0.0
  0
INSERT
  5
96E8
330
9672
100
AcDbEntity
  8
30
  6
Continuous
 62
     0
370
    -2
100
AcDbBlockReference
  2
_OPEN
 10
-139.9999999999999
 20
325.1000000000001
 30
0.0
 41
2.0
 42
2.0
 43
2.0
 50
90.0
  0
INSERT
  5
96E9
330
9672
100
AcDbEntity
  8
30
  6
Continuous
 62
     0
370
    -2
100
AcDbBlockReference
  2
_OPEN
 10
-140.0
 20
238.0
 30
0.0
 41
2.0
 42
2.0
 43
2.0
 50
270.0
  0
MTEXT
  5
96EA
330
9672
100
AcDbEntity
  8
30
  6
Continuous
 62
     0
100
AcDbMText
 10
-143.0
 20
281.55
 30
0.0
 40
4.0
 41
0.0
 71
     5
 72
     1
  1
\A1;87.1
 11
0.0000000000000001
 21
1.0
 31
0.0
 73
     1
 44
1.0
1001
ACAD
1000
MTEXTBEGIN
1070
    73
1070
     1
1070
    44
1040
1.0
1070
    74
1070
     0
1000
MTEXTEND
  0
POINT
  5
96EB
330
9672
100
AcDbEntity
  8
DEFPOINTS
  6
Continuous
 62
     0
100
AcDbPoint
 10
8.50000000000003
 20
325.1
 30
0.0
  0
POINT
  5
96EC
330
9672
100
AcDbEntity
  8
DEFPOINTS
  6
Continuous
 62
     0
100
AcDbPoint
 10
-67.00202340076157
 20
238.0
 30
0.0
  0
POINT
  5
96ED
330
9672
100
AcDbEntity
  8
DEFPOINTS
  6
Continuous
 62
     0
100
AcDbPoint
 10
-140.0
 20
238.0
 30
0.0
  0
ENDBLK
  5
9674
330
9672
100
AcDbEntity
  8
0
100
AcDbBlockEnd
  0
BLOCK
  5
967F
330
967E
100
AcDbEntity
  8
0
100
AcDbBlockBegin
  2
*D48
 70
     1
 10
0.0
 20
0.0
 30
0.0
  3
*D48
  1

  0
LINE
  5
96DC
330
967E
100
AcDbEntity
  8
30
  6
Continuous
 62
     0
370
    -2
100
AcDbLine
 10
-3.469481999999969
 20
305.1
 30
0.0
 11
-120.5
 21
305.1
 31
0.0
  0
LINE
  5
96DD
330
967E
100
AcDbEntity
  8
30
  6
Continuous
 62
     0
370
    -2
100
AcDbLine
 10
-68.00202340076157
 20
238.0
 30
0.0
 11
-120.5
 21
238.0
 31
0.0
  0
LINE
  5
96DE
330
967E
100
AcDbEntity
  8
30
  6
Continuous
 62
     0
370
    -2
100
AcDbLine
 10
-120.0
 20
303.1
 30
0.0
 11
-120.0
 21
240.0
 31
0.0
  0
INSERT
  5
96DF
330
967E
100
AcDbEntity
  8
30
  6
Continuous
 62
     0
370
    -2
100
AcDbBlockReference
  2
_OPEN
 10
-120.0
 20
305.1
 30
0.0
 41
2.0
 42
2.0
 43
2.0
 50
90.0
  0
INSERT
  5
96E0
330
967E
100
AcDbEntity
  8
30
  6
Continuous
 62
     0
370
    -2
100
AcDbBlockReference
  2
_OPEN
 10
-120.0
 20
238.0
 30
0.0
 41
2.0
 42
2.0
 43
2.0
 50
270.0
  0
MTEXT
  5
96E1
330
967E
100
AcDbEntity
  8
30
  6
Continuous
 62
     0
100
AcDbMText
 10
-123.0
 20
271.55
 30
0.0
 40
4.0
 41
0.0
 71
     5
 72
     1
  1
\A1;67.1
 11
0.0000000000000001
 21
1.0
 31
0.0
 73
     1
 44
1.0
1001
ACAD
1000
MTEXTBEGIN
1070
    73
1070
     1
1070
    44
1040
1.0
1070
    74
1070
     0
1000
MTEXTEND
  0
POINT
  5
96E2
330
967E
100
AcDbEntity
  8
DEFPOINTS
  6
Continuous
 62
     0
100
AcDbPoint
 10
-2.469481999999969
 20
305.1
 30
0.0
  0
POINT
  5
96E3
330
967E
100
AcDbEntity
  8
DEFPOINTS
  6
Continuous
 62
     0
100
AcDbPoint
 10
-67.00202340076157
 20
238.0
 30
0.0
  0
POINT
  5
96E4
330
967E
100
AcDbEntity
  8
DEFPOINTS
  6
Continuous
 62
     0
100
AcDbPoint
 10
-120.0
 20
238.0
 30
0.0
  0
ENDBLK
  5
9680
330
967E
100
AcDbEntity
  8
0
100
AcDbBlockEnd
  0
BLOCK
  5
968B
330
968A
100
AcDbEntity
  8
0
100
AcDbBlockBegin
  2
*D49
 70
     1
 10
0.0
 20
0.0
 30
0.0
  3
*D49
  1

  0
LINE
  5
96D3
330
968A
100
AcDbEntity
  8
30
  6
Continuous
 62
     0
370
    -2
100
AcDbLine
 10
-17.49999999999997
 20
290.1
 30
0.0
 11
-100.5
 21
290.1
 31
0.0
  0
LINE
  5
96D4
330
968A
100
AcDbEntity
  8
30
  6
Continuous
 62
     0
370
    -2
100
AcDbLine
 10
-68.00202340076157
 20
238.0
 30
0.0
 11
-100.5
 21
238.0
 31
0.0
  0
LINE
  5
96D5
330
968A
100
AcDbEntity
  8
30
  6
Continuous
 62
     0
370
    -2
100
AcDbLine
 10
-100.0
 20
288.1
 30
0.0
 11
-100.0
 21
240.0
 31
0.0
  0
INSERT
  5
96D6
330
968A
100
AcDbEntity
  8
30
  6
Continuous
 62
     0
370
    -2
100
AcDbBlockReference
  2
_OPEN
 10
-100.0
 20
290.1
 30
0.0
 41
2.0
 42
2.0
 43
2.0
 50
90.0
  0
INSERT
  5
96D7
330
968A
100
AcDbEntity
  8
30
  6
Continuous
 62
     0
370
    -2
100
AcDbBlockReference
  2
_OPEN
 10
-100.0
 20
238.0
 30
0.0
 41
2.0
 42
2.0
 43
2.0
 50
270.0
  0
MTEXT
  5
96D8
330
968A
100
AcDbEntity
  8
30
  6
Continuous
 62
     0
100
AcDbMText
 10
-103.0
 20
264.05
 30
0.0
 40
4.0
 41
0.0
 71
     5
 72
     1
  1
\A1;52.1
 11
0.0000000000000001
 21
1.0
 31
0.0
 73
     1
 44
1.0
1001
ACAD
1000
MTEXTBEGIN
1070
    73
1070
     1
1070
    44
1040
1.0
1070
    74
1070
     0
1000
MTEXTEND
  0
POINT
  5
96D9
330
968A
100
AcDbEntity
  8
DEFPOINTS
  6
Continuous
 62
     0
100
AcDbPoint
 10
-16.49999999999997
 20
290.1
 30
0.0
  0
POINT
  5
96DA
330
968A
100
AcDbEntity
  8
DEFPOINTS
  6
Continuous
 62
     0
100
AcDbPoint
 10
-67.00202340076157
 20
238.0
 30
0.0
  0
POINT
  5
96DB
330
968A
100
AcDbEntity
  8
DEFPOINTS
  6
Continuous
 62
     0
100
AcDbPoint
 10
-100.0
 20
238.0
 30
0.0
  0
ENDBLK
  5
968C
330
968A
100
AcDbEntity
  8
0
100
AcDbBlockEnd
  0
BLOCK
  5
9697
330
9696
100
AcDbEntity
  8
0
100
AcDbBlockBegin
  2
*D50
 70
     1
 10
0.0
 20
0.0
 30
0.0
  3
*D50
  1

  0
LINE
  5
96CA
330
9696
100
AcDbEntity
  8
30
  6
Continuous
 62
     0
370
    -2
100
AcDbLine
 10
-28.46948199999997
 20
270.1
 30
0.0
 11
-80.5
 21
270.1
 31
0.0
  0
LINE
  5
96CB
330
9696
100
AcDbEntity
  8
30
  6
Continuous
 62
     0
370
    -2
100
AcDbLine
 10
-68.00202340076157
 20
238.0
 30
0.0
 11
-80.5
 21
238.0
 31
0.0
  0
LINE
  5
96CC
330
9696
100
AcDbEntity
  8
30
  6
Continuous
 62
     0
370
    -2
100
AcDbLine
 10
-80.0
 20
268.1
 30
0.0
 11
-80.0
 21
240.0
 31
0.0
  0
INSERT
  5
96CD
330
9696
100
AcDbEntity
  8
30
  6
Continuous
 62
     0
370
    -2
100
AcDbBlockReference
  2
_OPEN
 10
-80.0
 20
270.1
 30
0.0
 41
2.0
 42
2.0
 43
2.0
 50
90.0
  0
INSERT
  5
96CE
330
9696
100
AcDbEntity
  8
30
  6
Continuous
 62
     0
370
    -2
100
AcDbBlockReference
  2
_OPEN
 10
-80.0
 20
238.0
 30
0.0
 41
2.0
 42
2.0
 43
2.0
 50
270.0
  0
MTEXT
  5
96CF
330
9696
100
AcDbEntity
  8
30
  6
Continuous
 62
     0
100
AcDbMText
 10
-83.00000000000004
 20
254.05
 30
0.0
 40
4.0
 41
0.0
 71
     5
 72
     1
  1
\A1;32.1
 11
0.0000000000000001
 21
1.0
 31
0.0
 73
     1
 44
1.0
1001
ACAD
1000
MTEXTBEGIN
1070
    73
1070
     1
1070
    44
1040
1.0
1070
    74
1070
     0
1000
MTEXTEND
  0
POINT
  5
96D0
330
9696
100
AcDbEntity
  8
DEFPOINTS
  6
Continuous
 62
     0
100
AcDbPoint
 10
-27.46948199999997
 20
270.1
 30
0.0
  0
POINT
  5
96D1
330
9696
100
AcDbEntity
  8
DEFPOINTS
  6
Continuous
 62
     0
100
AcDbPoint
 10
-67.00202340076157
 20
238.0
 30
0.0
  0
POINT
  5
96D2
330
9696
100
AcDbEntity
  8
DEFPOINTS
  6
Continuous
 62
     0
100
AcDbPoint
 10
-80.0
 20
238.0
 30
0.0
  0
ENDBLK
  5
9698
330
9696
100
AcDbEntity
  8
0
100
AcDbBlockEnd
  0
BLOCK
  5
9787
330
9786
100
AcDbEntity
  8
0
100
AcDbBlockBegin
  2
*D51
 70
     1
 10
0.0
 20
0.0
 30
0.0
  3
*D51
  1

  0
LINE
  5
9788
330
9786
100
AcDbEntity
  8
30
  6
Continuous
 62
     0
370
    -2
100
AcDbLine
 10
305.1
 20
-60.0000000000001
 30
0.0
 11
305.1
 21
-120.4999999999999
 31
0.0
  0
LINE
  5
9789
330
9786
100
AcDbEntity
  8
30
  6
Continuous
 62
     0
370
    -2
100
AcDbLine
 10
218.0000000000002
 20
-65.99999999999993
 30
0.0
 11
218.0000000000002
 21
-120.4999999999999
 31
0.0
  0
LINE
  5
978A
330
9786
100
AcDbEntity
  8
30
  6
Continuous
 62
     0
370
    -2
100
AcDbLine
 10
303.1
 20
-119.9999999999999
 30
0.0
 11
220.0000000000002
 21
-119.9999999999999
 31
0.0
  0
INSERT
  5
978B
330
9786
100
AcDbEntity
  8
30
  6
Continuous
 62
     0
370
    -2
100
AcDbBlockReference
  2
_OPEN
 10
305.1
 20
-119.9999999999999
 30
0.0
 41
2.0
 42
2.0
 43
2.0
  0
INSERT
  5
978C
330
9786
100
AcDbEntity
  8
30
  6
Continuous
 62
     0
370
    -2
100
AcDbBlockReference
  2
_OPEN
 10
218.0000000000002
 20
-119.9999999999999
 30
0.0
 41
2.0
 42
2.0
 43
2.0
 50
180.0
  0
MTEXT
  5
978D
330
9786
100
AcDbEntity
  8
30
  6
Continuous
 62
     0
100
AcDbMText
 10
261.5500000000001
 20
-116.9999999999999
 30
0.0
 40
4.0
 41
0.0
 71
     5
 72
     1
  1
\A1;87.1
 73
     1
 44
1.0
1001
ACAD
1000
MTEXTBEGIN
1070
    73
1070
     1
1070
    44
1040
1.0
1070
    74
1070
     0
1000
MTEXTEND
  0
POINT
  5
978E
330
9786
100
AcDbEntity
  8
DEFPOINTS
  6
Continuous
 62
     0
100
AcDbPoint
 10
305.1
 20
-59.00000000000011
 30
0.0
  0
POINT
  5
978F
330
9786
100
AcDbEntity
  8
DEFPOINTS
  6
Continuous
 62
     0
100
AcDbPoint
 10
218.0000000000002
 20
-64.99999999999992
 30
0.0
  0
POINT
  5
9790
330
9786
100
AcDbEntity
  8
DEFPOINTS
  6
Continuous
 62
     0
100
AcDbPoint
 10
218.0000000000002
 20
-119.9999999999999
 30
0.0
  0
ENDBLK
  5
9791
330
9786
100
AcDbEntity
  8
0
100
AcDbBlockEnd
  0
BLOCK
  5
9793
330
9792
100
AcDbEntity
  8
0
100
AcDbBlockBegin
  2
*D52
 70
     1
 10
0.0
 20
0.0
 30
0.0
  3
*D52
  1

  0
LINE
  5
9794
330
9792
100
AcDbEntity
  8
30
  6
Continuous
 62
     0
370
    -2
100
AcDbLine
 10
270.1000000000001
 20
-59.99999950000014
 30
0.0
 11
270.1000000000001
 21
-110.5
 31
0.0
  0
LINE
  5
9795
330
9792
100
AcDbEntity
  8
30
  6
Continuous
 62
     0
370
    -2
100
AcDbLine
 10
218.0000000000002
 20
-56.00000000000003
 30
0.0
 11
218.0000000000002
 21
-110.5
 31
0.0
  0
LINE
  5
9796
330
9792
100
AcDbEntity
  8
30
  6
Continuous
 62
     0
370
    -2
100
AcDbLine
 10
268.1000000000001
 20
-110.0
 30
0.0
 11
220.0000000000002
 21
-110.0
 31
0.0
  0
INSERT
  5
9797
330
9792
100
AcDbEntity
  8
30
  6
Continuous
 62
     0
370
    -2
100
AcDbBlockReference
  2
_OPEN
 10
270.1000000000001
 20
-110.0
 30
0.0
 41
2.0
 42
2.0
 43
2.0
  0
INSERT
  5
9798
330
9792
100
AcDbEntity
  8
30
  6
Continuous
 62
     0
370
    -2
100
AcDbBlockReference
  2
_OPEN
 10
218.0000000000002
 20
-110.0
 30
0.0
 41
2.0
 42
2.0
 43
2.0
 50
180.0
  0
MTEXT
  5
9799
330
9792
100
AcDbEntity
  8
30
  6
Continuous
 62
     0
100
AcDbMText
 10
244.0500000000001
 20
-107.0
 30
0.0
 40
4.0
 41
0.0
 71
     5
 72
     1
  1
\A1;52.1
 73
     1
 44
1.0
1001
ACAD
1000
MTEXTBEGIN
1070
    73
1070
     1
1070
    44
1040
1.0
1070
    74
1070
     0
1000
MTEXTEND
  0
POINT
  5
979A
330
9792
100
AcDbEntity
  8
DEFPOINTS
  6
Continuous
 62
     0
100
AcDbPoint
 10
270.1000000000001
 20
-58.99999950000014
 30
0.0
  0
POINT
  5
979B
330
9792
100
AcDbEntity
  8
DEFPOINTS
  6
Continuous
 62
     0
100
AcDbPoint
 10
218.0000000000002
 20
-55.00000000000003
 30
0.0
  0
POINT
  5
979C
330
9792
100
AcDbEntity
  8
DEFPOINTS
  6
Continuous
 62
     0
100
AcDbPoint
 10
218.0000000000002
 20
-110.0
 30
0.0
  0
ENDBLK
  5
979D
330
9792
100
AcDbEntity
  8
0
100
AcDbBlockEnd
  0
BLOCK
  5
986D
330
986C
100
AcDbEntity
  8
0
100
AcDbBlockBegin
  2
*D54
 70
     1
 10
0.0
 20
0.0
 30
0.0
  3
*D54
  1

  0
LINE
  5
9884
330
986C
100
AcDbEntity
  8
30
  6
Continuous
 62
     0
370
    -2
100
AcDbLine
 10
305.1
 20
-60.00000000000007
 30
0.0
 11
305.1
 21
-120.4999999999998
 31
0.0
  0
LINE
  5
9885
330
986C
100
AcDbEntity
  8
30
  6
Continuous
 62
     0
370
    -2
100
AcDbLine
 10
218.0000000000002
 20
-65.99999999999988
 30
0.0
 11
218.0000000000002
 21
-120.4999999999998
 31
0.0
  0
LINE
  5
9886
330
986C
100
AcDbEntity
  8
30
  6
Continuous
 62
     0
370
    -2
100
AcDbLine
 10
303.1
 20
-119.9999999999998
 30
0.0
 11
220.0000000000002
 21
-119.9999999999998
 31
0.0
  0
INSERT
  5
9887
330
986C
100
AcDbEntity
  8
30
  6
Continuous
 62
     0
370
    -2
100
AcDbBlockReference
  2
_OPEN
 10
305.1
 20
-119.9999999999998
 30
0.0
 41
2.0
 42
2.0
 43
2.0
  0
INSERT
  5
9888
330
986C
100
AcDbEntity
  8
30
  6
Continuous
 62
     0
370
    -2
100
AcDbBlockReference
  2
_OPEN
 10
218.0000000000002
 20
-119.9999999999998
 30
0.0
 41
2.0
 42
2.0
 43
2.0
 50
180.0
  0
MTEXT
  5
9889
330
986C
100
AcDbEntity
  8
30
  6
Continuous
 62
     0
100
AcDbMText
 10
261.5500000000001
 20
-116.9999999999998
 30
0.0
 40
4.0
 41
0.0
 71
     5
 72
     1
  1
\A1;87.1
 73
     1
 44
1.0
1001
ACAD
1000
MTEXTBEGIN
1070
    73
1070
     1
1070
    44
1040
1.0
1070
    74
1070
     0
1000
MTEXTEND
  0
POINT
  5
988A
330
986C
100
AcDbEntity
  8
DEFPOINTS
  6
Continuous
 62
     0
100
AcDbPoint
 10
305.1
 20
-59.00000000000006
 30
0.0
  0
POINT
  5
988B
330
986C
100
AcDbEntity
  8
DEFPOINTS
  6
Continuous
 62
     0
100
AcDbPoint
 10
218.0000000000002
 20
-64.99999999999989
 30
0.0
  0
POINT
  5
988C
330
986C
100
AcDbEntity
  8
DEFPOINTS
  6
Continuous
 62
     0
100
AcDbPoint
 10
218.0000000000002
 20
-119.9999999999998
 30
0.0
  0
ENDBLK
  5
986E
330
986C
100
AcDbEntity
  8
0
100
AcDbBlockEnd
  0
BLOCK
  5
9879
330
9878
100
AcDbEntity
  8
0
100
AcDbBlockBegin
  2
*D55
 70
     1
 10
0.0
 20
0.0
 30
0.0
  3
*D55
  1

  0
LINE
  5
988D
330
9878
100
AcDbEntity
  8
30
  6
Continuous
 62
     0
370
    -2
100
AcDbLine
 10
270.1000000000001
 20
-59.9999995000001
 30
0.0
 11
270.1000000000001
 21
-110.4999999999999
 31
0.0
  0
LINE
  5
988E
330
9878
100
AcDbEntity
  8
30
  6
Continuous
 62
     0
370
    -2
100
AcDbLine
 10
218.0000000000002
 20
-55.99999999999998
 30
0.0
 11
218.0000000000002
 21
-110.4999999999999
 31
0.0
  0
LINE
  5
988F
330
9878
100
AcDbEntity
  8
30
  6
Continuous
 62
     0
370
    -2
100
AcDbLine
 10
268.1000000000001
 20
-109.9999999999999
 30
0.0
 11
220.0000000000002
 21
-109.9999999999999
 31
0.0
  0
INSERT
  5
9890
330
9878
100
AcDbEntity
  8
30
  6
Continuous
 62
     0
370
    -2
100
AcDbBlockReference
  2
_OPEN
 10
270.1000000000001
 20
-109.9999999999999
 30
0.0
 41
2.0
 42
2.0
 43
2.0
  0
INSERT
  5
9891
330
9878
100
AcDbEntity
  8
30
  6
Continuous
 62
     0
370
    -2
100
AcDbBlockReference
  2
_OPEN
 10
218.0000000000002
 20
-109.9999999999999
 30
0.0
 41
2.0
 42
2.0
 43
2.0
 50
180.0
  0
MTEXT
  5
9892
330
9878
100
AcDbEntity
  8
30
  6
Continuous
 62
     0
100
AcDbMText
 10
244.0500000000001
 20
-106.9999999999999
 30
0.0
 40
4.0
 41
0.0
 71
     5
 72
     1
  1
\A1;52.1
 73
     1
 44
1.0
1001
ACAD
1000
MTEXTBEGIN
1070
    73
1070
     1
1070
    44
1040
1.0
1070
    74
1070
     0
1000
MTEXTEND
  0
POINT
  5
9893
330
9878
100
AcDbEntity
  8
DEFPOINTS
  6
Continuous
 62
     0
100
AcDbPoint
 10
270.1000000000001
 20
-58.9999995000001
 30
0.0
  0
POINT
  5
9894
330
9878
100
AcDbEntity
  8
DEFPOINTS
  6
Continuous
 62
     0
100
AcDbPoint
 10
218.0000000000002
 20
-54.99999999999999
 30
0.0
  0
POINT
  5
9895
330
9878
100
AcDbEntity
  8
DEFPOINTS
  6
Continuous
 62
     0
100
AcDbPoint
 10
218.0000000000002
 20
-109.9999999999999
 30
0.0
  0
ENDBLK
  5
987A
330
9878
100
AcDbEntity
  8
0
100
AcDbBlockEnd
  0
ENDSEC
  0
SECTION
  2
ENTITIES
  0
MTEXT
  5
BF3
330
1E
100
AcDbEntity
  8
24
  6
Continuous
100
AcDbMText
 10
140.9820964648285
 20
176.3476821548369
 30
0.0
 40
3.0
 41
0.0
 71
     1
 72
     1
  1
\A1;
 73
     1
 44
1.0
1001
ACAD
1000
MTEXTBEGIN
1070
    73
1070
     1
1070
    44
1040
1.0
1070
    74
1070
     0
1000
MTEXTEND
  0
MTEXT
  5
5C78
330
1E
100
AcDbEntity
  8
30
  6
Continuous
100
AcDbMText
 10
162.3297648581359
 20
88.99793930010117
 30
0.0
 40
4.0
 41
0.0
 71
     9
 72
     1
  1

 73
     1
 44
1.0
1001
ACAD
1000
MTEXTBEGIN
1070
    73
1070
     1
1070
    44
1040
1.0
1070
    74
1070
     0
1000
MTEXTEND
  0
MTEXT
  5
6200
330
1E
100
AcDbEntity
  8
30
  6
Continuous
100
AcDbMText
 10
160.6290066227675
 20
91.2377397662035
 30
0.0
 40
4.0
 41
0.0
 71
     9
 72
     1
  1

 73
     1
 44
1.0
1001
ACAD
1000
MTEXTBEGIN
1070
    73
1070
     1
1070
    44
1040
1.0
1070
    74
1070
     0
1000
MTEXTEND
  0
MTEXT
  5
6269
330
1E
100
AcDbEntity
  8
30
  6
Continuous
100
AcDbMText
 10
134.1806706399479
 20
218.0981872932211
 30
0.0
 40
5.0
 41
108.4105375854138
 71
     1
 72
     5
  1
E100-SF(60-100A) 2P RC
  7
STANDARD1
 73
     1
 44
1.0
1001
ACAD
1000
MTEXTBEGIN
1070
    73
1070
     1
1070
    44
1040
1.0
1070
    74
1070
     0
1000
MTEXTEND
  0
LWPOLYLINE
  5
64A9
330
1E
100
AcDbEntity
  8
18
  6
DIVIDE
100
AcDbPolyline
 90
        2
 70
     0
 43
0.001
 10
-25.0
 20
-315.0
 10
-25.0
 20
-185.0
  0
LWPOLYLINE
  5
64AA
330
1E
100
AcDbEntity
  8
18
  6
DIVIDE
100
AcDbPolyline
 90
        2
 70
     0
 43
0.001
 10
25.0
 20
-315.0
 10
25.0
 20
-185.0
  0
LWPOLYLINE
  5
64AB
330
1E
100
AcDbEntity
  8
18
  6
DIVIDE
100
AcDbPolyline
 90
        2
 70
     0
 43
0.001
 10
-25.00012200000015
 20
-185.0
 10
25.0
 20
-185.0
  0
LWPOLYLINE
  5
64AC
330
1E
100
AcDbEntity
  8
18
  6
DIVIDE
100
AcDbPolyline
 90
        2
 70
     0
 43
0.001
 10
-25.00012200000015
 20
-315.0
 10
25.0
 20
-315.0
  0
LINE
  5
6748
330
1E
100
AcDbEntity
  8
16
100
AcDbLine
 10
0.0
 20
-90.0
 30
0.0
 11
0.0
 21
90.0
 31
0.0
  0
LINE
  5
67D1
330
1E
100
AcDbEntity
  8
16
100
AcDbLine
 10
80.0
 20
0.0
 30
0.0
 11
-80.0
 21
0.0
 31
0.0
  0
LINE
  5
691F
330
1E
100
AcDbEntity
  8
16
100
AcDbLine
 10
250.0000000000001
 20
0.0
 30
0.0
 11
120.0
 21
0.0000000000001137
 31
0.0
  0
LINE
  5
6D67
330
1E
100
AcDbEntity
  8
16
100
AcDbLine
 10
80.0
 20
-250.0
 30
0.0
 11
-80.0
 21
-250.0
 31
0.0
  0
LINE
  5
6D68
330
1E
100
AcDbEntity
  8
16
100
AcDbLine
 10
0.0
 20
-350.0
 30
0.0
 11
0.0
 21
-150.0
 31
0.0
  0
DIMENSION
  5
6DBF
330
1E
100
AcDbEntity
  8
30
  6
Continuous
100
AcDbDimension
  2
*D8
 10
70.0
 20
-305.0
 30
0.0
 11
67.00000000000007
 21
-250.0
 31
0.0
 70
    32
 71
     5
 42
110.0
  3
STANDARD
100
AcDbAlignedDimension
 13
27.0
 23
-195.0
 33
0.0
 14
27.0
 24
-305.0
 34
0.0
 50
90.0
100
AcDbRotatedDimension
1001
ACAD
1000
DSTYLE
1002
{
1070
    79
1070
     3
1002
}
  0
LWPOLYLINE
  5
803B
330
1E
100
AcDbEntity
  8
L225_
  6
Continuous
 62
     3
100
AcDbPolyline
 90
        2
 70
     0
 43
0.001
 10
-12.5
 20
-180.5
 10
-12.5
 20
-209.5
  0
LWPOLYLINE
  5
803F
330
1E
100
AcDbEntity
  8
L225_
  6
Continuous
 62
     3
100
AcDbPolyline
 90
        2
 70
     0
 43
0.001
 10
12.5
 20
-180.5
 10
12.5
 20
-209.5
  0
LWPOLYLINE
  5
8045
330
1E
100
AcDbEntity
  8
L225_
  6
Continuous
 62
     3
100
AcDbPolyline
 90
        2
 70
     0
 43
0.001
 10
27.0
 20
-195.0
 10
-27.0
 20
-195.0
  0
TEXT
  5
8048
330
1E
100
AcDbEntity
  8
30
100
AcDbText
 10
26.5314232077128
 20
-323.6085183023666
 30
0.0
 40
5.0
  1
%%C17
  7
STANDARD1
100
AcDbText
  0
LWPOLYLINE
  5
8049
330
1E
100
AcDbEntity
  8
L225_
  6
Continuous
 62
     3
100
AcDbPolyline
 90
        2
 70
     0
 43
0.001
 10
-12.5
 20
-319.5
 10
-12.5
 20
-290.5
  0
LWPOLYLINE
  5
804A
330
1E
100
AcDbEntity
  8
L225_
  6
Continuous
 62
     3
100
AcDbPolyline
 90
        2
 70
     0
 43
0.001
 10
12.5
 20
-319.5
 10
12.5
 20
-290.5
  0
LWPOLYLINE
  5
804B
330
1E
100
AcDbEntity
  8
L225_
  6
Continuous
 62
     3
100
AcDbPolyline
 90
        2
 70
     0
 43
0.001
 10
27.0
 20
-305.0
 10
-27.0
 20
-305.0
  0
DIMENSION
  5
8060
330
1E
100
AcDbEntity
  8
30
100
AcDbDimension
  2
*D13
 10
12.5
 20
-340.0
 30
0.0
 11
-0.0000000000000016
 21
-337.0
 31
0.0
 70
    32
 71
     5
 42
25.0
  3
STANDARD
100
AcDbAlignedDimension
 13
-12.5
 23
-320.0
 33
0.0
 14
12.5
 24
-317.5
 34
0.0
100
AcDbRotatedDimension
1001
ACAD
1000
DSTYLE
1002
{
1070
   287
1070
     4
1070
   279
1070
     1
1070
    79
1070
     3
1002
}
  0
MTEXT
  5
8725
330
1E
100
AcDbEntity
  8
30
  6
Continuous
100
AcDbMText
 10
980.6290066122008
 20
50.73774045084201
 30
0.0
 40
4.0
 41
0.0
 71
     9
 72
     1
  1

 73
     1
 44
1.0
1001
ACAD
1000
MTEXTBEGIN
1070
    73
1070
     1
1070
    44
1040
1.0
1070
    74
1070
     0
1000
MTEXTEND
  0
DIMENSION
  5
873F
330
1E
100
AcDbEntity
  8
30
  6
Continuous
100
AcDbDimension
  2
*D14
 10
25.0
 20
-110.0
 30
0.0
 11
-0.0000000000000034
 21
-107.0
 31
0.0
 70
    32
 71
     5
 42
50.0
  3
STANDARD
100
AcDbAlignedDimension
 13
-25.0
 23
-65.0
 33
0.0
 14
25.0
 24
-65.0
 34
0.0
 50
180.0
100
AcDbRotatedDimension
1001
ACAD
1000
DSTYLE
1002
{
1070
    79
1070
     3
1002
}
  0
DIMENSION
  5
8740
330
1E
100
AcDbEntity
  8
30
  6
Continuous
100
AcDbDimension
  2
*D15
 10
11.70001200000001
 20
-90.0
 30
0.0
 11
-0.7999879999999865
 21
-87.0
 31
0.0
 70
    32
 71
     5
 42
25.0
  3
STANDARD
100
AcDbAlignedDimension
 13
-13.29998799999998
 23
-62.00000000000006
 33
0.0
 14
11.70001200000001
 24
-62.00000000000006
 34
0.0
 50
180.0
100
AcDbRotatedDimension
1001
ACAD
1000
DSTYLE
1002
{
1070
    79
1070
     3
1002
}
  0
DIMENSION
  5
8742
330
1E
100
AcDbEntity
  8
30
  6
Continuous
100
AcDbDimension
  2
*D16
 10
-50.0
 20
-64.99999999999999
 30
0.0
 11
-52.99999999999998
 21
0.0000000000000034
 31
0.0
 70
    32
 71
     5
 42
130.0
  3
STANDARD
100
AcDbAlignedDimension
 13
-25.0
 23
65.0
 33
0.0
 14
-25.0
 24
-65.0
 34
0.0
 50
90.0
100
AcDbRotatedDimension
1001
ACAD
1000
DSTYLE
1002
{
1070
   287
1070
     4
1070
   287
1070
     4
1070
   279
1070
     1
1070
    79
1070
     3
1002
}
  0
DIMENSION
  5
8743
330
1E
100
AcDbEntity
  8
30
  6
Continuous
100
AcDbDimension
  2
*D17
 10
22.70001200000002
 20
34.0
 30
0.0
 11
11.70001200000001
 21
37.0
 31
0.0
 70
    32
 71
     5
 42
22.0
  3
STANDARD
100
AcDbAlignedDimension
 13
0.7000120000000152
 23
25.0
 33
0.0
 14
22.70001200000002
 24
25.0
 34
0.0
100
AcDbRotatedDimension
1001
ACAD
1000
DSTYLE
1002
{
1070
    79
1070
     3
1002
}
  0
DIMENSION
  5
8745
330
1E
100
AcDbEntity
  8
30
  6
Continuous
100
AcDbDimension
  2
*D18
 10
218.0000000000002
 20
-119.9999999999999
 30
0.0
 11
174.5000000000001
 21
-116.9999999999999
 31
0.0
 70
    32
 71
     5
 42
87.00000000000011
  3
STANDARD
100
AcDbAlignedDimension
 13
131.0000000000001
 23
2.999982000000128
 33
0.0
 14
218.0000000000002
 24
-64.99999999999992
 34
0.0
 50
180.0
100
AcDbRotatedDimension
1001
ACAD
1000
DSTYLE
1002
{
1070
    79
1070
     3
1002
}
  0
DIMENSION
  5
8747
330
1E
100
AcDbEntity
  8
30
  6
Continuous
100
AcDbDimension
  2
*D19
 10
150.0000610000002
 20
-110.0
 30
0.0
 11
147.5000610000001
 21
-107.0
 31
0.0
 70
    32
 71
     5
 42
5.000000000000113
  3
STANDARD
100
AcDbAlignedDimension
 13
145.000061
 23
-24.99999999999993
 33
0.0
 14
150.0000610000002
 24
-31.99999999999993
 34
0.0
 50
180.0
100
AcDbRotatedDimension
1001
ACAD
1000
DSTYLE
1002
{
1070
    79
1070
     3
1070
   172
1070
     1
1002
}
  0
DIMENSION
  5
8748
330
1E
100
AcDbEntity
  8
30
  6
Continuous
100
AcDbDimension
  2
*D20
 10
218.0000000000002
 20
-110.0
 30
0.0
 11
184.0000305000002
 21
-107.0
 31
0.0
 70
    32
 71
     5
 42
67.99993900000004
  3
STANDARD
100
AcDbAlignedDimension
 13
150.0000610000002
 23
-31.99999999999993
 33
0.0
 14
218.0000000000002
 24
-64.99999999999992
 34
0.0
 50
180.0
100
AcDbRotatedDimension
1001
ACAD
1000
DSTYLE
1002
{
1070
    79
1070
     3
1002
}
  0
DIMENSION
  5
8749
330
1E
100
AcDbEntity
  8
30
  6
Continuous
100
AcDbDimension
  2
*D21
 10
218.0000000000002
 20
-100.0
 30
0.0
 11
185.0000305
 21
-97.00000000000002
 31
0.0
 70
    32
 71
     5
 42
65.99993900000004
  3
STANDARD
100
AcDbAlignedDimension
 13
152.0000610000002
 23
-50.99999999999989
 33
0.0
 14
218.0000000000002
 24
-64.99999999999992
 34
0.0
 50
180.0
100
AcDbRotatedDimension
1001
ACAD
1000
DSTYLE
1002
{
1070
    79
1070
     3
1002
}
  0
DIMENSION
  5
874A
330
1E
100
AcDbEntity
  8
30
  6
Continuous
100
AcDbDimension
  2
*D22
 10
218.0000000000002
 20
-90.00000000000005
 30
0.0
 11
187.5000305000002
 21
-87.00000000000001
 31
0.0
 70
    32
 71
     5
 42
60.99993900000004
  3
STANDARD
100
AcDbAlignedDimension
 13
157.0000610000002
 23
-64.99999999999992
 33
0.0
 14
218.0000000000002
 24
-64.99999999999992
 34
0.0
 50
180.0
100
AcDbRotatedDimension
1001
ACAD
1000
DSTYLE
1002
{
1070
    79
1070
     3
1002
}
  0
DIMENSION
  5
874D
330
1E
100
AcDbEntity
  8
30
  6
Continuous
100
AcDbDimension
  2
*D23
 10
110.0000610000002
 20
32.0000000000001
 30
0.0
 11
107.0000610000001
 21
0.0000000000001144
 31
0.0
 70
    32
 71
     5
 42
64.0
  3
STANDARD
100
AcDbAlignedDimension
 13
150.0000610000002
 23
-31.99999999999993
 33
0.0
 14
150.0000610000002
 24
32.00000000000009
 34
0.0
 50
90.0
100
AcDbRotatedDimension
1001
ACAD
1000
DSTYLE
1002
{
1070
    79
1070
     3
1002
}
  0
LINE
  5
8789
330
1E
100
AcDbEntity
  8
10
  6
Continuous
100
AcDbLine
 10
157.0000610000002
 20
51.00000000000008
 30
0.0
 11
152.0000610000002
 21
51.00000000000008
 31
0.0
  0
LINE
  5
878A
330
1E
100
AcDbEntity
  8
10
  6
Continuous
100
AcDbLine
 10
157.0000610000002
 20
-50.99999999999989
 30
0.0
 11
152.0000610000002
 21
-50.99999999999989
 31
0.0
  0
LINE
  5
878B
330
1E
100
AcDbEntity
  8
10
  6
Continuous
100
AcDbLine
 10
152.0000610000002
 20
-31.99999999999993
 30
0.0
 11
150.0000610000002
 21
-31.99999999999993
 31
0.0
  0
LINE
  5
878C
330
1E
100
AcDbEntity
  8
10
  6
Continuous
100
AcDbLine
 10
152.0000610000002
 20
32.00000000000009
 30
0.0
 11
150.0000610000002
 21
32.00000000000009
 31
0.0
  0
LINE
  5
878D
330
1E
100
AcDbEntity
  8
10
  6
Continuous
100
AcDbLine
 10
150.0000610000002
 20
25.00000000000009
 30
0.0
 11
145.000061
 21
25.00000000000009
 31
0.0
  0
LINE
  5
878E
330
1E
100
AcDbEntity
  8
10
  6
Continuous
100
AcDbLine
 10
150.0000610000002
 20
-24.99999999999993
 30
0.0
 11
145.000061
 21
-24.99999999999993
 31
0.0
  0
LINE
  5
878F
330
1E
100
AcDbEntity
  8
10
  6
Continuous
100
AcDbLine
 10
150.0000610000002
 20
25.00000000000009
 30
0.0
 11
150.0000610000002
 21
-24.99999999999993
 31
0.0
  0
CIRCLE
  5
8790
330
1E
100
AcDbEntity
  8
12
  6
DASHED
100
AcDbCircle
 10
0.0
 20
-55.0
 30
0.0
 40
2.5
  0
LINE
  5
8791
330
1E
100
AcDbEntity
  8
10
  6
CONTINOUS
100
AcDbLine
 10
-25.0
 20
32.0
 30
0.0
 11
25.0
 21
32.0
 31
0.0
  0
CIRCLE
  5
8792
330
1E
100
AcDbEntity
  8
12
  6
DASHED
100
AcDbCircle
 10
0.0
 20
55.0
 30
0.0
 40
2.5
  0
LINE
  5
8793
330
1E
100
AcDbEntity
  8
12
  6
DASHED
100
AcDbLine
 10
0.0
 20
60.0
 30
0.0
 11
0.0
 21
50.0
 31
0.0
  0
LINE
  5
8794
330
1E
100
AcDbEntity
  8
10
  6
CONTINOUS
100
AcDbLine
 10
-25.0
 20
-65.0
 30
0.0
 11
25.0
 21
-65.0
 31
0.0
  0
LINE
  5
8795
330
1E
100
AcDbEntity
  8
10
  6
CONTINOUS
100
AcDbLine
 10
-25.0
 20
64.99975499999982
 30
0.0
 11
25.0
 21
64.99975499999982
 31
0.0
  0
CIRCLE
  5
8796
330
1E
100
AcDbEntity
  8
24
  6
CONTINOUS
100
AcDbCircle
 10
-13.29998799999998
 20
55.0
 30
0.0
 40
5.4
  0
LINE
  5
8797
330
1E
100
AcDbEntity
  8
12
  6
DASHED
100
AcDbLine
 10
0.0
 20
-50.0
 30
0.0
 11
0.0
 21
-60.0
 31
0.0
  0
LINE
  5
87A2
330
1E
100
AcDbEntity
  8
10
  6
Continuous
100
AcDbLine
 10
134.2729490000001
 20
18.80566400000006
 30
0.0
 11
132.4636230000003
 21
12.88745100000014
 31
0.0
  0
LINE
  5
87A3
330
1E
100
AcDbEntity
  8
10
  6
Continuous
100
AcDbLine
 10
132.4636230000003
 20
12.88745100000014
 30
0.0
 11
145.000061
 21
8.65405199999995
 31
0.0
  0
LINE
  5
87A4
330
1E
100
AcDbEntity
  8
10
  6
Continuous
100
AcDbLine
 10
134.2729490000001
 20
18.80566400000006
 30
0.0
 11
145.000061
 21
15.86303700000016
 31
0.0
  0
LINE
  5
87A5
330
1E
100
AcDbEntity
  8
10
  6
Continuous
100
AcDbLine
 10
157.0000610000002
 20
65.00000000000007
 30
0.0
 11
157.0000610000002
 21
51.00000000000008
 31
0.0
  0
LINE
  5
87A6
330
1E
100
AcDbEntity
  8
10
  6
Continuous
100
AcDbLine
 10
218.0000000000002
 20
65.00000000000007
 30
0.0
 11
157.0000610000002
 21
65.00000000000007
 31
0.0
  0
ARC
  5
87A7
330
1E
100
AcDbEntity
  8
L210_
  6
Continuous
 62
     4
100
AcDbCircle
 10
185.1160890000004
 20
0.0283199999999795
 30
0.0
 40
54.199951
100
AcDbArc
 50
166.2755189999926
 51
176.8123010000022
  0
LINE
  5
87A8
330
1E
100
AcDbEntity
  8
10
  6
Continuous
100
AcDbLine
 10
218.0000000000002
 20
-64.99999999999992
 30
0.0
 11
157.0000610000002
 21
-64.99999999999992
 31
0.0
  0
LINE
  5
87AA
330
1E
100
AcDbEntity
  8
10
  6
Continuous
100
AcDbLine
 10
157.0000610000002
 20
-50.99999999999989
 30
0.0
 11
157.0000610000002
 21
-64.99999999999992
 31
0.0
  0
LINE
  5
87AB
330
1E
100
AcDbEntity
  8
10
  6
Continuous
100
AcDbLine
 10
152.0000610000002
 20
51.00000000000008
 30
0.0
 11
152.0000610000002
 21
32.00000000000009
 31
0.0
  0
LINE
  5
87AC
330
1E
100
AcDbEntity
  8
10
  6
Continuous
100
AcDbLine
 10
150.0000610000002
 20
32.00000000000009
 30
0.0
 11
150.0000610000002
 21
25.00000000000009
 31
0.0
  0
LINE
  5
87B6
330
1E
100
AcDbEntity
  8
10
  6
CONTINOUS
100
AcDbLine
 10
0.7000120000000152
 20
25.0
 30
0.0
 11
0.7000120000000152
 21
-25.0
 31
0.0
  0
LINE
  5
87B7
330
1E
100
AcDbEntity
  8
10
  6
CONTINOUS
100
AcDbLine
 10
17.95001200000001
 20
-15.5
 30
0.0
 11
5.450012000000013
 21
-15.5
 31
0.0
  0
LINE
  5
87B8
330
1E
100
AcDbEntity
  8
10
  6
CONTINOUS
100
AcDbLine
 10
17.95001200000001
 20
19.5
 30
0.0
 11
5.450012000000013
 21
19.5
 31
0.0
  0
LINE
  5
87B9
330
1E
100
AcDbEntity
  8
10
  6
CONTINOUS
100
AcDbLine
 10
17.95001200000001
 20
-11.39990300000045
 30
0.0
 11
5.450012000000013
 21
-11.39990300000045
 31
0.0
  0
LINE
  5
87BA
330
1E
100
AcDbEntity
  8
10
  6
CONTINOUS
100
AcDbLine
 10
17.95001200000001
 20
-23.0
 30
0.0
 11
5.450012000000013
 21
-23.0
 31
0.0
  0
LINE
  5
87BB
330
1E
100
AcDbEntity
  8
10
  6
CONTINOUS
100
AcDbLine
 10
5.450012000000013
 20
-15.5
 30
0.0
 11
5.450012000000013
 21
-23.0
 31
0.0
  0
LINE
  5
87BC
330
1E
100
AcDbEntity
  8
10
  6
CONTINOUS
100
AcDbLine
 10
17.95001200000001
 20
-15.5
 30
0.0
 11
17.95001200000001
 21
-23.0
 31
0.0
  0
LINE
  5
87BD
330
1E
100
AcDbEntity
  8
10
  6
CONTINOUS
100
AcDbLine
 10
17.95001200000001
 20
24.0
 30
0.0
 11
17.95001200000001
 21
-11.39990300000045
 31
0.0
  0
LINE
  5
87BE
330
1E
100
AcDbEntity
  8
10
  6
CONTINOUS
100
AcDbLine
 10
17.95001200000001
 20
24.0
 30
0.0
 11
5.450012000000013
 21
24.0
 31
0.0
  0
LINE
  5
87BF
330
1E
100
AcDbEntity
  8
10
  6
CONTINOUS
100
AcDbLine
 10
22.70001200000002
 20
25.0
 30
0.0
 11
22.70001200000002
 21
-25.0
 31
0.0
  0
LINE
  5
87C0
330
1E
100
AcDbEntity
  8
10
  6
CONTINOUS
100
AcDbLine
 10
5.450012000000013
 20
24.0
 30
0.0
 11
5.450012000000013
 21
-11.39990300000045
 31
0.0
  0
LINE
  5
87C1
330
1E
100
AcDbEntity
  8
10
  6
CONTINOUS
100
AcDbLine
 10
22.70001200000002
 20
-25.0
 30
0.0
 11
0.7000120000000152
 21
-25.0
 31
0.0
  0
LINE
  5
87C2
330
1E
100
AcDbEntity
  8
10
  6
CONTINOUS
100
AcDbLine
 10
22.70001200000002
 20
25.0
 30
0.0
 11
0.7000120000000152
 21
25.0
 31
0.0
  0
LINE
  5
87C3
330
1E
100
AcDbEntity
  8
10
  6
CONTINOUS
100
AcDbLine
 10
25.0
 20
-32.0
 30
0.0
 11
-25.0
 21
-32.0
 31
0.0
  0
CIRCLE
  5
87C4
330
1E
100
AcDbEntity
  8
24
  6
CONTINOUS
100
AcDbCircle
 10
-13.29998799999998
 20
-55.0
 30
0.0
 40
5.4
  0
CIRCLE
  5
87C5
330
1E
100
AcDbEntity
  8
24
  6
CONTINOUS
100
AcDbCircle
 10
-11.70001200000001
 20
-55.0
 30
0.0
 40
5.4
210
0.0
220
0.0
230
-1.0
  0
LINE
  5
87C6
330
1E
100
AcDbEntity
  8
10
  6
CONTINOUS
100
AcDbLine
 10
-25.0
 20
-65.0
 30
0.0
 11
-25.0
 21
65.0
 31
0.0
  0
CIRCLE
  5
87C7
330
1E
100
AcDbEntity
  8
24
  6
CONTINOUS
100
AcDbCircle
 10
11.70001200000001
 20
55.0
 30
0.0
 40
5.4
  0
LINE
  5
87C8
330
1E
100
AcDbEntity
  8
10
  6
CONTINOUS
100
AcDbLine
 10
25.0
 20
-65.0
 30
0.0
 11
25.0
 21
65.0
 31
0.0
  0
LINE
  5
87C9
330
1E
100
AcDbEntity
  8
10
  6
Continuous
100
AcDbLine
 10
218.0000000000002
 20
65.00000000000007
 30
0.0
 11
218.0000000000002
 21
-64.99999999999992
 31
0.0
  0
LINE
  5
87CA
330
1E
100
AcDbEntity
  8
10
  6
Continuous
100
AcDbLine
 10
152.0000610000002
 20
-31.99999999999993
 30
0.0
 11
152.0000610000002
 21
-50.99999999999989
 31
0.0
  0
LINE
  5
87CB
330
1E
100
AcDbEntity
  8
10
  6
Continuous
100
AcDbLine
 10
150.0000610000002
 20
-24.99999999999993
 30
0.0
 11
150.0000610000002
 21
-31.99999999999993
 31
0.0
  0
LINE
  5
87CC
330
1E
100
AcDbEntity
  8
10
  6
Continuous
100
AcDbLine
 10
145.000061
 20
25.00000000000009
 30
0.0
 11
145.000061
 21
-24.99999999999993
 31
0.0
  0
LINE
  5
87D4
330
1E
100
AcDbEntity
  8
24
  6
CONTINOUS
100
AcDbLine
 10
4.700012000000015
 20
55.00000000000007
 30
0.0
 11
18.70001200000001
 21
55.00000000000007
 31
0.0
  0
LINE
  5
87D5
330
1E
100
AcDbEntity
  8
24
  6
CONTINOUS
100
AcDbLine
 10
11.70001200000001
 20
62.00000000000006
 30
0.0
 11
11.70001200000001
 21
47.99999999999993
 31
0.0
  0
LINE
  5
87D6
330
1E
100
AcDbEntity
  8
24
  6
CONTINOUS
100
AcDbLine
 10
4.700012000000015
 20
-54.99999999999993
 30
0.0
 11
18.70001200000001
 21
-54.99999999999993
 31
0.0
  0
LINE
  5
87D7
330
1E
100
AcDbEntity
  8
24
  6
CONTINOUS
100
AcDbLine
 10
11.70001200000001
 20
-47.99999999999993
 30
0.0
 11
11.70001200000001
 21
-62.00000000000006
 31
0.0
  0
LINE
  5
87D8
330
1E
100
AcDbEntity
  8
24
  6
CONTINOUS
100
AcDbLine
 10
-20.29998799999999
 20
-54.99999999999993
 30
0.0
 11
-6.299987999999982
 21
-54.99999999999993
 31
0.0
  0
LINE
  5
87D9
330
1E
100
AcDbEntity
  8
24
  6
CONTINOUS
100
AcDbLine
 10
-13.29998799999998
 20
-47.99999999999993
 30
0.0
 11
-13.29998799999998
 21
-62.00000000000006
 31
0.0
  0
LINE
  5
87DA
330
1E
100
AcDbEntity
  8
24
  6
CONTINOUS
100
AcDbLine
 10
-20.29998799999999
 20
55.00000000000007
 30
0.0
 11
-6.299987999999982
 21
55.00000000000007
 31
0.0
  0
LINE
  5
87DB
330
1E
100
AcDbEntity
  8
24
  6
CONTINOUS
100
AcDbLine
 10
-13.29998799999998
 20
62.00000000000006
 30
0.0
 11
-13.29998799999998
 21
47.99999999999993
 31
0.0
  0
LINE
  5
87DC
330
1E
100
AcDbEntity
  8
12
  6
DASHED
100
AcDbLine
 10
-5.5
 20
-55.0
 30
0.0
 11
5.5
 21
-55.0
 31
0.0
  0
LINE
  5
87DD
330
1E
100
AcDbEntity
  8
12
  6
DASHED
100
AcDbLine
 10
-5.5
 20
55.0
 30
0.0
 11
5.5
 21
55.0
 31
0.0
  0
DIMENSION
  5
87DE
330
1E
100
AcDbEntity
  8
30
  6
Continuous
100
AcDbDimension
  2
*D24
 10
25.0
 20
100.0
 30
0.0
 11
33.33333333333337
 21
100.0
 31
0.0
 70
   160
  1
13.3
 71
     5
 42
13.29998799999998
  3
STANDARD
100
AcDbAlignedDimension
 13
11.70001200000001
 23
62.00000000000006
 33
0.0
 14
25.0
 24
64.99975499999982
 34
0.0
100
AcDbRotatedDimension
1001
ACAD
1000
DSTYLE
1002
{
1070
    79
1070
     3
1002
}
  0
DIMENSION
  5
87DF
330
1E
100
AcDbEntity
  8
30
  6
Continuous
100
AcDbDimension
  2
*D25
 10
-25.0
 20
100.0
 30
0.0
 11
-58.80417599999998
 21
100.0
 31
0.0
 70
   160
  1
36.7
 71
     5
 42
36.70001200000001
  3
STANDARD
100
AcDbAlignedDimension
 13
11.70001200000001
 23
62.00000000000006
 33
0.0
 14
-25.0
 24
65.0
 34
0.0
100
AcDbRotatedDimension
1001
ACAD
1000
DSTYLE
1002
{
1070
    79
1070
     3
1002
}
  0
DIMENSION
  5
87E0
330
1E
100
AcDbEntity
  8
30
  6
Continuous
100
AcDbDimension
  2
*D26
 10
100.0
 20
51.00000000000011
 30
0.0
 11
97.0
 21
0.000000000000115
 31
0.0
 70
    32
 71
     5
 42
102.0
  3
STANDARD
100
AcDbAlignedDimension
 13
152.0000610000002
 23
-50.99999999999989
 33
0.0
 14
152.0000610000002
 24
51.00000000000008
 34
0.0
 50
90.0
100
AcDbRotatedDimension
1001
ACAD
1000
DSTYLE
1002
{
1070
    79
1070
     3
1002
}
  0
LINE
  5
8D06
330
1E
100
AcDbEntity
  8
18
100
AcDbLine
 10
220.3000490000004
 20
115.0000000000001
 30
0.0
 11
218.0000000000005
 21
115.0000000000001
 31
0.0
  0
LINE
  5
8D07
330
1E
100
AcDbEntity
  8
18
100
AcDbLine
 10
220.3000490000004
 20
-114.9999999999999
 30
0.0
 11
218.0000000000005
 21
-114.9999999999999
 31
0.0
  0
LINE
  5
8D09
330
1E
100
AcDbEntity
  8
L150_
  6
D111
 62
     7
100
AcDbLine
 10
218.0000000000005
 20
-64.9999999999999
 30
0.0
 11
218.0000000000005
 21
-114.9999999999999
 31
0.0
  0
LINE
  5
8D0A
330
1E
100
AcDbEntity
  8
18
100
AcDbLine
 10
220.3000490000004
 20
115.0000000000001
 30
0.0
 11
220.3000490000004
 21
-114.9999999999999
 31
0.0
  0
LINE
  5
8D0B
330
1E
100
AcDbEntity
  8
18
100
AcDbLine
 10
218.0000000000005
 20
115.0000000000001
 30
0.0
 11
218.0000000000005
 21
65.0000000000001
 31
0.0
  0
CIRCLE
  5
8D27
330
1E
100
AcDbEntity
  8
L225_
  6
Continuous
 62
     3
100
AcDbCircle
 10
12.5
 20
-195.0
 30
0.0
 40
8.5
  0
CIRCLE
  5
8D29
330
1E
100
AcDbEntity
  8
L225_
  6
Continuous
 62
     3
100
AcDbCircle
 10
0.0
 20
-305.5
 30
0.0
 40
1.620999999999999
  0
CIRCLE
  5
8D96
330
1E
100
AcDbEntity
  8
L225_
  6
Continuous
 62
     3
100
AcDbCircle
 10
0.0
 20
-305.5
 30
0.0
 40
2.0
  0
CIRCLE
  5
8D97
330
1E
100
AcDbEntity
  8
L225_
  6
Continuous
 62
     3
100
AcDbCircle
 10
12.5
 20
-305.0
 30
0.0
 40
8.5
  0
CIRCLE
  5
8D9D
330
1E
100
AcDbEntity
  8
L225_
  6
Continuous
 62
     3
100
AcDbCircle
 10
-12.5
 20
-305.0
 30
0.0
 40
8.5
  0
CIRCLE
  5
8DA1
330
1E
100
AcDbEntity
  8
L225_
  6
Continuous
 62
     3
100
AcDbCircle
 10
-35.0
 20
-250.0
 30
0.0
 40
7.5
  0
CIRCLE
  5
8DA3
330
1E
100
AcDbEntity
  8
L225_
  6
Continuous
 62
     3
100
AcDbCircle
 10
-12.5
 20
-195.0
 30
0.0
 40
8.5
  0
LINE
  5
8DAF
330
1E
100
AcDbEntity
  8
0
100
AcDbLine
 10
201.6386720000002
 20
55.0000000000001
 30
0.0
 11
298.1347900000005
 21
55.0000000000001
 31
0.0
  0
LEADER
  5
90A4
330
1E
100
AcDbEntity
  8
30
100
AcDbLeader
  3
STANDARD
 76
     3
 10
0.0
 20
-192.5
 30
0.0
 10
-9.578446229259036
 20
-170.0
 30
0.0
 10
-37.5
 20
-170.0
 30
0.0
1001
ACAD
1000
DSTYLE
1002
{
1070
     5
1000
OPEN
1070
    77
1070
     0
1070
    79
1070
     3
1070
   147
1040
1.0
1002
}
  0
TEXT
  5
90A5
330
1E
100
AcDbEntity
  8
30
100
AcDbText
 10
-37.5
 20
-169.3363751127696
 30
0.0
 40
5.0
  1
M4x0.7
  7
STANDARD1
100
AcDbText
  0
CIRCLE
  5
9125
330
1E
100
AcDbEntity
  8
L225_
  6
Continuous
 62
     3
100
AcDbCircle
 10
0.0
 20
-194.5
 30
0.0
 40
1.620999999999999
  0
CIRCLE
  5
9126
330
1E
100
AcDbEntity
  8
L225_
  6
Continuous
 62
     3
100
AcDbCircle
 10
0.0
 20
-194.5
 30
0.0
 40
2.0
  0
LWPOLYLINE
  5
9127
330
1E
100
AcDbEntity
  8
16
100
AcDbPolyline
 90
        2
 70
     0
 43
0.001
 10
-35.0
 20
-235.0
 10
-35.0
 20
-346.5
  0
DIMENSION
  5
9128
330
1E
100
AcDbEntity
  8
30
100
AcDbDimension
  2
*D40
 10
-35.0
 20
-340.0
 30
0.0
 11
-23.75
 21
-337.0
 31
0.0
 70
    32
 71
     5
 42
22.5
  3
STANDARD
100
AcDbAlignedDimension
 13
-12.5
 23
-320.0
 33
0.0
 14
-35.0
 24
-340.0
 34
0.0
 50
180.0
100
AcDbRotatedDimension
1001
ACAD
1000
DSTYLE
1002
{
1070
   287
1070
     4
1070
   279
1070
     1
1070
    79
1070
     3
1002
}
  0
LEADER
  5
913E
330
1E
100
AcDbEntity
  8
30
100
AcDbLeader
  3
STANDARD
 76
     3
 10
16.83138170606594
 20
-313.3887041697705
 30
0.0
 10
22.27934916306027
 20
-324.6703174697388
 30
0.0
 10
41.94517845930408
 20
-324.6703174697388
 30
0.0
211
-1.0
221
0.0
231
0.0
1001
ACAD
1000
DSTYLE
1002
{
1070
     5
1000
OPEN
1070
    77
1070
     0
1070
    79
1070
     3
1070
   147
1040
1.0
1002
}
  0
LINE
  5
91FF
330
1E
100
AcDbEntity
  8
12
100
AcDbLine
 10
-4.041504000000028
 20
241.1999519999999
 30
0.0
 11
-4.041504000000028
 21
238.0
 31
0.0
  0
LINE
  5
9200
330
1E
100
AcDbEntity
  8
12
100
AcDbLine
 10
4.041503999999803
 20
241.1999519999999
 30
0.0
 11
4.041503999999803
 21
238.0
 31
0.0
  0
LINE
  5
9201
330
1E
100
AcDbEntity
  8
12
100
AcDbLine
 10
-4.041504000000028
 20
241.1999519999999
 30
0.0
 11
4.041503999999803
 21
241.1999519999999
 31
0.0
  0
LINE
  5
9202
330
1E
100
AcDbEntity
  8
12
100
AcDbLine
 10
-2.020751999999899
 20
238.0
 30
0.0
 11
-2.020751999999899
 21
244.5
 31
0.0
  0
LINE
  5
9203
330
1E
100
AcDbEntity
  8
12
100
AcDbLine
 10
2.020751999999899
 20
238.0
 30
0.0
 11
2.020751999999899
 21
244.5
 31
0.0
  0
LINE
  5
9208
330
1E
100
AcDbEntity
  8
10
  6
CONTINOUS
100
AcDbLine
 10
16.70001200000001
 20
151.0
 30
0.0
 11
6.700012000000013
 21
151.0
 31
0.0
  0
LINE
  5
9209
330
1E
100
AcDbEntity
  8
10
  6
CONTINOUS
100
AcDbLine
 10
0.7000120000000152
 20
165.0
 30
0.0
 11
0.7000120000000152
 21
170.0
 31
0.0
  0
LINE
  5
920A
330
1E
100
AcDbEntity
  8
10
  6
CONTINOUS
100
AcDbLine
 10
22.70001200000002
 20
165.0
 30
0.0
 11
22.70001200000002
 21
170.0
 31
0.0
  0
LINE
  5
920B
330
1E
100
AcDbEntity
  8
10
  6
CONTINOUS
100
AcDbLine
 10
22.70001200000002
 20
165.0
 30
0.0
 11
0.7000120000000152
 21
165.0
 31
0.0
  0
LINE
  5
920C
330
1E
100
AcDbEntity
  8
10
  6
CONTINOUS
100
AcDbLine
 10
16.70001200000001
 20
151.0
 30
0.0
 11
17.20001200000001
 21
165.0
 31
0.0
  0
LINE
  5
920D
330
1E
100
AcDbEntity
  8
10
  6
CONTINOUS
100
AcDbLine
 10
6.700012000000013
 20
151.0
 30
0.0
 11
6.200012000000013
 21
165.0
 31
0.0
  0
LINE
  5
920E
330
1E
100
AcDbEntity
  8
10
  6
CONTINOUS
100
AcDbLine
 10
25.0
 20
170.0
 30
0.0
 11
25.0
 21
238.0
 31
0.0
  0
LINE
  5
920F
330
1E
100
AcDbEntity
  8
10
  6
CONTINOUS
100
AcDbLine
 10
-25.0
 20
170.0
 30
0.0
 11
-25.0
 21
238.0
 31
0.0
  0
LINE
  5
9211
330
1E
100
AcDbEntity
  8
12
100
AcDbLine
 10
-2.020751999999899
 20
244.5
 30
0.0
 11
2.020751999999899
 21
244.5
 31
0.0
  0
LINE
  5
9212
330
1E
100
AcDbEntity
  8
10
  6
CONTINOUS
100
AcDbLine
 10
-25.0
 20
170.0
 30
0.0
 11
25.0
 21
170.0
 31
0.0
  0
LINE
  5
9216
330
1E
100
AcDbEntity
  8
0
100
AcDbLine
 10
20.0
 20
299.1
 30
0.0
 11
5.0
 21
299.1
 31
0.0
  0
LINE
  5
9218
330
1E
100
AcDbEntity
  8
0
100
AcDbLine
 10
7.5
 20
299.1
 30
0.0
 11
7.5
 21
300.1
 31
0.0
  0
LINE
  5
9219
330
1E
100
AcDbEntity
  8
0
100
AcDbLine
 10
17.5
 20
299.1
 30
0.0
 11
17.5
 21
300.1
 31
0.0
  0
LINE
  5
921A
330
1E
100
AcDbEntity
  8
0
100
AcDbLine
 10
21.5
 20
307.1
 30
0.0
 11
21.5
 21
308.699976
 31
0.0
  0
LINE
  5
921B
330
1E
100
AcDbEntity
  8
0
100
AcDbLine
 10
3.5
 20
307.1
 30
0.0
 11
3.5
 21
308.699976
 31
0.0
  0
LINE
  5
921C
330
1E
100
AcDbEntity
  8
0
100
AcDbLine
 10
21.5
 20
308.699976
 30
0.0
 11
3.5
 21
308.699976
 31
0.0
  0
LINE
  5
921D
330
1E
100
AcDbEntity
  8
0
100
AcDbLine
 10
20.0
 20
305.1
 30
0.0
 11
20.0
 21
300.1
 31
0.0
  0
LINE
  5
921E
330
1E
100
AcDbEntity
  8
0
100
AcDbLine
 10
5.0
 20
305.1
 30
0.0
 11
5.0
 21
300.1
 31
0.0
  0
LINE
  5
921F
330
1E
100
AcDbEntity
  8
0
100
AcDbLine
 10
20.0
 20
300.1
 30
0.0
 11
5.0
 21
300.1
 31
0.0
  0
LINE
  5
9221
330
1E
100
AcDbEntity
  8
0
100
AcDbLine
 10
16.5
 20
305.1
 30
0.0
 11
16.5
 21
300.1
 31
0.0
  0
LINE
  5
9223
330
1E
100
AcDbEntity
  8
0
100
AcDbLine
 10
20.00549299999989
 20
308.699976
 30
0.0
 11
20.00549299999992
 21
317.1999759999999
 31
0.0
  0
LINE
  5
9224
330
1E
100
AcDbEntity
  8
0
100
AcDbLine
 10
20.00549299999992
 20
317.1999759999999
 30
0.0
 11
4.994506999999912
 21
317.1999759999999
 31
0.0
  0
LINE
  5
9225
330
1E
100
AcDbEntity
  8
0
100
AcDbLine
 10
4.994506999999912
 20
317.1999759999999
 30
0.0
 11
4.994506999999885
 21
308.699976
 31
0.0
  0
LINE
  5
9226
330
1E
100
AcDbEntity
  8
0
100
AcDbLine
 10
8.747192999999922
 20
308.699976
 30
0.0
 11
8.747192999999953
 21
317.1999759999999
 31
0.0
  0
LINE
  5
9227
330
1E
100
AcDbEntity
  8
0
100
AcDbLine
 10
16.25280799999996
 20
308.699976
 30
0.0
 11
16.25280799999998
 21
317.1999759999999
 31
0.0
  0
LINE
  5
9228
330
1E
100
AcDbEntity
  8
0
100
AcDbLine
 10
8.5
 20
305.1
 30
0.0
 11
8.5
 21
300.1
 31
0.0
  0
LINE
  5
9229
330
1E
100
AcDbEntity
  8
0
100
AcDbLine
 10
-2.469481999999969
 20
307.1
 30
0.0
 11
27.81298800000016
 21
307.1
 31
0.0
  0
LINE
  5
922A
330
1E
100
AcDbEntity
  8
0
100
AcDbLine
 10
-17.49999999999997
 20
264.1
 30
0.0
 11
-17.49999999999997
 21
265.1
 31
0.0
  0
LINE
  5
922B
330
1E
100
AcDbEntity
  8
0
100
AcDbLine
 10
-7.499999999999971
 20
264.1
 30
0.0
 11
-7.499999999999971
 21
265.1
 31
0.0
  0
LINE
  5
922F
330
1E
100
AcDbEntity
  8
0
100
AcDbLine
 10
-4.999999999999971
 20
264.1
 30
0.0
 11
-19.99999999999997
 21
264.1
 31
0.0
  0
LINE
  5
9230
330
1E
100
AcDbEntity
  8
0
100
AcDbLine
 10
-19.99999999999997
 20
270.1
 30
0.0
 11
-19.99999999999997
 21
265.1
 31
0.0
  0
LINE
  5
9231
330
1E
100
AcDbEntity
  8
0
100
AcDbLine
 10
-4.999999999999971
 20
270.1
 30
0.0
 11
-4.999999999999971
 21
265.1
 31
0.0
  0
LINE
  5
9232
330
1E
100
AcDbEntity
  8
0
100
AcDbLine
 10
-4.999999999999971
 20
265.1
 30
0.0
 11
-19.99999999999997
 21
265.1
 31
0.0
  0
LINE
  5
9233
330
1E
100
AcDbEntity
  8
0
100
AcDbLine
 10
-8.499999999999971
 20
270.1
 30
0.0
 11
-8.499999999999971
 21
265.1
 31
0.0
  0
LINE
  5
9234
330
1E
100
AcDbEntity
  8
0
100
AcDbLine
 10
-16.49999999999997
 20
270.1
 30
0.0
 11
-16.49999999999997
 21
265.1
 31
0.0
  0
LINE
  5
9235
330
1E
100
AcDbEntity
  8
0
100
AcDbLine
 10
-3.499999999999971
 20
272.1
 30
0.0
 11
-3.499999999999971
 21
273.6999759999999
 31
0.0
  0
LINE
  5
9236
330
1E
100
AcDbEntity
  8
0
100
AcDbLine
 10
-21.49999999999997
 20
272.1
 30
0.0
 11
-21.49999999999997
 21
273.6999759999999
 31
0.0
  0
LINE
  5
9237
330
1E
100
AcDbEntity
  8
0
100
AcDbLine
 10
-3.499999999999971
 20
273.6999759999999
 30
0.0
 11
-21.49999999999997
 21
273.6999759999999
 31
0.0
  0
LINE
  5
9238
330
1E
100
AcDbEntity
  8
0
100
AcDbLine
 10
-27.46948199999994
 20
270.1
 30
0.0
 11
2.81298800000016
 21
270.1
 31
0.0
  0
LINE
  5
9239
330
1E
100
AcDbEntity
  8
0
100
AcDbLine
 10
-4.994507000000083
 20
273.6999759999999
 30
0.0
 11
-4.994507000000083
 21
282.1999759999999
 31
0.0
  0
LINE
  5
923A
330
1E
100
AcDbEntity
  8
0
100
AcDbLine
 10
-20.00549300000009
 20
282.1999759999999
 30
0.0
 11
-20.00549300000009
 21
273.6999759999999
 31
0.0
  0
LINE
  5
923B
330
1E
100
AcDbEntity
  8
0
100
AcDbLine
 10
-4.994507000000083
 20
282.1999759999999
 30
0.0
 11
-20.00549300000009
 21
282.1999759999999
 31
0.0
  0
LINE
  5
923C
330
1E
100
AcDbEntity
  8
0
100
AcDbLine
 10
-8.747192000000012
 20
273.6999759999999
 30
0.0
 11
-8.747192000000012
 21
282.1999759999999
 31
0.0
  0
LINE
  5
923D
330
1E
100
AcDbEntity
  8
0
100
AcDbLine
 10
-16.25280700000004
 20
273.6999759999999
 30
0.0
 11
-16.25280700000004
 21
282.1999759999999
 31
0.0
  0
LINE
  5
923E
330
1E
100
AcDbEntity
  8
0
100
AcDbLine
 10
-27.46948199999994
 20
272.1
 30
0.0
 11
2.81298800000016
 21
272.1
 31
0.0
  0
LINE
  5
923F
330
1E
100
AcDbEntity
  8
0
100
AcDbLine
 10
-4.999999999999971
 20
264.1
 30
0.0
 11
-5.0
 21
238.0
 31
0.0
  0
LINE
  5
9240
330
1E
100
AcDbEntity
  8
0
100
AcDbLine
 10
-20.0
 20
238.0
 30
0.0
 11
-19.99999999999997
 21
264.1
 31
0.0
  0
LINE
  5
9241
330
1E
100
AcDbEntity
  8
0
100
AcDbLine
 10
20.0
 20
238.0
 30
0.0
 11
20.0
 21
299.1
 31
0.0
  0
LINE
  5
9242
330
1E
100
AcDbEntity
  8
0
100
AcDbLine
 10
5.0
 20
238.0
 30
0.0
 11
5.0
 21
299.1
 31
0.0
  0
LINE
  5
9243
330
1E
100
AcDbEntity
  8
10
  6
CONTINOUS
100
AcDbLine
 10
5.0
 20
238.0
 30
0.0
 11
20.0
 21
238.0
 31
0.0
  0
LINE
  5
9244
330
1E
100
AcDbEntity
  8
0
100
AcDbLine
 10
-2.469481999999969
 20
305.1
 30
0.0
 11
-2.469481999999969
 21
307.1
 31
0.0
  0
LINE
  5
925E
330
1E
100
AcDbEntity
  8
10
  6
CONTINOUS
100
AcDbLine
 10
-25.0
 20
238.0
 30
0.0
 11
-20.0
 21
238.0
 31
0.0
  0
LINE
  5
925F
330
1E
100
AcDbEntity
  8
10
  6
CONTINOUS
100
AcDbLine
 10
20.0
 20
238.0
 30
0.0
 11
25.0
 21
238.0
 31
0.0
  0
LINE
  5
9260
330
1E
100
AcDbEntity
  8
10
  6
CONTINOUS
100
AcDbLine
 10
-20.0
 20
238.0
 30
0.0
 11
-5.0
 21
238.0
 31
0.0
  0
LINE
  5
9261
330
1E
100
AcDbEntity
  8
10
  6
CONTINOUS
100
AcDbLine
 10
-5.0
 20
238.0
 30
0.0
 11
5.0
 21
238.0
 31
0.0
  0
LINE
  5
9262
330
1E
100
AcDbEntity
  8
0
100
AcDbLine
 10
-2.469481999999969
 20
305.1
 30
0.0
 11
27.81298800000016
 21
305.1
 31
0.0
  0
LINE
  5
9263
330
1E
100
AcDbEntity
  8
0
100
AcDbLine
 10
-27.46948199999994
 20
270.1
 30
0.0
 11
-27.46948199999994
 21
272.1
 31
0.0
  0
LINE
  5
92F6
330
1E
100
AcDbEntity
  8
18
100
AcDbLine
 10
67.49999999999999
 20
238.0
 30
0.0
 11
67.49999999999999
 21
240.300049
 31
0.0
  0
LINE
  5
92F7
330
1E
100
AcDbEntity
  8
18
100
AcDbLine
 10
-67.5
 20
240.300049
 30
0.0
 11
-67.5
 21
238.0
 31
0.0
  0
LINE
  5
92F9
330
1E
100
AcDbEntity
  8
18
100
AcDbLine
 10
67.49999999999999
 20
240.300049
 30
0.0
 11
-67.5
 21
240.300049
 31
0.0
  0
LINE
  5
9347
330
1E
100
AcDbEntity
  8
18
100
AcDbLine
 10
57.5
 20
238.0
 30
0.0
 11
67.49999999999999
 21
238.0
 31
0.0
  0
LINE
  5
9349
330
1E
100
AcDbEntity
  8
18
100
AcDbLine
 10
-67.5
 20
238.0
 30
0.0
 11
-5.0
 21
238.0
 31
0.0
  0
LWPOLYLINE
  5
93E6
330
1E
100
AcDbEntity
  8
10
  6
CONTINOUS
100
AcDbPolyline
 90
        4
 70
     1
 43
0.0
 10
-25.0
 20
172.0
 10
25.0
 20
172.0
 10
25.0
 20
170.0
 10
-25.0
 20
170.0
  0
LWPOLYLINE
  5
93E7
330
1E
100
AcDbEntity
  8
10
  6
CONTINOUS
100
AcDbPolyline
 90
        4
 70
     1
 43
0.0
 10
-25.0
 20
177.0
 10
25.0
 20
177.0
 10
25.0
 20
172.0
 10
-25.0
 20
172.0
  0
LEADER
  5
94E1
330
1E
100
AcDbEntity
  8
30
  6
Continuous
100
AcDbLeader
  3
STANDARD
 76
     3
 10
-38.72885065747335
 20
-256.5073552826214
 30
0.0
 10
-60.0
 20
-340.0
 30
0.0
 10
-180.0
 20
-340.0
 30
0.0
213
6.470981377232305
223
2.0
233
0.0
1001
ACAD
1000
DSTYLE
1002
{
1070
    41
1040
2.5
1070
    77
1070
     0
1070
    79
1070
     3
1070
   147
1040
1.0
1070
   342
1005
3B2
1002
}
  0
LEADER
  5
956B
330
1E
100
AcDbEntity
  8
30
  6
Continuous
100
AcDbLeader
  3
STANDARD
 76
     3
 10
2.0207519999999
 20
244.5
 30
0.0
 10
60.02081299999996
 20
260.0
 30
0.0
 10
162.0467965879555
 20
260.0
 30
0.0
213
6.470981377232305
223
2.0
233
0.0
1001
ACAD
1000
DSTYLE
1002
{
1070
    41
1040
2.5
1070
    77
1070
     0
1070
    79
1070
     3
1070
   147
1040
1.0
1070
   342
1005
3B2
1002
}
  0
TEXT
  5
956C
330
1E
100
AcDbEntity
  8
30
  6
Continuous
100
AcDbText
 10
61.46497714169981
 20
261.9747881298007
 30
0.0
 40
5.0
  1
M4x0.7 Mounting screw
  7
STANDARD1
100
AcDbText
  0
LINE
  5
957B
330
1E
100
AcDbEntity
  8
0
100
AcDbLine
 10
201.638672
 20
-55.0000000000001
 30
0.0
 11
298.1347900000003
 21
-55.0000000000001
 31
0.0
  0
TEXT
  5
9597
330
1E
100
AcDbEntity
  8
30
  6
Continuous
100
AcDbText
 10
-178.5558358583001
 20
-328.0252118701993
 30
0.0
 40
5.0
  1
%%C15 for accessory wiring
  7
STANDARD1
100
AcDbText
  0
TEXT
  5
9598
330
1E
100
AcDbEntity
  8
30
  6
Continuous
100
AcDbText
 10
-178.5558358583001
 20
-337.0252118701992
 30
0.0
 40
5.0
  1
when necessary 
  7
STANDARD1
100
AcDbText
  0
LINE
  5
95B5
330
1E
100
AcDbEntity
  8
0
100
AcDbLine
 10
-8.499999999999971
 20
290.1
 30
0.0
 11
-16.49999999999997
 21
290.1
 31
0.0
  0
LINE
  5
95B6
330
1E
100
AcDbEntity
  8
0
100
AcDbLine
 10
-8.499999999999971
 20
290.1
 30
0.0
 11
-8.499999999999975
 21
282.1999759999999
 31
0.0
  0
LINE
  5
95B7
330
1E
100
AcDbEntity
  8
0
100
AcDbLine
 10
-16.49999999999997
 20
290.1
 30
0.0
 11
-16.49999999999998
 21
282.1999759999999
 31
0.0
  0
LINE
  5
961F
330
1E
100
AcDbEntity
  8
0
100
AcDbLine
 10
16.50000000000003
 20
325.1
 30
0.0
 11
8.50000000000003
 21
325.1
 31
0.0
  0
LINE
  5
9620
330
1E
100
AcDbEntity
  8
0
100
AcDbLine
 10
16.50000000000003
 20
325.1
 30
0.0
 11
16.50000000000003
 21
317.1999759999999
 31
0.0
  0
LINE
  5
9621
330
1E
100
AcDbEntity
  8
0
100
AcDbLine
 10
8.50000000000003
 20
325.1
 30
0.0
 11
8.500000000000023
 21
317.1999759999999
 31
0.0
  0
DIMENSION
  5
966E
330
1E
100
AcDbEntity
  8
30
  6
Continuous
100
AcDbDimension
  2
*D47
 10
-140.0
 20
238.0
 30
0.0
 11
-143.0
 21
281.55
 31
0.0
 70
    32
 71
     5
 42
87.10000000000006
  3
STANDARD
100
AcDbAlignedDimension
 13
8.50000000000003
 23
325.1
 33
0.0
 14
-67.00202340076157
 24
238.0
 34
0.0
 50
90.0
100
AcDbRotatedDimension
1001
ACAD
1000
DSTYLE
1002
{
1070
    79
1070
     3
1002
}
  0
DIMENSION
  5
966F
330
1E
100
AcDbEntity
  8
30
  6
Continuous
100
AcDbDimension
  2
*D48
 10
-120.0
 20
238.0
 30
0.0
 11
-123.0
 21
271.55
 31
0.0
 70
    32
 71
     5
 42
67.10000000000005
  3
STANDARD
100
AcDbAlignedDimension
 13
-2.469481999999969
 23
305.1
 33
0.0
 14
-67.00202340076157
 24
238.0
 34
0.0
 50
90.0
100
AcDbRotatedDimension
1001
ACAD
1000
DSTYLE
1002
{
1070
    79
1070
     3
1002
}
  0
DIMENSION
  5
9670
330
1E
100
AcDbEntity
  8
30
  6
Continuous
100
AcDbDimension
  2
*D49
 10
-100.0
 20
238.0
 30
0.0
 11
-103.0
 21
264.05
 31
0.0
 70
    32
 71
     5
 42
52.10000000000005
  3
STANDARD
100
AcDbAlignedDimension
 13
-16.49999999999997
 23
290.1
 33
0.0
 14
-67.00202340076157
 24
238.0
 34
0.0
 50
90.0
100
AcDbRotatedDimension
1001
ACAD
1000
DSTYLE
1002
{
1070
    79
1070
     3
1002
}
  0
DIMENSION
  5
9671
330
1E
100
AcDbEntity
  8
30
  6
Continuous
100
AcDbDimension
  2
*D50
 10
-80.0
 20
238.0
 30
0.0
 11
-83.00000000000004
 21
254.05
 31
0.0
 70
    32
 71
     5
 42
32.10000000000005
  3
STANDARD
100
AcDbAlignedDimension
 13
-27.46948199999997
 23
270.1
 33
0.0
 14
-67.00202340076157
 24
238.0
 34
0.0
 50
90.0
100
AcDbRotatedDimension
1001
ACAD
1000
DSTYLE
1002
{
1070
    79
1070
     3
1002
}
  0
LWPOLYLINE
  5
96F7
330
1E
100
AcDbEntity
  8
30
  6
Continuous
100
AcDbPolyline
 90
        2
 70
     0
 43
0.001
 10
359.481781
 20
-80.0
 10
320.0
 20
-80.0
  0
LEADER
  5
96F8
330
1E
100
AcDbEntity
  8
30
  6
Continuous
100
AcDbLeader
  3
STANDARD
 76
     3
 10
305.1000000000002
 20
-55.0000000000001
 30
0.0
 10
320.0
 20
-80.0
 30
0.0
 10
359.481781
 20
-80.0
 30
0.0
213
6.470981377232305
223
2.0
233
0.0
1001
ACAD
1000
DSTYLE
1002
{
1070
    41
1040
2.5
1070
    77
1070
     0
1070
    79
1070
     3
1070
   147
1040
1.0
1070
   342
1005
3B2
1002
}
  0
TEXT
  5
96F9
330
1E
100
AcDbEntity
  8
30
  6
Continuous
100
AcDbText
 10
321.4441641416998
 20
-78.02521187019927
 30
0.0
 40
5.0
  1
M8 screw
  7
STANDARD1
100
AcDbText
  0
LINE
  5
9709
330
1E
100
AcDbEntity
  8
16
100
AcDbLine
 10
0.0
 20
140.0
 30
0.0
 11
0.0
 21
280.0
 31
0.0
  0
LINE
  5
9808
330
1E
100
AcDbEntity
  8
0
100
AcDbLine
 10
218.0000000000005
 20
47.5000000000001
 30
0.0
 11
218.0000000000005
 21
62.5000000000001
 31
0.0
  0
LINE
  5
9809
330
1E
100
AcDbEntity
  8
0
100
AcDbLine
 10
218.0000000000003
 20
-62.5000000000001
 30
0.0
 11
218.0000000000003
 21
-47.5000000000001
 31
0.0
  0
LINE
  5
980A
330
1E
100
AcDbEntity
  8
0
100
AcDbLine
 10
218.0000000000002
 20
62.50000000000014
 30
0.0
 11
244.1000000000002
 21
62.5000000000001
 31
0.0
  0
LINE
  5
980B
330
1E
100
AcDbEntity
  8
0
100
AcDbLine
 10
275.1000000000002
 20
62.5000000000001
 30
0.0
 11
279.1000000000002
 21
62.5000000000001
 31
0.0
  0
LINE
  5
980C
330
1E
100
AcDbEntity
  8
0
100
AcDbLine
 10
218.0000000000002
 20
47.50000000000013
 30
0.0
 11
244.1000000000002
 21
47.5000000000001
 31
0.0
  0
LINE
  5
980D
330
1E
100
AcDbEntity
  8
0
100
AcDbLine
 10
275.1000000000002
 20
47.5000000000001
 30
0.0
 11
279.1000000000002
 21
47.5000000000001
 31
0.0
  0
LINE
  5
980E
330
1E
100
AcDbEntity
  8
0
100
AcDbLine
 10
279.1000000000002
 20
62.5000000000001
 30
0.0
 11
279.1000000000002
 21
47.5000000000001
 31
0.0
  0
LINE
  5
980F
330
1E
100
AcDbEntity
  8
0
100
AcDbLine
 10
279.1000000000002
 20
60.0000000000001
 30
0.0
 11
280.1000000000002
 21
60.0000000000001
 31
0.0
  0
LINE
  5
9810
330
1E
100
AcDbEntity
  8
0
100
AcDbLine
 10
279.1000000000002
 20
50.0000000000001
 30
0.0
 11
280.1000000000002
 21
50.0000000000001
 31
0.0
  0
LINE
  5
9811
330
1E
100
AcDbEntity
  8
L150_
  6
Continuous
 62
     7
100
AcDbLine
 10
287.1000000000002
 20
64.00000000000011
 30
0.0
 11
288.6999750000001
 21
64.00000000000011
 31
0.0
  0
LINE
  5
9812
330
1E
100
AcDbEntity
  8
0
100
AcDbLine
 10
287.1000000000002
 20
46.00000000000011
 30
0.0
 11
288.6999750000001
 21
46.00000000000011
 31
0.0
  0
LINE
  5
9813
330
1E
100
AcDbEntity
  8
L150_
  6
Continuous
 62
     7
100
AcDbLine
 10
288.6999750000001
 20
64.00000000000011
 30
0.0
 11
288.6999750000001
 21
46.00000000000011
 31
0.0
  0
LINE
  5
9814
330
1E
100
AcDbEntity
  8
0
100
AcDbLine
 10
288.6999750000001
 20
62.50549300000024
 30
0.0
 11
297.1999750000001
 21
62.50549300000024
 31
0.0
  0
LINE
  5
9815
330
1E
100
AcDbEntity
  8
0
100
AcDbLine
 10
297.1999750000001
 20
47.49450600000013
 30
0.0
 11
288.6999750000001
 21
47.49450600000013
 31
0.0
  0
LINE
  5
9816
330
1E
100
AcDbEntity
  8
0
100
AcDbLine
 10
297.1999750000001
 20
62.50549300000024
 30
0.0
 11
297.1999750000001
 21
47.49450600000013
 31
0.0
  0
LINE
  5
9817
330
1E
100
AcDbEntity
  8
0
100
AcDbLine
 10
288.6999750000001
 20
58.75280700000019
 30
0.0
 11
297.1999750000001
 21
58.75280700000019
 31
0.0
  0
LINE
  5
9818
330
1E
100
AcDbEntity
  8
0
100
AcDbLine
 10
288.6999750000001
 20
51.24719200000018
 30
0.0
 11
297.1999750000001
 21
51.24719200000018
 31
0.0
  0
LINE
  5
9819
330
1E
100
AcDbEntity
  8
0
100
AcDbLine
 10
285.1000000000002
 20
62.5000000000001
 30
0.0
 11
280.1000000000002
 21
62.5000000000001
 31
0.0
  0
LINE
  5
981A
330
1E
100
AcDbEntity
  8
0
100
AcDbLine
 10
285.1000000000002
 20
47.5000000000001
 30
0.0
 11
280.1000000000002
 21
47.5000000000001
 31
0.0
  0
LINE
  5
981B
330
1E
100
AcDbEntity
  8
0
100
AcDbLine
 10
280.1000000000002
 20
62.5000000000001
 30
0.0
 11
280.1000000000002
 21
47.5000000000001
 31
0.0
  0
LINE
  5
981C
330
1E
100
AcDbEntity
  8
0
100
AcDbLine
 10
285.1000000000002
 20
59.00000000000013
 30
0.0
 11
280.1000000000002
 21
59.00000000000013
 31
0.0
  0
LINE
  5
981D
330
1E
100
AcDbEntity
  8
0
100
AcDbLine
 10
285.1000000000002
 20
51.00000000000013
 30
0.0
 11
280.1000000000002
 21
51.00000000000013
 31
0.0
  0
LINE
  5
981E
330
1E
100
AcDbEntity
  8
L150_
  6
D1877
 62
     7
100
AcDbLine
 10
287.1000000000002
 20
40.03051700000002
 30
0.0
 11
287.1000000000002
 21
70.31298800000001
 31
0.0
  0
LINE
  5
981F
330
1E
100
AcDbEntity
  8
L150_
  6
D1877
 62
     7
100
AcDbLine
 10
285.1000000000002
 20
40.03051700000002
 30
0.0
 11
285.1000000000002
 21
70.31298800000001
 31
0.0
  0
LINE
  5
9820
330
1E
100
AcDbEntity
  8
0
100
AcDbLine
 10
285.1000000000002
 20
40.03051700000002
 30
0.0
 11
287.1000000000002
 21
40.03051700000002
 31
0.0
  0
LINE
  5
9821
330
1E
100
AcDbEntity
  8
0
100
AcDbLine
 10
218.0
 20
-47.50000000000006
 30
0.0
 11
244.1000000000001
 21
-47.50000000000006
 31
0.0
  0
LINE
  5
9822
330
1E
100
AcDbEntity
  8
0
100
AcDbLine
 10
275.1000000000002
 20
-47.50000000000009
 30
0.0
 11
279.1
 21
-47.50000000000009
 31
0.0
  0
LINE
  5
9823
330
1E
100
AcDbEntity
  8
0
100
AcDbLine
 10
218.0
 20
-62.50000000000007
 30
0.0
 11
244.1000000000001
 21
-62.50000000000007
 31
0.0
  0
LINE
  5
9824
330
1E
100
AcDbEntity
  8
0
100
AcDbLine
 10
275.1000000000002
 20
-62.5000000000001
 30
0.0
 11
279.1
 21
-62.5000000000001
 31
0.0
  0
LINE
  5
9825
330
1E
100
AcDbEntity
  8
0
100
AcDbLine
 10
279.1
 20
-47.50000000000009
 30
0.0
 11
279.1
 21
-62.5000000000001
 31
0.0
  0
LINE
  5
9826
330
1E
100
AcDbEntity
  8
0
100
AcDbLine
 10
279.1
 20
-50.0000000000001
 30
0.0
 11
280.1
 21
-50.0000000000001
 31
0.0
  0
LINE
  5
9827
330
1E
100
AcDbEntity
  8
0
100
AcDbLine
 10
279.1
 20
-60.0000000000001
 30
0.0
 11
280.1
 21
-60.0000000000001
 31
0.0
  0
LINE
  5
9828
330
1E
100
AcDbEntity
  8
L150_
  6
Continuous
 62
     7
100
AcDbLine
 10
287.1
 20
-46.00000000000009
 30
0.0
 11
288.6999749999998
 21
-46.00000000000009
 31
0.0
  0
LINE
  5
9829
330
1E
100
AcDbEntity
  8
0
100
AcDbLine
 10
287.1
 20
-64.00000000000005
 30
0.0
 11
288.6999749999998
 21
-64.00000000000005
 31
0.0
  0
LINE
  5
982A
330
1E
100
AcDbEntity
  8
L150_
  6
Continuous
 62
     7
100
AcDbLine
 10
288.6999749999998
 20
-46.00000000000009
 30
0.0
 11
288.6999749999998
 21
-64.00000000000005
 31
0.0
  0
LINE
  5
982B
330
1E
100
AcDbEntity
  8
0
100
AcDbLine
 10
288.6999749999998
 20
-47.49450699999995
 30
0.0
 11
297.1999749999998
 21
-47.49450699999995
 31
0.0
  0
LINE
  5
982C
330
1E
100
AcDbEntity
  8
0
100
AcDbLine
 10
297.1999749999998
 20
-62.50549400000009
 30
0.0
 11
288.6999749999998
 21
-62.50549400000009
 31
0.0
  0
LINE
  5
982D
330
1E
100
AcDbEntity
  8
0
100
AcDbLine
 10
297.1999749999998
 20
-47.49450699999995
 30
0.0
 11
297.1999749999998
 21
-62.50549400000009
 31
0.0
  0
LINE
  5
982E
330
1E
100
AcDbEntity
  8
0
100
AcDbLine
 10
288.6999749999998
 20
-51.247193
 30
0.0
 11
297.1999749999998
 21
-51.247193
 31
0.0
  0
LINE
  5
982F
330
1E
100
AcDbEntity
  8
0
100
AcDbLine
 10
288.6999749999998
 20
-58.75280800000002
 30
0.0
 11
297.1999749999998
 21
-58.75280800000002
 31
0.0
  0
LINE
  5
9830
330
1E
100
AcDbEntity
  8
0
100
AcDbLine
 10
285.0999999999999
 20
-47.50000000000009
 30
0.0
 11
280.1
 21
-47.50000000000009
 31
0.0
  0
LINE
  5
9831
330
1E
100
AcDbEntity
  8
0
100
AcDbLine
 10
285.0999999999999
 20
-62.5000000000001
 30
0.0
 11
280.1
 21
-62.5000000000001
 31
0.0
  0
LINE
  5
9832
330
1E
100
AcDbEntity
  8
0
100
AcDbLine
 10
280.1
 20
-47.50000000000009
 30
0.0
 11
280.1
 21
-62.5000000000001
 31
0.0
  0
LINE
  5
9833
330
1E
100
AcDbEntity
  8
0
100
AcDbLine
 10
285.0999999999999
 20
-51.00000000000007
 30
0.0
 11
280.1
 21
-51.00000000000007
 31
0.0
  0
LINE
  5
9834
330
1E
100
AcDbEntity
  8
0
100
AcDbLine
 10
285.0999999999999
 20
-59.00000000000006
 30
0.0
 11
280.1
 21
-59.00000000000006
 31
0.0
  0
LINE
  5
9835
330
1E
100
AcDbEntity
  8
L150_
  6
D1877
 62
     7
100
AcDbLine
 10
287.1
 20
-69.96948300000015
 30
0.0
 11
287.1
 21
-39.68701200000019
 31
0.0
  0
LINE
  5
9836
330
1E
100
AcDbEntity
  8
L150_
  6
D1877
 62
     7
100
AcDbLine
 10
285.0999999999999
 20
-69.96948300000015
 30
0.0
 11
285.0999999999999
 21
-39.68701200000019
 31
0.0
  0
LINE
  5
9837
330
1E
100
AcDbEntity
  8
0
100
AcDbLine
 10
285.0999999999999
 20
-69.96948300000015
 30
0.0
 11
287.1
 21
-69.96948300000015
 31
0.0
  0
LINE
  5
9838
330
1E
100
AcDbEntity
  8
0
100
AcDbLine
 10
305.1
 20
-51.00000000000007
 30
0.0
 11
305.1
 21
-59.00000000000006
 31
0.0
  0
LINE
  5
9839
330
1E
100
AcDbEntity
  8
0
100
AcDbLine
 10
305.1
 20
-51.00000000000007
 30
0.0
 11
297.1999749999998
 21
-51.00000000000007
 31
0.0
  0
LINE
  5
983A
330
1E
100
AcDbEntity
  8
0
100
AcDbLine
 10
305.1
 20
-59.00000000000006
 30
0.0
 11
297.1999749999998
 21
-59.00000000000006
 31
0.0
  0
LINE
  5
983B
330
1E
100
AcDbEntity
  8
0
100
AcDbLine
 10
305.1000000000002
 20
58.99999950000019
 30
0.0
 11
305.1000000000002
 21
50.99999950000019
 31
0.0
  0
LINE
  5
983C
330
1E
100
AcDbEntity
  8
0
100
AcDbLine
 10
305.1000000000002
 20
58.99999950000019
 30
0.0
 11
297.1999750000001
 21
58.99999950000019
 31
0.0
  0
LINE
  5
983D
330
1E
100
AcDbEntity
  8
0
100
AcDbLine
 10
305.1000000000002
 20
50.99999950000019
 30
0.0
 11
297.1999750000001
 21
50.99999950000019
 31
0.0
  0
LINE
  5
983E
330
1E
100
AcDbEntity
  8
0
100
AcDbLine
 10
244.1000000000002
 20
62.5000000000001
 30
0.0
 11
244.1000000000002
 21
47.5000000000001
 31
0.0
  0
LINE
  5
983F
330
1E
100
AcDbEntity
  8
0
100
AcDbLine
 10
244.1000000000002
 20
60.00000050000007
 30
0.0
 11
245.1000000000003
 21
60.00000050000007
 31
0.0
  0
LINE
  5
9840
330
1E
100
AcDbEntity
  8
0
100
AcDbLine
 10
244.1000000000002
 20
50.00000050000007
 30
0.0
 11
245.1000000000003
 21
50.00000050000007
 31
0.0
  0
LINE
  5
9841
330
1E
100
AcDbEntity
  8
L150_
  6
Continuous
 62
     7
100
AcDbLine
 10
252.1000000000003
 20
64.00000050000006
 30
0.0
 11
253.6999750000002
 21
64.00000050000006
 31
0.0
  0
LINE
  5
9842
330
1E
100
AcDbEntity
  8
0
100
AcDbLine
 10
252.1000000000003
 20
46.00000050000006
 30
0.0
 11
253.6999750000002
 21
46.00000050000006
 31
0.0
  0
LINE
  5
9843
330
1E
100
AcDbEntity
  8
L150_
  6
Continuous
 62
     7
100
AcDbLine
 10
253.6999750000002
 20
64.00000050000006
 30
0.0
 11
253.6999750000002
 21
46.00000050000006
 31
0.0
  0
LINE
  5
9844
330
1E
100
AcDbEntity
  8
0
100
AcDbLine
 10
253.6999750000002
 20
62.50549350000019
 30
0.0
 11
262.1999750000002
 21
62.50549350000019
 31
0.0
  0
LINE
  5
9845
330
1E
100
AcDbEntity
  8
0
100
AcDbLine
 10
262.1999750000002
 20
47.49450650000006
 30
0.0
 11
253.6999750000002
 21
47.49450650000006
 31
0.0
  0
LINE
  5
9846
330
1E
100
AcDbEntity
  8
0
100
AcDbLine
 10
262.1999750000002
 20
62.50549350000019
 30
0.0
 11
262.1999750000002
 21
47.49450650000006
 31
0.0
  0
LINE
  5
9847
330
1E
100
AcDbEntity
  8
0
100
AcDbLine
 10
253.6999750000002
 20
58.75280750000015
 30
0.0
 11
262.1999750000002
 21
58.75280750000015
 31
0.0
  0
LINE
  5
9848
330
1E
100
AcDbEntity
  8
0
100
AcDbLine
 10
253.6999750000002
 20
51.24719250000012
 30
0.0
 11
262.1999750000002
 21
51.24719250000012
 31
0.0
  0
LINE
  5
9849
330
1E
100
AcDbEntity
  8
0
100
AcDbLine
 10
250.1000000000002
 20
62.50000050000007
 30
0.0
 11
245.1000000000003
 21
62.50000050000007
 31
0.0
  0
LINE
  5
984A
330
1E
100
AcDbEntity
  8
0
100
AcDbLine
 10
250.1000000000002
 20
47.50000050000006
 30
0.0
 11
245.1000000000003
 21
47.50000050000006
 31
0.0
  0
LINE
  5
984B
330
1E
100
AcDbEntity
  8
0
100
AcDbLine
 10
245.1000000000003
 20
62.50000050000007
 30
0.0
 11
245.1000000000003
 21
47.50000050000006
 31
0.0
  0
LINE
  5
984C
330
1E
100
AcDbEntity
  8
0
100
AcDbLine
 10
250.1000000000002
 20
59.00000050000008
 30
0.0
 11
245.1000000000003
 21
59.00000050000008
 31
0.0
  0
LINE
  5
984D
330
1E
100
AcDbEntity
  8
0
100
AcDbLine
 10
250.1000000000002
 20
51.00000050000009
 30
0.0
 11
245.1000000000003
 21
51.00000050000009
 31
0.0
  0
LINE
  5
984E
330
1E
100
AcDbEntity
  8
L150_
  6
D1877
 62
     7
100
AcDbLine
 10
252.1000000000003
 20
40.03051749999996
 30
0.0
 11
252.1000000000003
 21
70.31298849999997
 31
0.0
  0
LINE
  5
984F
330
1E
100
AcDbEntity
  8
L150_
  6
D1877
 62
     7
100
AcDbLine
 10
250.1000000000002
 20
40.03051749999996
 30
0.0
 11
250.1000000000002
 21
70.31298849999997
 31
0.0
  0
LINE
  5
9850
330
1E
100
AcDbEntity
  8
0
100
AcDbLine
 10
250.1000000000002
 20
40.03051749999996
 30
0.0
 11
252.1000000000003
 21
40.03051749999996
 31
0.0
  0
LINE
  5
9851
330
1E
100
AcDbEntity
  8
0
100
AcDbLine
 10
244.1000000000001
 20
-47.50000000000006
 30
0.0
 11
244.1000000000001
 21
-62.5000000000001
 31
0.0
  0
LINE
  5
9852
330
1E
100
AcDbEntity
  8
0
100
AcDbLine
 10
244.1000000000001
 20
-49.99999950000013
 30
0.0
 11
245.1000000000001
 21
-49.99999950000013
 31
0.0
  0
LINE
  5
9853
330
1E
100
AcDbEntity
  8
0
100
AcDbLine
 10
244.1000000000001
 20
-59.99999950000013
 30
0.0
 11
245.1000000000001
 21
-59.99999950000013
 31
0.0
  0
LINE
  5
9854
330
1E
100
AcDbEntity
  8
L150_
  6
Continuous
 62
     7
100
AcDbLine
 10
252.1000000000001
 20
-45.99999950000013
 30
0.0
 11
253.6999749999999
 21
-45.99999950000013
 31
0.0
  0
LINE
  5
9855
330
1E
100
AcDbEntity
  8
0
100
AcDbLine
 10
252.1000000000001
 20
-63.99999950000011
 30
0.0
 11
253.6999749999999
 21
-63.99999950000011
 31
0.0
  0
LINE
  5
9856
330
1E
100
AcDbEntity
  8
L150_
  6
Continuous
 62
     7
100
AcDbLine
 10
253.6999749999999
 20
-45.99999950000013
 30
0.0
 11
253.6999749999999
 21
-63.99999950000011
 31
0.0
  0
LINE
  5
9857
330
1E
100
AcDbEntity
  8
0
100
AcDbLine
 10
253.6999749999999
 20
-47.4945065
 30
0.0
 11
262.199975
 21
-47.4945065
 31
0.0
  0
LINE
  5
9858
330
1E
100
AcDbEntity
  8
0
100
AcDbLine
 10
262.199975
 20
-62.50549350000013
 30
0.0
 11
253.6999749999999
 21
-62.50549350000013
 31
0.0
  0
LINE
  5
9859
330
1E
100
AcDbEntity
  8
0
100
AcDbLine
 10
262.199975
 20
-47.4945065
 30
0.0
 11
262.199975
 21
-62.50549350000013
 31
0.0
  0
LINE
  5
985A
330
1E
100
AcDbEntity
  8
0
100
AcDbLine
 10
253.6999749999999
 20
-51.24719250000005
 30
0.0
 11
262.199975
 21
-51.24719250000005
 31
0.0
  0
LINE
  5
985B
330
1E
100
AcDbEntity
  8
0
100
AcDbLine
 10
253.6999749999999
 20
-58.75280750000007
 30
0.0
 11
262.199975
 21
-58.75280750000007
 31
0.0
  0
LINE
  5
985C
330
1E
100
AcDbEntity
  8
0
100
AcDbLine
 10
250.1
 20
-47.49999950000013
 30
0.0
 11
245.1000000000001
 21
-47.49999950000013
 31
0.0
  0
LINE
  5
985D
330
1E
100
AcDbEntity
  8
0
100
AcDbLine
 10
250.1
 20
-62.49999950000013
 30
0.0
 11
245.1000000000001
 21
-62.49999950000013
 31
0.0
  0
LINE
  5
985E
330
1E
100
AcDbEntity
  8
0
100
AcDbLine
 10
245.1000000000001
 20
-47.49999950000013
 30
0.0
 11
245.1000000000001
 21
-62.49999950000013
 31
0.0
  0
LINE
  5
985F
330
1E
100
AcDbEntity
  8
0
100
AcDbLine
 10
250.1
 20
-50.99999950000011
 30
0.0
 11
245.1000000000001
 21
-50.99999950000011
 31
0.0
  0
LINE
  5
9860
330
1E
100
AcDbEntity
  8
0
100
AcDbLine
 10
250.1
 20
-58.99999950000011
 30
0.0
 11
245.1000000000001
 21
-58.99999950000011
 31
0.0
  0
LINE
  5
9861
330
1E
100
AcDbEntity
  8
L150_
  6
D1877
 62
     7
100
AcDbLine
 10
252.1000000000001
 20
-69.96948250000021
 30
0.0
 11
252.1000000000001
 21
-39.68701150000024
 31
0.0
  0
LINE
  5
9862
330
1E
100
AcDbEntity
  8
L150_
  6
D1877
 62
     7
100
AcDbLine
 10
250.1
 20
-69.96948250000021
 30
0.0
 11
250.1
 21
-39.68701150000024
 31
0.0
  0
LINE
  5
9863
330
1E
100
AcDbEntity
  8
0
100
AcDbLine
 10
250.1
 20
-69.96948250000021
 30
0.0
 11
252.1000000000001
 21
-69.96948250000021
 31
0.0
  0
LINE
  5
9864
330
1E
100
AcDbEntity
  8
0
100
AcDbLine
 10
270.1000000000001
 20
-50.99999950000011
 30
0.0
 11
270.1000000000001
 21
-58.99999950000011
 31
0.0
  0
LINE
  5
9865
330
1E
100
AcDbEntity
  8
0
100
AcDbLine
 10
270.1000000000001
 20
-50.99999950000011
 30
0.0
 11
262.199975
 21
-50.99999950000011
 31
0.0
  0
LINE
  5
9866
330
1E
100
AcDbEntity
  8
0
100
AcDbLine
 10
270.1000000000001
 20
-58.99999950000011
 30
0.0
 11
262.199975
 21
-58.99999950000011
 31
0.0
  0
LINE
  5
9867
330
1E
100
AcDbEntity
  8
0
100
AcDbLine
 10
270.1000000000003
 20
59.00000000000015
 30
0.0
 11
270.1000000000003
 21
51.00000000000015
 31
0.0
  0
LINE
  5
9868
330
1E
100
AcDbEntity
  8
0
100
AcDbLine
 10
270.1000000000003
 20
59.00000000000015
 30
0.0
 11
262.1999750000002
 21
59.00000000000013
 31
0.0
  0
LINE
  5
9869
330
1E
100
AcDbEntity
  8
0
100
AcDbLine
 10
270.1000000000003
 20
51.00000000000015
 30
0.0
 11
262.1999750000002
 21
51.00000000000015
 31
0.0
  0
DIMENSION
  5
986A
330
1E
100
AcDbEntity
  8
30
  6
Continuous
100
AcDbDimension
  2
*D54
 10
218.0000000000002
 20
-119.9999999999998
 30
0.0
 11
261.5500000000001
 21
-116.9999999999998
 31
0.0
 70
    32
 71
     5
 42
87.09999999999983
  3
STANDARD
100
AcDbAlignedDimension
 13
305.1
 23
-59.00000000000006
 33
0.0
 14
218.0000000000002
 24
-64.99999999999989
 34
0.0
 50
0.000000000000007
100
AcDbRotatedDimension
1001
ACAD
1000
DSTYLE
1002
{
1070
    79
1070
     3
1002
}
  0
DIMENSION
  5
986B
330
1E
100
AcDbEntity
  8
30
  6
Continuous
100
AcDbDimension
  2
*D55
 10
218.0000000000002
 20
-109.9999999999999
 30
0.0
 11
244.0500000000001
 21
-106.9999999999999
 31
0.0
 70
    32
 71
     5
 42
52.09999999999988
  3
STANDARD
100
AcDbAlignedDimension
 13
270.1000000000001
 23
-58.9999995000001
 33
0.0
 14
218.0000000000002
 24
-54.99999999999999
 34
0.0
100
AcDbRotatedDimension
1001
ACAD
1000
DSTYLE
1002
{
1070
    79
1070
     3
1002
}
  0
VIEWPORT
  5
9AC
102
{ACAD_XDICTIONARY
360
989A
102
}
330
1A
100
AcDbEntity
 67
     1
  8
0
  6
Continuous
100
AcDbViewport
 10
5.758012719964252
 20
3.902083231708196
 30
0.0
 40
15.16322143840179
 41
8.746133096049151
 68
     1
 69
     1
 12
5.758012719964252
 22
3.902083231708196
 13
0.0
 23
0.0
 14
10.0
 24
10.0
 15
10.0
 25
10.0
 16
0.0
 26
0.0
 36
1.0
 17
0.0
 27
0.0
 37
0.0
 42
50.0
 43
0.0
 44
0.0
 45
8.746133096049151
 50
0.0
 51
0.0
 72
   100
 90
    32800
  1

281
     0
 71
     1
 74
     0
110
0.0
120
0.0
130
0.0
111
1.0
121
0.0
131
0.0
112
0.0
122
1.0
132
0.0
 79
     0
146
0.0
  0
VIEWPORT
  5
6267
102
{ACAD_XDICTIONARY
360
989F
102
}
330
1A
100
AcDbEntity
 67
     1
  8
30
  6
Continuous
100
AcDbViewport
 10
5.613749965908018
 20
3.902083250481312
 30
0.0
 40
8.981999945452834
 41
6.243333200770099
 68
     2
 69
     2
 12
107.0904203558153
 22
-39.95474566704796
 13
0.0
 23
0.0
 14
1.0
 24
1.0
 15
10.0
 25
10.0
 16
0.0
 26
0.0
 36
1.0
 17
0.0
 27
0.0
 37
0.0
 42
50.0
 43
0.0
 44
0.0
 45
650.0648328262407
 50
0.0
 51
0.0
 72
   100
 90
    33312
  1

281
     0
 71
     1
 74
     0
110
0.0
120
0.0
130
0.0
111
1.0
121
0.0
131
0.0
112
0.0
122
1.0
132
0.0
 79
     0
146
0.0
  0
ENDSEC
  0
SECTION
  2
OBJECTS
  0
DICTIONARY
  5
C
330
0
100
AcDbDictionary
281
     1
  3
ACAD_COLOR
350
627F
  3
ACAD_GROUP
350
D
  3
ACAD_LAYOUT
350
19
  3
ACAD_MATERIAL
350
627E
  3
ACAD_MLEADERSTYLE
350
8511
  3
ACAD_MLINESTYLE
350
16
  3
ACAD_PLOTSETTINGS
350
18
  3
ACAD_PLOTSTYLENAME
350
E
  3
ACAD_SCALELIST
350
84EF
  3
ACAD_TABLESTYLE
350
6280
  3
ACAD_VISUALSTYLE
350
84DB
  3
ACADDIM
350
5C76
  3
ACDB_RECOMPOSE_DATA
350
9898
  3
ACDBVARIABLEDICTIONARY
350
5697
  3
DWGPROPS
350
9899
  0
DICTIONARY
  5
9399
330
8
100
AcDbDictionary
280
     1
281
     1
  0
DICTIONARY
  5
8498
330
2
100
AcDbDictionary
280
     1
281
     1
  3
ACAD_LAYERSTATES
360
8499
  0
DICTIONARY
  5
90A6
330
10
100
AcDbDictionary
280
     1
281
     1
  3
ADSK_XREC_LAYER_RECONCILED
360
90A7
  0
DICTIONARY
  5
90A8
330
2F
100
AcDbDictionary
280
     1
281
     1
  3
ADSK_XREC_LAYER_RECONCILED
360
90A9
  0
DICTIONARY
  5
90AA
330
31
100
AcDbDictionary
280
     1
281
     1
  3
ADSK_XREC_LAYER_RECONCILED
360
90AB
  0
DICTIONARY
  5
90AC
330
35
100
AcDbDictionary
280
     1
281
     1
  3
ADSK_XREC_LAYER_RECONCILED
360
90AD
  0
DICTIONARY
  5
90AE
330
38
100
AcDbDictionary
280
     1
281
     1
  3
ADSK_XREC_LAYER_RECONCILED
360
90AF
  0
DICTIONARY
  5
90B0
330
3C
100
AcDbDictionary
280
     1
281
     1
  3
ADSK_XREC_LAYER_RECONCILED
360
90B1
  0
DICTIONARY
  5
90B2
330
3D
100
AcDbDictionary
280
     1
281
     1
  3
ADSK_XREC_LAYER_RECONCILED
360
90B3
  0
DICTIONARY
  5
90B4
330
3A2
100
AcDbDictionary
280
     1
281
     1
  3
ADSK_XREC_LAYER_RECONCILED
360
90B5
  0
DICTIONARY
  5
90B6
330
3BBA
100
AcDbDictionary
280
     1
281
     1
  3
ADSK_XREC_LAYER_RECONCILED
360
90B7
  0
DICTIONARY
  5
90B8
330
5116
100
AcDbDictionary
280
     1
281
     1
  3
ADSK_XREC_LAYER_RECONCILED
360
90B9
  0
DICTIONARY
  5
90BA
330
5117
100
AcDbDictionary
280
     1
281
     1
  3
ADSK_XREC_LAYER_RECONCILED
360
90BB
  0
DICTIONARY
  5
90BC
330
5C47
100
AcDbDictionary
280
     1
281
     1
  3
ADSK_XREC_LAYER_RECONCILED
360
90BD
  0
DICTIONARY
  5
90BE
330
6390
100
AcDbDictionary
280
     1
281
     1
  3
ADSK_XREC_LAYER_RECONCILED
360
90BF
  0
DICTIONARY
  5
90C0
330
6391
100
AcDbDictionary
280
     1
281
     1
  3
ADSK_XREC_LAYER_RECONCILED
360
90C1
  0
DICTIONARY
  5
90C2
330
6392
100
AcDbDictionary
280
     1
281
     1
  3
ADSK_XREC_LAYER_RECONCILED
360
90C3
  0
DICTIONARY
  5
90C4
330
6393
100
AcDbDictionary
280
     1
281
     1
  3
ADSK_XREC_LAYER_RECONCILED
360
90C5
  0
DICTIONARY
  5
90C6
330
6394
100
AcDbDictionary
280
     1
281
     1
  3
ADSK_XREC_LAYER_RECONCILED
360
90C7
  0
DICTIONARY
  5
90C8
330
6395
100
AcDbDictionary
280
     1
281
     1
  3
ADSK_XREC_LAYER_RECONCILED
360
90C9
  0
DICTIONARY
  5
90CA
330
6396
100
AcDbDictionary
280
     1
281
     1
  3
ADSK_XREC_LAYER_RECONCILED
360
90CB
  0
DICTIONARY
  5
90CC
330
7247
100
AcDbDictionary
280
     1
281
     1
  3
ADSK_XREC_LAYER_RECONCILED
360
90CD
  0
DICTIONARY
  5
90CE
330
7248
100
AcDbDictionary
280
     1
281
     1
  3
ADSK_XREC_LAYER_RECONCILED
360
90CF
  0
DICTIONARY
  5
178
330
1E
100
AcDbDictionary
280
     1
281
     1
  3
ACAD_LAYOUTSELFREF
360
6251
  3
ACAD_SORTENTS
360
6D1B
  0
DICTIONARY
  5
17A
330
1A
100
AcDbDictionary
280
     1
281
     1
  3
ACAD_LAYOUTSELFREF
360
6250
  0
DICTIONARY
  5
94E5
330
94E2
100
AcDbDictionary
280
     1
281
     1
  3
ACAD_SORTENTS
360
94E6
  0
DICTIONARY
  5
9630
330
962C
100
AcDbDictionary
280
     1
281
     1
  3
ACAD_SORTENTS
360
9631
  0
DICTIONARY
  5
989A
330
9AC
100
AcDbDictionary
280
     1
281
     1
  3
ACAD_XREC_ROUNDTRIP
360
989B
  0
DICTIONARY
  5
989F
330
6267
100
AcDbDictionary
280
     1
281
     1
  3
ACAD_XREC_ROUNDTRIP
360
98A0
  0
DICTIONARY
  5
627F
102
{ACAD_REACTORS
330
C
102
}
330
C
100
AcDbDictionary
281
     1
  0
DICTIONARY
  5
D
102
{ACAD_REACTORS
330
C
102
}
330
C
100
AcDbDictionary
281
     1
  0
DICTIONARY
  5
19
102
{ACAD_REACTORS
330
C
102
}
330
C
100
AcDbDictionary
281
     1
  3
Model
350
6262
  3
ﾚｲｱｳﾄ1
350
6263
  0
DICTIONARY
  5
627E
102
{ACAD_REACTORS
330
C
102
}
330
C
100
AcDbDictionary
281
     1
  3
ByBlock
350
84CB
  3
ByLayer
350
84C3
  3
Global
350
84D3
  0
DICTIONARY
  5
8511
102
{ACAD_REACTORS
330
C
102
}
330
C
100
AcDbDictionary
281
     1
  3
Standard
350
8512
  0
DICTIONARY
  5
16
102
{ACAD_REACTORS
330
C
102
}
330
C
100
AcDbDictionary
281
     1
  3
STANDARD
350
17
  0
DICTIONARY
  5
18
102
{ACAD_REACTORS
330
C
102
}
330
C
100
AcDbDictionary
281
     1
  0
ACDBDICTIONARYWDFLT
  5
E
102
{ACAD_REACTORS
330
C
102
}
330
C
100
AcDbDictionary
281
     1
  3
Normal
350
F
100
AcDbDictionaryWithDefault
340
F
  0
DICTIONARY
  5
84EF
102
{ACAD_REACTORS
330
C
102
}
330
C
100
AcDbDictionary
281
     1
  3
A0
350
84F0
  3
A1
350
84F1
  3
A2
350
84F2
  3
A3
350
84F3
  3
A4
350
84F4
  3
A5
350
84F5
  3
A6
350
84F6
  3
A7
350
84F7
  3
A8
350
84F8
  3
A9
350
84F9
  3
B0
350
84FA
  3
B1
350
84FB
  3
B2
350
84FC
  3
B3
350
84FD
  3
B4
350
84FE
  3
B5
350
84FF
  3
B6
350
8500
  3
B7
350
8501
  3
B8
350
8502
  3
B9
350
8503
  3
C0
350
8504
  3
C1
350
8505
  3
C2
350
8506
  3
C3
350
8507
  3
C4
350
8508
  3
C5
350
8509
  3
C6
350
850A
  3
C7
350
850B
  3
C8
350
850C
  3
C9
350
850D
  3
D0
350
850E
  3
D1
350
850F
  3
D2
350
8510
  0
DICTIONARY
  5
6280
102
{ACAD_REACTORS
330
C
102
}
330
C
100
AcDbDictionary
281
     1
  3
Standard
350
6281
  0
DICTIONARY
  5
84DB
102
{ACAD_REACTORS
330
C
102
}
330
C
100
AcDbDictionary
281
     1
  3
2dWireframe
350
84E1
  3
3D Hidden
350
84E3
  3
3dWireframe
350
84E2
  3
Basic
350
84E0
  3
Brighten
350
84E7
  3
ColorChange
350
84EB
  3
Conceptual
350
84E4
  3
Dim
350
84E6
  3
EdgeColorOff
350
84EE
  3
Facepattern
350
84EA
  3
Flat
350
84DC
  3
FlatWithEdges
350
84DD
  3
Gouraud
350
84DE
  3
GouraudWithEdges
350
84DF
  3
JitterOff
350
84EC
  3
Linepattern
350
84E9
  3
OverhangOff
350
84ED
  3
Realistic
350
84E5
  3
Thicken
350
84E8
  0
XRECORD
  5
5C76
102
{ACAD_REACTORS
330
C
102
}
330
C
100
AcDbXrecord
280
     1
 90
   990106
  3

 60
     0
 61
     0
 62
     1
 63
     3
 64
     0
 65
     0
 66
     0
 67
     3
 68
     1
 69
     0
 70
     0
 71
     0
 72
     0
 40
0.0
170
     0
340
6200
  0
XRECORD
  5
9898
102
{ACAD_REACTORS
330
C
102
}
330
C
100
AcDbXrecord
280
     1
 90
        1
330
6281
  0
DICTIONARY
  5
5697
102
{ACAD_REACTORS
330
C
102
}
330
C
100
AcDbDictionary
281
     1
  3
CANNOSCALE
350
93D4
  3
CMLEADERSTYLE
350
93D3
  3
CTABLESTYLE
350
70FB
  3
DIMASSOC
350
5698
  3
INDEXCTL
350
93D6
  3
PROJECTNAME
350
70FC
  3
SORTENTS
350
93D5
  3
XCLIPFRAME
350
9896
  0
XRECORD
  5
9899
102
{ACAD_REACTORS
330
C
102
}
330
C
100
AcDbXrecord
280
     1
  1
DWGPROPS COOKIE
  2

  3

  4

  6

  7

  8
cadm
  9

300
=
301
=
302
=
303
=
304
=
305
=
306
=
307
=
308
=
309
=
 40
1.393366863425925
 41
2452286.555658658
 42
2455233.424982454
  1

 90
        0
  0
DICTIONARY
  5
8499
102
{ACAD_REACTORS
330
8498
102
}
330
8498
100
AcDbDictionary
281
     1
  0
XRECORD
  5
90A7
102
{ACAD_REACTORS
330
90A6
102
}
330
90A6
100
AcDbXrecord
280
     1
290
     1
  0
XRECORD
  5
90A9
102
{ACAD_REACTORS
330
90A8
102
}
330
90A8
100
AcDbXrecord
280
     1
290
     1
  0
XRECORD
  5
90AB
102
{ACAD_REACTORS
330
90AA
102
}
330
90AA
100
AcDbXrecord
280
     1
290
     1
  0
XRECORD
  5
90AD
102
{ACAD_REACTORS
330
90AC
102
}
330
90AC
100
AcDbXrecord
280
     1
290
     1
  0
XRECORD
  5
90AF
102
{ACAD_REACTORS
330
90AE
102
}
330
90AE
100
AcDbXrecord
280
     1
290
     1
  0
XRECORD
  5
90B1
102
{ACAD_REACTORS
330
90B0
102
}
330
90B0
100
AcDbXrecord
280
     1
290
     1
  0
XRECORD
  5
90B3
102
{ACAD_REACTORS
330
90B2
102
}
330
90B2
100
AcDbXrecord
280
     1
290
     1
  0
XRECORD
  5
90B5
102
{ACAD_REACTORS
330
90B4
102
}
330
90B4
100
AcDbXrecord
280
     1
290
     1
  0
XRECORD
  5
90B7
102
{ACAD_REACTORS
330
90B6
102
}
330
90B6
100
AcDbXrecord
280
     1
290
     1
  0
XRECORD
  5
90B9
102
{ACAD_REACTORS
330
90B8
102
}
330
90B8
100
AcDbXrecord
280
     1
290
     1
  0
XRECORD
  5
90BB
102
{ACAD_REACTORS
330
90BA
102
}
330
90BA
100
AcDbXrecord
280
     1
290
     1
  0
XRECORD
  5
90BD
102
{ACAD_REACTORS
330
90BC
102
}
330
90BC
100
AcDbXrecord
280
     1
290
     1
  0
XRECORD
  5
90BF
102
{ACAD_REACTORS
330
90BE
102
}
330
90BE
100
AcDbXrecord
280
     1
290
     1
  0
XRECORD
  5
90C1
102
{ACAD_REACTORS
330
90C0
102
}
330
90C0
100
AcDbXrecord
280
     1
290
     1
  0
XRECORD
  5
90C3
102
{ACAD_REACTORS
330
90C2
102
}
330
90C2
100
AcDbXrecord
280
     1
290
     1
  0
XRECORD
  5
90C5
102
{ACAD_REACTORS
330
90C4
102
}
330
90C4
100
AcDbXrecord
280
     1
290
     1
  0
XRECORD
  5
90C7
102
{ACAD_REACTORS
330
90C6
102
}
330
90C6
100
AcDbXrecord
280
     1
290
     1
  0
XRECORD
  5
90C9
102
{ACAD_REACTORS
330
90C8
102
}
330
90C8
100
AcDbXrecord
280
     1
290
     1
  0
XRECORD
  5
90CB
102
{ACAD_REACTORS
330
90CA
102
}
330
90CA
100
AcDbXrecord
280
     1
290
     1
  0
XRECORD
  5
90CD
102
{ACAD_REACTORS
330
90CC
102
}
330
90CC
100
AcDbXrecord
280
     1
290
     1
  0
XRECORD
  5
90CF
102
{ACAD_REACTORS
330
90CE
102
}
330
90CE
100
AcDbXrecord
280
     1
290
     1
  0
XRECORD
  5
6251
102
{ACAD_REACTORS
330
178
102
}
330
178
100
AcDbXrecord
280
     1
340
1E
  0
SORTENTSTABLE
  5
6D1B
102
{ACAD_REACTORS
330
178
102
}
330
178
100
AcDbSortentsTable
330
1E
331
691F
  5
6A22
331
5C78
  5
5C78
331
6269
  5
6269
331
6748
  5
674A
331
64AC
  5
64AC
331
64AA
  5
64AA
331
67D1
  5
67FD
331
BF3
  5
BF3
331
64AB
  5
64AB
331
64A9
  5
64A9
331
6200
  5
6200
  0
XRECORD
  5
6250
102
{ACAD_REACTORS
330
17A
102
}
330
17A
100
AcDbXrecord
280
     1
340
1A
  0
SORTENTSTABLE
  5
94E6
102
{ACAD_REACTORS
330
94E5
102
}
330
94E5
100
AcDbSortentsTable
330
94E2
  0
SORTENTSTABLE
  5
9631
102
{ACAD_REACTORS
330
9630
102
}
330
9630
100
AcDbSortentsTable
330
962C
  0
XRECORD
  5
989B
102
{ACAD_REACTORS
330
989A
102
}
330
989A
100
AcDbXrecord
280
     1
102
SHADEPLOT
 70
     0
  0
XRECORD
  5
98A0
102
{ACAD_REACTORS
330
989F
102
}
330
989F
100
AcDbXrecord
280
     1
102
SHADEPLOT
 70
     0
  0
LAYOUT
  5
6262
102
{ACAD_XDICTIONARY
360
989C
102
}
102
{ACAD_REACTORS
330
19
102
}
330
19
100
AcDbPlotSettings
  1

  2
Canon LBP3800 LIPSLX
  4
A4
  6
OLE1
 40
5.873749732971191
 41
5.873747825622557
 42
5.873748779296875
 43
5.873748779296875
 44
209.9733276367186
 45
296.9259948730469
 46
13.97
 47
0.0
 48
0.0
 49
0.0
140
0.0
141
0.0
142
1.0
143
57.03989542820892
 70
 11956
 72
     0
 73
     0
 74
     1
  7
monochrome.ctb
 75
     0
147
0.0175315889430164
148
2132.688548548884
149
9148.078143675617
100
AcDbLayout
  1
Model
 70
     1
 71
     0
 10
0.0
 20
0.0
 11
12.0
 21
9.0
 12
0.0
 22
0.0
 32
0.0
 14
0.0
 24
0.0
 34
0.0
 15
0.0
 25
0.0
 35
0.0
146
0.0
 13
0.0
 23
0.0
 33
0.0
 16
1.0
 26
0.0
 36
0.0
 17
0.0
 27
1.0
 37
0.0
 76
     0
330
1E
331
84B2
  0
LAYOUT
  5
6263
102
{ACAD_XDICTIONARY
360
849B
102
}
102
{ACAD_REACTORS
330
19
102
}
330
19
100
AcDbPlotSettings
  1

  2
Canon LBP3800 LIPSLX
  4
A4
  6

 40
5.873749732971191
 41
5.873747825622557
 42
5.873748779296875
 43
5.873748779296875
 44
209.9733276367186
 45
296.9259948730469
 46
0.0
 47
0.0
 48
0.0
 49
0.0
140
0.0
141
0.0
142
1.0
143
1.0
 70
   688
 72
     0
 73
     1
 74
     5
  7
monochrome.ctb
 75
    16
147
1.0
148
0.0
149
0.0
100
AcDbLayout
  1
ﾚｲｱｳﾄ1
 70
     1
 71
     1
 10
-0.2312499519408218
 20
-0.2312499894870548
 11
11.45874984621061
 21
8.035416452903447
 12
0.0
 22
0.0
 32
0.0
 14
1.1227499931816
 24
0.7804166500962629
 34
0.0
 15
10.10474993863443
 25
7.023749850866361
 35
0.0
146
0.0
 13
0.0
 23
0.0
 33
0.0
 16
1.0
 26
0.0
 36
0.0
 17
0.0
 27
1.0
 37
0.0
 76
     0
330
1A
331
9AC
  0
MATERIAL
  5
84CB
102
{ACAD_XDICTIONARY
360
84CC
102
}
102
{ACAD_REACTORS
330
627E
102
}
330
627E
100
AcDbMaterial
  1
ByBlock
 72
     0
 43
0.0208333333333333
 43
0.0
 43
0.0
 43
0.0
 43
0.0
 43
0.0208333333333333
 43
0.0
 43
0.0
 43
0.0
 43
0.0
 43
1.0
 43
0.0
 43
0.0
 43
0.0
 43
0.0
 43
1.0
 77
     0
 47
0.0208333333333333
 47
0.0
 47
0.0
 47
0.0
 47
0.0
 47
0.0208333333333333
 47
0.0
 47
0.0
 47
0.0
 47
0.0
 47
1.0
 47
0.0
 47
0.0
 47
0.0
 47
0.0
 47
1.0
171
     0
 49
0.0208333333333333
 49
0.0
 49
0.0
 49
0.0
 49
0.0
 49
0.0208333333333333
 49
0.0
 49
0.0
 49
0.0
 49
0.0
 49
1.0
 49
0.0
 49
0.0
 49
0.0
 49
0.0
 49
1.0
175
     0
142
0.0208333333333333
142
0.0
142
0.0
142
0.0
142
0.0
142
0.0208333333333333
142
0.0
142
0.0
142
0.0
142
0.0
142
1.0
142
0.0
142
0.0
142
0.0
142
0.0
142
1.0
179
     0
144
0.0208333333333333
144
0.0
144
0.0
144
0.0
144
0.0
144
0.0208333333333333
144
0.0
144
0.0
144
0.0
144
0.0
144
1.0
144
0.0
144
0.0
144
0.0
144
0.0
144
1.0
147
0.0208333333333333
147
0.0
147
0.0
147
0.0
147
0.0
147
0.0208333333333333
147
0.0
147
0.0
147
0.0
147
0.0
147
1.0
147
0.0
147
0.0
147
0.0
147
0.0
147
1.0
  0
MATERIAL
  5
84C3
102
{ACAD_XDICTIONARY
360
84C4
102
}
102
{ACAD_REACTORS
330
627E
102
}
330
627E
100
AcDbMaterial
  1
ByLayer
 72
     0
 43
0.0208333333333333
 43
0.0
 43
0.0
 43
0.0
 43
0.0
 43
0.0208333333333333
 43
0.0
 43
0.0
 43
0.0
 43
0.0
 43
1.0
 43
0.0
 43
0.0
 43
0.0
 43
0.0
 43
1.0
 77
     0
 47
0.0208333333333333
 47
0.0
 47
0.0
 47
0.0
 47
0.0
 47
0.0208333333333333
 47
0.0
 47
0.0
 47
0.0
 47
0.0
 47
1.0
 47
0.0
 47
0.0
 47
0.0
 47
0.0
 47
1.0
171
     0
 49
0.0208333333333333
 49
0.0
 49
0.0
 49
0.0
 49
0.0
 49
0.0208333333333333
 49
0.0
 49
0.0
 49
0.0
 49
0.0
 49
1.0
 49
0.0
 49
0.0
 49
0.0
 49
0.0
 49
1.0
175
     0
142
0.0208333333333333
142
0.0
142
0.0
142
0.0
142
0.0
142
0.0208333333333333
142
0.0
142
0.0
142
0.0
142
0.0
142
1.0
142
0.0
142
0.0
142
0.0
142
0.0
142
1.0
179
     0
144
0.0208333333333333
144
0.0
144
0.0
144
0.0
144
0.0
144
0.0208333333333333
144
0.0
144
0.0
144
0.0
144
0.0
144
1.0
144
0.0
144
0.0
144
0.0
144
0.0
144
1.0
147
0.0208333333333333
147
0.0
147
0.0
147
0.0
147
0.0
147
0.0208333333333333
147
0.0
147
0.0
147
0.0
147
0.0
147
1.0
147
0.0
147
0.0
147
0.0
147
0.0
147
1.0
  0
MATERIAL
  5
84D3
102
{ACAD_XDICTIONARY
360
84D4
102
}
102
{ACAD_REACTORS
330
627E
102
}
330
627E
100
AcDbMaterial
  1
Global
 72
     0
 43
0.0208333333333333
 43
0.0
 43
0.0
 43
0.0
 43
0.0
 43
0.0208333333333333
 43
0.0
 43
0.0
 43
0.0
 43
0.0
 43
1.0
 43
0.0
 43
0.0
 43
0.0
 43
0.0
 43
1.0
 77
     0
 47
0.0208333333333333
 47
0.0
 47
0.0
 47
0.0
 47
0.0
 47
0.0208333333333333
 47
0.0
 47
0.0
 47
0.0
 47
0.0
 47
1.0
 47
0.0
 47
0.0
 47
0.0
 47
0.0
 47
1.0
171
     0
 49
0.0208333333333333
 49
0.0
 49
0.0
 49
0.0
 49
0.0
 49
0.0208333333333333
 49
0.0
 49
0.0
 49
0.0
 49
0.0
 49
1.0
 49
0.0
 49
0.0
 49
0.0
 49
0.0
 49
1.0
175
     0
142
0.0208333333333333
142
0.0
142
0.0
142
0.0
142
0.0
142
0.0208333333333333
142
0.0
142
0.0
142
0.0
142
0.0
142
1.0
142
0.0
142
0.0
142
0.0
142
0.0
142
1.0
179
     0
144
0.0208333333333333
144
0.0
144
0.0
144
0.0
144
0.0
144
0.0208333333333333
144
0.0
144
0.0
144
0.0
144
0.0
144
1.0
144
0.0
144
0.0
144
0.0
144
0.0
144
1.0
147
0.0208333333333333
147
0.0
147
0.0
147
0.0
147
0.0
147
0.0208333333333333
147
0.0
147
0.0
147
0.0
147
0.0
147
1.0
147
0.0
147
0.0
147
0.0
147
0.0
147
1.0
  0
MLEADERSTYLE
  5
8512
102
{ACAD_REACTORS
330
8511
102
}
330
8511
100
AcDbMLeaderStyle
170
     2
171
     1
172
     0
 90
        2
 40
0.0
 41
0.0
173
     1
 91
-1056964608
340
13
 92
       -2
290
     1
 42
0.09
291
     1
 43
0.36
  3
Standard
 44
0.18
300

342
11
174
     1
178
     6
175
     1
176
     0
 93
-1056964608
 45
0.18
292
     0
297
     0
 46
0.18
 94
-1056964608
 47
1.0
 49
1.0
140
1.0
293
     1
141
0.0
294
     1
177
     0
142
1.0
295
     0
296
     0
143
0.125
1001
ACAD_MLEADERVER
1070
     2
  0
MLINESTYLE
  5
17
102
{ACAD_REACTORS
330
16
102
}
330
16
100
AcDbMlineStyle
  2
STANDARD
 70
     0
  3

 62
   256
 51
90.0
 52
90.0
 71
     2
 49
0.5
 62
   256
  6
BYLAYER
 49
-0.5
 62
   256
  6
BYLAYER
  0
ACDBPLACEHOLDER
  5
F
102
{ACAD_REACTORS
330
E
102
}
330
E
  0
SCALE
  5
84F0
102
{ACAD_REACTORS
330
84EF
102
}
330
84EF
100
AcDbScale
 70
     0
300
1:1
140
1.0
141
1.0
290
     1
  0
SCALE
  5
84F1
102
{ACAD_REACTORS
330
84EF
102
}
330
84EF
100
AcDbScale
 70
     0
300
1:2
140
1.0
141
2.0
290
     0
  0
SCALE
  5
84F2
102
{ACAD_REACTORS
330
84EF
102
}
330
84EF
100
AcDbScale
 70
     0
300
1:4
140
1.0
141
4.0
290
     0
  0
SCALE
  5
84F3
102
{ACAD_REACTORS
330
84EF
102
}
330
84EF
100
AcDbScale
 70
     0
300
1:5
140
1.0
141
5.0
290
     0
  0
SCALE
  5
84F4
102
{ACAD_REACTORS
330
84EF
102
}
330
84EF
100
AcDbScale
 70
     0
300
1:8
140
1.0
141
8.0
290
     0
  0
SCALE
  5
84F5
102
{ACAD_REACTORS
330
84EF
102
}
330
84EF
100
AcDbScale
 70
     0
300
1:10
140
1.0
141
10.0
290
     0
  0
SCALE
  5
84F6
102
{ACAD_REACTORS
330
84EF
102
}
330
84EF
100
AcDbScale
 70
     0
300
1:16
140
1.0
141
16.0
290
     0
  0
SCALE
  5
84F7
102
{ACAD_REACTORS
330
84EF
102
}
330
84EF
100
AcDbScale
 70
     0
300
1:20
140
1.0
141
20.0
290
     0
  0
SCALE
  5
84F8
102
{ACAD_REACTORS
330
84EF
102
}
330
84EF
100
AcDbScale
 70
     0
300
1:30
140
1.0
141
30.0
290
     0
  0
SCALE
  5
84F9
102
{ACAD_REACTORS
330
84EF
102
}
330
84EF
100
AcDbScale
 70
     0
300
1:40
140
1.0
141
40.0
290
     0
  0
SCALE
  5
84FA
102
{ACAD_REACTORS
330
84EF
102
}
330
84EF
100
AcDbScale
 70
     0
300
1:50
140
1.0
141
50.0
290
     0
  0
SCALE
  5
84FB
102
{ACAD_REACTORS
330
84EF
102
}
330
84EF
100
AcDbScale
 70
     0
300
1:100
140
1.0
141
100.0
290
     0
  0
SCALE
  5
84FC
102
{ACAD_REACTORS
330
84EF
102
}
330
84EF
100
AcDbScale
 70
     0
300
2:1
140
2.0
141
1.0
290
     0
  0
SCALE
  5
84FD
102
{ACAD_REACTORS
330
84EF
102
}
330
84EF
100
AcDbScale
 70
     0
300
4:1
140
4.0
141
1.0
290
     0
  0
SCALE
  5
84FE
102
{ACAD_REACTORS
330
84EF
102
}
330
84EF
100
AcDbScale
 70
     0
300
8:1
140
8.0
141
1.0
290
     0
  0
SCALE
  5
84FF
102
{ACAD_REACTORS
330
84EF
102
}
330
84EF
100
AcDbScale
 70
     0
300
10:1
140
10.0
141
1.0
290
     0
  0
SCALE
  5
8500
102
{ACAD_REACTORS
330
84EF
102
}
330
84EF
100
AcDbScale
 70
     0
300
100:1
140
100.0
141
1.0
290
     0
  0
SCALE
  5
8501
102
{ACAD_REACTORS
330
84EF
102
}
330
84EF
100
AcDbScale
 70
     0
300
1/128" = 1'-0"
140
0.0078125
141
12.0
290
     0
  0
SCALE
  5
8502
102
{ACAD_REACTORS
330
84EF
102
}
330
84EF
100
AcDbScale
 70
     0
300
1/64" = 1'-0"
140
0.015625
141
12.0
290
     0
  0
SCALE
  5
8503
102
{ACAD_REACTORS
330
84EF
102
}
330
84EF
100
AcDbScale
 70
     0
300
1/32" = 1'-0"
140
0.03125
141
12.0
290
     0
  0
SCALE
  5
8504
102
{ACAD_REACTORS
330
84EF
102
}
330
84EF
100
AcDbScale
 70
     0
300
1/16" = 1'-0"
140
0.0625
141
12.0
290
     0
  0
SCALE
  5
8505
102
{ACAD_REACTORS
330
84EF
102
}
330
84EF
100
AcDbScale
 70
     0
300
3/32" = 1'-0"
140
0.09375
141
12.0
290
     0
  0
SCALE
  5
8506
102
{ACAD_REACTORS
330
84EF
102
}
330
84EF
100
AcDbScale
 70
     0
300
1/8" = 1'-0"
140
0.125
141
12.0
290
     0
  0
SCALE
  5
8507
102
{ACAD_REACTORS
330
84EF
102
}
330
84EF
100
AcDbScale
 70
     0
300
3/16" = 1'-0"
140
0.1875
141
12.0
290
     0
  0
SCALE
  5
8508
102
{ACAD_REACTORS
330
84EF
102
}
330
84EF
100
AcDbScale
 70
     0
300
1/4" = 1'-0"
140
0.25
141
12.0
290
     0
  0
SCALE
  5
8509
102
{ACAD_REACTORS
330
84EF
102
}
330
84EF
100
AcDbScale
 70
     0
300
3/8" = 1'-0"
140
0.375
141
12.0
290
     0
  0
SCALE
  5
850A
102
{ACAD_REACTORS
330
84EF
102
}
330
84EF
100
AcDbScale
 70
     0
300
1/2" = 1'-0"
140
0.5
141
12.0
290
     0
  0
SCALE
  5
850B
102
{ACAD_REACTORS
330
84EF
102
}
330
84EF
100
AcDbScale
 70
     0
300
3/4" = 1'-0"
140
0.75
141
12.0
290
     0
  0
SCALE
  5
850C
102
{ACAD_REACTORS
330
84EF
102
}
330
84EF
100
AcDbScale
 70
     0
300
1" = 1'-0"
140
1.0
141
12.0
290
     0
  0
SCALE
  5
850D
102
{ACAD_REACTORS
330
84EF
102
}
330
84EF
100
AcDbScale
 70
     0
300
1-1/2" = 1'-0"
140
1.5
141
12.0
290
     0
  0
SCALE
  5
850E
102
{ACAD_REACTORS
330
84EF
102
}
330
84EF
100
AcDbScale
 70
     0
300
3" = 1'-0"
140
3.0
141
12.0
290
     0
  0
SCALE
  5
850F
102
{ACAD_REACTORS
330
84EF
102
}
330
84EF
100
AcDbScale
 70
     0
300
6" = 1'-0"
140
6.0
141
12.0
290
     0
  0
SCALE
  5
8510
102
{ACAD_REACTORS
330
84EF
102
}
330
84EF
100
AcDbScale
 70
     0
300
1'-0" = 1'-0"
140
12.0
141
12.0
290
     0
  0
TABLESTYLE
  5
6281
102
{ACAD_XDICTIONARY
360
9395
102
}
102
{ACAD_REACTORS
330
6280
102
}
330
6280
100
AcDbTableStyle
  3
Standard
 70
     0
 71
     0
 40
0.06
 41
0.06
280
     0
281
     0
  7
STANDARD
140
0.18
170
     2
 62
     0
 63
     7
283
     0
274
    -2
284
     1
 64
     0
275
    -2
285
     1
 65
     0
276
    -2
286
     1
 66
     0
277
    -2
287
     1
 67
     0
278
    -2
288
     1
 68
     0
279
    -2
289
     1
 69
     0
  7
STANDARD
140
0.25
170
     5
 62
     0
 63
     7
283
     0
274
    -2
284
     1
 64
     0
275
    -2
285
     1
 65
     0
276
    -2
286
     1
 66
     0
277
    -2
287
     1
 67
     0
278
    -2
288
     1
 68
     0
279
    -2
289
     1
 69
     0
  7
STANDARD
140
0.18
170
     5
 62
     0
 63
     7
283
     0
274
    -2
284
     1
 64
     0
275
    -2
285
     1
 65
     0
276
    -2
286
     1
 66
     0
277
    -2
287
     1
 67
     0
278
    -2
288
     1
 68
     0
279
    -2
289
     1
 69
     0
  0
VISUALSTYLE
  5
84E1
102
{ACAD_XDICTIONARY
360
98AC
102
}
102
{ACAD_REACTORS
330
84DB
102
}
330
84DB
100
AcDbVisualStyle
  2

 70
     4
 71
     0
 72
     2
 73
     0
 90
        0
 40
-0.6
 41
-30.0
 62
     5
 63
     7
 74
     1
 91
        4
 64
     7
 65
   257
 75
     1
175
     1
 42
1.0
 92
        0
 66
   257
 43
1.0
 76
     1
 77
     6
 78
     2
 67
     7
 79
     5
170
     0
171
     0
290
     0
174
     0
 93
        1
 44
0.0
173
     0
291
     0
 45
0.0
1001
ACAD
1000
AcDbSavedByObjectVersion
1070
     0
  0
VISUALSTYLE
  5
84E3
102
{ACAD_XDICTIONARY
360
98B0
102
}
102
{ACAD_REACTORS
330
84DB
102
}
330
84DB
100
AcDbVisualStyle
  2

 70
     6
 71
     1
 72
     2
 73
     2
 90
        0
 40
-0.6
 41
-30.0
 62
     5
 63
     7
 74
     2
 91
        2
 64
     7
 65
   257
 75
     2
175
     1
 42
179.0
 92
        0
 66
   257
 43
1.0
 76
     1
 77
     6
 78
     2
 67
     7
 79
     3
170
     0
171
     0
290
     0
174
     0
 93
        1
 44
0.0
173
     0
291
     0
 45
0.0
1001
ACAD
1000
AcDbSavedByObjectVersion
1070
     0
  0
VISUALSTYLE
  5
84E2
102
{ACAD_XDICTIONARY
360
98AE
102
}
102
{ACAD_REACTORS
330
84DB
102
}
330
84DB
100
AcDbVisualStyle
  2

 70
     5
 71
     0
 72
     2
 73
     0
 90
        0
 40
-0.6
 41
-30.0
 62
     5
 63
     7
 74
     1
 91
        4
 64
     7
 65
   257
 75
     1
175
     1
 42
1.0
 92
        0
 66
   257
 43
1.0
 76
     1
 77
     6
 78
     2
 67
     7
 79
     5
170
     0
171
     0
290
     0
174
     0
 93
        1
 44
0.0
173
     0
291
     0
 45
0.0
1001
ACAD
1000
AcDbSavedByObjectVersion
1070
     0
  0
VISUALSTYLE
  5
84E0
102
{ACAD_XDICTIONARY
360
98AA
102
}
102
{ACAD_REACTORS
330
84DB
102
}
330
84DB
100
AcDbVisualStyle
  2

 70
     7
 71
     1
 72
     0
 73
     1
 90
        0
 40
-0.6
 41
-30.0
 62
     5
 63
     7
 74
     0
 91
        4
 64
     7
 65
   257
 75
     1
175
     1
 42
1.0
 92
        8
 66
     7
 43
1.0
 76
     1
 77
     6
 78
     2
 67
     7
 79
     5
170
     0
171
     0
290
     0
174
     0
 93
        1
 44
0.0
173
     0
291
     1
 45
0.0
1001
ACAD
1000
AcDbSavedByObjectVersion
1070
     0
  0
VISUALSTYLE
  5
84E7
102
{ACAD_XDICTIONARY
360
98B8
102
}
102
{ACAD_REACTORS
330
84DB
102
}
330
84DB
100
AcDbVisualStyle
  2

 70
    12
 71
     2
 72
     2
 73
     0
 90
        0
 40
-0.6
 41
-30.0
 62
     5
 63
     7
 74
     1
 91
        4
 64
     7
 65
   257
 75
     1
175
     1
 42
1.0
 92
        8
 66
     7
 43
1.0
 76
     1
 77
     6
 78
     2
 67
     7
 79
     5
170
     0
171
     0
290
     0
174
     0
 93
        1
 44
50.0
173
     0
291
     1
 45
0.0
1001
ACAD
1000
AcDbSavedByObjectVersion
1070
     0
  0
VISUALSTYLE
  5
84EB
102
{ACAD_XDICTIONARY
360
98C0
102
}
102
{ACAD_REACTORS
330
84DB
102
}
330
84DB
100
AcDbVisualStyle
  2

 70
    16
 71
     2
 72
     2
 73
     3
 90
        0
 40
-0.6
 41
-30.0
 62
     5
 63
     8
 74
     1
 91
        4
 64
     7
 65
   257
 75
     1
175
     1
 42
1.0
 92
        8
 66
     8
 43
1.0
 76
     1
 77
     6
 78
     2
 67
     7
 79
     5
170
     0
171
     0
290
     0
174
     0
 93
        1
 44
0.0
173
     0
291
     1
 45
0.0
1001
ACAD
1000
AcDbSavedByObjectVersion
1070
     0
  0
VISUALSTYLE
  5
84E4
102
{ACAD_XDICTIONARY
360
98B2
102
}
102
{ACAD_REACTORS
330
84DB
102
}
330
84DB
100
AcDbVisualStyle
  2

 70
     9
 71
     3
 72
     2
 73
     0
 90
        0
 40
-0.6
 41
-30.0
 62
     5
 63
     7
 74
     2
 91
        2
 64
     7
 65
   257
 75
     1
175
     1
 42
179.0
 92
        8
 66
     7
 43
1.0
 76
     1
 77
     6
 78
     2
 67
     7
 79
     3
170
     0
171
     0
290
     0
174
     0
 93
        1
 44
0.0
173
     0
291
     0
 45
0.0
1001
ACAD
1000
AcDbSavedByObjectVersion
1070
     0
  0
VISUALSTYLE
  5
84E6
102
{ACAD_XDICTIONARY
360
98B6
102
}
102
{ACAD_REACTORS
330
84DB
102
}
330
84DB
100
AcDbVisualStyle
  2

 70
    11
 71
     2
 72
     2
 73
     0
 90
        0
 40
-0.6
 41
-30.0
 62
     5
 63
     7
 74
     1
 91
        4
 64
     7
 65
   257
 75
     1
175
     1
 42
1.0
 92
        8
 66
     7
 43
1.0
 76
     1
 77
     6
 78
     2
 67
     7
 79
     5
170
     0
171
     0
290
     0
174
     0
 93
        1
 44
-50.0
173
     0
291
     1
 45
0.0
1001
ACAD
1000
AcDbSavedByObjectVersion
1070
     0
  0
VISUALSTYLE
  5
84EE
102
{ACAD_XDICTIONARY
360
98C6
102
}
102
{ACAD_REACTORS
330
84DB
102
}
330
84DB
100
AcDbVisualStyle
  2

 70
    22
 71
     2
 72
     2
 73
     0
 90
        0
 40
-0.6
 41
-30.0
 62
     5
 63
     7
 74
     1
 91
        4
 64
     7
 65
   257
 75
     1
175
     1
 42
1.0
 92
        8
 66
     7
 43
1.0
 76
     1
 77
     6
 78
     2
 67
     7
 79
     5
170
     0
171
     0
290
     0
174
     0
 93
        1
 44
0.0
173
     0
291
     1
 45
0.0
1001
ACAD
1000
AcDbSavedByObjectVersion
1070
     0
  0
VISUALSTYLE
  5
84EA
102
{ACAD_XDICTIONARY
360
98BE
102
}
102
{ACAD_REACTORS
330
84DB
102
}
330
84DB
100
AcDbVisualStyle
  2

 70
    15
 71
     2
 72
     2
 73
     0
 90
        0
 40
-0.6
 41
-30.0
 62
     5
 63
     7
 74
     1
 91
        4
 64
     7
 65
   257
 75
     1
175
     1
 42
1.0
 92
        8
 66
     7
 43
1.0
 76
     1
 77
     6
 78
     2
 67
     7
 79
     5
170
     0
171
     0
290
     0
174
     0
 93
        1
 44
0.0
173
     0
291
     1
 45
0.0
1001
ACAD
1000
AcDbSavedByObjectVersion
1070
     0
  0
VISUALSTYLE
  5
84DC
102
{ACAD_XDICTIONARY
360
98A2
102
}
102
{ACAD_REACTORS
330
84DB
102
}
330
84DB
100
AcDbVisualStyle
  2

 70
     0
 71
     2
 72
     1
 73
     1
 90
        2
 40
-0.6
 41
30.0
 62
     5
 63
     7
 74
     0
 91
        4
 64
     7
 65
   257
 75
     1
175
     1
 42
1.0
 92
        8
 66
     7
 43
1.0
 76
     1
 77
     6
 78
     2
 67
     7
 79
     5
170
     0
171
     0
290
     0
174
     0
 93
       13
 44
0.0
173
     0
291
     1
 45
0.0
1001
ACAD
1000
AcDbSavedByObjectVersion
1070
     0
  0
VISUALSTYLE
  5
84DD
102
{ACAD_XDICTIONARY
360
98A4
102
}
102
{ACAD_REACTORS
330
84DB
102
}
330
84DB
100
AcDbVisualStyle
  2

 70
     1
 71
     2
 72
     1
 73
     1
 90
        2
 40
-0.6
 41
30.0
 62
     5
 63
     7
 74
     1
 91
        4
 64
     7
 65
   257
 75
     1
175
     1
 42
1.0
 92
        0
 66
   257
 43
1.0
 76
     1
 77
     6
 78
     2
 67
     7
 79
     5
170
     0
171
     0
290
     0
174
     0
 93
       13
 44
0.0
173
     0
291
     1
 45
0.0
1001
ACAD
1000
AcDbSavedByObjectVersion
1070
     0
  0
VISUALSTYLE
  5
84DE
102
{ACAD_XDICTIONARY
360
98A6
102
}
102
{ACAD_REACTORS
330
84DB
102
}
330
84DB
100
AcDbVisualStyle
  2

 70
     2
 71
     2
 72
     2
 73
     1
 90
        2
 40
-0.6
 41
30.0
 62
     5
 63
     7
 74
     0
 91
        4
 64
     7
 65
   257
 75
     1
175
     1
 42
1.0
 92
        0
 66
     7
 43
1.0
 76
     1
 77
     6
 78
     2
 67
     7
 79
     5
170
     0
171
     0
290
     0
174
     0
 93
       13
 44
0.0
173
     0
291
     1
 45
0.0
1001
ACAD
1000
AcDbSavedByObjectVersion
1070
     0
  0
VISUALSTYLE
  5
84DF
102
{ACAD_XDICTIONARY
360
98A8
102
}
102
{ACAD_REACTORS
330
84DB
102
}
330
84DB
100
AcDbVisualStyle
  2

 70
     3
 71
     2
 72
     2
 73
     1
 90
        2
 40
-0.6
 41
30.0
 62
     5
 63
     7
 74
     1
 91
        4
 64
     7
 65
   257
 75
     1
175
     1
 42
1.0
 92
        0
 66
   257
 43
1.0
 76
     1
 77
     6
 78
     2
 67
     7
 79
     5
170
     0
171
     0
290
     0
174
     0
 93
       13
 44
0.0
173
     0
291
     1
 45
0.0
1001
ACAD
1000
AcDbSavedByObjectVersion
1070
     0
  0
VISUALSTYLE
  5
84EC
102
{ACAD_XDICTIONARY
360
98C2
102
}
102
{ACAD_REACTORS
330
84DB
102
}
330
84DB
100
AcDbVisualStyle
  2

 70
    20
 71
     2
 72
     2
 73
     0
 90
        0
 40
-0.6
 41
-30.0
 62
     5
 63
     7
 74
     1
 91
        4
 64
     7
 65
   257
 75
     1
175
     1
 42
1.0
 92
       10
 66
     7
 43
1.0
 76
     1
 77
     6
 78
     2
 67
     7
 79
     5
170
     0
171
     0
290
     0
174
     0
 93
        1
 44
0.0
173
     0
291
     1
 45
0.0
1001
ACAD
1000
AcDbSavedByObjectVersion
1070
     0
  0
VISUALSTYLE
  5
84E9
102
{ACAD_XDICTIONARY
360
98BC
102
}
102
{ACAD_REACTORS
330
84DB
102
}
330
84DB
100
AcDbVisualStyle
  2

 70
    14
 71
     2
 72
     2
 73
     0
 90
        0
 40
-0.6
 41
-30.0
 62
     5
 63
     7
 74
     1
 91
        4
 64
     7
 65
   257
 75
     7
175
     7
 42
1.0
 92
        8
 66
     7
 43
1.0
 76
     1
 77
     6
 78
     2
 67
     7
 79
     5
170
     0
171
     0
290
     0
174
     0
 93
        1
 44
0.0
173
     0
291
     1
 45
0.0
1001
ACAD
1000
AcDbSavedByObjectVersion
1070
     0
  0
VISUALSTYLE
  5
84ED
102
{ACAD_XDICTIONARY
360
98C4
102
}
102
{ACAD_REACTORS
330
84DB
102
}
330
84DB
100
AcDbVisualStyle
  2

 70
    21
 71
     2
 72
     2
 73
     0
 90
        0
 40
-0.6
 41
-30.0
 62
     5
 63
     7
 74
     1
 91
        4
 64
     7
 65
   257
 75
     1
175
     1
 42
1.0
 92
        9
 66
     7
 43
1.0
 76
     1
 77
     6
 78
     2
 67
     7
 79
     5
170
     0
171
     0
290
     0
174
     0
 93
        1
 44
0.0
173
     0
291
     1
 45
0.0
1001
ACAD
1000
AcDbSavedByObjectVersion
1070
     0
  0
VISUALSTYLE
  5
84E5
102
{ACAD_XDICTIONARY
360
98B4
102
}
102
{ACAD_REACTORS
330
84DB
102
}
330
84DB
100
AcDbVisualStyle
  2

 70
     8
 71
     2
 72
     2
 73
     0
 90
        0
 40
-0.6
 41
-30.0
 62
     5
 63
     7
 74
     1
 91
        0
 64
     7
 65
   257
 75
     1
175
     1
 42
1.0
 92
        8
 66
     8
 43
1.0
 76
     1
 77
     6
 78
     2
 67
     7
 79
     5
170
     0
171
     0
290
     0
174
     0
 93
       13
 44
0.0
173
     0
291
     0
 45
0.0
1001
ACAD
1000
AcDbSavedByObjectVersion
1070
     0
  0
VISUALSTYLE
  5
84E8
102
{ACAD_XDICTIONARY
360
98BA
102
}
102
{ACAD_REACTORS
330
84DB
102
}
330
84DB
100
AcDbVisualStyle
  2

 70
    13
 71
     2
 72
     2
 73
     0
 90
        0
 40
-0.6
 41
-30.0
 62
     5
 63
     7
 74
     1
 91
        4
 64
     7
 65
   257
 75
     1
175
     1
 42
1.0
 92
       12
 66
     7
 43
1.0
 76
     1
 77
     6
 78
     2
 67
     7
 79
     5
170
     0
171
     0
290
     0
174
     0
 93
        1
 44
0.0
173
     0
291
     1
 45
0.0
1001
ACAD
1000
AcDbSavedByObjectVersion
1070
     0
  0
DICTIONARYVAR
  5
93D4
102
{ACAD_REACTORS
330
5697
102
}
330
5697
100
DictionaryVariables
280
     0
  1
1:1
  0
DICTIONARYVAR
  5
93D3
102
{ACAD_REACTORS
330
5697
102
}
330
5697
100
DictionaryVariables
280
     0
  1
STANDARD
  0
DICTIONARYVAR
  5
70FB
102
{ACAD_REACTORS
330
5697
102
}
330
5697
100
DictionaryVariables
280
     0
  1
STANDARD
  0
DICTIONARYVAR
  5
5698
102
{ACAD_REACTORS
330
5697
102
}
330
5697
100
DictionaryVariables
280
     0
  1
1
  0
DICTIONARYVAR
  5
93D6
102
{ACAD_REACTORS
330
5697
102
}
330
5697
100
DictionaryVariables
280
     0
  1
0
  0
DICTIONARYVAR
  5
70FC
102
{ACAD_REACTORS
330
5697
102
}
330
5697
100
DictionaryVariables
280
     0
  1

  0
DICTIONARYVAR
  5
93D5
102
{ACAD_REACTORS
330
5697
102
}
330
5697
100
DictionaryVariables
280
     0
  1
127
  0
DICTIONARYVAR
  5
9896
102
{ACAD_REACTORS
330
5697
102
}
330
5697
100
DictionaryVariables
280
     0
  1
2
  0
DICTIONARY
  5
989C
330
6262
100
AcDbDictionary
280
     1
281
     1
  3
ACAD_XREC_ROUNDTRIP
360
989D
  0
DICTIONARY
  5
849B
330
6263
100
AcDbDictionary
280
     1
281
     1
  3
ACAD_XREC_ROUNDTRIP
360
989E
  3
ADSK_XREC_LAYOUTTHUMBNAIL
360
849C
  0
DICTIONARY
  5
84CC
330
84CB
100
AcDbDictionary
280
     1
281
     1
  3
ACAD_XREC_ROUNDTRIP
360
9465
  3
BUMPTILE
360
84CE
  3
DIFFUSETILE
360
84CD
  3
OPACITYTILE
360
84D1
  3
REFLECTIONTILE
360
84D0
  3
REFRACTIONTILE
360
84D2
  3
SPECULARTILE
360
84CF
  0
DICTIONARY
  5
84C4
330
84C3
100
AcDbDictionary
280
     1
281
     1
  3
ACAD_XREC_ROUNDTRIP
360
9464
  3
BUMPTILE
360
84C6
  3
DIFFUSETILE
360
84C5
  3
OPACITYTILE
360
84C9
  3
REFLECTIONTILE
360
84C8
  3
REFRACTIONTILE
360
84CA
  3
SPECULARTILE
360
84C7
  0
DICTIONARY
  5
84D4
330
84D3
100
AcDbDictionary
280
     1
281
     1
  3
ACAD_XREC_ROUNDTRIP
360
9466
  3
BUMPTILE
360
84D6
  3
DIFFUSETILE
360
84D5
  3
OPACITYTILE
360
84D9
  3
REFLECTIONTILE
360
84D8
  3
REFRACTIONTILE
360
84DA
  3
SPECULARTILE
360
84D7
  0
DICTIONARY
  5
9395
330
6281
100
AcDbDictionary
280
     1
281
     1
  3
ACAD_ROUNDTRIP_2008_TABLESTYLE_CELLSTYLEMAP
360
9897
  3
ACAD_XREC_ROUNDTRIP
360
98A1
  0
DICTIONARY
  5
98AC
330
84E1
100
AcDbDictionary
280
     1
281
     1
  3
ACAD_XREC_ROUNDTRIP
360
98AD
  0
DICTIONARY
  5
98B0
330
84E3
100
AcDbDictionary
280
     1
281
     1
  3
ACAD_XREC_ROUNDTRIP
360
98B1
  0
DICTIONARY
  5
98AE
330
84E2
100
AcDbDictionary
280
     1
281
     1
  3
ACAD_XREC_ROUNDTRIP
360
98AF
  0
DICTIONARY
  5
98AA
330
84E0
100
AcDbDictionary
280
     1
281
     1
  3
ACAD_XREC_ROUNDTRIP
360
98AB
  0
DICTIONARY
  5
98B8
330
84E7
100
AcDbDictionary
280
     1
281
     1
  3
ACAD_XREC_ROUNDTRIP
360
98B9
  0
DICTIONARY
  5
98C0
330
84EB
100
AcDbDictionary
280
     1
281
     1
  3
ACAD_XREC_ROUNDTRIP
360
98C1
  0
DICTIONARY
  5
98B2
330
84E4
100
AcDbDictionary
280
     1
281
     1
  3
ACAD_XREC_ROUNDTRIP
360
98B3
  0
DICTIONARY
  5
98B6
330
84E6
100
AcDbDictionary
280
     1
281
     1
  3
ACAD_XREC_ROUNDTRIP
360
98B7
  0
DICTIONARY
  5
98C6
330
84EE
100
AcDbDictionary
280
     1
281
     1
  3
ACAD_XREC_ROUNDTRIP
360
98C7
  0
DICTIONARY
  5
98BE
330
84EA
100
AcDbDictionary
280
     1
281
     1
  3
ACAD_XREC_ROUNDTRIP
360
98BF
  0
DICTIONARY
  5
98A2
330
84DC
100
AcDbDictionary
280
     1
281
     1
  3
ACAD_XREC_ROUNDTRIP
360
98A3
  0
DICTIONARY
  5
98A4
330
84DD
100
AcDbDictionary
280
     1
281
     1
  3
ACAD_XREC_ROUNDTRIP
360
98A5
  0
DICTIONARY
  5
98A6
330
84DE
100
AcDbDictionary
280
     1
281
     1
  3
ACAD_XREC_ROUNDTRIP
360
98A7
  0
DICTIONARY
  5
98A8
330
84DF
100
AcDbDictionary
280
     1
281
     1
  3
ACAD_XREC_ROUNDTRIP
360
98A9
  0
DICTIONARY
  5
98C2
330
84EC
100
AcDbDictionary
280
     1
281
     1
  3
ACAD_XREC_ROUNDTRIP
360
98C3
  0
DICTIONARY
  5
98BC
330
84E9
100
AcDbDictionary
280
     1
281
     1
  3
ACAD_XREC_ROUNDTRIP
360
98BD
  0
DICTIONARY
  5
98C4
330
84ED
100
AcDbDictionary
280
     1
281
     1
  3
ACAD_XREC_ROUNDTRIP
360
98C5
  0
DICTIONARY
  5
98B4
330
84E5
100
AcDbDictionary
280
     1
281
     1
  3
ACAD_XREC_ROUNDTRIP
360
98B5
  0
DICTIONARY
  5
98BA
330
84E8
100
AcDbDictionary
280
     1
281
     1
  3
ACAD_XREC_ROUNDTRIP
360
98BB
  0
XRECORD
  5
989D
102
{ACAD_REACTORS
330
989C
102
}
330
989C
100
AcDbXrecord
280
     1
102
SHADEPLOT
 70
     0
102
SHADEPLOTRESLEVEL
 70
     2
102
SHADEPLOTCUSTOMDPI
 70
   300
  0
XRECORD
  5
989E
102
{ACAD_REACTORS
330
849B
102
}
330
849B
100
AcDbXrecord
280
     1
102
SHADEPLOT
 70
     0
102
SHADEPLOTRESLEVEL
 70
     2
102
SHADEPLOTCUSTOMDPI
 70
   300
  0
XRECORD
  5
849C
102
{ACAD_REACTORS
330
849B
102
}
330
849B
100
AcDbXrecord
280
     1
310
28000000B40000007F00000001000800000000004C590000000000000000000000010000000000000000000000000000FFFFFF000000000000000000000000000000000000000000000000000000000000000000330000006600000099000000CC000000FF00000000330000333300006633000099330000CC330000FF3300
310
0000660000336600006666000099660000CC660000FF66000000990000339900006699000099990000CC990000FF99000000CC000033CC000066CC000099CC0000CCCC0000FFCC000000FF000033FF000066FF000099FF0000CCFF0000FFFF000000003300330033006600330099003300CC003300FF003300003333003333
310
33006633330099333300CC333300FF33330000663300336633006666330099663300CC663300FF66330000993300339933006699330099993300CC993300FF99330000CC330033CC330066CC330099CC3300CCCC3300FFCC330000FF330033FF330066FF330099FF3300CCFF3300FFFF330000006600330066006600660099
310
006600CC006600FF00660000336600333366006633660099336600CC336600FF33660000666600336666006666660099666600CC666600FF66660000996600339966006699660099996600CC996600FF99660000CC660033CC660066CC660099CC6600CCCC6600FFCC660000FF660033FF660066FF660099FF6600CCFF6600
310
FFFF660000009900330099006600990099009900CC009900FF00990000339900333399006633990099339900CC339900FF33990000669900336699006666990099669900CC669900FF66990000999900339999006699990099999900CC999900FF99990000CC990033CC990066CC990099CC9900CCCC9900FFCC990000FF99
310
0033FF990066FF990099FF9900CCFF9900FFFF99000000CC003300CC006600CC009900CC00CC00CC00FF00CC000033CC003333CC006633CC009933CC00CC33CC00FF33CC000066CC003366CC006666CC009966CC00CC66CC00FF66CC000099CC003399CC006699CC009999CC00CC99CC00FF99CC0000CCCC0033CCCC0066CC
310
CC0099CCCC00CCCCCC00FFCCCC0000FFCC0033FFCC0066FFCC0099FFCC00CCFFCC00FFFFCC000000FF003300FF006600FF009900FF00CC00FF00FF00FF000033FF003333FF006633FF009933FF00CC33FF00FF33FF000066FF003366FF006666FF009966FF00CC66FF00FF66FF000099FF003399FF006699FF009999FF00CC
310
99FF00FF99FF0000CCFF0033CCFF0066CCFF0099CCFF00CCCCFF00FFCCFF0000FFFF0033FFFF0066FFFF0099FFFF00CCFFFF00FFFFFF00000000000D0D0D001A1A1A00282828003535350043434300505050005D5D5D006B6B6B00787878008686860093939300A1A1A100AEAEAE00BBBBBB00C9C9C900D6D6D600E4E4E400
310
F1F1F100FFFFFF0000000000000000000000000000000000000000000000000000000000000000000000000000000000EFF5F5F5F5F5F5F5F5F5F5F5F5F5F5F5F5F5F5F5F5F5F5F5F5F5F5F5F5F5F5F5F5F5F5F5F5F5F5F5F5F5F5F5F5F5F5F5F5F5F5F5F5F5F5F5F5F5F5F5F5F5F5F5F5F5F5F5F5F5F5F5F5F5F5F5F5F5F5
310
F5F5F5F5F5F5F5F5F5F5F5F5F5F5F5F5F5F5F5F5F5F5F5F5F5F5F5F5F5F5F5F5F5F5F5F5F5F5F5F5F5F5F5F5F5F5F5F5F5F5F5F5F5F5F5F5F5F5F5F5F5F5F5F5F5F5F5F5F5F5F5F5F5F5F5F5F5F5F5F5F5F5F5F5F5F5F5F5F5F5F5F5F5F5F5F5F5F5F5F5F5EFF5E2E2E2E2E2E2E2E2E2E2E2E2E2E2E2E2E2E2E2E2E2E2E2E2
310
E2E2E2E2E2E2E2E2E2E2E2E2E2E2E2E2E2E2E2E2E2E2E2E2E2E2E2E2E2E2E2E2E2E2E2E2E2E2E2E2E2E2E2E2E2E2E2E2E2E2E2E2E2E2E2E2E2E2E2E2E2E2E2E2E2E2E2E2E2E2E2E2E2E2E2E2E2E2E2E2E2E2E2E2E2E2E2E2E2E2E2E2E2E2E2E2E2E2E2E2E2E2E2E2E2E2E2E2E2E2E2E2E2E2E2E2E2E2E2E2E2E2E2E2E2E2E2
310
E2E2E2E2E2E2E2E2E2E2E2E2E2E2E2E2E2E2E2E2E2E2E2E2E2F5F5EFF5E2E2E2E2E2E2E2E2E2E2E2E2E2E2E2E2E2E2E2E2E2E2E2E2E2E2E2E2E2E2E2E2E2E2E2E2E2E2E2E2E2E2E2E2E2E2E2E2E2E2E2E2E2E2E2E2E2E2E2E2E2E2E2E2E2E2E2E2E2E2E2E2E2E2E2E2E2E2E2E2E2E2E2E2E2E2E2E2E2E2E2E2E2E2E2E2E2E2
310
E2E2E2E2E2E2E2E2E2E2E2E2E2E2E2E2E2E2E2E2E2E2E2E2E2E2E2E2E2E2E2E2E2E2E2E2E2E2E2E2E2E2E2E2E2E2E2E2E2E2E2E2E2E2E2E2E2E2E2E2E2E2E2E2E2E2E2E2E2E2E2E2E2E2E2E2E2E2F5F5EFF5E2E2E2E2E2E2E2E2E2E2E2E2E2E2E2E2E2E2E2E2E2E2E2E2E2E2E2E2E2E2E2E2E2E2E2E2E2E2E2E2E2E2E2E2E2
310
E2E2E2E2E2E2E2E2E2E2E2E2E2E2E2E2E2E2E2E2E2E2E2E2E2E2E2E2E2E2E2E2E2E2E2E2E2E2E2E2E2E2E2E2E2E2E2E2E2E2E2E2E2E2E2E2E2E2E2E2E2E2E2E2E2E2E2E2E2E2E2E2E2E2E2E2E2E2E2E2E2E2E2E2E2E2E2E2E2E2E2E2E2E2E2E2E2E2E2E2E2E2E2E2E2E2E2E2E2E2E2E2E2E2E2E2E2E2E2E2E2E2E2E2E2E2E2
310
E2E2E2E2F5F5EFF5E2E2F5F5F5F5F5F5F5F5E2E2E2E2E2E2E2E2E2F5F5F5F5F5F5F5F5F5F5F5F5F5F5F5F5E2E2E2E2E2E2E2E2E2F5F5F5F5F5F5F5F5F5F5F5F5F5F5F5E2E2E2E2E2E2E2E2E2F5F5F5F5F5F5F5F5F5F5F5F5F5F5F5F5E2E2E2E2E2E2E2E2F5F5F5F5F5F5F5F5F5F5F5F5F5F5F5F5E2E2E2E2E2E2E2E2E2F5F5
310
F5F5F5F5F5F5F5F5F5F5F5F5F5E2E2E2E2E2E2E2E2E2F5F5F5F5F5F5F5F5F5F5F5F5F5F5F5F5E2E2E2E2E2E2E2E2E2F5F5F5F5F5F5F5F5E2E2F5F5EFF5E2E2F5E2E2E2E2E2E2E2E2E2E2E2E2E2E2E2E2E2E2E2E2E2E2E2E2E2E2E2E2E2E2E2E2E2E2E2E2E2E2E2E2E2E2E2E2E2E2E2E2E2E2E2E2E2E2E2E2E2E2E2E2E2E2E2
310
E2E2E2E2E2E2E2E2E2E2E2E2E2E2E2E2E2E2E2E2E2E2E2E2E2E2E2E2E2E2E2E2E2E2E2E2E2E2E2E2E2E2E2E2E2E2E2E2E2E2E2E2E2E2E2E2E2E2E2E2E2E2E2E2E2E2E2E2E2E2E2E2E2E2E2E2E2E2E2E2E2E2E2E2E2E2E2E2E2E2E2E2E2E2E2E2E2E2E2E2E2E2E2E2E2E2E2F5E2E2F5F5EFF5E2E2F5E2E2E2E2E2E2E2E2E2E2
310
E2E2E2E2E2E2E2E2E2E2E2E2E2E2E2E2E2E2E2E2E2E2E2E2E2E2E2E2E2E2E2E2E2E2E2E2E2E2E2E2E2E2E2E2E2E2E2E2E2E2E2E2E2E2E2E2E2E2E2E2E2E2E2E2E2E2E2E2E2E2E2E2E2E2E2E2E2E2E2E2E2E2E2E2E2E2E2E2E2E2E2E2E2E2E2E2E2E2E2E2E2E2E2E2E2E2E2E2E2E2E2E2E2E2E2E2E2E2E2E2E2E2E2E2E2E2E2
310
E2E2E2E2E2E2E2E2E2E2E2E2E2E2E2E2E2E2E2E2E2E2E2E2E2E2E2E2E2E2E2E2E2F5E2E2F5F5EFF5E2E2F5E2E2E2E2E2E2E2E2E2E2E2E2E2E2E2E2E2E2E2E2E2E2E2E2E2E2E2E2E2E2E2E2E2E2E2E2E2E2E2E2E2E2E2E2E2E2E2E2E2E2E2E2E2E2E2E2E2E2E2E2E2E2E2E2E2E2E2E2E2E2E2E2E2E2E2E2E2E2E2E2E2E2E2E2
310
E2E2E2E2E2E2E2E2E2E2E2E2E2E2E2E2E2E2E2E2E2E2E2E2E2E2E2E2E2E2E2E2E2E2E2E2E2E2E2E2E2E2E2E2E2E2E2E2E2E2E2E2E2E2E2E2E2E2E2E2E2E2E2E2E2E2E2E2E2E2E2E2E2E2E2E2E2E2E2E2E2E2E2E2E2E2F5E2E2F5F5EFF5E2E2F5E2E2E2E2E2E2E2E2E2E2E2E2E2E2E2E2E2E2E2E2E2E2E2E2E2E2E2E2E2E2E2
310
E2E2E2E2E2E2E2E2E2E2E2E2E2E2E2E2E2E2E2E2E2E2E2E2E2E2E2E2E2E2E2E2E2E2E2E2E2E2E2E2E2E2E2E2E2E2E2E2E2E2E2E2E2E2E2E2E2E2E2E2E2E2E2E2E2E2E2E2E2E2E2E2E2E2E2E2E2E2E2E2E2E2E2E2E2E2E2E2E2E2E2E2E2E2E2E2E2E2E2E2E2E2E2E2E2E2E2E2E2E2E2E2E2E2E2E2E2E2E2E2E2E2E2E2E2E2E2
310
E2E2E2E2E2E2E2E2E2E2E2E2F5E2E2F5F5EFF5E2E2F5E2E2E2E2E2E2E2E2E2E2E2E2E2E2E2E2E2E2E2E2E2E2E2E2E2E2E2E2E2E2E2E2E2E2E2E2E2E2E2E2E2E2E2E2E2E2E2E2E2E2E2E2E2E2E2E2E2E2E2E2E2E2E2E2E2E2E2E2E2E2E2E2E2E2E2E2E2E2E2E2E2E2E2E2E2E2E2E2E2E2E2E2E2E2E2E2E2E2E2E2E2E2E2E2E2
310
E2E2E2E2E2E2E2E2E2E2E2E2E2E2E2E2E2E2E2E2E2E2E2E2E2E2E2E2E2E2E2E2E2E2E2E2E2E2E2E2E2E2E2E2E2E2E2E2E2E2E2E2E2E2E2E2E2E2E2E2E2E2E2E2E2F5E2E2F5F5EFF5E2E2F5E2E2E2E2E2E2E2E2E2E2E2E2E2E2E2E2E2E2E2E2E2E2E2E2E2E2E2E2E2E2E2E2E2E2E2E2E2E2E2E2E2E2E2E2E2E2E2E2E2E2E2E2
310
E2E2E2E2E2E2E2E2E2E2E2E2E2E2E2E2E2E2E2E2E2E2E2E2E2E2E2E2E2E2E2E2E2E2E2E2E2E2E2E2E2E2E2E2E2E2E2E2E2E2E2E2E2E2E2E2E2E2E2E2E2E2E2E2E2E2E2E2E2E2E2E2E2E2E2E2E2E2E2E2E2E2E2E2E2E2E2E2E2E2E2E2E2E2E2E2E2E2E2E2E2E2E2E2E2E2E2E2E2E2E2E2E2E2E2E2E2E2F5E2E2F5F5EFF5E2E2
310
F5E2E2E2E2E2E2E2E2E2E2E2E2E2E2E2E2E2E2E2E2E2E2E2E2E2E2E2E2E2E2E2E2E2E2E2E2E2E2E2E2E2E2E2E2E2E2E2E2E2E2E2E2E2E2E2E2E2E2E2E2E2E2E2E2E2E2E2E2E2E2E2E2E2E2E2E2E2E2E2E2E2E2E2E2E2E2E2E2E2E2E2E2E2E2E2E2E2E2E2E2E2E2E2E2E2E2E2E2E2E2E2E2E2E2E2E2E2E2E2E2E2E2E2E2E2E2
310
E2E2E2E2E2E2E2E2E2E2E2E2E2E2E2E2E2E2E2E2E2E2E2E2E2E2E2E2E2E2E2E2E2E2E2E2E2E2E2E2E2E2E2E2F5E2E2F5F5EFF5E2E2E2E2E2E2E2E2E2E2E2E2E2E2E2E2E2E2E2E2E2E2E2E2E2E2E2E2E2E2E2E2E2E2E2E2E2E2E2E2E2E2E2E2E2E2E2E2E2E2E2E2E2E2E2E2E2E2E2E2E2E2E2E2E2E2E2E2E2E2E2E2E2E2E2E2
310
E2E2E2E2E2E2E2E2E2E2E2E2E2E2E2E2E2E2E2E2E2E2E2E2E2E2E2E2E2E2E2E2E2E2E2E2E2E2E2E2E2E2E2E2E2E2E2E2E2E2E2E2E2E2E2E2E2E2E2E2E2E2E2E2E2E2E2E2E2E2E2E2E2E2E2E2E2E2E2E2E2E2E2E2E2E2E2E2E2E2E2E2E2E2E2E2E2E2E2E2F5F5EFF5E2E2E2E2E2E2E2E2E2E2E2E2E2E2E2E2E2E2E2E2E2E2E2
310
E2E2E2E2E2E2E2E2E2E2E2E2E2E2E2E2E2E2E2E2E2E2E2E2E2E2E2E2E2E2E2E2E2E2E2E2E2E2E2E2E2E2E2E2E2E2E2E2E2E2E2E2E2E2E2E2E2E2E2E2E2E2E2E2E2E2E2E2E2E2E2E2E2E2E2E2E2E2E2E2E2E2E2E2E2E2E2E2E2E2E2E2E2E2E2E2E2E2E2E2E2E2E2E2E2E2E2E2E2E2E2E2E2E2E2E2E2E2E2E2E2E2E2E2E2E2E2
310
E2E2E2E2E2E2E2E2E2E2E2E2E2E2E2E2E2E2E2E2E2E2E2E2E2E2F5F5EFF5E2E2E2E2E2E2E2E2E2E2E2E2E2E2E2E2E2E2E2E2E2E2E2E2E2E2E2E2E2E2E2E2E2E2E2E2E2E2E2E2E2E2E2E2E2E2E2E2E2E2E2E2E2E2E2E2E2E2E2E2E2E2E2E2E2E2E2E2E2E2E2E2E2E2E2E2E2E2E2E2E2E2E2E2E2E2E2E2E2E2E2E2E2E2E2E2E2
310
E2E2E2E2E2E2E2E2E2E2E2E2E2E2E2E2E2E2E2E2E2E2E2E2E2E2E2E2E2E2E2E2E2E2E2E2E2E2E2E2E2E2E2E2E2E2E2E2E2E2E2E2E2E2E2E2E2E2E2E2E2E2E2E2E2E2E2E2E2E2E2E2E2E2E2E2E2E2E2F5F5EFF5E2E2E2E2E2E2E2E2E2E2E2E2E2E2E2E2E2E2E2E2E2E2E2E2E2E2E2E2E2E2E2E2E2E2E2E2E2E2E2E2E2E2E2E2
310
E2E2E2E2E2E2E2E2E2E2E2E2E2E2E2E2E2E2E2E2E2E2E2E2E2E2E2E2E2E2E2E2E2E2E2E2E2E2E2E2E2E2E2E2E2E2E2E2E2E2E2E2E2E2E2E2E2E2E2E2E2E2E2E2E2E2E2E2E2E2E2E2E2E2E2E2E2E2E2E2E2E2E2E2E2E2E2E2E2E2E2E2E2E2E2E2E2E2E2E2E2E2E2E2E2E2E2E2E2E2E2E2E2E2E2E2E2E2E2E2E2E2E2E2E2E2E2
310
E2E2E2E2E2F5F5EFF5E2E2E2E2E2E2E2E2E2E2E2E2E2E2E2E2E2E2E2F0F0F0F0F0F0F0F0F0F0F0F0F0F0F0F0F0F0F0F0F0F0F0F0F0F0F0F0F0F0F0F0F0F0F0F0F0F0F0F0F0F0F0F0F0F0F0F0F0F0F0F0F0F0F0F0F0F0F0F0F0F0F0F0F0F0F0F0F0F0F0F0F0F0F0F0F0F0F0F0F0F0F0F0F0F0F0F0F0F0F0F0F0F0F0F0F0F0F0
310
F0F0F0F0F0F0F0F0F0F0F0F0F0F0F0F0F0F0F0F0F0F0F0F0F0F0F0F0F0F0F0F0F0F0F0F0F0F0F0E2E2E2E2E2E2E2E2E2E2E2E2E2E2E2E2E2E2E2F5F5EFF5E2E2E2E2E2E2E2E2E2E2E2E2E2E2E2E2E2E2E2F0E2E2E2E2E2E2E2E2E2E2E2E2E2E2E2E2E2E2E2E2E2E2E2E2E2E2E2E2E2E2E2E2E2E2E2E2E2E2E2E2E2E2E2E2E2
310
E2E2E2E2E2E2E2E2E2E2E2E2E2E2E2E2E2E2E2E2E2E2E2E2E2E2E2E2E2E2E2E2E2E2E2E2E2E2E2E2E2E2E2E2E2E2E2E2E2E2E2E2E2E2E2E2E2E2E2E2E2E2E2E2E2E2E2E2E2E2E2E2E2E2E2E2E2E2E2E2E2E2E2E2E2E2E2E2E2E2E2F0E2E2E2E2E2E2E2E2E2E2E2E2E2E2E2E2E2E2E2F5F5EFF5E2E2E2E2E2E2E2E2E2E2E2E2
310
E2E2E2E2E2E2E2F0E2E2E2E2E2E2E2E2E2E2E2E2E2E2E2E2E2E2E2E2E2E2E2E2E2E2E2E2E2E2E2E2E2E2E2E2E2E2E2E2E2E2E2E2E2E2E2E2E2E2E2E2C3E2E2E2E2C3E2E2E2E2E2E2E2E2E2E2E2E2E2E2E2E2E2E2E2E2E2E2E2E2E2E2E2E2E2E2E2E2E2E2E2E2E2E2E2E2E2E2E2E2E2E2E2E2E2E2E2E2E2E2E2E2E2E2E2E2E2
310
E2E2E2E2E2E2E2E2E2E2E2E2E2E2E2E2E2F0E2E2E2E2E2E2E2E2E2E2E2E2E2E2E2E2E2E2E2F5F5EFF5E2E2E2E2E2E2E2E2E2E2E2E2E2E2E2E2E2E2E2F0E2E2E2E2E2E2E2E2E2E2E2E2E2E2E2E2E2E2E2E2E2E2E2E2E2E2E2E2E2E2E2E2E2E2E2E2E2E2E2E2E2E2E2E2E2E2E2E2E2E2F0F0F0F0F0F0F0F0E2E2E2C3C3C3C3C3
310
C3C3C3C3C3C3C3C3C3C3C3C3C3C3C3C3C3C3C3C3C3C3C3C3C3C3C3C3C3C3C3C3C3C3C3E2E2E2E2E2E2E2E2E2E2E2E2E2E2E2E2E2E2E2E2E2E2E2E2E2E2E2E2E2E2E2E2E2E2E2F0E2E2E2E2E2E2E2E2E2E2E2E2E2E2E2E2E2E2E2F5F5EFF5E2E2E2E2E2E2E2E2E2E2E2E2E2E2E2E2E2E2E2F0E2E2E2E2E2E2E2E2E2E2E2E2E2
310
E2E2E2E2E2E2E2E2E2E2E2E2E2E2E2E2E2E2E2E2E2E2E2E2E2E2E2E2E2E2E2E2E2E2E2E2E2F0F0F0E2F0F0F0F0E2E2E2C3C3C3E2C3C3C3E2C3C3C3C3C3C3C3C3C3C3E2C3C3C3C3C3E2C3C3C3C3E2C3C3C3C3C3C3C3C3C3E2E2E2E2E2E2E2E2E2E2E2E2E2E2E2E2E2E2E2E2E2E2E2E2E2E2E2E2E2E2E2E2E2E2E2E2F0E2E2E2
310
E2E2E2E2E2E2E2E2E2E2E2E2E2E2E2E2F5F5EFF5E2E2F5E2E2E2E2E2E2E2E2E2E2E2E2E2E2E2E2F0E2E2E2E2E2E2E2E2E2E2E2E2E2E2E2E2E2E2E2E2E2E2E2E2E2E2E2E2E2E2E2E2E2E2E2E2E2E2E2E2E2E2E2E2E2E2E2E2E2E2F0E2C3E2F0E2E2F0E2E2C3C3C3C3E2C3C3C3C3C3C3C3C3C3C3C3C3C3C3C3C3C3C3C3C3C3C3
310
C3C3C3E2C3C3C3C3C3C3C3C3C3C3E2E2E2E2E2E2E2E2E2E2E2E2E2E2E2E2E2E2E2E2E2E2E2E2E2E2E2E2E2E2E2E2E2E2E2F0E2E2E2E2E2E2E2E2E2E2E2E2E2E2E2E2F5E2E2F5F5EFF5E2E2F5E2E2E2E2E2E2E2E2E2E2E2E2E2E2E2E2F0E2E2E2E2E2E2E2E2E2E2E2E2E2E2E2E2E2E2E2E2E2E2E2E2E2E2E2E2E2E2E2E2E2E2
310
E2E2E2E2E2E2E2E2E2E2E2E2F0F0F0E2F0E2C3E2F0E2E2F0E2E2C3E2E2E2E2E2E2E2E2E2E2E2E2E2E2E2E2E2E2E2E2E2E2E2E2E2E2E2E2E2E2E2E2E2E2E2E2E2E2E2E2E2E2E2E2E2E2E2E2E2E2E2E2E2E2E2E2E2E2E2E2E2E2E2E2E2E2E2E2E2E2E2E2E2E2E2F0E2E2E2E2E2E2E2E2E2E2E2E2E2E2E2E2F5E2E2F5F5EFF5E2
310
E2F5E2E2E2E2E2E2E2E2E2E2E2E2E2E2E2E2F0E2E2E2E2E2E2E2E2E2E2E2E2E2E2E2E2E2E2E2E2E2E2E2E2E2E2E2E2E2E2E2E2E2E2E2E2E2E2E2E2E2E2E2E2E2E2E2E20FF0280FC30FF00FE2F0E2E2C3E2E2E2E2E2E2E2E2E2E2E2E2E2E2E2E2E2E2E2E2E2E2E2E2E2E2E2E2E2E2E2E2E2E2E2E2E2E2E2E2E2E2E2E2E2E2E2
310
E2E2E2E2E2E2E2E2E2E2E2E2E2E2E2E2E2E2E2E2E2E2E2E2E2E2E2E2F0E2E2E2E2E2E2E2E2E2E2E2E2E2E2E2E2F5E2E2F5F5EFF5E2E2F5E2E2E2E2E2E2E2E2E2E2E2E2E2E2E2E2F0E2E2E2E2E2E2E2E2E2E2E2E2E2E2E2E2E2E2E2E2E2E2E2E2E2E2E2E2E2E2E2E2E2E2E2E2E2E2E2E2E2E2E2E2E2E2E2E228282828282828
310
2828C3F0C3F0F0F0E2E2E2E2E2E2E2E2E2E2E2E2E2E2E2E2E2E2E2E2E2E2E2E2E2E2E2E2E2E2E2E2E2E2E2E2E2E2E2E2E2E2E2E2E2E2E2E2E2E2E2E2E2E2E2E2E2E2E2E2E2E2E2E2E2E2E2E2E2E2E2E2E2F0E2E2E2E2E2E2E2E2E2E2E2E2E2E2E2E2F5E2E2F5F5EFF5E2E2F5E2E2E2E2E2E2E2E2E2E2E2E2E2E2E2E2F0E2E2
310
E2E2E2E2E2E2E2E2E2E2E2E2E2E2E2E2E2E2E2E2E2E2E2E2E2E2E2E2E2E2E2E2E2E2E2E2E2E2E2E2E2E2E2E2E2E20F2828282828280FE2C3E2C3E2E2F0E2E2E2E2E2E2E2E2E2E2E2E2E2E2E2E2E2E2E2E2E2E2E2E2E2E2E2E2E2E2E2E2E2E2E2E2E2E2E2E2E2E2E2E2E2E2E2E2E2E2E2E2E2E2E2E2E2E2E2E2E2E2E2E2E2E2
310
E2E2E2E2E2E2E2F0E2E2E2E2E2E2E2E2E2E2E2E2E2E2E2E2F5E2E2F5F5EFF5E2E2F5E2E2E2E2E2E2E2E2E2E2E2E2E2E2E2E2F0E2E2E2E2E2E2E2E2E2E2E2E2E2E2E2E2E2E2E2E2E2E2E2E2E2E2E2E2E2E2E2E2E2E2E2E2E2E2E2E2E2E2E2E2E2E2E2E20FE228E2C3E2280FE2C3E2C3E2E2F0E2E2E2E2E2E2E2E2E2E2E2E2E2
310
E2E2E2E2E2E2E2E2E2E2E2E2E2E2E2E2E2E2E2E2E2E2E2E2E2E2E2E2E2E2E2E2E2E2E2E2E2E2E2E2E2E2E2E2E2E2E2E2E2E2E2E2E2E2E2E2E2E2E2E2F0E2E2E2E2E2E2E2E2E2E2E2E2E2E2E2E2F5E2E2F5F5EFF5E2E2F5E2E2E2E2E2E2E2E2E2E2E2E2E2E2E2E2F0E2E2E2E2E2E2E2E2E2E2E2E2E2E2E2E2E2E2E2E2E2E2E2
310
E2E2E2E2E2E2E2E2E2E2E2E2E2E2E2E2E2E2E2E2E2E2E2E2E20FE228E2C3E2280FE2C3E2C3E2E2F0E2E2E2E2E2E2E2E2E2E2E2E2E2E2E2E2E2E2E2E2E2E2E2E2E2E2E2E2E2E2E2E2E2E2E2E2E2E2E2E2E2E2E2E2E2E2E2E2E2E2E2E2E2E2E2E2E2E2E2E2E2E2E2E2E2E2E2E2E2E2E2E2E2F0E2E2E2E2E2E2E2E2E2E2E2E2E2
310
E2E2E2F5E2E2F5F5EFF5E2E2F5E2E2E2E2E2E2E2E2E2E2E2E2E2E2E2E2F0E2E2E2E2E2E2E2E2E2E2E2E2E2E2E2E2E2E2E2E2E2E2E2E2E2E2E2E2E2E2E2E2E2E2E2E2E2E2E2E2E2E2E2E2E2E2E2E20FE2E2E2C3E2E20FE2C3C3E2E2E2F0E2E2E2E2E2E2E2E2E2E2E2E2E2E2E2E2E2E2E2E2E2E2E2E2E2E2E2E2E2E2E2E2E2E2
310
E2E2E2E2E2E2E2E2E2E2E2E2E2E2E2E2E2E2E2E2E2E2E2E2E2E2E2E2E2E2E2E2E2E2E2E2E2E2E2F0E2E2E2E2E2E2E2E2E2E2E2E2E2E2E2E2F5E2E2F5F5EFF5E2E2F5E2E2E2E2E2E2E2E2E2E2E2E2E2E2E2E2F0E2E2E2E2E2E2E2E2E2E2E2E2E2E2E2E2E2E2E2E2E2E2E2E2E2E2E2E2E2E2E2E2E2E2E2E2E2E2E2E2E2E2E2E2
310
E2E2E2E20FE2E2E2C3E2E20FE2C3C3E2E2E2F0E2E2E2E2E2E2E2E2E2E2E2E2E2E2E2E2E2E2E2E2E2E2E2E2E2E2E2E2E2E2E2E2E2E2E2E2E2E2E2E2E2E2E2E2E2E2E2E2E2E2E2E2E2E2E2E2E2E2E2E2E2E2E2E2E2E2E2E2E2E2E2E2E2F0E2E2E2E2E2E2E2E2E2E2E2E2E2E2E2E2F5E2E2F5F5EFF5E2E2F5E2E2E2E2E2E2E2E2
310
E2E2E2E2E2E2E2E2F0E2E2E2E2E2E2E2E2E2E2E2E2E2E2E2E2E2E2E2E2E2E2E2E2E2E2E2E2E2E2E2E2E2E2E2E2E2E2E2E2E2E2E2E2E2E2E2E20FE2E2E2C3E2E20FE2C3C3E2E2E2F0E2E2E2E2E2E2E2E2E2E2E2E2E2E2E2E2E2E2E2E2E2E2E2E2E2E2E2E2E2E2E2E2E2E2E2E2E2E2E2E2E2E2E2E2E2E2E2E2E2E2E2E2E2E2E2
310
E2E2E2E2E2E2E2E2E2E2E2E2E2E2E2E2E2E2F0E2E2E2E2E2E2E2E2E2E2E2E2E2E2E2E2F5E2E2F5F5EFF5E2E2F5E2E2E2E2E2E2E2E2E2E2E2E2E2E2E2E2F0E2E2E2E2E2E2E2E2E2E2E2E2E2E2E2E2E2E2E2E2E2E2E2E2E2E2E2E2E2E2E2E2E2E2E2E2E2E2E2E2E2E2E2E2E2E2E2E20FE2E2E2C3E2E20FE2C3C3E2E2E2F0E2E2
310
E2E2E2E2E2E2E2E2E2E2E2E2E2E2E2E2E2E2E2E2E2E2E2E2E2E2E2E2E2E2E2E2E2E2E2E2E2E2E2E2E2E2E2E2E2E2E2E2E2E2E2E2E2E2E2E2E2E2E2E2E2E2E2E2E2E2E2E2E2E2E2F0E2E2E2E2E2E2E2E2E2E2E2E2E2E2E2E2F5E2E2F5F5EFF5E2E2F5E2E2E2E2E2E2E2E2E2E2E2E2E2E2E2E2F0E2E2E2E2E2E2E2E2E2E2E2E2
310
E2E2E2E2E2E2E2E2E2E2E2E2E2E2E2E2E2E2E2E2E2E2E2E2E2E2E2E2C3C3C3C3C3C3C3C3C3C3C3C3C3C3C3C328C328C3C3F0F0C3C3E2E2E2E2E2E2E2E2E2E2E2E2E2E2E2E2E2E2E2E2E2E2E2E2E2E2E2E2E2E2E2E2E2E2E2E2E2E2E2E2E2E2E2E2E2E2E2E2E2E2E2E2E2E2E2E2E2E2E2E2E2E2E2E2E2E2E2E2E2E2E2F0E2E2
310
E2E2E2E2E2E2E2E2E2E2E2E2E2E2F5E2E2F5F5EFF5E2E2F5E2E2E2E2E2E2E2E2E2E2E2E2E2E2E2E2F0E2E2E2E2E2E2E2E2E2E2E2E2E2E2E2E2E2E2E2E2E2E2E2E2E2E2E2E2E2E2E2E2E2E2E2E2E2E2E2E2E2E2E2E2E2E2E2E20FE2E2E2C3E2E20F28C328E2E2F0F0E2E2E2E2E2E2E2E2E2E2E2E2E2E2E2E2E2E2E2E2E2E2E2
310
E2E2E2E2E2E2E2E2E2E2E2E2E2E2E2E2E2E2E2E2E2E2E2E2E2E2E2E2E2E2E2E2E2E2E2E2E2E2E2E2E2E2E2E2E2E2E2E2E2E2F0E2E2E2E2E2E2E2E2E2E2E2E2E2E2E2E2F5E2E2F5F5EFF5E2E2F5E2E2E2E2E2E2E2E2E2E2E2E2E2E2E2E2F0E2E2E2E2E2E2E2E2E2E2E2E2E2E2E2E2E2E2E2E2E2E2E2E2E2E2E2E2E2E2E2E2E2
310
E2E2E2E2E2E2E2E2E2E2E2E2E2E2E20FE2E2E2C3E2E20FE2C3E2E2E2E2F0E2E2E2E2E2E2E2E2E2E2E2E2E2E2E2E2E2E2E2E2E2E2E2E2E2E2E2E2E2E2E2E2E2E2E2E2E2E2E2E2E2E2E2E2E2E2E2E2E2E2E2E2E2E2E2E2E2E2E2E2E2E2E2E2E2E2E2E2E2E2E2E2E2F0E2E2E2E2E2E2E2E2E2E2E2E2E2E2E2E2F5E2E2F5F5EFF5
310
E2E2F5E2E2E2E2E2E2E2E2E2E2E2E2E2E2E2E2F0E2E2E2E2E2E2E2E2E2E2E2E2E2E2E2E2E2E2E2E2E2E2E2E2E2E2E2E2E2E2E2E2E2E2E2E2E2E2E2E2E2E2E2E2E2E2E2E20FE2E2E2C3E2E20FE2C3E2E2E2E2F0E2E2E2E2E2E2E2E2E2E2E2E2E2E2E2E2E2E2E2E2E2E2E2E2E2E2E2E2E2E2E2E2E2E2E2E2E2E2E2E2E2E2E2E2
310
E2E2E2E2E2E2E2E2E2E2E2E2E2E2E2E2E2E2E2E2E2E2E2E2E2E2E2E2E2F0E2E2E2E2E2E2E2E2E2E2E2E2E2E2E2E2F5E2E2F5F5EFF5E2E2E2E2E2E2E2E2E2E2E2E2E2E2E2E2E2E2E2F0E2E2E2E2E2E2E2E2E2E2E2E2E2E2E2E2E2E2E2E2E2E2E2E2E2E2E2E2E2E2E2E2E2E2E2E2E2E2E2E2E2E2E2E2E2E2E2E20FE2E2E2C3E2
310
E20FE2E2E2E2E2E2F0E2E2E2E2E2E2E2E2E2E2E2E2E2E2E2E2E2E2E2E2E2E2E2E2E2E2E2E2E2E2E2E2E2E2E2E2E2E2E2E2E2E2E2E2E2E2E2E2E2E2E2E2E2E2E2E2E2E2E2E2E2E2E2E2E2E2E2E2E2E2E2E2E2F0E2E2E2E2E2E2E2E2E2E2E2E2E2E2E2E2E2E2E2F5F5EFF5E2E2E2E2E2E2E2E2E2E2E2E2E2E2E2E2E2E2E2F0E2
310
E2E2E2E2E2E2E2E2E2E2E2E2E2E2E2E2E2E2E2E2E2E2E2E2E2E2E2E2E2E2E2E2E2E2E2E2E2E2E2E2E2E2E2E2E2E2E20FE2E2E2C3E2E20FE2E2E2E2E2E2F0E2E2E2E2E2E2E2E2E2E2E2E2E2E2E2E2E2E2E2E2E2E2E2E2E2E2E2E2E2E2E2E2E2E2E2E2E2E2E2E2E2E2E2E2E2E2E2E2E2E2E2E2E2E2E2E2E2E2E2E2E2E2E2E2E2
310
E2E2E2E2E2E2E2E2F0E2E2E2E2E2E2E2E2E2E2E2E2E2E2E2E2E2E2E2F5F5EFF5E2E2E2E2E2E2E2E2E2E2E2E2E2E2E2E2E2E2E2F0E2E2E2E2E2E2E2E2E2E2E2E2E2E2E2E2E2E2E2E2E2E2E2E2E2E2E2E2E2E2E2E2E2E2E2E2E2E2E2E2E2E2E2E2E2E2E2E20FE228E2C3E2280FE2E2E2E2E2E2F0E2E2E2E2E2E2E2E2E2E2E2E2
310
E2E2E2E2E2E2E2E2E2E2E2E2E2E2E2E2E2E2E2E2E2E2E2E2E2E2E2E2E2E2E2E2E2E2E2E2E2E2E2E2E2E2E2E2E2E2E2E2E2E2E2E2E2E2E2E2E2E2E2E2E2F0E2E2E2E2E2E2E2E2E2E2E2E2E2E2E2E2E2E2E2F5F5EFF5E2E2E2E2E2E2E2E2E2E2E2E2E2E2E2E2E2E2E2F0E2E2E2E2E2E2E2E2E2E2E2E2E2E2E2E2E2E2E2E2E2E2
310
E2E2E2E2E2E2E2E2E2E2E2E2E2E2E2E2E2E2E2E2E2E2E2E2E2E20FE228E2C3E2280FE2E2E2E2E2E2F0E2E2E2E2E2E2E2E2E2E2E2E2E2E2E2E2E2E2E2E2E2E2E2E2E2E2E2E2E2E2E2E2E2E2E2E2E2E2E2E2E2E2E2E2E2E2E2E2E2E2E2E2E2E2E2E2E2E2E2E2E2E2E2E2E2E2E2E2E2E2E2E2E2F0E2E2E2E2E2E2E2E2E2E2E2E2
310
E2E2E2E2E2E2E2F5F5EFF5E2E2E2E2E2E2E2E2E2E2E2E2E2E2E2E2E2E2E2F0E2E2E2E2E2E2E2E2E2E2E2E2E2E2E2E2E2E2E2E2E2E2E2E2E2E2E2E2E2E2E2E2E2E2E2E2E2E2E2E2E2E2E2E2E2E2E2E20F2828282828280FE2E2E2E2E2E2F0E2E2E2E2E2E2E2E2E2E2E2E2E2E2E2E2E2E2E2E2E2E2E2E2E2E2E2E2E2E2E2E2E2
310
E2E2E2E2E2E2E2E2E2E2E2E2E2E2E2E2E2E2E2E2E2E2E2E2E2E2E2E2E2E2E2E2E2E2E2E2E2E2E2E2F0E2E2E2E2E2E2E2E2E2E2E2E2E2E2E2E2E2E2E2F5F5EFF5E2E2E2E2E2E2E2E2E2E2E2E2E2E2E2E2E2E2E2F0E2E2E2E2E2E2E2E2E2E2E2E2E2E2E2E2E2E2E2E2E2E2E2E2E2E2E2E2E2E2E2E2E2E2E2E2E2E2E2E2E2E2E2
310
E2E2E2E2E228282828F028282828F0F0F0F0F0F0E2E2E2E2E2E2E2E2E2E2E2E2E2E2E2E2E2E2E2E2E2E2E2E2E2E2E2E2E2E2E2E2E2E2E2E2E2E2E2E2E2E2E2E2E2E2E2E2E2E2E2E2E2E2E2E2E2E2E2E2E2E2E2E2E2E2E2E2E2E2E2E2E2F0E2E2E2E2E2E2E2E2E2E2E2E2E2E2E2E2E2E2E2F5F5EFF5E2E2E2E2E2E2E2E2E2E2
310
E2E2E2E2E2E2E2E2E2F0E2E2E2E2E2E2E2E2E2E2E2E2E2E2E2E2E2E2E2E2E2E2E2E2E2E2E2E2E2E2E2E2E2E2E2E2E2E2E2E2E2E2E2E2E2E2E2E20F0F28F0C30F280FE2E2E2E2E2E2E2E2E2E2E2E2E2E2E2E2E2E2E2E2E2E2E2E2E2E2E2E2E2E2E2E2E2E2E2E2E2E2E2E2E2E2E2E2E2E2E2E2E2E2E2E2E2E2E2E2E2E2E2E2E2
310
E2E2E2E2E2E2E2E2E2E2E2E2E2E2E2E2E2E2E2F0E2E2E2E2E2E2E2E2E2E2E2E2E2E2E2E2E2E2E2F5F5EFF5E2E2E2E2E2E2E2E2E2E2E2E2E2E2E2E2E2E2E2F0E2E2E2E2E2E2E2E2E2E2E2E2E2E2E2E2E2E2E2E2E2E2E2E2E2E2E2E2E2E2E2E2E2E2E2E2E2E2E2E2E2E2E2E2E2E2E2E2E2E228F0C3E228E2E2E2E2E2E2E2E2E2
310
E2E2E2E2E2E2E2E2E2E2E2E2E2E2E2E2E2E2E2E2E2E2E2E2E2E2E2E2E2E2E2E2E2E2E2E2E2E2E2E2E2E2E2E2E2E2E2E2E2E2E2E2E2E2E2E2E2E2E2E2E2E2E2E2E2E2E2E2E2E2E2E2F0E2E2E2E2E2E2E2E2E2E2E2E2E2E2E2E2E2E2E2F5F5EFF5E2E2F5E2E2E2E2E2E2E2E2E2E2E2E2E2E2E2E2F0E2E2E2E2E2E2E2E2E2E2E2
310
E2E2E2E2E2E2E2E2E2E2E2E2E2E2E2E2E2E2E2E2E2E2E2E2E2E2E2E2E2E2E2E2E2E2E2E2E2F0F0F0E2C3E2E2E2E2E2E2E2E2E2E2E2E2E2E2E2E2E2E2E2E2E2E2E2E2E2E2E2E2E2E2E2E2E2E2E2E2E2E2E2E2E2E2E2E2E2E2E2E2E2E2E2E2E2E2E2E2E2E2E2E2E2E2E2E2E2E2E2E2E2E2E2E2E2E2E2E2E2E2E2E2E2E2E2F0E2
310
E2E2E2E2E2E2E2E2E2E2E2E2E2E2E2F5E2E2F5F5EFF5E2E2F5E2E2E2E2E2E2E2E2E2E2E2E2E2E2E2E2F0E2E2E2E2E2E2E2E2E2E2E2E2E2E2E2E2E2E2E2E2E2E2E2E2E2E2E2E2E2E2E2E2E2E2E2E2E2E2E2E2E2E2E2E2E2E2E2E2E2F0F0E2C3E2E2E2E2E2E2E2E2E2E2E2E2E2E2E2E2E2E2E2E2E2E2E2E2E2E2E2E2E2E2E2E2
310
E2E2E2E2E2E2E2E2E2E2E2E2E2E2E2E2E2E2E2E2E2E2E2E2E2E2E2E2E2E2E2E2E2E2E2E2E2E2E2E2E2E2E2E2E2E2E2E2E2E2E2F0E2E2E2E2E2E2E2E2E2E2E2E2E2E2E2E2F5E2E2F5F5EFF5E2E2F5E2E2E2E2E2E2E2E2E2E2E2E2E2E2E2E2F0E2E2E2E2E2E2E2E2E2E2E2E2E2E2E2E2E2E2E2E2E2E2E2E2E2E2E2E2E2E2E2E2
310
E2E2E2E2E2E2E2E2E2E2E2E2E2E2E2E2E2E2E2E2C3E2E2E2E2E2E2E2E2E2E2E2E2E2E2E2E2E2E2E2E2E2E2E2E2E2E2E2E2E2E2E2E2E2E2E2E2E2E2E2E2E2E2E2E2E2E2E2E2E2E2E2E2E2E2E2E2E2E2E2E2E2E2E2E2E2E2E2E2E2E2E2E2E2E2E2E2E2E2E2E2E2E2E2F0E2E2E2E2E2E2E2E2E2E2E2E2E2E2E2E2F5E2E2F5F5EF
310
F5E2E2F5E2E2E2E2E2E2E2E2E2E2E2E2E2E2E2E2F0E2E2E2E2E2E2E2E2E2E2E2E2E2E2E2E2E2E2E2E2E2E2E2E2E2E2E2E2E2E2E2E2E2E2E2E2E2E2E2E2E2E2E2E2E2E2E2E2E2E2E2E2C3E2E2E2E2E2E2E2E2E2E2E2E2E2E2E2E2E2E2E2E2E2E2E2E2E2E2E2E2E2E2E2E2E2E2E2E2E2E2E2E2E2E2E2E2E2E2E2E2E2E2E2E2E2
310
E2E2E2E2E2E2E2E2E2E2E2E2E2E2E2E2E2E2E2E2E2E2E2E2E2E2E2E2E2E2F0E2E2E2E2E2E2E2E2E2E2E2E2E2E2E2E2F5E2E2F5F5EFF5E2E2F5E2E2E2E2E2E2E2E2E2E2E2E2E2E2E2E2F0E2E2E2E2E2E2E2E2E2E2E2E2E2E2E2E2E2E2E2E2E2E2E2E2E2E2E2E2E2E2E2E2E2E2E2E2E2E2E2E2E2E2E2E2E2E2E2E2E2E2E2E2E2
310
E2E2E2E2E2E2E2E2E2E2E2E2E2E2E2E2E2E2E2E2E2E2E2E2E2E2E2E2E2E2E2E2E2E2E2E2E2E2E2E2E2E2E2E2E2E2E2E2E2E2E2E2E2E2E2E2E2E2E2E2E2E2E2E2E2E2E2E2E2E2E2E2E2E2E2E2E2E2E2E2E2E2E2F0E2E2E2E2E2E2E2E2E2E2E2E2E2E2E2E2F5E2E2F5F5EFF5E2E2F5E2E2E2E2E2E2E2E2E2E2E2E2E2E2E2E2F0
310
E2E2E2E2E2E2E2E2E2E2E2E2E2E2E2E2E2E2E2E2E2E2E2E2E2E2E2E2E2E2E2E2E2E2E2E2E2E2E2E2E2E2E2E2E2E2E2E2E2E2E2E2E2E2E2E2E2E2E2E2E2E2E2E2E2E2E2E2E2E2E2E2E2E2E2E2E2E2E2E2E2E2E2E2E2E2E2E2E2E2E2E2E2E2E2E2E2E2E2E2E2E2E2E2E2E2E2E2E2E2E2E2E2E2E2E2E2E2E2E2E2E2E2E2E2E2E2
310
E2E2E2E2E2E2E2E2E2F0E2E2E2E2E2E2E2E2E2E2E2E2E2E2E2E2F5E2E2F5F5EFF5E2E2F5E2E2E2E2E2E2E2E2E2E2E2E2E2E2E2E2F0E2E2E2E2E2E2E2E2E2E2E2E2E2E2E2E2E2E2E2E2E2E2E2E2E2E2E2E2E2E2E2E2E2E2E2E2E2E2E2E2E2E2E2E2E2E2E2E2E2E2E2E2E2E2E2E2E2E2E2E2E2E2E2E2E2E2E2E2E2E2E2F0F0F0
310
F0F0F0F0F0F0F0F0F0F0F0E2E2E2E2E2E2E2E2E2E2E2E2E2E2E2E2E2E2E2E2E2E2E2E2E2E2E2E2E2E2E2E2E2E2E2E2E2E2E2E2E2E2E2E2E2E2E2E2E2E2E2F0E2E2E2E2E2E2E2E2E2E2E2E2E2E2E2E2F5E2E2F5F5EFF5E2E2F5E2E2E2E2E2E2E2E2E2E2E2E2E2E2E2E2F0E2E2E2E2E2E2E2E2E2E2E2E2E2E2E2E2E2E2E2E2E2
310
E2E2E2E2E2E2E2E2E2E2E2E2E2E2E2E2E2E2E2E2E2E2E2E2E2E2E2E2E2E2E2E2E2E2E2E2E2E2E2E2E2E2E2E2E2E2E2E2E2E2F0F0F0F0F0F0F0F0F0F0F0F0F0F0E2E2E2E2E2E2E2E2E2E2E2E2E2E2E2E2E2E2E2E2E2E2E2E2E2E2E2E2E2E2E2E2E2E2E2E2E2E2E2E2E2E2E2E2E2E2E2E2E2E2E2F0E2E2E2E2E2E2E2E2E2E2E2
310
E2E2E2E2E2F5E2E2F5F5EFF5E2E2F5E2E2E2E2E2E2E2E2E2E2E2E2E2E2E2E2F0E2E2E2E2E2E2E2E2E2E2E2E2E2E2E2E2E2E2E2E2E2E2E2E2E2E2E2E2E2E2E2E2E2E2E2E2E2E2E2E2E2E2E2E2E2E2E2E2E2E2E2E2E2E2E2E2E2E2E2E2E2E2E2E2E2E2E2E2E2E2E2F0E2F0F0E2E2E2F0F0E2E2E2E2F0E2E2E2E2E2E2E2E2E2E2
310
E2E2E2E2E2E2E2E2E2E2E2E2E2E2E2E2E2E2E2E2E2E2E2E2E2E2E2E2E2E2E2E2E2E2E2E2E2E2E2E2E2F0E2E2E2E2E2E2E2E2E2E2E2E2E2E2E2E2F5E2E2F5F5EFF5E2E2F5E2E2E2E2E2E2E2E2E2E2E2E2E2E2E2E2F0E2E2E2E2E2E2E2E2E2E2E2E2E2E2E2E2E2E2E2E2E2E2E2E2E2E2E2E2E2E2E2E2E2E2E2E2E2E2E2E2E2E2
310
E2E2E2E2E2E2F0F0F0F0F0F0F0F0E2E2E2E2E2E2E2E2E2E2E2E2E2E2E2F0E2F0F0F0F0F0F0F0F0F0F0F0F0E2E2E2E2E2E2E2E2E2E2E2E2E2E2E2E2E2E2E2E2E2E2E2E2E2E2E2E2E2E2E2E2E2E2E2E2E2E2E2E2E2E2E2E2E2E2E2E2E2E2E2F0E2E2E2E2E2E2E2E2E2E2E2E2E2E2E2E2F5E2E2F5F5EFF5E2E2F5E2E2E2E2E2E2
310
E2E2E2E2E2E2E2E2E2E2F0E2E2E2E2E2E2E2E2E2E2E2E2E2E2E2E2E2E2E2E2E2E2E2E2E2E2E2E2E2E2E2E2E2E2E2E2E2E2E2E2E2E2E2E2E2E2E2E2F0E2E2F0F0E2E2F0E2E2E2E2E2E2E2E2E2E2E2E2E2E2E2F0E2F0F0F0F0F0F0F0F0F0F0F00FE2E2E2E2E2E2E2E2E2E2E2E2E2E2E2E2E2E2E2E2E2E2E2E2E2E2E2E2E2E2E2
310
E2E2E2E2E2E2E2E2E2E2E2E2E2E2E2E2E2E2E2E2F0E2E2E2E2E2E2E2E2E2E2E2E2E2E2E2E2F5E2E2F5F5EFF5E2E2F5E2E2E2E2E2E2E2E2E2E2E2E2E2E2E2E2F0E2E2E2E2E2E2E2E2E2E2E2E2E2E2E2E2E2E2E2E2E2E2E2E2E2E2E2E2E2E2E2E2E2E2E2E2E2E2E2E2E2E2E2E2E2E2E2E2F0E2E2E2E2E2E2F0E2E2E2E2E2E2E2
310
E2E2E2E2E2E2E2E2F0E2F0F0F0E2E2E2F0F0E2E2E20FE2E2E2E2E2E2E2E2E2E2E2E2E2E2E2E2E2E2E2E2E2E2E2E2E2E2E2E2E2E2E2E2E2E2E2E2E2E2E2E2E2E2E2E2E2E2E2E2E2E2E2F0E2E2E2E2E2E2E2E2E2E2E2E2E2E2E2E2F5E2E2F5F5EFF5E2E2F5E2E2E2E2E2E2E2E2E2E2E2E2E2E2E2E2F0E2E2E2E2E2E2E2E2E2E2
310
E2E2E2E2E2E2E2E2E2E2E2E2E2E2E2E2E2E2E2E2E2E2E2E2E2E2E2E2E2E2E2E2E2E2E2E2E2E2F0E2F0F0F0F0F0F0E2E2E2E2E2E2E2E2E2E2E2E2E2E2E2F0E2F0F0F0E2E2E2E2E2E2E2E20FE2E2E2E2E2E2E2E2E2E2E2E2E2E2E2E2E2E2E2E2E2E2E2E2E2E2E2E2E2E2E2E2E2E2E2E2E2E2E2E2E2E2E2E2E2E2E2E2E2E2E2F0
310
E2E2E2E2E2E2E2E2E2E2E2E2E2E2E2E2F5E2E2F5F5EFF5E2E2F5E2E2E2E2E2E2E2E2E2E2E2E2E2E2E2E2F0E2E2E2E2E2E2E2E2E2E2E2E2E2E2E2E2E2E2E2E2E2E2E2E2E2E2E2E2E2E2E2E2E2E2E2E2E2E2E2E2E2E2E2E2E2E2E2E2F0E2F0E2C3E2F0F0E2E2E2E2E2E2E2E2E2E2E2E2E2E2E2F0E2F0F0F0E2E2E2E2E2E2E2E2
310
0FE2E2E2F5E2E2E2E2E2E2E2E2E2E2E2E2E2E2E2E2E2E2E2E2E2E2E2E2E2E2E2E2E2E2E2E2E2E2E2E2E2E2E2E2E2E2E2E2E2E2E2F0E2E2E2E2E2E2E2E2E2E2E2E2E2E2E2E2F5E2E2F5F5EFF5E2E2F5E2E2E2E2E2E2E2E2E2E2E2E2E2E2E2E2F0E2E2E2E2E2E2E2E2E2E2E2E2E2E2E2E2E2E2E2E2E2E2E2E2E2E2E2E2E2E2E2
310
E2E2E2E2E2E2E2E2E2E2E2E2E2E2E2E2E2F0E2F0E2C3E2F0F0E2E2E2E2E2E2E2E2E2E2E2E2E2E2E2F0E2F0F0F0E2E2E2E2E2E2E2E20FE2E2E2F5E2E2E2E2E2E2E2E2E2E2E2E2E2E2E2E2E2E2E2E2E2E2E2E2E2E2E2E2E2E2E2E2E2E2E2E2E2E2E2E2E2E2E2E2E2E2E2F0E2E2E2E2E2E2E2E2E2E2E2E2E2E2E2E2F5E2E2F5F5
310
EFF5E2E2E2E2E2E2E2E2E2E2E2E2E2E2E2E2E2E2E2F0E2E2E2E2E2E2E2E2E2E2E2E2E2E2E2E2E2E2E2E2E2E2E2E2E2E2E2E2E2E2E2E2E2E2E2E2E2E2E2E2E2E2E2E2F0F0F0F0F02DF02DC32DF0F0E2E2E2E2E2E2E2E2E2E2E2E2E2E2E2F0E2F0F0F02D2D2D2D2D2D2D2D0FE2E2E2F5E2E2E2E2E2E2E2E2E2E2E2E2E2E2E2E2
310
E2E2E2E2E2E2E2E2E2E2E2E2E2E2E2E2E2E2E2E2E2E2E2E2E2E2E2E2E2E2E2F0E2E2E2E2E2E2E2E2E2E2E2E2E2E2E2E2E2E2E2F5F5EFF5E2E2E2E2E2E2E2E2E2E2E2E2E2E2E2E2E2E2E2F0E2E2E2E2E2E2E2E2E2E2E2E2E2E2E2E2E2E2E2E2E2E2E2E2E2E2E2E2E2E2E2E2E2E2E2E2E2E2E2E2E2E2E2E2F0E2E2E22DDCDC28
310
C3DCDC2DE2E2E2E2E2E2E2E2E2E2E2E2E2E2E2F0E2F0F02DE2E2E2E2E2E2E2E20FF5F5F5F5F5F5E2E2E2E2E2E2E2E2E2E2E2E2E2E2E2E2E2E2E2E2E2E2E2E2E2E2E2E2E2E2E2E2E2E2E2E2E2E2E2E2E2E2E2E2E2F0E2E2E2E2E2E2E2E2E2E2E2E2E2E2E2E2E2E2E2F5F5EFF5E2E2E2E2E2E2E2E2E2E2E2E2E2E2E2E2E2E2E2
310
F0E2E2E2E2E2E2E2E2E2E2E2E2E2E2E2E2E2E2E2E2E2E2E2E2E2E2E2E2E2E2E2E2E2E2E2E2E2E2E2E2E2E2E2E2F0E2E2E22DDCDC282828DCDCE2E2E2E2E2E2E2E2E2E2E2E2E2E2E2F0E2F0F02DE2E2E2E2E2E2E2F50FF5F5F5F5F5F5F5F5F5F5F0F0E2E2E2E2E2E2E2E2E2E2E2E2E2E2E2E2E2E2E2E2E2E2E2E2E2E2E2E2E2
310
E2E2E2E2E2E2E2E2E2E2F0E2E2E2E2E2E2E2E2E2E2E2E2E2E2E2E2E2E2E2F5F5EFF5E2E2E2E2E2E2E2E2E2E2E2E2E2E2E2E2E2E2E2F0E2E2E2E2E2E2E2E2E2E2E2E2E2E2E2E2E2E2E2E2E2E2E2E2E2E2E2E2E2E2E2E2E2E2E2E2E2E2E2E2E2E2E2E2F0E2E2E22DE2DCE2C3E2DC2DE2E2E2E2E2E2E2E2E2E2E2E2E2E2E2F0E2
310
F0F02DE2E2E2E2E2E2E2E20FF5F5F5F5F5E2E2E2E2E2E2F0E2E2E2E2E2E2E2E2E2E2E2E2E2E2E2E2E2E2E2E2E2E2E2E2E2E2E2E2E2E2E2E2E2E2E2E2E2E2E2F0E2E2E2E2E2E2E2E2E2E2E2E2E2E2E2E2E2E2E2F5F5EFF5E2E2E2E2E2E2E2E2E2E2E2E2E2E2E2E2E2E2E2F0E2E2E2E2E2E2E2E2E2E2E2E2E2E2E2E2E2E2E2E2
310
E2E2E2E2E2E2E2E2E2E2E2E2E2E2E2E2E2E2E2E2E2E2E2E2F0E2E2E22D2D2D2DC32D2D2DE2E2E2E2E2E2E2E2E2E2E2E2F0F0F0F0F0F0F02DE2E2E2E2E2E2E2E20FE2E2E2F5E2E2E2E2E2E2E2F0E2E2E2E2E2E2E2E2E2E2E2E2E2E2E2E2E2E2E2E2E2E2E2E2E2E2E2E2E2E2E2E2E2E2E2E2E2E2E2F0E2E2E2E2E2E2E2E2E2E2
310
E2E2E2E2E2E2E2E2E2F5F5EFF5E2E2E2E2E2E2E2E2E2E2E2E2E2E2E2E2E2E2E2F0E2E2E2E2E2E2E2E2E2E2E2E2E2E2E2E2E2E2E2E2E2E2E2E2E2E2E2E2E2E2E2E2E2E2E2E2E2E2E2E2E2E2E2E2F0E2E2E22DE2E2E2C3E2E22DE2E2E2E2E2E2E2E2E2E2E2E2F0E2E2F0E2F02DE2E2E2E2E2E2E2E2E20FE2E2E2E2E2E2E2E2E2
310
E2E2F0E2E2E2E2E2E2E2E2E2E2E2E2E2E2E2E2E2E2E2E2E2E2E2E2E2E2E2E2E2E2E2E2E2E2E2E2E2E2E2F0E2E2E2E2E2E2E2E2E2E2E2E2E2E2E2E2E2E2E2F5F5EFF5E2E2E2E2E2E2E2E2E2E2E2E2E2E2E2E2E2E2E2F0E2E2E2E2E2E2E2E2E2E2E2E2E2E2E2E2E2E2E2E2E2E2E2E2E2E2E2E2E2E2E2E2E2E2E2E2E2E2E2E2E2
310
E2E2E2F0E2E2E22D2D2D2DC3E2E22DE2E2E2E2E2E2E2E2E2E2E2E2F0E2E2F0E2F02DE2E2E2E2E2E2E2E2E20FE2E2E2E2E2E2E2E2E2E2E2F0E2E2E2E2E2E2E2E2E2E2E2E2E2E2E2E2E2E2E2E2E2E2E2E2E2E2E2E2E2E2E2E2E2E2E2E2E2E2E2F0E2E2E2E2E2E2E2E2E2E2E2E2E2E2E2E2E2E2E2F5F5EFF5E2E2E2E2E2E2E2E2
310
E2E2E2E2E2E2E2E2E2E2E2F0E2E2E2E2E2E2E2E2E2E2E2E2E2E2E2E2E2E2E2E2E2E2E2E2E2E2E2E2E2E2E2E2E2E2E2E2E2E2E2E2E2E2E2E2F0E2E2E22D2D2D2DC3E2E22DE2E2E2E2E2E2E2E2E2E2E2E2F0E2E2F0E22D2DE2E2E2E2E2E2E2E2E20FE2E2E2E2E2E2E2E2E2E2E2F0E2E2E2E2E2E2E2E2E2E2E2E2E2E2E2E2E2E2
310
E2E2E2E2E2E2E2E2E2E2E2E2E2E2E2E2E2E2E2E2E2F0E2E2E2E2E2E2E2E2E2E2E2E2E2E2E2E2E2E2E2F5F5EFF5E2E2E2E2E2E2E2E2E2E2E2E2E2E2E2E2E2E2E2F0E2E2E2E2E2E2E2E2E2E2E2E2E2E2E2E2E2E2E2E2E2E2E2E2E2E2E2E2E2E2E2E2E2E2E2E2E2E2E2E2E2E2E2E2F0E2E2E22D2DE22DC3E2E22DE2E2E2E2E2E2
310
E2E2E2E2E2E2F0E2E2F0E22D2DE2E2E2E2E2E2E2E2E20FE2E2E2E2E2E2E2E2E2E2E2F0E2E2E2E2E2E2E2E2E2E2E2E2E2E2E2E2E2E2E2E2E2E2E2E2E2E2E2E2E2E2E2E2E2E2E2E2E2E2E2F0E2E2E2E2E2E2E2E2E2E2E2E2E2E2E2E2E2E2E2F5F5EFF5E2E2F5E2E2E2E2E2E2E2E2E2E2E2E2E2E2E2E2F0E2E2E2E2E2E2E2E2E2
310
E2E2E2E2E2E2E2E2E2E2E2E2E2E2E2E2E2E2E2E2E2E2E2E2E2E2E2E2E2E2E2E2E2E2E2F0E2E2E22D2DE22DC3E2E22DE2E2E2E2E2E2E2E2E2E2E2F0F0E2E2F0E22D2DE2E2E2E2E2E2E2E2E20FE2E2E2E2E2E2E2E2E2E2F0F0E2E2E2E2E2E2E2E2E2E2E2E2E2E2E2E2E2E2E2E2E2E2E2E2E2E2E2E2E2E2E2E2E2E2E2E2E2E2E2
310
F0E2E2E2E2E2E2E2E2E2E2E2E2E2E2E2E2F5E2E2F5F5EFF5E2E2F5E2E2E2E2E2E2E2E2E2E2E2E2E2E2E2E2F0E2E2E2E2E2E2E2E2E2E2E2E2E2E2E2E2E2E2E2E2E2E2E2E2E2E2E2E2E2E2E2E2E2E2E2E2E2E2E2E2C3C3C3C3F0C3C3C3C3C3C3C3C3C3C3C3C3C3C3C3C3C3C3C3C3E2E2F0F0C3C3F0C3C3C3C3C3C3C3C3C3C3C3
310
C30FC3C3C3C3C3E2E2E2E2E2F0F0E2E2E2E2E2E2E2E2E2E2E2E2E2E2E2E2E2E2E2E2E2E2E2E2E2E2E2E2E2E2E2E2E2E2E2E2E2E2E2F0E2E2E2E2E2E2E2E2E2E2E2E2E2E2E2E2F5E2E2F5F5EFF5E2E2F5E2E2E2E2E2E2E2E2E2E2E2E2E2E2E2E2F0E2E2E2E2E2E2E2E2E2E2E2E2E2E2E2E2E2E2E2E2E2E2E2E2E2E2E2E2E2E2
310
E2E2E2E2E2E2E2E2E2E2E2E2E2E2F0E2E2E22D2DE22DC3E2E22DE2E2E2E2E2E2E2E2E2E2E2E2F0E2E22DE22D2DE2E2E2E2E2E2E2E2E20FE2E2E2E2E2E2E2E2E2E2E2F0E2E2E2E2E2E2E2E2E2E2E2E2E2E2E2E2E2E2E2E2E2E2E2E2E2E2E2E2E2E2E2E2E2E2E2E2E2E2E2F0E2E2E2E2E2E2E2E2E2E2E2E2E2E2E2E2F5E2E2F5
310
F5EFF5E2E2F5E2E2E2E2E2E2E2E2E2E2E2E2E2E2E2E2F0E2E2E2E2E2E2E2E2E2E2E2E2E2E2E2E2E2E2E2E2E2E2E2E2E2E2E2E2E2E2E2E2E2E2E2E2E2E2E2E2E2E2E2E2F0E2E2E22D2DE22DC3E2E22DE2E2E2E2E2E2E2E2E2E2E2E2F0E2E22D2D2D2DE2E2E2E2E2E2E2E2E20FE2E2E2E2E2E2E2E2E2E2E2F0E2E2E2E2E2E2E2
310
E2E2E2E2E2E2E2E2E2E2E2E2E2E2E2E2E2E2E2E2E2E2E2E2E2E2E2E2E2E2E2E2F0E2E2E2E2E2E2E2E2E2E2E2E2E2E2E2E2F5E2E2F5F5EFF5E2E2F5E2E2E2E2E2E2E2E2E2E2E2E2E2E2E2E2F0E2E2E2E2E2E2E2E2E2E2E2E2E2E2E2E2E2E2E2E2E2E2E2E2E2E2E2E2E2E2E2E2E2E2E2E2E2E2E2E2E2E2E2E2F0E2E2E2F02D2D
310
2DF0E2E22DE2E2E2E2E2E2E2E2E2E2E2E2F0E2E22D2D2D2DE2E2E2E2E2E2E2E2E20FE2E2E2E2E2E2E2E2E2E2E2F0E2E2E2E2E2E2E2E2E2E2E2E2E2E2E2E2E2E2E2E2E2E2E2E2E2E2E2E2E2E2E2E2E2E2E2E2E2E2E2F0E2E2E2E2E2E2E2E2E2E2E2E2E2E2E2E2F5E2E2F5F5EFF5E2E2F5E2E2E2E2E2E2E2E2E2E2E2E2E2E2E2
310
E2F0E2E2E2E2E2E2E2E2E2E2E2E2E2E2E2E2E2E2E2E2E2E2E2E2E2E2E2E2E2E2E2E2E2E2E2E2E2E2E2E2E2E2E2E2F0E2E2E2F0F0F0F0F0E2E22DE2E2E2E2E2E2E2E2E2E2E2E2F0E2E2E2E2E22DE2E2E2E2E2E2E2E2E20FE2E2E2E2E2E2E2E2E2E2E2F0E2E2E2E2E2E2E2E2E2E2E2E2E2E2E2E2E2E2E2E2E2E2E2E2E2E2E2E2
310
E2E2E2E2E2E2E2E2E2E2E2F0E2E2E2E2E2E2E2E2E2E2E2E2E2E2E2E2F5E2E2F5F5EFF5E2E2F5E2E2E2E2E2E2E2E2E2E2E2E2E2E2E2E2F0E2E2E2E2E2E2E2E2E2E2E2E2E2E2E2E2E2E2E2E2E2E2E2E2E2E2E2E2E2E2E2E2E2E2E2E2E2E2E2E2E2E2E2E2F0E2E2E22DF0F0E2C3E2E22DE2E2E2E2E2E2E2E2E2E2E2E2F0E2E2E2
310
E2E22DE2E2E2E2E2E2E2E2E20FE2E2E2E2E2E2E2E2E2E2E2F0E2E2E2E2E2E2E2E2E2E2E2E2E2E2E2E2E2E2E2E2E2E2E2E2E2E2E2E2E2E2E2E2E2E2E2E2E2E2E2F0E2E2E2E2E2E2E2E2E2E2E2E2E2E2E2E2F5E2E2F5F5EFF5E2E2F5E2E2E2E2E2E2E2E2E2E2E2E2E2E2E2E2F0E2E2E2E2E2E2E2E2E2E2E2E2E2E2E2E2E2E2E2
310
E2E2E2E2E2E2E2E2E2E2E2E2E2E2E2E2E2E2E2E2E2E2E2E2E2F0E2E2E22D2D2D2DC32D2D2DE2E2E2E2E2E2E2E2E2E2E2E2F0F0F0F0F0F0F02DE2E2E2E2E2E2E2E20FE2E2E2F5E2E2E2E2E2E2E2F0E2E2E2E2E2E2E2E2E2E2E2E2E2E2E2E2E2E2E2E2E2E2E2E2E2E2E2E2E2E2E2E2E2E2E2E2E2E2E2F0E2E2E2E2E2E2E2E2E2
310
E2E2E2E2E2E2E2F5E2E2F5F5EFF5E2E2F5E2E2E2E2E2E2E2E2E2E2E2E2E2E2E2E2F0E2E2E2E2E2E2E2E2E2E2E2E2E2E2E2E2E2E2E2E2E2E2E2E2E2E2E2E2E2E2E2E2E2E2E2E2E2E2E2E2E2E2E2E2F0E2E2E22DDCDC28C3DCDC2DE2E2E2E2E2E2E2E2E2E2E2E2E2E2E2E2E2E2E22DE2E2E2E2E2E2E2E20FF5F5F5F5F5F5E2E2
310
E2E2E2F0E2E2E2E2E2E2E2E2E2E2E2E2E2E2E2E2E2E2E2E2E2E2E2E2E2E2E2E2E2E2E2E2E2E2E2E2E2E2E2F0E2E2E2E2E2E2E2E2E2E2E2E2E2E2E2E2F5E2E2F5F5EFF5E2E2F5E2E2E2E2E2E2E2E2E2E2E2E2E2E2E2E2F0E2E2E2E2E2E2E2E2E2E2E2E2E2E2E2E2E2E2E2E2E2E2E2E2E2E2E2E2E2E2E2E2E2E2E2E2E2E2E2E2
310
E2E2E2E2F0E2E2E22DDCDC282828DCDCE2E2E2E2E2E2E2E2E2E2E2E2E2E2E2E2E2E2E22DE2E2E2E2E2E2E2F50FF5F5F5F5F5F5F5F5F5F5F0F0E2E2E2E2E2E2E2E2E2E2E2E2E2E2E2E2E2E2E2E2E2E2E2E2E2E2E2E2E2E2E2E2E2E2E2E2E2E2E2F0E2E2E2E2E2E2E2E2E2E2E2E2E2E2E2E2F5E2E2F5F5EFF5E2E2F5E2E2E2E2
310
E2E2E2E2E2E2E2E2E2E2E2E2F0E2E2E2E2E2E2E2E2E2E2E2E2E2E2E2E2E2E2E2E2E2E2E2E2E2E2E2E2E2E2E2E2E2E2E2E2E2E2E2E2E2E2E2E2F0F0F0F0F02DDC2DC32DDC2DE2E2E2E2E2E2E2E2E2E2E2E2E2E2E2E2E2E2E22D2D2D2D2D2D2D2D2D0FF5F5F5F5F5E2E2E2E2E2E2E2E2E2E2E2E2E2E2E2E2E2E2E2E2E2E2E2E2
310
E2E2E2E2E2E2E2E2E2E2E2E2E2E2E2E2E2E2E2E2E2E2F0E2E2E2E2E2E2E2E2E2E2E2E2E2E2E2E2F5E2E2F5F5EFF5E2E2F5E2E2E2E2E2E2E2E2E2E2E2E2E2E2E2E2F0E2E2E2E2E2E2E2E2E2E2E2E2E2E2E2E2E2E2E2E2E2E2E2E2E2E2E2E2E2E2E2E2E2E2E2E2E2E2E2E2E2E2E2E2E2E2E2E2E2E2E2E2C3E2E2E2E2E2E2E2E2
310
E2E2E2E2E2E2E2E2E2E2E2E2E2E2E2E2E2E2E2E2E2E2E20FE2E2E2F5E2E2E2E2E2E2E2E2E2E2E2E2E2E2E2E2E2E2E2E2E2E2E2E2E2E2E2E2E2E2E2E2E2E2E2E2E2E2E2E2E2E2E2E2E2E2E2F0E2E2E2E2E2E2E2E2E2E2E2E2E2E2E2E2F5E2E2F5F5EFF5E2E2F5E2E2E2E2E2E2E2E2E2E2E2E2E2E2E2E2F0E2E2E2E2E2E2E2E2
310
E2E2E2E2E2E2E2E2E2E2E2E2E2E2E2E2E2E2E2E2E2E2E2E2E2E2E2E2E2E2E2E2E2E2E2E2E2E2E2E2E2E2E2E2C3E2E2E2E2E2E2E2E2E2E2E2E2E2E2E2E2E2E2E2E2E2E2E2E2E2E2E2E2E2E2E20FE2E2E2F5E2E2E2E2E2E2E2E2E2E2E2E2E2E2E2E2E2E2E2E2E2E2E2E2E2E2E2E2E2E2E2E2E2E2E2E2E2E2E2E2E2E2E2E2E2E2
310
E2F0E2E2E2E2E2E2E2E2E2E2E2E2E2E2E2E2F5E2E2F5F5EFF5E2E2F5E2E2E2E2E2E2E2E2E2E2E2E2E2E2E2E2F0E2E2E2E2E2E2E2E2E2E2E2E2E2E2E2E2E2E2E2E2E2E2E2E2E2E2E2E2E2E2E2E2E2E2E2E2E2E2E2E2E2E2E2E2E2E2E2E2E2E2E2E2C3E2E2E2E2E2E2E2E2E2E2E2E2E2E2E2E2E2E2E2E2E2E2E2E2E2E2E2E2E2
310
E2E20FE2E2E2F5E2E2E2E2E2E2E2E2E2E2E2E2E2E2E2E2E2E2E2E2E2E2E2E2E2E2E2E2E2E2E2E2E2E2E2E2E2E2E2E2E2E2E2E2E2E2E2F0E2E2E2E2E2E2E2E2E2E2E2E2E2E2E2E2F5E2E2F5F5EFF5E2E2F5E2E2E2E2E2E2E2E2E2E2E2E2E2E2E2E2F0E2E2E2E2E2E2E2E2E2E2E2E2E2E2E2E2E2E2E2E2E2E2E2E2E2E2E2E2E2
310
E2E2E2E2E2E2E2E2E2E2E2E2E2E2E2E2E2E2E2E2E2E2E2C3E2E2E2E2E2E2E2E2E2E2E2E2E2E2E2E2E2E2E2E2E2E2E2E2E2E2E2E2E2E2E20FE2E2E2E2E2E2E2E2E2E2E2E2E2E2E2E2E2E2E2E2E2E2E2E2E2E2E2E2E2E2E2E2E2E2E2E2E2E2E2E2E2E2E2E2E2E2E2E2E2E2E2F0E2E2E2E2E2E2E2E2E2E2E2E2E2E2E2E2F5E2E2
310
F5F5EFF5E2E2E2E2E2E2E2E2E2E2E2E2E2E2E2E2E2E2E2F0E2E2E2E2E2E2E2E2E2E2E2E2E2E2E2E2E2E2E2E2E2E2E2E2E2E2E2E2E2E2E2E2E2E2E2E2E2E2E2E2E2E2E2E2E2E2E2E2E2E2E2E2E2E2E2E2E2E2E2E2E2E2E2E2E2E2E2E2E2E2E2E2E2E2E2E2E2E2E2E2E2E2E2E20FE2E2E2E2E2E2E2E2E2E2E2E2E2E2E2E2E2E2
310
E2E2E2E2E2E2E2E2E2E2E2E2E2E2E2E2E2E2E2E2E2E2E2E2E2E2E2E2E2E2E2E2E2F0E2E2E2E2E2E2E2E2E2E2E2E2E2E2E2E2E2E2E2F5F5EFF5E2E2E2E2E2E2E2E2E2E2E2E2E2E2E2E2E2E2E2F0E2E2E2E2E2E2E2E2E2E2E2E2E2E2E2E2E2E2E2E2E2E2E2E2E2E2E2E2E2E2E2E2E2E2E2E2E2E2E2E2E2E2E2E2E2E2E2E2E2E2
310
E2E2E2E2E2E2E2E2E2E2E2E2E2E2E2E2E2E2E2E2E2E2E2E2E2E2E2E2E2E2E2E2E2E2E2E2E2E2E2E2E2E2E2E2E2E2E2E2E2E2E2E2E2E2E2E2E2E2E2E2E2E2E2E2E2E2E2E2E2E2E2E2E2E2E2E2E2E2E2E2E2E2E2E2E2E2F0E2E2E2E2E2E2E2E2E2E2E2E2E2E2E2E2E2E2E2F5F5EFF5E2E2E2E2E2E2E2E2E2E2E2E2E2E2E2E2E2
310
E2E2F0E2E2E2E2E2E2E2E2E2E2E2E2E2E2E2E2E2E2E2E2E2E2E2E2E2E2E2E2E2E2E2E2E2E2E2E2E2E2E2E2E2E2E2E2E2E2E2E2E2E2E2E2E2E2E2E2E2E2E2E2E2E2E2E2E2E2E2E2E2E2E2E2E2E2E2E2E2E2E2E2E2E2E2E2E2E2E2E2E2E2E2E2E2E2E2E2E2E2E2E2E2E2E2E2E2E2E2E2E2E2E2E2E2E2E2E2E2E2E2E2E2E2E2E2
310
E2E2E2E2E2E2E2E2E2E2E2E2F0E2E2E2E2E2E2E2E2E2E2E2E2E2E2E2E2E2E2E2F5F5EFF5E2E2E2E2E2E2E2E2E2E2E2E2E2E2E2E2E2E2E2F0E2E2E2E2E2E2E2E2E2E2E2E2E2E2E2E2E2E2E2E2E2E2E2E2E2E2E2E2E2E2E2E2E2E2E2E2E2E2E2E2E2E2E2E2E2E2E2E2E2E2E2E2E2E2E2E2E2E2E2E2E2E2E2E2E2E2E2E2E2E2E2
310
E2E2E2E2E2E2E2E2E2E2E2E2E2E2E2E2E2E2E2E2E2E2E2E2E2E2E2E2E2E2E2E2E2E2E2E2E2E2E2E2E2E2E2E2E2E2E2E2E2E2E2E2E2E2E2E2E2E2E2E2E2E2E2E2E2F0E2E2E2E2E2E2E2E2E2E2E2E2E2E2E2E2E2E2E2F5F5EFF5E2E2E2E2E2E2E2E2E2E2E2E2E2E2E2E2E2E2E2F0E2E2E2E2E2E2E2E2E2E2E2E2E2E2E2E2E2E2
310
E2E2E2E2E2E2E2E2E2E2E2E2E2E2E2E2E2E2E2E2E2E2E2E2E2E2E2E2E2E2E2E2E2E2E2E2E2E2E2E2E2E2E2E2E2E2E2E2E2E2E2E2E2E2E2E2E2E2E2E2E2E2E2E2E2E2E2E2E2E2E2E2E2E2E2E2E2E2E2E2E2E2E2E2E2E2E2E2E2E2E2E2E2E2E2E2E2E2E2E2E2E2E2E2E2E2E2E2E2E2E2E2E2E2E2E2E2E2F0E2E2E2E2E2E2E2E2
310
E2E2E2E2E2E2E2E2E2E2E2F5F5EFF5E2E2E2E2E2E2E2E2E2E2E2E2E2E2E2E2E2E2E2F0E2E2E2E2E2E2E2E2E2E2E2E2E2E2E2E2E2E2E2E2E2E2E2E2E2E2E2E2E2E2E2E2E2E2E2E2E2E2E2E2E2E2E2E2E2E2E2E2E2E2E2E2E2E2E2E2E2E2E2E2E2E2E2E2E2E2E2E2E2E2E2E2E2E2E2E2E2E2E2E2E2E2E2E2E2E2E2E2E2E2E2E2
310
E2E2E2E2E2E2E2E2E2E2E2E2E2E2E2E2E2E2E2E2E2E2E2E2E2E2E2E2E2E2E2E2E2E2E2E2E2E2E2E2E2E2E2E2F0E2E2E2E2E2E2E2E2E2E2E2E2E2E2E2E2E2E2E2F5F5EFF5E2E2E2E2E2E2E2E2E2E2E2E2E2E2E2E2E2E2E2F0E2E2E2E2E2E2E2E2E2E2E2E2E2E2E2E2E2E2E2E2E2E2E2E2E2E2E2E2E2E2E2E2E2E2E2E2E2E2E2
310
E2E2E2E2E2E2E2E2E2E2E2E2E2C3E2E2E2E2E2E2E2E2E2E2E2E2E2E2E2E2E2E2E2E2E2E2E2E2E2E2E2E2E2E2E2E2E2E2E2E2E2E2E2E2E2E2E2E2E2E2E2E2E2E2E2E2E2E2E2E2E2E2E2E2E2E2E2E2E2E2E2E2E2E2E2E2E2E2E2E2E2E2E2E2E2E2E2F0E2E2E2E2E2E2E2E2E2E2E2E2E2E2E2E2E2E2E2F5F5EFF5E2E2E2E2E2E2
310
E2E2E2E2E2E2E2E2E2E2E2E2E2F0E2E2E2E2E2E2E2E2E2E2E2E2E2E2E2E2E2E2E2E2E2E2E2E2E2E2E2E2E2E2E2E2E2E2E2E2E2E2E2E2E2E2E2E2E2E2E2E2E2E2E2E2C3E2E2E2E2E2E2E2E2E2E2E2E2E2E2E2E2E2E2E2E2E2E2E2E2E2E2E2E2E2E2E2E2E2E2E2E2E2E2E2E2E2E2E2E2E2E2E2E2E2E2E2E2E2E2E2E2E2E2E2E2
310
E2E2E2E2E2E2E2E2E2E2E2E2E2E2E2E2E2E2E2E2E2E2E2F0E2E2E2E2E2E2E2E2E2E2E2E2E2E2E2E2E2E2E2F5F5EFF5E2E2F5E2E2E2E2E2E2E2E2E2E2E2E2E2E2E2E2F0E2E2E2E2E2E2E2E2E2E2E2E2E2E2E2E2E2E2E2E2E2E2E2E2E2E2E2E2E2E2E2E2E2E2E2E2E2E2E2E2E2E2E2E2E2E2E2E2E22D2D2DC3E2E2E2E2E2E2E2
310
E2E2E2E2E2E2E2E2E2E2E2E2E2E2E2E2E2E2E2E2E2E2E2E2E2E2E2E2E2E2E2E2E2E2E2E2E2E2E2E2E2E2E2E2E2E2E2E2E2E2E2E2E2E2E2E2E2E2E2E2E2E2E2E2E2E2E2E2E2E2E2E2E2E2E2E2F0E2E2E2E2E2E2E2E2E2E2E2E2E2E2E2E2F5E2E2F5F5EFF5E2E2F5E2E2E2E2E2E2E2E2E2E2E2E2E2E2E2E2F0E2E2E2E2E2E2E2
310
E2E2E2E2E2E2E2E2E2E2E2E2E2E2E2E2E2E2E2E2E2E2E2E2E2E2E2E2E2E2E2E2E2E2E2E2E2E2E2E2E2E22DE22DC3E2E2E2E2E2E2E2E2E2E2E2E2E2E2E2E2E2E2E2E2E2E2E2E2E2E2E2E2E2E2E2E2E2E2E2E2E2E2E2E2E2E2E2E2E2E2E2E2E2E2E2E2E2E2E2E2E2E2E2E2E2E2E2E2E2E2E2E2E2E2E2E2E2E2E2E2E2E2E2E2E2
310
E2E2F0E2E2E2E2E2E2E2E2E2E2E2E2E2E2E2E2F5E2E2F5F5EFF5E2E2F5E2E2E2E2E2E2E2E2E2E2E2E2E2E2E2E2F0E2E2E2E2E2E2E2E2E2E2E2E2E2E2E2E2E2E2E2E2E2E2E2E2E2E2E2E2E2E2E2E2E2E2E2E2E2E2E2E2E2E2E2E2E2E2E2E22D2D2D2DC3E2E2E2E2E2E2E2E2E2E2E2E2E2E2E2E2E2E2E2E2E2E2E2E2E2E2E2E2
310
E2E2E2E2E2E2E2E2E2E2E2E2E2E2E2E2E2E2E2E2E2E2E2E2E2E2E2E2E2E2E2E2E2E2E2E2E2E2E2E2E2E2E2E2E2E2E2E2E2E2E2E2E2E2E2F0E2E2E2E2E2E2E2E2E2E2E2E2E2E2E2E2F5E2E2F5F5EFF5E2E2F5E2E2E2E2E2E2E2E2E2E2E2E2E2E2E2E2F0E2E2E2E2E2E2E2E2E2E2E2E2E2E2E2E2E2E2E2E2E2E2E2E2E2E2E2E2
310
E2E2E2E2E2E2E2E2E2E2E2E2E2E2E2E2E2E2E2E22D2D2D2DC32D2D2DE2E2E2E2E2E2E2E2E2E2E2E2E2E2E2E2E2E2E2E2E2E2E2E2E2E2E2E2E2E2E2E2E2E2E2E2E2E2E2E2E2E2E2E2E2E2E2E2E2E2E2E2E2E2E2E2E2E2E2E2E2E2E2E2E2E2E2E2E2E2E2E2E2E2E2E2E2E2E2E2F0E2E2E2E2E2E2E2E2E2E2E2E2E2E2E2E2F5E2
310
E2F5F5EFF5E2E2F5E2E2E2E2E2E2E2E2E2E2E2E2E2E2E2E2F0E2E2E2E2E2E2E2E2E2E2E2E2E2E2E2E2E2E2E2E2E2E2E2E2E2E2E2E2E2E2E2E2E2E2E2E2E2E2E2E2E2E2E2E2E2E2E2E22DE2E2E2C3E2E22DE2E2E2E2E2E2E2E2E2E2E2E2E2E2E2E2E2E2E2E2E2E2E2E2E2E2E2E2E2E2E2E2E2E2E2E2E2E2E2E2E2E2E2E2E2E2
310
E2E2E2E2E2E2E2E2E2E2E2E2E2E2E2E2E2E2E2E2E2E2E2E2E2E2E2E2E2E2E2E2E2E2F0E2E2E2E2E2E2E2E2E2E2E2E2E2E2E2E2F5E2E2F5F5EFF5E2E2F5E2E2E2E2E2E2E2E2E2E2E2E2E2E2E2E2F0E2E2E2E2E2E2E2E2E2E2E2E2E2E2E2E2E2E2E2E2E2E2E2E2E2E2E2E2E2E2E2E2E2E2E2E2E2E2E2E2E2E2E2E2E2E2E2E22D
310
E2E2E2C3E2E22DE2E2E2E2E2E2E2E2E2E2E2E2E2E2E2E2E2E2E2E2E2E2E2E2E2E2E2E2E2E2E2E2E2E2E2E2E2E2E2E2E2E2E2E2E2E2E2E2E2E2E2E2E2E2E2E2E2E2E2E2E2E2E2E2E2E2E2E2E2E2E2E2E2E2E2E2E2E2E2E2F0E2E2E2E2E2E2E2E2E2E2E2E2E2E2E2E2F5E2E2F5F5EFF5E2E2F5E2E2E2E2E2E2E2E2E2E2E2E2E2
310
E2E2E2F0E2E2E2E2E2E2E2E2E2E2E2E2E2E2E2E2E2E2E2E2E2E2E2E2E2E2E2E2E2E2E2E2E2E2E2E2E2E2E2E2E2E2E2E2E2E2E2E22DE2E2E2C3E2E22DE2E2E2E2E2E2E2E2E2E2E2E2E2E2E2E2E2E2E2E2E2E2E2E2E2E2E2E2E2E2E2E2E2E2E2E2E2E2E2E2E2E2E2E2E2E2E2E2E2E2E2E2E2E2E2E2E2E2E2E2E2E2E2E2E2E2E2
310
E2E2E2E2E2E2E2E2E2E2E2E2E2F0E2E2E2E2E2E2E2E2E2E2E2E2E2E2E2E2F5E2E2F5F5EFF5E2E2F5E2E2E2E2E2E2E2E2E2E2E2E2E2E2E2E2F0E2E2E2E2E2E2E2E2E2E2E2E2E2E2E2E2E2E2E2E2E2E2E2E2E2E2E2E2E2E2E2E2E2E2E2E2E2E2E2E2E2E2E2E2E2E2E2E22DE2E2E2C3E2E22DE2E2E2E2E2E2E2E2E2E2E2E2E2E2
310
E2E2E2E2E2E2E2E2E2E2E2E2E2E2E2E2E2E2E2E2E2E2E2E2E2E2E2E2E2E2E2E2E2E2E2E2E2E2E2E2E2E2E2E2E2E2E2E2E2E2E2E2E2E2E2E2E2E2E2E2E2E2E2E2E2E2F0E2E2E2E2E2E2E2E2E2E2E2E2E2E2E2E2F5E2E2F5F5EFF5E2E2F5E2E2E2E2E2E2E2E2E2E2E2E2E2E2E2E2F0E2E2E2E2E2E2E2E2E2E2E2E2E2E2E2E2E2
310
E2E2E2E2E2E2E2E2E2E2E2E2E2E2E2E2E2E2E2E2E2E2E2E2E2E2E2E2E2E2E22DE2E2E2C3E2E22DE2E2E2E2E2E2E2E2E2E2E2E2E2E2E2E2E2E2E2E2E2E2E2E2E2E2E2E2E2E2E2E2E2E2E2E2E2E2E2E2E2E2E2E2E2E2E2E2E2E2E2E2E2E2E2E2E2E2E2E2E2E2E2E2E2E2E2E2E2E2E2E2E2E2E2E2E2E2E2E2F0E2E2E2E2E2E2E2
310
E2E2E2E2E2E2E2E2E2F5E2E2F5F5EFF5E2E2F5E2E2E2E2E2E2E2E2E2E2E2E2E2E2E2E2F0E2E2E2E2E2E2E2E2E2E2E2E2E2E2E2E2E2E2E2E2E2E2E2E2E2E2E2E2E2E2E2E2E2E2E2E2E2E2E2E2E2E2E2E2E2E2E2E22DE2E2E2C3E2E22DE2E2E2E2E2E2E2E2E2E2E2E2E2E2E2F0F0F0F0F0F0F0F0F0E2E2E2E2E2E2E2E2E2E2E2
310
E2E2E2E2E2E2E2E2E2E2E2E2E2E2E2E2E2E2E2E2E2E2E2E2E2E2E2E2E2E2E2E2E2E2E2E2E2E2E2E2E2E2E2E2E2F0E2E2E2E2E2E2E2E2E2E2E2E2E2E2E2E2F5E2E2F5F5EFF5E2E2F5E2E2E2E2E2E2E2E2E2E2E2E2E2E2E2E2F0E2E2E2E2E2E2E2E2E2E2E2E2E2E2E2E2E2E2E2E2E2E2E2E2E2E2E2E2E2E2E2E2E2E2E2E2E2E2
310
E2E2E2E2E2E2E2E2E2E22DE2E2E2C3E2E22DE2E2E2E2E2E2E2E2E2E2E2E2E2E2E2E2F0F0F0F0F0F0F0F0E2E2E2E2E2E2E2E2E2E2E2E2E2E2E2E2E2E2E2E2E2E2E2E2E2E2E2E2E2E2E2E2E2E2E2E2E2E2E2E2E2E2E2E2E2E2E2E2E2E2E2E2E2E2E2E2F0E2E2E2E2E2E2E2E2E2E2E2E2E2E2E2E2F5E2E2F5F5EFF5E2E2F5E2E2
310
E2E2E2E2E2E2E2E2E2E2E2E2E2E2F0E2E2E2E2E2E2E2E2E2E2E2E2E2E2E2E2E2E2E2E2E2E2E2E2E2E2E2E2E2E2E2E2E2E2E2E2E2E2E2E2E2E2E2E2E2E2E2E22DE2E2E2C3E2E22DE2E2E2E2E2E2E2E2E2E2E2E2E2E2E2E2E2E2E2E2E2E2E2E2E2E2E2E2E2E2E2E2E2E2E2E2E2E2E2E2E2E2E2E2E2E2E2E2E2E2E2E2E2E2E2E2
310
E2E2E2E2E2E2E2E2E2E2E2E2E2E2E2E2E2E2E2E2E2E2E2E2F0E2E2E2E2E2E2E2E2E2E2E2E2E2E2E2E2F5E2E2F5F5EFF5E2E2F5E2E2E2E2E2E2E2E2E2E2E2E2E2E2E2E2F0E2E2E2E2E2E2E2E2E2E2E2E2E2E2E2E2E2E2E2E2E2E2E2E2E2E2E2E2E2E2E2E2E2E2E2E2E2E2E20F0F0F0F0F0F0F0F0F0F0F0F0F0F0F0F0F0F0F0F
310
0F0F0F0F0F0F0FE2E2E2E2E2E2E2E2E2E2E2E2E2E2E2E2E2E2E2E2E2E2E2E2E2E2E2E2E2E2E2E2E2E2E2E2E2E2E2E2E2E2E2E2E2E2E2E2E2E2E2E2E2E2E2E2E2E2E2E2E2E2E2E2E2E2E2E2E2E2F0E2E2E2E2E2E2E2E2E2E2E2E2E2E2E2E2F5E2E2F5F5EFF5E2E2F5E2E2E2E2E2E2E2E2E2E2E2E2E2E2E2E2F0E2E2E2E2E2E2
310
E2E2E2E2E2E2E2E2E2E2E2E2E2E2E2E2E2E2E2E2E2E2E2E2E2E2E2E2E2E2E2E2E20F0F0F0F0F0F0F0F0F0F0F0F0F0F0F0F0F0F0F0F0F0F0F0F0F0F0FE2E2E2E2E2E2E2E2E2E2E2E2E2E2E2E2E2E2E2E2E2E2E2E2E2E2E2E2E2E2E2E2E2E2E2E2E2E2E2E2E2E2E2E2E2E2E2E2E2E2E2E2E2E2E2E2E2E2E2E2E2E2E2E2E2E2E2
310
E2E2E2F0E2E2E2E2E2E2E2E2E2E2E2E2E2E2E2E2F5E2E2F5F5EFF5E2E2F5E2E2E2E2E2E2E2E2E2E2E2E2E2E2E2E2F0E2E2E2E2E2E2E2E2E2E2E2E2E2E2E2E2E2E2E2E2E2E2E2E2E2E2E2E2E2E2E2E2E2E2E2E2E2E2E2E2E2E2E2E2E2E2E2E2E2F5E2F5C3F5F5E2E2E2E2E2E2E2E2E2E2E2E2E2E2E2E2E2E2E2E2E2E2E2E2E2
310
E2E2E2E2E2E2E2E2E2E2E2E2E2E2E2E2E2E2E2E2E2E2E2E2E2E2E2E2E2E2E2E2E2E2E2E2E2E2E2E2E2E2E2E2E2E2E2E2E2E2E2E2E2E2E2E2F0E2E2E2E2E2E2E2E2E2E2E2E2E2E2E2E2F5E2E2F5F5EFF5E2E2E2E2E2E2E2E2E2E2E2E2E2E2E2E2E2E2E2F0E2E2E2E2E2E2E2E2E2E2E2E2E2E2E2E2E2E2E2E2E2E2E2E2E2E2E2
310
E2E2E2E2E2E2E2E2E2E2E2E2E2E2E2E2E2E2E2E2E2E2F5F5F5C3F5F5E2E2E2E2E2E2E2E2E2E2E2E2E2E2E2E2E2E2E2E2E2E2E2E2E2E2E2E2E2E2E2E2E2E2E2E2E2E2E2E2E2E2E2E2E2E2E2E2E2E2E2E2E2E2E2E2E2E2E2E2E2E2E2E2E2E2E2E2E2E2E2E2E2E2E2E2E2E2E2E2E2F0E2E2E2E2E2E2E2E2E2E2E2E2E2E2E2E2E2
310
E2E2F5F5EFF5E2E2E2E2E2E2E2E2E2E2E2E2E2E2E2E2E2E2E2F0E2E2E2E2E2E2E2E2E2E2E2E2E2E2E2E2E2E2E2E2E2E2E2E2E2E2E2E2E2E2E2E2E2E2E2E2E2E2E2E2E2E2E2E2E2E2E2E2E2F5F5F5C3F5F5E2E2E2E2E2E2E2E2E2E2E2E2E2E2E2E2E2E2E2E2E2E2E2E2E2E2E2E2E2E2E2E2E2E2E2E2E2E2E2E2E2E2E2E2E2E2
310
E2E2E2E2E2E2E2E2E2E2E2E2E2E2E2E2E2E2E2E2E2E2E2E2E2E2E2E2E2E2E2E2E2E2E2F0E2E2E2E2E2E2E2E2E2E2E2E2E2E2E2E2E2E2E2F5F5EFF5E2E2E2E2E2E2E2E2E2E2E2E2E2E2E2E2E2E2E2F0E2E2E2E2E2E2E2E2E2E2E2E2E2E2E2E2E2E2E2E2E2E2E2E2E2E2E2E2E2E2E2E2E2E2E2E2E2E2E2E2E2E2E2E2E2E2E2E2
310
E2F5F5F5C3F5F5F5E2E2E2E2E2E2E2E2E2E2E2E2E2E2E2E2E2E2E2E2E2E2E2E2E2E2E2E2E2E2E2E2E2E2E2E2E2E2E2E2E2E2E2E2E2E2E2E2E2E2E2E2E2E2E2E2E2E2E2E2E2E2E2E2E2E2E2E2E2E2E2E2E2E2E2E2E2E2E2E2F0E2E2E2E2E2E2E2E2E2E2E2E2E2E2E2E2E2E2E2F5F5EFF5E2E2E2E2E2E2E2E2E2E2E2E2E2E2E2
310
E2E2E2E2F0E2E2E2E2E2E2E2E2E2E2E2E2E2E2E2E2E2E2E2E2E2E2E2E2E2E2E2E2E2E2E2E2E2E2E2E2E2E2E2E2E2E2E2E2E2E2E2E2E2F5F5F5C3F5F5E2E2E2E2E2E2E2E2E2E2E2E2E2E2E2E2E2E2E2E2E2E2E2E2E2E2E2E2E2E2E2E2E2E2E2E2E2E2E2E2E2E2E2E2E2E2E2E2E2E2E2E2E2E2E2E2E2E2E2E2E2E2E2E2E2E2E2
310
E2E2E2E2E2E2E2E2E2E2E2E2E2E2F0E2E2E2E2E2E2E2E2E2E2E2E2E2E2E2E2E2E2E2F5F5EFF5E2E2E2E2E2E2E2E2E2E2E2E2E2E2E2E2E2E2E2F0F0F0F0F0F0F0F0F0F0F0F0F0F0F0F0F0F0F0F0F0F0F0F0F0F0F0F0F0F0F0F0F0F0F0F0F0F0F0F0F0F0F0F0F0F0F0F0F0F0F0F0F0F0F0F0F0F0F0F0F0F0F0F0F0F0F0F0F0F0
310
F0F0F0F0F0F0F0F0F0F0F0F0F0F0F0F0F0F0F0F0F0F0F0F0F0F0F0F0F0F0F0F0F0F0F0F0F0F0F0F0F0F0F0F0F0F0F0F0F0F0F0F0F0F0F0F0F0F0F0F0F0F0F0F0F0F0F0F0E2E2E2E2E2E2E2E2E2E2E2E2E2E2E2E2E2E2E2F5F5EFF5E2E2E2E2E2E2E2E2E2E2E2E2E2E2E2E2E2E2E2E2E2E2E2E2E2E2E2E2E2E2E2E2E2E2E2E2
310
E2E2E2E2E2E2E2E2E2E2E2E2E2E2E2E2E2E2E2E2E2E2E2E2E2E2E2E2E2E2E2E2E2E2E2E2E2E2E2E2E2E2E2E2E2E2E2E2E2E2E2E2E2E2E2E2E2E2E2E2E2E2E2E2E2E2E2E2E2E2E2E2E2E2E2E2E2E2E2E2E2E2E2E2E2E2E2E2E2E2E2E2E2E2E2E2E2E2E2E2E2E2E2E2E2E2E2E2E2E2E2E2E2E2E2E2E2E2E2E2E2E2E2E2E2E2E2
310
E2E2E2E2E2E2E2E2E2E2E2E2E2F5F5EFF5E2E2E2E2E2E2E2E2E2E2E2E2E2E2E2E2E2E2E2E2E2E2E2E2E2E2E2E2E2E2E2E2E2E2E2E2E2E2E2E2E2E2E2E2E2E2E2E2E2E2E2E2E2E2E2E2E2E2E2E2E2E2E2E2E2E2E2E2E2E2E2E2E2E2E2E2E2E2E2E2E2E2E2E2E2E2E2E2E2E2E2E2E2E2E2E2E2E2E2E2E2E2E2E2E2E2E2E2E2E2
310
E2E2E2E2E2E2E2E2E2E2E2E2E2E2E2E2E2E2E2E2E2E2E2E2E2E2E2E2E2E2E2E2E2E2E2E2E2E2E2E2E2E2E2E2E2E2E2E2E2E2E2E2E2E2E2E2E2E2E2E2E2E2E2E2E2E2F5F5EFF5E2E2E2E2E2E2E2E2E2E2E2E2E2E2E2E2E2E2E2E2E2E2E2E2E2E2E2E2E2E2E2E2E2E2E2E2E2E2E2E2E2E2E2E2E2E2E2E2E2E2E2E2E2E2E2E2E2
310
E2E2E2E2E2E2E2E2E2E2E2E2E2E2E2E2E2E2E2E2E2E2E2E2E2E2E2E2E2E2E2E2E2E2E2E2E2E2E2E2E2E2E2E2E2E2E2E2E2E2E2E2E2E2E2E2E2E2E2E2E2E2E2E2E2E2E2E2E2E2E2E2E2E2E2E2E2E2E2E2E2E2E2E2E2E2E2E2E2E2E2E2E2E2E2E2E2E2E2E2E2E2E2E2E2E2E2E2E2E2E2E2E2E2E2E2E2E2E2F5F5EFF5E2E2E2E2
310
E2E2E2E2E2E2E2E2E2E2E2E2E2E2E2E2E2E2E2E2E2E2E2E2E2E2E2E2E2E2E2E2E2E2E2E2E2E2E2E2E2E2E2E2E2E2E2E2E2E2E2E2E2E2E2E2E2E2E2E2E2E2E2E2E2E2E2E2E2E2E2E2E2E2E2E2E2E2E2E2E2E2E2E2E2E2E2E2E2E2E2E2E2E2E2E2E2E2E2E2E2E2E2E2E2E2E2E2E2E2E2E2E2E2E2E2E2E2E2E2E2E2E2E2E2E2E2
310
E2E2E2E2E2E2E2E2E2E2E2E2E2E2E2E2E2E2E2E2E2E2E2E2E2E2E2E2E2E2E2E2E2E2E2E2E2E2E2E2E2E2E2E2E2F5F5EFF5E2E2F5E2E2E2E2E2E2E2E2E2E2E2E2E2E2E2E2E2E2E2E2E2E2E2E2E2E2E2E2E2E2E2E2E2E2E2E2E2E2E2E2E2E2E2E2E2E2E2E2E2E2E2E2E2E2E2E2E2E2E2E2E2E2E2E2E2E2E2E2E2E2E2E2E2E2E2
310
E2E2E2E2E2E2E2E2E2E2E2E2E2E2E2E2E2E2E2E2E2E2E2E2E2E2E2E2E2E2E2E2E2E2E2E2E2E2E2E2E2E2E2E2E2E2E2E2E2E2E2E2E2E2E2E2E2E2E2E2E2E2E2E2E2E2E2E2E2E2E2E2E2E2E2E2E2E2E2E2E2E2E2E2E2E2E2E2E2E2E2E2E2E2E2F5E2E2F5F5EFF5E2E2F5E2E2E2E2E2E2E2E2E2E2E2E2E2E2E2E2E2E2E2E2E2E2
310
E2E2E2E2E2E2E2E2E2E2E2E2E2E2E2E2E2E2E2E2E2E2E2E2E2E2E2E2E2E2E2E2E2E2E2E2E2E2E2E2E2E2E2E2E2E2E2E2E2E2E2E2E2E2E2E2E2E2E2E2E2E2E2E2E2E2E2E2E2E2E2E2E2E2E2E2E2E2E2E2E2E2E2E2E2E2E2E2E2E2E2E2E2E2E2E2E2E2E2E2E2E2E2E2E2E2E2E2E2E2E2E2E2E2E2E2E2E2E2E2E2E2E2E2E2E2E2
310
E2E2E2E2E2E2E2E2E2E2E2E2E2E2E2E2E2E2E2E2E2F5E2E2F5F5EFF5E2E2F5E2E2E2E2E2E2E2E2E2E2E2E2E2E2E2E2E2E2E2E2E2E2E2E2E2E2E2E2E2E2E2E2E2E2E2E2E2E2E2E2E2E2E2E2E2E2E2E2E2E2E2E2E2E2E2E2E2E2E2E2E2E2E2E2E2E2E2E2E2E2E2E2E2E2E2E2E2E2E2E2E2E2E2E2E2E2E2E2E2E2E2E2E2E2E2E2
310
E2E2E2E2E2E2E2E2E2E2E2E2E2E2E2E2E2E2E2E2E2E2E2E2E2E2E2E2E2E2E2E2E2E2E2E2E2E2E2E2E2E2E2E2E2E2E2E2E2E2E2E2E2E2E2E2E2E2E2E2E2E2E2E2E2E2E2E2E2E2E2E2E2E2F5E2E2F5F5EFF5E2E2F5E2E2E2E2E2E2E2E2E2E2E2E2E2E2E2E2E2E2E2E2E2E2E2E2E2E2E2E2E2E2E2E2E2E2E2E2E2E2E2E2E2E2E2
310
E2E2E2E2E2E2E2E2E2E2E2E2E2E2E2E2E2E2E2E2E2E2E2E2E2E2E2E2E2E2E2E2E2E2E2E2E2E2E2E2E2E2E2E2E2E2E2E2E2E2E2E2E2E2E2E2E2E2E2E2E2E2E2E2E2E2E2E2E2E2E2E2E2E2E2E2E2E2E2E2E2E2E2E2E2E2E2E2E2E2E2E2E2E2E2E2E2E2E2E2E2E2E2E2E2E2E2E2E2E2E2E2E2E2E2E2E2E2E2E2E2E2E2E2E2E2E2
310
F5E2E2F5F5EFF5E2E2F5E2E2E2E2E2E2E2E2E2E2E2E2E2E2E2E2E2E2E2E2E2E2E2E2E2E2E2E2E2E2E2E2E2E2E2E2E2E2E2E2E2E2E2E2E2E2E2E2E2E2E2E2E2E2E2E2E2E2E2E2E2E2E2E2E2E2E2E2E2E2E2E2E2E2E2E2E2E2E2E2E2E2E2E2E2E2E2E2E2E2E2E2E2E2E2E2E2E2E2E2E2E2E2E2E2E2E2E2E2E2E2E2E2E2E2E2E2
310
E2E2E2E2E2E2E2E2E2E2E2E2E2E2E2E2E2E2E2E2E2E2E2E2E2E2E2E2E2E2E2E2E2E2E2E2E2E2E2E2E2E2E2E2E2E2E2E2E2E2E2E2E2F5E2E2F5F5EFF5E2E2F5E2E2E2E2E2E2E2E2E2E2E2E2E2E2E2E2E2E2E2E2E2E2E2E2E2E2E2E2E2E2E2E2E2E2E2E2E2E2E2E2E2E2E2E2E2E2E2E2E2E2E2E2E2E2E2E2E2E2E2E2E2E2E2E2
310
E2E2E2E2E2E2E2E2E2E2E2E2E2E2E2E2E2E2E2E2E2E2E2E2E2E2E2E2E2E2E2E2E2E2E2E2E2E2E2E2E2E2E2E2E2E2E2E2E2E2E2E2E2E2E2E2E2E2E2E2E2E2E2E2E2E2E2E2E2E2E2E2E2E2E2E2E2E2E2E2E2E2E2E2E2E2E2E2E2E2E2E2E2E2E2E2E2E2E2E2E2E2E2E2E2E2F5E2E2F5F5EFF5E2E2F5E2E2E2E2E2E2E2E2E2E2E2
310
E2E2E2E2E2E2E2E2E2E2E2E2E2E2E2E2E2E2E2E2E2E2E2E2E2E2E2E2E2E2E2E2E2E2E2E2E2E2E2E2E2E2E2E2E2E2E2E2E2E2E2E2E2E2E2E2E2E2E2E2E2E2E2E2E2E2E2E2E2E2E2E2E2E2E2E2E2E2E2E2E2E2E2E2E2E2E2E2E2E2E2E2E2E2E2E2E2E2E2E2E2E2E2E2E2E2E2E2E2E2E2E2E2E2E2E2E2E2E2E2E2E2E2E2E2E2E2
310
E2E2E2E2E2E2E2E2E2E2E2E2E2E2E2E2E2E2E2E2E2E2E2E2E2E2E2E2E2E2E2E2F5E2E2F5F5EFF5E2E2F5F5F5F5F5F5F5F5E2E2E2E2E2E2E2E2E2F5F5F5F5F5F5F5F5F5F5F5F5F5F5F5F5E2E2E2E2E2E2E2E2E2F5F5F5F5F5F5F5F5F5F5F5F5F5F5F5E2E2E2E2E2E2E2E2E2F5F5F5F5F5F5F5F5F5F5F5F5F5F5F5F5E2E2E2E2
310
E2E2E2E2F5F5F5F5F5F5F5F5F5F5F5F5F5F5F5F5E2E2E2E2E2E2E2E2E2F5F5F5F5F5F5F5F5F5F5F5F5F5F5F5E2E2E2E2E2E2E2E2E2F5F5F5F5F5F5F5F5F5F5F5F5F5F5F5F5E2E2E2E2E2E2E2E2E2F5F5F5F5F5F5F5F5E2E2F5F5EFF5E2E2E2E2E2E2E2E2E2E2E2E2E2E2E2E2E2E2E2E2E2E2E2E2E2E2E2E2E2E2E2E2E2E2E2
310
E2E2E2E2E2E2E2E2E2E2E2E2E2E2E2E2E2E2E2E2E2E2E2E2E2E2E2E2E2E2E2E2E2E2E2E2E2E2E2E2E2E2E2E2E2E2E2E2E2E2E2E2E2E2E2E2E2E2E2E2E2E2E2E2E2E2E2E2E2E2E2E2E2E2E2E2E2E2E2E2E2E2E2E2E2E2E2E2E2E2E2E2E2E2E2E2E2E2E2E2E2E2E2E2E2E2E2E2E2E2E2E2E2E2E2E2E2E2E2E2E2E2E2E2E2E2E2
310
E2E2E2E2E2E2E2E2E2E2E2E2E2E2F5F5EFF5E2E2E2E2E2E2E2E2E2E2E2E2E2E2E2E2E2E2E2E2E2E2E2E2E2E2E2E2E2E2E2E2E2E2E2E2E2E2E2E2E2E2E2E2E2E2E2E2E2E2E2E2E2E2E2E2E2E2E2E2E2E2E2E2E2E2E2E2E2E2E2E2E2E2E2E2E2E2E2E2E2E2E2E2E2E2E2E2E2E2E2E2E2E2E2E2E2E2E2E2E2E2E2E2E2E2E2E2E2
310
E2E2E2E2E2E2E2E2E2E2E2E2E2E2E2E2E2E2E2E2E2E2E2E2E2E2E2E2E2E2E2E2E2E2E2E2E2E2E2E2E2E2E2E2E2E2E2E2E2E2E2E2E2E2E2E2E2E2E2E2E2E2E2E2E2E2E2F5F5EFF5E2E2E2E2E2E2E2E2E2E2E2E2E2E2E2E2E2E2E2E2E2E2E2E2E2E2E2E2E2E2E2E2E2E2E2E2E2E2E2E2E2E2E2E2E2E2E2E2E2E2E2E2E2E2E2E2
310
E2E2E2E2E2E2E2E2E2E2E2E2E2E2E2E2E2E2E2E2E2E2E2E2E2E2E2E2E2E2E2E2E2E2E2E2E2E2E2E2E2E2E2E2E2E2E2E2E2E2E2E2E2E2E2E2E2E2E2E2E2E2E2E2E2E2E2E2E2E2E2E2E2E2E2E2E2E2E2E2E2E2E2E2E2E2E2E2E2E2E2E2E2E2E2E2E2E2E2E2E2E2E2E2E2E2E2E2E2E2E2E2E2E2E2E2E2E2E2E2F5EFEFF5F5F5F5
310
F5F5F5F5F5F5F5F5F5F5F5F5F5F5F5F5F5F5F5F5F5F5F5F5F5F5F5F5F5F5F5F5F5F5F5F5F5F5F5F5F5F5F5F5F5F5F5F5F5F5F5F5F5F5F5F5F5F5F5F5F5F5F5F5F5F5F5F5F5F5F5F5F5F5F5F5F5F5F5F5F5F5F5F5F5F5F5F5F5F5F5F5F5F5F5F5F5F5F5F5F5F5F5F5F5F5F5F5F5F5F5F5F5F5F5F5F5F5F5F5F5F5F5F5F5F5F5
310
F5F5F5F5F5F5F5F5F5F5F5F5F5F5F5F5F5F5F5F5F5F5F5F5F5F5F5F5F5F5F5F5F5F5F5F5F5F5F5F5F5F5F5F5F5F5F5EF
  0
XRECORD
  5
9465
102
{ACAD_REACTORS
330
84CC
102
}
330
84CC
100
AcDbXrecord
280
     1
102
MATERIAL
148
0.0
149
0.0
149
0.0
 93
        0
 94
      127
282
     0
 72
     0
 77
     0
171
     0
175
     0
179
     0
273
     0
  0
XRECORD
  5
84CE
102
{ACAD_REACTORS
330
84CC
102
}
330
84CC
100
AcDbXrecord
280
     1
270
     1
271
     1
  0
XRECORD
  5
84CD
102
{ACAD_REACTORS
330
84CC
102
}
330
84CC
100
AcDbXrecord
280
     1
270
     1
271
     1
  0
XRECORD
  5
84D1
102
{ACAD_REACTORS
330
84CC
102
}
330
84CC
100
AcDbXrecord
280
     1
270
     1
271
     1
  0
XRECORD
  5
84D0
102
{ACAD_REACTORS
330
84CC
102
}
330
84CC
100
AcDbXrecord
280
     1
270
     1
271
     1
  0
XRECORD
  5
84D2
102
{ACAD_REACTORS
330
84CC
102
}
330
84CC
100
AcDbXrecord
280
     1
270
     1
271
     1
  0
XRECORD
  5
84CF
102
{ACAD_REACTORS
330
84CC
102
}
330
84CC
100
AcDbXrecord
280
     1
270
     1
271
     1
  0
XRECORD
  5
9464
102
{ACAD_REACTORS
330
84C4
102
}
330
84C4
100
AcDbXrecord
280
     1
102
MATERIAL
148
0.0
149
0.0
149
0.0
 93
        0
 94
      127
282
     0
 72
     0
 77
     0
171
     0
175
     0
179
     0
273
     0
  0
XRECORD
  5
84C6
102
{ACAD_REACTORS
330
84C4
102
}
330
84C4
100
AcDbXrecord
280
     1
270
     1
271
     1
  0
XRECORD
  5
84C5
102
{ACAD_REACTORS
330
84C4
102
}
330
84C4
100
AcDbXrecord
280
     1
270
     1
271
     1
  0
XRECORD
  5
84C9
102
{ACAD_REACTORS
330
84C4
102
}
330
84C4
100
AcDbXrecord
280
     1
270
     1
271
     1
  0
XRECORD
  5
84C8
102
{ACAD_REACTORS
330
84C4
102
}
330
84C4
100
AcDbXrecord
280
     1
270
     1
271
     1
  0
XRECORD
  5
84CA
102
{ACAD_REACTORS
330
84C4
102
}
330
84C4
100
AcDbXrecord
280
     1
270
     1
271
     1
  0
XRECORD
  5
84C7
102
{ACAD_REACTORS
330
84C4
102
}
330
84C4
100
AcDbXrecord
280
     1
270
     1
271
     1
  0
XRECORD
  5
9466
102
{ACAD_REACTORS
330
84D4
102
}
330
84D4
100
AcDbXrecord
280
     1
102
MATERIAL
148
0.0
149
0.0
149
0.0
 93
        0
 94
      127
282
     0
 72
     0
 77
     0
171
     0
175
     0
179
     0
273
     0
  0
XRECORD
  5
84D6
102
{ACAD_REACTORS
330
84D4
102
}
330
84D4
100
AcDbXrecord
280
     1
270
     1
271
     1
  0
XRECORD
  5
84D5
102
{ACAD_REACTORS
330
84D4
102
}
330
84D4
100
AcDbXrecord
280
     1
270
     1
271
     1
  0
XRECORD
  5
84D9
102
{ACAD_REACTORS
330
84D4
102
}
330
84D4
100
AcDbXrecord
280
     1
270
     1
271
     1
  0
XRECORD
  5
84D8
102
{ACAD_REACTORS
330
84D4
102
}
330
84D4
100
AcDbXrecord
280
     1
270
     1
271
     1
  0
XRECORD
  5
84DA
102
{ACAD_REACTORS
330
84D4
102
}
330
84D4
100
AcDbXrecord
280
     1
270
     1
271
     1
  0
XRECORD
  5
84D7
102
{ACAD_REACTORS
330
84D4
102
}
330
84D4
100
AcDbXrecord
280
     1
270
     1
271
     1
  0
CELLSTYLEMAP
  5
9897
102
{ACAD_REACTORS
330
9395
102
}
330
9395
100
AcDbCellStyleMap
 90
        3
300
CELLSTYLE
  1
TABLEFORMAT_BEGIN
 90
        5
170
     1
 91
        0
 92
    32768
 62
   257
 93
        1
300
CONTENTFORMAT
  1
CONTENTFORMAT_BEGIN
 90
        0
 91
        0
 92
        4
 93
        0
300

 40
0.0
140
1.0
 94
        5
 62
     0
340
11
144
0.25
309
CONTENTFORMAT_END
171
     1
301
MARGIN
  1
CELLMARGIN_BEGIN
 40
0.06
 40
0.06
 40
0.06
 40
0.06
 40
0.18
 40
0.18
309
CELLMARGIN_END
 94
        6
 95
        1
302
GRIDFORMAT
  1
GRIDFORMAT_BEGIN
 90
        0
 91
        1
 62
     0
 92
       -2
340
0
 93
        0
 40
0.045
309
GRIDFORMAT_END
 95
        2
302
GRIDFORMAT
  1
GRIDFORMAT_BEGIN
 90
        0
 91
        1
 62
     0
 92
       -2
340
0
 93
        0
 40
0.045
309
GRIDFORMAT_END
 95
        4
302
GRIDFORMAT
  1
GRIDFORMAT_BEGIN
 90
        0
 91
        1
 62
     0
 92
       -2
340
0
 93
        0
 40
0.045
309
GRIDFORMAT_END
 95
        8
302
GRIDFORMAT
  1
GRIDFORMAT_BEGIN
 90
        0
 91
        1
 62
     0
 92
       -2
340
0
 93
        0
 40
0.045
309
GRIDFORMAT_END
 95
       16
302
GRIDFORMAT
  1
GRIDFORMAT_BEGIN
 90
        0
 91
        1
 62
     0
 92
       -2
340
0
 93
        0
 40
0.045
309
GRIDFORMAT_END
 95
       32
302
GRIDFORMAT
  1
GRIDFORMAT_BEGIN
 90
        0
 91
        1
 62
     0
 92
       -2
340
0
 93
        0
 40
0.045
309
GRIDFORMAT_END
309
TABLEFORMAT_END
  1
CELLSTYLE_BEGIN
 90
        1
 91
        1
300
_TITLE
309
CELLSTYLE_END
300
CELLSTYLE
  1
TABLEFORMAT_BEGIN
 90
        5
170
     1
 91
        0
 92
        0
 62
   257
 93
        1
300
CONTENTFORMAT
  1
CONTENTFORMAT_BEGIN
 90
        0
 91
        0
 92
        4
 93
        0
300

 40
0.0
140
1.0
 94
        5
 62
     0
340
11
144
0.18
309
CONTENTFORMAT_END
171
     1
301
MARGIN
  1
CELLMARGIN_BEGIN
 40
0.06
 40
0.06
 40
0.06
 40
0.06
 40
0.18
 40
0.18
309
CELLMARGIN_END
 94
        6
 95
        1
302
GRIDFORMAT
  1
GRIDFORMAT_BEGIN
 90
        0
 91
        1
 62
     0
 92
       -2
340
0
 93
        0
 40
0.045
309
GRIDFORMAT_END
 95
        2
302
GRIDFORMAT
  1
GRIDFORMAT_BEGIN
 90
        0
 91
        1
 62
     0
 92
       -2
340
0
 93
        0
 40
0.045
309
GRIDFORMAT_END
 95
        4
302
GRIDFORMAT
  1
GRIDFORMAT_BEGIN
 90
        0
 91
        1
 62
     0
 92
       -2
340
0
 93
        0
 40
0.045
309
GRIDFORMAT_END
 95
        8
302
GRIDFORMAT
  1
GRIDFORMAT_BEGIN
 90
        0
 91
        1
 62
     0
 92
       -2
340
0
 93
        0
 40
0.045
309
GRIDFORMAT_END
 95
       16
302
GRIDFORMAT
  1
GRIDFORMAT_BEGIN
 90
        0
 91
        1
 62
     0
 92
       -2
340
0
 93
        0
 40
0.045
309
GRIDFORMAT_END
 95
       32
302
GRIDFORMAT
  1
GRIDFORMAT_BEGIN
 90
        0
 91
        1
 62
     0
 92
       -2
340
0
 93
        0
 40
0.045
309
GRIDFORMAT_END
309
TABLEFORMAT_END
  1
CELLSTYLE_BEGIN
 90
        2
 91
        1
300
_HEADER
309
CELLSTYLE_END
300
CELLSTYLE
  1
TABLEFORMAT_BEGIN
 90
        5
170
     1
 91
        0
 92
        0
 62
   257
 93
        1
300
CONTENTFORMAT
  1
CONTENTFORMAT_BEGIN
 90
        0
 91
        0
 92
        4
 93
        0
300

 40
0.0
140
1.0
 94
        2
 62
     0
340
11
144
0.18
309
CONTENTFORMAT_END
171
     1
301
MARGIN
  1
CELLMARGIN_BEGIN
 40
0.06
 40
0.06
 40
0.06
 40
0.06
 40
0.18
 40
0.18
309
CELLMARGIN_END
 94
        6
 95
        1
302
GRIDFORMAT
  1
GRIDFORMAT_BEGIN
 90
        0
 91
        1
 62
     0
 92
       -2
340
0
 93
        0
 40
0.045
309
GRIDFORMAT_END
 95
        2
302
GRIDFORMAT
  1
GRIDFORMAT_BEGIN
 90
        0
 91
        1
 62
     0
 92
       -2
340
0
 93
        0
 40
0.045
309
GRIDFORMAT_END
 95
        4
302
GRIDFORMAT
  1
GRIDFORMAT_BEGIN
 90
        0
 91
        1
 62
     0
 92
       -2
340
0
 93
        0
 40
0.045
309
GRIDFORMAT_END
 95
        8
302
GRIDFORMAT
  1
GRIDFORMAT_BEGIN
 90
        0
 91
        1
 62
     0
 92
       -2
340
0
 93
        0
 40
0.045
309
GRIDFORMAT_END
 95
       16
302
GRIDFORMAT
  1
GRIDFORMAT_BEGIN
 90
        0
 91
        1
 62
     0
 92
       -2
340
0
 93
        0
 40
0.045
309
GRIDFORMAT_END
 95
       32
302
GRIDFORMAT
  1
GRIDFORMAT_BEGIN
 90
        0
 91
        1
 62
     0
 92
       -2
340
0
 93
        0
 40
0.045
309
GRIDFORMAT_END
309
TABLEFORMAT_END
  1
CELLSTYLE_BEGIN
 90
        3
 91
        2
300
_DATA
309
CELLSTYLE_END
  0
XRECORD
  5
98A1
102
{ACAD_REACTORS
330
9395
102
}
330
9395
100
AcDbXrecord
280
     1
102
ACAD_ROUNDTRIP_PRE2007_TABLESTYLE
 90
        4
 91
        0
  1

 92
        4
 93
        0
  2

 94
        4
 95
        0
  3

  0
XRECORD
  5
98AD
102
{ACAD_REACTORS
330
98AC
102
}
330
98AC
100
AcDbXrecord
280
     1
102
RTVSPropertyOp0
 70
     1
102
RTVSPropertyOp1
 70
     1
102
RTVSPropertyOp2
 70
     1
102
RTVSPropertyOp3
 70
     1
102
RTVSPropertyOp4
 70
     1
102
RTVSPropertyOp5
 70
     1
102
RTVSPropertyOp6
 70
     1
102
RTVSPropertyOp7
 70
     1
102
RTVSPropertyOp8
 70
     1
102
RTVSPropertyOp9
 70
     1
102
RTVSPropertyOp10
 70
     1
102
RTVSPropertyOp11
 70
     1
102
RTVSPropertyOp12
 70
     1
102
RTVSPropertyOp13
 70
     1
102
RTVSPropertyOp14
 70
     1
102
RTVSPropertyOp15
 70
     1
102
RTVSPropertyOp16
 70
     1
102
RTVSPropertyOp17
 70
     1
102
RTVSPropertyOp18
 70
     1
102
RTVSPropertyOp19
 70
     1
102
RTVSPropertyOp20
 70
     1
102
RTVSPropertyOp21
 70
     1
102
RTVSPropertyOp22
 70
     1
102
RTVSPropertyOp23
 70
     1
102
RTVSPropertyOp24
 70
     1
102
RTVSPropertyOp25
 70
     1
102
RTVSPropertyOp26
 70
     1
102
RTVSPropertyOp27
 70
     1
  0
XRECORD
  5
98B1
102
{ACAD_REACTORS
330
98B0
102
}
330
98B0
100
AcDbXrecord
280
     1
102
RTVSPropertyOp0
 70
     1
102
RTVSPropertyOp1
 70
     1
102
RTVSPropertyOp2
 70
     1
102
RTVSPropertyOp3
 70
     1
102
RTVSPropertyOp4
 70
     1
102
RTVSPropertyOp5
 70
     1
102
RTVSPropertyOp6
 70
     1
102
RTVSPropertyOp7
 70
     1
102
RTVSPropertyOp8
 70
     1
102
RTVSPropertyOp9
 70
     1
102
RTVSPropertyOp10
 70
     1
102
RTVSPropertyOp11
 70
     1
102
RTVSPropertyOp12
 70
     1
102
RTVSPropertyOp13
 70
     1
102
RTVSPropertyOp14
 70
     1
102
RTVSPropertyOp15
 70
     1
102
RTVSPropertyOp16
 70
     1
102
RTVSPropertyOp17
 70
     1
102
RTVSPropertyOp18
 70
     1
102
RTVSPropertyOp19
 70
     1
102
RTVSPropertyOp20
 70
     1
102
RTVSPropertyOp21
 70
     1
102
RTVSPropertyOp22
 70
     1
102
RTVSPropertyOp23
 70
     1
102
RTVSPropertyOp24
 70
     1
102
RTVSPropertyOp25
 70
     1
102
RTVSPropertyOp26
 70
     1
102
RTVSPropertyOp27
 70
     1
  0
XRECORD
  5
98AF
102
{ACAD_REACTORS
330
98AE
102
}
330
98AE
100
AcDbXrecord
280
     1
102
RTVSPropertyOp0
 70
     1
102
RTVSPropertyOp1
 70
     1
102
RTVSPropertyOp2
 70
     1
102
RTVSPropertyOp3
 70
     1
102
RTVSPropertyOp4
 70
     1
102
RTVSPropertyOp5
 70
     1
102
RTVSPropertyOp6
 70
     1
102
RTVSPropertyOp7
 70
     1
102
RTVSPropertyOp8
 70
     1
102
RTVSPropertyOp9
 70
     1
102
RTVSPropertyOp10
 70
     1
102
RTVSPropertyOp11
 70
     1
102
RTVSPropertyOp12
 70
     1
102
RTVSPropertyOp13
 70
     1
102
RTVSPropertyOp14
 70
     1
102
RTVSPropertyOp15
 70
     1
102
RTVSPropertyOp16
 70
     1
102
RTVSPropertyOp17
 70
     1
102
RTVSPropertyOp18
 70
     1
102
RTVSPropertyOp19
 70
     1
102
RTVSPropertyOp20
 70
     1
102
RTVSPropertyOp21
 70
     1
102
RTVSPropertyOp22
 70
     1
102
RTVSPropertyOp23
 70
     1
102
RTVSPropertyOp24
 70
     1
102
RTVSPropertyOp25
 70
     1
102
RTVSPropertyOp26
 70
     1
102
RTVSPropertyOp27
 70
     1
  0
XRECORD
  5
98AB
102
{ACAD_REACTORS
330
98AA
102
}
330
98AA
100
AcDbXrecord
280
     1
102
RTVSPropertyOp0
 70
     1
102
RTVSPropertyOp1
 70
     1
102
RTVSPropertyOp2
 70
     1
102
RTVSPropertyOp3
 70
     1
102
RTVSPropertyOp4
 70
     1
102
RTVSPropertyOp5
 70
     1
102
RTVSPropertyOp6
 70
     1
102
RTVSPropertyOp7
 70
     1
102
RTVSPropertyOp8
 70
     1
102
RTVSPropertyOp9
 70
     1
102
RTVSPropertyOp10
 70
     1
102
RTVSPropertyOp11
 70
     1
102
RTVSPropertyOp12
 70
     1
102
RTVSPropertyOp13
 70
     1
102
RTVSPropertyOp14
 70
     1
102
RTVSPropertyOp15
 70
     1
102
RTVSPropertyOp16
 70
     1
102
RTVSPropertyOp17
 70
     1
102
RTVSPropertyOp18
 70
     1
102
RTVSPropertyOp19
 70
     1
102
RTVSPropertyOp20
 70
     1
102
RTVSPropertyOp21
 70
     1
102
RTVSPropertyOp22
 70
     1
102
RTVSPropertyOp23
 70
     1
102
RTVSPropertyOp24
 70
     1
102
RTVSPropertyOp25
 70
     1
102
RTVSPropertyOp26
 70
     1
102
RTVSPropertyOp27
 70
     1
  0
XRECORD
  5
98B9
102
{ACAD_REACTORS
330
98B8
102
}
330
98B8
100
AcDbXrecord
280
     1
102
RTVSPropertyOp0
 70
     1
102
RTVSPropertyOp1
 70
     1
102
RTVSPropertyOp2
 70
     1
102
RTVSPropertyOp3
 70
     1
102
RTVSPropertyOp4
 70
     1
102
RTVSPropertyOp5
 70
     1
102
RTVSPropertyOp6
 70
     1
102
RTVSPropertyOp7
 70
     1
102
RTVSPropertyOp8
 70
     1
102
RTVSPropertyOp9
 70
     1
102
RTVSPropertyOp10
 70
     1
102
RTVSPropertyOp11
 70
     1
102
RTVSPropertyOp12
 70
     1
102
RTVSPropertyOp13
 70
     1
102
RTVSPropertyOp14
 70
     1
102
RTVSPropertyOp15
 70
     1
102
RTVSPropertyOp16
 70
     1
102
RTVSPropertyOp17
 70
     1
102
RTVSPropertyOp18
 70
     1
102
RTVSPropertyOp19
 70
     1
102
RTVSPropertyOp20
 70
     1
102
RTVSPropertyOp21
 70
     1
102
RTVSPropertyOp22
 70
     1
102
RTVSPropertyOp23
 70
     1
102
RTVSPropertyOp24
 70
     1
102
RTVSPropertyOp25
 70
     1
102
RTVSPropertyOp26
 70
     1
102
RTVSPropertyOp27
 70
     1
  0
XRECORD
  5
98C1
102
{ACAD_REACTORS
330
98C0
102
}
330
98C0
100
AcDbXrecord
280
     1
102
RTVSPropertyOp0
 70
     1
102
RTVSPropertyOp1
 70
     1
102
RTVSPropertyOp2
 70
     1
102
RTVSPropertyOp3
 70
     1
102
RTVSPropertyOp4
 70
     1
102
RTVSPropertyOp5
 70
     1
102
RTVSPropertyOp6
 70
     1
102
RTVSPropertyOp7
 70
     1
102
RTVSPropertyOp8
 70
     1
102
RTVSPropertyOp9
 70
     1
102
RTVSPropertyOp10
 70
     1
102
RTVSPropertyOp11
 70
     1
102
RTVSPropertyOp12
 70
     1
102
RTVSPropertyOp13
 70
     1
102
RTVSPropertyOp14
 70
     1
102
RTVSPropertyOp15
 70
     1
102
RTVSPropertyOp16
 70
     1
102
RTVSPropertyOp17
 70
     1
102
RTVSPropertyOp18
 70
     1
102
RTVSPropertyOp19
 70
     1
102
RTVSPropertyOp20
 70
     1
102
RTVSPropertyOp21
 70
     1
102
RTVSPropertyOp22
 70
     1
102
RTVSPropertyOp23
 70
     1
102
RTVSPropertyOp24
 70
     1
102
RTVSPropertyOp25
 70
     1
102
RTVSPropertyOp26
 70
     1
102
RTVSPropertyOp27
 70
     1
  0
XRECORD
  5
98B3
102
{ACAD_REACTORS
330
98B2
102
}
330
98B2
100
AcDbXrecord
280
     1
102
RTVSPropertyOp0
 70
     1
102
RTVSPropertyOp1
 70
     1
102
RTVSPropertyOp2
 70
     1
102
RTVSPropertyOp3
 70
     1
102
RTVSPropertyOp4
 70
     1
102
RTVSPropertyOp5
 70
     1
102
RTVSPropertyOp6
 70
     1
102
RTVSPropertyOp7
 70
     1
102
RTVSPropertyOp8
 70
     1
102
RTVSPropertyOp9
 70
     1
102
RTVSPropertyOp10
 70
     1
102
RTVSPropertyOp11
 70
     1
102
RTVSPropertyOp12
 70
     1
102
RTVSPropertyOp13
 70
     1
102
RTVSPropertyOp14
 70
     1
102
RTVSPropertyOp15
 70
     1
102
RTVSPropertyOp16
 70
     1
102
RTVSPropertyOp17
 70
     1
102
RTVSPropertyOp18
 70
     1
102
RTVSPropertyOp19
 70
     1
102
RTVSPropertyOp20
 70
     1
102
RTVSPropertyOp21
 70
     1
102
RTVSPropertyOp22
 70
     1
102
RTVSPropertyOp23
 70
     1
102
RTVSPropertyOp24
 70
     1
102
RTVSPropertyOp25
 70
     1
102
RTVSPropertyOp26
 70
     1
102
RTVSPropertyOp27
 70
     1
  0
XRECORD
  5
98B7
102
{ACAD_REACTORS
330
98B6
102
}
330
98B6
100
AcDbXrecord
280
     1
102
RTVSPropertyOp0
 70
     1
102
RTVSPropertyOp1
 70
     1
102
RTVSPropertyOp2
 70
     1
102
RTVSPropertyOp3
 70
     1
102
RTVSPropertyOp4
 70
     1
102
RTVSPropertyOp5
 70
     1
102
RTVSPropertyOp6
 70
     1
102
RTVSPropertyOp7
 70
     1
102
RTVSPropertyOp8
 70
     1
102
RTVSPropertyOp9
 70
     1
102
RTVSPropertyOp10
 70
     1
102
RTVSPropertyOp11
 70
     1
102
RTVSPropertyOp12
 70
     1
102
RTVSPropertyOp13
 70
     1
102
RTVSPropertyOp14
 70
     1
102
RTVSPropertyOp15
 70
     1
102
RTVSPropertyOp16
 70
     1
102
RTVSPropertyOp17
 70
     1
102
RTVSPropertyOp18
 70
     1
102
RTVSPropertyOp19
 70
     1
102
RTVSPropertyOp20
 70
     1
102
RTVSPropertyOp21
 70
     1
102
RTVSPropertyOp22
 70
     1
102
RTVSPropertyOp23
 70
     1
102
RTVSPropertyOp24
 70
     1
102
RTVSPropertyOp25
 70
     1
102
RTVSPropertyOp26
 70
     1
102
RTVSPropertyOp27
 70
     1
  0
XRECORD
  5
98C7
102
{ACAD_REACTORS
330
98C6
102
}
330
98C6
100
AcDbXrecord
280
     1
102
RTVSPropertyOp0
 70
     0
102
RTVSPropertyOp1
 70
     0
102
RTVSPropertyOp2
 70
     0
102
RTVSPropertyOp3
 70
     0
102
RTVSPropertyOp4
 70
     0
102
RTVSPropertyOp5
 70
     0
102
RTVSPropertyOp6
 70
     0
102
RTVSPropertyOp7
 70
     0
102
RTVSPropertyOp8
 70
     0
102
RTVSPropertyOp9
 70
     0
102
RTVSPropertyOp10
 70
     0
102
RTVSPropertyOp11
 70
     0
102
RTVSPropertyOp12
 70
     0
102
RTVSPropertyOp13
 70
     0
102
RTVSPropertyOp14
 70
     2
102
RTVSPropertyOp15
 70
     0
102
RTVSPropertyOp16
 70
     0
102
RTVSPropertyOp17
 70
     0
102
RTVSPropertyOp18
 70
     0
102
RTVSPropertyOp19
 70
     0
102
RTVSPropertyOp20
 70
     0
102
RTVSPropertyOp21
 70
     0
102
RTVSPropertyOp22
 70
     0
102
RTVSPropertyOp23
 70
     0
102
RTVSPropertyOp24
 70
     0
102
RTVSPropertyOp25
 70
     0
102
RTVSPropertyOp26
 70
     0
102
RTVSPropertyOp27
 70
     0
  0
XRECORD
  5
98BF
102
{ACAD_REACTORS
330
98BE
102
}
330
98BE
100
AcDbXrecord
280
     1
102
RTVSPropertyOp0
 70
     1
102
RTVSPropertyOp1
 70
     1
102
RTVSPropertyOp2
 70
     1
102
RTVSPropertyOp3
 70
     1
102
RTVSPropertyOp4
 70
     1
102
RTVSPropertyOp5
 70
     1
102
RTVSPropertyOp6
 70
     1
102
RTVSPropertyOp7
 70
     1
102
RTVSPropertyOp8
 70
     1
102
RTVSPropertyOp9
 70
     1
102
RTVSPropertyOp10
 70
     1
102
RTVSPropertyOp11
 70
     1
102
RTVSPropertyOp12
 70
     1
102
RTVSPropertyOp13
 70
     1
102
RTVSPropertyOp14
 70
     1
102
RTVSPropertyOp15
 70
     1
102
RTVSPropertyOp16
 70
     1
102
RTVSPropertyOp17
 70
     1
102
RTVSPropertyOp18
 70
     1
102
RTVSPropertyOp19
 70
     1
102
RTVSPropertyOp20
 70
     1
102
RTVSPropertyOp21
 70
     1
102
RTVSPropertyOp22
 70
     1
102
RTVSPropertyOp23
 70
     1
102
RTVSPropertyOp24
 70
     1
102
RTVSPropertyOp25
 70
     1
102
RTVSPropertyOp26
 70
     1
102
RTVSPropertyOp27
 70
     1
  0
XRECORD
  5
98A3
102
{ACAD_REACTORS
330
98A2
102
}
330
98A2
100
AcDbXrecord
280
     1
102
RTVSPropertyOp0
 70
     1
102
RTVSPropertyOp1
 70
     1
102
RTVSPropertyOp2
 70
     1
102
RTVSPropertyOp3
 70
     1
102
RTVSPropertyOp4
 70
     1
102
RTVSPropertyOp5
 70
     1
102
RTVSPropertyOp6
 70
     1
102
RTVSPropertyOp7
 70
     1
102
RTVSPropertyOp8
 70
     1
102
RTVSPropertyOp9
 70
     1
102
RTVSPropertyOp10
 70
     1
102
RTVSPropertyOp11
 70
     1
102
RTVSPropertyOp12
 70
     1
102
RTVSPropertyOp13
 70
     1
102
RTVSPropertyOp14
 70
     1
102
RTVSPropertyOp15
 70
     1
102
RTVSPropertyOp16
 70
     1
102
RTVSPropertyOp17
 70
     1
102
RTVSPropertyOp18
 70
     1
102
RTVSPropertyOp19
 70
     1
102
RTVSPropertyOp20
 70
     1
102
RTVSPropertyOp21
 70
     1
102
RTVSPropertyOp22
 70
     1
102
RTVSPropertyOp23
 70
     1
102
RTVSPropertyOp24
 70
     1
102
RTVSPropertyOp25
 70
     1
102
RTVSPropertyOp26
 70
     1
102
RTVSPropertyOp27
 70
     1
  0
XRECORD
  5
98A5
102
{ACAD_REACTORS
330
98A4
102
}
330
98A4
100
AcDbXrecord
280
     1
102
RTVSPropertyOp0
 70
     1
102
RTVSPropertyOp1
 70
     1
102
RTVSPropertyOp2
 70
     1
102
RTVSPropertyOp3
 70
     1
102
RTVSPropertyOp4
 70
     1
102
RTVSPropertyOp5
 70
     1
102
RTVSPropertyOp6
 70
     1
102
RTVSPropertyOp7
 70
     1
102
RTVSPropertyOp8
 70
     1
102
RTVSPropertyOp9
 70
     1
102
RTVSPropertyOp10
 70
     1
102
RTVSPropertyOp11
 70
     1
102
RTVSPropertyOp12
 70
     1
102
RTVSPropertyOp13
 70
     1
102
RTVSPropertyOp14
 70
     1
102
RTVSPropertyOp15
 70
     1
102
RTVSPropertyOp16
 70
     1
102
RTVSPropertyOp17
 70
     1
102
RTVSPropertyOp18
 70
     1
102
RTVSPropertyOp19
 70
     1
102
RTVSPropertyOp20
 70
     1
102
RTVSPropertyOp21
 70
     1
102
RTVSPropertyOp22
 70
     1
102
RTVSPropertyOp23
 70
     1
102
RTVSPropertyOp24
 70
     1
102
RTVSPropertyOp25
 70
     1
102
RTVSPropertyOp26
 70
     1
102
RTVSPropertyOp27
 70
     1
  0
XRECORD
  5
98A7
102
{ACAD_REACTORS
330
98A6
102
}
330
98A6
100
AcDbXrecord
280
     1
102
RTVSPropertyOp0
 70
     1
102
RTVSPropertyOp1
 70
     1
102
RTVSPropertyOp2
 70
     1
102
RTVSPropertyOp3
 70
     1
102
RTVSPropertyOp4
 70
     1
102
RTVSPropertyOp5
 70
     1
102
RTVSPropertyOp6
 70
     1
102
RTVSPropertyOp7
 70
     1
102
RTVSPropertyOp8
 70
     1
102
RTVSPropertyOp9
 70
     1
102
RTVSPropertyOp10
 70
     1
102
RTVSPropertyOp11
 70
     1
102
RTVSPropertyOp12
 70
     1
102
RTVSPropertyOp13
 70
     1
102
RTVSPropertyOp14
 70
     1
102
RTVSPropertyOp15
 70
     1
102
RTVSPropertyOp16
 70
     1
102
RTVSPropertyOp17
 70
     1
102
RTVSPropertyOp18
 70
     1
102
RTVSPropertyOp19
 70
     1
102
RTVSPropertyOp20
 70
     1
102
RTVSPropertyOp21
 70
     1
102
RTVSPropertyOp22
 70
     1
102
RTVSPropertyOp23
 70
     1
102
RTVSPropertyOp24
 70
     1
102
RTVSPropertyOp25
 70
     1
102
RTVSPropertyOp26
 70
     1
102
RTVSPropertyOp27
 70
     1
  0
XRECORD
  5
98A9
102
{ACAD_REACTORS
330
98A8
102
}
330
98A8
100
AcDbXrecord
280
     1
102
RTVSPropertyOp0
 70
     1
102
RTVSPropertyOp1
 70
     1
102
RTVSPropertyOp2
 70
     1
102
RTVSPropertyOp3
 70
     1
102
RTVSPropertyOp4
 70
     1
102
RTVSPropertyOp5
 70
     1
102
RTVSPropertyOp6
 70
     1
102
RTVSPropertyOp7
 70
     1
102
RTVSPropertyOp8
 70
     1
102
RTVSPropertyOp9
 70
     1
102
RTVSPropertyOp10
 70
     1
102
RTVSPropertyOp11
 70
     1
102
RTVSPropertyOp12
 70
     1
102
RTVSPropertyOp13
 70
     1
102
RTVSPropertyOp14
 70
     1
102
RTVSPropertyOp15
 70
     1
102
RTVSPropertyOp16
 70
     1
102
RTVSPropertyOp17
 70
     1
102
RTVSPropertyOp18
 70
     1
102
RTVSPropertyOp19
 70
     1
102
RTVSPropertyOp20
 70
     1
102
RTVSPropertyOp21
 70
     1
102
RTVSPropertyOp22
 70
     1
102
RTVSPropertyOp23
 70
     1
102
RTVSPropertyOp24
 70
     1
102
RTVSPropertyOp25
 70
     1
102
RTVSPropertyOp26
 70
     1
102
RTVSPropertyOp27
 70
     1
  0
XRECORD
  5
98C3
102
{ACAD_REACTORS
330
98C2
102
}
330
98C2
100
AcDbXrecord
280
     1
102
RTVSPropertyOp0
 70
     0
102
RTVSPropertyOp1
 70
     0
102
RTVSPropertyOp2
 70
     0
102
RTVSPropertyOp3
 70
     0
102
RTVSPropertyOp4
 70
     0
102
RTVSPropertyOp5
 70
     0
102
RTVSPropertyOp6
 70
     0
102
RTVSPropertyOp7
 70
     0
102
RTVSPropertyOp8
 70
     0
102
RTVSPropertyOp9
 70
     0
102
RTVSPropertyOp10
 70
     0
102
RTVSPropertyOp11
 70
     0
102
RTVSPropertyOp12
 70
     0
102
RTVSPropertyOp13
 70
     0
102
RTVSPropertyOp14
 70
     2
102
RTVSPropertyOp15
 70
     0
102
RTVSPropertyOp16
 70
     0
102
RTVSPropertyOp17
 70
     0
102
RTVSPropertyOp18
 70
     0
102
RTVSPropertyOp19
 70
     0
102
RTVSPropertyOp20
 70
     0
102
RTVSPropertyOp21
 70
     0
102
RTVSPropertyOp22
 70
     0
102
RTVSPropertyOp23
 70
     0
102
RTVSPropertyOp24
 70
     0
102
RTVSPropertyOp25
 70
     0
102
RTVSPropertyOp26
 70
     0
102
RTVSPropertyOp27
 70
     0
  0
XRECORD
  5
98BD
102
{ACAD_REACTORS
330
98BC
102
}
330
98BC
100
AcDbXrecord
280
     1
102
RTVSPropertyOp0
 70
     1
102
RTVSPropertyOp1
 70
     1
102
RTVSPropertyOp2
 70
     1
102
RTVSPropertyOp3
 70
     1
102
RTVSPropertyOp4
 70
     1
102
RTVSPropertyOp5
 70
     1
102
RTVSPropertyOp6
 70
     1
102
RTVSPropertyOp7
 70
     1
102
RTVSPropertyOp8
 70
     1
102
RTVSPropertyOp9
 70
     1
102
RTVSPropertyOp10
 70
     1
102
RTVSPropertyOp11
 70
     1
102
RTVSPropertyOp12
 70
     1
102
RTVSPropertyOp13
 70
     1
102
RTVSPropertyOp14
 70
     1
102
RTVSPropertyOp15
 70
     1
102
RTVSPropertyOp16
 70
     1
102
RTVSPropertyOp17
 70
     1
102
RTVSPropertyOp18
 70
     1
102
RTVSPropertyOp19
 70
     1
102
RTVSPropertyOp20
 70
     1
102
RTVSPropertyOp21
 70
     1
102
RTVSPropertyOp22
 70
     1
102
RTVSPropertyOp23
 70
     1
102
RTVSPropertyOp24
 70
     1
102
RTVSPropertyOp25
 70
     1
102
RTVSPropertyOp26
 70
     1
102
RTVSPropertyOp27
 70
     1
  0
XRECORD
  5
98C5
102
{ACAD_REACTORS
330
98C4
102
}
330
98C4
100
AcDbXrecord
280
     1
102
RTVSPropertyOp0
 70
     0
102
RTVSPropertyOp1
 70
     0
102
RTVSPropertyOp2
 70
     0
102
RTVSPropertyOp3
 70
     0
102
RTVSPropertyOp4
 70
     0
102
RTVSPropertyOp5
 70
     0
102
RTVSPropertyOp6
 70
     0
102
RTVSPropertyOp7
 70
     0
102
RTVSPropertyOp8
 70
     0
102
RTVSPropertyOp9
 70
     0
102
RTVSPropertyOp10
 70
     0
102
RTVSPropertyOp11
 70
     0
102
RTVSPropertyOp12
 70
     0
102
RTVSPropertyOp13
 70
     0
102
RTVSPropertyOp14
 70
     2
102
RTVSPropertyOp15
 70
     0
102
RTVSPropertyOp16
 70
     0
102
RTVSPropertyOp17
 70
     0
102
RTVSPropertyOp18
 70
     0
102
RTVSPropertyOp19
 70
     0
102
RTVSPropertyOp20
 70
     0
102
RTVSPropertyOp21
 70
     0
102
RTVSPropertyOp22
 70
     0
102
RTVSPropertyOp23
 70
     0
102
RTVSPropertyOp24
 70
     0
102
RTVSPropertyOp25
 70
     0
102
RTVSPropertyOp26
 70
     0
102
RTVSPropertyOp27
 70
     0
  0
XRECORD
  5
98B5
102
{ACAD_REACTORS
330
98B4
102
}
330
98B4
100
AcDbXrecord
280
     1
102
RTVSPropertyOp0
 70
     1
102
RTVSPropertyOp1
 70
     1
102
RTVSPropertyOp2
 70
     1
102
RTVSPropertyOp3
 70
     1
102
RTVSPropertyOp4
 70
     1
102
RTVSPropertyOp5
 70
     1
102
RTVSPropertyOp6
 70
     1
102
RTVSPropertyOp7
 70
     1
102
RTVSPropertyOp8
 70
     1
102
RTVSPropertyOp9
 70
     1
102
RTVSPropertyOp10
 70
     1
102
RTVSPropertyOp11
 70
     1
102
RTVSPropertyOp12
 70
     1
102
RTVSPropertyOp13
 70
     1
102
RTVSPropertyOp14
 70
     1
102
RTVSPropertyOp15
 70
     1
102
RTVSPropertyOp16
 70
     1
102
RTVSPropertyOp17
 70
     1
102
RTVSPropertyOp18
 70
     1
102
RTVSPropertyOp19
 70
     1
102
RTVSPropertyOp20
 70
     1
102
RTVSPropertyOp21
 70
     1
102
RTVSPropertyOp22
 70
     1
102
RTVSPropertyOp23
 70
     1
102
RTVSPropertyOp24
 70
     1
102
RTVSPropertyOp25
 70
     1
102
RTVSPropertyOp26
 70
     1
102
RTVSPropertyOp27
 70
     1
  0
XRECORD
  5
98BB
102
{ACAD_REACTORS
330
98BA
102
}
330
98BA
100
AcDbXrecord
280
     1
102
RTVSPropertyOp0
 70
     1
102
RTVSPropertyOp1
 70
     1
102
RTVSPropertyOp2
 70
     1
102
RTVSPropertyOp3
 70
     1
102
RTVSPropertyOp4
 70
     1
102
RTVSPropertyOp5
 70
     1
102
RTVSPropertyOp6
 70
     1
102
RTVSPropertyOp7
 70
     1
102
RTVSPropertyOp8
 70
     1
102
RTVSPropertyOp9
 70
     1
102
RTVSPropertyOp10
 70
     1
102
RTVSPropertyOp11
 70
     1
102
RTVSPropertyOp12
 70
     1
102
RTVSPropertyOp13
 70
     1
102
RTVSPropertyOp14
 70
     1
102
RTVSPropertyOp15
 70
     1
102
RTVSPropertyOp16
 70
     1
102
RTVSPropertyOp17
 70
     1
102
RTVSPropertyOp18
 70
     1
102
RTVSPropertyOp19
 70
     1
102
RTVSPropertyOp20
 70
     1
102
RTVSPropertyOp21
 70
     1
102
RTVSPropertyOp22
 70
     1
102
RTVSPropertyOp23
 70
     1
102
RTVSPropertyOp24
 70
     1
102
RTVSPropertyOp25
 70
     1
102
RTVSPropertyOp26
 70
     1
102
RTVSPropertyOp27
 70
     1
  0
ENDSEC
  0
EOF
