  0
SECTION
  2
HEADER
  9
$ACADVER
  1
AC1014
  9
$ACADMAINTVER
 70
     9
  9
$DWGCODEPAGE
  3
ANSI_932
  9
$INSBASE
 10
0.0
 20
0.0
 30
0.0
  9
$EXTMIN
 10
-83.96411608460175
 20
-348.6359603755261
 30
-0.0000000000112498
  9
$EXTMAX
 10
381.6321690990821
 20
112.4012519074749
 30
0.0000000000002956
  9
$LIMMIN
 10
-296.316999476111
 20
-370.7034300441653
  9
$LIMMAX
 10
623.3128432133979
 20
328.6261559379898
  9
$ORTHOMODE
 70
     0
  9
$REGENMODE
 70
     1
  9
$FILLMODE
 70
     1
  9
$QTEXTMODE
 70
     0
  9
$MIRRTEXT
 70
     1
  9
$DRAGMODE
 70
     2
  9
$LTSCALE
 40
10.0
  9
$OSMODE
 70
    37
  9
$ATTMODE
 70
     1
  9
$TEXTSIZE
 40
5.0
  9
$TRACEWID
 40
0.05
  9
$TEXTSTYLE
  7
STANDARD1
  9
$CLAYER
  8
30
  9
$CELTYPE
  6
CONTINUOUS
  9
$CECOLOR
 62
   256
  9
$CELTSCALE
 40
1.0
  9
$DELOBJ
 70
     1
  9
$DISPSILH
 70
     0
  9
$DIMSCALE
 40
1.0
  9
$DIMASZ
 40
2.0
  9
$DIMEXO
 40
1.0
  9
$DIMDLI
 40
0.5
  9
$DIMRND
 40
0.0
  9
$DIMDLE
 40
0.0
  9
$DIMEXE
 40
0.5
  9
$DIMTP
 40
0.0
  9
$DIMTM
 40
0.0
  9
$DIMTXT
 40
4.0
  9
$DIMCEN
 40
0.09
  9
$DIMTSZ
 40
0.0
  9
$DIMTOL
 70
     0
  9
$DIMLIM
 70
     0
  9
$DIMTIH
 70
     0
  9
$DIMTOH
 70
     1
  9
$DIMSE1
 70
     0
  9
$DIMSE2
 70
     0
  9
$DIMTAD
 70
     3
  9
$DIMZIN
 70
    12
  9
$DIMBLK
  1
OPEN
  9
$DIMASO
 70
     1
  9
$DIMSHO
 70
     1
  9
$DIMPOST
  1

  9
$DIMAPOST
  1

  9
$DIMALT
 70
     0
  9
$DIMALTD
 70
     2
  9
$DIMALTF
 40
25.4
  9
$DIMLFAC
 40
1.0
  9
$DIMTOFL
 70
     0
  9
$DIMTVP
 40
0.0
  9
$DIMTIX
 70
     0
  9
$DIMSOXD
 70
     0
  9
$DIMSAH
 70
     0
  9
$DIMBLK1
  1

  9
$DIMBLK2
  1

  9
$DIMSTYLE
  2
STANDARD
  9
$DIMCLRD
 70
     0
  9
$DIMCLRE
 70
     0
  9
$DIMCLRT
 70
     0
  9
$DIMTFAC
 40
1.0
  9
$DIMGAP
 40
1.0
  9
$DIMJUST
 70
     0
  9
$DIMSD1
 70
     0
  9
$DIMSD2
 70
     0
  9
$DIMTOLJ
 70
     1
  9
$DIMTZIN
 70
     0
  9
$DIMALTZ
 70
     0
  9
$DIMALTTZ
 70
     0
  9
$DIMFIT
 70
     3
  9
$DIMUPT
 70
     0
  9
$DIMUNIT
 70
     2
  9
$DIMDEC
 70
     1
  9
$DIMTDEC
 70
     1
  9
$DIMALTU
 70
     2
  9
$DIMALTTD
 70
     2
  9
$DIMTXSTY
  7
STANDARD
  9
$DIMAUNIT
 70
     0
  9
$LUNITS
 70
     2
  9
$LUPREC
 70
     4
  9
$SKETCHINC
 40
0.1
  9
$FILLETRAD
 40
0.0
  9
$AUNITS
 70
     0
  9
$AUPREC
 70
     0
  9
$MENU
  1
.
  9
$ELEVATION
 40
0.0
  9
$PELEVATION
 40
0.0
  9
$THICKNESS
 40
0.0
  9
$LIMCHECK
 70
     0
  9
$BLIPMODE
 70
     0
  9
$CHAMFERA
 40
0.0
  9
$CHAMFERB
 40
0.0
  9
$CHAMFERC
 40
0.0
  9
$CHAMFERD
 40
0.0
  9
$SKPOLY
 70
     0
  9
$TDCREATE
 40
2452286.555658657
  9
$TDUPDATE
 40
2453118.407311007
  9
$TDINDWG
 40
1.2235621759
  9
$TDUSRTIMER
 40
1.2235589120
  9
$USRTIMER
 70
     1
  9
$ANGBASE
 50
0.0
  9
$ANGDIR
 70
     0
  9
$PDMODE
 70
     0
  9
$PDSIZE
 40
0.0
  9
$PLINEWID
 40
0.0
  9
$COORDS
 70
     1
  9
$SPLFRAME
 70
     0
  9
$SPLINETYPE
 70
     6
  9
$SPLINESEGS
 70
     8
  9
$ATTDIA
 70
     0
  9
$ATTREQ
 70
     1
  9
$HANDLING
 70
 22529
  9
$HANDSEED
  5
6EBE
  9
$SURFTAB1
 70
     6
  9
$SURFTAB2
 70
     6
  9
$SURFTYPE
 70
     6
  9
$SURFU
 70
     6
  9
$SURFV
 70
     6
  9
$UCSNAME
  2

  9
$UCSORG
 10
0.0
 20
0.0
 30
0.0
  9
$UCSXDIR
 10
1.0
 20
0.0
 30
0.0
  9
$UCSYDIR
 10
0.0
 20
1.0
 30
0.0
  9
$PUCSNAME
  2

  9
$PUCSORG
 10
0.0
 20
0.0
 30
0.0
  9
$PUCSXDIR
 10
1.0
 20
0.0
 30
0.0
  9
$PUCSYDIR
 10
0.0
 20
1.0
 30
0.0
  9
$USERI1
 70
     0
  9
$USERI2
 70
     0
  9
$USERI3
 70
     0
  9
$USERI4
 70
     0
  9
$USERI5
 70
     0
  9
$USERR1
 40
0.0
  9
$USERR2
 40
0.0
  9
$USERR3
 40
0.0
  9
$USERR4
 40
0.0
  9
$USERR5
 40
0.0
  9
$WORLDVIEW
 70
     1
  9
$SHADEDGE
 70
     3
  9
$SHADEDIF
 70
    70
  9
$TILEMODE
 70
     1
  9
$MAXACTVP
 70
    48
  9
$PINSBASE
 10
0.0
 20
0.0
 30
0.0
  9
$PLIMCHECK
 70
     0
  9
$PEXTMIN
 10
4.273573
 20
5.205245999999998
 30
0.0
  9
$PEXTMAX
 10
194.610095
 20
283.0697009999996
 30
0.0
  9
$PLIMMIN
 10
-5.873749
 20
-5.87375
  9
$PLIMMAX
 10
204.099579
 20
291.1369009999999
  9
$UNITMODE
 70
     0
  9
$VISRETAIN
 70
     1
  9
$PLINEGEN
 70
     0
  9
$PSLTSCALE
 70
     1
  9
$TREEDEPTH
 70
  3020
  9
$PICKSTYLE
 70
     1
  9
$CMLSTYLE
  2
STANDARD
  9
$CMLJUST
 70
     0
  9
$CMLSCALE
 40
1.0
  9
$PROXYGRAPHICS
 70
     1
  9
$MEASUREMENT
 70
     0
  0
ENDSEC
  0
SECTION
  2
CLASSES
  0
CLASS
  1
ACDBDICTIONARYWDFLT
  2
AcDbDictionaryWithDefault
  3
AutoCAD 2000
 90
        0
280
     0
281
     0
  0
CLASS
  1
ACDBPLACEHOLDER
  2
AcDbPlaceHolder
  3
AutoCAD 2000
 90
        0
280
     0
281
     0
  0
CLASS
  1
LAYOUT
  2
AcDbLayout
  3
AutoCAD 2000
 90
        0
280
     0
281
     0
  0
CLASS
  1
LONG_TRANSACTION
  2
AcDbLongTransaction
  3
AutoCAD 2000
 90
        0
280
     0
281
     0
  0
CLASS
  1
LWPOLYLINE
  2
AcDbPolyline
  3
AutoCAD 2000
 90
        0
280
     0
281
     1
  0
CLASS
  1
HATCH
  2
AcDbHatch
  3
AutoCAD 2000
 90
        0
280
     0
281
     1
  0
CLASS
  1
XRECORD
  2
AcDbXrecord
  3
AutoCAD 2000
 90
        0
280
     0
281
     0
  0
CLASS
  1
LONG_TRANSACTION
  2
AcDbLongTransaction
  3
AutoCAD 2000
 90
        0
280
     0
281
     0
  0
CLASS
  1
LWPOLYLINE
  2
AcDbPolyline
  3
AutoCAD 2000
 90
        0
280
     0
281
     1
  0
CLASS
  1
HATCH
  2
AcDbHatch
  3
AutoCAD 2000
 90
        0
280
     0
281
     1
  0
CLASS
  1
XRECORD
  2
AcDbXrecord
  3
AutoCAD 2000
 90
        0
280
     0
281
     0
  0
CLASS
  1
LONG_TRANSACTION
  2
AcDbLongTransaction
  3
AutoCAD 2000
 90
        0
280
     0
281
     0
  0
CLASS
  1
LWPOLYLINE
  2
AcDbPolyline
  3
AutoCAD 2000
 90
        0
280
     0
281
     1
  0
CLASS
  1
HATCH
  2
AcDbHatch
  3
AutoCAD 2000
 90
        0
280
     0
281
     1
  0
CLASS
  1
XRECORD
  2
AcDbXrecord
  3
AutoCAD 2000
 90
        0
280
     0
281
     0
  0
CLASS
  1
LONG_TRANSACTION
  2
AcDbLongTransaction
  3
AutoCAD 2000
 90
        0
280
     0
281
     0
  0
CLASS
  1
LWPOLYLINE
  2
AcDbPolyline
  3
AutoCAD 2000
 90
        0
280
     0
281
     1
  0
CLASS
  1
HATCH
  2
AcDbHatch
  3
AutoCAD 2000
 90
        0
280
     0
281
     1
  0
CLASS
  1
XRECORD
  2
AcDbXrecord
  3
AutoCAD 2000
 90
        0
280
     0
281
     0
  0
CLASS
  1
LONG_TRANSACTION
  2
AcDbLongTransaction
  3
AutoCAD 2000
 90
        0
280
     0
281
     0
  0
CLASS
  1
LWPOLYLINE
  2
AcDbPolyline
  3
AutoCAD 2000
 90
        0
280
     0
281
     1
  0
CLASS
  1
HATCH
  2
AcDbHatch
  3
AutoCAD 2000
 90
        0
280
     0
281
     1
  0
CLASS
  1
XRECORD
  2
AcDbXrecord
  3
AutoCAD 2000
 90
        0
280
     0
281
     0
  0
CLASS
  1
LONG_TRANSACTION
  2
AcDbLongTransaction
  3
AutoCAD 2000
 90
        0
280
     0
281
     0
  0
CLASS
  1
LWPOLYLINE
  2
AcDbPolyline
  3
AutoCAD 2000
 90
        0
280
     0
281
     1
  0
CLASS
  1
HATCH
  2
AcDbHatch
  3
AutoCAD 2000
 90
        0
280
     0
281
     1
  0
CLASS
  1
XRECORD
  2
AcDbXrecord
  3
AutoCAD 2000
 90
        0
280
     0
281
     0
  0
CLASS
  1
LONG_TRANSACTION
  2
AcDbLongTransaction
  3
AutoCAD 2000
 90
        0
280
     0
281
     0
  0
CLASS
  1
LWPOLYLINE
  2
AcDbPolyline
  3
AutoCAD 2000
 90
        0
280
     0
281
     1
  0
CLASS
  1
HATCH
  2
AcDbHatch
  3
AutoCAD 2000
 90
        0
280
     0
281
     1
  0
CLASS
  1
XRECORD
  2
AcDbXrecord
  3
AutoCAD 2000
 90
        0
280
     0
281
     0
  0
CLASS
  1
LONG_TRANSACTION
  2
AcDbLongTransaction
  3
AutoCAD 2000
 90
        0
280
     0
281
     0
  0
CLASS
  1
LWPOLYLINE
  2
AcDbPolyline
  3
AutoCAD 2000
 90
        0
280
     0
281
     1
  0
CLASS
  1
HATCH
  2
AcDbHatch
  3
AutoCAD 2000
 90
        0
280
     0
281
     1
  0
CLASS
  1
XRECORD
  2
AcDbXrecord
  3
AutoCAD 2000
 90
        0
280
     0
281
     0
  0
CLASS
  1
LONG_TRANSACTION
  2
AcDbLongTransaction
  3
AutoCAD 2000
 90
        0
280
     0
281
     0
  0
CLASS
  1
LWPOLYLINE
  2
AcDbPolyline
  3
AutoCAD 2000
 90
        0
280
     0
281
     1
  0
CLASS
  1
HATCH
  2
AcDbHatch
  3
AutoCAD 2000
 90
        0
280
     0
281
     1
  0
CLASS
  1
XRECORD
  2
AcDbXrecord
  3
AutoCAD 2000
 90
        0
280
     0
281
     0
  0
CLASS
  1
LONG_TRANSACTION
  2
AcDbLongTransaction
  3
AutoCAD 2000
 90
        0
280
     0
281
     0
  0
CLASS
  1
LWPOLYLINE
  2
AcDbPolyline
  3
AutoCAD 2000
 90
        0
280
     0
281
     1
  0
CLASS
  1
HATCH
  2
AcDbHatch
  3
AutoCAD 2000
 90
        0
280
     0
281
     1
  0
CLASS
  1
XRECORD
  2
AcDbXrecord
  3
AutoCAD 2000
 90
        0
280
     0
281
     0
  0
CLASS
  1
LONG_TRANSACTION
  2
AcDbLongTransaction
  3
AutoCAD 2000
 90
        0
280
     0
281
     0
  0
CLASS
  1
LWPOLYLINE
  2
AcDbPolyline
  3
AutoCAD 2000
 90
        0
280
     0
281
     1
  0
CLASS
  1
HATCH
  2
AcDbHatch
  3
AutoCAD 2000
 90
        0
280
     0
281
     1
  0
CLASS
  1
XRECORD
  2
AcDbXrecord
  3
AutoCAD 2000
 90
        0
280
     0
281
     0
  0
CLASS
  1
LONG_TRANSACTION
  2
AcDbLongTransaction
  3
AutoCAD 2000
 90
        0
280
     0
281
     0
  0
CLASS
  1
LWPOLYLINE
  2
AcDbPolyline
  3
AutoCAD 2000
 90
        0
280
     0
281
     1
  0
CLASS
  1
HATCH
  2
AcDbHatch
  3
AutoCAD 2000
 90
        0
280
     0
281
     1
  0
CLASS
  1
XRECORD
  2
AcDbXrecord
  3
AutoCAD 2000
 90
        0
280
     0
281
     0
  0
CLASS
  1
LONG_TRANSACTION
  2
AcDbLongTransaction
  3
AutoCAD 2000
 90
        0
280
     0
281
     0
  0
CLASS
  1
LWPOLYLINE
  2
AcDbPolyline
  3
AutoCAD 2000
 90
        0
280
     0
281
     1
  0
CLASS
  1
HATCH
  2
AcDbHatch
  3
AutoCAD 2000
 90
        0
280
     0
281
     1
  0
CLASS
  1
XRECORD
  2
AcDbXrecord
  3
AutoCAD 2000
 90
        0
280
     0
281
     0
  0
CLASS
  1
LONG_TRANSACTION
  2
AcDbLongTransaction
  3
AutoCAD 2000
 90
        0
280
     0
281
     0
  0
CLASS
  1
LWPOLYLINE
  2
AcDbPolyline
  3
AutoCAD 2000
 90
        0
280
     0
281
     1
  0
CLASS
  1
HATCH
  2
AcDbHatch
  3
AutoCAD 2000
 90
        0
280
     0
281
     1
  0
CLASS
  1
XRECORD
  2
AcDbXrecord
  3
AutoCAD 2000
 90
        0
280
     0
281
     0
  0
CLASS
  1
LONG_TRANSACTION
  2
AcDbLongTransaction
  3
AutoCAD 2000
 90
        0
280
     0
281
     0
  0
CLASS
  1
LWPOLYLINE
  2
AcDbPolyline
  3
AutoCAD 2000
 90
        0
280
     0
281
     1
  0
CLASS
  1
HATCH
  2
AcDbHatch
  3
AutoCAD 2000
 90
        0
280
     0
281
     1
  0
CLASS
  1
XRECORD
  2
AcDbXrecord
  3
AutoCAD 2000
 90
        0
280
     0
281
     0
  0
CLASS
  1
LONG_TRANSACTION
  2
AcDbLongTransaction
  3
AutoCAD 2000
 90
        0
280
     0
281
     0
  0
CLASS
  1
LWPOLYLINE
  2
AcDbPolyline
  3
AutoCAD 2000
 90
        0
280
     0
281
     1
  0
CLASS
  1
HATCH
  2
AcDbHatch
  3
AutoCAD 2000
 90
        0
280
     0
281
     1
  0
CLASS
  1
XRECORD
  2
AcDbXrecord
  3
AutoCAD 2000
 90
        0
280
     0
281
     0
  0
CLASS
  1
LONG_TRANSACTION
  2
AcDbLongTransaction
  3
AutoCAD 2000
 90
        0
280
     0
281
     0
  0
CLASS
  1
LWPOLYLINE
  2
AcDbPolyline
  3
AutoCAD 2000
 90
        0
280
     0
281
     1
  0
CLASS
  1
HATCH
  2
AcDbHatch
  3
AutoCAD 2000
 90
        0
280
     0
281
     1
  0
CLASS
  1
XRECORD
  2
AcDbXrecord
  3
AutoCAD 2000
 90
        0
280
     0
281
     0
  0
CLASS
  1
LONG_TRANSACTION
  2
AcDbLongTransaction
  3
AutoCAD 2000
 90
        0
280
     0
281
     0
  0
CLASS
  1
LWPOLYLINE
  2
AcDbPolyline
  3
AutoCAD 2000
 90
        0
280
     0
281
     1
  0
CLASS
  1
HATCH
  2
AcDbHatch
  3
AutoCAD 2000
 90
        0
280
     0
281
     1
  0
CLASS
  1
XRECORD
  2
AcDbXrecord
  3
AutoCAD 2000
 90
        0
280
     0
281
     0
  0
CLASS
  1
LONG_TRANSACTION
  2
AcDbLongTransaction
  3
AutoCAD 2000
 90
        0
280
     0
281
     0
  0
CLASS
  1
LWPOLYLINE
  2
AcDbPolyline
  3
AutoCAD 2000
 90
        0
280
     0
281
     1
  0
CLASS
  1
HATCH
  2
AcDbHatch
  3
AutoCAD 2000
 90
        0
280
     0
281
     1
  0
CLASS
  1
XRECORD
  2
AcDbXrecord
  3
AutoCAD 2000
 90
        0
280
     0
281
     0
  0
CLASS
  1
LONG_TRANSACTION
  2
AcDbLongTransaction
  3
AutoCAD 2000
 90
        0
280
     0
281
     0
  0
CLASS
  1
LWPOLYLINE
  2
AcDbPolyline
  3
AutoCAD 2000
 90
        0
280
     0
281
     1
  0
CLASS
  1
HATCH
  2
AcDbHatch
  3
AutoCAD 2000
 90
        0
280
     0
281
     1
  0
CLASS
  1
XRECORD
  2
AcDbXrecord
  3
AutoCAD 2000
 90
        0
280
     0
281
     0
  0
CLASS
  1
LONG_TRANSACTION
  2
AcDbLongTransaction
  3
AutoCAD 2000
 90
        0
280
     0
281
     0
  0
CLASS
  1
LWPOLYLINE
  2
AcDbPolyline
  3
AutoCAD 2000
 90
        0
280
     0
281
     1
  0
CLASS
  1
HATCH
  2
AcDbHatch
  3
AutoCAD 2000
 90
        0
280
     0
281
     1
  0
CLASS
  1
XRECORD
  2
AcDbXrecord
  3
AutoCAD 2000
 90
        0
280
     0
281
     0
  0
CLASS
  1
LONG_TRANSACTION
  2
AcDbLongTransaction
  3
AutoCAD 2000
 90
        0
280
     0
281
     0
  0
CLASS
  1
LWPOLYLINE
  2
AcDbPolyline
  3
AutoCAD 2000
 90
        0
280
     0
281
     1
  0
CLASS
  1
HATCH
  2
AcDbHatch
  3
AutoCAD 2000
 90
        0
280
     0
281
     1
  0
CLASS
  1
XRECORD
  2
AcDbXrecord
  3
AutoCAD 2000
 90
        0
280
     0
281
     0
  0
CLASS
  1
LONG_TRANSACTION
  2
AcDbLongTransaction
  3
AutoCAD 2000
 90
        0
280
     0
281
     0
  0
CLASS
  1
LWPOLYLINE
  2
AcDbPolyline
  3
AutoCAD 2000
 90
        0
280
     0
281
     1
  0
CLASS
  1
HATCH
  2
AcDbHatch
  3
AutoCAD 2000
 90
        0
280
     0
281
     1
  0
CLASS
  1
XRECORD
  2
AcDbXrecord
  3
AutoCAD 2000
 90
        0
280
     0
281
     0
  0
CLASS
  1
LONG_TRANSACTION
  2
AcDbLongTransaction
  3
AutoCAD 2000
 90
        0
280
     0
281
     0
  0
CLASS
  1
LWPOLYLINE
  2
AcDbPolyline
  3
AutoCAD 2000
 90
        0
280
     0
281
     1
  0
CLASS
  1
HATCH
  2
AcDbHatch
  3
AutoCAD 2000
 90
        0
280
     0
281
     1
  0
CLASS
  1
XRECORD
  2
AcDbXrecord
  3
AutoCAD 2000
 90
        0
280
     0
281
     0
  0
CLASS
  1
LONG_TRANSACTION
  2
AcDbLongTransaction
  3
AutoCAD 2000
 90
        0
280
     0
281
     0
  0
CLASS
  1
LWPOLYLINE
  2
AcDbPolyline
  3
AutoCAD 2000
 90
        0
280
     0
281
     1
  0
CLASS
  1
HATCH
  2
AcDbHatch
  3
AutoCAD 2000
 90
        0
280
     0
281
     1
  0
CLASS
  1
XRECORD
  2
AcDbXrecord
  3
AutoCAD 2000
 90
        0
280
     0
281
     0
  0
CLASS
  1
LONG_TRANSACTION
  2
AcDbLongTransaction
  3
AutoCAD 2000
 90
        0
280
     0
281
     0
  0
CLASS
  1
LWPOLYLINE
  2
AcDbPolyline
  3
AutoCAD 2000
 90
        0
280
     0
281
     1
  0
CLASS
  1
HATCH
  2
AcDbHatch
  3
AutoCAD 2000
 90
        0
280
     0
281
     1
  0
CLASS
  1
XRECORD
  2
AcDbXrecord
  3
AutoCAD 2000
 90
        0
280
     0
281
     0
  0
CLASS
  1
LONG_TRANSACTION
  2
AcDbLongTransaction
  3
AutoCAD 2000
 90
        0
280
     0
281
     0
  0
CLASS
  1
LWPOLYLINE
  2
AcDbPolyline
  3
AutoCAD 2000
 90
        0
280
     0
281
     1
  0
CLASS
  1
HATCH
  2
AcDbHatch
  3
AutoCAD 2000
 90
        0
280
     0
281
     1
  0
CLASS
  1
XRECORD
  2
AcDbXrecord
  3
AutoCAD 2000
 90
        0
280
     0
281
     0
  0
CLASS
  1
LONG_TRANSACTION
  2
AcDbLongTransaction
  3
AutoCAD 2000
 90
        0
280
     0
281
     0
  0
CLASS
  1
LWPOLYLINE
  2
AcDbPolyline
  3
AutoCAD 2000
 90
        0
280
     0
281
     1
  0
CLASS
  1
HATCH
  2
AcDbHatch
  3
AutoCAD 2000
 90
        0
280
     0
281
     1
  0
CLASS
  1
XRECORD
  2
AcDbXrecord
  3
AutoCAD 2000
 90
        0
280
     0
281
     0
  0
CLASS
  1
LONG_TRANSACTION
  2
AcDbLongTransaction
  3
AutoCAD 2000
 90
        0
280
     0
281
     0
  0
CLASS
  1
LWPOLYLINE
  2
AcDbPolyline
  3
AutoCAD 2000
 90
        0
280
     0
281
     1
  0
CLASS
  1
HATCH
  2
AcDbHatch
  3
AutoCAD 2000
 90
        0
280
     0
281
     1
  0
CLASS
  1
XRECORD
  2
AcDbXrecord
  3
AutoCAD 2000
 90
        0
280
     0
281
     0
  0
CLASS
  1
LONG_TRANSACTION
  2
AcDbLongTransaction
  3
AutoCAD 2000
 90
        0
280
     0
281
     0
  0
CLASS
  1
LWPOLYLINE
  2
AcDbPolyline
  3
AutoCAD 2000
 90
        0
280
     0
281
     1
  0
CLASS
  1
HATCH
  2
AcDbHatch
  3
AutoCAD 2000
 90
        0
280
     0
281
     1
  0
CLASS
  1
XRECORD
  2
AcDbXrecord
  3
AutoCAD 2000
 90
        0
280
     0
281
     0
  0
CLASS
  1
LONG_TRANSACTION
  2
AcDbLongTransaction
  3
AutoCAD 2000
 90
        0
280
     0
281
     0
  0
CLASS
  1
LWPOLYLINE
  2
AcDbPolyline
  3
AutoCAD 2000
 90
        0
280
     0
281
     1
  0
CLASS
  1
HATCH
  2
AcDbHatch
  3
AutoCAD 2000
 90
        0
280
     0
281
     1
  0
CLASS
  1
XRECORD
  2
AcDbXrecord
  3
AutoCAD 2000
 90
        0
280
     0
281
     0
  0
CLASS
  1
LONG_TRANSACTION
  2
AcDbLongTransaction
  3
AutoCAD 2000
 90
        0
280
     0
281
     0
  0
CLASS
  1
LWPOLYLINE
  2
AcDbPolyline
  3
AutoCAD 2000
 90
        0
280
     0
281
     1
  0
CLASS
  1
HATCH
  2
AcDbHatch
  3
AutoCAD 2000
 90
        0
280
     0
281
     1
  0
CLASS
  1
XRECORD
  2
AcDbXrecord
  3
AutoCAD 2000
 90
        0
280
     0
281
     0
  0
CLASS
  1
LONG_TRANSACTION
  2
AcDbLongTransaction
  3
AutoCAD 2000
 90
        0
280
     0
281
     0
  0
CLASS
  1
LWPOLYLINE
  2
AcDbPolyline
  3
AutoCAD 2000
 90
        0
280
     0
281
     1
  0
CLASS
  1
HATCH
  2
AcDbHatch
  3
AutoCAD 2000
 90
        0
280
     0
281
     1
  0
CLASS
  1
XRECORD
  2
AcDbXrecord
  3
AutoCAD 2000
 90
        0
280
     0
281
     0
  0
CLASS
  1
DICTIONARYVAR
  2
AcDbDictionaryVar
  3
AutoCAD 2000
 90
        0
280
     0
281
     0
  0
CLASS
  1
LONG_TRANSACTION
  2
AcDbLongTransaction
  3
AutoCAD 2000
 90
        0
280
     0
281
     0
  0
CLASS
  1
LWPOLYLINE
  2
AcDbPolyline
  3
AutoCAD 2000
 90
        0
280
     0
281
     1
  0
CLASS
  1
HATCH
  2
AcDbHatch
  3
AutoCAD 2000
 90
        0
280
     0
281
     1
  0
CLASS
  1
XRECORD
  2
AcDbXrecord
  3
AutoCAD 2000
 90
        0
280
     0
281
     0
  0
CLASS
  1
LONG_TRANSACTION
  2
AcDbLongTransaction
  3
AutoCAD 2000
 90
        0
280
     0
281
     0
  0
CLASS
  1
LWPOLYLINE
  2
AcDbPolyline
  3
AutoCAD 2000
 90
        0
280
     0
281
     1
  0
CLASS
  1
HATCH
  2
AcDbHatch
  3
AutoCAD 2000
 90
        0
280
     0
281
     1
  0
CLASS
  1
XRECORD
  2
AcDbXrecord
  3
AutoCAD 2000
 90
        0
280
     0
281
     0
  0
CLASS
  1
LONG_TRANSACTION
  2
AcDbLongTransaction
  3
AutoCAD 2000
 90
        0
280
     0
281
     0
  0
CLASS
  1
LWPOLYLINE
  2
AcDbPolyline
  3
AutoCAD 2000
 90
        0
280
     0
281
     1
  0
CLASS
  1
HATCH
  2
AcDbHatch
  3
AutoCAD 2000
 90
        0
280
     0
281
     1
  0
CLASS
  1
XRECORD
  2
AcDbXrecord
  3
AutoCAD 2000
 90
        0
280
     0
281
     0
  0
CLASS
  1
LONG_TRANSACTION
  2
AcDbLongTransaction
  3
AutoCAD 2000
 90
        0
280
     0
281
     0
  0
CLASS
  1
LWPOLYLINE
  2
AcDbPolyline
  3
AutoCAD 2000
 90
        0
280
     0
281
     1
  0
CLASS
  1
HATCH
  2
AcDbHatch
  3
AutoCAD 2000
 90
        0
280
     0
281
     1
  0
CLASS
  1
XRECORD
  2
AcDbXrecord
  3
AutoCAD 2000
 90
        0
280
     0
281
     0
  0
CLASS
  1
LONG_TRANSACTION
  2
AcDbLongTransaction
  3
AutoCAD 2000
 90
        0
280
     0
281
     0
  0
CLASS
  1
LWPOLYLINE
  2
AcDbPolyline
  3
AutoCAD 2000
 90
        0
280
     0
281
     1
  0
CLASS
  1
HATCH
  2
AcDbHatch
  3
AutoCAD 2000
 90
        0
280
     0
281
     1
  0
CLASS
  1
XRECORD
  2
AcDbXrecord
  3
AutoCAD 2000
 90
        0
280
     0
281
     0
  0
CLASS
  1
LONG_TRANSACTION
  2
AcDbLongTransaction
  3
AutoCAD 2000
 90
        0
280
     0
281
     0
  0
CLASS
  1
LWPOLYLINE
  2
AcDbPolyline
  3
AutoCAD 2000
 90
        0
280
     0
281
     1
  0
CLASS
  1
HATCH
  2
AcDbHatch
  3
AutoCAD 2000
 90
        0
280
     0
281
     1
  0
CLASS
  1
XRECORD
  2
AcDbXrecord
  3
AutoCAD 2000
 90
        0
280
     0
281
     0
  0
CLASS
  1
LONG_TRANSACTION
  2
AcDbLongTransaction
  3
AutoCAD 2000
 90
        0
280
     0
281
     0
  0
CLASS
  1
LWPOLYLINE
  2
AcDbPolyline
  3
AutoCAD 2000
 90
        0
280
     0
281
     1
  0
CLASS
  1
HATCH
  2
AcDbHatch
  3
AutoCAD 2000
 90
        0
280
     0
281
     1
  0
CLASS
  1
XRECORD
  2
AcDbXrecord
  3
AutoCAD 2000
 90
        0
280
     0
281
     0
  0
CLASS
  1
LONG_TRANSACTION
  2
AcDbLongTransaction
  3
AutoCAD 2000
 90
        0
280
     0
281
     0
  0
CLASS
  1
LWPOLYLINE
  2
AcDbPolyline
  3
AutoCAD 2000
 90
        0
280
     0
281
     1
  0
CLASS
  1
HATCH
  2
AcDbHatch
  3
AutoCAD 2000
 90
        0
280
     0
281
     1
  0
CLASS
  1
XRECORD
  2
AcDbXrecord
  3
AutoCAD 2000
 90
        0
280
     0
281
     0
  0
CLASS
  1
LONG_TRANSACTION
  2
AcDbLongTransaction
  3
AutoCAD 2000
 90
        0
280
     0
281
     0
  0
CLASS
  1
LWPOLYLINE
  2
AcDbPolyline
  3
AutoCAD 2000
 90
        0
280
     0
281
     1
  0
CLASS
  1
HATCH
  2
AcDbHatch
  3
AutoCAD 2000
 90
        0
280
     0
281
     1
  0
CLASS
  1
XRECORD
  2
AcDbXrecord
  3
AutoCAD 2000
 90
        0
280
     0
281
     0
  0
CLASS
  1
LONG_TRANSACTION
  2
AcDbLongTransaction
  3
AutoCAD 2000
 90
        0
280
     0
281
     0
  0
CLASS
  1
LWPOLYLINE
  2
AcDbPolyline
  3
AutoCAD 2000
 90
        0
280
     0
281
     1
  0
CLASS
  1
HATCH
  2
AcDbHatch
  3
AutoCAD 2000
 90
        0
280
     0
281
     1
  0
CLASS
  1
XRECORD
  2
AcDbXrecord
  3
AutoCAD 2000
 90
        0
280
     0
281
     0
  0
CLASS
  1
LONG_TRANSACTION
  2
AcDbLongTransaction
  3
AutoCAD 2000
 90
        0
280
     0
281
     0
  0
CLASS
  1
LWPOLYLINE
  2
AcDbPolyline
  3
AutoCAD 2000
 90
        0
280
     0
281
     1
  0
CLASS
  1
HATCH
  2
AcDbHatch
  3
AutoCAD 2000
 90
        0
280
     0
281
     1
  0
CLASS
  1
XRECORD
  2
AcDbXrecord
  3
AutoCAD 2000
 90
        0
280
     0
281
     0
  0
CLASS
  1
LONG_TRANSACTION
  2
AcDbLongTransaction
  3
AutoCAD 2000
 90
        0
280
     0
281
     0
  0
CLASS
  1
LWPOLYLINE
  2
AcDbPolyline
  3
AutoCAD 2000
 90
        0
280
     0
281
     1
  0
CLASS
  1
HATCH
  2
AcDbHatch
  3
AutoCAD 2000
 90
        0
280
     0
281
     1
  0
CLASS
  1
XRECORD
  2
AcDbXrecord
  3
AutoCAD 2000
 90
        0
280
     0
281
     0
  0
CLASS
  1
LONG_TRANSACTION
  2
AcDbLongTransaction
  3
AutoCAD 2000
 90
        0
280
     0
281
     0
  0
CLASS
  1
LWPOLYLINE
  2
AcDbPolyline
  3
AutoCAD 2000
 90
        0
280
     0
281
     1
  0
CLASS
  1
HATCH
  2
AcDbHatch
  3
AutoCAD 2000
 90
        0
280
     0
281
     1
  0
CLASS
  1
XRECORD
  2
AcDbXrecord
  3
AutoCAD 2000
 90
        0
280
     0
281
     0
  0
CLASS
  1
LONG_TRANSACTION
  2
AcDbLongTransaction
  3
AutoCAD 2000
 90
        0
280
     0
281
     0
  0
CLASS
  1
LWPOLYLINE
  2
AcDbPolyline
  3
AutoCAD 2000
 90
        0
280
     0
281
     1
  0
CLASS
  1
HATCH
  2
AcDbHatch
  3
AutoCAD 2000
 90
        0
280
     0
281
     1
  0
CLASS
  1
XRECORD
  2
AcDbXrecord
  3
AutoCAD 2000
 90
        0
280
     0
281
     0
  0
CLASS
  1
LONG_TRANSACTION
  2
AcDbLongTransaction
  3
AutoCAD 2000
 90
        0
280
     0
281
     0
  0
CLASS
  1
LWPOLYLINE
  2
AcDbPolyline
  3
AutoCAD 2000
 90
        0
280
     0
281
     1
  0
CLASS
  1
HATCH
  2
AcDbHatch
  3
AutoCAD 2000
 90
        0
280
     0
281
     1
  0
CLASS
  1
XRECORD
  2
AcDbXrecord
  3
AutoCAD 2000
 90
        0
280
     0
281
     0
  0
ENDSEC
  0
SECTION
  2
TABLES
  0
TABLE
  2
VPORT
  5
8
330
0
100
AcDbSymbolTable
 70
     2
  0
VPORT
  5
6E9A
330
8
100
AcDbSymbolTableRecord
100
AcDbViewportTableRecord
  2
*ACTIVE
 70
     0
 10
0.0
 20
0.0
 11
1.0
 21
1.0
 12
148.8340265072402
 22
-118.1173542340255
 13
0.0
 23
0.0
 14
1.0
 24
1.0
 15
10.0
 25
10.0
 16
0.0
 26
0.0
 36
1.0
 17
0.0
 27
0.0
 37
0.0
 40
467.3098274161031
 41
1.7
 42
50.0
 43
0.0
 44
0.0
 50
0.0
 51
0.0
 71
     0
 72
   100
 73
     1
 74
     1
 75
     0
 76
     0
 77
     0
 78
     0
  0
ENDTAB
  0
TABLE
  2
LTYPE
  5
5
330
0
100
AcDbSymbolTable
 70
     6
  0
LTYPE
  5
13
330
5
100
AcDbSymbolTableRecord
100
AcDbLinetypeTableRecord
  2
BYBLOCK
 70
     0
  3

 72
    65
 73
     0
 40
0.0
  0
LTYPE
  5
14
330
5
100
AcDbSymbolTableRecord
100
AcDbLinetypeTableRecord
  2
BYLAYER
 70
     0
  3

 72
    65
 73
     0
 40
0.0
  0
LTYPE
  5
15
330
5
100
AcDbSymbolTableRecord
100
AcDbLinetypeTableRecord
  2
CONTINUOUS
 70
     0
  3
Solid line
 72
    65
 73
     0
 40
0.0
  0
LTYPE
  5
22
330
5
100
AcDbSymbolTableRecord
100
AcDbLinetypeTableRecord
  2
CONTINOUS
 70
     0
  3
Solid line
 72
    65
 73
     0
 40
0.0
  0
LTYPE
  5
23
330
5
100
AcDbSymbolTableRecord
100
AcDbLinetypeTableRecord
  2
DASHED
 70
     0
  3
__ __ __ __ __ __ __ __ __ __ __ __ __ __ __
 72
    65
 73
     2
 40
0.75
 49
0.5
 74
     0
 49
-0.25
 74
     0
  0
LTYPE
  5
24
330
5
100
AcDbSymbolTableRecord
100
AcDbLinetypeTableRecord
  2
DASHDOT
 70
     0
  3
__ . __ . __ . __ . __ . __ . __ . __ . __ . __
 72
    65
 73
     4
 40
1.0
 49
0.5
 74
     0
 49
-0.25
 74
     0
 49
0.0
 74
     0
 49
-0.25
 74
     0
  0
LTYPE
  5
4C47
330
5
100
AcDbSymbolTableRecord
100
AcDbLinetypeTableRecord
  2
DIVIDE
 70
     0
  3
Divide ____ . . ____ . . ____ . . ____ . . ____
 72
    65
 73
     6
 40
1.25
 49
0.5
 74
     0
 49
-0.25
 74
     0
 49
0.0
 74
     0
 49
-0.25
 74
     0
 49
0.0
 74
     0
 49
-0.25
 74
     0
  0
LTYPE
  5
6A3B
330
5
100
AcDbSymbolTableRecord
100
AcDbLinetypeTableRecord
  2
CENTER
 70
     0
  3
Center ____ _ ____ _ ____ _ ____ _ ____ _ ____
 72
    65
 73
     4
 40
50.8
 49
31.75
 74
     0
 49
-6.349999999999997
 74
     0
 49
6.349999999999997
 74
     0
 49
-6.349999999999997
 74
     0
  0
ENDTAB
  0
TABLE
  2
LAYER
  5
2
330
0
100
AcDbSymbolTable
 70
    14
  0
LAYER
  5
10
330
2
100
AcDbSymbolTableRecord
100
AcDbLayerTableRecord
  2
0
 70
     0
 62
     7
  6
CONTINOUS
  0
LAYER
  5
2F
330
2
100
AcDbSymbolTableRecord
100
AcDbLayerTableRecord
  2
10
 70
     0
 62
     4
  6
CONTINOUS
  0
LAYER
  5
31
330
2
100
AcDbSymbolTableRecord
100
AcDbLayerTableRecord
  2
12
 70
     0
 62
     3
  6
CONTINOUS
  0
LAYER
  5
35
330
2
100
AcDbSymbolTableRecord
100
AcDbLayerTableRecord
  2
16
 70
     0
 62
     6
  6
DASHDOT
  0
LAYER
  5
38
330
2
100
AcDbSymbolTableRecord
100
AcDbLayerTableRecord
  2
19
 70
     0
 62
     7
  6
CONTINOUS
  0
LAYER
  5
3C
330
2
100
AcDbSymbolTableRecord
100
AcDbLayerTableRecord
  2
11
 70
     0
 62
     1
  6
CONTINOUS
  0
LAYER
  5
3D
330
2
100
AcDbSymbolTableRecord
100
AcDbLayerTableRecord
  2
24
 70
     0
 62
     2
  6
CONTINOUS
  0
LAYER
  5
3A2
330
2
100
AcDbSymbolTableRecord
100
AcDbLayerTableRecord
  2
30
 70
     0
 62
     9
  6
CONTINUOUS
  0
LAYER
  5
3A4
330
2
100
AcDbSymbolTableRecord
100
AcDbLayerTableRecord
  2
DEFPOINTS
 70
     0
 62
     7
  6
CONTINUOUS
  0
LAYER
  5
3BBA
330
2
100
AcDbSymbolTableRecord
100
AcDbLayerTableRecord
  2
18
 70
     0
 62
     5
  6
DIVIDE
  0
LAYER
  5
6A3D
330
2
100
AcDbSymbolTableRecord
100
AcDbLayerTableRecord
  2
43
 70
     0
 62
     6
  6
CONTINUOUS
  0
LAYER
  5
6A3E
330
2
100
AcDbSymbolTableRecord
100
AcDbLayerTableRecord
  2
44
 70
     0
 62
     3
  6
CONTINUOUS
  0
LAYER
  5
6A3F
330
2
100
AcDbSymbolTableRecord
100
AcDbLayerTableRecord
  2
48
 70
     0
 62
     6
  6
CENTER
  0
LAYER
  5
6C46
330
2
100
AcDbSymbolTableRecord
100
AcDbLayerTableRecord
  2
FF
 70
     0
 62
     4
  6
CONTINUOUS
  0
ENDTAB
  0
TABLE
  2
STYLE
  5
3
330
0
100
AcDbSymbolTable
 70
     3
  0
STYLE
  5
11
330
3
100
AcDbSymbolTableRecord
100
AcDbTextStyleTableRecord
  2
STANDARD
 70
     0
 40
0.0
 41
1.0
 50
0.0
 71
     0
 42
2.0
  3
txt.shx
  4
bigfont.shx
  0
STYLE
  5
42
330
3
100
AcDbSymbolTableRecord
100
AcDbTextStyleTableRecord
  2
STANDARD1
 70
     0
 40
0.0
 41
1.0
 50
0.0
 71
     0
 42
5.0
  3
MONOTXT
  4
BIGFONT
  0
STYLE
  5
63A9
330
3
100
AcDbSymbolTableRecord
100
AcDbTextStyleTableRecord
  2
MOJI
 70
     0
 40
0.0
 41
1.0
 50
0.0
 71
     0
 42
2.5
  3
txt.shx
  4
bigfont.shx
  0
ENDTAB
  0
TABLE
  2
VIEW
  5
6
330
0
100
AcDbSymbolTable
 70
     3
  0
VIEW
  5
230C
330
6
100
AcDbSymbolTableRecord
100
AcDbViewTableRecord
  2
OLE1
 70
     0
 40
148.912488
 10
429.497628
 20
2.560627
 41
103.145806
 11
0.0
 21
0.0
 31
1.0
 12
0.0
 22
0.0
 32
0.0
 42
50.0
 43
0.0
 44
0.0
 50
0.0
 71
     0
  0
VIEW
  5
230E
330
6
100
AcDbSymbolTableRecord
100
AcDbViewTableRecord
  2
OLE2
 70
     0
 40
170.778692
 10
322.66497
 20
-5.978304
 41
102.467215
 11
0.0
 21
0.0
 31
1.0
 12
0.0
 22
0.0
 32
0.0
 42
50.0
 43
0.0
 44
0.0
 50
0.0
 71
     0
  0
VIEW
  5
23AA
330
6
100
AcDbSymbolTableRecord
100
AcDbViewTableRecord
  2
OLE3
 70
     0
 40
591.7897389999998
 10
84.79698199999999
 20
-46.09335999999998
 41
388.792096
 11
0.0
 21
0.0
 31
1.0
 12
0.0
 22
0.0
 32
0.0
 42
50.0
 43
0.0
 44
0.0
 50
0.0
 71
     0
  0
ENDTAB
  0
TABLE
  2
UCS
  5
7
330
0
100
AcDbSymbolTable
 70
     0
  0
ENDTAB
  0
TABLE
  2
APPID
  5
9
330
0
100
AcDbSymbolTable
 70
     2
  0
APPID
  5
12
330
9
100
AcDbSymbolTableRecord
100
AcDbRegAppTableRecord
  2
ACAD
 70
     0
  0
APPID
  5
ECD
330
9
100
AcDbSymbolTableRecord
100
AcDbRegAppTableRecord
  2
CONTENTBLOCKICON
 70
     0
  0
ENDTAB
  0
TABLE
  2
DIMSTYLE
  5
A
330
0
100
AcDbSymbolTable
 70
     2
  0
DIMSTYLE
105
175
102
{ACAD_REACTORS
330
673E
330
67A5
330
679B
330
6661
330
6614
330
6613
330
661F
330
6610
330
6612
330
6611
330
6620
330
641A
330
6477
330
6470
330
6419
330
6441
330
644A
330
6425
330
641C
330
641B
330
6438
330
679A
330
6CF0
330
6CBA
330
6CC3
330
6CBB
330
6CC7
330
6CDD
102
}
330
A
100
AcDbSymbolTableRecord
100
AcDbDimStyleTableRecord
  2
STANDARD
 70
     0
  3

  4

  5
OPEN
  6

  7

 40
1.0
 41
2.0
 42
1.0
 43
0.5
 44
0.5
 45
0.0
 46
0.0
 47
0.0
 48
0.0
140
4.0
141
0.09
142
0.0
143
25.4
144
1.0
145
0.0
146
1.0
147
1.0
 71
     0
 72
     0
 73
     0
 74
     1
 75
     0
 76
     0
 77
     3
 78
    12
170
     0
171
     2
172
     0
173
     0
174
     0
175
     0
176
     0
177
     0
178
     0
270
     2
271
     1
272
     1
273
     2
274
     2
340
11
275
     0
280
     0
281
     0
282
     0
283
     1
284
     0
285
     0
286
     0
287
     3
288
     0
  0
DIMSTYLE
105
63AA
330
A
100
AcDbSymbolTableRecord
100
AcDbDimStyleTableRecord
  2
FSTD1
 70
     0
  3

  4

  5

  6
OPEN30
  7
OPEN30
 40
1.0
 41
5.0
 42
1.5
 43
3.75
 44
1.5
 45
0.0
 46
0.0
 47
0.0
 48
0.0
140
5.0
141
2.5
142
0.0
143
0.0394
144
1.0
145
0.0
146
1.0
147
1.5
 71
     0
 72
     0
 73
     0
 74
     0
 75
     0
 76
     0
 77
     1
 78
     8
170
     0
171
     4
172
     1
173
     1
174
     0
175
     0
176
     0
177
     0
178
     0
270
     2
271
     4
272
     4
273
     2
274
     4
340
11
275
     0
280
     0
281
     0
282
     0
283
     1
284
     8
285
     8
286
     8
287
     3
288
     0
  0
ENDTAB
  0
TABLE
  2
BLOCK_RECORD
  5
1
330
0
100
AcDbSymbolTable
 70
    39
  0
BLOCK_RECORD
  5
1E
102
{ACAD_XDICTIONARY
360
178
102
}
330
1
100
AcDbSymbolTableRecord
100
AcDbBlockTableRecord
  2
*MODEL_SPACE
  0
BLOCK_RECORD
  5
1A
102
{ACAD_XDICTIONARY
360
17A
102
}
330
1
100
AcDbSymbolTableRecord
100
AcDbBlockTableRecord
  2
*PAPER_SPACE
  0
BLOCK_RECORD
  5
3B2
330
1
100
AcDbSymbolTableRecord
100
AcDbBlockTableRecord
  2
_OPEN
  0
BLOCK_RECORD
  5
632C
330
1
100
AcDbSymbolTableRecord
100
AcDbBlockTableRecord
  2
_OPEN30
  0
BLOCK_RECORD
  5
6481
330
1
100
AcDbSymbolTableRecord
100
AcDbBlockTableRecord
  2
*D2
  0
BLOCK_RECORD
  5
648D
330
1
100
AcDbSymbolTableRecord
100
AcDbBlockTableRecord
  2
*D3
  0
BLOCK_RECORD
  5
6499
330
1
100
AcDbSymbolTableRecord
100
AcDbBlockTableRecord
  2
*D4
  0
BLOCK_RECORD
  5
64A5
330
1
100
AcDbSymbolTableRecord
100
AcDbBlockTableRecord
  2
*D5
  0
BLOCK_RECORD
  5
64B1
330
1
100
AcDbSymbolTableRecord
100
AcDbBlockTableRecord
  2
*D6
  0
BLOCK_RECORD
  5
64BD
330
1
100
AcDbSymbolTableRecord
100
AcDbBlockTableRecord
  2
*D7
  0
BLOCK_RECORD
  5
64C9
330
1
100
AcDbSymbolTableRecord
100
AcDbBlockTableRecord
  2
*D8
  0
BLOCK_RECORD
  5
64D3
330
1
100
AcDbSymbolTableRecord
100
AcDbBlockTableRecord
  2
*D9
  0
BLOCK_RECORD
  5
64DF
330
1
100
AcDbSymbolTableRecord
100
AcDbBlockTableRecord
  2
*D10
  0
BLOCK_RECORD
  5
64EB
330
1
100
AcDbSymbolTableRecord
100
AcDbBlockTableRecord
  2
*D11
  0
BLOCK_RECORD
  5
6667
330
1
100
AcDbSymbolTableRecord
100
AcDbBlockTableRecord
  2
*D12
  0
BLOCK_RECORD
  5
6673
330
1
100
AcDbSymbolTableRecord
100
AcDbBlockTableRecord
  2
*D13
  0
BLOCK_RECORD
  5
667F
330
1
100
AcDbSymbolTableRecord
100
AcDbBlockTableRecord
  2
*D14
  0
BLOCK_RECORD
  5
668B
330
1
100
AcDbSymbolTableRecord
100
AcDbBlockTableRecord
  2
*D15
  0
BLOCK_RECORD
  5
6697
330
1
100
AcDbSymbolTableRecord
100
AcDbBlockTableRecord
  2
*D16
  0
BLOCK_RECORD
  5
66A3
330
1
100
AcDbSymbolTableRecord
100
AcDbBlockTableRecord
  2
*D17
  0
BLOCK_RECORD
  5
66B1
330
1
100
AcDbSymbolTableRecord
100
AcDbBlockTableRecord
  2
*D18
  0
BLOCK_RECORD
  5
66BF
330
1
100
AcDbSymbolTableRecord
100
AcDbBlockTableRecord
  2
*D19
  0
BLOCK_RECORD
  5
674F
330
1
100
AcDbSymbolTableRecord
100
AcDbBlockTableRecord
  2
*D20
  0
BLOCK_RECORD
  5
67AB
330
1
100
AcDbSymbolTableRecord
100
AcDbBlockTableRecord
  2
*D21
  0
BLOCK_RECORD
  5
67B4
330
1
100
AcDbSymbolTableRecord
100
AcDbBlockTableRecord
  2
*D22
  0
BLOCK_RECORD
  5
67C0
330
1
100
AcDbSymbolTableRecord
100
AcDbBlockTableRecord
  2
*D23
  0
BLOCK_RECORD
  5
6A60
330
1
100
AcDbSymbolTableRecord
100
AcDbBlockTableRecord
  2
*D24
  0
BLOCK_RECORD
  5
6A6B
330
1
100
AcDbSymbolTableRecord
100
AcDbBlockTableRecord
  2
*D25
  0
BLOCK_RECORD
  5
6A79
330
1
100
AcDbSymbolTableRecord
100
AcDbBlockTableRecord
  2
*D26
  0
BLOCK_RECORD
  5
6BFA
330
1
100
AcDbSymbolTableRecord
100
AcDbBlockTableRecord
  2
*D27
  0
BLOCK_RECORD
  5
6C07
330
1
100
AcDbSymbolTableRecord
100
AcDbBlockTableRecord
  2
*D28
  0
BLOCK_RECORD
  5
6C12
330
1
100
AcDbSymbolTableRecord
100
AcDbBlockTableRecord
  2
*D29
  0
BLOCK_RECORD
  5
6C20
330
1
100
AcDbSymbolTableRecord
100
AcDbBlockTableRecord
  2
*D30
  0
BLOCK_RECORD
  5
6C2C
330
1
100
AcDbSymbolTableRecord
100
AcDbBlockTableRecord
  2
*D31
  0
BLOCK_RECORD
  5
6C3A
330
1
100
AcDbSymbolTableRecord
100
AcDbBlockTableRecord
  2
*D32
  0
BLOCK_RECORD
  5
6D27
330
1
100
AcDbSymbolTableRecord
100
AcDbBlockTableRecord
  2
*D33
  0
BLOCK_RECORD
  5
6D35
330
1
100
AcDbSymbolTableRecord
100
AcDbBlockTableRecord
  2
*D34
  0
BLOCK_RECORD
  5
6D41
330
1
100
AcDbSymbolTableRecord
100
AcDbBlockTableRecord
  2
*D35
  0
BLOCK_RECORD
  5
6D4C
330
1
100
AcDbSymbolTableRecord
100
AcDbBlockTableRecord
  2
*D36
  0
BLOCK_RECORD
  5
6D5A
330
1
100
AcDbSymbolTableRecord
100
AcDbBlockTableRecord
  2
*D37
  0
BLOCK_RECORD
  5
6D67
330
1
100
AcDbSymbolTableRecord
100
AcDbBlockTableRecord
  2
*D38
  0
ENDTAB
  0
ENDSEC
  0
SECTION
  2
BLOCKS
  0
BLOCK
  5
1F
330
1E
100
AcDbEntity
  8
0
100
AcDbBlockBegin
  2
*MODEL_SPACE
 70
     0
 10
0.0
 20
0.0
 30
0.0
  3
*MODEL_SPACE
  1

  0
ENDBLK
  5
20
330
1E
100
AcDbEntity
  8
0
100
AcDbBlockEnd
  0
BLOCK
  5
1B
330
1A
100
AcDbEntity
 67
     1
  8
0
100
AcDbBlockBegin
  2
*PAPER_SPACE
 70
     0
 10
0.0
 20
0.0
 30
0.0
  3
*PAPER_SPACE
  1

  0
ENDBLK
  5
1C
330
1A
100
AcDbEntity
 67
     1
  8
0
100
AcDbBlockEnd
  0
BLOCK
  5
3B6
330
3B2
100
AcDbEntity
  8
0
100
AcDbBlockBegin
  2
_OPEN
 70
     0
 10
0.0
 20
0.0
 30
0.0
  3
_OPEN
  1

  0
LINE
  5
3B3
330
3B2
100
AcDbEntity
  8
30
  6
CONTINUOUS
 62
     0
100
AcDbLine
 10
-1.0
 20
0.166667
 30
0.0
 11
0.0
 21
0.0
 31
0.0
  0
LINE
  5
3B4
330
3B2
100
AcDbEntity
  8
30
  6
CONTINUOUS
 62
     0
100
AcDbLine
 10
-1.0
 20
-0.166667
 30
0.0
 11
0.0
 21
0.0
 31
0.0
  0
LINE
  5
3B5
330
3B2
100
AcDbEntity
  8
30
  6
CONTINUOUS
 62
     0
100
AcDbLine
 10
0.0
 20
0.0
 30
0.0
 11
-1.0
 21
0.0
 31
0.0
  0
ENDBLK
  5
3B7
330
3B2
100
AcDbEntity
  8
0
100
AcDbBlockEnd
  0
BLOCK
  5
6330
330
632C
100
AcDbEntity
  8
0
100
AcDbBlockBegin
  2
_OPEN30
 70
     0
 10
0.0
 20
0.0
 30
0.0
  3
_OPEN30
  1

  0
LINE
  5
632D
330
632C
100
AcDbEntity
  8
0
  6
BYBLOCK
 62
     0
100
AcDbLine
 10
-1.0
 20
0.26794919
 30
0.0
 11
0.0
 21
0.0
 31
0.0
  0
LINE
  5
632E
330
632C
100
AcDbEntity
  8
0
  6
BYBLOCK
 62
     0
100
AcDbLine
 10
0.0
 20
0.0
 30
0.0
 11
-1.0
 21
-0.26794919
 31
0.0
  0
LINE
  5
632F
330
632C
100
AcDbEntity
  8
0
  6
BYBLOCK
 62
     0
100
AcDbLine
 10
0.0
 20
0.0
 30
0.0
 11
-1.0
 21
0.0
 31
0.0
  0
ENDBLK
  5
6331
330
632C
100
AcDbEntity
  8
0
100
AcDbBlockEnd
  0
BLOCK
  5
648B
330
6481
100
AcDbEntity
  8
0
100
AcDbBlockBegin
  2
*D2
 70
     1
 10
0.0
 20
0.0
 30
0.0
  3
*D2
  1

  0
LINE
  5
698F
330
6481
100
AcDbEntity
  8
30
  6
CONTINUOUS
 62
     0
100
AcDbLine
 10
3.999939351230238
 20
99.7500012401781
 30
0.0
 11
65.06098873540505
 21
99.7500012401781
 31
0.0
  0
LINE
  5
6990
330
6481
100
AcDbEntity
  8
30
  6
CONTINUOUS
 62
     0
100
AcDbLine
 10
24.49987881962232
 20
49.75000124025109
 30
0.0
 11
65.06098873540503
 21
49.75000124025108
 31
0.0
  0
LINE
  5
6991
330
6481
100
AcDbEntity
  8
30
  6
CONTINUOUS
 62
     0
100
AcDbLine
 10
64.56098873540503
 20
97.75000124017807
 30
0.0
 11
64.56098873540503
 21
51.7500012402511
 31
0.0
  0
INSERT
  5
6992
330
6481
100
AcDbEntity
  8
30
  6
CONTINUOUS
 62
     0
100
AcDbBlockReference
  2
_OPEN
 10
64.56098873540503
 20
99.7500012401781
 30
0.0
 41
2.0
 42
2.0
 43
2.0
 50
90.0
  0
INSERT
  5
6993
330
6481
100
AcDbEntity
  8
30
  6
CONTINUOUS
 62
     0
100
AcDbBlockReference
  2
_OPEN
 10
64.56098873540503
 20
49.75000124025108
 30
0.0
 41
2.0
 42
2.0
 43
2.0
 50
270.0
  0
MTEXT
  5
6994
330
6481
100
AcDbEntity
  8
30
  6
CONTINUOUS
 62
     0
100
AcDbMText
 10
61.56098873540504
 20
74.7500012402146
 30
0.0
 40
4.0
 41
0.0
 71
     5
 72
     1
  1
\A1;50
 11
0.0000000000000001
 21
1.0
 31
0.0
1001
ACAD
1000
MTEXTBEGIN
1070
    73
1070
     1
1070
    44
1040
1.0
1070
    74
1070
     0
1000
MTEXTEND
1000
MTEXTBEGIN
1070
    73
1070
     1
1070
    44
1040
1.0
1070
    74
1070
     0
1000
MTEXTEND
1000
MTEXTBEGIN
1070
    73
1070
     1
1070
    44
1040
1.0
1070
    74
1070
     0
1000
MTEXTEND
1000
MTEXTBEGIN
1070
    73
1070
     1
1070
    44
1040
1.0
1070
    74
1070
     0
1000
MTEXTEND
1000
MTEXTBEGIN
1070
    73
1070
     1
1070
    44
1040
1.0
1070
    74
1070
     0
1000
MTEXTEND
1000
MTEXTBEGIN
1070
    73
1070
     1
1070
    44
1040
1.0
1070
    74
1070
     0
1000
MTEXTEND
  0
POINT
  5
6995
330
6481
100
AcDbEntity
  8
DEFPOINTS
  6
CONTINUOUS
 62
     0
100
AcDbPoint
 10
2.999939351230238
 20
99.7500012401781
 30
0.0
  0
POINT
  5
6996
330
6481
100
AcDbEntity
  8
DEFPOINTS
  6
CONTINUOUS
 62
     0
100
AcDbPoint
 10
23.49987881962232
 20
49.75000124025109
 30
0.0
  0
POINT
  5
6997
330
6481
100
AcDbEntity
  8
DEFPOINTS
  6
CONTINUOUS
 62
     0
100
AcDbPoint
 10
64.56098873540503
 20
49.75000124025108
 30
0.0
  0
ENDBLK
  5
648C
330
6481
100
AcDbEntity
  8
0
100
AcDbBlockEnd
  0
BLOCK
  5
6497
330
648D
100
AcDbEntity
  8
0
100
AcDbBlockBegin
  2
*D3
 70
     1
 10
0.0
 20
0.0
 30
0.0
  3
*D3
  1

  0
LINE
  5
6974
330
648D
100
AcDbEntity
  8
30
  6
CONTINUOUS
 62
     0
100
AcDbLine
 10
4.160024827967646
 20
42.00000104691095
 30
0.0
 11
52.43516340348363
 21
42.00000104691095
 31
0.0
  0
LINE
  5
6975
330
648D
100
AcDbEntity
  8
30
  6
CONTINUOUS
 62
     0
100
AcDbLine
 10
4.160024827967641
 20
-42.00000104691187
 30
0.0
 11
52.4351634034836
 21
-42.00000104691189
 31
0.0
  0
LINE
  5
6976
330
648D
100
AcDbEntity
  8
30
  6
CONTINUOUS
 62
     0
100
AcDbLine
 10
51.93516340348363
 20
40.00000104691095
 30
0.0
 11
51.93516340348359
 21
-40.00000104691189
 31
0.0
  0
INSERT
  5
6977
330
648D
100
AcDbEntity
  8
30
  6
CONTINUOUS
 62
     0
100
AcDbBlockReference
  2
_OPEN
 10
51.93516340348363
 20
42.00000104691095
 30
0.0
 41
2.0
 42
2.0
 43
2.0
 50
90.0
  0
INSERT
  5
6978
330
648D
100
AcDbEntity
  8
30
  6
CONTINUOUS
 62
     0
100
AcDbBlockReference
  2
_OPEN
 10
51.93516340348359
 20
-42.00000104691189
 30
0.0
 41
2.0
 42
2.0
 43
2.0
 50
270.0
  0
MTEXT
  5
6979
330
648D
100
AcDbEntity
  8
30
  6
CONTINUOUS
 62
     0
100
AcDbMText
 10
48.93516340348362
 20
-0.0000000000004433
 30
0.0
 40
4.0
 41
0.0
 71
     5
 72
     1
  1
\A1;84
 11
0.0000000000000001
 21
1.0
 31
0.0
1001
ACAD
1000
MTEXTBEGIN
1070
    73
1070
     1
1070
    44
1040
1.0
1070
    74
1070
     0
1000
MTEXTEND
1000
MTEXTBEGIN
1070
    73
1070
     1
1070
    44
1040
1.0
1070
    74
1070
     0
1000
MTEXTEND
1000
MTEXTBEGIN
1070
    73
1070
     1
1070
    44
1040
1.0
1070
    74
1070
     0
1000
MTEXTEND
1000
MTEXTBEGIN
1070
    73
1070
     1
1070
    44
1040
1.0
1070
    74
1070
     0
1000
MTEXTEND
1000
MTEXTBEGIN
1070
    73
1070
     1
1070
    44
1040
1.0
1070
    74
1070
     0
1000
MTEXTEND
1000
MTEXTBEGIN
1070
    73
1070
     1
1070
    44
1040
1.0
1070
    74
1070
     0
1000
MTEXTEND
  0
POINT
  5
697A
330
648D
100
AcDbEntity
  8
DEFPOINTS
  6
CONTINUOUS
 62
     0
100
AcDbPoint
 10
3.160024827967646
 20
42.00000104691095
 30
0.0
  0
POINT
  5
697B
330
648D
100
AcDbEntity
  8
DEFPOINTS
  6
CONTINUOUS
 62
     0
100
AcDbPoint
 10
3.160024827967646
 20
-42.00000104691187
 30
0.0
  0
POINT
  5
697C
330
648D
100
AcDbEntity
  8
DEFPOINTS
  6
CONTINUOUS
 62
     0
100
AcDbPoint
 10
51.93516340348359
 20
-42.00000104691189
 30
0.0
  0
ENDBLK
  5
6498
330
648D
100
AcDbEntity
  8
0
100
AcDbBlockEnd
  0
BLOCK
  5
64A3
330
6499
100
AcDbEntity
  8
0
100
AcDbBlockBegin
  2
*D4
 70
     1
 10
0.0
 20
0.0
 30
0.0
  3
*D4
  1

  0
LINE
  5
69BC
330
6499
100
AcDbEntity
  8
30
  6
CONTINUOUS
 62
     0
100
AcDbLine
 10
-25.00018566083099
 20
-47.25000115285697
 30
0.0
 11
-25.00018566083099
 21
-94.98966437759396
 31
0.0
  0
LINE
  5
69BD
330
6499
100
AcDbEntity
  8
30
  6
CONTINUOUS
 62
     0
100
AcDbLine
 10
24.99993989965091
 20
-47.25000115285697
 30
0.0
 11
24.99993989965091
 21
-94.98966437759396
 31
0.0
  0
LINE
  5
69BE
330
6499
100
AcDbEntity
  8
30
  6
CONTINUOUS
 62
     0
100
AcDbLine
 10
-23.00018566083099
 20
-94.48966437759395
 30
0.0
 11
22.99993989965089
 21
-94.48966437759395
 31
0.0
  0
INSERT
  5
69BF
330
6499
100
AcDbEntity
  8
30
  6
CONTINUOUS
 62
     0
100
AcDbBlockReference
  2
_OPEN
 10
-25.00018566083099
 20
-94.48966437759395
 30
0.0
 41
2.0
 42
2.0
 43
2.0
 50
180.0
  0
INSERT
  5
69C0
330
6499
100
AcDbEntity
  8
30
  6
CONTINUOUS
 62
     0
100
AcDbBlockReference
  2
_OPEN
 10
24.99993989965091
 20
-94.48966437759395
 30
0.0
 41
2.0
 42
2.0
 43
2.0
  0
MTEXT
  5
69C1
330
6499
100
AcDbEntity
  8
30
  6
CONTINUOUS
 62
     0
100
AcDbMText
 10
-0.0001228805900444
 20
-91.48966437759396
 30
0.0
 40
4.0
 41
0.0
 71
     5
 72
     1
  1
\A1;50
1001
ACAD
1000
MTEXTBEGIN
1070
    73
1070
     1
1070
    44
1040
1.0
1070
    74
1070
     0
1000
MTEXTEND
1000
MTEXTBEGIN
1070
    73
1070
     1
1070
    44
1040
1.0
1070
    74
1070
     0
1000
MTEXTEND
1000
MTEXTBEGIN
1070
    73
1070
     1
1070
    44
1040
1.0
1070
    74
1070
     0
1000
MTEXTEND
1000
MTEXTBEGIN
1070
    73
1070
     1
1070
    44
1040
1.0
1070
    74
1070
     0
1000
MTEXTEND
1000
MTEXTBEGIN
1070
    73
1070
     1
1070
    44
1040
1.0
1070
    74
1070
     0
1000
MTEXTEND
1000
MTEXTBEGIN
1070
    73
1070
     1
1070
    44
1040
1.0
1070
    74
1070
     0
1000
MTEXTEND
  0
POINT
  5
69C2
330
6499
100
AcDbEntity
  8
DEFPOINTS
  6
CONTINUOUS
 62
     0
100
AcDbPoint
 10
-25.00018566083099
 20
-46.25000115285698
 30
0.0
  0
POINT
  5
69C3
330
6499
100
AcDbEntity
  8
DEFPOINTS
  6
CONTINUOUS
 62
     0
100
AcDbPoint
 10
24.99993989965091
 20
-46.25000115285698
 30
0.0
  0
POINT
  5
69C4
330
6499
100
AcDbEntity
  8
DEFPOINTS
  6
CONTINUOUS
 62
     0
100
AcDbPoint
 10
24.99993989965091
 20
-94.48966437759395
 30
0.0
  0
ENDBLK
  5
64A4
330
6499
100
AcDbEntity
  8
0
100
AcDbBlockEnd
  0
BLOCK
  5
64AF
330
64A5
100
AcDbEntity
  8
0
100
AcDbBlockBegin
  2
*D5
 70
     1
 10
0.0
 20
0.0
 30
0.0
  3
*D5
  1

  0
LINE
  5
69B3
330
64A5
100
AcDbEntity
  8
30
  6
CONTINUOUS
 62
     0
100
AcDbLine
 10
-24.00013886958464
 20
-25.00003111578299
 30
0.0
 11
-24.00013886958464
 21
-81.54379696341342
 31
0.0
  0
LINE
  5
69B4
330
64A5
100
AcDbEntity
  8
30
  6
CONTINUOUS
 62
     0
100
AcDbLine
 10
23.49993986225852
 20
-25.00003111578299
 30
0.0
 11
23.49993986225852
 21
-81.54379696341342
 31
0.0
  0
LINE
  5
69B5
330
64A5
100
AcDbEntity
  8
30
  6
CONTINUOUS
 62
     0
100
AcDbLine
 10
-22.00013886958464
 20
-81.04379696341338
 30
0.0
 11
21.49993986225854
 21
-81.04379696341338
 31
0.0
  0
INSERT
  5
69B6
330
64A5
100
AcDbEntity
  8
30
  6
CONTINUOUS
 62
     0
100
AcDbBlockReference
  2
_OPEN
 10
-24.00013886958464
 20
-81.04379696341338
 30
0.0
 41
2.0
 42
2.0
 43
2.0
 50
180.0
  0
INSERT
  5
69B7
330
64A5
100
AcDbEntity
  8
30
  6
CONTINUOUS
 62
     0
100
AcDbBlockReference
  2
_OPEN
 10
23.49993986225852
 20
-81.04379696341338
 30
0.0
 41
2.0
 42
2.0
 43
2.0
  0
MTEXT
  5
69B8
330
64A5
100
AcDbEntity
  8
30
  6
CONTINUOUS
 62
     0
100
AcDbMText
 10
-0.2500995036630547
 20
-78.04379696341341
 30
0.0
 40
4.0
 41
0.0
 71
     5
 72
     1
  1
\A1;47.5
1001
ACAD
1000
MTEXTBEGIN
1070
    73
1070
     1
1070
    44
1040
1.0
1070
    74
1070
     0
1000
MTEXTEND
1000
MTEXTBEGIN
1070
    73
1070
     1
1070
    44
1040
1.0
1070
    74
1070
     0
1000
MTEXTEND
1000
MTEXTBEGIN
1070
    73
1070
     1
1070
    44
1040
1.0
1070
    74
1070
     0
1000
MTEXTEND
1000
MTEXTBEGIN
1070
    73
1070
     1
1070
    44
1040
1.0
1070
    74
1070
     0
1000
MTEXTEND
1000
MTEXTBEGIN
1070
    73
1070
     1
1070
    44
1040
1.0
1070
    74
1070
     0
1000
MTEXTEND
1000
MTEXTBEGIN
1070
    73
1070
     1
1070
    44
1040
1.0
1070
    74
1070
     0
1000
MTEXTEND
  0
POINT
  5
69B9
330
64A5
100
AcDbEntity
  8
DEFPOINTS
  6
CONTINUOUS
 62
     0
100
AcDbPoint
 10
-24.00013886958464
 20
-24.000031115783
 30
0.0
  0
POINT
  5
69BA
330
64A5
100
AcDbEntity
  8
DEFPOINTS
  6
CONTINUOUS
 62
     0
100
AcDbPoint
 10
23.49993986225852
 20
-24.000031115783
 30
0.0
  0
POINT
  5
69BB
330
64A5
100
AcDbEntity
  8
DEFPOINTS
  6
CONTINUOUS
 62
     0
100
AcDbPoint
 10
23.49993986225852
 20
-81.04379696341338
 30
0.0
  0
ENDBLK
  5
64B0
330
64A5
100
AcDbEntity
  8
0
100
AcDbBlockEnd
  0
BLOCK
  5
64BB
330
64B1
100
AcDbEntity
  8
0
100
AcDbBlockBegin
  2
*D6
 70
     1
 10
0.0
 20
0.0
 30
0.0
  3
*D6
  1

  0
LINE
  5
69AA
330
64B1
100
AcDbEntity
  8
30
  6
CONTINUOUS
 62
     0
100
AcDbLine
 10
-19.57499772288544
 20
39.99999958291414
 30
0.0
 11
-41.64359660366365
 21
39.99999958291414
 31
0.0
  0
LINE
  5
69AB
330
64B1
100
AcDbEntity
  8
30
  6
CONTINUOUS
 62
     0
100
AcDbLine
 10
-32.18598099372786
 20
0.0000000000000003
 30
0.0
 11
-41.64359660366367
 21
0.000000000000003
 31
0.0
  0
LINE
  5
69AC
330
64B1
100
AcDbEntity
  8
30
  6
CONTINUOUS
 62
     0
100
AcDbLine
 10
-41.14359660366365
 20
37.99999958291414
 30
0.0
 11
-41.14359660366367
 21
2.000000000000003
 31
0.0
  0
INSERT
  5
69AD
330
64B1
100
AcDbEntity
  8
30
  6
CONTINUOUS
 62
     0
100
AcDbBlockReference
  2
_OPEN
 10
-41.14359660366365
 20
39.99999958291414
 30
0.0
 41
2.0
 42
2.0
 43
2.0
 50
90.0
  0
INSERT
  5
69AE
330
64B1
100
AcDbEntity
  8
30
  6
CONTINUOUS
 62
     0
100
AcDbBlockReference
  2
_OPEN
 10
-41.14359660366367
 20
0.0000000000000028
 30
0.0
 41
2.0
 42
2.0
 43
2.0
 50
270.0
  0
MTEXT
  5
69AF
330
64B1
100
AcDbEntity
  8
30
  6
CONTINUOUS
 62
     0
100
AcDbMText
 10
-44.14359660366367
 20
19.99999979145706
 30
0.0
 40
4.0
 41
0.0
 71
     5
 72
     1
  1
\A1;40
 11
0.0000000000000001
 21
1.0
 31
0.0
1001
ACAD
1000
MTEXTBEGIN
1070
    73
1070
     1
1070
    44
1040
1.0
1070
    74
1070
     0
1000
MTEXTEND
1000
MTEXTBEGIN
1070
    73
1070
     1
1070
    44
1040
1.0
1070
    74
1070
     0
1000
MTEXTEND
1000
MTEXTBEGIN
1070
    73
1070
     1
1070
    44
1040
1.0
1070
    74
1070
     0
1000
MTEXTEND
1000
MTEXTBEGIN
1070
    73
1070
     1
1070
    44
1040
1.0
1070
    74
1070
     0
1000
MTEXTEND
1000
MTEXTBEGIN
1070
    73
1070
     1
1070
    44
1040
1.0
1070
    74
1070
     0
1000
MTEXTEND
1000
MTEXTBEGIN
1070
    73
1070
     1
1070
    44
1040
1.0
1070
    74
1070
     0
1000
MTEXTEND
  0
POINT
  5
69B0
330
64B1
100
AcDbEntity
  8
DEFPOINTS
  6
CONTINUOUS
 62
     0
100
AcDbPoint
 10
-18.57499772288544
 20
39.99999958291414
 30
0.0
  0
POINT
  5
69B1
330
64B1
100
AcDbEntity
  8
DEFPOINTS
  6
CONTINUOUS
 62
     0
100
AcDbPoint
 10
-31.18598099372785
 20
0.0
 30
0.0
  0
POINT
  5
69B2
330
64B1
100
AcDbEntity
  8
DEFPOINTS
  6
CONTINUOUS
 62
     0
100
AcDbPoint
 10
-41.14359660366367
 20
0.0000000000000028
 30
0.0
  0
ENDBLK
  5
64BC
330
64B1
100
AcDbEntity
  8
0
100
AcDbBlockEnd
  0
BLOCK
  5
64C7
330
64BD
100
AcDbEntity
  8
0
100
AcDbBlockBegin
  2
*D7
 70
     1
 10
0.0
 20
0.0
 30
0.0
  3
*D7
  1

  0
LINE
  5
69C5
330
64BD
100
AcDbEntity
  8
30
  6
CONTINUOUS
 62
     0
100
AcDbLine
 10
-12.49998536441824
 20
-49.07501340538196
 30
0.0
 11
-12.49998536441824
 21
-67.84423486139619
 31
0.0
  0
LINE
  5
69C6
330
64BD
100
AcDbEntity
  8
30
  6
CONTINUOUS
 62
     0
100
AcDbLine
 10
12.49998536441833
 20
-49.07501340538196
 30
0.0
 11
12.49998536441833
 21
-67.84423486139619
 31
0.0
  0
LINE
  5
69C7
330
64BD
100
AcDbEntity
  8
30
  6
CONTINUOUS
 62
     0
100
AcDbLine
 10
-10.49998536441825
 20
-67.34423486139617
 30
0.0
 11
10.49998536441833
 21
-67.34423486139617
 31
0.0
  0
INSERT
  5
69C8
330
64BD
100
AcDbEntity
  8
30
  6
CONTINUOUS
 62
     0
100
AcDbBlockReference
  2
_OPEN
 10
-12.49998536441824
 20
-67.34423486139617
 30
0.0
 41
2.0
 42
2.0
 43
2.0
 50
180.0
  0
INSERT
  5
69C9
330
64BD
100
AcDbEntity
  8
30
  6
CONTINUOUS
 62
     0
100
AcDbBlockReference
  2
_OPEN
 10
12.49998536441833
 20
-67.34423486139617
 30
0.0
 41
2.0
 42
2.0
 43
2.0
  0
MTEXT
  5
69CA
330
64BD
100
AcDbEntity
  8
30
  6
CONTINUOUS
 62
     0
100
AcDbMText
 10
0.000000000000041
 20
-64.34423486139619
 30
0.0
 40
4.0
 41
0.0
 71
     5
 72
     1
  1
\A1;25
1001
ACAD
1000
MTEXTBEGIN
1070
    73
1070
     1
1070
    44
1040
1.0
1070
    74
1070
     0
1000
MTEXTEND
1000
MTEXTBEGIN
1070
    73
1070
     1
1070
    44
1040
1.0
1070
    74
1070
     0
1000
MTEXTEND
1000
MTEXTBEGIN
1070
    73
1070
     1
1070
    44
1040
1.0
1070
    74
1070
     0
1000
MTEXTEND
1000
MTEXTBEGIN
1070
    73
1070
     1
1070
    44
1040
1.0
1070
    74
1070
     0
1000
MTEXTEND
1000
MTEXTBEGIN
1070
    73
1070
     1
1070
    44
1040
1.0
1070
    74
1070
     0
1000
MTEXTEND
1000
MTEXTBEGIN
1070
    73
1070
     1
1070
    44
1040
1.0
1070
    74
1070
     0
1000
MTEXTEND
  0
POINT
  5
69CB
330
64BD
100
AcDbEntity
  8
DEFPOINTS
  6
CONTINUOUS
 62
     0
100
AcDbPoint
 10
-12.49998536441824
 20
-48.07501340538196
 30
0.0
  0
POINT
  5
69CC
330
64BD
100
AcDbEntity
  8
DEFPOINTS
  6
CONTINUOUS
 62
     0
100
AcDbPoint
 10
12.49998536441833
 20
-48.07501340538196
 30
0.0
  0
POINT
  5
69CD
330
64BD
100
AcDbEntity
  8
DEFPOINTS
  6
CONTINUOUS
 62
     0
100
AcDbPoint
 10
12.49998536441833
 20
-67.34423486139617
 30
0.0
  0
ENDBLK
  5
64C8
330
64BD
100
AcDbEntity
  8
0
100
AcDbBlockEnd
  0
BLOCK
  5
64D1
330
64C9
100
AcDbEntity
  8
0
100
AcDbBlockBegin
  2
*D8
 70
     1
 10
0.0
 20
0.0
 30
0.0
  3
*D8
  1

  0
LINE
  5
6998
330
64C9
100
AcDbEntity
  8
30
  6
CONTINUOUS
 62
     0
100
AcDbLine
 10
0.0000000000001706
 20
-13.85502181118508
 30
0.0
 11
0.0000000000001706
 21
-14.35502181118499
 31
0.0
  0
LINE
  5
6999
330
64C9
100
AcDbEntity
  8
30
  6
CONTINUOUS
 62
     0
100
AcDbLine
 10
-24.00013886958507
 20
-13.85502181118499
 30
0.0
 11
-24.00013886958507
 21
-14.35502181118499
 31
0.0
  0
LINE
  5
699A
330
64C9
100
AcDbEntity
  8
30
  6
CONTINUOUS
 62
     0
100
AcDbLine
 10
-1.999999999999829
 20
-14.85502181118499
 30
0.0
 11
-22.00013886958507
 21
-14.85502181118499
 31
0.0
  0
INSERT
  5
699B
330
64C9
100
AcDbEntity
  8
30
  6
CONTINUOUS
 62
     0
100
AcDbBlockReference
  2
_OPEN
 10
0.0000000000001705
 20
-14.85502181118499
 30
0.0
 41
2.0
 42
2.0
 43
2.0
  0
INSERT
  5
699C
330
64C9
100
AcDbEntity
  8
30
  6
CONTINUOUS
 62
     0
100
AcDbBlockReference
  2
_OPEN
 10
-24.00013886958507
 20
-14.85502181118499
 30
0.0
 41
2.0
 42
2.0
 43
2.0
 50
180.0
  0
MTEXT
  5
699D
330
64C9
100
AcDbEntity
  8
30
  6
CONTINUOUS
 62
     0
100
AcDbMText
 10
-12.00006943479245
 20
-11.85502181118499
 30
0.0
 40
4.0
 41
0.0
 71
     5
 72
     1
  1
\A1;24
1001
ACAD
1000
MTEXTBEGIN
1070
    73
1070
     1
1070
    44
1040
1.0
1070
    74
1070
     0
1000
MTEXTEND
1000
MTEXTBEGIN
1070
    73
1070
     1
1070
    44
1040
1.0
1070
    74
1070
     0
1000
MTEXTEND
1000
MTEXTBEGIN
1070
    73
1070
     1
1070
    44
1040
1.0
1070
    74
1070
     0
1000
MTEXTEND
1000
MTEXTBEGIN
1070
    73
1070
     1
1070
    44
1040
1.0
1070
    74
1070
     0
1000
MTEXTEND
1000
MTEXTBEGIN
1070
    73
1070
     1
1070
    44
1040
1.0
1070
    74
1070
     0
1000
MTEXTEND
1000
MTEXTBEGIN
1070
    73
1070
     1
1070
    44
1040
1.0
1070
    74
1070
     0
1000
MTEXTEND
  0
POINT
  5
699E
330
64C9
100
AcDbEntity
  8
DEFPOINTS
  6
CONTINUOUS
 62
     0
100
AcDbPoint
 10
0.0000000000001705
 20
-14.85502181118508
 30
0.0
  0
POINT
  5
699F
330
64C9
100
AcDbEntity
  8
DEFPOINTS
  6
CONTINUOUS
 62
     0
100
AcDbPoint
 10
-24.00013886958507
 20
-14.85502181118499
 30
0.0
  0
POINT
  5
69A0
330
64C9
100
AcDbEntity
  8
DEFPOINTS
  6
CONTINUOUS
 62
     0
100
AcDbPoint
 10
-24.00013886958507
 20
-14.85502181118499
 30
0.0
  0
ENDBLK
  5
64D2
330
64C9
100
AcDbEntity
  8
0
100
AcDbBlockEnd
  0
BLOCK
  5
64DD
330
64D3
100
AcDbEntity
  8
0
100
AcDbBlockBegin
  2
*D9
 70
     1
 10
0.0
 20
0.0
 30
0.0
  3
*D9
  1

  0
LINE
  5
69A1
330
64D3
100
AcDbEntity
  8
30
  6
CONTINUOUS
 62
     0
100
AcDbLine
 10
-32.18598099372786
 20
0.0000000000000003
 30
0.0
 11
-41.64359660366365
 21
0.000000000000003
 31
0.0
  0
LINE
  5
69A2
330
64D3
100
AcDbEntity
  8
30
  6
CONTINUOUS
 62
     0
100
AcDbLine
 10
-19.57499772288544
 20
-42.00000104691187
 30
0.0
 11
-41.64359660366367
 21
-42.00000104691187
 31
0.0
  0
LINE
  5
69A3
330
64D3
100
AcDbEntity
  8
30
  6
CONTINUOUS
 62
     0
100
AcDbLine
 10
-41.14359660366365
 20
-1.999999999999995
 30
0.0
 11
-41.14359660366367
 21
-40.00000104691188
 31
0.0
  0
INSERT
  5
69A4
330
64D3
100
AcDbEntity
  8
30
  6
CONTINUOUS
 62
     0
100
AcDbBlockReference
  2
_OPEN
 10
-41.14359660366365
 20
0.0000000000000028
 30
0.0
 41
2.0
 42
2.0
 43
2.0
 50
90.0
  0
INSERT
  5
69A5
330
64D3
100
AcDbEntity
  8
30
  6
CONTINUOUS
 62
     0
100
AcDbBlockReference
  2
_OPEN
 10
-41.14359660366367
 20
-42.00000104691187
 30
0.0
 41
2.0
 42
2.0
 43
2.0
 50
270.0
  0
MTEXT
  5
69A6
330
64D3
100
AcDbEntity
  8
30
  6
CONTINUOUS
 62
     0
100
AcDbMText
 10
-44.14359660366364
 20
-21.00000052345594
 30
0.0
 40
4.0
 41
0.0
 71
     5
 72
     1
  1
\A1;42
 11
0.0000000000000001
 21
1.0
 31
0.0
1001
ACAD
1000
MTEXTBEGIN
1070
    73
1070
     1
1070
    44
1040
1.0
1070
    74
1070
     0
1000
MTEXTEND
1000
MTEXTBEGIN
1070
    73
1070
     1
1070
    44
1040
1.0
1070
    74
1070
     0
1000
MTEXTEND
1000
MTEXTBEGIN
1070
    73
1070
     1
1070
    44
1040
1.0
1070
    74
1070
     0
1000
MTEXTEND
1000
MTEXTBEGIN
1070
    73
1070
     1
1070
    44
1040
1.0
1070
    74
1070
     0
1000
MTEXTEND
1000
MTEXTBEGIN
1070
    73
1070
     1
1070
    44
1040
1.0
1070
    74
1070
     0
1000
MTEXTEND
1000
MTEXTBEGIN
1070
    73
1070
     1
1070
    44
1040
1.0
1070
    74
1070
     0
1000
MTEXTEND
  0
POINT
  5
69A7
330
64D3
100
AcDbEntity
  8
DEFPOINTS
  6
CONTINUOUS
 62
     0
100
AcDbPoint
 10
-31.18598099372785
 20
0.0
 30
0.0
  0
POINT
  5
69A8
330
64D3
100
AcDbEntity
  8
DEFPOINTS
  6
CONTINUOUS
 62
     0
100
AcDbPoint
 10
-18.57499772288544
 20
-42.00000104691187
 30
0.0
  0
POINT
  5
69A9
330
64D3
100
AcDbEntity
  8
DEFPOINTS
  6
CONTINUOUS
 62
     0
100
AcDbPoint
 10
-41.14359660366367
 20
-42.00000104691187
 30
0.0
  0
ENDBLK
  5
64DE
330
64D3
100
AcDbEntity
  8
0
100
AcDbBlockEnd
  0
BLOCK
  5
64E9
330
64DF
100
AcDbEntity
  8
0
100
AcDbBlockBegin
  2
*D10
 70
     1
 10
0.0
 20
0.0
 30
0.0
  3
*D10
  1

  0
LINE
  5
6986
330
64DF
100
AcDbEntity
  8
30
  6
CONTINUOUS
 62
     0
100
AcDbLine
 10
24.49987881962232
 20
49.75000124025109
 30
0.0
 11
65.06098873540506
 21
49.75000124025108
 31
0.0
  0
LINE
  5
6987
330
64DF
100
AcDbEntity
  8
30
  6
CONTINUOUS
 62
     0
100
AcDbLine
 10
24.49987881962232
 20
-49.75000124010498
 30
0.0
 11
65.06098873540503
 21
-49.75000124010499
 31
0.0
  0
LINE
  5
6988
330
64DF
100
AcDbEntity
  8
30
  6
CONTINUOUS
 62
     0
100
AcDbLine
 10
64.56098873540506
 20
47.75000124025107
 30
0.0
 11
64.56098873540503
 21
-47.75000124010499
 31
0.0
  0
INSERT
  5
6989
330
64DF
100
AcDbEntity
  8
30
  6
CONTINUOUS
 62
     0
100
AcDbBlockReference
  2
_OPEN
 10
64.56098873540506
 20
49.75000124025108
 30
0.0
 41
2.0
 42
2.0
 43
2.0
 50
90.0
  0
INSERT
  5
698A
330
64DF
100
AcDbEntity
  8
30
  6
CONTINUOUS
 62
     0
100
AcDbBlockReference
  2
_OPEN
 10
64.56098873540503
 20
-49.75000124010499
 30
0.0
 41
2.0
 42
2.0
 43
2.0
 50
270.0
  0
MTEXT
  5
698B
330
64DF
100
AcDbEntity
  8
30
  6
CONTINUOUS
 62
     0
100
AcDbMText
 10
61.56098873540504
 20
0.0000000000730615
 30
0.0
 40
4.0
 41
0.0
 71
     5
 72
     1
  1
\A1;100
 11
0.0000000000000001
 21
1.0
 31
0.0
1001
ACAD
1000
MTEXTBEGIN
1070
    73
1070
     1
1070
    44
1040
1.0
1070
    74
1070
     0
1000
MTEXTEND
1000
MTEXTBEGIN
1070
    73
1070
     1
1070
    44
1040
1.0
1070
    74
1070
     0
1000
MTEXTEND
1000
MTEXTBEGIN
1070
    73
1070
     1
1070
    44
1040
1.0
1070
    74
1070
     0
1000
MTEXTEND
1000
MTEXTBEGIN
1070
    73
1070
     1
1070
    44
1040
1.0
1070
    74
1070
     0
1000
MTEXTEND
1000
MTEXTBEGIN
1070
    73
1070
     1
1070
    44
1040
1.0
1070
    74
1070
     0
1000
MTEXTEND
1000
MTEXTBEGIN
1070
    73
1070
     1
1070
    44
1040
1.0
1070
    74
1070
     0
1000
MTEXTEND
  0
POINT
  5
698C
330
64DF
100
AcDbEntity
  8
DEFPOINTS
  6
CONTINUOUS
 62
     0
100
AcDbPoint
 10
23.49987881962232
 20
49.75000124025109
 30
0.0
  0
POINT
  5
698D
330
64DF
100
AcDbEntity
  8
DEFPOINTS
  6
CONTINUOUS
 62
     0
100
AcDbPoint
 10
23.49987881962232
 20
-49.75000124010498
 30
0.0
  0
POINT
  5
698E
330
64DF
100
AcDbEntity
  8
DEFPOINTS
  6
CONTINUOUS
 62
     0
100
AcDbPoint
 10
64.56098873540503
 20
-49.75000124010499
 30
0.0
  0
ENDBLK
  5
64EA
330
64DF
100
AcDbEntity
  8
0
100
AcDbBlockEnd
  0
BLOCK
  5
64F5
330
64EB
100
AcDbEntity
  8
0
100
AcDbBlockBegin
  2
*D11
 70
     1
 10
0.0
 20
0.0
 30
0.0
  3
*D11
  1

  0
LINE
  5
697D
330
64EB
100
AcDbEntity
  8
30
  6
CONTINUOUS
 62
     0
100
AcDbLine
 10
23.49997035490932
 20
24.9999701056991
 30
0.0
 11
40.39658572813773
 21
24.99997010569909
 31
0.0
  0
LINE
  5
697E
330
64EB
100
AcDbEntity
  8
30
  6
CONTINUOUS
 62
     0
100
AcDbLine
 10
23.49993921452262
 20
-25.00003114071091
 30
0.0
 11
40.39658572813771
 21
-25.00003114071092
 31
0.0
  0
LINE
  5
697F
330
64EB
100
AcDbEntity
  8
30
  6
CONTINUOUS
 62
     0
100
AcDbLine
 10
39.89658572813773
 20
22.9999701056991
 30
0.0
 11
39.89658572813771
 21
-23.00003114071091
 31
0.0
  0
INSERT
  5
6980
330
64EB
100
AcDbEntity
  8
30
  6
CONTINUOUS
 62
     0
100
AcDbBlockReference
  2
_OPEN
 10
39.89658572813773
 20
24.9999701056991
 30
0.0
 41
2.0
 42
2.0
 43
2.0
 50
90.0
  0
INSERT
  5
6981
330
64EB
100
AcDbEntity
  8
30
  6
CONTINUOUS
 62
     0
100
AcDbBlockReference
  2
_OPEN
 10
39.89658572813771
 20
-25.00003114071092
 30
0.0
 41
2.0
 42
2.0
 43
2.0
 50
270.0
  0
MTEXT
  5
6982
330
64EB
100
AcDbEntity
  8
30
  6
CONTINUOUS
 62
     0
100
AcDbMText
 10
36.89658572813771
 20
-0.000030517505904
 30
0.0
 40
4.0
 41
0.0
 71
     5
 72
     1
  1
\A1;50
 11
0.0000000000000001
 21
1.0
 31
0.0
1001
ACAD
1000
MTEXTBEGIN
1070
    73
1070
     1
1070
    44
1040
1.0
1070
    74
1070
     0
1000
MTEXTEND
1000
MTEXTBEGIN
1070
    73
1070
     1
1070
    44
1040
1.0
1070
    74
1070
     0
1000
MTEXTEND
1000
MTEXTBEGIN
1070
    73
1070
     1
1070
    44
1040
1.0
1070
    74
1070
     0
1000
MTEXTEND
1000
MTEXTBEGIN
1070
    73
1070
     1
1070
    44
1040
1.0
1070
    74
1070
     0
1000
MTEXTEND
1000
MTEXTBEGIN
1070
    73
1070
     1
1070
    44
1040
1.0
1070
    74
1070
     0
1000
MTEXTEND
1000
MTEXTBEGIN
1070
    73
1070
     1
1070
    44
1040
1.0
1070
    74
1070
     0
1000
MTEXTEND
  0
POINT
  5
6983
330
64EB
100
AcDbEntity
  8
DEFPOINTS
  6
CONTINUOUS
 62
     0
100
AcDbPoint
 10
22.49997035490931
 20
24.9999701056991
 30
0.0
  0
POINT
  5
6984
330
64EB
100
AcDbEntity
  8
DEFPOINTS
  6
CONTINUOUS
 62
     0
100
AcDbPoint
 10
22.49993921452263
 20
-25.00003114071091
 30
0.0
  0
POINT
  5
6985
330
64EB
100
AcDbEntity
  8
DEFPOINTS
  6
CONTINUOUS
 62
     0
100
AcDbPoint
 10
39.89658572813771
 20
-25.00003114071092
 30
0.0
  0
ENDBLK
  5
64F6
330
64EB
100
AcDbEntity
  8
0
100
AcDbBlockEnd
  0
BLOCK
  5
6671
330
6667
100
AcDbEntity
  8
0
100
AcDbBlockBegin
  2
*D12
 70
     1
 10
0.0
 20
0.0
 30
0.0
  3
*D12
  1

  0
LINE
  5
6946
330
6667
100
AcDbEntity
  8
30
  6
CONTINUOUS
 62
     0
100
AcDbLine
 10
162.1854665846834
 20
2.312532077410462
 30
0.0
 11
162.1854665846834
 21
-94.9896796364195
 31
0.0
  0
LINE
  5
6947
330
6667
100
AcDbEntity
  8
30
  6
CONTINUOUS
 62
     0
100
AcDbLine
 10
246.1854629012317
 20
-44.00006821062139
 30
0.0
 11
246.1854629012317
 21
-94.9896796364195
 31
0.0
  0
LINE
  5
6948
330
6667
100
AcDbEntity
  8
30
  6
CONTINUOUS
 62
     0
100
AcDbLine
 10
164.1854665846834
 20
-94.48967963641948
 30
0.0
 11
244.1854629012317
 21
-94.48967963641948
 31
0.0
  0
INSERT
  5
6949
330
6667
100
AcDbEntity
  8
30
  6
CONTINUOUS
 62
     0
100
AcDbBlockReference
  2
_OPEN
 10
162.1854665846834
 20
-94.48967963641948
 30
0.0
 41
2.0
 42
2.0
 43
2.0
 50
180.0
  0
INSERT
  5
694A
330
6667
100
AcDbEntity
  8
30
  6
CONTINUOUS
 62
     0
100
AcDbBlockReference
  2
_OPEN
 10
246.1854629012317
 20
-94.48967963641948
 30
0.0
 41
2.0
 42
2.0
 43
2.0
  0
MTEXT
  5
694B
330
6667
100
AcDbEntity
  8
30
  6
CONTINUOUS
 62
     0
100
AcDbMText
 10
204.1854647429576
 20
-91.48967963641949
 30
0.0
 40
4.0
 41
0.0
 71
     5
 72
     1
  1
\A1;84
1001
ACAD
1000
MTEXTBEGIN
1070
    73
1070
     1
1070
    44
1040
1.0
1070
    74
1070
     0
1000
MTEXTEND
1000
MTEXTBEGIN
1070
    73
1070
     1
1070
    44
1040
1.0
1070
    74
1070
     0
1000
MTEXTEND
1000
MTEXTBEGIN
1070
    73
1070
     1
1070
    44
1040
1.0
1070
    74
1070
     0
1000
MTEXTEND
1000
MTEXTBEGIN
1070
    73
1070
     1
1070
    44
1040
1.0
1070
    74
1070
     0
1000
MTEXTEND
1000
MTEXTBEGIN
1070
    73
1070
     1
1070
    44
1040
1.0
1070
    74
1070
     0
1000
MTEXTEND
1000
MTEXTBEGIN
1070
    73
1070
     1
1070
    44
1040
1.0
1070
    74
1070
     0
1000
MTEXTEND
  0
POINT
  5
694C
330
6667
100
AcDbEntity
  8
DEFPOINTS
  6
CONTINUOUS
 62
     0
100
AcDbPoint
 10
162.1854665846834
 20
3.312532077410466
 30
0.0
  0
POINT
  5
694D
330
6667
100
AcDbEntity
  8
DEFPOINTS
  6
CONTINUOUS
 62
     0
100
AcDbPoint
 10
246.1854629012317
 20
-43.00006821062139
 30
0.0
  0
POINT
  5
694E
330
6667
100
AcDbEntity
  8
DEFPOINTS
  6
CONTINUOUS
 62
     0
100
AcDbPoint
 10
246.1854629012317
 20
-94.48967963641948
 30
0.0
  0
ENDBLK
  5
6672
330
6667
100
AcDbEntity
  8
0
100
AcDbBlockEnd
  0
BLOCK
  5
667D
330
6673
100
AcDbEntity
  8
0
100
AcDbBlockBegin
  2
*D13
 70
     1
 10
0.0
 20
0.0
 30
0.0
  3
*D13
  1

  0
LINE
  5
6958
330
6673
100
AcDbEntity
  8
30
  6
CONTINUOUS
 62
     0
100
AcDbLine
 10
186.1855224406959
 20
-37.8999871869765
 30
0.0
 11
186.1855224406959
 21
-81.54381222223889
 31
0.0
  0
LINE
  5
6959
330
6673
100
AcDbEntity
  8
30
  6
CONTINUOUS
 62
     0
100
AcDbLine
 10
246.185462900559
 20
-44.00006821062139
 30
0.0
 11
246.185462900559
 21
-81.54381222223889
 31
0.0
  0
LINE
  5
695A
330
6673
100
AcDbEntity
  8
30
  6
CONTINUOUS
 62
     0
100
AcDbLine
 10
188.1855224406956
 20
-81.0438122222389
 30
0.0
 11
244.185462900559
 21
-81.0438122222389
 31
0.0
  0
INSERT
  5
695B
330
6673
100
AcDbEntity
  8
30
  6
CONTINUOUS
 62
     0
100
AcDbBlockReference
  2
_OPEN
 10
186.1855224406959
 20
-81.0438122222389
 30
0.0
 41
2.0
 42
2.0
 43
2.0
 50
180.0
  0
INSERT
  5
695C
330
6673
100
AcDbEntity
  8
30
  6
CONTINUOUS
 62
     0
100
AcDbBlockReference
  2
_OPEN
 10
246.185462900559
 20
-81.0438122222389
 30
0.0
 41
2.0
 42
2.0
 43
2.0
  0
MTEXT
  5
695D
330
6673
100
AcDbEntity
  8
30
  6
CONTINUOUS
 62
     0
100
AcDbMText
 10
216.1854926706275
 20
-78.0438122222389
 30
0.0
 40
4.0
 41
0.0
 71
     5
 72
     1
  1
\A1;60
1001
ACAD
1000
MTEXTBEGIN
1070
    73
1070
     1
1070
    44
1040
1.0
1070
    74
1070
     0
1000
MTEXTEND
1000
MTEXTBEGIN
1070
    73
1070
     1
1070
    44
1040
1.0
1070
    74
1070
     0
1000
MTEXTEND
1000
MTEXTBEGIN
1070
    73
1070
     1
1070
    44
1040
1.0
1070
    74
1070
     0
1000
MTEXTEND
1000
MTEXTBEGIN
1070
    73
1070
     1
1070
    44
1040
1.0
1070
    74
1070
     0
1000
MTEXTEND
1000
MTEXTBEGIN
1070
    73
1070
     1
1070
    44
1040
1.0
1070
    74
1070
     0
1000
MTEXTEND
1000
MTEXTBEGIN
1070
    73
1070
     1
1070
    44
1040
1.0
1070
    74
1070
     0
1000
MTEXTEND
  0
POINT
  5
695E
330
6673
100
AcDbEntity
  8
DEFPOINTS
  6
CONTINUOUS
 62
     0
100
AcDbPoint
 10
186.1855224406959
 20
-36.8999871869765
 30
0.0
  0
POINT
  5
695F
330
6673
100
AcDbEntity
  8
DEFPOINTS
  6
CONTINUOUS
 62
     0
100
AcDbPoint
 10
246.185462900559
 20
-43.00006821062139
 30
0.0
  0
POINT
  5
6960
330
6673
100
AcDbEntity
  8
DEFPOINTS
  6
CONTINUOUS
 62
     0
100
AcDbPoint
 10
246.185462900559
 20
-81.0438122222389
 30
0.0
  0
ENDBLK
  5
667E
330
6673
100
AcDbEntity
  8
0
100
AcDbBlockEnd
  0
BLOCK
  5
6689
330
667F
100
AcDbEntity
  8
0
100
AcDbBlockBegin
  2
*D14
 70
     1
 10
0.0
 20
0.0
 30
0.0
  3
*D14
  1

  0
LINE
  5
694F
330
667F
100
AcDbEntity
  8
30
  6
CONTINUOUS
 62
     0
100
AcDbLine
 10
195.1854921474718
 20
-50.74995546384642
 30
0.0
 11
195.1854921474718
 21
-67.8442501202217
 31
0.0
  0
LINE
  5
6950
330
667F
100
AcDbEntity
  8
30
  6
CONTINUOUS
 62
     0
100
AcDbLine
 10
246.1854629012317
 20
-44.00006821062139
 30
0.0
 11
246.1854629012317
 21
-67.8442501202217
 31
0.0
  0
LINE
  5
6951
330
667F
100
AcDbEntity
  8
30
  6
CONTINUOUS
 62
     0
100
AcDbLine
 10
197.1854921474717
 20
-67.3442501202217
 30
0.0
 11
244.1854629012317
 21
-67.3442501202217
 31
0.0
  0
INSERT
  5
6952
330
667F
100
AcDbEntity
  8
30
  6
CONTINUOUS
 62
     0
100
AcDbBlockReference
  2
_OPEN
 10
195.1854921474718
 20
-67.3442501202217
 30
0.0
 41
2.0
 42
2.0
 43
2.0
 50
180.0
  0
INSERT
  5
6953
330
667F
100
AcDbEntity
  8
30
  6
CONTINUOUS
 62
     0
100
AcDbBlockReference
  2
_OPEN
 10
246.1854629012317
 20
-67.3442501202217
 30
0.0
 41
2.0
 42
2.0
 43
2.0
  0
MTEXT
  5
6954
330
667F
100
AcDbEntity
  8
30
  6
CONTINUOUS
 62
     0
100
AcDbMText
 10
220.6854775243518
 20
-64.3442501202217
 30
0.0
 40
4.0
 41
0.0
 71
     5
 72
     1
  1
\A1;51
1001
ACAD
1000
MTEXTBEGIN
1070
    73
1070
     1
1070
    44
1040
1.0
1070
    74
1070
     0
1000
MTEXTEND
1000
MTEXTBEGIN
1070
    73
1070
     1
1070
    44
1040
1.0
1070
    74
1070
     0
1000
MTEXTEND
1000
MTEXTBEGIN
1070
    73
1070
     1
1070
    44
1040
1.0
1070
    74
1070
     0
1000
MTEXTEND
1000
MTEXTBEGIN
1070
    73
1070
     1
1070
    44
1040
1.0
1070
    74
1070
     0
1000
MTEXTEND
1000
MTEXTBEGIN
1070
    73
1070
     1
1070
    44
1040
1.0
1070
    74
1070
     0
1000
MTEXTEND
1000
MTEXTBEGIN
1070
    73
1070
     1
1070
    44
1040
1.0
1070
    74
1070
     0
1000
MTEXTEND
  0
POINT
  5
6955
330
667F
100
AcDbEntity
  8
DEFPOINTS
  6
CONTINUOUS
 62
     0
100
AcDbPoint
 10
195.1854921474718
 20
-49.74995546384644
 30
0.0
  0
POINT
  5
6956
330
667F
100
AcDbEntity
  8
DEFPOINTS
  6
CONTINUOUS
 62
     0
100
AcDbPoint
 10
246.1854629012317
 20
-43.00006821062139
 30
0.0
  0
POINT
  5
6957
330
667F
100
AcDbEntity
  8
DEFPOINTS
  6
CONTINUOUS
 62
     0
100
AcDbPoint
 10
246.1854629012317
 20
-67.3442501202217
 30
0.0
  0
ENDBLK
  5
668A
330
667F
100
AcDbEntity
  8
0
100
AcDbBlockEnd
  0
BLOCK
  5
6695
330
668B
100
AcDbEntity
  8
0
100
AcDbBlockBegin
  2
*D15
 70
     1
 10
0.0
 20
0.0
 30
0.0
  3
*D15
  1

  0
LINE
  5
6928
330
668B
100
AcDbEntity
  8
30
  6
CONTINUOUS
 62
     0
100
AcDbLine
 10
203.1854629012314
 20
46.89992485029462
 30
0.0
 11
203.1854629012314
 21
59.26475053604848
 31
0.0
  0
LINE
  5
6929
330
668B
100
AcDbEntity
  8
30
  6
CONTINUOUS
 62
     0
100
AcDbLine
 10
246.1854629012317
 20
44.00004684824351
 30
0.0
 11
246.1854629012317
 21
59.26475053604848
 31
0.0
  0
LINE
  5
692A
330
668B
100
AcDbEntity
  8
30
  6
CONTINUOUS
 62
     0
100
AcDbLine
 10
205.1854629012314
 20
58.76475053604848
 30
0.0
 11
244.1854629012317
 21
58.76475053604848
 31
0.0
  0
INSERT
  5
692B
330
668B
100
AcDbEntity
  8
30
  6
CONTINUOUS
 62
     0
100
AcDbBlockReference
  2
_OPEN
 10
203.1854629012314
 20
58.76475053604848
 30
0.0
 41
2.0
 42
2.0
 43
2.0
 50
180.0
  0
INSERT
  5
692C
330
668B
100
AcDbEntity
  8
30
  6
CONTINUOUS
 62
     0
100
AcDbBlockReference
  2
_OPEN
 10
246.1854629012317
 20
58.76475053604848
 30
0.0
 41
2.0
 42
2.0
 43
2.0
  0
MTEXT
  5
692D
330
668B
100
AcDbEntity
  8
30
  6
CONTINUOUS
 62
     0
100
AcDbMText
 10
224.6854629012318
 20
61.76475053604848
 30
0.0
 40
4.0
 41
0.0
 71
     5
 72
     1
  1
\A1;43
1001
ACAD
1000
MTEXTBEGIN
1070
    73
1070
     1
1070
    44
1040
1.0
1070
    74
1070
     0
1000
MTEXTEND
1000
MTEXTBEGIN
1070
    73
1070
     1
1070
    44
1040
1.0
1070
    74
1070
     0
1000
MTEXTEND
1000
MTEXTBEGIN
1070
    73
1070
     1
1070
    44
1040
1.0
1070
    74
1070
     0
1000
MTEXTEND
1000
MTEXTBEGIN
1070
    73
1070
     1
1070
    44
1040
1.0
1070
    74
1070
     0
1000
MTEXTEND
1000
MTEXTBEGIN
1070
    73
1070
     1
1070
    44
1040
1.0
1070
    74
1070
     0
1000
MTEXTEND
1000
MTEXTBEGIN
1070
    73
1070
     1
1070
    44
1040
1.0
1070
    74
1070
     0
1000
MTEXTEND
  0
POINT
  5
692E
330
668B
100
AcDbEntity
  8
DEFPOINTS
  6
CONTINUOUS
 62
     0
100
AcDbPoint
 10
203.1854629012314
 20
45.89992485029465
 30
0.0
  0
POINT
  5
692F
330
668B
100
AcDbEntity
  8
DEFPOINTS
  6
CONTINUOUS
 62
     0
100
AcDbPoint
 10
246.1854629012317
 20
43.0000468482435
 30
0.0
  0
POINT
  5
6930
330
668B
100
AcDbEntity
  8
DEFPOINTS
  6
CONTINUOUS
 62
     0
100
AcDbPoint
 10
246.1854629012317
 20
58.76475053604848
 30
0.0
  0
ENDBLK
  5
6696
330
668B
100
AcDbEntity
  8
0
100
AcDbBlockEnd
  0
BLOCK
  5
66A1
330
6697
100
AcDbEntity
  8
0
100
AcDbBlockBegin
  2
*D16
 70
     1
 10
0.0
 20
0.0
 30
0.0
  3
*D16
  1

  0
LINE
  5
691F
330
6697
100
AcDbEntity
  8
30
  6
CONTINUOUS
 62
     0
100
AcDbLine
 10
197.6854629012318
 20
100.7499859813524
 30
0.0
 11
197.6854629012318
 21
107.8837932594371
 31
0.0
  0
LINE
  5
6920
330
6697
100
AcDbEntity
  8
30
  6
CONTINUOUS
 62
     0
100
AcDbLine
 10
243.6854629012318
 20
100.7499859813524
 30
0.0
 11
243.6854629012318
 21
107.8837932594371
 31
0.0
  0
LINE
  5
6921
330
6697
100
AcDbEntity
  8
30
  6
CONTINUOUS
 62
     0
100
AcDbLine
 10
199.6854629012318
 20
107.383793259437
 30
0.0
 11
241.6854629012318
 21
107.383793259437
 31
0.0
  0
INSERT
  5
6922
330
6697
100
AcDbEntity
  8
30
  6
CONTINUOUS
 62
     0
100
AcDbBlockReference
  2
_OPEN
 10
197.6854629012318
 20
107.383793259437
 30
0.0
 41
2.0
 42
2.0
 43
2.0
 50
180.0
  0
INSERT
  5
6923
330
6697
100
AcDbEntity
  8
30
  6
CONTINUOUS
 62
     0
100
AcDbBlockReference
  2
_OPEN
 10
243.6854629012318
 20
107.383793259437
 30
0.0
 41
2.0
 42
2.0
 43
2.0
  0
MTEXT
  5
6924
330
6697
100
AcDbEntity
  8
30
  6
CONTINUOUS
 62
     0
100
AcDbMText
 10
220.6854629012318
 20
110.3837932594371
 30
0.0
 40
4.0
 41
0.0
 71
     5
 72
     1
  1
\A1;46
1001
ACAD
1000
MTEXTBEGIN
1070
    73
1070
     1
1070
    44
1040
1.0
1070
    74
1070
     0
1000
MTEXTEND
1000
MTEXTBEGIN
1070
    73
1070
     1
1070
    44
1040
1.0
1070
    74
1070
     0
1000
MTEXTEND
1000
MTEXTBEGIN
1070
    73
1070
     1
1070
    44
1040
1.0
1070
    74
1070
     0
1000
MTEXTEND
1000
MTEXTBEGIN
1070
    73
1070
     1
1070
    44
1040
1.0
1070
    74
1070
     0
1000
MTEXTEND
1000
MTEXTBEGIN
1070
    73
1070
     1
1070
    44
1040
1.0
1070
    74
1070
     0
1000
MTEXTEND
1000
MTEXTBEGIN
1070
    73
1070
     1
1070
    44
1040
1.0
1070
    74
1070
     0
1000
MTEXTEND
  0
POINT
  5
6925
330
6697
100
AcDbEntity
  8
DEFPOINTS
  6
CONTINUOUS
 62
     0
100
AcDbPoint
 10
197.6854629012318
 20
99.74998598135259
 30
0.0
  0
POINT
  5
6926
330
6697
100
AcDbEntity
  8
DEFPOINTS
  6
CONTINUOUS
 62
     0
100
AcDbPoint
 10
243.6854629012318
 20
99.74998598135259
 30
0.0
  0
POINT
  5
6927
330
6697
100
AcDbEntity
  8
DEFPOINTS
  6
CONTINUOUS
 62
     0
100
AcDbPoint
 10
243.6854629012318
 20
107.383793259437
 30
0.0
  0
ENDBLK
  5
66A2
330
6697
100
AcDbEntity
  8
0
100
AcDbBlockEnd
  0
BLOCK
  5
66AF
330
66A3
100
AcDbEntity
  8
0
100
AcDbBlockBegin
  2
*D17
 70
     1
 10
0.0
 20
0.0
 30
0.0
  3
*D17
  1

  0
LINE
  5
696A
330
66A3
100
AcDbEntity
  8
30
  6
CONTINUOUS
 62
     0
100
AcDbLine
 10
178.1855528295609
 20
-25.49995483440942
 30
0.0
 11
178.1855528295609
 21
-62.26666417942642
 31
0.0
  0
LINE
  5
696B
330
66A3
100
AcDbEntity
  8
30
  6
CONTINUOUS
 62
     0
100
AcDbLine
 10
174.1855528712699
 20
-25.4999548344084
 30
0.0
 11
174.1855528712699
 21
-62.26666417942642
 31
0.0
  0
LINE
  5
696C
330
66A3
100
AcDbEntity
  8
30
  6
CONTINUOUS
 62
     0
100
AcDbLine
 10
180.1855528295608
 20
-61.76666417942642
 30
0.0
 11
182.1855528295609
 21
-61.76666417942642
 31
0.0
  0
LINE
  5
696D
330
66A3
100
AcDbEntity
  8
30
  6
CONTINUOUS
 62
     0
100
AcDbLine
 10
172.1855528712699
 20
-61.76666417942642
 30
0.0
 11
165.5188862046029
 21
-61.76666417942642
 31
0.0
  0
INSERT
  5
696E
330
66A3
100
AcDbEntity
  8
30
  6
CONTINUOUS
 62
     0
100
AcDbBlockReference
  2
_OPEN
 10
178.1855528295609
 20
-61.76666417942642
 30
0.0
 41
2.0
 42
2.0
 43
2.0
 50
180.0
  0
INSERT
  5
696F
330
66A3
100
AcDbEntity
  8
30
  6
CONTINUOUS
 62
     0
100
AcDbBlockReference
  2
_OPEN
 10
174.1855528712699
 20
-61.76666417942642
 30
0.0
 41
2.0
 42
2.0
 43
2.0
  0
MTEXT
  5
6970
330
66A3
100
AcDbEntity
  8
30
  6
CONTINUOUS
 62
     0
100
AcDbMText
 10
167.8522195379365
 20
-58.76666417942642
 30
0.0
 40
4.0
 41
0.0
 71
     5
 72
     1
  1
\A1;4
1001
ACAD
1000
MTEXTBEGIN
1070
    73
1070
     1
1070
    44
1040
1.0
1070
    74
1070
     0
1000
MTEXTEND
1000
MTEXTBEGIN
1070
    73
1070
     1
1070
    44
1040
1.0
1070
    74
1070
     0
1000
MTEXTEND
1000
MTEXTBEGIN
1070
    73
1070
     1
1070
    44
1040
1.0
1070
    74
1070
     0
1000
MTEXTEND
1000
MTEXTBEGIN
1070
    73
1070
     1
1070
    44
1040
1.0
1070
    74
1070
     0
1000
MTEXTEND
1000
MTEXTBEGIN
1070
    73
1070
     1
1070
    44
1040
1.0
1070
    74
1070
     0
1000
MTEXTEND
1000
MTEXTBEGIN
1070
    73
1070
     1
1070
    44
1040
1.0
1070
    74
1070
     0
1000
MTEXTEND
  0
POINT
  5
6971
330
66A3
100
AcDbEntity
  8
DEFPOINTS
  6
CONTINUOUS
 62
     0
100
AcDbPoint
 10
178.1855528295609
 20
-24.49995483440942
 30
0.0
  0
POINT
  5
6972
330
66A3
100
AcDbEntity
  8
DEFPOINTS
  6
CONTINUOUS
 62
     0
100
AcDbPoint
 10
174.1855528712699
 20
-24.4999548344084
 30
0.0
  0
POINT
  5
6973
330
66A3
100
AcDbEntity
  8
DEFPOINTS
  6
CONTINUOUS
 62
     0
100
AcDbPoint
 10
174.1855528712699
 20
-61.76666417942642
 30
0.0
  0
ENDBLK
  5
66B0
330
66A3
100
AcDbEntity
  8
0
100
AcDbBlockEnd
  0
BLOCK
  5
66BD
330
66B1
100
AcDbEntity
  8
0
100
AcDbBlockBegin
  2
*D18
 70
     1
 10
0.0
 20
0.0
 30
0.0
  3
*D18
  1

  0
LINE
  5
6961
330
66B1
100
AcDbEntity
  8
30
  6
CONTINUOUS
 62
     0
100
AcDbLine
 10
178.1855528295609
 20
-25.4999548344104
 30
0.0
 11
178.1855528295609
 21
-81.54381222223889
 31
0.0
  0
LINE
  5
6962
330
66B1
100
AcDbEntity
  8
30
  6
CONTINUOUS
 62
     0
100
AcDbLine
 10
186.1855224406959
 20
-37.8999871869765
 30
0.0
 11
186.1855224406959
 21
-81.54381222223889
 31
0.0
  0
LINE
  5
6963
330
66B1
100
AcDbEntity
  8
30
  6
CONTINUOUS
 62
     0
100
AcDbLine
 10
180.1855528295608
 20
-81.0438122222389
 30
0.0
 11
184.1855224406959
 21
-81.0438122222389
 31
0.0
  0
INSERT
  5
6964
330
66B1
100
AcDbEntity
  8
30
  6
CONTINUOUS
 62
     0
100
AcDbBlockReference
  2
_OPEN
 10
178.1855528295609
 20
-81.0438122222389
 30
0.0
 41
2.0
 42
2.0
 43
2.0
 50
180.0
  0
INSERT
  5
6965
330
66B1
100
AcDbEntity
  8
30
  6
CONTINUOUS
 62
     0
100
AcDbBlockReference
  2
_OPEN
 10
186.1855224406959
 20
-81.0438122222389
 30
0.0
 41
2.0
 42
2.0
 43
2.0
  0
MTEXT
  5
6966
330
66B1
100
AcDbEntity
  8
30
  6
CONTINUOUS
 62
     0
100
AcDbMText
 10
182.1855376351284
 20
-78.0438122222389
 30
0.0
 40
4.0
 41
0.0
 71
     5
 72
     1
  1
\A1;8
1001
ACAD
1000
MTEXTBEGIN
1070
    73
1070
     1
1070
    44
1040
1.0
1070
    74
1070
     0
1000
MTEXTEND
1000
MTEXTBEGIN
1070
    73
1070
     1
1070
    44
1040
1.0
1070
    74
1070
     0
1000
MTEXTEND
1000
MTEXTBEGIN
1070
    73
1070
     1
1070
    44
1040
1.0
1070
    74
1070
     0
1000
MTEXTEND
1000
MTEXTBEGIN
1070
    73
1070
     1
1070
    44
1040
1.0
1070
    74
1070
     0
1000
MTEXTEND
1000
MTEXTBEGIN
1070
    73
1070
     1
1070
    44
1040
1.0
1070
    74
1070
     0
1000
MTEXTEND
1000
MTEXTBEGIN
1070
    73
1070
     1
1070
    44
1040
1.0
1070
    74
1070
     0
1000
MTEXTEND
  0
POINT
  5
6967
330
66B1
100
AcDbEntity
  8
DEFPOINTS
  6
CONTINUOUS
 62
     0
100
AcDbPoint
 10
178.1855528295609
 20
-24.49995483441041
 30
0.0
  0
POINT
  5
6968
330
66B1
100
AcDbEntity
  8
DEFPOINTS
  6
CONTINUOUS
 62
     0
100
AcDbPoint
 10
186.1855224406959
 20
-36.8999871869765
 30
0.0
  0
POINT
  5
6969
330
66B1
100
AcDbEntity
  8
DEFPOINTS
  6
CONTINUOUS
 62
     0
100
AcDbPoint
 10
186.1855224406959
 20
-81.0438122222389
 30
0.0
  0
ENDBLK
  5
66BE
330
66B1
100
AcDbEntity
  8
0
100
AcDbBlockEnd
  0
BLOCK
  5
66CB
330
66BF
100
AcDbEntity
  8
0
100
AcDbBlockBegin
  2
*D19
 70
     1
 10
0.0
 20
0.0
 30
0.0
  3
*D19
  1

  0
LINE
  5
6915
330
66BF
100
AcDbEntity
  8
30
  6
CONTINUOUS
 62
     0
100
AcDbLine
 10
243.6854629012318
 20
100.7499859813524
 30
0.0
 11
243.6854629012318
 21
107.8837932594371
 31
0.0
  0
LINE
  5
6916
330
66BF
100
AcDbEntity
  8
30
  6
CONTINUOUS
 62
     0
100
AcDbLine
 10
246.1854629012317
 20
44.00004684824351
 30
0.0
 11
246.1854629012317
 21
107.8837932594371
 31
0.0
  0
LINE
  5
6917
330
66BF
100
AcDbEntity
  8
30
  6
CONTINUOUS
 62
     0
100
AcDbLine
 10
241.6854629012318
 20
107.383793259437
 30
0.0
 11
239.6854629012318
 21
107.383793259437
 31
0.0
  0
LINE
  5
6918
330
66BF
100
AcDbEntity
  8
30
  6
CONTINUOUS
 62
     0
100
AcDbLine
 10
248.1854629012318
 20
107.383793259437
 30
0.0
 11
260.1854629012318
 21
107.383793259437
 31
0.0
  0
INSERT
  5
6919
330
66BF
100
AcDbEntity
  8
30
  6
CONTINUOUS
 62
     0
100
AcDbBlockReference
  2
_OPEN
 10
243.6854629012318
 20
107.383793259437
 30
0.0
 41
2.0
 42
2.0
 43
2.0
  0
INSERT
  5
691A
330
66BF
100
AcDbEntity
  8
30
  6
CONTINUOUS
 62
     0
100
AcDbBlockReference
  2
_OPEN
 10
246.1854629012317
 20
107.383793259437
 30
0.0
 41
2.0
 42
2.0
 43
2.0
 50
180.0
  0
MTEXT
  5
691B
330
66BF
100
AcDbEntity
  8
30
  6
CONTINUOUS
 62
     0
100
AcDbMText
 10
255.1854629012314
 20
110.3837932594371
 30
0.0
 40
4.0
 41
0.0
 71
     5
 72
     1
  1
\A1;2.5
1001
ACAD
1000
MTEXTBEGIN
1070
    73
1070
     1
1070
    44
1040
1.0
1070
    74
1070
     0
1000
MTEXTEND
1000
MTEXTBEGIN
1070
    73
1070
     1
1070
    44
1040
1.0
1070
    74
1070
     0
1000
MTEXTEND
1000
MTEXTBEGIN
1070
    73
1070
     1
1070
    44
1040
1.0
1070
    74
1070
     0
1000
MTEXTEND
1000
MTEXTBEGIN
1070
    73
1070
     1
1070
    44
1040
1.0
1070
    74
1070
     0
1000
MTEXTEND
1000
MTEXTBEGIN
1070
    73
1070
     1
1070
    44
1040
1.0
1070
    74
1070
     0
1000
MTEXTEND
1000
MTEXTBEGIN
1070
    73
1070
     1
1070
    44
1040
1.0
1070
    74
1070
     0
1000
MTEXTEND
  0
POINT
  5
691C
330
66BF
100
AcDbEntity
  8
DEFPOINTS
  6
CONTINUOUS
 62
     0
100
AcDbPoint
 10
243.6854629012318
 20
99.74998598135259
 30
0.0
  0
POINT
  5
691D
330
66BF
100
AcDbEntity
  8
DEFPOINTS
  6
CONTINUOUS
 62
     0
100
AcDbPoint
 10
246.1854629012317
 20
43.0000468482435
 30
0.0
  0
POINT
  5
691E
330
66BF
100
AcDbEntity
  8
DEFPOINTS
  6
CONTINUOUS
 62
     0
100
AcDbPoint
 10
246.1854629012317
 20
107.383793259437
 30
0.0
  0
ENDBLK
  5
66CC
330
66BF
100
AcDbEntity
  8
0
100
AcDbBlockEnd
  0
BLOCK
  5
6759
330
674F
100
AcDbEntity
  8
0
100
AcDbBlockBegin
  2
*D20
 70
     1
 10
0.0
 20
0.0
 30
0.0
  3
*D20
  1

  0
LINE
  5
68FA
330
674F
100
AcDbEntity
  8
30
  6
CONTINUOUS
 62
     0
100
AcDbLine
 10
8.495361690372909
 20
-208.8473930239059
 30
0.0
 11
47.12408381452973
 21
-208.8473930239059
 31
0.0
  0
LINE
  5
68FB
330
674F
100
AcDbEntity
  8
30
  6
CONTINUOUS
 62
     0
100
AcDbLine
 10
9.073453643421011
 20
-292.8473950181631
 30
0.0
 11
47.12408381452971
 21
-292.8473950181631
 31
0.0
  0
LINE
  5
68FC
330
674F
100
AcDbEntity
  8
30
  6
CONTINUOUS
 62
     0
100
AcDbLine
 10
46.62408381452971
 20
-210.8473930239059
 30
0.0
 11
46.62408381452971
 21
-290.8473950181631
 31
0.0
  0
INSERT
  5
68FD
330
674F
100
AcDbEntity
  8
30
  6
CONTINUOUS
 62
     0
100
AcDbBlockReference
  2
_OPEN
 10
46.62408381452971
 20
-208.8473930239059
 30
0.0
 41
2.0
 42
2.0
 43
2.0
 50
90.0
  0
INSERT
  5
68FE
330
674F
100
AcDbEntity
  8
30
  6
CONTINUOUS
 62
     0
100
AcDbBlockReference
  2
_OPEN
 10
46.62408381452971
 20
-292.8473950181631
 30
0.0
 41
2.0
 42
2.0
 43
2.0
 50
270.0
  0
MTEXT
  5
68FF
330
674F
100
AcDbEntity
  8
30
  6
CONTINUOUS
 62
     0
100
AcDbMText
 10
43.62408381452977
 20
-250.8473940210345
 30
0.0
 40
4.0
 41
0.0
 71
     5
 72
     1
  1
\A1;84
 11
0.0000000000000001
 21
1.0
 31
0.0
1001
ACAD
1000
MTEXTBEGIN
1070
    73
1070
     1
1070
    44
1040
1.0
1070
    74
1070
     0
1000
MTEXTEND
1000
MTEXTBEGIN
1070
    73
1070
     1
1070
    44
1040
1.0
1070
    74
1070
     0
1000
MTEXTEND
1000
MTEXTBEGIN
1070
    73
1070
     1
1070
    44
1040
1.0
1070
    74
1070
     0
1000
MTEXTEND
1000
MTEXTBEGIN
1070
    73
1070
     1
1070
    44
1040
1.0
1070
    74
1070
     0
1000
MTEXTEND
1000
MTEXTBEGIN
1070
    73
1070
     1
1070
    44
1040
1.0
1070
    74
1070
     0
1000
MTEXTEND
1000
MTEXTBEGIN
1070
    73
1070
     1
1070
    44
1040
1.0
1070
    74
1070
     0
1000
MTEXTEND
  0
POINT
  5
6900
330
674F
100
AcDbEntity
  8
DEFPOINTS
  6
CONTINUOUS
 62
     0
100
AcDbPoint
 10
7.495361690372909
 20
-208.8473930239059
 30
0.0
  0
POINT
  5
6901
330
674F
100
AcDbEntity
  8
DEFPOINTS
  6
CONTINUOUS
 62
     0
100
AcDbPoint
 10
8.073453643421011
 20
-292.8473950181631
 30
0.0
  0
POINT
  5
6902
330
674F
100
AcDbEntity
  8
DEFPOINTS
  6
CONTINUOUS
 62
     0
100
AcDbPoint
 10
46.62408381452971
 20
-292.8473950181631
 30
0.0
  0
ENDBLK
  5
675A
330
674F
100
AcDbEntity
  8
0
100
AcDbBlockEnd
  0
BLOCK
  5
67B2
330
67AB
100
AcDbEntity
  8
0
100
AcDbBlockBegin
  2
*D21
 70
     1
 10
0.0
 20
0.0
 30
0.0
  3
*D21
  1

  0
LINE
  5
6BC4
330
67AB
100
AcDbEntity
  8
30
  6
CONTINUOUS
 62
     0
100
AcDbLine
 10
168.2140224032021
 20
-236.3682432436322
 30
0.0
 11
160.5473557365356
 21
-236.3682432436319
 31
0.0
  0
LINE
  5
6BC5
330
67AB
100
AcDbEntity
  8
30
  6
CONTINUOUS
 62
     0
100
AcDbLine
 10
160.5473557365356
 20
-236.3682432436319
 30
0.0
 11
149.6295139180373
 21
-226.818698028506
 31
0.0
  0
MTEXT
  5
6BC6
330
67AB
100
AcDbEntity
  8
30
  6
CONTINUOUS
 62
     0
100
AcDbMText
 10
164.8806890698689
 20
-233.3682432436321
 30
0.0
 40
4.0
 41
0.0
 71
     5
 72
     1
  1
\A1;R2
1001
ACAD
1000
MTEXTBEGIN
1070
    73
1070
     1
1070
    44
1040
1.0
1070
    74
1070
     0
1000
MTEXTEND
1000
MTEXTBEGIN
1070
    73
1070
     1
1070
    44
1040
1.0
1070
    74
1070
     0
1000
MTEXTEND
1000
MTEXTBEGIN
1070
    73
1070
     1
1070
    44
1040
1.0
1070
    74
1070
     0
1000
MTEXTEND
1000
MTEXTBEGIN
1070
    73
1070
     1
1070
    44
1040
1.0
1070
    74
1070
     0
1000
MTEXTEND
  0
INSERT
  5
6BC7
330
67AB
100
AcDbEntity
  8
30
  6
CONTINUOUS
 62
     0
100
AcDbBlockReference
  2
_OPEN
 10
148.1241168569409
 20
-225.5019673466875
 30
0.0
 41
2.0
 42
2.0
 43
2.0
 50
138.8246767612125
  0
LINE
  5
6BC8
330
67AB
100
AcDbEntity
  8
30
  6
CONTINUOUS
 62
     0
100
AcDbLine
 10
146.5374679940216
 20
-224.1928884806245
 30
0.0
 11
146.7174679940215
 21
-224.1928884806245
 31
0.0
  0
LINE
  5
6BC9
330
67AB
100
AcDbEntity
  8
30
  6
CONTINUOUS
 62
     0
100
AcDbLine
 10
146.6274679940214
 20
-224.2828884806244
 30
0.0
 11
146.6274679940214
 21
-224.1028884806245
 31
0.0
  0
POINT
  5
6BCA
330
67AB
100
AcDbEntity
  8
DEFPOINTS
  6
CONTINUOUS
 62
     0
100
AcDbPoint
 10
148.1241168569409
 20
-225.5019673466875
 30
0.0
  0
POINT
  5
6BCB
330
67AB
100
AcDbEntity
  8
DEFPOINTS
  6
CONTINUOUS
 62
     0
100
AcDbPoint
 10
146.6274679940214
 20
-224.1928884806245
 30
0.0
  0
ENDBLK
  5
67B3
330
67AB
100
AcDbEntity
  8
0
100
AcDbBlockEnd
  0
BLOCK
  5
67BE
330
67B4
100
AcDbEntity
  8
0
100
AcDbBlockBegin
  2
*D22
 70
     1
 10
0.0
 20
0.0
 30
0.0
  3
*D22
  1

  0
LINE
  5
690C
330
67B4
100
AcDbEntity
  8
30
  6
CONTINUOUS
 62
     0
100
AcDbLine
 10
147.7029339472755
 20
-275.8473946193118
 30
0.0
 11
147.7029339472755
 21
-320.8215689840651
 31
0.0
  0
LINE
  5
690D
330
67B4
100
AcDbEntity
  8
30
  6
CONTINUOUS
 62
     0
100
AcDbLine
 10
192.7029356423927
 20
-275.8473946193118
 30
0.0
 11
192.7029356423927
 21
-320.8215689840651
 31
0.0
  0
LINE
  5
690E
330
67B4
100
AcDbEntity
  8
30
  6
CONTINUOUS
 62
     0
100
AcDbLine
 10
149.7029339472755
 20
-320.3215689840651
 30
0.0
 11
190.7029356423927
 21
-320.3215689840651
 31
0.0
  0
INSERT
  5
690F
330
67B4
100
AcDbEntity
  8
30
  6
CONTINUOUS
 62
     0
100
AcDbBlockReference
  2
_OPEN
 10
147.7029339472755
 20
-320.3215689840651
 30
0.0
 41
2.0
 42
2.0
 43
2.0
 50
180.0
  0
INSERT
  5
6910
330
67B4
100
AcDbEntity
  8
30
  6
CONTINUOUS
 62
     0
100
AcDbBlockReference
  2
_OPEN
 10
192.7029356423927
 20
-320.3215689840651
 30
0.0
 41
2.0
 42
2.0
 43
2.0
  0
MTEXT
  5
6911
330
67B4
100
AcDbEntity
  8
30
  6
CONTINUOUS
 62
     0
100
AcDbMText
 10
170.2029347948339
 20
-317.3215689840651
 30
0.0
 40
4.0
 41
0.0
 71
     5
 72
     1
  1
\A1;50
1001
ACAD
1000
MTEXTBEGIN
1070
    73
1070
     1
1070
    44
1040
1.0
1070
    74
1070
     0
1000
MTEXTEND
1000
MTEXTBEGIN
1070
    73
1070
     1
1070
    44
1040
1.0
1070
    74
1070
     0
1000
MTEXTEND
1000
MTEXTBEGIN
1070
    73
1070
     1
1070
    44
1040
1.0
1070
    74
1070
     0
1000
MTEXTEND
1000
MTEXTBEGIN
1070
    73
1070
     1
1070
    44
1040
1.0
1070
    74
1070
     0
1000
MTEXTEND
1000
MTEXTBEGIN
1070
    73
1070
     1
1070
    44
1040
1.0
1070
    74
1070
     0
1000
MTEXTEND
1000
MTEXTBEGIN
1070
    73
1070
     1
1070
    44
1040
1.0
1070
    74
1070
     0
1000
MTEXTEND
  0
POINT
  5
6912
330
67B4
100
AcDbEntity
  8
DEFPOINTS
  6
CONTINUOUS
 62
     0
100
AcDbPoint
 10
147.7029339472755
 20
-274.8473946193118
 30
0.0
  0
POINT
  5
6913
330
67B4
100
AcDbEntity
  8
DEFPOINTS
  6
CONTINUOUS
 62
     0
100
AcDbPoint
 10
192.7029356423927
 20
-274.8473946193118
 30
0.0
  0
POINT
  5
6914
330
67B4
100
AcDbEntity
  8
DEFPOINTS
  6
CONTINUOUS
 62
     0
100
AcDbPoint
 10
192.7029356423927
 20
-320.3215689840651
 30
0.0
  0
ENDBLK
  5
67BF
330
67B4
100
AcDbEntity
  8
0
100
AcDbBlockEnd
  0
BLOCK
  5
67CA
330
67C0
100
AcDbEntity
  8
0
100
AcDbBlockBegin
  2
*D23
 70
     1
 10
0.0
 20
0.0
 30
0.0
  3
*D23
  1

  0
LINE
  5
6903
330
67C0
100
AcDbEntity
  8
30
  6
CONTINUOUS
 62
     0
100
AcDbLine
 10
191.7029355925363
 20
-224.8473933729012
 30
0.0
 11
218.0760303060305
 21
-224.8473933729012
 31
0.0
  0
LINE
  5
6904
330
67C0
100
AcDbEntity
  8
30
  6
CONTINUOUS
 62
     0
100
AcDbLine
 10
191.7029355925363
 20
-276.847394669168
 30
0.0
 11
218.0760303060305
 21
-276.847394669168
 31
0.0
  0
LINE
  5
6905
330
67C0
100
AcDbEntity
  8
30
  6
CONTINUOUS
 62
     0
100
AcDbLine
 10
217.5760303060306
 20
-226.8473933729012
 30
0.0
 11
217.5760303060306
 21
-274.847394669168
 31
0.0
  0
INSERT
  5
6906
330
67C0
100
AcDbEntity
  8
30
  6
CONTINUOUS
 62
     0
100
AcDbBlockReference
  2
_OPEN
 10
217.5760303060306
 20
-224.8473933729012
 30
0.0
 41
2.0
 42
2.0
 43
2.0
 50
90.0
  0
INSERT
  5
6907
330
67C0
100
AcDbEntity
  8
30
  6
CONTINUOUS
 62
     0
100
AcDbBlockReference
  2
_OPEN
 10
217.5760303060306
 20
-276.847394669168
 30
0.0
 41
2.0
 42
2.0
 43
2.0
 50
270.0
  0
MTEXT
  5
6908
330
67C0
100
AcDbEntity
  8
30
  6
CONTINUOUS
 62
     0
100
AcDbMText
 10
214.5760303060304
 20
-250.8473940210345
 30
0.0
 40
4.0
 41
0.0
 71
     5
 72
     1
  1
\A1;52
 11
0.0000000000000001
 21
1.0
 31
0.0
1001
ACAD
1000
MTEXTBEGIN
1070
    73
1070
     1
1070
    44
1040
1.0
1070
    74
1070
     0
1000
MTEXTEND
1000
MTEXTBEGIN
1070
    73
1070
     1
1070
    44
1040
1.0
1070
    74
1070
     0
1000
MTEXTEND
1000
MTEXTBEGIN
1070
    73
1070
     1
1070
    44
1040
1.0
1070
    74
1070
     0
1000
MTEXTEND
1000
MTEXTBEGIN
1070
    73
1070
     1
1070
    44
1040
1.0
1070
    74
1070
     0
1000
MTEXTEND
1000
MTEXTBEGIN
1070
    73
1070
     1
1070
    44
1040
1.0
1070
    74
1070
     0
1000
MTEXTEND
1000
MTEXTBEGIN
1070
    73
1070
     1
1070
    44
1040
1.0
1070
    74
1070
     0
1000
MTEXTEND
  0
POINT
  5
6909
330
67C0
100
AcDbEntity
  8
DEFPOINTS
  6
CONTINUOUS
 62
     0
100
AcDbPoint
 10
190.7029355925363
 20
-224.8473933729012
 30
0.0
  0
POINT
  5
690A
330
67C0
100
AcDbEntity
  8
DEFPOINTS
  6
CONTINUOUS
 62
     0
100
AcDbPoint
 10
190.7029355925363
 20
-276.847394669168
 30
0.0
  0
POINT
  5
690B
330
67C0
100
AcDbEntity
  8
DEFPOINTS
  6
CONTINUOUS
 62
     0
100
AcDbPoint
 10
217.5760303060306
 20
-276.847394669168
 30
0.0
  0
ENDBLK
  5
67CB
330
67C0
100
AcDbEntity
  8
0
100
AcDbBlockEnd
  0
BLOCK
  5
6A69
330
6A60
100
AcDbEntity
  8
0
100
AcDbBlockBegin
  2
*D24
 70
     1
 10
0.0
 20
0.0
 30
0.0
  3
*D24
  1

  0
LINE
  5
6AA1
330
6A60
100
AcDbEntity
  8
30
  6
CONTINUOUS
 62
     0
100
AcDbLine
 10
350.2370444015366
 20
28.96868912258854
 30
0.0
 11
342.5703777348699
 21
28.96868912258856
 31
0.0
  0
LINE
  5
6AA2
330
6A60
100
AcDbEntity
  8
30
  6
CONTINUOUS
 62
     0
100
AcDbLine
 10
342.5703777348699
 20
28.96868912258856
 30
0.0
 11
323.659997412616
 21
19.13864155679718
 31
0.0
  0
MTEXT
  5
6AA3
330
6A60
100
AcDbEntity
  8
30
  6
CONTINUOUS
 62
     0
100
AcDbMText
 10
346.9037110682033
 20
31.96868912258858
 30
0.0
 40
4.0
 41
0.0
 71
     5
 72
     1
  1
\A1;%%C9
1001
ACAD
1000
MTEXTBEGIN
1070
    73
1070
     1
1070
    44
1040
1.0
1070
    74
1070
     0
1000
MTEXTEND
1000
MTEXTBEGIN
1070
    73
1070
     1
1070
    44
1040
1.0
1070
    74
1070
     0
1000
MTEXTEND
1000
MTEXTBEGIN
1070
    73
1070
     1
1070
    44
1040
1.0
1070
    74
1070
     0
1000
MTEXTEND
1000
MTEXTBEGIN
1070
    73
1070
     1
1070
    44
1040
1.0
1070
    74
1070
     0
1000
MTEXTEND
1000
MTEXTBEGIN
1070
    73
1070
     1
1070
    44
1040
1.0
1070
    74
1070
     0
1000
MTEXTEND
1000
MTEXTBEGIN
1070
    73
1070
     1
1070
    44
1040
1.0
1070
    74
1070
     0
1000
MTEXTEND
  0
INSERT
  5
6AA4
330
6A60
100
AcDbEntity
  8
30
  6
CONTINUOUS
 62
     0
100
AcDbBlockReference
  2
_OPEN
 10
321.8854351433288
 20
18.21618356186069
 30
0.0
 41
2.0
 42
2.0
 43
2.0
 50
207.4664409352064
  0
LINE
  5
6AA5
330
6A60
100
AcDbEntity
  8
30
  6
CONTINUOUS
 62
     0
100
AcDbLine
 10
317.8026700374326
 20
16.14065307325363
 30
0.0
 11
317.9826700374325
 21
16.14065307325366
 31
0.0
  0
LINE
  5
6AA6
330
6A60
100
AcDbEntity
  8
30
  6
CONTINUOUS
 62
     0
100
AcDbLine
 10
317.8926700374326
 20
16.05065307325362
 30
0.0
 11
317.8926700374326
 21
16.23065307325362
 31
0.0
  0
POINT
  5
6AA7
330
6A60
100
AcDbEntity
  8
DEFPOINTS
  6
CONTINUOUS
 62
     0
100
AcDbPoint
 10
321.8854351433288
 20
18.21618356186069
 30
0.0
  0
POINT
  5
6AA8
330
6A60
100
AcDbEntity
  8
DEFPOINTS
  6
CONTINUOUS
 62
     0
100
AcDbPoint
 10
313.8999049315362
 20
14.06512258464658
 30
0.0
  0
ENDBLK
  5
6A6A
330
6A60
100
AcDbEntity
  8
0
100
AcDbBlockEnd
  0
BLOCK
  5
6A77
330
6A6B
100
AcDbEntity
  8
0
100
AcDbBlockBegin
  2
*D25
 70
     1
 10
0.0
 20
0.0
 30
0.0
  3
*D25
  1

  0
LINE
  5
6AA9
330
6A6B
100
AcDbEntity
  8
30
  6
CONTINUOUS
 62
     0
100
AcDbLine
 10
310.8926698878635
 20
7.640652923684451
 30
0.0
 11
310.8926698878635
 21
-4.830798457326189
 31
0.0
  0
LINE
  5
6AAA
330
6A6B
100
AcDbEntity
  8
30
  6
CONTINUOUS
 62
     0
100
AcDbLine
 10
317.8926700374323
 20
6.320455049695556
 30
0.0
 11
317.8926700374323
 21
-4.830798457326189
 31
0.0
  0
LINE
  5
6AAB
330
6A6B
100
AcDbEntity
  8
30
  6
CONTINUOUS
 62
     0
100
AcDbLine
 10
312.8926698878635
 20
-4.330798457326189
 30
0.0
 11
315.8926700374323
 21
-4.330798457326189
 31
0.0
  0
INSERT
  5
6AAC
330
6A6B
100
AcDbEntity
  8
30
  6
CONTINUOUS
 62
     0
100
AcDbBlockReference
  2
_OPEN
 10
310.8926698878635
 20
-4.330798457326189
 30
0.0
 41
2.0
 42
2.0
 43
2.0
 50
180.0
  0
INSERT
  5
6AAD
330
6A6B
100
AcDbEntity
  8
30
  6
CONTINUOUS
 62
     0
100
AcDbBlockReference
  2
_OPEN
 10
317.8926700374323
 20
-4.330798457326189
 30
0.0
 41
2.0
 42
2.0
 43
2.0
  0
MTEXT
  5
6AAE
330
6A6B
100
AcDbEntity
  8
30
  6
CONTINUOUS
 62
     0
100
AcDbMText
 10
314.392669962648
 20
-1.330798457326189
 30
0.0
 40
4.0
 41
0.0
 71
     5
 72
     1
  1
\A1;7
1001
ACAD
1000
MTEXTBEGIN
1070
    73
1070
     1
1070
    44
1040
1.0
1070
    74
1070
     0
1000
MTEXTEND
1000
MTEXTBEGIN
1070
    73
1070
     1
1070
    44
1040
1.0
1070
    74
1070
     0
1000
MTEXTEND
1000
MTEXTBEGIN
1070
    73
1070
     1
1070
    44
1040
1.0
1070
    74
1070
     0
1000
MTEXTEND
1000
MTEXTBEGIN
1070
    73
1070
     1
1070
    44
1040
1.0
1070
    74
1070
     0
1000
MTEXTEND
1000
MTEXTBEGIN
1070
    73
1070
     1
1070
    44
1040
1.0
1070
    74
1070
     0
1000
MTEXTEND
1000
MTEXTBEGIN
1070
    73
1070
     1
1070
    44
1040
1.0
1070
    74
1070
     0
1000
MTEXTEND
  0
POINT
  5
6AAF
330
6A6B
100
AcDbEntity
  8
DEFPOINTS
  6
CONTINUOUS
 62
     0
100
AcDbPoint
 10
310.8926698878635
 20
8.64065292368445
 30
0.0
  0
POINT
  5
6AB0
330
6A6B
100
AcDbEntity
  8
DEFPOINTS
  6
CONTINUOUS
 62
     0
100
AcDbPoint
 10
317.8926700374323
 20
7.320455049695556
 30
0.0
  0
POINT
  5
6AB1
330
6A6B
100
AcDbEntity
  8
DEFPOINTS
  6
CONTINUOUS
 62
     0
100
AcDbPoint
 10
317.8926700374323
 20
-4.330798457326189
 30
0.0
  0
ENDBLK
  5
6A78
330
6A6B
100
AcDbEntity
  8
0
100
AcDbBlockEnd
  0
BLOCK
  5
6A83
330
6A79
100
AcDbEntity
  8
0
100
AcDbBlockBegin
  2
*D26
 70
     1
 10
0.0
 20
0.0
 30
0.0
  3
*D26
  1

  0
LINE
  5
6AB2
330
6A79
100
AcDbEntity
  8
30
  6
CONTINUOUS
 62
     0
100
AcDbLine
 10
309.8926698878635
 20
23.64065322282294
 30
0.0
 11
290.7514597702732
 21
23.64065322282294
 31
0.0
  0
LINE
  5
6AB3
330
6A79
100
AcDbEntity
  8
30
  6
CONTINUOUS
 62
     0
100
AcDbLine
 10
309.8926698878635
 20
8.64065292368445
 30
0.0
 11
290.7514597702732
 21
8.640652923684458
 31
0.0
  0
LINE
  5
6AB4
330
6A79
100
AcDbEntity
  8
30
  6
CONTINUOUS
 62
     0
100
AcDbLine
 10
291.2514597702731
 20
21.64065322282294
 30
0.0
 11
291.2514597702731
 21
10.64065292368445
 31
0.0
  0
INSERT
  5
6AB5
330
6A79
100
AcDbEntity
  8
30
  6
CONTINUOUS
 62
     0
100
AcDbBlockReference
  2
_OPEN
 10
291.2514597702731
 20
23.64065322282294
 30
0.0
 41
2.0
 42
2.0
 43
2.0
 50
90.0
  0
INSERT
  5
6AB6
330
6A79
100
AcDbEntity
  8
30
  6
CONTINUOUS
 62
     0
100
AcDbBlockReference
  2
_OPEN
 10
291.2514597702731
 20
8.640652923684458
 30
0.0
 41
2.0
 42
2.0
 43
2.0
 50
270.0
  0
MTEXT
  5
6AB7
330
6A79
100
AcDbEntity
  8
30
  6
CONTINUOUS
 62
     0
100
AcDbMText
 10
288.2514597702733
 20
16.14065307325375
 30
0.0
 40
4.0
 41
0.0
 71
     5
 72
     1
  1
\A1;Max.15
 11
0.0000000000000001
 21
1.0
 31
0.0
1001
ACAD
1000
MTEXTBEGIN
1070
    73
1070
     1
1070
    44
1040
1.0
1070
    74
1070
     0
1000
MTEXTEND
1000
MTEXTBEGIN
1070
    73
1070
     1
1070
    44
1040
1.0
1070
    74
1070
     0
1000
MTEXTEND
1000
MTEXTBEGIN
1070
    73
1070
     1
1070
    44
1040
1.0
1070
    74
1070
     0
1000
MTEXTEND
1000
MTEXTBEGIN
1070
    73
1070
     1
1070
    44
1040
1.0
1070
    74
1070
     0
1000
MTEXTEND
1000
MTEXTBEGIN
1070
    73
1070
     1
1070
    44
1040
1.0
1070
    74
1070
     0
1000
MTEXTEND
1000
MTEXTBEGIN
1070
    73
1070
     1
1070
    44
1040
1.0
1070
    74
1070
     0
1000
MTEXTEND
  0
POINT
  5
6AB8
330
6A79
100
AcDbEntity
  8
DEFPOINTS
  6
CONTINUOUS
 62
     0
100
AcDbPoint
 10
310.8926698878635
 20
23.64065322282294
 30
0.0
  0
POINT
  5
6AB9
330
6A79
100
AcDbEntity
  8
DEFPOINTS
  6
CONTINUOUS
 62
     0
100
AcDbPoint
 10
310.8926698878635
 20
8.64065292368445
 30
0.0
  0
POINT
  5
6ABA
330
6A79
100
AcDbEntity
  8
DEFPOINTS
  6
CONTINUOUS
 62
     0
100
AcDbPoint
 10
291.2514597702731
 20
8.640652923684458
 30
0.0
  0
ENDBLK
  5
6A84
330
6A79
100
AcDbEntity
  8
0
100
AcDbBlockEnd
  0
BLOCK
  5
6C05
330
6BFA
100
AcDbEntity
  8
0
100
AcDbBlockBegin
  2
*D27
 70
     1
 10
0.0
 20
0.0
 30
0.0
  3
*D27
  1

  0
LINE
  5
6BFB
330
6BFA
100
AcDbEntity
  8
0
 62
     0
100
AcDbLine
 10
504.4196166847537
 20
26.78964727227648
 30
0.0
 11
490.3763164834272
 21
26.78964727227648
 31
0.0
  0
LINE
  5
6BFC
330
6BFA
100
AcDbEntity
  8
0
 62
     0
100
AcDbLine
 10
504.4196166847537
 20
11.78964697313801
 30
0.0
 11
490.3763164834272
 21
11.78964697313801
 31
0.0
  0
LINE
  5
6BFD
330
6BFA
100
AcDbEntity
  8
0
 62
     0
100
AcDbLine
 10
491.8763164834272
 20
21.78964727227648
 30
0.0
 11
491.8763164834272
 21
16.78964697313801
 31
0.0
  0
LINE
  5
6BFE
330
6BFA
100
AcDbEntity
  8
0
 62
     0
100
AcDbLine
 10
491.8763164834272
 20
11.78964697313801
 30
0.0
 11
491.8763164834272
 21
-19.5436863601953
 31
0.0
  0
INSERT
  5
6BFF
330
6BFA
100
AcDbEntity
  8
0
 62
     0
100
AcDbBlockReference
  2
_OPEN30
 10
491.8763164834272
 20
26.78964727227648
 30
0.0
 41
5.0
 42
5.0
 43
5.0
 50
90.0
  0
INSERT
  5
6C00
330
6BFA
100
AcDbEntity
  8
0
 62
     0
100
AcDbBlockReference
  2
_OPEN30
 10
491.8763164834272
 20
11.78964697313801
 30
0.0
 41
5.0
 42
5.0
 43
5.0
 50
270.0
  0
MTEXT
  5
6C01
330
6BFA
100
AcDbEntity
  8
0
 62
     0
100
AcDbMText
 10
487.8763164834272
 20
-6.377019693528572
 30
0.0
 40
5.0
 41
0.0
 71
     5
 72
     1
  1
\A1;Max.15
 11
0.0000000000000001
 21
1.0
 31
0.0
1001
ACAD
1000
MTEXTBEGIN
1070
    73
1070
     1
1070
    44
1040
1.0
1070
    74
1070
     0
1000
MTEXTEND
1000
MTEXTBEGIN
1070
    73
1070
     1
1070
    44
1040
1.0
1070
    74
1070
     0
1000
MTEXTEND
1000
MTEXTBEGIN
1070
    73
1070
     1
1070
    44
1040
1.0
1070
    74
1070
     0
1000
MTEXTEND
  0
POINT
  5
6C02
330
6BFA
100
AcDbEntity
  8
DEFPOINTS
 62
     0
100
AcDbPoint
 10
505.9196166847538
 20
26.78964727227648
 30
0.0
  0
POINT
  5
6C03
330
6BFA
100
AcDbEntity
  8
DEFPOINTS
 62
     0
100
AcDbPoint
 10
505.9196166847538
 20
11.78964697313801
 30
0.0
  0
POINT
  5
6C04
330
6BFA
100
AcDbEntity
  8
DEFPOINTS
 62
     0
100
AcDbPoint
 10
491.8763164834272
 20
11.78964697313801
 30
0.0
  0
ENDBLK
  5
6C06
330
6BFA
100
AcDbEntity
  8
0
100
AcDbBlockEnd
  0
BLOCK
  5
6C10
330
6C07
100
AcDbEntity
  8
0
100
AcDbBlockBegin
  2
*D28
 70
     1
 10
0.0
 20
0.0
 30
0.0
  3
*D28
  1

  0
LINE
  5
6C08
330
6C07
100
AcDbEntity
  8
0
 62
     0
100
AcDbLine
 10
543.855225608515
 20
32.68495930316796
 30
0.0
 11
521.6374352070873
 21
23.06451703033161
 31
0.0
  0
LINE
  5
6C09
330
6C07
100
AcDbEntity
  8
0
 62
     0
100
AcDbLine
 10
504.2017984615581
 20
15.51477721508286
 30
0.0
 11
499.6134730022085
 21
13.52800357949109
 31
0.0
  0
MTEXT
  5
6C0A
330
6C07
100
AcDbEntity
  8
0
 62
     0
100
AcDbMText
 10
537.0657045127784
 20
34.10394288364386
 30
0.0
 40
5.0
 41
0.0
 71
     5
 72
     1
  1
\A1;%%c9
 11
0.9176650918699584
 21
0.397354727118353
 31
0.0
1001
ACAD
1000
MTEXTBEGIN
1070
    73
1070
     1
1070
    44
1040
1.0
1070
    74
1070
     0
1000
MTEXTEND
1000
MTEXTBEGIN
1070
    73
1070
     1
1070
    44
1040
1.0
1070
    74
1070
     0
1000
MTEXTEND
1000
MTEXTBEGIN
1070
    73
1070
     1
1070
    44
1040
1.0
1070
    74
1070
     0
1000
MTEXTEND
  0
LINE
  5
6C0B
330
6C07
100
AcDbEntity
  8
0
 62
     0
100
AcDbLine
 10
508.790123920908
 20
17.50155085067461
 30
0.0
 11
517.0491097477377
 21
21.07774339473985
 31
0.0
  0
INSERT
  5
6C0C
330
6C07
100
AcDbEntity
  8
0
 62
     0
100
AcDbBlockReference
  2
_OPEN30
 10
508.790123920908
 20
17.50155085067461
 30
0.0
 41
5.0
 42
5.0
 43
5.0
 50
23.41291351225502
  0
INSERT
  5
6C0D
330
6C07
100
AcDbEntity
  8
0
 62
     0
100
AcDbBlockReference
  2
_OPEN30
 10
517.0491097477377
 20
21.07774339473985
 30
0.0
 41
5.0
 42
5.0
 43
5.0
 50
203.412913512255
  0
POINT
  5
6C0E
330
6C07
100
AcDbEntity
  8
DEFPOINTS
 62
     0
100
AcDbPoint
 10
517.0491097477377
 20
21.07774339473985
 30
0.0
  0
POINT
  5
6C0F
330
6C07
100
AcDbEntity
  8
DEFPOINTS
 62
     0
100
AcDbPoint
 10
508.790123920908
 20
17.50155085067461
 30
0.0
  0
ENDBLK
  5
6C11
330
6C07
100
AcDbEntity
  8
0
100
AcDbBlockEnd
  0
BLOCK
  5
6C1E
330
6C12
100
AcDbEntity
  8
0
100
AcDbBlockBegin
  2
*D29
 70
     1
 10
0.0
 20
0.0
 30
0.0
  3
*D29
  1

  0
LINE
  5
6C13
330
6C12
100
AcDbEntity
  8
0
 62
     0
100
AcDbLine
 10
505.9196166847538
 20
10.289646973138
 30
0.0
 11
505.9196166847538
 21
-4.566668796952851
 31
0.0
  0
LINE
  5
6C14
330
6C12
100
AcDbEntity
  8
0
 62
     0
100
AcDbLine
 10
512.9196168343228
 20
8.96944909914913
 30
0.0
 11
512.9196168343228
 21
-4.566668796952853
 31
0.0
  0
LINE
  5
6C15
330
6C12
100
AcDbEntity
  8
0
 62
     0
100
AcDbLine
 10
500.9196166847537
 20
-3.066668796952852
 30
0.0
 11
495.9196166847537
 21
-3.066668796952852
 31
0.0
  0
LINE
  5
6C16
330
6C12
100
AcDbEntity
  8
0
 62
     0
100
AcDbLine
 10
517.9196168343228
 20
-3.066668796952852
 30
0.0
 11
522.9196168343228
 21
-3.066668796952852
 31
0.0
  0
LINE
  5
6C17
330
6C12
100
AcDbEntity
  8
0
 62
     0
100
AcDbLine
 10
505.9196166847538
 20
-3.066668796952852
 30
0.0
 11
512.9196168343228
 21
-3.066668796952852
 31
0.0
  0
INSERT
  5
6C18
330
6C12
100
AcDbEntity
  8
0
 62
     0
100
AcDbBlockReference
  2
_OPEN30
 10
505.9196166847538
 20
-3.066668796952852
 30
0.0
 41
5.0
 42
5.0
 43
5.0
  0
INSERT
  5
6C19
330
6C12
100
AcDbEntity
  8
0
 62
     0
100
AcDbBlockReference
  2
_OPEN30
 10
512.9196168343228
 20
-3.066668796952852
 30
0.0
 41
5.0
 42
5.0
 43
5.0
 50
180.0
  0
MTEXT
  5
6C1A
330
6C12
100
AcDbEntity
  8
0
 62
     0
100
AcDbMText
 10
509.4196167595383
 20
0.9333312030471468
 30
0.0
 40
5.0
 41
0.0
 71
     5
 72
     1
  1
\A1;7
1001
ACAD
1000
MTEXTBEGIN
1070
    73
1070
     1
1070
    44
1040
1.0
1070
    74
1070
     0
1000
MTEXTEND
1000
MTEXTBEGIN
1070
    73
1070
     1
1070
    44
1040
1.0
1070
    74
1070
     0
1000
MTEXTEND
1000
MTEXTBEGIN
1070
    73
1070
     1
1070
    44
1040
1.0
1070
    74
1070
     0
1000
MTEXTEND
  0
POINT
  5
6C1B
330
6C12
100
AcDbEntity
  8
DEFPOINTS
 62
     0
100
AcDbPoint
 10
505.9196166847538
 20
11.78964697313801
 30
0.0
  0
POINT
  5
6C1C
330
6C12
100
AcDbEntity
  8
DEFPOINTS
 62
     0
100
AcDbPoint
 10
512.9196168343228
 20
10.46944909914913
 30
0.0
  0
POINT
  5
6C1D
330
6C12
100
AcDbEntity
  8
DEFPOINTS
 62
     0
100
AcDbPoint
 10
512.9196168343228
 20
-3.066668796952852
 30
0.0
  0
ENDBLK
  5
6C1F
330
6C12
100
AcDbEntity
  8
0
100
AcDbBlockEnd
  0
BLOCK
  5
6C2A
330
6C20
100
AcDbEntity
  8
0
100
AcDbBlockBegin
  2
*D30
 70
     1
 10
0.0
 20
0.0
 30
0.0
  3
*D30
  1

  0
LINE
  5
6C21
330
6C20
100
AcDbEntity
  8
0
 62
     0
100
AcDbLine
 10
473.0350173475543
 20
76.08017579489487
 30
0.0
 11
473.0350173475543
 21
63.0094248225696
 31
0.0
  0
LINE
  5
6C22
330
6C20
100
AcDbEntity
  8
0
 62
     0
100
AcDbLine
 10
490.0350173475543
 20
76.08017579489487
 30
0.0
 11
490.0350173475543
 21
63.0094248225696
 31
0.0
  0
LINE
  5
6C23
330
6C20
100
AcDbEntity
  8
0
 62
     0
100
AcDbLine
 10
478.0350173475543
 20
64.5094248225696
 30
0.0
 11
485.0350173475543
 21
64.5094248225696
 31
0.0
  0
INSERT
  5
6C24
330
6C20
100
AcDbEntity
  8
0
 62
     0
100
AcDbBlockReference
  2
_OPEN30
 10
473.0350173475543
 20
64.5094248225696
 30
0.0
 41
5.0
 42
5.0
 43
5.0
 50
180.0
  0
INSERT
  5
6C25
330
6C20
100
AcDbEntity
  8
0
 62
     0
100
AcDbBlockReference
  2
_OPEN30
 10
490.0350173475543
 20
64.5094248225696
 30
0.0
 41
5.0
 42
5.0
 43
5.0
  0
MTEXT
  5
6C26
330
6C20
100
AcDbEntity
  8
0
 62
     0
100
AcDbMText
 10
481.5350173475543
 20
68.5094248225696
 30
0.0
 40
5.0
 41
0.0
 71
     5
 72
     1
  1
\A1;17
1001
ACAD
1000
MTEXTBEGIN
1070
    73
1070
     1
1070
    44
1040
1.0
1070
    74
1070
     0
1000
MTEXTEND
1000
MTEXTBEGIN
1070
    73
1070
     1
1070
    44
1040
1.0
1070
    74
1070
     0
1000
MTEXTEND
1000
MTEXTBEGIN
1070
    73
1070
     1
1070
    44
1040
1.0
1070
    74
1070
     0
1000
MTEXTEND
  0
POINT
  5
6C27
330
6C20
100
AcDbEntity
  8
DEFPOINTS
 62
     0
100
AcDbPoint
 10
473.0350173475543
 20
77.58017579489489
 30
0.0
  0
POINT
  5
6C28
330
6C20
100
AcDbEntity
  8
DEFPOINTS
 62
     0
100
AcDbPoint
 10
490.0350173475543
 20
77.58017579489489
 30
0.0
  0
POINT
  5
6C29
330
6C20
100
AcDbEntity
  8
DEFPOINTS
 62
     0
100
AcDbPoint
 10
490.0350173475543
 20
64.5094248225696
 30
0.0
  0
ENDBLK
  5
6C2B
330
6C20
100
AcDbEntity
  8
0
100
AcDbBlockEnd
  0
BLOCK
  5
6C38
330
6C2C
100
AcDbEntity
  8
0
100
AcDbBlockBegin
  2
*D31
 70
     1
 10
0.0
 20
0.0
 30
0.0
  3
*D31
  1

  0
LINE
  5
6C2D
330
6C2C
100
AcDbEntity
  8
0
 62
     0
100
AcDbLine
 10
490.2624161922831
 20
85.58017599431989
 30
0.0
 11
505.2915513505801
 21
85.58017599431989
 31
0.0
  0
LINE
  5
6C2E
330
6C2C
100
AcDbEntity
  8
0
 62
     0
100
AcDbLine
 10
491.5350173475543
 20
93.88017619374588
 30
0.0
 11
505.2915513505801
 21
93.88017619374588
 31
0.0
  0
LINE
  5
6C2F
330
6C2C
100
AcDbEntity
  8
0
 62
     0
100
AcDbLine
 10
503.7915513505804
 20
80.58017599431989
 30
0.0
 11
503.7915513505804
 21
75.5801759943199
 31
0.0
  0
LINE
  5
6C30
330
6C2C
100
AcDbEntity
  8
0
 62
     0
100
AcDbLine
 10
503.7915513505804
 20
98.88017619374588
 30
0.0
 11
503.7915513505804
 21
116.8801761937457
 31
0.0
  0
LINE
  5
6C31
330
6C2C
100
AcDbEntity
  8
0
 62
     0
100
AcDbLine
 10
503.7915513505804
 20
85.58017599431989
 30
0.0
 11
503.7915513505804
 21
93.88017619374588
 31
0.0
  0
INSERT
  5
6C32
330
6C2C
100
AcDbEntity
  8
0
 62
     0
100
AcDbBlockReference
  2
_OPEN30
 10
503.7915513505804
 20
85.58017599431989
 30
0.0
 41
5.0
 42
5.0
 43
5.0
 50
90.0
  0
INSERT
  5
6C33
330
6C2C
100
AcDbEntity
  8
0
 62
     0
100
AcDbBlockReference
  2
_OPEN30
 10
503.7915513505804
 20
93.88017619374588
 30
0.0
 41
5.0
 42
5.0
 43
5.0
 50
270.0
  0
MTEXT
  5
6C34
330
6C2C
100
AcDbEntity
  8
0
 62
     0
100
AcDbMText
 10
499.7915513505803
 20
110.3801761937458
 30
0.0
 40
5.0
 41
0.0
 71
     5
 72
     1
  1
\A1;8.3
 11
0.0000000000000001
 21
1.0
 31
0.0
1001
ACAD
1000
MTEXTBEGIN
1070
    73
1070
     1
1070
    44
1040
1.0
1070
    74
1070
     0
1000
MTEXTEND
1000
MTEXTBEGIN
1070
    73
1070
     1
1070
    44
1040
1.0
1070
    74
1070
     0
1000
MTEXTEND
1000
MTEXTBEGIN
1070
    73
1070
     1
1070
    44
1040
1.0
1070
    74
1070
     0
1000
MTEXTEND
  0
POINT
  5
6C35
330
6C2C
100
AcDbEntity
  8
DEFPOINTS
 62
     0
100
AcDbPoint
 10
488.7624161922832
 20
85.58017599431989
 30
0.0
  0
POINT
  5
6C36
330
6C2C
100
AcDbEntity
  8
DEFPOINTS
 62
     0
100
AcDbPoint
 10
490.0350173475543
 20
93.88017619374588
 30
0.0
  0
POINT
  5
6C37
330
6C2C
100
AcDbEntity
  8
DEFPOINTS
 62
     0
100
AcDbPoint
 10
503.7915513505804
 20
93.88017619374588
 30
0.0
  0
ENDBLK
  5
6C39
330
6C2C
100
AcDbEntity
  8
0
100
AcDbBlockEnd
  0
BLOCK
  5
6C44
330
6C3A
100
AcDbEntity
  8
0
100
AcDbBlockBegin
  2
*D32
 70
     1
 10
0.0
 20
0.0
 30
0.0
  3
*D32
  1

  0
LINE
  5
6C3B
330
6C3A
100
AcDbEntity
  8
0
 62
     0
100
AcDbLine
 10
533.7492196054173
 20
77.01951567475089
 30
0.0
 11
533.7492196054173
 21
63.0094248225696
 31
0.0
  0
LINE
  5
6C3C
330
6C3A
100
AcDbEntity
  8
0
 62
     0
100
AcDbLine
 10
557.7492203158713
 20
76.08017579489487
 30
0.0
 11
557.7492203158713
 21
63.0094248225696
 31
0.0
  0
LINE
  5
6C3D
330
6C3A
100
AcDbEntity
  8
0
 62
     0
100
AcDbLine
 10
538.7492196054173
 20
64.5094248225696
 30
0.0
 11
552.7492203158713
 21
64.5094248225696
 31
0.0
  0
INSERT
  5
6C3E
330
6C3A
100
AcDbEntity
  8
0
 62
     0
100
AcDbBlockReference
  2
_OPEN30
 10
533.7492196054173
 20
64.5094248225696
 30
0.0
 41
5.0
 42
5.0
 43
5.0
 50
180.0
  0
INSERT
  5
6C3F
330
6C3A
100
AcDbEntity
  8
0
 62
     0
100
AcDbBlockReference
  2
_OPEN30
 10
557.7492203158713
 20
64.5094248225696
 30
0.0
 41
5.0
 42
5.0
 43
5.0
  0
MTEXT
  5
6C40
330
6C3A
100
AcDbEntity
  8
0
 62
     0
100
AcDbMText
 10
545.7492199606441
 20
68.5094248225696
 30
0.0
 40
5.0
 41
0.0
 71
     5
 72
     1
  1
\A1;24
1001
ACAD
1000
MTEXTBEGIN
1070
    73
1070
     1
1070
    44
1040
1.0
1070
    74
1070
     0
1000
MTEXTEND
1000
MTEXTBEGIN
1070
    73
1070
     1
1070
    44
1040
1.0
1070
    74
1070
     0
1000
MTEXTEND
1000
MTEXTBEGIN
1070
    73
1070
     1
1070
    44
1040
1.0
1070
    74
1070
     0
1000
MTEXTEND
  0
POINT
  5
6C41
330
6C3A
100
AcDbEntity
  8
DEFPOINTS
 62
     0
100
AcDbPoint
 10
533.7492196054173
 20
78.51951567475089
 30
0.0
  0
POINT
  5
6C42
330
6C3A
100
AcDbEntity
  8
DEFPOINTS
 62
     0
100
AcDbPoint
 10
557.7492203158713
 20
77.58017579489489
 30
0.0
  0
POINT
  5
6C43
330
6C3A
100
AcDbEntity
  8
DEFPOINTS
 62
     0
100
AcDbPoint
 10
557.7492203158713
 20
64.5094248225696
 30
0.0
  0
ENDBLK
  5
6C45
330
6C3A
100
AcDbEntity
  8
0
100
AcDbBlockEnd
  0
BLOCK
  5
6D33
330
6D27
100
AcDbEntity
  8
0
100
AcDbBlockBegin
  2
*D33
 70
     1
 10
0.0
 20
0.0
 30
0.0
  3
*D33
  1

  0
LINE
  5
6E8F
330
6D27
100
AcDbEntity
  8
30
  6
CONTINUOUS
 62
     0
100
AcDbLine
 10
295.9339498054866
 20
-233.1611706451691
 30
0.0
 11
307.5170897383022
 21
-233.1611706451691
 31
0.0
  0
LINE
  5
6E90
330
6D27
100
AcDbEntity
  8
30
  6
CONTINUOUS
 62
     0
100
AcDbLine
 10
297.2065509607578
 20
-225.161170445743
 30
0.0
 11
307.5170897383022
 21
-225.161170445743
 31
0.0
  0
LINE
  5
6E91
330
6D27
100
AcDbEntity
  8
30
  6
CONTINUOUS
 62
     0
100
AcDbLine
 10
307.0170897383022
 20
-231.1611706451691
 30
0.0
 11
307.0170897383022
 21
-227.161170445743
 31
0.0
  0
LINE
  5
6E92
330
6D27
100
AcDbEntity
  8
30
  6
CONTINUOUS
 62
     0
100
AcDbLine
 10
307.0170897383022
 20
-225.161170445743
 30
0.0
 11
307.0170897383022
 21
-216.341919931495
 31
0.0
  0
LINE
  5
6E93
330
6D27
100
AcDbEntity
  8
30
  6
CONTINUOUS
 62
     0
100
AcDbLine
 10
307.0170897383022
 20
-216.341919931495
 30
0.0
 11
310.6837564049689
 21
-216.341919931495
 31
0.0
  0
INSERT
  5
6E94
330
6D27
100
AcDbEntity
  8
30
  6
CONTINUOUS
 62
     0
100
AcDbBlockReference
  2
_OPEN
 10
307.0170897383022
 20
-233.1611706451691
 30
0.0
 41
2.0
 42
2.0
 43
2.0
 50
270.0
  0
INSERT
  5
6E95
330
6D27
100
AcDbEntity
  8
30
  6
CONTINUOUS
 62
     0
100
AcDbBlockReference
  2
_OPEN
 10
307.0170897383022
 20
-225.161170445743
 30
0.0
 41
2.0
 42
2.0
 43
2.0
 50
90.0
  0
MTEXT
  5
6E96
330
6D27
100
AcDbEntity
  8
30
  6
CONTINUOUS
 62
     0
100
AcDbMText
 10
309.3504230716356
 20
-213.341919931495
 30
0.0
 40
4.0
 41
0.0
 71
     5
 72
     1
  1
\A1;8
1001
ACAD
1000
MTEXTBEGIN
1070
    73
1070
     1
1070
    44
1040
1.0
1070
    74
1070
     0
1000
MTEXTEND
  0
POINT
  5
6E97
330
6D27
100
AcDbEntity
  8
DEFPOINTS
  6
CONTINUOUS
 62
     0
100
AcDbPoint
 10
294.9339498054866
 20
-233.1611706451691
 30
0.0
  0
POINT
  5
6E98
330
6D27
100
AcDbEntity
  8
DEFPOINTS
  6
CONTINUOUS
 62
     0
100
AcDbPoint
 10
296.2065509607578
 20
-225.161170445743
 30
0.0
  0
POINT
  5
6E99
330
6D27
100
AcDbEntity
  8
DEFPOINTS
  6
CONTINUOUS
 62
     0
100
AcDbPoint
 10
307.0170897383022
 20
-225.161170445743
 30
0.0
  0
ENDBLK
  5
6D34
330
6D27
100
AcDbEntity
  8
0
100
AcDbBlockEnd
  0
BLOCK
  5
6D3F
330
6D35
100
AcDbEntity
  8
0
100
AcDbBlockBegin
  2
*D34
 70
     1
 10
0.0
 20
0.0
 30
0.0
  3
*D34
  1

  0
LINE
  5
6DAD
330
6D35
100
AcDbEntity
  8
30
  6
CONTINUOUS
 62
     0
100
AcDbLine
 10
339.9207532186208
 20
-241.221830964738
 30
0.0
 11
339.9207532186208
 21
-254.7319218169194
 31
0.0
  0
LINE
  5
6DAE
330
6D35
100
AcDbEntity
  8
30
  6
CONTINUOUS
 62
     0
100
AcDbLine
 10
363.9207539290747
 20
-242.161170844594
 30
0.0
 11
363.9207539290747
 21
-254.7319218169194
 31
0.0
  0
LINE
  5
6DAF
330
6D35
100
AcDbEntity
  8
30
  6
CONTINUOUS
 62
     0
100
AcDbLine
 10
341.9207532186208
 20
-254.2319218169193
 30
0.0
 11
361.9207539290748
 21
-254.2319218169193
 31
0.0
  0
INSERT
  5
6DB0
330
6D35
100
AcDbEntity
  8
30
  6
CONTINUOUS
 62
     0
100
AcDbBlockReference
  2
_OPEN
 10
339.9207532186208
 20
-254.2319218169193
 30
0.0
 41
2.0
 42
2.0
 43
2.0
 50
180.0
  0
INSERT
  5
6DB1
330
6D35
100
AcDbEntity
  8
30
  6
CONTINUOUS
 62
     0
100
AcDbBlockReference
  2
_OPEN
 10
363.9207539290747
 20
-254.2319218169193
 30
0.0
 41
2.0
 42
2.0
 43
2.0
  0
MTEXT
  5
6DB2
330
6D35
100
AcDbEntity
  8
30
  6
CONTINUOUS
 62
     0
100
AcDbMText
 10
351.9207535738479
 20
-251.2319218169194
 30
0.0
 40
4.0
 41
0.0
 71
     5
 72
     1
  1
\A1;24
1001
ACAD
1000
MTEXTBEGIN
1070
    73
1070
     1
1070
    44
1040
1.0
1070
    74
1070
     0
1000
MTEXTEND
1000
MTEXTBEGIN
1070
    73
1070
     1
1070
    44
1040
1.0
1070
    74
1070
     0
1000
MTEXTEND
1000
MTEXTBEGIN
1070
    73
1070
     1
1070
    44
1040
1.0
1070
    74
1070
     0
1000
MTEXTEND
  0
POINT
  5
6DB3
330
6D35
100
AcDbEntity
  8
DEFPOINTS
  6
CONTINUOUS
 62
     0
100
AcDbPoint
 10
339.9207532186208
 20
-240.221830964738
 30
0.0
  0
POINT
  5
6DB4
330
6D35
100
AcDbEntity
  8
DEFPOINTS
  6
CONTINUOUS
 62
     0
100
AcDbPoint
 10
363.9207539290747
 20
-241.161170844594
 30
0.0
  0
POINT
  5
6DB5
330
6D35
100
AcDbEntity
  8
DEFPOINTS
  6
CONTINUOUS
 62
     0
100
AcDbPoint
 10
363.9207539290747
 20
-254.2319218169193
 30
0.0
  0
ENDBLK
  5
6D40
330
6D35
100
AcDbEntity
  8
0
100
AcDbBlockEnd
  0
BLOCK
  5
6D4A
330
6D41
100
AcDbEntity
  8
0
100
AcDbBlockBegin
  2
*D35
 70
     1
 10
0.0
 20
0.0
 30
0.0
  3
*D35
  1

  0
LINE
  5
6DB6
330
6D41
100
AcDbEntity
  8
30
  6
CONTINUOUS
 62
     0
100
AcDbLine
 10
352.4933237011222
 20
-288.3080641233248
 30
0.0
 11
344.8266570344553
 21
-288.3080641233248
 31
0.0
  0
LINE
  5
6DB7
330
6D41
100
AcDbEntity
  8
30
  6
CONTINUOUS
 62
     0
100
AcDbLine
 10
344.8266570344553
 20
-288.3080641233248
 30
0.0
 11
325.0559735446811
 21
-296.8688937905125
 31
0.0
  0
MTEXT
  5
6DB8
330
6D41
100
AcDbEntity
  8
30
  6
CONTINUOUS
 62
     0
100
AcDbMText
 10
349.1599903677888
 20
-285.3080641233248
 30
0.0
 40
4.0
 41
0.0
 71
     5
 72
     1
  1
\A1;%%c9
1001
ACAD
1000
MTEXTBEGIN
1070
    73
1070
     1
1070
    44
1040
1.0
1070
    74
1070
     0
1000
MTEXTEND
1000
MTEXTBEGIN
1070
    73
1070
     1
1070
    44
1040
1.0
1070
    74
1070
     0
1000
MTEXTEND
1000
MTEXTBEGIN
1070
    73
1070
     1
1070
    44
1040
1.0
1070
    74
1070
     0
1000
MTEXTEND
  0
INSERT
  5
6DB9
330
6D41
100
AcDbEntity
  8
30
  6
CONTINUOUS
 62
     0
100
AcDbBlockReference
  2
_OPEN
 10
323.2206433609412
 20
-297.6636032447489
 30
0.0
 41
2.0
 42
2.0
 43
2.0
 50
203.4129135122551
  0
LINE
  5
6DBA
330
6D41
100
AcDbEntity
  8
30
  6
CONTINUOUS
 62
     0
100
AcDbLine
 10
319.0011504475265
 20
-299.4516995167817
 30
0.0
 11
319.1811504475263
 21
-299.4516995167817
 31
0.0
  0
LINE
  5
6DBB
330
6D41
100
AcDbEntity
  8
30
  6
CONTINUOUS
 62
     0
100
AcDbLine
 10
319.0911504475263
 20
-299.5416995167817
 30
0.0
 11
319.0911504475263
 21
-299.3616995167818
 31
0.0
  0
POINT
  5
6DBC
330
6D41
100
AcDbEntity
  8
DEFPOINTS
  6
CONTINUOUS
 62
     0
100
AcDbPoint
 10
323.2206433609412
 20
-297.6636032447489
 30
0.0
  0
POINT
  5
6DBD
330
6D41
100
AcDbEntity
  8
DEFPOINTS
  6
CONTINUOUS
 62
     0
100
AcDbPoint
 10
314.9616575341116
 20
-301.2397957888143
 30
0.0
  0
ENDBLK
  5
6D4B
330
6D41
100
AcDbEntity
  8
0
100
AcDbBlockEnd
  0
BLOCK
  5
6D58
330
6D4C
100
AcDbEntity
  8
0
100
AcDbBlockBegin
  2
*D36
 70
     1
 10
0.0
 20
0.0
 30
0.0
  3
*D36
  1

  0
LINE
  5
6DC9
330
6D4C
100
AcDbEntity
  8
30
  6
CONTINUOUS
 62
     0
100
AcDbLine
 10
312.0911502979573
 20
-307.951699666351
 30
0.0
 11
312.0911502979573
 21
-322.3080154364418
 31
0.0
  0
LINE
  5
6DCA
330
6D4C
100
AcDbEntity
  8
30
  6
CONTINUOUS
 62
     0
100
AcDbLine
 10
319.0911504475263
 20
-309.2718975403398
 30
0.0
 11
319.0911504475263
 21
-322.3080154364418
 31
0.0
  0
LINE
  5
6DCB
330
6D4C
100
AcDbEntity
  8
30
  6
CONTINUOUS
 62
     0
100
AcDbLine
 10
314.0911502979573
 20
-321.8080154364419
 30
0.0
 11
317.0911504475263
 21
-321.8080154364419
 31
0.0
  0
INSERT
  5
6DCC
330
6D4C
100
AcDbEntity
  8
30
  6
CONTINUOUS
 62
     0
100
AcDbBlockReference
  2
_OPEN
 10
312.0911502979573
 20
-321.8080154364419
 30
0.0
 41
2.0
 42
2.0
 43
2.0
 50
180.0
  0
INSERT
  5
6DCD
330
6D4C
100
AcDbEntity
  8
30
  6
CONTINUOUS
 62
     0
100
AcDbBlockReference
  2
_OPEN
 10
319.0911504475263
 20
-321.8080154364419
 30
0.0
 41
2.0
 42
2.0
 43
2.0
  0
MTEXT
  5
6DCE
330
6D4C
100
AcDbEntity
  8
30
  6
CONTINUOUS
 62
     0
100
AcDbMText
 10
315.5911503727419
 20
-318.8080154364419
 30
0.0
 40
4.0
 41
0.0
 71
     5
 72
     1
  1
\A1;7
1001
ACAD
1000
MTEXTBEGIN
1070
    73
1070
     1
1070
    44
1040
1.0
1070
    74
1070
     0
1000
MTEXTEND
1000
MTEXTBEGIN
1070
    73
1070
     1
1070
    44
1040
1.0
1070
    74
1070
     0
1000
MTEXTEND
1000
MTEXTBEGIN
1070
    73
1070
     1
1070
    44
1040
1.0
1070
    74
1070
     0
1000
MTEXTEND
  0
POINT
  5
6DCF
330
6D4C
100
AcDbEntity
  8
DEFPOINTS
  6
CONTINUOUS
 62
     0
100
AcDbPoint
 10
312.0911502979573
 20
-306.951699666351
 30
0.0
  0
POINT
  5
6DD0
330
6D4C
100
AcDbEntity
  8
DEFPOINTS
  6
CONTINUOUS
 62
     0
100
AcDbPoint
 10
319.0911504475263
 20
-308.2718975403398
 30
0.0
  0
POINT
  5
6DD1
330
6D4C
100
AcDbEntity
  8
DEFPOINTS
  6
CONTINUOUS
 62
     0
100
AcDbPoint
 10
319.0911504475263
 20
-321.8080154364419
 30
0.0
  0
ENDBLK
  5
6D59
330
6D4C
100
AcDbEntity
  8
0
100
AcDbBlockEnd
  0
BLOCK
  5
6D65
330
6D5A
100
AcDbEntity
  8
0
100
AcDbBlockBegin
  2
*D37
 70
     1
 10
0.0
 20
0.0
 30
0.0
  3
*D37
  1

  0
LINE
  5
6DFC
330
6D5A
100
AcDbEntity
  8
30
  6
CONTINUOUS
 62
     0
100
AcDbLine
 10
311.0911502979573
 20
-291.9516993672123
 30
0.0
 11
299.0851482167347
 21
-291.9516993672123
 31
0.0
  0
LINE
  5
6DFD
330
6D5A
100
AcDbEntity
  8
30
  6
CONTINUOUS
 62
     0
100
AcDbLine
 10
311.0911502979573
 20
-306.951699666351
 30
0.0
 11
299.0851482167347
 21
-306.951699666351
 31
0.0
  0
LINE
  5
6DFE
330
6D5A
100
AcDbEntity
  8
30
  6
CONTINUOUS
 62
     0
100
AcDbLine
 10
299.5851482167346
 20
-293.9516993672123
 30
0.0
 11
299.5851482167346
 21
-304.951699666351
 31
0.0
  0
LINE
  5
6DFF
330
6D5A
100
AcDbEntity
  8
30
  6
CONTINUOUS
 62
     0
100
AcDbLine
 10
299.5851482167346
 20
-306.951699666351
 30
0.0
 11
299.5851482167346
 21
-314.8306221526556
 31
0.0
  0
LINE
  5
6E00
330
6D5A
100
AcDbEntity
  8
30
  6
CONTINUOUS
 62
     0
100
AcDbLine
 10
299.5851482167346
 20
-314.8306221526556
 30
0.0
 11
279.918481550068
 21
-314.8306221526556
 31
0.0
  0
INSERT
  5
6E01
330
6D5A
100
AcDbEntity
  8
30
  6
CONTINUOUS
 62
     0
100
AcDbBlockReference
  2
_OPEN
 10
299.5851482167346
 20
-291.9516993672123
 30
0.0
 41
2.0
 42
2.0
 43
2.0
 50
90.0
  0
INSERT
  5
6E02
330
6D5A
100
AcDbEntity
  8
30
  6
CONTINUOUS
 62
     0
100
AcDbBlockReference
  2
_OPEN
 10
299.5851482167346
 20
-306.951699666351
 30
0.0
 41
2.0
 42
2.0
 43
2.0
 50
270.0
  0
MTEXT
  5
6E03
330
6D5A
100
AcDbEntity
  8
30
  6
CONTINUOUS
 62
     0
100
AcDbMText
 10
289.2518148834014
 20
-311.8306221526556
 30
0.0
 40
4.0
 41
0.0
 71
     5
 72
     1
  1
\A1;Max.15
1001
ACAD
1000
MTEXTBEGIN
1070
    73
1070
     1
1070
    44
1040
1.0
1070
    74
1070
     0
1000
MTEXTEND
1000
MTEXTBEGIN
1070
    73
1070
     1
1070
    44
1040
1.0
1070
    74
1070
     0
1000
MTEXTEND
1000
MTEXTBEGIN
1070
    73
1070
     1
1070
    44
1040
1.0
1070
    74
1070
     0
1000
MTEXTEND
  0
POINT
  5
6E04
330
6D5A
100
AcDbEntity
  8
DEFPOINTS
  6
CONTINUOUS
 62
     0
100
AcDbPoint
 10
312.0911502979573
 20
-291.9516993672123
 30
0.0
  0
POINT
  5
6E05
330
6D5A
100
AcDbEntity
  8
DEFPOINTS
  6
CONTINUOUS
 62
     0
100
AcDbPoint
 10
312.0911502979573
 20
-306.951699666351
 30
0.0
  0
POINT
  5
6E06
330
6D5A
100
AcDbEntity
  8
DEFPOINTS
  6
CONTINUOUS
 62
     0
100
AcDbPoint
 10
299.5851482167346
 20
-306.951699666351
 30
0.0
  0
ENDBLK
  5
6D66
330
6D5A
100
AcDbEntity
  8
0
100
AcDbBlockEnd
  0
BLOCK
  5
6D71
330
6D67
100
AcDbEntity
  8
0
100
AcDbBlockBegin
  2
*D38
 70
     1
 10
0.0
 20
0.0
 30
0.0
  3
*D38
  1

  0
LINE
  5
6DD2
330
6D67
100
AcDbEntity
  8
30
  6
CONTINUOUS
 62
     0
100
AcDbLine
 10
279.2065509607579
 20
-242.161170844594
 30
0.0
 11
279.2065509607579
 21
-254.7319218169194
 31
0.0
  0
LINE
  5
6DD3
330
6D67
100
AcDbEntity
  8
30
  6
CONTINUOUS
 62
     0
100
AcDbLine
 10
296.2065509607578
 20
-242.161170844594
 30
0.0
 11
296.2065509607578
 21
-254.7319218169194
 31
0.0
  0
LINE
  5
6DD4
330
6D67
100
AcDbEntity
  8
30
  6
CONTINUOUS
 62
     0
100
AcDbLine
 10
281.2065509607579
 20
-254.2319218169193
 30
0.0
 11
294.2065509607578
 21
-254.2319218169193
 31
0.0
  0
INSERT
  5
6DD5
330
6D67
100
AcDbEntity
  8
30
  6
CONTINUOUS
 62
     0
100
AcDbBlockReference
  2
_OPEN
 10
279.2065509607579
 20
-254.2319218169193
 30
0.0
 41
2.0
 42
2.0
 43
2.0
 50
180.0
  0
INSERT
  5
6DD6
330
6D67
100
AcDbEntity
  8
30
  6
CONTINUOUS
 62
     0
100
AcDbBlockReference
  2
_OPEN
 10
296.2065509607578
 20
-254.2319218169193
 30
0.0
 41
2.0
 42
2.0
 43
2.0
  0
MTEXT
  5
6DD7
330
6D67
100
AcDbEntity
  8
30
  6
CONTINUOUS
 62
     0
100
AcDbMText
 10
287.7065509607578
 20
-251.2319218169194
 30
0.0
 40
4.0
 41
0.0
 71
     5
 72
     1
  1
\A1;17
1001
ACAD
1000
MTEXTBEGIN
1070
    73
1070
     1
1070
    44
1040
1.0
1070
    74
1070
     0
1000
MTEXTEND
1000
MTEXTBEGIN
1070
    73
1070
     1
1070
    44
1040
1.0
1070
    74
1070
     0
1000
MTEXTEND
1000
MTEXTBEGIN
1070
    73
1070
     1
1070
    44
1040
1.0
1070
    74
1070
     0
1000
MTEXTEND
  0
POINT
  5
6DD8
330
6D67
100
AcDbEntity
  8
DEFPOINTS
  6
CONTINUOUS
 62
     0
100
AcDbPoint
 10
279.2065509607579
 20
-241.161170844594
 30
0.0
  0
POINT
  5
6DD9
330
6D67
100
AcDbEntity
  8
DEFPOINTS
  6
CONTINUOUS
 62
     0
100
AcDbPoint
 10
296.2065509607578
 20
-241.161170844594
 30
0.0
  0
POINT
  5
6DDA
330
6D67
100
AcDbEntity
  8
DEFPOINTS
  6
CONTINUOUS
 62
     0
100
AcDbPoint
 10
296.2065509607578
 20
-254.2319218169193
 30
0.0
  0
ENDBLK
  5
6D72
330
6D67
100
AcDbEntity
  8
0
100
AcDbBlockEnd
  0
ENDSEC
  0
SECTION
  2
ENTITIES
  0
LINE
  5
B4
330
1E
100
AcDbEntity
  8
16
100
AcDbLine
 10
0.0
 20
-101.8246001220914
 30
0.0
 11
0.0
 21
105.6073578546832
 31
0.0
  0
LINE
  5
B5
330
1E
100
AcDbEntity
  8
16
100
AcDbLine
 10
71.77465564206305
 20
-0.0000000000000027
 30
0.0
 11
-83.90588178115756
 21
-0.0000000000000027
 31
0.0
  0
MTEXT
  5
BF3
330
1E
100
AcDbEntity
  8
24
  6
CONTINUOUS
100
AcDbMText
 10
140.9820964648283
 20
176.3476821548369
 30
0.0
 40
3.0
 41
0.0
 71
     1
 72
     1
  1
\A1;
1001
ACAD
1000
MTEXTBEGIN
1070
    73
1070
     1
1070
    44
1040
1.0
1070
    74
1070
     0
1000
MTEXTEND
1000
MTEXTBEGIN
1070
    73
1070
     1
1070
    44
1040
1.0
1070
    74
1070
     0
1000
MTEXTEND
1000
MTEXTBEGIN
1070
    73
1070
     1
1070
    44
1040
1.0
1070
    74
1070
     0
1000
MTEXTEND
1000
MTEXTBEGIN
1070
    73
1070
     1
1070
    44
1040
1.0
1070
    74
1070
     0
1000
MTEXTEND
1000
MTEXTBEGIN
1070
    73
1070
     1
1070
    44
1040
1.0
1070
    74
1070
     0
1000
MTEXTEND
1000
MTEXTBEGIN
1070
    73
1070
     1
1070
    44
1040
1.0
1070
    74
1070
     0
1000
MTEXTEND
  0
LINE
  5
1C9B
330
1E
100
AcDbEntity
  8
16
100
AcDbLine
 10
252.2681462467815
 20
0.0000000000000999
 30
0.0
 11
120.102898634612
 21
0.0000000000000999
 31
0.0
  0
LINE
  5
2260
330
1E
100
AcDbEntity
  8
16
100
AcDbLine
 10
68.52380301423583
 20
-250.8473940210349
 30
0.0
 11
-80.93000773675209
 21
-250.8473940210349
 31
0.0
  0
LINE
  5
2261
330
1E
100
AcDbEntity
  8
16
100
AcDbLine
 10
-0.3800945351711884
 20
-348.5993337838806
 30
0.0
 11
-0.3800945351711884
 21
-149.4639948115489
 31
0.0
  0
LINE
  5
4C5A
330
1E
100
AcDbEntity
  8
16
100
AcDbLine
 10
88.49441808474184
 20
-0.0000000000000027
 30
0.0
 11
-83.90588178115756
 21
-0.0000000000000027
 31
0.0
  0
MTEXT
  5
5C78
330
1E
100
AcDbEntity
  8
30
  6
CONTINUOUS
100
AcDbMText
 10
162.3297648581359
 20
88.99793930010117
 30
0.0
 40
4.0
 41
0.0
 71
     9
 72
     1
  1

1001
ACAD
1000
MTEXTBEGIN
1070
    73
1070
     1
1070
    44
1040
1.0
1070
    74
1070
     0
1000
MTEXTEND
1000
MTEXTBEGIN
1070
    73
1070
     1
1070
    44
1040
1.0
1070
    74
1070
     0
1000
MTEXTEND
1000
MTEXTBEGIN
1070
    73
1070
     1
1070
    44
1040
1.0
1070
    74
1070
     0
1000
MTEXTEND
1000
MTEXTBEGIN
1070
    73
1070
     1
1070
    44
1040
1.0
1070
    74
1070
     0
1000
MTEXTEND
1000
MTEXTBEGIN
1070
    73
1070
     1
1070
    44
1040
1.0
1070
    74
1070
     0
1000
MTEXTEND
1000
MTEXTBEGIN
1070
    73
1070
     1
1070
    44
1040
1.0
1070
    74
1070
     0
1000
MTEXTEND
  0
LINE
  5
6173
330
1E
100
AcDbEntity
  8
16
100
AcDbLine
 10
170.2029347948343
 20
-348.5993337838806
 30
0.0
 11
170.2029347948343
 21
-149.4639948115489
 31
0.0
  0
LINE
  5
6177
330
1E
100
AcDbEntity
  8
16
100
AcDbLine
 10
239.1068323442413
 20
-250.8473940210349
 30
0.0
 11
89.65302159325338
 21
-250.8473940210349
 31
0.0
  0
MTEXT
  5
6200
330
1E
100
AcDbEntity
  8
30
  6
CONTINUOUS
100
AcDbMText
 10
160.6290066227675
 20
91.2377397662035
 30
0.0
 40
4.0
 41
0.0
 71
     9
 72
     1
  1

1001
ACAD
1000
MTEXTBEGIN
1070
    73
1070
     1
1070
    44
1040
1.0
1070
    74
1070
     0
1000
MTEXTEND
1000
MTEXTBEGIN
1070
    73
1070
     1
1070
    44
1040
1.0
1070
    74
1070
     0
1000
MTEXTEND
1000
MTEXTBEGIN
1070
    73
1070
     1
1070
    44
1040
1.0
1070
    74
1070
     0
1000
MTEXTEND
1000
MTEXTBEGIN
1070
    73
1070
     1
1070
    44
1040
1.0
1070
    74
1070
     0
1000
MTEXTEND
1000
MTEXTBEGIN
1070
    73
1070
     1
1070
    44
1040
1.0
1070
    74
1070
     0
1000
MTEXTEND
1000
MTEXTBEGIN
1070
    73
1070
     1
1070
    44
1040
1.0
1070
    74
1070
     0
1000
MTEXTEND
  0
LINE
  5
6418
330
1E
100
AcDbEntity
  8
10
  6
CONTINOUS
100
AcDbLine
 10
6.424973005951159
 20
-42.00000104691187
 30
0.0
 11
18.57496720531313
 21
-42.00000104691187
 31
0.0
  0
DIMENSION
  5
6419
330
1E
100
AcDbEntity
  8
30
  6
CONTINUOUS
100
AcDbDimension
  2
*D2
 10
64.56098873540503
 20
49.75000124025108
 30
0.0
 11
61.56098873540504
 21
74.7500012402146
 31
0.0
 70
    32
  1
50
  3
STANDARD
100
AcDbAlignedDimension
 13
2.999939351230238
 23
99.7500012401781
 33
0.0
 14
23.49987881962232
 24
49.75000124025109
 34
0.0
 50
90.0
100
AcDbRotatedDimension
1001
ACAD
1000
DSTYLE
1002
{
1070
    79
1070
     3
1002
}
  0
DIMENSION
  5
641A
330
1E
100
AcDbEntity
  8
30
  6
CONTINUOUS
100
AcDbDimension
  2
*D3
 10
51.93516340348359
 20
-42.00000104691189
 30
0.0
 11
48.93516340348362
 21
-0.0000000000004433
 31
0.0
 70
    32
  1
84
  3
STANDARD
100
AcDbAlignedDimension
 13
3.160024827967646
 23
42.00000104691095
 33
0.0
 14
3.160024827967646
 24
-42.00000104691187
 34
0.0
 50
90.0
100
AcDbRotatedDimension
1001
ACAD
1000
DSTYLE
1002
{
1070
    79
1070
     3
1002
}
  0
DIMENSION
  5
641B
330
1E
100
AcDbEntity
  8
30
  6
CONTINUOUS
100
AcDbDimension
  2
*D4
 10
24.99993989965091
 20
-94.48966437759395
 30
0.0
 11
-0.0001228805900444
 21
-91.48966437759396
 31
0.0
 70
    32
  1
50
  3
STANDARD
100
AcDbAlignedDimension
 13
-25.00018566083099
 23
-46.25000115285698
 33
0.0
 14
24.99993989965091
 24
-46.25000115285698
 34
0.0
100
AcDbRotatedDimension
1001
ACAD
1000
DSTYLE
1002
{
1070
    79
1070
     3
1002
}
  0
DIMENSION
  5
641C
330
1E
100
AcDbEntity
  8
30
  6
CONTINUOUS
100
AcDbDimension
  2
*D5
 10
23.49993986225852
 20
-81.04379696341338
 30
0.0
 11
-0.2500995036630547
 21
-78.04379696341341
 31
0.0
 70
    32
  1
47.5
  3
STANDARD
100
AcDbAlignedDimension
 13
-24.00013886958464
 23
-24.000031115783
 33
0.0
 14
23.49993986225852
 24
-24.000031115783
 34
0.0
100
AcDbRotatedDimension
1001
ACAD
1000
DSTYLE
1002
{
1070
    79
1070
     3
1002
}
  0
LINE
  5
641D
330
1E
100
AcDbEntity
  8
24
  6
CONTINOUS
100
AcDbLine
 10
6.42500352352502
 20
39.99999958291414
 30
0.0
 11
18.57499772288682
 21
39.99999958291414
 31
0.0
  0
LINE
  5
641E
330
1E
100
AcDbEntity
  8
24
  6
CONTINOUS
100
AcDbLine
 10
19.99993977500992
 20
33.70000084015311
 30
0.0
 11
4.999939401086662
 21
33.70000084015311
 31
0.0
  0
LINE
  5
641F
330
1E
100
AcDbEntity
  8
10
  6
CONTINOUS
100
AcDbLine
 10
4.999939401086662
 20
49.75000124017816
 30
0.0
 11
19.99993977500992
 21
49.75000124017816
 31
0.0
  0
LINE
  5
6420
330
1E
100
AcDbEntity
  8
10
  6
CONTINOUS
100
AcDbLine
 10
22.49997035490931
 20
24.9999701056991
 30
0.0
 11
-23.00013884465676
 21
24.9999701056991
 31
0.0
  0
LINE
  5
6421
330
1E
100
AcDbEntity
  8
10
  6
CONTINOUS
100
AcDbLine
 10
-23.00013884465676
 20
-25.00003114071091
 30
0.0
 11
22.49993983733042
 21
-25.00003114071091
 31
0.0
  0
LINE
  5
6422
330
1E
100
AcDbEntity
  8
24
  6
CONTINOUS
100
AcDbLine
 10
19.99993977500992
 20
-33.700008469402
 30
0.0
 11
4.999939401086662
 21
-33.700008469402
 31
0.0
  0
LINE
  5
6423
330
1E
100
AcDbEntity
  8
10
  6
CONTINOUS
100
AcDbLine
 10
4.999939401086662
 20
-49.75000124017888
 30
0.0
 11
20.99993979993798
 21
-49.75000124017888
 31
0.0
  0
DIMENSION
  5
6425
330
1E
100
AcDbEntity
  8
30
  6
CONTINUOUS
100
AcDbDimension
  2
*D6
 10
-41.14359660366367
 20
0.0000000000000028
 30
0.0
 11
-44.14359660366367
 21
19.99999979145706
 31
0.0
 70
    32
  1
40
  3
STANDARD
100
AcDbAlignedDimension
 13
-18.57499772288544
 23
39.99999958291414
 33
0.0
 14
-31.18598099372785
 24
0.0
 34
0.0
 50
90.0
100
AcDbRotatedDimension
1001
ACAD
1000
DSTYLE
1002
{
1070
    79
1070
     3
1002
}
  0
LINE
  5
6426
330
1E
100
AcDbEntity
  8
24
  6
CONTINOUS
100
AcDbLine
 10
12.49998536441649
 20
46.07501194138513
 30
0.0
 11
12.49998536441649
 21
33.92498722444412
 31
0.0
  0
LINE
  5
6427
330
1E
100
AcDbEntity
  8
24
  6
CONTINOUS
100
AcDbLine
 10
-5.000060848195346
 20
33.70000084015311
 30
0.0
 11
-5.000060848195346
 21
49.75000124017816
 31
0.0
  0
LINE
  5
6428
330
1E
100
AcDbEntity
  8
24
  6
CONTINOUS
100
AcDbLine
 10
4.999939401086662
 20
49.75000124017816
 30
0.0
 11
4.999939401086662
 21
33.70000084015311
 31
0.0
  0
LINE
  5
6429
330
1E
100
AcDbEntity
  8
24
  6
CONTINOUS
100
AcDbLine
 10
-12.49998536441626
 20
46.07501194138513
 30
0.0
 11
-12.49998536441626
 21
33.92498722444412
 31
0.0
  0
LINE
  5
642A
330
1E
100
AcDbEntity
  8
24
  6
CONTINOUS
100
AcDbLine
 10
-20.00006122211848
 20
49.75000124017816
 30
0.0
 11
-20.00006122211848
 21
33.70000084015311
 31
0.0
  0
LINE
  5
642B
330
1E
100
AcDbEntity
  8
10
  6
CONTINOUS
100
AcDbLine
 10
-25.00018566083099
 20
46.25000115300202
 30
0.0
 11
-25.00018566083099
 21
-46.25000115285698
 31
0.0
  0
LINE
  5
642D
330
1E
100
AcDbEntity
  8
24
  6
CONTINOUS
100
AcDbLine
 10
12.49998536441833
 20
-35.92498868844089
 30
0.0
 11
12.49998536441833
 21
-48.07501340538196
 31
0.0
  0
CIRCLE
  5
642E
330
1E
100
AcDbEntity
  8
12
  6
DASHED
100
AcDbCircle
 10
0.0000003116035145
 20
-41.99994001175389
 30
0.0
 40
2.4500000610741
  0
ARC
  5
642F
330
1E
100
AcDbEntity
  8
12
  6
DASHED
100
AcDbCircle
 10
0.0000003116035145
 20
-41.99994001175389
 30
0.0
 40
3.9000000972199
100
AcDbArc
 50
284.4766918647986
 51
217.300478815292
  0
LINE
  5
6430
330
1E
100
AcDbEntity
  8
24
  6
CONTINOUS
100
AcDbLine
 10
-12.49998536441824
 20
-35.92498868844089
 30
0.0
 11
-12.49998536441824
 21
-48.07501340538196
 31
0.0
  0
LINE
  5
6431
330
1E
100
AcDbEntity
  8
24
  6
CONTINOUS
100
AcDbLine
 10
-5.000060848195346
 20
-49.75000124017888
 30
0.0
 11
-5.000060848195346
 21
-33.700008469402
 31
0.0
  0
LINE
  5
6432
330
1E
100
AcDbEntity
  8
24
  6
CONTINOUS
100
AcDbLine
 10
4.999939401086662
 20
-33.700008469402
 30
0.0
 11
4.999939401086662
 21
-49.75000124017888
 31
0.0
  0
LINE
  5
6433
330
1E
100
AcDbEntity
  8
24
  6
CONTINOUS
100
AcDbLine
 10
-20.00006122211848
 20
-33.700008469402
 30
0.0
 11
-20.00006122211848
 21
-49.75000124017888
 31
0.0
  0
LINE
  5
6434
330
1E
100
AcDbEntity
  8
10
  6
CONTINOUS
100
AcDbLine
 10
-20.00006122211848
 20
-49.75000124017888
 30
0.0
 11
-5.000060848195346
 21
-49.75000124017888
 31
0.0
  0
LINE
  5
6435
330
1E
100
AcDbEntity
  8
10
  6
CONTINOUS
100
AcDbLine
 10
-23.49987881962226
 20
-46.25000115285698
 30
0.0
 11
-25.00018566083099
 21
-46.25000115285698
 31
0.0
  0
LINE
  5
6436
330
1E
100
AcDbEntity
  8
10
  6
CONTINOUS
100
AcDbLine
 10
-23.49987881962226
 20
-49.75000124010498
 30
0.0
 11
-20.00006122211848
 21
-49.75000124017888
 31
0.0
  0
LINE
  5
6437
330
1E
100
AcDbEntity
  8
10
  6
CONTINOUS
100
AcDbLine
 10
-23.49987881962226
 20
-46.25000115285698
 30
0.0
 11
-23.49987881962226
 21
-49.75000124010498
 31
0.0
  0
DIMENSION
  5
6438
330
1E
100
AcDbEntity
  8
30
  6
CONTINUOUS
100
AcDbDimension
  2
*D7
 10
12.49998536441833
 20
-67.34423486139617
 30
0.0
 11
0.000000000000041
 21
-64.34423486139619
 31
0.0
 70
    32
  1
25
  3
STANDARD
100
AcDbAlignedDimension
 13
-12.49998536441824
 23
-48.07501340538196
 33
0.0
 14
12.49998536441833
 24
-48.07501340538196
 34
0.0
100
AcDbRotatedDimension
1001
ACAD
1000
DSTYLE
1002
{
1070
    79
1070
     3
1002
}
  0
LINE
  5
6439
330
1E
100
AcDbEntity
  8
10
  6
CONTINOUS
100
AcDbLine
 10
-3.000060798338836
 20
-46.25000115285698
 30
0.0
 11
0.599939291402734
 21
-46.25000115285698
 31
0.0
  0
LINE
  5
643A
330
1E
100
AcDbEntity
  8
10
  6
CONTINOUS
100
AcDbLine
 10
-5.000060848195346
 20
-49.75000124017888
 30
0.0
 11
-3.000060798338836
 21
-49.75000124010498
 31
0.0
  0
LINE
  5
643B
330
1E
100
AcDbEntity
  8
10
  6
CONTINOUS
100
AcDbLine
 10
-3.000060798338836
 20
-46.25000115285698
 30
0.0
 11
-3.000060797370053
 21
-44.66631829063288
 31
0.0
  0
ARC
  5
643C
330
1E
100
AcDbEntity
  8
10
  6
CONTINOUS
100
AcDbCircle
 10
-3.500060809834252
 20
-44.66631828989489
 30
0.0
 40
0.50000001246411
100
AcDbArc
 50
359.9999999154316
 51
37.30047881538492
  0
LINE
  5
643D
330
1E
100
AcDbEntity
  8
10
  6
CONTINOUS
100
AcDbLine
 10
-3.000060798339006
 20
-46.25000115285689
 30
0.0
 11
-3.000060798338836
 21
-49.75000124010498
 31
0.0
  0
LINE
  5
643E
330
1E
100
AcDbEntity
  8
10
  6
CONTINOUS
100
AcDbLine
 10
0.599939291402734
 20
-49.75000124010498
 30
0.0
 11
4.999939401086662
 21
-49.75000124017888
 31
0.0
  0
ARC
  5
643F
330
1E
100
AcDbEntity
  8
10
  6
CONTINOUS
100
AcDbCircle
 10
1.099939323513154
 20
-46.260237471376
 30
0.0
 40
0.5000000124638401
100
AcDbArc
 50
104.4766918622679
 51
179.9999912903519
  0
LINE
  5
6440
330
1E
100
AcDbEntity
  8
10
  6
CONTINOUS
100
AcDbLine
 10
0.599939291402734
 20
-46.26023739536992
 30
0.0
 11
0.599939291402734
 21
-49.75000124010498
 31
0.0
  0
DIMENSION
  5
6441
330
1E
100
AcDbEntity
  8
30
  6
CONTINUOUS
100
AcDbDimension
  2
*D8
 10
-24.00013886958507
 20
-14.85502181118499
 30
0.0
 11
-12.00006943479245
 21
-11.85502181118499
 31
0.0
 70
    32
  1
24
  3
STANDARD
100
AcDbAlignedDimension
 13
0.0000000000001705
 23
-14.85502181118508
 33
0.0
 14
-24.00013886958507
 24
-14.85502181118499
 34
0.0
100
AcDbRotatedDimension
1001
ACAD
1000
DSTYLE
1002
{
1070
    79
1070
     3
1002
}
  0
LINE
  5
6442
330
1E
100
AcDbEntity
  8
24
  6
CONTINOUS
100
AcDbLine
 10
-5.000060848195346
 20
33.70000084015311
 30
0.0
 11
-20.00006122211848
 21
33.70000084015311
 31
0.0
  0
LINE
  5
6443
330
1E
100
AcDbEntity
  8
10
  6
CONTINOUS
100
AcDbLine
 10
-6.500053256192956
 20
8.949157937930122
 30
0.0
 11
-18.50005355533132
 21
8.949157937930122
 31
0.0
  0
LINE
  5
6444
330
1E
100
AcDbEntity
  8
10
  6
CONTINOUS
100
AcDbLine
 10
-6.500053256192956
 20
15.39686218267712
 30
0.0
 11
-18.50005355533132
 21
15.39686218267712
 31
0.0
  0
LINE
  5
6445
330
1E
100
AcDbEntity
  8
10
  6
CONTINOUS
100
AcDbLine
 10
-18.50005355533132
 20
19.88189967101408
 30
0.0
 11
-6.500053256192956
 21
19.88189967101408
 31
0.0
  0
LINE
  5
6446
330
1E
100
AcDbEntity
  8
10
  6
CONTINOUS
100
AcDbLine
 10
-19.00004593840085
 20
2.900000072365116
 30
0.0
 11
-6.000060873123457
 21
2.900000072365116
 31
0.0
  0
LINE
  5
6447
330
1E
100
AcDbEntity
  8
10
  6
CONTINOUS
100
AcDbLine
 10
-19.00004593840085
 20
0.8258863704571124
 30
0.0
 11
-6.000060873123457
 21
0.8258863704571124
 31
0.0
  0
LINE
  5
6448
330
1E
100
AcDbEntity
  8
24
  6
CONTINOUS
100
AcDbLine
 10
-5.000060848195346
 20
-33.700008469402
 30
0.0
 11
-20.00006122211848
 21
-33.700008469402
 31
0.0
  0
LINE
  5
6449
330
1E
100
AcDbEntity
  8
24
  6
CONTINOUS
100
AcDbLine
 10
-18.57499772288544
 20
-42.00000104691187
 30
0.0
 11
-6.425003523523487
 21
-42.00000104691187
 31
0.0
  0
DIMENSION
  5
644A
330
1E
100
AcDbEntity
  8
30
  6
CONTINUOUS
100
AcDbDimension
  2
*D9
 10
-41.14359660366367
 20
-42.00000104691187
 30
0.0
 11
-44.14359660366364
 21
-21.00000052345594
 31
0.0
 70
    32
  1
42
  3
STANDARD
100
AcDbAlignedDimension
 13
-31.18598099372785
 23
0.0
 33
0.0
 14
-18.57499772288544
 24
-42.00000104691187
 34
0.0
 50
90.0
100
AcDbRotatedDimension
1001
ACAD
1000
DSTYLE
1002
{
1070
    79
1070
     3
1002
}
  0
LINE
  5
644B
330
1E
100
AcDbEntity
  8
10
  6
CONTINOUS
100
AcDbLine
 10
-24.00013886958507
 20
23.9999700807711
 30
0.0
 11
-24.00013886958507
 21
-24.000031115783
 31
0.0
  0
ARC
  5
644C
330
1E
100
AcDbEntity
  8
10
  6
CONTINOUS
100
AcDbCircle
 10
-23.00013884465676
 20
-24.000031115783
 30
0.0
 40
1.000000024927997
100
AcDbArc
 50
180.0
 51
269.9999999999949
  0
LINE
  5
644D
330
1E
100
AcDbEntity
  8
10
  6
CONTINOUS
100
AcDbLine
 10
-18.50005355533132
 20
19.88189967101408
 30
0.0
 11
-18.50005355533132
 21
2.900000072365116
 31
0.0
  0
LINE
  5
644E
330
1E
100
AcDbEntity
  8
10
  6
CONTINOUS
100
AcDbLine
 10
-19.00004593840085
 20
16.17330063119806
 30
0.0
 11
-19.00004593840085
 21
0.8258863704571124
 31
0.0
  0
LINE
  5
644F
330
1E
100
AcDbEntity
  8
10
  6
CONTINOUS
100
AcDbLine
 10
-19.00004593840085
 20
16.17330063119806
 30
0.0
 11
-18.50005355533132
 21
16.17330063119806
 31
0.0
  0
LINE
  5
6450
330
1E
100
AcDbEntity
  8
10
  6
CONTINOUS
100
AcDbLine
 10
-19.00004593840085
 20
14.10000035156099
 30
0.0
 11
-18.50005355533132
 21
14.10000035156099
 31
0.0
  0
ARC
  5
6451
330
1E
100
AcDbEntity
  8
10
  6
CONTINOUS
100
AcDbCircle
 10
-23.00013884465676
 20
23.9999700807711
 30
0.0
 40
1.00000002492831
100
AcDbArc
 50
90.00000000000486
 51
180.0
  0
LINE
  5
6452
330
1E
100
AcDbEntity
  8
10
  6
CONTINOUS
100
AcDbLine
 10
-1.50006076094658
 20
24.64641671570211
 30
0.0
 11
-1.50006076094658
 21
-24.64647775071191
 31
0.0
  0
LINE
  5
6453
330
1E
100
AcDbEntity
  8
10
  6
CONTINOUS
100
AcDbLine
 10
-3.243512291532083
 20
-42.00000104691187
 30
0.0
 11
3.160024827967646
 21
-42.00000104691187
 31
0.0
  0
LINE
  5
6454
330
1E
100
AcDbEntity
  8
10
  6
CONTINOUS
100
AcDbLine
 10
4.999939401086662
 20
-37.9000329881639
 30
0.0
 11
-5.000060848195346
 21
-37.9000329881639
 31
0.0
  0
LINE
  5
6455
330
1E
100
AcDbEntity
  8
10
  6
CONTINOUS
100
AcDbLine
 10
-3.899999785616497
 20
-41.99604680368802
 30
0.0
 11
-3.899999785616497
 21
-42.01091362839689
 31
0.0
  0
ARC
  5
6456
330
1E
100
AcDbEntity
  8
10
  6
CONTINOUS
100
AcDbCircle
 10
-1.853614150946495
 20
-24.64647775071191
 30
0.0
 40
0.35355339
100
AcDbArc
 50
270.0000000000341
 51
0.0
  0
LINE
  5
6457
330
1E
100
AcDbEntity
  8
10
  6
CONTINOUS
100
AcDbLine
 10
-6.500053256192956
 20
19.88189967101408
 30
0.0
 11
-6.500053256192956
 21
2.900000072365116
 31
0.0
  0
LINE
  5
6458
330
1E
100
AcDbEntity
  8
10
  6
CONTINOUS
100
AcDbLine
 10
-6.000060873123457
 20
16.17330063119806
 30
0.0
 11
-6.000060873123457
 21
0.8258863704571124
 31
0.0
  0
LINE
  5
6459
330
1E
100
AcDbEntity
  8
10
  6
CONTINOUS
100
AcDbLine
 10
-6.500053256192956
 20
16.17330063119806
 30
0.0
 11
-6.000060873123457
 21
16.17330063119806
 31
0.0
  0
LINE
  5
645A
330
1E
100
AcDbEntity
  8
10
  6
CONTINOUS
100
AcDbLine
 10
-6.500053256192956
 20
14.10000035156099
 30
0.0
 11
-6.000060873123457
 21
14.10000035156099
 31
0.0
  0
ARC
  5
645B
330
1E
100
AcDbEntity
  8
10
  6
CONTINOUS
100
AcDbCircle
 10
-1.853614150947066
 20
24.64641671570098
 30
0.0
 40
0.35355339
100
AcDbArc
 50
0.0000000001661013
 51
90.00000000006512
  0
LINE
  5
645C
330
1E
100
AcDbEntity
  8
24
  6
CONTINOUS
100
AcDbLine
 10
-18.57499772288544
 20
39.99999958291414
 30
0.0
 11
-6.425003523523487
 21
39.99999958291414
 31
0.0
  0
LINE
  5
645D
330
1E
100
AcDbEntity
  8
10
  6
CONTINOUS
100
AcDbLine
 10
-20.00006122211848
 20
49.75000124017816
 30
0.0
 11
-5.000060848195346
 21
49.75000124017816
 31
0.0
  0
LINE
  5
645E
330
1E
100
AcDbEntity
  8
10
  6
CONTINOUS
100
AcDbLine
 10
-23.49987881962226
 20
46.25000115300202
 30
0.0
 11
-25.00018566083099
 21
46.25000115300202
 31
0.0
  0
LINE
  5
645F
330
1E
100
AcDbEntity
  8
10
  6
CONTINOUS
100
AcDbLine
 10
-23.49987881962226
 20
49.75000124025109
 30
0.0
 11
-20.00006122211848
 21
49.75000124017816
 31
0.0
  0
LINE
  5
6460
330
1E
100
AcDbEntity
  8
10
  6
CONTINOUS
100
AcDbLine
 10
-23.49987881962226
 20
46.25000115300202
 30
0.0
 11
-23.49987881962226
 21
49.75000124025109
 31
0.0
  0
LINE
  5
6461
330
1E
100
AcDbEntity
  8
18
100
AcDbLine
 10
-0.6000607385111607
 20
49.75000124025109
 30
0.0
 11
-0.6000607385111607
 21
99.7500012401781
 31
0.0
  0
LINE
  5
6462
330
1E
100
AcDbEntity
  8
18
100
AcDbLine
 10
2.999939351230238
 20
49.75000124025109
 30
0.0
 11
2.999939351230238
 21
99.7500012401781
 31
0.0
  0
CIRCLE
  5
6463
330
1E
100
AcDbEntity
  8
12
  6
DASHED
100
AcDbCircle
 10
0.0000003116035145
 20
41.99994001190002
 30
0.0
 40
2.4500000610741
  0
ARC
  5
6464
330
1E
100
AcDbEntity
  8
12
  6
DASHED
100
AcDbCircle
 10
0.0000003116035145
 20
41.99994001190002
 30
0.0
 40
3.90000009722017
100
AcDbArc
 50
104.478333036378
 51
37.3031017677423
  0
LINE
  5
6465
330
1E
100
AcDbEntity
  8
10
  6
CONTINOUS
100
AcDbLine
 10
-3.243512291532083
 20
42.00000104691095
 30
0.0
 11
3.160024827967646
 21
42.00000104691095
 31
0.0
  0
LINE
  5
6466
330
1E
100
AcDbEntity
  8
10
  6
CONTINOUS
100
AcDbLine
 10
4.999939401086662
 20
37.8999643237571
 30
0.0
 11
-5.000060848195346
 21
37.8999643237571
 31
0.0
  0
LINE
  5
6467
330
1E
100
AcDbEntity
  8
10
  6
CONTINOUS
100
AcDbLine
 10
-0.6000607385111607
 20
46.25000115300202
 30
0.0
 11
2.999939351230238
 21
46.25000115300202
 31
0.0
  0
ARC
  5
6468
330
1E
100
AcDbEntity
  8
10
  6
CONTINOUS
100
AcDbCircle
 10
-1.100060750895009
 20
46.26020603960614
 30
0.0
 40
0.5000000124644
100
AcDbArc
 50
284.4783330363496
 51
0.0000000356433822
  0
LINE
  5
6469
330
1E
100
AcDbEntity
  8
10
  6
CONTINOUS
100
AcDbLine
 10
-5.000060848195346
 20
49.75000124017816
 30
0.0
 11
-0.6000607385111607
 21
49.75000124025109
 31
0.0
  0
LINE
  5
646A
330
1E
100
AcDbEntity
  8
10
  6
CONTINOUS
100
AcDbLine
 10
-0.6000607385111607
 20
46.26020603991713
 30
0.0
 11
-0.6000607385111607
 21
49.75000124025109
 31
0.0
  0
LINE
  5
646B
330
1E
100
AcDbEntity
  8
10
  6
CONTINOUS
100
AcDbLine
 10
2.999939351311352
 20
44.66647851623014
 30
0.0
 11
2.999939351311352
 21
46.25000115300202
 31
0.0
  0
ARC
  5
646C
330
1E
100
AcDbEntity
  8
10
  6
CONTINOUS
100
AcDbCircle
 10
3.499939363775411
 20
44.6664785162921
 30
0.0
 40
0.50000001246411
100
AcDbArc
 50
180.0000000070999
 51
217.3031017677933
  0
LINE
  5
646D
330
1E
100
AcDbEntity
  8
10
  6
CONTINOUS
100
AcDbLine
 10
2.999939351230238
 20
49.75000124025109
 30
0.0
 11
4.999939401086662
 21
49.75000124017816
 31
0.0
  0
LINE
  5
646E
330
1E
100
AcDbEntity
  8
10
  6
CONTINOUS
100
AcDbLine
 10
2.999939351230238
 20
46.25000115300202
 30
0.0
 11
2.999939351230238
 21
49.75000124025109
 31
0.0
  0
LINE
  5
646F
330
1E
100
AcDbEntity
  8
18
100
AcDbLine
 10
-0.6000607385111607
 20
99.7500012401781
 30
0.0
 11
2.999939351230238
 21
99.7500012401781
 31
0.0
  0
DIMENSION
  5
6470
330
1E
100
AcDbEntity
  8
30
  6
CONTINUOUS
100
AcDbDimension
  2
*D10
 10
64.56098873540503
 20
-49.75000124010499
 30
0.0
 11
61.56098873540504
 21
0.0000000000730615
 31
0.0
 70
    32
  1
100
  3
STANDARD
100
AcDbAlignedDimension
 13
23.49987881962232
 23
49.75000124025109
 33
0.0
 14
23.49987881962232
 24
-49.75000124010498
 34
0.0
 50
90.0
100
AcDbRotatedDimension
1001
ACAD
1000
DSTYLE
1002
{
1070
    79
1070
     3
1002
}
  0
LINE
  5
6471
330
1E
100
AcDbEntity
  8
24
  6
CONTINOUS
100
AcDbLine
 10
19.99993977500992
 20
49.75000124017816
 30
0.0
 11
19.99993977500992
 21
33.70000084015311
 31
0.0
  0
LINE
  5
6472
330
1E
100
AcDbEntity
  8
10
  6
CONTINOUS
100
AcDbLine
 10
24.99993989965091
 20
46.25000115300202
 30
0.0
 11
24.99993989965091
 21
-46.25000115285698
 31
0.0
  0
LINE
  5
6473
330
1E
100
AcDbEntity
  8
24
  6
CONTINOUS
100
AcDbLine
 10
19.99993977500992
 20
-49.75000124010498
 30
0.0
 11
19.99993977500992
 21
-33.700008469402
 31
0.0
  0
LINE
  5
6474
330
1E
100
AcDbEntity
  8
10
  6
CONTINOUS
100
AcDbLine
 10
23.49987881962232
 20
-46.25000115285698
 30
0.0
 11
24.99993989965091
 21
-46.25000115285698
 31
0.0
  0
LINE
  5
6475
330
1E
100
AcDbEntity
  8
10
  6
CONTINOUS
100
AcDbLine
 10
23.49987881962232
 20
-46.25000115285698
 30
0.0
 11
23.49987881962232
 21
-49.75000124010498
 31
0.0
  0
LINE
  5
6476
330
1E
100
AcDbEntity
  8
10
  6
CONTINOUS
100
AcDbLine
 10
19.99993977500992
 20
-49.75000124010498
 30
0.0
 11
23.49987881962232
 21
-49.75000124010498
 31
0.0
  0
DIMENSION
  5
6477
330
1E
100
AcDbEntity
  8
30
  6
CONTINUOUS
100
AcDbDimension
  2
*D11
 10
39.89658572813771
 20
-25.00003114071092
 30
0.0
 11
36.89658572813771
 21
-0.000030517505904
 31
0.0
 70
    32
  1
50
  3
STANDARD
100
AcDbAlignedDimension
 13
22.49997035490931
 23
24.9999701056991
 33
0.0
 14
22.49993921452263
 24
-25.00003114071091
 34
0.0
 50
90.0
100
AcDbRotatedDimension
1001
ACAD
1000
DSTYLE
1002
{
1070
    79
1070
     3
1002
}
  0
LINE
  5
6478
330
1E
100
AcDbEntity
  8
10
  6
CONTINOUS
100
AcDbLine
 10
23.49993986225864
 20
23.9999700807711
 30
0.0
 11
23.49993986225864
 21
-24.000031115783
 31
0.0
  0
LINE
  5
6479
330
1E
100
AcDbEntity
  8
10
  6
CONTINOUS
100
AcDbLine
 10
24.99993989965091
 20
-37.9000329881639
 30
0.0
 11
19.99993977500992
 21
-37.9000329881639
 31
0.0
  0
ARC
  5
647A
330
1E
100
AcDbEntity
  8
10
  6
CONTINOUS
100
AcDbCircle
 10
22.49993983733042
 20
-24.000031115783
 30
0.0
 40
1.000000024928209
100
AcDbArc
 50
270.0
 51
0.0
  0
CIRCLE
  5
647B
330
1E
100
AcDbEntity
  8
10
  6
CONTINOUS
100
AcDbCircle
 10
20.20000000000001
 20
-13.49999999999988
 30
0.0
 40
1.8000000448708
  0
ARC
  5
647C
330
1E
100
AcDbEntity
  8
10
  6
CONTINOUS
100
AcDbCircle
 10
22.49997035490931
 20
23.9999700807711
 30
0.0
 40
1.000000024927997
100
AcDbArc
 50
0.0
 51
90.0
  0
LINE
  5
647D
330
1E
100
AcDbEntity
  8
10
  6
CONTINOUS
100
AcDbLine
 10
23.49987881962232
 20
46.25000115300202
 30
0.0
 11
24.99993989965091
 21
46.25000115300202
 31
0.0
  0
LINE
  5
647E
330
1E
100
AcDbEntity
  8
10
  6
CONTINOUS
100
AcDbLine
 10
24.99993989965091
 20
37.8999643237571
 30
0.0
 11
19.99993977500992
 21
37.8999643237571
 31
0.0
  0
LINE
  5
647F
330
1E
100
AcDbEntity
  8
10
  6
CONTINOUS
100
AcDbLine
 10
23.49987881962232
 20
46.25000115300202
 30
0.0
 11
23.49987881962232
 21
49.75000124025109
 31
0.0
  0
LINE
  5
6480
330
1E
100
AcDbEntity
  8
10
  6
CONTINOUS
100
AcDbLine
 10
19.99993977500992
 20
49.75000124017816
 30
0.0
 11
23.49987881962232
 21
49.75000124025109
 31
0.0
  0
DIMENSION
  5
6610
330
1E
100
AcDbEntity
  8
30
  6
CONTINUOUS
100
AcDbDimension
  2
*D12
 10
246.1854629012317
 20
-94.48967963641948
 30
0.0
 11
204.1854647429576
 21
-91.48967963641949
 31
0.0
 70
    32
  1
84
  3
STANDARD
100
AcDbAlignedDimension
 13
162.1854665846834
 23
3.312532077410466
 33
0.0
 14
246.1854629012317
 24
-43.00006821062139
 34
0.0
100
AcDbRotatedDimension
1001
ACAD
1000
DSTYLE
1002
{
1070
    79
1070
     3
1002
}
  0
DIMENSION
  5
6611
330
1E
100
AcDbEntity
  8
30
  6
CONTINUOUS
100
AcDbDimension
  2
*D13
 10
246.185462900559
 20
-81.0438122222389
 30
0.0
 11
216.1854926706275
 21
-78.0438122222389
 31
0.0
 70
    32
  1
60
  3
STANDARD
100
AcDbAlignedDimension
 13
186.1855224406959
 23
-36.8999871869765
 33
0.0
 14
246.185462900559
 24
-43.00006821062139
 34
0.0
100
AcDbRotatedDimension
1001
ACAD
1000
DSTYLE
1002
{
1070
    79
1070
     3
1002
}
  0
DIMENSION
  5
6612
330
1E
100
AcDbEntity
  8
30
  6
CONTINUOUS
100
AcDbDimension
  2
*D14
 10
246.1854629012317
 20
-67.3442501202217
 30
0.0
 11
220.6854775243518
 21
-64.3442501202217
 31
0.0
 70
    32
  1
51
  3
STANDARD
100
AcDbAlignedDimension
 13
195.1854921474718
 23
-49.74995546384644
 33
0.0
 14
246.1854629012317
 24
-43.00006821062139
 34
0.0
100
AcDbRotatedDimension
1001
ACAD
1000
DSTYLE
1002
{
1070
    79
1070
     3
1002
}
  0
DIMENSION
  5
6613
330
1E
100
AcDbEntity
  8
30
  6
CONTINUOUS
100
AcDbDimension
  2
*D15
 10
246.1854629012317
 20
58.76475053604848
 30
0.0
 11
224.6854629012318
 21
61.76475053604848
 31
0.0
 70
    32
  1
43
  3
STANDARD
100
AcDbAlignedDimension
 13
203.1854629012314
 23
45.89992485029465
 33
0.0
 14
246.1854629012317
 24
43.0000468482435
 34
0.0
100
AcDbRotatedDimension
1001
ACAD
1000
DSTYLE
1002
{
1070
    79
1070
     3
1002
}
  0
DIMENSION
  5
6614
330
1E
100
AcDbEntity
  8
30
  6
CONTINUOUS
100
AcDbDimension
  2
*D16
 10
243.6854629012318
 20
107.383793259437
 30
0.0
 11
220.6854629012318
 21
110.3837932594371
 31
0.0
 70
    32
  1
46
  3
STANDARD
100
AcDbAlignedDimension
 13
197.6854629012318
 23
99.74998598135259
 33
0.0
 14
243.6854629012318
 24
99.74998598135259
 34
0.0
100
AcDbRotatedDimension
1001
ACAD
1000
DSTYLE
1002
{
1070
    79
1070
     3
1002
}
  0
LINE
  5
6615
330
1E
100
AcDbEntity
  8
18
100
AcDbLine
 10
197.6854629012318
 20
99.74998598135259
 30
0.0
 11
243.6854629012318
 21
99.74998598135259
 31
0.0
  0
LINE
  5
6616
330
1E
100
AcDbEntity
  8
10
  6
CONTINOUS
100
AcDbLine
 10
206.1854924216818
 20
49.75004701651061
 30
0.0
 11
243.3479096721319
 21
49.75004701651061
 31
0.0
  0
LINE
  5
6617
330
1E
100
AcDbEntity
  8
10
  6
CONTINOUS
100
AcDbLine
 10
244.8041703686029
 20
46.2499528057546
 30
0.0
 11
206.1854924216818
 21
46.25004692926157
 31
0.0
  0
LINE
  5
6618
330
1E
100
AcDbEntity
  8
12
  6
DASHED
100
AcDbLine
 10
203.1854629012314
 20
44.4499248141485
 30
0.0
 11
245.9606635216488
 21
44.4499248141485
 31
0.0
  0
LINE
  5
6619
330
1E
100
AcDbEntity
  8
12
  6
DASHED
100
AcDbLine
 10
203.1854629012314
 20
39.54992469200066
 30
0.0
 11
246.1854629012317
 21
39.54992469200066
 31
0.0
  0
LINE
  5
661B
330
1E
100
AcDbEntity
  8
10
  6
CONTINOUS
100
AcDbLine
 10
206.1854924216818
 20
-49.74995546384644
 30
0.0
 11
243.3479096721319
 21
-49.7500164990044
 31
0.0
  0
LINE
  5
661C
330
1E
100
AcDbEntity
  8
10
  6
CONTINOUS
100
AcDbLine
 10
245.6432658854619
 20
-46.24994574033741
 30
0.0
 11
206.1854924216818
 21
-46.24995537659739
 31
0.0
  0
LINE
  5
661D
330
1E
100
AcDbEntity
  8
10
  6
CONTINOUS
100
AcDbLine
 10
206.1854924216818
 20
49.75004701651061
 30
0.0
 11
206.1854924216818
 21
-49.74995546384644
 31
0.0
  0
LINE
  5
661E
330
1E
100
AcDbEntity
  8
10
  6
CONTINOUS
100
AcDbLine
 10
186.1855224406968
 20
36.90001007506065
 30
0.0
 11
186.1855224406968
 21
24.99995484687357
 31
0.0
  0
DIMENSION
  5
661F
330
1E
100
AcDbEntity
  8
30
  6
CONTINUOUS
100
AcDbDimension
  2
*D17
 10
174.1855528712699
 20
-61.76666417942642
 30
0.0
 11
167.8522195379365
 21
-61.76666417942642
 31
0.0
 70
   160
  1
4
  3
STANDARD
100
AcDbAlignedDimension
 13
178.1855528295609
 23
-24.49995483440942
 33
0.0
 14
174.1855528712699
 24
-24.4999548344084
 34
0.0
100
AcDbRotatedDimension
1001
ACAD
1000
DSTYLE
1002
{
1070
    79
1070
     3
1002
}
  0
DIMENSION
  5
6620
330
1E
100
AcDbEntity
  8
30
  6
CONTINUOUS
100
AcDbDimension
  2
*D18
 10
186.1855224406959
 20
-81.0438122222389
 30
0.0
 11
182.1855376351284
 21
-78.0438122222389
 31
0.0
 70
    32
  1
8
  3
STANDARD
100
AcDbAlignedDimension
 13
178.1855528295609
 23
-24.49995483441041
 33
0.0
 14
186.1855224406959
 24
-36.8999871869765
 34
0.0
100
AcDbRotatedDimension
1001
ACAD
1000
DSTYLE
1002
{
1070
    79
1070
     3
1002
}
  0
LINE
  5
6621
330
1E
100
AcDbEntity
  8
10
  6
CONTINOUS
100
AcDbLine
 10
195.1854921474718
 20
-49.74995546384644
 30
0.0
 11
195.1854921474718
 21
-37.89998721190539
 31
0.0
  0
LINE
  5
6622
330
1E
100
AcDbEntity
  8
10
  6
CONTINOUS
100
AcDbLine
 10
195.1854921474718
 20
-46.24995537659739
 30
0.0
 11
206.1854924216818
 21
-46.24995537659739
 31
0.0
  0
LINE
  5
6623
330
1E
100
AcDbEntity
  8
10
  6
CONTINOUS
100
AcDbLine
 10
195.1854921474718
 20
-49.74995546384644
 30
0.0
 11
206.1854924216818
 21
-49.74995546384644
 31
0.0
  0
LINE
  5
6624
330
1E
100
AcDbEntity
  8
10
  6
CONTINOUS
100
AcDbLine
 10
174.5391062612669
 20
24.99995484687357
 30
0.0
 11
186.1855224406968
 21
24.99995484687357
 31
0.0
  0
LINE
  5
6625
330
1E
100
AcDbEntity
  8
10
  6
CONTINOUS
100
AcDbLine
 10
174.6855528837329
 20
-24.99995484687342
 30
0.0
 11
186.1855224406968
 21
-24.99995484687342
 31
0.0
  0
LINE
  5
6626
330
1E
100
AcDbEntity
  8
10
  6
CONTINOUS
100
AcDbLine
 10
174.1855528712699
 20
13.04082835971358
 30
0.0
 11
174.1855528712699
 21
-24.4999548344084
 31
0.0
  0
ARC
  5
6627
330
1E
100
AcDbEntity
  8
10
  6
CONTINOUS
100
AcDbCircle
 10
174.6855528837329
 20
-24.4999548344084
 30
0.0
 40
0.50000001246403
100
AcDbArc
 50
180.0
 51
270.0
  0
LINE
  5
6629
330
1E
100
AcDbEntity
  8
10
  6
CONTINOUS
100
AcDbLine
 10
174.1855528712699
 20
18.47263212501552
 30
0.0
 11
174.1855528712699
 21
13.04082835971358
 31
0.0
  0
ARC
  5
662A
330
1E
100
AcDbEntity
  8
10
  6
CONTINOUS
100
AcDbCircle
 10
166.1823907965245
 20
16.98115638926099
 30
0.0
 40
0.50000001246406
100
AcDbArc
 50
157.0010620669085
 51
246.9999480088145
  0
LINE
  5
662B
330
1E
100
AcDbEntity
  8
10
  6
CONTINOUS
100
AcDbLine
 10
174.1855528712699
 20
14.67096937556259
 30
0.0
 11
168.4143433796549
 21
17.12069509867556
 31
0.0
  0
LINE
  5
662C
330
1E
100
AcDbEntity
  8
10
  6
CONTINOUS
100
AcDbLine
 10
165.9870193892514
 20
16.52089135843457
 30
0.0
 11
174.1855528712699
 21
13.04082835971358
 31
0.0
  0
ARC
  5
662D
330
1E
100
AcDbEntity
  8
30
  6
CONTINUOUS
100
AcDbCircle
 10
194.1212797143178
 20
3.312532077410466
 30
0.0
 40
31.9358131296342
100
AcDbArc
 50
158.0705147354791
 51
180.0
  0
ARC
  5
662E
330
1E
100
AcDbEntity
  8
10
  6
CONTINOUS
100
AcDbCircle
 10
167.7453153131309
 20
20.66317598676487
 30
0.0
 40
0.5000000124641
100
AcDbArc
 50
67.00012609927418
 51
157.0011288050461
  0
LINE
  5
662F
330
1E
100
AcDbEntity
  8
10
  6
CONTINOUS
100
AcDbLine
 10
167.2850546769768
 20
20.85853433421259
 30
0.0
 11
165.7221433257086
 21
17.1765097813395
 31
0.0
  0
LINE
  5
6630
330
1E
100
AcDbEntity
  8
10
  6
CONTINOUS
100
AcDbLine
 10
167.9406766851449
 20
21.12342135348846
 30
0.0
 11
174.1855528712699
 21
18.47263212501552
 31
0.0
  0
LINE
  5
6631
330
1E
100
AcDbEntity
  8
10
  6
CONTINOUS
100
AcDbLine
 10
169.1982274460608
 20
18.96067658748453
 30
0.0
 11
174.1855528712699
 21
16.84368890900557
 31
0.0
  0
CIRCLE
  5
6632
330
1E
100
AcDbEntity
  8
10
  6
CONTINOUS
100
AcDbCircle
 10
168.8050774885998
 20
18.04120957815295
 30
0.0
 40
1.000000024927997
  0
ARC
  5
6633
330
1E
100
AcDbEntity
  8
10
  6
CONTINOUS
100
AcDbCircle
 10
174.5391062612669
 20
24.64640145687347
 30
0.0
 40
0.35355338999898
100
AcDbArc
 50
90.0
 51
180.000000000166
  0
LINE
  5
6634
330
1E
100
AcDbEntity
  8
10
  6
CONTINOUS
100
AcDbLine
 10
174.1855528712699
 20
24.64640145687251
 30
0.0
 11
174.1855528712699
 21
18.47263212501552
 31
0.0
  0
LINE
  5
6635
330
1E
100
AcDbEntity
  8
10
  6
CONTINOUS
100
AcDbLine
 10
186.1855224406968
 20
-24.99995484687342
 30
0.0
 11
186.1855224406968
 21
24.99995484687357
 31
0.0
  0
LINE
  5
6636
330
1E
100
AcDbEntity
  8
10
  6
CONTINOUS
100
AcDbLine
 10
178.1855528295609
 20
24.64640145687461
 30
0.0
 11
178.1855528295609
 21
-24.49995483441041
 31
0.0
  0
LINE
  5
6637
330
1E
100
AcDbEntity
  8
10
  6
CONTINOUS
100
AcDbLine
 10
195.1854921474718
 20
-37.89998721190539
 30
0.0
 11
187.1855224656247
 21
-37.89998721190539
 31
0.0
  0
ARC
  5
6638
330
1E
100
AcDbEntity
  8
10
  6
CONTINOUS
100
AcDbCircle
 10
178.6855528420218
 20
-24.49995483440942
 30
0.0
 40
0.50000001246397
100
AcDbArc
 50
180.0000000001171
 51
269.999999999658
  0
LINE
  5
6639
330
1E
100
AcDbEntity
  8
10
  6
CONTINOUS
100
AcDbLine
 10
186.1855224406968
 20
-24.99995484687342
 30
0.0
 11
186.1855224406968
 21
-36.8999871869765
 31
0.0
  0
ARC
  5
663A
330
1E
100
AcDbEntity
  8
10
  6
CONTINOUS
100
AcDbCircle
 10
187.1855224656247
 20
-36.8999871869765
 30
0.0
 40
1.000000024928987
100
AcDbArc
 50
180.0
 51
270.0
  0
ARC
  5
663B
330
1E
100
AcDbEntity
  8
10
  6
CONTINOUS
100
AcDbCircle
 10
178.5391062195609
 20
24.64640145687461
 30
0.0
 40
0.35355339
100
AcDbArc
 50
89.99999999984041
 51
180.0
  0
LINE
  5
663C
330
1E
100
AcDbEntity
  8
18
100
AcDbLine
 10
197.6854629012318
 20
99.74998598135259
 30
0.0
 11
197.6854629012318
 21
49.75004701651061
 31
0.0
  0
LINE
  5
663D
330
1E
100
AcDbEntity
  8
10
  6
CONTINOUS
100
AcDbLine
 10
195.1854921474718
 20
37.90001010001661
 30
0.0
 11
187.1855224655898
 21
37.90001010001661
 31
0.0
  0
ARC
  5
663E
330
1E
100
AcDbEntity
  8
10
  6
CONTINOUS
100
AcDbCircle
 10
187.1855224656076
 20
36.90001007506065
 30
0.0
 40
1.000000024927997
100
AcDbArc
 50
90.00000000103243
 51
180.0
  0
LINE
  5
663F
330
1E
100
AcDbEntity
  8
10
  6
CONTINOUS
100
AcDbLine
 10
195.1854921474718
 20
45.89992485029465
 30
0.0
 11
203.1854629012314
 21
45.89992485029465
 31
0.0
  0
LINE
  5
6640
330
1E
100
AcDbEntity
  8
10
  6
CONTINOUS
100
AcDbLine
 10
195.1854921474718
 20
38.0999246558545
 30
0.0
 11
203.1854629012314
 21
38.0999246558545
 31
0.0
  0
LINE
  5
6641
330
1E
100
AcDbEntity
  8
10
  6
CONTINOUS
100
AcDbLine
 10
195.1854921474718
 20
46.25004692926157
 30
0.0
 11
206.1854924216818
 21
46.25004692926157
 31
0.0
  0
LINE
  5
6642
330
1E
100
AcDbEntity
  8
10
  6
CONTINOUS
100
AcDbLine
 10
195.1854921474718
 20
49.75004701651061
 30
0.0
 11
206.1854924216818
 21
49.75004701651061
 31
0.0
  0
LINE
  5
6643
330
1E
100
AcDbEntity
  8
10
  6
CONTINOUS
100
AcDbLine
 10
195.1854921474718
 20
49.75004701651061
 30
0.0
 11
195.1854921474718
 21
37.90001010001661
 31
0.0
  0
LINE
  5
6644
330
1E
100
AcDbEntity
  8
10
  6
CONTINOUS
100
AcDbLine
 10
203.1854629012314
 20
45.89992485029465
 30
0.0
 11
203.1854629012314
 21
38.0999246558545
 31
0.0
  0
LINE
  5
6645
330
1E
100
AcDbEntity
  8
10
  6
CONTINOUS
100
AcDbLine
 10
246.1854629012317
 20
43.0000468482435
 30
0.0
 11
246.1854629012317
 21
15.80006448074458
 31
0.0
  0
LINE
  5
6646
330
1E
100
AcDbEntity
  8
10
  6
CONTINOUS
100
AcDbLine
 10
246.1854629012317
 20
-27.5000464619304
 30
0.0
 11
246.1854629012317
 21
-43.00006821062139
 31
0.0
  0
ARC
  5
6647
330
1E
100
AcDbEntity
  8
10
  6
CONTINOUS
100
AcDbCircle
 10
243.3479096721319
 20
-47.75001644914738
 30
0.0
 40
2.00000004985702
100
AcDbArc
 50
270.0
 51
350.0000000000062
  0
LINE
  5
6648
330
1E
100
AcDbEntity
  8
10
  6
CONTINOUS
100
AcDbLine
 10
245.3175252272558
 20
-48.09731281313869
 30
0.0
 11
245.3512549762144
 21
-47.90602190108141
 31
0.0
  0
LINE
  5
6649
330
1E
100
AcDbEntity
  8
10
  6
CONTINOUS
100
AcDbLine
 10
245.3523036747248
 20
-47.9000744362874
 30
0.0
 11
245.7854689947756
 21
-45.44347183178949
 31
0.0
  0
ARC
  5
664A
330
1E
100
AcDbEntity
  8
10
  6
CONTINOUS
100
AcDbCircle
 10
245.4854506767508
 20
-47.60008663584041
 30
0.0
 40
0.30000001939899
100
AcDbArc
 50
270.0
 51
0.0
  0
ARC
  5
664B
330
1E
100
AcDbEntity
  8
10
  6
CONTINOUS
100
AcDbCircle
 10
244.1854628513759
 20
-43.00001633073832
 30
0.0
 40
2.000000049855997
100
AcDbArc
 50
349.9999999999784
 51
359.9985137508663
  0
LINE
  5
664C
330
1E
100
AcDbEntity
  8
10
  6
CONTINOUS
100
AcDbLine
 10
245.7854689947756
 20
-47.60008663584041
 30
0.0
 11
245.7854689947756
 21
-45.44347183178949
 31
0.0
  0
LINE
  5
664D
330
1E
100
AcDbEntity
  8
10
  6
CONTINOUS
100
AcDbLine
 10
245.3523036747248
 20
-47.9000744362874
 30
0.0
 11
245.4854506767508
 21
-47.9000744362874
 31
0.0
  0
LINE
  5
664E
330
1E
100
AcDbEntity
  8
10
  6
CONTINOUS
100
AcDbLine
 10
245.7854689947756
 20
-45.44347183178949
 30
0.0
 11
246.1550784064987
 21
-43.34731269473052
 31
0.0
  0
LINE
  5
664F
330
1E
100
AcDbEntity
  8
10
  6
CONTINOUS
100
AcDbLine
 10
241.1854322590118
 20
17.80000349544359
 30
0.0
 11
241.1854627765908
 21
-16.70003856331042
 31
0.0
  0
LINE
  5
6650
330
1E
100
AcDbEntity
  8
10
  6
CONTINOUS
100
AcDbLine
 10
245.7854689947756
 20
-25.23156829229042
 30
0.0
 11
245.7854689947756
 21
-18.50009811746042
 31
0.0
  0
LINE
  5
6651
330
1E
100
AcDbEntity
  8
10
  6
CONTINOUS
100
AcDbLine
 10
245.7854689947756
 20
-25.23156829229042
 30
0.0
 11
244.8039549614908
 21
-19.6651255996184
 31
0.0
  0
LINE
  5
6652
330
1E
100
AcDbEntity
  8
10
  6
CONTINOUS
100
AcDbLine
 10
245.7854689947756
 20
-25.23156829229042
 30
0.0
 11
246.1854629012317
 21
-27.5000464619304
 31
0.0
  0
ARC
  5
6653
330
1E
100
AcDbEntity
  8
10
  6
CONTINOUS
100
AcDbCircle
 10
242.8343394063649
 20
-20.0124219636104
 30
0.0
 40
2.000000049857169
100
AcDbArc
 50
10.00000000000489
 51
75.00000000005276
  0
LINE
  5
6654
330
1E
100
AcDbEntity
  8
10
  6
CONTINOUS
100
AcDbLine
 10
245.7854689947756
 20
-18.50009811746042
 30
0.0
 11
242.7853972036806
 21
-15.50002632636541
 31
0.0
  0
LINE
  5
6655
330
1E
100
AcDbEntity
  8
10
  6
CONTINOUS
100
AcDbLine
 10
245.7854689947756
 20
-19.10007371835352
 30
0.0
 11
244.6141205386409
 21
-19.10007371835352
 31
0.0
  0
LINE
  5
6656
330
1E
100
AcDbEntity
  8
10
  6
CONTINOUS
100
AcDbLine
 10
241.1854627765908
 20
-16.70003856331042
 30
0.0
 11
241.1854322590118
 21
-17.50004621264848
 31
0.0
  0
LINE
  5
6657
330
1E
100
AcDbEntity
  8
10
  6
CONTINOUS
100
AcDbLine
 10
242.2854628040119
 20
-15.50002632636541
 30
0.0
 11
241.9639204942148
 21
-16.70003856331042
 31
0.0
  0
LINE
  5
6658
330
1E
100
AcDbEntity
  8
10
  6
CONTINOUS
100
AcDbLine
 10
241.1854627765908
 20
-16.70003856331042
 30
0.0
 11
241.9639204942148
 21
-16.70003856331042
 31
0.0
  0
LINE
  5
6659
330
1E
100
AcDbEntity
  8
10
  6
CONTINOUS
100
AcDbLine
 10
242.2854628040119
 20
-15.50002632636541
 30
0.0
 11
242.7853972036806
 21
-15.50002632636541
 31
0.0
  0
LINE
  5
665A
330
1E
100
AcDbEntity
  8
10
  6
CONTINOUS
100
AcDbLine
 10
241.1854322590118
 20
-17.50004621264848
 30
0.0
 11
243.3519775094718
 21
-18.08057026287437
 31
0.0
  0
ARC
  5
665B
330
1E
100
AcDbEntity
  8
10
  6
CONTINOUS
100
AcDbCircle
 10
237.4854321667778
 20
14.60000341567352
 30
0.0
 40
4.200000104698148
100
AcDbArc
 50
331.7574628155623
 51
28.24253718443749
  0
LINE
  5
665C
330
1E
100
AcDbEntity
  8
10
  6
CONTINOUS
100
AcDbLine
 10
242.5970268234798
 20
16.59999125849849
 30
0.0
 11
245.0942803037008
 21
15.30006446828052
 31
0.0
  0
ARC
  5
665D
330
1E
100
AcDbEntity
  8
10
  6
CONTINOUS
100
AcDbCircle
 10
245.6854323711888
 20
15.80006448074458
 30
0.0
 40
0.50000001246403
100
AcDbArc
 50
270.0
 51
0.0
  0
LINE
  5
665E
330
1E
100
AcDbEntity
  8
10
  6
CONTINOUS
100
AcDbLine
 10
245.0942803037008
 20
15.30006446828052
 30
0.0
 11
245.6854323711888
 21
15.30006446828052
 31
0.0
  0
LINE
  5
665F
330
1E
100
AcDbEntity
  8
10
  6
CONTINOUS
100
AcDbLine
 10
241.1854322590118
 20
17.80000349544359
 30
0.0
 11
242.3854322889258
 21
17.80000349544359
 31
0.0
  0
LINE
  5
6660
330
1E
100
AcDbEntity
  8
10
  6
CONTINOUS
100
AcDbLine
 10
242.3854322889258
 20
17.80000349544359
 30
0.0
 11
242.5970268234798
 21
16.59999125849849
 31
0.0
  0
DIMENSION
  5
6661
330
1E
100
AcDbEntity
  8
30
  6
CONTINUOUS
100
AcDbDimension
  2
*D19
 10
246.1854629012317
 20
107.383793259437
 30
0.0
 11
255.1854629012314
 21
110.3837932594371
 31
0.0
 70
    32
  1
2.5
  3
STANDARD
100
AcDbAlignedDimension
 13
243.6854629012318
 23
99.74998598135259
 33
0.0
 14
246.1854629012317
 24
43.0000468482435
 34
0.0
100
AcDbRotatedDimension
1001
ACAD
1000
DSTYLE
1002
{
1070
    79
1070
     3
1002
}
  0
LINE
  5
6662
330
1E
100
AcDbEntity
  8
18
100
AcDbLine
 10
243.6854629012318
 20
99.74998598135259
 30
0.0
 11
243.6854629012318
 21
49.75004701651061
 31
0.0
  0
ARC
  5
6663
330
1E
100
AcDbEntity
  8
10
  6
CONTINOUS
100
AcDbCircle
 10
244.8041703686029
 20
45.24995278082659
 30
0.0
 40
1.000000024927997
100
AcDbArc
 50
10.00000000001534
 51
90.0
  0
LINE
  5
6664
330
1E
100
AcDbEntity
  8
10
  6
CONTINOUS
100
AcDbLine
 10
245.3175252272549
 20
48.09734333064453
 30
0.0
 11
246.1550784064987
 21
43.34734321223559
 31
0.0
  0
ARC
  5
6665
330
1E
100
AcDbEntity
  8
10
  6
CONTINOUS
100
AcDbCircle
 10
244.1854628513748
 20
43.00004684824459
 30
0.0
 40
2.00000004985697
100
AcDbArc
 50
359.9999999999706
 51
9.999999999986957
  0
ARC
  5
6666
330
1E
100
AcDbEntity
  8
10
  6
CONTINOUS
100
AcDbCircle
 10
243.3479096721319
 20
47.75004696665358
 30
0.0
 40
2.00000004985697
100
AcDbArc
 50
9.999999999990066
 51
90.0
  0
LINE
  5
673D
330
1E
100
AcDbEntity
  8
30
  6
CONTINUOUS
100
AcDbLine
 10
1.668365285268926
 20
-205.4116820081143
 30
0.0
 11
24.23410907271651
 21
-178.5188757798635
 31
0.0
  0
DIMENSION
  5
673E
330
1E
100
AcDbEntity
  8
30
  6
CONTINUOUS
100
AcDbDimension
  2
*D20
 10
46.62408381452971
 20
-292.8473950181631
 30
0.0
 11
43.62408381452977
 21
-250.8473940210345
 31
0.0
 70
    32
  1
84
  3
STANDARD
100
AcDbAlignedDimension
 13
7.495361690372909
 23
-208.8473930239059
 33
0.0
 14
8.073453643421011
 24
-292.8473950181631
 34
0.0
 50
90.0
100
AcDbRotatedDimension
1001
ACAD
1000
DSTYLE
1002
{
1070
    79
1070
     3
1002
}
  0
LINE
  5
673F
330
1E
100
AcDbEntity
  8
18
  6
DIVIDE
100
AcDbLine
 10
-25.380095469979
 20
-201.8473928244818
 30
0.0
 11
24.61990639963651
 21
-201.8473928244818
 31
0.0
  0
LINE
  5
6741
330
1E
100
AcDbEntity
  8
18
  6
DIVIDE
100
AcDbLine
 10
-25.380095469979
 20
-301.8473952175888
 30
0.0
 11
24.61990639963651
 21
-301.8473952175888
 31
0.0
  0
LINE
  5
6742
330
1E
100
AcDbEntity
  8
18
  6
DIVIDE
100
AcDbLine
 10
-25.380095469979
 20
-301.8473952175888
 30
0.0
 11
-25.380095469979
 21
-201.8473928244818
 31
0.0
  0
CIRCLE
  5
6744
330
1E
100
AcDbEntity
  8
12
  6
CONTINUOUS
 62
     3
100
AcDbCircle
 10
-0.3800948467738503
 20
-292.8473950181631
 30
0.0
 40
4.000000099712798
  0
CIRCLE
  5
6745
330
1E
100
AcDbEntity
  8
12
  6
CONTINUOUS
 62
     3
100
AcDbCircle
 10
-0.3800948467738503
 20
-292.8473950181631
 30
0.0
 40
2.500000062320399
  0
LINE
  5
6746
330
1E
100
AcDbEntity
  8
12
  6
CONTINUOUS
 62
     3
100
AcDbLine
 10
-7.972395451075377
 20
-292.8473950181631
 30
0.0
 11
8.073453643421011
 21
-292.8473950181631
 31
0.0
  0
CIRCLE
  5
6747
330
1E
100
AcDbEntity
  8
12
  6
CONTINUOUS
 62
     3
100
AcDbCircle
 10
-0.3800942235686686
 20
-208.8473930239059
 30
0.0
 40
4.000000099712798
  0
CIRCLE
  5
6748
330
1E
100
AcDbEntity
  8
12
  6
CONTINUOUS
 62
     3
100
AcDbCircle
 10
-0.3800942235686686
 20
-208.8473930239059
 30
0.0
 40
2.500000062320399
  0
LINE
  5
6749
330
1E
100
AcDbEntity
  8
12
  6
CONTINUOUS
 62
     3
100
AcDbLine
 10
-8.606412788010992
 20
-208.8473930239059
 30
0.0
 11
7.495361690372909
 21
-208.8473930239059
 31
0.0
  0
LINE
  5
674A
330
1E
100
AcDbEntity
  8
0
100
AcDbLine
 10
1.668365285268926
 20
-205.4116820081143
 30
0.0
 11
5.908608273890313
 21
-202.4426318893073
 31
0.0
  0
LINE
  5
674B
330
1E
100
AcDbEntity
  8
12
  6
CONTINUOUS
 62
     3
100
AcDbLine
 10
1.668365285268926
 20
-205.4116820081143
 30
0.0
 11
3.855998393513011
 21
-200.720287695732
 31
0.0
  0
LINE
  5
674C
330
1E
100
AcDbEntity
  8
18
  6
DIVIDE
100
AcDbLine
 10
24.61990639963651
 20
-301.8473952175888
 30
0.0
 11
24.61990639963651
 21
-201.8473928244818
 31
0.0
  0
TEXT
  5
674D
330
1E
100
AcDbEntity
  8
30
  6
CONTINUOUS
100
AcDbText
 10
25.94479148282443
 20
-177.0188757798635
 30
0.0
 40
5.0
  1
M4 or %%c5
  7
MOJI
100
AcDbText
  0
LINE
  5
674E
330
1E
100
AcDbEntity
  8
30
  6
CONTINUOUS
100
AcDbLine
 10
24.23410907271651
 20
-178.5188757798635
 30
0.0
 11
65.52457645024752
 21
-178.5188757798635
 31
0.0
  0
DIMENSION
  5
679A
330
1E
100
AcDbEntity
  8
30
  6
CONTINUOUS
100
AcDbDimension
  2
*D21
 10
146.6274679940214
 20
-224.1928884806245
 30
0.0
 11
164.8806890698689
 21
-236.3682432436319
 31
0.0
 70
   164
  1
R2
  3
STANDARD
100
AcDbRadialDimension
 15
148.1241168569409
 25
-225.5019673466875
 35
0.0
 40
0.0
1001
ACAD
1000
DSTYLE
1002
{
1070
    79
1070
     3
1002
}
  0
DIMENSION
  5
679B
330
1E
100
AcDbEntity
  8
30
  6
CONTINUOUS
100
AcDbDimension
  2
*D22
 10
192.7029356423927
 20
-320.3215689840651
 30
0.0
 11
170.2029347948339
 21
-317.3215689840651
 31
0.0
 70
    32
  1
50
  3
STANDARD
100
AcDbAlignedDimension
 13
147.7029339472755
 23
-274.8473946193118
 33
0.0
 14
192.7029356423927
 24
-274.8473946193118
 34
0.0
100
AcDbRotatedDimension
1001
ACAD
1000
DSTYLE
1002
{
1070
    79
1070
     3
1002
}
  0
LINE
  5
679C
330
1E
100
AcDbEntity
  8
11
 48
2.0
100
AcDbLine
 10
149.7029339971319
 20
-224.8473933729016
 30
0.0
 11
190.7029355925363
 21
-224.8473933729016
 31
0.0
  0
LINE
  5
679D
330
1E
100
AcDbEntity
  8
18
  6
DIVIDE
100
AcDbLine
 10
145.2029338600268
 20
-201.8473928244818
 30
0.0
 11
195.2029357296419
 21
-201.8473928244818
 31
0.0
  0
LINE
  5
679E
330
1E
100
AcDbEntity
  8
11
 48
2.0
100
AcDbLine
 10
137.6066315520388
 20
-250.8473940210349
 30
0.0
 11
202.7978493372361
 21
-250.8473940210349
 31
0.0
  0
LINE
  5
679F
330
1E
100
AcDbEntity
  8
11
 48
2.0
100
AcDbLine
 10
149.7029339971319
 20
-276.847394669168
 30
0.0
 11
190.7029355925363
 21
-276.847394669168
 31
0.0
  0
LINE
  5
67A0
330
1E
100
AcDbEntity
  8
18
  6
DIVIDE
100
AcDbLine
 10
145.2029338600268
 20
-301.8473952175888
 30
0.0
 11
195.2029357296419
 21
-301.8473952175888
 31
0.0
  0
LINE
  5
67A1
330
1E
100
AcDbEntity
  8
11
 48
2.0
100
AcDbLine
 10
147.7029339472755
 20
-274.8473946193118
 30
0.0
 11
147.7029339472755
 21
-226.8473933729016
 31
0.0
  0
LINE
  5
67A2
330
1E
100
AcDbEntity
  8
18
  6
DIVIDE
100
AcDbLine
 10
145.2029338600268
 20
-301.8473952175888
 30
0.0
 11
145.2029338600268
 21
-201.8473928244818
 31
0.0
  0
ARC
  5
67A3
330
1E
100
AcDbEntity
  8
11
 48
2.0
100
AcDbCircle
 10
149.7029339971319
 20
-274.8473946193118
 30
0.0
 40
2.000000049856379
100
AcDbArc
 50
180.0
 51
270.0
  0
ARC
  5
67A4
330
1E
100
AcDbEntity
  8
11
 48
2.0
100
AcDbCircle
 10
149.7029339971319
 20
-226.8473934227578
 30
0.0
 40
2.000000049855997
100
AcDbArc
 50
90.0
 51
179.9999985717308
  0
DIMENSION
  5
67A5
330
1E
100
AcDbEntity
  8
30
  6
CONTINUOUS
100
AcDbDimension
  2
*D23
 10
217.5760303060306
 20
-276.847394669168
 30
0.0
 11
214.5760303060304
 21
-250.8473940210345
 31
0.0
 70
    32
  1
52
  3
STANDARD
100
AcDbAlignedDimension
 13
190.7029355925363
 23
-224.8473933729012
 33
0.0
 14
190.7029355925363
 24
-276.847394669168
 34
0.0
 50
90.0
100
AcDbRotatedDimension
1001
ACAD
1000
DSTYLE
1002
{
1070
    79
1070
     3
1002
}
  0
LINE
  5
67A6
330
1E
100
AcDbEntity
  8
11
 48
2.0
100
AcDbLine
 10
192.7029356423939
 20
-274.8473946193118
 30
0.0
 11
192.7029356423939
 21
-226.8473934227578
 31
0.0
  0
LINE
  5
67A7
330
1E
100
AcDbEntity
  8
18
  6
DIVIDE
100
AcDbLine
 10
195.2029357296419
 20
-301.8473952175888
 30
0.0
 11
195.2029357296419
 21
-201.8473928244818
 31
0.0
  0
ARC
  5
67A9
330
1E
100
AcDbEntity
  8
11
 48
2.0
100
AcDbCircle
 10
190.7029355925363
 20
-274.8473946193118
 30
0.0
 40
2.000000049856399
100
AcDbArc
 50
270.0
 51
0.0
  0
ARC
  5
67AA
330
1E
100
AcDbEntity
  8
11
 48
2.0
100
AcDbCircle
 10
190.7029355925363
 20
-226.8473934227578
 30
0.0
 40
2.00000004985658
100
AcDbArc
 50
0.0
 51
90.0
  0
TEXT
  5
69DD
330
1E
100
AcDbEntity
  8
19
  6
CONTINUOUS
100
AcDbText
 10
297.2790003277401
 20
100.8143339320275
 30
0.0
 40
5.0
  1
E60-NF 2P FC
  7
STANDARD1
100
AcDbText
  0
TEXT
  5
69DE
330
1E
100
AcDbEntity
  8
19
  6
CONTINUOUS
100
AcDbText
 10
297.2790003277401
 20
90.81433393202798
 30
0.0
 40
5.0
  1
S60-NF 2P FC
  7
STANDARD1
100
AcDbText
  0
TEXT
  5
69DF
330
1E
100
AcDbEntity
  8
19
  6
CONTINUOUS
100
AcDbText
 10
297.2790003277401
 20
80.81433393202798
 30
0.0
 40
5.0
  1
E100-NF 2P FC
  7
STANDARD1
100
AcDbText
  0
DIMENSION
  5
6CBA
330
1E
100
AcDbEntity
  8
30
  6
CONTINUOUS
100
AcDbDimension
  2
*D35
 10
314.9616575341116
 20
-301.2397957888143
 30
0.0
 11
349.1599903677888
 21
-288.3080641233248
 31
0.0
 70
   163
  1
%%c9
  3
STANDARD
100
AcDbDiametricDimension
 15
323.2206433609412
 25
-297.6636032447489
 35
0.0
 40
0.0
1001
ACAD
1000
DSTYLE
1002
{
1070
    79
1070
     3
1002
}
  0
DIMENSION
  5
6CBB
330
1E
100
AcDbEntity
  8
30
  6
CONTINUOUS
100
AcDbDimension
  2
*D36
 10
319.0911504475263
 20
-321.8080154364419
 30
0.0
 11
315.5911503727419
 21
-318.8080154364419
 31
0.0
 70
    32
  1
7
  3
STANDARD
100
AcDbAlignedDimension
 13
312.0911502979573
 23
-306.951699666351
 33
0.0
 14
319.0911504475263
 24
-308.2718975403398
 34
0.0
100
AcDbRotatedDimension
1001
ACAD
1000
DSTYLE
1002
{
1070
    79
1070
     3
1002
}
  0
LINE
  5
6CBC
330
1E
100
AcDbEntity
  8
0
100
AcDbLine
 10
325.9511790079516
 20
-224.861170445743
 30
0.0
 11
328.9563828229518
 21
-221.855966630743
 31
0.0
  0
LINE
  5
6CBD
330
1E
100
AcDbEntity
  8
0
100
AcDbLine
 10
325.6207650691789
 20
-233.1611706451691
 30
0.0
 11
355.6207658170248
 21
-233.1611706451691
 31
0.0
  0
LINE
  5
6CBE
330
1E
100
AcDbEntity
  8
0
100
AcDbLine
 10
319.1207650193228
 20
-224.861170445743
 30
0.0
 11
341.4207532560128
 21
-224.861170445743
 31
0.0
  0
LINE
  5
6CBF
330
1E
100
AcDbEntity
  8
0
100
AcDbLine
 10
326.1207651938198
 20
-241.161170844594
 30
0.0
 11
363.9207539290747
 21
-241.161170844594
 31
0.0
  0
LINE
  5
6CC0
330
1E
100
AcDbEntity
  8
0
100
AcDbLine
 10
327.6911567654241
 20
-299.4516995167817
 30
0.0
 11
310.8911532948723
 21
-299.4516995167817
 31
0.0
  0
LINE
  5
6CC1
330
1E
100
AcDbEntity
  8
0
100
AcDbLine
 10
312.0911502979573
 20
-291.9516993672123
 30
0.0
 11
341.4672344042733
 21
-291.9516993672123
 31
0.0
  0
LINE
  5
6CC2
330
1E
100
AcDbEntity
  8
0
100
AcDbLine
 10
312.0911502979573
 20
-306.951699666351
 30
0.0
 11
341.4672344042733
 21
-306.951699666351
 31
0.0
  0
DIMENSION
  5
6CC3
330
1E
100
AcDbEntity
  8
30
  6
CONTINUOUS
100
AcDbDimension
  2
*D37
 10
299.5851482167346
 20
-306.951699666351
 30
0.0
 11
289.2518148834014
 21
-314.8306221526556
 31
0.0
 70
   160
  1
Max.15
  3
STANDARD
100
AcDbAlignedDimension
 13
312.0911502979573
 23
-291.9516993672123
 33
0.0
 14
312.0911502979573
 24
-306.951699666351
 34
0.0
 50
90.0
100
AcDbRotatedDimension
1001
ACAD
1000
DSTYLE
1002
{
1070
    79
1070
     3
1002
}
  0
LINE
  5
6CC4
330
1E
100
AcDbEntity
  8
0
100
AcDbLine
 10
319.0911504475263
 20
-308.2718975403398
 30
0.0
 11
319.0911504475263
 21
-291.6733942691716
 31
0.0
  0
LINE
  5
6CC5
330
1E
100
AcDbEntity
  8
0
100
AcDbLine
 10
312.0911502979573
 20
-291.9516993672123
 30
0.0
 11
312.0911502979573
 21
-306.951699666351
 31
0.0
  0
CIRCLE
  5
6CC6
330
1E
100
AcDbEntity
  8
0
100
AcDbCircle
 10
319.0911504475263
 20
-299.4516995167817
 30
0.0
 40
4.5
  0
DIMENSION
  5
6CC7
330
1E
100
AcDbEntity
  8
30
  6
CONTINUOUS
100
AcDbDimension
  2
*D38
 10
296.2065509607578
 20
-254.2319218169193
 30
0.0
 11
287.7065509607578
 21
-251.2319218169194
 31
0.0
 70
    32
  1
17
  3
STANDARD
100
AcDbAlignedDimension
 13
279.2065509607579
 23
-241.161170844594
 33
0.0
 14
296.2065509607578
 24
-241.161170844594
 34
0.0
100
AcDbRotatedDimension
1001
ACAD
1000
DSTYLE
1002
{
1070
    79
1070
     3
1002
}
  0
LINE
  5
6CC8
330
1E
100
AcDbEntity
  8
0
100
AcDbLine
 10
289.3237400642167
 20
-225.161170445743
 30
0.0
 11
292.3289438792167
 21
-222.155966630743
 31
0.0
  0
LINE
  5
6CC9
330
1E
100
AcDbEntity
  8
0
100
AcDbLine
 10
279.2065509607579
 20
-225.161170445743
 30
0.0
 11
296.2065509607578
 21
-225.161170445743
 31
0.0
  0
CIRCLE
  5
6CCA
330
1E
100
AcDbEntity
  8
0
100
AcDbCircle
 10
287.7065509607578
 20
-233.1611706451691
 30
0.0
 40
4.75000011840899
  0
LINE
  5
6CCB
330
1E
100
AcDbEntity
  8
0
100
AcDbLine
 10
280.4136575413329
 20
-233.1611706451691
 30
0.0
 11
294.9339498054866
 21
-233.1611706451691
 31
0.0
  0
LINE
  5
6CCC
330
1E
100
AcDbEntity
  8
0
100
AcDbLine
 10
284.3477862285928
 20
-236.519935377334
 30
0.0
 11
291.0653156929237
 21
-229.802405913003
 31
0.0
  0
LINE
  5
6CCD
330
1E
100
AcDbEntity
  8
0
100
AcDbLine
 10
272.4136573419067
 20
-241.161170844594
 30
0.0
 11
300.4136580398969
 21
-241.161170844594
 31
0.0
  0
CIRCLE
  5
6CCE
330
1E
100
AcDbEntity
  8
0
100
AcDbCircle
 10
287.7065509607578
 20
-233.1611706451691
 30
0.0
 40
5.500061172262999
  0
LINE
  5
6CCF
330
1E
100
AcDbEntity
  8
0
100
AcDbLine
 10
276.2065508859738
 20
-237.4425733397869
 30
0.0
 11
279.2065509607579
 21
-234.4425732650019
 31
0.0
  0
LINE
  5
6CD0
330
1E
100
AcDbEntity
  8
0
100
AcDbLine
 10
287.7065509607578
 20
-225.761176564216
 30
0.0
 11
287.7065509607578
 21
-240.7611769381389
 31
0.0
  0
LINE
  5
6CD1
330
1E
100
AcDbEntity
  8
0
100
AcDbLine
 10
279.2065509607579
 20
-225.161170445743
 30
0.0
 11
279.2065509607579
 21
-241.161170844594
 31
0.0
  0
LINE
  5
6CD2
330
1E
100
AcDbEntity
  8
0
100
AcDbLine
 10
275.3163836274548
 20
-241.161170844594
 30
0.0
 11
279.2065509607579
 21
-237.271003511291
 31
0.0
  0
LINE
  5
6CD3
330
1E
100
AcDbEntity
  8
0
100
AcDbLine
 10
276.3237397401498
 20
-238.16117076981
 30
0.0
 11
273.3237549241545
 21
-241.161170844594
 31
0.0
  0
LINE
  5
6CD4
330
1E
100
AcDbEntity
  8
0
100
AcDbLine
 10
278.1448138737439
 20
-241.161170844594
 30
0.0
 11
279.2065509607579
 21
-240.09943375758
 31
0.0
  0
LINE
  5
6CD5
330
1E
100
AcDbEntity
  8
0
100
AcDbLine
 10
283.8436531403497
 20
-222.155966630743
 30
0.0
 11
280.8384493253498
 21
-225.161170445743
 31
0.0
  0
LINE
  5
6CD6
330
1E
100
AcDbEntity
  8
0
100
AcDbLine
 10
280.1794366098619
 20
-222.155966630743
 30
0.0
 11
276.2065508859738
 21
-225.828852354631
 31
0.0
  0
LINE
  5
6CD7
330
1E
100
AcDbEntity
  8
0
100
AcDbLine
 10
276.2065508859738
 20
-234.6141430934979
 30
0.0
 11
279.2065509607579
 21
-231.6141430187131
 31
0.0
  0
LINE
  5
6CD8
330
1E
100
AcDbEntity
  8
0
100
AcDbLine
 10
279.2065509607579
 20
-228.785712772424
 30
0.0
 11
276.2065508859738
 21
-231.7856823296299
 31
0.0
  0
LINE
  5
6CD9
330
1E
100
AcDbEntity
  8
0
100
AcDbLine
 10
279.2065509607587
 20
-225.957282526136
 30
0.0
 11
276.2065508859738
 21
-228.9572826009201
 31
0.0
  0
LINE
  5
6CDA
330
1E
100
AcDbEntity
  8
0
100
AcDbLine
 10
285.4565509046697
 20
-230.9111705890801
 30
0.0
 11
289.8315510137308
 21
-235.2861706981411
 31
0.0
  0
LINE
  5
6CDB
330
1E
100
AcDbEntity
  8
0
100
AcDbLine
 10
286.6720833866386
 20
-222.155966630743
 30
0.0
 11
283.6668795716386
 21
-225.161170445743
 31
0.0
  0
LINE
  5
6CDC
330
1E
100
AcDbEntity
  8
0
100
AcDbLine
 10
286.4953466890538
 20
-225.161170445743
 30
0.0
 11
289.5005810748788
 21
-222.155966630743
 31
0.0
  0
DIMENSION
  5
6CDD
330
1E
100
AcDbEntity
  8
30
  6
CONTINUOUS
100
AcDbDimension
  2
*D33
 10
307.0170897383022
 20
-225.161170445743
 30
0.0
 11
309.3504230716356
 21
-216.341919931495
 31
0.0
 70
   160
  3
STANDARD
100
AcDbAlignedDimension
 13
294.9339498054866
 23
-233.1611706451691
 33
0.0
 14
296.2065509607578
 24
-225.161170445743
 34
0.0
 50
90.0
100
AcDbRotatedDimension
1001
ACAD
1000
DSTYLE
1002
{
1070
    79
1070
     3
1002
}
  0
LINE
  5
6CDE
330
1E
100
AcDbEntity
  8
0
100
AcDbLine
 10
296.2065509607578
 20
-236.084724184844
 30
0.0
 11
299.2065510355427
 21
-233.0847241100599
 31
0.0
  0
LINE
  5
6CDF
330
1E
100
AcDbEntity
  8
0
100
AcDbLine
 10
296.2065509607578
 20
-225.161170445743
 30
0.0
 11
296.2065509607578
 21
-241.161170844594
 31
0.0
  0
LINE
  5
6CE0
330
1E
100
AcDbEntity
  8
0
100
AcDbLine
 10
296.7869647935868
 20
-241.161170844594
 30
0.0
 11
299.7869496095816
 21
-238.16117076981
 31
0.0
  0
LINE
  5
6CE1
330
1E
100
AcDbEntity
  8
0
100
AcDbLine
 10
296.2065509607578
 20
-238.9131544311331
 30
0.0
 11
299.2065510355427
 21
-235.9131543563491
 31
0.0
  0
LINE
  5
6CE2
330
1E
100
AcDbEntity
  8
0
100
AcDbLine
 10
299.2117547757576
 20
-224.8942296309781
 30
0.0
 11
296.2065509607578
 21
-227.5994334459781
 31
0.0
  0
LINE
  5
6CE3
330
1E
100
AcDbEntity
  8
0
100
AcDbLine
 10
296.2065509607578
 20
-233.2562939385561
 30
0.0
 11
299.2065510355427
 21
-230.2562938637711
 31
0.0
  0
LINE
  5
6CE4
330
1E
100
AcDbEntity
  8
0
100
AcDbLine
 10
296.2065509607578
 20
-230.4278636922671
 30
0.0
 11
299.2065510355427
 21
-227.4278636174821
 31
0.0
  0
LINE
  5
6CE5
330
1E
100
AcDbEntity
  8
0
100
AcDbLine
 10
292.1521703105046
 20
-225.161170445743
 30
0.0
 11
295.1573741255046
 21
-222.155966630743
 31
0.0
  0
LINE
  5
6CE6
330
1E
100
AcDbEntity
  8
0
100
AcDbLine
 10
297.9858012455049
 20
-222.155966630743
 30
0.0
 11
294.9805974305048
 21
-225.161170445743
 31
0.0
  0
LINE
  5
6CE7
330
1E
100
AcDbEntity
  8
0
100
AcDbLine
 10
320.2943185153736
 20
-224.861170445743
 30
0.0
 11
323.2995223303738
 21
-221.855966630743
 31
0.0
  0
LINE
  5
6CE8
330
1E
100
AcDbEntity
  8
0
100
AcDbLine
 10
323.1227487616626
 20
-224.861170445743
 30
0.0
 11
326.1279525766628
 21
-221.855966630743
 31
0.0
  0
TEXT
  5
6CE9
330
1E
100
AcDbEntity
  8
30
  6
CONTINUOUS
100
AcDbText
 10
343.6942649457606
 20
-300.6093975064607
 30
0.0
 40
5.0
  1
t 6
100
AcDbText
  0
LINE
  5
6CEA
330
1E
100
AcDbEntity
  8
0
100
AcDbLine
 10
348.2306114497422
 20
-299.9958442528285
 30
0.0
 11
351.5806786719251
 21
-299.9958442528285
 31
0.0
  0
LINE
  5
6CEB
330
1E
100
AcDbEntity
  8
0
100
AcDbLine
 10
348.2068382557901
 20
-298.9979575702382
 30
0.0
 11
351.5806786719251
 21
-298.9979575702382
 31
0.0
  0
LINE
  5
6CEC
330
1E
100
AcDbEntity
  8
0
100
AcDbLine
 10
351.5331628016001
 20
-296.0993140043278
 30
0.0
 11
348.2068382557901
 21
-297.2397635566828
 31
0.0
  0
LINE
  5
6CED
330
1E
100
AcDbEntity
  8
0
100
AcDbLine
 10
348.2068382557901
 20
-297.2397635566828
 30
0.0
 11
351.5806786719251
 21
-298.3326896093182
 31
0.0
  0
TEXT
  5
6CEE
330
1E
100
AcDbEntity
  8
30
  6
CONTINUOUS
100
AcDbText
 10
356.5044835508391
 20
-217.1928327202745
 30
0.0
 40
5.0
  1
M8×15
  7
MOJI
100
AcDbText
  0
LINE
  5
6CEF
330
1E
100
AcDbEntity
  8
0
100
AcDbLine
 10
354.7938011407314
 20
-218.6928327202745
 30
0.0
 11
381.6104388220801
 21
-218.6928327202745
 31
0.0
  0
DIMENSION
  5
6CF0
330
1E
100
AcDbEntity
  8
30
  6
CONTINUOUS
100
AcDbDimension
  2
*D34
 10
363.9207539290747
 20
-254.2319218169193
 30
0.0
 11
351.9207535738479
 21
-251.2319218169194
 31
0.0
 70
    32
  1
24
  3
STANDARD
100
AcDbAlignedDimension
 13
339.9207532186208
 23
-240.221830964738
 33
0.0
 14
363.9207539290747
 24
-241.161170844594
 34
0.0
100
AcDbRotatedDimension
1001
ACAD
1000
DSTYLE
1002
{
1070
    79
1070
     3
1002
}
  0
LINE
  5
6CF1
330
1E
100
AcDbEntity
  8
0
100
AcDbLine
 10
363.9207539290747
 20
-223.961188726376
 30
0.0
 11
360.9207538542897
 21
-226.9611888011609
 31
0.0
  0
LINE
  5
6CF2
330
1E
100
AcDbEntity
  8
0
100
AcDbLine
 10
363.9207539290747
 20
-236.9464794652431
 30
0.0
 11
359.7060625497235
 21
-241.161170844594
 31
0.0
  0
LINE
  5
6CF3
330
1E
100
AcDbEntity
  8
0
100
AcDbLine
 10
360.9207538542897
 20
-235.4464795400279
 30
0.0
 11
363.9207539290747
 21
-232.4464794652431
 31
0.0
  0
LINE
  5
6CF4
330
1E
100
AcDbEntity
  8
0
100
AcDbLine
 10
360.9207538542897
 20
-232.6180492937389
 30
0.0
 11
363.9207539290747
 21
-229.6180492189541
 31
0.0
  0
LINE
  5
6CF5
330
1E
100
AcDbEntity
  8
0
100
AcDbLine
 10
360.9207538542897
 20
-229.7896190474501
 30
0.0
 11
363.9207539290747
 21
-226.7896189726651
 31
0.0
  0
LINE
  5
6CF6
330
1E
100
AcDbEntity
  8
0
100
AcDbLine
 10
351.4207535052948
 20
-228.6611705329919
 30
0.0
 11
351.4207535052948
 21
-237.661170757346
 31
0.0
  0
LINE
  5
6CF7
330
1E
100
AcDbEntity
  8
0
100
AcDbLine
 10
348.9207534429747
 20
-230.161170570384
 30
0.0
 11
348.9207534429747
 21
-236.1611707199529
 31
0.0
  0
LINE
  5
6CF8
330
1E
100
AcDbEntity
  8
0
100
AcDbLine
 10
354.4207535800798
 20
-235.1327588290821
 30
0.0
 11
348.3923415645678
 21
-241.161170844594
 31
0.0
  0
LINE
  5
6CF9
330
1E
100
AcDbEntity
  8
0
100
AcDbLine
 10
339.9207532186208
 20
-224.861170445743
 30
0.0
 11
339.9207532186208
 21
-240.221830964738
 31
0.0
  0
LINE
  5
6CFA
330
1E
100
AcDbEntity
  8
0
100
AcDbLine
 10
341.4207532560128
 20
-224.861170445743
 30
0.0
 11
341.4207532560128
 21
-241.161170844594
 31
0.0
  0
LINE
  5
6CFB
330
1E
100
AcDbEntity
  8
0
100
AcDbLine
 10
331.4207530067308
 20
-230.4111705766159
 30
0.0
 11
331.4207530067308
 21
-235.911170713721
 31
0.0
  0
LINE
  5
6CFC
330
1E
100
AcDbEntity
  8
0
100
AcDbLine
 10
335.4207531064436
 20
-228.41117052676
 30
0.0
 11
335.4207531064436
 21
-237.9111707635781
 31
0.0
  0
LINE
  5
6CFD
330
1E
100
AcDbEntity
  8
0
100
AcDbLine
 10
338.4207531812287
 20
-227.661170508064
 30
0.0
 11
338.4207531812287
 21
-238.6611707822741
 31
0.0
  0
LINE
  5
6CFE
330
1E
100
AcDbEntity
  8
0
100
AcDbLine
 10
336.6142357246308
 20
-227.661170508064
 30
0.0
 11
336.6142357246308
 21
-238.6611707822741
 31
0.0
  0
LINE
  5
6CFF
330
1E
100
AcDbEntity
  8
0
100
AcDbLine
 10
341.4207532560128
 20
-236.1611707199529
 30
0.0
 11
348.9207534429747
 21
-236.1611707199529
 31
0.0
  0
LINE
  5
6D00
330
1E
100
AcDbEntity
  8
0
100
AcDbLine
 10
341.4207532560128
 20
-237.661170757346
 30
0.0
 11
351.4207535052948
 21
-237.661170757346
 31
0.0
  0
LINE
  5
6D01
330
1E
100
AcDbEntity
  8
0
100
AcDbLine
 10
346.2354811592388
 20
-237.661170757346
 30
0.0
 11
342.7354810719898
 21
-241.161170844594
 31
0.0
  0
LINE
  5
6D02
330
1E
100
AcDbEntity
  8
0
100
AcDbLine
 10
333.4207530565876
 20
-237.9111707635781
 30
0.0
 11
336.6142357246308
 21
-237.9111707635781
 31
0.0
  0
ARC
  5
6D03
330
1E
100
AcDbEntity
  8
0
100
AcDbCircle
 10
333.4207530565876
 20
-235.911170713721
 30
0.0
 40
2.00000004985734
100
AcDbArc
 50
180.0
 51
270.0
  0
LINE
  5
6D04
330
1E
100
AcDbEntity
  8
0
100
AcDbLine
 10
339.9207532186208
 20
-240.221830964738
 30
0.0
 11
341.4207532560128
 21
-240.221830964738
 31
0.0
  0
LINE
  5
6D05
330
1E
100
AcDbEntity
  8
0
100
AcDbLine
 10
336.6142357246308
 20
-238.6611707822741
 30
0.0
 11
338.4207531812287
 21
-238.6611707822741
 31
0.0
  0
LINE
  5
6D06
330
1E
100
AcDbEntity
  8
0
100
AcDbLine
 10
338.4207531812287
 20
-236.1611707199529
 30
0.0
 11
339.9207532186208
 21
-236.1611707199529
 31
0.0
  0
LINE
  5
6D07
330
1E
100
AcDbEntity
  8
0
100
AcDbLine
 10
343.4070509129498
 20
-237.661170757346
 30
0.0
 11
341.4207532560128
 21
-239.6474684142821
 31
0.0
  0
LINE
  5
6D08
330
1E
100
AcDbEntity
  8
0
100
AcDbLine
 10
357.0492021319308
 20
-238.16117076981
 30
0.0
 11
354.0492020571458
 21
-241.161170844594
 31
0.0
  0
LINE
  5
6D09
330
1E
100
AcDbEntity
  8
0
100
AcDbLine
 10
349.0639114055277
 20
-237.661170757346
 30
0.0
 11
345.5639113182789
 21
-241.161170844594
 31
0.0
  0
LINE
  5
6D0A
330
1E
100
AcDbEntity
  8
0
100
AcDbLine
 10
354.4207535800798
 20
-237.961189075371
 30
0.0
 11
351.2207718108567
 21
-241.161170844594
 31
0.0
  0
LINE
  5
6D0B
330
1E
100
AcDbEntity
  8
0
100
AcDbLine
 10
359.8776323782188
 20
-238.16117076981
 30
0.0
 11
356.8776323034349
 21
-241.161170844594
 31
0.0
  0
LINE
  5
6D0C
330
1E
100
AcDbEntity
  8
0
100
AcDbLine
 10
345.1707462383133
 20
-230.1611429719625
 30
0.0
 11
347.3583793465572
 21
-225.4697486595798
 31
0.0
  0
LINE
  5
6D0D
330
1E
100
AcDbEntity
  8
0
100
AcDbLine
 10
345.1707462383133
 20
-230.1611429719625
 30
0.0
 11
349.4109892269343
 21
-227.1920928531553
 31
0.0
  0
LINE
  5
6D0E
330
1E
100
AcDbEntity
  8
0
100
AcDbLine
 10
345.1707462383133
 20
-230.1611429719625
 30
0.0
 11
354.7938011407314
 21
-218.6928327202745
 31
0.0
  0
LINE
  5
6D0F
330
1E
100
AcDbEntity
  8
0
100
AcDbLine
 10
341.4207532560128
 20
-235.4611737542611
 30
0.0
 11
348.9207534429747
 21
-235.4611737542611
 31
0.0
  0
LINE
  5
6D10
330
1E
100
AcDbEntity
  8
0
100
AcDbLine
 10
341.4207532560128
 20
-230.8611675360761
 30
0.0
 11
348.9207534429747
 21
-230.8611675360761
 31
0.0
  0
LINE
  5
6D11
330
1E
100
AcDbEntity
  8
0
100
AcDbLine
 10
341.4207532560128
 20
-230.161170570384
 30
0.0
 11
348.9207534429747
 21
-230.161170570384
 31
0.0
  0
LINE
  5
6D12
330
1E
100
AcDbEntity
  8
0
100
AcDbLine
 10
341.4207532560128
 20
-228.6611705329919
 30
0.0
 11
351.4207535052948
 21
-228.6611705329919
 31
0.0
  0
LINE
  5
6D13
330
1E
100
AcDbEntity
  8
0
100
AcDbLine
 10
346.9217604732218
 20
-225.6611704582069
 30
0.0
 11
343.9217603984366
 21
-228.6611705329919
 31
0.0
  0
LINE
  5
6D14
330
1E
100
AcDbEntity
  8
0
100
AcDbLine
 10
337.4416735618189
 20
-221.855966630743
 30
0.0
 11
334.4364697468189
 21
-224.861170445743
 31
0.0
  0
LINE
  5
6D15
330
1E
100
AcDbEntity
  8
0
100
AcDbLine
 10
335.4207531064436
 20
-234.0110291353239
 30
0.0
 11
336.6142357246308
 21
-233.298254793907
 31
0.0
  0
LINE
  5
6D16
330
1E
100
AcDbEntity
  8
0
100
AcDbLine
 10
335.4207531064436
 20
-233.1874168545261
 30
0.0
 11
336.6142357246308
 21
-232.4746425131081
 31
0.0
  0
LINE
  5
6D17
330
1E
100
AcDbEntity
  8
0
100
AcDbLine
 10
333.4207530565876
 20
-228.41117052676
 30
0.0
 11
336.6142357246308
 21
-228.41117052676
 31
0.0
  0
ARC
  5
6D18
330
1E
100
AcDbEntity
  8
0
100
AcDbCircle
 10
333.4207530565876
 20
-230.4111705766159
 30
0.0
 40
2.000000049855997
100
AcDbArc
 50
90.0
 51
180.0
  0
LINE
  5
6D19
330
1E
100
AcDbEntity
  8
0
100
AcDbLine
 10
328.7796092542409
 20
-224.861170445743
 30
0.0
 11
331.7848130692406
 21
-221.855966630743
 31
0.0
  0
LINE
  5
6D1A
330
1E
100
AcDbEntity
  8
0
100
AcDbLine
 10
331.6080395005298
 20
-224.861170445743
 30
0.0
 11
334.6132433155298
 21
-221.855966630743
 31
0.0
  0
LINE
  5
6D1B
330
1E
100
AcDbEntity
  8
0
100
AcDbLine
 10
336.6142357246308
 20
-227.661170508064
 30
0.0
 11
338.4207531812287
 21
-227.661170508064
 31
0.0
  0
LINE
  5
6D1C
330
1E
100
AcDbEntity
  8
0
100
AcDbLine
 10
338.4207531812287
 20
-235.4611737542611
 30
0.0
 11
339.9207532186208
 21
-235.4611737542611
 31
0.0
  0
LINE
  5
6D1D
330
1E
100
AcDbEntity
  8
0
100
AcDbLine
 10
338.4207531812287
 20
-230.8611675360761
 30
0.0
 11
339.9207532186208
 21
-230.8611675360761
 31
0.0
  0
LINE
  5
6D1E
330
1E
100
AcDbEntity
  8
0
100
AcDbLine
 10
338.4207531812287
 20
-230.161170570384
 30
0.0
 11
339.9207532186208
 21
-230.161170570384
 31
0.0
  0
LINE
  5
6D1F
330
1E
100
AcDbEntity
  8
0
100
AcDbLine
 10
344.0933302269326
 20
-225.6611704582069
 30
0.0
 11
341.4207532560128
 21
-228.333747429126
 31
0.0
  0
LINE
  5
6D20
330
1E
100
AcDbEntity
  8
0
100
AcDbLine
 10
344.4259570710128
 20
-222.5001133678381
 30
0.0
 11
341.4207532560128
 21
-225.5053171828381
 31
0.0
  0
LINE
  5
6D21
330
1E
100
AcDbEntity
  8
0
100
AcDbLine
 10
352.5786209657998
 20
-225.6611704582069
 30
0.0
 11
349.5786208910148
 21
-228.6611705329919
 31
0.0
  0
LINE
  5
6D22
330
1E
100
AcDbEntity
  8
0
100
AcDbLine
 10
349.7501907195109
 20
-225.6611704582069
 30
0.0
 11
346.7501906447258
 21
-228.6611705329919
 31
0.0
  0
LINE
  5
6D23
330
1E
100
AcDbEntity
  8
0
100
AcDbLine
 10
351.4207535052948
 20
-235.3043286575779
 30
0.0
 11
354.4207535800798
 21
-232.3043285827941
 31
0.0
  0
LINE
  5
6D24
330
1E
100
AcDbEntity
  8
0
100
AcDbLine
 10
351.4207535052948
 20
-232.4758984112891
 30
0.0
 11
354.4207535800798
 21
-229.4758983365051
 31
0.0
  0
LINE
  5
6D25
330
1E
100
AcDbEntity
  8
0
100
AcDbLine
 10
351.4207535052948
 20
-229.6474681650002
 30
0.0
 11
354.4207535800798
 21
-226.647468090216
 31
0.0
  0
LINE
  5
6D26
330
1E
100
AcDbEntity
  8
0
100
AcDbLine
 10
363.9207539290747
 20
-241.161170844594
 30
0.0
 11
363.9207539290747
 21
-222.7611764894311
 31
0.0
  0
VIEWPORT
  5
9AC
330
1A
100
AcDbEntity
 67
     1
  8
0
  6
CONTINUOUS
100
AcDbViewport
 10
171.999535
 20
144.1384739999999
 30
0.0
 40
488.867686
 41
292.351491
 68
    -1
 69
     1
1001
ACAD
1000
MVIEW
1002
{
1070
    16
1010
0.0
1020
0.0
1030
0.0
1010
0.0
1020
0.0
1030
1.0
1040
0.0
1040
292.351491
1040
171.999535
1040
144.1384739999999
1040
50.0
1040
0.0
1040
0.0
1070
     0
1070
   100
1070
     1
1070
     1
1070
     0
1070
     0
1070
     0
1070
     0
1040
0.0
1040
0.0
1040
0.0
1040
10.0
1040
10.0
1040
10.0
1040
10.0
1070
     0
1002
{
1002
}
1002
}
  0
ENDSEC
  0
SECTION
  2
OBJECTS
  0
DICTIONARY
  5
C
330
0
100
AcDbDictionary
  3
ACAD_GROUP
350
D
  3
ACAD_LAYOUT
350
19
  3
ACAD_MLINESTYLE
350
16
  3
ACAD_PLOTSETTINGS
350
18
  3
ACAD_PLOTSTYLENAME
350
E
  3
ACADDIM
350
5C76
  3
ACDBHEADERROUNDTRIPXREC
350
6E9B
  3
ACDBVARIABLEDICTIONARY
350
5697
  0
DICTIONARY
  5
178
330
1E
100
AcDbDictionary
280
     1
  3
ACAD_LAYOUTSELFREF
360
6EBD
  0
DICTIONARY
  5
17A
330
1A
100
AcDbDictionary
280
     1
  3
ACAD_LAYOUTSELFREF
360
6EBC
  0
DICTIONARY
  5
D
102
{ACAD_REACTORS
330
C
102
}
330
C
100
AcDbDictionary
  0
DICTIONARY
  5
19
102
{ACAD_REACTORS
330
C
102
}
330
C
100
AcDbDictionary
  0
DICTIONARY
  5
16
102
{ACAD_REACTORS
330
C
102
}
330
C
100
AcDbDictionary
  3
STANDARD
350
17
  0
DICTIONARY
  5
18
102
{ACAD_REACTORS
330
C
102
}
330
C
100
AcDbDictionary
  0
ACDBDICTIONARYWDFLT
  5
E
102
{ACAD_REACTORS
330
C
102
}
330
C
100
AcDbDictionary
281
     1
  3
Normal
350
F
100
AcDbDictionaryWithDefault
340
F
  0
XRECORD
  5
5C76
102
{ACAD_REACTORS
330
C
102
}
330
C
100
AcDbXrecord
 90
   990106
  3

 60
     0
 61
     0
 62
     1
 63
     3
 64
     0
 65
     0
 66
     0
 67
     3
 68
     1
 69
     0
 70
     0
 71
     0
 72
     0
 40
0.0
170
     0
340
6200
  0
DICTIONARY
  5
6E9B
102
{ACAD_REACTORS
330
C
102
}
330
C
100
AcDbDictionary
  3
CEPSNTYPE
350
6EA5
  3
DIMSTYLEDATA
350
6EA9
  3
FINGERPRINTGUID
350
6EA6
  3
HYPERLINKBASE
350
6E9E
  3
INSUNITS
350
6EA4
  3
LAYOUTDICT
350
6EA0
  3
LWETCUNION
350
6EA3
  3
PLOTSETDICT
350
6EA1
  3
PLOTSTYLNAMDICT
350
6EA2
  3
PSVPSCALE
350
6EA8
  3
PUCSBASE
350
6EAC
  3
PUCSORGBACK
350
6EB2
  3
PUCSORGBOTTOM
350
6EAE
  3
PUCSORGFRONT
350
6EB1
  3
PUCSORGLEFT
350
6EAF
  3
PUCSORGRIGHT
350
6EB0
  3
PUCSORGTOP
350
6EAD
  3
PUCSORTHOREF
350
6EAA
  3
PUCSORTHOVIEW
350
6EAB
  3
STYLESHEET
350
6E9F
  3
TSTACKALIGN
350
6E9C
  3
TSTACKSIZE
350
6E9D
  3
UCSBASE
350
6EB5
  3
UCSORGBACK
350
6EBB
  3
UCSORGBOTTOM
350
6EB7
  3
UCSORGFRONT
350
6EBA
  3
UCSORGLEFT
350
6EB8
  3
UCSORGRIGHT
350
6EB9
  3
UCSORGTOP
350
6EB6
  3
UCSORTHOREF
350
6EB3
  3
UCSORTHOVIEW
350
6EB4
  3
VERSIONGUID
350
6EA7
  0
DICTIONARY
  5
5697
102
{ACAD_REACTORS
330
C
102
}
330
C
100
AcDbDictionary
  3
DIMASSOC
350
5698
  0
XRECORD
  5
6EBD
102
{ACAD_REACTORS
330
178
102
}
330
178
100
AcDbXrecord
340
1E
  0
XRECORD
  5
6EBC
102
{ACAD_REACTORS
330
17A
102
}
330
17A
100
AcDbXrecord
340
1A
  0
MLINESTYLE
  5
17
102
{ACAD_REACTORS
330
16
102
}
330
16
100
AcDbMlineStyle
  2
STANDARD
 70
     0
  3

 62
   256
 51
90.0
 52
90.0
 71
     2
 49
0.5
 62
   256
  6
BYLAYER
 49
-0.5
 62
   256
  6
BYLAYER
  0
ACDBPLACEHOLDER
  5
F
102
{ACAD_REACTORS
330
E
102
}
330
E
100
AcDbPlaceHolder
280
     0
  0
XRECORD
  5
6EA5
102
{ACAD_REACTORS
330
6E9B
102
}
330
6E9B
100
AcDbXrecord
 90
        0
  0
XRECORD
  5
6EA9
102
{ACAD_REACTORS
330
6E9B
102
}
330
6E9B
100
AcDbXrecord
1000
DSTYLE
1002
{
1070
    79
 70
     3
1070
   341
340
3B2
1070
   342
340
3B2
1002
}
  0
XRECORD
  5
6EA6
102
{ACAD_REACTORS
330
6E9B
102
}
330
6E9B
100
AcDbXrecord
  1

  0
XRECORD
  5
6E9E
102
{ACAD_REACTORS
330
6E9B
102
}
330
6E9B
100
AcDbXrecord
  1

  0
XRECORD
  5
6EA4
102
{ACAD_REACTORS
330
6E9B
102
}
330
6E9B
100
AcDbXrecord
 90
        0
  0
XRECORD
  5
6EA0
102
{ACAD_REACTORS
330
6E9B
102
}
330
6E9B
100
AcDbXrecord
340
19
  0
XRECORD
  5
6EA3
102
{ACAD_REACTORS
330
6E9B
102
}
330
6E9B
100
AcDbXrecord
 90
    10781
  0
XRECORD
  5
6EA1
102
{ACAD_REACTORS
330
6E9B
102
}
330
6E9B
100
AcDbXrecord
340
18
  0
XRECORD
  5
6EA2
102
{ACAD_REACTORS
330
6E9B
102
}
330
6E9B
100
AcDbXrecord
340
E
  0
XRECORD
  5
6EA8
102
{ACAD_REACTORS
330
6E9B
102
}
330
6E9B
100
AcDbXrecord
 40
0.0
  0
XRECORD
  5
6EAC
102
{ACAD_REACTORS
330
6E9B
102
}
330
6E9B
100
AcDbXrecord
340
0
  0
XRECORD
  5
6EB2
102
{ACAD_REACTORS
330
6E9B
102
}
330
6E9B
100
AcDbXrecord
 10
0.0
 20
0.0
 30
0.0
  0
XRECORD
  5
6EAE
102
{ACAD_REACTORS
330
6E9B
102
}
330
6E9B
100
AcDbXrecord
 10
0.0
 20
0.0
 30
0.0
  0
XRECORD
  5
6EB1
102
{ACAD_REACTORS
330
6E9B
102
}
330
6E9B
100
AcDbXrecord
 10
0.0
 20
0.0
 30
0.0
  0
XRECORD
  5
6EAF
102
{ACAD_REACTORS
330
6E9B
102
}
330
6E9B
100
AcDbXrecord
 10
0.0
 20
0.0
 30
0.0
  0
XRECORD
  5
6EB0
102
{ACAD_REACTORS
330
6E9B
102
}
330
6E9B
100
AcDbXrecord
 10
0.0
 20
0.0
 30
0.0
  0
XRECORD
  5
6EAD
102
{ACAD_REACTORS
330
6E9B
102
}
330
6E9B
100
AcDbXrecord
 10
0.0
 20
0.0
 30
0.0
  0
XRECORD
  5
6EAA
102
{ACAD_REACTORS
330
6E9B
102
}
330
6E9B
100
AcDbXrecord
340
0
  0
XRECORD
  5
6EAB
102
{ACAD_REACTORS
330
6E9B
102
}
330
6E9B
100
AcDbXrecord
 70
     0
  0
XRECORD
  5
6E9F
102
{ACAD_REACTORS
330
6E9B
102
}
330
6E9B
100
AcDbXrecord
  1
acad.ctb
  0
XRECORD
  5
6E9C
102
{ACAD_REACTORS
330
6E9B
102
}
330
6E9B
100
AcDbXrecord
 90
        1
  0
XRECORD
  5
6E9D
102
{ACAD_REACTORS
330
6E9B
102
}
330
6E9B
100
AcDbXrecord
 90
       70
  0
XRECORD
  5
6EB5
102
{ACAD_REACTORS
330
6E9B
102
}
330
6E9B
100
AcDbXrecord
340
0
  0
XRECORD
  5
6EBB
102
{ACAD_REACTORS
330
6E9B
102
}
330
6E9B
100
AcDbXrecord
 10
0.0
 20
0.0
 30
0.0
  0
XRECORD
  5
6EB7
102
{ACAD_REACTORS
330
6E9B
102
}
330
6E9B
100
AcDbXrecord
 10
0.0
 20
0.0
 30
0.0
  0
XRECORD
  5
6EBA
102
{ACAD_REACTORS
330
6E9B
102
}
330
6E9B
100
AcDbXrecord
 10
0.0
 20
0.0
 30
0.0
  0
XRECORD
  5
6EB8
102
{ACAD_REACTORS
330
6E9B
102
}
330
6E9B
100
AcDbXrecord
 10
0.0
 20
0.0
 30
0.0
  0
XRECORD
  5
6EB9
102
{ACAD_REACTORS
330
6E9B
102
}
330
6E9B
100
AcDbXrecord
 10
0.0
 20
0.0
 30
0.0
  0
XRECORD
  5
6EB6
102
{ACAD_REACTORS
330
6E9B
102
}
330
6E9B
100
AcDbXrecord
 10
0.0
 20
0.0
 30
0.0
  0
XRECORD
  5
6EB3
102
{ACAD_REACTORS
330
6E9B
102
}
330
6E9B
100
AcDbXrecord
340
0
  0
XRECORD
  5
6EB4
102
{ACAD_REACTORS
330
6E9B
102
}
330
6E9B
100
AcDbXrecord
 70
     0
  0
XRECORD
  5
6EA7
102
{ACAD_REACTORS
330
6E9B
102
}
330
6E9B
100
AcDbXrecord
  1
{9EF04CBD-73B1-4809-BE98-D5CB889E4E6F}
  0
DICTIONARYVAR
  5
5698
102
{ACAD_REACTORS
330
5697
102
}
330
5697
100
DictionaryVariables
280
     0
  1
1
  0
ENDSEC
  0
EOF
