  0
SECTION
  2
HEADER
  9
$ACADVER
  1
AC1015
  9
$ACADMAINTVER
 70
    10
  9
$DWGCODEPAGE
  3
ANSI_932
  9
$INSBASE
 10
0.0
 20
0.0
 30
0.0
  9
$EXTMIN
 10
-125.9912673001394
 20
-519.2335885679483
 30
-0.0015258207003583
  9
$EXTMAX
 10
399.7340138630365
 20
448.2806709259889
 30
0.0000000349246037
  9
$LIMMIN
 10
-296.316999476111
 20
-370.7034300441653
  9
$LIMMAX
 10
623.3128432133979
 20
328.6261559379898
  9
$ORTHOMODE
 70
     1
  9
$REGENMODE
 70
     1
  9
$FILLMODE
 70
     1
  9
$QTEXTMODE
 70
     0
  9
$MIRRTEXT
 70
     1
  9
$LTSCALE
 40
10.0
  9
$ATTMODE
 70
     1
  9
$TEXTSIZE
 40
5.0
  9
$TRACEWID
 40
0.05
  9
$TEXTSTYLE
  7
STANDARD1
  9
$CLAYER
  8
30
  9
$CELTYPE
  6
CONTINUOUS
  9
$CECOLOR
 62
   256
  9
$CELTSCALE
 40
1.0
  9
$DISPSILH
 70
     0
  9
$DIMSCALE
 40
1.0
  9
$DIMASZ
 40
2.0
  9
$DIMEXO
 40
1.0
  9
$DIMDLI
 40
0.5
  9
$DIMRND
 40
0.0
  9
$DIMDLE
 40
0.0
  9
$DIMEXE
 40
0.5
  9
$DIMTP
 40
0.0
  9
$DIMTM
 40
0.0
  9
$DIMTXT
 40
4.0
  9
$DIMCEN
 40
0.09
  9
$DIMTSZ
 40
0.0
  9
$DIMTOL
 70
     0
  9
$DIMLIM
 70
     0
  9
$DIMTIH
 70
     0
  9
$DIMTOH
 70
     1
  9
$DIMSE1
 70
     0
  9
$DIMSE2
 70
     0
  9
$DIMTAD
 70
     3
  9
$DIMZIN
 70
    12
  9
$DIMBLK
  1
OPEN
  9
$DIMASO
 70
     1
  9
$DIMSHO
 70
     1
  9
$DIMPOST
  1

  9
$DIMAPOST
  1

  9
$DIMALT
 70
     0
  9
$DIMALTD
 70
     2
  9
$DIMALTF
 40
25.4
  9
$DIMLFAC
 40
1.0
  9
$DIMTOFL
 70
     0
  9
$DIMTVP
 40
0.0
  9
$DIMTIX
 70
     0
  9
$DIMSOXD
 70
     0
  9
$DIMSAH
 70
     0
  9
$DIMBLK1
  1

  9
$DIMBLK2
  1

  9
$DIMSTYLE
  2
STANDARD
  9
$DIMCLRD
 70
     0
  9
$DIMCLRE
 70
     0
  9
$DIMCLRT
 70
     0
  9
$DIMTFAC
 40
1.0
  9
$DIMGAP
 40
1.0
  9
$DIMJUST
 70
     0
  9
$DIMSD1
 70
     0
  9
$DIMSD2
 70
     0
  9
$DIMTOLJ
 70
     1
  9
$DIMTZIN
 70
     0
  9
$DIMALTZ
 70
     0
  9
$DIMALTTZ
 70
     0
  9
$DIMUPT
 70
     0
  9
$DIMDEC
 70
     1
  9
$DIMTDEC
 70
     1
  9
$DIMALTU
 70
     2
  9
$DIMALTTD
 70
     2
  9
$DIMTXSTY
  7
STANDARD
  9
$DIMAUNIT
 70
     0
  9
$DIMADEC
 70
     0
  9
$DIMALTRND
 40
0.0
  9
$DIMAZIN
 70
     3
  9
$DIMDSEP
 70
    46
  9
$DIMATFIT
 70
     3
  9
$DIMFRAC
 70
     0
  9
$DIMLDRBLK
  1
OPEN
  9
$DIMLUNIT
 70
     2
  9
$DIMLWD
 70
    -2
  9
$DIMLWE
 70
    -2
  9
$DIMTMOVE
 70
     0
  9
$LUNITS
 70
     2
  9
$LUPREC
 70
     4
  9
$SKETCHINC
 40
0.1
  9
$FILLETRAD
 40
0.0
  9
$AUNITS
 70
     0
  9
$AUPREC
 70
     0
  9
$MENU
  1
.
  9
$ELEVATION
 40
0.0
  9
$PELEVATION
 40
0.0
  9
$THICKNESS
 40
0.0
  9
$LIMCHECK
 70
     0
  9
$CHAMFERA
 40
0.0
  9
$CHAMFERB
 40
0.0
  9
$CHAMFERC
 40
0.0
  9
$CHAMFERD
 40
0.0
  9
$SKPOLY
 70
     0
  9
$TDCREATE
 40
2452286.555658657
  9
$TDUCREATE
 40
2452286.180658657
  9
$TDUPDATE
 40
2454663.624299768
  9
$TDUUPDATE
 40
2454663.249299768
  9
$TDINDWG
 40
1.3599686921
  9
$TDUSRTIMER
 40
1.3599656019
  9
$USRTIMER
 70
     1
  9
$ANGBASE
 50
0.0
  9
$ANGDIR
 70
     0
  9
$PDMODE
 70
     0
  9
$PDSIZE
 40
0.0
  9
$PLINEWID
 40
0.0
  9
$SPLFRAME
 70
     0
  9
$SPLINETYPE
 70
     6
  9
$SPLINESEGS
 70
     8
  9
$HANDSEED
  5
910C
  9
$SURFTAB1
 70
     6
  9
$SURFTAB2
 70
     6
  9
$SURFTYPE
 70
     6
  9
$SURFU
 70
     6
  9
$SURFV
 70
     6
  9
$UCSBASE
  2

  9
$UCSNAME
  2

  9
$UCSORG
 10
0.0
 20
0.0
 30
0.0
  9
$UCSXDIR
 10
1.0
 20
0.0
 30
0.0
  9
$UCSYDIR
 10
0.0
 20
1.0
 30
0.0
  9
$UCSORTHOREF
  2

  9
$UCSORTHOVIEW
 70
     0
  9
$UCSORGTOP
 10
0.0
 20
0.0
 30
0.0
  9
$UCSORGBOTTOM
 10
0.0
 20
0.0
 30
0.0
  9
$UCSORGLEFT
 10
0.0
 20
0.0
 30
0.0
  9
$UCSORGRIGHT
 10
0.0
 20
0.0
 30
0.0
  9
$UCSORGFRONT
 10
0.0
 20
0.0
 30
0.0
  9
$UCSORGBACK
 10
0.0
 20
0.0
 30
0.0
  9
$PUCSBASE
  2

  9
$PUCSNAME
  2

  9
$PUCSORG
 10
0.0
 20
0.0
 30
0.0
  9
$PUCSXDIR
 10
1.0
 20
0.0
 30
0.0
  9
$PUCSYDIR
 10
0.0
 20
1.0
 30
0.0
  9
$PUCSORTHOREF
  2

  9
$PUCSORTHOVIEW
 70
     0
  9
$PUCSORGTOP
 10
0.0
 20
0.0
 30
0.0
  9
$PUCSORGBOTTOM
 10
0.0
 20
0.0
 30
0.0
  9
$PUCSORGLEFT
 10
0.0
 20
0.0
 30
0.0
  9
$PUCSORGRIGHT
 10
0.0
 20
0.0
 30
0.0
  9
$PUCSORGFRONT
 10
0.0
 20
0.0
 30
0.0
  9
$PUCSORGBACK
 10
0.0
 20
0.0
 30
0.0
  9
$USERI1
 70
     0
  9
$USERI2
 70
     0
  9
$USERI3
 70
     0
  9
$USERI4
 70
     0
  9
$USERI5
 70
     0
  9
$USERR1
 40
0.0
  9
$USERR2
 40
0.0
  9
$USERR3
 40
0.0
  9
$USERR4
 40
0.0
  9
$USERR5
 40
0.0
  9
$WORLDVIEW
 70
     1
  9
$SHADEDGE
 70
     3
  9
$SHADEDIF
 70
    70
  9
$TILEMODE
 70
     1
  9
$MAXACTVP
 70
    48
  9
$PINSBASE
 10
0.0
 20
0.0
 30
0.0
  9
$PLIMCHECK
 70
     0
  9
$PEXTMIN
 10
4.273573
 20
5.205245999999998
 30
0.0
  9
$PEXTMAX
 10
194.610095
 20
283.0697009999996
 30
0.0
  9
$PLIMMIN
 10
-5.873749
 20
-5.87375
  9
$PLIMMAX
 10
204.099579
 20
291.1369009999999
  9
$UNITMODE
 70
     0
  9
$VISRETAIN
 70
     1
  9
$PLINEGEN
 70
     0
  9
$PSLTSCALE
 70
     1
  9
$TREEDEPTH
 70
  3020
  9
$CMLSTYLE
  2
STANDARD
  9
$CMLJUST
 70
     0
  9
$CMLSCALE
 40
1.0
  9
$PROXYGRAPHICS
 70
     1
  9
$MEASUREMENT
 70
     0
  9
$CELWEIGHT
370
    -1
  9
$ENDCAPS
280
     0
  9
$JOINSTYLE
280
     0
  9
$LWDISPLAY
290
     0
  9
$INSUNITS
 70
     0
  9
$HYPERLINKBASE
  1

  9
$STYLESHEET
  1
kiki.ctb
  9
$XEDIT
290
     1
  9
$CEPSNTYPE
380
     0
  9
$PSTYLEMODE
290
     1
  9
$FINGERPRINTGUID
  2

  9
$VERSIONGUID
  2
{83F3CD07-C9D3-4443-BCDC-7954C2683139}
  9
$EXTNAMES
290
     1
  9
$PSVPSCALE
 40
0.0
  9
$OLESTARTUP
290
     0
  0
ENDSEC
  0
SECTION
  2
CLASSES
  0
CLASS
  1
ACDBDICTIONARYWDFLT
  2
AcDbDictionaryWithDefault
  3
AutoCAD 2000
 90
        0
280
     0
281
     0
  0
CLASS
  1
ACDBPLACEHOLDER
  2
AcDbPlaceHolder
  3
AutoCAD 2000
 90
        0
280
     0
281
     0
  0
CLASS
  1
LAYOUT
  2
AcDbLayout
  3
AutoCAD 2000
 90
        0
280
     0
281
     0
  0
CLASS
  1
LONG_TRANSACTION
  2
AcDbLongTransaction
  3
AutoCAD 2000
 90
    32768
280
     0
281
     0
  0
CLASS
  1
LWPOLYLINE
  2
AcDbPolyline
  3
AutoCAD 2000
 90
    32768
280
     0
281
     1
  0
CLASS
  1
HATCH
  2
AcDbHatch
  3
AutoCAD 2000
 90
    32768
280
     0
281
     1
  0
CLASS
  1
XRECORD
  2
AcDbXrecord
  3
AutoCAD 2000
 90
    32768
280
     0
281
     0
  0
CLASS
  1
LONG_TRANSACTION
  2
AcDbLongTransaction
  3
AutoCAD 2000
 90
    32768
280
     0
281
     0
  0
CLASS
  1
LWPOLYLINE
  2
AcDbPolyline
  3
AutoCAD 2000
 90
    32768
280
     0
281
     1
  0
CLASS
  1
HATCH
  2
AcDbHatch
  3
AutoCAD 2000
 90
    32768
280
     0
281
     1
  0
CLASS
  1
XRECORD
  2
AcDbXrecord
  3
AutoCAD 2000
 90
    32768
280
     0
281
     0
  0
CLASS
  1
LONG_TRANSACTION
  2
AcDbLongTransaction
  3
AutoCAD 2000
 90
    32768
280
     0
281
     0
  0
CLASS
  1
LWPOLYLINE
  2
AcDbPolyline
  3
AutoCAD 2000
 90
    32768
280
     0
281
     1
  0
CLASS
  1
HATCH
  2
AcDbHatch
  3
AutoCAD 2000
 90
    32768
280
     0
281
     1
  0
CLASS
  1
XRECORD
  2
AcDbXrecord
  3
AutoCAD 2000
 90
    32768
280
     0
281
     0
  0
CLASS
  1
LONG_TRANSACTION
  2
AcDbLongTransaction
  3
AutoCAD 2000
 90
    32768
280
     0
281
     0
  0
CLASS
  1
LWPOLYLINE
  2
AcDbPolyline
  3
AutoCAD 2000
 90
    32768
280
     0
281
     1
  0
CLASS
  1
HATCH
  2
AcDbHatch
  3
AutoCAD 2000
 90
    32768
280
     0
281
     1
  0
CLASS
  1
XRECORD
  2
AcDbXrecord
  3
AutoCAD 2000
 90
    32768
280
     0
281
     0
  0
CLASS
  1
LONG_TRANSACTION
  2
AcDbLongTransaction
  3
AutoCAD 2000
 90
    32768
280
     0
281
     0
  0
CLASS
  1
LWPOLYLINE
  2
AcDbPolyline
  3
AutoCAD 2000
 90
    32768
280
     0
281
     1
  0
CLASS
  1
HATCH
  2
AcDbHatch
  3
AutoCAD 2000
 90
    32768
280
     0
281
     1
  0
CLASS
  1
XRECORD
  2
AcDbXrecord
  3
AutoCAD 2000
 90
    32768
280
     0
281
     0
  0
CLASS
  1
LONG_TRANSACTION
  2
AcDbLongTransaction
  3
AutoCAD 2000
 90
    32768
280
     0
281
     0
  0
CLASS
  1
LWPOLYLINE
  2
AcDbPolyline
  3
AutoCAD 2000
 90
    32768
280
     0
281
     1
  0
CLASS
  1
HATCH
  2
AcDbHatch
  3
AutoCAD 2000
 90
    32768
280
     0
281
     1
  0
CLASS
  1
XRECORD
  2
AcDbXrecord
  3
AutoCAD 2000
 90
    32768
280
     0
281
     0
  0
CLASS
  1
LONG_TRANSACTION
  2
AcDbLongTransaction
  3
AutoCAD 2000
 90
    32768
280
     0
281
     0
  0
CLASS
  1
LWPOLYLINE
  2
AcDbPolyline
  3
AutoCAD 2000
 90
    32768
280
     0
281
     1
  0
CLASS
  1
HATCH
  2
AcDbHatch
  3
AutoCAD 2000
 90
    32768
280
     0
281
     1
  0
CLASS
  1
XRECORD
  2
AcDbXrecord
  3
AutoCAD 2000
 90
    32768
280
     0
281
     0
  0
CLASS
  1
LONG_TRANSACTION
  2
AcDbLongTransaction
  3
AutoCAD 2000
 90
    32768
280
     0
281
     0
  0
CLASS
  1
LWPOLYLINE
  2
AcDbPolyline
  3
AutoCAD 2000
 90
    32768
280
     0
281
     1
  0
CLASS
  1
HATCH
  2
AcDbHatch
  3
AutoCAD 2000
 90
    32768
280
     0
281
     1
  0
CLASS
  1
XRECORD
  2
AcDbXrecord
  3
AutoCAD 2000
 90
    32768
280
     0
281
     0
  0
CLASS
  1
LONG_TRANSACTION
  2
AcDbLongTransaction
  3
AutoCAD 2000
 90
    32768
280
     0
281
     0
  0
CLASS
  1
LWPOLYLINE
  2
AcDbPolyline
  3
AutoCAD 2000
 90
    32768
280
     0
281
     1
  0
CLASS
  1
HATCH
  2
AcDbHatch
  3
AutoCAD 2000
 90
    32768
280
     0
281
     1
  0
CLASS
  1
XRECORD
  2
AcDbXrecord
  3
AutoCAD 2000
 90
    32768
280
     0
281
     0
  0
CLASS
  1
LONG_TRANSACTION
  2
AcDbLongTransaction
  3
AutoCAD 2000
 90
    32768
280
     0
281
     0
  0
CLASS
  1
LWPOLYLINE
  2
AcDbPolyline
  3
AutoCAD 2000
 90
    32768
280
     0
281
     1
  0
CLASS
  1
HATCH
  2
AcDbHatch
  3
AutoCAD 2000
 90
    32768
280
     0
281
     1
  0
CLASS
  1
XRECORD
  2
AcDbXrecord
  3
AutoCAD 2000
 90
    32768
280
     0
281
     0
  0
CLASS
  1
LONG_TRANSACTION
  2
AcDbLongTransaction
  3
AutoCAD 2000
 90
    32768
280
     0
281
     0
  0
CLASS
  1
LWPOLYLINE
  2
AcDbPolyline
  3
AutoCAD 2000
 90
    32768
280
     0
281
     1
  0
CLASS
  1
HATCH
  2
AcDbHatch
  3
AutoCAD 2000
 90
    32768
280
     0
281
     1
  0
CLASS
  1
XRECORD
  2
AcDbXrecord
  3
AutoCAD 2000
 90
    32768
280
     0
281
     0
  0
CLASS
  1
LONG_TRANSACTION
  2
AcDbLongTransaction
  3
AutoCAD 2000
 90
    32768
280
     0
281
     0
  0
CLASS
  1
LWPOLYLINE
  2
AcDbPolyline
  3
AutoCAD 2000
 90
    32768
280
     0
281
     1
  0
CLASS
  1
HATCH
  2
AcDbHatch
  3
AutoCAD 2000
 90
    32768
280
     0
281
     1
  0
CLASS
  1
XRECORD
  2
AcDbXrecord
  3
AutoCAD 2000
 90
    32768
280
     0
281
     0
  0
CLASS
  1
LONG_TRANSACTION
  2
AcDbLongTransaction
  3
AutoCAD 2000
 90
    32768
280
     0
281
     0
  0
CLASS
  1
LWPOLYLINE
  2
AcDbPolyline
  3
AutoCAD 2000
 90
    32768
280
     0
281
     1
  0
CLASS
  1
HATCH
  2
AcDbHatch
  3
AutoCAD 2000
 90
    32768
280
     0
281
     1
  0
CLASS
  1
XRECORD
  2
AcDbXrecord
  3
AutoCAD 2000
 90
    32768
280
     0
281
     0
  0
CLASS
  1
LONG_TRANSACTION
  2
AcDbLongTransaction
  3
AutoCAD 2000
 90
    32768
280
     0
281
     0
  0
CLASS
  1
LWPOLYLINE
  2
AcDbPolyline
  3
AutoCAD 2000
 90
    32768
280
     0
281
     1
  0
CLASS
  1
HATCH
  2
AcDbHatch
  3
AutoCAD 2000
 90
    32768
280
     0
281
     1
  0
CLASS
  1
XRECORD
  2
AcDbXrecord
  3
AutoCAD 2000
 90
    32768
280
     0
281
     0
  0
CLASS
  1
LONG_TRANSACTION
  2
AcDbLongTransaction
  3
AutoCAD 2000
 90
    32768
280
     0
281
     0
  0
CLASS
  1
LWPOLYLINE
  2
AcDbPolyline
  3
AutoCAD 2000
 90
    32768
280
     0
281
     1
  0
CLASS
  1
HATCH
  2
AcDbHatch
  3
AutoCAD 2000
 90
    32768
280
     0
281
     1
  0
CLASS
  1
XRECORD
  2
AcDbXrecord
  3
AutoCAD 2000
 90
    32768
280
     0
281
     0
  0
CLASS
  1
LONG_TRANSACTION
  2
AcDbLongTransaction
  3
AutoCAD 2000
 90
    32768
280
     0
281
     0
  0
CLASS
  1
LWPOLYLINE
  2
AcDbPolyline
  3
AutoCAD 2000
 90
    32768
280
     0
281
     1
  0
CLASS
  1
HATCH
  2
AcDbHatch
  3
AutoCAD 2000
 90
    32768
280
     0
281
     1
  0
CLASS
  1
XRECORD
  2
AcDbXrecord
  3
AutoCAD 2000
 90
    32768
280
     0
281
     0
  0
CLASS
  1
LONG_TRANSACTION
  2
AcDbLongTransaction
  3
AutoCAD 2000
 90
    32768
280
     0
281
     0
  0
CLASS
  1
LWPOLYLINE
  2
AcDbPolyline
  3
AutoCAD 2000
 90
    32768
280
     0
281
     1
  0
CLASS
  1
HATCH
  2
AcDbHatch
  3
AutoCAD 2000
 90
    32768
280
     0
281
     1
  0
CLASS
  1
XRECORD
  2
AcDbXrecord
  3
AutoCAD 2000
 90
    32768
280
     0
281
     0
  0
CLASS
  1
LONG_TRANSACTION
  2
AcDbLongTransaction
  3
AutoCAD 2000
 90
    32768
280
     0
281
     0
  0
CLASS
  1
LWPOLYLINE
  2
AcDbPolyline
  3
AutoCAD 2000
 90
    32768
280
     0
281
     1
  0
CLASS
  1
HATCH
  2
AcDbHatch
  3
AutoCAD 2000
 90
    32768
280
     0
281
     1
  0
CLASS
  1
XRECORD
  2
AcDbXrecord
  3
AutoCAD 2000
 90
    32768
280
     0
281
     0
  0
CLASS
  1
LONG_TRANSACTION
  2
AcDbLongTransaction
  3
AutoCAD 2000
 90
    32768
280
     0
281
     0
  0
CLASS
  1
LWPOLYLINE
  2
AcDbPolyline
  3
AutoCAD 2000
 90
    32768
280
     0
281
     1
  0
CLASS
  1
HATCH
  2
AcDbHatch
  3
AutoCAD 2000
 90
    32768
280
     0
281
     1
  0
CLASS
  1
XRECORD
  2
AcDbXrecord
  3
AutoCAD 2000
 90
    32768
280
     0
281
     0
  0
CLASS
  1
LONG_TRANSACTION
  2
AcDbLongTransaction
  3
AutoCAD 2000
 90
    32768
280
     0
281
     0
  0
CLASS
  1
LWPOLYLINE
  2
AcDbPolyline
  3
AutoCAD 2000
 90
    32768
280
     0
281
     1
  0
CLASS
  1
HATCH
  2
AcDbHatch
  3
AutoCAD 2000
 90
    32768
280
     0
281
     1
  0
CLASS
  1
XRECORD
  2
AcDbXrecord
  3
AutoCAD 2000
 90
    32768
280
     0
281
     0
  0
CLASS
  1
LONG_TRANSACTION
  2
AcDbLongTransaction
  3
AutoCAD 2000
 90
    32768
280
     0
281
     0
  0
CLASS
  1
LWPOLYLINE
  2
AcDbPolyline
  3
AutoCAD 2000
 90
    32768
280
     0
281
     1
  0
CLASS
  1
HATCH
  2
AcDbHatch
  3
AutoCAD 2000
 90
    32768
280
     0
281
     1
  0
CLASS
  1
XRECORD
  2
AcDbXrecord
  3
AutoCAD 2000
 90
    32768
280
     0
281
     0
  0
CLASS
  1
LONG_TRANSACTION
  2
AcDbLongTransaction
  3
AutoCAD 2000
 90
    32768
280
     0
281
     0
  0
CLASS
  1
LWPOLYLINE
  2
AcDbPolyline
  3
AutoCAD 2000
 90
    32768
280
     0
281
     1
  0
CLASS
  1
HATCH
  2
AcDbHatch
  3
AutoCAD 2000
 90
    32768
280
     0
281
     1
  0
CLASS
  1
XRECORD
  2
AcDbXrecord
  3
AutoCAD 2000
 90
    32768
280
     0
281
     0
  0
CLASS
  1
LONG_TRANSACTION
  2
AcDbLongTransaction
  3
AutoCAD 2000
 90
    32768
280
     0
281
     0
  0
CLASS
  1
LWPOLYLINE
  2
AcDbPolyline
  3
AutoCAD 2000
 90
    32768
280
     0
281
     1
  0
CLASS
  1
HATCH
  2
AcDbHatch
  3
AutoCAD 2000
 90
    32768
280
     0
281
     1
  0
CLASS
  1
XRECORD
  2
AcDbXrecord
  3
AutoCAD 2000
 90
    32768
280
     0
281
     0
  0
CLASS
  1
LONG_TRANSACTION
  2
AcDbLongTransaction
  3
AutoCAD 2000
 90
    32768
280
     0
281
     0
  0
CLASS
  1
LWPOLYLINE
  2
AcDbPolyline
  3
AutoCAD 2000
 90
    32768
280
     0
281
     1
  0
CLASS
  1
HATCH
  2
AcDbHatch
  3
AutoCAD 2000
 90
    32768
280
     0
281
     1
  0
CLASS
  1
XRECORD
  2
AcDbXrecord
  3
AutoCAD 2000
 90
    32768
280
     0
281
     0
  0
CLASS
  1
LONG_TRANSACTION
  2
AcDbLongTransaction
  3
AutoCAD 2000
 90
    32768
280
     0
281
     0
  0
CLASS
  1
LWPOLYLINE
  2
AcDbPolyline
  3
AutoCAD 2000
 90
    32768
280
     0
281
     1
  0
CLASS
  1
HATCH
  2
AcDbHatch
  3
AutoCAD 2000
 90
    32768
280
     0
281
     1
  0
CLASS
  1
XRECORD
  2
AcDbXrecord
  3
AutoCAD 2000
 90
    32768
280
     0
281
     0
  0
CLASS
  1
LONG_TRANSACTION
  2
AcDbLongTransaction
  3
AutoCAD 2000
 90
    32768
280
     0
281
     0
  0
CLASS
  1
LWPOLYLINE
  2
AcDbPolyline
  3
AutoCAD 2000
 90
    32768
280
     0
281
     1
  0
CLASS
  1
HATCH
  2
AcDbHatch
  3
AutoCAD 2000
 90
    32768
280
     0
281
     1
  0
CLASS
  1
XRECORD
  2
AcDbXrecord
  3
AutoCAD 2000
 90
    32768
280
     0
281
     0
  0
CLASS
  1
LONG_TRANSACTION
  2
AcDbLongTransaction
  3
AutoCAD 2000
 90
    32768
280
     0
281
     0
  0
CLASS
  1
LWPOLYLINE
  2
AcDbPolyline
  3
AutoCAD 2000
 90
    32768
280
     0
281
     1
  0
CLASS
  1
HATCH
  2
AcDbHatch
  3
AutoCAD 2000
 90
    32768
280
     0
281
     1
  0
CLASS
  1
XRECORD
  2
AcDbXrecord
  3
AutoCAD 2000
 90
    32768
280
     0
281
     0
  0
CLASS
  1
LONG_TRANSACTION
  2
AcDbLongTransaction
  3
AutoCAD 2000
 90
    32768
280
     0
281
     0
  0
CLASS
  1
LWPOLYLINE
  2
AcDbPolyline
  3
AutoCAD 2000
 90
    32768
280
     0
281
     1
  0
CLASS
  1
HATCH
  2
AcDbHatch
  3
AutoCAD 2000
 90
    32768
280
     0
281
     1
  0
CLASS
  1
XRECORD
  2
AcDbXrecord
  3
AutoCAD 2000
 90
    32768
280
     0
281
     0
  0
CLASS
  1
LONG_TRANSACTION
  2
AcDbLongTransaction
  3
AutoCAD 2000
 90
    32768
280
     0
281
     0
  0
CLASS
  1
LWPOLYLINE
  2
AcDbPolyline
  3
AutoCAD 2000
 90
    32768
280
     0
281
     1
  0
CLASS
  1
HATCH
  2
AcDbHatch
  3
AutoCAD 2000
 90
    32768
280
     0
281
     1
  0
CLASS
  1
XRECORD
  2
AcDbXrecord
  3
AutoCAD 2000
 90
    32768
280
     0
281
     0
  0
CLASS
  1
LONG_TRANSACTION
  2
AcDbLongTransaction
  3
AutoCAD 2000
 90
    32768
280
     0
281
     0
  0
CLASS
  1
LWPOLYLINE
  2
AcDbPolyline
  3
AutoCAD 2000
 90
    32768
280
     0
281
     1
  0
CLASS
  1
HATCH
  2
AcDbHatch
  3
AutoCAD 2000
 90
    32768
280
     0
281
     1
  0
CLASS
  1
XRECORD
  2
AcDbXrecord
  3
AutoCAD 2000
 90
    32768
280
     0
281
     0
  0
CLASS
  1
LONG_TRANSACTION
  2
AcDbLongTransaction
  3
AutoCAD 2000
 90
    32768
280
     0
281
     0
  0
CLASS
  1
LWPOLYLINE
  2
AcDbPolyline
  3
AutoCAD 2000
 90
    32768
280
     0
281
     1
  0
CLASS
  1
HATCH
  2
AcDbHatch
  3
AutoCAD 2000
 90
    32768
280
     0
281
     1
  0
CLASS
  1
XRECORD
  2
AcDbXrecord
  3
AutoCAD 2000
 90
    32768
280
     0
281
     0
  0
CLASS
  1
LONG_TRANSACTION
  2
AcDbLongTransaction
  3
AutoCAD 2000
 90
    32768
280
     0
281
     0
  0
CLASS
  1
LWPOLYLINE
  2
AcDbPolyline
  3
AutoCAD 2000
 90
    32768
280
     0
281
     1
  0
CLASS
  1
HATCH
  2
AcDbHatch
  3
AutoCAD 2000
 90
    32768
280
     0
281
     1
  0
CLASS
  1
XRECORD
  2
AcDbXrecord
  3
AutoCAD 2000
 90
    32768
280
     0
281
     0
  0
CLASS
  1
LONG_TRANSACTION
  2
AcDbLongTransaction
  3
AutoCAD 2000
 90
    32768
280
     0
281
     0
  0
CLASS
  1
LWPOLYLINE
  2
AcDbPolyline
  3
AutoCAD 2000
 90
    32768
280
     0
281
     1
  0
CLASS
  1
HATCH
  2
AcDbHatch
  3
AutoCAD 2000
 90
    32768
280
     0
281
     1
  0
CLASS
  1
XRECORD
  2
AcDbXrecord
  3
AutoCAD 2000
 90
    32768
280
     0
281
     0
  0
CLASS
  1
DICTIONARYVAR
  2
AcDbDictionaryVar
  3
AutoCAD 2000
 90
        0
280
     0
281
     0
  0
CLASS
  1
LONG_TRANSACTION
  2
AcDbLongTransaction
  3
AutoCAD 2000
 90
    32768
280
     0
281
     0
  0
CLASS
  1
LWPOLYLINE
  2
AcDbPolyline
  3
AutoCAD 2000
 90
    32768
280
     0
281
     1
  0
CLASS
  1
HATCH
  2
AcDbHatch
  3
AutoCAD 2000
 90
    32768
280
     0
281
     1
  0
CLASS
  1
XRECORD
  2
AcDbXrecord
  3
AutoCAD 2000
 90
    32768
280
     0
281
     0
  0
CLASS
  1
LONG_TRANSACTION
  2
AcDbLongTransaction
  3
AutoCAD 2000
 90
    32768
280
     0
281
     0
  0
CLASS
  1
LWPOLYLINE
  2
AcDbPolyline
  3
AutoCAD 2000
 90
    32768
280
     0
281
     1
  0
CLASS
  1
HATCH
  2
AcDbHatch
  3
AutoCAD 2000
 90
    32768
280
     0
281
     1
  0
CLASS
  1
XRECORD
  2
AcDbXrecord
  3
AutoCAD 2000
 90
    32768
280
     0
281
     0
  0
CLASS
  1
LONG_TRANSACTION
  2
AcDbLongTransaction
  3
AutoCAD 2000
 90
    32768
280
     0
281
     0
  0
CLASS
  1
LWPOLYLINE
  2
AcDbPolyline
  3
AutoCAD 2000
 90
    32768
280
     0
281
     1
  0
CLASS
  1
HATCH
  2
AcDbHatch
  3
AutoCAD 2000
 90
    32768
280
     0
281
     1
  0
CLASS
  1
XRECORD
  2
AcDbXrecord
  3
AutoCAD 2000
 90
    32768
280
     0
281
     0
  0
CLASS
  1
LONG_TRANSACTION
  2
AcDbLongTransaction
  3
AutoCAD 2000
 90
    32768
280
     0
281
     0
  0
CLASS
  1
LWPOLYLINE
  2
AcDbPolyline
  3
AutoCAD 2000
 90
    32768
280
     0
281
     1
  0
CLASS
  1
HATCH
  2
AcDbHatch
  3
AutoCAD 2000
 90
    32768
280
     0
281
     1
  0
CLASS
  1
XRECORD
  2
AcDbXrecord
  3
AutoCAD 2000
 90
    32768
280
     0
281
     0
  0
CLASS
  1
LONG_TRANSACTION
  2
AcDbLongTransaction
  3
AutoCAD 2000
 90
    32768
280
     0
281
     0
  0
CLASS
  1
LWPOLYLINE
  2
AcDbPolyline
  3
AutoCAD 2000
 90
    32768
280
     0
281
     1
  0
CLASS
  1
HATCH
  2
AcDbHatch
  3
AutoCAD 2000
 90
    32768
280
     0
281
     1
  0
CLASS
  1
XRECORD
  2
AcDbXrecord
  3
AutoCAD 2000
 90
    32768
280
     0
281
     0
  0
CLASS
  1
LONG_TRANSACTION
  2
AcDbLongTransaction
  3
AutoCAD 2000
 90
    32768
280
     0
281
     0
  0
CLASS
  1
LWPOLYLINE
  2
AcDbPolyline
  3
AutoCAD 2000
 90
    32768
280
     0
281
     1
  0
CLASS
  1
HATCH
  2
AcDbHatch
  3
AutoCAD 2000
 90
    32768
280
     0
281
     1
  0
CLASS
  1
XRECORD
  2
AcDbXrecord
  3
AutoCAD 2000
 90
    32768
280
     0
281
     0
  0
CLASS
  1
LONG_TRANSACTION
  2
AcDbLongTransaction
  3
AutoCAD 2000
 90
    32768
280
     0
281
     0
  0
CLASS
  1
LWPOLYLINE
  2
AcDbPolyline
  3
AutoCAD 2000
 90
    32768
280
     0
281
     1
  0
CLASS
  1
HATCH
  2
AcDbHatch
  3
AutoCAD 2000
 90
    32768
280
     0
281
     1
  0
CLASS
  1
XRECORD
  2
AcDbXrecord
  3
AutoCAD 2000
 90
    32768
280
     0
281
     0
  0
CLASS
  1
LONG_TRANSACTION
  2
AcDbLongTransaction
  3
AutoCAD 2000
 90
    32768
280
     0
281
     0
  0
CLASS
  1
LWPOLYLINE
  2
AcDbPolyline
  3
AutoCAD 2000
 90
    32768
280
     0
281
     1
  0
CLASS
  1
HATCH
  2
AcDbHatch
  3
AutoCAD 2000
 90
    32768
280
     0
281
     1
  0
CLASS
  1
XRECORD
  2
AcDbXrecord
  3
AutoCAD 2000
 90
    32768
280
     0
281
     0
  0
CLASS
  1
LONG_TRANSACTION
  2
AcDbLongTransaction
  3
AutoCAD 2000
 90
    32768
280
     0
281
     0
  0
CLASS
  1
LWPOLYLINE
  2
AcDbPolyline
  3
AutoCAD 2000
 90
    32768
280
     0
281
     1
  0
CLASS
  1
HATCH
  2
AcDbHatch
  3
AutoCAD 2000
 90
    32768
280
     0
281
     1
  0
CLASS
  1
XRECORD
  2
AcDbXrecord
  3
AutoCAD 2000
 90
    32768
280
     0
281
     0
  0
CLASS
  1
LONG_TRANSACTION
  2
AcDbLongTransaction
  3
AutoCAD 2000
 90
    32768
280
     0
281
     0
  0
CLASS
  1
LWPOLYLINE
  2
AcDbPolyline
  3
AutoCAD 2000
 90
    32768
280
     0
281
     1
  0
CLASS
  1
HATCH
  2
AcDbHatch
  3
AutoCAD 2000
 90
    32768
280
     0
281
     1
  0
CLASS
  1
XRECORD
  2
AcDbXrecord
  3
AutoCAD 2000
 90
    32768
280
     0
281
     0
  0
CLASS
  1
LONG_TRANSACTION
  2
AcDbLongTransaction
  3
AutoCAD 2000
 90
    32768
280
     0
281
     0
  0
CLASS
  1
LWPOLYLINE
  2
AcDbPolyline
  3
AutoCAD 2000
 90
    32768
280
     0
281
     1
  0
CLASS
  1
HATCH
  2
AcDbHatch
  3
AutoCAD 2000
 90
    32768
280
     0
281
     1
  0
CLASS
  1
XRECORD
  2
AcDbXrecord
  3
AutoCAD 2000
 90
    32768
280
     0
281
     0
  0
CLASS
  1
LONG_TRANSACTION
  2
AcDbLongTransaction
  3
AutoCAD 2000
 90
    32768
280
     0
281
     0
  0
CLASS
  1
LWPOLYLINE
  2
AcDbPolyline
  3
AutoCAD 2000
 90
    32768
280
     0
281
     1
  0
CLASS
  1
HATCH
  2
AcDbHatch
  3
AutoCAD 2000
 90
    32768
280
     0
281
     1
  0
CLASS
  1
XRECORD
  2
AcDbXrecord
  3
AutoCAD 2000
 90
    32768
280
     0
281
     0
  0
CLASS
  1
LONG_TRANSACTION
  2
AcDbLongTransaction
  3
AutoCAD 2000
 90
    32768
280
     0
281
     0
  0
CLASS
  1
LWPOLYLINE
  2
AcDbPolyline
  3
AutoCAD 2000
 90
    32768
280
     0
281
     1
  0
CLASS
  1
HATCH
  2
AcDbHatch
  3
AutoCAD 2000
 90
    32768
280
     0
281
     1
  0
CLASS
  1
XRECORD
  2
AcDbXrecord
  3
AutoCAD 2000
 90
    32768
280
     0
281
     0
  0
CLASS
  1
LONG_TRANSACTION
  2
AcDbLongTransaction
  3
AutoCAD 2000
 90
    32768
280
     0
281
     0
  0
CLASS
  1
LWPOLYLINE
  2
AcDbPolyline
  3
AutoCAD 2000
 90
    32768
280
     0
281
     1
  0
CLASS
  1
HATCH
  2
AcDbHatch
  3
AutoCAD 2000
 90
    32768
280
     0
281
     1
  0
CLASS
  1
XRECORD
  2
AcDbXrecord
  3
AutoCAD 2000
 90
    32768
280
     0
281
     0
  0
CLASS
  1
LONG_TRANSACTION
  2
AcDbLongTransaction
  3
AutoCAD 2000
 90
    32768
280
     0
281
     0
  0
CLASS
  1
LWPOLYLINE
  2
AcDbPolyline
  3
AutoCAD 2000
 90
    32768
280
     0
281
     1
  0
CLASS
  1
HATCH
  2
AcDbHatch
  3
AutoCAD 2000
 90
    32768
280
     0
281
     1
  0
CLASS
  1
XRECORD
  2
AcDbXrecord
  3
AutoCAD 2000
 90
    32768
280
     0
281
     0
  0
CLASS
  1
LONG_TRANSACTION
  2
AcDbLongTransaction
  3
AutoCAD 2000
 90
    32768
280
     0
281
     0
  0
CLASS
  1
LWPOLYLINE
  2
AcDbPolyline
  3
AutoCAD 2000
 90
    32768
280
     0
281
     1
  0
CLASS
  1
HATCH
  2
AcDbHatch
  3
AutoCAD 2000
 90
    32768
280
     0
281
     1
  0
CLASS
  1
XRECORD
  2
AcDbXrecord
  3
AutoCAD 2000
 90
    32768
280
     0
281
     0
  0
ENDSEC
  0
SECTION
  2
TABLES
  0
TABLE
  2
VPORT
  5
8
330
0
100
AcDbSymbolTable
 70
     2
  0
VPORT
  5
910B
330
8
100
AcDbSymbolTableRecord
100
AcDbViewportTableRecord
  2
*Active
 70
     0
 10
0.0
 20
0.0
 11
1.0
 21
1.0
 12
256.4284709695398
 22
331.0101001456664
 13
0.0
 23
0.0
 14
1.0
 24
1.0
 15
10.0
 25
10.0
 16
0.0
 26
0.0
 36
1.0
 17
0.0
 27
0.0
 37
0.0
 40
92.22542250962851
 41
1.661996497373029
 42
50.0
 43
0.0
 44
0.0
 50
0.0
 51
0.0
 71
     0
 72
   100
 73
     1
 74
     1
 75
     0
 76
     0
 77
     0
 78
     0
281
     0
 65
     1
110
0.0
120
0.0
130
0.0
111
1.0
121
0.0
131
0.0
112
0.0
122
1.0
132
0.0
 79
     0
146
0.0
  0
ENDTAB
  0
TABLE
  2
LTYPE
  5
5
330
0
100
AcDbSymbolTable
 70
     8
  0
LTYPE
  5
13
330
5
100
AcDbSymbolTableRecord
100
AcDbLinetypeTableRecord
  2
BYBLOCK
 70
     0
  3

 72
    65
 73
     0
 40
0.0
  0
LTYPE
  5
14
330
5
100
AcDbSymbolTableRecord
100
AcDbLinetypeTableRecord
  2
BYLAYER
 70
     0
  3

 72
    65
 73
     0
 40
0.0
  0
LTYPE
  5
15
330
5
100
AcDbSymbolTableRecord
100
AcDbLinetypeTableRecord
  2
CONTINUOUS
 70
     0
  3
Solid line
 72
    65
 73
     0
 40
0.0
  0
LTYPE
  5
22
330
5
100
AcDbSymbolTableRecord
100
AcDbLinetypeTableRecord
  2
CONTINOUS
 70
     0
  3
Solid line
 72
    65
 73
     0
 40
0.0
  0
LTYPE
  5
23
330
5
100
AcDbSymbolTableRecord
100
AcDbLinetypeTableRecord
  2
DASHED
 70
     0
  3
__ __ __ __ __ __ __ __ __ __ __ __ __ __ __
 72
    65
 73
     2
 40
0.75
 49
0.5
 74
     0
 49
-0.25
 74
     0
  0
LTYPE
  5
24
330
5
100
AcDbSymbolTableRecord
100
AcDbLinetypeTableRecord
  2
DASHDOT
 70
     0
  3
__ . __ . __ . __ . __ . __ . __ . __ . __ . __
 72
    65
 73
     4
 40
1.0
 49
0.5
 74
     0
 49
-0.25
 74
     0
 49
0.0
 74
     0
 49
-0.25
 74
     0
  0
LTYPE
  5
4C47
330
5
100
AcDbSymbolTableRecord
100
AcDbLinetypeTableRecord
  2
DIVIDE
 70
     0
  3
Divide ____ . . ____ . . ____ . . ____ . . ____
 72
    65
 73
     6
 40
1.25
 49
0.5
 74
     0
 49
-0.25
 74
     0
 49
0.0
 74
     0
 49
-0.25
 74
     0
 49
0.0
 74
     0
 49
-0.25
 74
     0
  0
LTYPE
  5
6265
330
5
100
AcDbSymbolTableRecord
100
AcDbLinetypeTableRecord
  2
CENTER
 70
     0
  3
Center ____ _ ____ _ ____ _ ____ _ ____ _ ____
 72
    65
 73
     4
 40
50.8
 49
31.75
 74
     0
 49
-6.349999999999997
 74
     0
 49
6.349999999999997
 74
     0
 49
-6.349999999999997
 74
     0
  0
LTYPE
  5
685F
330
5
100
AcDbSymbolTableRecord
100
AcDbLinetypeTableRecord
  2
PHANTOM
 70
     0
  3
Phantom ______  __  __  ______  __  __  ______
 72
    65
 73
     6
 40
63.5
 49
31.75
 74
     0
 49
-6.349999999999997
 74
     0
 49
6.349999999999997
 74
     0
 49
-6.349999999999997
 74
     0
 49
6.349999999999997
 74
     0
 49
-6.349999999999997
 74
     0
  0
LTYPE
  5
6FA1
330
5
100
AcDbSymbolTableRecord
100
AcDbLinetypeTableRecord
  2
HIDDEN
 70
     0
  3
_ _ _ _ _ _ _ _ _ _ _ _ _ _ _ _ _ _ _ _ _ _ _
 72
    65
 73
     2
 40
0.5
 49
0.25
 74
     0
 49
-0.25
 74
     0
  0
ENDTAB
  0
TABLE
  2
LAYER
  5
2
330
0
100
AcDbSymbolTable
 70
    14
  0
LAYER
  5
10
330
2
100
AcDbSymbolTableRecord
100
AcDbLayerTableRecord
  2
0
 70
     0
 62
     7
  6
CONTINOUS
370
    -3
390
F
  0
LAYER
  5
2F
330
2
100
AcDbSymbolTableRecord
100
AcDbLayerTableRecord
  2
10
 70
     0
 62
     4
  6
CONTINOUS
370
    -3
390
F
  0
LAYER
  5
31
330
2
100
AcDbSymbolTableRecord
100
AcDbLayerTableRecord
  2
12
 70
     0
 62
     3
  6
CONTINOUS
370
    -3
390
F
  0
LAYER
  5
35
330
2
100
AcDbSymbolTableRecord
100
AcDbLayerTableRecord
  2
16
 70
     0
 62
     6
  6
DASHDOT
370
    -3
390
F
  0
LAYER
  5
38
330
2
100
AcDbSymbolTableRecord
100
AcDbLayerTableRecord
  2
19
 70
     0
 62
     7
  6
CONTINOUS
370
    -3
390
F
  0
LAYER
  5
3D
330
2
100
AcDbSymbolTableRecord
100
AcDbLayerTableRecord
  2
24
 70
     0
 62
     2
  6
CONTINOUS
370
    -3
390
F
  0
LAYER
  5
3A2
330
2
100
AcDbSymbolTableRecord
100
AcDbLayerTableRecord
  2
30
 70
     0
 62
     9
  6
CONTINUOUS
370
    -3
390
F
  0
LAYER
  5
3A4
330
2
100
AcDbSymbolTableRecord
100
AcDbLayerTableRecord
  2
DEFPOINTS
 70
     0
 62
     7
  6
CONTINUOUS
290
     0
370
    -3
390
F
  0
LAYER
  5
3BBA
330
2
100
AcDbSymbolTableRecord
100
AcDbLayerTableRecord
  2
18
 70
     0
 62
     5
  6
DIVIDE
370
    -3
390
F
  0
LAYER
  5
67A8
330
2
100
AcDbSymbolTableRecord
100
AcDbLayerTableRecord
  2
11
 70
     0
 62
     1
  6
CONTINOUS
370
    -3
390
F
  0
LAYER
  5
7837
330
2
100
AcDbSymbolTableRecord
100
AcDbLayerTableRecord
  2
17
 70
     0
 62
     2
  6
DASHDOT
370
    -3
390
F
  0
LAYER
  5
7BC8
330
2
100
AcDbSymbolTableRecord
100
AcDbLayerTableRecord
  2
1
 70
     0
 62
     7
  6
CONTINUOUS
370
    -3
390
F
  0
LAYER
  5
7BC9
330
2
100
AcDbSymbolTableRecord
100
AcDbLayerTableRecord
  2
2
 70
     0
 62
     7
  6
CONTINUOUS
370
    -3
390
F
  0
LAYER
  5
8B4E
330
2
100
AcDbSymbolTableRecord
100
AcDbLayerTableRecord
  2
4
 70
     0
 62
     7
  6
CONTINUOUS
370
    -3
390
F
  0
ENDTAB
  0
TABLE
  2
STYLE
  5
3
330
0
100
AcDbSymbolTable
 70
     4
  0
STYLE
  5
11
330
3
100
AcDbSymbolTableRecord
100
AcDbTextStyleTableRecord
  2
STANDARD
 70
     0
 40
0.0
 41
1.0
 50
0.0
 71
     0
 42
2.0
  3
txt.shx
  4
bigfont.shx
  0
STYLE
  5
42
330
3
100
AcDbSymbolTableRecord
100
AcDbTextStyleTableRecord
  2
STANDARD1
 70
     0
 40
0.0
 41
1.0
 50
0.0
 71
     0
 42
5.0
  3
MONOTXT
  4
BIGFONT
  0
STYLE
  5
6861
330
3
100
AcDbSymbolTableRecord
100
AcDbTextStyleTableRecord
  2
MX_NOTE_STANDARD
 70
     0
 40
0.0
 41
1.0
 50
0.0
 71
     0
 42
5.891046
  3
txt.shx
  4
extfont.shx
  0
STYLE
  5
6D9B
330
3
100
AcDbSymbolTableRecord
100
AcDbTextStyleTableRecord
  2
UGMTXT
 70
     0
 40
0.0
 41
1.0
 50
0.0
 71
     0
 42
0.2
  3
ugmtxt
  4
bigfont
  0
ENDTAB
  0
TABLE
  2
VIEW
  5
6
330
0
100
AcDbSymbolTable
 70
     3
  0
VIEW
  5
230C
330
6
100
AcDbSymbolTableRecord
100
AcDbViewTableRecord
  2
OLE1
 70
     0
 40
148.912488
 10
429.497628
 20
2.560627
 41
103.145806
 11
0.0
 21
0.0
 31
1.0
 12
0.0
 22
0.0
 32
0.0
 42
50.0
 43
0.0
 44
0.0
 50
0.0
 71
     0
281
     0
 72
     0
  0
VIEW
  5
230E
330
6
100
AcDbSymbolTableRecord
100
AcDbViewTableRecord
  2
OLE2
 70
     0
 40
170.778692
 10
322.66497
 20
-5.978304
 41
102.467215
 11
0.0
 21
0.0
 31
1.0
 12
0.0
 22
0.0
 32
0.0
 42
50.0
 43
0.0
 44
0.0
 50
0.0
 71
     0
281
     0
 72
     0
  0
VIEW
  5
23AA
330
6
100
AcDbSymbolTableRecord
100
AcDbViewTableRecord
  2
OLE3
 70
     0
 40
591.7897389999998
 10
84.79698199999999
 20
-46.09335999999998
 41
388.792096
 11
0.0
 21
0.0
 31
1.0
 12
0.0
 22
0.0
 32
0.0
 42
50.0
 43
0.0
 44
0.0
 50
0.0
 71
     0
281
     0
 72
     0
  0
ENDTAB
  0
TABLE
  2
UCS
  5
7
330
0
100
AcDbSymbolTable
 70
     0
  0
ENDTAB
  0
TABLE
  2
APPID
  5
9
330
0
100
AcDbSymbolTable
 70
     2
  0
APPID
  5
12
330
9
100
AcDbSymbolTableRecord
100
AcDbRegAppTableRecord
  2
ACAD
 70
     0
  0
APPID
  5
ECD
330
9
100
AcDbSymbolTableRecord
100
AcDbRegAppTableRecord
  2
CONTENTBLOCKICON
 70
     0
  0
ENDTAB
  0
TABLE
  2
DIMSTYLE
  5
A
330
0
100
AcDbSymbolTable
 70
     1
100
AcDbDimStyleTable
 71
     0
  0
DIMSTYLE
105
175
102
{ACAD_REACTORS
330
7671
330
767E
330
7694
330
76A8
330
76B5
330
76C3
330
76D0
330
76DD
330
7B7C
330
7CAD
330
7CBA
330
7CC7
330
7DAE
330
8575
330
8589
330
858A
330
8807
330
882F
330
883C
330
8849
330
88B7
330
8D76
330
8DAD
330
8DCC
330
8DD9
330
8DEF
102
}
330
A
100
AcDbSymbolTableRecord
100
AcDbDimStyleTableRecord
  2
STANDARD
 70
     0
 41
2.0
 42
1.0
 43
0.5
 44
0.5
 73
     0
 77
     3
 78
    12
140
4.0
147
1.0
271
     1
272
     1
340
11
341
3B2
342
3B2
  0
ENDTAB
  0
TABLE
  2
BLOCK_RECORD
  5
1
330
0
100
AcDbSymbolTable
 70
    33
  0
BLOCK_RECORD
  5
1E
102
{ACAD_XDICTIONARY
360
178
102
}
330
1
100
AcDbSymbolTableRecord
100
AcDbBlockTableRecord
  2
*MODEL_SPACE
340
9106
  0
BLOCK_RECORD
  5
1A
102
{ACAD_XDICTIONARY
360
17A
102
}
330
1
100
AcDbSymbolTableRecord
100
AcDbBlockTableRecord
  2
*PAPER_SPACE
340
9107
  0
BLOCK_RECORD
  5
3B2
330
1
100
AcDbSymbolTableRecord
100
AcDbBlockTableRecord
  2
_OPEN
340
0
102
{BLKREFS
331
90A4
331
90A5
331
909B
331
909C
331
8EA9
331
8EA0
331
8EA1
331
8E97
331
8E98
331
8D03
331
8D04
331
8CFA
331
8CFB
331
8CF2
331
8EC3
331
8F66
331
8F67
331
90DF
331
90E0
331
90E8
331
90E9
331
90F2
331
90F3
331
8817
331
8818
331
872B
331
872C
331
8734
331
8735
331
8829
331
882A
331
905C
331
905D
331
8841
331
8842
331
90FA
331
90FB
331
906F
331
9070
331
8D9B
331
8D9C
331
8DC6
331
8DC7
331
8DE9
331
8DEA
331
8DFF
331
8E00
331
8DF4
331
8DF5
102
}
  0
BLOCK_RECORD
  5
676A
330
1
100
AcDbSymbolTableRecord
100
AcDbBlockTableRecord
  2
_OPEN30
340
0
  0
BLOCK_RECORD
  5
6D9C
330
1
100
AcDbSymbolTableRecord
100
AcDbBlockTableRecord
  2
A$C21544DCF
340
0
  0
BLOCK_RECORD
  5
725D
330
1
100
AcDbSymbolTableRecord
100
AcDbBlockTableRecord
  2
A$C15744025
340
0
  0
BLOCK_RECORD
  5
7672
330
1
100
AcDbSymbolTableRecord
100
AcDbBlockTableRecord
  2
*D4
340
0
  0
BLOCK_RECORD
  5
767F
330
1
100
AcDbSymbolTableRecord
100
AcDbBlockTableRecord
  2
*D5
340
0
  0
BLOCK_RECORD
  5
7695
330
1
100
AcDbSymbolTableRecord
100
AcDbBlockTableRecord
  2
*D6
340
0
  0
BLOCK_RECORD
  5
76A9
330
1
100
AcDbSymbolTableRecord
100
AcDbBlockTableRecord
  2
*D7
340
0
  0
BLOCK_RECORD
  5
76B6
330
1
100
AcDbSymbolTableRecord
100
AcDbBlockTableRecord
  2
*D8
340
0
  0
BLOCK_RECORD
  5
76C4
330
1
100
AcDbSymbolTableRecord
100
AcDbBlockTableRecord
  2
*D9
340
0
  0
BLOCK_RECORD
  5
76D1
330
1
100
AcDbSymbolTableRecord
100
AcDbBlockTableRecord
  2
*D10
340
0
  0
BLOCK_RECORD
  5
76DE
330
1
100
AcDbSymbolTableRecord
100
AcDbBlockTableRecord
  2
*D11
340
0
  0
BLOCK_RECORD
  5
7B7E
330
1
100
AcDbSymbolTableRecord
100
AcDbBlockTableRecord
  2
*D12
340
0
  0
BLOCK_RECORD
  5
7CAE
330
1
100
AcDbSymbolTableRecord
100
AcDbBlockTableRecord
  2
*D13
340
0
  0
BLOCK_RECORD
  5
7CBB
330
1
100
AcDbSymbolTableRecord
100
AcDbBlockTableRecord
  2
*D14
340
0
  0
BLOCK_RECORD
  5
7CC8
330
1
100
AcDbSymbolTableRecord
100
AcDbBlockTableRecord
  2
*D15
340
0
  0
BLOCK_RECORD
  5
7DAF
330
1
100
AcDbSymbolTableRecord
100
AcDbBlockTableRecord
  2
*D16
340
0
  0
BLOCK_RECORD
  5
86C2
330
1
100
AcDbSymbolTableRecord
100
AcDbBlockTableRecord
  2
*D17
340
0
  0
BLOCK_RECORD
  5
86CE
330
1
100
AcDbSymbolTableRecord
100
AcDbBlockTableRecord
  2
*D18
340
0
  0
BLOCK_RECORD
  5
86DA
330
1
100
AcDbSymbolTableRecord
100
AcDbBlockTableRecord
  2
*D19
340
0
  0
BLOCK_RECORD
  5
8808
330
1
100
AcDbSymbolTableRecord
100
AcDbBlockTableRecord
  2
*D20
340
0
  0
BLOCK_RECORD
  5
8830
330
1
100
AcDbSymbolTableRecord
100
AcDbBlockTableRecord
  2
*D21
340
0
  0
BLOCK_RECORD
  5
883D
330
1
100
AcDbSymbolTableRecord
100
AcDbBlockTableRecord
  2
*D22
340
0
  0
BLOCK_RECORD
  5
884A
330
1
100
AcDbSymbolTableRecord
100
AcDbBlockTableRecord
  2
*D23
340
0
  0
BLOCK_RECORD
  5
88B8
330
1
100
AcDbSymbolTableRecord
100
AcDbBlockTableRecord
  2
*D24
340
0
  0
BLOCK_RECORD
  5
89F2
330
1
100
AcDbSymbolTableRecord
100
AcDbBlockTableRecord
  2
A$C153138B4
340
0
  0
BLOCK_RECORD
  5
8B4F
330
1
100
AcDbSymbolTableRecord
100
AcDbBlockTableRecord
  2
A$C1D942266
340
0
  0
BLOCK_RECORD
  5
8D7A
330
1
100
AcDbSymbolTableRecord
100
AcDbBlockTableRecord
  2
*D27
340
0
  0
BLOCK_RECORD
  5
8DAE
330
1
100
AcDbSymbolTableRecord
100
AcDbBlockTableRecord
  2
*D28
340
0
  0
BLOCK_RECORD
  5
8DCD
330
1
100
AcDbSymbolTableRecord
100
AcDbBlockTableRecord
  2
*D29
340
0
  0
BLOCK_RECORD
  5
8DDA
330
1
100
AcDbSymbolTableRecord
100
AcDbBlockTableRecord
  2
*D30
340
0
  0
BLOCK_RECORD
  5
8DF0
330
1
100
AcDbSymbolTableRecord
100
AcDbBlockTableRecord
  2
*D31
340
0
  0
BLOCK_RECORD
  5
8E06
330
1
100
AcDbSymbolTableRecord
100
AcDbBlockTableRecord
  2
A$C19355FEF
340
0
  0
ENDTAB
  0
ENDSEC
  0
SECTION
  2
BLOCKS
  0
BLOCK
  5
1F
330
1E
100
AcDbEntity
  8
0
100
AcDbBlockBegin
  2
*MODEL_SPACE
 70
     0
 10
0.0
 20
0.0
 30
0.0
  3
*MODEL_SPACE
  1

  0
ENDBLK
  5
20
330
1E
100
AcDbEntity
  8
0
100
AcDbBlockEnd
  0
BLOCK
  5
1B
330
1A
100
AcDbEntity
 67
     1
  8
0
100
AcDbBlockBegin
  2
*PAPER_SPACE
 70
     0
 10
0.0
 20
0.0
 30
0.0
  3
*PAPER_SPACE
  1

  0
ENDBLK
  5
1C
330
1A
100
AcDbEntity
 67
     1
  8
0
100
AcDbBlockEnd
  0
BLOCK
  5
3B6
330
3B2
100
AcDbEntity
  8
0
100
AcDbBlockBegin
  2
_OPEN
 70
     0
 10
0.0
 20
0.0
 30
0.0
  3
_OPEN
  1

  0
LINE
  5
3B3
330
3B2
100
AcDbEntity
  8
30
  6
Continuous
 62
     0
100
AcDbLine
 10
-1.0
 20
0.166667
 30
0.0
 11
0.0
 21
0.0
 31
0.0
  0
LINE
  5
3B4
330
3B2
100
AcDbEntity
  8
30
  6
Continuous
 62
     0
100
AcDbLine
 10
-1.0
 20
-0.166667
 30
0.0
 11
0.0
 21
0.0
 31
0.0
  0
LINE
  5
3B5
330
3B2
100
AcDbEntity
  8
30
  6
Continuous
 62
     0
100
AcDbLine
 10
0.0
 20
0.0
 30
0.0
 11
-1.0
 21
0.0
 31
0.0
  0
ENDBLK
  5
3B7
330
3B2
100
AcDbEntity
  8
0
100
AcDbBlockEnd
  0
BLOCK
  5
676E
330
676A
100
AcDbEntity
  8
0
100
AcDbBlockBegin
  2
_OPEN30
 70
     0
 10
0.0
 20
0.0
 30
0.0
  3
_OPEN30
  1

  0
LINE
  5
676B
330
676A
100
AcDbEntity
  8
0
  6
ByBlock
 62
     0
100
AcDbLine
 10
-1.0
 20
0.26794919
 30
0.0
 11
0.0
 21
0.0
 31
0.0
  0
LINE
  5
676C
330
676A
100
AcDbEntity
  8
0
  6
ByBlock
 62
     0
100
AcDbLine
 10
0.0
 20
0.0
 30
0.0
 11
-1.0
 21
-0.26794919
 31
0.0
  0
LINE
  5
676D
330
676A
100
AcDbEntity
  8
0
  6
ByBlock
 62
     0
100
AcDbLine
 10
0.0
 20
0.0
 30
0.0
 11
-1.0
 21
0.0
 31
0.0
  0
ENDBLK
  5
676F
330
676A
100
AcDbEntity
  8
0
100
AcDbBlockEnd
  0
BLOCK
  5
6E0C
330
6D9C
100
AcDbEntity
  8
0
100
AcDbBlockBegin
  2
A$C21544DCF
 70
     0
 10
0.0
 20
0.0
 30
0.0
  3
A$C21544DCF
  1

  0
LINE
  5
6D9D
330
6D9C
100
AcDbEntity
  8
0
  6
Continuous
100
AcDbLine
 10
0.0
 20
92.5
 30
0.0
 11
0.0
 21
-92.5
 31
0.0
  0
LINE
  5
6D9E
330
6D9C
100
AcDbEntity
  8
0
  6
Continuous
100
AcDbLine
 10
-52.5
 20
82.5
 30
0.0
 11
-52.5
 21
-82.5
 31
0.0
  0
LINE
  5
6D9F
330
6D9C
100
AcDbEntity
  8
0
  6
Continuous
100
AcDbLine
 10
52.5
 20
-82.5
 30
0.0
 11
52.5
 21
82.5
 31
0.0
  0
ARC
  5
6DA0
330
6D9C
100
AcDbEntity
  8
0
  6
Continuous
100
AcDbCircle
 10
28.0
 20
-65.0
 30
0.0
 40
5.0
210
0.0
220
0.0
230
-1.0
100
AcDbArc
 50
90.0
 51
180.0
  0
LINE
  5
6DA1
330
6D9C
100
AcDbEntity
  8
0
  6
Continuous
100
AcDbLine
 10
-49.0
 20
-25.0
 30
0.0
 11
49.0
 21
-25.0
 31
0.0
  0
LINE
  5
6DA2
330
6D9C
100
AcDbEntity
  8
0
  6
Continuous
100
AcDbLine
 10
-49.0
 20
25.0
 30
0.0
 11
49.0
 21
25.0
 31
0.0
  0
LINE
  5
6DA3
330
6D9C
100
AcDbEntity
  8
0
  6
Continuous
100
AcDbLine
 10
-52.5
 20
-51.0
 30
0.0
 11
47.0
 21
-51.0
 31
0.0
  0
LINE
  5
6DA4
330
6D9C
100
AcDbEntity
  8
0
  6
Continuous
100
AcDbLine
 10
-52.5
 20
-82.5
 30
0.0
 11
47.0
 21
-82.5
 31
0.0
  0
LINE
  5
6DA5
330
6D9C
100
AcDbEntity
  8
0
  6
Continuous
100
AcDbLine
 10
-57.5
 20
0.0
 30
0.0
 11
58.2251927359449
 21
0.0
 31
0.0
  0
LINE
  5
6DA6
330
6D9C
100
AcDbEntity
  8
0
  6
Continuous
100
AcDbLine
 10
-49.0
 20
-25.0
 30
0.0
 11
49.0
 21
-25.0
 31
0.0
  0
CIRCLE
  5
6DA7
330
6D9C
100
AcDbEntity
  8
0
  6
Continuous
100
AcDbCircle
 10
-35.0
 20
-72.0
 30
0.0
 40
5.0
  0
LINE
  5
6DA8
330
6D9C
100
AcDbEntity
  8
0
  6
Continuous
100
AcDbLine
 10
-47.0
 20
-82.5
 30
0.0
 11
-47.0
 21
-65.0
 31
0.0
  0
LINE
  5
6DA9
330
6D9C
100
AcDbEntity
  8
0
  6
Continuous
100
AcDbLine
 10
-35.0
 20
-65.0
 30
0.0
 11
-35.0
 21
-79.0
 31
0.0
  0
LINE
  5
6DAA
330
6D9C
100
AcDbEntity
  8
0
  6
Continuous
100
AcDbLine
 10
-49.0
 20
25.0
 30
0.0
 11
-49.0
 21
-25.0
 31
0.0
  0
ARC
  5
6DAB
330
6D9C
100
AcDbEntity
  8
0
  6
Continuous
100
AcDbCircle
 10
42.0
 20
-65.0
 30
0.0
 40
5.0
210
0.0
220
0.0
230
-1.0
100
AcDbArc
 50
0.0
 51
90.0
  0
LINE
  5
6DAC
330
6D9C
100
AcDbEntity
  8
0
  6
Continuous
100
AcDbLine
 10
-42.0
 20
-72.0
 30
0.0
 11
-28.0
 21
-72.0
 31
0.0
  0
LINE
  5
6DAD
330
6D9C
100
AcDbEntity
  8
0
  6
Continuous
100
AcDbLine
 10
-28.0
 20
-60.0
 30
0.0
 11
-42.0
 21
-60.0
 31
0.0
  0
CIRCLE
  5
6DAE
330
6D9C
100
AcDbEntity
  8
0
  6
Continuous
100
AcDbCircle
 10
35.0
 20
-72.0
 30
0.0
 40
5.0
  0
CIRCLE
  5
6DAF
330
6D9C
100
AcDbEntity
  8
0
  6
Continuous
100
AcDbCircle
 10
0.0
 20
-72.0
 30
0.0
 40
5.0
  0
LINE
  5
6DB0
330
6D9C
100
AcDbEntity
  8
0
  6
Continuous
100
AcDbLine
 10
-23.0
 20
-82.5
 30
0.0
 11
-23.0
 21
-65.0
 31
0.0
  0
LINE
  5
6DB1
330
6D9C
100
AcDbEntity
  8
0
  6
Continuous
100
AcDbLine
 10
12.0
 20
-82.5
 30
0.0
 11
12.0
 21
-65.0
 31
0.0
  0
LINE
  5
6DB2
330
6D9C
100
AcDbEntity
  8
0
  6
Continuous
100
AcDbLine
 10
-12.0
 20
-82.5
 30
0.0
 11
-12.0
 21
-65.0
 31
0.0
  0
LINE
  5
6DB3
330
6D9C
100
AcDbEntity
  8
0
  6
Continuous
100
AcDbLine
 10
47.0
 20
-82.5
 30
0.0
 11
47.0
 21
-65.0
 31
0.0
  0
LINE
  5
6DB4
330
6D9C
100
AcDbEntity
  8
0
  6
Continuous
100
AcDbLine
 10
23.0
 20
-82.5
 30
0.0
 11
23.0
 21
-65.0
 31
0.0
  0
LINE
  5
6DB5
330
6D9C
100
AcDbEntity
  8
0
  6
Continuous
100
AcDbLine
 10
35.0
 20
-65.0
 30
0.0
 11
35.0
 21
-79.0
 31
0.0
  0
LINE
  5
6DB6
330
6D9C
100
AcDbEntity
  8
0
  6
Continuous
100
AcDbLine
 10
49.0
 20
-25.0
 30
0.0
 11
49.0
 21
-131.5101879612343
 31
0.0
  0
LINE
  5
6DB7
330
6D9C
100
AcDbEntity
  8
0
  6
Continuous
100
AcDbLine
 10
47.0
 20
-25.0
 30
0.0
 11
47.0
 21
-131.5214696541707
 31
0.0
  0
LINE
  5
6DB8
330
6D9C
100
AcDbEntity
  8
0
  6
Continuous
100
AcDbLine
 10
48.0
 20
-149.845960942616
 30
0.0
 11
48.0
 21
-153.845960942616
 31
0.0
  0
LINE
  5
6DB9
330
6D9C
100
AcDbEntity
  8
0
  6
Continuous
100
AcDbLine
 10
47.0
 20
-134.5214696541707
 30
0.0
 11
47.0
 21
-153.845960942616
 31
0.0
  0
LINE
  5
6DBA
330
6D9C
100
AcDbEntity
  8
0
  6
Continuous
100
AcDbLine
 10
49.0
 20
-134.5101879612343
 30
0.0
 11
49.0
 21
-153.845960942616
 31
0.0
  0
SPLINE
  5
6DBB
330
6D9C
100
AcDbEntity
  8
0
  6
Continuous
100
AcDbSpline
210
0.0
220
0.0
230
1.0
 70
     8
 71
     3
 72
    12
 73
     8
 74
     0
 42
0.0000000001
 43
0.0000000001
 40
0.0
 40
0.0
 40
0.0
 40
0.0
 40
0.25
 40
0.5
 40
0.75
 40
0.9027560157721172
 40
1.0
 40
1.0
 40
1.0
 40
1.0
 10
49.0
 20
-153.845960942616
 30
0.0
 10
49.15692719906866
 20
-155.0345150325693
 30
0.0
 10
49.37589598553778
 20
-155.9207784093739
 30
0.0
 10
49.76687264274589
 20
-157.0318195661038
 30
0.0
 10
50.35438487459838
 20
-158.4317914732045
 30
0.0
 10
50.65699082607824
 20
-159.2027110017873
 30
0.0
 10
50.9174311296145
 20
-159.8815494359974
 30
0.0
 10
51.10274862781523
 20
-160.4220588057494
 30
0.0
  0
SPLINE
  5
6DBC
330
6D9C
100
AcDbEntity
  8
0
  6
Continuous
100
AcDbSpline
210
0.0
220
0.0
230
1.0
 70
     8
 71
     3
 72
    12
 73
     8
 74
     0
 42
0.0000000001
 43
0.0000000001
 40
0.0
 40
0.0
 40
0.0
 40
0.0
 40
0.25
 40
0.5
 40
0.75
 40
0.9027560157721172
 40
1.0
 40
1.0
 40
1.0
 40
1.0
 10
47.0
 20
-153.845960942616
 30
0.0
 10
46.84307280093134
 20
-155.0345150325693
 30
0.0
 10
46.6241040144622
 20
-155.9207784093739
 30
0.0
 10
46.23312735725408
 20
-157.0318195661038
 30
0.0
 10
45.64561512540166
 20
-158.4317914732045
 30
0.0
 10
45.34300917392175
 20
-159.2027110017873
 30
0.0
 10
45.0825688703855
 20
-159.8815494359974
 30
0.0
 10
44.8972513721848
 20
-160.4220588057494
 30
0.0
  0
ARC
  5
6DBD
330
6D9C
100
AcDbEntity
  8
0
  6
Continuous
100
AcDbCircle
 10
48.0
 20
-161.545960942616
 30
0.0
 40
3.299999999999998
100
AcDbArc
 50
160.0881997351804
 51
19.91180026481925
  0
CIRCLE
  5
6DBE
330
6D9C
100
AcDbEntity
  8
0
  6
Continuous
100
AcDbCircle
 10
48.0
 20
-161.545960942616
 30
0.0
 40
2.149999999999999
  0
LINE
  5
6DBF
330
6D9C
100
AcDbEntity
  8
0
  6
Continuous
100
AcDbLine
 10
47.0
 20
-153.845960942616
 30
0.0
 11
49.0
 21
-153.845960942616
 31
0.0
  0
LINE
  5
6DC0
330
6D9C
100
AcDbEntity
  8
0
  6
Continuous
100
AcDbLine
 10
47.0
 20
-149.845960942616
 30
0.0
 11
49.0
 21
-149.845960942616
 31
0.0
  0
SPLINE
  5
6DC1
330
6D9C
100
AcDbEntity
  8
0
  6
Continuous
100
AcDbSpline
210
0.0
220
0.0
230
1.0
 70
     8
 71
     3
 72
     8
 73
     4
 74
     0
 42
0.0000000001
 43
0.0000000001
 40
0.0
 40
0.0
 40
0.0
 40
0.0
 40
1.0
 40
1.0
 40
1.0
 40
1.0
 10
47.00000000073258
 20
-134.5214696541707
 30
0.0
 10
47.5463266700256
 20
-133.5619339293595
 30
0.0
 10
48.48752698565374
 20
-135.8187863795232
 30
0.0
 10
49.00000000116675
 20
-134.5101879612343
 30
0.0
  0
SPLINE
  5
6DC2
330
6D9C
100
AcDbEntity
  8
0
  6
Continuous
100
AcDbSpline
210
0.0
220
0.0
230
1.0
 70
     8
 71
     3
 72
     8
 73
     4
 74
     0
 42
0.0000000001
 43
0.0000000001
 40
0.0
 40
0.0
 40
0.0
 40
0.0
 40
1.0
 40
1.0
 40
1.0
 40
1.0
 10
47.00000000073258
 20
-131.5214696541707
 30
0.0
 10
47.5463266700256
 20
-130.5619339293595
 30
0.0
 10
48.48752698565374
 20
-132.8187863795232
 30
0.0
 10
49.00000000116675
 20
-131.5101879612343
 30
0.0
  0
LINE
  5
6DC3
330
6D9C
100
AcDbEntity
  8
0
  6
Continuous
100
AcDbLine
 10
49.0
 20
-82.5
 30
0.0
 11
52.5
 21
-82.5
 31
0.0
  0
LINE
  5
6DC4
330
6D9C
100
AcDbEntity
  8
0
  6
Continuous
100
AcDbLine
 10
-11.0
 20
25.0
 30
0.0
 11
-11.0
 21
-25.0
 31
0.0
  0
LINE
  5
6DC5
330
6D9C
100
AcDbEntity
  8
0
  6
Continuous
100
AcDbLine
 10
11.0
 20
25.0
 30
0.0
 11
11.0
 21
-25.0
 31
0.0
  0
LINE
  5
6DC6
330
6D9C
100
AcDbEntity
  8
0
  6
Continuous
100
AcDbLine
 10
49.0
 20
25.0
 30
0.0
 11
49.0
 21
-25.0
 31
0.0
  0
CIRCLE
  5
6DC7
330
6D9C
100
AcDbEntity
  8
0
  6
Continuous
100
AcDbCircle
 10
17.5
 20
-63.0
 30
0.0
 40
4.0
  0
LINE
  5
6DC8
330
6D9C
100
AcDbEntity
  8
0
  6
Continuous
100
AcDbLine
 10
12.0
 20
-63.0
 30
0.0
 11
23.0
 21
-63.0
 31
0.0
  0
LINE
  5
6DC9
330
6D9C
100
AcDbEntity
  8
0
  6
Continuous
100
AcDbLine
 10
7.0
 20
-60.0
 30
0.0
 11
-7.0
 21
-60.0
 31
0.0
  0
LINE
  5
6DCA
330
6D9C
100
AcDbEntity
  8
0
  6
Continuous
100
AcDbLine
 10
-7.0
 20
-72.0
 30
0.0
 11
7.0
 21
-72.0
 31
0.0
  0
ARC
  5
6DCB
330
6D9C
100
AcDbEntity
  8
0
  6
Continuous
100
AcDbCircle
 10
7.0
 20
-65.0
 30
0.0
 40
5.0
210
0.0
220
0.0
230
-1.0
100
AcDbArc
 50
0.0
 51
90.0
  0
ARC
  5
6DCC
330
6D9C
100
AcDbEntity
  8
0
  6
Continuous
100
AcDbCircle
 10
-7.0
 20
-65.0
 30
0.0
 40
5.0
210
0.0
220
0.0
230
-1.0
100
AcDbArc
 50
90.0
 51
180.0
  0
LINE
  5
6DCD
330
6D9C
100
AcDbEntity
  8
0
  6
Continuous
100
AcDbLine
 10
17.5
 20
-57.5
 30
0.0
 11
17.5
 21
-68.5
 31
0.0
  0
LINE
  5
6DCE
330
6D9C
100
AcDbEntity
  8
0
  6
Continuous
100
AcDbLine
 10
42.0
 20
-60.0
 30
0.0
 11
28.0
 21
-60.0
 31
0.0
  0
LINE
  5
6DCF
330
6D9C
100
AcDbEntity
  8
0
  6
Continuous
100
AcDbLine
 10
28.0
 20
-72.0
 30
0.0
 11
42.0
 21
-72.0
 31
0.0
  0
ARC
  5
6DD0
330
6D9C
100
AcDbEntity
  8
0
  6
Continuous
100
AcDbCircle
 10
-28.0
 20
-65.0
 30
0.0
 40
5.0
210
0.0
220
0.0
230
-1.0
100
AcDbArc
 50
0.0
 51
90.0
  0
ARC
  5
6DD1
330
6D9C
100
AcDbEntity
  8
0
  6
Continuous
100
AcDbCircle
 10
-42.0
 20
-65.0
 30
0.0
 40
5.0
210
0.0
220
0.0
230
-1.0
100
AcDbArc
 50
90.0
 51
180.0
  0
LINE
  5
6DD2
330
6D9C
100
AcDbEntity
  8
0
  6
Continuous
100
AcDbLine
 10
49.0
 20
-51.0
 30
0.0
 11
52.5
 21
-51.0
 31
0.0
  0
LINE
  5
6DD3
330
6D9C
100
AcDbEntity
  8
0
  6
Continuous
100
AcDbLine
 10
-7.0
 20
-18.5
 30
0.0
 11
-6.999999999999943
 21
20.15486870581022
 31
0.0
  0
LINE
  5
6DD4
330
6D9C
100
AcDbEntity
  8
0
  6
Continuous
100
AcDbLine
 10
7.0
 20
-18.5
 30
0.0
 11
7.000000000000056
 21
20.15486870581028
 31
0.0
  0
LINE
  5
6DD5
330
6D9C
100
AcDbEntity
  8
0
  6
Continuous
100
AcDbLine
 10
-7.0
 20
-18.5
 30
0.0
 11
7.0
 21
-18.5
 31
0.0
  0
LINE
  5
6DD6
330
6D9C
100
AcDbEntity
  8
0
  6
Continuous
100
AcDbLine
 10
7.0
 20
6.840789306861521
 30
0.0
 11
-6.999999999999147
 21
6.84078930686158
 31
0.0
  0
LINE
  5
6DD7
330
6D9C
100
AcDbEntity
  8
0
  6
Continuous
100
AcDbLine
 10
7.0
 20
20.15486870581028
 30
0.0
 11
-7.000000000000909
 21
20.15486870581022
 31
0.0
  0
LINE
  5
6DD8
330
6D9C
100
AcDbEntity
  8
0
  6
Continuous
100
AcDbLine
 10
7.0
 20
15.23995644007664
 30
0.0
 11
-7.0
 21
15.23995644007664
 31
0.0
  0
LINE
  5
6DD9
330
6D9C
100
AcDbEntity
  8
0
  6
Continuous
100
AcDbLine
 10
31.10000000000002
 20
10.0495722744776
 30
0.0
 11
31.10000000000002
 21
-6.431389353983262
 31
0.0
  0
LINE
  5
6DDA
330
6D9C
100
AcDbEntity
  8
0
  6
Continuous
100
AcDbLine
 10
31.60000000000001
 20
-6.33774752654889
 30
0.0
 11
31.60000000000001
 21
-16.98662646131889
 31
0.0
  0
LINE
  5
6DDB
330
6D9C
100
AcDbEntity
  8
0
  6
Continuous
100
AcDbLine
 10
27.0
 20
-7.000000000000027
 30
0.0
 11
27.0
 21
-11.00000000000002
 31
0.0
  0
LINE
  5
6DDC
330
6D9C
100
AcDbEntity
  8
0
  6
Continuous
100
AcDbLine
 10
36.19999999999999
 20
-7.000000000000027
 30
0.0
 11
36.19999999999999
 21
-11.00000000000002
 31
0.0
  0
LINE
  5
6DDD
330
6D9C
100
AcDbEntity
  8
0
  6
Continuous
100
AcDbLine
 10
27.0
 20
-12.0
 30
0.0
 11
36.2000000000001
 21
-12.0
 31
0.0
  0
LINE
  5
6DDE
330
6D9C
100
AcDbEntity
  8
0
  6
Continuous
100
AcDbLine
 10
27.0
 20
-16.0
 30
0.0
 11
36.2000000000001
 21
-16.0
 31
0.0
  0
LINE
  5
6DDF
330
6D9C
100
AcDbEntity
  8
0
  6
Continuous
100
AcDbLine
 10
25.36102323011846
 20
-14.0
 30
0.0
 11
37.44706175765649
 21
-14.0
 31
0.0
  0
LINE
  5
6DE0
330
6D9C
100
AcDbEntity
  8
0
  6
Continuous
100
AcDbLine
 10
27.0
 20
-11.0
 30
0.0
 11
36.2000000000001
 21
-11.0
 31
0.0
  0
LINE
  5
6DE1
330
6D9C
100
AcDbEntity
  8
0
  6
Continuous
100
AcDbLine
 10
27.0
 20
-12.00000000000001
 30
0.0
 11
27.0
 21
-16.00000000000003
 31
0.0
  0
LINE
  5
6DE2
330
6D9C
100
AcDbEntity
  8
0
  6
Continuous
100
AcDbLine
 10
36.19999999999999
 20
-12.00000000000001
 30
0.0
 11
36.19999999999999
 21
-16.00000000000003
 31
0.0
  0
CIRCLE
  5
6DE3
330
6D9C
100
AcDbEntity
  8
0
  6
Continuous
100
AcDbCircle
 10
31.10000000000002
 20
-1.900000000000004
 30
0.0
 40
2.5
  0
CIRCLE
  5
6DE4
330
6D9C
100
AcDbEntity
  8
0
  6
Continuous
100
AcDbCircle
 10
31.10000000000002
 20
-1.900000000000004
 30
0.0
 40
3.6
  0
LINE
  5
6DE5
330
6D9C
100
AcDbEntity
  8
0
  6
Continuous
100
AcDbLine
 10
25.4609078460486
 20
-1.900000000000004
 30
0.0
 11
36.34833098242575
 21
-1.900000000000004
 31
0.0
  0
LINE
  5
6DE6
330
6D9C
100
AcDbEntity
  8
0
  6
Continuous
100
AcDbLine
 10
27.0
 20
-7.0
 30
0.0
 11
36.2000000000001
 21
-7.0
 31
0.0
  0
LINE
  5
6DE7
330
6D9C
100
AcDbEntity
  8
0
  6
Continuous
100
AcDbLine
 10
25.36102323011846
 20
-9.0
 30
0.0
 11
37.44706175765649
 21
-9.0
 31
0.0
  0
CIRCLE
  5
6DE8
330
6D9C
100
AcDbEntity
  8
0
  6
Continuous
100
AcDbCircle
 10
31.10000000000002
 20
5.799999999999952
 30
0.0
 40
2.75
  0
LINE
  5
6DE9
330
6D9C
100
AcDbEntity
  8
0
  6
Continuous
100
AcDbLine
 10
25.4609078460486
 20
5.800000000000013
 30
0.0
 11
36.34833098242575
 21
5.800000000000013
 31
0.0
  0
ARC
  5
6DEA
330
6D9C
100
AcDbEntity
  8
0
  6
Continuous
100
AcDbCircle
 10
-28.0
 20
65.0
 30
0.0
 40
5.0
100
AcDbArc
 50
270.0
 51
0.0
  0
LINE
  5
6DEB
330
6D9C
100
AcDbEntity
  8
0
  6
Continuous
100
AcDbLine
 10
-52.5
 20
51.0
 30
0.0
 11
52.5
 21
51.0
 31
0.0
  0
LINE
  5
6DEC
330
6D9C
100
AcDbEntity
  8
0
  6
Continuous
100
AcDbLine
 10
52.5
 20
82.5
 30
0.0
 11
-52.5
 21
82.5
 31
0.0
  0
LINE
  5
6DED
330
6D9C
100
AcDbEntity
  8
0
  6
Continuous
100
AcDbLine
 10
-47.0
 20
82.5
 30
0.0
 11
-47.0
 21
65.0
 31
0.0
  0
ARC
  5
6DEE
330
6D9C
100
AcDbEntity
  8
0
  6
Continuous
100
AcDbCircle
 10
-42.0
 20
65.0
 30
0.0
 40
5.0
100
AcDbArc
 50
180.0
 51
270.0
  0
CIRCLE
  5
6DEF
330
6D9C
100
AcDbEntity
  8
0
  6
Continuous
100
AcDbCircle
 10
-35.0
 20
72.0
 30
0.0
 40
5.0
  0
LINE
  5
6DF0
330
6D9C
100
AcDbEntity
  8
0
  6
Continuous
100
AcDbLine
 10
-35.0
 20
79.0
 30
0.0
 11
-35.0
 21
65.0
 31
0.0
  0
LINE
  5
6DF1
330
6D9C
100
AcDbEntity
  8
0
  6
Continuous
100
AcDbLine
 10
-28.0
 20
60.0
 30
0.0
 11
-42.0
 21
60.0
 31
0.0
  0
LINE
  5
6DF2
330
6D9C
100
AcDbEntity
  8
0
  6
Continuous
100
AcDbLine
 10
-42.0
 20
72.0
 30
0.0
 11
-28.0
 21
72.0
 31
0.0
  0
LINE
  5
6DF3
330
6D9C
100
AcDbEntity
  8
0
  6
Continuous
100
AcDbLine
 10
-23.0
 20
82.5
 30
0.0
 11
-23.0
 21
65.0
 31
0.0
  0
LINE
  5
6DF4
330
6D9C
100
AcDbEntity
  8
0
  6
Continuous
100
AcDbLine
 10
12.0
 20
82.5
 30
0.0
 11
12.0
 21
65.0
 31
0.0
  0
LINE
  5
6DF5
330
6D9C
100
AcDbEntity
  8
0
  6
Continuous
100
AcDbLine
 10
-12.0
 20
82.5
 30
0.0
 11
-12.0
 21
65.0
 31
0.0
  0
LINE
  5
6DF6
330
6D9C
100
AcDbEntity
  8
0
  6
Continuous
100
AcDbLine
 10
23.0
 20
82.5
 30
0.0
 11
23.0
 21
65.0
 31
0.0
  0
LINE
  5
6DF7
330
6D9C
100
AcDbEntity
  8
0
  6
Continuous
100
AcDbLine
 10
47.0
 20
82.5
 30
0.0
 11
47.0
 21
65.0
 31
0.0
  0
CIRCLE
  5
6DF8
330
6D9C
100
AcDbEntity
  8
0
  6
Continuous
100
AcDbCircle
 10
0.0
 20
72.0
 30
0.0
 40
5.0
  0
LINE
  5
6DF9
330
6D9C
100
AcDbEntity
  8
0
  6
Continuous
100
AcDbLine
 10
7.0
 20
60.0
 30
0.0
 11
-7.0
 21
60.0
 31
0.0
  0
LINE
  5
6DFA
330
6D9C
100
AcDbEntity
  8
0
  6
Continuous
100
AcDbLine
 10
-7.0
 20
72.0
 30
0.0
 11
7.0
 21
72.0
 31
0.0
  0
LINE
  5
6DFB
330
6D9C
100
AcDbEntity
  8
0
  6
Continuous
100
AcDbLine
 10
-17.5
 20
68.5
 30
0.0
 11
-17.5
 21
57.5
 31
0.0
  0
ARC
  5
6DFC
330
6D9C
100
AcDbEntity
  8
0
  6
Continuous
100
AcDbCircle
 10
-7.0
 20
65.0
 30
0.0
 40
5.0
100
AcDbArc
 50
180.0
 51
270.0
  0
LINE
  5
6DFD
330
6D9C
100
AcDbEntity
  8
0
  6
Continuous
100
AcDbLine
 10
-23.0
 20
63.0
 30
0.0
 11
-12.0
 21
63.0
 31
0.0
  0
CIRCLE
  5
6DFE
330
6D9C
100
AcDbEntity
  8
0
  6
Continuous
100
AcDbCircle
 10
-17.5
 20
63.0
 30
0.0
 40
4.0
  0
ARC
  5
6DFF
330
6D9C
100
AcDbEntity
  8
0
  6
Continuous
100
AcDbCircle
 10
7.0
 20
65.0
 30
0.0
 40
5.0
100
AcDbArc
 50
270.0
 51
0.0
  0
LINE
  5
6E00
330
6D9C
100
AcDbEntity
  8
0
  6
Continuous
100
AcDbLine
 10
42.0
 20
60.0
 30
0.0
 11
28.0
 21
60.0
 31
0.0
  0
LINE
  5
6E01
330
6D9C
100
AcDbEntity
  8
0
  6
Continuous
100
AcDbLine
 10
28.0
 20
72.0
 30
0.0
 11
42.0
 21
72.0
 31
0.0
  0
CIRCLE
  5
6E02
330
6D9C
100
AcDbEntity
  8
0
  6
Continuous
100
AcDbCircle
 10
35.0
 20
72.0
 30
0.0
 40
5.0
  0
LINE
  5
6E03
330
6D9C
100
AcDbEntity
  8
0
  6
Continuous
100
AcDbLine
 10
35.0
 20
79.0
 30
0.0
 11
35.0
 21
65.0
 31
0.0
  0
ARC
  5
6E04
330
6D9C
100
AcDbEntity
  8
0
  6
Continuous
100
AcDbCircle
 10
28.0
 20
65.0
 30
0.0
 40
5.0
100
AcDbArc
 50
180.0
 51
270.0
  0
ARC
  5
6E05
330
6D9C
100
AcDbEntity
  8
0
  6
Continuous
100
AcDbCircle
 10
42.0
 20
65.0
 30
0.0
 40
5.0
100
AcDbArc
 50
270.0
 51
0.0
  0
LINE
  5
6E06
330
6D9C
100
AcDbEntity
  8
0
  6
PHANTOM
100
AcDbLine
 10
19.0
 20
129.4999999999999
 30
0.0
 11
19.0
 21
82.49999999999992
 31
0.0
  0
LINE
  5
6E07
330
6D9C
100
AcDbEntity
  8
0
  6
PHANTOM
100
AcDbLine
 10
16.0
 20
129.4999999999999
 30
0.0
 11
16.0
 21
82.49999999999992
 31
0.0
  0
LINE
  5
6E08
330
6D9C
100
AcDbEntity
  8
0
  6
PHANTOM
100
AcDbLine
 10
-16.0
 20
129.4999999999999
 30
0.0
 11
-16.0
 21
82.49999999999992
 31
0.0
  0
LINE
  5
6E09
330
6D9C
100
AcDbEntity
  8
0
  6
PHANTOM
100
AcDbLine
 10
-19.0
 20
129.4999999999999
 30
0.0
 11
-19.0
 21
82.49999999999992
 31
0.0
  0
LINE
  5
6E0A
330
6D9C
100
AcDbEntity
  8
0
  6
PHANTOM
100
AcDbLine
 10
-16.0
 20
129.4999999999999
 30
0.0
 11
-19.0
 21
129.4999999999999
 31
0.0
  0
LINE
  5
6E0B
330
6D9C
100
AcDbEntity
  8
0
  6
PHANTOM
100
AcDbLine
 10
16.0
 20
129.4999999999999
 30
0.0
 11
19.0
 21
129.4999999999999
 31
0.0
  0
ENDBLK
  5
6E0D
330
6D9C
100
AcDbEntity
  8
0
100
AcDbBlockEnd
  0
BLOCK
  5
731F
330
725D
100
AcDbEntity
  8
0
100
AcDbBlockBegin
  2
A$C15744025
 70
     0
 10
0.0
 20
0.0
 30
0.0
  3
A$C15744025
  1

  0
LINE
  5
725E
330
725D
100
AcDbEntity
  8
0
100
AcDbLine
 10
46.0
 20
-174.5
 30
0.0
 11
74.0
 21
-174.5
 31
0.0
  0
LINE
  5
725F
330
725D
100
AcDbEntity
  8
0
100
AcDbLine
 10
49.0
 20
-160.0
 30
0.0
 11
71.0
 21
-160.0
 31
0.0
  0
LINE
  5
7260
330
725D
100
AcDbEntity
  8
0
100
AcDbLine
 10
49.0
 20
160.0000000000002
 30
0.0
 11
71.0
 21
160.0000000000002
 31
0.0
  0
LINE
  5
7261
330
725D
100
AcDbEntity
  8
0
100
AcDbLine
 10
46.0
 20
174.5000000000002
 30
0.0
 11
74.0
 21
174.5000000000002
 31
0.0
  0
LINE
  5
7262
330
725D
100
AcDbEntity
  8
0
100
AcDbLine
 10
-70.00000000000007
 20
50.99999999999909
 30
0.0
 11
70.0
 21
50.99999999999909
 31
0.0
  0
LINE
  5
7263
330
725D
100
AcDbEntity
  8
0
100
AcDbLine
 10
-53.0
 20
45.0000000000001
 30
0.0
 11
53.0
 21
45.0000000000001
 31
0.0
  0
LINE
  5
7264
330
725D
100
AcDbEntity
  8
0
100
AcDbLine
 10
70.0
 20
130.0
 30
0.0
 11
-70.00000000000007
 21
130.0
 31
0.0
  0
LINE
  5
7265
330
725D
100
AcDbEntity
  8
0
100
AcDbLine
 10
-53.0
 20
-45.0
 30
0.0
 11
53.0
 21
-45.0
 31
0.0
  0
LINE
  5
7266
330
725D
100
AcDbEntity
  8
0
100
AcDbLine
 10
-75.00000000000007
 20
0.0
 30
0.0
 11
75.0
 21
0.0
 31
0.0
  0
LINE
  5
7267
330
725D
100
AcDbEntity
  8
0
100
AcDbLine
 10
36.0
 20
-114.0
 30
0.0
 11
54.0
 21
-114.0
 31
0.0
  0
LINE
  5
7268
330
725D
100
AcDbEntity
  8
0
100
AcDbLine
 10
36.0
 20
114.0000000000001
 30
0.0
 11
54.0
 21
114.0000000000001
 31
0.0
  0
LINE
  5
7269
330
725D
100
AcDbEntity
  8
0
100
AcDbLine
 10
-70.00000000000007
 20
-130.0
 30
0.0
 11
70.0
 21
-130.0
 31
0.0
  0
LINE
  5
726A
330
725D
100
AcDbEntity
  8
0
100
AcDbLine
 10
-70.00000000000007
 20
-51.0
 30
0.0
 11
70.0
 21
-51.0
 31
0.0
  0
LINE
  5
726B
330
725D
100
AcDbEntity
  8
0
100
AcDbLine
 10
0.0
 20
178.5
 30
0.0
 11
0.0
 21
-178.5
 31
0.0
  0
LINE
  5
726C
330
725D
100
AcDbEntity
  8
0
100
AcDbLine
 10
-25.49999999999977
 20
-45.0
 30
0.0
 11
-25.5
 21
45.0000000000001
 31
0.0
  0
LINE
  5
726D
330
725D
100
AcDbEntity
  8
0
100
AcDbLine
 10
25.49999999999977
 20
-45.0
 30
0.0
 11
25.49999999999977
 21
45.0000000000001
 31
0.0
  0
LINE
  5
726E
330
725D
100
AcDbEntity
  8
0
100
AcDbLine
 10
-70.00000000000007
 20
130.0
 30
0.0
 11
-70.00000000000007
 21
-130.0
 31
0.0
  0
ARC
  5
726F
330
725D
100
AcDbEntity
  8
0
100
AcDbCircle
 10
-53.0
 20
-40.0
 30
0.0
 40
5.0
100
AcDbArc
 50
180.0
 51
270.0
  0
LINE
  5
7270
330
725D
100
AcDbEntity
  8
0
100
AcDbLine
 10
-71.00000000000004
 20
-160.0
 30
0.0
 11
-49.0
 21
-160.0
 31
0.0
  0
LINE
  5
7271
330
725D
100
AcDbEntity
  8
0
100
AcDbLine
 10
-74.00000000000004
 20
-150.0000000000003
 30
0.0
 11
-59.0
 21
-130.0000000000003
 31
0.0
  0
LINE
  5
7272
330
725D
100
AcDbEntity
  8
0
100
AcDbLine
 10
-74.00000000000004
 20
-174.5
 30
0.0
 11
-46.0
 21
-174.5
 31
0.0
  0
CIRCLE
  5
7273
330
725D
100
AcDbEntity
  8
0
100
AcDbCircle
 10
60.0
 20
-160.0
 30
0.0
 40
7.0
210
0.0
220
0.0
230
-1.0
  0
LINE
  5
7274
330
725D
100
AcDbEntity
  8
0
100
AcDbLine
 10
-74.00000000000004
 20
-174.5
 30
0.0
 11
-74.00000000000004
 21
-150.0000000000003
 31
0.0
  0
LINE
  5
7275
330
725D
100
AcDbEntity
  8
0
100
AcDbLine
 10
14.0
 20
-174.5
 30
0.0
 11
14.0
 21
-130.0
 31
0.0
  0
LINE
  5
7276
330
725D
100
AcDbEntity
  8
0
100
AcDbLine
 10
31.0
 20
-130.0000000000003
 30
0.0
 11
46.0
 21
-150.0000000000003
 31
0.0
  0
LINE
  5
7277
330
725D
100
AcDbEntity
  8
0
100
AcDbLine
 10
-46.0
 20
-150.0000000000003
 30
0.0
 11
-31.0
 21
-130.0000000000003
 31
0.0
  0
LINE
  5
7278
330
725D
100
AcDbEntity
  8
0
100
AcDbLine
 10
-14.0
 20
-174.5
 30
0.0
 11
-14.0
 21
-130.0
 31
0.0
  0
LINE
  5
7279
330
725D
100
AcDbEntity
  8
0
100
AcDbLine
 10
-11.0
 20
-160.0
 30
0.0
 11
11.0
 21
-160.0
 31
0.0
  0
LINE
  5
727A
330
725D
100
AcDbEntity
  8
0
100
AcDbLine
 10
-14.0
 20
-174.5
 30
0.0
 11
14.0
 21
-174.5
 31
0.0
  0
CIRCLE
  5
727B
330
725D
100
AcDbEntity
  8
0
100
AcDbCircle
 10
0.0
 20
-160.0
 30
0.0
 40
7.0
210
0.0
220
0.0
230
-1.0
  0
LINE
  5
727C
330
725D
100
AcDbEntity
  8
0
100
AcDbLine
 10
-60.0
 20
-149.0
 30
0.0
 11
-60.0
 21
-171.0
 31
0.0
  0
LINE
  5
727D
330
725D
100
AcDbEntity
  8
0
100
AcDbLine
 10
-46.0
 20
-174.5
 30
0.0
 11
-46.0
 21
-150.0000000000003
 31
0.0
  0
LINE
  5
727E
330
725D
100
AcDbEntity
  8
0
100
AcDbLine
 10
46.0
 20
-174.5
 30
0.0
 11
46.0
 21
-150.0000000000003
 31
0.0
  0
LINE
  5
727F
330
725D
100
AcDbEntity
  8
0
100
AcDbLine
 10
-9.0
 20
-114.0
 30
0.0
 11
9.0
 21
-114.0
 31
0.0
  0
LINE
  5
7280
330
725D
100
AcDbEntity
  8
0
100
AcDbLine
 10
-45.0000000000001
 20
-109.3811978464831
 30
0.0
 11
-41.0
 21
-111.6905989232416
 31
0.0
  0
LINE
  5
7281
330
725D
100
AcDbEntity
  8
0
100
AcDbLine
 10
-49.0
 20
-111.6905989232416
 30
0.0
 11
-45.0000000000001
 21
-109.3811978464831
 31
0.0
  0
LINE
  5
7282
330
725D
100
AcDbEntity
  8
0
100
AcDbLine
 10
-45.0
 20
-123.0
 30
0.0
 11
-45.0
 21
-105.0
 31
0.0
  0
ARC
  5
7283
330
725D
100
AcDbEntity
  8
0
100
AcDbCircle
 10
45.0
 20
-114.0
 30
0.0
 40
5.5
210
0.0
220
0.0
230
-1.0
100
AcDbArc
 50
0.0
 51
180.0
  0
LINE
  5
7284
330
725D
100
AcDbEntity
  8
0
100
AcDbLine
 10
-54.0
 20
-114.0
 30
0.0
 11
-36.0
 21
-114.0
 31
0.0
  0
LINE
  5
7285
330
725D
100
AcDbEntity
  8
0
100
AcDbLine
 10
-41.0
 20
-111.6905989232416
 30
0.0
 11
-41.0
 21
-116.3094010767586
 31
0.0
  0
LINE
  5
7286
330
725D
100
AcDbEntity
  8
0
100
AcDbLine
 10
-49.0
 20
-116.3094010767586
 30
0.0
 11
-49.0
 21
-111.6905989232416
 31
0.0
  0
LINE
  5
7287
330
725D
100
AcDbEntity
  8
0
100
AcDbLine
 10
-45.0
 20
-118.6188021535169
 30
0.0
 11
-49.0
 21
-116.3094010767586
 31
0.0
  0
LINE
  5
7288
330
725D
100
AcDbEntity
  8
0
100
AcDbLine
 10
-41.0
 20
-116.3094010767586
 30
0.0
 11
-45.0
 21
-118.6188021535169
 31
0.0
  0
LINE
  5
7289
330
725D
100
AcDbEntity
  8
0
100
AcDbLine
 10
-50.5
 20
-114.0
 30
0.0
 11
-50.5
 21
-130.0
 31
0.0
  0
LINE
  5
728A
330
725D
100
AcDbEntity
  8
0
100
AcDbLine
 10
-39.5
 20
-114.0
 30
0.0
 11
-39.5
 21
-130.0
 31
0.0
  0
ARC
  5
728B
330
725D
100
AcDbEntity
  8
0
100
AcDbCircle
 10
45.0
 20
-114.0
 30
0.0
 40
8.0
210
0.0
220
0.0
230
-1.0
100
AcDbArc
 50
226.5674634422111
 51
313.4325365577887
  0
LINE
  5
728C
330
725D
100
AcDbEntity
  8
0
100
AcDbLine
 10
-22.5
 20
-99.0
 30
0.0
 11
-22.5
 21
-115.0
 31
0.0
  0
CIRCLE
  5
728D
330
725D
100
AcDbEntity
  8
0
100
AcDbCircle
 10
-22.5
 20
-107.0
 30
0.0
 40
4.0
  0
LINE
  5
728E
330
725D
100
AcDbEntity
  8
0
100
AcDbLine
 10
-14.5
 20
-107.0
 30
0.0
 11
-30.5
 21
-107.0
 31
0.0
  0
LINE
  5
728F
330
725D
100
AcDbEntity
  8
0
100
AcDbLine
 10
30.5
 20
-107.0
 30
0.0
 11
14.5
 21
-107.0
 31
0.0
  0
CIRCLE
  5
7290
330
725D
100
AcDbEntity
  8
0
100
AcDbCircle
 10
22.5
 20
-107.0
 30
0.0
 40
4.0
  0
LINE
  5
7291
330
725D
100
AcDbEntity
  8
0
100
AcDbLine
 10
-0.0000000000001137
 20
-109.3811978464831
 30
0.0
 11
4.0
 21
-111.6905989232416
 31
0.0
  0
LINE
  5
7292
330
725D
100
AcDbEntity
  8
0
100
AcDbLine
 10
-4.0
 20
-111.6905989232416
 30
0.0
 11
-0.0000000000001137
 21
-109.3811978464831
 31
0.0
  0
LINE
  5
7293
330
725D
100
AcDbEntity
  8
0
100
AcDbLine
 10
22.5
 20
-99.0
 30
0.0
 11
22.5
 21
-115.0
 31
0.0
  0
LINE
  5
7294
330
725D
100
AcDbEntity
  8
0
100
AcDbLine
 10
0.0
 20
-123.0
 30
0.0
 11
0.0
 21
-105.0
 31
0.0
  0
ARC
  5
7295
330
725D
100
AcDbEntity
  8
0
100
AcDbCircle
 10
0.0
 20
-114.0
 30
0.0
 40
5.5
210
0.0
220
0.0
230
-1.0
100
AcDbArc
 50
0.0
 51
180.0
  0
LINE
  5
7296
330
725D
100
AcDbEntity
  8
0
100
AcDbLine
 10
4.0
 20
-111.6905989232416
 30
0.0
 11
4.0
 21
-116.3094010767586
 31
0.0
  0
LINE
  5
7297
330
725D
100
AcDbEntity
  8
0
100
AcDbLine
 10
-4.0
 20
-116.3094010767586
 30
0.0
 11
-4.0
 21
-111.6905989232416
 31
0.0
  0
LINE
  5
7298
330
725D
100
AcDbEntity
  8
0
100
AcDbLine
 10
0.0
 20
-118.6188021535169
 30
0.0
 11
-4.0
 21
-116.3094010767586
 31
0.0
  0
LINE
  5
7299
330
725D
100
AcDbEntity
  8
0
100
AcDbLine
 10
4.0
 20
-116.3094010767586
 30
0.0
 11
0.0
 21
-118.6188021535169
 31
0.0
  0
LINE
  5
729A
330
725D
100
AcDbEntity
  8
0
100
AcDbLine
 10
-5.5
 20
-114.0
 30
0.0
 11
-5.5
 21
-130.0
 31
0.0
  0
LINE
  5
729B
330
725D
100
AcDbEntity
  8
0
100
AcDbLine
 10
5.5
 20
-114.0
 30
0.0
 11
5.5
 21
-130.0
 31
0.0
  0
ARC
  5
729C
330
725D
100
AcDbEntity
  8
0
100
AcDbCircle
 10
0.0
 20
-114.0
 30
0.0
 40
8.0
210
0.0
220
0.0
230
-1.0
100
AcDbArc
 50
226.5674634422111
 51
313.4325365577887
  0
LINE
  5
729D
330
725D
100
AcDbEntity
  8
0
100
AcDbLine
 10
44.99999999999988
 20
-109.3811978464831
 30
0.0
 11
49.0
 21
-111.6905989232416
 31
0.0
  0
LINE
  5
729E
330
725D
100
AcDbEntity
  8
0
100
AcDbLine
 10
41.0
 20
-111.6905989232416
 30
0.0
 11
44.99999999999988
 21
-109.3811978464831
 31
0.0
  0
LINE
  5
729F
330
725D
100
AcDbEntity
  8
0
100
AcDbLine
 10
45.0
 20
-123.0
 30
0.0
 11
45.0
 21
-105.0
 31
0.0
  0
ARC
  5
72A0
330
725D
100
AcDbEntity
  8
0
100
AcDbCircle
 10
-45.0
 20
-114.0
 30
0.0
 40
5.5
210
0.0
220
0.0
230
-1.0
100
AcDbArc
 50
0.0
 51
180.0
  0
LINE
  5
72A1
330
725D
100
AcDbEntity
  8
0
100
AcDbLine
 10
49.0
 20
-111.6905989232416
 30
0.0
 11
49.0
 21
-116.3094010767586
 31
0.0
  0
LINE
  5
72A2
330
725D
100
AcDbEntity
  8
0
100
AcDbLine
 10
41.0
 20
-116.3094010767586
 30
0.0
 11
41.0
 21
-111.6905989232416
 31
0.0
  0
LINE
  5
72A3
330
725D
100
AcDbEntity
  8
0
100
AcDbLine
 10
45.0
 20
-118.6188021535169
 30
0.0
 11
41.0
 21
-116.3094010767586
 31
0.0
  0
LINE
  5
72A4
330
725D
100
AcDbEntity
  8
0
100
AcDbLine
 10
49.0
 20
-116.3094010767586
 30
0.0
 11
45.0
 21
-118.6188021535169
 31
0.0
  0
LINE
  5
72A5
330
725D
100
AcDbEntity
  8
0
100
AcDbLine
 10
39.5
 20
-114.0
 30
0.0
 11
39.5
 21
-130.0
 31
0.0
  0
LINE
  5
72A6
330
725D
100
AcDbEntity
  8
0
100
AcDbLine
 10
50.5
 20
-114.0
 30
0.0
 11
50.5
 21
-130.0
 31
0.0
  0
ARC
  5
72A7
330
725D
100
AcDbEntity
  8
0
100
AcDbCircle
 10
-45.0
 20
-114.0
 30
0.0
 40
8.0
210
0.0
220
0.0
230
-1.0
100
AcDbArc
 50
226.5674634422111
 51
313.4325365577887
  0
LINE
  5
72A8
330
725D
100
AcDbEntity
  8
0
100
AcDbLine
 10
14.0
 20
174.5000000000002
 30
0.0
 11
14.0
 21
130.0
 31
0.0
  0
LINE
  5
72A9
330
725D
100
AcDbEntity
  8
0
100
AcDbLine
 10
31.0
 20
130.0
 30
0.0
 11
46.0
 21
150.0
 31
0.0
  0
LINE
  5
72AA
330
725D
100
AcDbEntity
  8
0
100
AcDbLine
 10
-46.0
 20
150.0
 30
0.0
 11
-31.0
 21
130.0
 31
0.0
  0
LINE
  5
72AB
330
725D
100
AcDbEntity
  8
0
100
AcDbLine
 10
-74.00000000000004
 20
150.0
 30
0.0
 11
-59.0
 21
130.0
 31
0.0
  0
LINE
  5
72AC
330
725D
100
AcDbEntity
  8
0
100
AcDbLine
 10
-14.0
 20
174.5000000000002
 30
0.0
 11
-14.0
 21
130.0
 31
0.0
  0
LINE
  5
72AD
330
725D
100
AcDbEntity
  8
0
100
AcDbLine
 10
17.99999999999988
 20
-31.0
 30
0.0
 11
-18.0
 21
-31.0
 31
0.0
  0
LINE
  5
72AE
330
725D
100
AcDbEntity
  8
0
100
AcDbLine
 10
17.0
 20
17.0337027253521
 30
0.0
 11
-17.0
 21
17.0337027253521
 31
0.0
  0
LINE
  5
72AF
330
725D
100
AcDbEntity
  8
0
100
AcDbLine
 10
17.0
 20
28.03853193396571
 30
0.0
 11
-17.00000000000011
 21
28.03853193396571
 31
0.0
  0
LINE
  5
72B0
330
725D
100
AcDbEntity
  8
0
100
AcDbLine
 10
17.0
 20
39.33264411704204
 30
0.0
 11
-17.00000000000011
 21
39.33264411704204
 31
0.0
  0
LINE
  5
72B1
330
725D
100
AcDbEntity
  8
0
100
AcDbLine
 10
-18.0
 20
-31.0
 30
0.0
 11
-18.00000000000011
 21
31.00000000000011
 31
0.0
  0
LINE
  5
72B2
330
725D
100
AcDbEntity
  8
0
100
AcDbLine
 10
-58.0
 20
40.00000000000009
 30
0.0
 11
-58.0
 21
-40.0
 31
0.0
  0
ARC
  5
72B3
330
725D
100
AcDbEntity
  8
0
100
AcDbCircle
 10
-53.0
 20
40.00000000000009
 30
0.0
 40
5.0
100
AcDbArc
 50
90.0
 51
180.0
  0
LINE
  5
72B4
330
725D
100
AcDbEntity
  8
0
100
AcDbLine
 10
-17.00000000000011
 20
17.0337027253521
 30
0.0
 11
-17.00000000000011
 21
39.33264411704204
 31
0.0
  0
LINE
  5
72B5
330
725D
100
AcDbEntity
  8
0
100
AcDbLine
 10
-17.00000000000011
 20
31.00000000000011
 30
0.0
 11
-18.00000000000011
 21
31.00000000000011
 31
0.0
  0
LINE
  5
72B6
330
725D
100
AcDbEntity
  8
0
100
AcDbLine
 10
17.99999999999988
 20
-31.0
 30
0.0
 11
18.0
 21
31.00000000000011
 31
0.0
  0
CIRCLE
  5
72B7
330
725D
100
AcDbEntity
  8
0
100
AcDbCircle
 10
40.94999999999993
 20
5.0
 30
0.0
 40
5.5
  0
CIRCLE
  5
72B8
330
725D
100
AcDbEntity
  8
0
100
AcDbCircle
 10
40.94999999999993
 20
5.0
 30
0.0
 40
3.5
  0
LINE
  5
72B9
330
725D
100
AcDbEntity
  8
0
100
AcDbLine
 10
19.0
 20
-40.45000000000015
 30
0.0
 11
24.29999999999994
 21
-40.45000000000015
 31
0.0
  0
LINE
  5
72BA
330
725D
100
AcDbEntity
  8
0
100
AcDbLine
 10
19.0
 20
-33.85000000000013
 30
0.0
 11
24.29999999999994
 21
-33.85000000000013
 31
0.0
  0
LINE
  5
72BB
330
725D
100
AcDbEntity
  8
0
100
AcDbLine
 10
19.0
 20
-33.85000000000013
 30
0.0
 11
19.0
 21
-40.45000000000015
 31
0.0
  0
LINE
  5
72BC
330
725D
100
AcDbEntity
  8
0
100
AcDbLine
 10
36.94999999999993
 20
-28.5
 30
0.0
 11
44.94999999999993
 21
-28.5
 31
0.0
  0
LINE
  5
72BD
330
725D
100
AcDbEntity
  8
0
100
AcDbLine
 10
36.94999999999993
 20
-23.5
 30
0.0
 11
44.94999999999993
 21
-23.5
 31
0.0
  0
LINE
  5
72BE
330
725D
100
AcDbEntity
  8
0
100
AcDbLine
 10
36.94999999999993
 20
-25.5
 30
0.0
 11
44.94999999999993
 21
-25.5
 31
0.0
  0
LINE
  5
72BF
330
725D
100
AcDbEntity
  8
0
100
AcDbLine
 10
36.94999999999993
 20
-20.5
 30
0.0
 11
44.94999999999993
 21
-20.5
 31
0.0
  0
LINE
  5
72C0
330
725D
100
AcDbEntity
  8
0
100
AcDbLine
 10
36.94999999999993
 20
-25.5
 30
0.0
 11
36.94999999999993
 21
-28.5
 31
0.0
  0
LINE
  5
72C1
330
725D
100
AcDbEntity
  8
0
100
AcDbLine
 10
36.94999999999993
 20
-20.5
 30
0.0
 11
36.94999999999993
 21
-23.5
 31
0.0
  0
LINE
  5
72C2
330
725D
100
AcDbEntity
  8
0
100
AcDbLine
 10
24.29999999999994
 20
-33.85000000000013
 30
0.0
 11
24.29999999999994
 21
-40.45000000000015
 31
0.0
  0
LINE
  5
72C3
330
725D
100
AcDbEntity
  8
0
100
AcDbLine
 10
44.94999999999993
 20
-25.5
 30
0.0
 11
44.94999999999993
 21
-28.5
 31
0.0
  0
LINE
  5
72C4
330
725D
100
AcDbEntity
  8
0
100
AcDbLine
 10
44.94999999999993
 20
-20.5
 30
0.0
 11
44.94999999999993
 21
-23.5
 31
0.0
  0
CIRCLE
  5
72C5
330
725D
100
AcDbEntity
  8
0
100
AcDbCircle
 10
40.94999999999993
 20
-10.0
 30
0.0
 40
3.5
  0
LINE
  5
72C6
330
725D
100
AcDbEntity
  8
0
100
AcDbLine
 10
17.0
 20
17.0337027253521
 30
0.0
 11
17.0
 21
39.33264411704204
 31
0.0
  0
LINE
  5
72C7
330
725D
100
AcDbEntity
  8
0
100
AcDbLine
 10
18.0
 20
31.00000000000011
 30
0.0
 11
17.0
 21
31.00000000000011
 31
0.0
  0
LINE
  5
72C8
330
725D
100
AcDbEntity
  8
0
100
AcDbLine
 10
-9.0
 20
114.0000000000001
 30
0.0
 11
9.0
 21
114.0000000000001
 31
0.0
  0
LINE
  5
72C9
330
725D
100
AcDbEntity
  8
0
100
AcDbLine
 10
-50.5
 20
114.0000000000001
 30
0.0
 11
-50.5
 21
130.0
 31
0.0
  0
LINE
  5
72CA
330
725D
100
AcDbEntity
  8
0
100
AcDbLine
 10
-39.5
 20
114.0000000000001
 30
0.0
 11
-39.5
 21
130.0
 31
0.0
  0
LINE
  5
72CB
330
725D
100
AcDbEntity
  8
0
100
AcDbLine
 10
-45.0
 20
105.0
 30
0.0
 11
-45.0
 21
123.0000000000001
 31
0.0
  0
ARC
  5
72CC
330
725D
100
AcDbEntity
  8
0
100
AcDbCircle
 10
-45.0
 20
114.0000000000001
 30
0.0
 40
5.5
100
AcDbArc
 50
180.0
 51
0.0
  0
LINE
  5
72CD
330
725D
100
AcDbEntity
  8
0
100
AcDbLine
 10
-54.0
 20
114.0000000000001
 30
0.0
 11
-36.0
 21
114.0000000000001
 31
0.0
  0
LINE
  5
72CE
330
725D
100
AcDbEntity
  8
0
100
AcDbLine
 10
-41.0
 20
111.6905989232412
 30
0.0
 11
-41.0
 21
116.3094010767582
 31
0.0
  0
LINE
  5
72CF
330
725D
100
AcDbEntity
  8
0
100
AcDbLine
 10
-45.0000000000001
 20
109.3811978464827
 30
0.0
 11
-41.0
 21
111.6905989232412
 31
0.0
  0
LINE
  5
72D0
330
725D
100
AcDbEntity
  8
0
100
AcDbLine
 10
-49.0
 20
111.6905989232412
 30
0.0
 11
-45.0000000000001
 21
109.3811978464827
 31
0.0
  0
LINE
  5
72D1
330
725D
100
AcDbEntity
  8
0
100
AcDbLine
 10
-49.0
 20
116.3094010767582
 30
0.0
 11
-49.0
 21
111.6905989232412
 31
0.0
  0
LINE
  5
72D2
330
725D
100
AcDbEntity
  8
0
100
AcDbLine
 10
-45.0
 20
118.6188021535167
 30
0.0
 11
-49.0
 21
116.3094010767582
 31
0.0
  0
LINE
  5
72D3
330
725D
100
AcDbEntity
  8
0
100
AcDbLine
 10
-41.0
 20
116.3094010767582
 30
0.0
 11
-45.0
 21
118.6188021535167
 31
0.0
  0
ARC
  5
72D4
330
725D
100
AcDbEntity
  8
0
100
AcDbCircle
 10
-45.0
 20
114.0000000000001
 30
0.0
 40
8.0
100
AcDbArc
 50
46.5674634422112
 51
133.4325365577887
  0
CIRCLE
  5
72D5
330
725D
100
AcDbEntity
  8
0
100
AcDbCircle
 10
22.50000000000011
 20
107.0
 30
0.0
 40
4.0
210
0.0
220
0.0
230
-1.0
  0
LINE
  5
72D6
330
725D
100
AcDbEntity
  8
0
100
AcDbLine
 10
-14.5
 20
107.0
 30
0.0
 11
-30.5
 21
107.0
 31
0.0
  0
LINE
  5
72D7
330
725D
100
AcDbEntity
  8
0
100
AcDbLine
 10
-22.5
 20
115.0000000000001
 30
0.0
 11
-22.5
 21
99.00000000000012
 31
0.0
  0
LINE
  5
72D8
330
725D
100
AcDbEntity
  8
0
100
AcDbLine
 10
30.5
 20
107.0
 30
0.0
 11
14.5
 21
107.0
 31
0.0
  0
CIRCLE
  5
72D9
330
725D
100
AcDbEntity
  8
0
100
AcDbCircle
 10
-22.49999999999988
 20
107.0
 30
0.0
 40
4.0
210
0.0
220
0.0
230
-1.0
  0
LINE
  5
72DA
330
725D
100
AcDbEntity
  8
0
100
AcDbLine
 10
-5.5
 20
114.0000000000001
 30
0.0
 11
-5.5
 21
130.0
 31
0.0
  0
LINE
  5
72DB
330
725D
100
AcDbEntity
  8
0
100
AcDbLine
 10
5.5
 20
114.0000000000001
 30
0.0
 11
5.5
 21
130.0
 31
0.0
  0
LINE
  5
72DC
330
725D
100
AcDbEntity
  8
0
100
AcDbLine
 10
0.0
 20
105.0
 30
0.0
 11
0.0
 21
123.0000000000001
 31
0.0
  0
ARC
  5
72DD
330
725D
100
AcDbEntity
  8
0
100
AcDbCircle
 10
0.0
 20
114.0000000000001
 30
0.0
 40
5.5
100
AcDbArc
 50
180.0
 51
0.0
  0
LINE
  5
72DE
330
725D
100
AcDbEntity
  8
0
100
AcDbLine
 10
4.0
 20
111.6905989232412
 30
0.0
 11
4.0
 21
116.3094010767582
 31
0.0
  0
LINE
  5
72DF
330
725D
100
AcDbEntity
  8
0
100
AcDbLine
 10
-0.0000000000001137
 20
109.3811978464827
 30
0.0
 11
4.0
 21
111.6905989232412
 31
0.0
  0
LINE
  5
72E0
330
725D
100
AcDbEntity
  8
0
100
AcDbLine
 10
-4.0
 20
111.6905989232412
 30
0.0
 11
-0.0000000000001137
 21
109.3811978464827
 31
0.0
  0
LINE
  5
72E1
330
725D
100
AcDbEntity
  8
0
100
AcDbLine
 10
-4.0
 20
116.3094010767582
 30
0.0
 11
-4.0
 21
111.6905989232412
 31
0.0
  0
LINE
  5
72E2
330
725D
100
AcDbEntity
  8
0
100
AcDbLine
 10
0.0
 20
118.6188021535167
 30
0.0
 11
-4.0
 21
116.3094010767582
 31
0.0
  0
LINE
  5
72E3
330
725D
100
AcDbEntity
  8
0
100
AcDbLine
 10
4.0
 20
116.3094010767582
 30
0.0
 11
0.0
 21
118.6188021535167
 31
0.0
  0
LINE
  5
72E4
330
725D
100
AcDbEntity
  8
0
100
AcDbLine
 10
22.5
 20
115.0000000000001
 30
0.0
 11
22.5
 21
99.00000000000012
 31
0.0
  0
ARC
  5
72E5
330
725D
100
AcDbEntity
  8
0
100
AcDbCircle
 10
0.0
 20
114.0000000000001
 30
0.0
 40
8.0
100
AcDbArc
 50
46.5674634422112
 51
133.4325365577887
  0
LINE
  5
72E6
330
725D
100
AcDbEntity
  8
0
100
AcDbLine
 10
39.5
 20
114.0000000000001
 30
0.0
 11
39.5
 21
130.0
 31
0.0
  0
LINE
  5
72E7
330
725D
100
AcDbEntity
  8
0
100
AcDbLine
 10
50.5
 20
114.0000000000001
 30
0.0
 11
50.5
 21
130.0
 31
0.0
  0
LINE
  5
72E8
330
725D
100
AcDbEntity
  8
0
100
AcDbLine
 10
45.0
 20
105.0
 30
0.0
 11
45.0
 21
123.0000000000001
 31
0.0
  0
ARC
  5
72E9
330
725D
100
AcDbEntity
  8
0
100
AcDbCircle
 10
45.0
 20
114.0000000000001
 30
0.0
 40
5.5
100
AcDbArc
 50
180.0
 51
0.0
  0
LINE
  5
72EA
330
725D
100
AcDbEntity
  8
0
100
AcDbLine
 10
49.0
 20
111.6905989232412
 30
0.0
 11
49.0
 21
116.3094010767582
 31
0.0
  0
LINE
  5
72EB
330
725D
100
AcDbEntity
  8
0
100
AcDbLine
 10
44.99999999999988
 20
109.3811978464827
 30
0.0
 11
49.0
 21
111.6905989232412
 31
0.0
  0
LINE
  5
72EC
330
725D
100
AcDbEntity
  8
0
100
AcDbLine
 10
41.0
 20
111.6905989232412
 30
0.0
 11
44.99999999999988
 21
109.3811978464827
 31
0.0
  0
LINE
  5
72ED
330
725D
100
AcDbEntity
  8
0
100
AcDbLine
 10
41.0
 20
116.3094010767582
 30
0.0
 11
41.0
 21
111.6905989232412
 31
0.0
  0
LINE
  5
72EE
330
725D
100
AcDbEntity
  8
0
100
AcDbLine
 10
45.0
 20
118.6188021535167
 30
0.0
 11
41.0
 21
116.3094010767582
 31
0.0
  0
LINE
  5
72EF
330
725D
100
AcDbEntity
  8
0
100
AcDbLine
 10
49.0
 20
116.3094010767582
 30
0.0
 11
45.0
 21
118.6188021535167
 31
0.0
  0
ARC
  5
72F0
330
725D
100
AcDbEntity
  8
0
100
AcDbCircle
 10
45.0
 20
114.0000000000001
 30
0.0
 40
8.0
100
AcDbArc
 50
46.5674634422112
 51
133.4325365577887
  0
LINE
  5
72F1
330
725D
100
AcDbEntity
  8
0
100
AcDbLine
 10
-74.00000000000004
 20
174.5000000000002
 30
0.0
 11
-46.0
 21
174.5000000000002
 31
0.0
  0
LINE
  5
72F2
330
725D
100
AcDbEntity
  8
0
100
AcDbLine
 10
-71.00000000000004
 20
160.0000000000002
 30
0.0
 11
-49.0
 21
160.0000000000002
 31
0.0
  0
CIRCLE
  5
72F3
330
725D
100
AcDbEntity
  8
0
100
AcDbCircle
 10
-60.0
 20
160.0000000000002
 30
0.0
 40
7.0
  0
LINE
  5
72F4
330
725D
100
AcDbEntity
  8
0
100
AcDbLine
 10
-74.00000000000004
 20
174.5000000000002
 30
0.0
 11
-74.00000000000004
 21
150.0
 31
0.0
  0
LINE
  5
72F5
330
725D
100
AcDbEntity
  8
0
100
AcDbLine
 10
-11.0
 20
160.0000000000002
 30
0.0
 11
11.0
 21
160.0000000000002
 31
0.0
  0
LINE
  5
72F6
330
725D
100
AcDbEntity
  8
0
100
AcDbLine
 10
-14.0
 20
174.5000000000002
 30
0.0
 11
14.0
 21
174.5000000000002
 31
0.0
  0
CIRCLE
  5
72F7
330
725D
100
AcDbEntity
  8
0
100
AcDbCircle
 10
0.0
 20
160.0000000000002
 30
0.0
 40
7.0
  0
LINE
  5
72F8
330
725D
100
AcDbEntity
  8
0
100
AcDbLine
 10
-60.0
 20
171.0
 30
0.0
 11
-60.0
 21
149.0
 31
0.0
  0
LINE
  5
72F9
330
725D
100
AcDbEntity
  8
0
100
AcDbLine
 10
-46.0
 20
174.5000000000002
 30
0.0
 11
-46.0
 21
150.0
 31
0.0
  0
LINE
  5
72FA
330
725D
100
AcDbEntity
  8
0
100
AcDbLine
 10
46.0
 20
174.5000000000002
 30
0.0
 11
46.0
 21
150.0
 31
0.0
  0
ARC
  5
72FB
330
725D
100
AcDbEntity
  8
0
100
AcDbCircle
 10
53.0
 20
-40.0
 30
0.0
 40
5.0
100
AcDbArc
 50
270.0
 51
0.0
  0
LINE
  5
72FC
330
725D
100
AcDbEntity
  8
0
100
AcDbLine
 10
70.0
 20
130.0
 30
0.0
 11
70.0
 21
-130.0
 31
0.0
  0
LINE
  5
72FD
330
725D
100
AcDbEntity
  8
0
100
AcDbLine
 10
101.2499999999999
 20
-220.0727983283795
 30
0.0
 11
101.2499999999999
 21
-245.0
 31
0.0
  0
LINE
  5
72FE
330
725D
100
AcDbEntity
  8
0
100
AcDbLine
 10
99.25
 20
-218.6397501985154
 30
0.0
 11
99.25
 21
-245.0
 31
0.0
  0
LINE
  5
72FF
330
725D
100
AcDbEntity
  8
0
100
AcDbLine
 10
98.54999999999996
 20
-245.0
 30
0.0
 11
98.54999999999996
 21
-249.946911919693
 31
0.0
  0
LINE
  5
7300
330
725D
100
AcDbEntity
  8
0
100
AcDbLine
 10
101.9499999999996
 20
-245.0
 30
0.0
 11
101.9499999999996
 21
-249.946911919693
 31
0.0
  0
LINE
  5
7301
330
725D
100
AcDbEntity
  8
0
100
AcDbLine
 10
98.20195134105155
 20
-251.578859039728
 30
0.0
 11
96.59804865894841
 21
-255.1680528799646
 31
0.0
  0
ARC
  5
7302
330
725D
100
AcDbEntity
  8
0
100
AcDbCircle
 10
100.2499999999999
 20
-256.8
 30
0.0
 40
4.0
100
AcDbArc
 50
155.9215699388889
 51
24.07843006111111
  0
LINE
  5
7303
330
725D
100
AcDbEntity
  8
0
100
AcDbLine
 10
98.54999999999996
 20
-249.8
 30
0.0
 11
101.9499999999996
 21
-249.8
 31
0.0
  0
LINE
  5
7304
330
725D
100
AcDbEntity
  8
0
100
AcDbLine
 10
102.2980486589484
 20
-251.578859039728
 30
0.0
 11
103.9019513410514
 21
-255.1680528799646
 31
0.0
  0
ARC
  5
7305
330
725D
100
AcDbEntity
  8
0
100
AcDbCircle
 10
94.54999999999996
 20
-249.946911919693
 30
0.0
 40
4.0
100
AcDbArc
 50
335.9215699388887
 51
0.0
  0
CIRCLE
  5
7306
330
725D
100
AcDbEntity
  8
0
100
AcDbCircle
 10
100.2499999999999
 20
-256.8
 30
0.0
 40
2.149999999999999
  0
ARC
  5
7307
330
725D
100
AcDbEntity
  8
0
100
AcDbCircle
 10
105.9499999999996
 20
-249.946911919693
 30
0.0
 40
4.0
100
AcDbArc
 50
180.0
 51
204.0784300611111
  0
LINE
  5
7308
330
725D
100
AcDbEntity
  8
0
100
AcDbLine
 10
98.54999999999996
 20
-245.0
 30
0.0
 11
101.9499999999996
 21
-245.0
 31
0.0
  0
LINE
  5
7309
330
725D
100
AcDbEntity
  8
0
100
AcDbLine
 10
59.25
 20
-130.0
 30
0.0
 11
59.25
 21
-175.0
 31
0.0
  0
LINE
  5
730A
330
725D
100
AcDbEntity
  8
0
100
AcDbLine
 10
61.25
 20
-130.0
 30
0.0
 11
61.25
 21
-175.0
 31
0.0
  0
LINE
  5
730B
330
725D
100
AcDbEntity
  8
0
100
AcDbLine
 10
74.0
 20
-150.0000000000003
 30
0.0
 11
59.0
 21
-130.0000000000003
 31
0.0
  0
ARC
  5
730C
330
725D
100
AcDbEntity
  8
0
100
AcDbCircle
 10
71.25
 20
-175.0
 30
0.0
 40
10.0
100
AcDbArc
 50
180.0
 51
270.0
  0
ARC
  5
730D
330
725D
100
AcDbEntity
  8
0
100
AcDbCircle
 10
71.25
 20
-175.0
 30
0.0
 40
12.0
100
AcDbArc
 50
180.0
 51
270.0
  0
LINE
  5
730E
330
725D
100
AcDbEntity
  8
0
100
AcDbLine
 10
71.25
 20
-185.0
 30
0.0
 11
89.25
 21
-185.0
 31
0.0
  0
LINE
  5
730F
330
725D
100
AcDbEntity
  8
0
100
AcDbLine
 10
71.25
 20
-187.0
 30
0.0
 11
89.25
 21
-187.0
 31
0.0
  0
LINE
  5
7310
330
725D
100
AcDbEntity
  8
0
100
AcDbLine
 10
101.2499999999999
 20
-197.0
 30
0.0
 11
101.2499999999999
 21
-218.0727983283795
 31
0.0
  0
LINE
  5
7311
330
725D
100
AcDbEntity
  8
0
100
AcDbLine
 10
99.25
 20
-197.0
 30
0.0
 11
99.25
 21
-216.6397501985156
 31
0.0
  0
SPLINE
  5
7312
330
725D
100
AcDbEntity
  8
0
100
AcDbSpline
210
0.0
220
0.0
230
1.0
 70
     8
 71
     3
 72
     8
 73
     4
 74
     0
 42
0.0000000001
 43
0.0000000001
 40
0.0
 40
0.0
 40
0.0
 40
0.0
 40
1.0
 40
1.0
 40
1.0
 40
1.0
 10
96.25
 20
-219.0
 30
0.0
 10
98.25000000000001
 20
-215.0
 30
0.0
 10
102.2499999999999
 20
-224.0
 30
0.0
 10
104.2499999999999
 20
-219.0
 30
0.0
  0
SPLINE
  5
7313
330
725D
100
AcDbEntity
  8
0
100
AcDbSpline
210
0.0
220
0.0
230
1.0
 70
     8
 71
     3
 72
     8
 73
     4
 74
     0
 42
0.0000000001
 43
0.0000000001
 40
0.0
 40
0.0
 40
0.0
 40
0.0
 40
1.0
 40
1.0
 40
1.0
 40
1.0
 10
96.25
 20
-217.0
 30
0.0
 10
98.25000000000001
 20
-213.0
 30
0.0
 10
102.2499999999999
 20
-222.0
 30
0.0
 10
104.2499999999999
 20
-217.0
 30
0.0
  0
ARC
  5
7314
330
725D
100
AcDbEntity
  8
0
100
AcDbCircle
 10
89.25
 20
-197.0
 30
0.0
 40
12.0
100
AcDbArc
 50
0.0
 51
90.0
  0
ARC
  5
7315
330
725D
100
AcDbEntity
  8
0
100
AcDbCircle
 10
89.25
 20
-197.0
 30
0.0
 40
10.0
100
AcDbArc
 50
0.0
 51
90.0
  0
LINE
  5
7316
330
725D
100
AcDbEntity
  8
0
100
AcDbLine
 10
60.0
 20
-149.0
 30
0.0
 11
60.0
 21
-171.0
 31
0.0
  0
LINE
  5
7317
330
725D
100
AcDbEntity
  8
0
100
AcDbLine
 10
74.0
 20
-174.5
 30
0.0
 11
74.0
 21
-150.0000000000003
 31
0.0
  0
CIRCLE
  5
7318
330
725D
100
AcDbEntity
  8
0
100
AcDbCircle
 10
-60.0
 20
-160.0
 30
0.0
 40
7.0
210
0.0
220
0.0
230
-1.0
  0
LINE
  5
7319
330
725D
100
AcDbEntity
  8
0
100
AcDbLine
 10
74.0
 20
150.0
 30
0.0
 11
59.0
 21
130.0
 31
0.0
  0
LINE
  5
731A
330
725D
100
AcDbEntity
  8
0
100
AcDbLine
 10
58.0
 20
40.00000000000009
 30
0.0
 11
58.0
 21
-40.0
 31
0.0
  0
ARC
  5
731B
330
725D
100
AcDbEntity
  8
0
100
AcDbCircle
 10
53.0
 20
40.00000000000009
 30
0.0
 40
5.0
100
AcDbArc
 50
0.0
 51
90.0
  0
LINE
  5
731C
330
725D
100
AcDbEntity
  8
0
100
AcDbLine
 10
60.0
 20
171.0
 30
0.0
 11
60.0
 21
149.0
 31
0.0
  0
LINE
  5
731D
330
725D
100
AcDbEntity
  8
0
100
AcDbLine
 10
74.0
 20
174.5000000000002
 30
0.0
 11
74.0
 21
150.0
 31
0.0
  0
CIRCLE
  5
731E
330
725D
100
AcDbEntity
  8
0
100
AcDbCircle
 10
60.0
 20
160.0000000000002
 30
0.0
 40
7.0
  0
ENDBLK
  5
7320
330
725D
100
AcDbEntity
  8
0
100
AcDbBlockEnd
  0
BLOCK
  5
767C
330
7672
100
AcDbEntity
  8
0
100
AcDbBlockBegin
  2
*D4
 70
     1
 10
0.0
 20
0.0
 30
0.0
  3
*D4
  1

  0
LINE
  5
90A1
330
7672
100
AcDbEntity
  8
30
  6
Continuous
 62
     0
100
AcDbLine
 10
-35.04569613739271
 20
-253.0
 30
0.0
 11
-97.59969543092005
 21
-252.9999999999999
 31
0.0
  0
LINE
  5
90A2
330
7672
100
AcDbEntity
  8
30
  6
Continuous
 62
     0
100
AcDbLine
 10
-30.50000000000022
 20
-467.0
 30
0.0
 11
-97.59969543092008
 21
-467.0
 31
0.0
  0
LINE
  5
90A3
330
7672
100
AcDbEntity
  8
30
  6
Continuous
 62
     0
100
AcDbLine
 10
-97.09969543092006
 20
-254.9999999999999
 30
0.0
 11
-97.09969543092007
 21
-465.0
 31
0.0
  0
INSERT
  5
90A4
330
7672
100
AcDbEntity
  8
30
  6
Continuous
 62
     0
100
AcDbBlockReference
  2
_OPEN
 10
-97.09969543092006
 20
-252.9999999999999
 30
0.0
 41
2.0
 42
2.0
 43
2.0
 50
90.0
  0
INSERT
  5
90A5
330
7672
100
AcDbEntity
  8
30
  6
Continuous
 62
     0
100
AcDbBlockReference
  2
_OPEN
 10
-97.09969543092007
 20
-467.0
 30
0.0
 41
2.0
 42
2.0
 43
2.0
 50
270.0
  0
MTEXT
  5
90A6
330
7672
100
AcDbEntity
  8
30
  6
Continuous
 62
     0
100
AcDbMText
 10
-100.0996954309199
 20
-360.0
 30
0.0
 40
4.0
 41
0.0
 71
     5
 72
     1
  1
\A1;214
 11
0.0000000000000001
 21
1.0
 31
0.0
 73
     1
 44
1.0
1001
ACAD
1000
MTEXTBEGIN
1070
    73
1070
     1
1070
    44
1040
1.0
1070
    74
1070
     0
1000
MTEXTEND
  0
POINT
  5
90A7
330
7672
100
AcDbEntity
  8
DEFPOINTS
  6
Continuous
 62
     0
100
AcDbPoint
 10
-34.04569613739271
 20
-253.0
 30
0.0
  0
POINT
  5
90A8
330
7672
100
AcDbEntity
  8
DEFPOINTS
  6
Continuous
 62
     0
100
AcDbPoint
 10
-29.50000000000022
 20
-467.0
 30
0.0
  0
POINT
  5
90A9
330
7672
100
AcDbEntity
  8
DEFPOINTS
  6
Continuous
 62
     0
100
AcDbPoint
 10
-97.09969543092007
 20
-467.0
 30
0.0
  0
ENDBLK
  5
767D
330
7672
100
AcDbEntity
  8
0
100
AcDbBlockEnd
  0
BLOCK
  5
7689
330
767F
100
AcDbEntity
  8
0
100
AcDbBlockBegin
  2
*D5
 70
     1
 10
0.0
 20
0.0
 30
0.0
  3
*D5
  1

  0
LINE
  5
9098
330
767F
100
AcDbEntity
  8
30
  6
Continuous
 62
     0
100
AcDbLine
 10
-22.50000000000022
 20
-475.0
 30
0.0
 11
-22.50000000000022
 21
-519.2040664304709
 31
0.0
  0
LINE
  5
9099
330
767F
100
AcDbEntity
  8
30
  6
Continuous
 62
     0
100
AcDbLine
 10
22.50000000000022
 20
-475.0
 30
0.0
 11
22.5000000000002
 21
-519.2040664304709
 31
0.0
  0
LINE
  5
909A
330
767F
100
AcDbEntity
  8
30
  6
Continuous
 62
     0
100
AcDbLine
 10
-20.50000000000022
 20
-518.7040664304709
 30
0.0
 11
20.50000000000021
 21
-518.7040664304709
 31
0.0
  0
INSERT
  5
909B
330
767F
100
AcDbEntity
  8
30
  6
Continuous
 62
     0
100
AcDbBlockReference
  2
_OPEN
 10
-22.50000000000022
 20
-518.7040664304709
 30
0.0
 41
2.0
 42
2.0
 43
2.0
 50
180.0
  0
INSERT
  5
909C
330
767F
100
AcDbEntity
  8
30
  6
Continuous
 62
     0
100
AcDbBlockReference
  2
_OPEN
 10
22.5000000000002
 20
-518.7040664304709
 30
0.0
 41
2.0
 42
2.0
 43
2.0
  0
MTEXT
  5
909D
330
767F
100
AcDbEntity
  8
30
  6
Continuous
 62
     0
100
AcDbMText
 10
-0.0000000000000034
 20
-515.7040664304709
 30
0.0
 40
4.0
 41
0.0
 71
     5
 72
     1
  1
\A1;45
 73
     1
 44
1.0
1001
ACAD
1000
MTEXTBEGIN
1070
    73
1070
     1
1070
    44
1040
1.0
1070
    74
1070
     0
1000
MTEXTEND
  0
POINT
  5
909E
330
767F
100
AcDbEntity
  8
DEFPOINTS
  6
Continuous
 62
     0
100
AcDbPoint
 10
-22.50000000000022
 20
-474.0
 30
0.0
  0
POINT
  5
909F
330
767F
100
AcDbEntity
  8
DEFPOINTS
  6
Continuous
 62
     0
100
AcDbPoint
 10
22.50000000000022
 20
-474.0
 30
0.0
  0
POINT
  5
90A0
330
767F
100
AcDbEntity
  8
DEFPOINTS
  6
Continuous
 62
     0
100
AcDbPoint
 10
22.5000000000002
 20
-518.7040664304709
 30
0.0
  0
ENDBLK
  5
768A
330
767F
100
AcDbEntity
  8
0
100
AcDbBlockEnd
  0
BLOCK
  5
769E
330
7695
100
AcDbEntity
  8
0
100
AcDbBlockBegin
  2
*D6
 70
     1
 10
0.0
 20
0.0
 30
0.0
  3
*D6
  1

  0
LINE
  5
8EA6
330
7695
100
AcDbEntity
  8
30
  6
Continuous
 62
     0
100
AcDbLine
 10
361.6597496400636
 20
-306.0312994595848
 30
0.0
 11
353.9930829733933
 21
-306.0312994595847
 31
0.0
  0
LINE
  5
8EA7
330
7695
100
AcDbEntity
  8
30
  6
Continuous
 62
     0
100
AcDbLine
 10
353.9930829733933
 20
-306.0312994595847
 30
0.0
 11
330.2934498468413
 21
-316.7128143752421
 31
0.0
  0
MTEXT
  5
8EA8
330
7695
100
AcDbEntity
  8
30
  6
Continuous
 62
     0
100
AcDbMText
 10
358.3264163067303
 20
-303.0312994595847
 30
0.0
 40
4.0
 41
0.0
 71
     5
 72
     1
  1
\A1;R6
 73
     1
 44
1.0
1001
ACAD
1000
MTEXTBEGIN
1070
    73
1070
     1
1070
    44
1040
1.0
1070
    74
1070
     0
1000
MTEXTEND
  0
INSERT
  5
8EA9
330
7695
100
AcDbEntity
  8
30
  6
Continuous
 62
     0
100
AcDbBlockReference
  2
_OPEN
 10
328.4700873851311
 20
-317.5346107814316
 30
0.0
 41
2.0
 42
2.0
 43
2.0
 50
204.2612710120894
  0
LINE
  5
8EAA
330
7695
100
AcDbEntity
  8
30
  6
Continuous
 62
     0
100
AcDbLine
 10
322.9099999999998
 20
-320.0
 30
0.0
 11
323.0899999999998
 21
-320.0
 31
0.0
  0
LINE
  5
8EAB
330
7695
100
AcDbEntity
  8
30
  6
Continuous
 62
     0
100
AcDbLine
 10
323.0
 20
-320.0899999999998
 30
0.0
 11
323.0
 21
-319.91
 31
0.0
  0
POINT
  5
8EAC
330
7695
100
AcDbEntity
  8
DEFPOINTS
  6
Continuous
 62
     0
100
AcDbPoint
 10
328.4700873851311
 20
-317.5346107814316
 30
0.0
  0
POINT
  5
8EAD
330
7695
100
AcDbEntity
  8
DEFPOINTS
  6
Continuous
 62
     0
100
AcDbPoint
 10
323.0
 20
-320.0
 30
0.0
  0
ENDBLK
  5
769F
330
7695
100
AcDbEntity
  8
0
100
AcDbBlockEnd
  0
BLOCK
  5
76B3
330
76A9
100
AcDbEntity
  8
0
100
AcDbBlockBegin
  2
*D7
 70
     1
 10
0.0
 20
0.0
 30
0.0
  3
*D7
  1

  0
LINE
  5
8E9D
330
76A9
100
AcDbEntity
  8
30
  6
Continuous
 62
     0
100
AcDbLine
 10
211.0
 20
-401.0
 30
0.0
 11
211.0
 21
-431.4055588177362
 31
0.0
  0
LINE
  5
8E9E
330
76A9
100
AcDbEntity
  8
30
  6
Continuous
 62
     0
100
AcDbLine
 10
329.0
 20
-401.0
 30
0.0
 11
329.0
 21
-431.4055588177362
 31
0.0
  0
LINE
  5
8E9F
330
76A9
100
AcDbEntity
  8
30
  6
Continuous
 62
     0
100
AcDbLine
 10
213.0
 20
-430.9055588177362
 30
0.0
 11
327.0
 21
-430.9055588177362
 31
0.0
  0
INSERT
  5
8EA0
330
76A9
100
AcDbEntity
  8
30
  6
Continuous
 62
     0
100
AcDbBlockReference
  2
_OPEN
 10
211.0
 20
-430.9055588177362
 30
0.0
 41
2.0
 42
2.0
 43
2.0
 50
180.0
  0
INSERT
  5
8EA1
330
76A9
100
AcDbEntity
  8
30
  6
Continuous
 62
     0
100
AcDbBlockReference
  2
_OPEN
 10
329.0
 20
-430.9055588177362
 30
0.0
 41
2.0
 42
2.0
 43
2.0
  0
MTEXT
  5
8EA2
330
76A9
100
AcDbEntity
  8
30
  6
Continuous
 62
     0
100
AcDbMText
 10
270.0
 20
-427.9055588177362
 30
0.0
 40
4.0
 41
0.0
 71
     5
 72
     1
  1
\A1;118
 73
     1
 44
1.0
1001
ACAD
1000
MTEXTBEGIN
1070
    73
1070
     1
1070
    44
1040
1.0
1070
    74
1070
     0
1000
MTEXTEND
  0
POINT
  5
8EA3
330
76A9
100
AcDbEntity
  8
DEFPOINTS
  6
Continuous
 62
     0
100
AcDbPoint
 10
211.0
 20
-400.0
 30
0.0
  0
POINT
  5
8EA4
330
76A9
100
AcDbEntity
  8
DEFPOINTS
  6
Continuous
 62
     0
100
AcDbPoint
 10
329.0
 20
-400.0
 30
0.0
  0
POINT
  5
8EA5
330
76A9
100
AcDbEntity
  8
DEFPOINTS
  6
Continuous
 62
     0
100
AcDbPoint
 10
329.0
 20
-430.9055588177362
 30
0.0
  0
ENDBLK
  5
76B4
330
76A9
100
AcDbEntity
  8
0
100
AcDbBlockEnd
  0
BLOCK
  5
76C0
330
76B6
100
AcDbEntity
  8
0
100
AcDbBlockBegin
  2
*D8
 70
     1
 10
0.0
 20
0.0
 30
0.0
  3
*D8
  1

  0
LINE
  5
8E94
330
76B6
100
AcDbEntity
  8
30
  6
Continuous
 62
     0
100
AcDbLine
 10
324.0
 20
-313.9999999999998
 30
0.0
 11
363.5844752481833
 21
-313.9999999999998
 31
0.0
  0
LINE
  5
8E95
330
76B6
100
AcDbEntity
  8
30
  6
Continuous
 62
     0
100
AcDbLine
 10
324.0
 20
-406.0
 30
0.0
 11
363.5844752481832
 21
-406.0
 31
0.0
  0
LINE
  5
8E96
330
76B6
100
AcDbEntity
  8
30
  6
Continuous
 62
     0
100
AcDbLine
 10
363.0844752481833
 20
-315.9999999999998
 30
0.0
 11
363.0844752481832
 21
-404.0
 31
0.0
  0
INSERT
  5
8E97
330
76B6
100
AcDbEntity
  8
30
  6
Continuous
 62
     0
100
AcDbBlockReference
  2
_OPEN
 10
363.0844752481833
 20
-313.9999999999998
 30
0.0
 41
2.0
 42
2.0
 43
2.0
 50
90.0
  0
INSERT
  5
8E98
330
76B6
100
AcDbEntity
  8
30
  6
Continuous
 62
     0
100
AcDbBlockReference
  2
_OPEN
 10
363.0844752481832
 20
-406.0
 30
0.0
 41
2.0
 42
2.0
 43
2.0
 50
270.0
  0
MTEXT
  5
8E99
330
76B6
100
AcDbEntity
  8
30
  6
Continuous
 62
     0
100
AcDbMText
 10
360.0844752481833
 20
-359.9999999999998
 30
0.0
 40
4.0
 41
0.0
 71
     5
 72
     1
  1
\A1;92
 11
0.0000000000000001
 21
1.0
 31
0.0
 73
     1
 44
1.0
1001
ACAD
1000
MTEXTBEGIN
1070
    73
1070
     1
1070
    44
1040
1.0
1070
    74
1070
     0
1000
MTEXTEND
  0
POINT
  5
8E9A
330
76B6
100
AcDbEntity
  8
DEFPOINTS
  6
Continuous
 62
     0
100
AcDbPoint
 10
323.0
 20
-313.9999999999998
 30
0.0
  0
POINT
  5
8E9B
330
76B6
100
AcDbEntity
  8
DEFPOINTS
  6
Continuous
 62
     0
100
AcDbPoint
 10
323.0
 20
-406.0
 30
0.0
  0
POINT
  5
8E9C
330
76B6
100
AcDbEntity
  8
DEFPOINTS
  6
Continuous
 62
     0
100
AcDbPoint
 10
363.0844752481832
 20
-406.0
 30
0.0
  0
ENDBLK
  5
76C1
330
76B6
100
AcDbEntity
  8
0
100
AcDbBlockEnd
  0
BLOCK
  5
76CE
330
76C4
100
AcDbEntity
  8
0
100
AcDbBlockBegin
  2
*D9
 70
     1
 10
0.0
 20
0.0
 30
0.0
  3
*D9
  1

  0
LINE
  5
8D00
330
76C4
100
AcDbEntity
  8
30
  6
Continuous
 62
     0
100
AcDbLine
 10
357.7699465681198
 20
223.9583060179775
 30
0.0
 11
357.7699465681198
 21
208.872026000483
 31
0.0
  0
LINE
  5
8D01
330
76C4
100
AcDbEntity
  8
30
  6
Continuous
 62
     0
100
AcDbLine
 10
382.7699465681196
 20
223.9583060179775
 30
0.0
 11
382.7699465681196
 21
208.872026000483
 31
0.0
  0
LINE
  5
8D02
330
76C4
100
AcDbEntity
  8
30
  6
Continuous
 62
     0
100
AcDbLine
 10
359.7699465681198
 20
209.3720260004829
 30
0.0
 11
380.7699465681196
 21
209.3720260004829
 31
0.0
  0
INSERT
  5
8D03
330
76C4
100
AcDbEntity
  8
30
  6
Continuous
 62
     0
100
AcDbBlockReference
  2
_OPEN
 10
357.7699465681198
 20
209.3720260004829
 30
0.0
 41
2.0
 42
2.0
 43
2.0
 50
180.0
  0
INSERT
  5
8D04
330
76C4
100
AcDbEntity
  8
30
  6
Continuous
 62
     0
100
AcDbBlockReference
  2
_OPEN
 10
382.7699465681196
 20
209.3720260004829
 30
0.0
 41
2.0
 42
2.0
 43
2.0
  0
MTEXT
  5
8D05
330
76C4
100
AcDbEntity
  8
30
  6
Continuous
 62
     0
100
AcDbMText
 10
370.2699465681196
 20
212.3720260004831
 30
0.0
 40
4.0
 41
0.0
 71
     5
 72
     1
  1
\A1;25
 73
     1
 44
1.0
1001
ACAD
1000
MTEXTBEGIN
1070
    73
1070
     1
1070
    44
1040
1.0
1070
    74
1070
     0
1000
MTEXTEND
  0
POINT
  5
8D06
330
76C4
100
AcDbEntity
  8
DEFPOINTS
  6
Continuous
 62
     0
100
AcDbPoint
 10
357.7699465681198
 20
224.9583060179773
 30
0.0
  0
POINT
  5
8D07
330
76C4
100
AcDbEntity
  8
DEFPOINTS
  6
Continuous
 62
     0
100
AcDbPoint
 10
382.7699465681196
 20
224.9583060179773
 30
0.0
  0
POINT
  5
8D08
330
76C4
100
AcDbEntity
  8
DEFPOINTS
  6
Continuous
 62
     0
100
AcDbPoint
 10
382.7699465681196
 20
209.3720260004829
 30
0.0
  0
ENDBLK
  5
76CF
330
76C4
100
AcDbEntity
  8
0
100
AcDbBlockEnd
  0
BLOCK
  5
76DB
330
76D1
100
AcDbEntity
  8
0
100
AcDbBlockBegin
  2
*D10
 70
     1
 10
0.0
 20
0.0
 30
0.0
  3
*D10
  1

  0
LINE
  5
8CF7
330
76D1
100
AcDbEntity
  8
30
  6
Continuous
 62
     0
100
AcDbLine
 10
383.7699465681196
 20
224.9583060179773
 30
0.0
 11
399.7122762463085
 21
224.9583060179773
 31
0.0
  0
LINE
  5
8CF8
330
76D1
100
AcDbEntity
  8
30
  6
Continuous
 62
     0
100
AcDbLine
 10
378.7699465681196
 20
236.9583060179774
 30
0.0
 11
399.7122762463085
 21
236.9583060179774
 31
0.0
  0
LINE
  5
8CF9
330
76D1
100
AcDbEntity
  8
30
  6
Continuous
 62
     0
100
AcDbLine
 10
399.2122762463086
 20
226.9583060179773
 30
0.0
 11
399.2122762463086
 21
234.9583060179774
 31
0.0
  0
INSERT
  5
8CFA
330
76D1
100
AcDbEntity
  8
30
  6
Continuous
 62
     0
100
AcDbBlockReference
  2
_OPEN
 10
399.2122762463086
 20
224.9583060179773
 30
0.0
 41
2.0
 42
2.0
 43
2.0
 50
270.0
  0
INSERT
  5
8CFB
330
76D1
100
AcDbEntity
  8
30
  6
Continuous
 62
     0
100
AcDbBlockReference
  2
_OPEN
 10
399.2122762463086
 20
236.9583060179774
 30
0.0
 41
2.0
 42
2.0
 43
2.0
 50
90.0
  0
MTEXT
  5
8CFC
330
76D1
100
AcDbEntity
  8
30
  6
Continuous
 62
     0
100
AcDbMText
 10
396.2122762463085
 20
230.9583060179776
 30
0.0
 40
4.0
 41
0.0
 71
     5
 72
     1
  1
\A1;12
 11
0.0000000000000001
 21
1.0
 31
0.0
 73
     1
 44
1.0
1001
ACAD
1000
MTEXTBEGIN
1070
    73
1070
     1
1070
    44
1040
1.0
1070
    74
1070
     0
1000
MTEXTEND
  0
POINT
  5
8CFD
330
76D1
100
AcDbEntity
  8
DEFPOINTS
  6
Continuous
 62
     0
100
AcDbPoint
 10
382.7699465681196
 20
224.9583060179773
 30
0.0
  0
POINT
  5
8CFE
330
76D1
100
AcDbEntity
  8
DEFPOINTS
  6
Continuous
 62
     0
100
AcDbPoint
 10
377.7699465681196
 20
236.9583060179774
 30
0.0
  0
POINT
  5
8CFF
330
76D1
100
AcDbEntity
  8
DEFPOINTS
  6
Continuous
 62
     0
100
AcDbPoint
 10
399.2122762463086
 20
236.9583060179774
 30
0.0
  0
ENDBLK
  5
76DC
330
76D1
100
AcDbEntity
  8
0
100
AcDbBlockEnd
  0
BLOCK
  5
76E7
330
76DE
100
AcDbEntity
  8
0
100
AcDbBlockBegin
  2
*D11
 70
     1
 10
0.0
 20
0.0
 30
0.0
  3
*D11
  1

  0
LINE
  5
8CEF
330
76DE
100
AcDbEntity
  8
30
  6
Continuous
 62
     0
100
AcDbLine
 10
397.7347867019194
 20
259.9595920045166
 30
0.0
 11
388.7347867019186
 21
259.9595920045164
 31
0.0
  0
LINE
  5
8CF0
330
76DE
100
AcDbEntity
  8
30
  6
Continuous
 62
     0
100
AcDbLine
 10
388.7347867019186
 20
259.9595920045164
 30
0.0
 11
374.9650463159395
 21
242.806898870794
 31
0.0
  0
MTEXT
  5
8CF1
330
76DE
100
AcDbEntity
  8
30
  6
Continuous
 62
     0
100
AcDbMText
 10
393.7347867019194
 20
262.9595920045165
 30
0.0
 40
4.0
 41
0.0
 71
     5
 72
     1
  1
\A1;\U+220511
 73
     1
 44
1.0
1001
ACAD
1000
MTEXTBEGIN
1070
    73
1070
     1
1070
    44
1040
1.0
1070
    74
1070
     0
1000
MTEXTEND
  0
INSERT
  5
8CF2
330
76DE
100
AcDbEntity
  8
30
  6
Continuous
 62
     0
100
AcDbBlockReference
  2
_OPEN
 10
373.7130197165208
 20
241.2472741100429
 30
0.0
 41
2.0
 42
2.0
 43
2.0
 50
231.2434003354124
  0
LINE
  5
8CF3
330
76DE
100
AcDbEntity
  8
30
  6
Continuous
 62
     0
100
AcDbLine
 10
370.1799465681193
 20
236.9583060179774
 30
0.0
 11
370.3599465681191
 21
236.9583060179774
 31
0.0
  0
LINE
  5
8CF4
330
76DE
100
AcDbEntity
  8
30
  6
Continuous
 62
     0
100
AcDbLine
 10
370.2699465681192
 20
236.8683060179773
 30
0.0
 11
370.2699465681192
 21
237.0483060179775
 31
0.0
  0
POINT
  5
8CF5
330
76DE
100
AcDbEntity
  8
DEFPOINTS
  6
Continuous
 62
     0
100
AcDbPoint
 10
373.7130197165208
 20
241.2472741100429
 30
0.0
  0
POINT
  5
8CF6
330
76DE
100
AcDbEntity
  8
DEFPOINTS
  6
Continuous
 62
     0
100
AcDbPoint
 10
366.8268734197178
 20
232.6693379259118
 30
0.0
  0
ENDBLK
  5
76E8
330
76DE
100
AcDbEntity
  8
0
100
AcDbBlockEnd
  0
BLOCK
  5
7B87
330
7B7E
100
AcDbEntity
  8
0
100
AcDbBlockBegin
  2
*D12
 70
     1
 10
0.0
 20
0.0
 30
0.0
  3
*D12
  1

  0
LINE
  5
8EC0
330
7B7E
100
AcDbEntity
  8
30
  6
Continuous
 62
     0
100
AcDbLine
 10
-60.82578153975031
 20
-220.6800347238195
 30
0.0
 11
-46.82578153974931
 21
-220.6800347238195
 31
0.0
  0
LINE
  5
8EC1
330
7B7E
100
AcDbEntity
  8
30
  6
Continuous
 62
     0
100
AcDbLine
 10
-46.82578153974931
 20
-220.6800347238195
 30
0.0
 11
-25.50678366760505
 21
-249.00509675008
 31
0.0
  0
MTEXT
  5
8EC2
330
7B7E
100
AcDbEntity
  8
30
  6
Continuous
 62
     0
100
AcDbMText
 10
-57.49244820641698
 20
-217.6800347238195
 30
0.0
 40
4.0
 41
0.0
 71
     5
 72
     1
  1
\A1;M6
 73
     1
 44
1.0
1001
ACAD
1000
MTEXTBEGIN
1070
    73
1070
     1
1070
    44
1040
1.0
1070
    74
1070
     0
1000
MTEXTEND
  0
INSERT
  5
8EC3
330
7B7E
100
AcDbEntity
  8
30
  6
Continuous
 62
     0
100
AcDbBlockReference
  2
_OPEN
 10
-24.30407020056291
 20
-250.603058050048
 30
0.0
 41
2.0
 42
2.0
 43
2.0
 50
306.9671284485142
  0
LINE
  5
8EC4
330
7B7E
100
AcDbEntity
  8
30
  6
Continuous
 62
     0
100
AcDbLine
 10
-22.58999999999971
 20
-253.0
 30
0.0
 11
-22.40999999999975
 21
-253.0
 31
0.0
  0
LINE
  5
8EC5
330
7B7E
100
AcDbEntity
  8
30
  6
Continuous
 62
     0
100
AcDbLine
 10
-22.49999999999969
 20
-253.0899999999999
 30
0.0
 11
-22.49999999999971
 21
-252.9100000000001
 31
0.0
  0
POINT
  5
8EC6
330
7B7E
100
AcDbEntity
  8
DEFPOINTS
  6
Continuous
 62
     0
100
AcDbPoint
 10
-24.30407020056291
 20
-250.603058050048
 30
0.0
  0
POINT
  5
8EC7
330
7B7E
100
AcDbEntity
  8
DEFPOINTS
  6
Continuous
 62
     0
100
AcDbPoint
 10
-20.69592979943652
 20
-255.3969419499519
 30
0.0
  0
ENDBLK
  5
7B88
330
7B7E
100
AcDbEntity
  8
0
100
AcDbBlockEnd
  0
BLOCK
  5
7CB8
330
7CAE
100
AcDbEntity
  8
0
100
AcDbBlockBegin
  2
*D13
 70
     1
 10
0.0
 20
0.0
 30
0.0
  3
*D13
  1

  0
LINE
  5
8F63
330
7CAE
100
AcDbEntity
  8
30
  6
Continuous
 62
     0
100
AcDbLine
 10
-70.00000623862298
 20
429.4369478956378
 30
0.0
 11
-70.00000623862298
 21
443.751144283447
 31
0.0
  0
LINE
  5
8F64
330
7CAE
100
AcDbEntity
  8
30
  6
Continuous
 62
     0
100
AcDbLine
 10
-45.00000000000002
 20
361.5189316457161
 30
0.0
 11
-45.0
 21
443.751144283447
 31
0.0
  0
LINE
  5
8F65
330
7CAE
100
AcDbEntity
  8
30
  6
Continuous
 62
     0
100
AcDbLine
 10
-68.00000623862299
 20
443.251144283447
 30
0.0
 11
-47.00000000000001
 21
443.251144283447
 31
0.0
  0
INSERT
  5
8F66
330
7CAE
100
AcDbEntity
  8
30
  6
Continuous
 62
     0
100
AcDbBlockReference
  2
_OPEN
 10
-70.00000623862298
 20
443.251144283447
 30
0.0
 41
2.0
 42
2.0
 43
2.0
 50
180.0
  0
INSERT
  5
8F67
330
7CAE
100
AcDbEntity
  8
30
  6
Continuous
 62
     0
100
AcDbBlockReference
  2
_OPEN
 10
-45.0
 20
443.251144283447
 30
0.0
 41
2.0
 42
2.0
 43
2.0
  0
MTEXT
  5
8F68
330
7CAE
100
AcDbEntity
  8
30
  6
Continuous
 62
     0
100
AcDbMText
 10
-57.50000311931151
 20
446.251144283447
 30
0.0
 40
4.0
 41
0.0
 71
     5
 72
     1
  1
\A1;25
 73
     1
 44
1.0
1001
ACAD
1000
MTEXTBEGIN
1070
    73
1070
     1
1070
    44
1040
1.0
1070
    74
1070
     0
1000
MTEXTEND
  0
POINT
  5
8F69
330
7CAE
100
AcDbEntity
  8
DEFPOINTS
  6
Continuous
 62
     0
100
AcDbPoint
 10
-70.00000623862298
 20
428.4369478956378
 30
0.0
  0
POINT
  5
8F6A
330
7CAE
100
AcDbEntity
  8
DEFPOINTS
  6
Continuous
 62
     0
100
AcDbPoint
 10
-45.00000000000002
 20
360.5189316457162
 30
0.0
  0
POINT
  5
8F6B
330
7CAE
100
AcDbEntity
  8
DEFPOINTS
  6
Continuous
 62
     0
100
AcDbPoint
 10
-45.0
 20
443.251144283447
 30
0.0
  0
ENDBLK
  5
7CB9
330
7CAE
100
AcDbEntity
  8
0
100
AcDbBlockEnd
  0
BLOCK
  5
7CC5
330
7CBB
100
AcDbEntity
  8
0
100
AcDbBlockBegin
  2
*D14
 70
     1
 10
0.0
 20
0.0
 30
0.0
  3
*D14
  1

  0
LINE
  5
90DC
330
7CBB
100
AcDbEntity
  8
30
  6
Continuous
 62
     0
100
AcDbLine
 10
-45.00000000000002
 20
361.5189316457161
 30
0.0
 11
-45.0
 21
443.751144283447
 31
0.0
  0
LINE
  5
90DD
330
7CBB
100
AcDbEntity
  8
30
  6
Continuous
 62
     0
100
AcDbLine
 10
-0.0000206044744376
 20
361.5189316457161
 30
0.0
 11
-0.0000206044744326
 21
443.751144283447
 31
0.0
  0
LINE
  5
90DE
330
7CBB
100
AcDbEntity
  8
30
  6
Continuous
 62
     0
100
AcDbLine
 10
-43.0
 20
443.251144283447
 30
0.0
 11
-2.000020604474431
 21
443.251144283447
 31
0.0
  0
INSERT
  5
90DF
330
7CBB
100
AcDbEntity
  8
30
  6
Continuous
 62
     0
100
AcDbBlockReference
  2
_OPEN
 10
-45.0
 20
443.251144283447
 30
0.0
 41
2.0
 42
2.0
 43
2.0
 50
180.0
  0
INSERT
  5
90E0
330
7CBB
100
AcDbEntity
  8
30
  6
Continuous
 62
     0
100
AcDbBlockReference
  2
_OPEN
 10
-0.0000206044744326
 20
443.251144283447
 30
0.0
 41
2.0
 42
2.0
 43
2.0
  0
MTEXT
  5
90E1
330
7CBB
100
AcDbEntity
  8
30
  6
Continuous
 62
     0
100
AcDbMText
 10
-22.50001030223722
 20
446.251144283447
 30
0.0
 40
4.0
 41
0.0
 71
     5
 72
     1
  1
\A1;45
 73
     1
 44
1.0
  0
POINT
  5
90E2
330
7CBB
100
AcDbEntity
  8
DEFPOINTS
  6
Continuous
 62
     0
100
AcDbPoint
 10
-45.00000000000002
 20
360.5189316457162
 30
0.0
  0
POINT
  5
90E3
330
7CBB
100
AcDbEntity
  8
DEFPOINTS
  6
Continuous
 62
     0
100
AcDbPoint
 10
-0.0000206044744377
 20
360.5189316457162
 30
0.0
  0
POINT
  5
90E4
330
7CBB
100
AcDbEntity
  8
DEFPOINTS
  6
Continuous
 62
     0
100
AcDbPoint
 10
-0.0000206044744326
 20
443.251144283447
 30
0.0
  0
ENDBLK
  5
7CC6
330
7CBB
100
AcDbEntity
  8
0
100
AcDbBlockEnd
  0
BLOCK
  5
7CD2
330
7CC8
100
AcDbEntity
  8
0
100
AcDbBlockBegin
  2
*D15
 70
     1
 10
0.0
 20
0.0
 30
0.0
  3
*D15
  1

  0
LINE
  5
90E5
330
7CC8
100
AcDbEntity
  8
30
  6
Continuous
 62
     0
100
AcDbLine
 10
-0.0000206044744376
 20
361.5189316457161
 30
0.0
 11
-0.0000206044744326
 21
443.751144283447
 31
0.0
  0
LINE
  5
90E6
330
7CC8
100
AcDbEntity
  8
30
  6
Continuous
 62
     0
100
AcDbLine
 10
45.0
 20
355.4369478956378
 30
0.0
 11
45.0
 21
443.751144283447
 31
0.0
  0
LINE
  5
90E7
330
7CC8
100
AcDbEntity
  8
30
  6
Continuous
 62
     0
100
AcDbLine
 10
1.999979395525566
 20
443.251144283447
 30
0.0
 11
43.0
 21
443.251144283447
 31
0.0
  0
INSERT
  5
90E8
330
7CC8
100
AcDbEntity
  8
30
  6
Continuous
 62
     0
100
AcDbBlockReference
  2
_OPEN
 10
-0.0000206044744326
 20
443.251144283447
 30
0.0
 41
2.0
 42
2.0
 43
2.0
 50
180.0
  0
INSERT
  5
90E9
330
7CC8
100
AcDbEntity
  8
30
  6
Continuous
 62
     0
100
AcDbBlockReference
  2
_OPEN
 10
45.0
 20
443.251144283447
 30
0.0
 41
2.0
 42
2.0
 43
2.0
  0
MTEXT
  5
90EA
330
7CC8
100
AcDbEntity
  8
30
  6
Continuous
 62
     0
100
AcDbMText
 10
22.49998969776278
 20
446.251144283447
 30
0.0
 40
4.0
 41
0.0
 71
     5
 72
     1
  1
\A1;45
 73
     1
 44
1.0
  0
POINT
  5
90EB
330
7CC8
100
AcDbEntity
  8
DEFPOINTS
  6
Continuous
 62
     0
100
AcDbPoint
 10
-0.0000206044744377
 20
360.5189316457162
 30
0.0
  0
POINT
  5
90EC
330
7CC8
100
AcDbEntity
  8
DEFPOINTS
  6
Continuous
 62
     0
100
AcDbPoint
 10
45.0
 20
354.4369478956378
 30
0.0
  0
POINT
  5
90ED
330
7CC8
100
AcDbEntity
  8
DEFPOINTS
  6
Continuous
 62
     0
100
AcDbPoint
 10
45.0
 20
443.251144283447
 30
0.0
  0
ENDBLK
  5
7CD3
330
7CC8
100
AcDbEntity
  8
0
100
AcDbBlockEnd
  0
BLOCK
  5
7DB9
330
7DAF
100
AcDbEntity
  8
0
100
AcDbBlockBegin
  2
*D16
 70
     1
 10
0.0
 20
0.0
 30
0.0
  3
*D16
  1

  0
LINE
  5
90EE
330
7DAF
100
AcDbEntity
  8
30
  6
Continuous
 62
     0
100
AcDbLine
 10
70.9999452034627
 20
428.4369478956378
 30
0.0
 11
94.0775743456902
 21
428.4369478956378
 31
0.0
  0
LINE
  5
90EF
330
7DAF
100
AcDbEntity
  8
30
  6
Continuous
 62
     0
100
AcDbLine
 10
64.50483982155649
 20
354.4369478956378
 30
0.0
 11
94.0775743456902
 21
354.4369478956378
 31
0.0
  0
LINE
  5
90F0
330
7DAF
100
AcDbEntity
  8
30
  6
Continuous
 62
     0
100
AcDbLine
 10
93.57757434569021
 20
426.4369478956378
 30
0.0
 11
93.57757434569021
 21
356.4369478956378
 31
0.0
  0
MTEXT
  5
90F1
330
7DAF
100
AcDbEntity
  8
30
  6
Continuous
 62
     0
100
AcDbMText
 10
115.0397376512239
 20
386.9712988637989
 30
0.0
 40
4.0
 41
0.0
 71
     5
 72
     1
  1
\A1;ON SIDE 75\POFF SIDE 72
 73
     1
 44
1.0
  0
INSERT
  5
90F2
330
7DAF
100
AcDbEntity
  8
30
  6
Continuous
 62
     0
100
AcDbBlockReference
  2
_OPEN
 10
93.57757434569021
 20
428.4369478956378
 30
0.0
 41
2.0
 42
2.0
 43
2.0
 50
90.0
  0
INSERT
  5
90F3
330
7DAF
100
AcDbEntity
  8
30
  6
Continuous
 62
     0
100
AcDbBlockReference
  2
_OPEN
 10
93.57757434569021
 20
354.4369478956378
 30
0.0
 41
2.0
 42
2.0
 43
2.0
 50
270.0
  0
POINT
  5
90F4
330
7DAF
100
AcDbEntity
  8
DEFPOINTS
  6
Continuous
 62
     0
100
AcDbPoint
 10
69.9999452034627
 20
428.4369478956378
 30
0.0
  0
POINT
  5
90F5
330
7DAF
100
AcDbEntity
  8
DEFPOINTS
  6
Continuous
 62
     0
100
AcDbPoint
 10
63.50483982155648
 20
354.4369478956378
 30
0.0
  0
POINT
  5
90F6
330
7DAF
100
AcDbEntity
  8
DEFPOINTS
  6
Continuous
 62
     0
100
AcDbPoint
 10
93.57757434569021
 20
354.4369478956378
 30
0.0
  0
ENDBLK
  5
7DBA
330
7DAF
100
AcDbEntity
  8
0
100
AcDbBlockEnd
  0
BLOCK
  5
86CC
330
86C2
100
AcDbEntity
  8
0
100
AcDbBlockBegin
  2
*D17
 70
     1
 10
0.0
 20
0.0
 30
0.0
  3
*D17
  1

  0
LINE
  5
8814
330
86C2
100
AcDbEntity
  8
30
  6
Continuous
 62
     0
100
AcDbLine
 10
-71.0
 20
130.0
 30
0.0
 11
-121.2651061970336
 21
130.0
 31
0.0
  0
LINE
  5
8815
330
86C2
100
AcDbEntity
  8
30
  6
Continuous
 62
     0
100
AcDbLine
 10
-71.0
 20
-130.0
 30
0.0
 11
-121.2651061970336
 21
-130.0
 31
0.0
  0
LINE
  5
8816
330
86C2
100
AcDbEntity
  8
30
  6
Continuous
 62
     0
100
AcDbLine
 10
-120.7651061970336
 20
128.0
 30
0.0
 11
-120.7651061970336
 21
-128.0
 31
0.0
  0
INSERT
  5
8817
330
86C2
100
AcDbEntity
  8
30
  6
Continuous
 62
     0
100
AcDbBlockReference
  2
_OPEN
 10
-120.7651061970336
 20
130.0
 30
0.0
 41
2.0
 42
2.0
 43
2.0
 50
90.0
  0
INSERT
  5
8818
330
86C2
100
AcDbEntity
  8
30
  6
Continuous
 62
     0
100
AcDbBlockReference
  2
_OPEN
 10
-120.7651061970336
 20
-130.0
 30
0.0
 41
2.0
 42
2.0
 43
2.0
 50
270.0
  0
MTEXT
  5
8819
330
86C2
100
AcDbEntity
  8
30
  6
Continuous
 62
     0
100
AcDbMText
 10
-123.7651061970336
 20
-0.0000000000000207
 30
0.0
 40
4.0
 41
0.0
 71
     5
 72
     1
  1
\A1;260
 11
0.0000000000000001
 21
1.0
 31
0.0
 73
     1
 44
1.0
1001
ACAD
1000
MTEXTBEGIN
1070
    73
1070
     1
1070
    44
1040
1.0
1070
    74
1070
     0
1000
MTEXTEND
  0
POINT
  5
881A
330
86C2
100
AcDbEntity
  8
DEFPOINTS
  6
Continuous
 62
     0
100
AcDbPoint
 10
-70.0
 20
130.0
 30
0.0
  0
POINT
  5
881B
330
86C2
100
AcDbEntity
  8
DEFPOINTS
  6
Continuous
 62
     0
100
AcDbPoint
 10
-70.0
 20
-130.0
 30
0.0
  0
POINT
  5
881C
330
86C2
100
AcDbEntity
  8
DEFPOINTS
  6
Continuous
 62
     0
100
AcDbPoint
 10
-120.7651061970336
 20
-130.0
 30
0.0
  0
ENDBLK
  5
86CD
330
86C2
100
AcDbEntity
  8
0
100
AcDbBlockEnd
  0
BLOCK
  5
86D8
330
86CE
100
AcDbEntity
  8
0
100
AcDbBlockBegin
  2
*D18
 70
     1
 10
0.0
 20
0.0
 30
0.0
  3
*D18
  1

  0
LINE
  5
8728
330
86CE
100
AcDbEntity
  8
30
  6
Continuous
 62
     0
100
AcDbLine
 10
-71.0
 20
50.99999999999899
 30
0.0
 11
-106.4999999999999
 21
50.999999999999
 31
0.0
  0
LINE
  5
8729
330
86CE
100
AcDbEntity
  8
30
  6
Continuous
 62
     0
100
AcDbLine
 10
-71.0
 20
-50.99999999999997
 30
0.0
 11
-106.4999999999999
 21
-50.99999999999997
 31
0.0
  0
LINE
  5
872A
330
86CE
100
AcDbEntity
  8
30
  6
Continuous
 62
     0
100
AcDbLine
 10
-105.9999999999996
 20
48.99999999999899
 30
0.0
 11
-106.0
 21
-48.99999999999998
 31
0.0
  0
INSERT
  5
872B
330
86CE
100
AcDbEntity
  8
30
  6
Continuous
 62
     0
100
AcDbBlockReference
  2
_OPEN
 10
-105.9999999999996
 20
50.999999999999
 30
0.0
 41
2.0
 42
2.0
 43
2.0
 50
90.0
  0
INSERT
  5
872C
330
86CE
100
AcDbEntity
  8
30
  6
Continuous
 62
     0
100
AcDbBlockReference
  2
_OPEN
 10
-106.0
 20
-50.99999999999997
 30
0.0
 41
2.0
 42
2.0
 43
2.0
 50
270.0
  0
MTEXT
  5
872D
330
86CE
100
AcDbEntity
  8
30
  6
Continuous
 62
     0
100
AcDbMText
 10
-108.9999999999996
 20
-0.0000000000005047
 30
0.0
 40
4.0
 41
0.0
 71
     5
 72
     1
  1
\A1;102
 11
0.0000000000000001
 21
1.0
 31
0.0
 73
     1
 44
1.0
1001
ACAD
1000
MTEXTBEGIN
1070
    73
1070
     1
1070
    44
1040
1.0
1070
    74
1070
     0
1000
MTEXTEND
  0
POINT
  5
872E
330
86CE
100
AcDbEntity
  8
DEFPOINTS
  6
Continuous
 62
     0
100
AcDbPoint
 10
-70.0
 20
50.99999999999899
 30
0.0
  0
POINT
  5
872F
330
86CE
100
AcDbEntity
  8
DEFPOINTS
  6
Continuous
 62
     0
100
AcDbPoint
 10
-70.0
 20
-50.99999999999997
 30
0.0
  0
POINT
  5
8730
330
86CE
100
AcDbEntity
  8
DEFPOINTS
  6
Continuous
 62
     0
100
AcDbPoint
 10
-106.0
 20
-50.99999999999997
 30
0.0
  0
ENDBLK
  5
86D9
330
86CE
100
AcDbEntity
  8
0
100
AcDbBlockEnd
  0
BLOCK
  5
86E4
330
86DA
100
AcDbEntity
  8
0
100
AcDbBlockBegin
  2
*D19
 70
     1
 10
0.0
 20
0.0
 30
0.0
  3
*D19
  1

  0
LINE
  5
8731
330
86DA
100
AcDbEntity
  8
30
  6
Continuous
 62
     0
100
AcDbLine
 10
-54.0
 20
45.0
 30
0.0
 11
-92.49999999999998
 21
45.00000000000002
 31
0.0
  0
LINE
  5
8732
330
86DA
100
AcDbEntity
  8
30
  6
Continuous
 62
     0
100
AcDbLine
 10
-54.0
 20
-44.99999999999999
 30
0.0
 11
-92.5
 21
-44.99999999999998
 31
0.0
  0
LINE
  5
8733
330
86DA
100
AcDbEntity
  8
30
  6
Continuous
 62
     0
100
AcDbLine
 10
-91.99999999999995
 20
43.00000000000002
 30
0.0
 11
-92.0
 21
-42.99999999999998
 31
0.0
  0
INSERT
  5
8734
330
86DA
100
AcDbEntity
  8
30
  6
Continuous
 62
     0
100
AcDbBlockReference
  2
_OPEN
 10
-91.99999999999995
 20
45.00000000000002
 30
0.0
 41
2.0
 42
2.0
 43
2.0
 50
90.0
  0
INSERT
  5
8735
330
86DA
100
AcDbEntity
  8
30
  6
Continuous
 62
     0
100
AcDbBlockReference
  2
_OPEN
 10
-92.0
 20
-44.99999999999998
 30
0.0
 41
2.0
 42
2.0
 43
2.0
 50
270.0
  0
MTEXT
  5
8736
330
86DA
100
AcDbEntity
  8
30
  6
Continuous
 62
     0
100
AcDbMText
 10
-94.99999999999998
 20
0.000000000000006
 30
0.0
 40
4.0
 41
0.0
 71
     5
 72
     1
  1
\A1;90
 11
0.0000000000000001
 21
1.0
 31
0.0
 73
     1
 44
1.0
1001
ACAD
1000
MTEXTBEGIN
1070
    73
1070
     1
1070
    44
1040
1.0
1070
    74
1070
     0
1000
MTEXTEND
  0
POINT
  5
8737
330
86DA
100
AcDbEntity
  8
DEFPOINTS
  6
Continuous
 62
     0
100
AcDbPoint
 10
-53.0
 20
45.0
 30
0.0
  0
POINT
  5
8738
330
86DA
100
AcDbEntity
  8
DEFPOINTS
  6
Continuous
 62
     0
100
AcDbPoint
 10
-53.0
 20
-44.99999999999999
 30
0.0
  0
POINT
  5
8739
330
86DA
100
AcDbEntity
  8
DEFPOINTS
  6
Continuous
 62
     0
100
AcDbPoint
 10
-92.0
 20
-44.99999999999998
 30
0.0
  0
ENDBLK
  5
86E5
330
86DA
100
AcDbEntity
  8
0
100
AcDbBlockEnd
  0
BLOCK
  5
8812
330
8808
100
AcDbEntity
  8
0
100
AcDbBlockBegin
  2
*D20
 70
     1
 10
0.0
 20
0.0
 30
0.0
  3
*D20
  1

  0
LINE
  5
8826
330
8808
100
AcDbEntity
  8
30
  6
Continuous
 62
     0
100
AcDbLine
 10
-71.0
 20
130.0
 30
0.0
 11
-121.4317721970336
 21
130.0
 31
0.0
  0
LINE
  5
8827
330
8808
100
AcDbEntity
  8
30
  6
Continuous
 62
     0
100
AcDbLine
 10
-21.49999999999999
 20
239.9999999999999
 30
0.0
 11
-121.4317721970336
 21
239.9999999999999
 31
0.0
  0
LINE
  5
8828
330
8808
100
AcDbEntity
  8
30
  6
Continuous
 62
     0
100
AcDbLine
 10
-120.9317721970335
 20
132.0
 30
0.0
 11
-120.9317721970335
 21
237.9999999999999
 31
0.0
  0
INSERT
  5
8829
330
8808
100
AcDbEntity
  8
30
  6
Continuous
 62
     0
100
AcDbBlockReference
  2
_OPEN
 10
-120.9317721970335
 20
130.0
 30
0.0
 41
2.0
 42
2.0
 43
2.0
 50
270.0
  0
INSERT
  5
882A
330
8808
100
AcDbEntity
  8
30
  6
Continuous
 62
     0
100
AcDbBlockReference
  2
_OPEN
 10
-120.9317721970335
 20
239.9999999999999
 30
0.0
 41
2.0
 42
2.0
 43
2.0
 50
90.0
  0
MTEXT
  5
882B
330
8808
100
AcDbEntity
  8
30
  6
Continuous
 62
     0
100
AcDbMText
 10
-123.9317721970335
 20
184.9999999999999
 30
0.0
 40
4.0
 41
0.0
 71
     5
 72
     1
  1
\A1;110
 11
0.0000000000000001
 21
1.0
 31
0.0
 73
     1
 44
1.0
1001
ACAD
1000
MTEXTBEGIN
1070
    73
1070
     1
1070
    44
1040
1.0
1070
    74
1070
     0
1000
MTEXTEND
  0
POINT
  5
882C
330
8808
100
AcDbEntity
  8
DEFPOINTS
  6
Continuous
 62
     0
100
AcDbPoint
 10
-70.0
 20
130.0
 30
0.0
  0
POINT
  5
882D
330
8808
100
AcDbEntity
  8
DEFPOINTS
  6
Continuous
 62
     0
100
AcDbPoint
 10
-20.5
 20
239.9999999999999
 30
0.0
  0
POINT
  5
882E
330
8808
100
AcDbEntity
  8
DEFPOINTS
  6
Continuous
 62
     0
100
AcDbPoint
 10
-120.9317721970335
 20
239.9999999999999
 30
0.0
  0
ENDBLK
  5
8813
330
8808
100
AcDbEntity
  8
0
100
AcDbBlockEnd
  0
BLOCK
  5
883A
330
8830
100
AcDbEntity
  8
0
100
AcDbBlockBegin
  2
*D21
 70
     1
 10
0.0
 20
0.0
 30
0.0
  3
*D21
  1

  0
LINE
  5
9059
330
8830
100
AcDbEntity
  8
30
  6
Continuous
 62
     0
100
AcDbLine
 10
-70.0
 20
-131.0
 30
0.0
 11
-70.0
 21
-164.953840723329
 31
0.0
  0
LINE
  5
905A
330
8830
100
AcDbEntity
  8
30
  6
Continuous
 62
     0
100
AcDbLine
 10
70.0
 20
-131.0
 30
0.0
 11
70.0
 21
-164.953840723329
 31
0.0
  0
LINE
  5
905B
330
8830
100
AcDbEntity
  8
30
  6
Continuous
 62
     0
100
AcDbLine
 10
-68.0
 20
-164.4538407233292
 30
0.0
 11
68.0
 21
-164.4538407233292
 31
0.0
  0
INSERT
  5
905C
330
8830
100
AcDbEntity
  8
30
  6
Continuous
 62
     0
100
AcDbBlockReference
  2
_OPEN
 10
-70.0
 20
-164.4538407233292
 30
0.0
 41
2.0
 42
2.0
 43
2.0
 50
180.0
  0
INSERT
  5
905D
330
8830
100
AcDbEntity
  8
30
  6
Continuous
 62
     0
100
AcDbBlockReference
  2
_OPEN
 10
70.0
 20
-164.4538407233292
 30
0.0
 41
2.0
 42
2.0
 43
2.0
  0
MTEXT
  5
905E
330
8830
100
AcDbEntity
  8
30
  6
Continuous
 62
     0
100
AcDbMText
 10
0.0000000000000002
 20
-161.4538407233292
 30
0.0
 40
4.0
 41
0.0
 71
     5
 72
     1
  1
\A1;140
 73
     1
 44
1.0
1001
ACAD
1000
MTEXTBEGIN
1070
    73
1070
     1
1070
    44
1040
1.0
1070
    74
1070
     0
1000
MTEXTEND
  0
POINT
  5
905F
330
8830
100
AcDbEntity
  8
DEFPOINTS
  6
Continuous
 62
     0
100
AcDbPoint
 10
-70.0
 20
-130.0
 30
0.0
  0
POINT
  5
9060
330
8830
100
AcDbEntity
  8
DEFPOINTS
  6
Continuous
 62
     0
100
AcDbPoint
 10
70.0
 20
-130.0
 30
0.0
  0
POINT
  5
9061
330
8830
100
AcDbEntity
  8
DEFPOINTS
  6
Continuous
 62
     0
100
AcDbPoint
 10
70.0
 20
-164.4538407233292
 30
0.0
  0
ENDBLK
  5
883B
330
8830
100
AcDbEntity
  8
0
100
AcDbBlockEnd
  0
BLOCK
  5
8847
330
883D
100
AcDbEntity
  8
0
100
AcDbBlockBegin
  2
*D22
 70
     1
 10
0.0
 20
0.0
 30
0.0
  3
*D22
  1

  0
LINE
  5
883E
330
883D
100
AcDbEntity
  8
30
  6
Continuous
 62
     0
100
AcDbLine
 10
-45.0
 20
-122.9999999999999
 30
0.0
 11
-45.0
 21
-143.4326664853055
 31
0.0
  0
LINE
  5
883F
330
883D
100
AcDbEntity
  8
30
  6
Continuous
 62
     0
100
AcDbLine
 10
-0.0000000000000001
 20
-123.9999999999999
 30
0.0
 11
-0.0000000000000013
 21
-143.4326664853055
 31
0.0
  0
LINE
  5
8840
330
883D
100
AcDbEntity
  8
30
  6
Continuous
 62
     0
100
AcDbLine
 10
-43.0
 20
-142.9326664853055
 30
0.0
 11
-2.0
 21
-142.9326664853055
 31
0.0
  0
INSERT
  5
8841
330
883D
100
AcDbEntity
  8
30
  6
Continuous
 62
     0
100
AcDbBlockReference
  2
_OPEN
 10
-45.0
 20
-142.9326664853055
 30
0.0
 41
2.0
 42
2.0
 43
2.0
 50
180.0
  0
INSERT
  5
8842
330
883D
100
AcDbEntity
  8
30
  6
Continuous
 62
     0
100
AcDbBlockReference
  2
_OPEN
 10
-0.0000000000000012
 20
-142.9326664853055
 30
0.0
 41
2.0
 42
2.0
 43
2.0
  0
MTEXT
  5
8843
330
883D
100
AcDbEntity
  8
30
  6
Continuous
 62
     0
100
AcDbMText
 10
-22.5
 20
-139.9326664853056
 30
0.0
 40
4.0
 41
0.0
 71
     5
 72
     1
  1
\A1;45
 73
     1
 44
1.0
1001
ACAD
1000
MTEXTBEGIN
1070
    73
1070
     1
1070
    44
1040
1.0
1070
    74
1070
     0
1000
MTEXTEND
  0
POINT
  5
8844
330
883D
100
AcDbEntity
  8
DEFPOINTS
  6
Continuous
 62
     0
100
AcDbPoint
 10
-45.0
 20
-121.9999999999999
 30
0.0
  0
POINT
  5
8845
330
883D
100
AcDbEntity
  8
DEFPOINTS
  6
Continuous
 62
     0
100
AcDbPoint
 10
0.0
 20
-122.9999999999999
 30
0.0
  0
POINT
  5
8846
330
883D
100
AcDbEntity
  8
DEFPOINTS
  6
Continuous
 62
     0
100
AcDbPoint
 10
-0.0000000000000012
 20
-142.9326664853055
 30
0.0
  0
ENDBLK
  5
8848
330
883D
100
AcDbEntity
  8
0
100
AcDbBlockEnd
  0
BLOCK
  5
8854
330
884A
100
AcDbEntity
  8
0
100
AcDbBlockBegin
  2
*D23
 70
     1
 10
0.0
 20
0.0
 30
0.0
  3
*D23
  1

  0
LINE
  5
90F7
330
884A
100
AcDbEntity
  8
30
  6
Continuous
 62
     0
100
AcDbLine
 10
-0.0000000000000001
 20
-123.9999999999999
 30
0.0
 11
-0.0000000000000013
 21
-143.4326664853055
 31
0.0
  0
LINE
  5
90F8
330
884A
100
AcDbEntity
  8
30
  6
Continuous
 62
     0
100
AcDbLine
 10
45.0
 20
-123.9999999999999
 30
0.0
 11
45.0
 21
-143.4326664853055
 31
0.0
  0
LINE
  5
90F9
330
884A
100
AcDbEntity
  8
30
  6
Continuous
 62
     0
100
AcDbLine
 10
1.999999999999998
 20
-142.9326664853055
 30
0.0
 11
43.0
 21
-142.9326664853055
 31
0.0
  0
INSERT
  5
90FA
330
884A
100
AcDbEntity
  8
30
  6
Continuous
 62
     0
100
AcDbBlockReference
  2
_OPEN
 10
-0.0000000000000012
 20
-142.9326664853055
 30
0.0
 41
2.0
 42
2.0
 43
2.0
 50
180.0
  0
INSERT
  5
90FB
330
884A
100
AcDbEntity
  8
30
  6
Continuous
 62
     0
100
AcDbBlockReference
  2
_OPEN
 10
45.0
 20
-142.9326664853055
 30
0.0
 41
2.0
 42
2.0
 43
2.0
  0
MTEXT
  5
90FC
330
884A
100
AcDbEntity
  8
30
  6
Continuous
 62
     0
100
AcDbMText
 10
22.5
 20
-139.9326664853055
 30
0.0
 40
4.0
 41
0.0
 71
     5
 72
     1
  1
\A1;45
 73
     1
 44
1.0
  0
POINT
  5
90FD
330
884A
100
AcDbEntity
  8
DEFPOINTS
  6
Continuous
 62
     0
100
AcDbPoint
 10
0.0
 20
-122.9999999999999
 30
0.0
  0
POINT
  5
90FE
330
884A
100
AcDbEntity
  8
DEFPOINTS
  6
Continuous
 62
     0
100
AcDbPoint
 10
45.0
 20
-122.9999999999999
 30
0.0
  0
POINT
  5
90FF
330
884A
100
AcDbEntity
  8
DEFPOINTS
  6
Continuous
 62
     0
100
AcDbPoint
 10
45.0
 20
-142.9326664853055
 30
0.0
  0
ENDBLK
  5
8855
330
884A
100
AcDbEntity
  8
0
100
AcDbBlockEnd
  0
BLOCK
  5
88C2
330
88B8
100
AcDbEntity
  8
0
100
AcDbBlockBegin
  2
*D24
 70
     1
 10
0.0
 20
0.0
 30
0.0
  3
*D24
  1

  0
LINE
  5
906C
330
88B8
100
AcDbEntity
  8
30
  6
Continuous
 62
     0
100
AcDbLine
 10
44.99999999999999
 20
429.4369478956378
 30
0.0
 11
44.99999999999999
 21
443.751144283447
 31
0.0
  0
LINE
  5
906D
330
88B8
100
AcDbEntity
  8
30
  6
Continuous
 62
     0
100
AcDbLine
 10
69.9999999999999
 20
429.4369478956378
 30
0.0
 11
69.9999999999999
 21
443.751144283447
 31
0.0
  0
LINE
  5
906E
330
88B8
100
AcDbEntity
  8
30
  6
Continuous
 62
     0
100
AcDbLine
 10
46.99999999999998
 20
443.251144283447
 30
0.0
 11
67.9999999999999
 21
443.251144283447
 31
0.0
  0
INSERT
  5
906F
330
88B8
100
AcDbEntity
  8
30
  6
Continuous
 62
     0
100
AcDbBlockReference
  2
_OPEN
 10
44.99999999999999
 20
443.251144283447
 30
0.0
 41
2.0
 42
2.0
 43
2.0
 50
180.0
  0
INSERT
  5
9070
330
88B8
100
AcDbEntity
  8
30
  6
Continuous
 62
     0
100
AcDbBlockReference
  2
_OPEN
 10
69.9999999999999
 20
443.251144283447
 30
0.0
 41
2.0
 42
2.0
 43
2.0
  0
MTEXT
  5
9071
330
88B8
100
AcDbEntity
  8
30
  6
Continuous
 62
     0
100
AcDbMText
 10
57.49999999999993
 20
446.251144283447
 30
0.0
 40
4.0
 41
0.0
 71
     5
 72
     1
  1
\A1;25
 73
     1
 44
1.0
1001
ACAD
1000
MTEXTBEGIN
1070
    73
1070
     1
1070
    44
1040
1.0
1070
    74
1070
     0
1000
MTEXTEND
  0
POINT
  5
9072
330
88B8
100
AcDbEntity
  8
DEFPOINTS
  6
Continuous
 62
     0
100
AcDbPoint
 10
44.99999999999999
 20
428.4369478956378
 30
0.0
  0
POINT
  5
9073
330
88B8
100
AcDbEntity
  8
DEFPOINTS
  6
Continuous
 62
     0
100
AcDbPoint
 10
69.9999999999999
 20
428.4369478956378
 30
0.0
  0
POINT
  5
9074
330
88B8
100
AcDbEntity
  8
DEFPOINTS
  6
Continuous
 62
     0
100
AcDbPoint
 10
69.9999999999999
 20
443.251144283447
 30
0.0
  0
ENDBLK
  5
88C3
330
88B8
100
AcDbEntity
  8
0
100
AcDbBlockEnd
  0
BLOCK
  5
8AEE
330
89F2
100
AcDbEntity
  8
0
100
AcDbBlockBegin
  2
A$C153138B4
 70
     0
 10
0.0
 20
0.0
 30
0.0
  3
A$C153138B4
  1

  0
LINE
  5
89F3
330
89F2
100
AcDbEntity
  8
0
100
AcDbLine
 10
0.0
 20
239.9999999999999
 30
0.0
 11
0.0
 21
-159.9999999999998
 31
0.0
  0
LINE
  5
89F4
330
89F2
100
AcDbEntity
  8
0
100
AcDbLine
 10
69.5
 20
130.0
 30
0.0
 11
69.5
 21
239.9999999999999
 31
0.0
  0
LINE
  5
89F5
330
89F2
100
AcDbEntity
  8
0
100
AcDbLine
 10
65.5
 20
130.0
 30
0.0
 11
65.5
 21
239.9999999999999
 31
0.0
  0
LINE
  5
89F6
330
89F2
100
AcDbEntity
  8
0
100
AcDbLine
 10
24.5
 20
130.0
 30
0.0
 11
24.5
 21
239.9999999999999
 31
0.0
  0
LINE
  5
89F7
330
89F2
100
AcDbEntity
  8
0
100
AcDbLine
 10
20.5
 20
130.0
 30
0.0
 11
20.5
 21
239.9999999999999
 31
0.0
  0
LINE
  5
89F8
330
89F2
100
AcDbEntity
  8
0
100
AcDbLine
 10
-20.5
 20
130.0
 30
0.0
 11
-20.5
 21
239.9999999999999
 31
0.0
  0
LINE
  5
89F9
330
89F2
100
AcDbEntity
  8
0
100
AcDbLine
 10
-24.5
 20
130.0
 30
0.0
 11
-24.5
 21
239.9999999999999
 31
0.0
  0
LINE
  5
89FA
330
89F2
100
AcDbEntity
  8
0
100
AcDbLine
 10
18.0
 20
-31.0
 30
0.0
 11
-18.0
 21
-31.0
 31
0.0
  0
LINE
  5
89FB
330
89F2
100
AcDbEntity
  8
0
100
AcDbLine
 10
17.00000000000005
 20
17.03370272535238
 30
0.0
 11
-16.99999999999993
 21
17.03370272535238
 31
0.0
  0
LINE
  5
89FC
330
89F2
100
AcDbEntity
  8
0
100
AcDbLine
 10
17.00000000000005
 20
28.03853193396586
 30
0.0
 11
-17.00000000000005
 21
28.03853193396586
 31
0.0
  0
LINE
  5
89FD
330
89F2
100
AcDbEntity
  8
0
100
AcDbLine
 10
17.00000000000005
 20
39.3326441170422
 30
0.0
 11
-17.0
 21
39.3326441170422
 31
0.0
  0
LINE
  5
89FE
330
89F2
100
AcDbEntity
  8
0
100
AcDbLine
 10
-70.0
 20
-50.99999999999994
 30
0.0
 11
114.9999999999997
 21
-50.99999999999994
 31
0.0
  0
LINE
  5
89FF
330
89F2
100
AcDbEntity
  8
0
100
AcDbLine
 10
-70.0
 20
50.99999999999925
 30
0.0
 11
114.9999999999997
 21
50.99999999999925
 31
0.0
  0
LINE
  5
8A00
330
89F2
100
AcDbEntity
  8
0
100
AcDbLine
 10
-75.0
 20
0.0
 30
0.0
 11
119.9999999999997
 21
0.0
 31
0.0
  0
LINE
  5
8A01
330
89F2
100
AcDbEntity
  8
0
100
AcDbLine
 10
-53.0
 20
-44.99999999999993
 30
0.0
 11
53.0
 21
-44.99999999999993
 31
0.0
  0
LINE
  5
8A02
330
89F2
100
AcDbEntity
  8
0
100
AcDbLine
 10
-53.0
 20
45.0
 30
0.0
 11
53.0
 21
45.0
 31
0.0
  0
LINE
  5
8A03
330
89F2
100
AcDbEntity
  8
0
100
AcDbLine
 10
114.9999999999997
 20
130.0
 30
0.0
 11
-70.0
 21
130.0
 31
0.0
  0
LINE
  5
8A04
330
89F2
100
AcDbEntity
  8
0
100
AcDbLine
 10
-70.0
 20
-129.9999999999999
 30
0.0
 11
114.9999999999997
 21
-129.9999999999999
 31
0.0
  0
LINE
  5
8A05
330
89F2
100
AcDbEntity
  8
0
100
AcDbLine
 10
-70.0
 20
130.0
 30
0.0
 11
-70.0
 21
-129.9999999999999
 31
0.0
  0
LINE
  5
8A06
330
89F2
100
AcDbEntity
  8
0
100
AcDbLine
 10
-58.0
 20
40.0
 30
0.0
 11
-58.0
 21
-39.99999999999992
 31
0.0
  0
LINE
  5
8A07
330
89F2
100
AcDbEntity
  8
0
100
AcDbLine
 10
-25.49999999999977
 20
-44.99999999999993
 30
0.0
 11
-25.49999999999994
 21
45.0
 31
0.0
  0
LINE
  5
8A08
330
89F2
100
AcDbEntity
  8
0
100
AcDbLine
 10
-50.5
 20
-113.9999999999999
 30
0.0
 11
-50.5
 21
-129.9999999999999
 31
0.0
  0
LINE
  5
8A09
330
89F2
100
AcDbEntity
  8
0
100
AcDbLine
 10
-39.5
 20
-113.9999999999999
 30
0.0
 11
-39.5
 21
-129.9999999999999
 31
0.0
  0
ARC
  5
8A0A
330
89F2
100
AcDbEntity
  8
0
100
AcDbCircle
 10
45.0
 20
-113.9999999999999
 30
0.0
 40
8.0
210
0.0
220
0.0
230
-1.0
100
AcDbArc
 50
226.5674634422088
 51
313.4325365577911
  0
ARC
  5
8A0B
330
89F2
100
AcDbEntity
  8
0
100
AcDbCircle
 10
45.0
 20
-113.9999999999999
 30
0.0
 40
5.5
210
0.0
220
0.0
230
-1.0
100
AcDbArc
 50
0.0
 51
180.0
  0
LINE
  5
8A0C
330
89F2
100
AcDbEntity
  8
0
100
AcDbLine
 10
-49.0
 20
-111.6905989232414
 30
0.0
 11
-45.0
 21
-109.3811978464829
 31
0.0
  0
LINE
  5
8A0D
330
89F2
100
AcDbEntity
  8
0
100
AcDbLine
 10
-45.0
 20
-118.6188021535167
 30
0.0
 11
-49.0
 21
-116.3094010767584
 31
0.0
  0
LINE
  5
8A0E
330
89F2
100
AcDbEntity
  8
0
100
AcDbLine
 10
-53.99999999999995
 20
-114.0
 30
0.0
 11
-36.0
 21
-114.0
 31
0.0
  0
LINE
  5
8A0F
330
89F2
100
AcDbEntity
  8
0
100
AcDbLine
 10
-49.0
 20
-116.3094010767584
 30
0.0
 11
-49.0
 21
-111.6905989232414
 31
0.0
  0
CIRCLE
  5
8A10
330
89F2
100
AcDbEntity
  8
0
100
AcDbCircle
 10
-22.5
 20
-106.9999999999996
 30
0.0
 40
4.0
  0
LINE
  5
8A11
330
89F2
100
AcDbEntity
  8
0
100
AcDbLine
 10
-22.5
 20
-98.99999999999998
 30
0.0
 11
-22.5
 21
-114.9999999999999
 31
0.0
  0
LINE
  5
8A12
330
89F2
100
AcDbEntity
  8
0
100
AcDbLine
 10
-14.5
 20
-106.9999999999996
 30
0.0
 11
-30.5
 21
-106.9999999999996
 31
0.0
  0
LINE
  5
8A13
330
89F2
100
AcDbEntity
  8
0
100
AcDbLine
 10
-41.0
 20
-111.6905989232414
 30
0.0
 11
-41.0
 21
-116.3094010767584
 31
0.0
  0
LINE
  5
8A14
330
89F2
100
AcDbEntity
  8
0
100
AcDbLine
 10
-45.0
 20
-109.3811978464829
 30
0.0
 11
-41.0
 21
-111.6905989232414
 31
0.0
  0
LINE
  5
8A15
330
89F2
100
AcDbEntity
  8
0
100
AcDbLine
 10
-41.0
 20
-116.3094010767584
 30
0.0
 11
-45.0
 21
-118.6188021535167
 31
0.0
  0
LINE
  5
8A16
330
89F2
100
AcDbEntity
  8
0
100
AcDbLine
 10
-45.0
 20
-122.9999999999999
 30
0.0
 11
-45.0
 21
-105.0
 31
0.0
  0
ARC
  5
8A17
330
89F2
100
AcDbEntity
  8
0
100
AcDbCircle
 10
-53.0
 20
-39.99999999999992
 30
0.0
 40
5.0
100
AcDbArc
 50
180.0
 51
270.0
  0
LINE
  5
8A18
330
89F2
100
AcDbEntity
  8
0
100
AcDbLine
 10
-18.0
 20
-31.0
 30
0.0
 11
-18.00000000000005
 21
31.0
 31
0.0
  0
ARC
  5
8A19
330
89F2
100
AcDbEntity
  8
0
100
AcDbCircle
 10
-53.0
 20
40.0
 30
0.0
 40
5.0
100
AcDbArc
 50
90.0
 51
180.0
  0
LINE
  5
8A1A
330
89F2
100
AcDbEntity
  8
0
100
AcDbLine
 10
-17.00000000000005
 20
17.03370272535232
 30
0.0
 11
-17.00000000000005
 21
39.3326441170422
 31
0.0
  0
LINE
  5
8A1B
330
89F2
100
AcDbEntity
  8
0
100
AcDbLine
 10
-17.00000000000005
 20
31.0
 30
0.0
 11
-18.00000000000005
 21
31.0
 31
0.0
  0
LINE
  5
8A1C
330
89F2
100
AcDbEntity
  8
0
100
AcDbLine
 10
-22.5
 20
115.0
 30
0.0
 11
-22.5
 21
99.0
 31
0.0
  0
ARC
  5
8A1D
330
89F2
100
AcDbEntity
  8
0
100
AcDbCircle
 10
-45.0
 20
114.0
 30
0.0
 40
8.0
100
AcDbArc
 50
46.56746344220897
 51
133.4325365577909
  0
ARC
  5
8A1E
330
89F2
100
AcDbEntity
  8
0
100
AcDbCircle
 10
-45.0
 20
114.0
 30
0.0
 40
5.5
100
AcDbArc
 50
180.0
 51
0.0
  0
LINE
  5
8A1F
330
89F2
100
AcDbEntity
  8
0
100
AcDbLine
 10
-49.0
 20
111.6905989232414
 30
0.0
 11
-45.0
 21
109.3811978464831
 31
0.0
  0
LINE
  5
8A20
330
89F2
100
AcDbEntity
  8
0
100
AcDbLine
 10
-45.0
 20
118.6188021535169
 30
0.0
 11
-49.0
 21
116.3094010767585
 31
0.0
  0
LINE
  5
8A21
330
89F2
100
AcDbEntity
  8
0
100
AcDbLine
 10
-53.99999999999995
 20
114.0000000000001
 30
0.0
 11
-36.0
 21
114.0000000000001
 31
0.0
  0
LINE
  5
8A22
330
89F2
100
AcDbEntity
  8
0
100
AcDbLine
 10
-50.5
 20
114.0
 30
0.0
 11
-50.5
 21
130.0
 31
0.0
  0
LINE
  5
8A23
330
89F2
100
AcDbEntity
  8
0
100
AcDbLine
 10
-49.0
 20
116.3094010767585
 30
0.0
 11
-49.0
 21
111.6905989232414
 31
0.0
  0
LINE
  5
8A24
330
89F2
100
AcDbEntity
  8
0
100
AcDbLine
 10
-39.5
 20
114.0
 30
0.0
 11
-39.5
 21
130.0
 31
0.0
  0
LINE
  5
8A25
330
89F2
100
AcDbEntity
  8
0
100
AcDbLine
 10
-45.0
 20
105.0000000000002
 30
0.0
 11
-45.0
 21
123.0000000000001
 31
0.0
  0
LINE
  5
8A26
330
89F2
100
AcDbEntity
  8
0
100
AcDbLine
 10
-14.5
 20
107.0
 30
0.0
 11
-30.5
 21
107.0
 31
0.0
  0
LINE
  5
8A27
330
89F2
100
AcDbEntity
  8
0
100
AcDbLine
 10
-41.0
 20
111.6905989232414
 30
0.0
 11
-41.0
 21
116.3094010767585
 31
0.0
  0
LINE
  5
8A28
330
89F2
100
AcDbEntity
  8
0
100
AcDbLine
 10
-45.0
 20
109.3811978464831
 30
0.0
 11
-41.0
 21
111.6905989232414
 31
0.0
  0
LINE
  5
8A29
330
89F2
100
AcDbEntity
  8
0
100
AcDbLine
 10
-41.0
 20
116.3094010767585
 30
0.0
 11
-45.0
 21
118.6188021535169
 31
0.0
  0
CIRCLE
  5
8A2A
330
89F2
100
AcDbEntity
  8
0
100
AcDbCircle
 10
22.5
 20
107.0
 30
0.0
 40
4.0
210
0.0
220
0.0
230
-1.0
  0
LINE
  5
8A2B
330
89F2
100
AcDbEntity
  8
0
100
AcDbLine
 10
24.30000000000001
 20
-33.85000000000001
 30
0.0
 11
24.30000000000001
 21
-40.44999999999999
 31
0.0
  0
LINE
  5
8A2C
330
89F2
100
AcDbEntity
  8
0
100
AcDbLine
 10
19.0
 20
-33.85000000000001
 30
0.0
 11
19.0
 21
-40.44999999999999
 31
0.0
  0
LINE
  5
8A2D
330
89F2
100
AcDbEntity
  8
0
100
AcDbLine
 10
114.9999999999997
 20
130.0
 30
0.0
 11
114.9999999999997
 21
-129.9999999999999
 31
0.0
  0
LINE
  5
8A2E
330
89F2
100
AcDbEntity
  8
0
100
AcDbLine
 10
58.0
 20
40.0
 30
0.0
 11
58.0
 21
-39.99999999999992
 31
0.0
  0
LINE
  5
8A2F
330
89F2
100
AcDbEntity
  8
0
100
AcDbLine
 10
25.49999999999977
 20
-44.99999999999993
 30
0.0
 11
25.49999999999982
 21
45.0
 31
0.0
  0
LINE
  5
8A30
330
89F2
100
AcDbEntity
  8
0
100
AcDbLine
 10
84.50000000000001
 20
-113.9999999999999
 30
0.0
 11
84.50000000000001
 21
-129.9999999999999
 31
0.0
  0
LINE
  5
8A31
330
89F2
100
AcDbEntity
  8
0
100
AcDbLine
 10
50.5
 20
-113.9999999999999
 30
0.0
 11
50.5
 21
-129.9999999999999
 31
0.0
  0
LINE
  5
8A32
330
89F2
100
AcDbEntity
  8
0
100
AcDbLine
 10
39.5
 20
-113.9999999999999
 30
0.0
 11
39.5
 21
-129.9999999999999
 31
0.0
  0
LINE
  5
8A33
330
89F2
100
AcDbEntity
  8
0
100
AcDbLine
 10
95.5
 20
-113.9999999999999
 30
0.0
 11
95.5
 21
-129.9999999999999
 31
0.0
  0
LINE
  5
8A34
330
89F2
100
AcDbEntity
  8
0
100
AcDbLine
 10
-5.5
 20
-113.9999999999999
 30
0.0
 11
-5.5
 21
-129.9999999999999
 31
0.0
  0
LINE
  5
8A35
330
89F2
100
AcDbEntity
  8
0
100
AcDbLine
 10
5.5
 20
-113.9999999999999
 30
0.0
 11
5.5
 21
-129.9999999999999
 31
0.0
  0
LINE
  5
8A36
330
89F2
100
AcDbEntity
  8
0
100
AcDbLine
 10
36.00000000000003
 20
-114.0
 30
0.0
 11
54.0
 21
-114.0
 31
0.0
  0
CIRCLE
  5
8A37
330
89F2
100
AcDbEntity
  8
0
100
AcDbCircle
 10
22.5
 20
-106.9999999999996
 30
0.0
 40
4.0
  0
LINE
  5
8A38
330
89F2
100
AcDbEntity
  8
0
100
AcDbLine
 10
30.5
 20
-106.9999999999996
 30
0.0
 11
14.5
 21
-106.9999999999996
 31
0.0
  0
ARC
  5
8A39
330
89F2
100
AcDbEntity
  8
0
100
AcDbCircle
 10
0.0
 20
-113.9999999999999
 30
0.0
 40
8.0
210
0.0
220
0.0
230
-1.0
100
AcDbArc
 50
226.5674634422088
 51
313.4325365577911
  0
ARC
  5
8A3A
330
89F2
100
AcDbEntity
  8
0
100
AcDbCircle
 10
0.0
 20
-113.9999999999999
 30
0.0
 40
5.5
210
0.0
220
0.0
230
-1.0
100
AcDbArc
 50
0.0
 51
180.0
  0
LINE
  5
8A3B
330
89F2
100
AcDbEntity
  8
0
100
AcDbLine
 10
0.0
 20
-109.3811978464829
 30
0.0
 11
4.0
 21
-111.6905989232414
 31
0.0
  0
LINE
  5
8A3C
330
89F2
100
AcDbEntity
  8
0
100
AcDbLine
 10
4.0
 20
-116.3094010767584
 30
0.0
 11
0.0
 21
-118.6188021535167
 31
0.0
  0
LINE
  5
8A3D
330
89F2
100
AcDbEntity
  8
0
100
AcDbLine
 10
-8.999999999999943
 20
-114.0
 30
0.0
 11
9.0
 21
-114.0
 31
0.0
  0
LINE
  5
8A3E
330
89F2
100
AcDbEntity
  8
0
100
AcDbLine
 10
-4.0
 20
-111.6905989232414
 30
0.0
 11
0.0
 21
-109.3811978464829
 31
0.0
  0
LINE
  5
8A3F
330
89F2
100
AcDbEntity
  8
0
100
AcDbLine
 10
-4.0
 20
-116.3094010767584
 30
0.0
 11
-4.0
 21
-111.6905989232414
 31
0.0
  0
LINE
  5
8A40
330
89F2
100
AcDbEntity
  8
0
100
AcDbLine
 10
0.0
 20
-118.6188021535167
 30
0.0
 11
-4.0
 21
-116.3094010767584
 31
0.0
  0
LINE
  5
8A41
330
89F2
100
AcDbEntity
  8
0
100
AcDbLine
 10
0.0
 20
-122.9999999999999
 30
0.0
 11
0.0
 21
-105.0
 31
0.0
  0
LINE
  5
8A42
330
89F2
100
AcDbEntity
  8
0
100
AcDbLine
 10
4.0
 20
-111.6905989232414
 30
0.0
 11
4.0
 21
-116.3094010767584
 31
0.0
  0
LINE
  5
8A43
330
89F2
100
AcDbEntity
  8
0
100
AcDbLine
 10
22.5
 20
-98.99999999999998
 30
0.0
 11
22.5
 21
-114.9999999999999
 31
0.0
  0
ARC
  5
8A44
330
89F2
100
AcDbEntity
  8
0
100
AcDbCircle
 10
-45.0
 20
-113.9999999999999
 30
0.0
 40
8.0
210
0.0
220
0.0
230
-1.0
100
AcDbArc
 50
226.5674634422088
 51
313.4325365577911
  0
ARC
  5
8A45
330
89F2
100
AcDbEntity
  8
0
100
AcDbCircle
 10
-45.0
 20
-113.9999999999999
 30
0.0
 40
5.5
210
0.0
220
0.0
230
-1.0
100
AcDbArc
 50
0.0
 51
180.0
  0
LINE
  5
8A46
330
89F2
100
AcDbEntity
  8
0
100
AcDbLine
 10
49.0
 20
-111.6905989232414
 30
0.0
 11
49.0
 21
-116.3094010767584
 31
0.0
  0
LINE
  5
8A47
330
89F2
100
AcDbEntity
  8
0
100
AcDbLine
 10
45.0
 20
-109.3811978464829
 30
0.0
 11
49.0
 21
-111.6905989232414
 31
0.0
  0
LINE
  5
8A48
330
89F2
100
AcDbEntity
  8
0
100
AcDbLine
 10
41.0
 20
-111.6905989232414
 30
0.0
 11
45.0
 21
-109.3811978464829
 31
0.0
  0
LINE
  5
8A49
330
89F2
100
AcDbEntity
  8
0
100
AcDbLine
 10
41.0
 20
-116.3094010767584
 30
0.0
 11
41.0
 21
-111.6905989232414
 31
0.0
  0
LINE
  5
8A4A
330
89F2
100
AcDbEntity
  8
0
100
AcDbLine
 10
45.0
 20
-118.6188021535167
 30
0.0
 11
41.0
 21
-116.3094010767584
 31
0.0
  0
LINE
  5
8A4B
330
89F2
100
AcDbEntity
  8
0
100
AcDbLine
 10
49.0
 20
-116.3094010767584
 30
0.0
 11
45.0
 21
-118.6188021535167
 31
0.0
  0
LINE
  5
8A4C
330
89F2
100
AcDbEntity
  8
0
100
AcDbLine
 10
45.0
 20
-122.9999999999999
 30
0.0
 11
45.0
 21
-105.0
 31
0.0
  0
LINE
  5
8A4D
330
89F2
100
AcDbEntity
  8
0
100
AcDbLine
 10
19.0
 20
-40.44999999999999
 30
0.0
 11
24.30000000000001
 21
-40.44999999999999
 31
0.0
  0
LINE
  5
8A4E
330
89F2
100
AcDbEntity
  8
0
100
AcDbLine
 10
81.00000000000013
 20
-114.0
 30
0.0
 11
99.0
 21
-114.0
 31
0.0
  0
ARC
  5
8A4F
330
89F2
100
AcDbEntity
  8
0
100
AcDbCircle
 10
-90.0
 20
-113.9999999999999
 30
0.0
 40
8.0
210
0.0
220
0.0
230
-1.0
100
AcDbArc
 50
226.5674634422088
 51
313.4325365577911
  0
ARC
  5
8A50
330
89F2
100
AcDbEntity
  8
0
100
AcDbCircle
 10
-90.0
 20
-113.9999999999999
 30
0.0
 40
5.5
210
0.0
220
0.0
230
-1.0
100
AcDbArc
 50
0.0
 51
180.0
  0
LINE
  5
8A51
330
89F2
100
AcDbEntity
  8
0
100
AcDbLine
 10
94.0
 20
-111.6905989232414
 30
0.0
 11
94.0
 21
-116.3094010767584
 31
0.0
  0
LINE
  5
8A52
330
89F2
100
AcDbEntity
  8
0
100
AcDbLine
 10
90.0
 20
-109.3811978464829
 30
0.0
 11
94.0
 21
-111.6905989232414
 31
0.0
  0
LINE
  5
8A53
330
89F2
100
AcDbEntity
  8
0
100
AcDbLine
 10
86.0
 20
-111.6905989232414
 30
0.0
 11
90.0
 21
-109.3811978464829
 31
0.0
  0
LINE
  5
8A54
330
89F2
100
AcDbEntity
  8
0
100
AcDbLine
 10
86.0
 20
-116.3094010767584
 30
0.0
 11
86.0
 21
-111.6905989232414
 31
0.0
  0
LINE
  5
8A55
330
89F2
100
AcDbEntity
  8
0
100
AcDbLine
 10
90.0
 20
-118.6188021535167
 30
0.0
 11
86.0
 21
-116.3094010767584
 31
0.0
  0
LINE
  5
8A56
330
89F2
100
AcDbEntity
  8
0
100
AcDbLine
 10
94.0
 20
-116.3094010767584
 30
0.0
 11
90.0
 21
-118.6188021535167
 31
0.0
  0
LINE
  5
8A57
330
89F2
100
AcDbEntity
  8
0
100
AcDbLine
 10
90.0
 20
-122.9999999999999
 30
0.0
 11
90.0
 21
-105.0
 31
0.0
  0
ARC
  5
8A58
330
89F2
100
AcDbEntity
  8
0
100
AcDbCircle
 10
53.0
 20
-39.99999999999992
 30
0.0
 40
5.0
100
AcDbArc
 50
270.0
 51
0.0
  0
LINE
  5
8A59
330
89F2
100
AcDbEntity
  8
0
100
AcDbLine
 10
18.0
 20
-31.0
 30
0.0
 11
18.00000000000005
 21
31.0
 31
0.0
  0
LINE
  5
8A5A
330
89F2
100
AcDbEntity
  8
0
100
AcDbLine
 10
19.0
 20
-33.85000000000001
 30
0.0
 11
24.30000000000001
 21
-33.85000000000001
 31
0.0
  0
LINE
  5
8A5B
330
89F2
100
AcDbEntity
  8
0
100
AcDbLine
 10
17.00000000000005
 20
17.03370272535232
 30
0.0
 11
17.00000000000005
 21
39.3326441170422
 31
0.0
  0
LINE
  5
8A5C
330
89F2
100
AcDbEntity
  8
0
100
AcDbLine
 10
18.0
 20
31.0
 30
0.0
 11
17.00000000000005
 21
31.0
 31
0.0
  0
ARC
  5
8A5D
330
89F2
100
AcDbEntity
  8
0
100
AcDbCircle
 10
53.0
 20
40.0
 30
0.0
 40
5.0
100
AcDbArc
 50
0.0
 51
90.0
  0
LINE
  5
8A5E
330
89F2
100
AcDbEntity
  8
0
100
AcDbLine
 10
36.00000000000003
 20
114.0000000000001
 30
0.0
 11
54.0
 21
114.0000000000001
 31
0.0
  0
LINE
  5
8A5F
330
89F2
100
AcDbEntity
  8
0
100
AcDbLine
 10
22.5
 20
115.0
 30
0.0
 11
22.5
 21
99.0
 31
0.0
  0
CIRCLE
  5
8A60
330
89F2
100
AcDbEntity
  8
0
100
AcDbCircle
 10
-22.5
 20
107.0
 30
0.0
 40
4.0
210
0.0
220
0.0
230
-1.0
  0
LINE
  5
8A61
330
89F2
100
AcDbEntity
  8
0
100
AcDbLine
 10
30.5
 20
107.0
 30
0.0
 11
14.5
 21
107.0
 31
0.0
  0
LINE
  5
8A62
330
89F2
100
AcDbEntity
  8
0
100
AcDbLine
 10
-5.5
 20
114.0
 30
0.0
 11
-5.5
 21
130.0
 31
0.0
  0
LINE
  5
8A63
330
89F2
100
AcDbEntity
  8
0
100
AcDbLine
 10
5.5
 20
114.0
 30
0.0
 11
5.5
 21
130.0
 31
0.0
  0
LINE
  5
8A64
330
89F2
100
AcDbEntity
  8
0
100
AcDbLine
 10
0.0
 20
105.0000000000002
 30
0.0
 11
0.0
 21
123.0000000000001
 31
0.0
  0
ARC
  5
8A65
330
89F2
100
AcDbEntity
  8
0
100
AcDbCircle
 10
0.0
 20
114.0
 30
0.0
 40
8.0
100
AcDbArc
 50
46.56746344220897
 51
133.4325365577909
  0
ARC
  5
8A66
330
89F2
100
AcDbEntity
  8
0
100
AcDbCircle
 10
0.0
 20
114.0
 30
0.0
 40
5.5
100
AcDbArc
 50
180.0
 51
0.0
  0
LINE
  5
8A67
330
89F2
100
AcDbEntity
  8
0
100
AcDbLine
 10
0.0
 20
109.3811978464831
 30
0.0
 11
4.0
 21
111.6905989232414
 31
0.0
  0
LINE
  5
8A68
330
89F2
100
AcDbEntity
  8
0
100
AcDbLine
 10
4.0
 20
116.3094010767585
 30
0.0
 11
0.0
 21
118.6188021535169
 31
0.0
  0
LINE
  5
8A69
330
89F2
100
AcDbEntity
  8
0
100
AcDbLine
 10
-8.999999999999943
 20
114.0000000000001
 30
0.0
 11
9.0
 21
114.0000000000001
 31
0.0
  0
LINE
  5
8A6A
330
89F2
100
AcDbEntity
  8
0
100
AcDbLine
 10
-4.0
 20
111.6905989232414
 30
0.0
 11
0.0
 21
109.3811978464831
 31
0.0
  0
LINE
  5
8A6B
330
89F2
100
AcDbEntity
  8
0
100
AcDbLine
 10
-4.0
 20
116.3094010767585
 30
0.0
 11
-4.0
 21
111.6905989232414
 31
0.0
  0
LINE
  5
8A6C
330
89F2
100
AcDbEntity
  8
0
100
AcDbLine
 10
0.0
 20
118.6188021535169
 30
0.0
 11
-4.0
 21
116.3094010767585
 31
0.0
  0
LINE
  5
8A6D
330
89F2
100
AcDbEntity
  8
0
100
AcDbLine
 10
4.0
 20
111.6905989232414
 30
0.0
 11
4.0
 21
116.3094010767585
 31
0.0
  0
LINE
  5
8A6E
330
89F2
100
AcDbEntity
  8
0
100
AcDbLine
 10
50.5
 20
114.0
 30
0.0
 11
50.5
 21
130.0
 31
0.0
  0
LINE
  5
8A6F
330
89F2
100
AcDbEntity
  8
0
100
AcDbLine
 10
39.5
 20
114.0
 30
0.0
 11
39.5
 21
130.0
 31
0.0
  0
LINE
  5
8A70
330
89F2
100
AcDbEntity
  8
0
100
AcDbLine
 10
45.0
 20
105.0000000000002
 30
0.0
 11
45.0
 21
123.0000000000001
 31
0.0
  0
ARC
  5
8A71
330
89F2
100
AcDbEntity
  8
0
100
AcDbCircle
 10
45.0
 20
114.0
 30
0.0
 40
8.0
100
AcDbArc
 50
46.56746344220897
 51
133.4325365577909
  0
ARC
  5
8A72
330
89F2
100
AcDbEntity
  8
0
100
AcDbCircle
 10
45.0
 20
114.0
 30
0.0
 40
5.5
100
AcDbArc
 50
180.0
 51
0.0
  0
LINE
  5
8A73
330
89F2
100
AcDbEntity
  8
0
100
AcDbLine
 10
49.0
 20
111.6905989232414
 30
0.0
 11
49.0
 21
116.3094010767585
 31
0.0
  0
LINE
  5
8A74
330
89F2
100
AcDbEntity
  8
0
100
AcDbLine
 10
45.0
 20
109.3811978464831
 30
0.0
 11
49.0
 21
111.6905989232414
 31
0.0
  0
LINE
  5
8A75
330
89F2
100
AcDbEntity
  8
0
100
AcDbLine
 10
41.0
 20
111.6905989232414
 30
0.0
 11
45.0
 21
109.3811978464831
 31
0.0
  0
LINE
  5
8A76
330
89F2
100
AcDbEntity
  8
0
100
AcDbLine
 10
41.0
 20
116.3094010767585
 30
0.0
 11
41.0
 21
111.6905989232414
 31
0.0
  0
LINE
  5
8A77
330
89F2
100
AcDbEntity
  8
0
100
AcDbLine
 10
45.0
 20
118.6188021535169
 30
0.0
 11
41.0
 21
116.3094010767585
 31
0.0
  0
LINE
  5
8A78
330
89F2
100
AcDbEntity
  8
0
100
AcDbLine
 10
49.0
 20
116.3094010767585
 30
0.0
 11
45.0
 21
118.6188021535169
 31
0.0
  0
CIRCLE
  5
8A79
330
89F2
100
AcDbEntity
  8
0
100
AcDbCircle
 10
90.0
 20
86.75
 30
0.0
 40
8.0
  0
LINE
  5
8A7A
330
89F2
100
AcDbEntity
  8
0
100
AcDbLine
 10
88.65724183037958
 20
87.79632912690535
 30
0.0
 11
89.37527451365804
 21
88.51436181018376
 31
0.0
  0
LINE
  5
8A7B
330
89F2
100
AcDbEntity
  8
0
100
AcDbLine
 10
92.86396103067852
 20
81.75
 30
0.0
 11
93.49999999999999
 21
82.38603896932152
 31
0.0
  0
LINE
  5
8A7C
330
89F2
100
AcDbEntity
  8
0
100
AcDbLine
 10
86.5
 20
91.64949493661087
 30
0.0
 11
86.60050506338917
 21
91.75
 31
0.0
  0
LINE
  5
8A7D
330
89F2
100
AcDbEntity
  8
0
100
AcDbLine
 10
86.5
 20
85.28553390593248
 30
0.0
 11
87.5
 21
86.28553390593248
 31
0.0
  0
LINE
  5
8A7E
330
89F2
100
AcDbEntity
  8
0
100
AcDbLine
 10
86.5
 20
84.22487373415277
 30
0.0
 11
87.5
 21
85.22487373415277
 31
0.0
  0
LINE
  5
8A7F
330
89F2
100
AcDbEntity
  8
0
100
AcDbLine
 10
86.5
 20
81.75
 30
0.0
 11
87.5
 21
81.75
 31
0.0
  0
LINE
  5
8A80
330
89F2
100
AcDbEntity
  8
0
100
AcDbLine
 10
87.6381761751403
 20
89.25213720581878
 30
0.0
 11
88.35620885841876
 21
89.97016988909724
 31
0.0
  0
LINE
  5
8A81
330
89F2
100
AcDbEntity
  8
0
100
AcDbLine
 10
89.82188829351036
 20
86.13254846529008
 30
0.0
 11
90.5399209767887
 21
86.85058114856843
 31
0.0
  0
LINE
  5
8A82
330
89F2
100
AcDbEntity
  8
0
100
AcDbLine
 10
92.00560041188044
 20
83.01295972476152
 30
0.0
 11
93.49999999999999
 21
84.50735931288113
 31
0.0
  0
LINE
  5
8A83
330
89F2
100
AcDbEntity
  8
0
100
AcDbLine
 10
91.42327718031493
 20
83.84485005556916
 30
0.0
 11
92.14130986359341
 21
84.56288273884752
 31
0.0
  0
LINE
  5
8A84
330
89F2
100
AcDbEntity
  8
0
100
AcDbLine
 10
86.5
 20
91.75
 30
0.0
 11
87.11032778078665
 21
91.75
 31
0.0
  0
LINE
  5
8A85
330
89F2
100
AcDbEntity
  8
0
100
AcDbLine
 10
87.78375698303159
 20
89.04416462311678
 30
0.0
 11
88.50178966631006
 21
89.76219730639536
 31
0.0
  0
LINE
  5
8A86
330
89F2
100
AcDbEntity
  8
0
100
AcDbLine
 10
93.21751442127174
 20
81.75
 30
0.0
 11
93.49999999999999
 21
82.0324855787283
 31
0.0
  0
LINE
  5
8A87
330
89F2
100
AcDbEntity
  8
0
100
AcDbLine
 10
92.5
 20
85.98223304703385
 30
0.0
 11
93.49999999999999
 21
86.98223304703384
 31
0.0
  0
LINE
  5
8A88
330
89F2
100
AcDbEntity
  8
0
100
AcDbLine
 10
90.84095394874964
 20
84.67674038637671
 30
0.0
 11
91.55898663202801
 21
85.39477306965517
 31
0.0
  0
LINE
  5
8A89
330
89F2
100
AcDbEntity
  8
0
100
AcDbLine
 10
86.5
 20
81.75
 30
0.0
 11
86.5
 21
91.75
 31
0.0
  0
LINE
  5
8A8A
330
89F2
100
AcDbEntity
  8
0
100
AcDbLine
 10
88.80282263827098
 20
87.58835654420343
 30
0.0
 11
89.52085532154931
 21
88.30638922748191
 31
0.0
  0
LINE
  5
8A8B
330
89F2
100
AcDbEntity
  8
0
100
AcDbLine
 10
86.85355339059322
 20
81.75
 30
0.0
 11
87.5
 21
82.39644660940674
 31
0.0
  0
LINE
  5
8A8C
330
89F2
100
AcDbEntity
  8
0
100
AcDbLine
 10
86.5
 20
85.63908729652581
 30
0.0
 11
87.5
 21
86.63908729652581
 31
0.0
  0
LINE
  5
8A8D
330
89F2
100
AcDbEntity
  8
0
100
AcDbLine
 10
87.11032778078665
 20
91.75
 30
0.0
 11
92.5
 21
84.05046825826666
 31
0.0
  0
LINE
  5
8A8E
330
89F2
100
AcDbEntity
  8
0
100
AcDbLine
 10
92.5
 20
87.04289321881358
 30
0.0
 11
93.49999999999999
 21
88.04289321881357
 31
0.0
  0
LINE
  5
8A8F
330
89F2
100
AcDbEntity
  8
0
100
AcDbLine
 10
90.40421152507565
 20
85.30065813448244
 30
0.0
 11
91.12224420835413
 21
86.01869081776092
 31
0.0
  0
LINE
  5
8A90
330
89F2
100
AcDbEntity
  8
0
100
AcDbLine
 10
92.58792364344571
 20
82.18106939395386
 30
0.0
 11
93.49999999999999
 21
83.09314575050803
 31
0.0
  0
LINE
  5
8A91
330
89F2
100
AcDbEntity
  8
0
100
AcDbLine
 10
86.5
 20
83.16421356237304
 30
0.0
 11
87.5
 21
84.16421356237306
 31
0.0
  0
LINE
  5
8A92
330
89F2
100
AcDbEntity
  8
0
100
AcDbLine
 10
86.5
 20
81.75
 30
0.0
 11
87.5
 21
82.75
 31
0.0
  0
LINE
  5
8A93
330
89F2
100
AcDbEntity
  8
0
100
AcDbLine
 10
89.38514586983636
 20
86.75646621339586
 30
0.0
 11
90.10317855311472
 21
87.47449889667427
 31
0.0
  0
LINE
  5
8A94
330
89F2
100
AcDbEntity
  8
0
100
AcDbLine
 10
91.5688579882063
 20
83.63687747286713
 30
0.0
 11
92.28689067148479
 21
84.35491015614553
 31
0.0
  0
LINE
  5
8A95
330
89F2
100
AcDbEntity
  8
0
100
AcDbLine
 10
92.5
 20
84.56801948466079
 30
0.0
 11
93.49999999999999
 21
85.56801948466079
 31
0.0
  0
LINE
  5
8A96
330
89F2
100
AcDbEntity
  8
0
100
AcDbLine
 10
92.5
 20
90.93198051533944
 30
0.0
 11
93.31801948466068
 21
91.75
 31
0.0
  0
LINE
  5
8A97
330
89F2
100
AcDbEntity
  8
0
100
AcDbLine
 10
90.98653475664082
 20
84.46876780367478
 30
0.0
 11
91.70456743991941
 21
85.18680048695319
 31
0.0
  0
LINE
  5
8A98
330
89F2
100
AcDbEntity
  8
0
100
AcDbLine
 10
88.51166102248829
 20
88.00430170960732
 30
0.0
 11
89.22969370576664
 21
88.72233439288574
 31
0.0
  0
LINE
  5
8A99
330
89F2
100
AcDbEntity
  8
0
100
AcDbLine
 10
86.5
 20
84.57842712474604
 30
0.0
 11
87.5
 21
85.57842712474604
 31
0.0
  0
LINE
  5
8A9A
330
89F2
100
AcDbEntity
  8
0
100
AcDbLine
 10
92.5
 20
88.10355339059317
 30
0.0
 11
93.49999999999999
 21
89.10355339059314
 31
0.0
  0
LINE
  5
8A9B
330
89F2
100
AcDbEntity
  8
0
100
AcDbLine
 10
89.96746910140165
 20
85.92457588258827
 30
0.0
 11
90.68550178467999
 21
86.64260856586663
 31
0.0
  0
LINE
  5
8A9C
330
89F2
100
AcDbEntity
  8
0
100
AcDbLine
 10
92.15118121977171
 20
82.80498714205947
 30
0.0
 11
93.49999999999999
 21
84.15380592228775
 31
0.0
  0
LINE
  5
8A9D
330
89F2
100
AcDbEntity
  8
0
100
AcDbLine
 10
86.5
 20
88.46751442127169
 30
0.0
 11
88.21062805052747
 21
90.17814247179916
 31
0.0
  0
LINE
  5
8A9E
330
89F2
100
AcDbEntity
  8
0
100
AcDbLine
 10
92.5
 20
88.45710678118662
 30
0.0
 11
93.49999999999999
 21
89.45710678118663
 31
0.0
  0
LINE
  5
8A9F
330
89F2
100
AcDbEntity
  8
0
100
AcDbLine
 10
92.5
 20
89.51776695296633
 30
0.0
 11
93.49999999999999
 21
90.51776695296631
 31
0.0
  0
LINE
  5
8AA0
330
89F2
100
AcDbEntity
  8
0
100
AcDbLine
 10
86.5
 20
90.94238815542441
 30
0.0
 11
87.19156239528798
 21
91.63395055071235
 31
0.0
  0
LINE
  5
8AA1
330
89F2
100
AcDbEntity
  8
0
100
AcDbLine
 10
92.5
 20
85.62867965644057
 30
0.0
 11
93.49999999999999
 21
86.62867965644057
 31
0.0
  0
LINE
  5
8AA2
330
89F2
100
AcDbEntity
  8
0
100
AcDbLine
 10
86.5
 20
91.29594154601781
 30
0.0
 11
86.95405845398239
 21
91.75
 31
0.0
  0
LINE
  5
8AA3
330
89F2
100
AcDbEntity
  8
0
100
AcDbLine
 10
86.5
 20
88.11396103067847
 30
0.0
 11
87.5
 21
89.11396103067847
 31
0.0
  0
LINE
  5
8AA4
330
89F2
100
AcDbEntity
  8
0
100
AcDbLine
 10
92.5
 20
89.87132034355948
 30
0.0
 11
93.49999999999999
 21
90.87132034355947
 31
0.0
  0
LINE
  5
8AA5
330
89F2
100
AcDbEntity
  8
0
100
AcDbLine
 10
86.5
 20
90.58883476483122
 30
0.0
 11
87.33714320317927
 21
91.4259779680105
 31
0.0
  0
LINE
  5
8AA6
330
89F2
100
AcDbEntity
  8
0
100
AcDbLine
 10
86.5
 20
83.87132034355948
 30
0.0
 11
87.5
 21
84.87132034355949
 31
0.0
  0
LINE
  5
8AA7
330
89F2
100
AcDbEntity
  8
0
100
AcDbLine
 10
91.27769637242376
 20
84.05282263827102
 30
0.0
 11
91.9957290557021
 21
84.77085532154928
 31
0.0
  0
LINE
  5
8AA8
330
89F2
100
AcDbEntity
  8
0
100
AcDbLine
 10
90.25863071718424
 20
85.50863071718437
 30
0.0
 11
90.97666340046272
 21
86.22666340046276
 31
0.0
  0
LINE
  5
8AA9
330
89F2
100
AcDbEntity
  8
0
100
AcDbLine
 10
92.44234283555432
 20
82.38904197665574
 30
0.0
 11
93.49999999999999
 21
83.44669914110125
 31
0.0
  0
LINE
  5
8AAA
330
89F2
100
AcDbEntity
  8
0
100
AcDbLine
 10
86.5
 20
89.1746212024582
 30
0.0
 11
87.91946643474465
 21
90.59408763720293
 31
0.0
  0
LINE
  5
8AAB
330
89F2
100
AcDbEntity
  8
0
100
AcDbLine
 10
86.5
 20
87.05330085889869
 30
0.0
 11
87.5
 21
88.05330085889869
 31
0.0
  0
LINE
  5
8AAC
330
89F2
100
AcDbEntity
  8
0
100
AcDbLine
 10
86.5
 20
82.81066017177977
 30
0.0
 11
87.5
 21
83.81066017177976
 31
0.0
  0
LINE
  5
8AAD
330
89F2
100
AcDbEntity
  8
0
100
AcDbLine
 10
89.23956506194498
 20
86.96443879609779
 30
0.0
 11
89.95759774522317
 21
87.68247147937614
 31
0.0
  0
LINE
  5
8AAE
330
89F2
100
AcDbEntity
  8
0
100
AcDbLine
 10
86.5
 20
86.69974746830552
 30
0.0
 11
87.5
 21
87.69974746830554
 31
0.0
  0
LINE
  5
8AAF
330
89F2
100
AcDbEntity
  8
0
100
AcDbLine
 10
93.49999999999999
 20
81.75
 30
0.0
 11
93.49999999999999
 21
91.75
 31
0.0
  0
LINE
  5
8AB0
330
89F2
100
AcDbEntity
  8
0
100
AcDbLine
 10
88.2204994067057
 20
88.42024687501112
 30
0.0
 11
88.93853208998406
 21
89.13827955828947
 31
0.0
  0
LINE
  5
8AB1
330
89F2
100
AcDbEntity
  8
0
100
AcDbLine
 10
86.5
 20
82.10355339059328
 30
0.0
 11
87.5
 21
83.10355339059325
 31
0.0
  0
LINE
  5
8AB2
330
89F2
100
AcDbEntity
  8
0
100
AcDbLine
 10
92.5
 20
90.57842712474606
 30
0.0
 11
93.49999999999999
 21
91.57842712474606
 31
0.0
  0
LINE
  5
8AB3
330
89F2
100
AcDbEntity
  8
0
100
AcDbLine
 10
92.5
 20
91.75
 30
0.0
 11
93.49999999999999
 21
91.75
 31
0.0
  0
LINE
  5
8AB4
330
89F2
100
AcDbEntity
  8
0
100
AcDbLine
 10
88.94840344616225
 20
87.38038396150152
 30
0.0
 11
89.66643612944073
 21
88.09841664478005
 31
0.0
  0
LINE
  5
8AB5
330
89F2
100
AcDbEntity
  8
0
100
AcDbLine
 10
87.20710678118654
 20
81.75
 30
0.0
 11
87.5
 21
82.04289321881356
 31
0.0
  0
LINE
  5
8AB6
330
89F2
100
AcDbEntity
  8
0
100
AcDbLine
 10
86.5
 20
89.52817459305149
 30
0.0
 11
87.77388562685326
 21
90.80206021990475
 31
0.0
  0
LINE
  5
8AB7
330
89F2
100
AcDbEntity
  8
0
100
AcDbLine
 10
86.5
 20
85.99264068711899
 30
0.0
 11
87.5
 21
86.99264068711896
 31
0.0
  0
LINE
  5
8AB8
330
89F2
100
AcDbEntity
  8
0
100
AcDbLine
 10
87.5
 20
89.44953174173333
 30
0.0
 11
87.5
 21
81.75
 31
0.0
  0
LINE
  5
8AB9
330
89F2
100
AcDbEntity
  8
0
100
AcDbLine
 10
87.5
 20
89.44953174173349
 30
0.0
 11
92.88967221921335
 21
81.75
 31
0.0
  0
LINE
  5
8ABA
330
89F2
100
AcDbEntity
  8
0
100
AcDbLine
 10
92.5
 20
86.6893398282203
 30
0.0
 11
93.49999999999999
 21
87.68933982822026
 31
0.0
  0
LINE
  5
8ABB
330
89F2
100
AcDbEntity
  8
0
100
AcDbLine
 10
90.54979233296696
 20
85.09268555178044
 30
0.0
 11
91.26782501624539
 21
85.81071823505892
 31
0.0
  0
LINE
  5
8ABC
330
89F2
100
AcDbEntity
  8
0
100
AcDbLine
 10
92.73350445133713
 20
81.97309681125188
 30
0.0
 11
93.49999999999999
 21
82.73959235991489
 31
0.0
  0
LINE
  5
8ABD
330
89F2
100
AcDbEntity
  8
0
100
AcDbLine
 10
86.5
 20
89.88172798364473
 30
0.0
 11
87.62830481896207
 21
91.01003280260677
 31
0.0
  0
LINE
  5
8ABE
330
89F2
100
AcDbEntity
  8
0
100
AcDbLine
 10
86.5
 20
83.51776695296633
 30
0.0
 11
87.5
 21
84.51776695296633
 31
0.0
  0
LINE
  5
8ABF
330
89F2
100
AcDbEntity
  8
0
100
AcDbLine
 10
92.5
 20
90.22487373415279
 30
0.0
 11
93.49999999999999
 21
91.22487373415278
 31
0.0
  0
LINE
  5
8AC0
330
89F2
100
AcDbEntity
  8
0
100
AcDbLine
 10
92.5
 20
91.28553390593248
 30
0.0
 11
92.96446609406755
 21
91.75
 31
0.0
  0
LINE
  5
8AC1
330
89F2
100
AcDbEntity
  8
0
100
AcDbLine
 10
92.5
 20
89.16421356237311
 30
0.0
 11
93.49999999999999
 21
90.16421356237312
 31
0.0
  0
LINE
  5
8AC2
330
89F2
100
AcDbEntity
  8
0
100
AcDbLine
 10
89.53072667772778
 20
86.54849363069386
 30
0.0
 11
90.24875936100611
 21
87.26652631397232
 31
0.0
  0
LINE
  5
8AC3
330
89F2
100
AcDbEntity
  8
0
100
AcDbLine
 10
92.5
 20
84.92157287525406
 30
0.0
 11
93.49999999999999
 21
85.92157287525408
 31
0.0
  0
LINE
  5
8AC4
330
89F2
100
AcDbEntity
  8
0
100
AcDbLine
 10
91.71443879609773
 20
83.42890489016525
 30
0.0
 11
92.43247147937609
 21
84.14693757344361
 31
0.0
  0
LINE
  5
8AC5
330
89F2
100
AcDbEntity
  8
0
100
AcDbLine
 10
86.5
 20
87.40685424949203
 30
0.0
 11
87.5
 21
88.40685424949203
 31
0.0
  0
LINE
  5
8AC6
330
89F2
100
AcDbEntity
  8
0
100
AcDbLine
 10
91.13211556453235
 20
84.26079522097291
 30
0.0
 11
91.85014824781081
 21
84.9788279042513
 31
0.0
  0
LINE
  5
8AC7
330
89F2
100
AcDbEntity
  8
0
100
AcDbLine
 10
93.49999999999999
 20
81.75
 30
0.0
 11
92.88967221921335
 21
81.75
 31
0.0
  0
LINE
  5
8AC8
330
89F2
100
AcDbEntity
  8
0
100
AcDbLine
 10
88.36608021459698
 20
88.21227429230919
 30
0.0
 11
89.08411289787535
 21
88.93030697558755
 31
0.0
  0
LINE
  5
8AC9
330
89F2
100
AcDbEntity
  8
0
100
AcDbLine
 10
86.5
 20
84.93198051533928
 30
0.0
 11
87.5
 21
85.93198051533926
 31
0.0
  0
LINE
  5
8ACA
330
89F2
100
AcDbEntity
  8
0
100
AcDbLine
 10
92.5
 20
84.05046825826666
 30
0.0
 11
92.5
 21
91.75
 31
0.0
  0
LINE
  5
8ACB
330
89F2
100
AcDbEntity
  8
0
100
AcDbLine
 10
92.5
 20
87.39644660940674
 30
0.0
 11
93.49999999999999
 21
88.39644660940672
 31
0.0
  0
LINE
  5
8ACC
330
89F2
100
AcDbEntity
  8
0
100
AcDbLine
 10
90.11304990929295
 20
85.71660329988622
 30
0.0
 11
90.8310825925715
 21
86.4346359831647
 31
0.0
  0
LINE
  5
8ACD
330
89F2
100
AcDbEntity
  8
0
100
AcDbLine
 10
92.29676202766302
 20
82.59701455935759
 30
0.0
 11
93.49999999999999
 21
83.80025253169462
 31
0.0
  0
LINE
  5
8ACE
330
89F2
100
AcDbEntity
  8
0
100
AcDbLine
 10
86.5
 20
88.82106781186502
 30
0.0
 11
88.06504724263607
 21
90.38611505450104
 31
0.0
  0
LINE
  5
8ACF
330
89F2
100
AcDbEntity
  8
0
100
AcDbLine
 10
86.5
 20
82.45710678118644
 30
0.0
 11
87.5
 21
83.45710678118644
 31
0.0
  0
LINE
  5
8AD0
330
89F2
100
AcDbEntity
  8
0
100
AcDbLine
 10
92.5
 20
87.75
 30
0.0
 11
93.49999999999999
 21
88.75
 31
0.0
  0
LINE
  5
8AD1
330
89F2
100
AcDbEntity
  8
0
100
AcDbLine
 10
88.07491859881428
 20
88.62821945771299
 30
0.0
 11
88.79295128209287
 21
89.34625214099151
 31
0.0
  0
LINE
  5
8AD2
330
89F2
100
AcDbEntity
  8
0
100
AcDbLine
 10
89.09398425405369
 20
87.17241137879964
 30
0.0
 11
89.81201693733202
 21
87.89044406207802
 31
0.0
  0
LINE
  5
8AD3
330
89F2
100
AcDbEntity
  8
0
100
AcDbLine
 10
86.5
 20
86.34619407771229
 30
0.0
 11
87.5
 21
87.34619407771232
 31
0.0
  0
LINE
  5
8AD4
330
89F2
100
AcDbEntity
  8
0
100
AcDbLine
 10
92.5
 20
86.33578643762712
 30
0.0
 11
93.49999999999999
 21
87.33578643762712
 31
0.0
  0
LINE
  5
8AD5
330
89F2
100
AcDbEntity
  8
0
100
AcDbLine
 10
90.69537314085836
 20
84.88471296907867
 30
0.0
 11
91.4134058241367
 21
85.60274565235705
 31
0.0
  0
LINE
  5
8AD6
330
89F2
100
AcDbEntity
  8
0
100
AcDbLine
 10
86.5
 20
90.23528137423808
 30
0.0
 11
87.48272401107067
 21
91.21800538530862
 31
0.0
  0
LINE
  5
8AD7
330
89F2
100
AcDbEntity
  8
0
100
AcDbLine
 10
92.5
 20
88.81066017177976
 30
0.0
 11
93.49999999999999
 21
89.81066017177971
 31
0.0
  0
LINE
  5
8AD8
330
89F2
100
AcDbEntity
  8
0
100
AcDbLine
 10
92.5
 20
84.21446609406752
 30
0.0
 11
93.49999999999999
 21
85.21446609406751
 31
0.0
  0
LINE
  5
8AD9
330
89F2
100
AcDbEntity
  8
0
100
AcDbLine
 10
89.67630748561907
 20
86.34052104799208
 30
0.0
 11
90.39434016889741
 21
87.05855373127041
 31
0.0
  0
LINE
  5
8ADA
330
89F2
100
AcDbEntity
  8
0
100
AcDbLine
 10
91.86001960398902
 20
83.22093230746324
 30
0.0
 11
93.49999999999999
 21
84.86091270347435
 31
0.0
  0
LINE
  5
8ADB
330
89F2
100
AcDbEntity
  8
0
100
AcDbLine
 10
87.92933779092289
 20
88.83619204041494
 30
0.0
 11
88.64737047420133
 21
89.55422472369333
 31
0.0
  0
LINE
  5
8ADC
330
89F2
100
AcDbEntity
  8
0
100
AcDbLine
 10
86.5
 20
87.76040764008532
 30
0.0
 11
87.5
 21
88.76040764008529
 31
0.0
  0
LINE
  5
8ADD
330
89F2
100
AcDbEntity
  8
0
100
AcDbLine
 10
92.5
 20
91.63908729652581
 30
0.0
 11
92.61091270347412
 21
91.75
 31
0.0
  0
LINE
  5
8ADE
330
89F2
100
AcDbEntity
  8
0
100
AcDbLine
 10
92.5
 20
85.27512626584723
 30
0.0
 11
93.49999999999999
 21
86.27512626584723
 31
0.0
  0
LINE
  5
8ADF
330
89F2
100
AcDbEntity
  8
0
100
AcDbLine
 10
81.00000000000013
 20
114.0000000000001
 30
0.0
 11
99.0
 21
114.0000000000001
 31
0.0
  0
LINE
  5
8AE0
330
89F2
100
AcDbEntity
  8
0
100
AcDbLine
 10
84.50000000000001
 20
114.0
 30
0.0
 11
84.50000000000001
 21
130.0
 31
0.0
  0
LINE
  5
8AE1
330
89F2
100
AcDbEntity
  8
0
100
AcDbLine
 10
95.5
 20
114.0
 30
0.0
 11
95.5
 21
130.0
 31
0.0
  0
LINE
  5
8AE2
330
89F2
100
AcDbEntity
  8
0
100
AcDbLine
 10
90.0
 20
105.0000000000002
 30
0.0
 11
90.0
 21
123.0000000000001
 31
0.0
  0
ARC
  5
8AE3
330
89F2
100
AcDbEntity
  8
0
100
AcDbCircle
 10
90.0
 20
114.0
 30
0.0
 40
8.0
100
AcDbArc
 50
46.56746344220897
 51
133.4325365577909
  0
ARC
  5
8AE4
330
89F2
100
AcDbEntity
  8
0
100
AcDbCircle
 10
90.0
 20
114.0
 30
0.0
 40
5.5
100
AcDbArc
 50
180.0
 51
0.0
  0
LINE
  5
8AE5
330
89F2
100
AcDbEntity
  8
0
100
AcDbLine
 10
94.0
 20
111.6905989232414
 30
0.0
 11
94.0
 21
116.3094010767585
 31
0.0
  0
LINE
  5
8AE6
330
89F2
100
AcDbEntity
  8
0
100
AcDbLine
 10
90.0
 20
109.3811978464831
 30
0.0
 11
94.0
 21
111.6905989232414
 31
0.0
  0
LINE
  5
8AE7
330
89F2
100
AcDbEntity
  8
0
100
AcDbLine
 10
86.0
 20
111.6905989232414
 30
0.0
 11
90.0
 21
109.3811978464831
 31
0.0
  0
LINE
  5
8AE8
330
89F2
100
AcDbEntity
  8
0
100
AcDbLine
 10
86.0
 20
116.3094010767585
 30
0.0
 11
86.0
 21
111.6905989232414
 31
0.0
  0
LINE
  5
8AE9
330
89F2
100
AcDbEntity
  8
0
100
AcDbLine
 10
90.0
 20
118.6188021535169
 30
0.0
 11
86.0
 21
116.3094010767585
 31
0.0
  0
LINE
  5
8AEA
330
89F2
100
AcDbEntity
  8
0
100
AcDbLine
 10
94.0
 20
116.3094010767585
 30
0.0
 11
90.0
 21
118.6188021535169
 31
0.0
  0
LINE
  5
8AEB
330
89F2
100
AcDbEntity
  8
0
100
AcDbLine
 10
-24.5
 20
239.9999999999999
 30
0.0
 11
-20.5
 21
239.9999999999999
 31
0.0
  0
LINE
  5
8AEC
330
89F2
100
AcDbEntity
  8
0
100
AcDbLine
 10
20.5
 20
239.9999999999999
 30
0.0
 11
24.5
 21
239.9999999999999
 31
0.0
  0
LINE
  5
8AED
330
89F2
100
AcDbEntity
  8
0
100
AcDbLine
 10
65.5
 20
239.9999999999999
 30
0.0
 11
69.5
 21
239.9999999999999
 31
0.0
  0
ENDBLK
  5
8AEF
330
89F2
100
AcDbEntity
  8
0
100
AcDbBlockEnd
  0
BLOCK
  5
8C7B
330
8B4F
100
AcDbEntity
  8
0
100
AcDbBlockBegin
  2
A$C1D942266
 70
     0
 10
0.0
 20
0.0
 30
0.0
  3
A$C1D942266
  1

  0
LINE
  5
8B50
330
8B4F
100
AcDbEntity
  8
1
  6
Continuous
 62
     2
100
AcDbLine
 10
-70.0
 20
-130.0
 30
0.0
 11
-70.0
 21
130.0
 31
0.0
  0
LINE
  5
8B51
330
8B4F
100
AcDbEntity
  8
2
  6
Continuous
 62
     2
100
AcDbLine
 10
-18.0
 20
-31.0
 30
0.0
 11
-18.0
 21
31.0
 31
0.0
  0
LINE
  5
8B52
330
8B4F
100
AcDbEntity
  8
2
  6
Continuous
 62
     2
100
AcDbLine
 10
18.0
 20
-31.0
 30
0.0
 11
18.00000000000011
 21
31.0
 31
0.0
  0
LINE
  5
8B53
330
8B4F
100
AcDbEntity
  8
4
  6
Continuous
 62
     5
100
AcDbLine
 10
0.0
 20
178.5
 30
0.0
 11
0.0
 21
-178.5
 31
0.0
  0
LINE
  5
8B54
330
8B4F
100
AcDbEntity
  8
2
  6
Continuous
 62
     2
100
AcDbLine
 10
-25.4999999999997
 20
-45.0
 30
0.0
 11
-25.49999999999977
 21
45.0
 31
0.0
  0
LINE
  5
8B55
330
8B4F
100
AcDbEntity
  8
2
  6
Continuous
 62
     2
100
AcDbLine
 10
25.49999999999982
 20
-45.0
 30
0.0
 11
25.49999999999988
 21
45.0
 31
0.0
  0
LINE
  5
8B56
330
8B4F
100
AcDbEntity
  8
1
  6
Continuous
 62
     2
100
AcDbLine
 10
-70.0
 20
130.0
 30
0.0
 11
-70.0
 21
-130.0
 31
0.0
  0
LINE
  5
8B57
330
8B4F
100
AcDbEntity
  8
2
  6
Continuous
 62
     2
100
AcDbLine
 10
-58.0
 20
40.0
 30
0.0
 11
-58.0
 21
-40.0
 31
0.0
  0
LINE
  5
8B58
330
8B4F
100
AcDbEntity
  8
1
  6
Continuous
 62
     2
100
AcDbLine
 10
115.0
 20
130.0
 30
0.0
 11
115.0
 21
-130.0
 31
0.0
  0
LINE
  5
8B59
330
8B4F
100
AcDbEntity
  8
2
  6
Continuous
 62
     2
100
AcDbLine
 10
58.0
 20
40.0
 30
0.0
 11
58.0
 21
-40.0
 31
0.0
  0
CIRCLE
  5
8B5A
330
8B4F
100
AcDbEntity
  8
1
  6
Continuous
 62
     5
100
AcDbCircle
 10
7.5
 20
-160.0
 30
0.0
 40
7.0
210
0.0
220
0.0
230
-1.0
  0
LINE
  5
8B5B
330
8B4F
100
AcDbEntity
  8
2
  6
Continuous
 62
     2
100
AcDbLine
 10
18.0
 20
-31.0
 30
0.0
 11
-18.0
 21
-31.0
 31
0.0
  0
LINE
  5
8B5C
330
8B4F
100
AcDbEntity
  8
1
  6
Continuous
 62
     3
100
AcDbLine
 10
-18.5
 20
-160.0
 30
0.0
 11
3.5
 21
-160.0
 31
0.0
  0
LINE
  5
8B5D
330
8B4F
100
AcDbEntity
  8
1
  6
Continuous
 62
     5
100
AcDbLine
 10
-21.49999999999999
 20
-150.0000000000003
 30
0.0
 11
-14.0
 21
-130.0
 31
0.0
  0
LINE
  5
8B5E
330
8B4F
100
AcDbEntity
  8
1
  6
Continuous
 62
     5
100
AcDbLine
 10
-21.49999999999999
 20
-174.5
 30
0.0
 11
6.5
 21
-174.5
 31
0.0
  0
LINE
  5
8B5F
330
8B4F
100
AcDbEntity
  8
1
  6
Continuous
 62
     2
100
AcDbLine
 10
-70.0
 20
-130.0
 30
0.0
 11
115.0
 21
-130.0
 31
0.0
  0
LINE
  5
8B60
330
8B4F
100
AcDbEntity
  8
2
  6
Continuous
 62
     2
100
AcDbLine
 10
-70.0
 20
-51.0
 30
0.0
 11
115.0
 21
-51.0
 31
0.0
  0
LINE
  5
8B61
330
8B4F
100
AcDbEntity
  8
2
  6
Continuous
 62
     2
100
AcDbLine
 10
-53.0
 20
-45.0
 30
0.0
 11
53.0
 21
-45.0
 31
0.0
  0
LINE
  5
8B62
330
8B4F
100
AcDbEntity
  8
1
  6
Continuous
 62
     5
100
AcDbLine
 10
-81.5
 20
-152.0000000000003
 30
0.0
 11
-59.0
 21
-130.0
 31
0.0
  0
LINE
  5
8B63
330
8B4F
100
AcDbEntity
  8
1
  6
Continuous
 62
     5
100
AcDbLine
 10
-81.5
 20
-174.5
 30
0.0
 11
-53.5
 21
-174.5
 31
0.0
  0
LINE
  5
8B64
330
8B4F
100
AcDbEntity
  8
1
  6
Continuous
 62
     5
100
AcDbLine
 10
-81.5
 20
-174.5
 30
0.0
 11
-81.5
 21
-152.0000000000003
 31
0.0
  0
LINE
  5
8B65
330
8B4F
100
AcDbEntity
  8
1
  6
Continuous
 62
     5
100
AcDbLine
 10
-31.0
 20
-130.0
 30
0.0
 11
-53.5
 21
-156.0000000000003
 31
0.0
  0
CIRCLE
  5
8B66
330
8B4F
100
AcDbEntity
  8
1
  6
Continuous
 62
     5
100
AcDbCircle
 10
67.5
 20
-160.0
 30
0.0
 40
7.0
210
0.0
220
0.0
230
-1.0
  0
LINE
  5
8B67
330
8B4F
100
AcDbEntity
  8
1
  6
Continuous
 62
     3
100
AcDbLine
 10
-67.5
 20
-149.0
 30
0.0
 11
-67.5
 21
-171.0
 31
0.0
  0
LINE
  5
8B68
330
8B4F
100
AcDbEntity
  8
1
  6
Continuous
 62
     5
100
AcDbLine
 10
-53.5
 20
-174.5
 30
0.0
 11
-53.5
 21
-156.0000000000003
 31
0.0
  0
LINE
  5
8B69
330
8B4F
100
AcDbEntity
  8
1
  6
Continuous
 62
     3
100
AcDbLine
 10
-78.5
 20
-160.0
 30
0.0
 11
-56.5
 21
-160.0
 31
0.0
  0
LINE
  5
8B6A
330
8B4F
100
AcDbEntity
  8
1
  6
Continuous
 62
     5
100
AcDbLine
 10
-21.49999999999999
 20
-174.5
 30
0.0
 11
-21.49999999999999
 21
-150.0000000000003
 31
0.0
  0
ARC
  5
8B6B
330
8B4F
100
AcDbEntity
  8
1
  6
Continuous
 62
     1
100
AcDbCircle
 10
45.0
 20
-114.0000000000001
 30
0.0
 40
8.0
210
0.0
220
0.0
230
-1.0
100
AcDbArc
 50
226.5674634422111
 51
313.4325365577887
  0
ARC
  5
8B6C
330
8B4F
100
AcDbEntity
  8
1
  6
Continuous
 62
     2
100
AcDbCircle
 10
45.0
 20
-114.0000000000001
 30
0.0
 40
5.5
210
0.0
220
0.0
230
-1.0
100
AcDbArc
 50
0.0
 51
180.0
  0
LINE
  5
8B6D
330
8B4F
100
AcDbEntity
  8
1
  6
Continuous
 62
     1
100
AcDbLine
 10
-49.0
 20
-111.6905989232416
 30
0.0
 11
-45.0
 21
-109.3811978464831
 31
0.0
  0
LINE
  5
8B6E
330
8B4F
100
AcDbEntity
  8
1
  6
Continuous
 62
     1
100
AcDbLine
 10
-45.0
 20
-118.6188021535169
 30
0.0
 11
-49.0
 21
-116.3094010767586
 31
0.0
  0
LINE
  5
8B6F
330
8B4F
100
AcDbEntity
  8
1
  6
Continuous
 62
     2
100
AcDbLine
 10
-50.5
 20
-114.0000000000001
 30
0.0
 11
-50.5
 21
-130.0
 31
0.0
  0
LINE
  5
8B70
330
8B4F
100
AcDbEntity
  8
1
  6
Continuous
 62
     1
100
AcDbLine
 10
-49.0
 20
-116.3094010767586
 30
0.0
 11
-49.0
 21
-111.6905989232416
 31
0.0
  0
LINE
  5
8B71
330
8B4F
100
AcDbEntity
  8
1
  6
Continuous
 62
     2
100
AcDbLine
 10
-39.5
 20
-114.0000000000001
 30
0.0
 11
-39.5
 21
-130.0
 31
0.0
  0
LINE
  5
8B72
330
8B4F
100
AcDbEntity
  8
4
  6
Continuous
 62
     3
100
AcDbLine
 10
-14.5
 20
-107.0
 30
0.0
 11
-30.5
 21
-107.0
 31
0.0
  0
LINE
  5
8B73
330
8B4F
100
AcDbEntity
  8
1
  6
Continuous
 62
     1
100
AcDbLine
 10
-41.0
 20
-111.6905989232416
 30
0.0
 11
-41.0
 21
-116.3094010767586
 31
0.0
  0
LINE
  5
8B74
330
8B4F
100
AcDbEntity
  8
1
  6
Continuous
 62
     1
100
AcDbLine
 10
-45.0
 20
-109.3811978464831
 30
0.0
 11
-41.0
 21
-111.6905989232416
 31
0.0
  0
LINE
  5
8B75
330
8B4F
100
AcDbEntity
  8
1
  6
Continuous
 62
     1
100
AcDbLine
 10
-41.0
 20
-116.3094010767586
 30
0.0
 11
-45.0
 21
-118.6188021535169
 31
0.0
  0
CIRCLE
  5
8B76
330
8B4F
100
AcDbEntity
  8
2
  6
Continuous
 62
     6
100
AcDbCircle
 10
-22.5
 20
-107.0
 30
0.0
 40
4.0
  0
LINE
  5
8B77
330
8B4F
100
AcDbEntity
  8
4
  6
Continuous
 62
     3
100
AcDbLine
 10
-22.5
 20
-99.0
 30
0.0
 11
-22.5
 21
-115.0000000000001
 31
0.0
  0
ARC
  5
8B78
330
8B4F
100
AcDbEntity
  8
1
  6
Continuous
 62
     2
100
AcDbCircle
 10
-53.0
 20
-40.0
 30
0.0
 40
5.0
100
AcDbArc
 50
180.0
 51
270.0
  0
CIRCLE
  5
8B79
330
8B4F
100
AcDbEntity
  8
1
  6
Continuous
 62
     5
100
AcDbCircle
 10
-112.5
 20
-160.0
 30
0.0
 40
7.0
210
0.0
220
0.0
230
-1.0
  0
LINE
  5
8B7A
330
8B4F
100
AcDbEntity
  8
1
  6
Continuous
 62
     3
100
AcDbLine
 10
101.4999999999999
 20
-160.0
 30
0.0
 11
123.5
 21
-160.0
 31
0.0
  0
LINE
  5
8B7B
330
8B4F
100
AcDbEntity
  8
1
  6
Continuous
 62
     5
100
AcDbLine
 10
103.9999999999996
 20
-130.0
 30
0.0
 11
126.5
 21
-152.0000000000003
 31
0.0
  0
LINE
  5
8B7C
330
8B4F
100
AcDbEntity
  8
1
  6
Continuous
 62
     5
100
AcDbLine
 10
98.49999999999994
 20
-174.5
 30
0.0
 11
126.5
 21
-174.5
 31
0.0
  0
CIRCLE
  5
8B7D
330
8B4F
100
AcDbEntity
  8
1
  6
Continuous
 62
     5
100
AcDbCircle
 10
-52.5
 20
-160.0
 30
0.0
 40
7.0
210
0.0
220
0.0
230
-1.0
  0
LINE
  5
8B7E
330
8B4F
100
AcDbEntity
  8
1
  6
Continuous
 62
     3
100
AcDbLine
 10
41.5
 20
-160.0
 30
0.0
 11
63.49999999999994
 21
-160.0
 31
0.0
  0
LINE
  5
8B7F
330
8B4F
100
AcDbEntity
  8
1
  6
Continuous
 62
     5
100
AcDbLine
 10
38.5
 20
-174.5
 30
0.0
 11
66.49999999999995
 21
-174.5
 31
0.0
  0
LINE
  5
8B80
330
8B4F
100
AcDbEntity
  8
1
  6
Continuous
 62
     5
100
AcDbLine
 10
38.5
 20
-150.0000000000003
 30
0.0
 11
31.0
 21
-130.0
 31
0.0
  0
LINE
  5
8B81
330
8B4F
100
AcDbEntity
  8
1
  6
Continuous
 62
     5
100
AcDbLine
 10
14.0
 20
-130.0
 30
0.0
 11
6.5
 21
-150.0000000000003
 31
0.0
  0
LINE
  5
8B82
330
8B4F
100
AcDbEntity
  8
1
  6
Continuous
 62
     3
100
AcDbLine
 10
-7.5
 20
-149.0
 30
0.0
 11
-7.5
 21
-171.0
 31
0.0
  0
LINE
  5
8B83
330
8B4F
100
AcDbEntity
  8
1
  6
Continuous
 62
     5
100
AcDbLine
 10
6.5
 20
-174.5
 30
0.0
 11
6.5
 21
-150.0000000000003
 31
0.0
  0
LINE
  5
8B84
330
8B4F
100
AcDbEntity
  8
1
  6
Continuous
 62
     5
100
AcDbLine
 10
38.5
 20
-174.5
 30
0.0
 11
38.5
 21
-150.0000000000003
 31
0.0
  0
LINE
  5
8B85
330
8B4F
100
AcDbEntity
  8
4
  6
Continuous
 62
     3
100
AcDbLine
 10
30.5
 20
-107.0
 30
0.0
 11
14.5
 21
-107.0
 31
0.0
  0
LINE
  5
8B86
330
8B4F
100
AcDbEntity
  8
1
  6
Continuous
 62
     2
100
AcDbLine
 10
-5.5
 20
-114.0000000000001
 30
0.0
 11
-5.5
 21
-130.0
 31
0.0
  0
LINE
  5
8B87
330
8B4F
100
AcDbEntity
  8
1
  6
Continuous
 62
     2
100
AcDbLine
 10
5.5
 20
-114.0000000000001
 30
0.0
 11
5.5
 21
-130.0
 31
0.0
  0
ARC
  5
8B88
330
8B4F
100
AcDbEntity
  8
1
  6
Continuous
 62
     1
100
AcDbCircle
 10
0.0
 20
-114.0000000000001
 30
0.0
 40
8.0
210
0.0
220
0.0
230
-1.0
100
AcDbArc
 50
226.5674634422111
 51
313.4325365577887
  0
ARC
  5
8B89
330
8B4F
100
AcDbEntity
  8
1
  6
Continuous
 62
     2
100
AcDbCircle
 10
0.0
 20
-114.0000000000001
 30
0.0
 40
5.5
210
0.0
220
0.0
230
-1.0
100
AcDbArc
 50
0.0
 51
180.0
  0
LINE
  5
8B8A
330
8B4F
100
AcDbEntity
  8
1
  6
Continuous
 62
     1
100
AcDbLine
 10
0.0
 20
-109.3811978464831
 30
0.0
 11
4.0
 21
-111.6905989232416
 31
0.0
  0
LINE
  5
8B8B
330
8B4F
100
AcDbEntity
  8
1
  6
Continuous
 62
     1
100
AcDbLine
 10
4.0
 20
-116.3094010767586
 30
0.0
 11
0.0
 21
-118.6188021535169
 31
0.0
  0
LINE
  5
8B8C
330
8B4F
100
AcDbEntity
  8
1
  6
Continuous
 62
     1
100
AcDbLine
 10
-4.0
 20
-111.6905989232416
 30
0.0
 11
0.0
 21
-109.3811978464831
 31
0.0
  0
LINE
  5
8B8D
330
8B4F
100
AcDbEntity
  8
1
  6
Continuous
 62
     1
100
AcDbLine
 10
-4.0
 20
-116.3094010767586
 30
0.0
 11
-4.0
 21
-111.6905989232416
 31
0.0
  0
LINE
  5
8B8E
330
8B4F
100
AcDbEntity
  8
1
  6
Continuous
 62
     1
100
AcDbLine
 10
0.0
 20
-118.6188021535169
 30
0.0
 11
-4.0
 21
-116.3094010767586
 31
0.0
  0
LINE
  5
8B8F
330
8B4F
100
AcDbEntity
  8
1
  6
Continuous
 62
     1
100
AcDbLine
 10
4.0
 20
-111.6905989232416
 30
0.0
 11
4.0
 21
-116.3094010767586
 31
0.0
  0
LINE
  5
8B90
330
8B4F
100
AcDbEntity
  8
1
  6
Continuous
 62
     2
100
AcDbLine
 10
50.5
 20
-114.0000000000001
 30
0.0
 11
50.5
 21
-130.0
 31
0.0
  0
LINE
  5
8B91
330
8B4F
100
AcDbEntity
  8
1
  6
Continuous
 62
     2
100
AcDbLine
 10
39.5
 20
-114.0000000000001
 30
0.0
 11
39.5
 21
-130.0
 31
0.0
  0
ARC
  5
8B92
330
8B4F
100
AcDbEntity
  8
1
  6
Continuous
 62
     1
100
AcDbCircle
 10
-45.0
 20
-114.0000000000001
 30
0.0
 40
8.0
210
0.0
220
0.0
230
-1.0
100
AcDbArc
 50
226.5674634422111
 51
313.4325365577887
  0
CIRCLE
  5
8B93
330
8B4F
100
AcDbEntity
  8
2
  6
Continuous
 62
     6
100
AcDbCircle
 10
22.5
 20
-107.0
 30
0.0
 40
4.0
  0
LINE
  5
8B94
330
8B4F
100
AcDbEntity
  8
4
  6
Continuous
 62
     3
100
AcDbLine
 10
22.5
 20
-99.0
 30
0.0
 11
22.5
 21
-115.0000000000001
 31
0.0
  0
ARC
  5
8B95
330
8B4F
100
AcDbEntity
  8
1
  6
Continuous
 62
     2
100
AcDbCircle
 10
-45.0
 20
-114.0000000000001
 30
0.0
 40
5.5
210
0.0
220
0.0
230
-1.0
100
AcDbArc
 50
0.0
 51
180.0
  0
LINE
  5
8B96
330
8B4F
100
AcDbEntity
  8
1
  6
Continuous
 62
     1
100
AcDbLine
 10
49.0
 20
-111.6905989232416
 30
0.0
 11
49.0
 21
-116.3094010767586
 31
0.0
  0
LINE
  5
8B97
330
8B4F
100
AcDbEntity
  8
1
  6
Continuous
 62
     1
100
AcDbLine
 10
45.0
 20
-109.3811978464831
 30
0.0
 11
49.0
 21
-111.6905989232416
 31
0.0
  0
LINE
  5
8B98
330
8B4F
100
AcDbEntity
  8
1
  6
Continuous
 62
     1
100
AcDbLine
 10
41.0
 20
-111.6905989232416
 30
0.0
 11
45.0
 21
-109.3811978464831
 31
0.0
  0
LINE
  5
8B99
330
8B4F
100
AcDbEntity
  8
1
  6
Continuous
 62
     1
100
AcDbLine
 10
41.0
 20
-116.3094010767586
 30
0.0
 11
41.0
 21
-111.6905989232416
 31
0.0
  0
LINE
  5
8B9A
330
8B4F
100
AcDbEntity
  8
1
  6
Continuous
 62
     1
100
AcDbLine
 10
45.0
 20
-118.6188021535169
 30
0.0
 11
41.0
 21
-116.3094010767586
 31
0.0
  0
LINE
  5
8B9B
330
8B4F
100
AcDbEntity
  8
1
  6
Continuous
 62
     1
100
AcDbLine
 10
49.0
 20
-116.3094010767586
 30
0.0
 11
45.0
 21
-118.6188021535169
 31
0.0
  0
LINE
  5
8B9C
330
8B4F
100
AcDbEntity
  8
1
  6
Continuous
 62
     5
100
AcDbLine
 10
58.99999999999995
 20
-130.0
 30
0.0
 11
66.49999999999995
 21
-150.0000000000003
 31
0.0
  0
LINE
  5
8B9D
330
8B4F
100
AcDbEntity
  8
1
  6
Continuous
 62
     5
100
AcDbLine
 10
98.49999999999994
 20
-156.0000000000003
 30
0.0
 11
75.99999999999993
 21
-130.0
 31
0.0
  0
LINE
  5
8B9E
330
8B4F
100
AcDbEntity
  8
1
  6
Continuous
 62
     3
100
AcDbLine
 10
52.5
 20
-149.0
 30
0.0
 11
52.5
 21
-171.0
 31
0.0
  0
LINE
  5
8B9F
330
8B4F
100
AcDbEntity
  8
1
  6
Continuous
 62
     5
100
AcDbLine
 10
66.49999999999995
 20
-174.5
 30
0.0
 11
66.49999999999995
 21
-150.0000000000003
 31
0.0
  0
LINE
  5
8BA0
330
8B4F
100
AcDbEntity
  8
1
  6
Continuous
 62
     3
100
AcDbLine
 10
112.5
 20
-149.0
 30
0.0
 11
112.5
 21
-171.0
 31
0.0
  0
LINE
  5
8BA1
330
8B4F
100
AcDbEntity
  8
1
  6
Continuous
 62
     5
100
AcDbLine
 10
98.49999999999994
 20
-174.5
 30
0.0
 11
98.49999999999994
 21
-156.0000000000003
 31
0.0
  0
LINE
  5
8BA2
330
8B4F
100
AcDbEntity
  8
1
  6
Continuous
 62
     2
100
AcDbLine
 10
84.49999999999993
 20
-114.0000000000001
 30
0.0
 11
84.49999999999993
 21
-130.0
 31
0.0
  0
LINE
  5
8BA3
330
8B4F
100
AcDbEntity
  8
1
  6
Continuous
 62
     2
100
AcDbLine
 10
95.49999999999995
 20
-114.0000000000001
 30
0.0
 11
95.49999999999995
 21
-130.0
 31
0.0
  0
ARC
  5
8BA4
330
8B4F
100
AcDbEntity
  8
1
  6
Continuous
 62
     1
100
AcDbCircle
 10
-89.99999999999994
 20
-114.0000000000001
 30
0.0
 40
8.0
210
0.0
220
0.0
230
-1.0
100
AcDbArc
 50
226.5674634422111
 51
313.4325365577887
  0
ARC
  5
8BA5
330
8B4F
100
AcDbEntity
  8
1
  6
Continuous
 62
     2
100
AcDbCircle
 10
-89.99999999999994
 20
-114.0000000000001
 30
0.0
 40
5.5
210
0.0
220
0.0
230
-1.0
100
AcDbArc
 50
0.0
 51
180.0
  0
LINE
  5
8BA6
330
8B4F
100
AcDbEntity
  8
1
  6
Continuous
 62
     1
100
AcDbLine
 10
93.99999999999996
 20
-111.6905989232416
 30
0.0
 11
93.99999999999996
 21
-116.3094010767586
 31
0.0
  0
LINE
  5
8BA7
330
8B4F
100
AcDbEntity
  8
1
  6
Continuous
 62
     1
100
AcDbLine
 10
89.99999999999994
 20
-109.3811978464831
 30
0.0
 11
93.99999999999996
 21
-111.6905989232416
 31
0.0
  0
LINE
  5
8BA8
330
8B4F
100
AcDbEntity
  8
1
  6
Continuous
 62
     1
100
AcDbLine
 10
85.99999999999994
 20
-111.6905989232416
 30
0.0
 11
89.99999999999994
 21
-109.3811978464831
 31
0.0
  0
LINE
  5
8BA9
330
8B4F
100
AcDbEntity
  8
1
  6
Continuous
 62
     1
100
AcDbLine
 10
85.99999999999994
 20
-116.3094010767586
 30
0.0
 11
85.99999999999994
 21
-111.6905989232416
 31
0.0
  0
LINE
  5
8BAA
330
8B4F
100
AcDbEntity
  8
1
  6
Continuous
 62
     1
100
AcDbLine
 10
89.99999999999994
 20
-118.6188021535169
 30
0.0
 11
85.99999999999994
 21
-116.3094010767586
 31
0.0
  0
LINE
  5
8BAB
330
8B4F
100
AcDbEntity
  8
1
  6
Continuous
 62
     1
100
AcDbLine
 10
93.99999999999996
 20
-116.3094010767586
 30
0.0
 11
89.99999999999994
 21
-118.6188021535169
 31
0.0
  0
LINE
  5
8BAC
330
8B4F
100
AcDbEntity
  8
4
  6
Continuous
 62
     2
100
AcDbLine
 10
24.29999999999994
 20
-33.85000000000013
 30
0.0
 11
24.29999999999994
 21
-40.45000000000015
 31
0.0
  0
LINE
  5
8BAD
330
8B4F
100
AcDbEntity
  8
4
  6
Continuous
 62
     2
100
AcDbLine
 10
19.0
 20
-40.45000000000015
 30
0.0
 11
24.29999999999994
 21
-40.45000000000015
 31
0.0
  0
LINE
  5
8BAE
330
8B4F
100
AcDbEntity
  8
4
  6
Continuous
 62
     2
100
AcDbLine
 10
19.0
 20
-33.85000000000013
 30
0.0
 11
24.29999999999994
 21
-33.85000000000013
 31
0.0
  0
LINE
  5
8BAF
330
8B4F
100
AcDbEntity
  8
4
  6
Continuous
 62
     2
100
AcDbLine
 10
19.0
 20
-33.85000000000013
 30
0.0
 11
19.0
 21
-40.45000000000015
 31
0.0
  0
ARC
  5
8BB0
330
8B4F
100
AcDbEntity
  8
1
  6
Continuous
 62
     2
100
AcDbCircle
 10
53.0
 20
-40.0
 30
0.0
 40
5.0
100
AcDbArc
 50
270.0
 51
0.0
  0
LINE
  5
8BB1
330
8B4F
100
AcDbEntity
  8
1
  6
Continuous
 62
     5
100
AcDbLine
 10
126.5
 20
-174.5
 30
0.0
 11
126.5
 21
-152.0000000000003
 31
0.0
  0
CIRCLE
  5
8BB2
330
8B4F
100
AcDbEntity
  8
1
  6
Continuous
 62
     5
100
AcDbCircle
 10
-7.5
 20
160.0
 30
0.0
 40
7.0
  0
LINE
  5
8BB3
330
8B4F
100
AcDbEntity
  8
1
  6
Continuous
 62
     2
100
AcDbLine
 10
17.00000000000022
 20
17.03370272535221
 30
0.0
 11
-16.99999999999985
 21
17.03370272535221
 31
0.0
  0
LINE
  5
8BB4
330
8B4F
100
AcDbEntity
  8
1
  6
Continuous
 62
     2
100
AcDbLine
 10
17.00000000000022
 20
28.03853193396571
 30
0.0
 11
-17.0
 21
28.03853193396571
 31
0.0
  0
LINE
  5
8BB5
330
8B4F
100
AcDbEntity
  8
1
  6
Continuous
 62
     2
100
AcDbLine
 10
17.00000000000022
 20
39.33264411704192
 30
0.0
 11
-17.0
 21
39.33264411704192
 31
0.0
  0
LINE
  5
8BB6
330
8B4F
100
AcDbEntity
  8
1
  6
Continuous
 62
     3
100
AcDbLine
 10
-18.5
 20
160.0
 30
0.0
 11
3.5
 21
160.0
 31
0.0
  0
LINE
  5
8BB7
330
8B4F
100
AcDbEntity
  8
4
  6
Continuous
 62
     5
100
AcDbLine
 10
-75.0
 20
0.0
 30
0.0
 11
120.0
 21
0.0
 31
0.0
  0
LINE
  5
8BB8
330
8B4F
100
AcDbEntity
  8
1
  6
Continuous
 62
     5
100
AcDbLine
 10
-21.49999999999999
 20
150.0
 30
0.0
 11
-14.0
 21
130.0
 31
0.0
  0
LINE
  5
8BB9
330
8B4F
100
AcDbEntity
  8
1
  6
Continuous
 62
     5
100
AcDbLine
 10
-21.49999999999999
 20
174.5
 30
0.0
 11
6.5
 21
174.5
 31
0.0
  0
LINE
  5
8BBA
330
8B4F
100
AcDbEntity
  8
2
  6
Continuous
 62
     2
100
AcDbLine
 10
-70.0
 20
50.99999999999898
 30
0.0
 11
115.0
 21
50.99999999999898
 31
0.0
  0
LINE
  5
8BBB
330
8B4F
100
AcDbEntity
  8
2
  6
Continuous
 62
     2
100
AcDbLine
 10
-53.0
 20
45.0
 30
0.0
 11
53.0
 21
45.0
 31
0.0
  0
LINE
  5
8BBC
330
8B4F
100
AcDbEntity
  8
1
  6
Continuous
 62
     2
100
AcDbLine
 10
115.0
 20
130.0
 30
0.0
 11
-70.0
 21
130.0
 31
0.0
  0
LINE
  5
8BBD
330
8B4F
100
AcDbEntity
  8
1
  6
Continuous
 62
     5
100
AcDbLine
 10
-53.5
 20
174.5
 30
0.0
 11
-53.5
 21
156.0
 31
0.0
  0
LINE
  5
8BBE
330
8B4F
100
AcDbEntity
  8
1
  6
Continuous
 62
     5
100
AcDbLine
 10
-21.49999999999999
 20
174.5
 30
0.0
 11
-21.49999999999999
 21
150.0
 31
0.0
  0
LINE
  5
8BBF
330
8B4F
100
AcDbEntity
  8
1
  6
Continuous
 62
     5
100
AcDbLine
 10
-81.5
 20
174.5
 30
0.0
 11
-81.5
 21
152.0
 31
0.0
  0
LINE
  5
8BC0
330
8B4F
100
AcDbEntity
  8
2
  6
Continuous
 62
     2
100
AcDbLine
 10
-17.0
 20
17.03370272535221
 30
0.0
 11
-17.0
 21
39.33264411704192
 31
0.0
  0
LINE
  5
8BC1
330
8B4F
100
AcDbEntity
  8
1
  6
Continuous
 62
     2
100
AcDbLine
 10
-17.0
 20
31.0
 30
0.0
 11
-18.0
 21
31.0
 31
0.0
  0
ARC
  5
8BC2
330
8B4F
100
AcDbEntity
  8
1
  6
Continuous
 62
     2
100
AcDbCircle
 10
-53.0
 20
40.0
 30
0.0
 40
5.0
100
AcDbArc
 50
90.0
 51
180.0
  0
LINE
  5
8BC3
330
8B4F
100
AcDbEntity
  8
1
  6
Continuous
 62
     5
100
AcDbLine
 10
-81.5
 20
152.0
 30
0.0
 11
-59.0
 21
130.0
 31
0.0
  0
LINE
  5
8BC4
330
8B4F
100
AcDbEntity
  8
1
  6
Continuous
 62
     2
100
AcDbLine
 10
-39.5
 20
114.0
 30
0.0
 11
-39.5
 21
130.0
 31
0.0
  0
LINE
  5
8BC5
330
8B4F
100
AcDbEntity
  8
1
  6
Continuous
 62
     2
100
AcDbLine
 10
-50.5
 20
114.0
 30
0.0
 11
-50.5
 21
130.0
 31
0.0
  0
ARC
  5
8BC6
330
8B4F
100
AcDbEntity
  8
1
  6
Continuous
 62
     1
100
AcDbCircle
 10
-45.0
 20
114.0
 30
0.0
 40
8.0
100
AcDbArc
 50
46.5674634422112
 51
133.4325365577887
  0
ARC
  5
8BC7
330
8B4F
100
AcDbEntity
  8
1
  6
Continuous
 62
     2
100
AcDbCircle
 10
-45.0
 20
114.0
 30
0.0
 40
5.5
100
AcDbArc
 50
180.0
 51
0.0
  0
LINE
  5
8BC8
330
8B4F
100
AcDbEntity
  8
1
  6
Continuous
 62
     1
100
AcDbLine
 10
-49.0
 20
111.6905989232414
 30
0.0
 11
-45.0
 21
109.3811978464829
 31
0.0
  0
LINE
  5
8BC9
330
8B4F
100
AcDbEntity
  8
1
  6
Continuous
 62
     1
100
AcDbLine
 10
-45.0
 20
118.6188021535165
 30
0.0
 11
-49.0
 21
116.3094010767582
 31
0.0
  0
LINE
  5
8BCA
330
8B4F
100
AcDbEntity
  8
4
  6
Continuous
 62
     3
100
AcDbLine
 10
-53.99999999999988
 20
114.0
 30
0.0
 11
-36.0
 21
114.0
 31
0.0
  0
LINE
  5
8BCB
330
8B4F
100
AcDbEntity
  8
1
  6
Continuous
 62
     1
100
AcDbLine
 10
-49.0
 20
116.3094010767582
 30
0.0
 11
-49.0
 21
111.6905989232414
 31
0.0
  0
CIRCLE
  5
8BCC
330
8B4F
100
AcDbEntity
  8
2
  6
Continuous
 62
     6
100
AcDbCircle
 10
22.5
 20
107.0
 30
0.0
 40
4.0
210
0.0
220
0.0
230
-1.0
  0
LINE
  5
8BCD
330
8B4F
100
AcDbEntity
  8
4
  6
Continuous
 62
     3
100
AcDbLine
 10
-22.5
 20
115.0
 30
0.0
 11
-22.5
 21
99.0
 31
0.0
  0
LINE
  5
8BCE
330
8B4F
100
AcDbEntity
  8
4
  6
Continuous
 62
     3
100
AcDbLine
 10
-45.0
 20
105.0
 30
0.0
 11
-45.0
 21
123.0
 31
0.0
  0
LINE
  5
8BCF
330
8B4F
100
AcDbEntity
  8
4
  6
Continuous
 62
     3
100
AcDbLine
 10
-14.5
 20
107.0
 30
0.0
 11
-30.5
 21
107.0
 31
0.0
  0
LINE
  5
8BD0
330
8B4F
100
AcDbEntity
  8
1
  6
Continuous
 62
     1
100
AcDbLine
 10
-41.0
 20
111.6905989232414
 30
0.0
 11
-41.0
 21
116.3094010767582
 31
0.0
  0
LINE
  5
8BD1
330
8B4F
100
AcDbEntity
  8
1
  6
Continuous
 62
     1
100
AcDbLine
 10
-45.0
 20
109.3811978464829
 30
0.0
 11
-41.0
 21
111.6905989232414
 31
0.0
  0
LINE
  5
8BD2
330
8B4F
100
AcDbEntity
  8
1
  6
Continuous
 62
     1
100
AcDbLine
 10
-41.0
 20
116.3094010767582
 30
0.0
 11
-45.0
 21
118.6188021535165
 31
0.0
  0
LINE
  5
8BD3
330
8B4F
100
AcDbEntity
  8
1
  6
Continuous
 62
     5
100
AcDbLine
 10
-31.0
 20
130.0
 30
0.0
 11
-53.5
 21
156.0
 31
0.0
  0
LINE
  5
8BD4
330
8B4F
100
AcDbEntity
  8
1
  6
Continuous
 62
     3
100
AcDbLine
 10
-67.5
 20
171.0
 30
0.0
 11
-67.5
 21
149.0
 31
0.0
  0
CIRCLE
  5
8BD5
330
8B4F
100
AcDbEntity
  8
1
  6
Continuous
 62
     5
100
AcDbCircle
 10
-67.5
 20
160.0
 30
0.0
 40
7.0
  0
LINE
  5
8BD6
330
8B4F
100
AcDbEntity
  8
1
  6
Continuous
 62
     3
100
AcDbLine
 10
-78.5
 20
160.0
 30
0.0
 11
-56.5
 21
160.0
 31
0.0
  0
LINE
  5
8BD7
330
8B4F
100
AcDbEntity
  8
1
  6
Continuous
 62
     5
100
AcDbLine
 10
-81.5
 20
174.5
 30
0.0
 11
-53.5
 21
174.5
 31
0.0
  0
LINE
  5
8BD8
330
8B4F
100
AcDbEntity
  8
1
  6
Continuous
 62
     5
100
AcDbLine
 10
126.5
 20
174.5
 30
0.0
 11
126.5
 21
152.0
 31
0.0
  0
LINE
  5
8BD9
330
8B4F
100
AcDbEntity
  8
1
  6
Continuous
 62
     5
100
AcDbLine
 10
66.49999999999995
 20
174.5
 30
0.0
 11
66.49999999999995
 21
150.0
 31
0.0
  0
LINE
  5
8BDA
330
8B4F
100
AcDbEntity
  8
1
  6
Continuous
 62
     5
100
AcDbLine
 10
6.5
 20
174.5
 30
0.0
 11
6.5
 21
150.0
 31
0.0
  0
LINE
  5
8BDB
330
8B4F
100
AcDbEntity
  8
1
  6
Continuous
 62
     5
100
AcDbLine
 10
98.49999999999994
 20
174.5
 30
0.0
 11
98.49999999999994
 21
156.0
 31
0.0
  0
LINE
  5
8BDC
330
8B4F
100
AcDbEntity
  8
1
  6
Continuous
 62
     5
100
AcDbLine
 10
38.5
 20
174.5
 30
0.0
 11
38.5
 21
150.0
 31
0.0
  0
CIRCLE
  5
8BDD
330
8B4F
100
AcDbEntity
  8
1
  6
Continuous
 62
     5
100
AcDbCircle
 10
112.5
 20
160.0
 30
0.0
 40
7.0
  0
LINE
  5
8BDE
330
8B4F
100
AcDbEntity
  8
1
  6
Continuous
 62
     3
100
AcDbLine
 10
101.4999999999999
 20
160.0
 30
0.0
 11
123.5
 21
160.0
 31
0.0
  0
LINE
  5
8BDF
330
8B4F
100
AcDbEntity
  8
1
  6
Continuous
 62
     5
100
AcDbLine
 10
103.9999999999996
 20
130.0
 30
0.0
 11
126.5
 21
152.0
 31
0.0
  0
CIRCLE
  5
8BE0
330
8B4F
100
AcDbEntity
  8
2
  6
Continuous
 62
     2
100
AcDbCircle
 10
89.99999999999994
 20
86.75
 30
0.0
 40
8.0
  0
LINE
  5
8BE1
330
8B4F
100
AcDbEntity
  8
2
  6
Continuous
 62
     6
100
AcDbLine
 10
86.49999999999996
 20
83.51776695296598
 30
0.0
 11
87.49999999999994
 21
84.51776695296599
 31
0.0
  0
LINE
  5
8BE2
330
8B4F
100
AcDbEntity
  8
2
  6
Continuous
 62
     6
100
AcDbLine
 10
91.86001960398909
 20
83.22093230746324
 30
0.0
 11
93.49999999999994
 21
84.86091270347378
 31
0.0
  0
LINE
  5
8BE3
330
8B4F
100
AcDbEntity
  8
2
  6
Continuous
 62
     5
100
AcDbLine
 10
93.49999999999994
 20
81.75
 30
0.0
 11
93.49999999999994
 21
91.75
 31
0.0
  0
LINE
  5
8BE4
330
8B4F
100
AcDbEntity
  8
2
  6
Continuous
 62
     6
100
AcDbLine
 10
86.49999999999996
 20
83.16421356237276
 30
0.0
 11
87.49999999999994
 21
84.16421356237277
 31
0.0
  0
LINE
  5
8BE5
330
8B4F
100
AcDbEntity
  8
2
  6
Continuous
 62
     6
100
AcDbLine
 10
92.00560041188026
 20
83.01295972476124
 30
0.0
 11
93.49999999999994
 21
84.5073593128807
 31
0.0
  0
LINE
  5
8BE6
330
8B4F
100
AcDbEntity
  8
2
  6
Continuous
 62
     5
100
AcDbLine
 10
86.49999999999996
 20
81.75
 30
0.0
 11
86.49999999999996
 21
91.75
 31
0.0
  0
LINE
  5
8BE7
330
8B4F
100
AcDbEntity
  8
2
  6
Continuous
 62
     6
100
AcDbLine
 10
86.49999999999996
 20
82.81066017177945
 30
0.0
 11
87.49999999999994
 21
83.81066017177944
 31
0.0
  0
LINE
  5
8BE8
330
8B4F
100
AcDbEntity
  8
2
  6
Continuous
 62
     6
100
AcDbLine
 10
92.15118121977189
 20
82.80498714205931
 30
0.0
 11
93.49999999999994
 21
84.15380592228791
 31
0.0
  0
LINE
  5
8BE9
330
8B4F
100
AcDbEntity
  8
2
  6
Continuous
 62
     6
100
AcDbLine
 10
91.7144387960978
 20
83.42890489016509
 30
0.0
 11
92.43247147937614
 21
84.14693757344343
 31
0.0
  0
LINE
  5
8BEA
330
8B4F
100
AcDbEntity
  8
2
  6
Continuous
 62
     5
100
AcDbLine
 10
87.49999999999994
 20
89.44953174173305
 30
0.0
 11
92.88967221921343
 21
81.75
 31
0.0
  0
LINE
  5
8BEB
330
8B4F
100
AcDbEntity
  8
2
  6
Continuous
 62
     5
100
AcDbLine
 10
87.49999999999994
 20
89.44953174173305
 30
0.0
 11
87.49999999999994
 21
81.75
 31
0.0
  0
LINE
  5
8BEC
330
8B4F
100
AcDbEntity
  8
2
  6
Continuous
 62
     6
100
AcDbLine
 10
92.29676202766295
 20
82.59701455935759
 30
0.0
 11
93.49999999999994
 21
83.80025253169433
 31
0.0
  0
LINE
  5
8BED
330
8B4F
100
AcDbEntity
  8
2
  6
Continuous
 62
     2
100
AcDbLine
 10
17.00000000000011
 20
17.03370272535221
 30
0.0
 11
17.00000000000011
 21
39.33264411704192
 31
0.0
  0
LINE
  5
8BEE
330
8B4F
100
AcDbEntity
  8
2
  6
Continuous
 62
     2
100
AcDbLine
 10
18.0
 20
31.0
 30
0.0
 11
17.00000000000011
 21
31.0
 31
0.0
  0
ARC
  5
8BEF
330
8B4F
100
AcDbEntity
  8
1
  6
Continuous
 62
     2
100
AcDbCircle
 10
53.0
 20
40.0
 30
0.0
 40
5.0
100
AcDbArc
 50
0.0
 51
90.0
  0
LINE
  5
8BF0
330
8B4F
100
AcDbEntity
  8
2
  6
Continuous
 62
     6
100
AcDbLine
 10
92.44234283555435
 20
82.38904197665545
 30
0.0
 11
93.49999999999994
 21
83.44669914110102
 31
0.0
  0
LINE
  5
8BF1
330
8B4F
100
AcDbEntity
  8
2
  6
Continuous
 62
     6
100
AcDbLine
 10
92.86396103067858
 20
81.75
 30
0.0
 11
93.49999999999994
 21
82.38603896932124
 31
0.0
  0
LINE
  5
8BF2
330
8B4F
100
AcDbEntity
  8
2
  6
Continuous
 62
     6
100
AcDbLine
 10
93.21751442127192
 20
81.75
 30
0.0
 11
93.49999999999994
 21
82.03248557872802
 31
0.0
  0
LINE
  5
8BF3
330
8B4F
100
AcDbEntity
  8
2
  6
Continuous
 62
     6
100
AcDbLine
 10
86.85355339059341
 20
81.75
 30
0.0
 11
87.49999999999994
 21
82.39644660940644
 31
0.0
  0
LINE
  5
8BF4
330
8B4F
100
AcDbEntity
  8
2
  6
Continuous
 62
     6
100
AcDbLine
 10
86.49999999999996
 20
81.75
 30
0.0
 11
87.49999999999994
 21
82.75
 31
0.0
  0
LINE
  5
8BF5
330
8B4F
100
AcDbEntity
  8
2
  6
Continuous
 62
     6
100
AcDbLine
 10
92.73350445133706
 20
81.97309681125149
 30
0.0
 11
93.49999999999994
 21
82.73959235991458
 31
0.0
  0
LINE
  5
8BF6
330
8B4F
100
AcDbEntity
  8
2
  6
Continuous
 62
     6
100
AcDbLine
 10
92.58792364344577
 20
82.18106939395353
 30
0.0
 11
93.49999999999994
 21
83.09314575050789
 31
0.0
  0
LINE
  5
8BF7
330
8B4F
100
AcDbEntity
  8
2
  6
Continuous
 62
     6
100
AcDbLine
 10
86.49999999999996
 20
82.45710678118632
 30
0.0
 11
87.49999999999994
 21
83.45710678118633
 31
0.0
  0
LINE
  5
8BF8
330
8B4F
100
AcDbEntity
  8
2
  6
Continuous
 62
     5
100
AcDbLine
 10
93.49999999999994
 20
81.75
 30
0.0
 11
92.88967221921343
 21
81.75
 31
0.0
  0
LINE
  5
8BF9
330
8B4F
100
AcDbEntity
  8
2
  6
Continuous
 62
     6
100
AcDbLine
 10
87.20710678118662
 20
81.75
 30
0.0
 11
87.49999999999994
 21
82.04289321881322
 31
0.0
  0
LINE
  5
8BFA
330
8B4F
100
AcDbEntity
  8
2
  6
Continuous
 62
     6
100
AcDbLine
 10
86.49999999999996
 20
82.10355339059322
 30
0.0
 11
87.49999999999994
 21
83.10355339059322
 31
0.0
  0
LINE
  5
8BFB
330
8B4F
100
AcDbEntity
  8
2
  6
Continuous
 62
     5
100
AcDbLine
 10
86.49999999999996
 20
81.75
 30
0.0
 11
87.49999999999994
 21
81.75
 31
0.0
  0
CIRCLE
  5
8BFC
330
8B4F
100
AcDbEntity
  8
1
  6
Continuous
 62
     5
100
AcDbCircle
 10
52.5
 20
160.0
 30
0.0
 40
7.0
  0
LINE
  5
8BFD
330
8B4F
100
AcDbEntity
  8
1
  6
Continuous
 62
     3
100
AcDbLine
 10
41.5
 20
160.0
 30
0.0
 11
63.49999999999994
 21
160.0
 31
0.0
  0
LINE
  5
8BFE
330
8B4F
100
AcDbEntity
  8
4
  6
Continuous
 62
     3
100
AcDbLine
 10
36.0000000000001
 20
114.0
 30
0.0
 11
54.0
 21
114.0
 31
0.0
  0
LINE
  5
8BFF
330
8B4F
100
AcDbEntity
  8
1
  6
Continuous
 62
     2
100
AcDbLine
 10
50.5
 20
114.0
 30
0.0
 11
50.5
 21
130.0
 31
0.0
  0
LINE
  5
8C00
330
8B4F
100
AcDbEntity
  8
1
  6
Continuous
 62
     2
100
AcDbLine
 10
39.5
 20
114.0
 30
0.0
 11
39.5
 21
130.0
 31
0.0
  0
LINE
  5
8C01
330
8B4F
100
AcDbEntity
  8
1
  6
Continuous
 62
     2
100
AcDbLine
 10
5.5
 20
114.0
 30
0.0
 11
5.5
 21
130.0
 31
0.0
  0
LINE
  5
8C02
330
8B4F
100
AcDbEntity
  8
1
  6
Continuous
 62
     2
100
AcDbLine
 10
-5.5
 20
114.0
 30
0.0
 11
-5.5
 21
130.0
 31
0.0
  0
LINE
  5
8C03
330
8B4F
100
AcDbEntity
  8
4
  6
Continuous
 62
     3
100
AcDbLine
 10
30.5
 20
107.0
 30
0.0
 11
14.5
 21
107.0
 31
0.0
  0
LINE
  5
8C04
330
8B4F
100
AcDbEntity
  8
4
  6
Continuous
 62
     3
100
AcDbLine
 10
0.0
 20
105.0
 30
0.0
 11
0.0
 21
123.0
 31
0.0
  0
ARC
  5
8C05
330
8B4F
100
AcDbEntity
  8
1
  6
Continuous
 62
     1
100
AcDbCircle
 10
0.0
 20
114.0
 30
0.0
 40
8.0
100
AcDbArc
 50
46.5674634422112
 51
133.4325365577887
  0
ARC
  5
8C06
330
8B4F
100
AcDbEntity
  8
1
  6
Continuous
 62
     2
100
AcDbCircle
 10
0.0
 20
114.0
 30
0.0
 40
5.5
100
AcDbArc
 50
180.0
 51
0.0
  0
LINE
  5
8C07
330
8B4F
100
AcDbEntity
  8
1
  6
Continuous
 62
     1
100
AcDbLine
 10
0.0
 20
109.3811978464829
 30
0.0
 11
4.0
 21
111.6905989232414
 31
0.0
  0
LINE
  5
8C08
330
8B4F
100
AcDbEntity
  8
1
  6
Continuous
 62
     1
100
AcDbLine
 10
4.0
 20
116.3094010767582
 30
0.0
 11
0.0
 21
118.6188021535165
 31
0.0
  0
LINE
  5
8C09
330
8B4F
100
AcDbEntity
  8
4
  6
Continuous
 62
     3
100
AcDbLine
 10
-8.999999999999886
 20
114.0
 30
0.0
 11
9.0
 21
114.0
 31
0.0
  0
LINE
  5
8C0A
330
8B4F
100
AcDbEntity
  8
1
  6
Continuous
 62
     1
100
AcDbLine
 10
-4.0
 20
111.6905989232414
 30
0.0
 11
0.0
 21
109.3811978464829
 31
0.0
  0
LINE
  5
8C0B
330
8B4F
100
AcDbEntity
  8
1
  6
Continuous
 62
     1
100
AcDbLine
 10
-4.0
 20
116.3094010767582
 30
0.0
 11
-4.0
 21
111.6905989232414
 31
0.0
  0
LINE
  5
8C0C
330
8B4F
100
AcDbEntity
  8
1
  6
Continuous
 62
     1
100
AcDbLine
 10
0.0
 20
118.6188021535165
 30
0.0
 11
-4.0
 21
116.3094010767582
 31
0.0
  0
LINE
  5
8C0D
330
8B4F
100
AcDbEntity
  8
1
  6
Continuous
 62
     1
100
AcDbLine
 10
4.0
 20
111.6905989232414
 30
0.0
 11
4.0
 21
116.3094010767582
 31
0.0
  0
CIRCLE
  5
8C0E
330
8B4F
100
AcDbEntity
  8
2
  6
Continuous
 62
     6
100
AcDbCircle
 10
-22.5
 20
107.0
 30
0.0
 40
4.0
210
0.0
220
0.0
230
-1.0
  0
LINE
  5
8C0F
330
8B4F
100
AcDbEntity
  8
4
  6
Continuous
 62
     3
100
AcDbLine
 10
22.5
 20
115.0
 30
0.0
 11
22.5
 21
99.0
 31
0.0
  0
LINE
  5
8C10
330
8B4F
100
AcDbEntity
  8
4
  6
Continuous
 62
     3
100
AcDbLine
 10
45.0
 20
105.0
 30
0.0
 11
45.0
 21
123.0
 31
0.0
  0
ARC
  5
8C11
330
8B4F
100
AcDbEntity
  8
1
  6
Continuous
 62
     1
100
AcDbCircle
 10
45.0
 20
114.0
 30
0.0
 40
8.0
100
AcDbArc
 50
46.5674634422112
 51
133.4325365577887
  0
ARC
  5
8C12
330
8B4F
100
AcDbEntity
  8
1
  6
Continuous
 62
     2
100
AcDbCircle
 10
45.0
 20
114.0
 30
0.0
 40
5.5
100
AcDbArc
 50
180.0
 51
0.0
  0
LINE
  5
8C13
330
8B4F
100
AcDbEntity
  8
1
  6
Continuous
 62
     1
100
AcDbLine
 10
49.0
 20
111.6905989232414
 30
0.0
 11
49.0
 21
116.3094010767582
 31
0.0
  0
LINE
  5
8C14
330
8B4F
100
AcDbEntity
  8
1
  6
Continuous
 62
     1
100
AcDbLine
 10
45.0
 20
109.3811978464829
 30
0.0
 11
49.0
 21
111.6905989232414
 31
0.0
  0
LINE
  5
8C15
330
8B4F
100
AcDbEntity
  8
1
  6
Continuous
 62
     1
100
AcDbLine
 10
41.0
 20
111.6905989232414
 30
0.0
 11
45.0
 21
109.3811978464829
 31
0.0
  0
LINE
  5
8C16
330
8B4F
100
AcDbEntity
  8
1
  6
Continuous
 62
     1
100
AcDbLine
 10
41.0
 20
116.3094010767582
 30
0.0
 11
41.0
 21
111.6905989232414
 31
0.0
  0
LINE
  5
8C17
330
8B4F
100
AcDbEntity
  8
1
  6
Continuous
 62
     1
100
AcDbLine
 10
45.0
 20
118.6188021535165
 30
0.0
 11
41.0
 21
116.3094010767582
 31
0.0
  0
LINE
  5
8C18
330
8B4F
100
AcDbEntity
  8
1
  6
Continuous
 62
     1
100
AcDbLine
 10
49.0
 20
116.3094010767582
 30
0.0
 11
45.0
 21
118.6188021535165
 31
0.0
  0
LINE
  5
8C19
330
8B4F
100
AcDbEntity
  8
1
  6
Continuous
 62
     3
100
AcDbLine
 10
-7.5
 20
171.0
 30
0.0
 11
-7.5
 21
149.0
 31
0.0
  0
LINE
  5
8C1A
330
8B4F
100
AcDbEntity
  8
1
  6
Continuous
 62
     5
100
AcDbLine
 10
14.0
 20
130.0
 30
0.0
 11
6.5
 21
150.0
 31
0.0
  0
LINE
  5
8C1B
330
8B4F
100
AcDbEntity
  8
1
  6
Continuous
 62
     5
100
AcDbLine
 10
38.5
 20
150.0
 30
0.0
 11
31.0
 21
130.0
 31
0.0
  0
LINE
  5
8C1C
330
8B4F
100
AcDbEntity
  8
1
  6
Continuous
 62
     2
100
AcDbLine
 10
95.49999999999995
 20
114.0
 30
0.0
 11
95.49999999999995
 21
130.0
 31
0.0
  0
LINE
  5
8C1D
330
8B4F
100
AcDbEntity
  8
1
  6
Continuous
 62
     2
100
AcDbLine
 10
84.49999999999993
 20
114.0
 30
0.0
 11
84.49999999999993
 21
130.0
 31
0.0
  0
LINE
  5
8C1E
330
8B4F
100
AcDbEntity
  8
4
  6
Continuous
 62
     3
100
AcDbLine
 10
80.99999999999992
 20
114.0
 30
0.0
 11
98.99999999999996
 21
114.0
 31
0.0
  0
LINE
  5
8C1F
330
8B4F
100
AcDbEntity
  8
4
  6
Continuous
 62
     3
100
AcDbLine
 10
89.99999999999994
 20
105.0
 30
0.0
 11
89.99999999999994
 21
123.0
 31
0.0
  0
LINE
  5
8C20
330
8B4F
100
AcDbEntity
  8
2
  6
Continuous
 62
     6
100
AcDbLine
 10
86.49999999999996
 20
91.29594154601759
 30
0.0
 11
86.95405845398232
 21
91.75
 31
0.0
  0
LINE
  5
8C21
330
8B4F
100
AcDbEntity
  8
2
  6
Continuous
 62
     6
100
AcDbLine
 10
88.22049940670567
 20
88.42024687501099
 30
0.0
 11
88.93853208998399
 21
89.13827955828924
 31
0.0
  0
LINE
  5
8C22
330
8B4F
100
AcDbEntity
  8
2
  6
Continuous
 62
     6
100
AcDbLine
 10
86.49999999999996
 20
85.99264068711866
 30
0.0
 11
87.49999999999994
 21
86.99264068711867
 31
0.0
  0
LINE
  5
8C23
330
8B4F
100
AcDbEntity
  8
2
  6
Continuous
 62
     6
100
AcDbLine
 10
88.94840344616232
 20
87.38038396150114
 30
0.0
 11
89.66643612944068
 21
88.09841664477984
 31
0.0
  0
LINE
  5
8C24
330
8B4F
100
AcDbEntity
  8
2
  6
Continuous
 62
     6
100
AcDbLine
 10
86.49999999999996
 20
91.64949493661085
 30
0.0
 11
86.60050506338922
 21
91.75
 31
0.0
  0
LINE
  5
8C25
330
8B4F
100
AcDbEntity
  8
2
  6
Continuous
 62
     6
100
AcDbLine
 10
92.49999999999994
 20
88.45710678118633
 30
0.0
 11
93.49999999999994
 21
89.45710678118633
 31
0.0
  0
LINE
  5
8C26
330
8B4F
100
AcDbEntity
  8
2
  6
Continuous
 62
     6
100
AcDbLine
 10
88.07491859881436
 20
88.62821945771271
 30
0.0
 11
88.79295128209269
 21
89.3462521409914
 31
0.0
  0
LINE
  5
8C27
330
8B4F
100
AcDbEntity
  8
2
  6
Continuous
 62
     6
100
AcDbLine
 10
91.13211556453242
 20
84.2607952209728
 30
0.0
 11
91.85014824781076
 21
84.97882790425128
 31
0.0
  0
LINE
  5
8C28
330
8B4F
100
AcDbEntity
  8
2
  6
Continuous
 62
     6
100
AcDbLine
 10
90.549792332967
 20
85.09268555178003
 30
0.0
 11
91.26782501624537
 21
85.81071823505885
 31
0.0
  0
LINE
  5
8C29
330
8B4F
100
AcDbEntity
  8
2
  6
Continuous
 62
     6
100
AcDbLine
 10
86.49999999999996
 20
84.22487373415242
 30
0.0
 11
87.49999999999994
 21
85.22487373415243
 31
0.0
  0
LINE
  5
8C2A
330
8B4F
100
AcDbEntity
  8
2
  6
Continuous
 62
     6
100
AcDbLine
 10
92.49999999999994
 20
90.22487373415243
 30
0.0
 11
93.49999999999994
 21
91.22487373415266
 31
0.0
  0
LINE
  5
8C2B
330
8B4F
100
AcDbEntity
  8
2
  6
Continuous
 62
     6
100
AcDbLine
 10
86.49999999999996
 20
85.63908729652553
 30
0.0
 11
87.49999999999994
 21
86.63908729652552
 31
0.0
  0
LINE
  5
8C2C
330
8B4F
100
AcDbEntity
  8
2
  6
Continuous
 62
     6
100
AcDbLine
 10
89.38514586983631
 20
86.75646621339556
 30
0.0
 11
90.1031785531148
 21
87.47449889667395
 31
0.0
  0
LINE
  5
8C2D
330
8B4F
100
AcDbEntity
  8
2
  6
Continuous
 62
     6
100
AcDbLine
 10
92.49999999999994
 20
88.10355339059297
 30
0.0
 11
93.49999999999994
 21
89.10355339059298
 31
0.0
  0
LINE
  5
8C2E
330
8B4F
100
AcDbEntity
  8
2
  6
Continuous
 62
     6
100
AcDbLine
 10
92.49999999999994
 20
85.62867965644045
 30
0.0
 11
93.49999999999994
 21
86.62867965644045
 31
0.0
  0
LINE
  5
8C2F
330
8B4F
100
AcDbEntity
  8
2
  6
Continuous
 62
     6
100
AcDbLine
 10
90.25863071718443
 20
85.50863071718412
 30
0.0
 11
90.97666340046265
 21
86.22666340046256
 31
0.0
  0
LINE
  5
8C30
330
8B4F
100
AcDbEntity
  8
2
  6
Continuous
 62
     6
100
AcDbLine
 10
86.49999999999996
 20
89.52817459305128
 30
0.0
 11
87.77388562685343
 21
90.80206021990463
 31
0.0
  0
LINE
  5
8C31
330
8B4F
100
AcDbEntity
  8
2
  6
Continuous
 62
     6
100
AcDbLine
 10
86.49999999999996
 20
89.8817279836445
 30
0.0
 11
87.62830481896202
 21
91.01003280260648
 31
0.0
  0
LINE
  5
8C32
330
8B4F
100
AcDbEntity
  8
2
  6
Continuous
 62
     6
100
AcDbLine
 10
92.49999999999994
 20
87.39644660940644
 30
0.0
 11
93.49999999999994
 21
88.39644660940644
 31
0.0
  0
LINE
  5
8C33
330
8B4F
100
AcDbEntity
  8
2
  6
Continuous
 62
     6
100
AcDbLine
 10
89.676307485619
 20
86.34052104799195
 30
0.0
 11
90.39434016889748
 21
87.05855373127041
 31
0.0
  0
LINE
  5
8C34
330
8B4F
100
AcDbEntity
  8
2
  6
Continuous
 62
     6
100
AcDbLine
 10
89.53072667772785
 20
86.54849363069367
 30
0.0
 11
90.2487593610062
 21
87.26652631397199
 31
0.0
  0
LINE
  5
8C35
330
8B4F
100
AcDbEntity
  8
2
  6
Continuous
 62
     6
100
AcDbLine
 10
86.49999999999996
 20
84.93198051533921
 30
0.0
 11
87.49999999999994
 21
85.93198051533921
 31
0.0
  0
LINE
  5
8C36
330
8B4F
100
AcDbEntity
  8
2
  6
Continuous
 62
     5
100
AcDbLine
 10
86.49999999999996
 20
91.75
 30
0.0
 11
87.11032778078669
 21
91.75
 31
0.0
  0
LINE
  5
8C37
330
8B4F
100
AcDbEntity
  8
2
  6
Continuous
 62
     6
100
AcDbLine
 10
86.49999999999996
 20
84.57842712474578
 30
0.0
 11
87.49999999999994
 21
85.57842712474577
 31
0.0
  0
LINE
  5
8C38
330
8B4F
100
AcDbEntity
  8
2
  6
Continuous
 62
     6
100
AcDbLine
 10
86.49999999999996
 20
90.94238815542441
 30
0.0
 11
87.19156239528803
 21
91.63395055071214
 31
0.0
  0
LINE
  5
8C39
330
8B4F
100
AcDbEntity
  8
2
  6
Continuous
 62
     6
100
AcDbLine
 10
91.2776963724238
 20
84.05282263827075
 30
0.0
 11
91.99572905570216
 21
84.77085532154911
 31
0.0
  0
LINE
  5
8C3A
330
8B4F
100
AcDbEntity
  8
2
  6
Continuous
 62
     5
100
AcDbLine
 10
92.49999999999994
 20
84.0504682582665
 30
0.0
 11
92.49999999999994
 21
91.75
 31
0.0
  0
LINE
  5
8C3B
330
8B4F
100
AcDbEntity
  8
2
  6
Continuous
 62
     6
100
AcDbLine
 10
92.49999999999994
 20
84.21446609406723
 30
0.0
 11
93.49999999999994
 21
85.21446609406723
 31
0.0
  0
LINE
  5
8C3C
330
8B4F
100
AcDbEntity
  8
2
  6
Continuous
 62
     6
100
AcDbLine
 10
88.65724183037974
 20
87.79632912690521
 30
0.0
 11
89.37527451365822
 21
88.51436181018391
 31
0.0
  0
LINE
  5
8C3D
330
8B4F
100
AcDbEntity
  8
2
  6
Continuous
 62
     6
100
AcDbLine
 10
90.11304990929312
 20
85.71660329988617
 30
0.0
 11
90.83108259257135
 21
86.43463598316452
 31
0.0
  0
LINE
  5
8C3E
330
8B4F
100
AcDbEntity
  8
2
  6
Continuous
 62
     6
100
AcDbLine
 10
92.49999999999994
 20
89.16421356237277
 30
0.0
 11
93.49999999999994
 21
90.16421356237277
 31
0.0
  0
LINE
  5
8C3F
330
8B4F
100
AcDbEntity
  8
2
  6
Continuous
 62
     6
100
AcDbLine
 10
92.49999999999994
 20
87.75
 30
0.0
 11
93.49999999999994
 21
88.75
 31
0.0
  0
LINE
  5
8C40
330
8B4F
100
AcDbEntity
  8
2
  6
Continuous
 62
     6
100
AcDbLine
 10
86.49999999999996
 20
87.40685424949186
 30
0.0
 11
87.49999999999994
 21
88.40685424949183
 31
0.0
  0
LINE
  5
8C41
330
8B4F
100
AcDbEntity
  8
2
  6
Continuous
 62
     6
100
AcDbLine
 10
91.42327718031507
 20
83.84485005556872
 30
0.0
 11
92.14130986359355
 21
84.56288273884741
 31
0.0
  0
LINE
  5
8C42
330
8B4F
100
AcDbEntity
  8
2
  6
Continuous
 62
     6
100
AcDbLine
 10
88.80282263827103
 20
87.58835654420328
 30
0.0
 11
89.52085532154939
 21
88.30638922748162
 31
0.0
  0
LINE
  5
8C43
330
8B4F
100
AcDbEntity
  8
2
  6
Continuous
 62
     6
100
AcDbLine
 10
88.51166102248834
 20
88.00430170960726
 30
0.0
 11
89.22969370576678
 21
88.72233439288562
 31
0.0
  0
LINE
  5
8C44
330
8B4F
100
AcDbEntity
  8
2
  6
Continuous
 62
     6
100
AcDbLine
 10
92.49999999999994
 20
89.51776695296599
 30
0.0
 11
93.49999999999994
 21
90.51776695296601
 31
0.0
  0
LINE
  5
8C45
330
8B4F
100
AcDbEntity
  8
2
  6
Continuous
 62
     6
100
AcDbLine
 10
92.49999999999994
 20
88.81066017177944
 30
0.0
 11
93.49999999999994
 21
89.81066017177942
 31
0.0
  0
LINE
  5
8C46
330
8B4F
100
AcDbEntity
  8
2
  6
Continuous
 62
     6
100
AcDbLine
 10
92.49999999999994
 20
85.27512626584734
 30
0.0
 11
93.49999999999994
 21
86.27512626584731
 31
0.0
  0
LINE
  5
8C47
330
8B4F
100
AcDbEntity
  8
2
  6
Continuous
 62
     6
100
AcDbLine
 10
86.49999999999996
 20
86.34619407771197
 30
0.0
 11
87.49999999999994
 21
87.34619407771194
 31
0.0
  0
LINE
  5
8C48
330
8B4F
100
AcDbEntity
  8
2
  6
Continuous
 62
     6
100
AcDbLine
 10
90.98653475664113
 20
84.4687678036745
 30
0.0
 11
91.70456743991946
 21
85.18680048695292
 31
0.0
  0
LINE
  5
8C49
330
8B4F
100
AcDbEntity
  8
2
  6
Continuous
 62
     6
100
AcDbLine
 10
86.49999999999996
 20
90.58883476483094
 30
0.0
 11
87.33714320317933
 21
91.42597796801045
 31
0.0
  0
LINE
  5
8C4A
330
8B4F
100
AcDbEntity
  8
2
  6
Continuous
 62
     5
100
AcDbLine
 10
92.49999999999994
 20
91.75
 30
0.0
 11
93.49999999999994
 21
91.75
 31
0.0
  0
LINE
  5
8C4B
330
8B4F
100
AcDbEntity
  8
2
  6
Continuous
 62
     6
100
AcDbLine
 10
92.49999999999994
 20
86.68933982822009
 30
0.0
 11
93.49999999999994
 21
87.6893398282201
 31
0.0
  0
LINE
  5
8C4C
330
8B4F
100
AcDbEntity
  8
2
  6
Continuous
 62
     6
100
AcDbLine
 10
88.3660802145968
 20
88.21227429230885
 30
0.0
 11
89.0841128978754
 21
88.93030697558732
 31
0.0
  0
LINE
  5
8C4D
330
8B4F
100
AcDbEntity
  8
2
  6
Continuous
 62
     6
100
AcDbLine
 10
86.49999999999996
 20
90.23528137423785
 30
0.0
 11
87.48272401107071
 21
91.21800538530839
 31
0.0
  0
LINE
  5
8C4E
330
8B4F
100
AcDbEntity
  8
2
  6
Continuous
 62
     6
100
AcDbLine
 10
92.49999999999994
 20
91.63908729652552
 30
0.0
 11
92.6109127034743
 21
91.75
 31
0.0
  0
LINE
  5
8C4F
330
8B4F
100
AcDbEntity
  8
2
  6
Continuous
 62
     6
100
AcDbLine
 10
87.78375698303165
 20
89.04416462311656
 30
0.0
 11
88.50178966631011
 21
89.76219730639526
 31
0.0
  0
LINE
  5
8C50
330
8B4F
100
AcDbEntity
  8
2
  6
Continuous
 62
     6
100
AcDbLine
 10
86.49999999999996
 20
89.17462120245785
 30
0.0
 11
87.91946643474473
 21
90.59408763720295
 31
0.0
  0
LINE
  5
8C51
330
8B4F
100
AcDbEntity
  8
2
  6
Continuous
 62
     6
100
AcDbLine
 10
86.49999999999996
 20
86.69974746830519
 30
0.0
 11
87.49999999999994
 21
87.69974746830518
 31
0.0
  0
LINE
  5
8C52
330
8B4F
100
AcDbEntity
  8
2
  6
Continuous
 62
     6
100
AcDbLine
 10
89.82188829351029
 20
86.13254846528992
 30
0.0
 11
90.53992097678877
 21
86.85058114856815
 31
0.0
  0
LINE
  5
8C53
330
8B4F
100
AcDbEntity
  8
2
  6
Continuous
 62
     6
100
AcDbLine
 10
90.84095394874982
 20
84.6767403863763
 30
0.0
 11
91.55898663202817
 21
85.39477306965489
 31
0.0
  0
LINE
  5
8C54
330
8B4F
100
AcDbEntity
  8
2
  6
Continuous
 62
     6
100
AcDbLine
 10
90.4042115250758
 20
85.30065813448244
 30
0.0
 11
91.12224420835405
 21
86.01869081776092
 31
0.0
  0
LINE
  5
8C55
330
8B4F
100
AcDbEntity
  8
2
  6
Continuous
 62
     6
100
AcDbLine
 10
92.49999999999994
 20
90.93198051533921
 30
0.0
 11
93.31801948466074
 21
91.75
 31
0.0
  0
LINE
  5
8C56
330
8B4F
100
AcDbEntity
  8
2
  6
Continuous
 62
     6
100
AcDbLine
 10
86.49999999999996
 20
88.46751442127162
 30
0.0
 11
88.21062805052742
 21
90.17814247179865
 31
0.0
  0
LINE
  5
8C57
330
8B4F
100
AcDbEntity
  8
2
  6
Continuous
 62
     6
100
AcDbLine
 10
92.49999999999994
 20
89.87132034355942
 30
0.0
 11
93.49999999999994
 21
90.8713203435593
 31
0.0
  0
LINE
  5
8C58
330
8B4F
100
AcDbEntity
  8
2
  6
Continuous
 62
     6
100
AcDbLine
 10
86.49999999999996
 20
87.0533008588983
 30
0.0
 11
87.49999999999994
 21
88.0533008588983
 31
0.0
  0
LINE
  5
8C59
330
8B4F
100
AcDbEntity
  8
2
  6
Continuous
 62
     6
100
AcDbLine
 10
92.49999999999994
 20
90.57842712474577
 30
0.0
 11
93.49999999999994
 21
91.57842712474577
 31
0.0
  0
LINE
  5
8C5A
330
8B4F
100
AcDbEntity
  8
2
  6
Continuous
 62
     6
100
AcDbLine
 10
92.49999999999994
 20
91.28553390593244
 30
0.0
 11
92.96446609406762
 21
91.75
 31
0.0
  0
LINE
  5
8C5B
330
8B4F
100
AcDbEntity
  8
2
  6
Continuous
 62
     6
100
AcDbLine
 10
90.6953731408584
 20
84.88471296907833
 30
0.0
 11
91.41340582413677
 21
85.60274565235671
 31
0.0
  0
LINE
  5
8C5C
330
8B4F
100
AcDbEntity
  8
2
  6
Continuous
 62
     6
100
AcDbLine
 10
86.49999999999996
 20
87.76040764008518
 30
0.0
 11
87.49999999999994
 21
88.7604076400852
 31
0.0
  0
LINE
  5
8C5D
330
8B4F
100
AcDbEntity
  8
2
  6
Continuous
 62
     6
100
AcDbLine
 10
89.09398425405361
 20
87.17241137879943
 30
0.0
 11
89.81201693733195
 21
87.89044406207779
 31
0.0
  0
LINE
  5
8C5E
330
8B4F
100
AcDbEntity
  8
2
  6
Continuous
 62
     6
100
AcDbLine
 10
86.49999999999996
 20
83.87132034355932
 30
0.0
 11
87.49999999999994
 21
84.87132034355932
 31
0.0
  0
LINE
  5
8C5F
330
8B4F
100
AcDbEntity
  8
2
  6
Continuous
 62
     6
100
AcDbLine
 10
87.63817617514025
 20
89.2521372058186
 30
0.0
 11
88.35620885841882
 21
89.97016988909695
 31
0.0
  0
LINE
  5
8C60
330
8B4F
100
AcDbEntity
  8
2
  6
Continuous
 62
     6
100
AcDbLine
 10
92.49999999999994
 20
85.98223304703367
 30
0.0
 11
93.49999999999994
 21
86.98223304703367
 31
0.0
  0
LINE
  5
8C61
330
8B4F
100
AcDbEntity
  8
2
  6
Continuous
 62
     6
100
AcDbLine
 10
92.49999999999994
 20
87.0428932188132
 30
0.0
 11
93.49999999999994
 21
88.0428932188132
 31
0.0
  0
LINE
  5
8C62
330
8B4F
100
AcDbEntity
  8
2
  6
Continuous
 62
     6
100
AcDbLine
 10
92.49999999999994
 20
84.56801948466045
 30
0.0
 11
93.49999999999994
 21
85.56801948466045
 31
0.0
  0
LINE
  5
8C63
330
8B4F
100
AcDbEntity
  8
2
  6
Continuous
 62
     6
100
AcDbLine
 10
86.49999999999996
 20
88.1139610306784
 30
0.0
 11
87.49999999999994
 21
89.11396103067842
 31
0.0
  0
LINE
  5
8C64
330
8B4F
100
AcDbEntity
  8
2
  6
Continuous
 62
     6
100
AcDbLine
 10
92.49999999999994
 20
86.33578643762701
 30
0.0
 11
93.49999999999994
 21
87.33578643762701
 31
0.0
  0
LINE
  5
8C65
330
8B4F
100
AcDbEntity
  8
2
  6
Continuous
 62
     6
100
AcDbLine
 10
87.92933779092306
 20
88.83619204041471
 30
0.0
 11
88.6473704742014
 21
89.55422472369308
 31
0.0
  0
LINE
  5
8C66
330
8B4F
100
AcDbEntity
  8
2
  6
Continuous
 62
     6
100
AcDbLine
 10
86.49999999999996
 20
85.28553390593243
 30
0.0
 11
87.49999999999994
 21
86.28553390593244
 31
0.0
  0
LINE
  5
8C67
330
8B4F
100
AcDbEntity
  8
2
  6
Continuous
 62
     6
100
AcDbLine
 10
86.49999999999996
 20
88.82106781186474
 30
0.0
 11
88.06504724263602
 21
90.38611505450068
 31
0.0
  0
LINE
  5
8C68
330
8B4F
100
AcDbEntity
  8
2
  6
Continuous
 62
     6
100
AcDbLine
 10
92.49999999999994
 20
84.92157287525401
 30
0.0
 11
93.49999999999994
 21
85.92157287525401
 31
0.0
  0
LINE
  5
8C69
330
8B4F
100
AcDbEntity
  8
2
  6
Continuous
 62
     6
100
AcDbLine
 10
89.23956506194505
 20
86.9644387960975
 30
0.0
 11
89.95759774522348
 21
87.68247147937609
 31
0.0
  0
LINE
  5
8C6A
330
8B4F
100
AcDbEntity
  8
2
  6
Continuous
 62
     5
100
AcDbLine
 10
87.1103277807868
 20
91.75
 30
0.0
 11
92.49999999999994
 21
84.0504682582665
 31
0.0
  0
LINE
  5
8C6B
330
8B4F
100
AcDbEntity
  8
2
  6
Continuous
 62
     6
100
AcDbLine
 10
91.56885798820651
 20
83.63687747286702
 30
0.0
 11
92.28689067148485
 21
84.35491015614536
 31
0.0
  0
LINE
  5
8C6C
330
8B4F
100
AcDbEntity
  8
2
  6
Continuous
 62
     6
100
AcDbLine
 10
89.96746910140158
 20
85.92457588258822
 30
0.0
 11
90.6855017846802
 21
86.64260856586635
 31
0.0
  0
ARC
  5
8C6D
330
8B4F
100
AcDbEntity
  8
1
  6
Continuous
 62
     1
100
AcDbCircle
 10
89.99999999999994
 20
114.0
 30
0.0
 40
8.0
100
AcDbArc
 50
46.5674634422112
 51
133.4325365577887
  0
ARC
  5
8C6E
330
8B4F
100
AcDbEntity
  8
1
  6
Continuous
 62
     2
100
AcDbCircle
 10
89.99999999999994
 20
114.0
 30
0.0
 40
5.5
100
AcDbArc
 50
180.0
 51
0.0
  0
LINE
  5
8C6F
330
8B4F
100
AcDbEntity
  8
1
  6
Continuous
 62
     1
100
AcDbLine
 10
93.99999999999996
 20
111.6905989232414
 30
0.0
 11
93.99999999999996
 21
116.3094010767582
 31
0.0
  0
LINE
  5
8C70
330
8B4F
100
AcDbEntity
  8
1
  6
Continuous
 62
     1
100
AcDbLine
 10
89.99999999999994
 20
109.3811978464829
 30
0.0
 11
93.99999999999996
 21
111.6905989232414
 31
0.0
  0
LINE
  5
8C71
330
8B4F
100
AcDbEntity
  8
1
  6
Continuous
 62
     1
100
AcDbLine
 10
85.99999999999994
 20
111.6905989232414
 30
0.0
 11
89.99999999999994
 21
109.3811978464829
 31
0.0
  0
LINE
  5
8C72
330
8B4F
100
AcDbEntity
  8
1
  6
Continuous
 62
     1
100
AcDbLine
 10
85.99999999999994
 20
116.3094010767582
 30
0.0
 11
85.99999999999994
 21
111.6905989232414
 31
0.0
  0
LINE
  5
8C73
330
8B4F
100
AcDbEntity
  8
1
  6
Continuous
 62
     1
100
AcDbLine
 10
89.99999999999994
 20
118.6188021535165
 30
0.0
 11
85.99999999999994
 21
116.3094010767582
 31
0.0
  0
LINE
  5
8C74
330
8B4F
100
AcDbEntity
  8
1
  6
Continuous
 62
     1
100
AcDbLine
 10
93.99999999999996
 20
116.3094010767582
 30
0.0
 11
89.99999999999994
 21
118.6188021535165
 31
0.0
  0
LINE
  5
8C75
330
8B4F
100
AcDbEntity
  8
1
  6
Continuous
 62
     5
100
AcDbLine
 10
98.49999999999994
 20
156.0
 30
0.0
 11
75.99999999999993
 21
130.0
 31
0.0
  0
LINE
  5
8C76
330
8B4F
100
AcDbEntity
  8
1
  6
Continuous
 62
     3
100
AcDbLine
 10
52.5
 20
171.0
 30
0.0
 11
52.5
 21
149.0
 31
0.0
  0
LINE
  5
8C77
330
8B4F
100
AcDbEntity
  8
1
  6
Continuous
 62
     5
100
AcDbLine
 10
58.99999999999995
 20
130.0
 30
0.0
 11
66.49999999999995
 21
150.0
 31
0.0
  0
LINE
  5
8C78
330
8B4F
100
AcDbEntity
  8
1
  6
Continuous
 62
     3
100
AcDbLine
 10
112.5
 20
171.0
 30
0.0
 11
112.5
 21
149.0
 31
0.0
  0
LINE
  5
8C79
330
8B4F
100
AcDbEntity
  8
1
  6
Continuous
 62
     5
100
AcDbLine
 10
98.49999999999994
 20
174.5
 30
0.0
 11
126.5
 21
174.5
 31
0.0
  0
LINE
  5
8C7A
330
8B4F
100
AcDbEntity
  8
1
  6
Continuous
 62
     5
100
AcDbLine
 10
38.5
 20
174.5
 30
0.0
 11
66.49999999999995
 21
174.5
 31
0.0
  0
ENDBLK
  5
8C7C
330
8B4F
100
AcDbEntity
  8
0
100
AcDbBlockEnd
  0
BLOCK
  5
8D84
330
8D7A
100
AcDbEntity
  8
0
100
AcDbBlockBegin
  2
*D27
 70
     1
 10
0.0
 20
0.0
 30
0.0
  3
*D27
  1

  0
LINE
  5
8D98
330
8D7A
100
AcDbEntity
  8
30
  6
Continuous
 62
     0
100
AcDbLine
 10
357.1780273244878
 20
131.0
 30
0.0
 11
357.1780273244878
 21
148.5635069066129
 31
0.0
  0
LINE
  5
8D99
330
8D7A
100
AcDbEntity
  8
30
  6
Continuous
 62
     0
100
AcDbLine
 10
282.1780273244878
 20
131.0
 30
0.0
 11
282.1780273244878
 21
148.5635069066129
 31
0.0
  0
LINE
  5
8D9A
330
8D7A
100
AcDbEntity
  8
30
  6
Continuous
 62
     0
100
AcDbLine
 10
355.1780273244878
 20
148.0635069066129
 30
0.0
 11
284.1780273244878
 21
148.0635069066129
 31
0.0
  0
INSERT
  5
8D9B
330
8D7A
100
AcDbEntity
  8
30
  6
Continuous
 62
     0
100
AcDbBlockReference
  2
_OPEN
 10
357.1780273244878
 20
148.0635069066129
 30
0.0
 41
2.0
 42
2.0
 43
2.0
  0
INSERT
  5
8D9C
330
8D7A
100
AcDbEntity
  8
30
  6
Continuous
 62
     0
100
AcDbBlockReference
  2
_OPEN
 10
282.1780273244878
 20
148.0635069066129
 30
0.0
 41
2.0
 42
2.0
 43
2.0
 50
180.0
  0
MTEXT
  5
8D9D
330
8D7A
100
AcDbEntity
  8
30
  6
Continuous
 62
     0
100
AcDbMText
 10
319.6780273244878
 20
151.0635069066128
 30
0.0
 40
4.0
 41
0.0
 71
     5
 72
     1
  1
\A1;75
 73
     1
 44
1.0
1001
ACAD
1000
MTEXTBEGIN
1070
    73
1070
     1
1070
    44
1040
1.0
1070
    74
1070
     0
1000
MTEXTEND
  0
POINT
  5
8D9E
330
8D7A
100
AcDbEntity
  8
DEFPOINTS
  6
Continuous
 62
     0
100
AcDbPoint
 10
357.1780273244878
 20
130.0
 30
0.0
  0
POINT
  5
8D9F
330
8D7A
100
AcDbEntity
  8
DEFPOINTS
  6
Continuous
 62
     0
100
AcDbPoint
 10
282.1780273244878
 20
130.0
 30
0.0
  0
POINT
  5
8DA0
330
8D7A
100
AcDbEntity
  8
DEFPOINTS
  6
Continuous
 62
     0
100
AcDbPoint
 10
282.1780273244878
 20
148.0635069066129
 30
0.0
  0
ENDBLK
  5
8D85
330
8D7A
100
AcDbEntity
  8
0
100
AcDbBlockEnd
  0
BLOCK
  5
8DB8
330
8DAE
100
AcDbEntity
  8
0
100
AcDbBlockBegin
  2
*D28
 70
     1
 10
0.0
 20
0.0
 30
0.0
  3
*D28
  1

  0
LINE
  5
8DC3
330
8DAE
100
AcDbEntity
  8
30
  6
Continuous
 62
     0
100
AcDbLine
 10
357.1780273244878
 20
-130.9999999999999
 30
0.0
 11
357.1780273244878
 21
-148.5635069066125
 31
0.0
  0
LINE
  5
8DC4
330
8DAE
100
AcDbEntity
  8
30
  6
Continuous
 62
     0
100
AcDbLine
 10
285.1780273244878
 20
-130.9999999999999
 30
0.0
 11
285.1780273244878
 21
-148.5635069066125
 31
0.0
  0
LINE
  5
8DC5
330
8DAE
100
AcDbEntity
  8
30
  6
Continuous
 62
     0
100
AcDbLine
 10
355.1780273244878
 20
-148.0635069066124
 30
0.0
 11
287.1780273244878
 21
-148.0635069066124
 31
0.0
  0
INSERT
  5
8DC6
330
8DAE
100
AcDbEntity
  8
30
  6
Continuous
 62
     0
100
AcDbBlockReference
  2
_OPEN
 10
357.1780273244878
 20
-148.0635069066124
 30
0.0
 41
2.0
 42
2.0
 43
2.0
  0
INSERT
  5
8DC7
330
8DAE
100
AcDbEntity
  8
30
  6
Continuous
 62
     0
100
AcDbBlockReference
  2
_OPEN
 10
285.1780273244878
 20
-148.0635069066124
 30
0.0
 41
2.0
 42
2.0
 43
2.0
 50
180.0
  0
MTEXT
  5
8DC8
330
8DAE
100
AcDbEntity
  8
30
  6
Continuous
 62
     0
100
AcDbMText
 10
321.1780273244877
 20
-145.0635069066125
 30
0.0
 40
4.0
 41
0.0
 71
     5
 72
     1
  1
\A1;72
 73
     1
 44
1.0
1001
ACAD
1000
MTEXTBEGIN
1070
    73
1070
     1
1070
    44
1040
1.0
1070
    74
1070
     0
1000
MTEXTEND
  0
POINT
  5
8DC9
330
8DAE
100
AcDbEntity
  8
DEFPOINTS
  6
Continuous
 62
     0
100
AcDbPoint
 10
357.1780273244878
 20
-129.9999999999999
 30
0.0
  0
POINT
  5
8DCA
330
8DAE
100
AcDbEntity
  8
DEFPOINTS
  6
Continuous
 62
     0
100
AcDbPoint
 10
285.1780273244878
 20
-129.9999999999999
 30
0.0
  0
POINT
  5
8DCB
330
8DAE
100
AcDbEntity
  8
DEFPOINTS
  6
Continuous
 62
     0
100
AcDbPoint
 10
285.1780273244878
 20
-148.0635069066124
 30
0.0
  0
ENDBLK
  5
8DB9
330
8DAE
100
AcDbEntity
  8
0
100
AcDbBlockEnd
  0
BLOCK
  5
8DD7
330
8DCD
100
AcDbEntity
  8
0
100
AcDbBlockBegin
  2
*D29
 70
     1
 10
0.0
 20
0.0
 30
0.0
  3
*D29
  1

  0
LINE
  5
8DE6
330
8DCD
100
AcDbEntity
  8
30
  6
Continuous
 62
     0
100
AcDbLine
 10
217.1780273244876
 20
-52.9999999999999
 30
0.0
 11
217.1780273244876
 21
-161.2311689432339
 31
0.0
  0
LINE
  5
8DE7
330
8DCD
100
AcDbEntity
  8
30
  6
Continuous
 62
     0
100
AcDbLine
 10
357.1780273244878
 20
-131.9999999999999
 30
0.0
 11
357.1780273244878
 21
-161.2311689432339
 31
0.0
  0
LINE
  5
8DE8
330
8DCD
100
AcDbEntity
  8
30
  6
Continuous
 62
     0
100
AcDbLine
 10
219.1780273244877
 20
-160.7311689432339
 30
0.0
 11
355.1780273244878
 21
-160.7311689432339
 31
0.0
  0
INSERT
  5
8DE9
330
8DCD
100
AcDbEntity
  8
30
  6
Continuous
 62
     0
100
AcDbBlockReference
  2
_OPEN
 10
217.1780273244876
 20
-160.7311689432339
 30
0.0
 41
2.0
 42
2.0
 43
2.0
 50
180.0
  0
INSERT
  5
8DEA
330
8DCD
100
AcDbEntity
  8
30
  6
Continuous
 62
     0
100
AcDbBlockReference
  2
_OPEN
 10
357.1780273244878
 20
-160.7311689432339
 30
0.0
 41
2.0
 42
2.0
 43
2.0
  0
MTEXT
  5
8DEB
330
8DCD
100
AcDbEntity
  8
30
  6
Continuous
 62
     0
100
AcDbMText
 10
287.1780273244878
 20
-157.731168943234
 30
0.0
 40
4.0
 41
0.0
 71
     5
 72
     1
  1
\A1;140
 73
     1
 44
1.0
1001
ACAD
1000
MTEXTBEGIN
1070
    73
1070
     1
1070
    44
1040
1.0
1070
    74
1070
     0
1000
MTEXTEND
  0
POINT
  5
8DEC
330
8DCD
100
AcDbEntity
  8
DEFPOINTS
  6
Continuous
 62
     0
100
AcDbPoint
 10
217.1780273244876
 20
-51.99999999999988
 30
0.0
  0
POINT
  5
8DED
330
8DCD
100
AcDbEntity
  8
DEFPOINTS
  6
Continuous
 62
     0
100
AcDbPoint
 10
357.1780273244878
 20
-130.9999999999999
 30
0.0
  0
POINT
  5
8DEE
330
8DCD
100
AcDbEntity
  8
DEFPOINTS
  6
Continuous
 62
     0
100
AcDbPoint
 10
357.1780273244878
 20
-160.7311689432339
 30
0.0
  0
ENDBLK
  5
8DD8
330
8DCD
100
AcDbEntity
  8
0
100
AcDbBlockEnd
  0
BLOCK
  5
8DE4
330
8DDA
100
AcDbEntity
  8
0
100
AcDbBlockBegin
  2
*D30
 70
     1
 10
0.0
 20
0.0
 30
0.0
  3
*D30
  1

  0
LINE
  5
8DFC
330
8DDA
100
AcDbEntity
  8
30
  6
Continuous
 62
     0
100
AcDbLine
 10
209.1780273244878
 20
-45.99999999999988
 30
0.0
 11
209.1780273244878
 21
-161.2311689432339
 31
0.0
  0
LINE
  5
8DFD
330
8DDA
100
AcDbEntity
  8
30
  6
Continuous
 62
     0
100
AcDbLine
 10
217.1780273244876
 20
-51.99999999999988
 30
0.0
 11
217.1780273244876
 21
-161.2311689432339
 31
0.0
  0
LINE
  5
8DFE
330
8DDA
100
AcDbEntity
  8
30
  6
Continuous
 62
     0
100
AcDbLine
 10
211.1780273244876
 20
-160.7311689432339
 30
0.0
 11
215.1780273244876
 21
-160.7311689432339
 31
0.0
  0
INSERT
  5
8DFF
330
8DDA
100
AcDbEntity
  8
30
  6
Continuous
 62
     0
100
AcDbBlockReference
  2
_OPEN
 10
209.1780273244878
 20
-160.7311689432339
 30
0.0
 41
2.0
 42
2.0
 43
2.0
 50
180.0
  0
INSERT
  5
8E00
330
8DDA
100
AcDbEntity
  8
30
  6
Continuous
 62
     0
100
AcDbBlockReference
  2
_OPEN
 10
217.1780273244876
 20
-160.7311689432339
 30
0.0
 41
2.0
 42
2.0
 43
2.0
  0
MTEXT
  5
8E01
330
8DDA
100
AcDbEntity
  8
30
  6
Continuous
 62
     0
100
AcDbMText
 10
213.1780273244876
 20
-157.731168943234
 30
0.0
 40
4.0
 41
0.0
 71
     5
 72
     1
  1
\A1;8
 73
     1
 44
1.0
1001
ACAD
1000
MTEXTBEGIN
1070
    73
1070
     1
1070
    44
1040
1.0
1070
    74
1070
     0
1000
MTEXTEND
  0
POINT
  5
8E02
330
8DDA
100
AcDbEntity
  8
DEFPOINTS
  6
Continuous
 62
     0
100
AcDbPoint
 10
209.1780273244878
 20
-44.99999999999988
 30
0.0
  0
POINT
  5
8E03
330
8DDA
100
AcDbEntity
  8
DEFPOINTS
  6
Continuous
 62
     0
100
AcDbPoint
 10
217.1780273244876
 20
-50.99999999999988
 30
0.0
  0
POINT
  5
8E04
330
8DDA
100
AcDbEntity
  8
DEFPOINTS
  6
Continuous
 62
     0
100
AcDbPoint
 10
217.1780273244876
 20
-160.7311689432339
 30
0.0
  0
ENDBLK
  5
8DE5
330
8DDA
100
AcDbEntity
  8
0
100
AcDbBlockEnd
  0
BLOCK
  5
8DFA
330
8DF0
100
AcDbEntity
  8
0
100
AcDbBlockBegin
  2
*D31
 70
     1
 10
0.0
 20
0.0
 30
0.0
  3
*D31
  1

  0
LINE
  5
8DF1
330
8DF0
100
AcDbEntity
  8
30
  6
Continuous
 62
     0
100
AcDbLine
 10
175.1780273244875
 20
-0.9999999999998864
 30
0.0
 11
175.1780273244875
 21
-180.7156660163816
 31
0.0
  0
LINE
  5
8DF2
330
8DF0
100
AcDbEntity
  8
30
  6
Continuous
 62
     0
100
AcDbLine
 10
357.1780273244878
 20
-132.9999999999999
 30
0.0
 11
357.1780273244878
 21
-180.7156660163816
 31
0.0
  0
LINE
  5
8DF3
330
8DF0
100
AcDbEntity
  8
30
  6
Continuous
 62
     0
100
AcDbLine
 10
177.1780273244876
 20
-180.2156660163816
 30
0.0
 11
355.1780273244878
 21
-180.2156660163816
 31
0.0
  0
INSERT
  5
8DF4
330
8DF0
100
AcDbEntity
  8
30
  6
Continuous
 62
     0
100
AcDbBlockReference
  2
_OPEN
 10
175.1780273244875
 20
-180.2156660163816
 30
0.0
 41
2.0
 42
2.0
 43
2.0
 50
180.0
  0
INSERT
  5
8DF5
330
8DF0
100
AcDbEntity
  8
30
  6
Continuous
 62
     0
100
AcDbBlockReference
  2
_OPEN
 10
357.1780273244878
 20
-180.2156660163816
 30
0.0
 41
2.0
 42
2.0
 43
2.0
  0
MTEXT
  5
8DF6
330
8DF0
100
AcDbEntity
  8
30
  6
Continuous
 62
     0
100
AcDbMText
 10
266.1780273244878
 20
-177.2156660163816
 30
0.0
 40
4.0
 41
0.0
 71
     5
 72
     1
  1
\A1;182
 73
     1
 44
1.0
1001
ACAD
1000
MTEXTBEGIN
1070
    73
1070
     1
1070
    44
1040
1.0
1070
    74
1070
     0
1000
MTEXTEND
  0
POINT
  5
8DF7
330
8DF0
100
AcDbEntity
  8
DEFPOINTS
  6
Continuous
 62
     0
100
AcDbPoint
 10
175.1780273244875
 20
0.0000000000001137
 30
0.0
  0
POINT
  5
8DF8
330
8DF0
100
AcDbEntity
  8
DEFPOINTS
  6
Continuous
 62
     0
100
AcDbPoint
 10
357.1780273244878
 20
-131.9999999999999
 30
0.0
  0
POINT
  5
8DF9
330
8DF0
100
AcDbEntity
  8
DEFPOINTS
  6
Continuous
 62
     0
100
AcDbPoint
 10
357.1780273244878
 20
-180.2156660163816
 30
0.0
  0
ENDBLK
  5
8DFB
330
8DF0
100
AcDbEntity
  8
0
100
AcDbBlockEnd
  0
BLOCK
  5
8E16
330
8E06
100
AcDbEntity
  8
0
100
AcDbBlockBegin
  2
A$C19355FEF
 70
     0
 10
0.0
 20
0.0
 30
0.0
  3
A$C19355FEF
  1

  0
LINE
  5
8E07
330
8E06
100
AcDbEntity
  8
0
100
AcDbLine
 10
-53.0
 20
-46.0
 30
0.0
 11
53.0
 21
-46.0
 31
0.0
  0
LINE
  5
8E08
330
8E06
100
AcDbEntity
  8
0
100
AcDbLine
 10
-53.0
 20
46.0
 30
0.0
 11
53.0
 21
46.0
 31
0.0
  0
LINE
  5
8E09
330
8E06
100
AcDbEntity
  8
0
100
AcDbLine
 10
-75.0
 20
0.0
 30
0.0
 11
120.0
 21
0.0
 31
0.0
  0
LINE
  5
8E0A
330
8E06
100
AcDbEntity
  8
0
100
AcDbLine
 10
-70.0
 20
-130.0
 30
0.0
 11
115.0
 21
-130.0
 31
0.0
  0
LINE
  5
8E0B
330
8E06
100
AcDbEntity
  8
0
100
AcDbLine
 10
115.0
 20
130.0
 30
0.0
 11
-70.0
 21
130.0
 31
0.0
  0
LINE
  5
8E0C
330
8E06
100
AcDbEntity
  8
0
100
AcDbLine
 10
-59.0
 20
40.0
 30
0.0
 11
-59.0
 21
-40.0
 31
0.0
  0
LINE
  5
8E0D
330
8E06
100
AcDbEntity
  8
0
100
AcDbLine
 10
0.0
 20
138.5
 30
0.0
 11
0.0
 21
-138.5
 31
0.0
  0
LINE
  5
8E0E
330
8E06
100
AcDbEntity
  8
0
100
AcDbLine
 10
-70.0
 20
130.0
 30
0.0
 11
-70.0
 21
-130.0
 31
0.0
  0
ARC
  5
8E0F
330
8E06
100
AcDbEntity
  8
0
100
AcDbCircle
 10
-53.0
 20
-40.0
 30
0.0
 40
6.0
100
AcDbArc
 50
180.0
 51
270.0
  0
ARC
  5
8E10
330
8E06
100
AcDbEntity
  8
0
100
AcDbCircle
 10
-53.0
 20
40.0
 30
0.0
 40
6.0
100
AcDbArc
 50
90.0
 51
180.0
  0
LINE
  5
8E11
330
8E06
100
AcDbEntity
  8
0
100
AcDbLine
 10
59.0
 20
40.0
 30
0.0
 11
59.0
 21
-40.0
 31
0.0
  0
LINE
  5
8E12
330
8E06
100
AcDbEntity
  8
0
100
AcDbLine
 10
115.0
 20
130.0
 30
0.0
 11
115.0
 21
-130.0
 31
0.0
  0
LINE
  5
8E13
330
8E06
100
AcDbEntity
  8
0
100
AcDbLine
 10
70.0
 20
-130.0
 30
0.0
 11
70.0
 21
130.0
 31
0.0
  0
ARC
  5
8E14
330
8E06
100
AcDbEntity
  8
0
100
AcDbCircle
 10
53.0
 20
-40.0
 30
0.0
 40
6.0
100
AcDbArc
 50
270.0
 51
0.0
  0
ARC
  5
8E15
330
8E06
100
AcDbEntity
  8
0
100
AcDbCircle
 10
53.0
 20
40.0
 30
0.0
 40
6.0
100
AcDbArc
 50
0.0
 51
90.0
  0
ENDBLK
  5
8E17
330
8E06
100
AcDbEntity
  8
0
100
AcDbBlockEnd
  0
ENDSEC
  0
SECTION
  2
ENTITIES
  0
LINE
  5
B4
330
1E
100
AcDbEntity
  8
16
100
AcDbLine
 10
0.0
 20
-101.8246001220914
 30
0.0
 11
0.0
 21
105.6073578546832
 31
0.0
  0
LINE
  5
B5
330
1E
100
AcDbEntity
  8
16
100
AcDbLine
 10
71.77465564206305
 20
-0.0000000000000027
 30
0.0
 11
-83.90588178115756
 21
-0.0000000000000027
 31
0.0
  0
MTEXT
  5
BF3
330
1E
100
AcDbEntity
  8
24
  6
Continuous
100
AcDbMText
 10
140.9820964648283
 20
176.3476821548369
 30
0.0
 40
3.0
 41
0.0
 71
     1
 72
     1
  1
\A1;
 73
     1
 44
1.0
1001
ACAD
1000
MTEXTBEGIN
1070
    73
1070
     1
1070
    44
1040
1.0
1070
    74
1070
     0
1000
MTEXTEND
  0
LINE
  5
1C9B
330
1E
100
AcDbEntity
  8
16
100
AcDbLine
 10
386.8570683636626
 20
0.0000000000001137
 30
0.0
 11
168.4871519556748
 21
0.0000000000001137
 31
0.0
  0
MTEXT
  5
5C78
330
1E
100
AcDbEntity
  8
30
  6
Continuous
100
AcDbMText
 10
162.3297648581359
 20
88.99793930010117
 30
0.0
 40
4.0
 41
0.0
 71
     9
 72
     1
  1

 73
     1
 44
1.0
1001
ACAD
1000
MTEXTBEGIN
1070
    73
1070
     1
1070
    44
1040
1.0
1070
    74
1070
     0
1000
MTEXTEND
  0
MTEXT
  5
6200
330
1E
100
AcDbEntity
  8
30
  6
Continuous
100
AcDbMText
 10
160.6290066227675
 20
91.2377397662035
 30
0.0
 40
4.0
 41
0.0
 71
     9
 72
     1
  1

 73
     1
 44
1.0
1001
ACAD
1000
MTEXTBEGIN
1070
    73
1070
     1
1070
    44
1040
1.0
1070
    74
1070
     0
1000
MTEXTEND
  0
LINE
  5
67DB
330
1E
100
AcDbEntity
  8
16
100
AcDbLine
 10
370.0
 20
-360.0
 30
0.0
 11
150.0
 21
-360.0
 31
0.0
  0
LINE
  5
67E2
330
1E
100
AcDbEntity
  8
16
100
AcDbLine
 10
0.0
 20
-506.6279096442683
 30
0.0
 11
0.0
 21
-207.9249011857708
 31
0.0
  0
LINE
  5
67E5
330
1E
100
AcDbEntity
  8
16
100
AcDbLine
 10
84.92745954116058
 20
-360.0
 30
0.0
 11
-118.1067106947925
 21
-360.0
 31
0.0
  0
LINE
  5
67F8
330
1E
100
AcDbEntity
  8
16
100
AcDbLine
 10
270.0
 20
-507.899000675821
 30
0.0
 11
270.0
 21
-210.5283865792193
 31
0.0
  0
LINE
  5
7604
330
1E
100
AcDbEntity
  8
24
  6
CONTINOUS
100
AcDbLine
 10
370.2699465681196
 20
244.4583060179776
 30
0.0
 11
370.2699465681198
 21
229.4583060179774
 31
0.0
  0
LINE
  5
7605
330
1E
100
AcDbEntity
  8
24
  6
CONTINOUS
100
AcDbLine
 10
382.7699465681196
 20
252.6082095171469
 30
0.0
 11
382.7699465681196
 21
224.9583060179773
 31
0.0
  0
LINE
  5
7606
330
1E
100
AcDbEntity
  8
24
  6
CONTINOUS
100
AcDbLine
 10
357.7699465681198
 20
254.0995882088775
 30
0.0
 11
357.7699465681198
 21
224.9583060179773
 31
0.0
  0
LINE
  5
7607
330
1E
100
AcDbEntity
  8
24
  6
CONTINOUS
100
AcDbLine
 10
357.7699465681198
 20
224.9583060179773
 30
0.0
 11
382.7699465681196
 21
224.9583060179773
 31
0.0
  0
LINE
  5
7608
330
1E
100
AcDbEntity
  8
24
  6
CONTINOUS
100
AcDbLine
 10
362.7699465681196
 20
236.9583060179774
 30
0.0
 11
377.7699465681196
 21
236.9583060179774
 31
0.0
  0
CIRCLE
  5
7609
330
1E
100
AcDbEntity
  8
24
  6
CONTINOUS
100
AcDbCircle
 10
370.2699465681196
 20
236.9583060179774
 30
0.0
 40
5.5
  0
ARC
  5
760A
330
1E
100
AcDbEntity
  8
24
  6
CONTINOUS
100
AcDbCircle
 10
375.2575283890661
 20
257.4542240468251
 30
0.0
 40
7.5
100
AcDbArc
 50
251.3586110284597
 51
294.2039969225343
  0
LINE
  5
760B
330
1E
100
AcDbEntity
  8
24
  6
CONTINOUS
100
AcDbLine
 10
361.4520975210171
 20
253.1840931216574
 30
0.0
 11
372.8601993707253
 21
250.347690885162
 31
0.0
  0
ARC
  5
760C
330
1E
100
AcDbEntity
  8
24
  6
CONTINOUS
100
AcDbCircle
 10
358.8949465681196
 20
245.6037910825498
 30
0.0
 40
8.0
100
AcDbArc
 50
71.35861102845979
 51
97.5431319679577
  0
LINE
  5
760D
330
1E
100
AcDbEntity
  8
24
  6
CONTINOUS
100
AcDbLine
 10
378.3324283529356
 20
250.6135376622439
 30
0.0
 11
382.7699465681196
 21
252.6082095171469
 31
0.0
  0
CIRCLE
  5
7625
330
1E
100
AcDbEntity
  8
12
  6
Continuous
 62
     3
100
AcDbCircle
 10
-22.49999999999977
 20
-253.0
 30
0.0
 40
3.0
  0
LINE
  5
762A
330
1E
100
AcDbEntity
  8
12
  6
Continuous
 62
     3
100
AcDbLine
 10
-22.49999999999977
 20
-246.0
 30
0.0
 11
-22.49999999999977
 21
-260.0
 31
0.0
  0
LINE
  5
7630
330
1E
100
AcDbEntity
  8
12
  6
Continuous
 62
     3
100
AcDbLine
 10
15.50000000000022
 20
-467.0
 30
0.0
 11
29.50000000000022
 21
-467.0
 31
0.0
  0
CIRCLE
  5
7631
330
1E
100
AcDbEntity
  8
12
  6
Continuous
 62
     3
100
AcDbCircle
 10
22.50000000000022
 20
-467.0
 30
0.0
 40
3.0
  0
LINE
  5
7632
330
1E
100
AcDbEntity
  8
12
  6
Continuous
 62
     3
100
AcDbLine
 10
22.50000000000022
 20
-460.0
 30
0.0
 11
22.50000000000022
 21
-474.0
 31
0.0
  0
LINE
  5
7634
330
1E
100
AcDbEntity
  8
12
  6
Continuous
 62
     3
100
AcDbLine
 10
-29.49999999999977
 20
-253.0
 30
0.0
 11
-15.49999999999974
 21
-253.0
 31
0.0
  0
ARC
  5
7648
330
1E
100
AcDbEntity
  8
11
 48
2.0
100
AcDbCircle
 10
323.0
 20
-400.0
 30
0.0
 40
6.0
100
AcDbArc
 50
270.0
 51
0.0
  0
ARC
  5
7649
330
1E
100
AcDbEntity
  8
11
 48
2.0
100
AcDbCircle
 10
217.0
 20
-400.0
 30
0.0
 40
6.0
100
AcDbArc
 50
180.0
 51
270.0
  0
LINE
  5
764D
330
1E
100
AcDbEntity
  8
11
 48
2.0
100
AcDbLine
 10
217.0
 20
-406.0
 30
0.0
 11
323.0
 21
-406.0
 31
0.0
  0
LINE
  5
764F
330
1E
100
AcDbEntity
  8
11
 48
2.0
100
AcDbLine
 10
217.0
 20
-313.9999999999998
 30
0.0
 11
323.0
 21
-313.9999999999998
 31
0.0
  0
LINE
  5
7652
330
1E
100
AcDbEntity
  8
11
 48
2.0
100
AcDbLine
 10
211.0
 20
-319.9999999999998
 30
0.0
 11
211.0
 21
-400.0
 31
0.0
  0
ARC
  5
7653
330
1E
100
AcDbEntity
  8
11
 48
2.0
100
AcDbCircle
 10
217.0
 20
-319.9999999999998
 30
0.0
 40
6.0
100
AcDbArc
 50
90.0
 51
180.0
  0
LINE
  5
7654
330
1E
100
AcDbEntity
  8
11
 48
2.0
100
AcDbLine
 10
329.0
 20
-319.9999999999998
 30
0.0
 11
329.0
 21
-400.0
 31
0.0
  0
ARC
  5
7655
330
1E
100
AcDbEntity
  8
11
 48
2.0
100
AcDbCircle
 10
323.0
 20
-319.9999999999998
 30
0.0
 40
6.0
100
AcDbArc
 50
0.0
 51
90.0
  0
DIMENSION
  5
7671
330
1E
100
AcDbEntity
  8
30
  6
Continuous
100
AcDbDimension
  2
*D4
 10
-97.09969543092007
 20
-467.0
 30
0.0
 11
-100.0996954309199
 21
-360.0
 31
0.0
 70
    32
 71
     5
 42
-1.0
  3
STANDARD
100
AcDbAlignedDimension
 13
-34.04569613739271
 23
-253.0
 33
0.0
 14
-29.50000000000022
 24
-467.0
 34
0.0
 50
90.0
100
AcDbRotatedDimension
1001
ACAD
1000
DSTYLE
1002
{
1070
    79
1070
     3
1002
}
  0
DIMENSION
  5
767E
330
1E
100
AcDbEntity
  8
30
  6
Continuous
100
AcDbDimension
  2
*D5
 10
22.5000000000002
 20
-518.7040664304709
 30
0.0
 11
-0.0000000000000034
 21
-515.7040664304709
 31
0.0
 70
    32
 71
     5
 42
-1.0
  3
STANDARD
100
AcDbAlignedDimension
 13
-22.50000000000022
 23
-474.0
 33
0.0
 14
22.50000000000022
 24
-474.0
 34
0.0
100
AcDbRotatedDimension
1001
ACAD
1000
DSTYLE
1002
{
1070
    79
1070
     3
1002
}
  0
DIMENSION
  5
7694
330
1E
100
AcDbEntity
  8
30
  6
Continuous
100
AcDbDimension
  2
*D6
 10
323.0
 20
-320.0
 30
0.0
 11
358.3264163067303
 21
-306.0312994595847
 31
0.0
 70
   164
 71
     5
 42
-1.0
  3
STANDARD
100
AcDbRadialDimension
 15
328.4700873851311
 25
-317.5346107814316
 35
0.0
 40
0.0
1001
ACAD
1000
DSTYLE
1002
{
1070
    79
1070
     3
1070
   288
1070
     1
1002
}
  0
DIMENSION
  5
76A8
330
1E
100
AcDbEntity
  8
30
  6
Continuous
100
AcDbDimension
  2
*D7
 10
329.0
 20
-430.9055588177362
 30
0.0
 11
270.0
 21
-427.9055588177362
 31
0.0
 70
    32
 71
     5
 42
-1.0
  3
STANDARD
100
AcDbAlignedDimension
 13
211.0
 23
-400.0
 33
0.0
 14
329.0
 24
-400.0
 34
0.0
100
AcDbRotatedDimension
1001
ACAD
1000
DSTYLE
1002
{
1070
    79
1070
     3
1002
}
  0
DIMENSION
  5
76B5
330
1E
100
AcDbEntity
  8
30
  6
Continuous
100
AcDbDimension
  2
*D8
 10
363.0844752481832
 20
-406.0
 30
0.0
 11
360.0844752481833
 21
-359.9999999999998
 31
0.0
 70
    32
 71
     5
 42
-1.0
  3
STANDARD
100
AcDbAlignedDimension
 13
323.0
 23
-313.9999999999998
 33
0.0
 14
323.0
 24
-406.0
 34
0.0
 50
90.0
100
AcDbRotatedDimension
1001
ACAD
1000
DSTYLE
1002
{
1070
    79
1070
     3
1002
}
  0
DIMENSION
  5
76C3
330
1E
100
AcDbEntity
  8
30
  6
Continuous
100
AcDbDimension
  2
*D9
 10
382.7699465681196
 20
209.3720260004829
 30
0.0
 11
370.2699465681196
 21
212.3720260004831
 31
0.0
 70
    32
 71
     5
 42
-1.0
  3
STANDARD
100
AcDbAlignedDimension
 13
357.7699465681198
 23
224.9583060179773
 33
0.0
 14
382.7699465681196
 24
224.9583060179773
 34
0.0
100
AcDbRotatedDimension
1001
ACAD
1000
DSTYLE
1002
{
1070
    79
1070
     3
1002
}
  0
DIMENSION
  5
76D0
330
1E
100
AcDbEntity
  8
30
  6
Continuous
100
AcDbDimension
  2
*D10
 10
399.2122762463086
 20
236.9583060179774
 30
0.0
 11
396.2122762463085
 21
230.9583060179776
 31
0.0
 70
    32
 71
     5
 42
-1.0
  3
STANDARD
100
AcDbAlignedDimension
 13
382.7699465681196
 23
224.9583060179773
 33
0.0
 14
377.7699465681196
 24
236.9583060179774
 34
0.0
 50
90.0
100
AcDbRotatedDimension
1001
ACAD
1000
DSTYLE
1002
{
1070
    79
1070
     3
1002
}
  0
DIMENSION
  5
76DD
330
1E
100
AcDbEntity
  8
30
  6
Continuous
100
AcDbDimension
  2
*D11
 10
366.8268734197178
 20
232.6693379259118
 30
0.0
 11
393.7347867019194
 21
259.9595920045166
 31
0.0
 70
   163
 71
     5
 42
-1.0
  3
STANDARD
100
AcDbDiametricDimension
 15
373.7130197165208
 25
241.2472741100429
 35
0.0
 40
0.0
1001
ACAD
1000
DSTYLE
1002
{
1070
    79
1070
     3
1070
   288
1070
     1
1002
}
  0
LINE
  5
7868
330
1E
100
AcDbEntity
  8
16
100
AcDbLine
 10
-0.0000610351601154
 20
249.5036347984199
 30
0.0
 11
-0.0000000000000142
 21
445.9135518911589
 31
0.0
  0
DIMENSION
  5
7B7C
330
1E
100
AcDbEntity
  8
30
  6
Continuous
100
AcDbDimension
  2
*D12
 10
-20.69592979943652
 20
-255.3969419499519
 30
0.0
 11
-57.49244820641698
 21
-220.6800347238195
 31
0.0
 70
   163
  1
M6
 71
     5
 42
-1.0
  3
STANDARD
100
AcDbDiametricDimension
 15
-24.30407020056291
 25
-250.603058050048
 35
0.0
 40
0.0
1001
ACAD
1000
DSTYLE
1002
{
1070
    79
1070
     3
1070
   288
1070
     1
1002
}
  0
LINE
  5
7C32
330
1E
100
AcDbEntity
  8
10
  6
CONTINOUS
100
AcDbLine
 10
70.0
 20
293.4369478956378
 30
0.0
 11
-70.000006238623
 21
293.4369478956378
 31
0.0
  0
LINE
  5
7C33
330
1E
100
AcDbEntity
  8
10
  6
CONTINOUS
100
AcDbLine
 10
70.0
 20
287.4369478956378
 30
0.0
 11
-70.000006238623
 21
287.4369478956378
 31
0.0
  0
LINE
  5
7C34
330
1E
100
AcDbEntity
  8
10
  6
CONTINOUS
100
AcDbLine
 10
57.99999376137697
 20
283.4369478956378
 30
0.0
 11
-58.000006238623
 21
283.4369478956378
 31
0.0
  0
LINE
  5
7C35
330
1E
100
AcDbEntity
  8
10
  6
CONTINOUS
100
AcDbLine
 10
69.9999999999999
 20
428.4369478956378
 30
0.0
 11
-70.00000623862298
 21
428.4369478956378
 31
0.0
  0
LINE
  5
7C36
330
1E
100
AcDbEntity
  8
10
  6
CONTINOUS
100
AcDbLine
 10
-70.000006238623
 20
287.4369478956378
 30
0.0
 11
-70.00000623862298
 21
428.4369478956378
 31
0.0
  0
LINE
  5
7C3D
330
1E
100
AcDbEntity
  8
10
  6
CONTINOUS
100
AcDbLine
 10
-58.000006238623
 20
283.4369478956378
 30
0.0
 11
-58.000006238623
 21
287.4369478956378
 31
0.0
  0
LINE
  5
7C42
330
1E
100
AcDbEntity
  8
10
  6
CONTINOUS
100
AcDbLine
 10
16.99999376137705
 20
250.9369478956378
 30
0.0
 11
-17.0000062386231
 21
250.9369478956378
 31
0.0
  0
LINE
  5
7C43
330
1E
100
AcDbEntity
  8
10
  6
CONTINOUS
100
AcDbLine
 10
17.999993761377
 20
279.4369478956378
 30
0.0
 11
-18.00000623862294
 21
279.4369478956378
 31
0.0
  0
LINE
  5
7C44
330
1E
100
AcDbEntity
  8
10
  6
CONTINOUS
100
AcDbLine
 10
-17.0000062386231
 20
250.9369478956378
 30
0.0
 11
-17.0000062386231
 21
279.4369478956378
 31
0.0
  0
LINE
  5
7C45
330
1E
100
AcDbEntity
  8
10
  6
CONTINOUS
100
AcDbLine
 10
-18.00000623862294
 20
279.4369478956378
 30
0.0
 11
-18.00000623862294
 21
283.4369478956378
 31
0.0
  0
LINE
  5
7C46
330
1E
100
AcDbEntity
  8
10
  6
CONTINOUS
100
AcDbLine
 10
16.99999376137705
 20
250.9369478956378
 30
0.0
 11
16.99999376137705
 21
279.4369478956378
 31
0.0
  0
LINE
  5
7C47
330
1E
100
AcDbEntity
  8
10
  6
CONTINOUS
100
AcDbLine
 10
17.999993761377
 20
279.4369478956378
 30
0.0
 11
17.999993761377
 21
283.4369478956378
 31
0.0
  0
LINE
  5
7C57
330
1E
100
AcDbEntity
  8
10
  6
CONTINOUS
100
AcDbLine
 10
70.0
 20
287.4369478956378
 30
0.0
 11
69.9999999999999
 21
428.4369478956378
 31
0.0
  0
LINE
  5
7C5A
330
1E
100
AcDbEntity
  8
10
  6
CONTINOUS
100
AcDbLine
 10
57.99999376137697
 20
283.4369478956378
 30
0.0
 11
57.99999376137697
 21
287.4369478956378
 31
0.0
  0
LINE
  5
7C87
330
1E
100
AcDbEntity
  8
24
  6
CONTINOUS
100
AcDbLine
 10
53.76574955133985
 20
345.5369478956378
 30
0.0
 11
53.76574955133985
 21
351.9369478956378
 31
0.0
  0
LINE
  5
7C88
330
1E
100
AcDbEntity
  8
24
  6
CONTINOUS
100
AcDbLine
 10
35.96574955133995
 20
345.5369478956378
 30
0.0
 11
53.76574955133985
 21
345.5369478956378
 31
0.0
  0
LINE
  5
7C8B
330
1E
100
AcDbEntity
  8
24
  6
CONTINOUS
100
AcDbLine
 10
35.66574955133992
 20
351.9369478956378
 30
0.0
 11
54.06574955133987
 21
351.9369478956378
 31
0.0
  0
LINE
  5
7C8C
330
1E
100
AcDbEntity
  8
24
  6
CONTINOUS
100
AcDbLine
 10
54.06574955133987
 20
351.9369478956378
 30
0.0
 11
54.06574955133987
 21
354.4369478956378
 31
0.0
  0
LINE
  5
7C8F
330
1E
100
AcDbEntity
  8
24
  6
CONTINOUS
100
AcDbLine
 10
35.96574955133995
 20
345.5369478956378
 30
0.0
 11
35.96574955133995
 21
351.9369478956378
 31
0.0
  0
LINE
  5
7C90
330
1E
100
AcDbEntity
  8
24
  6
CONTINOUS
100
AcDbLine
 10
35.66574955133992
 20
351.9369478956378
 30
0.0
 11
35.66574955133992
 21
354.4369478956378
 31
0.0
  0
MTEXT
  5
7CA7
330
1E
100
AcDbEntity
  8
30
  6
Continuous
100
AcDbMText
 10
210.8686476596813
 20
139.5216160708496
 30
0.0
 40
4.0
 41
0.0
 71
     9
 72
     1
  1
\A1;
 73
     1
 44
1.0
1001
ACAD
1000
MTEXTBEGIN
1070
    73
1070
     1
1070
    44
1040
1.0
1070
    74
1070
     0
1000
MTEXTEND
  0
MTEXT
  5
7CA9
330
1E
100
AcDbEntity
  8
30
  6
Continuous
100
AcDbMText
 10
217.6088870093234
 20
136.808717989596
 30
0.0
 40
4.0
 41
0.0
 71
     9
 72
     1
  1
\A1;
 73
     1
 44
1.0
1001
ACAD
1000
MTEXTBEGIN
1070
    73
1070
     1
1070
    44
1040
1.0
1070
    74
1070
     0
1000
MTEXTEND
  0
DIMENSION
  5
7CAD
330
1E
100
AcDbEntity
  8
30
  6
Continuous
100
AcDbDimension
  2
*D13
 10
-45.0
 20
443.251144283447
 30
0.0
 11
-57.50000311931151
 21
446.251144283447
 31
0.0
 70
    32
 71
     5
 42
-1.0
  3
STANDARD
100
AcDbAlignedDimension
 13
-70.00000623862298
 23
428.4369478956378
 33
0.0
 14
-45.00000000000002
 24
360.5189316457162
 34
0.0
100
AcDbRotatedDimension
1001
ACAD
1000
DSTYLE
1002
{
1070
    79
1070
     3
1002
}
  0
DIMENSION
  5
7CBA
330
1E
100
AcDbEntity
  8
30
  6
Continuous
100
AcDbDimension
  2
*D14
 10
-0.0000206044744326
 20
443.251144283447
 30
0.0
 11
-22.50001030223722
 21
446.251144283447
 31
0.0
 70
    32
 71
     5
 42
-1.0
  3
STANDARD
100
AcDbAlignedDimension
 13
-45.00000000000002
 23
360.5189316457162
 33
0.0
 14
-0.0000206044744377
 24
360.5189316457162
 34
0.0
100
AcDbRotatedDimension
1001
ACAD
1000
DSTYLE
1002
{
1070
   287
1070
     4
1070
   287
1070
     4
1070
   287
1070
     4
1070
   287
1070
     4
1070
   287
1070
     4
1070
   287
1070
     4
1070
   287
1070
     4
1070
   287
1070
     4
1070
   287
1070
     4
1070
   279
1070
     1
1070
    79
1070
     3
1002
}
  0
DIMENSION
  5
7CC7
330
1E
100
AcDbEntity
  8
30
  6
Continuous
100
AcDbDimension
  2
*D15
 10
45.0
 20
443.251144283447
 30
0.0
 11
22.49998969776278
 21
446.251144283447
 31
0.0
 70
    32
 71
     5
 42
-1.0
  3
STANDARD
100
AcDbAlignedDimension
 13
-0.0000206044744377
 23
360.5189316457162
 33
0.0
 14
45.0
 24
354.4369478956378
 34
0.0
100
AcDbRotatedDimension
1001
ACAD
1000
DSTYLE
1002
{
1070
   287
1070
     4
1070
   287
1070
     4
1070
   287
1070
     4
1070
   287
1070
     4
1070
   287
1070
     4
1070
   287
1070
     4
1070
   287
1070
     4
1070
   287
1070
     4
1070
   287
1070
     4
1070
   279
1070
     1
1070
    79
1070
     3
1002
}
  0
LWPOLYLINE
  5
7D90
330
1E
100
AcDbEntity
  8
10
  6
CONTINOUS
100
AcDbPolyline
 90
        4
 70
     0
 43
0.0
 10
30.86574955133993
 20
355.5035127281199
 10
30.86574955133992
 20
299.4369478956378
 10
58.8657495513399
 20
299.4369478956378
 10
58.86574955133993
 20
355.5035127281199
  0
LWPOLYLINE
  5
7D91
330
1E
100
AcDbEntity
  8
10
  6
CONTINOUS
100
AcDbPolyline
 90
        4
 70
     0
 43
0.0
 10
-14.13425044866007
 20
355.5035127281199
 10
-14.13425044866008
 20
299.4369478956378
 10
13.8657495513399
 20
299.4369478956378
 10
13.8657495513399
 20
355.5035127281199
  0
LWPOLYLINE
  5
7D92
330
1E
100
AcDbEntity
  8
10
  6
CONTINOUS
100
AcDbPolyline
 90
        4
 70
     0
 43
0.0
 10
-59.13425044866006
 20
355.5035127281199
 10
-59.13425044866007
 20
299.4369478956378
 10
-31.13425044866008
 20
299.4369478956378
 10
-31.13425044866007
 20
355.5035127281199
  0
LWPOLYLINE
  5
7D93
330
1E
100
AcDbEntity
  8
24
  6
CONTINOUS
100
AcDbPolyline
 90
        2
 70
     0
 43
0.001
 10
-59.13425044866006
 20
354.4369478956378
 10
-31.13425044866007
 20
354.4369478956378
  0
LINE
  5
7D94
330
1E
100
AcDbEntity
  8
24
  6
CONTINOUS
100
AcDbLine
 10
-59.13425044866006
 20
357.5035127281199
 30
0.0
 11
-31.13425044866005
 21
357.5035127281199
 31
0.0
  0
LINE
  5
7D95
330
1E
100
AcDbEntity
  8
17
  6
DASHDOT
100
AcDbLine
 10
-32.33420162056006
 20
357.5035127281199
 30
0.0
 11
-57.33420162056006
 21
357.5035127281199
 31
0.0
  0
LINE
  5
7D96
330
1E
100
AcDbEntity
  8
17
  6
DASHDOT
100
AcDbLine
 10
-32.640625
 20
357.5035127281199
 30
0.0
 11
-57.359375
 21
357.5035127281199
 31
0.0
  0
LWPOLYLINE
  5
7D97
330
1E
100
AcDbEntity
  8
24
  6
CONTINOUS
100
AcDbPolyline
 90
        2
 70
     0
 43
0.001
 10
-59.13425044866006
 20
357.5035127281199
 10
-59.13425044866006
 20
354.4369478956378
  0
LINE
  5
7D98
330
1E
100
AcDbEntity
  8
24
  6
CONTINOUS
100
AcDbLine
 10
-35.09795162056002
 20
357.5035127281199
 30
0.0
 11
-48.5704516205601
 21
357.5035127281199
 31
0.0
  0
LINE
  5
7D99
330
1E
100
AcDbEntity
  8
24
  6
CONTINOUS
100
AcDbLine
 10
-50.81726057798277
 20
357.5035127281199
 30
0.0
 11
-50.81726057798277
 21
354.4369478956378
 31
0.0
  0
LINE
  5
7D9A
330
1E
100
AcDbEntity
  8
24
  6
CONTINOUS
100
AcDbLine
 10
-39.18273942201721
 20
357.5035127281199
 30
0.0
 11
-39.18273942201721
 21
354.4369478956378
 31
0.0
  0
LWPOLYLINE
  5
7D9B
330
1E
100
AcDbEntity
  8
24
  6
CONTINOUS
100
AcDbPolyline
 90
        2
 70
     0
 43
0.001
 10
-31.13425044866007
 20
357.5035127281199
 10
-31.13425044866007
 20
354.4369478956378
  0
LINE
  5
7D9C
330
1E
100
AcDbEntity
  8
24
  6
CONTINOUS
100
AcDbLine
 10
3.902048379439975
 20
357.5035127281199
 30
0.0
 11
-9.570451620560106
 21
357.5035127281199
 31
0.0
  0
LWPOLYLINE
  5
7D9D
330
1E
100
AcDbEntity
  8
24
  6
CONTINOUS
100
AcDbPolyline
 90
        2
 70
     0
 43
0.001
 10
-14.13425044866007
 20
354.4369478956378
 10
13.8657495513399
 20
354.4369478956378
  0
LINE
  5
7D9E
330
1E
100
AcDbEntity
  8
24
  6
CONTINOUS
100
AcDbLine
 10
-14.13425044866005
 20
357.5035127281199
 30
0.0
 11
13.8657495513399
 21
357.5035127281199
 31
0.0
  0
LINE
  5
7D9F
330
1E
100
AcDbEntity
  8
17
  6
DASHDOT
100
AcDbLine
 10
6.665798379439932
 20
357.5035127281199
 30
0.0
 11
-12.33420162056006
 21
357.5035127281199
 31
0.0
  0
LINE
  5
7DA0
330
1E
100
AcDbEntity
  8
17
  6
DASHDOT
100
AcDbLine
 10
6.359375
 20
357.5035127281199
 30
0.0
 11
-12.359375
 21
357.5035127281199
 31
0.0
  0
LWPOLYLINE
  5
7DA1
330
1E
100
AcDbEntity
  8
24
  6
CONTINOUS
100
AcDbPolyline
 90
        2
 70
     0
 43
0.001
 10
-14.13425044866007
 20
357.5035127281199
 10
-14.13425044866007
 20
354.4369478956378
  0
LINE
  5
7DA2
330
1E
100
AcDbEntity
  8
24
  6
CONTINOUS
100
AcDbLine
 10
-5.817260577982777
 20
357.5035127281199
 30
0.0
 11
-5.817260577982777
 21
354.4369478956378
 31
0.0
  0
LINE
  5
7DA3
330
1E
100
AcDbEntity
  8
24
  6
CONTINOUS
100
AcDbLine
 10
5.817260577982777
 20
357.5035127281199
 30
0.0
 11
5.817260577982777
 21
354.4369478956378
 31
0.0
  0
LWPOLYLINE
  5
7DA4
330
1E
100
AcDbEntity
  8
24
  6
CONTINOUS
100
AcDbPolyline
 90
        2
 70
     0
 43
0.001
 10
13.8657495513399
 20
357.5035127281199
 10
13.8657495513399
 20
354.4369478956378
  0
LINE
  5
7DA5
330
1E
100
AcDbEntity
  8
17
  6
DASHDOT
100
AcDbLine
 10
57.66579837943993
 20
357.5035127281199
 30
0.0
 11
32.66579837943993
 21
357.5035127281199
 31
0.0
  0
LINE
  5
7DA6
330
1E
100
AcDbEntity
  8
17
  6
DASHDOT
100
AcDbLine
 10
57.359375
 20
357.5035127281199
 30
0.0
 11
32.640625
 21
357.5035127281199
 31
0.0
  0
LWPOLYLINE
  5
7DA7
330
1E
100
AcDbEntity
  8
24
  6
CONTINOUS
100
AcDbPolyline
 90
        2
 70
     0
 43
0.001
 10
30.86574955133993
 20
354.4369478956378
 10
58.86574955133993
 20
354.4369478956378
  0
LINE
  5
7DA8
330
1E
100
AcDbEntity
  8
24
  6
CONTINOUS
100
AcDbLine
 10
30.86574955133994
 20
357.5035127281199
 30
0.0
 11
58.86574955133994
 21
357.5035127281199
 31
0.0
  0
LWPOLYLINE
  5
7DA9
330
1E
100
AcDbEntity
  8
24
  6
CONTINOUS
100
AcDbPolyline
 90
        2
 70
     0
 43
0.001
 10
30.86574955133993
 20
357.5035127281199
 10
30.86574955133993
 20
354.4369478956378
  0
LINE
  5
7DAA
330
1E
100
AcDbEntity
  8
24
  6
CONTINOUS
100
AcDbLine
 10
48.90204837943996
 20
357.5035127281199
 30
0.0
 11
41.42954837943989
 21
357.5035127281199
 31
0.0
  0
LINE
  5
7DAB
330
1E
100
AcDbEntity
  8
24
  6
CONTINOUS
100
AcDbLine
 10
39.1827394220172
 20
357.5035127281199
 30
0.0
 11
39.1827394220172
 21
354.4369478956378
 31
0.0
  0
LINE
  5
7DAC
330
1E
100
AcDbEntity
  8
24
  6
CONTINOUS
100
AcDbLine
 10
50.81726057798277
 20
357.5035127281199
 30
0.0
 11
50.81726057798277
 21
354.4369478956378
 31
0.0
  0
LWPOLYLINE
  5
7DAD
330
1E
100
AcDbEntity
  8
24
  6
CONTINOUS
100
AcDbPolyline
 90
        2
 70
     0
 43
0.001
 10
58.86574955133993
 20
357.5035127281199
 10
58.86574955133993
 20
354.4369478956378
  0
DIMENSION
  5
7DAE
330
1E
100
AcDbEntity
  8
30
  6
Continuous
100
AcDbDimension
  2
*D16
 10
93.57757434569021
 20
354.4369478956378
 30
0.0
 11
115.0397376512239
 21
386.9712988637989
 31
0.0
 70
   160
  1
ON SIDE 75\POFF SIDE 72
 71
     5
 42
-1.0
  3
STANDARD
100
AcDbAlignedDimension
 13
69.9999452034627
 23
428.4369478956378
 33
0.0
 14
63.50483982155648
 24
354.4369478956378
 34
0.0
 50
90.0
100
AcDbRotatedDimension
1001
ACAD
1000
DSTYLE
1002
{
1070
   287
1070
     5
1070
   287
1070
     5
1070
   287
1070
     5
1070
   287
1070
     5
1070
   287
1070
     5
1070
   287
1070
     5
1070
   287
1070
     5
1070
   287
1070
     5
1070
   287
1070
     5
1070
   279
1070
     2
1070
    79
1070
     3
1002
}
  0
LINE
  5
7DC4
330
1E
100
AcDbEntity
  8
24
  6
CONTINOUS
100
AcDbLine
 10
-9.33425044866005
 20
351.9369478956378
 30
0.0
 11
9.06574955133987
 21
351.9369478956378
 31
0.0
  0
LINE
  5
7DC5
330
1E
100
AcDbEntity
  8
24
  6
CONTINOUS
100
AcDbLine
 10
-9.034250448660039
 20
345.5369478956378
 30
0.0
 11
8.765749551339856
 21
345.5369478956378
 31
0.0
  0
LINE
  5
7DC6
330
1E
100
AcDbEntity
  8
24
  6
CONTINOUS
100
AcDbLine
 10
-9.33425044866005
 20
351.9369478956378
 30
0.0
 11
-9.33425044866005
 21
354.4369478956378
 31
0.0
  0
LINE
  5
7DC7
330
1E
100
AcDbEntity
  8
24
  6
CONTINOUS
100
AcDbLine
 10
-9.034250448660039
 20
345.5369478956378
 30
0.0
 11
-9.034250448660039
 21
351.9369478956378
 31
0.0
  0
LINE
  5
7DC8
330
1E
100
AcDbEntity
  8
24
  6
CONTINOUS
100
AcDbLine
 10
9.06574955133987
 20
351.9369478956378
 30
0.0
 11
9.06574955133987
 21
354.4369478956378
 31
0.0
  0
LINE
  5
7DC9
330
1E
100
AcDbEntity
  8
24
  6
CONTINOUS
100
AcDbLine
 10
8.765749551339856
 20
345.5369478956378
 30
0.0
 11
8.765749551339856
 21
351.9369478956378
 31
0.0
  0
LINE
  5
7DCA
330
1E
100
AcDbEntity
  8
24
  6
CONTINOUS
100
AcDbLine
 10
-54.33425044866004
 20
351.9369478956378
 30
0.0
 11
-35.93425044866011
 21
351.9369478956378
 31
0.0
  0
LINE
  5
7DCB
330
1E
100
AcDbEntity
  8
24
  6
CONTINOUS
100
AcDbLine
 10
-54.03425044866003
 20
345.5369478956378
 30
0.0
 11
-36.23425044866011
 21
345.5369478956378
 31
0.0
  0
LINE
  5
7DCC
330
1E
100
AcDbEntity
  8
24
  6
CONTINOUS
100
AcDbLine
 10
-54.33425044866004
 20
351.9369478956378
 30
0.0
 11
-54.33425044866004
 21
354.4369478956378
 31
0.0
  0
LINE
  5
7DCD
330
1E
100
AcDbEntity
  8
24
  6
CONTINOUS
100
AcDbLine
 10
-54.03425044866003
 20
345.5369478956378
 30
0.0
 11
-54.03425044866003
 21
351.9369478956378
 31
0.0
  0
LINE
  5
7DCE
330
1E
100
AcDbEntity
  8
24
  6
CONTINOUS
100
AcDbLine
 10
-35.93425044866011
 20
351.9369478956378
 30
0.0
 11
-35.93425044866011
 21
354.4369478956378
 31
0.0
  0
LINE
  5
7DCF
330
1E
100
AcDbEntity
  8
24
  6
CONTINOUS
100
AcDbLine
 10
-36.23425044866011
 20
345.5369478956378
 30
0.0
 11
-36.23425044866011
 21
351.9369478956378
 31
0.0
  0
LINE
  5
856B
330
1E
100
AcDbEntity
  8
24
  6
CONTINOUS
100
AcDbLine
 10
-53.99999999999995
 20
114.0
 30
0.0
 11
-36.0
 21
114.0
 31
0.0
  0
LINE
  5
856E
330
1E
100
AcDbEntity
  8
10
  6
Continuous
100
AcDbLine
 10
-53.0
 20
45.0
 30
0.0
 11
53.0
 21
45.0
 31
0.0
  0
LINE
  5
856F
330
1E
100
AcDbEntity
  8
10
  6
Continuous
100
AcDbLine
 10
-70.0
 20
50.99999999999899
 30
0.0
 11
70.0
 21
50.99999999999899
 31
0.0
  0
LINE
  5
8570
330
1E
100
AcDbEntity
  8
24
  6
CONTINOUS
100
AcDbLine
 10
-53.99999999999995
 20
-113.9999999999999
 30
0.0
 11
-36.0
 21
-113.9999999999999
 31
0.0
  0
LINE
  5
8572
330
1E
100
AcDbEntity
  8
10
  6
Continuous
100
AcDbLine
 10
-53.0
 20
-44.99999999999999
 30
0.0
 11
53.0
 21
-44.99999999999999
 31
0.0
  0
LINE
  5
8573
330
1E
100
AcDbEntity
  8
10
  6
Continuous
100
AcDbLine
 10
-70.0
 20
-50.99999999999997
 30
0.0
 11
70.0
 21
-50.99999999999997
 31
0.0
  0
LINE
  5
8574
330
1E
100
AcDbEntity
  8
10
  6
Continuous
100
AcDbLine
 10
-70.0
 20
-130.0
 30
0.0
 11
70.0
 21
-130.0
 31
0.0
  0
DIMENSION
  5
8575
330
1E
100
AcDbEntity
  8
30
  6
Continuous
100
AcDbDimension
  2
*D17
 10
-120.7651061970336
 20
-130.0
 30
0.0
 11
-123.7651061970336
 21
-0.0000000000000207
 31
0.0
 70
    32
 71
     5
 42
-1.0
  3
STANDARD
100
AcDbAlignedDimension
 13
-70.0
 23
130.0
 33
0.0
 14
-70.0
 24
-130.0
 34
0.0
 50
90.0
100
AcDbRotatedDimension
  0
LINE
  5
8576
330
1E
100
AcDbEntity
  8
10
  6
Continuous
100
AcDbLine
 10
-70.0
 20
130.0
 30
0.0
 11
-70.0
 21
-130.0
 31
0.0
  0
LINE
  5
857E
330
1E
100
AcDbEntity
  8
10
  6
Continuous
100
AcDbLine
 10
-39.5
 20
-113.9999999999999
 30
0.0
 11
-39.5
 21
-130.0
 31
0.0
  0
LINE
  5
857F
330
1E
100
AcDbEntity
  8
10
  6
Continuous
100
AcDbLine
 10
-50.5
 20
-113.9999999999999
 30
0.0
 11
-50.5
 21
-130.0
 31
0.0
  0
LINE
  5
8580
330
1E
100
AcDbEntity
  8
24
  6
CONTINOUS
100
AcDbLine
 10
-41.0
 20
-116.3094010767587
 30
0.0
 11
-45.0
 21
-118.6188021535169
 31
0.0
  0
LINE
  5
8581
330
1E
100
AcDbEntity
  8
24
  6
CONTINOUS
100
AcDbLine
 10
-45.0
 20
-118.6188021535169
 30
0.0
 11
-49.0
 21
-116.3094010767587
 31
0.0
  0
LINE
  5
8582
330
1E
100
AcDbEntity
  8
24
  6
CONTINOUS
100
AcDbLine
 10
-49.0
 20
-116.3094010767587
 30
0.0
 11
-49.0
 21
-111.6905989232414
 31
0.0
  0
LINE
  5
8583
330
1E
100
AcDbEntity
  8
24
  6
CONTINOUS
100
AcDbLine
 10
-49.0
 20
-111.6905989232414
 30
0.0
 11
-45.0
 21
-109.3811978464831
 31
0.0
  0
LINE
  5
8584
330
1E
100
AcDbEntity
  8
24
  6
CONTINOUS
100
AcDbLine
 10
-45.0
 20
-109.3811978464831
 30
0.0
 11
-41.0
 21
-111.6905989232414
 31
0.0
  0
LINE
  5
8585
330
1E
100
AcDbEntity
  8
24
  6
CONTINOUS
100
AcDbLine
 10
-41.0
 20
-111.6905989232414
 30
0.0
 11
-41.0
 21
-116.3094010767587
 31
0.0
  0
ARC
  5
8586
330
1E
100
AcDbEntity
  8
10
  6
Continuous
100
AcDbCircle
 10
45.0
 20
-113.9999999999999
 30
0.0
 40
5.5
210
0.0
220
0.0
230
-1.0
100
AcDbArc
 50
0.0
 51
180.0
  0
ARC
  5
8587
330
1E
100
AcDbEntity
  8
10
  6
Continuous
100
AcDbCircle
 10
45.0
 20
-113.9999999999999
 30
0.0
 40
8.0
210
0.0
220
0.0
230
-1.0
100
AcDbArc
 50
226.5674634422111
 51
313.4325365577887
  0
LINE
  5
8588
330
1E
100
AcDbEntity
  8
24
  6
CONTINOUS
100
AcDbLine
 10
-45.0
 20
-122.9999999999999
 30
0.0
 11
-45.0
 21
-104.9999999999996
 31
0.0
  0
DIMENSION
  5
8589
330
1E
100
AcDbEntity
  8
30
  6
Continuous
100
AcDbDimension
  2
*D18
 10
-106.0
 20
-50.99999999999997
 30
0.0
 11
-108.9999999999996
 21
-0.0000000000005047
 31
0.0
 70
    32
 71
     5
 42
-1.0
  3
STANDARD
100
AcDbAlignedDimension
 13
-70.0
 23
50.99999999999899
 33
0.0
 14
-70.0
 24
-50.99999999999997
 34
0.0
 50
90.0
100
AcDbRotatedDimension
  0
DIMENSION
  5
858A
330
1E
100
AcDbEntity
  8
30
  6
Continuous
100
AcDbDimension
  2
*D19
 10
-92.0
 20
-44.99999999999998
 30
0.0
 11
-94.99999999999998
 21
0.000000000000006
 31
0.0
 70
    32
 71
     5
 42
-1.0
  3
STANDARD
100
AcDbAlignedDimension
 13
-53.0
 23
45.0
 33
0.0
 14
-53.0
 24
-44.99999999999999
 34
0.0
 50
90.0
100
AcDbRotatedDimension
  0
LINE
  5
858B
330
1E
100
AcDbEntity
  8
10
  6
Continuous
100
AcDbLine
 10
-58.0
 20
40.0
 30
0.0
 11
-58.0
 21
-39.99999999999998
 31
0.0
  0
ARC
  5
858C
330
1E
100
AcDbEntity
  8
10
  6
Continuous
100
AcDbCircle
 10
-53.0
 20
-39.99999999999998
 30
0.0
 40
5.0
100
AcDbArc
 50
180.0
 51
270.0
  0
ARC
  5
858D
330
1E
100
AcDbEntity
  8
10
  6
Continuous
100
AcDbCircle
 10
-53.0
 20
40.0
 30
0.0
 40
5.0
100
AcDbArc
 50
90.0
 51
180.0
  0
LINE
  5
8591
330
1E
100
AcDbEntity
  8
24
  6
CONTINOUS
100
AcDbLine
 10
-45.0
 20
123.0
 30
0.0
 11
-45.0
 21
105.0
 31
0.0
  0
LINE
  5
8592
330
1E
100
AcDbEntity
  8
24
  6
CONTINOUS
100
AcDbLine
 10
-41.0
 20
111.6905989232414
 30
0.0
 11
-41.0
 21
116.3094010767587
 31
0.0
  0
LINE
  5
8593
330
1E
100
AcDbEntity
  8
24
  6
CONTINOUS
100
AcDbLine
 10
-49.00000000000002
 20
116.3094010767587
 30
0.0
 11
-49.00000000000002
 21
111.6905989232414
 31
0.0
  0
ARC
  5
8594
330
1E
100
AcDbEntity
  8
10
  6
Continuous
100
AcDbCircle
 10
45.0
 20
114.0
 30
0.0
 40
5.5
210
0.0
220
0.0
230
-1.0
100
AcDbArc
 50
180.0
 51
0.0
  0
LINE
  5
8595
330
1E
100
AcDbEntity
  8
24
  6
CONTINOUS
100
AcDbLine
 10
-45.0
 20
109.3811978464831
 30
0.0
 11
-41.0
 21
111.6905989232414
 31
0.0
  0
LINE
  5
8596
330
1E
100
AcDbEntity
  8
24
  6
CONTINOUS
100
AcDbLine
 10
-49.00000000000002
 20
111.6905989232414
 30
0.0
 11
-45.0
 21
109.3811978464831
 31
0.0
  0
LINE
  5
8597
330
1E
100
AcDbEntity
  8
24
  6
CONTINOUS
100
AcDbLine
 10
-45.0
 20
118.6188021535169
 30
0.0
 11
-49.00000000000002
 21
116.3094010767587
 31
0.0
  0
LINE
  5
8598
330
1E
100
AcDbEntity
  8
24
  6
CONTINOUS
100
AcDbLine
 10
-41.0
 20
116.3094010767587
 30
0.0
 11
-45.0
 21
118.6188021535169
 31
0.0
  0
LINE
  5
8599
330
1E
100
AcDbEntity
  8
10
  6
Continuous
100
AcDbLine
 10
-39.50000000000001
 20
114.0
 30
0.0
 11
-39.50000000000001
 21
130.0
 31
0.0
  0
LINE
  5
859A
330
1E
100
AcDbEntity
  8
10
  6
Continuous
100
AcDbLine
 10
-50.5
 20
114.0
 30
0.0
 11
-50.5
 21
130.0
 31
0.0
  0
ARC
  5
859B
330
1E
100
AcDbEntity
  8
10
  6
Continuous
100
AcDbCircle
 10
45.0
 20
114.0
 30
0.0
 40
8.0
210
0.0
220
0.0
230
-1.0
100
AcDbArc
 50
46.5674634422112
 51
133.4325365577887
  0
LINE
  5
85A0
330
1E
100
AcDbEntity
  8
10
  6
Continuous
100
AcDbLine
 10
70.0
 20
130.0
 30
0.0
 11
70.0
 21
-130.0
 31
0.0
  0
LINE
  5
85B4
330
1E
100
AcDbEntity
  8
12
  6
DASHED
100
AcDbLine
 10
-22.5
 20
-98.99999999999998
 30
0.0
 11
-22.5
 21
-114.9999999999999
 31
0.0
  0
CIRCLE
  5
85B5
330
1E
100
AcDbEntity
  8
12
  6
DASHED
100
AcDbCircle
 10
-22.5
 20
-106.9999999999996
 30
0.0
 40
4.0
  0
LINE
  5
85B6
330
1E
100
AcDbEntity
  8
12
  6
DASHED
100
AcDbLine
 10
-14.5
 20
-106.9999999999996
 30
0.0
 11
-30.5
 21
-106.9999999999996
 31
0.0
  0
LINE
  5
85B7
330
1E
100
AcDbEntity
  8
10
  6
Continuous
100
AcDbLine
 10
5.5
 20
-113.9999999999999
 30
0.0
 11
5.5
 21
-130.0
 31
0.0
  0
LINE
  5
85B8
330
1E
100
AcDbEntity
  8
10
  6
Continuous
100
AcDbLine
 10
-5.5
 20
-113.9999999999999
 30
0.0
 11
-5.5
 21
-130.0
 31
0.0
  0
ARC
  5
85B9
330
1E
100
AcDbEntity
  8
10
  6
Continuous
100
AcDbCircle
 10
0.0
 20
-113.9999999999999
 30
0.0
 40
5.5
210
0.0
220
0.0
230
-1.0
100
AcDbArc
 50
0.0
 51
180.0
  0
ARC
  5
85BA
330
1E
100
AcDbEntity
  8
10
  6
Continuous
100
AcDbCircle
 10
0.0
 20
-113.9999999999999
 30
0.0
 40
8.0
210
0.0
220
0.0
230
-1.0
100
AcDbArc
 50
226.5674634422111
 51
313.4325365577887
  0
LINE
  5
85BB
330
1E
100
AcDbEntity
  8
24
  6
CONTINOUS
100
AcDbLine
 10
0.0
 20
-118.6188021535169
 30
0.0
 11
-4.0
 21
-116.3094010767587
 31
0.0
  0
LINE
  5
85BC
330
1E
100
AcDbEntity
  8
24
  6
CONTINOUS
100
AcDbLine
 10
-4.0
 20
-111.6905989232414
 30
0.0
 11
0.0
 21
-109.3811978464831
 31
0.0
  0
LINE
  5
85BD
330
1E
100
AcDbEntity
  8
24
  6
CONTINOUS
100
AcDbLine
 10
-8.999999999999943
 20
-113.9999999999999
 30
0.0
 11
9.0
 21
-113.9999999999999
 31
0.0
  0
LINE
  5
85BE
330
1E
100
AcDbEntity
  8
24
  6
CONTINOUS
100
AcDbLine
 10
-4.0
 20
-116.3094010767587
 30
0.0
 11
-4.0
 21
-111.6905989232414
 31
0.0
  0
LINE
  5
85BF
330
1E
100
AcDbEntity
  8
24
  6
CONTINOUS
100
AcDbLine
 10
4.0
 20
-116.3094010767587
 30
0.0
 11
0.0
 21
-118.6188021535169
 31
0.0
  0
LINE
  5
85C0
330
1E
100
AcDbEntity
  8
24
  6
CONTINOUS
100
AcDbLine
 10
0.0
 20
-109.3811978464831
 30
0.0
 11
4.0
 21
-111.6905989232414
 31
0.0
  0
LINE
  5
85C1
330
1E
100
AcDbEntity
  8
24
  6
CONTINOUS
100
AcDbLine
 10
4.0
 20
-111.6905989232414
 30
0.0
 11
4.0
 21
-116.3094010767587
 31
0.0
  0
LINE
  5
85C2
330
1E
100
AcDbEntity
  8
24
  6
CONTINOUS
100
AcDbLine
 10
0.0
 20
-122.9999999999999
 30
0.0
 11
0.0
 21
-104.9999999999996
 31
0.0
  0
CIRCLE
  5
85C3
330
1E
100
AcDbEntity
  8
12
  6
DASHED
100
AcDbCircle
 10
22.5
 20
-106.9999999999996
 30
0.0
 40
4.0
  0
LINE
  5
85C4
330
1E
100
AcDbEntity
  8
12
  6
DASHED
100
AcDbLine
 10
22.5
 20
-98.99999999999998
 30
0.0
 11
22.5
 21
-114.9999999999999
 31
0.0
  0
LINE
  5
85C5
330
1E
100
AcDbEntity
  8
12
  6
DASHED
100
AcDbLine
 10
30.5
 20
-106.9999999999996
 30
0.0
 11
14.5
 21
-106.9999999999996
 31
0.0
  0
LINE
  5
85C6
330
1E
100
AcDbEntity
  8
10
  6
Continuous
100
AcDbLine
 10
50.5
 20
-113.9999999999999
 30
0.0
 11
50.5
 21
-130.0
 31
0.0
  0
LINE
  5
85C7
330
1E
100
AcDbEntity
  8
10
  6
Continuous
100
AcDbLine
 10
39.5
 20
-113.9999999999999
 30
0.0
 11
39.5
 21
-130.0
 31
0.0
  0
LINE
  5
85C8
330
1E
100
AcDbEntity
  8
24
  6
CONTINOUS
100
AcDbLine
 10
49.0
 20
-116.3094010767587
 30
0.0
 11
45.0
 21
-118.6188021535169
 31
0.0
  0
LINE
  5
85C9
330
1E
100
AcDbEntity
  8
24
  6
CONTINOUS
100
AcDbLine
 10
45.0
 20
-109.3811978464831
 30
0.0
 11
49.0
 21
-111.6905989232414
 31
0.0
  0
ARC
  5
85CA
330
1E
100
AcDbEntity
  8
10
  6
Continuous
100
AcDbCircle
 10
-45.0
 20
-113.9999999999999
 30
0.0
 40
5.5
210
0.0
220
0.0
230
-1.0
100
AcDbArc
 50
0.0
 51
180.0
  0
ARC
  5
85CB
330
1E
100
AcDbEntity
  8
10
  6
Continuous
100
AcDbCircle
 10
-45.0
 20
-113.9999999999999
 30
0.0
 40
8.0
210
0.0
220
0.0
230
-1.0
100
AcDbArc
 50
226.5674634422111
 51
313.4325365577887
  0
LINE
  5
85CC
330
1E
100
AcDbEntity
  8
24
  6
CONTINOUS
100
AcDbLine
 10
36.00000000000003
 20
-113.9999999999999
 30
0.0
 11
54.0
 21
-113.9999999999999
 31
0.0
  0
LINE
  5
85CD
330
1E
100
AcDbEntity
  8
24
  6
CONTINOUS
100
AcDbLine
 10
45.0
 20
-122.9999999999999
 30
0.0
 11
45.0
 21
-104.9999999999996
 31
0.0
  0
LINE
  5
85CE
330
1E
100
AcDbEntity
  8
24
  6
CONTINOUS
100
AcDbLine
 10
41.0
 20
-116.3094010767587
 30
0.0
 11
41.0
 21
-111.6905989232414
 31
0.0
  0
LINE
  5
85CF
330
1E
100
AcDbEntity
  8
24
  6
CONTINOUS
100
AcDbLine
 10
45.0
 20
-118.6188021535169
 30
0.0
 11
41.0
 21
-116.3094010767587
 31
0.0
  0
LINE
  5
85D0
330
1E
100
AcDbEntity
  8
24
  6
CONTINOUS
100
AcDbLine
 10
41.0
 20
-111.6905989232414
 30
0.0
 11
45.0
 21
-109.3811978464831
 31
0.0
  0
LINE
  5
85D1
330
1E
100
AcDbEntity
  8
24
  6
CONTINOUS
100
AcDbLine
 10
49.0
 20
-111.6905989232414
 30
0.0
 11
49.0
 21
-116.3094010767587
 31
0.0
  0
LINE
  5
85E8
330
1E
100
AcDbEntity
  8
10
  6
Continuous
100
AcDbLine
 10
58.0
 20
40.0
 30
0.0
 11
58.0
 21
-39.99999999999998
 31
0.0
  0
LINE
  5
85E9
330
1E
100
AcDbEntity
  8
10
  6
Continuous
100
AcDbLine
 10
25.49999999999982
 20
-44.99999999999999
 30
0.0
 11
25.49999999999988
 21
45.0
 31
0.0
  0
LINE
  5
85EA
330
1E
100
AcDbEntity
  8
10
  6
Continuous
100
AcDbLine
 10
-25.49999999999977
 20
-44.99999999999999
 30
0.0
 11
-25.49999999999988
 21
45.0
 31
0.0
  0
LINE
  5
85EB
330
1E
100
AcDbEntity
  8
10
  6
Continuous
100
AcDbLine
 10
18.0
 20
-30.99999999999998
 30
0.0
 11
18.00000000000005
 21
31.00000000000001
 31
0.0
  0
LINE
  5
85EC
330
1E
100
AcDbEntity
  8
10
  6
Continuous
100
AcDbLine
 10
-18.0
 20
-30.99999999999998
 30
0.0
 11
-18.0
 21
31.00000000000001
 31
0.0
  0
LINE
  5
85ED
330
1E
100
AcDbEntity
  8
10
  6
Continuous
100
AcDbLine
 10
18.0
 20
-30.99999999999998
 30
0.0
 11
-18.0
 21
-30.99999999999998
 31
0.0
  0
LINE
  5
85EE
330
1E
100
AcDbEntity
  8
10
  6
Continuous
100
AcDbLine
 10
19.0
 20
-33.84999999999989
 30
0.0
 11
24.29999999999994
 21
-33.84999999999989
 31
0.0
  0
LINE
  5
85EF
330
1E
100
AcDbEntity
  8
10
  6
Continuous
100
AcDbLine
 10
19.0
 20
-40.4499999999999
 30
0.0
 11
24.29999999999994
 21
-40.4499999999999
 31
0.0
  0
LINE
  5
85F0
330
1E
100
AcDbEntity
  8
10
  6
Continuous
100
AcDbLine
 10
19.0
 20
-33.84999999999989
 30
0.0
 11
19.0
 21
-40.4499999999999
 31
0.0
  0
LINE
  5
85F1
330
1E
100
AcDbEntity
  8
10
  6
Continuous
100
AcDbLine
 10
24.30000000000005
 20
-33.84999999999989
 30
0.0
 11
24.30000000000005
 21
-40.4499999999999
 31
0.0
  0
ARC
  5
85F2
330
1E
100
AcDbEntity
  8
10
  6
Continuous
100
AcDbCircle
 10
53.0
 20
-39.99999999999998
 30
0.0
 40
5.0
100
AcDbArc
 50
270.0
 51
0.0
  0
LINE
  5
85FE
330
1E
100
AcDbEntity
  8
10
  6
Continuous
100
AcDbLine
 10
17.00000000000011
 20
39.33264411704204
 30
0.0
 11
-17.0
 21
39.33264411704204
 31
0.0
  0
LINE
  5
85FF
330
1E
100
AcDbEntity
  8
10
  6
Continuous
100
AcDbLine
 10
17.00000000000011
 20
28.03853193396584
 30
0.0
 11
-17.0
 21
28.03853193396584
 31
0.0
  0
LINE
  5
8600
330
1E
100
AcDbEntity
  8
10
  6
Continuous
100
AcDbLine
 10
17.00000000000011
 20
17.03370272535222
 30
0.0
 11
-16.99999999999993
 21
17.03370272535222
 31
0.0
  0
LINE
  5
8601
330
1E
100
AcDbEntity
  8
10
  6
Continuous
100
AcDbLine
 10
-17.0
 20
17.0337027253521
 30
0.0
 11
-17.0
 21
39.33264411704204
 31
0.0
  0
LINE
  5
8602
330
1E
100
AcDbEntity
  8
10
  6
Continuous
100
AcDbLine
 10
-17.0
 20
31.00000000000001
 30
0.0
 11
-18.0
 21
31.00000000000001
 31
0.0
  0
LINE
  5
8603
330
1E
100
AcDbEntity
  8
10
  6
Continuous
100
AcDbLine
 10
17.00000000000005
 20
17.0337027253521
 30
0.0
 11
17.00000000000005
 21
39.33264411704204
 31
0.0
  0
LINE
  5
8604
330
1E
100
AcDbEntity
  8
10
  6
Continuous
100
AcDbLine
 10
18.0
 20
31.00000000000001
 30
0.0
 11
17.00000000000005
 21
31.00000000000001
 31
0.0
  0
ARC
  5
8605
330
1E
100
AcDbEntity
  8
10
  6
Continuous
100
AcDbCircle
 10
53.0
 20
40.0
 30
0.0
 40
5.0
100
AcDbArc
 50
0.0
 51
90.0
  0
LINE
  5
8672
330
1E
100
AcDbEntity
  8
18
100
AcDbLine
 10
-20.5
 20
130.0
 30
0.0
 11
-20.5
 21
239.9999999999999
 31
0.0
  0
LINE
  5
8673
330
1E
100
AcDbEntity
  8
18
100
AcDbLine
 10
20.5
 20
130.0
 30
0.0
 11
20.5
 21
239.9999999999999
 31
0.0
  0
LINE
  5
8674
330
1E
100
AcDbEntity
  8
18
100
AcDbLine
 10
24.5
 20
130.0
 30
0.0
 11
24.5
 21
239.9999999999999
 31
0.0
  0
LINE
  5
8675
330
1E
100
AcDbEntity
  8
18
100
AcDbLine
 10
-24.5
 20
130.0
 30
0.0
 11
-24.5
 21
239.9999999999999
 31
0.0
  0
LINE
  5
8678
330
1E
100
AcDbEntity
  8
12
  6
DASHED
100
AcDbLine
 10
-14.50000000000001
 20
107.0
 30
0.0
 11
-30.50000000000001
 21
107.0
 31
0.0
  0
LINE
  5
8679
330
1E
100
AcDbEntity
  8
12
  6
DASHED
100
AcDbLine
 10
-22.50000000000001
 20
99.0
 30
0.0
 11
-22.50000000000001
 21
115.0
 31
0.0
  0
CIRCLE
  5
867A
330
1E
100
AcDbEntity
  8
12
  6
DASHED
100
AcDbCircle
 10
-22.50000000000001
 20
107.0
 30
0.0
 40
4.0
  0
LINE
  5
867B
330
1E
100
AcDbEntity
  8
24
  6
CONTINOUS
100
AcDbLine
 10
3.999999999999986
 20
111.6905989232414
 30
0.0
 11
3.999999999999986
 21
116.3094010767587
 31
0.0
  0
LINE
  5
867C
330
1E
100
AcDbEntity
  8
24
  6
CONTINOUS
100
AcDbLine
 10
-0.0000000000000129
 20
123.0
 30
0.0
 11
-0.0000000000000111
 21
105.0
 31
0.0
  0
LINE
  5
867D
330
1E
100
AcDbEntity
  8
24
  6
CONTINOUS
100
AcDbLine
 10
-4.000000000000011
 20
116.3094010767587
 30
0.0
 11
-4.000000000000011
 21
111.6905989232414
 31
0.0
  0
ARC
  5
867E
330
1E
100
AcDbEntity
  8
10
  6
Continuous
100
AcDbCircle
 10
0.000000000000012
 20
114.0
 30
0.0
 40
5.5
210
0.0
220
0.0
230
-1.0
100
AcDbArc
 50
180.0
 51
0.0
  0
LINE
  5
867F
330
1E
100
AcDbEntity
  8
24
  6
CONTINOUS
100
AcDbLine
 10
-4.000000000000011
 20
111.6905989232414
 30
0.0
 11
-0.0000000000000115
 21
109.3811978464831
 31
0.0
  0
LINE
  5
8680
330
1E
100
AcDbEntity
  8
24
  6
CONTINOUS
100
AcDbLine
 10
-0.0000000000000115
 20
109.3811978464831
 30
0.0
 11
3.999999999999986
 21
111.6905989232414
 31
0.0
  0
LINE
  5
8681
330
1E
100
AcDbEntity
  8
24
  6
CONTINOUS
100
AcDbLine
 10
-0.0000000000000125
 20
118.6188021535169
 30
0.0
 11
-4.000000000000011
 21
116.3094010767587
 31
0.0
  0
LINE
  5
8682
330
1E
100
AcDbEntity
  8
24
  6
CONTINOUS
100
AcDbLine
 10
-8.999999999999953
 20
114.0
 30
0.0
 11
8.999999999999987
 21
114.0
 31
0.0
  0
ARC
  5
8683
330
1E
100
AcDbEntity
  8
10
  6
Continuous
100
AcDbCircle
 10
0.000000000000012
 20
114.0
 30
0.0
 40
8.0
210
0.0
220
0.0
230
-1.0
100
AcDbArc
 50
46.5674634422112
 51
133.4325365577887
  0
LINE
  5
8684
330
1E
100
AcDbEntity
  8
10
  6
Continuous
100
AcDbLine
 10
-5.500000000000011
 20
114.0
 30
0.0
 11
-5.500000000000013
 21
130.0
 31
0.0
  0
LINE
  5
8685
330
1E
100
AcDbEntity
  8
10
  6
Continuous
100
AcDbLine
 10
5.499999999999986
 20
114.0
 30
0.0
 11
5.499999999999986
 21
130.0
 31
0.0
  0
LINE
  5
8686
330
1E
100
AcDbEntity
  8
24
  6
CONTINOUS
100
AcDbLine
 10
3.999999999999986
 20
116.3094010767587
 30
0.0
 11
-0.0000000000000125
 21
118.6188021535169
 31
0.0
  0
LINE
  5
868B
330
1E
100
AcDbEntity
  8
12
  6
DASHED
100
AcDbLine
 10
22.49999999999999
 20
99.0
 30
0.0
 11
22.49999999999999
 21
115.0
 31
0.0
  0
CIRCLE
  5
868C
330
1E
100
AcDbEntity
  8
12
  6
DASHED
100
AcDbCircle
 10
22.49999999999999
 20
107.0
 30
0.0
 40
4.0
  0
LINE
  5
868D
330
1E
100
AcDbEntity
  8
12
  6
DASHED
100
AcDbLine
 10
30.49999999999998
 20
107.0
 30
0.0
 11
14.49999999999999
 21
107.0
 31
0.0
  0
ARC
  5
868E
330
1E
100
AcDbEntity
  8
10
  6
Continuous
100
AcDbCircle
 10
-44.99999999999999
 20
114.0
 30
0.0
 40
5.5
210
0.0
220
0.0
230
-1.0
100
AcDbArc
 50
180.0
 51
0.0
  0
LINE
  5
868F
330
1E
100
AcDbEntity
  8
24
  6
CONTINOUS
100
AcDbLine
 10
40.99999999999996
 20
116.3094010767587
 30
0.0
 11
40.99999999999996
 21
111.6905989232414
 31
0.0
  0
LINE
  5
8690
330
1E
100
AcDbEntity
  8
24
  6
CONTINOUS
100
AcDbLine
 10
44.99999999999999
 20
123.0
 30
0.0
 11
44.99999999999999
 21
105.0
 31
0.0
  0
LINE
  5
8691
330
1E
100
AcDbEntity
  8
24
  6
CONTINOUS
100
AcDbLine
 10
48.99999999999998
 20
111.6905989232414
 30
0.0
 11
48.99999999999998
 21
116.3094010767587
 31
0.0
  0
LINE
  5
8692
330
1E
100
AcDbEntity
  8
24
  6
CONTINOUS
100
AcDbLine
 10
44.99999999999999
 20
109.3811978464831
 30
0.0
 11
48.99999999999998
 21
111.6905989232414
 31
0.0
  0
LINE
  5
8693
330
1E
100
AcDbEntity
  8
24
  6
CONTINOUS
100
AcDbLine
 10
40.99999999999996
 20
111.6905989232414
 30
0.0
 11
44.99999999999999
 21
109.3811978464831
 31
0.0
  0
LINE
  5
8694
330
1E
100
AcDbEntity
  8
24
  6
CONTINOUS
100
AcDbLine
 10
36.00000000000003
 20
114.0
 30
0.0
 11
53.99999999999998
 21
114.0
 31
0.0
  0
LINE
  5
8695
330
1E
100
AcDbEntity
  8
24
  6
CONTINOUS
100
AcDbLine
 10
48.99999999999998
 20
116.3094010767587
 30
0.0
 11
44.99999999999999
 21
118.6188021535169
 31
0.0
  0
ARC
  5
8696
330
1E
100
AcDbEntity
  8
10
  6
Continuous
100
AcDbCircle
 10
-44.99999999999999
 20
114.0
 30
0.0
 40
8.0
210
0.0
220
0.0
230
-1.0
100
AcDbArc
 50
46.5674634422112
 51
133.4325365577887
  0
LINE
  5
8697
330
1E
100
AcDbEntity
  8
24
  6
CONTINOUS
100
AcDbLine
 10
44.99999999999999
 20
118.6188021535169
 30
0.0
 11
40.99999999999996
 21
116.3094010767587
 31
0.0
  0
LINE
  5
8698
330
1E
100
AcDbEntity
  8
10
  6
Continuous
100
AcDbLine
 10
39.49999999999996
 20
114.0
 30
0.0
 11
39.49999999999996
 21
130.0
 31
0.0
  0
LINE
  5
8699
330
1E
100
AcDbEntity
  8
10
  6
Continuous
100
AcDbLine
 10
50.49999999999998
 20
114.0
 30
0.0
 11
50.49999999999998
 21
130.0
 31
0.0
  0
LINE
  5
869C
330
1E
100
AcDbEntity
  8
18
100
AcDbLine
 10
-24.5
 20
239.9999999999999
 30
0.0
 11
-20.5
 21
239.9999999999999
 31
0.0
  0
LINE
  5
869D
330
1E
100
AcDbEntity
  8
18
100
AcDbLine
 10
20.5
 20
239.9999999999999
 30
0.0
 11
24.5
 21
239.9999999999999
 31
0.0
  0
LINE
  5
8806
330
1E
100
AcDbEntity
  8
10
  6
Continuous
100
AcDbLine
 10
-69.99999999999997
 20
129.9999999999989
 30
0.0
 11
70.0
 21
129.9999999999989
 31
0.0
  0
DIMENSION
  5
8807
330
1E
100
AcDbEntity
  8
30
  6
Continuous
100
AcDbDimension
  2
*D20
 10
-120.9317721970335
 20
239.9999999999999
 30
0.0
 11
-123.9317721970335
 21
184.9999999999999
 31
0.0
 70
    32
 71
     5
 42
-1.0
  3
STANDARD
100
AcDbAlignedDimension
 13
-70.0
 23
130.0
 33
0.0
 14
-20.5
 24
239.9999999999999
 34
0.0
 50
90.0
100
AcDbRotatedDimension
1001
ACAD
1000
DSTYLE
1002
{
1070
    79
1070
     3
1002
}
  0
DIMENSION
  5
882F
330
1E
100
AcDbEntity
  8
30
  6
Continuous
100
AcDbDimension
  2
*D21
 10
70.0
 20
-164.4538407233292
 30
0.0
 11
0.0000000000000002
 21
-161.4538407233292
 31
0.0
 70
    32
 71
     5
 42
-1.0
  3
STANDARD
100
AcDbAlignedDimension
 13
-70.0
 23
-130.0
 33
0.0
 14
70.0
 24
-130.0
 34
0.0
100
AcDbRotatedDimension
1001
ACAD
1000
DSTYLE
1002
{
1070
    79
1070
     3
1002
}
  0
DIMENSION
  5
883C
330
1E
100
AcDbEntity
  8
30
  6
Continuous
100
AcDbDimension
  2
*D22
 10
-0.0000000000000012
 20
-142.9326664853055
 30
0.0
 11
-22.5
 21
-139.9326664853056
 31
0.0
 70
    32
 71
     5
 42
-1.0
  3
STANDARD
100
AcDbAlignedDimension
 13
-45.0
 23
-121.9999999999999
 33
0.0
 14
0.0
 24
-122.9999999999999
 34
0.0
100
AcDbRotatedDimension
1001
ACAD
1000
DSTYLE
1002
{
1070
    79
1070
     3
1002
}
  0
DIMENSION
  5
8849
330
1E
100
AcDbEntity
  8
30
  6
Continuous
100
AcDbDimension
  2
*D23
 10
45.0
 20
-142.9326664853055
 30
0.0
 11
22.5
 21
-139.9326664853055
 31
0.0
 70
    32
 71
     5
 42
-1.0
  3
STANDARD
100
AcDbAlignedDimension
 13
0.0
 23
-122.9999999999999
 33
0.0
 14
45.0
 24
-122.9999999999999
 34
0.0
100
AcDbRotatedDimension
1001
ACAD
1000
DSTYLE
1002
{
1070
   287
1070
     4
1070
   287
1070
     4
1070
   287
1070
     4
1070
   287
1070
     4
1070
   279
1070
     1
1070
    79
1070
     3
1002
}
  0
DIMENSION
  5
88B7
330
1E
100
AcDbEntity
  8
30
  6
Continuous
100
AcDbDimension
  2
*D24
 10
69.9999999999999
 20
443.251144283447
 30
0.0
 11
57.49999999999993
 21
446.251144283447
 31
0.0
 70
    32
 71
     5
 42
-1.0
  3
STANDARD
100
AcDbAlignedDimension
 13
44.99999999999999
 23
428.4369478956378
 33
0.0
 14
69.9999999999999
 24
428.4369478956378
 34
0.0
100
AcDbRotatedDimension
1001
ACAD
1000
DSTYLE
1002
{
1070
    79
1070
     3
1002
}
  0
MTEXT
  5
89EA
330
1E
100
AcDbEntity
  8
19
  6
Continuous
100
AcDbMText
 10
213.9256685866202
 20
349.6414014351017
 30
0.0
 40
5.0
 41
94.44410000000001
 71
     1
 72
     5
  1
H400-NE 3F FC\PL400-NE 3P FC
  7
STANDARD1
 73
     1
 44
1.0
1001
ACAD
1000
MTEXTBEGIN
1070
    73
1070
     1
1070
    44
1040
1.0
1070
    74
1070
     0
1000
MTEXTEND
  0
LINE
  5
8CB8
330
1E
100
AcDbEntity
  8
12
  6
DASHED
100
AcDbLine
 10
219.1780273244877
 20
-106.9999999999996
 30
0.0
 11
381.1780273244878
 21
-106.9999999999996
 31
0.0
  0
LINE
  5
8CBA
330
1E
100
AcDbEntity
  8
10
  6
CONTINOUS
100
AcDbLine
 10
357.1780273244878
 20
130.0
 30
0.0
 11
357.1780273244878
 21
-129.9999999999998
 31
0.0
  0
LINE
  5
8CBB
330
1E
100
AcDbEntity
  8
10
  6
CONTINOUS
100
AcDbLine
 10
213.1780273244876
 20
45.00000000000006
 30
0.0
 11
213.1780273244876
 21
-44.99999999999988
 31
0.0
  0
LINE
  5
8CBC
330
1E
100
AcDbEntity
  8
10
  6
CONTINOUS
100
AcDbLine
 10
209.1780273244878
 20
45.00000000000006
 30
0.0
 11
209.1780273244878
 21
-44.99999999999988
 31
0.0
  0
LINE
  5
8CBD
330
1E
100
AcDbEntity
  8
10
  6
CONTINOUS
100
AcDbLine
 10
217.1780273244876
 20
51.00000000000017
 30
0.0
 11
217.1780273244876
 21
-50.99999999999988
 31
0.0
  0
LINE
  5
8CBE
330
1E
100
AcDbEntity
  8
12
  6
DASHED
100
AcDbLine
 10
234.8780273244875
 20
-109.2499999999997
 30
0.0
 11
357.1780273244874
 21
-109.2499999999997
 31
0.0
  0
LINE
  5
8CBF
330
1E
100
AcDbEntity
  8
12
  6
DASHED
100
AcDbLine
 10
234.8780273244875
 20
-104.7499999999996
 30
0.0
 11
357.1780273244874
 21
-104.7499999999996
 31
0.0
  0
LINE
  5
8CC0
330
1E
100
AcDbEntity
  8
10
  6
CONTINOUS
100
AcDbLine
 10
223.1780273244877
 20
-129.9999999999998
 30
0.0
 11
357.1780273244878
 21
-129.9999999999998
 31
0.0
  0
LINE
  5
8CC1
330
1E
100
AcDbEntity
  8
10
  6
CONTINOUS
100
AcDbLine
 10
223.1780273244877
 20
-50.99999999999988
 30
0.0
 11
223.1780273244877
 21
-129.9999999999998
 31
0.0
  0
LINE
  5
8CC2
330
1E
100
AcDbEntity
  8
12
  6
DASHED
100
AcDbLine
 10
223.1780273244873
 20
-111.2499999999996
 30
0.0
 11
234.8780273244875
 21
-111.2499999999996
 31
0.0
  0
LINE
  5
8CC3
330
1E
100
AcDbEntity
  8
12
  6
DASHED
100
AcDbLine
 10
223.1780273244873
 20
-102.7499999999996
 30
0.0
 11
234.8780273244875
 21
-102.7499999999996
 31
0.0
  0
LINE
  5
8CC4
330
1E
100
AcDbEntity
  8
12
  6
DASHED
100
AcDbLine
 10
228.8780273244875
 20
-102.7499999999996
 30
0.0
 11
228.8780273244875
 21
-111.2499999999996
 31
0.0
  0
LINE
  5
8CC5
330
1E
100
AcDbEntity
  8
12
  6
DASHED
100
AcDbLine
 10
234.8780273244875
 20
-102.7499999999996
 30
0.0
 11
234.8780273244875
 21
-111.2499999999996
 31
0.0
  0
LINE
  5
8CC6
330
1E
100
AcDbEntity
  8
12
  6
DASHED
100
AcDbLine
 10
234.8780273244875
 20
-109.2499999999997
 30
0.0
 11
234.8780273244875
 21
-111.2499999999996
 31
0.0
  0
LINE
  5
8CC7
330
1E
100
AcDbEntity
  8
12
  6
DASHED
100
AcDbLine
 10
234.8780273244875
 20
-102.7499999999996
 30
0.0
 11
234.8780273244875
 21
-104.7499999999996
 31
0.0
  0
LINE
  5
8CC8
330
1E
100
AcDbEntity
  8
10
  6
CONTINOUS
100
AcDbLine
 10
209.1780273244878
 20
-44.99999999999988
 30
0.0
 11
217.1780273244876
 21
-44.99999999999988
 31
0.0
  0
LINE
  5
8CC9
330
1E
100
AcDbEntity
  8
10
  6
CONTINOUS
100
AcDbLine
 10
217.1780273244876
 20
-50.99999999999988
 30
0.0
 11
223.1780273244877
 21
-50.99999999999988
 31
0.0
  0
LINE
  5
8CCA
330
1E
100
AcDbEntity
  8
12
  6
DASHED
100
AcDbLine
 10
357.1780273244878
 20
-109.2499999999997
 30
0.0
 11
371.8780273244878
 21
-109.2499999999997
 31
0.0
  0
LINE
  5
8CCB
330
1E
100
AcDbEntity
  8
12
  6
DASHED
100
AcDbLine
 10
357.1780273244878
 20
-104.7499999999996
 30
0.0
 11
371.8780273244878
 21
-104.7499999999996
 31
0.0
  0
LINE
  5
8CCC
330
1E
100
AcDbEntity
  8
12
  6
DASHED
100
AcDbLine
 10
371.8780273244878
 20
-104.7499999999996
 30
0.0
 11
371.8780273244878
 21
-109.2499999999997
 31
0.0
  0
LINE
  5
8CCD
330
1E
100
AcDbEntity
  8
10
  6
CONTINOUS
100
AcDbLine
 10
357.1780273244878
 20
130.0
 30
0.0
 11
223.1780273244877
 21
130.0
 31
0.0
  0
LINE
  5
8CCE
330
1E
100
AcDbEntity
  8
10
  6
CONTINOUS
100
AcDbLine
 10
223.1780273244877
 20
130.0
 30
0.0
 11
223.1780273244877
 21
51.00000000000017
 31
0.0
  0
LINE
  5
8CCF
330
1E
100
AcDbEntity
  8
10
  6
CONTINOUS
100
AcDbLine
 10
209.1780273244878
 20
17.03370272535238
 30
0.0
 11
178.5270392220354
 21
28.03853193396586
 31
0.0
  0
LINE
  5
8CD0
330
1E
100
AcDbEntity
  8
10
  6
CONTINOUS
100
AcDbLine
 10
182.5820398380754
 20
39.33264411704232
 30
0.0
 11
178.5270392220354
 21
28.03853193396577
 31
0.0
  0
ARC
  5
8CD1
330
1E
100
AcDbEntity
  8
30
  6
Continuous
100
AcDbCircle
 10
266.5780273244876
 20
2.800000000000011
 30
0.0
 40
91.39999999999997
100
AcDbArc
 50
164.0139175463452
 51
180.0
  0
LINE
  5
8CD2
330
1E
100
AcDbEntity
  8
10
  6
CONTINOUS
100
AcDbLine
 10
175.1780273244875
 20
2.800000000000125
 30
0.0
 11
175.1780273244875
 21
0.0000000000001137
 31
0.0
  0
ARC
  5
8CD3
330
1E
100
AcDbEntity
  8
30
  6
Continuous
100
AcDbCircle
 10
266.5780273244876
 20
2.800000000000011
 30
0.0
 40
73.90000000000002
100
AcDbArc
 50
163.3527763761223
 51
180.0
  0
LINE
  5
8CD4
330
1E
100
AcDbEntity
  8
10
  6
CONTINOUS
100
AcDbLine
 10
192.6780273244878
 20
2.800000000000011
 30
0.0
 11
192.6780273244878
 21
0.0000000000001137
 31
0.0
  0
LINE
  5
8CD5
330
1E
100
AcDbEntity
  8
10
  6
CONTINOUS
100
AcDbLine
 10
209.1780273244878
 20
45.00000000000006
 30
0.0
 11
217.1780273244876
 21
45.00000000000006
 31
0.0
  0
LINE
  5
8CD6
330
1E
100
AcDbEntity
  8
10
  6
CONTINOUS
100
AcDbLine
 10
209.1780273244878
 20
29.78370889367926
 30
0.0
 11
182.5820398380754
 21
39.33264411704232
 31
0.0
  0
LINE
  5
8CD7
330
1E
100
AcDbEntity
  8
10
  6
CONTINOUS
100
AcDbLine
 10
209.1780273244878
 20
19.15870375340698
 30
0.0
 11
195.6734529250287
 21
24.00734139942044
 31
0.0
  0
LINE
  5
8CD8
330
1E
100
AcDbEntity
  8
10
  6
CONTINOUS
100
AcDbLine
 10
198.3767866690553
 20
31.5367495214715
 30
0.0
 11
195.6734529250287
 21
24.00734139942056
 31
0.0
  0
LINE
  5
8CD9
330
1E
100
AcDbEntity
  8
10
  6
CONTINOUS
100
AcDbLine
 10
209.1780273244878
 20
27.65870786562469
 30
0.0
 11
198.3767866690553
 21
31.53674952147133
 31
0.0
  0
LINE
  5
8CDA
330
1E
100
AcDbEntity
  8
10
  6
CONTINOUS
100
AcDbLine
 10
217.1780273244876
 20
51.00000000000017
 30
0.0
 11
223.1780273244877
 21
51.00000000000017
 31
0.0
  0
LINE
  5
8CDB
330
1E
100
AcDbEntity
  8
24
  6
CONTINOUS
100
AcDbLine
 10
282.1780273244878
 20
130.0
 30
0.0
 11
282.1780273244878
 21
98.00000000000018
 31
0.0
  0
LINE
  5
8CDC
330
1E
100
AcDbEntity
  8
24
  6
CONTINOUS
100
AcDbLine
 10
288.1780273244876
 20
130.0
 30
0.0
 11
288.1780273244876
 21
98.00000000000018
 31
0.0
  0
LINE
  5
8CDD
330
1E
100
AcDbEntity
  8
24
  6
CONTINOUS
100
AcDbLine
 10
282.1780273244878
 20
98.00000000000018
 30
0.0
 11
288.1780273244876
 21
98.00000000000018
 31
0.0
  0
LINE
  5
8CDE
330
1E
100
AcDbEntity
  8
24
  6
CONTINOUS
100
AcDbLine
 10
273.2780273244878
 20
105.1000000000001
 30
0.0
 11
279.6780273244876
 21
105.1000000000001
 31
0.0
  0
LINE
  5
8CDF
330
1E
100
AcDbEntity
  8
24
  6
CONTINOUS
100
AcDbLine
 10
273.2780273244878
 20
122.9
 30
0.0
 11
279.6780273244876
 21
122.9
 31
0.0
  0
LINE
  5
8CE0
330
1E
100
AcDbEntity
  8
24
  6
CONTINOUS
100
AcDbLine
 10
268.2780273244878
 20
114.0000000000001
 30
0.0
 11
293.1780273244878
 21
114.0000000000001
 31
0.0
  0
LINE
  5
8CE1
330
1E
100
AcDbEntity
  8
24
  6
CONTINOUS
100
AcDbLine
 10
273.2780273244878
 20
122.9
 30
0.0
 11
273.2780273244878
 21
105.1000000000001
 31
0.0
  0
LINE
  5
8CE2
330
1E
100
AcDbEntity
  8
24
  6
CONTINOUS
100
AcDbLine
 10
279.6780273244876
 20
104.8
 30
0.0
 11
282.1780273244878
 21
104.8
 31
0.0
  0
LINE
  5
8CE3
330
1E
100
AcDbEntity
  8
24
  6
CONTINOUS
100
AcDbLine
 10
279.6780273244876
 20
123.2000000000001
 30
0.0
 11
282.1780273244878
 21
123.2000000000001
 31
0.0
  0
LINE
  5
8CE4
330
1E
100
AcDbEntity
  8
24
  6
CONTINOUS
100
AcDbLine
 10
279.6780273244876
 20
123.2000000000001
 30
0.0
 11
279.6780273244876
 21
104.8
 31
0.0
  0
DIMENSION
  5
8D76
330
1E
100
AcDbEntity
  8
30
  6
Continuous
100
AcDbDimension
  2
*D27
 10
282.1780273244878
 20
148.0635069066129
 30
0.0
 11
319.6780273244878
 21
151.0635069066128
 31
0.0
 70
    32
 71
     5
 42
-1.0
  3
STANDARD
100
AcDbAlignedDimension
 13
357.1780273244878
 23
130.0
 33
0.0
 14
282.1780273244878
 24
130.0
 34
0.0
100
AcDbRotatedDimension
1001
ACAD
1000
DSTYLE
1002
{
1070
    79
1070
     3
1002
}
  0
LEADER
  5
8D77
330
1E
100
AcDbEntity
  8
30
  6
Continuous
100
AcDbLeader
  3
STANDARD
 73
     0
 40
4.0
 76
     3
 10
276.3088671821634
 20
123.1879450447893
 30
0.0
 10
272.2065435539374
 20
138.8087179895955
 30
0.0
 10
256.5144964748578
 20
138.8087179895959
 30
0.0
340
8D78
213
525.1521300397286
223
2.0
233
0.0
1001
ACAD
1000
DSTYLE
1002
{
1070
     5
1000
OPEN
1070
    77
1070
     0
1070
    79
1070
     3
1070
   147
1040
1.0
1070
   342
1005
3B2
1002
}
  0
MTEXT
  5
8D78
102
{ACAD_REACTORS
330
8D77
102
}
330
1E
100
AcDbEntity
  8
30
  6
Continuous
100
AcDbMText
 10
-228.2652142528783
 20
136.8087179895959
 30
0.0
 40
4.0
 41
0.0
 71
     9
 72
     1
  1
\A1;
 73
     1
 44
1.0
1001
ACAD
1000
MTEXTBEGIN
1070
    73
1070
     1
1070
    44
1040
1.0
1070
    74
1070
     0
1000
MTEXTEND
  0
TEXT
  5
8D79
330
1E
100
AcDbEntity
  8
30
  6
Continuous
100
AcDbText
 10
256.5664310788805
 20
139.8330327260238
 30
0.0
 40
5.0
  1
M10
  7
STANDARD1
100
AcDbText
  0
LINE
  5
8DA2
330
1E
100
AcDbEntity
  8
24
  6
CONTINOUS
100
AcDbLine
 10
271.2780273244878
 20
-113.9999999999999
 30
0.0
 11
296.1780273244878
 21
-113.9999999999999
 31
0.0
  0
LINE
  5
8DA4
330
1E
100
AcDbEntity
  8
24
  6
CONTINOUS
100
AcDbLine
 10
291.1780273244878
 20
-129.9999999999999
 30
0.0
 11
291.1780273244878
 21
-97.99999999999997
 31
0.0
  0
LINE
  5
8DA5
330
1E
100
AcDbEntity
  8
24
  6
CONTINOUS
100
AcDbLine
 10
285.1780273244878
 20
-129.9999999999999
 30
0.0
 11
285.1780273244878
 21
-97.99999999999997
 31
0.0
  0
LINE
  5
8DA6
330
1E
100
AcDbEntity
  8
24
  6
CONTINOUS
100
AcDbLine
 10
282.6780273244878
 20
-123.1999999999999
 30
0.0
 11
282.6780273244878
 21
-104.7999999999996
 31
0.0
  0
LINE
  5
8DA7
330
1E
100
AcDbEntity
  8
24
  6
CONTINOUS
100
AcDbLine
 10
276.2780273244878
 20
-122.8999999999996
 30
0.0
 11
276.2780273244878
 21
-105.0999999999999
 31
0.0
  0
LINE
  5
8DA8
330
1E
100
AcDbEntity
  8
24
  6
CONTINOUS
100
AcDbLine
 10
282.6780273244878
 20
-104.7999999999996
 30
0.0
 11
285.1780273244878
 21
-104.7999999999996
 31
0.0
  0
LINE
  5
8DA9
330
1E
100
AcDbEntity
  8
24
  6
CONTINOUS
100
AcDbLine
 10
276.2780273244878
 20
-105.0999999999999
 30
0.0
 11
282.6780273244878
 21
-105.0999999999999
 31
0.0
  0
LINE
  5
8DAA
330
1E
100
AcDbEntity
  8
24
  6
CONTINOUS
100
AcDbLine
 10
285.1780273244878
 20
-97.99999999999997
 30
0.0
 11
291.1780273244878
 21
-97.99999999999997
 31
0.0
  0
LINE
  5
8DAB
330
1E
100
AcDbEntity
  8
24
  6
CONTINOUS
100
AcDbLine
 10
282.6780273244878
 20
-123.1999999999999
 30
0.0
 11
285.1780273244878
 21
-123.1999999999999
 31
0.0
  0
LINE
  5
8DAC
330
1E
100
AcDbEntity
  8
24
  6
CONTINOUS
100
AcDbLine
 10
276.2780273244878
 20
-122.8999999999996
 30
0.0
 11
282.6780273244878
 21
-122.8999999999996
 31
0.0
  0
DIMENSION
  5
8DAD
330
1E
100
AcDbEntity
  8
30
  6
Continuous
100
AcDbDimension
  2
*D28
 10
285.1780273244878
 20
-148.0635069066124
 30
0.0
 11
321.1780273244877
 21
-145.0635069066125
 31
0.0
 70
    32
 71
     5
 42
-1.0
  3
STANDARD
100
AcDbAlignedDimension
 13
357.1780273244878
 23
-129.9999999999999
 33
0.0
 14
285.1780273244878
 24
-129.9999999999999
 34
0.0
100
AcDbRotatedDimension
1001
ACAD
1000
DSTYLE
1002
{
1070
    79
1070
     3
1002
}
  0
DIMENSION
  5
8DCC
330
1E
100
AcDbEntity
  8
30
  6
Continuous
100
AcDbDimension
  2
*D29
 10
357.1780273244878
 20
-160.7311689432339
 30
0.0
 11
287.1780273244878
 21
-157.731168943234
 31
0.0
 70
    32
 71
     5
 42
-1.0
  3
STANDARD
100
AcDbAlignedDimension
 13
217.1780273244876
 23
-51.99999999999988
 33
0.0
 14
357.1780273244878
 24
-130.9999999999999
 34
0.0
100
AcDbRotatedDimension
1001
ACAD
1000
DSTYLE
1002
{
1070
    79
1070
     3
1002
}
  0
DIMENSION
  5
8DD9
330
1E
100
AcDbEntity
  8
30
  6
Continuous
100
AcDbDimension
  2
*D30
 10
217.1780273244876
 20
-160.7311689432339
 30
0.0
 11
213.1780273244876
 21
-157.731168943234
 31
0.0
 70
    32
 71
     5
 42
-1.0
  3
STANDARD
100
AcDbAlignedDimension
 13
209.1780273244878
 23
-44.99999999999988
 33
0.0
 14
217.1780273244876
 24
-50.99999999999988
 34
0.0
100
AcDbRotatedDimension
1001
ACAD
1000
DSTYLE
1002
{
1070
    79
1070
     3
1002
}
  0
DIMENSION
  5
8DEF
330
1E
100
AcDbEntity
  8
30
  6
Continuous
100
AcDbDimension
  2
*D31
 10
357.1780273244878
 20
-180.2156660163816
 30
0.0
 11
266.1780273244878
 21
-177.2156660163816
 31
0.0
 70
    32
 71
     5
 42
-1.0
  3
STANDARD
100
AcDbAlignedDimension
 13
175.1780273244875
 23
0.0000000000001137
 33
0.0
 14
357.1780273244878
 24
-131.9999999999999
 34
0.0
100
AcDbRotatedDimension
1001
ACAD
1000
DSTYLE
1002
{
1070
    79
1070
     3
1002
}
  0
LINE
  5
8E60
330
1E
100
AcDbEntity
  8
18
  6
DIVIDE
100
AcDbLine
 10
200.0
 20
-490.0
 30
0.0
 11
340.0
 21
-490.0
 31
0.0
  0
LINE
  5
8E61
330
1E
100
AcDbEntity
  8
18
  6
DIVIDE
100
AcDbLine
 10
340.0
 20
-230.0
 30
0.0
 11
200.0
 21
-230.0
 31
0.0
  0
LINE
  5
8E64
330
1E
100
AcDbEntity
  8
18
  6
DIVIDE
100
AcDbLine
 10
200.0
 20
-230.0
 30
0.0
 11
200.0
 21
-490.0
 31
0.0
  0
LINE
  5
8E68
330
1E
100
AcDbEntity
  8
18
  6
DIVIDE
100
AcDbLine
 10
340.0
 20
-230.0
 30
0.0
 11
340.0
 21
-490.0
 31
0.0
  0
LINE
  5
8E83
330
1E
100
AcDbEntity
  8
18
  6
DIVIDE
100
AcDbLine
 10
70.0
 20
-229.9999999999999
 30
0.0
 11
-69.99999999999977
 21
-229.9999999999999
 31
0.0
  0
LINE
  5
8E84
330
1E
100
AcDbEntity
  8
18
  6
DIVIDE
100
AcDbLine
 10
-69.99999999999977
 20
-490.0
 30
0.0
 11
70.0
 21
-490.0
 31
0.0
  0
LINE
  5
8E85
330
1E
100
AcDbEntity
  8
18
  6
DIVIDE
100
AcDbLine
 10
-69.99999999999977
 20
-229.9999999999999
 30
0.0
 11
-69.99999999999977
 21
-490.0
 31
0.0
  0
LINE
  5
8E93
330
1E
100
AcDbEntity
  8
18
  6
DIVIDE
100
AcDbLine
 10
70.0
 20
-229.9999999999999
 30
0.0
 11
70.0
 21
-490.0
 31
0.0
  0
LINE
  5
9089
330
1E
100
AcDbEntity
  8
12
  6
Continuous
 62
     3
100
AcDbLine
 10
29.49999999999977
 20
-253.0
 30
0.0
 11
15.49999999999974
 21
-253.0
 31
0.0
  0
CIRCLE
  5
908A
330
1E
100
AcDbEntity
  8
12
  6
Continuous
 62
     3
100
AcDbCircle
 10
22.49999999999977
 20
-253.0
 30
0.0
 40
3.0
  0
LINE
  5
908B
330
1E
100
AcDbEntity
  8
12
  6
Continuous
 62
     3
100
AcDbLine
 10
22.49999999999977
 20
-246.0
 30
0.0
 11
22.49999999999977
 21
-260.0
 31
0.0
  0
CIRCLE
  5
908C
330
1E
100
AcDbEntity
  8
12
  6
Continuous
 62
     3
100
AcDbCircle
 10
-22.50000000000022
 20
-467.0
 30
0.0
 40
3.0
  0
LINE
  5
908D
330
1E
100
AcDbEntity
  8
12
  6
Continuous
 62
     3
100
AcDbLine
 10
-15.50000000000022
 20
-467.0
 30
0.0
 11
-29.50000000000022
 21
-467.0
 31
0.0
  0
LINE
  5
908E
330
1E
100
AcDbEntity
  8
12
  6
Continuous
 62
     3
100
AcDbLine
 10
-22.50000000000022
 20
-460.0
 30
0.0
 11
-22.50000000000022
 21
-474.0
 31
0.0
  0
VIEWPORT
  5
9AC
330
1A
100
AcDbEntity
 67
     1
  8
0
  6
Continuous
100
AcDbViewport
 10
171.999535
 20
144.1384739999999
 30
0.0
 40
488.867686
 41
292.351491
 68
    -1
 69
     1
 12
171.999535
 22
144.1384739999999
 13
0.0
 23
0.0
 14
10.0
 24
10.0
 15
10.0
 25
10.0
 16
0.0
 26
0.0
 36
1.0
 17
0.0
 27
0.0
 37
0.0
 42
50.0
 43
0.0
 44
0.0
 45
292.351491
 50
0.0
 51
0.0
 72
   100
 90
    32800
  1

281
     0
 71
     1
 74
     0
110
0.0
120
0.0
130
0.0
111
1.0
121
0.0
131
0.0
112
0.0
122
1.0
132
0.0
 79
     0
146
0.0
  0
ENDSEC
  0
SECTION
  2
OBJECTS
  0
DICTIONARY
  5
C
330
0
100
AcDbDictionary
281
     1
  3
ACAD_GROUP
350
D
  3
ACAD_LAYOUT
350
19
  3
ACAD_MLINESTYLE
350
16
  3
ACAD_PLOTSETTINGS
350
18
  3
ACAD_PLOTSTYLENAME
350
E
  3
ACADDIM
350
6D5E
  3
ACDBVARIABLEDICTIONARY
350
5697
  0
DICTIONARY
  5
178
330
1E
100
AcDbDictionary
280
     1
281
     1
  3
ACAD_LAYOUTSELFREF
360
90DB
  0
DICTIONARY
  5
17A
330
1A
100
AcDbDictionary
280
     1
281
     1
  3
ACAD_LAYOUTSELFREF
360
90DA
  0
DICTIONARY
  5
D
102
{ACAD_REACTORS
330
C
102
}
330
C
100
AcDbDictionary
281
     1
  0
DICTIONARY
  5
19
102
{ACAD_REACTORS
330
C
102
}
330
C
100
AcDbDictionary
281
     1
  3
Model
350
9106
  3
ﾚｲｱｳﾄ1
350
9107
  0
DICTIONARY
  5
16
102
{ACAD_REACTORS
330
C
102
}
330
C
100
AcDbDictionary
281
     1
  3
STANDARD
350
17
  0
DICTIONARY
  5
18
102
{ACAD_REACTORS
330
C
102
}
330
C
100
AcDbDictionary
281
     1
  0
ACDBDICTIONARYWDFLT
  5
E
102
{ACAD_REACTORS
330
C
102
}
330
C
100
AcDbDictionary
281
     1
  3
Normal
350
F
100
AcDbDictionaryWithDefault
340
F
  0
XRECORD
  5
6D5E
102
{ACAD_REACTORS
330
C
102
}
330
C
100
AcDbXrecord
280
     1
 90
   990106
  3

 60
     0
 61
     0
 62
     1
 63
     3
 64
     0
 65
     0
 66
     0
 67
     3
 68
     1
 69
     0
 70
     0
 71
     0
 72
     0
 40
0.0
170
     0
340
7CA9
  0
DICTIONARY
  5
5697
102
{ACAD_REACTORS
330
C
102
}
330
C
100
AcDbDictionary
281
     1
  3
DIMASSOC
350
5698
  0
XRECORD
  5
90DB
102
{ACAD_REACTORS
330
178
102
}
330
178
100
AcDbXrecord
280
     1
340
1E
  0
XRECORD
  5
90DA
102
{ACAD_REACTORS
330
17A
102
}
330
17A
100
AcDbXrecord
280
     1
340
1A
  0
LAYOUT
  5
9106
102
{ACAD_REACTORS
330
19
102
}
330
19
100
AcDbPlotSettings
  1

  2
LBP5400
  4
A4
  6

 40
5.873749732971191
 41
5.873747825622558
 42
5.873748779296875
 43
5.873748779296875
 44
209.9733276367187
 45
296.9259948730469
 46
0.0
 47
0.0
 48
0.0
 49
0.0
140
0.0
141
0.0
142
1.0
143
1.0
 70
 11952
 72
     0
 73
     1
 74
     0
  7
monochrome.stb
 75
     0
147
1.0
148
-5342.020296754029
149
-7236.393677827646
100
AcDbLayout
  1
Model
 70
     1
 71
     0
 10
0.0
 20
0.0
 11
12.0
 21
9.0
 12
0.0
 22
0.0
 32
0.0
 14
0.0
 24
0.0
 34
0.0
 15
0.0
 25
0.0
 35
0.0
146
0.0
 13
0.0
 23
0.0
 33
0.0
 16
1.0
 26
0.0
 36
0.0
 17
0.0
 27
1.0
 37
0.0
 76
     0
330
1E
  0
LAYOUT
  5
9107
102
{ACAD_REACTORS
330
19
102
}
330
19
100
AcDbPlotSettings
  1

  2
LBP5400
  4

  6

 40
0.0
 41
0.0
 42
0.0
 43
0.0
 44
0.0
 45
0.0
 46
0.0
 47
0.0
 48
0.0
 49
0.0
140
0.0
141
0.0
142
1.0
143
1.0
 70
   688
 72
     0
 73
     0
 74
     5
  7
monochrome.stb
 75
    16
147
1.0
148
0.0
149
0.0
100
AcDbLayout
  1
ﾚｲｱｳﾄ1
 70
     1
 71
     1
 10
-5.873749
 20
-5.87375
 11
204.099579
 21
291.1369009999999
 12
0.0
 22
0.0
 32
0.0
 14
4.273573
 24
5.205245999999998
 34
0.0
 15
194.610095
 25
283.0697009999996
 35
0.0
146
0.0
 13
0.0
 23
0.0
 33
0.0
 16
1.0
 26
0.0
 36
0.0
 17
0.0
 27
1.0
 37
0.0
 76
     0
330
1A
  0
MLINESTYLE
  5
17
102
{ACAD_REACTORS
330
16
102
}
330
16
100
AcDbMlineStyle
  2
STANDARD
 70
     0
  3

 62
   256
 51
90.0
 52
90.0
 71
     2
 49
0.5
 62
   256
  6
BYLAYER
 49
-0.5
 62
   256
  6
BYLAYER
  0
ACDBPLACEHOLDER
  5
F
102
{ACAD_REACTORS
330
E
102
}
330
E
  0
DICTIONARYVAR
  5
5698
102
{ACAD_REACTORS
330
5697
102
}
330
5697
100
DictionaryVariables
280
     0
  1
1
  0
ENDSEC
  0
EOF
