  0
SECTION
  2
HEADER
  9
$ACADVER
  1
AC1015
  9
$ACADMAINTVER
 70
    20
  9
$DWGCODEPAGE
  3
ANSI_932
  9
$INSBASE
 10
0.0
 20
0.0
 30
0.0
  9
$EXTMIN
 10
-88.49999999999999
 20
-377.5163681745015
 30
0.0
  9
$EXTMAX
 10
445.319060763505
 20
399.3032458915809
 30
0.0
  9
$LIMMIN
 10
-296.316999476111
 20
-370.7034300441653
  9
$LIMMAX
 10
623.3128432133979
 20
328.6261559379898
  9
$ORTHOMODE
 70
     1
  9
$REGENMODE
 70
     1
  9
$FILLMODE
 70
     1
  9
$QTEXTMODE
 70
     0
  9
$MIRRTEXT
 70
     1
  9
$LTSCALE
 40
10.0
  9
$ATTMODE
 70
     1
  9
$TEXTSIZE
 40
5.0
  9
$TRACEWID
 40
0.05
  9
$TEXTSTYLE
  7
STANDARD1
  9
$CLAYER
  8
30
  9
$CELTYPE
  6
CONTINUOUS
  9
$CECOLOR
 62
   256
  9
$CELTSCALE
 40
1.0
  9
$DISPSILH
 70
     0
  9
$DIMSCALE
 40
1.0
  9
$DIMASZ
 40
2.0
  9
$DIMEXO
 40
1.0
  9
$DIMDLI
 40
0.5
  9
$DIMRND
 40
0.0
  9
$DIMDLE
 40
0.0
  9
$DIMEXE
 40
0.5
  9
$DIMTP
 40
0.0
  9
$DIMTM
 40
0.0
  9
$DIMTXT
 40
4.0
  9
$DIMCEN
 40
0.09
  9
$DIMTSZ
 40
0.0
  9
$DIMTOL
 70
     0
  9
$DIMLIM
 70
     0
  9
$DIMTIH
 70
     0
  9
$DIMTOH
 70
     1
  9
$DIMSE1
 70
     0
  9
$DIMSE2
 70
     0
  9
$DIMTAD
 70
     3
  9
$DIMZIN
 70
    12
  9
$DIMBLK
  1
OPEN
  9
$DIMASO
 70
     1
  9
$DIMSHO
 70
     1
  9
$DIMPOST
  1

  9
$DIMAPOST
  1

  9
$DIMALT
 70
     0
  9
$DIMALTD
 70
     2
  9
$DIMALTF
 40
25.4
  9
$DIMLFAC
 40
1.0
  9
$DIMTOFL
 70
     0
  9
$DIMTVP
 40
0.0
  9
$DIMTIX
 70
     0
  9
$DIMSOXD
 70
     0
  9
$DIMSAH
 70
     0
  9
$DIMBLK1
  1

  9
$DIMBLK2
  1

  9
$DIMSTYLE
  2
STANDARD
  9
$DIMCLRD
 70
     0
  9
$DIMCLRE
 70
     0
  9
$DIMCLRT
 70
     0
  9
$DIMTFAC
 40
1.0
  9
$DIMGAP
 40
1.0
  9
$DIMJUST
 70
     0
  9
$DIMSD1
 70
     0
  9
$DIMSD2
 70
     0
  9
$DIMTOLJ
 70
     1
  9
$DIMTZIN
 70
     0
  9
$DIMALTZ
 70
     0
  9
$DIMALTTZ
 70
     0
  9
$DIMUPT
 70
     0
  9
$DIMDEC
 70
     1
  9
$DIMTDEC
 70
     1
  9
$DIMALTU
 70
     2
  9
$DIMALTTD
 70
     2
  9
$DIMTXSTY
  7
STANDARD
  9
$DIMAUNIT
 70
     0
  9
$DIMADEC
 70
     0
  9
$DIMALTRND
 40
0.0
  9
$DIMAZIN
 70
     3
  9
$DIMDSEP
 70
    46
  9
$DIMATFIT
 70
     3
  9
$DIMFRAC
 70
     0
  9
$DIMLDRBLK
  1
OPEN
  9
$DIMLUNIT
 70
     2
  9
$DIMLWD
 70
    -2
  9
$DIMLWE
 70
    -2
  9
$DIMTMOVE
 70
     0
  9
$LUNITS
 70
     2
  9
$LUPREC
 70
     4
  9
$SKETCHINC
 40
0.1
  9
$FILLETRAD
 40
0.0
  9
$AUNITS
 70
     0
  9
$AUPREC
 70
     0
  9
$MENU
  1
.
  9
$ELEVATION
 40
0.0
  9
$PELEVATION
 40
0.0
  9
$THICKNESS
 40
0.0
  9
$LIMCHECK
 70
     0
  9
$CHAMFERA
 40
0.0
  9
$CHAMFERB
 40
0.0
  9
$CHAMFERC
 40
0.0
  9
$CHAMFERD
 40
0.0
  9
$SKPOLY
 70
     0
  9
$TDCREATE
 40
2452286.555658658
  9
$TDUCREATE
 40
2452286.180658658
  9
$TDUPDATE
 40
2457458.542934780
  9
$TDUUPDATE
 40
2457458.167934780
  9
$TDINDWG
 40
1.2722196296
  9
$TDUSRTIMER
 40
1.2722172454
  9
$USRTIMER
 70
     1
  9
$ANGBASE
 50
0.0
  9
$ANGDIR
 70
     0
  9
$PDMODE
 70
     0
  9
$PDSIZE
 40
0.0
  9
$PLINEWID
 40
0.0
  9
$SPLFRAME
 70
     0
  9
$SPLINETYPE
 70
     6
  9
$SPLINESEGS
 70
     8
  9
$HANDSEED
  5
6F55
  9
$SURFTAB1
 70
     6
  9
$SURFTAB2
 70
     6
  9
$SURFTYPE
 70
     6
  9
$SURFU
 70
     6
  9
$SURFV
 70
     6
  9
$UCSBASE
  2

  9
$UCSNAME
  2

  9
$UCSORG
 10
0.0
 20
0.0
 30
0.0
  9
$UCSXDIR
 10
1.0
 20
0.0
 30
0.0
  9
$UCSYDIR
 10
0.0
 20
1.0
 30
0.0
  9
$UCSORTHOREF
  2

  9
$UCSORTHOVIEW
 70
     0
  9
$UCSORGTOP
 10
0.0
 20
0.0
 30
0.0
  9
$UCSORGBOTTOM
 10
0.0
 20
0.0
 30
0.0
  9
$UCSORGLEFT
 10
0.0
 20
0.0
 30
0.0
  9
$UCSORGRIGHT
 10
0.0
 20
0.0
 30
0.0
  9
$UCSORGFRONT
 10
0.0
 20
0.0
 30
0.0
  9
$UCSORGBACK
 10
0.0
 20
0.0
 30
0.0
  9
$PUCSBASE
  2

  9
$PUCSNAME
  2

  9
$PUCSORG
 10
0.0
 20
0.0
 30
0.0
  9
$PUCSXDIR
 10
1.0
 20
0.0
 30
0.0
  9
$PUCSYDIR
 10
0.0
 20
1.0
 30
0.0
  9
$PUCSORTHOREF
  2

  9
$PUCSORTHOVIEW
 70
     0
  9
$PUCSORGTOP
 10
0.0
 20
0.0
 30
0.0
  9
$PUCSORGBOTTOM
 10
0.0
 20
0.0
 30
0.0
  9
$PUCSORGLEFT
 10
0.0
 20
0.0
 30
0.0
  9
$PUCSORGRIGHT
 10
0.0
 20
0.0
 30
0.0
  9
$PUCSORGFRONT
 10
0.0
 20
0.0
 30
0.0
  9
$PUCSORGBACK
 10
0.0
 20
0.0
 30
0.0
  9
$USERI1
 70
     0
  9
$USERI2
 70
     0
  9
$USERI3
 70
     0
  9
$USERI4
 70
     0
  9
$USERI5
 70
     0
  9
$USERR1
 40
0.0
  9
$USERR2
 40
0.0
  9
$USERR3
 40
0.0
  9
$USERR4
 40
0.0
  9
$USERR5
 40
0.0
  9
$WORLDVIEW
 70
     1
  9
$SHADEDGE
 70
     3
  9
$SHADEDIF
 70
    70
  9
$TILEMODE
 70
     1
  9
$MAXACTVP
 70
    48
  9
$PINSBASE
 10
0.0
 20
0.0
 30
0.0
  9
$PLIMCHECK
 70
     0
  9
$PEXTMIN
 10
4.273573
 20
5.205245999999998
 30
0.0
  9
$PEXTMAX
 10
194.610095
 20
283.0697009999996
 30
0.0
  9
$PLIMMIN
 10
-5.873749
 20
-5.87375
  9
$PLIMMAX
 10
204.099579
 20
291.1369009999999
  9
$UNITMODE
 70
     0
  9
$VISRETAIN
 70
     1
  9
$PLINEGEN
 70
     0
  9
$PSLTSCALE
 70
     1
  9
$TREEDEPTH
 70
  3020
  9
$CMLSTYLE
  2
STANDARD
  9
$CMLJUST
 70
     0
  9
$CMLSCALE
 40
1.0
  9
$PROXYGRAPHICS
 70
     1
  9
$MEASUREMENT
 70
     0
  9
$CELWEIGHT
370
    -1
  9
$ENDCAPS
280
     0
  9
$JOINSTYLE
280
     0
  9
$LWDISPLAY
290
     0
  9
$INSUNITS
 70
     0
  9
$HYPERLINKBASE
  1

  9
$STYLESHEET
  1
KIKI.CTB
  9
$XEDIT
290
     1
  9
$CEPSNTYPE
380
     0
  9
$PSTYLEMODE
290
     1
  9
$FINGERPRINTGUID
  2

  9
$VERSIONGUID
  2
{3B330939-8CF9-4423-AA89-20A20DD91067}
  9
$EXTNAMES
290
     1
  9
$PSVPSCALE
 40
0.0
  9
$OLESTARTUP
290
     0
  0
ENDSEC
  0
SECTION
  2
CLASSES
  0
CLASS
  1
ACDBDICTIONARYWDFLT
  2
AcDbDictionaryWithDefault
  3
ObjectDBX Classes
 90
        0
280
     0
281
     0
  0
CLASS
  1
ACDBPLACEHOLDER
  2
AcDbPlaceHolder
  3
ObjectDBX Classes
 90
        0
280
     0
281
     0
  0
CLASS
  1
LAYOUT
  2
AcDbLayout
  3
ObjectDBX Classes
 90
        0
280
     0
281
     0
  0
CLASS
  1
DICTIONARYVAR
  2
AcDbDictionaryVar
  3
ObjectDBX Classes
 90
        0
280
     0
281
     0
  0
CLASS
  1
MATERIAL
  2
AcDbMaterial
  3
ObjectDBX Classes
 90
     1153
280
     0
281
     0
  0
CLASS
  1
VISUALSTYLE
  2
AcDbVisualStyle
  3
ObjectDBX Classes
 90
     4095
280
     0
281
     0
  0
CLASS
  1
TABLESTYLE
  2
AcDbTableStyle
  3
ObjectDBX Classes
 90
     4095
280
     0
281
     0
  0
CLASS
  1
SCALE
  2
AcDbScale
  3
ObjectDBX Classes
 90
     1153
280
     0
281
     0
  0
CLASS
  1
MLEADERSTYLE
  2
AcDbMLeaderStyle
  3
ACDB_MLEADERSTYLE_CLASS
 90
     4095
280
     0
281
     0
  0
CLASS
  1
ACDBSECTIONVIEWSTYLE
  2
AcDbSectionViewStyle
  3
ObjectDBX Classes
 90
     1025
280
     0
281
     0
  0
CLASS
  1
ACDBDETAILVIEWSTYLE
  2
AcDbDetailViewStyle
  3
ObjectDBX Classes
 90
     1025
280
     0
281
     0
  0
CLASS
  1
CELLSTYLEMAP
  2
AcDbCellStyleMap
  3
ObjectDBX Classes
 90
     1152
280
     0
281
     0
  0
ENDSEC
  0
SECTION
  2
TABLES
  0
TABLE
  2
VPORT
  5
8
330
0
100
AcDbSymbolTable
 70
     1
  0
VPORT
  5
6887
330
8
100
AcDbSymbolTableRecord
100
AcDbViewportTableRecord
  2
*Active
 70
     0
 10
0.0
 20
0.0
 11
1.0
 21
1.0
 12
316.0655755001603
 22
177.5129333745691
 13
0.0
 23
0.0
 14
1.0
 24
1.0
 15
10.0
 25
10.0
 16
0.0
 26
0.0
 36
1.0
 17
0.0
 27
0.0
 37
0.0
 40
694.0307852125909
 41
2.108991825613078
 42
50.0
 43
0.0
 44
0.0
 50
0.0
 51
0.0
 71
     0
 72
   100
 73
     1
 74
     1
 75
     0
 76
     0
 77
     0
 78
     0
281
     0
 65
     1
110
0.0
120
0.0
130
0.0
111
1.0
121
0.0
131
0.0
112
0.0
122
1.0
132
0.0
 79
     0
146
0.0
1001
ACAD_NAV_VCDISPLAY
1070
     3
  0
ENDTAB
  0
TABLE
  2
LTYPE
  5
5
330
0
100
AcDbSymbolTable
 70
     7
  0
LTYPE
  5
13
330
5
100
AcDbSymbolTableRecord
100
AcDbLinetypeTableRecord
  2
BYBLOCK
 70
     0
  3

 72
    65
 73
     0
 40
0.0
  0
LTYPE
  5
14
330
5
100
AcDbSymbolTableRecord
100
AcDbLinetypeTableRecord
  2
BYLAYER
 70
     0
  3

 72
    65
 73
     0
 40
0.0
  0
LTYPE
  5
15
330
5
100
AcDbSymbolTableRecord
100
AcDbLinetypeTableRecord
  2
CONTINUOUS
 70
     0
  3
Solid line
 72
    65
 73
     0
 40
0.0
  0
LTYPE
  5
22
330
5
100
AcDbSymbolTableRecord
100
AcDbLinetypeTableRecord
  2
CONTINOUS
 70
     0
  3
Solid line
 72
    65
 73
     0
 40
0.0
  0
LTYPE
  5
23
330
5
100
AcDbSymbolTableRecord
100
AcDbLinetypeTableRecord
  2
DASHED
 70
     0
  3
__ __ __ __ __ __ __ __ __ __ __ __ __ __ __
 72
    65
 73
     2
 40
0.75
 49
0.5
 74
     0
 49
-0.25
 74
     0
  0
LTYPE
  5
24
330
5
100
AcDbSymbolTableRecord
100
AcDbLinetypeTableRecord
  2
DASHDOT
 70
     0
  3
__ . __ . __ . __ . __ . __ . __ . __ . __ . __
 72
    65
 73
     4
 40
1.0
 49
0.5
 74
     0
 49
-0.25
 74
     0
 49
0.0
 74
     0
 49
-0.25
 74
     0
  0
LTYPE
  5
4C47
330
5
100
AcDbSymbolTableRecord
100
AcDbLinetypeTableRecord
  2
DIVIDE
 70
     0
  3
Divide ____ . . ____ . . ____ . . ____ . . ____
 72
    65
 73
     6
 40
1.25
 49
0.5
 74
     0
 49
-0.25
 74
     0
 49
0.0
 74
     0
 49
-0.25
 74
     0
 49
0.0
 74
     0
 49
-0.25
 74
     0
  0
LTYPE
  5
5115
330
5
100
AcDbSymbolTableRecord
100
AcDbLinetypeTableRecord
  2
PHANTOM
 70
     0
  3
_____ _ _ _____ _ _ _____ _ _ _____ _ _ ____
 72
    65
 73
     6
 40
2.5
 49
1.25
 74
     0
 49
-0.25
 74
     0
 49
0.25
 74
     0
 49
-0.25
 74
     0
 49
0.25
 74
     0
 49
-0.25
 74
     0
  0
LTYPE
  5
62AE
330
5
100
AcDbSymbolTableRecord
100
AcDbLinetypeTableRecord
  2
HIDDEN
 70
     0
  3
_ _ _ _ _ _ _ _ _ _ _ _ _ _ _ _ _ _ _ _ _ _ _
 72
    65
 73
     2
 40
0.5
 49
0.25
 74
     0
 49
-0.25
 74
     0
  0
ENDTAB
  0
TABLE
  2
LAYER
  5
2
330
0
100
AcDbSymbolTable
 70
    17
  0
LAYER
  5
10
102
{ACAD_XDICTIONARY
360
6B03
102
}
330
2
100
AcDbSymbolTableRecord
100
AcDbLayerTableRecord
  2
0
 70
     0
 62
     7
  6
CONTINOUS
370
    -3
390
F
  0
LAYER
  5
2F
102
{ACAD_XDICTIONARY
360
6B05
102
}
330
2
100
AcDbSymbolTableRecord
100
AcDbLayerTableRecord
  2
10
 70
     0
 62
     4
  6
CONTINOUS
370
    -3
390
F
  0
LAYER
  5
31
102
{ACAD_XDICTIONARY
360
6B07
102
}
330
2
100
AcDbSymbolTableRecord
100
AcDbLayerTableRecord
  2
12
 70
     0
 62
     3
  6
CONTINOUS
370
    -3
390
F
  0
LAYER
  5
35
102
{ACAD_XDICTIONARY
360
6B09
102
}
330
2
100
AcDbSymbolTableRecord
100
AcDbLayerTableRecord
  2
16
 70
     0
 62
     6
  6
DASHDOT
370
    -3
390
F
  0
LAYER
  5
38
102
{ACAD_XDICTIONARY
360
6B0B
102
}
330
2
100
AcDbSymbolTableRecord
100
AcDbLayerTableRecord
  2
19
 70
     0
 62
     7
  6
CONTINOUS
370
    -3
390
F
  0
LAYER
  5
3C
102
{ACAD_XDICTIONARY
360
6B0D
102
}
330
2
100
AcDbSymbolTableRecord
100
AcDbLayerTableRecord
  2
11
 70
     0
 62
     1
  6
CONTINOUS
370
    -3
390
F
  0
LAYER
  5
3D
102
{ACAD_XDICTIONARY
360
6B0F
102
}
330
2
100
AcDbSymbolTableRecord
100
AcDbLayerTableRecord
  2
24
 70
     0
 62
     2
  6
CONTINOUS
370
    -3
390
F
  0
LAYER
  5
3A2
102
{ACAD_XDICTIONARY
360
6B11
102
}
330
2
100
AcDbSymbolTableRecord
100
AcDbLayerTableRecord
  2
30
 70
     0
 62
     9
  6
CONTINUOUS
370
    -3
390
F
  0
LAYER
  5
3A4
330
2
100
AcDbSymbolTableRecord
100
AcDbLayerTableRecord
  2
DEFPOINTS
 70
     0
 62
     7
  6
CONTINUOUS
290
     0
370
    -3
390
F
  0
LAYER
  5
3BBA
102
{ACAD_XDICTIONARY
360
6B13
102
}
330
2
100
AcDbSymbolTableRecord
100
AcDbLayerTableRecord
  2
18
 70
     0
 62
     5
  6
DIVIDE
370
    -3
390
F
  0
LAYER
  5
3BBB
102
{ACAD_XDICTIONARY
360
6B15
102
}
330
2
100
AcDbSymbolTableRecord
100
AcDbLayerTableRecord
  2
21
 70
     0
 62
     7
  6
CONTINUOUS
370
    -3
390
F
  0
LAYER
  5
5116
102
{ACAD_XDICTIONARY
360
6B17
102
}
330
2
100
AcDbSymbolTableRecord
100
AcDbLayerTableRecord
  2
1
 70
     0
 62
     7
  6
CONTINUOUS
370
    -3
390
F
  0
LAYER
  5
5117
102
{ACAD_XDICTIONARY
360
6B19
102
}
330
2
100
AcDbSymbolTableRecord
100
AcDbLayerTableRecord
  2
TOP
 70
     0
 62
     7
  6
CONTINUOUS
370
    -3
390
F
  0
LAYER
  5
678F
102
{ACAD_XDICTIONARY
360
6B1B
102
}
330
2
100
AcDbSymbolTableRecord
100
AcDbLayerTableRecord
  2
17
 70
     0
 62
     2
  6
DASHDOT
370
    -3
390
F
  0
LAYER
  5
6917
102
{ACAD_XDICTIONARY
360
6B1D
102
}
330
2
100
AcDbSymbolTableRecord
100
AcDbLayerTableRecord
  2
7
 70
     0
 62
     7
  6
CONTINUOUS
370
    -3
390
F
  0
LAYER
  5
6918
102
{ACAD_XDICTIONARY
360
6B1F
102
}
330
2
100
AcDbSymbolTableRecord
100
AcDbLayerTableRecord
  2
4
 70
     0
 62
     7
  6
CONTINUOUS
370
    -3
390
F
  0
LAYER
  5
6919
102
{ACAD_XDICTIONARY
360
6B21
102
}
330
2
100
AcDbSymbolTableRecord
100
AcDbLayerTableRecord
  2
5
 70
     0
 62
     7
  6
CONTINUOUS
370
    -3
390
F
  0
ENDTAB
  0
TABLE
  2
STYLE
  5
3
330
0
100
AcDbSymbolTable
 70
     4
  0
STYLE
  5
11
330
3
100
AcDbSymbolTableRecord
100
AcDbTextStyleTableRecord
  2
STANDARD
 70
     0
 40
0.0
 41
1.0
 50
0.0
 71
     0
 42
2.0
  3
txt.shx
  4
bigfont.shx
  0
STYLE
  5
42
330
3
100
AcDbSymbolTableRecord
100
AcDbTextStyleTableRecord
  2
STANDARD1
 70
     0
 40
0.0
 41
1.0
 50
0.0
 71
     0
 42
5.0
  3
MONOTXT
  4
BIGFONT
  0
STYLE
  5
5016
330
3
100
AcDbSymbolTableRecord
100
AcDbTextStyleTableRecord
  2
UGMTXT
 70
     0
 40
0.0
 41
1.0
 50
0.0
 71
     0
 42
0.2
  3
ugmtxt
  4
bigfont
  0
STYLE
  5
691A
330
3
100
AcDbSymbolTableRecord
100
AcDbTextStyleTableRecord
  2
blockfont
 70
     0
 40
0.0
 41
1.0
 50
0.0
 71
     0
 42
0.2
  3
simplex.shx
  4
bigfont
  0
ENDTAB
  0
TABLE
  2
VIEW
  5
6
330
0
100
AcDbSymbolTable
 70
     3
  0
VIEW
  5
230C
330
6
100
AcDbSymbolTableRecord
100
AcDbViewTableRecord
  2
OLE1
 70
     0
 40
148.912488
 10
429.497628
 20
2.560627
 41
103.145806
 11
0.0
 21
0.0
 31
1.0
 12
0.0
 22
0.0
 32
0.0
 42
50.0
 43
0.0
 44
0.0
 50
0.0
 71
     0
281
     0
 72
     0
  0
VIEW
  5
230E
330
6
100
AcDbSymbolTableRecord
100
AcDbViewTableRecord
  2
OLE2
 70
     0
 40
170.778692
 10
322.66497
 20
-5.978304
 41
102.467215
 11
0.0
 21
0.0
 31
1.0
 12
0.0
 22
0.0
 32
0.0
 42
50.0
 43
0.0
 44
0.0
 50
0.0
 71
     0
281
     0
 72
     0
  0
VIEW
  5
23AA
330
6
100
AcDbSymbolTableRecord
100
AcDbViewTableRecord
  2
OLE3
 70
     0
 40
591.7897389999998
 10
84.79698199999999
 20
-46.09335999999998
 41
388.792096
 11
0.0
 21
0.0
 31
1.0
 12
0.0
 22
0.0
 32
0.0
 42
50.0
 43
0.0
 44
0.0
 50
0.0
 71
     0
281
     0
 72
     0
  0
ENDTAB
  0
TABLE
  2
UCS
  5
7
330
0
100
AcDbSymbolTable
 70
     0
  0
ENDTAB
  0
TABLE
  2
APPID
  5
9
330
0
100
AcDbSymbolTable
 70
     6
  0
APPID
  5
12
330
9
100
AcDbSymbolTableRecord
100
AcDbRegAppTableRecord
  2
ACAD
 70
     0
  0
APPID
  5
ECD
330
9
100
AcDbSymbolTableRecord
100
AcDbRegAppTableRecord
  2
CONTENTBLOCKICON
 70
     0
  0
APPID
  5
691B
330
9
100
AcDbSymbolTableRecord
100
AcDbRegAppTableRecord
  2
ACAD_NAV_VCDISPLAY
 70
     0
  0
APPID
  5
6A6A
330
9
100
AcDbSymbolTableRecord
100
AcDbRegAppTableRecord
  2
ACAD_EXEMPT_FROM_CAD_STANDARDS
 70
     0
  0
APPID
  5
6B6B
330
9
100
AcDbSymbolTableRecord
100
AcDbRegAppTableRecord
  2
ACAD_MLEADERVER
 70
     0
  0
APPID
  5
6BF9
330
9
100
AcDbSymbolTableRecord
100
AcDbRegAppTableRecord
  2
ACAD_PSEXT
 70
     0
  0
ENDTAB
  0
TABLE
  2
DIMSTYLE
  5
A
330
0
100
AcDbSymbolTable
 70
     1
100
AcDbDimStyleTable
 71
     1
340
175
  0
DIMSTYLE
105
175
102
{ACAD_REACTORS
330
57FE
330
5BDE
330
5C0F
330
5C1C
330
5C29
330
623B
330
623D
330
666D
330
666F
330
6CCC
330
6CCD
330
6CCE
330
6CCF
330
6CD0
330
6CD1
330
6CD2
330
6CD3
330
6CD4
330
6CD5
102
}
330
A
100
AcDbSymbolTableRecord
100
AcDbDimStyleTableRecord
  2
STANDARD
 70
     0
 41
2.0
 42
1.0
 43
0.5
 44
0.5
 73
     0
 77
     3
 78
    12
140
4.0
147
1.0
271
     1
272
     1
340
11
341
3B2
342
3B2
  0
ENDTAB
  0
TABLE
  2
BLOCK_RECORD
  5
1
330
0
100
AcDbSymbolTable
 70
    52
  0
BLOCK_RECORD
  5
1E
102
{ACAD_XDICTIONARY
360
178
102
}
330
1
100
AcDbSymbolTableRecord
100
AcDbBlockTableRecord
  2
*MODEL_SPACE
340
6878
  0
BLOCK_RECORD
  5
1A
102
{ACAD_XDICTIONARY
360
17A
102
}
330
1
100
AcDbSymbolTableRecord
100
AcDbBlockTableRecord
  2
*PAPER_SPACE
340
6879
  0
BLOCK_RECORD
  5
3B2
330
1
100
AcDbSymbolTableRecord
100
AcDbBlockTableRecord
  2
_OPEN
340
0
102
{BLKREFS
331
6788
331
6822
331
6823
331
682B
331
682C
331
6834
331
6835
331
683E
331
683F
331
6552
331
6553
331
65B3
331
65B4
331
6DC1
331
6DC2
331
6DCB
331
6DCC
331
6DD4
331
6DD5
331
6DDD
331
6DDE
331
6DE6
331
6DE7
331
6DEF
331
6DF0
331
676E
331
676F
331
6D9D
331
6D9E
331
6DA6
331
6DA7
331
6DAF
331
6DB0
331
6DB8
331
6DB9
331
6486
331
6487
331
6B91
331
6B92
331
6B9D
331
6B9E
331
6BA9
331
6BAA
331
6BB5
331
6BB6
331
6BC2
331
6BC3
331
6BCE
331
6BCF
331
6BDA
331
6BDB
331
653F
331
6540
331
6548
331
6549
331
6A49
331
6A4A
331
6A52
331
6A53
331
6BE6
331
6BE7
331
6BF2
331
6BF3
331
677A
331
677B
331
6787
331
671C
331
671D
331
6713
331
6714
331
674A
331
674B
331
6741
331
6742
331
6753
331
625F
331
6260
331
6268
331
6269
331
645A
331
645B
331
647D
331
647E
331
6B85
331
6B86
331
65BC
331
65BD
331
65A1
331
65A2
331
65AA
331
65AB
331
6697
331
6698
331
686C
331
686D
331
6762
331
6763
102
}
  0
BLOCK_RECORD
  5
5829
330
1
100
AcDbSymbolTableRecord
100
AcDbBlockTableRecord
  2
*D1
340
0
  0
BLOCK_RECORD
  5
5BDF
330
1
100
AcDbSymbolTableRecord
100
AcDbBlockTableRecord
  2
*D2
340
0
  0
BLOCK_RECORD
  5
5C10
330
1
100
AcDbSymbolTableRecord
100
AcDbBlockTableRecord
  2
*D3
340
0
  0
BLOCK_RECORD
  5
5C1D
330
1
100
AcDbSymbolTableRecord
100
AcDbBlockTableRecord
  2
*D4
340
0
  0
BLOCK_RECORD
  5
5C2A
330
1
100
AcDbSymbolTableRecord
100
AcDbBlockTableRecord
  2
*D5
340
0
  0
BLOCK_RECORD
  5
6244
330
1
100
AcDbSymbolTableRecord
100
AcDbBlockTableRecord
  2
*D6
340
0
  0
BLOCK_RECORD
  5
6250
330
1
100
AcDbSymbolTableRecord
100
AcDbBlockTableRecord
  2
*D7
340
0
  0
BLOCK_RECORD
  5
644B
330
1
100
AcDbSymbolTableRecord
100
AcDbBlockTableRecord
  2
*D8
340
0
  0
BLOCK_RECORD
  5
6462
330
1
100
AcDbSymbolTableRecord
100
AcDbBlockTableRecord
  2
*D9
340
0
  0
BLOCK_RECORD
  5
646E
330
1
100
AcDbSymbolTableRecord
100
AcDbBlockTableRecord
  2
*D10
340
0
  0
BLOCK_RECORD
  5
6517
330
1
100
AcDbSymbolTableRecord
100
AcDbBlockTableRecord
  2
*D11
340
0
  0
BLOCK_RECORD
  5
6523
330
1
100
AcDbSymbolTableRecord
100
AcDbBlockTableRecord
  2
*D12
340
0
  0
BLOCK_RECORD
  5
652F
330
1
100
AcDbSymbolTableRecord
100
AcDbBlockTableRecord
  2
*D13
340
0
  0
BLOCK_RECORD
  5
655C
330
1
100
AcDbSymbolTableRecord
100
AcDbBlockTableRecord
  2
*D14
340
0
  0
BLOCK_RECORD
  5
6568
330
1
100
AcDbSymbolTableRecord
100
AcDbBlockTableRecord
  2
*D15
340
0
  0
BLOCK_RECORD
  5
6574
330
1
100
AcDbSymbolTableRecord
100
AcDbBlockTableRecord
  2
*D16
340
0
  0
BLOCK_RECORD
  5
6580
330
1
100
AcDbSymbolTableRecord
100
AcDbBlockTableRecord
  2
*D17
340
0
  0
BLOCK_RECORD
  5
6670
330
1
100
AcDbSymbolTableRecord
100
AcDbBlockTableRecord
  2
*D18
340
0
  0
BLOCK_RECORD
  5
667C
330
1
100
AcDbSymbolTableRecord
100
AcDbBlockTableRecord
  2
*D19
340
0
  0
BLOCK_RECORD
  5
675E
330
1
100
AcDbSymbolTableRecord
100
AcDbBlockTableRecord
  2
*D20
340
0
  0
BLOCK_RECORD
  5
676A
330
1
100
AcDbSymbolTableRecord
100
AcDbBlockTableRecord
  2
*D21
340
0
  0
BLOCK_RECORD
  5
6776
330
1
100
AcDbSymbolTableRecord
100
AcDbBlockTableRecord
  2
*D22
340
0
  0
BLOCK_RECORD
  5
6782
330
1
100
AcDbSymbolTableRecord
100
AcDbBlockTableRecord
  2
*D23
340
0
  0
BLOCK_RECORD
  5
67EE
330
1
100
AcDbSymbolTableRecord
100
AcDbBlockTableRecord
  2
*D24
340
0
  0
BLOCK_RECORD
  5
67FA
330
1
100
AcDbSymbolTableRecord
100
AcDbBlockTableRecord
  2
*D25
340
0
  0
BLOCK_RECORD
  5
6806
330
1
100
AcDbSymbolTableRecord
100
AcDbBlockTableRecord
  2
*D26
340
0
  0
BLOCK_RECORD
  5
6812
330
1
100
AcDbSymbolTableRecord
100
AcDbBlockTableRecord
  2
*D27
340
0
  0
BLOCK_RECORD
  5
68FF
330
1
100
AcDbSymbolTableRecord
100
AcDbBlockTableRecord
  2
_D10
340
0
  0
BLOCK_RECORD
  5
690B
330
1
100
AcDbSymbolTableRecord
100
AcDbBlockTableRecord
  2
_D11
340
0
  0
BLOCK_RECORD
  5
6A1C
330
1
100
AcDbSymbolTableRecord
100
AcDbBlockTableRecord
  2
*D30
340
0
  0
BLOCK_RECORD
  5
6A28
330
1
100
AcDbSymbolTableRecord
100
AcDbBlockTableRecord
  2
*D31
340
0
  0
BLOCK_RECORD
  5
6B80
330
1
100
AcDbSymbolTableRecord
100
AcDbBlockTableRecord
  2
*D32
340
0
  0
BLOCK_RECORD
  5
6B8C
330
1
100
AcDbSymbolTableRecord
100
AcDbBlockTableRecord
  2
*D33
340
0
  0
BLOCK_RECORD
  5
6B98
330
1
100
AcDbSymbolTableRecord
100
AcDbBlockTableRecord
  2
*D34
340
0
  0
BLOCK_RECORD
  5
6BA4
330
1
100
AcDbSymbolTableRecord
100
AcDbBlockTableRecord
  2
*D35
340
0
  0
BLOCK_RECORD
  5
6BB0
330
1
100
AcDbSymbolTableRecord
100
AcDbBlockTableRecord
  2
*D36
340
0
  0
BLOCK_RECORD
  5
6BBC
330
1
100
AcDbSymbolTableRecord
100
AcDbBlockTableRecord
  2
*D37
340
0
  0
BLOCK_RECORD
  5
6BC9
330
1
100
AcDbSymbolTableRecord
100
AcDbBlockTableRecord
  2
*D38
340
0
  0
BLOCK_RECORD
  5
6BD5
330
1
100
AcDbSymbolTableRecord
100
AcDbBlockTableRecord
  2
*D39
340
0
  0
BLOCK_RECORD
  5
6BE1
330
1
100
AcDbSymbolTableRecord
100
AcDbBlockTableRecord
  2
*D40
340
0
  0
BLOCK_RECORD
  5
6BED
330
1
100
AcDbSymbolTableRecord
100
AcDbBlockTableRecord
  2
*D41
340
0
  0
BLOCK_RECORD
  5
6D21
330
1
100
AcDbSymbolTableRecord
100
AcDbBlockTableRecord
  2
*D42
340
0
  0
BLOCK_RECORD
  5
6D2D
330
1
100
AcDbSymbolTableRecord
100
AcDbBlockTableRecord
  2
*D43
340
0
  0
BLOCK_RECORD
  5
6D39
330
1
100
AcDbSymbolTableRecord
100
AcDbBlockTableRecord
  2
*D44
340
0
  0
BLOCK_RECORD
  5
6D45
330
1
100
AcDbSymbolTableRecord
100
AcDbBlockTableRecord
  2
*D45
340
0
  0
BLOCK_RECORD
  5
6D51
330
1
100
AcDbSymbolTableRecord
100
AcDbBlockTableRecord
  2
*D46
340
0
  0
BLOCK_RECORD
  5
6D5D
330
1
100
AcDbSymbolTableRecord
100
AcDbBlockTableRecord
  2
*D47
340
0
  0
BLOCK_RECORD
  5
6D6A
330
1
100
AcDbSymbolTableRecord
100
AcDbBlockTableRecord
  2
*D48
340
0
  0
BLOCK_RECORD
  5
6D76
330
1
100
AcDbSymbolTableRecord
100
AcDbBlockTableRecord
  2
*D49
340
0
  0
BLOCK_RECORD
  5
6D82
330
1
100
AcDbSymbolTableRecord
100
AcDbBlockTableRecord
  2
*D50
340
0
  0
BLOCK_RECORD
  5
6D8E
330
1
100
AcDbSymbolTableRecord
100
AcDbBlockTableRecord
  2
*D51
340
0
  0
ENDTAB
  0
ENDSEC
  0
SECTION
  2
BLOCKS
  0
BLOCK
  5
1F
330
1E
100
AcDbEntity
  8
0
100
AcDbBlockBegin
  2
*MODEL_SPACE
 70
     0
 10
0.0
 20
0.0
 30
0.0
  3
*MODEL_SPACE
  1

  0
ENDBLK
  5
20
330
1E
100
AcDbEntity
  8
0
100
AcDbBlockEnd
  0
BLOCK
  5
1B
330
1A
100
AcDbEntity
 67
     1
  8
0
100
AcDbBlockBegin
  2
*PAPER_SPACE
 70
     0
 10
0.0
 20
0.0
 30
0.0
  3
*PAPER_SPACE
  1

  0
ENDBLK
  5
1C
330
1A
100
AcDbEntity
 67
     1
  8
0
100
AcDbBlockEnd
  0
BLOCK
  5
3B6
330
3B2
100
AcDbEntity
  8
0
100
AcDbBlockBegin
  2
_OPEN
 70
     0
 10
0.0
 20
0.0
 30
0.0
  3
_OPEN
  1

  0
LINE
  5
3B3
330
3B2
100
AcDbEntity
  8
30
  6
Continuous
 62
     0
100
AcDbLine
 10
-1.0
 20
0.166667
 30
0.0
 11
0.0
 21
0.0
 31
0.0
  0
LINE
  5
3B4
330
3B2
100
AcDbEntity
  8
30
  6
Continuous
 62
     0
100
AcDbLine
 10
-1.0
 20
-0.166667
 30
0.0
 11
0.0
 21
0.0
 31
0.0
  0
LINE
  5
3B5
330
3B2
100
AcDbEntity
  8
30
  6
Continuous
 62
     0
100
AcDbLine
 10
0.0
 20
0.0
 30
0.0
 11
-1.0
 21
0.0
 31
0.0
  0
ENDBLK
  5
3B7
330
3B2
100
AcDbEntity
  8
0
100
AcDbBlockEnd
  0
BLOCK
  5
5833
330
5829
100
AcDbEntity
  8
0
100
AcDbBlockBegin
  2
*D1
 70
     1
 10
0.0
 20
0.0
 30
0.0
  3
*D1
  1

  0
LINE
  5
6719
330
5829
100
AcDbEntity
  8
30
  6
Continuous
 62
     0
100
AcDbLine
 10
-78.5
 20
-96.04528757673485
 30
0.0
 11
-78.5
 21
-118.1551789019861
 31
0.0
  0
LINE
  5
671A
330
5829
100
AcDbEntity
  8
30
  6
Continuous
 62
     0
100
AcDbLine
 10
78.50000000000003
 20
-96.04528757673485
 30
0.0
 11
78.50000000000003
 21
-118.1551789019861
 31
0.0
  0
LINE
  5
671B
330
5829
100
AcDbEntity
  8
30
  6
Continuous
 62
     0
100
AcDbLine
 10
-76.5
 20
-117.6551789019862
 30
0.0
 11
76.50000000000003
 21
-117.6551789019862
 31
0.0
  0
INSERT
  5
671C
330
5829
100
AcDbEntity
  8
30
  6
Continuous
 62
     0
100
AcDbBlockReference
  2
_OPEN
 10
-78.5
 20
-117.6551789019862
 30
0.0
 41
2.0
 42
2.0
 43
2.0
 50
180.0
  0
INSERT
  5
671D
330
5829
100
AcDbEntity
  8
30
  6
Continuous
 62
     0
100
AcDbBlockReference
  2
_OPEN
 10
78.50000000000003
 20
-117.6551789019862
 30
0.0
 41
2.0
 42
2.0
 43
2.0
  0
MTEXT
  5
671E
330
5829
100
AcDbEntity
  8
30
  6
Continuous
 62
     0
100
AcDbMText
 10
0.0000000000000144
 20
-114.6551789019861
 30
0.0
 40
4.0
 41
0.0
 71
     5
 72
     1
  1
\A1;157
 73
     1
 44
1.0
1001
ACAD
1000
MTEXTBEGIN
1070
    73
1070
     1
1070
    44
1040
1.0
1070
    74
1070
     0
1000
MTEXTEND
  0
POINT
  5
671F
330
5829
100
AcDbEntity
  8
DEFPOINTS
  6
Continuous
 62
     0
100
AcDbPoint
 10
-78.5
 20
-95.04528757673485
 30
0.0
  0
POINT
  5
6720
330
5829
100
AcDbEntity
  8
DEFPOINTS
  6
Continuous
 62
     0
100
AcDbPoint
 10
78.50000000000003
 20
-95.04528757673485
 30
0.0
  0
POINT
  5
6721
330
5829
100
AcDbEntity
  8
DEFPOINTS
  6
Continuous
 62
     0
100
AcDbPoint
 10
78.50000000000003
 20
-117.6551789019862
 30
0.0
  0
ENDBLK
  5
5834
330
5829
100
AcDbEntity
  8
0
100
AcDbBlockEnd
  0
BLOCK
  5
5BE9
330
5BDF
100
AcDbEntity
  8
0
100
AcDbBlockBegin
  2
*D2
 70
     1
 10
0.0
 20
0.0
 30
0.0
  3
*D2
  1

  0
LINE
  5
6710
330
5BDF
100
AcDbEntity
  8
30
  6
Continuous
 62
     0
100
AcDbLine
 10
77.73785085275261
 20
96.0
 30
0.0
 11
106.336328788839
 21
96.0
 31
0.0
  0
LINE
  5
6711
330
5BDF
100
AcDbEntity
  8
30
  6
Continuous
 62
     0
100
AcDbLine
 10
77.73785085275261
 20
-96.00000000000004
 30
0.0
 11
106.336328788839
 21
-96.00000000000004
 31
0.0
  0
LINE
  5
6712
330
5BDF
100
AcDbEntity
  8
30
  6
Continuous
 62
     0
100
AcDbLine
 10
105.8363287888389
 20
94.0
 30
0.0
 11
105.8363287888389
 21
-94.00000000000003
 31
0.0
  0
INSERT
  5
6713
330
5BDF
100
AcDbEntity
  8
30
  6
Continuous
 62
     0
100
AcDbBlockReference
  2
_OPEN
 10
105.8363287888389
 20
96.0
 30
0.0
 41
2.0
 42
2.0
 43
2.0
 50
90.0
  0
INSERT
  5
6714
330
5BDF
100
AcDbEntity
  8
30
  6
Continuous
 62
     0
100
AcDbBlockReference
  2
_OPEN
 10
105.8363287888389
 20
-96.00000000000004
 30
0.0
 41
2.0
 42
2.0
 43
2.0
 50
270.0
  0
MTEXT
  5
6715
330
5BDF
100
AcDbEntity
  8
30
  6
Continuous
 62
     0
100
AcDbMText
 10
102.8363287888389
 20
0.000000000000001
 30
0.0
 40
4.0
 41
0.0
 71
     5
 72
     1
  1
\A1;192
 11
0.0000000000000001
 21
1.0
 31
0.0
 73
     1
 44
1.0
1001
ACAD
1000
MTEXTBEGIN
1070
    73
1070
     1
1070
    44
1040
1.0
1070
    74
1070
     0
1000
MTEXTEND
  0
POINT
  5
6716
330
5BDF
100
AcDbEntity
  8
DEFPOINTS
  6
Continuous
 62
     0
100
AcDbPoint
 10
76.73785085275262
 20
96.0
 30
0.0
  0
POINT
  5
6717
330
5BDF
100
AcDbEntity
  8
DEFPOINTS
  6
Continuous
 62
     0
100
AcDbPoint
 10
76.73785085275262
 20
-96.00000000000004
 30
0.0
  0
POINT
  5
6718
330
5BDF
100
AcDbEntity
  8
DEFPOINTS
  6
Continuous
 62
     0
100
AcDbPoint
 10
105.8363287888389
 20
-96.00000000000004
 30
0.0
  0
ENDBLK
  5
5BEA
330
5BDF
100
AcDbEntity
  8
0
100
AcDbBlockEnd
  0
BLOCK
  5
5C1A
330
5C10
100
AcDbEntity
  8
0
100
AcDbBlockBegin
  2
*D3
 70
     1
 10
0.0
 20
0.0
 30
0.0
  3
*D3
  1

  0
LINE
  5
6747
330
5C10
100
AcDbEntity
  8
30
  6
Continuous
 62
     0
100
AcDbLine
 10
-63.38009453517108
 20
-344.163123744355
 30
0.0
 11
-63.38009453517108
 21
-366.1895617182886
 31
0.0
  0
LINE
  5
6748
330
5C10
100
AcDbEntity
  8
30
  6
Continuous
 62
     0
100
AcDbLine
 10
62.61990546482893
 20
-344.163123744355
 30
0.0
 11
62.61990546482893
 21
-366.1895617182886
 31
0.0
  0
LINE
  5
6749
330
5C10
100
AcDbEntity
  8
30
  6
Continuous
 62
     0
100
AcDbLine
 10
-61.38009453517108
 20
-365.6895617182887
 30
0.0
 11
60.61990546482893
 21
-365.6895617182887
 31
0.0
  0
INSERT
  5
674A
330
5C10
100
AcDbEntity
  8
30
  6
Continuous
 62
     0
100
AcDbBlockReference
  2
_OPEN
 10
-63.38009453517108
 20
-365.6895617182887
 30
0.0
 41
2.0
 42
2.0
 43
2.0
 50
180.0
  0
INSERT
  5
674B
330
5C10
100
AcDbEntity
  8
30
  6
Continuous
 62
     0
100
AcDbBlockReference
  2
_OPEN
 10
62.61990546482893
 20
-365.6895617182887
 30
0.0
 41
2.0
 42
2.0
 43
2.0
  0
MTEXT
  5
674C
330
5C10
100
AcDbEntity
  8
30
  6
Continuous
 62
     0
100
AcDbMText
 10
-0.380094535171075
 20
-362.6895617182886
 30
0.0
 40
4.0
 41
0.0
 71
     5
 72
     1
  1
\A1;126
 73
     1
 44
1.0
1001
ACAD
1000
MTEXTBEGIN
1070
    73
1070
     1
1070
    44
1040
1.0
1070
    74
1070
     0
1000
MTEXTEND
  0
POINT
  5
674D
330
5C10
100
AcDbEntity
  8
DEFPOINTS
  6
Continuous
 62
     0
100
AcDbPoint
 10
-63.38009453517108
 20
-343.163123744355
 30
0.0
  0
POINT
  5
674E
330
5C10
100
AcDbEntity
  8
DEFPOINTS
  6
Continuous
 62
     0
100
AcDbPoint
 10
62.61990546482893
 20
-343.163123744355
 30
0.0
  0
POINT
  5
674F
330
5C10
100
AcDbEntity
  8
DEFPOINTS
  6
Continuous
 62
     0
100
AcDbPoint
 10
62.61990546482893
 20
-365.6895617182887
 30
0.0
  0
ENDBLK
  5
5C1B
330
5C10
100
AcDbEntity
  8
0
100
AcDbBlockEnd
  0
BLOCK
  5
5C27
330
5C1D
100
AcDbEntity
  8
0
100
AcDbBlockBegin
  2
*D4
 70
     1
 10
0.0
 20
0.0
 30
0.0
  3
*D4
  1

  0
LINE
  5
673E
330
5C1D
100
AcDbEntity
  8
30
  6
Continuous
 62
     0
100
AcDbLine
 10
-68.38009453517121
 20
-291.6631237443557
 30
0.0
 11
-68.38009453517121
 21
-377.5163681745015
 31
0.0
  0
LINE
  5
673F
330
5C1D
100
AcDbEntity
  8
30
  6
Continuous
 62
     0
100
AcDbLine
 10
67.6199054648287
 20
-291.6631237443557
 30
0.0
 11
67.6199054648287
 21
-377.5163681745015
 31
0.0
  0
LINE
  5
6740
330
5C1D
100
AcDbEntity
  8
30
  6
Continuous
 62
     0
100
AcDbLine
 10
-66.38009453517121
 20
-377.0163681745015
 30
0.0
 11
65.61990546482871
 21
-377.0163681745015
 31
0.0
  0
INSERT
  5
6741
330
5C1D
100
AcDbEntity
  8
30
  6
Continuous
 62
     0
100
AcDbBlockReference
  2
_OPEN
 10
-68.38009453517121
 20
-377.0163681745015
 30
0.0
 41
2.0
 42
2.0
 43
2.0
 50
180.0
  0
INSERT
  5
6742
330
5C1D
100
AcDbEntity
  8
30
  6
Continuous
 62
     0
100
AcDbBlockReference
  2
_OPEN
 10
67.6199054648287
 20
-377.0163681745015
 30
0.0
 41
2.0
 42
2.0
 43
2.0
  0
MTEXT
  5
6743
330
5C1D
100
AcDbEntity
  8
30
  6
Continuous
 62
     0
100
AcDbMText
 10
-0.3800945351712526
 20
-374.0163681745015
 30
0.0
 40
4.0
 41
0.0
 71
     5
 72
     1
  1
\A1;136
 73
     1
 44
1.0
1001
ACAD
1000
MTEXTBEGIN
1070
    73
1070
     1
1070
    44
1040
1.0
1070
    74
1070
     0
1000
MTEXTEND
  0
POINT
  5
6744
330
5C1D
100
AcDbEntity
  8
DEFPOINTS
  6
Continuous
 62
     0
100
AcDbPoint
 10
-68.38009453517121
 20
-290.6631237443558
 30
0.0
  0
POINT
  5
6745
330
5C1D
100
AcDbEntity
  8
DEFPOINTS
  6
Continuous
 62
     0
100
AcDbPoint
 10
67.6199054648287
 20
-290.6631237443558
 30
0.0
  0
POINT
  5
6746
330
5C1D
100
AcDbEntity
  8
DEFPOINTS
  6
Continuous
 62
     0
100
AcDbPoint
 10
67.6199054648287
 20
-377.0163681745015
 30
0.0
  0
ENDBLK
  5
5C28
330
5C1D
100
AcDbEntity
  8
0
100
AcDbBlockEnd
  0
BLOCK
  5
5C33
330
5C2A
100
AcDbEntity
  8
0
100
AcDbBlockBegin
  2
*D5
 70
     1
 10
0.0
 20
0.0
 30
0.0
  3
*D5
  1

  0
LINE
  5
6750
330
5C2A
100
AcDbEntity
  8
30
  6
Continuous
 62
     0
100
AcDbLine
 10
102.383347798162
 20
-203.2939227443548
 30
0.0
 11
94.71667180139393
 21
-203.2939227443548
 31
0.0
  0
LINE
  5
6751
330
5C2A
100
AcDbEntity
  8
30
  6
Continuous
 62
     0
100
AcDbLine
 10
94.71667180139393
 20
-203.2939227443548
 30
0.0
 11
72.1097403058366
 21
-214.3728088222715
 31
0.0
  0
MTEXT
  5
6752
102
{ACAD_XDICTIONARY
360
6B31
102
}
330
5C2A
100
AcDbEntity
  8
30
  6
Continuous
 62
     0
100
AcDbMText
 10
99.0500144648287
 20
-200.2939227443548
 30
0.0
 40
4.0
 41
0.0
 71
     5
 72
     1
  1
\A1;\U+22056
 73
     1
 44
1.0
1001
ACAD
1000
MTEXTBEGIN
1070
    73
1070
     1
1070
    44
1040
1.0
1070
    74
1070
     0
1000
MTEXTEND
  0
INSERT
  5
6753
330
5C2A
100
AcDbEntity
  8
30
  6
Continuous
 62
     0
100
AcDbBlockReference
  2
_OPEN
 10
70.31380646482879
 20
-215.2529347443548
 30
0.0
 41
2.0
 42
2.0
 43
2.0
 50
206.1078983677139
  0
LINE
  5
6754
330
5C2A
100
AcDbEntity
  8
30
  6
Continuous
 62
     0
100
AcDbLine
 10
67.52990546482876
 20
-216.5731237443548
 30
0.0
 11
67.70990546482877
 21
-216.5731237443548
 31
0.0
  0
LINE
  5
6755
330
5C2A
100
AcDbEntity
  8
30
  6
Continuous
 62
     0
100
AcDbLine
 10
67.61990546482877
 20
-216.6631237443549
 30
0.0
 11
67.61990546482876
 21
-216.4831237443548
 31
0.0
  0
POINT
  5
6756
330
5C2A
100
AcDbEntity
  8
DEFPOINTS
  6
Continuous
 62
     0
100
AcDbPoint
 10
70.31380646482879
 20
-215.2529347443548
 30
0.0
  0
POINT
  5
6757
330
5C2A
100
AcDbEntity
  8
DEFPOINTS
  6
Continuous
 62
     0
100
AcDbPoint
 10
64.92600446482875
 20
-217.8933127443547
 30
0.0
  0
ENDBLK
  5
5C34
330
5C2A
100
AcDbEntity
  8
0
100
AcDbBlockEnd
  0
BLOCK
  5
624E
330
6244
100
AcDbEntity
  8
0
100
AcDbBlockBegin
  2
*D6
 70
     1
 10
0.0
 20
0.0
 30
0.0
  3
*D6
  1

  0
LINE
  5
625C
330
6244
100
AcDbEntity
  8
30
  6
Continuous
 62
     0
100
AcDbLine
 10
-11.0
 20
-26.0
 30
0.0
 11
-11.0
 21
-40.95444641199117
 31
0.0
  0
LINE
  5
625D
330
6244
100
AcDbEntity
  8
30
  6
Continuous
 62
     0
100
AcDbLine
 10
11.0
 20
-26.0
 30
0.0
 11
10.99999999999999
 21
-40.95444641199117
 31
0.0
  0
LINE
  5
625E
330
6244
100
AcDbEntity
  8
30
  6
Continuous
 62
     0
100
AcDbLine
 10
-9.000000000000001
 20
-40.45444641199117
 30
0.0
 11
8.999999999999998
 21
-40.45444641199117
 31
0.0
  0
INSERT
  5
625F
330
6244
100
AcDbEntity
  8
30
  6
Continuous
 62
     0
100
AcDbBlockReference
  2
_OPEN
 10
-11.0
 20
-40.45444641199117
 30
0.0
 41
2.0
 42
2.0
 43
2.0
 50
180.0
  0
INSERT
  5
6260
330
6244
100
AcDbEntity
  8
30
  6
Continuous
 62
     0
100
AcDbBlockReference
  2
_OPEN
 10
10.99999999999999
 20
-40.45444641199117
 30
0.0
 41
2.0
 42
2.0
 43
2.0
  0
MTEXT
  5
6261
330
6244
100
AcDbEntity
  8
30
  6
Continuous
 62
     0
100
AcDbMText
 10
-0.0000000000000016
 20
-37.45444641199117
 30
0.0
 40
4.0
 41
0.0
 71
     5
 72
     1
  1
\A1;22
 73
     1
 44
1.0
1001
ACAD
1000
MTEXTBEGIN
1070
    73
1070
     1
1070
    44
1040
1.0
1070
    74
1070
     0
1000
MTEXTEND
  0
POINT
  5
6262
330
6244
100
AcDbEntity
  8
DEFPOINTS
  6
Continuous
 62
     0
100
AcDbPoint
 10
-11.0
 20
-25.0
 30
0.0
  0
POINT
  5
6263
330
6244
100
AcDbEntity
  8
DEFPOINTS
  6
Continuous
 62
     0
100
AcDbPoint
 10
11.0
 20
-25.0
 30
0.0
  0
POINT
  5
6264
330
6244
100
AcDbEntity
  8
DEFPOINTS
  6
Continuous
 62
     0
100
AcDbPoint
 10
10.99999999999999
 20
-40.45444641199117
 30
0.0
  0
ENDBLK
  5
624F
330
6244
100
AcDbEntity
  8
0
100
AcDbBlockEnd
  0
BLOCK
  5
625A
330
6250
100
AcDbEntity
  8
0
100
AcDbBlockBegin
  2
*D7
 70
     1
 10
0.0
 20
0.0
 30
0.0
  3
*D7
  1

  0
LINE
  5
6265
330
6250
100
AcDbEntity
  8
30
  6
Continuous
 62
     0
100
AcDbLine
 10
-48.99999999999998
 20
26.0
 30
0.0
 11
-48.99999999999998
 21
35.71319198619852
 31
0.0
  0
LINE
  5
6266
330
6250
100
AcDbEntity
  8
30
  6
Continuous
 62
     0
100
AcDbLine
 10
49.00000000000003
 20
26.0
 30
0.0
 11
49.00000000000003
 21
35.71319198619852
 31
0.0
  0
LINE
  5
6267
330
6250
100
AcDbEntity
  8
30
  6
Continuous
 62
     0
100
AcDbLine
 10
-46.99999999999998
 20
35.21319198619853
 30
0.0
 11
47.00000000000001
 21
35.21319198619853
 31
0.0
  0
INSERT
  5
6268
330
6250
100
AcDbEntity
  8
30
  6
Continuous
 62
     0
100
AcDbBlockReference
  2
_OPEN
 10
-48.99999999999998
 20
35.21319198619853
 30
0.0
 41
2.0
 42
2.0
 43
2.0
 50
180.0
  0
INSERT
  5
6269
330
6250
100
AcDbEntity
  8
30
  6
Continuous
 62
     0
100
AcDbBlockReference
  2
_OPEN
 10
49.00000000000003
 20
35.21319198619853
 30
0.0
 41
2.0
 42
2.0
 43
2.0
  0
MTEXT
  5
626A
330
6250
100
AcDbEntity
  8
30
  6
Continuous
 62
     0
100
AcDbMText
 10
0.0000000000000215
 20
38.21319198619852
 30
0.0
 40
4.0
 41
0.0
 71
     5
 72
     1
  1
\A1;98
 73
     1
 44
1.0
1001
ACAD
1000
MTEXTBEGIN
1070
    73
1070
     1
1070
    44
1040
1.0
1070
    74
1070
     0
1000
MTEXTEND
  0
POINT
  5
626B
330
6250
100
AcDbEntity
  8
DEFPOINTS
  6
Continuous
 62
     0
100
AcDbPoint
 10
-48.99999999999998
 20
25.0
 30
0.0
  0
POINT
  5
626C
330
6250
100
AcDbEntity
  8
DEFPOINTS
  6
Continuous
 62
     0
100
AcDbPoint
 10
49.00000000000003
 20
25.0
 30
0.0
  0
POINT
  5
626D
330
6250
100
AcDbEntity
  8
DEFPOINTS
  6
Continuous
 62
     0
100
AcDbPoint
 10
49.00000000000003
 20
35.21319198619853
 30
0.0
  0
ENDBLK
  5
625B
330
6250
100
AcDbEntity
  8
0
100
AcDbBlockEnd
  0
BLOCK
  5
6455
330
644B
100
AcDbEntity
  8
0
100
AcDbBlockBegin
  2
*D8
 70
     1
 10
0.0
 20
0.0
 30
0.0
  3
*D8
  1

  0
LINE
  5
6457
330
644B
100
AcDbEntity
  8
30
  6
Continuous
 62
     0
100
AcDbLine
 10
347.4767630316694
 20
-61.00000000000001
 30
0.0
 11
347.4767630316694
 21
-36.49999999999993
 31
0.0
  0
LINE
  5
6458
330
644B
100
AcDbEntity
  8
30
  6
Continuous
 62
     0
100
AcDbLine
 10
325.5211716870178
 20
-61.00000000000015
 30
0.0
 11
325.5211716870178
 21
-36.49999999999993
 31
0.0
  0
LINE
  5
6459
330
644B
100
AcDbEntity
  8
30
  6
Continuous
 62
     0
100
AcDbLine
 10
345.4767630316694
 20
-36.99999999999993
 30
0.0
 11
327.5211716870178
 21
-36.99999999999993
 31
0.0
  0
INSERT
  5
645A
330
644B
100
AcDbEntity
  8
30
  6
Continuous
 62
     0
100
AcDbBlockReference
  2
_OPEN
 10
347.4767630316694
 20
-36.99999999999993
 30
0.0
 41
2.0
 42
2.0
 43
2.0
  0
INSERT
  5
645B
330
644B
100
AcDbEntity
  8
30
  6
Continuous
 62
     0
100
AcDbBlockReference
  2
_OPEN
 10
325.5211716870178
 20
-36.99999999999993
 30
0.0
 41
2.0
 42
2.0
 43
2.0
 50
180.0
  0
MTEXT
  5
645C
330
644B
100
AcDbEntity
  8
30
  6
Continuous
 62
     0
100
AcDbMText
 10
336.4989673593437
 20
-33.99999999999995
 30
0.0
 40
4.0
 41
0.0
 71
     5
 72
     1
  1
\A1;22
 73
     1
 44
1.0
1001
ACAD
1000
MTEXTBEGIN
1070
    73
1070
     1
1070
    44
1040
1.0
1070
    74
1070
     0
1000
MTEXTEND
  0
POINT
  5
645D
330
644B
100
AcDbEntity
  8
DEFPOINTS
  6
Continuous
 62
     0
100
AcDbPoint
 10
347.4767630316694
 20
-62.00000000000001
 30
0.0
  0
POINT
  5
645E
330
644B
100
AcDbEntity
  8
DEFPOINTS
  6
Continuous
 62
     0
100
AcDbPoint
 10
325.5211716870178
 20
-62.00000000000015
 30
0.0
  0
POINT
  5
645F
330
644B
100
AcDbEntity
  8
DEFPOINTS
  6
Continuous
 62
     0
100
AcDbPoint
 10
325.5211716870178
 20
-36.99999999999993
 30
0.0
  0
ENDBLK
  5
6456
330
644B
100
AcDbEntity
  8
0
100
AcDbBlockEnd
  0
BLOCK
  5
646C
330
6462
100
AcDbEntity
  8
0
100
AcDbBlockBegin
  2
*D9
 70
     1
 10
0.0
 20
0.0
 30
0.0
  3
*D9
  1

  0
LINE
  5
647A
330
6462
100
AcDbEntity
  8
30
  6
Continuous
 62
     0
100
AcDbLine
 10
347.4767630316694
 20
-75.50000001649995
 30
0.0
 11
347.4767630316694
 21
-119.954446411991
 31
0.0
  0
LINE
  5
647B
330
6462
100
AcDbEntity
  8
30
  6
Continuous
 62
     0
100
AcDbLine
 10
362.4767630316696
 20
-83.30776410006064
 30
0.0
 11
362.4767630316696
 21
-119.954446411991
 31
0.0
  0
LINE
  5
647C
330
6462
100
AcDbEntity
  8
30
  6
Continuous
 62
     0
100
AcDbLine
 10
349.4767630316694
 20
-119.454446411991
 30
0.0
 11
360.4767630316696
 21
-119.454446411991
 31
0.0
  0
INSERT
  5
647D
330
6462
100
AcDbEntity
  8
30
  6
Continuous
 62
     0
100
AcDbBlockReference
  2
_OPEN
 10
347.4767630316694
 20
-119.454446411991
 30
0.0
 41
2.0
 42
2.0
 43
2.0
 50
180.0
  0
INSERT
  5
647E
330
6462
100
AcDbEntity
  8
30
  6
Continuous
 62
     0
100
AcDbBlockReference
  2
_OPEN
 10
362.4767630316696
 20
-119.454446411991
 30
0.0
 41
2.0
 42
2.0
 43
2.0
  0
MTEXT
  5
647F
330
6462
100
AcDbEntity
  8
30
  6
Continuous
 62
     0
100
AcDbMText
 10
354.9767630316694
 20
-116.454446411991
 30
0.0
 40
4.0
 41
0.0
 71
     5
 72
     1
  1
\A1;15
 73
     1
 44
1.0
1001
ACAD
1000
MTEXTBEGIN
1070
    73
1070
     1
1070
    44
1040
1.0
1070
    74
1070
     0
1000
MTEXTEND
  0
POINT
  5
6480
330
6462
100
AcDbEntity
  8
DEFPOINTS
  6
Continuous
 62
     0
100
AcDbPoint
 10
347.4767630316694
 20
-74.50000001649995
 30
0.0
  0
POINT
  5
6481
330
6462
100
AcDbEntity
  8
DEFPOINTS
  6
Continuous
 62
     0
100
AcDbPoint
 10
362.4767630316696
 20
-82.30776410006065
 30
0.0
  0
POINT
  5
6482
330
6462
100
AcDbEntity
  8
DEFPOINTS
  6
Continuous
 62
     0
100
AcDbPoint
 10
362.4767630316696
 20
-119.454446411991
 30
0.0
  0
ENDBLK
  5
646D
330
6462
100
AcDbEntity
  8
0
100
AcDbBlockEnd
  0
BLOCK
  5
6478
330
646E
100
AcDbEntity
  8
0
100
AcDbBlockBegin
  2
*D10
 70
     1
 10
0.0
 20
0.0
 30
0.0
  3
*D10
  1

  0
LINE
  5
6483
330
646E
100
AcDbEntity
  8
30
  6
Continuous
 62
     0
100
AcDbLine
 10
382.4767630316694
 20
-75.50000001649995
 30
0.0
 11
382.4767630316694
 21
-119.954446411991
 31
0.0
  0
LINE
  5
6484
330
646E
100
AcDbEntity
  8
30
  6
Continuous
 62
     0
100
AcDbLine
 10
397.4767630316694
 20
-83.30776410006064
 30
0.0
 11
397.4767630316694
 21
-119.954446411991
 31
0.0
  0
LINE
  5
6485
330
646E
100
AcDbEntity
  8
30
  6
Continuous
 62
     0
100
AcDbLine
 10
384.4767630316693
 20
-119.454446411991
 30
0.0
 11
395.4767630316694
 21
-119.454446411991
 31
0.0
  0
INSERT
  5
6486
330
646E
100
AcDbEntity
  8
30
  6
Continuous
 62
     0
100
AcDbBlockReference
  2
_OPEN
 10
382.4767630316694
 20
-119.454446411991
 30
0.0
 41
2.0
 42
2.0
 43
2.0
 50
180.0
  0
INSERT
  5
6487
330
646E
100
AcDbEntity
  8
30
  6
Continuous
 62
     0
100
AcDbBlockReference
  2
_OPEN
 10
397.4767630316694
 20
-119.454446411991
 30
0.0
 41
2.0
 42
2.0
 43
2.0
  0
MTEXT
  5
6488
330
646E
100
AcDbEntity
  8
30
  6
Continuous
 62
     0
100
AcDbMText
 10
389.9767630316694
 20
-116.454446411991
 30
0.0
 40
4.0
 41
0.0
 71
     5
 72
     1
  1
\A1;15
 73
     1
 44
1.0
1001
ACAD
1000
MTEXTBEGIN
1070
    73
1070
     1
1070
    44
1040
1.0
1070
    74
1070
     0
1000
MTEXTEND
  0
POINT
  5
6489
330
646E
100
AcDbEntity
  8
DEFPOINTS
  6
Continuous
 62
     0
100
AcDbPoint
 10
382.4767630316694
 20
-74.50000001649995
 30
0.0
  0
POINT
  5
648A
330
646E
100
AcDbEntity
  8
DEFPOINTS
  6
Continuous
 62
     0
100
AcDbPoint
 10
397.4767630316694
 20
-82.30776410006065
 30
0.0
  0
POINT
  5
648B
330
646E
100
AcDbEntity
  8
DEFPOINTS
  6
Continuous
 62
     0
100
AcDbPoint
 10
397.4767630316694
 20
-119.454446411991
 30
0.0
  0
ENDBLK
  5
6479
330
646E
100
AcDbEntity
  8
0
100
AcDbBlockEnd
  0
BLOCK
  5
6521
330
6517
100
AcDbEntity
  8
0
100
AcDbBlockBegin
  2
*D11
 70
     1
 10
0.0
 20
0.0
 30
0.0
  3
*D11
  1

  0
LINE
  5
653C
330
6517
100
AcDbEntity
  8
30
  6
Continuous
 62
     0
100
AcDbLine
 10
437.9344186086751
 20
72.0
 30
0.0
 11
445.3190607635053
 21
72.0
 31
0.0
  0
LINE
  5
653D
330
6517
100
AcDbEntity
  8
30
  6
Continuous
 62
     0
100
AcDbLine
 10
433.7237726057973
 20
-72.00000000000007
 30
0.0
 11
445.3190607635053
 21
-72.00000000000007
 31
0.0
  0
LINE
  5
653E
330
6517
100
AcDbEntity
  8
30
  6
Continuous
 62
     0
100
AcDbLine
 10
444.8190607635053
 20
70.0
 30
0.0
 11
444.8190607635053
 21
-70.00000000000007
 31
0.0
  0
INSERT
  5
653F
330
6517
100
AcDbEntity
  8
30
  6
Continuous
 62
     0
100
AcDbBlockReference
  2
_OPEN
 10
444.8190607635053
 20
72.0
 30
0.0
 41
2.0
 42
2.0
 43
2.0
 50
90.0
  0
INSERT
  5
6540
330
6517
100
AcDbEntity
  8
30
  6
Continuous
 62
     0
100
AcDbBlockReference
  2
_OPEN
 10
444.8190607635053
 20
-72.00000000000007
 30
0.0
 41
2.0
 42
2.0
 43
2.0
 50
270.0
  0
MTEXT
  5
6541
330
6517
100
AcDbEntity
  8
30
  6
Continuous
 62
     0
100
AcDbMText
 10
441.8190607635053
 20
0.0000000000000442
 30
0.0
 40
4.0
 41
0.0
 71
     5
 72
     1
  1
\A1;144
 11
0.0000000000000001
 21
1.0
 31
0.0
 73
     1
 44
1.0
1001
ACAD
1000
MTEXTBEGIN
1070
    73
1070
     1
1070
    44
1040
1.0
1070
    74
1070
     0
1000
MTEXTEND
  0
POINT
  5
6542
330
6517
100
AcDbEntity
  8
DEFPOINTS
  6
Continuous
 62
     0
100
AcDbPoint
 10
436.9344186086753
 20
72.0
 30
0.0
  0
POINT
  5
6543
330
6517
100
AcDbEntity
  8
DEFPOINTS
  6
Continuous
 62
     0
100
AcDbPoint
 10
432.7237726057973
 20
-72.00000000000007
 30
0.0
  0
POINT
  5
6544
330
6517
100
AcDbEntity
  8
DEFPOINTS
  6
Continuous
 62
     0
100
AcDbPoint
 10
444.8190607635053
 20
-72.00000000000007
 30
0.0
  0
ENDBLK
  5
6522
330
6517
100
AcDbEntity
  8
0
100
AcDbBlockEnd
  0
BLOCK
  5
652D
330
6523
100
AcDbEntity
  8
0
100
AcDbBlockBegin
  2
*D12
 70
     1
 10
0.0
 20
0.0
 30
0.0
  3
*D12
  1

  0
LINE
  5
6545
330
6523
100
AcDbEntity
  8
30
  6
Continuous
 62
     0
100
AcDbLine
 10
395.7972711073584
 20
-82.00000000000008
 30
0.0
 11
433.2237726057973
 21
-82.00000000000008
 31
0.0
  0
LINE
  5
6546
330
6523
100
AcDbEntity
  8
30
  6
Continuous
 62
     0
100
AcDbLine
 10
395.7972711073584
 20
-62.00000000000006
 30
0.0
 11
433.2237726057973
 21
-62.00000000000006
 31
0.0
  0
LINE
  5
6547
330
6523
100
AcDbEntity
  8
30
  6
Continuous
 62
     0
100
AcDbLine
 10
432.7237726057973
 20
-80.00000000000007
 30
0.0
 11
432.7237726057973
 21
-64.00000000000007
 31
0.0
  0
INSERT
  5
6548
330
6523
100
AcDbEntity
  8
30
  6
Continuous
 62
     0
100
AcDbBlockReference
  2
_OPEN
 10
432.7237726057973
 20
-82.00000000000008
 30
0.0
 41
2.0
 42
2.0
 43
2.0
 50
270.0
  0
INSERT
  5
6549
330
6523
100
AcDbEntity
  8
30
  6
Continuous
 62
     0
100
AcDbBlockReference
  2
_OPEN
 10
432.7237726057973
 20
-62.00000000000006
 30
0.0
 41
2.0
 42
2.0
 43
2.0
 50
90.0
  0
MTEXT
  5
654A
330
6523
100
AcDbEntity
  8
30
  6
Continuous
 62
     0
100
AcDbMText
 10
429.7237726057973
 20
-72.0
 30
0.0
 40
4.0
 41
0.0
 71
     5
 72
     1
  1
\A1;20
 11
0.0000000000000001
 21
1.0
 31
0.0
 73
     1
 44
1.0
1001
ACAD
1000
MTEXTBEGIN
1070
    73
1070
     1
1070
    44
1040
1.0
1070
    74
1070
     0
1000
MTEXTEND
  0
POINT
  5
654B
330
6523
100
AcDbEntity
  8
DEFPOINTS
  6
Continuous
 62
     0
100
AcDbPoint
 10
394.7972711073587
 20
-82.00000000000008
 30
0.0
  0
POINT
  5
654C
330
6523
100
AcDbEntity
  8
DEFPOINTS
  6
Continuous
 62
     0
100
AcDbPoint
 10
394.7972711073587
 20
-62.00000000000006
 30
0.0
  0
POINT
  5
654D
330
6523
100
AcDbEntity
  8
DEFPOINTS
  6
Continuous
 62
     0
100
AcDbPoint
 10
432.7237726057973
 20
-62.00000000000006
 30
0.0
  0
ENDBLK
  5
652E
330
6523
100
AcDbEntity
  8
0
100
AcDbBlockEnd
  0
BLOCK
  5
653A
330
652F
100
AcDbEntity
  8
0
100
AcDbBlockBegin
  2
*D13
 70
     1
 10
0.0
 20
0.0
 30
0.0
  3
*D13
  1

  0
LINE
  5
654E
330
652F
100
AcDbEntity
  8
30
  6
Continuous
 62
     0
100
AcDbLine
 10
398.4767630316694
 20
69.0
 30
0.0
 11
433.2237726057973
 21
68.99999999999998
 31
0.0
  0
LINE
  5
654F
330
652F
100
AcDbEntity
  8
30
  6
Continuous
 62
     0
100
AcDbLine
 10
398.4767630316694
 20
75.0
 30
0.0
 11
433.2237726057973
 21
74.99999999999999
 31
0.0
  0
LINE
  5
6550
330
652F
100
AcDbEntity
  8
30
  6
Continuous
 62
     0
100
AcDbLine
 10
432.7237726057973
 20
66.99999999999999
 30
0.0
 11
432.7237726057973
 21
64.99999999999999
 31
0.0
  0
LINE
  5
6551
330
652F
100
AcDbEntity
  8
30
  6
Continuous
 62
     0
100
AcDbLine
 10
432.7237726057973
 20
76.99999999999999
 30
0.0
 11
432.7237726057973
 21
78.99999999999998
 31
0.0
  0
INSERT
  5
6552
330
652F
100
AcDbEntity
  8
30
  6
Continuous
 62
     0
100
AcDbBlockReference
  2
_OPEN
 10
432.7237726057973
 20
68.99999999999998
 30
0.0
 41
2.0
 42
2.0
 43
2.0
 50
90.0
  0
INSERT
  5
6553
330
652F
100
AcDbEntity
  8
30
  6
Continuous
 62
     0
100
AcDbBlockReference
  2
_OPEN
 10
432.7237726057973
 20
74.99999999999999
 30
0.0
 41
2.0
 42
2.0
 43
2.0
 50
270.0
  0
MTEXT
  5
6554
330
652F
100
AcDbEntity
  8
30
  6
Continuous
 62
     0
100
AcDbMText
 10
429.7237726057973
 20
72.00000000000007
 30
0.0
 40
4.0
 41
0.0
 71
     5
 72
     1
  1
\A1;6
 11
0.0000000000000001
 21
1.0
 31
0.0
 73
     1
 44
1.0
1001
ACAD
1000
MTEXTBEGIN
1070
    73
1070
     1
1070
    44
1040
1.0
1070
    74
1070
     0
1000
MTEXTEND
  0
POINT
  5
6555
330
652F
100
AcDbEntity
  8
DEFPOINTS
  6
Continuous
 62
     0
100
AcDbPoint
 10
397.4767630316694
 20
69.0
 30
0.0
  0
POINT
  5
6556
330
652F
100
AcDbEntity
  8
DEFPOINTS
  6
Continuous
 62
     0
100
AcDbPoint
 10
397.4767630316694
 20
75.0
 30
0.0
  0
POINT
  5
6557
330
652F
100
AcDbEntity
  8
DEFPOINTS
  6
Continuous
 62
     0
100
AcDbPoint
 10
432.7237726057973
 20
74.99999999999999
 30
0.0
  0
ENDBLK
  5
653B
330
652F
100
AcDbEntity
  8
0
100
AcDbBlockEnd
  0
BLOCK
  5
6566
330
655C
100
AcDbEntity
  8
0
100
AcDbBlockBegin
  2
*D14
 70
     1
 10
0.0
 20
0.0
 30
0.0
  3
*D14
  1

  0
LINE
  5
65B0
330
655C
100
AcDbEntity
  8
30
  6
Continuous
 62
     0
100
AcDbLine
 10
201.4767630316693
 20
-106.9999999999996
 30
0.0
 11
201.4767630316693
 21
-160.9544464119909
 31
0.0
  0
LINE
  5
65B1
330
655C
100
AcDbEntity
  8
30
  6
Continuous
 62
     0
100
AcDbLine
 10
397.4767630316694
 20
-73.0
 30
0.0
 11
397.4767630316694
 21
-160.9544464119909
 31
0.0
  0
LINE
  5
65B2
330
655C
100
AcDbEntity
  8
30
  6
Continuous
 62
     0
100
AcDbLine
 10
203.4767630316693
 20
-160.4544464119909
 30
0.0
 11
395.4767630316694
 21
-160.4544464119909
 31
0.0
  0
INSERT
  5
65B3
330
655C
100
AcDbEntity
  8
30
  6
Continuous
 62
     0
100
AcDbBlockReference
  2
_OPEN
 10
201.4767630316693
 20
-160.4544464119909
 30
0.0
 41
2.0
 42
2.0
 43
2.0
 50
180.0
  0
INSERT
  5
65B4
330
655C
100
AcDbEntity
  8
30
  6
Continuous
 62
     0
100
AcDbBlockReference
  2
_OPEN
 10
397.4767630316694
 20
-160.4544464119909
 30
0.0
 41
2.0
 42
2.0
 43
2.0
  0
MTEXT
  5
65B5
330
655C
100
AcDbEntity
  8
30
  6
Continuous
 62
     0
100
AcDbMText
 10
299.4767630316695
 20
-157.4544464119909
 30
0.0
 40
4.0
 41
0.0
 71
     5
 72
     1
  1
\A1;196
 73
     1
 44
1.0
1001
ACAD
1000
MTEXTBEGIN
1070
    73
1070
     1
1070
    44
1040
1.0
1070
    74
1070
     0
1000
MTEXTEND
  0
POINT
  5
65B6
330
655C
100
AcDbEntity
  8
DEFPOINTS
  6
Continuous
 62
     0
100
AcDbPoint
 10
201.4767630316693
 20
-105.9999999999996
 30
0.0
  0
POINT
  5
65B7
330
655C
100
AcDbEntity
  8
DEFPOINTS
  6
Continuous
 62
     0
100
AcDbPoint
 10
397.4767630316694
 20
-72.0
 30
0.0
  0
POINT
  5
65B8
330
655C
100
AcDbEntity
  8
DEFPOINTS
  6
Continuous
 62
     0
100
AcDbPoint
 10
397.4767630316694
 20
-160.4544464119909
 30
0.0
  0
ENDBLK
  5
6567
330
655C
100
AcDbEntity
  8
0
100
AcDbBlockEnd
  0
BLOCK
  5
6572
330
6568
100
AcDbEntity
  8
0
100
AcDbBlockBegin
  2
*D15
 70
     1
 10
0.0
 20
0.0
 30
0.0
  3
*D15
  1

  0
LINE
  5
65B9
330
6568
100
AcDbEntity
  8
30
  6
Continuous
 62
     0
100
AcDbLine
 10
201.4767630316693
 20
-106.9999999999996
 30
0.0
 11
201.4767630316693
 21
-140.9544464119909
 31
0.0
  0
LINE
  5
65BA
330
6568
100
AcDbEntity
  8
30
  6
Continuous
 62
     0
100
AcDbLine
 10
362.4767630316694
 20
-73.0
 30
0.0
 11
362.4767630316694
 21
-140.9544464119909
 31
0.0
  0
LINE
  5
65BB
330
6568
100
AcDbEntity
  8
30
  6
Continuous
 62
     0
100
AcDbLine
 10
203.4767630316693
 20
-140.454446411991
 30
0.0
 11
360.4767630316694
 21
-140.454446411991
 31
0.0
  0
INSERT
  5
65BC
330
6568
100
AcDbEntity
  8
30
  6
Continuous
 62
     0
100
AcDbBlockReference
  2
_OPEN
 10
201.4767630316693
 20
-140.454446411991
 30
0.0
 41
2.0
 42
2.0
 43
2.0
 50
180.0
  0
INSERT
  5
65BD
330
6568
100
AcDbEntity
  8
30
  6
Continuous
 62
     0
100
AcDbBlockReference
  2
_OPEN
 10
362.4767630316694
 20
-140.454446411991
 30
0.0
 41
2.0
 42
2.0
 43
2.0
  0
MTEXT
  5
65BE
330
6568
100
AcDbEntity
  8
30
  6
Continuous
 62
     0
100
AcDbMText
 10
281.9767630316695
 20
-137.454446411991
 30
0.0
 40
4.0
 41
0.0
 71
     5
 72
     1
  1
\A1;161
 73
     1
 44
1.0
1001
ACAD
1000
MTEXTBEGIN
1070
    73
1070
     1
1070
    44
1040
1.0
1070
    74
1070
     0
1000
MTEXTEND
  0
POINT
  5
65BF
330
6568
100
AcDbEntity
  8
DEFPOINTS
  6
Continuous
 62
     0
100
AcDbPoint
 10
201.4767630316693
 20
-105.9999999999996
 30
0.0
  0
POINT
  5
65C0
330
6568
100
AcDbEntity
  8
DEFPOINTS
  6
Continuous
 62
     0
100
AcDbPoint
 10
362.4767630316694
 20
-72.0
 30
0.0
  0
POINT
  5
65C1
330
6568
100
AcDbEntity
  8
DEFPOINTS
  6
Continuous
 62
     0
100
AcDbPoint
 10
362.4767630316694
 20
-140.454446411991
 30
0.0
  0
ENDBLK
  5
6573
330
6568
100
AcDbEntity
  8
0
100
AcDbBlockEnd
  0
BLOCK
  5
657E
330
6574
100
AcDbEntity
  8
0
100
AcDbBlockBegin
  2
*D16
 70
     1
 10
0.0
 20
0.0
 30
0.0
  3
*D16
  1

  0
LINE
  5
659E
330
6574
100
AcDbEntity
  8
30
  6
Continuous
 62
     0
100
AcDbLine
 10
186.4767630316693
 20
-97.0
 30
0.0
 11
186.4767630316693
 21
-140.9544464119909
 31
0.0
  0
LINE
  5
659F
330
6574
100
AcDbEntity
  8
30
  6
Continuous
 62
     0
100
AcDbLine
 10
201.4767630316693
 20
-106.9999999999996
 30
0.0
 11
201.4767630316693
 21
-140.9544464119909
 31
0.0
  0
LINE
  5
65A0
330
6574
100
AcDbEntity
  8
30
  6
Continuous
 62
     0
100
AcDbLine
 10
188.4767630316693
 20
-140.454446411991
 30
0.0
 11
199.4767630316695
 21
-140.454446411991
 31
0.0
  0
INSERT
  5
65A1
330
6574
100
AcDbEntity
  8
30
  6
Continuous
 62
     0
100
AcDbBlockReference
  2
_OPEN
 10
186.4767630316693
 20
-140.454446411991
 30
0.0
 41
2.0
 42
2.0
 43
2.0
 50
180.0
  0
INSERT
  5
65A2
330
6574
100
AcDbEntity
  8
30
  6
Continuous
 62
     0
100
AcDbBlockReference
  2
_OPEN
 10
201.4767630316693
 20
-140.454446411991
 30
0.0
 41
2.0
 42
2.0
 43
2.0
  0
MTEXT
  5
65A3
330
6574
100
AcDbEntity
  8
30
  6
Continuous
 62
     0
100
AcDbMText
 10
193.9767630316693
 20
-137.454446411991
 30
0.0
 40
4.0
 41
0.0
 71
     5
 72
     1
  1
\A1;15
 73
     1
 44
1.0
1001
ACAD
1000
MTEXTBEGIN
1070
    73
1070
     1
1070
    44
1040
1.0
1070
    74
1070
     0
1000
MTEXTEND
  0
POINT
  5
65A4
330
6574
100
AcDbEntity
  8
DEFPOINTS
  6
Continuous
 62
     0
100
AcDbPoint
 10
186.4767630316693
 20
-96.0
 30
0.0
  0
POINT
  5
65A5
330
6574
100
AcDbEntity
  8
DEFPOINTS
  6
Continuous
 62
     0
100
AcDbPoint
 10
201.4767630316693
 20
-105.9999999999996
 30
0.0
  0
POINT
  5
65A6
330
6574
100
AcDbEntity
  8
DEFPOINTS
  6
Continuous
 62
     0
100
AcDbPoint
 10
201.4767630316693
 20
-140.454446411991
 30
0.0
  0
ENDBLK
  5
657F
330
6574
100
AcDbEntity
  8
0
100
AcDbBlockEnd
  0
BLOCK
  5
658A
330
6580
100
AcDbEntity
  8
0
100
AcDbBlockBegin
  2
*D17
 70
     1
 10
0.0
 20
0.0
 30
0.0
  3
*D17
  1

  0
LINE
  5
65A7
330
6580
100
AcDbEntity
  8
30
  6
Continuous
 62
     0
100
AcDbLine
 10
164.4767630316693
 20
-3.500000016499993
 30
0.0
 11
164.4767630316693
 21
-160.9544464119909
 31
0.0
  0
LINE
  5
65A8
330
6580
100
AcDbEntity
  8
30
  6
Continuous
 62
     0
100
AcDbLine
 10
201.4767630316693
 20
-106.9999999999996
 30
0.0
 11
201.4767630316693
 21
-160.9544464119909
 31
0.0
  0
LINE
  5
65A9
330
6580
100
AcDbEntity
  8
30
  6
Continuous
 62
     0
100
AcDbLine
 10
166.4767630316694
 20
-160.4544464119909
 30
0.0
 11
199.4767630316695
 21
-160.4544464119909
 31
0.0
  0
INSERT
  5
65AA
330
6580
100
AcDbEntity
  8
30
  6
Continuous
 62
     0
100
AcDbBlockReference
  2
_OPEN
 10
164.4767630316693
 20
-160.4544464119909
 30
0.0
 41
2.0
 42
2.0
 43
2.0
 50
180.0
  0
INSERT
  5
65AB
330
6580
100
AcDbEntity
  8
30
  6
Continuous
 62
     0
100
AcDbBlockReference
  2
_OPEN
 10
201.4767630316693
 20
-160.4544464119909
 30
0.0
 41
2.0
 42
2.0
 43
2.0
  0
MTEXT
  5
65AC
330
6580
100
AcDbEntity
  8
30
  6
Continuous
 62
     0
100
AcDbMText
 10
182.9767630316695
 20
-157.4544464119909
 30
0.0
 40
4.0
 41
0.0
 71
     5
 72
     1
  1
\A1;37
 73
     1
 44
1.0
1001
ACAD
1000
MTEXTBEGIN
1070
    73
1070
     1
1070
    44
1040
1.0
1070
    74
1070
     0
1000
MTEXTEND
  0
POINT
  5
65AD
330
6580
100
AcDbEntity
  8
DEFPOINTS
  6
Continuous
 62
     0
100
AcDbPoint
 10
164.4767630316693
 20
-2.500000016499993
 30
0.0
  0
POINT
  5
65AE
330
6580
100
AcDbEntity
  8
DEFPOINTS
  6
Continuous
 62
     0
100
AcDbPoint
 10
201.4767630316693
 20
-105.9999999999996
 30
0.0
  0
POINT
  5
65AF
330
6580
100
AcDbEntity
  8
DEFPOINTS
  6
Continuous
 62
     0
100
AcDbPoint
 10
201.4767630316693
 20
-160.4544464119909
 30
0.0
  0
ENDBLK
  5
658B
330
6580
100
AcDbEntity
  8
0
100
AcDbBlockEnd
  0
BLOCK
  5
667A
330
6670
100
AcDbEntity
  8
0
100
AcDbBlockBegin
  2
*D18
 70
     1
 10
0.0
 20
0.0
 30
0.0
  3
*D18
  1

  0
LINE
  5
6694
330
6670
100
AcDbEntity
  8
30
  6
Continuous
 62
     0
100
AcDbLine
 10
-35.0
 20
351.3138729996611
 30
0.0
 11
-35.0
 21
394.8032458915808
 31
0.0
  0
LINE
  5
6695
330
6670
100
AcDbEntity
  8
30
  6
Continuous
 62
     0
100
AcDbLine
 10
0.0000000000000001
 20
386.313872999661
 30
0.0
 11
0.0000000000000006
 21
394.8032458915808
 31
0.0
  0
LINE
  5
6696
330
6670
100
AcDbEntity
  8
30
  6
Continuous
 62
     0
100
AcDbLine
 10
-33.0
 20
394.3032458915809
 30
0.0
 11
-1.999999999999999
 21
394.3032458915809
 31
0.0
  0
INSERT
  5
6697
330
6670
100
AcDbEntity
  8
30
  6
Continuous
 62
     0
100
AcDbBlockReference
  2
_OPEN
 10
-35.0
 20
394.3032458915809
 30
0.0
 41
2.0
 42
2.0
 43
2.0
 50
180.0
  0
INSERT
  5
6698
330
6670
100
AcDbEntity
  8
30
  6
Continuous
 62
     0
100
AcDbBlockReference
  2
_OPEN
 10
0.0000000000000006
 20
394.3032458915809
 30
0.0
 41
2.0
 42
2.0
 43
2.0
  0
MTEXT
  5
6699
330
6670
100
AcDbEntity
  8
30
  6
Continuous
 62
     0
100
AcDbMText
 10
-17.5
 20
397.3032458915809
 30
0.0
 40
4.0
 41
0.0
 71
     5
 72
     1
  1
\A1;35
 73
     1
 44
1.0
1001
ACAD
1000
MTEXTBEGIN
1070
    73
1070
     1
1070
    44
1040
1.0
1070
    74
1070
     0
1000
MTEXTEND
  0
POINT
  5
669A
330
6670
100
AcDbEntity
  8
DEFPOINTS
  6
Continuous
 62
     0
100
AcDbPoint
 10
-35.0
 20
350.3138729996611
 30
0.0
  0
POINT
  5
669B
330
6670
100
AcDbEntity
  8
DEFPOINTS
  6
Continuous
 62
     0
100
AcDbPoint
 10
0.0
 20
385.3138729996611
 30
0.0
  0
POINT
  5
669C
330
6670
100
AcDbEntity
  8
DEFPOINTS
  6
Continuous
 62
     0
100
AcDbPoint
 10
0.0000000000000006
 20
394.3032458915809
 30
0.0
  0
ENDBLK
  5
667B
330
6670
100
AcDbEntity
  8
0
100
AcDbBlockEnd
  0
BLOCK
  5
6686
330
667C
100
AcDbEntity
  8
0
100
AcDbBlockBegin
  2
*D19
 70
     1
 10
0.0
 20
0.0
 30
0.0
  3
*D19
  1

  0
LINE
  5
6869
330
667C
100
AcDbEntity
  8
30
  6
Continuous
 62
     0
100
AcDbLine
 10
0.0000000000000001
 20
386.313872999661
 30
0.0
 11
0.0000000000000006
 21
394.8032458915808
 31
0.0
  0
LINE
  5
686A
330
667C
100
AcDbEntity
  8
30
  6
Continuous
 62
     0
100
AcDbLine
 10
35.0
 20
351.3138729996611
 30
0.0
 11
35.0
 21
394.8032458915808
 31
0.0
  0
LINE
  5
686B
330
667C
100
AcDbEntity
  8
30
  6
Continuous
 62
     0
100
AcDbLine
 10
2.0
 20
394.3032458915809
 30
0.0
 11
33.0
 21
394.3032458915809
 31
0.0
  0
INSERT
  5
686C
330
667C
100
AcDbEntity
  8
30
  6
Continuous
 62
     0
100
AcDbBlockReference
  2
_OPEN
 10
0.0000000000000006
 20
394.3032458915809
 30
0.0
 41
2.0
 42
2.0
 43
2.0
 50
180.0
  0
INSERT
  5
686D
330
667C
100
AcDbEntity
  8
30
  6
Continuous
 62
     0
100
AcDbBlockReference
  2
_OPEN
 10
35.0
 20
394.3032458915809
 30
0.0
 41
2.0
 42
2.0
 43
2.0
  0
MTEXT
  5
686E
330
667C
100
AcDbEntity
  8
30
  6
Continuous
 62
     0
100
AcDbMText
 10
17.5
 20
397.3032458915809
 30
0.0
 40
4.0
 41
0.0
 71
     5
 72
     1
  1
\A1;35
 73
     1
 44
1.0
1001
ACAD
1000
MTEXTBEGIN
1070
    73
1070
     1
1070
    44
1040
1.0
1070
    74
1070
     0
1000
MTEXTEND
  0
POINT
  5
686F
330
667C
100
AcDbEntity
  8
DEFPOINTS
  6
Continuous
 62
     0
100
AcDbPoint
 10
0.0
 20
385.3138729996611
 30
0.0
  0
POINT
  5
6870
330
667C
100
AcDbEntity
  8
DEFPOINTS
  6
Continuous
 62
     0
100
AcDbPoint
 10
35.0
 20
350.3138729996611
 30
0.0
  0
POINT
  5
6871
330
667C
100
AcDbEntity
  8
DEFPOINTS
  6
Continuous
 62
     0
100
AcDbPoint
 10
35.0
 20
394.3032458915809
 30
0.0
  0
ENDBLK
  5
6687
330
667C
100
AcDbEntity
  8
0
100
AcDbBlockEnd
  0
BLOCK
  5
6768
330
675E
100
AcDbEntity
  8
0
100
AcDbBlockBegin
  2
*D20
 70
     1
 10
0.0
 20
0.0
 30
0.0
  3
*D20
  1

  0
LINE
  5
675F
330
675E
100
AcDbEntity
  8
30
  6
Continuous
 62
     0
100
AcDbLine
 10
347.4767630316694
 20
-61.00000000000001
 30
0.0
 11
347.4767630316694
 21
-36.49999999999993
 31
0.0
  0
LINE
  5
6760
330
675E
100
AcDbEntity
  8
30
  6
Continuous
 62
     0
100
AcDbLine
 10
325.5211716870178
 20
-61.00000000000015
 30
0.0
 11
325.5211716870178
 21
-36.49999999999993
 31
0.0
  0
LINE
  5
6761
330
675E
100
AcDbEntity
  8
30
  6
Continuous
 62
     0
100
AcDbLine
 10
345.4767630316694
 20
-36.99999999999993
 30
0.0
 11
327.5211716870178
 21
-36.99999999999993
 31
0.0
  0
INSERT
  5
6762
330
675E
100
AcDbEntity
  8
30
  6
Continuous
 62
     0
100
AcDbBlockReference
  2
_OPEN
 10
347.4767630316694
 20
-36.99999999999993
 30
0.0
 41
2.0
 42
2.0
 43
2.0
  0
INSERT
  5
6763
330
675E
100
AcDbEntity
  8
30
  6
Continuous
 62
     0
100
AcDbBlockReference
  2
_OPEN
 10
325.5211716870178
 20
-36.99999999999993
 30
0.0
 41
2.0
 42
2.0
 43
2.0
 50
180.0
  0
MTEXT
  5
6764
330
675E
100
AcDbEntity
  8
30
  6
Continuous
 62
     0
100
AcDbMText
 10
336.4989673593437
 20
-33.99999999999995
 30
0.0
 40
4.0
 41
0.0
 71
     5
 72
     1
  1
\A1;22
 73
     1
 44
1.0
1001
ACAD
1000
MTEXTBEGIN
1070
    73
1070
     1
1070
    44
1040
1.0
1070
    74
1070
     0
1000
MTEXTEND
  0
POINT
  5
6765
330
675E
100
AcDbEntity
  8
DEFPOINTS
  6
Continuous
 62
     0
100
AcDbPoint
 10
347.4767630316694
 20
-62.00000000000001
 30
0.0
  0
POINT
  5
6766
330
675E
100
AcDbEntity
  8
DEFPOINTS
  6
Continuous
 62
     0
100
AcDbPoint
 10
325.5211716870178
 20
-62.00000000000015
 30
0.0
  0
POINT
  5
6767
330
675E
100
AcDbEntity
  8
DEFPOINTS
  6
Continuous
 62
     0
100
AcDbPoint
 10
325.5211716870178
 20
-36.99999999999993
 30
0.0
  0
ENDBLK
  5
6769
330
675E
100
AcDbEntity
  8
0
100
AcDbBlockEnd
  0
BLOCK
  5
6774
330
676A
100
AcDbEntity
  8
0
100
AcDbBlockBegin
  2
*D21
 70
     1
 10
0.0
 20
0.0
 30
0.0
  3
*D21
  1

  0
LINE
  5
676B
330
676A
100
AcDbEntity
  8
30
  6
Continuous
 62
     0
100
AcDbLine
 10
437.9344186086751
 20
72.0
 30
0.0
 11
445.3190607635053
 21
72.0
 31
0.0
  0
LINE
  5
676C
330
676A
100
AcDbEntity
  8
30
  6
Continuous
 62
     0
100
AcDbLine
 10
433.7237726057973
 20
-72.00000000000007
 30
0.0
 11
445.3190607635053
 21
-72.00000000000007
 31
0.0
  0
LINE
  5
676D
330
676A
100
AcDbEntity
  8
30
  6
Continuous
 62
     0
100
AcDbLine
 10
444.8190607635053
 20
70.0
 30
0.0
 11
444.8190607635053
 21
-70.00000000000007
 31
0.0
  0
INSERT
  5
676E
330
676A
100
AcDbEntity
  8
30
  6
Continuous
 62
     0
100
AcDbBlockReference
  2
_OPEN
 10
444.8190607635053
 20
72.0
 30
0.0
 41
2.0
 42
2.0
 43
2.0
 50
90.0
  0
INSERT
  5
676F
330
676A
100
AcDbEntity
  8
30
  6
Continuous
 62
     0
100
AcDbBlockReference
  2
_OPEN
 10
444.8190607635053
 20
-72.00000000000007
 30
0.0
 41
2.0
 42
2.0
 43
2.0
 50
270.0
  0
MTEXT
  5
6770
330
676A
100
AcDbEntity
  8
30
  6
Continuous
 62
     0
100
AcDbMText
 10
441.8190607635053
 20
0.0000000000000442
 30
0.0
 40
4.0
 41
0.0
 71
     5
 72
     1
  1
\A1;144
 11
0.0000000000000001
 21
1.0
 31
0.0
 73
     1
 44
1.0
1001
ACAD
1000
MTEXTBEGIN
1070
    73
1070
     1
1070
    44
1040
1.0
1070
    74
1070
     0
1000
MTEXTEND
  0
POINT
  5
6771
330
676A
100
AcDbEntity
  8
DEFPOINTS
  6
Continuous
 62
     0
100
AcDbPoint
 10
436.9344186086753
 20
72.0
 30
0.0
  0
POINT
  5
6772
330
676A
100
AcDbEntity
  8
DEFPOINTS
  6
Continuous
 62
     0
100
AcDbPoint
 10
432.7237726057973
 20
-72.00000000000007
 30
0.0
  0
POINT
  5
6773
330
676A
100
AcDbEntity
  8
DEFPOINTS
  6
Continuous
 62
     0
100
AcDbPoint
 10
444.8190607635053
 20
-72.00000000000007
 30
0.0
  0
ENDBLK
  5
6775
330
676A
100
AcDbEntity
  8
0
100
AcDbBlockEnd
  0
BLOCK
  5
6780
330
6776
100
AcDbEntity
  8
0
100
AcDbBlockBegin
  2
*D22
 70
     1
 10
0.0
 20
0.0
 30
0.0
  3
*D22
  1

  0
LINE
  5
6777
330
6776
100
AcDbEntity
  8
30
  6
Continuous
 62
     0
100
AcDbLine
 10
395.7972711073584
 20
-82.00000000000008
 30
0.0
 11
433.2237726057973
 21
-82.00000000000008
 31
0.0
  0
LINE
  5
6778
330
6776
100
AcDbEntity
  8
30
  6
Continuous
 62
     0
100
AcDbLine
 10
395.7972711073584
 20
-62.00000000000006
 30
0.0
 11
433.2237726057973
 21
-62.00000000000006
 31
0.0
  0
LINE
  5
6779
330
6776
100
AcDbEntity
  8
30
  6
Continuous
 62
     0
100
AcDbLine
 10
432.7237726057973
 20
-80.00000000000007
 30
0.0
 11
432.7237726057973
 21
-64.00000000000007
 31
0.0
  0
INSERT
  5
677A
330
6776
100
AcDbEntity
  8
30
  6
Continuous
 62
     0
100
AcDbBlockReference
  2
_OPEN
 10
432.7237726057973
 20
-82.00000000000008
 30
0.0
 41
2.0
 42
2.0
 43
2.0
 50
270.0
  0
INSERT
  5
677B
330
6776
100
AcDbEntity
  8
30
  6
Continuous
 62
     0
100
AcDbBlockReference
  2
_OPEN
 10
432.7237726057973
 20
-62.00000000000006
 30
0.0
 41
2.0
 42
2.0
 43
2.0
 50
90.0
  0
MTEXT
  5
677C
330
6776
100
AcDbEntity
  8
30
  6
Continuous
 62
     0
100
AcDbMText
 10
429.7237726057973
 20
-72.0
 30
0.0
 40
4.0
 41
0.0
 71
     5
 72
     1
  1
\A1;20
 11
0.0000000000000001
 21
1.0
 31
0.0
 73
     1
 44
1.0
1001
ACAD
1000
MTEXTBEGIN
1070
    73
1070
     1
1070
    44
1040
1.0
1070
    74
1070
     0
1000
MTEXTEND
  0
POINT
  5
677D
330
6776
100
AcDbEntity
  8
DEFPOINTS
  6
Continuous
 62
     0
100
AcDbPoint
 10
394.7972711073587
 20
-82.00000000000008
 30
0.0
  0
POINT
  5
677E
330
6776
100
AcDbEntity
  8
DEFPOINTS
  6
Continuous
 62
     0
100
AcDbPoint
 10
394.7972711073587
 20
-62.00000000000006
 30
0.0
  0
POINT
  5
677F
330
6776
100
AcDbEntity
  8
DEFPOINTS
  6
Continuous
 62
     0
100
AcDbPoint
 10
432.7237726057973
 20
-62.00000000000006
 30
0.0
  0
ENDBLK
  5
6781
330
6776
100
AcDbEntity
  8
0
100
AcDbBlockEnd
  0
BLOCK
  5
678D
330
6782
100
AcDbEntity
  8
0
100
AcDbBlockBegin
  2
*D23
 70
     1
 10
0.0
 20
0.0
 30
0.0
  3
*D23
  1

  0
LINE
  5
6783
330
6782
100
AcDbEntity
  8
30
  6
Continuous
 62
     0
100
AcDbLine
 10
398.4767630316694
 20
69.0
 30
0.0
 11
433.2237726057973
 21
68.99999999999998
 31
0.0
  0
LINE
  5
6784
330
6782
100
AcDbEntity
  8
30
  6
Continuous
 62
     0
100
AcDbLine
 10
398.4767630316694
 20
75.0
 30
0.0
 11
433.2237726057973
 21
74.99999999999999
 31
0.0
  0
LINE
  5
6785
330
6782
100
AcDbEntity
  8
30
  6
Continuous
 62
     0
100
AcDbLine
 10
432.7237726057973
 20
66.99999999999999
 30
0.0
 11
432.7237726057973
 21
64.99999999999999
 31
0.0
  0
LINE
  5
6786
330
6782
100
AcDbEntity
  8
30
  6
Continuous
 62
     0
100
AcDbLine
 10
432.7237726057973
 20
76.99999999999999
 30
0.0
 11
432.7237726057973
 21
78.99999999999998
 31
0.0
  0
INSERT
  5
6787
330
6782
100
AcDbEntity
  8
30
  6
Continuous
 62
     0
100
AcDbBlockReference
  2
_OPEN
 10
432.7237726057973
 20
68.99999999999998
 30
0.0
 41
2.0
 42
2.0
 43
2.0
 50
90.0
  0
INSERT
  5
6788
330
6782
100
AcDbEntity
  8
30
  6
Continuous
 62
     0
100
AcDbBlockReference
  2
_OPEN
 10
432.7237726057973
 20
74.99999999999999
 30
0.0
 41
2.0
 42
2.0
 43
2.0
 50
270.0
  0
MTEXT
  5
6789
330
6782
100
AcDbEntity
  8
30
  6
Continuous
 62
     0
100
AcDbMText
 10
429.7237726057973
 20
72.00000000000007
 30
0.0
 40
4.0
 41
0.0
 71
     5
 72
     1
  1
\A1;6
 11
0.0000000000000001
 21
1.0
 31
0.0
 73
     1
 44
1.0
1001
ACAD
1000
MTEXTBEGIN
1070
    73
1070
     1
1070
    44
1040
1.0
1070
    74
1070
     0
1000
MTEXTEND
  0
POINT
  5
678A
330
6782
100
AcDbEntity
  8
DEFPOINTS
  6
Continuous
 62
     0
100
AcDbPoint
 10
397.4767630316694
 20
69.0
 30
0.0
  0
POINT
  5
678B
330
6782
100
AcDbEntity
  8
DEFPOINTS
  6
Continuous
 62
     0
100
AcDbPoint
 10
397.4767630316694
 20
75.0
 30
0.0
  0
POINT
  5
678C
330
6782
100
AcDbEntity
  8
DEFPOINTS
  6
Continuous
 62
     0
100
AcDbPoint
 10
432.7237726057973
 20
74.99999999999999
 30
0.0
  0
ENDBLK
  5
678E
330
6782
100
AcDbEntity
  8
0
100
AcDbBlockEnd
  0
BLOCK
  5
67F8
330
67EE
100
AcDbEntity
  8
0
100
AcDbBlockBegin
  2
*D24
 70
     1
 10
0.0
 20
0.0
 30
0.0
  3
*D24
  1

  0
LINE
  5
681F
330
67EE
100
AcDbEntity
  8
30
  6
Continuous
 62
     0
100
AcDbLine
 10
437.9344186086751
 20
72.0
 30
0.0
 11
445.3190607635053
 21
72.0
 31
0.0
  0
LINE
  5
6820
330
67EE
100
AcDbEntity
  8
30
  6
Continuous
 62
     0
100
AcDbLine
 10
433.7237726057973
 20
-72.00000000000007
 30
0.0
 11
445.3190607635053
 21
-72.00000000000007
 31
0.0
  0
LINE
  5
6821
330
67EE
100
AcDbEntity
  8
30
  6
Continuous
 62
     0
100
AcDbLine
 10
444.8190607635053
 20
70.0
 30
0.0
 11
444.8190607635053
 21
-70.00000000000007
 31
0.0
  0
INSERT
  5
6822
330
67EE
100
AcDbEntity
  8
30
  6
Continuous
 62
     0
100
AcDbBlockReference
  2
_OPEN
 10
444.8190607635053
 20
72.0
 30
0.0
 41
2.0
 42
2.0
 43
2.0
 50
90.0
  0
INSERT
  5
6823
330
67EE
100
AcDbEntity
  8
30
  6
Continuous
 62
     0
100
AcDbBlockReference
  2
_OPEN
 10
444.8190607635053
 20
-72.00000000000007
 30
0.0
 41
2.0
 42
2.0
 43
2.0
 50
270.0
  0
MTEXT
  5
6824
330
67EE
100
AcDbEntity
  8
30
  6
Continuous
 62
     0
100
AcDbMText
 10
441.8190607635053
 20
0.0000000000000442
 30
0.0
 40
4.0
 41
0.0
 71
     5
 72
     1
  1
\A1;144
 11
0.0000000000000001
 21
1.0
 31
0.0
 73
     1
 44
1.0
1001
ACAD
1000
MTEXTBEGIN
1070
    73
1070
     1
1070
    44
1040
1.0
1070
    74
1070
     0
1000
MTEXTEND
  0
POINT
  5
6825
330
67EE
100
AcDbEntity
  8
DEFPOINTS
  6
Continuous
 62
     0
100
AcDbPoint
 10
436.9344186086753
 20
72.0
 30
0.0
  0
POINT
  5
6826
330
67EE
100
AcDbEntity
  8
DEFPOINTS
  6
Continuous
 62
     0
100
AcDbPoint
 10
432.7237726057973
 20
-72.00000000000007
 30
0.0
  0
POINT
  5
6827
330
67EE
100
AcDbEntity
  8
DEFPOINTS
  6
Continuous
 62
     0
100
AcDbPoint
 10
444.8190607635053
 20
-72.00000000000007
 30
0.0
  0
ENDBLK
  5
67F9
330
67EE
100
AcDbEntity
  8
0
100
AcDbBlockEnd
  0
BLOCK
  5
6804
330
67FA
100
AcDbEntity
  8
0
100
AcDbBlockBegin
  2
*D25
 70
     1
 10
0.0
 20
0.0
 30
0.0
  3
*D25
  1

  0
LINE
  5
6828
330
67FA
100
AcDbEntity
  8
30
  6
Continuous
 62
     0
100
AcDbLine
 10
347.4767630316694
 20
-61.0
 30
0.0
 11
347.4767630316694
 21
-36.49999999999993
 31
0.0
  0
LINE
  5
6829
330
67FA
100
AcDbEntity
  8
30
  6
Continuous
 62
     0
100
AcDbLine
 10
325.5211716870178
 20
-61.00000000000017
 30
0.0
 11
325.5211716870178
 21
-36.49999999999993
 31
0.0
  0
LINE
  5
682A
330
67FA
100
AcDbEntity
  8
30
  6
Continuous
 62
     0
100
AcDbLine
 10
345.4767630316694
 20
-36.99999999999993
 30
0.0
 11
327.5211716870178
 21
-36.99999999999993
 31
0.0
  0
INSERT
  5
682B
330
67FA
100
AcDbEntity
  8
30
  6
Continuous
 62
     0
100
AcDbBlockReference
  2
_OPEN
 10
347.4767630316694
 20
-36.99999999999993
 30
0.0
 41
2.0
 42
2.0
 43
2.0
  0
INSERT
  5
682C
330
67FA
100
AcDbEntity
  8
30
  6
Continuous
 62
     0
100
AcDbBlockReference
  2
_OPEN
 10
325.5211716870178
 20
-36.99999999999993
 30
0.0
 41
2.0
 42
2.0
 43
2.0
 50
180.0
  0
MTEXT
  5
682D
330
67FA
100
AcDbEntity
  8
30
  6
Continuous
 62
     0
100
AcDbMText
 10
336.4989673593437
 20
-33.99999999999995
 30
0.0
 40
4.0
 41
0.0
 71
     5
 72
     1
  1
\A1;22
 73
     1
 44
1.0
1001
ACAD
1000
MTEXTBEGIN
1070
    73
1070
     1
1070
    44
1040
1.0
1070
    74
1070
     0
1000
MTEXTEND
  0
POINT
  5
682E
330
67FA
100
AcDbEntity
  8
DEFPOINTS
  6
Continuous
 62
     0
100
AcDbPoint
 10
347.4767630316694
 20
-62.0
 30
0.0
  0
POINT
  5
682F
330
67FA
100
AcDbEntity
  8
DEFPOINTS
  6
Continuous
 62
     0
100
AcDbPoint
 10
325.5211716870178
 20
-62.00000000000017
 30
0.0
  0
POINT
  5
6830
330
67FA
100
AcDbEntity
  8
DEFPOINTS
  6
Continuous
 62
     0
100
AcDbPoint
 10
325.5211716870178
 20
-36.99999999999993
 30
0.0
  0
ENDBLK
  5
6805
330
67FA
100
AcDbEntity
  8
0
100
AcDbBlockEnd
  0
BLOCK
  5
6810
330
6806
100
AcDbEntity
  8
0
100
AcDbBlockBegin
  2
*D26
 70
     1
 10
0.0
 20
0.0
 30
0.0
  3
*D26
  1

  0
LINE
  5
6831
330
6806
100
AcDbEntity
  8
30
  6
Continuous
 62
     0
100
AcDbLine
 10
395.7972711073584
 20
-82.00000000000008
 30
0.0
 11
433.2237726057973
 21
-82.00000000000008
 31
0.0
  0
LINE
  5
6832
330
6806
100
AcDbEntity
  8
30
  6
Continuous
 62
     0
100
AcDbLine
 10
395.7972711073584
 20
-62.00000000000006
 30
0.0
 11
433.2237726057973
 21
-62.00000000000006
 31
0.0
  0
LINE
  5
6833
330
6806
100
AcDbEntity
  8
30
  6
Continuous
 62
     0
100
AcDbLine
 10
432.7237726057973
 20
-80.00000000000007
 30
0.0
 11
432.7237726057973
 21
-64.00000000000007
 31
0.0
  0
INSERT
  5
6834
330
6806
100
AcDbEntity
  8
30
  6
Continuous
 62
     0
100
AcDbBlockReference
  2
_OPEN
 10
432.7237726057973
 20
-82.00000000000008
 30
0.0
 41
2.0
 42
2.0
 43
2.0
 50
270.0
  0
INSERT
  5
6835
330
6806
100
AcDbEntity
  8
30
  6
Continuous
 62
     0
100
AcDbBlockReference
  2
_OPEN
 10
432.7237726057973
 20
-62.00000000000006
 30
0.0
 41
2.0
 42
2.0
 43
2.0
 50
90.0
  0
MTEXT
  5
6836
330
6806
100
AcDbEntity
  8
30
  6
Continuous
 62
     0
100
AcDbMText
 10
429.7237726057973
 20
-72.0
 30
0.0
 40
4.0
 41
0.0
 71
     5
 72
     1
  1
\A1;20
 11
0.0000000000000001
 21
1.0
 31
0.0
 73
     1
 44
1.0
1001
ACAD
1000
MTEXTBEGIN
1070
    73
1070
     1
1070
    44
1040
1.0
1070
    74
1070
     0
1000
MTEXTEND
  0
POINT
  5
6837
330
6806
100
AcDbEntity
  8
DEFPOINTS
  6
Continuous
 62
     0
100
AcDbPoint
 10
394.7972711073587
 20
-82.00000000000008
 30
0.0
  0
POINT
  5
6838
330
6806
100
AcDbEntity
  8
DEFPOINTS
  6
Continuous
 62
     0
100
AcDbPoint
 10
394.7972711073587
 20
-62.00000000000006
 30
0.0
  0
POINT
  5
6839
330
6806
100
AcDbEntity
  8
DEFPOINTS
  6
Continuous
 62
     0
100
AcDbPoint
 10
432.7237726057973
 20
-62.00000000000006
 30
0.0
  0
ENDBLK
  5
6811
330
6806
100
AcDbEntity
  8
0
100
AcDbBlockEnd
  0
BLOCK
  5
681D
330
6812
100
AcDbEntity
  8
0
100
AcDbBlockBegin
  2
*D27
 70
     1
 10
0.0
 20
0.0
 30
0.0
  3
*D27
  1

  0
LINE
  5
683A
330
6812
100
AcDbEntity
  8
30
  6
Continuous
 62
     0
100
AcDbLine
 10
398.4767630316694
 20
69.0
 30
0.0
 11
433.2237726057973
 21
68.99999999999998
 31
0.0
  0
LINE
  5
683B
330
6812
100
AcDbEntity
  8
30
  6
Continuous
 62
     0
100
AcDbLine
 10
398.4767630316694
 20
75.0
 30
0.0
 11
433.2237726057973
 21
74.99999999999999
 31
0.0
  0
LINE
  5
683C
330
6812
100
AcDbEntity
  8
30
  6
Continuous
 62
     0
100
AcDbLine
 10
432.7237726057973
 20
66.99999999999999
 30
0.0
 11
432.7237726057973
 21
64.99999999999999
 31
0.0
  0
LINE
  5
683D
330
6812
100
AcDbEntity
  8
30
  6
Continuous
 62
     0
100
AcDbLine
 10
432.7237726057973
 20
76.99999999999999
 30
0.0
 11
432.7237726057973
 21
78.99999999999998
 31
0.0
  0
INSERT
  5
683E
330
6812
100
AcDbEntity
  8
30
  6
Continuous
 62
     0
100
AcDbBlockReference
  2
_OPEN
 10
432.7237726057973
 20
68.99999999999998
 30
0.0
 41
2.0
 42
2.0
 43
2.0
 50
90.0
  0
INSERT
  5
683F
330
6812
100
AcDbEntity
  8
30
  6
Continuous
 62
     0
100
AcDbBlockReference
  2
_OPEN
 10
432.7237726057973
 20
74.99999999999999
 30
0.0
 41
2.0
 42
2.0
 43
2.0
 50
270.0
  0
MTEXT
  5
6840
330
6812
100
AcDbEntity
  8
30
  6
Continuous
 62
     0
100
AcDbMText
 10
429.7237726057973
 20
72.00000000000007
 30
0.0
 40
4.0
 41
0.0
 71
     5
 72
     1
  1
\A1;6
 11
0.0000000000000001
 21
1.0
 31
0.0
 73
     1
 44
1.0
1001
ACAD
1000
MTEXTBEGIN
1070
    73
1070
     1
1070
    44
1040
1.0
1070
    74
1070
     0
1000
MTEXTEND
  0
POINT
  5
6841
330
6812
100
AcDbEntity
  8
DEFPOINTS
  6
Continuous
 62
     0
100
AcDbPoint
 10
397.4767630316694
 20
69.0
 30
0.0
  0
POINT
  5
6842
330
6812
100
AcDbEntity
  8
DEFPOINTS
  6
Continuous
 62
     0
100
AcDbPoint
 10
397.4767630316694
 20
75.0
 30
0.0
  0
POINT
  5
6843
330
6812
100
AcDbEntity
  8
DEFPOINTS
  6
Continuous
 62
     0
100
AcDbPoint
 10
432.7237726057973
 20
74.99999999999999
 30
0.0
  0
ENDBLK
  5
681E
330
6812
100
AcDbEntity
  8
0
100
AcDbBlockEnd
  0
BLOCK
  5
6900
330
68FF
100
AcDbEntity
  8
0
100
AcDbBlockBegin
  2
_D10
 70
     0
 10
0.0
 20
0.0
 30
0.0
  3
_D10
  1

  0
LINE
  5
6901
330
68FF
100
AcDbEntity
  8
1
  6
Continuous
 62
     4
370
    -2
100
AcDbLine
 10
722.2842043011382
 20
231.1686173858633
 30
0.0
 11
722.2842043011382
 21
270.8503953858633
 31
0.0
  0
LINE
  5
6902
330
68FF
100
AcDbEntity
  8
1
  6
Continuous
 62
     4
370
    -2
100
AcDbLine
 10
708.2842043011383
 20
245.1686173858633
 30
0.0
 11
708.2842043011383
 21
270.8503953858633
 31
0.0
  0
LINE
  5
6903
330
68FF
100
AcDbEntity
  8
1
  6
Continuous
 62
     4
370
    -2
100
AcDbLine
 10
720.2842043011383
 20
269.8503953858633
 30
0.0
 11
710.2842043011382
 21
269.8503953858633
 31
0.0
  0
SOLID
  5
6904
330
68FF
100
AcDbEntity
  8
1
  6
Continuous
 62
     4
370
     0
100
AcDbTrace
 10
720.2842043011383
 20
270.1837287191966
 30
0.0
 11
720.2842043011383
 21
269.51706205253
 31
0.0
 12
722.2842043011382
 22
269.8503953858633
 32
0.0
 13
722.2842043011382
 23
269.8503953858633
 33
0.0
  0
SOLID
  5
6905
330
68FF
100
AcDbEntity
  8
1
  6
Continuous
 62
     4
370
     0
100
AcDbTrace
 10
710.2842043011382
 20
270.1837287191966
 30
0.0
 11
710.2842043011382
 21
269.51706205253
 31
0.0
 12
708.2842043011383
 22
269.8503953858633
 32
0.0
 13
708.2842043011383
 23
269.8503953858633
 33
0.0
  0
MTEXT
  5
6906
330
68FF
100
AcDbEntity
  8
1
  6
Continuous
 62
     4
100
AcDbMText
 10
715.2842043011382
 20
271.1003953858633
 30
0.0
 40
2.5
 41
0.0
 71
     5
 72
     1
  1
\A1; 14 
 73
     1
 44
1.0
1001
ACAD
1000
MTEXTBEGIN
1070
    73
1070
     1
1070
    44
1040
1.0
1070
    74
1070
     0
1000
MTEXTEND
  0
POINT
  5
6907
330
68FF
100
AcDbEntity
  8
DEFPOINTS
  6
Continuous
 62
     0
370
     0
100
AcDbPoint
 10
722.2842043011382
 20
230.1686173858633
 30
0.0
  0
POINT
  5
6908
330
68FF
100
AcDbEntity
  8
DEFPOINTS
  6
Continuous
 62
     0
370
     0
100
AcDbPoint
 10
708.2842043011383
 20
244.1686173858633
 30
0.0
  0
POINT
  5
6909
330
68FF
100
AcDbEntity
  8
DEFPOINTS
  6
Continuous
 62
     0
370
     0
100
AcDbPoint
 10
708.2842043011383
 20
269.8503953858633
 30
0.0
  0
ENDBLK
  5
690A
330
68FF
100
AcDbEntity
  8
0
100
AcDbBlockEnd
  0
BLOCK
  5
690C
330
690B
100
AcDbEntity
  8
0
100
AcDbBlockBegin
  2
_D11
 70
     0
 10
0.0
 20
0.0
 30
0.0
  3
_D11
  1

  0
LINE
  5
690D
330
690B
100
AcDbEntity
  8
1
  6
Continuous
 62
     4
370
    -2
100
AcDbLine
 10
708.2842043011383
 20
245.1686173858633
 30
0.0
 11
708.2842043011383
 21
270.8503953858633
 31
0.0
  0
LINE
  5
690E
330
690B
100
AcDbEntity
  8
1
  6
Continuous
 62
     4
370
    -2
100
AcDbLine
 10
694.2842043011382
 20
231.1686173858633
 30
0.0
 11
694.2842043011382
 21
270.8503953858633
 31
0.0
  0
LINE
  5
690F
330
690B
100
AcDbEntity
  8
1
  6
Continuous
 62
     4
370
    -2
100
AcDbLine
 10
706.2842043011382
 20
269.8503953858633
 30
0.0
 11
696.2842043011383
 21
269.8503953858633
 31
0.0
  0
SOLID
  5
6910
330
690B
100
AcDbEntity
  8
1
  6
Continuous
 62
     4
370
     0
100
AcDbTrace
 10
706.2842043011382
 20
270.1837287191966
 30
0.0
 11
706.2842043011382
 21
269.51706205253
 31
0.0
 12
708.2842043011383
 22
269.8503953858633
 32
0.0
 13
708.2842043011383
 23
269.8503953858633
 33
0.0
  0
SOLID
  5
6911
330
690B
100
AcDbEntity
  8
1
  6
Continuous
 62
     4
370
     0
100
AcDbTrace
 10
696.2842043011383
 20
270.1837287191966
 30
0.0
 11
696.2842043011383
 21
269.51706205253
 31
0.0
 12
694.2842043011382
 22
269.8503953858633
 32
0.0
 13
694.2842043011382
 23
269.8503953858633
 33
0.0
  0
MTEXT
  5
6912
330
690B
100
AcDbEntity
  8
1
  6
Continuous
 62
     4
100
AcDbMText
 10
701.2842043011382
 20
271.1003953858633
 30
0.0
 40
2.5
 41
0.0
 71
     5
 72
     1
  1
\A1; 14 
 73
     1
 44
1.0
1001
ACAD
1000
MTEXTBEGIN
1070
    73
1070
     1
1070
    44
1040
1.0
1070
    74
1070
     0
1000
MTEXTEND
  0
POINT
  5
6913
330
690B
100
AcDbEntity
  8
DEFPOINTS
  6
Continuous
 62
     0
370
     0
100
AcDbPoint
 10
708.2842043011383
 20
244.1686173858633
 30
0.0
  0
POINT
  5
6914
330
690B
100
AcDbEntity
  8
DEFPOINTS
  6
Continuous
 62
     0
370
     0
100
AcDbPoint
 10
694.2842043011382
 20
230.1686173858633
 30
0.0
  0
POINT
  5
6915
330
690B
100
AcDbEntity
  8
DEFPOINTS
  6
Continuous
 62
     0
370
     0
100
AcDbPoint
 10
694.2842043011382
 20
269.8503953858633
 30
0.0
  0
ENDBLK
  5
6916
330
690B
100
AcDbEntity
  8
0
100
AcDbBlockEnd
  0
BLOCK
  5
6A1D
330
6A1C
100
AcDbEntity
  8
0
100
AcDbBlockBegin
  2
*D30
 70
     1
 10
0.0
 20
0.0
 30
0.0
  3
*D30
  1

  0
LINE
  5
6A46
330
6A1C
100
AcDbEntity
  8
1
  6
Continuous
 62
     4
370
    -2
100
AcDbLine
 10
-340.3139548229333
 20
305.4985035769964
 30
0.0
 11
-340.3139548229333
 21
404.7029485769964
 31
0.0
  0
LINE
  5
6A47
330
6A1C
100
AcDbEntity
  8
1
  6
Continuous
 62
     4
370
    -2
100
AcDbLine
 10
-375.3139548229333
 20
340.4985035769964
 30
0.0
 11
-375.3139548229333
 21
404.7029485769964
 31
0.0
  0
LINE
  5
6A48
330
6A1C
100
AcDbEntity
  8
1
  6
Continuous
 62
     4
370
    -2
100
AcDbLine
 10
-342.3139548229333
 20
403.7029485769966
 30
0.0
 11
-373.3139548229333
 21
403.7029485769966
 31
0.0
  0
INSERT
  5
6A49
330
6A1C
100
AcDbEntity
  8
1
  6
Continuous
 62
     4
370
    -2
100
AcDbBlockReference
  2
_OPEN
 10
-340.3139548229333
 20
403.7029485769966
 30
0.0
 41
2.0
 42
2.0
 43
2.0
  0
INSERT
  5
6A4A
330
6A1C
100
AcDbEntity
  8
1
  6
Continuous
 62
     4
370
    -2
100
AcDbBlockReference
  2
_OPEN
 10
-375.3139548229333
 20
403.7029485769966
 30
0.0
 41
2.0
 42
2.0
 43
2.0
 50
180.0
  0
MTEXT
  5
6A4B
330
6A1C
100
AcDbEntity
  8
1
  6
Continuous
 62
     4
100
AcDbMText
 10
-357.8139548229334
 20
404.9529485769965
 30
0.0
 40
2.5
 41
0.0
 71
     5
 72
     1
  1
\A1; 35 
 73
     1
 44
1.0
1001
ACAD
1000
MTEXTBEGIN
1070
    73
1070
     1
1070
    44
1040
1.0
1070
    74
1070
     0
1000
MTEXTEND
  0
POINT
  5
6A4C
330
6A1C
100
AcDbEntity
  8
DEFPOINTS
  6
Continuous
 62
     0
100
AcDbPoint
 10
-340.3139548229333
 20
304.4985035769964
 30
0.0
  0
POINT
  5
6A4D
330
6A1C
100
AcDbEntity
  8
DEFPOINTS
  6
Continuous
 62
     0
100
AcDbPoint
 10
-375.3139548229333
 20
339.4985035769964
 30
0.0
  0
POINT
  5
6A4E
330
6A1C
100
AcDbEntity
  8
DEFPOINTS
  6
Continuous
 62
     0
100
AcDbPoint
 10
-375.3139548229333
 20
403.7029485769966
 30
0.0
  0
ENDBLK
  5
6A1E
330
6A1C
100
AcDbEntity
  8
0
100
AcDbBlockEnd
  0
BLOCK
  5
6A29
330
6A28
100
AcDbEntity
  8
0
100
AcDbBlockBegin
  2
*D31
 70
     1
 10
0.0
 20
0.0
 30
0.0
  3
*D31
  1

  0
LINE
  5
6A4F
330
6A28
100
AcDbEntity
  8
1
  6
Continuous
 62
     4
370
    -2
100
AcDbLine
 10
-375.3139548229333
 20
340.4985035769964
 30
0.0
 11
-375.3139548229333
 21
404.7029485769964
 31
0.0
  0
LINE
  5
6A50
330
6A28
100
AcDbEntity
  8
1
  6
Continuous
 62
     4
370
    -2
100
AcDbLine
 10
-410.3139548229329
 20
305.4985035769964
 30
0.0
 11
-410.3139548229329
 21
404.7029485769964
 31
0.0
  0
LINE
  5
6A51
330
6A28
100
AcDbEntity
  8
1
  6
Continuous
 62
     4
370
    -2
100
AcDbLine
 10
-377.3139548229333
 20
403.7029485769966
 30
0.0
 11
-408.3139548229333
 21
403.7029485769966
 31
0.0
  0
INSERT
  5
6A52
330
6A28
100
AcDbEntity
  8
1
  6
Continuous
 62
     4
370
    -2
100
AcDbBlockReference
  2
_OPEN
 10
-375.3139548229333
 20
403.7029485769966
 30
0.0
 41
2.0
 42
2.0
 43
2.0
  0
INSERT
  5
6A53
330
6A28
100
AcDbEntity
  8
1
  6
Continuous
 62
     4
370
    -2
100
AcDbBlockReference
  2
_OPEN
 10
-410.3139548229329
 20
403.7029485769966
 30
0.0
 41
2.0
 42
2.0
 43
2.0
 50
180.0
  0
MTEXT
  5
6A54
330
6A28
100
AcDbEntity
  8
1
  6
Continuous
 62
     4
100
AcDbMText
 10
-392.8139548229333
 20
404.9529485769965
 30
0.0
 40
2.5
 41
0.0
 71
     5
 72
     1
  1
\A1; 35 
 73
     1
 44
1.0
1001
ACAD
1000
MTEXTBEGIN
1070
    73
1070
     1
1070
    44
1040
1.0
1070
    74
1070
     0
1000
MTEXTEND
  0
POINT
  5
6A55
330
6A28
100
AcDbEntity
  8
DEFPOINTS
  6
Continuous
 62
     0
100
AcDbPoint
 10
-375.3139548229333
 20
339.4985035769964
 30
0.0
  0
POINT
  5
6A56
330
6A28
100
AcDbEntity
  8
DEFPOINTS
  6
Continuous
 62
     0
100
AcDbPoint
 10
-410.3139548229329
 20
304.4985035769964
 30
0.0
  0
POINT
  5
6A57
330
6A28
100
AcDbEntity
  8
DEFPOINTS
  6
Continuous
 62
     0
100
AcDbPoint
 10
-410.3139548229329
 20
403.7029485769966
 30
0.0
  0
ENDBLK
  5
6A2A
330
6A28
100
AcDbEntity
  8
0
100
AcDbBlockEnd
  0
BLOCK
  5
6B81
330
6B80
100
AcDbEntity
  8
0
100
AcDbBlockBegin
  2
*D32
 70
     1
 10
0.0
 20
0.0
 30
0.0
  3
*D32
  1

  0
LINE
  5
6B82
330
6B80
100
AcDbEntity
  8
30
  6
Continuous
 62
     0
100
AcDbLine
 10
347.4767630316694
 20
-61.00000000000001
 30
0.0
 11
347.4767630316694
 21
-36.49999999999993
 31
0.0
  0
LINE
  5
6B83
330
6B80
100
AcDbEntity
  8
30
  6
Continuous
 62
     0
100
AcDbLine
 10
325.5211716870178
 20
-61.00000000000015
 30
0.0
 11
325.5211716870178
 21
-36.49999999999993
 31
0.0
  0
LINE
  5
6B84
330
6B80
100
AcDbEntity
  8
30
  6
Continuous
 62
     0
100
AcDbLine
 10
345.4767630316694
 20
-36.99999999999993
 30
0.0
 11
327.5211716870178
 21
-36.99999999999993
 31
0.0
  0
INSERT
  5
6B85
330
6B80
100
AcDbEntity
  8
30
  6
Continuous
 62
     0
100
AcDbBlockReference
  2
_OPEN
 10
347.4767630316694
 20
-36.99999999999993
 30
0.0
 41
2.0
 42
2.0
 43
2.0
  0
INSERT
  5
6B86
330
6B80
100
AcDbEntity
  8
30
  6
Continuous
 62
     0
100
AcDbBlockReference
  2
_OPEN
 10
325.5211716870178
 20
-36.99999999999993
 30
0.0
 41
2.0
 42
2.0
 43
2.0
 50
180.0
  0
MTEXT
  5
6B87
330
6B80
100
AcDbEntity
  8
30
  6
Continuous
 62
     0
100
AcDbMText
 10
336.4989673593437
 20
-33.99999999999995
 30
0.0
 40
4.0
 41
0.0
 71
     5
 72
     1
  1
\A1;22
 73
     1
 44
1.0
1001
ACAD
1000
MTEXTBEGIN
1070
    73
1070
     1
1070
    44
1040
1.0
1070
    74
1070
     0
1000
MTEXTEND
  0
POINT
  5
6B88
330
6B80
100
AcDbEntity
  8
DEFPOINTS
  6
Continuous
 62
     0
100
AcDbPoint
 10
347.4767630316694
 20
-62.00000000000001
 30
0.0
  0
POINT
  5
6B89
330
6B80
100
AcDbEntity
  8
DEFPOINTS
  6
Continuous
 62
     0
100
AcDbPoint
 10
325.5211716870178
 20
-62.00000000000015
 30
0.0
  0
POINT
  5
6B8A
330
6B80
100
AcDbEntity
  8
DEFPOINTS
  6
Continuous
 62
     0
100
AcDbPoint
 10
325.5211716870178
 20
-36.99999999999993
 30
0.0
  0
ENDBLK
  5
6B8B
330
6B80
100
AcDbEntity
  8
0
100
AcDbBlockEnd
  0
BLOCK
  5
6B8D
330
6B8C
100
AcDbEntity
  8
0
100
AcDbBlockBegin
  2
*D33
 70
     1
 10
0.0
 20
0.0
 30
0.0
  3
*D33
  1

  0
LINE
  5
6B8E
330
6B8C
100
AcDbEntity
  8
30
  6
Continuous
 62
     0
100
AcDbLine
 10
347.4767630316694
 20
-75.50000001649995
 30
0.0
 11
347.4767630316694
 21
-119.954446411991
 31
0.0
  0
LINE
  5
6B8F
330
6B8C
100
AcDbEntity
  8
30
  6
Continuous
 62
     0
100
AcDbLine
 10
362.4767630316696
 20
-83.30776410006064
 30
0.0
 11
362.4767630316696
 21
-119.954446411991
 31
0.0
  0
LINE
  5
6B90
330
6B8C
100
AcDbEntity
  8
30
  6
Continuous
 62
     0
100
AcDbLine
 10
349.4767630316694
 20
-119.454446411991
 30
0.0
 11
360.4767630316696
 21
-119.454446411991
 31
0.0
  0
INSERT
  5
6B91
330
6B8C
100
AcDbEntity
  8
30
  6
Continuous
 62
     0
100
AcDbBlockReference
  2
_OPEN
 10
347.4767630316694
 20
-119.454446411991
 30
0.0
 41
2.0
 42
2.0
 43
2.0
 50
180.0
  0
INSERT
  5
6B92
330
6B8C
100
AcDbEntity
  8
30
  6
Continuous
 62
     0
100
AcDbBlockReference
  2
_OPEN
 10
362.4767630316696
 20
-119.454446411991
 30
0.0
 41
2.0
 42
2.0
 43
2.0
  0
MTEXT
  5
6B93
330
6B8C
100
AcDbEntity
  8
30
  6
Continuous
 62
     0
100
AcDbMText
 10
354.9767630316694
 20
-116.454446411991
 30
0.0
 40
4.0
 41
0.0
 71
     5
 72
     1
  1
\A1;15
 73
     1
 44
1.0
1001
ACAD
1000
MTEXTBEGIN
1070
    73
1070
     1
1070
    44
1040
1.0
1070
    74
1070
     0
1000
MTEXTEND
  0
POINT
  5
6B94
330
6B8C
100
AcDbEntity
  8
DEFPOINTS
  6
Continuous
 62
     0
100
AcDbPoint
 10
347.4767630316694
 20
-74.50000001649995
 30
0.0
  0
POINT
  5
6B95
330
6B8C
100
AcDbEntity
  8
DEFPOINTS
  6
Continuous
 62
     0
100
AcDbPoint
 10
362.4767630316696
 20
-82.30776410006065
 30
0.0
  0
POINT
  5
6B96
330
6B8C
100
AcDbEntity
  8
DEFPOINTS
  6
Continuous
 62
     0
100
AcDbPoint
 10
362.4767630316696
 20
-119.454446411991
 30
0.0
  0
ENDBLK
  5
6B97
330
6B8C
100
AcDbEntity
  8
0
100
AcDbBlockEnd
  0
BLOCK
  5
6B99
330
6B98
100
AcDbEntity
  8
0
100
AcDbBlockBegin
  2
*D34
 70
     1
 10
0.0
 20
0.0
 30
0.0
  3
*D34
  1

  0
LINE
  5
6B9A
330
6B98
100
AcDbEntity
  8
30
  6
Continuous
 62
     0
100
AcDbLine
 10
382.4767630316694
 20
-75.50000001649995
 30
0.0
 11
382.4767630316694
 21
-119.954446411991
 31
0.0
  0
LINE
  5
6B9B
330
6B98
100
AcDbEntity
  8
30
  6
Continuous
 62
     0
100
AcDbLine
 10
397.4767630316694
 20
-83.30776410006064
 30
0.0
 11
397.4767630316694
 21
-119.954446411991
 31
0.0
  0
LINE
  5
6B9C
330
6B98
100
AcDbEntity
  8
30
  6
Continuous
 62
     0
100
AcDbLine
 10
384.4767630316693
 20
-119.454446411991
 30
0.0
 11
395.4767630316694
 21
-119.454446411991
 31
0.0
  0
INSERT
  5
6B9D
330
6B98
100
AcDbEntity
  8
30
  6
Continuous
 62
     0
100
AcDbBlockReference
  2
_OPEN
 10
382.4767630316694
 20
-119.454446411991
 30
0.0
 41
2.0
 42
2.0
 43
2.0
 50
180.0
  0
INSERT
  5
6B9E
330
6B98
100
AcDbEntity
  8
30
  6
Continuous
 62
     0
100
AcDbBlockReference
  2
_OPEN
 10
397.4767630316694
 20
-119.454446411991
 30
0.0
 41
2.0
 42
2.0
 43
2.0
  0
MTEXT
  5
6B9F
330
6B98
100
AcDbEntity
  8
30
  6
Continuous
 62
     0
100
AcDbMText
 10
389.9767630316694
 20
-116.454446411991
 30
0.0
 40
4.0
 41
0.0
 71
     5
 72
     1
  1
\A1;15
 73
     1
 44
1.0
1001
ACAD
1000
MTEXTBEGIN
1070
    73
1070
     1
1070
    44
1040
1.0
1070
    74
1070
     0
1000
MTEXTEND
  0
POINT
  5
6BA0
330
6B98
100
AcDbEntity
  8
DEFPOINTS
  6
Continuous
 62
     0
100
AcDbPoint
 10
382.4767630316694
 20
-74.50000001649995
 30
0.0
  0
POINT
  5
6BA1
330
6B98
100
AcDbEntity
  8
DEFPOINTS
  6
Continuous
 62
     0
100
AcDbPoint
 10
397.4767630316694
 20
-82.30776410006065
 30
0.0
  0
POINT
  5
6BA2
330
6B98
100
AcDbEntity
  8
DEFPOINTS
  6
Continuous
 62
     0
100
AcDbPoint
 10
397.4767630316694
 20
-119.454446411991
 30
0.0
  0
ENDBLK
  5
6BA3
330
6B98
100
AcDbEntity
  8
0
100
AcDbBlockEnd
  0
BLOCK
  5
6BA5
330
6BA4
100
AcDbEntity
  8
0
100
AcDbBlockBegin
  2
*D35
 70
     1
 10
0.0
 20
0.0
 30
0.0
  3
*D35
  1

  0
LINE
  5
6BA6
330
6BA4
100
AcDbEntity
  8
30
  6
Continuous
 62
     0
100
AcDbLine
 10
437.9344186086751
 20
72.0
 30
0.0
 11
445.3190607635053
 21
72.0
 31
0.0
  0
LINE
  5
6BA7
330
6BA4
100
AcDbEntity
  8
30
  6
Continuous
 62
     0
100
AcDbLine
 10
433.7237726057973
 20
-72.00000000000007
 30
0.0
 11
445.3190607635053
 21
-72.00000000000007
 31
0.0
  0
LINE
  5
6BA8
330
6BA4
100
AcDbEntity
  8
30
  6
Continuous
 62
     0
100
AcDbLine
 10
444.8190607635053
 20
70.0
 30
0.0
 11
444.8190607635053
 21
-70.00000000000007
 31
0.0
  0
INSERT
  5
6BA9
330
6BA4
100
AcDbEntity
  8
30
  6
Continuous
 62
     0
100
AcDbBlockReference
  2
_OPEN
 10
444.8190607635053
 20
72.0
 30
0.0
 41
2.0
 42
2.0
 43
2.0
 50
90.0
  0
INSERT
  5
6BAA
330
6BA4
100
AcDbEntity
  8
30
  6
Continuous
 62
     0
100
AcDbBlockReference
  2
_OPEN
 10
444.8190607635053
 20
-72.00000000000007
 30
0.0
 41
2.0
 42
2.0
 43
2.0
 50
270.0
  0
MTEXT
  5
6BAB
330
6BA4
100
AcDbEntity
  8
30
  6
Continuous
 62
     0
100
AcDbMText
 10
441.8190607635053
 20
0.0000000000000442
 30
0.0
 40
4.0
 41
0.0
 71
     5
 72
     1
  1
\A1;144
 11
0.0000000000000001
 21
1.0
 31
0.0
 73
     1
 44
1.0
1001
ACAD
1000
MTEXTBEGIN
1070
    73
1070
     1
1070
    44
1040
1.0
1070
    74
1070
     0
1000
MTEXTEND
  0
POINT
  5
6BAC
330
6BA4
100
AcDbEntity
  8
DEFPOINTS
  6
Continuous
 62
     0
100
AcDbPoint
 10
436.9344186086753
 20
72.0
 30
0.0
  0
POINT
  5
6BAD
330
6BA4
100
AcDbEntity
  8
DEFPOINTS
  6
Continuous
 62
     0
100
AcDbPoint
 10
432.7237726057973
 20
-72.00000000000007
 30
0.0
  0
POINT
  5
6BAE
330
6BA4
100
AcDbEntity
  8
DEFPOINTS
  6
Continuous
 62
     0
100
AcDbPoint
 10
444.8190607635053
 20
-72.00000000000007
 30
0.0
  0
ENDBLK
  5
6BAF
330
6BA4
100
AcDbEntity
  8
0
100
AcDbBlockEnd
  0
BLOCK
  5
6BB1
330
6BB0
100
AcDbEntity
  8
0
100
AcDbBlockBegin
  2
*D36
 70
     1
 10
0.0
 20
0.0
 30
0.0
  3
*D36
  1

  0
LINE
  5
6BB2
330
6BB0
100
AcDbEntity
  8
30
  6
Continuous
 62
     0
100
AcDbLine
 10
395.7972711073584
 20
-82.00000000000008
 30
0.0
 11
433.2237726057973
 21
-82.00000000000008
 31
0.0
  0
LINE
  5
6BB3
330
6BB0
100
AcDbEntity
  8
30
  6
Continuous
 62
     0
100
AcDbLine
 10
395.7972711073584
 20
-62.00000000000006
 30
0.0
 11
433.2237726057973
 21
-62.00000000000006
 31
0.0
  0
LINE
  5
6BB4
330
6BB0
100
AcDbEntity
  8
30
  6
Continuous
 62
     0
100
AcDbLine
 10
432.7237726057973
 20
-80.00000000000007
 30
0.0
 11
432.7237726057973
 21
-64.00000000000007
 31
0.0
  0
INSERT
  5
6BB5
330
6BB0
100
AcDbEntity
  8
30
  6
Continuous
 62
     0
100
AcDbBlockReference
  2
_OPEN
 10
432.7237726057973
 20
-82.00000000000008
 30
0.0
 41
2.0
 42
2.0
 43
2.0
 50
270.0
  0
INSERT
  5
6BB6
330
6BB0
100
AcDbEntity
  8
30
  6
Continuous
 62
     0
100
AcDbBlockReference
  2
_OPEN
 10
432.7237726057973
 20
-62.00000000000006
 30
0.0
 41
2.0
 42
2.0
 43
2.0
 50
90.0
  0
MTEXT
  5
6BB7
330
6BB0
100
AcDbEntity
  8
30
  6
Continuous
 62
     0
100
AcDbMText
 10
429.7237726057973
 20
-72.0
 30
0.0
 40
4.0
 41
0.0
 71
     5
 72
     1
  1
\A1;20
 11
0.0000000000000001
 21
1.0
 31
0.0
 73
     1
 44
1.0
1001
ACAD
1000
MTEXTBEGIN
1070
    73
1070
     1
1070
    44
1040
1.0
1070
    74
1070
     0
1000
MTEXTEND
  0
POINT
  5
6BB8
330
6BB0
100
AcDbEntity
  8
DEFPOINTS
  6
Continuous
 62
     0
100
AcDbPoint
 10
394.7972711073587
 20
-82.00000000000008
 30
0.0
  0
POINT
  5
6BB9
330
6BB0
100
AcDbEntity
  8
DEFPOINTS
  6
Continuous
 62
     0
100
AcDbPoint
 10
394.7972711073587
 20
-62.00000000000006
 30
0.0
  0
POINT
  5
6BBA
330
6BB0
100
AcDbEntity
  8
DEFPOINTS
  6
Continuous
 62
     0
100
AcDbPoint
 10
432.7237726057973
 20
-62.00000000000006
 30
0.0
  0
ENDBLK
  5
6BBB
330
6BB0
100
AcDbEntity
  8
0
100
AcDbBlockEnd
  0
BLOCK
  5
6BBD
330
6BBC
100
AcDbEntity
  8
0
100
AcDbBlockBegin
  2
*D37
 70
     1
 10
0.0
 20
0.0
 30
0.0
  3
*D37
  1

  0
LINE
  5
6BBE
330
6BBC
100
AcDbEntity
  8
30
  6
Continuous
 62
     0
100
AcDbLine
 10
398.4767630316694
 20
69.0
 30
0.0
 11
433.2237726057973
 21
68.99999999999998
 31
0.0
  0
LINE
  5
6BBF
330
6BBC
100
AcDbEntity
  8
30
  6
Continuous
 62
     0
100
AcDbLine
 10
398.4767630316694
 20
75.0
 30
0.0
 11
433.2237726057973
 21
74.99999999999999
 31
0.0
  0
LINE
  5
6BC0
330
6BBC
100
AcDbEntity
  8
30
  6
Continuous
 62
     0
100
AcDbLine
 10
432.7237726057973
 20
66.99999999999999
 30
0.0
 11
432.7237726057973
 21
64.99999999999999
 31
0.0
  0
LINE
  5
6BC1
330
6BBC
100
AcDbEntity
  8
30
  6
Continuous
 62
     0
100
AcDbLine
 10
432.7237726057973
 20
76.99999999999999
 30
0.0
 11
432.7237726057973
 21
78.99999999999998
 31
0.0
  0
INSERT
  5
6BC2
330
6BBC
100
AcDbEntity
  8
30
  6
Continuous
 62
     0
100
AcDbBlockReference
  2
_OPEN
 10
432.7237726057973
 20
68.99999999999998
 30
0.0
 41
2.0
 42
2.0
 43
2.0
 50
90.0
  0
INSERT
  5
6BC3
330
6BBC
100
AcDbEntity
  8
30
  6
Continuous
 62
     0
100
AcDbBlockReference
  2
_OPEN
 10
432.7237726057973
 20
74.99999999999999
 30
0.0
 41
2.0
 42
2.0
 43
2.0
 50
270.0
  0
MTEXT
  5
6BC4
330
6BBC
100
AcDbEntity
  8
30
  6
Continuous
 62
     0
100
AcDbMText
 10
429.7237726057973
 20
72.00000000000007
 30
0.0
 40
4.0
 41
0.0
 71
     5
 72
     1
  1
\A1;6
 11
0.0000000000000001
 21
1.0
 31
0.0
 73
     1
 44
1.0
1001
ACAD
1000
MTEXTBEGIN
1070
    73
1070
     1
1070
    44
1040
1.0
1070
    74
1070
     0
1000
MTEXTEND
  0
POINT
  5
6BC5
330
6BBC
100
AcDbEntity
  8
DEFPOINTS
  6
Continuous
 62
     0
100
AcDbPoint
 10
397.4767630316694
 20
69.0
 30
0.0
  0
POINT
  5
6BC6
330
6BBC
100
AcDbEntity
  8
DEFPOINTS
  6
Continuous
 62
     0
100
AcDbPoint
 10
397.4767630316694
 20
75.0
 30
0.0
  0
POINT
  5
6BC7
330
6BBC
100
AcDbEntity
  8
DEFPOINTS
  6
Continuous
 62
     0
100
AcDbPoint
 10
432.7237726057973
 20
74.99999999999999
 30
0.0
  0
ENDBLK
  5
6BC8
330
6BBC
100
AcDbEntity
  8
0
100
AcDbBlockEnd
  0
BLOCK
  5
6BCA
330
6BC9
100
AcDbEntity
  8
0
100
AcDbBlockBegin
  2
*D38
 70
     1
 10
0.0
 20
0.0
 30
0.0
  3
*D38
  1

  0
LINE
  5
6BCB
330
6BC9
100
AcDbEntity
  8
30
  6
Continuous
 62
     0
100
AcDbLine
 10
201.4767630316693
 20
-106.9999999999996
 30
0.0
 11
201.4767630316693
 21
-160.9544464119909
 31
0.0
  0
LINE
  5
6BCC
330
6BC9
100
AcDbEntity
  8
30
  6
Continuous
 62
     0
100
AcDbLine
 10
397.4767630316694
 20
-73.0
 30
0.0
 11
397.4767630316694
 21
-160.9544464119909
 31
0.0
  0
LINE
  5
6BCD
330
6BC9
100
AcDbEntity
  8
30
  6
Continuous
 62
     0
100
AcDbLine
 10
203.4767630316693
 20
-160.4544464119909
 30
0.0
 11
395.4767630316694
 21
-160.4544464119909
 31
0.0
  0
INSERT
  5
6BCE
330
6BC9
100
AcDbEntity
  8
30
  6
Continuous
 62
     0
100
AcDbBlockReference
  2
_OPEN
 10
201.4767630316693
 20
-160.4544464119909
 30
0.0
 41
2.0
 42
2.0
 43
2.0
 50
180.0
  0
INSERT
  5
6BCF
330
6BC9
100
AcDbEntity
  8
30
  6
Continuous
 62
     0
100
AcDbBlockReference
  2
_OPEN
 10
397.4767630316694
 20
-160.4544464119909
 30
0.0
 41
2.0
 42
2.0
 43
2.0
  0
MTEXT
  5
6BD0
330
6BC9
100
AcDbEntity
  8
30
  6
Continuous
 62
     0
100
AcDbMText
 10
299.4767630316695
 20
-157.4544464119909
 30
0.0
 40
4.0
 41
0.0
 71
     5
 72
     1
  1
\A1;196
 73
     1
 44
1.0
1001
ACAD
1000
MTEXTBEGIN
1070
    73
1070
     1
1070
    44
1040
1.0
1070
    74
1070
     0
1000
MTEXTEND
  0
POINT
  5
6BD1
330
6BC9
100
AcDbEntity
  8
DEFPOINTS
  6
Continuous
 62
     0
100
AcDbPoint
 10
201.4767630316693
 20
-105.9999999999996
 30
0.0
  0
POINT
  5
6BD2
330
6BC9
100
AcDbEntity
  8
DEFPOINTS
  6
Continuous
 62
     0
100
AcDbPoint
 10
397.4767630316694
 20
-72.0
 30
0.0
  0
POINT
  5
6BD3
330
6BC9
100
AcDbEntity
  8
DEFPOINTS
  6
Continuous
 62
     0
100
AcDbPoint
 10
397.4767630316694
 20
-160.4544464119909
 30
0.0
  0
ENDBLK
  5
6BD4
330
6BC9
100
AcDbEntity
  8
0
100
AcDbBlockEnd
  0
BLOCK
  5
6BD6
330
6BD5
100
AcDbEntity
  8
0
100
AcDbBlockBegin
  2
*D39
 70
     1
 10
0.0
 20
0.0
 30
0.0
  3
*D39
  1

  0
LINE
  5
6BD7
330
6BD5
100
AcDbEntity
  8
30
  6
Continuous
 62
     0
100
AcDbLine
 10
201.4767630316693
 20
-106.9999999999996
 30
0.0
 11
201.4767630316693
 21
-140.9544464119909
 31
0.0
  0
LINE
  5
6BD8
330
6BD5
100
AcDbEntity
  8
30
  6
Continuous
 62
     0
100
AcDbLine
 10
362.4767630316694
 20
-73.0
 30
0.0
 11
362.4767630316694
 21
-140.9544464119909
 31
0.0
  0
LINE
  5
6BD9
330
6BD5
100
AcDbEntity
  8
30
  6
Continuous
 62
     0
100
AcDbLine
 10
203.4767630316693
 20
-140.454446411991
 30
0.0
 11
360.4767630316694
 21
-140.454446411991
 31
0.0
  0
INSERT
  5
6BDA
330
6BD5
100
AcDbEntity
  8
30
  6
Continuous
 62
     0
100
AcDbBlockReference
  2
_OPEN
 10
201.4767630316693
 20
-140.454446411991
 30
0.0
 41
2.0
 42
2.0
 43
2.0
 50
180.0
  0
INSERT
  5
6BDB
330
6BD5
100
AcDbEntity
  8
30
  6
Continuous
 62
     0
100
AcDbBlockReference
  2
_OPEN
 10
362.4767630316694
 20
-140.454446411991
 30
0.0
 41
2.0
 42
2.0
 43
2.0
  0
MTEXT
  5
6BDC
330
6BD5
100
AcDbEntity
  8
30
  6
Continuous
 62
     0
100
AcDbMText
 10
281.9767630316695
 20
-137.454446411991
 30
0.0
 40
4.0
 41
0.0
 71
     5
 72
     1
  1
\A1;161
 73
     1
 44
1.0
1001
ACAD
1000
MTEXTBEGIN
1070
    73
1070
     1
1070
    44
1040
1.0
1070
    74
1070
     0
1000
MTEXTEND
  0
POINT
  5
6BDD
330
6BD5
100
AcDbEntity
  8
DEFPOINTS
  6
Continuous
 62
     0
100
AcDbPoint
 10
201.4767630316693
 20
-105.9999999999996
 30
0.0
  0
POINT
  5
6BDE
330
6BD5
100
AcDbEntity
  8
DEFPOINTS
  6
Continuous
 62
     0
100
AcDbPoint
 10
362.4767630316694
 20
-72.0
 30
0.0
  0
POINT
  5
6BDF
330
6BD5
100
AcDbEntity
  8
DEFPOINTS
  6
Continuous
 62
     0
100
AcDbPoint
 10
362.4767630316694
 20
-140.454446411991
 30
0.0
  0
ENDBLK
  5
6BE0
330
6BD5
100
AcDbEntity
  8
0
100
AcDbBlockEnd
  0
BLOCK
  5
6BE2
330
6BE1
100
AcDbEntity
  8
0
100
AcDbBlockBegin
  2
*D40
 70
     1
 10
0.0
 20
0.0
 30
0.0
  3
*D40
  1

  0
LINE
  5
6BE3
330
6BE1
100
AcDbEntity
  8
30
  6
Continuous
 62
     0
100
AcDbLine
 10
186.4767630316693
 20
-97.0
 30
0.0
 11
186.4767630316693
 21
-140.9544464119909
 31
0.0
  0
LINE
  5
6BE4
330
6BE1
100
AcDbEntity
  8
30
  6
Continuous
 62
     0
100
AcDbLine
 10
201.4767630316693
 20
-106.9999999999996
 30
0.0
 11
201.4767630316693
 21
-140.9544464119909
 31
0.0
  0
LINE
  5
6BE5
330
6BE1
100
AcDbEntity
  8
30
  6
Continuous
 62
     0
100
AcDbLine
 10
188.4767630316693
 20
-140.454446411991
 30
0.0
 11
199.4767630316695
 21
-140.454446411991
 31
0.0
  0
INSERT
  5
6BE6
330
6BE1
100
AcDbEntity
  8
30
  6
Continuous
 62
     0
100
AcDbBlockReference
  2
_OPEN
 10
186.4767630316693
 20
-140.454446411991
 30
0.0
 41
2.0
 42
2.0
 43
2.0
 50
180.0
  0
INSERT
  5
6BE7
330
6BE1
100
AcDbEntity
  8
30
  6
Continuous
 62
     0
100
AcDbBlockReference
  2
_OPEN
 10
201.4767630316693
 20
-140.454446411991
 30
0.0
 41
2.0
 42
2.0
 43
2.0
  0
MTEXT
  5
6BE8
330
6BE1
100
AcDbEntity
  8
30
  6
Continuous
 62
     0
100
AcDbMText
 10
193.9767630316693
 20
-137.454446411991
 30
0.0
 40
4.0
 41
0.0
 71
     5
 72
     1
  1
\A1;15
 73
     1
 44
1.0
1001
ACAD
1000
MTEXTBEGIN
1070
    73
1070
     1
1070
    44
1040
1.0
1070
    74
1070
     0
1000
MTEXTEND
  0
POINT
  5
6BE9
330
6BE1
100
AcDbEntity
  8
DEFPOINTS
  6
Continuous
 62
     0
100
AcDbPoint
 10
186.4767630316693
 20
-96.0
 30
0.0
  0
POINT
  5
6BEA
330
6BE1
100
AcDbEntity
  8
DEFPOINTS
  6
Continuous
 62
     0
100
AcDbPoint
 10
201.4767630316693
 20
-105.9999999999996
 30
0.0
  0
POINT
  5
6BEB
330
6BE1
100
AcDbEntity
  8
DEFPOINTS
  6
Continuous
 62
     0
100
AcDbPoint
 10
201.4767630316693
 20
-140.454446411991
 30
0.0
  0
ENDBLK
  5
6BEC
330
6BE1
100
AcDbEntity
  8
0
100
AcDbBlockEnd
  0
BLOCK
  5
6BEE
330
6BED
100
AcDbEntity
  8
0
100
AcDbBlockBegin
  2
*D41
 70
     1
 10
0.0
 20
0.0
 30
0.0
  3
*D41
  1

  0
LINE
  5
6BEF
330
6BED
100
AcDbEntity
  8
30
  6
Continuous
 62
     0
100
AcDbLine
 10
164.4767630316693
 20
-3.500000016499993
 30
0.0
 11
164.4767630316693
 21
-160.9544464119909
 31
0.0
  0
LINE
  5
6BF0
330
6BED
100
AcDbEntity
  8
30
  6
Continuous
 62
     0
100
AcDbLine
 10
201.4767630316693
 20
-106.9999999999996
 30
0.0
 11
201.4767630316693
 21
-160.9544464119909
 31
0.0
  0
LINE
  5
6BF1
330
6BED
100
AcDbEntity
  8
30
  6
Continuous
 62
     0
100
AcDbLine
 10
166.4767630316694
 20
-160.4544464119909
 30
0.0
 11
199.4767630316695
 21
-160.4544464119909
 31
0.0
  0
INSERT
  5
6BF2
330
6BED
100
AcDbEntity
  8
30
  6
Continuous
 62
     0
100
AcDbBlockReference
  2
_OPEN
 10
164.4767630316693
 20
-160.4544464119909
 30
0.0
 41
2.0
 42
2.0
 43
2.0
 50
180.0
  0
INSERT
  5
6BF3
330
6BED
100
AcDbEntity
  8
30
  6
Continuous
 62
     0
100
AcDbBlockReference
  2
_OPEN
 10
201.4767630316693
 20
-160.4544464119909
 30
0.0
 41
2.0
 42
2.0
 43
2.0
  0
MTEXT
  5
6BF4
330
6BED
100
AcDbEntity
  8
30
  6
Continuous
 62
     0
100
AcDbMText
 10
182.9767630316695
 20
-157.4544464119909
 30
0.0
 40
4.0
 41
0.0
 71
     5
 72
     1
  1
\A1;37
 73
     1
 44
1.0
1001
ACAD
1000
MTEXTBEGIN
1070
    73
1070
     1
1070
    44
1040
1.0
1070
    74
1070
     0
1000
MTEXTEND
  0
POINT
  5
6BF5
330
6BED
100
AcDbEntity
  8
DEFPOINTS
  6
Continuous
 62
     0
100
AcDbPoint
 10
164.4767630316693
 20
-2.500000016499993
 30
0.0
  0
POINT
  5
6BF6
330
6BED
100
AcDbEntity
  8
DEFPOINTS
  6
Continuous
 62
     0
100
AcDbPoint
 10
201.4767630316693
 20
-105.9999999999996
 30
0.0
  0
POINT
  5
6BF7
330
6BED
100
AcDbEntity
  8
DEFPOINTS
  6
Continuous
 62
     0
100
AcDbPoint
 10
201.4767630316693
 20
-160.4544464119909
 30
0.0
  0
ENDBLK
  5
6BF8
330
6BED
100
AcDbEntity
  8
0
100
AcDbBlockEnd
  0
BLOCK
  5
6D22
330
6D21
100
AcDbEntity
  8
0
100
AcDbBlockBegin
  2
*D42
 70
     1
 10
0.0
 20
0.0
 30
0.0
  3
*D42
  1

  0
LINE
  5
6D9A
330
6D21
100
AcDbEntity
  8
30
  6
Continuous
 62
     0
370
    -2
100
AcDbLine
 10
347.4767630316694
 20
-61.0
 30
0.0
 11
347.4767630316694
 21
-36.49999999999995
 31
0.0
  0
LINE
  5
6D9B
330
6D21
100
AcDbEntity
  8
30
  6
Continuous
 62
     0
370
    -2
100
AcDbLine
 10
325.5211716870178
 20
-61.00000000000014
 30
0.0
 11
325.5211716870178
 21
-36.49999999999995
 31
0.0
  0
LINE
  5
6D9C
330
6D21
100
AcDbEntity
  8
30
  6
Continuous
 62
     0
370
    -2
100
AcDbLine
 10
345.4767630316694
 20
-36.99999999999994
 30
0.0
 11
327.5211716870178
 21
-36.99999999999994
 31
0.0
  0
INSERT
  5
6D9D
330
6D21
100
AcDbEntity
  8
30
  6
Continuous
 62
     0
370
    -2
100
AcDbBlockReference
  2
_OPEN
 10
347.4767630316694
 20
-36.99999999999994
 30
0.0
 41
2.0
 42
2.0
 43
2.0
  0
INSERT
  5
6D9E
330
6D21
100
AcDbEntity
  8
30
  6
Continuous
 62
     0
370
    -2
100
AcDbBlockReference
  2
_OPEN
 10
325.5211716870178
 20
-36.99999999999994
 30
0.0
 41
2.0
 42
2.0
 43
2.0
 50
180.0
  0
MTEXT
  5
6D9F
330
6D21
100
AcDbEntity
  8
30
  6
Continuous
 62
     0
100
AcDbMText
 10
336.4989673593436
 20
-33.99999999999995
 30
0.0
 40
4.0
 41
0.0
 71
     5
 72
     1
  1
\A1;22
 73
     1
 44
1.0
1001
ACAD
1000
MTEXTBEGIN
1070
    73
1070
     1
1070
    44
1040
1.0
1070
    74
1070
     0
1000
MTEXTEND
  0
POINT
  5
6DA0
330
6D21
100
AcDbEntity
  8
DEFPOINTS
  6
Continuous
 62
     0
100
AcDbPoint
 10
347.4767630316694
 20
-62.0
 30
0.0
  0
POINT
  5
6DA1
330
6D21
100
AcDbEntity
  8
DEFPOINTS
  6
Continuous
 62
     0
100
AcDbPoint
 10
325.5211716870178
 20
-62.00000000000014
 30
0.0
  0
POINT
  5
6DA2
330
6D21
100
AcDbEntity
  8
DEFPOINTS
  6
Continuous
 62
     0
100
AcDbPoint
 10
325.5211716870178
 20
-36.99999999999994
 30
0.0
  0
ENDBLK
  5
6D23
330
6D21
100
AcDbEntity
  8
0
100
AcDbBlockEnd
  0
BLOCK
  5
6D2E
330
6D2D
100
AcDbEntity
  8
0
100
AcDbBlockBegin
  2
*D43
 70
     1
 10
0.0
 20
0.0
 30
0.0
  3
*D43
  1

  0
LINE
  5
6DA3
330
6D2D
100
AcDbEntity
  8
30
  6
Continuous
 62
     0
370
    -2
100
AcDbLine
 10
347.4767630316694
 20
-75.50000001649994
 30
0.0
 11
347.4767630316694
 21
-119.954446411991
 31
0.0
  0
LINE
  5
6DA4
330
6D2D
100
AcDbEntity
  8
30
  6
Continuous
 62
     0
370
    -2
100
AcDbLine
 10
362.4767630316696
 20
-83.30776410006064
 30
0.0
 11
362.4767630316696
 21
-119.954446411991
 31
0.0
  0
LINE
  5
6DA5
330
6D2D
100
AcDbEntity
  8
30
  6
Continuous
 62
     0
370
    -2
100
AcDbLine
 10
349.4767630316694
 20
-119.454446411991
 30
0.0
 11
360.4767630316696
 21
-119.454446411991
 31
0.0
  0
INSERT
  5
6DA6
330
6D2D
100
AcDbEntity
  8
30
  6
Continuous
 62
     0
370
    -2
100
AcDbBlockReference
  2
_OPEN
 10
347.4767630316694
 20
-119.454446411991
 30
0.0
 41
2.0
 42
2.0
 43
2.0
 50
180.0
  0
INSERT
  5
6DA7
330
6D2D
100
AcDbEntity
  8
30
  6
Continuous
 62
     0
370
    -2
100
AcDbBlockReference
  2
_OPEN
 10
362.4767630316696
 20
-119.454446411991
 30
0.0
 41
2.0
 42
2.0
 43
2.0
  0
MTEXT
  5
6DA8
330
6D2D
100
AcDbEntity
  8
30
  6
Continuous
 62
     0
100
AcDbMText
 10
354.9767630316694
 20
-116.454446411991
 30
0.0
 40
4.0
 41
0.0
 71
     5
 72
     1
  1
\A1;15
 73
     1
 44
1.0
1001
ACAD
1000
MTEXTBEGIN
1070
    73
1070
     1
1070
    44
1040
1.0
1070
    74
1070
     0
1000
MTEXTEND
  0
POINT
  5
6DA9
330
6D2D
100
AcDbEntity
  8
DEFPOINTS
  6
Continuous
 62
     0
100
AcDbPoint
 10
347.4767630316694
 20
-74.50000001649994
 30
0.0
  0
POINT
  5
6DAA
330
6D2D
100
AcDbEntity
  8
DEFPOINTS
  6
Continuous
 62
     0
100
AcDbPoint
 10
362.4767630316696
 20
-82.30776410006063
 30
0.0
  0
POINT
  5
6DAB
330
6D2D
100
AcDbEntity
  8
DEFPOINTS
  6
Continuous
 62
     0
100
AcDbPoint
 10
362.4767630316696
 20
-119.454446411991
 30
0.0
  0
ENDBLK
  5
6D2F
330
6D2D
100
AcDbEntity
  8
0
100
AcDbBlockEnd
  0
BLOCK
  5
6D3A
330
6D39
100
AcDbEntity
  8
0
100
AcDbBlockBegin
  2
*D44
 70
     1
 10
0.0
 20
0.0
 30
0.0
  3
*D44
  1

  0
LINE
  5
6DAC
330
6D39
100
AcDbEntity
  8
30
  6
Continuous
 62
     0
370
    -2
100
AcDbLine
 10
382.4767630316694
 20
-75.50000001649994
 30
0.0
 11
382.4767630316694
 21
-119.954446411991
 31
0.0
  0
LINE
  5
6DAD
330
6D39
100
AcDbEntity
  8
30
  6
Continuous
 62
     0
370
    -2
100
AcDbLine
 10
397.4767630316694
 20
-83.30776410006064
 30
0.0
 11
397.4767630316694
 21
-119.954446411991
 31
0.0
  0
LINE
  5
6DAE
330
6D39
100
AcDbEntity
  8
30
  6
Continuous
 62
     0
370
    -2
100
AcDbLine
 10
384.4767630316694
 20
-119.454446411991
 30
0.0
 11
395.4767630316694
 21
-119.454446411991
 31
0.0
  0
INSERT
  5
6DAF
330
6D39
100
AcDbEntity
  8
30
  6
Continuous
 62
     0
370
    -2
100
AcDbBlockReference
  2
_OPEN
 10
382.4767630316694
 20
-119.454446411991
 30
0.0
 41
2.0
 42
2.0
 43
2.0
 50
180.0
  0
INSERT
  5
6DB0
330
6D39
100
AcDbEntity
  8
30
  6
Continuous
 62
     0
370
    -2
100
AcDbBlockReference
  2
_OPEN
 10
397.4767630316694
 20
-119.454446411991
 30
0.0
 41
2.0
 42
2.0
 43
2.0
  0
MTEXT
  5
6DB1
330
6D39
100
AcDbEntity
  8
30
  6
Continuous
 62
     0
100
AcDbMText
 10
389.9767630316694
 20
-116.454446411991
 30
0.0
 40
4.0
 41
0.0
 71
     5
 72
     1
  1
\A1;15
 73
     1
 44
1.0
1001
ACAD
1000
MTEXTBEGIN
1070
    73
1070
     1
1070
    44
1040
1.0
1070
    74
1070
     0
1000
MTEXTEND
  0
POINT
  5
6DB2
330
6D39
100
AcDbEntity
  8
DEFPOINTS
  6
Continuous
 62
     0
100
AcDbPoint
 10
382.4767630316694
 20
-74.50000001649994
 30
0.0
  0
POINT
  5
6DB3
330
6D39
100
AcDbEntity
  8
DEFPOINTS
  6
Continuous
 62
     0
100
AcDbPoint
 10
397.4767630316694
 20
-82.30776410006063
 30
0.0
  0
POINT
  5
6DB4
330
6D39
100
AcDbEntity
  8
DEFPOINTS
  6
Continuous
 62
     0
100
AcDbPoint
 10
397.4767630316694
 20
-119.454446411991
 30
0.0
  0
ENDBLK
  5
6D3B
330
6D39
100
AcDbEntity
  8
0
100
AcDbBlockEnd
  0
BLOCK
  5
6D46
330
6D45
100
AcDbEntity
  8
0
100
AcDbBlockBegin
  2
*D45
 70
     1
 10
0.0
 20
0.0
 30
0.0
  3
*D45
  1

  0
LINE
  5
6DB5
330
6D45
100
AcDbEntity
  8
30
  6
Continuous
 62
     0
370
    -2
100
AcDbLine
 10
437.9344186086751
 20
72.0
 30
0.0
 11
445.319060763505
 21
72.0
 31
0.0
  0
LINE
  5
6DB6
330
6D45
100
AcDbEntity
  8
30
  6
Continuous
 62
     0
370
    -2
100
AcDbLine
 10
433.7237726057973
 20
-72.00000000000007
 30
0.0
 11
445.319060763505
 21
-72.00000000000007
 31
0.0
  0
LINE
  5
6DB7
330
6D45
100
AcDbEntity
  8
30
  6
Continuous
 62
     0
370
    -2
100
AcDbLine
 10
444.8190607635051
 20
70.0
 30
0.0
 11
444.8190607635051
 21
-70.00000000000007
 31
0.0
  0
INSERT
  5
6DB8
330
6D45
100
AcDbEntity
  8
30
  6
Continuous
 62
     0
370
    -2
100
AcDbBlockReference
  2
_OPEN
 10
444.8190607635051
 20
72.0
 30
0.0
 41
2.0
 42
2.0
 43
2.0
 50
90.0
  0
INSERT
  5
6DB9
330
6D45
100
AcDbEntity
  8
30
  6
Continuous
 62
     0
370
    -2
100
AcDbBlockReference
  2
_OPEN
 10
444.8190607635051
 20
-72.00000000000007
 30
0.0
 41
2.0
 42
2.0
 43
2.0
 50
270.0
  0
MTEXT
  5
6DBA
330
6D45
100
AcDbEntity
  8
30
  6
Continuous
 62
     0
100
AcDbMText
 10
441.819060763505
 20
0.0000000000000442
 30
0.0
 40
4.0
 41
0.0
 71
     5
 72
     1
  1
\A1;144
 11
0.0000000000000001
 21
1.0
 31
0.0
 73
     1
 44
1.0
1001
ACAD
1000
MTEXTBEGIN
1070
    73
1070
     1
1070
    44
1040
1.0
1070
    74
1070
     0
1000
MTEXTEND
  0
POINT
  5
6DBB
330
6D45
100
AcDbEntity
  8
DEFPOINTS
  6
Continuous
 62
     0
100
AcDbPoint
 10
436.9344186086753
 20
72.0
 30
0.0
  0
POINT
  5
6DBC
330
6D45
100
AcDbEntity
  8
DEFPOINTS
  6
Continuous
 62
     0
100
AcDbPoint
 10
432.7237726057973
 20
-72.00000000000007
 30
0.0
  0
POINT
  5
6DBD
330
6D45
100
AcDbEntity
  8
DEFPOINTS
  6
Continuous
 62
     0
100
AcDbPoint
 10
444.8190607635051
 20
-72.00000000000007
 30
0.0
  0
ENDBLK
  5
6D47
330
6D45
100
AcDbEntity
  8
0
100
AcDbBlockEnd
  0
BLOCK
  5
6D52
330
6D51
100
AcDbEntity
  8
0
100
AcDbBlockBegin
  2
*D46
 70
     1
 10
0.0
 20
0.0
 30
0.0
  3
*D46
  1

  0
LINE
  5
6DBE
330
6D51
100
AcDbEntity
  8
30
  6
Continuous
 62
     0
370
    -2
100
AcDbLine
 10
395.7972711073587
 20
-82.00000000000008
 30
0.0
 11
433.2237726057973
 21
-82.00000000000008
 31
0.0
  0
LINE
  5
6DBF
330
6D51
100
AcDbEntity
  8
30
  6
Continuous
 62
     0
370
    -2
100
AcDbLine
 10
395.7972711073587
 20
-62.00000000000006
 30
0.0
 11
433.2237726057973
 21
-62.00000000000006
 31
0.0
  0
LINE
  5
6DC0
330
6D51
100
AcDbEntity
  8
30
  6
Continuous
 62
     0
370
    -2
100
AcDbLine
 10
432.7237726057973
 20
-80.00000000000007
 30
0.0
 11
432.7237726057973
 21
-64.00000000000007
 31
0.0
  0
INSERT
  5
6DC1
330
6D51
100
AcDbEntity
  8
30
  6
Continuous
 62
     0
370
    -2
100
AcDbBlockReference
  2
_OPEN
 10
432.7237726057973
 20
-82.00000000000008
 30
0.0
 41
2.0
 42
2.0
 43
2.0
 50
270.0
  0
INSERT
  5
6DC2
330
6D51
100
AcDbEntity
  8
30
  6
Continuous
 62
     0
370
    -2
100
AcDbBlockReference
  2
_OPEN
 10
432.7237726057973
 20
-62.00000000000006
 30
0.0
 41
2.0
 42
2.0
 43
2.0
 50
90.0
  0
MTEXT
  5
6DC3
330
6D51
100
AcDbEntity
  8
30
  6
Continuous
 62
     0
100
AcDbMText
 10
429.7237726057973
 20
-72.0
 30
0.0
 40
4.0
 41
0.0
 71
     5
 72
     1
  1
\A1;20
 11
0.0000000000000001
 21
1.0
 31
0.0
 73
     1
 44
1.0
1001
ACAD
1000
MTEXTBEGIN
1070
    73
1070
     1
1070
    44
1040
1.0
1070
    74
1070
     0
1000
MTEXTEND
  0
POINT
  5
6DC4
330
6D51
100
AcDbEntity
  8
DEFPOINTS
  6
Continuous
 62
     0
100
AcDbPoint
 10
394.7972711073587
 20
-82.00000000000008
 30
0.0
  0
POINT
  5
6DC5
330
6D51
100
AcDbEntity
  8
DEFPOINTS
  6
Continuous
 62
     0
100
AcDbPoint
 10
394.7972711073587
 20
-62.00000000000006
 30
0.0
  0
POINT
  5
6DC6
330
6D51
100
AcDbEntity
  8
DEFPOINTS
  6
Continuous
 62
     0
100
AcDbPoint
 10
432.7237726057973
 20
-62.00000000000006
 30
0.0
  0
ENDBLK
  5
6D53
330
6D51
100
AcDbEntity
  8
0
100
AcDbBlockEnd
  0
BLOCK
  5
6D5E
330
6D5D
100
AcDbEntity
  8
0
100
AcDbBlockBegin
  2
*D47
 70
     1
 10
0.0
 20
0.0
 30
0.0
  3
*D47
  1

  0
LINE
  5
6DC7
330
6D5D
100
AcDbEntity
  8
30
  6
Continuous
 62
     0
370
    -2
100
AcDbLine
 10
398.4767630316694
 20
69.0
 30
0.0
 11
433.2237726057973
 21
68.99999999999998
 31
0.0
  0
LINE
  5
6DC8
330
6D5D
100
AcDbEntity
  8
30
  6
Continuous
 62
     0
370
    -2
100
AcDbLine
 10
398.4767630316694
 20
75.0
 30
0.0
 11
433.2237726057973
 21
74.99999999999999
 31
0.0
  0
LINE
  5
6DC9
330
6D5D
100
AcDbEntity
  8
30
  6
Continuous
 62
     0
370
    -2
100
AcDbLine
 10
432.7237726057973
 20
66.99999999999999
 30
0.0
 11
432.7237726057973
 21
64.99999999999999
 31
0.0
  0
LINE
  5
6DCA
330
6D5D
100
AcDbEntity
  8
30
  6
Continuous
 62
     0
370
    -2
100
AcDbLine
 10
432.7237726057973
 20
76.99999999999999
 30
0.0
 11
432.7237726057973
 21
78.99999999999998
 31
0.0
  0
INSERT
  5
6DCB
330
6D5D
100
AcDbEntity
  8
30
  6
Continuous
 62
     0
370
    -2
100
AcDbBlockReference
  2
_OPEN
 10
432.7237726057973
 20
68.99999999999998
 30
0.0
 41
2.0
 42
2.0
 43
2.0
 50
90.0
  0
INSERT
  5
6DCC
330
6D5D
100
AcDbEntity
  8
30
  6
Continuous
 62
     0
370
    -2
100
AcDbBlockReference
  2
_OPEN
 10
432.7237726057973
 20
74.99999999999999
 30
0.0
 41
2.0
 42
2.0
 43
2.0
 50
270.0
  0
MTEXT
  5
6DCD
330
6D5D
100
AcDbEntity
  8
30
  6
Continuous
 62
     0
100
AcDbMText
 10
429.7237726057973
 20
72.00000000000007
 30
0.0
 40
4.0
 41
0.0
 71
     5
 72
     1
  1
\A1;6
 11
0.0000000000000001
 21
1.0
 31
0.0
 73
     1
 44
1.0
1001
ACAD
1000
MTEXTBEGIN
1070
    73
1070
     1
1070
    44
1040
1.0
1070
    74
1070
     0
1000
MTEXTEND
  0
POINT
  5
6DCE
330
6D5D
100
AcDbEntity
  8
DEFPOINTS
  6
Continuous
 62
     0
100
AcDbPoint
 10
397.4767630316694
 20
69.0
 30
0.0
  0
POINT
  5
6DCF
330
6D5D
100
AcDbEntity
  8
DEFPOINTS
  6
Continuous
 62
     0
100
AcDbPoint
 10
397.4767630316694
 20
75.0
 30
0.0
  0
POINT
  5
6DD0
330
6D5D
100
AcDbEntity
  8
DEFPOINTS
  6
Continuous
 62
     0
100
AcDbPoint
 10
432.7237726057973
 20
74.99999999999999
 30
0.0
  0
ENDBLK
  5
6D5F
330
6D5D
100
AcDbEntity
  8
0
100
AcDbBlockEnd
  0
BLOCK
  5
6D6B
330
6D6A
100
AcDbEntity
  8
0
100
AcDbBlockBegin
  2
*D48
 70
     1
 10
0.0
 20
0.0
 30
0.0
  3
*D48
  1

  0
LINE
  5
6DD1
330
6D6A
100
AcDbEntity
  8
30
  6
Continuous
 62
     0
370
    -2
100
AcDbLine
 10
164.4767630316693
 20
-3.500000016499996
 30
0.0
 11
164.4767630316693
 21
-160.9544464119909
 31
0.0
  0
LINE
  5
6DD2
330
6D6A
100
AcDbEntity
  8
30
  6
Continuous
 62
     0
370
    -2
100
AcDbLine
 10
201.4767630316693
 20
-106.9999999999996
 30
0.0
 11
201.4767630316693
 21
-160.9544464119909
 31
0.0
  0
LINE
  5
6DD3
330
6D6A
100
AcDbEntity
  8
30
  6
Continuous
 62
     0
370
    -2
100
AcDbLine
 10
166.4767630316693
 20
-160.4544464119909
 30
0.0
 11
199.4767630316693
 21
-160.4544464119909
 31
0.0
  0
INSERT
  5
6DD4
330
6D6A
100
AcDbEntity
  8
30
  6
Continuous
 62
     0
370
    -2
100
AcDbBlockReference
  2
_OPEN
 10
164.4767630316693
 20
-160.4544464119909
 30
0.0
 41
2.0
 42
2.0
 43
2.0
 50
180.0
  0
INSERT
  5
6DD5
330
6D6A
100
AcDbEntity
  8
30
  6
Continuous
 62
     0
370
    -2
100
AcDbBlockReference
  2
_OPEN
 10
201.4767630316693
 20
-160.4544464119909
 30
0.0
 41
2.0
 42
2.0
 43
2.0
  0
MTEXT
  5
6DD6
330
6D6A
100
AcDbEntity
  8
30
  6
Continuous
 62
     0
100
AcDbMText
 10
182.9767630316693
 20
-157.4544464119909
 30
0.0
 40
4.0
 41
0.0
 71
     5
 72
     1
  1
\A1;37
 73
     1
 44
1.0
1001
ACAD
1000
MTEXTBEGIN
1070
    73
1070
     1
1070
    44
1040
1.0
1070
    74
1070
     0
1000
MTEXTEND
  0
POINT
  5
6DD7
330
6D6A
100
AcDbEntity
  8
DEFPOINTS
  6
Continuous
 62
     0
100
AcDbPoint
 10
164.4767630316693
 20
-2.500000016499996
 30
0.0
  0
POINT
  5
6DD8
330
6D6A
100
AcDbEntity
  8
DEFPOINTS
  6
Continuous
 62
     0
100
AcDbPoint
 10
201.4767630316693
 20
-105.9999999999996
 30
0.0
  0
POINT
  5
6DD9
330
6D6A
100
AcDbEntity
  8
DEFPOINTS
  6
Continuous
 62
     0
100
AcDbPoint
 10
201.4767630316693
 20
-160.4544464119909
 30
0.0
  0
ENDBLK
  5
6D6C
330
6D6A
100
AcDbEntity
  8
0
100
AcDbBlockEnd
  0
BLOCK
  5
6D77
330
6D76
100
AcDbEntity
  8
0
100
AcDbBlockBegin
  2
*D49
 70
     1
 10
0.0
 20
0.0
 30
0.0
  3
*D49
  1

  0
LINE
  5
6DDA
330
6D76
100
AcDbEntity
  8
30
  6
Continuous
 62
     0
370
    -2
100
AcDbLine
 10
201.4767630316693
 20
-106.9999999999996
 30
0.0
 11
201.4767630316693
 21
-140.954446411991
 31
0.0
  0
LINE
  5
6DDB
330
6D76
100
AcDbEntity
  8
30
  6
Continuous
 62
     0
370
    -2
100
AcDbLine
 10
362.4767630316694
 20
-73.0
 30
0.0
 11
362.4767630316694
 21
-140.954446411991
 31
0.0
  0
LINE
  5
6DDC
330
6D76
100
AcDbEntity
  8
30
  6
Continuous
 62
     0
370
    -2
100
AcDbLine
 10
203.4767630316693
 20
-140.454446411991
 30
0.0
 11
360.4767630316694
 21
-140.454446411991
 31
0.0
  0
INSERT
  5
6DDD
330
6D76
100
AcDbEntity
  8
30
  6
Continuous
 62
     0
370
    -2
100
AcDbBlockReference
  2
_OPEN
 10
201.4767630316693
 20
-140.454446411991
 30
0.0
 41
2.0
 42
2.0
 43
2.0
 50
180.0
  0
INSERT
  5
6DDE
330
6D76
100
AcDbEntity
  8
30
  6
Continuous
 62
     0
370
    -2
100
AcDbBlockReference
  2
_OPEN
 10
362.4767630316694
 20
-140.454446411991
 30
0.0
 41
2.0
 42
2.0
 43
2.0
  0
MTEXT
  5
6DDF
330
6D76
100
AcDbEntity
  8
30
  6
Continuous
 62
     0
100
AcDbMText
 10
281.9767630316693
 20
-137.454446411991
 30
0.0
 40
4.0
 41
0.0
 71
     5
 72
     1
  1
\A1;161
 73
     1
 44
1.0
1001
ACAD
1000
MTEXTBEGIN
1070
    73
1070
     1
1070
    44
1040
1.0
1070
    74
1070
     0
1000
MTEXTEND
  0
POINT
  5
6DE0
330
6D76
100
AcDbEntity
  8
DEFPOINTS
  6
Continuous
 62
     0
100
AcDbPoint
 10
201.4767630316693
 20
-105.9999999999996
 30
0.0
  0
POINT
  5
6DE1
330
6D76
100
AcDbEntity
  8
DEFPOINTS
  6
Continuous
 62
     0
100
AcDbPoint
 10
362.4767630316694
 20
-72.0
 30
0.0
  0
POINT
  5
6DE2
330
6D76
100
AcDbEntity
  8
DEFPOINTS
  6
Continuous
 62
     0
100
AcDbPoint
 10
362.4767630316694
 20
-140.454446411991
 30
0.0
  0
ENDBLK
  5
6D78
330
6D76
100
AcDbEntity
  8
0
100
AcDbBlockEnd
  0
BLOCK
  5
6D83
330
6D82
100
AcDbEntity
  8
0
100
AcDbBlockBegin
  2
*D50
 70
     1
 10
0.0
 20
0.0
 30
0.0
  3
*D50
  1

  0
LINE
  5
6DE3
330
6D82
100
AcDbEntity
  8
30
  6
Continuous
 62
     0
370
    -2
100
AcDbLine
 10
201.4767630316693
 20
-106.9999999999996
 30
0.0
 11
201.4767630316693
 21
-160.9544464119909
 31
0.0
  0
LINE
  5
6DE4
330
6D82
100
AcDbEntity
  8
30
  6
Continuous
 62
     0
370
    -2
100
AcDbLine
 10
397.4767630316694
 20
-73.0
 30
0.0
 11
397.4767630316694
 21
-160.9544464119909
 31
0.0
  0
LINE
  5
6DE5
330
6D82
100
AcDbEntity
  8
30
  6
Continuous
 62
     0
370
    -2
100
AcDbLine
 10
203.4767630316693
 20
-160.4544464119909
 30
0.0
 11
395.4767630316694
 21
-160.4544464119909
 31
0.0
  0
INSERT
  5
6DE6
330
6D82
100
AcDbEntity
  8
30
  6
Continuous
 62
     0
370
    -2
100
AcDbBlockReference
  2
_OPEN
 10
201.4767630316693
 20
-160.4544464119909
 30
0.0
 41
2.0
 42
2.0
 43
2.0
 50
180.0
  0
INSERT
  5
6DE7
330
6D82
100
AcDbEntity
  8
30
  6
Continuous
 62
     0
370
    -2
100
AcDbBlockReference
  2
_OPEN
 10
397.4767630316694
 20
-160.4544464119909
 30
0.0
 41
2.0
 42
2.0
 43
2.0
  0
MTEXT
  5
6DE8
330
6D82
100
AcDbEntity
  8
30
  6
Continuous
 62
     0
100
AcDbMText
 10
299.4767630316693
 20
-157.4544464119909
 30
0.0
 40
4.0
 41
0.0
 71
     5
 72
     1
  1
\A1;196
 73
     1
 44
1.0
1001
ACAD
1000
MTEXTBEGIN
1070
    73
1070
     1
1070
    44
1040
1.0
1070
    74
1070
     0
1000
MTEXTEND
  0
POINT
  5
6DE9
330
6D82
100
AcDbEntity
  8
DEFPOINTS
  6
Continuous
 62
     0
100
AcDbPoint
 10
201.4767630316693
 20
-105.9999999999996
 30
0.0
  0
POINT
  5
6DEA
330
6D82
100
AcDbEntity
  8
DEFPOINTS
  6
Continuous
 62
     0
100
AcDbPoint
 10
397.4767630316694
 20
-72.0
 30
0.0
  0
POINT
  5
6DEB
330
6D82
100
AcDbEntity
  8
DEFPOINTS
  6
Continuous
 62
     0
100
AcDbPoint
 10
397.4767630316694
 20
-160.4544464119909
 30
0.0
  0
ENDBLK
  5
6D84
330
6D82
100
AcDbEntity
  8
0
100
AcDbBlockEnd
  0
BLOCK
  5
6D8F
330
6D8E
100
AcDbEntity
  8
0
100
AcDbBlockBegin
  2
*D51
 70
     1
 10
0.0
 20
0.0
 30
0.0
  3
*D51
  1

  0
LINE
  5
6DEC
330
6D8E
100
AcDbEntity
  8
30
  6
Continuous
 62
     0
370
    -2
100
AcDbLine
 10
186.4767630316693
 20
-97.0
 30
0.0
 11
186.4767630316693
 21
-140.954446411991
 31
0.0
  0
LINE
  5
6DED
330
6D8E
100
AcDbEntity
  8
30
  6
Continuous
 62
     0
370
    -2
100
AcDbLine
 10
201.4767630316693
 20
-106.9999999999996
 30
0.0
 11
201.4767630316693
 21
-140.954446411991
 31
0.0
  0
LINE
  5
6DEE
330
6D8E
100
AcDbEntity
  8
30
  6
Continuous
 62
     0
370
    -2
100
AcDbLine
 10
188.4767630316693
 20
-140.454446411991
 30
0.0
 11
199.4767630316693
 21
-140.454446411991
 31
0.0
  0
INSERT
  5
6DEF
330
6D8E
100
AcDbEntity
  8
30
  6
Continuous
 62
     0
370
    -2
100
AcDbBlockReference
  2
_OPEN
 10
186.4767630316693
 20
-140.454446411991
 30
0.0
 41
2.0
 42
2.0
 43
2.0
 50
180.0
  0
INSERT
  5
6DF0
330
6D8E
100
AcDbEntity
  8
30
  6
Continuous
 62
     0
370
    -2
100
AcDbBlockReference
  2
_OPEN
 10
201.4767630316693
 20
-140.454446411991
 30
0.0
 41
2.0
 42
2.0
 43
2.0
  0
MTEXT
  5
6DF1
330
6D8E
100
AcDbEntity
  8
30
  6
Continuous
 62
     0
100
AcDbMText
 10
193.9767630316693
 20
-137.454446411991
 30
0.0
 40
4.0
 41
0.0
 71
     5
 72
     1
  1
\A1;15
 73
     1
 44
1.0
1001
ACAD
1000
MTEXTBEGIN
1070
    73
1070
     1
1070
    44
1040
1.0
1070
    74
1070
     0
1000
MTEXTEND
  0
POINT
  5
6DF2
330
6D8E
100
AcDbEntity
  8
DEFPOINTS
  6
Continuous
 62
     0
100
AcDbPoint
 10
186.4767630316693
 20
-96.0
 30
0.0
  0
POINT
  5
6DF3
330
6D8E
100
AcDbEntity
  8
DEFPOINTS
  6
Continuous
 62
     0
100
AcDbPoint
 10
201.4767630316693
 20
-105.9999999999996
 30
0.0
  0
POINT
  5
6DF4
330
6D8E
100
AcDbEntity
  8
DEFPOINTS
  6
Continuous
 62
     0
100
AcDbPoint
 10
201.4767630316693
 20
-140.454446411991
 30
0.0
  0
ENDBLK
  5
6D90
330
6D8E
100
AcDbEntity
  8
0
100
AcDbBlockEnd
  0
ENDSEC
  0
SECTION
  2
ENTITIES
  0
LINE
  5
B4
330
1E
100
AcDbEntity
  8
16
100
AcDbLine
 10
0.0
 20
-101.8246001220914
 30
0.0
 11
0.0
 21
105.6073578546832
 31
0.0
  0
LINE
  5
B5
330
1E
100
AcDbEntity
  8
16
100
AcDbLine
 10
71.77465564206305
 20
0.0000000000000135
 30
0.0
 11
-83.90588178115756
 21
-0.0000000000000007
 31
0.0
  0
MTEXT
  5
BF3
330
1E
100
AcDbEntity
  8
24
  6
Continuous
100
AcDbMText
 10
140.9820964648283
 20
176.3476821548369
 30
0.0
 40
3.0
 41
0.0
 71
     1
 72
     1
  1
\A1;
 73
     1
 44
1.0
1001
ACAD
1000
MTEXTBEGIN
1070
    73
1070
     1
1070
    44
1040
1.0
1070
    74
1070
     0
1000
MTEXTEND
  0
LINE
  5
1C9A
330
1E
100
AcDbEntity
  8
16
100
AcDbLine
 10
0.0
 20
130.0
 30
0.0
 11
0.0
 21
298.8186192000658
 31
0.0
  0
LINE
  5
2260
330
1E
100
AcDbEntity
  8
16
100
AcDbLine
 10
68.52380301423579
 20
-252.6631237443548
 30
0.0
 11
-80.93000773675209
 21
-252.6631237443548
 31
0.0
  0
LINE
  5
2261
330
1E
100
AcDbEntity
  8
16
100
AcDbLine
 10
-0.3800945351711884
 20
-350.4150635072006
 30
0.0
 11
-0.3800945351711884
 21
-151.2797245348689
 31
0.0
  0
DIMENSION
  5
57FE
330
1E
100
AcDbEntity
  8
30
  6
Continuous
100
AcDbDimension
  2
*D1
 10
78.50000000000003
 20
-117.6551789019862
 30
0.0
 11
0.0000000000000144
 21
-114.6551789019861
 31
0.0
 70
    32
 71
     5
 42
-1.0
  3
STANDARD
100
AcDbAlignedDimension
 13
-78.5
 23
-95.04528757673485
 33
0.0
 14
78.50000000000003
 24
-95.04528757673485
 34
0.0
 50
180.0
100
AcDbRotatedDimension
1001
ACAD
1000
DSTYLE
1002
{
1070
    79
1070
     3
1002
}
  0
LINE
  5
5805
330
1E
100
AcDbEntity
  8
10
  6
DASHED
100
AcDbLine
 10
-52.5
 20
-82.5
 30
0.0
 11
52.50000000000003
 21
-82.49999999999998
 31
0.0
  0
LINE
  5
5806
330
1E
100
AcDbEntity
  8
10
  6
DASHED
100
AcDbLine
 10
52.50000000000003
 20
82.50000000000003
 30
0.0
 11
-52.5
 21
82.50000000000001
 31
0.0
  0
LINE
  5
5807
330
1E
100
AcDbEntity
  8
10
  6
CONTINOUS
100
AcDbLine
 10
-73.5
 20
-96.00000000000004
 30
0.0
 11
73.49999999999993
 21
-96.00000000000004
 31
0.0
  0
LINE
  5
5808
330
1E
100
AcDbEntity
  8
10
  6
CONTINOUS
100
AcDbLine
 10
73.49999999999993
 20
96.0
 30
0.0
 11
-73.5
 21
96.0
 31
0.0
  0
LINE
  5
580C
330
1E
100
AcDbEntity
  8
10
  6
DASHED
100
AcDbLine
 10
-52.5
 20
82.50000000000001
 30
0.0
 11
-52.5
 21
-82.5
 31
0.0
  0
LINE
  5
580D
330
1E
100
AcDbEntity
  8
10
  6
CONTINOUS
100
AcDbLine
 10
-78.5
 20
91.0
 30
0.0
 11
-78.5
 21
-91.00000000000004
 31
0.0
  0
ARC
  5
580E
330
1E
100
AcDbEntity
  8
10
  6
CONTINOUS
100
AcDbCircle
 10
-73.5
 20
-91.00000000000004
 30
0.0
 40
5.0
100
AcDbArc
 50
180.0
 51
270.0
  0
CIRCLE
  5
580F
330
1E
100
AcDbEntity
  8
12
  6
DASHED
100
AcDbCircle
 10
-68.0
 20
-33.0
 30
0.0
 40
2.5
  0
LINE
  5
5810
330
1E
100
AcDbEntity
  8
12
  6
DASHED
100
AcDbLine
 10
-71.5
 20
-33.0
 30
0.0
 11
-64.5
 21
-33.0
 31
0.0
  0
LINE
  5
5811
330
1E
100
AcDbEntity
  8
12
  6
DASHED
100
AcDbLine
 10
-68.0
 20
-36.5000000000007
 30
0.0
 11
-68.0
 21
-29.50000000000068
 31
0.0
  0
ARC
  5
5815
330
1E
100
AcDbEntity
  8
10
  6
CONTINOUS
100
AcDbCircle
 10
-73.5
 20
91.0
 30
0.0
 40
5.0
100
AcDbArc
 50
90.0
 51
180.0
  0
CIRCLE
  5
5816
330
1E
100
AcDbEntity
  8
12
  6
DASHED
100
AcDbCircle
 10
-68.0
 20
32.99999999999999
 30
0.0
 40
2.5
  0
LINE
  5
5817
330
1E
100
AcDbEntity
  8
12
  6
DASHED
100
AcDbLine
 10
-71.5
 20
32.99999999999999
 30
0.0
 11
-64.5
 21
32.99999999999999
 31
0.0
  0
LINE
  5
5818
330
1E
100
AcDbEntity
  8
12
  6
DASHED
100
AcDbLine
 10
-68.0
 20
29.4999999999993
 30
0.0
 11
-68.0
 21
36.49999999999931
 31
0.0
  0
LINE
  5
581C
330
1E
100
AcDbEntity
  8
10
  6
DASHED
100
AcDbLine
 10
52.50000000000003
 20
-82.49999999999998
 30
0.0
 11
52.50000000000003
 21
82.50000000000003
 31
0.0
  0
LINE
  5
581D
330
1E
100
AcDbEntity
  8
10
  6
CONTINOUS
100
AcDbLine
 10
78.50000000000003
 20
-91.00000000000004
 30
0.0
 11
78.50000000000003
 21
91.0
 31
0.0
  0
ARC
  5
581E
330
1E
100
AcDbEntity
  8
10
  6
CONTINOUS
100
AcDbCircle
 10
73.49999999999993
 20
-91.00000000000004
 30
0.0
 40
5.0
100
AcDbArc
 50
270.0
 51
0.0
  0
CIRCLE
  5
581F
330
1E
100
AcDbEntity
  8
12
  6
DASHED
100
AcDbCircle
 10
68.00000000000003
 20
-32.99999999999998
 30
0.0
 40
2.5
  0
LINE
  5
5820
330
1E
100
AcDbEntity
  8
12
  6
DASHED
100
AcDbLine
 10
67.99999999999973
 20
-36.50000000000069
 30
0.0
 11
67.99999999999973
 21
-29.50000000000065
 31
0.0
  0
LINE
  5
5821
330
1E
100
AcDbEntity
  8
12
  6
DASHED
100
AcDbLine
 10
64.50000000000001
 20
-32.99999999999998
 30
0.0
 11
71.49999999999993
 21
-32.99999999999998
 31
0.0
  0
ARC
  5
5825
330
1E
100
AcDbEntity
  8
10
  6
CONTINOUS
100
AcDbCircle
 10
73.49999999999993
 20
91.0
 30
0.0
 40
5.0
100
AcDbArc
 50
0.0
 51
90.0
  0
CIRCLE
  5
5826
330
1E
100
AcDbEntity
  8
12
  6
DASHED
100
AcDbCircle
 10
68.00000000000003
 20
33.0
 30
0.0
 40
2.5
  0
LINE
  5
5827
330
1E
100
AcDbEntity
  8
12
  6
DASHED
100
AcDbLine
 10
64.50000000000001
 20
33.0
 30
0.0
 11
71.49999999999993
 21
33.0
 31
0.0
  0
LINE
  5
5828
330
1E
100
AcDbEntity
  8
12
  6
DASHED
100
AcDbLine
 10
67.99999999999973
 20
29.4999999999993
 30
0.0
 11
67.99999999999973
 21
36.49999999999931
 31
0.0
  0
LINE
  5
5BAB
330
1E
100
AcDbEntity
  8
18
  6
DIVIDE
100
AcDbLine
 10
73.11990546482871
 20
-156.663123744355
 30
0.0
 11
-73.88009453517131
 21
-156.663123744355
 31
0.0
  0
LINE
  5
5BAD
330
1E
100
AcDbEntity
  8
18
  6
DIVIDE
100
AcDbLine
 10
-73.88009453517131
 20
-348.663123744355
 30
0.0
 11
73.11990546482871
 21
-348.663123744355
 31
0.0
  0
LINE
  5
5BAE
330
1E
100
AcDbEntity
  8
11
 48
2.0
100
AcDbLine
 10
62.61990546482893
 20
-162.1631237443549
 30
0.0
 11
-63.38009453517108
 21
-162.1631237443549
 31
0.0
  0
LINE
  5
5BAF
330
1E
100
AcDbEntity
  8
11
 48
2.0
100
AcDbLine
 10
-63.3800945351712
 20
-343.163123744355
 30
0.0
 11
62.61990546482893
 21
-343.163123744355
 31
0.0
  0
LINE
  5
5BB0
330
1E
100
AcDbEntity
  8
18
  6
DIVIDE
100
AcDbLine
 10
-78.88009453517131
 20
-161.663123744355
 30
0.0
 11
-78.88009453517131
 21
-343.6631237443547
 31
0.0
  0
LINE
  5
5BB1
330
1E
100
AcDbEntity
  8
11
 48
2.0
100
AcDbLine
 10
-63.38009453517108
 20
-343.163123744355
 30
0.0
 11
-63.38009453517108
 21
-162.1631237443549
 31
0.0
  0
ARC
  5
5BB2
330
1E
100
AcDbEntity
  8
18
  6
DIVIDE
100
AcDbCircle
 10
-73.88009453517131
 20
-343.6631237443547
 30
0.0
 40
5.0
100
AcDbArc
 50
180.0
 51
270.0
  0
CIRCLE
  5
5BB3
330
1E
100
AcDbEntity
  8
12
  6
Continuous
 62
     3
100
AcDbCircle
 10
-68.38009453517121
 20
-219.6631237443548
 30
0.0
 40
3.0
  0
LINE
  5
5BB4
330
1E
100
AcDbEntity
  8
12
  6
Continuous
 62
     3
100
AcDbLine
 10
-68.38009453517121
 20
-224.6631237443557
 30
0.0
 11
-68.38009453517121
 21
-214.6631237443555
 31
0.0
  0
CIRCLE
  5
5BB5
330
1E
100
AcDbEntity
  8
12
  6
Continuous
 62
     3
100
AcDbCircle
 10
-68.38009453517121
 20
-285.663123744355
 30
0.0
 40
3.0
  0
LINE
  5
5BB6
330
1E
100
AcDbEntity
  8
12
  6
Continuous
 62
     3
100
AcDbLine
 10
-73.38009453517121
 20
-285.663123744355
 30
0.0
 11
-63.3800945351712
 21
-285.663123744355
 31
0.0
  0
LINE
  5
5BB7
330
1E
100
AcDbEntity
  8
12
  6
Continuous
 62
     3
100
AcDbLine
 10
-68.38009453517121
 20
-290.6631237443558
 30
0.0
 11
-68.38009453517121
 21
-280.6631237443557
 31
0.0
  0
LINE
  5
5BBB
330
1E
100
AcDbEntity
  8
12
  6
Continuous
 62
     3
100
AcDbLine
 10
-73.38009453517121
 20
-219.6631237443548
 30
0.0
 11
-63.3800945351712
 21
-219.6631237443548
 31
0.0
  0
ARC
  5
5BBC
330
1E
100
AcDbEntity
  8
18
  6
DIVIDE
100
AcDbCircle
 10
-73.88009453517131
 20
-161.663123744355
 30
0.0
 40
5.0
100
AcDbArc
 50
90.0
 51
180.0
  0
LINE
  5
5BBD
330
1E
100
AcDbEntity
  8
18
  6
DIVIDE
100
AcDbLine
 10
78.11990546482859
 20
-343.6631237443547
 30
0.0
 11
78.11990546482859
 21
-161.663123744355
 31
0.0
  0
LINE
  5
5BBE
330
1E
100
AcDbEntity
  8
11
 48
2.0
100
AcDbLine
 10
62.61990546482893
 20
-343.163123744355
 30
0.0
 11
62.61990546482893
 21
-162.1631237443549
 31
0.0
  0
ARC
  5
5BBF
330
1E
100
AcDbEntity
  8
18
  6
DIVIDE
100
AcDbCircle
 10
73.11990546482871
 20
-343.6631237443547
 30
0.0
 40
5.0
100
AcDbArc
 50
270.0
 51
0.0
  0
CIRCLE
  5
5BC0
330
1E
100
AcDbEntity
  8
12
  6
Continuous
 62
     3
100
AcDbCircle
 10
67.6199054648287
 20
-219.6631237443548
 30
0.0
 40
3.0
  0
LINE
  5
5BC1
330
1E
100
AcDbEntity
  8
12
  6
Continuous
 62
     3
100
AcDbLine
 10
67.6199054648287
 20
-224.6631237443557
 30
0.0
 11
67.6199054648287
 21
-214.6631237443555
 31
0.0
  0
CIRCLE
  5
5BC3
330
1E
100
AcDbEntity
  8
12
  6
Continuous
 62
     3
100
AcDbCircle
 10
67.61990546482891
 20
-285.663123744355
 30
0.0
 40
3.0
  0
LINE
  5
5BC5
330
1E
100
AcDbEntity
  8
12
  6
Continuous
 62
     3
100
AcDbLine
 10
62.61990546482893
 20
-285.663123744355
 30
0.0
 11
72.61990546482891
 21
-285.663123744355
 31
0.0
  0
LINE
  5
5BC6
330
1E
100
AcDbEntity
  8
12
  6
Continuous
 62
     3
100
AcDbLine
 10
67.6199054648287
 20
-290.6631237443558
 30
0.0
 11
67.6199054648287
 21
-280.6631237443557
 31
0.0
  0
LINE
  5
5BC8
330
1E
100
AcDbEntity
  8
12
  6
Continuous
 62
     3
100
AcDbLine
 10
62.61990546482876
 20
-219.6631237443548
 30
0.0
 11
72.6199054648287
 21
-219.6631237443548
 31
0.0
  0
ARC
  5
5BC9
330
1E
100
AcDbEntity
  8
18
  6
DIVIDE
100
AcDbCircle
 10
73.11990546482871
 20
-161.663123744355
 30
0.0
 40
5.0
100
AcDbArc
 50
0.0
 51
90.0
  0
DIMENSION
  5
5BDE
330
1E
100
AcDbEntity
  8
30
  6
Continuous
100
AcDbDimension
  2
*D2
 10
105.8363287888389
 20
-96.00000000000004
 30
0.0
 11
102.8363287888389
 21
0.000000000000001
 31
0.0
 70
    32
 71
     5
 42
-1.0
  3
STANDARD
100
AcDbAlignedDimension
 13
76.73785085275262
 23
96.0
 33
0.0
 14
76.73785085275262
 24
-96.00000000000004
 34
0.0
 50
90.0
100
AcDbRotatedDimension
1001
ACAD
1000
DSTYLE
1002
{
1070
    79
1070
     3
1002
}
  0
DIMENSION
  5
5C0F
330
1E
100
AcDbEntity
  8
30
  6
Continuous
100
AcDbDimension
  2
*D3
 10
62.61990546482893
 20
-365.6895617182887
 30
0.0
 11
-0.380094535171075
 21
-362.6895617182886
 31
0.0
 70
    32
 71
     5
 42
-1.0
  3
STANDARD
100
AcDbAlignedDimension
 13
-63.38009453517108
 23
-343.163123744355
 33
0.0
 14
62.61990546482893
 24
-343.163123744355
 34
0.0
100
AcDbRotatedDimension
1001
ACAD
1000
DSTYLE
1002
{
1070
    79
1070
     3
1002
}
  0
DIMENSION
  5
5C1C
330
1E
100
AcDbEntity
  8
30
  6
Continuous
100
AcDbDimension
  2
*D4
 10
67.6199054648287
 20
-377.0163681745015
 30
0.0
 11
-0.3800945351712526
 21
-374.0163681745015
 31
0.0
 70
    32
 71
     5
 42
-1.0
  3
STANDARD
100
AcDbAlignedDimension
 13
-68.38009453517121
 23
-290.6631237443558
 33
0.0
 14
67.6199054648287
 24
-290.6631237443558
 34
0.0
100
AcDbRotatedDimension
1001
ACAD
1000
DSTYLE
1002
{
1070
    79
1070
     3
1002
}
  0
DIMENSION
  5
5C29
330
1E
100
AcDbEntity
  8
30
  6
Continuous
100
AcDbDimension
  2
*D5
 10
64.92600446482875
 20
-217.8933127443547
 30
0.0
 11
99.0500144648287
 21
-203.2939227443548
 31
0.0
 70
   163
 71
     5
 42
-1.0
  3
STANDARD
100
AcDbDiametricDimension
 15
70.31380646482879
 25
-215.2529347443548
 35
0.0
 40
0.0
1001
ACAD
1000
DSTYLE
1002
{
1070
   288
1070
     1
1002
}
  0
LINE
  5
6236
330
1E
100
AcDbEntity
  8
10
  6
CONTINOUS
100
AcDbLine
 10
49.00000000000003
 20
25.0
 30
0.0
 11
49.00000000000003
 21
-25.0
 31
0.0
  0
LINE
  5
6237
330
1E
100
AcDbEntity
  8
10
  6
CONTINOUS
100
AcDbLine
 10
-11.0
 20
25.0
 30
0.0
 11
-11.0
 21
-25.0
 31
0.0
  0
LINE
  5
6238
330
1E
100
AcDbEntity
  8
10
  6
CONTINOUS
100
AcDbLine
 10
11.0
 20
25.0
 30
0.0
 11
11.0
 21
-25.0
 31
0.0
  0
LINE
  5
6239
330
1E
100
AcDbEntity
  8
10
  6
CONTINOUS
100
AcDbLine
 10
-48.99999999999998
 20
25.0
 30
0.0
 11
-48.99999999999998
 21
-25.0
 31
0.0
  0
LINE
  5
623A
330
1E
100
AcDbEntity
  8
10
  6
CONTINOUS
100
AcDbLine
 10
-48.99999999999998
 20
-25.0
 30
0.0
 11
49.00000000000003
 21
-25.0
 31
0.0
  0
DIMENSION
  5
623B
330
1E
100
AcDbEntity
  8
30
  6
Continuous
100
AcDbDimension
  2
*D6
 10
10.99999999999999
 20
-40.45444641199117
 30
0.0
 11
-0.0000000000000016
 21
-37.45444641199117
 31
0.0
 70
    32
 71
     5
 42
-1.0
  3
STANDARD
100
AcDbAlignedDimension
 13
-11.0
 23
-25.0
 33
0.0
 14
11.0
 24
-25.0
 34
0.0
 50
180.0
100
AcDbRotatedDimension
1001
ACAD
1000
DSTYLE
1002
{
1070
    79
1070
     3
1002
}
  0
LINE
  5
623C
330
1E
100
AcDbEntity
  8
10
  6
CONTINOUS
100
AcDbLine
 10
-48.99999999999998
 20
25.0
 30
0.0
 11
49.00000000000003
 21
25.0
 31
0.0
  0
DIMENSION
  5
623D
330
1E
100
AcDbEntity
  8
30
  6
Continuous
100
AcDbDimension
  2
*D7
 10
49.00000000000003
 20
35.21319198619853
 30
0.0
 11
0.0000000000000215
 21
38.21319198619852
 31
0.0
 70
    32
 71
     5
 42
-1.0
  3
STANDARD
100
AcDbAlignedDimension
 13
-48.99999999999998
 23
25.0
 33
0.0
 14
49.00000000000003
 24
25.0
 34
0.0
100
AcDbRotatedDimension
1001
ACAD
1000
DSTYLE
1002
{
1070
    79
1070
     3
1002
}
  0
LINE
  5
623E
330
1E
100
AcDbEntity
  8
10
  6
CONTINOUS
100
AcDbLine
 10
7.000000000000013
 20
-18.5
 30
0.0
 11
7.000000000000082
 21
20.1548687058103
 31
0.0
  0
LINE
  5
623F
330
1E
100
AcDbEntity
  8
10
  6
CONTINOUS
100
AcDbLine
 10
-7.0
 20
-18.5
 30
0.0
 11
-6.999999999999912
 21
20.1548687058103
 31
0.0
  0
LINE
  5
6240
330
1E
100
AcDbEntity
  8
10
  6
CONTINOUS
100
AcDbLine
 10
-7.0
 20
-18.5
 30
0.0
 11
7.000000000000013
 21
-18.5
 31
0.0
  0
LINE
  5
6241
330
1E
100
AcDbEntity
  8
10
  6
CONTINOUS
100
AcDbLine
 10
7.000000000000013
 20
15.23995644007664
 30
0.0
 11
-7.0
 21
15.23995644007664
 31
0.0
  0
LINE
  5
6242
330
1E
100
AcDbEntity
  8
10
  6
CONTINOUS
100
AcDbLine
 10
7.000000000000013
 20
20.1548687058103
 30
0.0
 11
-7.000000000000894
 21
20.1548687058103
 31
0.0
  0
LINE
  5
6243
330
1E
100
AcDbEntity
  8
10
  6
CONTINOUS
100
AcDbLine
 10
7.000000000000013
 20
6.840789306861553
 30
0.0
 11
-6.99999999999909
 21
6.840789306861553
 31
0.0
  0
LINE
  5
6627
330
1E
100
AcDbEntity
  8
10
  6
CONTINOUS
100
AcDbLine
 10
52.5
 20
189.3138729996611
 30
0.0
 11
52.5
 21
279.3138729996611
 31
0.0
  0
LINE
  5
6629
330
1E
100
AcDbEntity
  8
10
  6
CONTINOUS
100
AcDbLine
 10
-52.5
 20
189.3138729996611
 30
0.0
 11
-52.5
 21
279.3138729996611
 31
0.0
  0
LINE
  5
662B
330
1E
100
AcDbEntity
  8
18
100
AcDbLine
 10
78.50000000000068
 20
193.3138729996611
 30
0.0
 11
-88.49999999999999
 21
193.3138729996611
 31
0.0
  0
LINE
  5
662C
330
1E
100
AcDbEntity
  8
10
  6
CONTINOUS
100
AcDbLine
 10
78.5000000000002
 20
189.3138729996611
 30
0.0
 11
-78.49999999999976
 21
189.3138729996611
 31
0.0
  0
LINE
  5
662D
330
1E
100
AcDbEntity
  8
10
  6
CONTINOUS
100
AcDbLine
 10
78.5000000000002
 20
174.313872999661
 30
0.0
 11
-78.49999999999976
 21
174.313872999661
 31
0.0
  0
LINE
  5
662E
330
1E
100
AcDbEntity
  8
10
  6
CONTINOUS
100
AcDbLine
 10
-78.5
 20
174.313872999661
 30
0.0
 11
-78.5
 21
189.3138729996611
 31
0.0
  0
LINE
  5
662F
330
1E
100
AcDbEntity
  8
10
  6
CONTINOUS
100
AcDbLine
 10
-78.5
 20
189.3138729996611
 30
0.0
 11
-83.49999999999999
 21
189.3138729996611
 31
0.0
  0
LINE
  5
6630
330
1E
100
AcDbEntity
  8
18
100
AcDbLine
 10
-83.49999999999999
 20
189.3138729996611
 30
0.0
 11
-88.49999999999999
 21
193.3138729996611
 31
0.0
  0
LINE
  5
6631
330
1E
100
AcDbEntity
  8
10
  6
CONTINOUS
100
AcDbLine
 10
49.0
 20
172.3138729996611
 30
0.0
 11
-49.0
 21
172.3138729996611
 31
0.0
  0
LINE
  5
6632
330
1E
100
AcDbEntity
  8
10
  6
CONTINOUS
100
AcDbLine
 10
11.0
 20
168.3138729996611
 30
0.0
 11
-11.0
 21
168.3138729996611
 31
0.0
  0
LINE
  5
6633
330
1E
100
AcDbEntity
  8
10
  6
CONTINOUS
100
AcDbLine
 10
-49.0
 20
172.3138729996611
 30
0.0
 11
-49.0
 21
174.313872999661
 31
0.0
  0
LINE
  5
6634
330
1E
100
AcDbEntity
  8
10
  6
CONTINOUS
100
AcDbLine
 10
7.0
 20
168.3138729996611
 30
0.0
 11
7.0
 21
156.3186192000659
 31
0.0
  0
LINE
  5
6635
330
1E
100
AcDbEntity
  8
10
  6
CONTINOUS
100
AcDbLine
 10
-7.0
 20
168.3138729996611
 30
0.0
 11
-7.0
 21
156.3186192000659
 31
0.0
  0
LINE
  5
6636
330
1E
100
AcDbEntity
  8
10
  6
CONTINOUS
100
AcDbLine
 10
-7.0
 20
156.3186192000659
 30
0.0
 11
7.0
 21
156.3186192000659
 31
0.0
  0
LINE
  5
6637
330
1E
100
AcDbEntity
  8
10
  6
CONTINOUS
100
AcDbLine
 10
-11.0
 20
168.3138729996611
 30
0.0
 11
-11.0
 21
172.3138729996611
 31
0.0
  0
LINE
  5
6638
330
1E
100
AcDbEntity
  8
10
  6
CONTINOUS
100
AcDbLine
 10
11.0
 20
168.3138729996611
 30
0.0
 11
11.0
 21
172.3138729996611
 31
0.0
  0
LINE
  5
6639
330
1E
100
AcDbEntity
  8
10
  6
CONTINOUS
100
AcDbLine
 10
49.0
 20
172.3138729996611
 30
0.0
 11
49.0
 21
174.313872999661
 31
0.0
  0
LINE
  5
663A
330
1E
100
AcDbEntity
  8
10
  6
CONTINOUS
100
AcDbLine
 10
78.5000000000002
 20
174.313872999661
 30
0.0
 11
78.5000000000002
 21
189.3138729996611
 31
0.0
  0
LINE
  5
663B
330
1E
100
AcDbEntity
  8
18
100
AcDbLine
 10
83.5000000000002
 20
189.3138729996611
 30
0.0
 11
78.5000000000002
 21
193.3138729996611
 31
0.0
  0
LINE
  5
663C
330
1E
100
AcDbEntity
  8
18
100
AcDbLine
 10
83.5000000000002
 20
189.3138729996611
 30
0.0
 11
78.5000000000002
 21
189.3138729996611
 31
0.0
  0
LINE
  5
663D
330
1E
100
AcDbEntity
  8
10
  6
CONTINOUS
100
AcDbLine
 10
52.5
 20
279.3138729996611
 30
0.0
 11
-52.5
 21
279.3138729996611
 31
0.0
  0
LINE
  5
6641
330
1E
100
AcDbEntity
  8
21
  6
Continuous
100
AcDbLine
 10
-10.0
 20
279.3138729996611
 30
0.0
 11
-10.0
 21
347.3138729996611
 31
0.0
  0
LINE
  5
6643
330
1E
100
AcDbEntity
  8
21
  6
Continuous
100
AcDbLine
 10
10.0
 20
279.3138729996611
 30
0.0
 11
10.0
 21
347.3138729996611
 31
0.0
  0
LINE
  5
6647
330
1E
100
AcDbEntity
  8
21
  6
Continuous
100
AcDbLine
 10
-32.0
 20
313.3138729996612
 30
0.0
 11
-32.0
 21
350.3138729996611
 31
0.0
  0
LINE
  5
6648
330
1E
100
AcDbEntity
  8
21
  6
Continuous
100
AcDbLine
 10
-38.0
 20
313.3138729996612
 30
0.0
 11
-38.0
 21
350.3138729996611
 31
0.0
  0
LINE
  5
6649
330
1E
100
AcDbEntity
  8
21
  6
Continuous
100
AcDbLine
 10
38.0
 20
313.3138729996612
 30
0.0
 11
38.0
 21
350.3138729996611
 31
0.0
  0
LINE
  5
664A
330
1E
100
AcDbEntity
  8
21
  6
Continuous
100
AcDbLine
 10
32.0
 20
313.3138729996612
 30
0.0
 11
32.0
 21
350.3138729996611
 31
0.0
  0
LINE
  5
664B
330
1E
100
AcDbEntity
  8
21
  6
Continuous
100
AcDbLine
 10
-45.0
 20
279.3138729996611
 30
0.0
 11
-45.0
 21
306.8138729996612
 31
0.0
  0
LINE
  5
664C
330
1E
100
AcDbEntity
  8
21
  6
Continuous
100
AcDbLine
 10
-25.0
 20
279.3138729996611
 30
0.0
 11
-25.0
 21
306.8138729996612
 31
0.0
  0
LINE
  5
664D
330
1E
100
AcDbEntity
  8
21
  6
Continuous
100
AcDbLine
 10
-25.0
 20
306.8138729996612
 30
0.0
 11
-45.0
 21
306.8138729996612
 31
0.0
  0
LINE
  5
664E
330
1E
100
AcDbEntity
  8
21
  6
Continuous
100
AcDbLine
 10
-40.0
 20
313.3138729996612
 30
0.0
 11
-38.0
 21
313.3138729996612
 31
0.0
  0
LINE
  5
664F
330
1E
100
AcDbEntity
  8
21
  6
Continuous
100
AcDbLine
 10
-40.0
 20
306.8138729996612
 30
0.0
 11
-40.0
 21
313.3138729996612
 31
0.0
  0
LINE
  5
6650
330
1E
100
AcDbEntity
  8
21
  6
Continuous
100
AcDbLine
 10
-32.0
 20
313.3138729996612
 30
0.0
 11
-30.0
 21
313.3138729996612
 31
0.0
  0
LINE
  5
6651
330
1E
100
AcDbEntity
  8
21
  6
Continuous
100
AcDbLine
 10
-30.0
 20
306.8138729996612
 30
0.0
 11
-30.0
 21
313.3138729996612
 31
0.0
  0
LINE
  5
6652
330
1E
100
AcDbEntity
  8
21
  6
Continuous
100
AcDbLine
 10
25.0
 20
279.3138729996611
 30
0.0
 11
25.0
 21
306.8138729996612
 31
0.0
  0
LINE
  5
6653
330
1E
100
AcDbEntity
  8
21
  6
Continuous
100
AcDbLine
 10
45.0
 20
279.3138729996611
 30
0.0
 11
45.0
 21
306.8138729996612
 31
0.0
  0
LINE
  5
6654
330
1E
100
AcDbEntity
  8
21
  6
Continuous
100
AcDbLine
 10
45.0
 20
306.8138729996612
 30
0.0
 11
25.0
 21
306.8138729996612
 31
0.0
  0
LINE
  5
6655
330
1E
100
AcDbEntity
  8
21
  6
Continuous
100
AcDbLine
 10
30.0
 20
313.3138729996612
 30
0.0
 11
32.0
 21
313.3138729996612
 31
0.0
  0
LINE
  5
6656
330
1E
100
AcDbEntity
  8
21
  6
Continuous
100
AcDbLine
 10
38.0
 20
313.3138729996612
 30
0.0
 11
40.0
 21
313.3138729996612
 31
0.0
  0
LINE
  5
6657
330
1E
100
AcDbEntity
  8
21
  6
Continuous
100
AcDbLine
 10
30.0
 20
306.8138729996612
 30
0.0
 11
30.0
 21
313.3138729996612
 31
0.0
  0
LINE
  5
6658
330
1E
100
AcDbEntity
  8
21
  6
Continuous
100
AcDbLine
 10
40.0
 20
306.8138729996612
 30
0.0
 11
40.0
 21
313.3138729996612
 31
0.0
  0
LINE
  5
6659
330
1E
100
AcDbEntity
  8
17
100
AcDbLine
 10
13.0
 20
370.3138729996611
 30
0.0
 11
-13.0
 21
370.3138729996611
 31
0.0
  0
LINE
  5
665A
330
1E
100
AcDbEntity
  8
21
  6
Continuous
100
AcDbLine
 10
3.0
 20
353.8138729996611
 30
0.0
 11
3.0
 21
385.3138729996611
 31
0.0
  0
LINE
  5
665B
330
1E
100
AcDbEntity
  8
21
  6
Continuous
100
AcDbLine
 10
-3.0
 20
353.8138729996611
 30
0.0
 11
-3.0
 21
385.3138729996611
 31
0.0
  0
LINE
  5
665C
330
1E
100
AcDbEntity
  8
17
100
AcDbLine
 10
-22.0
 20
335.3138729996611
 30
0.0
 11
-48.0
 21
335.3138729996611
 31
0.0
  0
LINE
  5
665D
330
1E
100
AcDbEntity
  8
21
  6
Continuous
100
AcDbLine
 10
-38.0
 20
350.3138729996611
 30
0.0
 11
-32.0
 21
350.3138729996611
 31
0.0
  0
LINE
  5
665E
330
1E
100
AcDbEntity
  8
21
  6
Continuous
100
AcDbLine
 10
10.0
 20
347.3138729996611
 30
0.0
 11
-10.0
 21
347.3138729996611
 31
0.0
  0
LINE
  5
665F
330
1E
100
AcDbEntity
  8
21
  6
Continuous
100
AcDbLine
 10
-3.0
 20
353.8138729996611
 30
0.0
 11
-5.0
 21
353.8138729996611
 31
0.0
  0
LINE
  5
6660
330
1E
100
AcDbEntity
  8
21
  6
Continuous
100
AcDbLine
 10
-5.0
 20
347.3138729996611
 30
0.0
 11
-5.0
 21
353.8138729996611
 31
0.0
  0
LINE
  5
6661
330
1E
100
AcDbEntity
  8
21
  6
Continuous
100
AcDbLine
 10
5.0
 20
353.8138729996611
 30
0.0
 11
3.0
 21
353.8138729996611
 31
0.0
  0
LINE
  5
6662
330
1E
100
AcDbEntity
  8
21
  6
Continuous
100
AcDbLine
 10
5.0
 20
347.3138729996611
 30
0.0
 11
5.0
 21
353.8138729996611
 31
0.0
  0
LINE
  5
6663
330
1E
100
AcDbEntity
  8
21
  6
Continuous
100
AcDbLine
 10
-3.0
 20
385.3138729996611
 30
0.0
 11
3.0
 21
385.3138729996611
 31
0.0
  0
LINE
  5
6665
330
1E
100
AcDbEntity
  8
17
100
AcDbLine
 10
47.99999999999954
 20
335.3138729996611
 30
0.0
 11
21.99999999999953
 21
335.3138729996611
 31
0.0
  0
LINE
  5
6666
330
1E
100
AcDbEntity
  8
21
  6
Continuous
100
AcDbLine
 10
32.0
 20
350.3138729996611
 30
0.0
 11
38.0
 21
350.3138729996611
 31
0.0
  0
DIMENSION
  5
666D
330
1E
100
AcDbEntity
  8
30
  6
Continuous
100
AcDbDimension
  2
*D18
 10
0.0000000000000006
 20
394.3032458915809
 30
0.0
 11
-17.5
 21
397.3032458915809
 31
0.0
 70
    32
 71
     5
 42
-1.0
  3
STANDARD
100
AcDbAlignedDimension
 13
-35.0
 23
350.3138729996611
 33
0.0
 14
0.0
 24
385.3138729996611
 34
0.0
100
AcDbRotatedDimension
1001
ACAD
1000
DSTYLE
1002
{
1070
    79
1070
     3
1002
}
  0
DIMENSION
  5
666F
330
1E
100
AcDbEntity
  8
30
  6
Continuous
100
AcDbDimension
  2
*D19
 10
35.0
 20
394.3032458915809
 30
0.0
 11
17.5
 21
397.3032458915809
 31
0.0
 70
    32
 71
     5
 42
-1.0
  3
STANDARD
100
AcDbAlignedDimension
 13
0.0
 23
385.3138729996611
 33
0.0
 14
35.0
 24
350.3138729996611
 34
0.0
100
AcDbRotatedDimension
1001
ACAD
1000
DSTYLE
1002
{
1070
   287
1070
     4
1070
   287
1070
     4
1070
   279
1070
     1
1070
    79
1070
     3
1002
}
  0
MTEXT
  5
687C
330
1E
100
AcDbEntity
  8
30
  6
Continuous
100
AcDbMText
 10
243.3080333457709
 20
236.4765021353135
 30
0.0
 40
5.0
 41
224.0
 71
     1
 72
     5
  1
H100-NF 3P FP\PL100-NF 3P FP\PH125-NF 3P FP\PL125-NF 3P FP\PH225-NF 3P FP\PL225-NF 3P FP\PH250-NF 3P FP\PL250-NF 3P FP\PS225-GE 3P FP\PS225-PE 3P FP\PH225-NE 3P FP
  7
STANDARD1
 73
     1
 44
1.0
1001
ACAD
1000
MTEXTBEGIN
1070
    73
1070
     1
1070
    44
1040
1.0
1070
    74
1070
     0
1000
MTEXTEND
  0
LINE
  5
6AC4
330
1E
100
AcDbEntity
  8
1
  6
Continuous
 62
     3
100
AcDbLine
 10
57.91299999999978
 20
278.2138729996611
 30
0.0
 11
57.91299999999978
 21
279.3138729996611
 31
0.0
  0
LINE
  5
6AC5
330
1E
100
AcDbEntity
  8
1
  6
Continuous
 62
     3
100
AcDbLine
 10
-61.0
 20
283.5138729996611
 30
0.0
 11
-61.0
 21
281.9138729996611
 31
0.0
  0
LINE
  5
6AC6
330
1E
100
AcDbEntity
  8
1
  6
Continuous
 62
     3
100
AcDbLine
 10
-60.0999999999999
 20
189.3138729996611
 30
0.0
 11
-60.0999999999999
 21
279.3138729996611
 31
0.0
  0
LINE
  5
6AC7
330
1E
100
AcDbEntity
  8
1
  6
Continuous
 62
     3
100
AcDbLine
 10
59.85000000000013
 20
284.6138729996612
 30
0.0
 11
51.15000000000009
 21
284.6138729996612
 31
0.0
  0
LINE
  5
6AC8
330
1E
100
AcDbEntity
  8
1
  6
Continuous
 62
     3
100
AcDbLine
 10
51.10000000000013
 20
285.5138729996611
 30
0.0
 11
51.10000000000013
 21
284.6138729996612
 31
0.0
  0
LINE
  5
6AC9
330
1E
100
AcDbEntity
  8
1
  6
Continuous
 62
     3
100
AcDbLine
 10
-58.89999999999986
 20
288.9638729996611
 30
0.0
 11
-52.09999999999979
 21
288.9638729996611
 31
0.0
  0
LINE
  5
6ACA
330
1E
100
AcDbEntity
  8
1
  6
Continuous
 62
     3
100
AcDbLine
 10
-51.15000000000009
 20
284.6138729996612
 30
0.0
 11
-59.85000000000013
 21
284.6138729996612
 31
0.0
  0
LINE
  5
6ACB
330
1E
100
AcDbEntity
  8
1
  6
Continuous
 62
     3
100
AcDbLine
 10
53.08699999999987
 20
278.2138729996611
 30
0.0
 11
53.08699999999987
 21
279.3138729996611
 31
0.0
  0
LINE
  5
6ACC
330
1E
100
AcDbEntity
  8
1
  6
Continuous
 62
     3
100
AcDbLine
 10
-59.90000000000009
 20
285.7138729996611
 30
0.0
 11
-51.10000000000013
 21
285.7138729996611
 31
0.0
  0
LINE
  5
6ACD
330
1E
100
AcDbEntity
  8
1
  6
Continuous
 62
     3
100
AcDbLine
 10
51.10000000000013
 20
285.7138729996611
 30
0.0
 11
59.90000000000009
 21
285.7138729996611
 31
0.0
  0
LINE
  5
6ACE
330
1E
100
AcDbEntity
  8
1
  6
Continuous
 62
     3
100
AcDbLine
 10
61.0
 20
279.3138729996611
 30
0.0
 11
61.0
 21
281.9138729996611
 31
0.0
  0
LINE
  5
6ACF
330
1E
100
AcDbEntity
  8
1
  6
Continuous
 62
     3
100
AcDbLine
 10
-50.74999999999988
 20
284.2138729996611
 30
0.0
 11
-50.74999999999988
 21
283.5138729996611
 31
0.0
  0
LINE
  5
6AD0
330
1E
100
AcDbEntity
  8
1
  6
Continuous
 62
     3
100
AcDbLine
 10
45.0
 20
281.9138729996611
 30
0.0
 11
61.0
 21
281.9138729996611
 31
0.0
  0
LINE
  5
6AD1
330
1E
100
AcDbEntity
  8
1
  6
Continuous
 62
     3
100
AcDbLine
 10
52.09999999999979
 20
288.9638729996611
 30
0.0
 11
58.89999999999986
 21
288.9638729996611
 31
0.0
  0
LINE
  5
6AD2
330
1E
100
AcDbEntity
  8
1
  6
Continuous
 62
     3
100
AcDbLine
 10
-61.0
 20
279.3138729996611
 30
0.0
 11
-61.0
 21
281.9138729996611
 31
0.0
  0
LINE
  5
6AD3
330
1E
100
AcDbEntity
  8
1
  6
Continuous
 62
     3
100
AcDbLine
 10
59.90000000000009
 20
287.9638729996612
 30
0.0
 11
59.90000000000009
 21
285.7138729996611
 31
0.0
  0
LINE
  5
6AD4
330
1E
100
AcDbEntity
  8
1
  6
Continuous
 62
     3
100
AcDbLine
 10
-55.24443999999993
 20
285.7138729996611
 30
0.0
 11
-55.34067750000019
 21
284.6138729996612
 31
0.0
  0
LINE
  5
6AD5
330
1E
100
AcDbEntity
  8
1
  6
Continuous
 62
     3
100
AcDbLine
 10
51.29999999999995
 20
285.7138729996611
 30
0.0
 11
59.70000000000005
 21
285.7138729996611
 31
0.0
  0
LINE
  5
6AD6
330
1E
100
AcDbEntity
  8
1
  6
Continuous
 62
     3
100
AcDbLine
 10
57.62432499999988
 20
277.7138729996611
 30
0.0
 11
57.91299999999978
 21
278.2138729996611
 31
0.0
  0
LINE
  5
6AD7
330
1E
100
AcDbEntity
  8
1
  6
Continuous
 62
     3
100
AcDbLine
 10
-57.91300000000001
 20
278.2138729996611
 30
0.0
 11
-57.62432499999988
 21
277.7138729996611
 31
0.0
  0
LINE
  5
6AD8
330
1E
100
AcDbEntity
  8
1
  6
Continuous
 62
     3
100
AcDbLine
 10
-61.0
 20
281.9138729996611
 30
0.0
 11
-45.0
 21
281.9138729996611
 31
0.0
  0
LINE
  5
6AD9
330
1E
100
AcDbEntity
  8
1
  6
Continuous
 62
     3
100
AcDbLine
 10
60.0999999999999
 20
189.3138729996611
 30
0.0
 11
60.0999999999999
 21
279.3138729996611
 31
0.0
  0
LINE
  5
6ADA
330
1E
100
AcDbEntity
  8
1
  6
Continuous
 62
     3
100
AcDbLine
 10
-57.91300000000001
 20
278.2138729996611
 30
0.0
 11
-57.91300000000001
 21
279.3138729996611
 31
0.0
  0
LINE
  5
6ADB
330
1E
100
AcDbEntity
  8
1
  6
Continuous
 62
     3
100
AcDbLine
 10
50.74999999999988
 20
284.2138729996611
 30
0.0
 11
50.74999999999988
 21
283.5138729996611
 31
0.0
  0
LINE
  5
6ADC
330
1E
100
AcDbEntity
  8
1
  6
Continuous
 62
     3
100
AcDbLine
 10
59.90000000000009
 20
285.5138729996611
 30
0.0
 11
59.90000000000009
 21
284.6138729996612
 31
0.0
  0
LINE
  5
6ADD
330
1E
100
AcDbEntity
  8
1
  6
Continuous
 62
     3
100
AcDbLine
 10
-60.25
 20
284.2138729996611
 30
0.0
 11
-60.25
 21
283.5138729996611
 31
0.0
  0
LINE
  5
6ADE
330
1E
100
AcDbEntity
  8
1
  6
Continuous
 62
     3
100
AcDbLine
 10
-51.10000000000013
 20
287.9638729996612
 30
0.0
 11
-51.10000000000013
 21
285.7138729996611
 31
0.0
  0
LINE
  5
6ADF
330
1E
100
AcDbEntity
  8
1
  6
Continuous
 62
     3
100
AcDbLine
 10
-53.08699999999987
 20
278.2138729996611
 30
0.0
 11
-53.08699999999987
 21
279.3138729996611
 31
0.0
  0
LINE
  5
6AE0
330
1E
100
AcDbEntity
  8
1
  6
Continuous
 62
     3
100
AcDbLine
 10
61.0
 20
281.9138729996611
 30
0.0
 11
61.0
 21
283.5138729996611
 31
0.0
  0
LINE
  5
6AE1
330
1E
100
AcDbEntity
  8
1
  6
Continuous
 62
     3
100
AcDbLine
 10
58.5
 20
279.3138729996611
 30
0.0
 11
58.5
 21
189.3138729996611
 31
0.0
  0
LINE
  5
6AE2
330
1E
100
AcDbEntity
  8
1
  6
Continuous
 62
     3
100
AcDbLine
 10
60.25
 20
284.2138729996611
 30
0.0
 11
60.25
 21
283.5138729996611
 31
0.0
  0
LINE
  5
6AE3
330
1E
100
AcDbEntity
  8
1
  6
Continuous
 62
     3
100
AcDbLine
 10
54.85817499999996
 20
284.6138729996612
 30
0.0
 11
54.95441249999998
 21
285.7138729996611
 31
0.0
  0
LINE
  5
6AE4
330
1E
100
AcDbEntity
  8
1
  6
Continuous
 62
     3
100
AcDbLine
 10
-59.90000000000009
 20
285.5138729996611
 30
0.0
 11
-59.90000000000009
 21
284.6138729996612
 31
0.0
  0
LINE
  5
6AE5
330
1E
100
AcDbEntity
  8
1
  6
Continuous
 62
     3
100
AcDbLine
 10
-57.62432499999988
 20
277.7138729996611
 30
0.0
 11
-53.375675
 21
277.7138729996611
 31
0.0
  0
LINE
  5
6AE6
330
1E
100
AcDbEntity
  8
1
  6
Continuous
 62
     3
100
AcDbLine
 10
-53.375675
 20
277.7138729996611
 30
0.0
 11
-53.08699999999987
 21
278.2138729996611
 31
0.0
  0
LINE
  5
6AE8
330
1E
100
AcDbEntity
  8
1
  6
Continuous
 62
     3
100
AcDbLine
 10
-58.5
 20
189.3138729996611
 30
0.0
 11
-58.5
 21
279.3138729996611
 31
0.0
  0
LINE
  5
6AE9
330
1E
100
AcDbEntity
  8
1
  6
Continuous
 62
     3
100
AcDbLine
 10
-25.0
 20
281.9138729996611
 30
0.0
 11
-10.0
 21
281.9138729996611
 31
0.0
  0
LINE
  5
6AEA
330
1E
100
AcDbEntity
  8
1
  6
Continuous
 62
     3
100
AcDbLine
 10
51.10000000000013
 20
287.9638729996612
 30
0.0
 11
51.10000000000013
 21
285.7138729996611
 31
0.0
  0
LINE
  5
6AEB
330
1E
100
AcDbEntity
  8
1
  6
Continuous
 62
     3
100
AcDbLine
 10
-51.10000000000013
 20
285.5138729996611
 30
0.0
 11
-51.10000000000013
 21
284.6138729996612
 31
0.0
  0
LINE
  5
6AEC
330
1E
100
AcDbEntity
  8
1
  6
Continuous
 62
     3
100
AcDbLine
 10
-59.70000000000005
 20
285.7138729996611
 30
0.0
 11
-51.29999999999995
 21
285.7138729996611
 31
0.0
  0
LINE
  5
6AED
330
1E
100
AcDbEntity
  8
1
  6
Continuous
 62
     3
100
AcDbLine
 10
53.08699999999987
 20
278.2138729996611
 30
0.0
 11
53.375675
 21
277.7138729996611
 31
0.0
  0
LINE
  5
6AEE
330
1E
100
AcDbEntity
  8
1
  6
Continuous
 62
     3
100
AcDbLine
 10
25.0
 20
284.5138729996611
 30
0.0
 11
10.0
 21
284.5138729996611
 31
0.0
  0
LINE
  5
6AEF
330
1E
100
AcDbEntity
  8
1
  6
Continuous
 62
     3
100
AcDbLine
 10
10.0
 20
281.9138729996611
 30
0.0
 11
25.0
 21
281.9138729996611
 31
0.0
  0
LINE
  5
6AF0
330
1E
100
AcDbEntity
  8
1
  6
Continuous
 62
     3
100
AcDbLine
 10
-61.0
 20
283.5138729996611
 30
0.0
 11
-45.0
 21
283.5138729996611
 31
0.0
  0
LINE
  5
6AF1
330
1E
100
AcDbEntity
  8
1
  6
Continuous
 62
     3
100
AcDbLine
 10
55.75556000000005
 20
285.7138729996611
 30
0.0
 11
55.65932250000003
 21
284.6138729996612
 31
0.0
  0
LINE
  5
6AF2
330
1E
100
AcDbEntity
  8
1
  6
Continuous
 62
     3
100
AcDbLine
 10
-56.14182499999992
 20
284.6138729996612
 30
0.0
 11
-56.04558750000001
 21
285.7138729996611
 31
0.0
  0
LINE
  5
6AF3
330
1E
100
AcDbEntity
  8
1
  6
Continuous
 62
     3
100
AcDbLine
 10
-59.90000000000009
 20
287.9638729996612
 30
0.0
 11
-59.90000000000009
 21
285.7138729996611
 31
0.0
  0
LINE
  5
6AF4
330
1E
100
AcDbEntity
  8
1
  6
Continuous
 62
     3
100
AcDbLine
 10
53.375675
 20
277.7138729996611
 30
0.0
 11
57.62432499999988
 21
277.7138729996611
 31
0.0
  0
LINE
  5
6AF5
330
1E
100
AcDbEntity
  8
1
  6
Continuous
 62
     3
100
AcDbLine
 10
-10.0
 20
284.5138729996611
 30
0.0
 11
-25.0
 21
284.5138729996611
 31
0.0
  0
LINE
  5
6AF6
330
1E
100
AcDbEntity
  8
1
  6
Continuous
 62
     3
100
AcDbLine
 10
45.0
 20
283.5138729996611
 30
0.0
 11
61.0
 21
283.5138729996611
 31
0.0
  0
ARC
  5
6AF7
330
1E
100
AcDbEntity
  8
1
  6
Continuous
 62
     3
100
AcDbCircle
 10
58.89999999999986
 20
287.9638729996612
 30
0.0
 40
1.0
100
AcDbArc
 50
0.0
 51
90.0
  0
ARC
  5
6AF8
330
1E
100
AcDbEntity
  8
1
  6
Continuous
 62
     3
100
AcDbCircle
 10
-51.15000000000009
 20
284.2138729996611
 30
0.0
 40
0.4
100
AcDbArc
 50
0.0
 51
90.0
  0
ARC
  5
6AF9
330
1E
100
AcDbEntity
  8
1
  6
Continuous
 62
     3
100
AcDbCircle
 10
51.15000000000009
 20
284.2138729996611
 30
0.0
 40
0.4
100
AcDbArc
 50
90.0
 51
180.0
  0
ARC
  5
6AFA
330
1E
100
AcDbEntity
  8
1
  6
Continuous
 62
     3
100
AcDbCircle
 10
59.70000000000005
 20
285.5138729996611
 30
0.0
 40
0.2
100
AcDbArc
 50
0.0
 51
90.0
  0
ARC
  5
6AFB
330
1E
100
AcDbEntity
  8
1
  6
Continuous
 62
     3
100
AcDbCircle
 10
-52.09999999999979
 20
287.9638729996612
 30
0.0
 40
1.0
100
AcDbArc
 50
0.0
 51
90.0
  0
ARC
  5
6AFC
330
1E
100
AcDbEntity
  8
1
  6
Continuous
 62
     3
100
AcDbCircle
 10
51.29999999999995
 20
285.5138729996611
 30
0.0
 40
0.2
100
AcDbArc
 50
90.0
 51
180.0
  0
ARC
  5
6AFD
330
1E
100
AcDbEntity
  8
1
  6
Continuous
 62
     3
100
AcDbCircle
 10
-59.70000000000005
 20
285.5138729996611
 30
0.0
 40
0.2
100
AcDbArc
 50
90.0
 51
180.0
  0
ARC
  5
6AFE
330
1E
100
AcDbEntity
  8
1
  6
Continuous
 62
     3
100
AcDbCircle
 10
-58.89999999999986
 20
287.9638729996612
 30
0.0
 40
1.0
100
AcDbArc
 50
90.0
 51
180.0
  0
ARC
  5
6AFF
330
1E
100
AcDbEntity
  8
1
  6
Continuous
 62
     3
100
AcDbCircle
 10
-59.85000000000013
 20
284.2138729996611
 30
0.0
 40
0.4
100
AcDbArc
 50
90.0
 51
180.0
  0
ARC
  5
6B00
330
1E
100
AcDbEntity
  8
1
  6
Continuous
 62
     3
100
AcDbCircle
 10
52.09999999999979
 20
287.9638729996612
 30
0.0
 40
1.0
100
AcDbArc
 50
90.0
 51
180.0
  0
ARC
  5
6B01
330
1E
100
AcDbEntity
  8
1
  6
Continuous
 62
     3
100
AcDbCircle
 10
59.85000000000013
 20
284.2138729996611
 30
0.0
 40
0.4
100
AcDbArc
 50
0.0
 51
90.0
  0
ARC
  5
6B02
330
1E
100
AcDbEntity
  8
1
  6
Continuous
 62
     3
100
AcDbCircle
 10
-51.29999999999995
 20
285.5138729996611
 30
0.0
 40
0.2
100
AcDbArc
 50
0.0
 51
90.0
  0
LINE
  5
6C90
330
1E
100
AcDbEntity
  8
16
100
AcDbLine
 10
337.6420106438391
 20
0.0
 30
0.0
 11
159.0
 21
0.0
 31
0.0
  0
LINE
  5
6C91
330
1E
100
AcDbEntity
  8
10
  6
CONTINOUS
100
AcDbLine
 10
201.4767630316693
 20
96.0
 30
0.0
 11
201.4767630316693
 21
-96.0
 31
0.0
  0
LINE
  5
6C92
330
1E
100
AcDbEntity
  8
10
  6
CONTINOUS
100
AcDbLine
 10
186.4767630316693
 20
96.0
 30
0.0
 11
186.4767630316693
 21
-96.0
 31
0.0
  0
LINE
  5
6C93
330
1E
100
AcDbEntity
  8
18
100
AcDbLine
 10
205.4767630316693
 20
101.0
 30
0.0
 11
205.4767630316693
 21
-110.9999999999997
 31
0.0
  0
LINE
  5
6C94
330
1E
100
AcDbEntity
  8
17
100
AcDbLine
 10
286.4767630316691
 20
-72.0
 30
0.0
 11
407.9767630316696
 21
-72.0
 31
0.0
  0
LINE
  5
6C95
330
1E
100
AcDbEntity
  8
17
100
AcDbLine
 10
286.4767630316695
 20
72.0
 30
0.0
 11
402.4767630316691
 21
72.0
 31
0.0
  0
LINE
  5
6C96
330
1E
100
AcDbEntity
  8
10
  6
CONTINOUS
100
AcDbLine
 10
201.4767630316693
 20
-82.5
 30
0.0
 11
291.4767630316695
 21
-82.5
 31
0.0
  0
LINE
  5
6C97
330
1E
100
AcDbEntity
  8
10
  6
CONTINOUS
100
AcDbLine
 10
186.4767630316693
 20
-96.0
 30
0.0
 11
201.4767630316693
 21
-96.0
 31
0.0
  0
LINE
  5
6C98
330
1E
100
AcDbEntity
  8
18
100
AcDbLine
 10
201.4767630316693
 20
-106.0
 30
0.0
 11
205.4767630316693
 21
-110.9999999999997
 31
0.0
  0
LINE
  5
6C99
330
1E
100
AcDbEntity
  8
18
100
AcDbLine
 10
201.4767630316693
 20
-96.0
 30
0.0
 11
201.4767630316693
 21
-106.0
 31
0.0
  0
LINE
  5
6C9A
330
1E
100
AcDbEntity
  8
21
  6
Continuous
100
AcDbLine
 10
291.4767630316696
 20
-82.0
 30
0.0
 11
359.797271107358
 21
-82.0
 31
0.0
  0
LINE
  5
6C9B
330
1E
100
AcDbEntity
  8
21
  6
Continuous
100
AcDbLine
 10
291.4767630316696
 20
-62.0
 30
0.0
 11
359.797271107358
 21
-62.0
 31
0.0
  0
ARC
  5
6C9C
330
1E
100
AcDbEntity
  8
21
  6
Continuous
100
AcDbCircle
 10
-344.8416797627062
 20
-72.0
 30
0.0
 40
20.0
210
0.0
220
0.0
230
-1.0
100
AcDbArc
 50
14.47751218592907
 51
29.99999999999972
  0
LINE
  5
6C9D
330
1E
100
AcDbEntity
  8
21
  6
Continuous
100
AcDbLine
 10
318.9767630316695
 20
-62.0
 30
0.0
 11
318.9767630316695
 21
-82.0
 31
0.0
  0
ARC
  5
6C9E
330
1E
100
AcDbEntity
  8
21
  6
Continuous
100
AcDbCircle
 10
-344.8416797627062
 20
-72.0
 30
0.0
 40
20.0
210
0.0
220
0.0
230
-1.0
100
AcDbArc
 50
330.0000000000003
 51
345.5224878140709
  0
LINE
  5
6C9F
330
1E
100
AcDbEntity
  8
21
  6
Continuous
100
AcDbLine
 10
318.9767630316695
 20
-77.0
 30
0.0
 11
325.4767630316695
 21
-77.0
 31
0.0
  0
LINE
  5
6CA0
330
1E
100
AcDbEntity
  8
21
  6
Continuous
100
AcDbLine
 10
318.9767630316695
 20
-67.0
 30
0.0
 11
325.4767630316695
 21
-67.0
 31
0.0
  0
ARC
  5
6CA1
330
1E
100
AcDbEntity
  8
21
  6
Continuous
100
AcDbCircle
 10
-379.8416797627063
 20
-72.0
 30
0.0
 40
20.0
210
0.0
220
0.0
230
-1.0
100
AcDbArc
 50
20.91309481829497
 51
29.99999999999972
  0
ARC
  5
6CA2
330
1E
100
AcDbEntity
  8
21
  6
Continuous
100
AcDbCircle
 10
377.4767630316694
 20
-72.0
 30
0.0
 40
20.0
100
AcDbArc
 50
330.0000000000003
 51
29.99999999999972
  0
ARC
  5
6CA3
330
1E
100
AcDbEntity
  8
21
  6
Continuous
100
AcDbCircle
 10
342.4767630316695
 20
-72.0
 30
0.0
 40
20.0
100
AcDbArc
 50
330.0000000000003
 51
29.99999999999972
  0
LINE
  5
6CA4
330
1E
100
AcDbEntity
  8
17
100
AcDbLine
 10
382.4767630316694
 20
-59.0
 30
0.0
 11
382.4767630316694
 21
-85.0
 31
0.0
  0
LINE
  5
6CA5
330
1E
100
AcDbEntity
  8
17
100
AcDbLine
 10
347.4767630316694
 20
-59.0
 30
0.0
 11
347.4767630316694
 21
-85.0
 31
0.0
  0
LINE
  5
6CA6
330
1E
100
AcDbEntity
  8
21
  6
Continuous
100
AcDbLine
 10
362.5211716870178
 20
-82.0
 30
0.0
 11
394.797271107358
 21
-82.0
 31
0.0
  0
ARC
  5
6CA7
330
1E
100
AcDbEntity
  8
21
  6
Continuous
100
AcDbCircle
 10
-379.8416797627063
 20
-72.0
 30
0.0
 40
20.0
210
0.0
220
0.0
230
-1.0
100
AcDbArc
 50
330.0000000000003
 51
339.086905181705
  0
CIRCLE
  5
6CA8
330
1E
100
AcDbEntity
  8
24
  6
Continuous
100
AcDbCircle
 10
347.4767630316694
 20
-72.0
 30
0.0
 40
4.5
  0
CIRCLE
  5
6CA9
330
1E
100
AcDbEntity
  8
21
  6
Continuous
100
AcDbCircle
 10
382.4767630316694
 20
-72.0
 30
0.0
 40
4.5
  0
LINE
  5
6CAA
330
1E
100
AcDbEntity
  8
21
  6
Continuous
100
AcDbLine
 10
362.5211716870178
 20
-62.0
 30
0.0
 11
394.797271107358
 21
-62.0
 31
0.0
  0
LINE
  5
6CAB
330
1E
100
AcDbEntity
  8
10
  6
CONTINOUS
100
AcDbLine
 10
291.4767630316695
 20
82.5
 30
0.0
 11
201.4767630316693
 21
82.5
 31
0.0
  0
LINE
  5
6CAC
330
1E
100
AcDbEntity
  8
10
  6
CONTINOUS
100
AcDbLine
 10
184.4767630316693
 20
25.0
 30
0.0
 11
184.4767630316693
 21
-25.0
 31
0.0
  0
LINE
  5
6CAD
330
1E
100
AcDbEntity
  8
10
  6
CONTINOUS
100
AcDbLine
 10
180.4767630316693
 20
25.0
 30
0.0
 11
180.4767630316693
 21
-25.0
 31
0.0
  0
LINE
  5
6CAE
330
1E
100
AcDbEntity
  8
10
  6
CONTINOUS
100
AcDbLine
 10
180.4767630316693
 20
-25.0
 30
0.0
 11
186.4767630316693
 21
-25.0
 31
0.0
  0
ARC
  5
6CAF
330
1E
100
AcDbEntity
  8
30
  6
Continuous
100
AcDbCircle
 10
195.4767630316695
 20
0.0
 30
0.0
 40
31.0
100
AcDbArc
 50
150.5534441956586
 51
180.0
  0
LINE
  5
6CB0
330
1E
100
AcDbEntity
  8
10
  6
CONTINOUS
100
AcDbLine
 10
180.4767630316693
 20
6.840789306861294
 30
0.0
 11
168.481509232074
 21
15.23995644007664
 31
0.0
  0
LINE
  5
6CB1
330
1E
100
AcDbEntity
  8
10
  6
CONTINOUS
100
AcDbLine
 10
180.4767630316693
 20
14.16543683943003
 30
0.0
 11
171.9229678501803
 21
20.15486870581057
 31
0.0
  0
LINE
  5
6CB2
330
1E
100
AcDbEntity
  8
10
  6
CONTINOUS
100
AcDbLine
 10
168.481509232074
 20
15.23995644007664
 30
0.0
 11
171.9229678501803
 21
20.15486870581057
 31
0.0
  0
LINE
  5
6CB3
330
1E
100
AcDbEntity
  8
10
  6
CONTINOUS
100
AcDbLine
 10
180.4767630316693
 20
25.0
 30
0.0
 11
186.4767630316693
 21
25.0
 31
0.0
  0
LINE
  5
6CB4
330
1E
100
AcDbEntity
  8
21
  6
Continuous
100
AcDbLine
 10
325.4767630316695
 20
69.0
 30
0.0
 11
362.4767630316694
 21
69.0
 31
0.0
  0
LINE
  5
6CB5
330
1E
100
AcDbEntity
  8
21
  6
Continuous
100
AcDbLine
 10
325.4767630316695
 20
75.0
 30
0.0
 11
362.4767630316694
 21
75.0
 31
0.0
  0
LINE
  5
6CB6
330
1E
100
AcDbEntity
  8
21
  6
Continuous
100
AcDbLine
 10
291.4767630316695
 20
62.0
 30
0.0
 11
359.4767630316693
 21
62.0
 31
0.0
  0
LINE
  5
6CB7
330
1E
100
AcDbEntity
  8
21
  6
Continuous
100
AcDbLine
 10
291.4767630316695
 20
82.0
 30
0.0
 11
359.4767630316693
 21
82.0
 31
0.0
  0
LINE
  5
6CB8
330
1E
100
AcDbEntity
  8
21
  6
Continuous
100
AcDbLine
 10
318.9767630316695
 20
82.0
 30
0.0
 11
318.9767630316695
 21
62.0
 31
0.0
  0
LINE
  5
6CB9
330
1E
100
AcDbEntity
  8
21
  6
Continuous
100
AcDbLine
 10
325.4767630316695
 20
69.0
 30
0.0
 11
325.4767630316695
 21
67.0
 31
0.0
  0
LINE
  5
6CBA
330
1E
100
AcDbEntity
  8
21
  6
Continuous
100
AcDbLine
 10
318.9767630316695
 20
67.0
 30
0.0
 11
325.4767630316695
 21
67.0
 31
0.0
  0
LINE
  5
6CBB
330
1E
100
AcDbEntity
  8
21
  6
Continuous
100
AcDbLine
 10
325.4767630316695
 20
77.0
 30
0.0
 11
325.4767630316695
 21
75.0
 31
0.0
  0
LINE
  5
6CBC
330
1E
100
AcDbEntity
  8
21
  6
Continuous
100
AcDbLine
 10
318.9767630316695
 20
77.0
 30
0.0
 11
325.4767630316695
 21
77.0
 31
0.0
  0
LINE
  5
6CBD
330
1E
100
AcDbEntity
  8
21
  6
Continuous
100
AcDbLine
 10
365.9767630316692
 20
75.0
 30
0.0
 11
397.4767630316694
 21
75.0
 31
0.0
  0
LINE
  5
6CBE
330
1E
100
AcDbEntity
  8
21
  6
Continuous
100
AcDbLine
 10
365.9767630316692
 20
69.0
 30
0.0
 11
397.4767630316694
 21
69.0
 31
0.0
  0
LINE
  5
6CBF
330
1E
100
AcDbEntity
  8
21
  6
Continuous
100
AcDbLine
 10
362.4767630316694
 20
69.0
 30
0.0
 11
362.4767630316694
 21
75.0
 31
0.0
  0
LINE
  5
6CC0
330
1E
100
AcDbEntity
  8
17
100
AcDbLine
 10
347.4767630316694
 20
85.0
 30
0.0
 11
347.4767630316694
 21
59.0
 31
0.0
  0
LINE
  5
6CC1
330
1E
100
AcDbEntity
  8
21
  6
Continuous
100
AcDbLine
 10
359.4767630316693
 20
69.0
 30
0.0
 11
359.4767630316693
 21
62.0
 31
0.0
  0
LINE
  5
6CC2
330
1E
100
AcDbEntity
  8
21
  6
Continuous
100
AcDbLine
 10
359.4767630316693
 20
67.0
 30
0.0
 11
365.9767630316693
 21
67.0
 31
0.0
  0
LINE
  5
6CC3
330
1E
100
AcDbEntity
  8
21
  6
Continuous
100
AcDbLine
 10
365.9767630316693
 20
69.0
 30
0.0
 11
365.9767630316693
 21
67.0
 31
0.0
  0
LINE
  5
6CC4
330
1E
100
AcDbEntity
  8
21
  6
Continuous
100
AcDbLine
 10
359.4767630316693
 20
77.0
 30
0.0
 11
365.9767630316693
 21
77.0
 31
0.0
  0
LINE
  5
6CC5
330
1E
100
AcDbEntity
  8
21
  6
Continuous
100
AcDbLine
 10
359.4767630316693
 20
82.0
 30
0.0
 11
359.4767630316693
 21
75.0
 31
0.0
  0
LINE
  5
6CC6
330
1E
100
AcDbEntity
  8
21
  6
Continuous
100
AcDbLine
 10
365.9767630316693
 20
77.0
 30
0.0
 11
365.9767630316693
 21
75.0
 31
0.0
  0
LINE
  5
6CC7
330
1E
100
AcDbEntity
  8
21
  6
Continuous
100
AcDbLine
 10
397.4767630316694
 20
69.0
 30
0.0
 11
397.4767630316694
 21
75.0
 31
0.0
  0
LINE
  5
6CC8
330
1E
100
AcDbEntity
  8
17
100
AcDbLine
 10
382.4767630316694
 20
85.0
 30
0.0
 11
382.4767630316694
 21
59.00000000000003
 31
0.0
  0
LINE
  5
6CC9
330
1E
100
AcDbEntity
  8
10
  6
CONTINOUS
100
AcDbLine
 10
186.4767630316693
 20
96.0
 30
0.0
 11
201.4767630316693
 21
96.0
 31
0.0
  0
LINE
  5
6CCA
330
1E
100
AcDbEntity
  8
18
100
AcDbLine
 10
201.4767630316693
 20
106.0
 30
0.0
 11
205.4767630316693
 21
101.0
 31
0.0
  0
LINE
  5
6CCB
330
1E
100
AcDbEntity
  8
18
100
AcDbLine
 10
201.4767630316693
 20
105.9999999999997
 30
0.0
 11
201.4767630316693
 21
96.0
 31
0.0
  0
DIMENSION
  5
6CCC
330
1E
100
AcDbEntity
  8
30
  6
Continuous
100
AcDbDimension
  2
*D42
 10
325.5211716870178
 20
-36.99999999999994
 30
0.0
 11
336.4989673593436
 21
-33.99999999999995
 31
0.0
 70
    32
 71
     5
 42
21.95559134465157
  3
STANDARD
100
AcDbAlignedDimension
 13
347.4767630316694
 23
-62.0
 33
0.0
 14
325.5211716870178
 24
-62.00000000000014
 34
0.0
100
AcDbRotatedDimension
  0
DIMENSION
  5
6CCD
330
1E
100
AcDbEntity
  8
30
  6
Continuous
100
AcDbDimension
  2
*D43
 10
362.4767630316696
 20
-119.454446411991
 30
0.0
 11
354.9767630316694
 21
-116.454446411991
 31
0.0
 70
    32
 71
     5
 42
15.00000000000023
  3
STANDARD
100
AcDbAlignedDimension
 13
347.4767630316694
 23
-74.50000001649994
 33
0.0
 14
362.4767630316696
 24
-82.30776410006063
 34
0.0
 50
180.0
100
AcDbRotatedDimension
  0
DIMENSION
  5
6CCE
330
1E
100
AcDbEntity
  8
30
  6
Continuous
100
AcDbDimension
  2
*D44
 10
397.4767630316694
 20
-119.454446411991
 30
0.0
 11
389.9767630316694
 21
-116.454446411991
 31
0.0
 70
    32
 71
     5
 42
15.0
  3
STANDARD
100
AcDbAlignedDimension
 13
382.4767630316694
 23
-74.50000001649994
 33
0.0
 14
397.4767630316694
 24
-82.30776410006063
 34
0.0
 50
180.0
100
AcDbRotatedDimension
  0
DIMENSION
  5
6CCF
330
1E
100
AcDbEntity
  8
30
  6
Continuous
100
AcDbDimension
  2
*D45
 10
444.8190607635051
 20
-72.00000000000007
 30
0.0
 11
441.819060763505
 21
0.0000000000000442
 31
0.0
 70
    32
 71
     5
 42
144.0
  3
STANDARD
100
AcDbAlignedDimension
 13
436.9344186086753
 23
72.0
 33
0.0
 14
432.7237726057973
 24
-72.00000000000007
 34
0.0
 50
90.0
100
AcDbRotatedDimension
1001
ACAD
1000
DSTYLE
1002
{
1070
    79
1070
     3
1002
}
  0
DIMENSION
  5
6CD0
330
1E
100
AcDbEntity
  8
30
  6
Continuous
100
AcDbDimension
  2
*D46
 10
432.7237726057973
 20
-62.00000000000006
 30
0.0
 11
429.7237726057973
 21
-72.0
 31
0.0
 70
    32
 71
     5
 42
20.0
  3
STANDARD
100
AcDbAlignedDimension
 13
394.7972711073587
 23
-82.00000000000008
 33
0.0
 14
394.7972711073587
 24
-62.00000000000006
 34
0.0
 50
270.0
100
AcDbRotatedDimension
  0
DIMENSION
  5
6CD1
330
1E
100
AcDbEntity
  8
30
  6
Continuous
100
AcDbDimension
  2
*D47
 10
432.7237726057973
 20
74.99999999999999
 30
0.0
 11
429.7237726057973
 21
72.00000000000007
 31
0.0
 70
    32
 71
     5
 42
6.0
  3
STANDARD
100
AcDbAlignedDimension
 13
397.4767630316694
 23
69.0
 33
0.0
 14
397.4767630316694
 24
75.0
 34
0.0
 50
270.0
100
AcDbRotatedDimension
  0
DIMENSION
  5
6CD2
330
1E
100
AcDbEntity
  8
30
  6
Continuous
100
AcDbDimension
  2
*D48
 10
201.4767630316693
 20
-160.4544464119909
 30
0.0
 11
182.9767630316693
 21
-157.4544464119909
 31
0.0
 70
    32
 71
     5
 42
37.0
  3
STANDARD
100
AcDbAlignedDimension
 13
164.4767630316693
 23
-2.500000016499996
 33
0.0
 14
201.4767630316693
 24
-105.9999999999996
 34
0.0
 50
180.0
100
AcDbRotatedDimension
  0
DIMENSION
  5
6CD3
330
1E
100
AcDbEntity
  8
30
  6
Continuous
100
AcDbDimension
  2
*D49
 10
362.4767630316694
 20
-140.454446411991
 30
0.0
 11
281.9767630316693
 21
-137.454446411991
 31
0.0
 70
    32
 71
     5
 42
161.0000000000001
  3
STANDARD
100
AcDbAlignedDimension
 13
201.4767630316693
 23
-105.9999999999996
 33
0.0
 14
362.4767630316694
 24
-72.0
 34
0.0
 50
180.0
100
AcDbRotatedDimension
  0
DIMENSION
  5
6CD4
330
1E
100
AcDbEntity
  8
30
  6
Continuous
100
AcDbDimension
  2
*D50
 10
397.4767630316694
 20
-160.4544464119909
 30
0.0
 11
299.4767630316693
 21
-157.4544464119909
 31
0.0
 70
    32
 71
     5
 42
196.0000000000001
  3
STANDARD
100
AcDbAlignedDimension
 13
201.4767630316693
 23
-105.9999999999996
 33
0.0
 14
397.4767630316694
 24
-72.0
 34
0.0
 50
180.0
100
AcDbRotatedDimension
  0
DIMENSION
  5
6CD5
330
1E
100
AcDbEntity
  8
30
  6
Continuous
100
AcDbDimension
  2
*D51
 10
201.4767630316693
 20
-140.454446411991
 30
0.0
 11
193.9767630316693
 21
-137.454446411991
 31
0.0
 70
    32
 71
     5
 42
15.0
  3
STANDARD
100
AcDbAlignedDimension
 13
186.4767630316693
 23
-96.0
 33
0.0
 14
201.4767630316693
 24
-105.9999999999996
 34
0.0
 50
180.0
100
AcDbRotatedDimension
  0
LINE
  5
6CD6
330
1E
100
AcDbEntity
  8
1
  6
Continuous
 62
     3
100
AcDbLine
 10
296.3767630316694
 20
64.74999999999997
 30
0.0
 11
295.6767630316694
 21
64.74999999999997
 31
0.0
  0
LINE
  5
6CD7
330
1E
100
AcDbEntity
  8
1
  6
Continuous
 62
     3
100
AcDbLine
 10
301.1267630316696
 20
-56.6
 30
0.0
 11
301.1267630316696
 21
-63.39999999999999
 31
0.0
  0
LINE
  5
6CD8
330
1E
100
AcDbEntity
  8
1
  6
Continuous
 62
     3
100
AcDbLine
 10
295.6767630316694
 20
75.00000000000003
 30
0.0
 11
294.0767630316694
 21
75.00000000000003
 31
0.0
  0
LINE
  5
6CD9
330
1E
100
AcDbEntity
  8
1
  6
Continuous
 62
     3
100
AcDbLine
 10
213.2767630316692
 20
-50.0
 30
0.0
 11
213.2767630316692
 21
-75.0
 31
0.0
  0
LINE
  5
6CDA
330
1E
100
AcDbEntity
  8
1
  6
Continuous
 62
     3
100
AcDbLine
 10
289.8767630316696
 20
-57.92567499999996
 30
0.0
 11
289.8767630316696
 21
-62.17432499999998
 31
0.0
  0
LINE
  5
6CDB
330
1E
100
AcDbEntity
  8
1
  6
Continuous
 62
     4
100
AcDbLine
 10
294.0767630316694
 20
-76.5
 30
0.0
 11
294.0767630316694
 21
-50.0
 31
0.0
  0
LINE
  5
6CDC
330
1E
100
AcDbEntity
  8
1
  6
Continuous
 62
     3
100
AcDbLine
 10
213.2767630316692
 20
50.00000000000003
 30
0.0
 11
295.6767630316694
 21
50.00000000000003
 31
0.0
  0
LINE
  5
6CDD
330
1E
100
AcDbEntity
  8
1
  6
Continuous
 62
     3
100
AcDbLine
 10
290.3767630316694
 20
62.41299999999998
 30
0.0
 11
291.4767630316693
 21
62.41299999999998
 31
0.0
  0
LINE
  5
6CDE
330
1E
100
AcDbEntity
  8
1
  6
Continuous
 62
     3
100
AcDbLine
 10
300.1267630316694
 20
55.59999999999998
 30
0.0
 11
297.8767630316694
 21
55.59999999999998
 31
0.0
  0
LINE
  5
6CDF
330
1E
100
AcDbEntity
  8
1
  6
Continuous
 62
     3
100
AcDbLine
 10
296.7767630316697
 20
-64.34999999999999
 30
0.0
 11
296.7767630316697
 21
-55.64999999999997
 31
0.0
  0
LINE
  5
6CE0
330
1E
100
AcDbEntity
  8
1
  6
Continuous
 62
     3
100
AcDbLine
 10
296.6767630316693
 20
-50.0
 30
0.0
 11
296.6767630316693
 21
50.00000000000003
 31
0.0
  0
LINE
  5
6CE1
330
1E
100
AcDbEntity
  8
1
  6
Continuous
 62
     3
100
AcDbLine
 10
290.3767630316694
 20
-57.637
 30
0.0
 11
291.4767630316693
 21
-57.637
 31
0.0
  0
LINE
  5
6CE2
330
1E
100
AcDbEntity
  8
1
  6
Continuous
 62
     3
100
AcDbLine
 10
297.8767630316694
 20
59.74444000000001
 30
0.0
 11
296.7767630316697
 21
59.84067749999997
 31
0.0
  0
LINE
  5
6CE3
330
1E
100
AcDbEntity
  8
1
  6
Continuous
 62
     3
100
AcDbLine
 10
201.4767630316693
 20
-75.0
 30
0.0
 11
213.2767630316692
 21
-75.0
 31
0.0
  0
LINE
  5
6CE4
330
1E
100
AcDbEntity
  8
1
  6
Continuous
 62
     3
100
AcDbLine
 10
297.8767630316694
 20
-60.25555999999998
 30
0.0
 11
296.7767630316697
 21
-60.15932249999997
 31
0.0
  0
LINE
  5
6CE5
330
1E
100
AcDbEntity
  8
1
  6
Continuous
 62
     3
100
AcDbLine
 10
244.8767630316696
 20
20.00000000000003
 30
0.0
 11
211.8767630316696
 21
20.00000000000003
 31
0.0
  0
LINE
  5
6CE6
330
1E
100
AcDbEntity
  8
1
  6
Continuous
 62
     4
100
AcDbLine
 10
294.0767630316694
 20
50.00000000000003
 30
0.0
 11
294.0767630316694
 21
76.50000000000003
 31
0.0
  0
LINE
  5
6CE7
330
1E
100
AcDbEntity
  8
1
  6
Continuous
 62
     3
100
AcDbLine
 10
301.1267630316696
 20
63.39999999999999
 30
0.0
 11
301.1267630316696
 21
56.6
 31
0.0
  0
LINE
  5
6CE8
330
1E
100
AcDbEntity
  8
1
  6
Continuous
 62
     3
100
AcDbLine
 10
300.1267630316694
 20
-64.39999999999997
 30
0.0
 11
297.8767630316694
 21
-64.39999999999997
 31
0.0
  0
LINE
  5
6CE9
330
1E
100
AcDbEntity
  8
1
  6
Continuous
 62
     3
100
AcDbLine
 10
296.3767630316694
 20
55.25000000000002
 30
0.0
 11
295.6767630316694
 21
55.25000000000002
 31
0.0
  0
LINE
  5
6CEA
330
1E
100
AcDbEntity
  8
1
  6
Continuous
 62
     3
100
AcDbLine
 10
289.8767630316696
 20
-62.17432499999998
 30
0.0
 11
290.3767630316694
 21
-62.46299999999997
 31
0.0
  0
LINE
  5
6CEB
330
1E
100
AcDbEntity
  8
1
  6
Continuous
 62
     3
100
AcDbLine
 10
295.6767630316694
 20
-75.0
 30
0.0
 11
294.0767630316694
 21
-75.0
 31
0.0
  0
LINE
  5
6CEC
330
1E
100
AcDbEntity
  8
1
  6
Continuous
 62
     3
100
AcDbLine
 10
295.6767630316694
 20
50.00000000000003
 30
0.0
 11
295.6767630316694
 21
75.00000000000003
 31
0.0
  0
LINE
  5
6CED
330
1E
100
AcDbEntity
  8
1
  6
Continuous
 62
     3
100
AcDbLine
 10
296.3767630316694
 20
-64.74999999999997
 30
0.0
 11
295.6767630316694
 21
-64.74999999999997
 31
0.0
  0
LINE
  5
6CEE
330
1E
100
AcDbEntity
  8
1
  6
Continuous
 62
     3
100
AcDbLine
 10
297.8767630316694
 20
-55.79999999999998
 30
0.0
 11
297.8767630316694
 21
-64.19999999999999
 31
0.0
  0
LINE
  5
6CEF
330
1E
100
AcDbEntity
  8
1
  6
Continuous
 62
     4
100
AcDbLine
 10
297.8767630316694
 20
64.40000000000001
 30
0.0
 11
297.8767630316694
 21
55.59999999999998
 31
0.0
  0
LINE
  5
6CF0
330
1E
100
AcDbEntity
  8
1
  6
Continuous
 62
     3
100
AcDbLine
 10
297.6767630316693
 20
-64.39999999999997
 30
0.0
 11
296.7767630316697
 21
-64.39999999999997
 31
0.0
  0
LINE
  5
6CF1
330
1E
100
AcDbEntity
  8
1
  6
Continuous
 62
     3
100
AcDbLine
 10
297.6767630316693
 20
55.59999999999998
 30
0.0
 11
296.7767630316697
 21
55.59999999999998
 31
0.0
  0
LINE
  5
6CF2
330
1E
100
AcDbEntity
  8
1
  6
Continuous
 62
     3
100
AcDbLine
 10
290.3767630316694
 20
57.58700000000001
 30
0.0
 11
291.4767630316693
 21
57.58700000000001
 31
0.0
  0
LINE
  5
6CF3
330
1E
100
AcDbEntity
  8
1
  6
Continuous
 62
     3
100
AcDbLine
 10
291.4767630316693
 20
-76.5
 30
0.0
 11
294.0767630316694
 21
-76.5
 31
0.0
  0
LINE
  5
6CF4
330
1E
100
AcDbEntity
  8
1
  6
Continuous
 62
     3
100
AcDbLine
 10
294.0767630316694
 20
50.00000000000003
 30
0.0
 11
294.0767630316694
 21
75.00000000000003
 31
0.0
  0
LINE
  5
6CF5
330
1E
100
AcDbEntity
  8
1
  6
Continuous
 62
     3
100
AcDbLine
 10
297.6767630316693
 20
-55.59999999999998
 30
0.0
 11
296.7767630316697
 21
-55.59999999999998
 31
0.0
  0
LINE
  5
6CF6
330
1E
100
AcDbEntity
  8
1
  6
Continuous
 62
     3
100
AcDbLine
 10
294.0767630316694
 20
-75.0
 30
0.0
 11
294.0767630316694
 21
-50.0
 31
0.0
  0
LINE
  5
6CF7
330
1E
100
AcDbEntity
  8
1
  6
Continuous
 62
     3
100
AcDbLine
 10
296.7767630316697
 20
55.65000000000001
 30
0.0
 11
296.7767630316697
 21
64.34999999999999
 31
0.0
  0
LINE
  5
6CF8
330
1E
100
AcDbEntity
  8
1
  6
Continuous
 62
     3
100
AcDbLine
 10
297.8767630316694
 20
-55.59999999999998
 30
0.0
 11
297.8767630316694
 21
-64.39999999999997
 31
0.0
  0
LINE
  5
6CF9
330
1E
100
AcDbEntity
  8
1
  6
Continuous
 62
     3
100
AcDbLine
 10
244.8767630316696
 20
-20.0
 30
0.0
 11
211.8767630316696
 21
-20.0
 31
0.0
  0
LINE
  5
6CFA
330
1E
100
AcDbEntity
  8
1
  6
Continuous
 62
     3
100
AcDbLine
 10
289.8767630316696
 20
57.87567499999997
 30
0.0
 11
290.3767630316694
 21
57.58700000000001
 31
0.0
  0
LINE
  5
6CFB
330
1E
100
AcDbEntity
  8
1
  6
Continuous
 62
     3
100
AcDbLine
 10
290.3767630316694
 20
-62.46299999999997
 30
0.0
 11
291.4767630316693
 21
-62.46299999999997
 31
0.0
  0
LINE
  5
6CFC
330
1E
100
AcDbEntity
  8
1
  6
Continuous
 62
     3
100
AcDbLine
 10
290.3767630316694
 20
-57.637
 30
0.0
 11
289.8767630316696
 21
-57.92567499999996
 31
0.0
  0
LINE
  5
6CFD
330
1E
100
AcDbEntity
  8
1
  6
Continuous
 62
     3
100
AcDbLine
 10
246.8767630316696
 20
-18.0
 30
0.0
 11
246.8767630316696
 21
18.0
 31
0.0
  0
LINE
  5
6CFE
330
1E
100
AcDbEntity
  8
1
  6
Continuous
 62
     3
100
AcDbLine
 10
213.2767630316692
 20
-50.0
 30
0.0
 11
295.6767630316694
 21
-50.0
 31
0.0
  0
LINE
  5
6CFF
330
1E
100
AcDbEntity
  8
1
  6
Continuous
 62
     3
100
AcDbLine
 10
297.8767630316694
 20
64.19999999999999
 30
0.0
 11
297.8767630316694
 21
55.80000000000001
 31
0.0
  0
LINE
  5
6D00
330
1E
100
AcDbEntity
  8
1
  6
Continuous
 62
     3
100
AcDbLine
 10
296.3767630316694
 20
-55.25
 30
0.0
 11
295.6767630316694
 21
-55.25
 31
0.0
  0
LINE
  5
6D01
330
1E
100
AcDbEntity
  8
1
  6
Continuous
 62
     3
100
AcDbLine
 10
291.4767630316693
 20
76.50000000000003
 30
0.0
 11
294.0767630316694
 21
76.50000000000003
 31
0.0
  0
LINE
  5
6D02
330
1E
100
AcDbEntity
  8
1
  6
Continuous
 62
     3
100
AcDbLine
 10
290.3767630316694
 20
62.41299999999998
 30
0.0
 11
289.8767630316696
 21
62.12432500000002
 31
0.0
  0
LINE
  5
6D03
330
1E
100
AcDbEntity
  8
1
  6
Continuous
 62
     3
100
AcDbLine
 10
213.2767630316692
 20
75.00000000000003
 30
0.0
 11
201.4767630316693
 21
75.00000000000003
 31
0.0
  0
LINE
  5
6D04
330
1E
100
AcDbEntity
  8
1
  6
Continuous
 62
     3
100
AcDbLine
 10
296.6767630316693
 20
50.00000000000003
 30
0.0
 11
295.6767630316694
 21
50.00000000000003
 31
0.0
  0
LINE
  5
6D05
330
1E
100
AcDbEntity
  8
1
  6
Continuous
 62
     3
100
AcDbLine
 10
209.8767630316696
 20
-18.0
 30
0.0
 11
209.8767630316696
 21
18.0
 31
0.0
  0
LINE
  5
6D06
330
1E
100
AcDbEntity
  8
1
  6
Continuous
 62
     3
100
AcDbLine
 10
297.6767630316693
 20
64.40000000000001
 30
0.0
 11
296.7767630316697
 21
64.40000000000001
 31
0.0
  0
LINE
  5
6D07
330
1E
100
AcDbEntity
  8
1
  6
Continuous
 62
     3
100
AcDbLine
 10
300.1267630316694
 20
64.40000000000001
 30
0.0
 11
297.8767630316694
 21
64.40000000000001
 31
0.0
  0
LINE
  5
6D08
330
1E
100
AcDbEntity
  8
1
  6
Continuous
 62
     3
100
AcDbLine
 10
296.7767630316697
 20
60.64182500000004
 30
0.0
 11
297.8767630316694
 21
60.54558750000001
 31
0.0
  0
LINE
  5
6D09
330
1E
100
AcDbEntity
  8
1
  6
Continuous
 62
     3
100
AcDbLine
 10
296.7767630316697
 20
-59.35817499999998
 30
0.0
 11
297.8767630316694
 21
-59.45441249999999
 31
0.0
  0
LINE
  5
6D0A
330
1E
100
AcDbEntity
  8
1
  6
Continuous
 62
     3
100
AcDbLine
 10
289.8767630316696
 20
62.12432500000002
 30
0.0
 11
289.8767630316696
 21
57.87567499999997
 31
0.0
  0
LINE
  5
6D0B
330
1E
100
AcDbEntity
  8
1
  6
Continuous
 62
     3
100
AcDbLine
 10
213.2767630316692
 20
75.00000000000003
 30
0.0
 11
213.2767630316692
 21
50.00000000000003
 31
0.0
  0
LINE
  5
6D0C
330
1E
100
AcDbEntity
  8
1
  6
Continuous
 62
     3
100
AcDbLine
 10
296.6767630316693
 20
-50.0
 30
0.0
 11
295.6767630316694
 21
-50.0
 31
0.0
  0
LINE
  5
6D0D
330
1E
100
AcDbEntity
  8
1
  6
Continuous
 62
     3
100
AcDbLine
 10
295.6767630316694
 20
-75.0
 30
0.0
 11
295.6767630316694
 21
50.00000000000003
 31
0.0
  0
LINE
  5
6D0E
330
1E
100
AcDbEntity
  8
1
  6
Continuous
 62
     3
100
AcDbLine
 10
300.1267630316694
 20
-55.59999999999998
 30
0.0
 11
297.8767630316694
 21
-55.59999999999998
 31
0.0
  0
ARC
  5
6D0F
330
1E
100
AcDbEntity
  8
1
  6
Continuous
 62
     3
100
AcDbCircle
 10
300.1267630316694
 20
63.39999999999999
 30
0.0
 40
1.0
100
AcDbArc
 50
0.0
 51
90.0
  0
ARC
  5
6D10
330
1E
100
AcDbEntity
  8
1
  6
Continuous
 62
     4
100
AcDbCircle
 10
211.8767630316696
 20
18.0
 30
0.0
 40
2.0
100
AcDbArc
 50
90.0
 51
180.0
  0
ARC
  5
6D11
330
1E
100
AcDbEntity
  8
1
  6
Continuous
 62
     4
100
AcDbCircle
 10
297.6767630316693
 20
-55.79999999999998
 30
0.0
 40
0.2
100
AcDbArc
 50
0.0
 51
90.0
  0
ARC
  5
6D12
330
1E
100
AcDbEntity
  8
1
  6
Continuous
 62
     3
100
AcDbCircle
 10
297.6767630316693
 20
-64.19999999999999
 30
0.0
 40
0.2
100
AcDbArc
 50
270.0
 51
0.0
  0
ARC
  5
6D13
330
1E
100
AcDbEntity
  8
1
  6
Continuous
 62
     3
100
AcDbCircle
 10
297.6767630316693
 20
55.80000000000001
 30
0.0
 40
0.2
100
AcDbArc
 50
270.0
 51
0.0
  0
ARC
  5
6D14
330
1E
100
AcDbEntity
  8
1
  6
Continuous
 62
     3
100
AcDbCircle
 10
296.3767630316694
 20
-55.64999999999997
 30
0.0
 40
0.4
100
AcDbArc
 50
0.0
 51
90.0
  0
ARC
  5
6D15
330
1E
100
AcDbEntity
  8
1
  6
Continuous
 62
     4
100
AcDbCircle
 10
297.6767630316693
 20
64.19999999999999
 30
0.0
 40
0.2
100
AcDbArc
 50
0.0
 51
90.0
  0
ARC
  5
6D16
330
1E
100
AcDbEntity
  8
1
  6
Continuous
 62
     3
100
AcDbCircle
 10
296.3767630316694
 20
55.65000000000001
 30
0.0
 40
0.4
100
AcDbArc
 50
270.0
 51
0.0
  0
ARC
  5
6D17
330
1E
100
AcDbEntity
  8
1
  6
Continuous
 62
     3
100
AcDbCircle
 10
296.3767630316694
 20
-64.34999999999999
 30
0.0
 40
0.4
100
AcDbArc
 50
270.0
 51
0.0
  0
ARC
  5
6D18
330
1E
100
AcDbEntity
  8
1
  6
Continuous
 62
     3
100
AcDbCircle
 10
300.1267630316694
 20
56.6
 30
0.0
 40
1.0
100
AcDbArc
 50
270.0
 51
0.0
  0
ARC
  5
6D19
330
1E
100
AcDbEntity
  8
1
  6
Continuous
 62
     3
100
AcDbCircle
 10
300.1267630316694
 20
-63.39999999999999
 30
0.0
 40
1.0
100
AcDbArc
 50
270.0
 51
0.0
  0
ARC
  5
6D1A
330
1E
100
AcDbEntity
  8
1
  6
Continuous
 62
     4
100
AcDbCircle
 10
244.8767630316696
 20
-18.0
 30
0.0
 40
2.0
100
AcDbArc
 50
270.0
 51
0.0
  0
ARC
  5
6D1B
330
1E
100
AcDbEntity
  8
1
  6
Continuous
 62
     3
100
AcDbCircle
 10
300.1267630316694
 20
-56.6
 30
0.0
 40
1.0
100
AcDbArc
 50
0.0
 51
90.0
  0
ARC
  5
6D1C
330
1E
100
AcDbEntity
  8
1
  6
Continuous
 62
     4
100
AcDbCircle
 10
244.8767630316696
 20
18.0
 30
0.0
 40
2.0
100
AcDbArc
 50
0.0
 51
90.0
  0
ARC
  5
6D1D
330
1E
100
AcDbEntity
  8
1
  6
Continuous
 62
     3
100
AcDbCircle
 10
296.3767630316694
 20
64.34999999999999
 30
0.0
 40
0.4
100
AcDbArc
 50
0.0
 51
90.0
  0
ARC
  5
6D1E
330
1E
100
AcDbEntity
  8
1
  6
Continuous
 62
     4
100
AcDbCircle
 10
211.8767630316696
 20
-18.0
 30
0.0
 40
2.0
100
AcDbArc
 50
180.0
 51
270.0
  0
LINE
  5
6D1F
330
1E
100
AcDbEntity
  8
10
  6
CONTINOUS
100
AcDbLine
 10
291.4767630316695
 20
82.5
 30
0.0
 11
291.4767630316695
 21
50.00000000000003
 31
0.0
  0
LINE
  5
6D20
330
1E
100
AcDbEntity
  8
10
  6
CONTINOUS
100
AcDbLine
 10
291.4767630316695
 20
-50.0
 30
0.0
 11
291.4767630316695
 21
-82.5
 31
0.0
  0
LINE
  5
6E8C
330
1E
100
AcDbEntity
  8
10
  6
CONTINOUS
100
AcDbLine
 10
-52.5
 20
279.3138729996611
 30
0.0
 11
52.5
 21
279.3138729996611
 31
0.0
  0
LINE
  5
6E8D
330
1E
100
AcDbEntity
  8
1
  6
Continuous
 62
     3
100
AcDbLine
 10
-61.0
 20
279.3138729996611
 30
0.0
 11
-52.5
 21
279.3138729996611
 31
0.0
  0
LINE
  5
6E8E
330
1E
100
AcDbEntity
  8
1
  6
Continuous
 62
     3
100
AcDbLine
 10
52.5
 20
279.3138729996611
 30
0.0
 11
61.0
 21
279.3138729996611
 31
0.0
  0
VIEWPORT
  5
9AC
102
{ACAD_XDICTIONARY
360
6F19
102
}
330
1A
100
AcDbEntity
 67
     1
  8
0
  6
Continuous
100
AcDbViewport
 10
171.999535
 20
144.1384739999999
 30
0.0
 40
488.867686
 41
292.351491
 68
    -1
 69
     1
 12
171.999535
 22
144.1384739999999
 13
0.0
 23
0.0
 14
10.0
 24
10.0
 15
10.0
 25
10.0
 16
0.0
 26
0.0
 36
1.0
 17
0.0
 27
0.0
 37
0.0
 42
50.0
 43
0.0
 44
0.0
 45
292.351491
 50
0.0
 51
0.0
 72
   100
 90
    32800
  1

281
     0
 71
     1
 74
     0
110
0.0
120
0.0
130
0.0
111
1.0
121
0.0
131
0.0
112
0.0
122
1.0
132
0.0
 79
     0
146
0.0
  0
ENDSEC
  0
SECTION
  2
OBJECTS
  0
DICTIONARY
  5
C
330
0
100
AcDbDictionary
281
     1
  3
ACAD_CIP_PREVIOUS_PRODUCT_INFO
350
68FE
  3
ACAD_COLOR
350
68DF
  3
ACAD_DETAILVIEWSTYLE
350
68F8
  3
ACAD_GROUP
350
D
  3
ACAD_LAYOUT
350
19
  3
ACAD_MATERIAL
350
68AD
  3
ACAD_MLEADERSTYLE
350
68F4
  3
ACAD_MLINESTYLE
350
16
  3
ACAD_PLOTSETTINGS
350
18
  3
ACAD_PLOTSTYLENAME
350
E
  3
ACAD_SCALELIST
350
68E2
  3
ACAD_SECTIONVIEWSTYLE
350
68F6
  3
ACAD_TABLESTYLE
350
68E0
  3
ACAD_VISUALSTYLE
350
68C6
  3
ACDB_RECOMPOSE_DATA
350
6F17
  3
ACDBVARIABLEDICTIONARY
350
5D91
  3
DWGPROPS
350
6F18
  0
DICTIONARY
  5
6B03
330
10
100
AcDbDictionary
280
     1
281
     1
  3
ADSK_XREC_LAYER_RECONCILED
360
6B04
  0
DICTIONARY
  5
6B05
330
2F
100
AcDbDictionary
280
     1
281
     1
  3
ADSK_XREC_LAYER_RECONCILED
360
6B06
  0
DICTIONARY
  5
6B07
330
31
100
AcDbDictionary
280
     1
281
     1
  3
ADSK_XREC_LAYER_RECONCILED
360
6B08
  0
DICTIONARY
  5
6B09
330
35
100
AcDbDictionary
280
     1
281
     1
  3
ADSK_XREC_LAYER_RECONCILED
360
6B0A
  0
DICTIONARY
  5
6B0B
330
38
100
AcDbDictionary
280
     1
281
     1
  3
ADSK_XREC_LAYER_RECONCILED
360
6B0C
  0
DICTIONARY
  5
6B0D
330
3C
100
AcDbDictionary
280
     1
281
     1
  3
ADSK_XREC_LAYER_RECONCILED
360
6B0E
  0
DICTIONARY
  5
6B0F
330
3D
100
AcDbDictionary
280
     1
281
     1
  3
ADSK_XREC_LAYER_RECONCILED
360
6B10
  0
DICTIONARY
  5
6B11
330
3A2
100
AcDbDictionary
280
     1
281
     1
  3
ADSK_XREC_LAYER_RECONCILED
360
6B12
  0
DICTIONARY
  5
6B13
330
3BBA
100
AcDbDictionary
280
     1
281
     1
  3
ADSK_XREC_LAYER_RECONCILED
360
6B14
  0
DICTIONARY
  5
6B15
330
3BBB
100
AcDbDictionary
280
     1
281
     1
  3
ADSK_XREC_LAYER_RECONCILED
360
6B16
  0
DICTIONARY
  5
6B17
330
5116
100
AcDbDictionary
280
     1
281
     1
  3
ADSK_XREC_LAYER_RECONCILED
360
6B18
  0
DICTIONARY
  5
6B19
330
5117
100
AcDbDictionary
280
     1
281
     1
  3
ADSK_XREC_LAYER_RECONCILED
360
6B1A
  0
DICTIONARY
  5
6B1B
330
678F
100
AcDbDictionary
280
     1
281
     1
  3
ADSK_XREC_LAYER_RECONCILED
360
6B1C
  0
DICTIONARY
  5
6B1D
330
6917
100
AcDbDictionary
280
     1
281
     1
  3
ADSK_XREC_LAYER_RECONCILED
360
6B1E
  0
DICTIONARY
  5
6B1F
330
6918
100
AcDbDictionary
280
     1
281
     1
  3
ADSK_XREC_LAYER_RECONCILED
360
6B20
  0
DICTIONARY
  5
6B21
330
6919
100
AcDbDictionary
280
     1
281
     1
  3
ADSK_XREC_LAYER_RECONCILED
360
6B22
  0
DICTIONARY
  5
178
330
1E
100
AcDbDictionary
280
     1
281
     1
  3
ACAD_LAYOUTSELFREF
360
6868
  0
DICTIONARY
  5
17A
330
1A
100
AcDbDictionary
280
     1
281
     1
  3
ACAD_LAYOUTSELFREF
360
6867
  0
DICTIONARY
  5
6B31
330
6752
100
AcDbDictionary
280
     1
281
     1
  3
ACAD_MTEXT_RT
360
6F1B
  0
DICTIONARY
  5
6F19
330
9AC
100
AcDbDictionary
280
     1
281
     1
  3
ACAD_XREC_ROUNDTRIP
360
6F1A
  0
XRECORD
  5
68FE
102
{ACAD_REACTORS
330
C
102
}
330
C
100
AcDbXrecord
280
     1
300
ACDLT
300
2015
300
ACDLT_F_S
  0
DICTIONARY
  5
68DF
102
{ACAD_REACTORS
330
C
102
}
330
C
100
AcDbDictionary
281
     1
  0
DICTIONARY
  5
68F8
102
{ACAD_REACTORS
330
C
102
}
330
C
100
AcDbDictionary
281
     1
  3
Imperial24
350
68F9
  0
DICTIONARY
  5
D
102
{ACAD_REACTORS
330
C
102
}
330
C
100
AcDbDictionary
281
     1
  0
DICTIONARY
  5
19
102
{ACAD_REACTORS
330
C
102
}
330
C
100
AcDbDictionary
281
     1
  3
Model
350
6878
  3
ﾚｲｱｳﾄ1
350
6879
  0
DICTIONARY
  5
68AD
102
{ACAD_REACTORS
330
C
102
}
330
C
100
AcDbDictionary
281
     1
  3
ByBlock
350
68B6
  3
ByLayer
350
68AE
  3
Global
350
68BE
  0
DICTIONARY
  5
68F4
102
{ACAD_REACTORS
330
C
102
}
330
C
100
AcDbDictionary
281
     1
  3
Standard
350
68F5
  0
DICTIONARY
  5
16
102
{ACAD_REACTORS
330
C
102
}
330
C
100
AcDbDictionary
281
     1
  3
STANDARD
350
17
  0
DICTIONARY
  5
18
102
{ACAD_REACTORS
330
C
102
}
330
C
100
AcDbDictionary
281
     1
  0
ACDBDICTIONARYWDFLT
  5
E
102
{ACAD_REACTORS
330
C
102
}
330
C
100
AcDbDictionary
281
     1
  3
Normal
350
F
100
AcDbDictionaryWithDefault
340
F
  0
DICTIONARY
  5
68E2
102
{ACAD_REACTORS
330
C
102
}
330
C
100
AcDbDictionary
281
     1
  3
A0
350
68E3
  3
A1
350
68E4
  3
A2
350
68E5
  3
A3
350
68E6
  3
A4
350
68E7
  3
A5
350
68E8
  3
A6
350
68E9
  3
A7
350
68EA
  3
A8
350
68EB
  3
A9
350
68EC
  3
B0
350
68ED
  3
B1
350
68EE
  3
B2
350
68EF
  3
B3
350
68F0
  3
B4
350
68F1
  3
B5
350
68F2
  3
B6
350
68F3
  0
DICTIONARY
  5
68F6
102
{ACAD_REACTORS
330
C
102
}
330
C
100
AcDbDictionary
281
     1
  3
Imperial24
350
68F7
  0
DICTIONARY
  5
68E0
102
{ACAD_REACTORS
330
C
102
}
330
C
100
AcDbDictionary
281
     1
  3
Standard
350
68E1
  0
DICTIONARY
  5
68C6
102
{ACAD_REACTORS
330
C
102
}
330
C
100
AcDbDictionary
281
     1
  3
2dWireframe
350
68CC
  3
Basic
350
68CB
  3
Brighten
350
68D2
  3
ColorChange
350
68D6
  3
Conceptual
350
68CF
  3
Dim
350
68D1
  3
EdgeColorOff
350
68DE
  3
Facepattern
350
68D5
  3
Flat
350
68C7
  3
FlatWithEdges
350
68C8
  3
Gouraud
350
68C9
  3
GouraudWithEdges
350
68CA
  3
Hidden
350
68CE
  3
JitterOff
350
68DC
  3
Linepattern
350
68D4
  3
OverhangOff
350
68DD
  3
Realistic
350
68D0
  3
Shaded
350
68DB
  3
Shaded with edges
350
68DA
  3
Shades of Gray
350
68D7
  3
Sketchy
350
68D8
  3
Thicken
350
68D3
  3
Wireframe
350
68CD
  3
X-Ray
350
68D9
  0
XRECORD
  5
6F17
102
{ACAD_REACTORS
330
C
102
}
330
C
100
AcDbXrecord
280
     1
 90
        1
330
68E1
  0
DICTIONARY
  5
5D91
102
{ACAD_REACTORS
330
C
102
}
330
C
100
AcDbDictionary
281
     1
  3
CANNOSCALE
350
6B27
  3
CMLEADERSTYLE
350
6B24
  3
CTABLESTYLE
350
6B23
  3
CVIEWDETAILSTYLE
350
6B25
  3
CVIEWSECTIONSTYLE
350
6B26
  3
DIMASSOC
350
5D92
  3
INDEXCTL
350
6B29
  3
SORTENTS
350
6B28
  3
XCLIPFRAME
350
6F15
  0
XRECORD
  5
6F18
102
{ACAD_REACTORS
330
C
102
}
330
C
100
AcDbXrecord
280
     1
  1
DWGPROPS COOKIE
  2

  3

  4

  6

  7

  8
ktomoto
  9

300
=
301
=
302
=
303
=
304
=
305
=
306
=
307
=
308
=
309
=
 40
1.272218449074073
 41
2452286.555658658
 42
2457458.54293478
  1

 90
        0
  0
XRECORD
  5
6B04
102
{ACAD_REACTORS
330
6B03
102
}
330
6B03
100
AcDbXrecord
280
     1
290
     1
  0
XRECORD
  5
6B06
102
{ACAD_REACTORS
330
6B05
102
}
330
6B05
100
AcDbXrecord
280
     1
290
     1
  0
XRECORD
  5
6B08
102
{ACAD_REACTORS
330
6B07
102
}
330
6B07
100
AcDbXrecord
280
     1
290
     1
  0
XRECORD
  5
6B0A
102
{ACAD_REACTORS
330
6B09
102
}
330
6B09
100
AcDbXrecord
280
     1
290
     1
  0
XRECORD
  5
6B0C
102
{ACAD_REACTORS
330
6B0B
102
}
330
6B0B
100
AcDbXrecord
280
     1
290
     1
  0
XRECORD
  5
6B0E
102
{ACAD_REACTORS
330
6B0D
102
}
330
6B0D
100
AcDbXrecord
280
     1
290
     1
  0
XRECORD
  5
6B10
102
{ACAD_REACTORS
330
6B0F
102
}
330
6B0F
100
AcDbXrecord
280
     1
290
     1
  0
XRECORD
  5
6B12
102
{ACAD_REACTORS
330
6B11
102
}
330
6B11
100
AcDbXrecord
280
     1
290
     1
  0
XRECORD
  5
6B14
102
{ACAD_REACTORS
330
6B13
102
}
330
6B13
100
AcDbXrecord
280
     1
290
     1
  0
XRECORD
  5
6B16
102
{ACAD_REACTORS
330
6B15
102
}
330
6B15
100
AcDbXrecord
280
     1
290
     1
  0
XRECORD
  5
6B18
102
{ACAD_REACTORS
330
6B17
102
}
330
6B17
100
AcDbXrecord
280
     1
290
     1
  0
XRECORD
  5
6B1A
102
{ACAD_REACTORS
330
6B19
102
}
330
6B19
100
AcDbXrecord
280
     1
290
     1
  0
XRECORD
  5
6B1C
102
{ACAD_REACTORS
330
6B1B
102
}
330
6B1B
100
AcDbXrecord
280
     1
290
     1
  0
XRECORD
  5
6B1E
102
{ACAD_REACTORS
330
6B1D
102
}
330
6B1D
100
AcDbXrecord
280
     1
290
     1
  0
XRECORD
  5
6B20
102
{ACAD_REACTORS
330
6B1F
102
}
330
6B1F
100
AcDbXrecord
280
     1
290
     1
  0
XRECORD
  5
6B22
102
{ACAD_REACTORS
330
6B21
102
}
330
6B21
100
AcDbXrecord
280
     1
290
     1
  0
XRECORD
  5
6868
102
{ACAD_REACTORS
330
178
102
}
330
178
100
AcDbXrecord
280
     1
340
1E
  0
XRECORD
  5
6867
102
{ACAD_REACTORS
330
17A
102
}
330
17A
100
AcDbXrecord
280
     1
340
1A
  0
XRECORD
  5
6F1B
102
{ACAD_REACTORS
330
6B31
102
}
330
6B31
100
AcDbXrecord
280
     1
 40
4437.0
  1
\A1;\U+22056
  0
XRECORD
  5
6F1A
102
{ACAD_REACTORS
330
6F19
102
}
330
6F19
100
AcDbXrecord
280
     1
102
SHADEPLOT
 70
     0
  0
ACDBDETAILVIEWSTYLE
  5
68F9
102
{ACAD_XDICTIONARY
360
6F53
102
}
102
{ACAD_REACTORS
330
68F8
102
}
330
68F8
100
AcDbModelDocViewStyle
 70
     0
  3
Imperial24
290
     0
100
AcDbDetailViewStyle
 70
     0
 71
     0
 90
        3
 71
     1
340
11
 40
0.24
340
0
 40
0.24
300

 40
0.36
280
     3
 71
     2
340
15
 90
       25
 71
     3
340
11
 40
0.24
 90
        1
 40
0.75
 90
        1
300
%<\AcVar ViewType \f "%tc1">% %<\AcVar ViewDetailId>%\PSCALE %<\AcVar ViewScale \f "%sn">%
 71
     4
340
15
 90
       25
340
15
 90
       25
280
     0
  0
LAYOUT
  5
6878
102
{ACAD_XDICTIONARY
360
6F1C
102
}
102
{ACAD_REACTORS
330
19
102
}
330
19
100
AcDbPlotSettings
  1

  2
Canon LBP3800 LIPSLX
  4

  6

 40
0.0
 41
0.0
 42
0.0
 43
0.0
 44
0.0
 45
0.0
 46
0.0
 47
0.0
 48
0.0
 49
0.0
140
0.0
141
0.0
142
1.0
143
1.0
 70
  1712
 72
     0
 73
     0
 74
     0
  7
monochrome.ctb
 75
     0
147
1.0
148
0.0
149
0.0
100
AcDbLayout
  1
Model
 70
     1
 71
     0
 10
0.0
 20
0.0
 11
12.0
 21
9.0
 12
0.0
 22
0.0
 32
0.0
 14
0.0
 24
0.0
 34
0.0
 15
0.0
 25
0.0
 35
0.0
146
0.0
 13
0.0
 23
0.0
 33
0.0
 16
1.0
 26
0.0
 36
0.0
 17
0.0
 27
1.0
 37
0.0
 76
     0
330
1E
331
6887
  0
LAYOUT
  5
6879
102
{ACAD_XDICTIONARY
360
6F1E
102
}
102
{ACAD_REACTORS
330
19
102
}
330
19
100
AcDbPlotSettings
  1

  2
Canon LBP3800 LIPSLX
  4

  6

 40
0.0
 41
0.0
 42
0.0
 43
0.0
 44
0.0
 45
0.0
 46
0.0
 47
0.0
 48
0.0
 49
0.0
140
0.0
141
0.0
142
1.0
143
1.0
 70
   688
 72
     0
 73
     0
 74
     5
  7
monochrome.ctb
 75
    16
147
1.0
148
0.0
149
0.0
100
AcDbLayout
  1
ﾚｲｱｳﾄ1
 70
     1
 71
     1
 10
-5.873749
 20
-5.87375
 11
204.099579
 21
291.1369009999999
 12
0.0
 22
0.0
 32
0.0
 14
4.273573
 24
5.205245999999998
 34
0.0
 15
194.610095
 25
283.0697009999996
 35
0.0
146
0.0
 13
0.0
 23
0.0
 33
0.0
 16
1.0
 26
0.0
 36
0.0
 17
0.0
 27
1.0
 37
0.0
 76
     0
330
1A
  0
MATERIAL
  5
68B6
102
{ACAD_XDICTIONARY
360
68B7
102
}
102
{ACAD_REACTORS
330
68AD
102
}
330
68AD
100
AcDbMaterial
  1
ByBlock
 72
     0
 43
0.0208333333333333
 43
0.0
 43
0.0
 43
0.0
 43
0.0
 43
0.0208333333333333
 43
0.0
 43
0.0
 43
0.0
 43
0.0
 43
1.0
 43
0.0
 43
0.0
 43
0.0
 43
0.0
 43
1.0
 77
     0
 47
0.0208333333333333
 47
0.0
 47
0.0
 47
0.0
 47
0.0
 47
0.0208333333333333
 47
0.0
 47
0.0
 47
0.0
 47
0.0
 47
1.0
 47
0.0
 47
0.0
 47
0.0
 47
0.0
 47
1.0
171
     0
 49
0.0208333333333333
 49
0.0
 49
0.0
 49
0.0
 49
0.0
 49
0.0208333333333333
 49
0.0
 49
0.0
 49
0.0
 49
0.0
 49
1.0
 49
0.0
 49
0.0
 49
0.0
 49
0.0
 49
1.0
175
     0
142
0.0208333333333333
142
0.0
142
0.0
142
0.0
142
0.0
142
0.0208333333333333
142
0.0
142
0.0
142
0.0
142
0.0
142
1.0
142
0.0
142
0.0
142
0.0
142
0.0
142
1.0
179
     0
144
0.0208333333333333
144
0.0
144
0.0
144
0.0
144
0.0
144
0.0208333333333333
144
0.0
144
0.0
144
0.0
144
0.0
144
1.0
144
0.0
144
0.0
144
0.0
144
0.0
144
1.0
147
0.0208333333333333
147
0.0
147
0.0
147
0.0
147
0.0
147
0.0208333333333333
147
0.0
147
0.0
147
0.0
147
0.0
147
1.0
147
0.0
147
0.0
147
0.0
147
0.0
147
1.0
  0
MATERIAL
  5
68AE
102
{ACAD_XDICTIONARY
360
68AF
102
}
102
{ACAD_REACTORS
330
68AD
102
}
330
68AD
100
AcDbMaterial
  1
ByLayer
 72
     0
 43
0.0208333333333333
 43
0.0
 43
0.0
 43
0.0
 43
0.0
 43
0.0208333333333333
 43
0.0
 43
0.0
 43
0.0
 43
0.0
 43
1.0
 43
0.0
 43
0.0
 43
0.0
 43
0.0
 43
1.0
 77
     0
 47
0.0208333333333333
 47
0.0
 47
0.0
 47
0.0
 47
0.0
 47
0.0208333333333333
 47
0.0
 47
0.0
 47
0.0
 47
0.0
 47
1.0
 47
0.0
 47
0.0
 47
0.0
 47
0.0
 47
1.0
171
     0
 49
0.0208333333333333
 49
0.0
 49
0.0
 49
0.0
 49
0.0
 49
0.0208333333333333
 49
0.0
 49
0.0
 49
0.0
 49
0.0
 49
1.0
 49
0.0
 49
0.0
 49
0.0
 49
0.0
 49
1.0
175
     0
142
0.0208333333333333
142
0.0
142
0.0
142
0.0
142
0.0
142
0.0208333333333333
142
0.0
142
0.0
142
0.0
142
0.0
142
1.0
142
0.0
142
0.0
142
0.0
142
0.0
142
1.0
179
     0
144
0.0208333333333333
144
0.0
144
0.0
144
0.0
144
0.0
144
0.0208333333333333
144
0.0
144
0.0
144
0.0
144
0.0
144
1.0
144
0.0
144
0.0
144
0.0
144
0.0
144
1.0
147
0.0208333333333333
147
0.0
147
0.0
147
0.0
147
0.0
147
0.0208333333333333
147
0.0
147
0.0
147
0.0
147
0.0
147
1.0
147
0.0
147
0.0
147
0.0
147
0.0
147
1.0
  0
MATERIAL
  5
68BE
102
{ACAD_XDICTIONARY
360
68BF
102
}
102
{ACAD_REACTORS
330
68AD
102
}
330
68AD
100
AcDbMaterial
  1
Global
 72
     0
 43
0.0208333333333333
 43
0.0
 43
0.0
 43
0.0
 43
0.0
 43
0.0208333333333333
 43
0.0
 43
0.0
 43
0.0
 43
0.0
 43
1.0
 43
0.0
 43
0.0
 43
0.0
 43
0.0
 43
1.0
 77
     0
 47
0.0208333333333333
 47
0.0
 47
0.0
 47
0.0
 47
0.0
 47
0.0208333333333333
 47
0.0
 47
0.0
 47
0.0
 47
0.0
 47
1.0
 47
0.0
 47
0.0
 47
0.0
 47
0.0
 47
1.0
171
     0
 49
0.0208333333333333
 49
0.0
 49
0.0
 49
0.0
 49
0.0
 49
0.0208333333333333
 49
0.0
 49
0.0
 49
0.0
 49
0.0
 49
1.0
 49
0.0
 49
0.0
 49
0.0
 49
0.0
 49
1.0
175
     0
142
0.0208333333333333
142
0.0
142
0.0
142
0.0
142
0.0
142
0.0208333333333333
142
0.0
142
0.0
142
0.0
142
0.0
142
1.0
142
0.0
142
0.0
142
0.0
142
0.0
142
1.0
179
     0
144
0.0208333333333333
144
0.0
144
0.0
144
0.0
144
0.0
144
0.0208333333333333
144
0.0
144
0.0
144
0.0
144
0.0
144
1.0
144
0.0
144
0.0
144
0.0
144
0.0
144
1.0
147
0.0208333333333333
147
0.0
147
0.0
147
0.0
147
0.0
147
0.0208333333333333
147
0.0
147
0.0
147
0.0
147
0.0
147
1.0
147
0.0
147
0.0
147
0.0
147
0.0
147
1.0
  0
MLEADERSTYLE
  5
68F5
102
{ACAD_REACTORS
330
68F4
102
}
330
68F4
100
AcDbMLeaderStyle
170
     2
171
     1
172
     0
 90
        2
 40
0.0
 41
0.0
173
     1
 91
-1056964608
340
13
 92
       -2
290
     1
 42
0.09
291
     1
 43
0.36
  3
Standard
 44
0.18
300

342
11
174
     1
178
     6
175
     1
176
     0
 93
-1056964608
 45
0.18
292
     0
297
     0
 46
0.18
 94
-1056964608
 47
1.0
 49
1.0
140
1.0
293
     1
141
0.0
294
     1
177
     0
142
1.0
295
     0
296
     0
143
0.125
1001
ACAD_MLEADERVER
1070
     2
  0
MLINESTYLE
  5
17
102
{ACAD_REACTORS
330
16
102
}
330
16
100
AcDbMlineStyle
  2
STANDARD
 70
     0
  3

 62
   256
 51
90.0
 52
90.0
 71
     2
 49
0.5
 62
   256
  6
BYLAYER
 49
-0.5
 62
   256
  6
BYLAYER
  0
ACDBPLACEHOLDER
  5
F
102
{ACAD_REACTORS
330
E
102
}
330
E
  0
SCALE
  5
68E3
102
{ACAD_REACTORS
330
68E2
102
}
330
68E2
100
AcDbScale
 70
     0
300
1:1
140
1.0
141
1.0
290
     1
  0
SCALE
  5
68E4
102
{ACAD_REACTORS
330
68E2
102
}
330
68E2
100
AcDbScale
 70
     0
300
1/128" = 1'-0"
140
0.0078125
141
12.0
290
     0
  0
SCALE
  5
68E5
102
{ACAD_REACTORS
330
68E2
102
}
330
68E2
100
AcDbScale
 70
     0
300
1/64" = 1'-0"
140
0.015625
141
12.0
290
     0
  0
SCALE
  5
68E6
102
{ACAD_REACTORS
330
68E2
102
}
330
68E2
100
AcDbScale
 70
     0
300
1/32" = 1'-0"
140
0.03125
141
12.0
290
     0
  0
SCALE
  5
68E7
102
{ACAD_REACTORS
330
68E2
102
}
330
68E2
100
AcDbScale
 70
     0
300
1/16" = 1'-0"
140
0.0625
141
12.0
290
     0
  0
SCALE
  5
68E8
102
{ACAD_REACTORS
330
68E2
102
}
330
68E2
100
AcDbScale
 70
     0
300
3/32" = 1'-0"
140
0.09375
141
12.0
290
     0
  0
SCALE
  5
68E9
102
{ACAD_REACTORS
330
68E2
102
}
330
68E2
100
AcDbScale
 70
     0
300
1/8" = 1'-0"
140
0.125
141
12.0
290
     0
  0
SCALE
  5
68EA
102
{ACAD_REACTORS
330
68E2
102
}
330
68E2
100
AcDbScale
 70
     0
300
3/16" = 1'-0"
140
0.1875
141
12.0
290
     0
  0
SCALE
  5
68EB
102
{ACAD_REACTORS
330
68E2
102
}
330
68E2
100
AcDbScale
 70
     0
300
1/4" = 1'-0"
140
0.25
141
12.0
290
     0
  0
SCALE
  5
68EC
102
{ACAD_REACTORS
330
68E2
102
}
330
68E2
100
AcDbScale
 70
     0
300
3/8" = 1'-0"
140
0.375
141
12.0
290
     0
  0
SCALE
  5
68ED
102
{ACAD_REACTORS
330
68E2
102
}
330
68E2
100
AcDbScale
 70
     0
300
1/2" = 1'-0"
140
0.5
141
12.0
290
     0
  0
SCALE
  5
68EE
102
{ACAD_REACTORS
330
68E2
102
}
330
68E2
100
AcDbScale
 70
     0
300
3/4" = 1'-0"
140
0.75
141
12.0
290
     0
  0
SCALE
  5
68EF
102
{ACAD_REACTORS
330
68E2
102
}
330
68E2
100
AcDbScale
 70
     0
300
1" = 1'-0"
140
1.0
141
12.0
290
     0
  0
SCALE
  5
68F0
102
{ACAD_REACTORS
330
68E2
102
}
330
68E2
100
AcDbScale
 70
     0
300
1-1/2" = 1'-0"
140
1.5
141
12.0
290
     0
  0
SCALE
  5
68F1
102
{ACAD_REACTORS
330
68E2
102
}
330
68E2
100
AcDbScale
 70
     0
300
3" = 1'-0"
140
3.0
141
12.0
290
     0
  0
SCALE
  5
68F2
102
{ACAD_REACTORS
330
68E2
102
}
330
68E2
100
AcDbScale
 70
     0
300
6" = 1'-0"
140
6.0
141
12.0
290
     0
  0
SCALE
  5
68F3
102
{ACAD_REACTORS
330
68E2
102
}
330
68E2
100
AcDbScale
 70
     0
300
1'-0" = 1'-0"
140
12.0
141
12.0
290
     0
  0
ACDBSECTIONVIEWSTYLE
  5
68F7
102
{ACAD_XDICTIONARY
360
6F51
102
}
102
{ACAD_REACTORS
330
68F6
102
}
330
68F6
100
AcDbModelDocViewStyle
 70
     0
  3
Imperial24
290
     0
100
AcDbSectionViewStyle
 70
     0
 71
     0
 90
       78
 71
     1
340
11
 40
0.24
340
0
340
0
 40
0.24
300
I, O, Q, S, X, Z
 40
0.48
 90
        3
 40
0.18
 90
        1
 71
     2
340
15
 90
       25
340
15
 90
       50
 40
0.24
 40
0.0
 40
0.24
 71
     3
340
11
 40
0.24
 90
        1
 40
0.75
 90
        1
300
%<\AcVar ViewType \f "%tc1">% %<\AcVar ViewSectionStartId>%-%<\AcVar ViewSectionEndId>%\PSCALE %<\AcVar ViewScale \f "%sn">%
 71
     4
300
ANSI31
 40
1.0
 90
        0
290
     0
290
     0
 90
        6
 40
0.0
 40
1.570796326794896
 40
0.2617993877991494
 40
1.308996938995747
 40
-0.2617993877991494
 40
1.832595714594044
  0
TABLESTYLE
  5
68E1
102
{ACAD_XDICTIONARY
360
6B2B
102
}
102
{ACAD_REACTORS
330
68E0
102
}
330
68E0
100
AcDbTableStyle
  3
Standard
 70
     0
 71
     0
 40
0.06
 41
0.06
280
     0
281
     0
  7
STANDARD
140
0.18
170
     2
 62
     0
 63
     7
283
     0
274
    -2
284
     1
 64
     0
275
    -2
285
     1
 65
     0
276
    -2
286
     1
 66
     0
277
    -2
287
     1
 67
     0
278
    -2
288
     1
 68
     0
279
    -2
289
     1
 69
     0
  7
STANDARD
140
0.25
170
     5
 62
     0
 63
     7
283
     0
274
    -2
284
     1
 64
     0
275
    -2
285
     1
 65
     0
276
    -2
286
     1
 66
     0
277
    -2
287
     1
 67
     0
278
    -2
288
     1
 68
     0
279
    -2
289
     1
 69
     0
  7
STANDARD
140
0.18
170
     5
 62
     0
 63
     7
283
     0
274
    -2
284
     1
 64
     0
275
    -2
285
     1
 65
     0
276
    -2
286
     1
 66
     0
277
    -2
287
     1
 67
     0
278
    -2
288
     1
 68
     0
279
    -2
289
     1
 69
     0
  0
VISUALSTYLE
  5
68CC
102
{ACAD_XDICTIONARY
360
6F2A
102
}
102
{ACAD_REACTORS
330
68C6
102
}
330
68C6
100
AcDbVisualStyle
  2

 70
     4
 71
     0
 72
     2
 73
     0
 90
        0
 40
-0.6
 41
-30.0
 62
     5
 63
     7
 74
     1
 91
        4
 64
     7
 65
   257
 75
     1
175
     1
 42
1.0
 92
        0
 66
   257
 43
1.0
 76
     1
 77
     6
 78
     2
 67
     7
 79
     5
170
     0
171
     0
290
     0
174
     0
 93
        1
 44
0.0
173
     0
291
     0
 45
0.0
1001
ACAD
1000
AcDbSavedByObjectVersion
1070
     0
  0
VISUALSTYLE
  5
68CB
102
{ACAD_XDICTIONARY
360
6F28
102
}
102
{ACAD_REACTORS
330
68C6
102
}
330
68C6
100
AcDbVisualStyle
  2

 70
     7
 71
     1
 72
     0
 73
     1
 90
        0
 40
-0.6
 41
-30.0
 62
     5
 63
     7
 74
     0
 91
        4
 64
     7
 65
   257
 75
     1
175
     1
 42
1.0
 92
        8
 66
     7
 43
1.0
 76
     1
 77
     6
 78
     2
 67
     7
 79
     5
170
     0
171
     0
290
     0
174
     0
 93
        1
 44
0.0
173
     0
291
     1
 45
0.0
1001
ACAD
1000
AcDbSavedByObjectVersion
1070
     0
  0
VISUALSTYLE
  5
68D2
102
{ACAD_XDICTIONARY
360
6F36
102
}
102
{ACAD_REACTORS
330
68C6
102
}
330
68C6
100
AcDbVisualStyle
  2

 70
    12
 71
     2
 72
     2
 73
     0
 90
        0
 40
-0.6
 41
-30.0
 62
     5
 63
     7
 74
     1
 91
        4
 64
     7
 65
   257
 75
     1
175
     1
 42
1.0
 92
        8
 66
     7
 43
1.0
 76
     1
 77
     6
 78
     2
 67
     7
 79
     5
170
     0
171
     0
290
     0
174
     0
 93
        1
 44
50.0
173
     0
291
     1
 45
0.0
1001
ACAD
1000
AcDbSavedByObjectVersion
1070
     0
  0
VISUALSTYLE
  5
68D6
102
{ACAD_XDICTIONARY
360
6F3E
102
}
102
{ACAD_REACTORS
330
68C6
102
}
330
68C6
100
AcDbVisualStyle
  2

 70
    16
 71
     2
 72
     2
 73
     3
 90
        0
 40
-0.6
 41
-30.0
 62
     5
 63
     8
 74
     1
 91
        4
 64
     7
 65
   257
 75
     1
175
     1
 42
1.0
 92
        8
 66
     8
 43
1.0
 76
     1
 77
     6
 78
     2
 67
     7
 79
     5
170
     0
171
     0
290
     0
174
     0
 93
        1
 44
0.0
173
     0
291
     1
 45
0.0
1001
ACAD
1000
AcDbSavedByObjectVersion
1070
     0
  0
VISUALSTYLE
  5
68CF
102
{ACAD_XDICTIONARY
360
6F30
102
}
102
{ACAD_REACTORS
330
68C6
102
}
330
68C6
100
AcDbVisualStyle
  2

 70
     9
 71
     3
 72
     2
 73
     0
 90
        0
 40
-0.6
 41
-30.0
 62
     5
 63
     7
 74
     2
 91
        2
 64
     7
 65
   257
 75
     1
175
     1
 42
179.0
 92
        8
 66
     7
 43
1.0
 76
     1
 77
     6
 78
     2
 67
     7
 79
     3
170
     0
171
     0
290
     0
174
     0
 93
        1
 44
0.0
173
     0
291
     0
 45
0.0
1001
ACAD
1000
AcDbSavedByObjectVersion
1070
     0
  0
VISUALSTYLE
  5
68D1
102
{ACAD_XDICTIONARY
360
6F34
102
}
102
{ACAD_REACTORS
330
68C6
102
}
330
68C6
100
AcDbVisualStyle
  2

 70
    11
 71
     2
 72
     2
 73
     0
 90
        0
 40
-0.6
 41
-30.0
 62
     5
 63
     7
 74
     1
 91
        4
 64
     7
 65
   257
 75
     1
175
     1
 42
1.0
 92
        8
 66
     7
 43
1.0
 76
     1
 77
     6
 78
     2
 67
     7
 79
     5
170
     0
171
     0
290
     0
174
     0
 93
        1
 44
-50.0
173
     0
291
     1
 45
0.0
1001
ACAD
1000
AcDbSavedByObjectVersion
1070
     0
  0
VISUALSTYLE
  5
68DE
102
{ACAD_XDICTIONARY
360
6F4E
102
}
102
{ACAD_REACTORS
330
68C6
102
}
330
68C6
100
AcDbVisualStyle
  2

 70
    22
 71
     2
 72
     2
 73
     0
 90
        0
 40
-0.6
 41
-30.0
 62
     5
 63
     7
 74
     1
 91
        4
 64
     7
 65
   257
 75
     1
175
     1
 42
1.0
 92
        8
 66
     7
 43
1.0
 76
     1
 77
     6
 78
     2
 67
     7
 79
     5
170
     0
171
     0
290
     0
174
     0
 93
        1
 44
0.0
173
     0
291
     1
 45
0.0
1001
ACAD
1000
AcDbSavedByObjectVersion
1070
     0
  0
VISUALSTYLE
  5
68D5
102
{ACAD_XDICTIONARY
360
6F3C
102
}
102
{ACAD_REACTORS
330
68C6
102
}
330
68C6
100
AcDbVisualStyle
  2

 70
    15
 71
     2
 72
     2
 73
     0
 90
        0
 40
-0.6
 41
-30.0
 62
     5
 63
     7
 74
     1
 91
        4
 64
     7
 65
   257
 75
     1
175
     1
 42
1.0
 92
        8
 66
     7
 43
1.0
 76
     1
 77
     6
 78
     2
 67
     7
 79
     5
170
     0
171
     0
290
     0
174
     0
 93
        1
 44
0.0
173
     0
291
     1
 45
0.0
1001
ACAD
1000
AcDbSavedByObjectVersion
1070
     0
  0
VISUALSTYLE
  5
68C7
102
{ACAD_XDICTIONARY
360
6F20
102
}
102
{ACAD_REACTORS
330
68C6
102
}
330
68C6
100
AcDbVisualStyle
  2

 70
     0
 71
     2
 72
     1
 73
     1
 90
        2
 40
-0.6
 41
30.0
 62
     5
 63
     7
 74
     0
 91
        0
 64
     7
 65
   257
 75
     1
175
     1
 42
1.0
 92
        8
 66
     7
 43
1.0
 76
     1
 77
     6
 78
     2
 67
     7
 79
     5
170
     0
171
     0
290
     0
174
     0
 93
       13
 44
0.0
173
     0
291
     1
 45
0.0
1001
ACAD
1000
AcDbSavedByObjectVersion
1070
     0
  0
VISUALSTYLE
  5
68C8
102
{ACAD_XDICTIONARY
360
6F22
102
}
102
{ACAD_REACTORS
330
68C6
102
}
330
68C6
100
AcDbVisualStyle
  2

 70
     1
 71
     2
 72
     1
 73
     1
 90
        2
 40
-0.6
 41
30.0
 62
     5
 63
     7
 74
     1
 91
        0
 64
     7
 65
   257
 75
     1
175
     1
 42
1.0
 92
        0
 66
   257
 43
1.0
 76
     1
 77
     6
 78
     2
 67
     7
 79
     5
170
     0
171
     0
290
     0
174
     0
 93
       13
 44
0.0
173
     0
291
     1
 45
0.0
1001
ACAD
1000
AcDbSavedByObjectVersion
1070
     0
  0
VISUALSTYLE
  5
68C9
102
{ACAD_XDICTIONARY
360
6F24
102
}
102
{ACAD_REACTORS
330
68C6
102
}
330
68C6
100
AcDbVisualStyle
  2

 70
     2
 71
     2
 72
     2
 73
     1
 90
        2
 40
-0.6
 41
30.0
 62
     5
 63
     7
 74
     0
 91
        0
 64
     7
 65
   257
 75
     1
175
     1
 42
1.0
 92
        0
 66
     7
 43
1.0
 76
     1
 77
     6
 78
     2
 67
     7
 79
     5
170
     0
171
     0
290
     0
174
     0
 93
       13
 44
0.0
173
     0
291
     1
 45
0.0
1001
ACAD
1000
AcDbSavedByObjectVersion
1070
     0
  0
VISUALSTYLE
  5
68CA
102
{ACAD_XDICTIONARY
360
6F26
102
}
102
{ACAD_REACTORS
330
68C6
102
}
330
68C6
100
AcDbVisualStyle
  2

 70
     3
 71
     2
 72
     2
 73
     1
 90
        2
 40
-0.6
 41
30.0
 62
     5
 63
     7
 74
     1
 91
        0
 64
     7
 65
   257
 75
     1
175
     1
 42
1.0
 92
        0
 66
   257
 43
1.0
 76
     1
 77
     6
 78
     2
 67
     7
 79
     5
170
     0
171
     0
290
     0
174
     0
 93
       13
 44
0.0
173
     0
291
     1
 45
0.0
1001
ACAD
1000
AcDbSavedByObjectVersion
1070
     0
  0
VISUALSTYLE
  5
68CE
102
{ACAD_XDICTIONARY
360
6F2E
102
}
102
{ACAD_REACTORS
330
68C6
102
}
330
68C6
100
AcDbVisualStyle
  2

 70
     6
 71
     1
 72
     2
 73
     2
 90
        0
 40
-0.6
 41
-30.0
 62
     5
 63
     7
 74
     2
 91
        2
 64
     7
 65
   257
 75
     2
175
     1
 42
40.0
 92
        0
 66
   257
 43
1.0
 76
     1
 77
     6
 78
     2
 67
     7
 79
     3
170
     0
171
     0
290
     0
174
     0
 93
        1
 44
0.0
173
     0
291
     0
 45
0.0
1001
ACAD
1000
AcDbSavedByObjectVersion
1070
     0
  0
VISUALSTYLE
  5
68DC
102
{ACAD_XDICTIONARY
360
6F4A
102
}
102
{ACAD_REACTORS
330
68C6
102
}
330
68C6
100
AcDbVisualStyle
  2

 70
    20
 71
     2
 72
     2
 73
     0
 90
        0
 40
-0.6
 41
-30.0
 62
     5
 63
     7
 74
     1
 91
        4
 64
     7
 65
   257
 75
     1
175
     1
 42
1.0
 92
       10
 66
     7
 43
1.0
 76
     1
 77
     6
 78
     2
 67
     7
 79
     5
170
     0
171
     0
290
     0
174
     0
 93
        1
 44
0.0
173
     0
291
     1
 45
0.0
1001
ACAD
1000
AcDbSavedByObjectVersion
1070
     0
  0
VISUALSTYLE
  5
68D4
102
{ACAD_XDICTIONARY
360
6F3A
102
}
102
{ACAD_REACTORS
330
68C6
102
}
330
68C6
100
AcDbVisualStyle
  2

 70
    14
 71
     2
 72
     2
 73
     0
 90
        0
 40
-0.6
 41
-30.0
 62
     5
 63
     7
 74
     1
 91
        4
 64
     7
 65
   257
 75
     7
175
     7
 42
1.0
 92
        8
 66
     7
 43
1.0
 76
     1
 77
     6
 78
     2
 67
     7
 79
     5
170
     0
171
     0
290
     0
174
     0
 93
        1
 44
0.0
173
     0
291
     1
 45
0.0
1001
ACAD
1000
AcDbSavedByObjectVersion
1070
     0
  0
VISUALSTYLE
  5
68DD
102
{ACAD_XDICTIONARY
360
6F4C
102
}
102
{ACAD_REACTORS
330
68C6
102
}
330
68C6
100
AcDbVisualStyle
  2

 70
    21
 71
     2
 72
     2
 73
     0
 90
        0
 40
-0.6
 41
-30.0
 62
     5
 63
     7
 74
     1
 91
        4
 64
     7
 65
   257
 75
     1
175
     1
 42
1.0
 92
        9
 66
     7
 43
1.0
 76
     1
 77
     6
 78
     2
 67
     7
 79
     5
170
     0
171
     0
290
     0
174
     0
 93
        1
 44
0.0
173
     0
291
     1
 45
0.0
1001
ACAD
1000
AcDbSavedByObjectVersion
1070
     0
  0
VISUALSTYLE
  5
68D0
102
{ACAD_XDICTIONARY
360
6F32
102
}
102
{ACAD_REACTORS
330
68C6
102
}
330
68C6
100
AcDbVisualStyle
  2

 70
     8
 71
     2
 72
     3
 73
     0
 90
        2
 40
-0.6
 41
30.0
 62
     5
 63
     7
 74
     0
 91
        0
 64
     7
 65
   257
 75
     1
175
     1
 42
1.0
 92
        8
 66
   257
 43
1.0
 76
     1
 77
     6
 78
     2
 67
     7
 79
     3
170
     0
171
     0
290
     0
174
     0
 93
       13
 44
0.0
173
     0
291
     0
 45
0.0
1001
ACAD
1000
AcDbSavedByObjectVersion
1070
     0
  0
VISUALSTYLE
  5
68DB
102
{ACAD_XDICTIONARY
360
6F48
102
}
102
{ACAD_REACTORS
330
68C6
102
}
330
68C6
100
AcDbVisualStyle
  2

 70
    27
 71
     2
 72
     2
 73
     1
 90
        2
 40
-0.6
 41
30.0
 62
     5
 63
     7
 74
     0
 91
        4
 64
     7
 65
   257
 75
     1
175
     1
 42
1.0
 92
        8
 66
   257
 43
1.0
 76
     1
 77
     6
 78
     2
 67
     8
 79
     3
170
     0
171
     0
290
     0
174
     0
 93
        5
 44
0.0
173
     0
291
     0
 45
0.0
1001
ACAD
1000
AcDbSavedByObjectVersion
1070
     0
  0
VISUALSTYLE
  5
68DA
102
{ACAD_XDICTIONARY
360
6F46
102
}
102
{ACAD_REACTORS
330
68C6
102
}
330
68C6
100
AcDbVisualStyle
  2

 70
    26
 71
     2
 72
     2
 73
     1
 90
        2
 40
-0.6
 41
30.0
 62
     5
 63
     7
 74
     1
 91
       10
 64
     7
 65
   257
 75
     2
175
     1
 42
1.0
 92
        8
 66
   257
 43
1.0
 76
     1
 77
     6
 78
     2
 67
     7
 79
     3
170
     0
171
     0
290
     0
174
     0
 93
        5
 44
0.0
173
     0
291
     0
 45
0.0
1001
ACAD
1000
AcDbSavedByObjectVersion
1070
     0
  0
VISUALSTYLE
  5
68D7
102
{ACAD_XDICTIONARY
360
6F40
102
}
102
{ACAD_REACTORS
330
68C6
102
}
330
68C6
100
AcDbVisualStyle
  2

 70
    23
 71
     2
 72
     2
 73
     3
 90
        0
 40
-0.6
 41
-30.0
 62
     5
 63
     7
 74
     2
 91
        2
 64
     7
 65
     7
 75
     1
175
     1
 42
40.0
 92
        8
 66
     7
 43
1.0
 76
     1
 77
     6
 78
     2
 67
     7
 79
     3
170
     0
171
     0
290
     0
174
     0
 93
        1
 44
0.0
173
     0
291
     0
 45
0.0
1001
ACAD
1000
AcDbSavedByObjectVersion
1070
     0
  0
VISUALSTYLE
  5
68D8
102
{ACAD_XDICTIONARY
360
6F42
102
}
102
{ACAD_REACTORS
330
68C6
102
}
330
68C6
100
AcDbVisualStyle
  2

 70
    24
 71
     1
 72
     2
 73
     2
 90
        0
 40
-0.6
 41
-30.0
 62
     5
 63
     7
 74
     2
 91
        2
 64
     7
 65
     7
 75
     1
175
     1
 42
40.0
 92
       11
 66
     7
 43
1.0
 76
     1
 77
     6
 78
     2
 67
     7
 79
     6
170
     0
171
     0
290
     0
174
     0
 93
        1
 44
0.0
173
     0
291
     0
 45
0.0
1001
ACAD
1000
AcDbSavedByObjectVersion
1070
     0
  0
VISUALSTYLE
  5
68D3
102
{ACAD_XDICTIONARY
360
6F38
102
}
102
{ACAD_REACTORS
330
68C6
102
}
330
68C6
100
AcDbVisualStyle
  2

 70
    13
 71
     2
 72
     2
 73
     0
 90
        0
 40
-0.6
 41
-30.0
 62
     5
 63
     7
 74
     1
 91
        4
 64
     7
 65
   257
 75
     1
175
     1
 42
1.0
 92
       12
 66
     7
 43
1.0
 76
     1
 77
     6
 78
     2
 67
     7
 79
     5
170
     0
171
     0
290
     0
174
     0
 93
        1
 44
0.0
173
     0
291
     1
 45
0.0
1001
ACAD
1000
AcDbSavedByObjectVersion
1070
     0
  0
VISUALSTYLE
  5
68CD
102
{ACAD_XDICTIONARY
360
6F2C
102
}
102
{ACAD_REACTORS
330
68C6
102
}
330
68C6
100
AcDbVisualStyle
  2

 70
     5
 71
     0
 72
     2
 73
     0
 90
        0
 40
-0.6
 41
-30.0
 62
     5
 63
     7
 74
     1
 91
        4
 64
     7
 65
   257
 75
     1
175
     1
 42
1.0
 92
        0
 66
   257
 43
1.0
 76
     1
 77
     6
 78
     2
 67
     7
 79
     3
170
     0
171
     0
290
     0
174
     0
 93
        1
 44
0.0
173
     0
291
     0
 45
0.0
1001
ACAD
1000
AcDbSavedByObjectVersion
1070
     0
  0
VISUALSTYLE
  5
68D9
102
{ACAD_XDICTIONARY
360
6F44
102
}
102
{ACAD_REACTORS
330
68C6
102
}
330
68C6
100
AcDbVisualStyle
  2

 70
    25
 71
     2
 72
     2
 73
     1
 90
        1
 40
0.5
 41
-30.0
 62
     5
 63
     7
 74
     1
 91
        0
 64
     7
 65
   257
 75
     1
175
     1
 42
1.0
 92
        8
 66
     7
 43
1.0
 76
     1
 77
     6
 78
     2
 67
     7
 79
     3
170
     0
171
     0
290
     0
174
     0
 93
       13
 44
0.0
173
     0
291
     0
 45
0.0
1001
ACAD
1000
AcDbSavedByObjectVersion
1070
     0
  0
DICTIONARYVAR
  5
6B27
102
{ACAD_REACTORS
330
5D91
102
}
330
5D91
100
DictionaryVariables
280
     0
  1
1:1
  0
DICTIONARYVAR
  5
6B24
102
{ACAD_REACTORS
330
5D91
102
}
330
5D91
100
DictionaryVariables
280
     0
  1
STANDARD
  0
DICTIONARYVAR
  5
6B23
102
{ACAD_REACTORS
330
5D91
102
}
330
5D91
100
DictionaryVariables
280
     0
  1
STANDARD
  0
DICTIONARYVAR
  5
6B25
102
{ACAD_REACTORS
330
5D91
102
}
330
5D91
100
DictionaryVariables
280
     0
  1
Imperial24
  0
DICTIONARYVAR
  5
6B26
102
{ACAD_REACTORS
330
5D91
102
}
330
5D91
100
DictionaryVariables
280
     0
  1
Imperial24
  0
DICTIONARYVAR
  5
5D92
102
{ACAD_REACTORS
330
5D91
102
}
330
5D91
100
DictionaryVariables
280
     0
  1
1
  0
DICTIONARYVAR
  5
6B29
102
{ACAD_REACTORS
330
5D91
102
}
330
5D91
100
DictionaryVariables
280
     0
  1
0
  0
DICTIONARYVAR
  5
6B28
102
{ACAD_REACTORS
330
5D91
102
}
330
5D91
100
DictionaryVariables
280
     0
  1
127
  0
DICTIONARYVAR
  5
6F15
102
{ACAD_REACTORS
330
5D91
102
}
330
5D91
100
DictionaryVariables
280
     0
  1
2
  0
DICTIONARY
  5
6F53
330
68F9
100
AcDbDictionary
280
     1
281
     1
  3
ACAD_XREC_ROUNDTRIP
360
6F54
  0
DICTIONARY
  5
6F1C
330
6878
100
AcDbDictionary
280
     1
281
     1
  3
ACAD_XREC_ROUNDTRIP
360
6F1D
  0
DICTIONARY
  5
6F1E
330
6879
100
AcDbDictionary
280
     1
281
     1
  3
ACAD_XREC_ROUNDTRIP
360
6F1F
  0
DICTIONARY
  5
68B7
330
68B6
100
AcDbDictionary
280
     1
281
     1
  3
ACAD_XREC_ROUNDTRIP
360
6B38
  3
BUMPTILE
360
68B9
  3
DIFFUSETILE
360
68B8
  3
OPACITYTILE
360
68BC
  3
REFLECTIONTILE
360
68BB
  3
REFRACTIONTILE
360
68BD
  3
SPECULARTILE
360
68BA
  0
DICTIONARY
  5
68AF
330
68AE
100
AcDbDictionary
280
     1
281
     1
  3
ACAD_XREC_ROUNDTRIP
360
6B37
  3
BUMPTILE
360
68B1
  3
DIFFUSETILE
360
68B0
  3
OPACITYTILE
360
68B4
  3
REFLECTIONTILE
360
68B3
  3
REFRACTIONTILE
360
68B5
  3
SPECULARTILE
360
68B2
  0
DICTIONARY
  5
68BF
330
68BE
100
AcDbDictionary
280
     1
281
     1
  3
ACAD_XREC_ROUNDTRIP
360
6B39
  3
BUMPTILE
360
68C1
  3
DIFFUSETILE
360
68C0
  3
OPACITYTILE
360
68C4
  3
REFLECTIONTILE
360
68C3
  3
REFRACTIONTILE
360
68C5
  3
SPECULARTILE
360
68C2
  0
DICTIONARY
  5
6F51
330
68F7
100
AcDbDictionary
280
     1
281
     1
  3
ACAD_XREC_ROUNDTRIP
360
6F52
  0
DICTIONARY
  5
6B2B
330
68E1
100
AcDbDictionary
280
     1
281
     1
  3
ACAD_ROUNDTRIP_2008_TABLESTYLE_CELLSTYLEMAP
360
6F16
  3
ACAD_XREC_ROUNDTRIP
360
6F50
  0
DICTIONARY
  5
6F2A
330
68CC
100
AcDbDictionary
280
     1
281
     1
  3
ACAD_XREC_ROUNDTRIP
360
6F2B
  0
DICTIONARY
  5
6F28
330
68CB
100
AcDbDictionary
280
     1
281
     1
  3
ACAD_XREC_ROUNDTRIP
360
6F29
  0
DICTIONARY
  5
6F36
330
68D2
100
AcDbDictionary
280
     1
281
     1
  3
ACAD_XREC_ROUNDTRIP
360
6F37
  0
DICTIONARY
  5
6F3E
330
68D6
100
AcDbDictionary
280
     1
281
     1
  3
ACAD_XREC_ROUNDTRIP
360
6F3F
  0
DICTIONARY
  5
6F30
330
68CF
100
AcDbDictionary
280
     1
281
     1
  3
ACAD_XREC_ROUNDTRIP
360
6F31
  0
DICTIONARY
  5
6F34
330
68D1
100
AcDbDictionary
280
     1
281
     1
  3
ACAD_XREC_ROUNDTRIP
360
6F35
  0
DICTIONARY
  5
6F4E
330
68DE
100
AcDbDictionary
280
     1
281
     1
  3
ACAD_XREC_ROUNDTRIP
360
6F4F
  0
DICTIONARY
  5
6F3C
330
68D5
100
AcDbDictionary
280
     1
281
     1
  3
ACAD_XREC_ROUNDTRIP
360
6F3D
  0
DICTIONARY
  5
6F20
330
68C7
100
AcDbDictionary
280
     1
281
     1
  3
ACAD_XREC_ROUNDTRIP
360
6F21
  0
DICTIONARY
  5
6F22
330
68C8
100
AcDbDictionary
280
     1
281
     1
  3
ACAD_XREC_ROUNDTRIP
360
6F23
  0
DICTIONARY
  5
6F24
330
68C9
100
AcDbDictionary
280
     1
281
     1
  3
ACAD_XREC_ROUNDTRIP
360
6F25
  0
DICTIONARY
  5
6F26
330
68CA
100
AcDbDictionary
280
     1
281
     1
  3
ACAD_XREC_ROUNDTRIP
360
6F27
  0
DICTIONARY
  5
6F2E
330
68CE
100
AcDbDictionary
280
     1
281
     1
  3
ACAD_XREC_ROUNDTRIP
360
6F2F
  0
DICTIONARY
  5
6F4A
330
68DC
100
AcDbDictionary
280
     1
281
     1
  3
ACAD_XREC_ROUNDTRIP
360
6F4B
  0
DICTIONARY
  5
6F3A
330
68D4
100
AcDbDictionary
280
     1
281
     1
  3
ACAD_XREC_ROUNDTRIP
360
6F3B
  0
DICTIONARY
  5
6F4C
330
68DD
100
AcDbDictionary
280
     1
281
     1
  3
ACAD_XREC_ROUNDTRIP
360
6F4D
  0
DICTIONARY
  5
6F32
330
68D0
100
AcDbDictionary
280
     1
281
     1
  3
ACAD_XREC_ROUNDTRIP
360
6F33
  0
DICTIONARY
  5
6F48
330
68DB
100
AcDbDictionary
280
     1
281
     1
  3
ACAD_XREC_ROUNDTRIP
360
6F49
  0
DICTIONARY
  5
6F46
330
68DA
100
AcDbDictionary
280
     1
281
     1
  3
ACAD_XREC_ROUNDTRIP
360
6F47
  0
DICTIONARY
  5
6F40
330
68D7
100
AcDbDictionary
280
     1
281
     1
  3
ACAD_XREC_ROUNDTRIP
360
6F41
  0
DICTIONARY
  5
6F42
330
68D8
100
AcDbDictionary
280
     1
281
     1
  3
ACAD_XREC_ROUNDTRIP
360
6F43
  0
DICTIONARY
  5
6F38
330
68D3
100
AcDbDictionary
280
     1
281
     1
  3
ACAD_XREC_ROUNDTRIP
360
6F39
  0
DICTIONARY
  5
6F2C
330
68CD
100
AcDbDictionary
280
     1
281
     1
  3
ACAD_XREC_ROUNDTRIP
360
6F2D
  0
DICTIONARY
  5
6F44
330
68D9
100
AcDbDictionary
280
     1
281
     1
  3
ACAD_XREC_ROUNDTRIP
360
6F45
  0
XRECORD
  5
6F54
102
{ACAD_REACTORS
330
6F53
102
}
330
6F53
100
AcDbXrecord
280
     1
102
DISPLAYNAME
  1
Imperial24
102
FLAGS
 90
        0
  0
XRECORD
  5
6F1D
102
{ACAD_REACTORS
330
6F1C
102
}
330
6F1C
100
AcDbXrecord
280
     1
102
SHADEPLOT
 70
     0
102
SHADEPLOTRESLEVEL
 70
     2
102
SHADEPLOTCUSTOMDPI
 70
   300
  0
XRECORD
  5
6F1F
102
{ACAD_REACTORS
330
6F1E
102
}
330
6F1E
100
AcDbXrecord
280
     1
102
SHADEPLOT
 70
     0
102
SHADEPLOTRESLEVEL
 70
     2
102
SHADEPLOTCUSTOMDPI
 70
   300
  0
XRECORD
  5
6B38
102
{ACAD_REACTORS
330
68B7
102
}
330
68B7
100
AcDbXrecord
280
     1
102
MATERIAL
148
0.0
149
0.0
149
0.0
 93
        0
 94
      127
282
     0
 72
     0
 77
     0
171
     0
175
     0
179
     0
273
     0
  0
XRECORD
  5
68B9
102
{ACAD_REACTORS
330
68B7
102
}
330
68B7
100
AcDbXrecord
280
     1
270
     1
271
     1
  0
XRECORD
  5
68B8
102
{ACAD_REACTORS
330
68B7
102
}
330
68B7
100
AcDbXrecord
280
     1
270
     1
271
     1
  0
XRECORD
  5
68BC
102
{ACAD_REACTORS
330
68B7
102
}
330
68B7
100
AcDbXrecord
280
     1
270
     1
271
     1
  0
XRECORD
  5
68BB
102
{ACAD_REACTORS
330
68B7
102
}
330
68B7
100
AcDbXrecord
280
     1
270
     1
271
     1
  0
XRECORD
  5
68BD
102
{ACAD_REACTORS
330
68B7
102
}
330
68B7
100
AcDbXrecord
280
     1
270
     1
271
     1
  0
XRECORD
  5
68BA
102
{ACAD_REACTORS
330
68B7
102
}
330
68B7
100
AcDbXrecord
280
     1
270
     1
271
     1
  0
XRECORD
  5
6B37
102
{ACAD_REACTORS
330
68AF
102
}
330
68AF
100
AcDbXrecord
280
     1
102
MATERIAL
148
0.0
149
0.0
149
0.0
 93
        0
 94
      127
282
     0
 72
     0
 77
     0
171
     0
175
     0
179
     0
273
     0
  0
XRECORD
  5
68B1
102
{ACAD_REACTORS
330
68AF
102
}
330
68AF
100
AcDbXrecord
280
     1
270
     1
271
     1
  0
XRECORD
  5
68B0
102
{ACAD_REACTORS
330
68AF
102
}
330
68AF
100
AcDbXrecord
280
     1
270
     1
271
     1
  0
XRECORD
  5
68B4
102
{ACAD_REACTORS
330
68AF
102
}
330
68AF
100
AcDbXrecord
280
     1
270
     1
271
     1
  0
XRECORD
  5
68B3
102
{ACAD_REACTORS
330
68AF
102
}
330
68AF
100
AcDbXrecord
280
     1
270
     1
271
     1
  0
XRECORD
  5
68B5
102
{ACAD_REACTORS
330
68AF
102
}
330
68AF
100
AcDbXrecord
280
     1
270
     1
271
     1
  0
XRECORD
  5
68B2
102
{ACAD_REACTORS
330
68AF
102
}
330
68AF
100
AcDbXrecord
280
     1
270
     1
271
     1
  0
XRECORD
  5
6B39
102
{ACAD_REACTORS
330
68BF
102
}
330
68BF
100
AcDbXrecord
280
     1
102
MATERIAL
148
0.0
149
0.0
149
0.0
 93
        0
 94
      127
282
     0
 72
     0
 77
     0
171
     0
175
     0
179
     0
273
     0
  0
XRECORD
  5
68C1
102
{ACAD_REACTORS
330
68BF
102
}
330
68BF
100
AcDbXrecord
280
     1
270
     1
271
     1
  0
XRECORD
  5
68C0
102
{ACAD_REACTORS
330
68BF
102
}
330
68BF
100
AcDbXrecord
280
     1
270
     1
271
     1
  0
XRECORD
  5
68C4
102
{ACAD_REACTORS
330
68BF
102
}
330
68BF
100
AcDbXrecord
280
     1
270
     1
271
     1
  0
XRECORD
  5
68C3
102
{ACAD_REACTORS
330
68BF
102
}
330
68BF
100
AcDbXrecord
280
     1
270
     1
271
     1
  0
XRECORD
  5
68C5
102
{ACAD_REACTORS
330
68BF
102
}
330
68BF
100
AcDbXrecord
280
     1
270
     1
271
     1
  0
XRECORD
  5
68C2
102
{ACAD_REACTORS
330
68BF
102
}
330
68BF
100
AcDbXrecord
280
     1
270
     1
271
     1
  0
XRECORD
  5
6F52
102
{ACAD_REACTORS
330
6F51
102
}
330
6F51
100
AcDbXrecord
280
     1
102
DISPLAYNAME
  1
Imperial24
102
FLAGS
 90
        0
  0
CELLSTYLEMAP
  5
6F16
102
{ACAD_REACTORS
330
6B2B
102
}
330
6B2B
100
AcDbCellStyleMap
 90
        3
300
CELLSTYLE
  1
TABLEFORMAT_BEGIN
 90
        5
170
     1
 91
        0
 92
    32768
 62
   257
 93
        1
300
CONTENTFORMAT
  1
CONTENTFORMAT_BEGIN
 90
        0
 91
        0
 92
      512
 93
        0
300

 40
0.0
140
1.0
 94
        5
 62
     0
340
11
144
0.25
309
CONTENTFORMAT_END
171
     1
301
MARGIN
  1
CELLMARGIN_BEGIN
 40
0.06
 40
0.06
 40
0.06
 40
0.06
 40
0.18
 40
0.18
309
CELLMARGIN_END
 94
        6
 95
        1
302
GRIDFORMAT
  1
GRIDFORMAT_BEGIN
 90
        0
 91
        1
 62
     0
 92
       -2
340
0
 93
        0
 40
0.045
309
GRIDFORMAT_END
 95
        2
302
GRIDFORMAT
  1
GRIDFORMAT_BEGIN
 90
        0
 91
        1
 62
     0
 92
       -2
340
0
 93
        0
 40
0.045
309
GRIDFORMAT_END
 95
        4
302
GRIDFORMAT
  1
GRIDFORMAT_BEGIN
 90
        0
 91
        1
 62
     0
 92
       -2
340
0
 93
        0
 40
0.045
309
GRIDFORMAT_END
 95
        8
302
GRIDFORMAT
  1
GRIDFORMAT_BEGIN
 90
        0
 91
        1
 62
     0
 92
       -2
340
0
 93
        0
 40
0.045
309
GRIDFORMAT_END
 95
       16
302
GRIDFORMAT
  1
GRIDFORMAT_BEGIN
 90
        0
 91
        1
 62
     0
 92
       -2
340
0
 93
        0
 40
0.045
309
GRIDFORMAT_END
 95
       32
302
GRIDFORMAT
  1
GRIDFORMAT_BEGIN
 90
        0
 91
        1
 62
     0
 92
       -2
340
0
 93
        0
 40
0.045
309
GRIDFORMAT_END
309
TABLEFORMAT_END
  1
CELLSTYLE_BEGIN
 90
        1
 91
        1
300
_TITLE
309
CELLSTYLE_END
300
CELLSTYLE
  1
TABLEFORMAT_BEGIN
 90
        5
170
     1
 91
        0
 92
        0
 62
   257
 93
        1
300
CONTENTFORMAT
  1
CONTENTFORMAT_BEGIN
 90
        0
 91
        0
 92
      512
 93
        0
300

 40
0.0
140
1.0
 94
        5
 62
     0
340
11
144
0.18
309
CONTENTFORMAT_END
171
     1
301
MARGIN
  1
CELLMARGIN_BEGIN
 40
0.06
 40
0.06
 40
0.06
 40
0.06
 40
0.18
 40
0.18
309
CELLMARGIN_END
 94
        6
 95
        1
302
GRIDFORMAT
  1
GRIDFORMAT_BEGIN
 90
        0
 91
        1
 62
     0
 92
       -2
340
0
 93
        0
 40
0.045
309
GRIDFORMAT_END
 95
        2
302
GRIDFORMAT
  1
GRIDFORMAT_BEGIN
 90
        0
 91
        1
 62
     0
 92
       -2
340
0
 93
        0
 40
0.045
309
GRIDFORMAT_END
 95
        4
302
GRIDFORMAT
  1
GRIDFORMAT_BEGIN
 90
        0
 91
        1
 62
     0
 92
       -2
340
0
 93
        0
 40
0.045
309
GRIDFORMAT_END
 95
        8
302
GRIDFORMAT
  1
GRIDFORMAT_BEGIN
 90
        0
 91
        1
 62
     0
 92
       -2
340
0
 93
        0
 40
0.045
309
GRIDFORMAT_END
 95
       16
302
GRIDFORMAT
  1
GRIDFORMAT_BEGIN
 90
        0
 91
        1
 62
     0
 92
       -2
340
0
 93
        0
 40
0.045
309
GRIDFORMAT_END
 95
       32
302
GRIDFORMAT
  1
GRIDFORMAT_BEGIN
 90
        0
 91
        1
 62
     0
 92
       -2
340
0
 93
        0
 40
0.045
309
GRIDFORMAT_END
309
TABLEFORMAT_END
  1
CELLSTYLE_BEGIN
 90
        2
 91
        1
300
_HEADER
309
CELLSTYLE_END
300
CELLSTYLE
  1
TABLEFORMAT_BEGIN
 90
        5
170
     1
 91
        0
 92
        0
 62
   257
 93
        1
300
CONTENTFORMAT
  1
CONTENTFORMAT_BEGIN
 90
        0
 91
        0
 92
      512
 93
        0
300

 40
0.0
140
1.0
 94
        2
 62
     0
340
11
144
0.18
309
CONTENTFORMAT_END
171
     1
301
MARGIN
  1
CELLMARGIN_BEGIN
 40
0.06
 40
0.06
 40
0.06
 40
0.06
 40
0.18
 40
0.18
309
CELLMARGIN_END
 94
        6
 95
        1
302
GRIDFORMAT
  1
GRIDFORMAT_BEGIN
 90
        0
 91
        1
 62
     0
 92
       -2
340
0
 93
        0
 40
0.045
309
GRIDFORMAT_END
 95
        2
302
GRIDFORMAT
  1
GRIDFORMAT_BEGIN
 90
        0
 91
        1
 62
     0
 92
       -2
340
0
 93
        0
 40
0.045
309
GRIDFORMAT_END
 95
        4
302
GRIDFORMAT
  1
GRIDFORMAT_BEGIN
 90
        0
 91
        1
 62
     0
 92
       -2
340
0
 93
        0
 40
0.045
309
GRIDFORMAT_END
 95
        8
302
GRIDFORMAT
  1
GRIDFORMAT_BEGIN
 90
        0
 91
        1
 62
     0
 92
       -2
340
0
 93
        0
 40
0.045
309
GRIDFORMAT_END
 95
       16
302
GRIDFORMAT
  1
GRIDFORMAT_BEGIN
 90
        0
 91
        1
 62
     0
 92
       -2
340
0
 93
        0
 40
0.045
309
GRIDFORMAT_END
 95
       32
302
GRIDFORMAT
  1
GRIDFORMAT_BEGIN
 90
        0
 91
        1
 62
     0
 92
       -2
340
0
 93
        0
 40
0.045
309
GRIDFORMAT_END
309
TABLEFORMAT_END
  1
CELLSTYLE_BEGIN
 90
        3
 91
        2
300
_DATA
309
CELLSTYLE_END
  0
XRECORD
  5
6F50
102
{ACAD_REACTORS
330
6B2B
102
}
330
6B2B
100
AcDbXrecord
280
     1
102
ACAD_ROUNDTRIP_PRE2007_TABLESTYLE
 90
      512
 91
        0
  1

 92
      512
 93
        0
  2

 94
      512
 95
        0
  3

  0
XRECORD
  5
6F2B
102
{ACAD_REACTORS
330
6F2A
102
}
330
6F2A
100
AcDbXrecord
280
     1
102
RTVSPost2010Prop28
280
     1
102
RTVSPost2010PropOp28
 70
     1
102
RTVSPost2010Prop29
280
     1
102
RTVSPost2010PropOp29
 70
     1
102
RTVSPost2010Prop30
280
     0
102
RTVSPost2010PropOp30
 70
     1
102
RTVSPost2010Prop31
280
     0
102
RTVSPost2010PropOp31
 70
     1
102
RTVSPost2010Prop32
280
     0
102
RTVSPost2010PropOp32
 70
     1
102
RTVSPost2010Prop33
280
     0
102
RTVSPost2010PropOp33
 70
     1
102
RTVSPost2010Prop34
280
     0
102
RTVSPost2010PropOp34
 70
     1
102
RTVSPost2010Prop35
280
     0
102
RTVSPost2010PropOp35
 70
     1
102
RTVSPost2010Prop36
280
     0
102
RTVSPost2010PropOp36
 70
     1
102
RTVSPost2010Prop37
 90
       50
102
RTVSPost2010PropOp37
 70
     1
102
RTVSPost2010Prop38
140
0.0
102
RTVSPost2010PropOp38
 70
     1
102
RTVSPost2010Prop39
140
1.0
102
RTVSPost2010PropOp39
 70
     1
102
RTVSPost2010Prop40
 90
        0
102
RTVSPost2010PropOp40
 70
     1
102
RTVSPost2010Prop41ColorIndex
 90
       18
102
RTVSPost2010Prop41ColorRGB
 90
        0
102
RTVSPost2010PropOp41
 70
     1
102
RTVSPost2010Prop42
 90
       50
102
RTVSPost2010PropOp42
 70
     1
102
RTVSPost2010Prop43
 90
        3
102
RTVSPost2010PropOp43
 70
     1
102
RTVSPost2010Prop44ColorIndex
 90
        5
102
RTVSPost2010Prop44ColorRGB
 90
      255
102
RTVSPost2010PropOp44
 70
     1
102
RTVSPost2010Prop45
280
     0
102
RTVSPost2010PropOp45
 70
     1
102
RTVSPost2010Prop46
 90
       50
102
RTVSPost2010PropOp46
 70
     1
102
RTVSPost2010Prop47
 90
       50
102
RTVSPost2010PropOp47
 70
     1
102
RTVSPost2010Prop48
 90
       50
102
RTVSPost2010PropOp48
 70
     1
102
RTVSPost2010Prop49
280
     0
102
RTVSPost2010PropOp49
 70
     1
102
RTVSPost2010Prop50
 90
       50
102
RTVSPost2010PropOp50
 70
     1
102
RTVSPost2010Prop51ColorIndex
 90
      256
102
RTVSPost2010Prop51ColorRGB
 90
-16777216
102
RTVSPost2010PropOp51
 70
     0
102
RTVSPost2010Prop52
140
1.0
102
RTVSPost2010PropOp52
 70
     0
102
RTVSPost2010Prop53
 90
        2
102
RTVSPost2010PropOp53
 70
     1
102
RTVSPost2010Prop54
  1
strokes_ogs.tif
102
RTVSPost2010PropOp54
 70
     1
102
RTVSPost2010Prop55
280
     0
102
RTVSPost2010PropOp55
 70
     1
102
RTVSPost2010Prop56
140
1.0
102
RTVSPost2010PropOp56
 70
     1
102
RTVSPost2010Prop57
140
1.0
102
RTVSPost2010PropOp57
 70
     1
102
RTVSPropertyOp0
 70
     1
102
RTVSPropertyOp1
 70
     1
102
RTVSPropertyOp2
 70
     1
102
RTVSPropertyOp3
 70
     1
102
RTVSPropertyOp4
 70
     1
102
RTVSPropertyOp5
 70
     1
102
RTVSPropertyOp6
 70
     1
102
RTVSPropertyOp7
 70
     1
102
RTVSPropertyOp8
 70
     1
102
RTVSPropertyOp9
 70
     1
102
RTVSPropertyOp10
 70
     1
102
RTVSPropertyOp11
 70
     1
102
RTVSPropertyOp12
 70
     1
102
RTVSPropertyOp13
 70
     1
102
RTVSPropertyOp14
 70
     1
102
RTVSPropertyOp15
 70
     1
102
RTVSPropertyOp16
 70
     1
102
RTVSPropertyOp17
 70
     1
102
RTVSPropertyOp18
 70
     1
102
RTVSPropertyOp19
 70
     1
102
RTVSPropertyOp20
 70
     1
102
RTVSPropertyOp21
 70
     1
102
RTVSPropertyOp22
 70
     1
102
RTVSPropertyOp23
 70
     1
102
RTVSPropertyOp24
 70
     1
102
RTVSPropertyOp25
 70
     1
102
RTVSPropertyOp26
 70
     1
102
RTVSPropertyOp27
 70
     1
102
RTVSPropertyOp28
 70
     1
102
RTVSPropertyOp29
 70
     1
102
RTVSPropertyOp30
 70
     1
102
RTVSPropertyOp31
 70
     1
102
RTVSPropertyOp32
 70
     1
102
RTVSPropertyOp33
 70
     1
102
RTVSPropertyOp34
 70
     1
102
RTVSPropertyOp35
 70
     1
102
RTVSPropertyOp36
 70
     1
102
RTVSPropertyOp37
 70
     1
102
RTVSPropertyOp38
 70
     1
102
RTVSPropertyOp39
 70
     1
102
RTVSPropertyOp40
 70
     1
102
RTVSPropertyOp41
 70
     1
102
RTVSPropertyOp42
 70
     1
102
RTVSPropertyOp43
 70
     1
102
RTVSPropertyOp44
 70
     1
102
RTVSPropertyOp45
 70
     1
102
RTVSPropertyOp46
 70
     1
102
RTVSPropertyOp47
 70
     1
102
RTVSPropertyOp48
 70
     1
102
RTVSPropertyOp49
 70
     1
102
RTVSPropertyOp50
 70
     1
102
RTVSPropertyOp51
 70
     0
102
RTVSPropertyOp52
 70
     0
102
RTVSPropertyOp53
 70
     1
102
RTVSPropertyOp54
 70
     1
102
RTVSPropertyOp55
 70
     1
102
RTVSPropertyOp56
 70
     1
102
RTVSPropertyOp57
 70
     1
102
RTVSPropertyOp58
 70
     1
102
RTVSPropertyOp59
 70
     1
102
RTVSPropertyOp60
 70
     1
102
RTVSPropertyOp61
 70
     1
102
RTVSPropertyOp62
 70
     1
  0
XRECORD
  5
6F29
102
{ACAD_REACTORS
330
6F28
102
}
330
6F28
100
AcDbXrecord
280
     1
102
RTVSPost2010Prop28
280
     0
102
RTVSPost2010PropOp28
 70
     1
102
RTVSPost2010Prop29
280
     1
102
RTVSPost2010PropOp29
 70
     1
102
RTVSPost2010Prop30
280
     1
102
RTVSPost2010PropOp30
 70
     1
102
RTVSPost2010Prop31
280
     0
102
RTVSPost2010PropOp31
 70
     1
102
RTVSPost2010Prop32
280
     0
102
RTVSPost2010PropOp32
 70
     1
102
RTVSPost2010Prop33
280
     0
102
RTVSPost2010PropOp33
 70
     1
102
RTVSPost2010Prop34
280
     0
102
RTVSPost2010PropOp34
 70
     1
102
RTVSPost2010Prop35
280
     0
102
RTVSPost2010PropOp35
 70
     1
102
RTVSPost2010Prop36
280
     0
102
RTVSPost2010PropOp36
 70
     1
102
RTVSPost2010Prop37
 90
       50
102
RTVSPost2010PropOp37
 70
     1
102
RTVSPost2010Prop38
140
0.0
102
RTVSPost2010PropOp38
 70
     1
102
RTVSPost2010Prop39
140
1.0
102
RTVSPost2010PropOp39
 70
     1
102
RTVSPost2010Prop40
 90
        0
102
RTVSPost2010PropOp40
 70
     1
102
RTVSPost2010Prop41ColorIndex
 90
       18
102
RTVSPost2010Prop41ColorRGB
 90
        0
102
RTVSPost2010PropOp41
 70
     1
102
RTVSPost2010Prop42
 90
       50
102
RTVSPost2010PropOp42
 70
     1
102
RTVSPost2010Prop43
 90
        3
102
RTVSPost2010PropOp43
 70
     1
102
RTVSPost2010Prop44ColorIndex
 90
        5
102
RTVSPost2010Prop44ColorRGB
 90
      255
102
RTVSPost2010PropOp44
 70
     1
102
RTVSPost2010Prop45
280
     0
102
RTVSPost2010PropOp45
 70
     1
102
RTVSPost2010Prop46
 90
       50
102
RTVSPost2010PropOp46
 70
     1
102
RTVSPost2010Prop47
 90
       50
102
RTVSPost2010PropOp47
 70
     1
102
RTVSPost2010Prop48
 90
       50
102
RTVSPost2010PropOp48
 70
     1
102
RTVSPost2010Prop49
280
     0
102
RTVSPost2010PropOp49
 70
     1
102
RTVSPost2010Prop50
 90
       50
102
RTVSPost2010PropOp50
 70
     1
102
RTVSPost2010Prop51ColorIndex
 90
      256
102
RTVSPost2010Prop51ColorRGB
 90
-16777216
102
RTVSPost2010PropOp51
 70
     0
102
RTVSPost2010Prop52
140
1.0
102
RTVSPost2010PropOp52
 70
     0
102
RTVSPost2010Prop53
 90
        2
102
RTVSPost2010PropOp53
 70
     1
102
RTVSPost2010Prop54
  1
strokes_ogs.tif
102
RTVSPost2010PropOp54
 70
     1
102
RTVSPost2010Prop55
280
     0
102
RTVSPost2010PropOp55
 70
     1
102
RTVSPost2010Prop56
140
1.0
102
RTVSPost2010PropOp56
 70
     1
102
RTVSPost2010Prop57
140
1.0
102
RTVSPost2010PropOp57
 70
     1
102
RTVSPropertyOp0
 70
     1
102
RTVSPropertyOp1
 70
     1
102
RTVSPropertyOp2
 70
     1
102
RTVSPropertyOp3
 70
     1
102
RTVSPropertyOp4
 70
     1
102
RTVSPropertyOp5
 70
     1
102
RTVSPropertyOp6
 70
     1
102
RTVSPropertyOp7
 70
     1
102
RTVSPropertyOp8
 70
     1
102
RTVSPropertyOp9
 70
     1
102
RTVSPropertyOp10
 70
     1
102
RTVSPropertyOp11
 70
     1
102
RTVSPropertyOp12
 70
     1
102
RTVSPropertyOp13
 70
     1
102
RTVSPropertyOp14
 70
     1
102
RTVSPropertyOp15
 70
     1
102
RTVSPropertyOp16
 70
     1
102
RTVSPropertyOp17
 70
     1
102
RTVSPropertyOp18
 70
     1
102
RTVSPropertyOp19
 70
     1
102
RTVSPropertyOp20
 70
     1
102
RTVSPropertyOp21
 70
     1
102
RTVSPropertyOp22
 70
     1
102
RTVSPropertyOp23
 70
     1
102
RTVSPropertyOp24
 70
     1
102
RTVSPropertyOp25
 70
     1
102
RTVSPropertyOp26
 70
     1
102
RTVSPropertyOp27
 70
     1
102
RTVSPropertyOp28
 70
     1
102
RTVSPropertyOp29
 70
     1
102
RTVSPropertyOp30
 70
     1
102
RTVSPropertyOp31
 70
     1
102
RTVSPropertyOp32
 70
     1
102
RTVSPropertyOp33
 70
     1
102
RTVSPropertyOp34
 70
     1
102
RTVSPropertyOp35
 70
     1
102
RTVSPropertyOp36
 70
     1
102
RTVSPropertyOp37
 70
     1
102
RTVSPropertyOp38
 70
     1
102
RTVSPropertyOp39
 70
     1
102
RTVSPropertyOp40
 70
     1
102
RTVSPropertyOp41
 70
     1
102
RTVSPropertyOp42
 70
     1
102
RTVSPropertyOp43
 70
     1
102
RTVSPropertyOp44
 70
     1
102
RTVSPropertyOp45
 70
     1
102
RTVSPropertyOp46
 70
     1
102
RTVSPropertyOp47
 70
     1
102
RTVSPropertyOp48
 70
     1
102
RTVSPropertyOp49
 70
     1
102
RTVSPropertyOp50
 70
     1
102
RTVSPropertyOp51
 70
     0
102
RTVSPropertyOp52
 70
     0
102
RTVSPropertyOp53
 70
     1
102
RTVSPropertyOp54
 70
     1
102
RTVSPropertyOp55
 70
     1
102
RTVSPropertyOp56
 70
     1
102
RTVSPropertyOp57
 70
     1
102
RTVSPropertyOp58
 70
     1
102
RTVSPropertyOp59
 70
     1
102
RTVSPropertyOp60
 70
     1
102
RTVSPropertyOp61
 70
     1
102
RTVSPropertyOp62
 70
     1
  0
XRECORD
  5
6F37
102
{ACAD_REACTORS
330
6F36
102
}
330
6F36
100
AcDbXrecord
280
     1
102
RTVSPost2010Prop28
280
     0
102
RTVSPost2010PropOp28
 70
     1
102
RTVSPost2010Prop29
280
     1
102
RTVSPost2010PropOp29
 70
     1
102
RTVSPost2010Prop30
280
     1
102
RTVSPost2010PropOp30
 70
     1
102
RTVSPost2010Prop31
280
     0
102
RTVSPost2010PropOp31
 70
     1
102
RTVSPost2010Prop32
280
     0
102
RTVSPost2010PropOp32
 70
     1
102
RTVSPost2010Prop33
280
     0
102
RTVSPost2010PropOp33
 70
     1
102
RTVSPost2010Prop34
280
     0
102
RTVSPost2010PropOp34
 70
     1
102
RTVSPost2010Prop35
280
     0
102
RTVSPost2010PropOp35
 70
     1
102
RTVSPost2010Prop36
280
     0
102
RTVSPost2010PropOp36
 70
     1
102
RTVSPost2010Prop37
 90
       50
102
RTVSPost2010PropOp37
 70
     1
102
RTVSPost2010Prop38
140
0.0
102
RTVSPost2010PropOp38
 70
     1
102
RTVSPost2010Prop39
140
1.0
102
RTVSPost2010PropOp39
 70
     1
102
RTVSPost2010Prop40
 90
        0
102
RTVSPost2010PropOp40
 70
     1
102
RTVSPost2010Prop41ColorIndex
 90
       18
102
RTVSPost2010Prop41ColorRGB
 90
        0
102
RTVSPost2010PropOp41
 70
     1
102
RTVSPost2010Prop42
 90
       50
102
RTVSPost2010PropOp42
 70
     1
102
RTVSPost2010Prop43
 90
        3
102
RTVSPost2010PropOp43
 70
     1
102
RTVSPost2010Prop44ColorIndex
 90
        5
102
RTVSPost2010Prop44ColorRGB
 90
      255
102
RTVSPost2010PropOp44
 70
     1
102
RTVSPost2010Prop45
280
     0
102
RTVSPost2010PropOp45
 70
     1
102
RTVSPost2010Prop46
 90
       50
102
RTVSPost2010PropOp46
 70
     1
102
RTVSPost2010Prop47
 90
       50
102
RTVSPost2010PropOp47
 70
     1
102
RTVSPost2010Prop48
 90
       50
102
RTVSPost2010PropOp48
 70
     1
102
RTVSPost2010Prop49
280
     0
102
RTVSPost2010PropOp49
 70
     1
102
RTVSPost2010Prop50
 90
       50
102
RTVSPost2010PropOp50
 70
     1
102
RTVSPost2010Prop51ColorIndex
 90
      256
102
RTVSPost2010Prop51ColorRGB
 90
-16777216
102
RTVSPost2010PropOp51
 70
     0
102
RTVSPost2010Prop52
140
1.0
102
RTVSPost2010PropOp52
 70
     0
102
RTVSPost2010Prop53
 90
        2
102
RTVSPost2010PropOp53
 70
     1
102
RTVSPost2010Prop54
  1
strokes_ogs.tif
102
RTVSPost2010PropOp54
 70
     1
102
RTVSPost2010Prop55
280
     0
102
RTVSPost2010PropOp55
 70
     1
102
RTVSPost2010Prop56
140
1.0
102
RTVSPost2010PropOp56
 70
     1
102
RTVSPost2010Prop57
140
1.0
102
RTVSPost2010PropOp57
 70
     1
102
RTVSPropertyOp0
 70
     1
102
RTVSPropertyOp1
 70
     1
102
RTVSPropertyOp2
 70
     1
102
RTVSPropertyOp3
 70
     1
102
RTVSPropertyOp4
 70
     1
102
RTVSPropertyOp5
 70
     1
102
RTVSPropertyOp6
 70
     1
102
RTVSPropertyOp7
 70
     1
102
RTVSPropertyOp8
 70
     1
102
RTVSPropertyOp9
 70
     1
102
RTVSPropertyOp10
 70
     1
102
RTVSPropertyOp11
 70
     1
102
RTVSPropertyOp12
 70
     1
102
RTVSPropertyOp13
 70
     1
102
RTVSPropertyOp14
 70
     1
102
RTVSPropertyOp15
 70
     1
102
RTVSPropertyOp16
 70
     1
102
RTVSPropertyOp17
 70
     1
102
RTVSPropertyOp18
 70
     1
102
RTVSPropertyOp19
 70
     1
102
RTVSPropertyOp20
 70
     1
102
RTVSPropertyOp21
 70
     1
102
RTVSPropertyOp22
 70
     1
102
RTVSPropertyOp23
 70
     1
102
RTVSPropertyOp24
 70
     1
102
RTVSPropertyOp25
 70
     1
102
RTVSPropertyOp26
 70
     1
102
RTVSPropertyOp27
 70
     1
102
RTVSPropertyOp28
 70
     1
102
RTVSPropertyOp29
 70
     1
102
RTVSPropertyOp30
 70
     1
102
RTVSPropertyOp31
 70
     1
102
RTVSPropertyOp32
 70
     1
102
RTVSPropertyOp33
 70
     1
102
RTVSPropertyOp34
 70
     1
102
RTVSPropertyOp35
 70
     1
102
RTVSPropertyOp36
 70
     1
102
RTVSPropertyOp37
 70
     1
102
RTVSPropertyOp38
 70
     1
102
RTVSPropertyOp39
 70
     1
102
RTVSPropertyOp40
 70
     1
102
RTVSPropertyOp41
 70
     1
102
RTVSPropertyOp42
 70
     1
102
RTVSPropertyOp43
 70
     1
102
RTVSPropertyOp44
 70
     1
102
RTVSPropertyOp45
 70
     1
102
RTVSPropertyOp46
 70
     1
102
RTVSPropertyOp47
 70
     1
102
RTVSPropertyOp48
 70
     1
102
RTVSPropertyOp49
 70
     1
102
RTVSPropertyOp50
 70
     1
102
RTVSPropertyOp51
 70
     0
102
RTVSPropertyOp52
 70
     0
102
RTVSPropertyOp53
 70
     1
102
RTVSPropertyOp54
 70
     1
102
RTVSPropertyOp55
 70
     1
102
RTVSPropertyOp56
 70
     1
102
RTVSPropertyOp57
 70
     1
102
RTVSPropertyOp58
 70
     1
102
RTVSPropertyOp59
 70
     1
102
RTVSPropertyOp60
 70
     1
102
RTVSPropertyOp61
 70
     1
102
RTVSPropertyOp62
 70
     1
  0
XRECORD
  5
6F3F
102
{ACAD_REACTORS
330
6F3E
102
}
330
6F3E
100
AcDbXrecord
280
     1
102
RTVSPost2010Prop28
280
     0
102
RTVSPost2010PropOp28
 70
     1
102
RTVSPost2010Prop29
280
     1
102
RTVSPost2010PropOp29
 70
     1
102
RTVSPost2010Prop30
280
     1
102
RTVSPost2010PropOp30
 70
     1
102
RTVSPost2010Prop31
280
     0
102
RTVSPost2010PropOp31
 70
     1
102
RTVSPost2010Prop32
280
     0
102
RTVSPost2010PropOp32
 70
     1
102
RTVSPost2010Prop33
280
     0
102
RTVSPost2010PropOp33
 70
     1
102
RTVSPost2010Prop34
280
     0
102
RTVSPost2010PropOp34
 70
     1
102
RTVSPost2010Prop35
280
     0
102
RTVSPost2010PropOp35
 70
     1
102
RTVSPost2010Prop36
280
     0
102
RTVSPost2010PropOp36
 70
     1
102
RTVSPost2010Prop37
 90
       50
102
RTVSPost2010PropOp37
 70
     1
102
RTVSPost2010Prop38
140
0.0
102
RTVSPost2010PropOp38
 70
     1
102
RTVSPost2010Prop39
140
1.0
102
RTVSPost2010PropOp39
 70
     1
102
RTVSPost2010Prop40
 90
        0
102
RTVSPost2010PropOp40
 70
     1
102
RTVSPost2010Prop41ColorIndex
 90
       18
102
RTVSPost2010Prop41ColorRGB
 90
        0
102
RTVSPost2010PropOp41
 70
     1
102
RTVSPost2010Prop42
 90
       50
102
RTVSPost2010PropOp42
 70
     1
102
RTVSPost2010Prop43
 90
        3
102
RTVSPost2010PropOp43
 70
     1
102
RTVSPost2010Prop44ColorIndex
 90
        5
102
RTVSPost2010Prop44ColorRGB
 90
      255
102
RTVSPost2010PropOp44
 70
     1
102
RTVSPost2010Prop45
280
     0
102
RTVSPost2010PropOp45
 70
     1
102
RTVSPost2010Prop46
 90
       50
102
RTVSPost2010PropOp46
 70
     1
102
RTVSPost2010Prop47
 90
       50
102
RTVSPost2010PropOp47
 70
     1
102
RTVSPost2010Prop48
 90
       50
102
RTVSPost2010PropOp48
 70
     1
102
RTVSPost2010Prop49
280
     0
102
RTVSPost2010PropOp49
 70
     1
102
RTVSPost2010Prop50
 90
       50
102
RTVSPost2010PropOp50
 70
     1
102
RTVSPost2010Prop51ColorIndex
 90
      256
102
RTVSPost2010Prop51ColorRGB
 90
-16777216
102
RTVSPost2010PropOp51
 70
     0
102
RTVSPost2010Prop52
140
1.0
102
RTVSPost2010PropOp52
 70
     0
102
RTVSPost2010Prop53
 90
        2
102
RTVSPost2010PropOp53
 70
     1
102
RTVSPost2010Prop54
  1
strokes_ogs.tif
102
RTVSPost2010PropOp54
 70
     1
102
RTVSPost2010Prop55
280
     0
102
RTVSPost2010PropOp55
 70
     1
102
RTVSPost2010Prop56
140
1.0
102
RTVSPost2010PropOp56
 70
     1
102
RTVSPost2010Prop57
140
1.0
102
RTVSPost2010PropOp57
 70
     1
102
RTVSPropertyOp0
 70
     1
102
RTVSPropertyOp1
 70
     1
102
RTVSPropertyOp2
 70
     1
102
RTVSPropertyOp3
 70
     1
102
RTVSPropertyOp4
 70
     1
102
RTVSPropertyOp5
 70
     1
102
RTVSPropertyOp6
 70
     1
102
RTVSPropertyOp7
 70
     1
102
RTVSPropertyOp8
 70
     1
102
RTVSPropertyOp9
 70
     1
102
RTVSPropertyOp10
 70
     1
102
RTVSPropertyOp11
 70
     1
102
RTVSPropertyOp12
 70
     1
102
RTVSPropertyOp13
 70
     1
102
RTVSPropertyOp14
 70
     1
102
RTVSPropertyOp15
 70
     1
102
RTVSPropertyOp16
 70
     1
102
RTVSPropertyOp17
 70
     1
102
RTVSPropertyOp18
 70
     1
102
RTVSPropertyOp19
 70
     1
102
RTVSPropertyOp20
 70
     1
102
RTVSPropertyOp21
 70
     1
102
RTVSPropertyOp22
 70
     1
102
RTVSPropertyOp23
 70
     1
102
RTVSPropertyOp24
 70
     1
102
RTVSPropertyOp25
 70
     1
102
RTVSPropertyOp26
 70
     1
102
RTVSPropertyOp27
 70
     1
102
RTVSPropertyOp28
 70
     1
102
RTVSPropertyOp29
 70
     1
102
RTVSPropertyOp30
 70
     1
102
RTVSPropertyOp31
 70
     1
102
RTVSPropertyOp32
 70
     1
102
RTVSPropertyOp33
 70
     1
102
RTVSPropertyOp34
 70
     1
102
RTVSPropertyOp35
 70
     1
102
RTVSPropertyOp36
 70
     1
102
RTVSPropertyOp37
 70
     1
102
RTVSPropertyOp38
 70
     1
102
RTVSPropertyOp39
 70
     1
102
RTVSPropertyOp40
 70
     1
102
RTVSPropertyOp41
 70
     1
102
RTVSPropertyOp42
 70
     1
102
RTVSPropertyOp43
 70
     1
102
RTVSPropertyOp44
 70
     1
102
RTVSPropertyOp45
 70
     1
102
RTVSPropertyOp46
 70
     1
102
RTVSPropertyOp47
 70
     1
102
RTVSPropertyOp48
 70
     1
102
RTVSPropertyOp49
 70
     1
102
RTVSPropertyOp50
 70
     1
102
RTVSPropertyOp51
 70
     0
102
RTVSPropertyOp52
 70
     0
102
RTVSPropertyOp53
 70
     1
102
RTVSPropertyOp54
 70
     1
102
RTVSPropertyOp55
 70
     1
102
RTVSPropertyOp56
 70
     1
102
RTVSPropertyOp57
 70
     1
102
RTVSPropertyOp58
 70
     1
102
RTVSPropertyOp59
 70
     1
102
RTVSPropertyOp60
 70
     1
102
RTVSPropertyOp61
 70
     1
102
RTVSPropertyOp62
 70
     1
  0
XRECORD
  5
6F31
102
{ACAD_REACTORS
330
6F30
102
}
330
6F30
100
AcDbXrecord
280
     1
102
RTVSPost2010Prop28
280
     0
102
RTVSPost2010PropOp28
 70
     1
102
RTVSPost2010Prop29
280
     1
102
RTVSPost2010PropOp29
 70
     1
102
RTVSPost2010Prop30
280
     1
102
RTVSPost2010PropOp30
 70
     1
102
RTVSPost2010Prop31
280
     0
102
RTVSPost2010PropOp31
 70
     1
102
RTVSPost2010Prop32
280
     0
102
RTVSPost2010PropOp32
 70
     1
102
RTVSPost2010Prop33
280
     0
102
RTVSPost2010PropOp33
 70
     1
102
RTVSPost2010Prop34
280
     0
102
RTVSPost2010PropOp34
 70
     1
102
RTVSPost2010Prop35
280
     0
102
RTVSPost2010PropOp35
 70
     1
102
RTVSPost2010Prop36
280
     0
102
RTVSPost2010PropOp36
 70
     1
102
RTVSPost2010Prop37
 90
       50
102
RTVSPost2010PropOp37
 70
     1
102
RTVSPost2010Prop38
140
0.0
102
RTVSPost2010PropOp38
 70
     1
102
RTVSPost2010Prop39
140
1.0
102
RTVSPost2010PropOp39
 70
     1
102
RTVSPost2010Prop40
 90
        0
102
RTVSPost2010PropOp40
 70
     1
102
RTVSPost2010Prop41ColorIndex
 90
       18
102
RTVSPost2010Prop41ColorRGB
 90
        0
102
RTVSPost2010PropOp41
 70
     1
102
RTVSPost2010Prop42
 90
       50
102
RTVSPost2010PropOp42
 70
     1
102
RTVSPost2010Prop43
 90
        3
102
RTVSPost2010PropOp43
 70
     1
102
RTVSPost2010Prop44ColorIndex
 90
        5
102
RTVSPost2010Prop44ColorRGB
 90
      255
102
RTVSPost2010PropOp44
 70
     1
102
RTVSPost2010Prop45
280
     0
102
RTVSPost2010PropOp45
 70
     1
102
RTVSPost2010Prop46
 90
       50
102
RTVSPost2010PropOp46
 70
     1
102
RTVSPost2010Prop47
 90
       50
102
RTVSPost2010PropOp47
 70
     1
102
RTVSPost2010Prop48
 90
       50
102
RTVSPost2010PropOp48
 70
     1
102
RTVSPost2010Prop49
280
     0
102
RTVSPost2010PropOp49
 70
     1
102
RTVSPost2010Prop50
 90
       50
102
RTVSPost2010PropOp50
 70
     1
102
RTVSPost2010Prop51ColorIndex
 90
      256
102
RTVSPost2010Prop51ColorRGB
 90
-16777216
102
RTVSPost2010PropOp51
 70
     0
102
RTVSPost2010Prop52
140
1.0
102
RTVSPost2010PropOp52
 70
     0
102
RTVSPost2010Prop53
 90
        2
102
RTVSPost2010PropOp53
 70
     1
102
RTVSPost2010Prop54
  1
strokes_ogs.tif
102
RTVSPost2010PropOp54
 70
     1
102
RTVSPost2010Prop55
280
     0
102
RTVSPost2010PropOp55
 70
     1
102
RTVSPost2010Prop56
140
1.0
102
RTVSPost2010PropOp56
 70
     1
102
RTVSPost2010Prop57
140
1.0
102
RTVSPost2010PropOp57
 70
     1
102
RTVSPropertyOp0
 70
     1
102
RTVSPropertyOp1
 70
     1
102
RTVSPropertyOp2
 70
     1
102
RTVSPropertyOp3
 70
     1
102
RTVSPropertyOp4
 70
     1
102
RTVSPropertyOp5
 70
     1
102
RTVSPropertyOp6
 70
     1
102
RTVSPropertyOp7
 70
     1
102
RTVSPropertyOp8
 70
     1
102
RTVSPropertyOp9
 70
     1
102
RTVSPropertyOp10
 70
     1
102
RTVSPropertyOp11
 70
     1
102
RTVSPropertyOp12
 70
     1
102
RTVSPropertyOp13
 70
     1
102
RTVSPropertyOp14
 70
     1
102
RTVSPropertyOp15
 70
     1
102
RTVSPropertyOp16
 70
     1
102
RTVSPropertyOp17
 70
     1
102
RTVSPropertyOp18
 70
     1
102
RTVSPropertyOp19
 70
     1
102
RTVSPropertyOp20
 70
     1
102
RTVSPropertyOp21
 70
     1
102
RTVSPropertyOp22
 70
     1
102
RTVSPropertyOp23
 70
     1
102
RTVSPropertyOp24
 70
     1
102
RTVSPropertyOp25
 70
     1
102
RTVSPropertyOp26
 70
     1
102
RTVSPropertyOp27
 70
     1
102
RTVSPropertyOp28
 70
     1
102
RTVSPropertyOp29
 70
     1
102
RTVSPropertyOp30
 70
     1
102
RTVSPropertyOp31
 70
     1
102
RTVSPropertyOp32
 70
     1
102
RTVSPropertyOp33
 70
     1
102
RTVSPropertyOp34
 70
     1
102
RTVSPropertyOp35
 70
     1
102
RTVSPropertyOp36
 70
     1
102
RTVSPropertyOp37
 70
     1
102
RTVSPropertyOp38
 70
     1
102
RTVSPropertyOp39
 70
     1
102
RTVSPropertyOp40
 70
     1
102
RTVSPropertyOp41
 70
     1
102
RTVSPropertyOp42
 70
     1
102
RTVSPropertyOp43
 70
     1
102
RTVSPropertyOp44
 70
     1
102
RTVSPropertyOp45
 70
     1
102
RTVSPropertyOp46
 70
     1
102
RTVSPropertyOp47
 70
     1
102
RTVSPropertyOp48
 70
     1
102
RTVSPropertyOp49
 70
     1
102
RTVSPropertyOp50
 70
     1
102
RTVSPropertyOp51
 70
     0
102
RTVSPropertyOp52
 70
     0
102
RTVSPropertyOp53
 70
     1
102
RTVSPropertyOp54
 70
     1
102
RTVSPropertyOp55
 70
     1
102
RTVSPropertyOp56
 70
     1
102
RTVSPropertyOp57
 70
     1
102
RTVSPropertyOp58
 70
     1
102
RTVSPropertyOp59
 70
     1
102
RTVSPropertyOp60
 70
     1
102
RTVSPropertyOp61
 70
     1
102
RTVSPropertyOp62
 70
     1
  0
XRECORD
  5
6F35
102
{ACAD_REACTORS
330
6F34
102
}
330
6F34
100
AcDbXrecord
280
     1
102
RTVSPost2010Prop28
280
     0
102
RTVSPost2010PropOp28
 70
     1
102
RTVSPost2010Prop29
280
     1
102
RTVSPost2010PropOp29
 70
     1
102
RTVSPost2010Prop30
280
     1
102
RTVSPost2010PropOp30
 70
     1
102
RTVSPost2010Prop31
280
     0
102
RTVSPost2010PropOp31
 70
     1
102
RTVSPost2010Prop32
280
     0
102
RTVSPost2010PropOp32
 70
     1
102
RTVSPost2010Prop33
280
     0
102
RTVSPost2010PropOp33
 70
     1
102
RTVSPost2010Prop34
280
     0
102
RTVSPost2010PropOp34
 70
     1
102
RTVSPost2010Prop35
280
     0
102
RTVSPost2010PropOp35
 70
     1
102
RTVSPost2010Prop36
280
     0
102
RTVSPost2010PropOp36
 70
     1
102
RTVSPost2010Prop37
 90
       50
102
RTVSPost2010PropOp37
 70
     1
102
RTVSPost2010Prop38
140
0.0
102
RTVSPost2010PropOp38
 70
     1
102
RTVSPost2010Prop39
140
1.0
102
RTVSPost2010PropOp39
 70
     1
102
RTVSPost2010Prop40
 90
        0
102
RTVSPost2010PropOp40
 70
     1
102
RTVSPost2010Prop41ColorIndex
 90
       18
102
RTVSPost2010Prop41ColorRGB
 90
        0
102
RTVSPost2010PropOp41
 70
     1
102
RTVSPost2010Prop42
 90
       50
102
RTVSPost2010PropOp42
 70
     1
102
RTVSPost2010Prop43
 90
        3
102
RTVSPost2010PropOp43
 70
     1
102
RTVSPost2010Prop44ColorIndex
 90
        5
102
RTVSPost2010Prop44ColorRGB
 90
      255
102
RTVSPost2010PropOp44
 70
     1
102
RTVSPost2010Prop45
280
     0
102
RTVSPost2010PropOp45
 70
     1
102
RTVSPost2010Prop46
 90
       50
102
RTVSPost2010PropOp46
 70
     1
102
RTVSPost2010Prop47
 90
       50
102
RTVSPost2010PropOp47
 70
     1
102
RTVSPost2010Prop48
 90
       50
102
RTVSPost2010PropOp48
 70
     1
102
RTVSPost2010Prop49
280
     0
102
RTVSPost2010PropOp49
 70
     1
102
RTVSPost2010Prop50
 90
       50
102
RTVSPost2010PropOp50
 70
     1
102
RTVSPost2010Prop51ColorIndex
 90
      256
102
RTVSPost2010Prop51ColorRGB
 90
-16777216
102
RTVSPost2010PropOp51
 70
     0
102
RTVSPost2010Prop52
140
1.0
102
RTVSPost2010PropOp52
 70
     0
102
RTVSPost2010Prop53
 90
        2
102
RTVSPost2010PropOp53
 70
     1
102
RTVSPost2010Prop54
  1
strokes_ogs.tif
102
RTVSPost2010PropOp54
 70
     1
102
RTVSPost2010Prop55
280
     0
102
RTVSPost2010PropOp55
 70
     1
102
RTVSPost2010Prop56
140
1.0
102
RTVSPost2010PropOp56
 70
     1
102
RTVSPost2010Prop57
140
1.0
102
RTVSPost2010PropOp57
 70
     1
102
RTVSPropertyOp0
 70
     1
102
RTVSPropertyOp1
 70
     1
102
RTVSPropertyOp2
 70
     1
102
RTVSPropertyOp3
 70
     1
102
RTVSPropertyOp4
 70
     1
102
RTVSPropertyOp5
 70
     1
102
RTVSPropertyOp6
 70
     1
102
RTVSPropertyOp7
 70
     1
102
RTVSPropertyOp8
 70
     1
102
RTVSPropertyOp9
 70
     1
102
RTVSPropertyOp10
 70
     1
102
RTVSPropertyOp11
 70
     1
102
RTVSPropertyOp12
 70
     1
102
RTVSPropertyOp13
 70
     1
102
RTVSPropertyOp14
 70
     1
102
RTVSPropertyOp15
 70
     1
102
RTVSPropertyOp16
 70
     1
102
RTVSPropertyOp17
 70
     1
102
RTVSPropertyOp18
 70
     1
102
RTVSPropertyOp19
 70
     1
102
RTVSPropertyOp20
 70
     1
102
RTVSPropertyOp21
 70
     1
102
RTVSPropertyOp22
 70
     1
102
RTVSPropertyOp23
 70
     1
102
RTVSPropertyOp24
 70
     1
102
RTVSPropertyOp25
 70
     1
102
RTVSPropertyOp26
 70
     1
102
RTVSPropertyOp27
 70
     1
102
RTVSPropertyOp28
 70
     1
102
RTVSPropertyOp29
 70
     1
102
RTVSPropertyOp30
 70
     1
102
RTVSPropertyOp31
 70
     1
102
RTVSPropertyOp32
 70
     1
102
RTVSPropertyOp33
 70
     1
102
RTVSPropertyOp34
 70
     1
102
RTVSPropertyOp35
 70
     1
102
RTVSPropertyOp36
 70
     1
102
RTVSPropertyOp37
 70
     1
102
RTVSPropertyOp38
 70
     1
102
RTVSPropertyOp39
 70
     1
102
RTVSPropertyOp40
 70
     1
102
RTVSPropertyOp41
 70
     1
102
RTVSPropertyOp42
 70
     1
102
RTVSPropertyOp43
 70
     1
102
RTVSPropertyOp44
 70
     1
102
RTVSPropertyOp45
 70
     1
102
RTVSPropertyOp46
 70
     1
102
RTVSPropertyOp47
 70
     1
102
RTVSPropertyOp48
 70
     1
102
RTVSPropertyOp49
 70
     1
102
RTVSPropertyOp50
 70
     1
102
RTVSPropertyOp51
 70
     0
102
RTVSPropertyOp52
 70
     0
102
RTVSPropertyOp53
 70
     1
102
RTVSPropertyOp54
 70
     1
102
RTVSPropertyOp55
 70
     1
102
RTVSPropertyOp56
 70
     1
102
RTVSPropertyOp57
 70
     1
102
RTVSPropertyOp58
 70
     1
102
RTVSPropertyOp59
 70
     1
102
RTVSPropertyOp60
 70
     1
102
RTVSPropertyOp61
 70
     1
102
RTVSPropertyOp62
 70
     1
  0
XRECORD
  5
6F4F
102
{ACAD_REACTORS
330
6F4E
102
}
330
6F4E
100
AcDbXrecord
280
     1
102
RTVSPost2010Prop28
280
     0
102
RTVSPost2010PropOp28
 70
     1
102
RTVSPost2010Prop29
280
     1
102
RTVSPost2010PropOp29
 70
     1
102
RTVSPost2010Prop30
280
     1
102
RTVSPost2010PropOp30
 70
     1
102
RTVSPost2010Prop31
280
     0
102
RTVSPost2010PropOp31
 70
     1
102
RTVSPost2010Prop32
280
     0
102
RTVSPost2010PropOp32
 70
     1
102
RTVSPost2010Prop33
280
     0
102
RTVSPost2010PropOp33
 70
     1
102
RTVSPost2010Prop34
280
     0
102
RTVSPost2010PropOp34
 70
     1
102
RTVSPost2010Prop35
280
     0
102
RTVSPost2010PropOp35
 70
     1
102
RTVSPost2010Prop36
280
     0
102
RTVSPost2010PropOp36
 70
     1
102
RTVSPost2010Prop37
 90
       50
102
RTVSPost2010PropOp37
 70
     0
102
RTVSPost2010Prop38
140
0.0
102
RTVSPost2010PropOp38
 70
     0
102
RTVSPost2010Prop39
140
1.0
102
RTVSPost2010PropOp39
 70
     0
102
RTVSPost2010Prop40
 90
        0
102
RTVSPost2010PropOp40
 70
     0
102
RTVSPost2010Prop41ColorIndex
 90
       18
102
RTVSPost2010Prop41ColorRGB
 90
        0
102
RTVSPost2010PropOp41
 70
     0
102
RTVSPost2010Prop42
 90
       50
102
RTVSPost2010PropOp42
 70
     0
102
RTVSPost2010Prop43
 90
        3
102
RTVSPost2010PropOp43
 70
     0
102
RTVSPost2010Prop44ColorIndex
 90
        5
102
RTVSPost2010Prop44ColorRGB
 90
      255
102
RTVSPost2010PropOp44
 70
     0
102
RTVSPost2010Prop45
280
     0
102
RTVSPost2010PropOp45
 70
     1
102
RTVSPost2010Prop46
 90
       50
102
RTVSPost2010PropOp46
 70
     0
102
RTVSPost2010Prop47
 90
       50
102
RTVSPost2010PropOp47
 70
     0
102
RTVSPost2010Prop48
 90
       50
102
RTVSPost2010PropOp48
 70
     0
102
RTVSPost2010Prop49
280
     0
102
RTVSPost2010PropOp49
 70
     1
102
RTVSPost2010Prop50
 90
       50
102
RTVSPost2010PropOp50
 70
     0
102
RTVSPost2010Prop51ColorIndex
 90
      256
102
RTVSPost2010Prop51ColorRGB
 90
-16777216
102
RTVSPost2010PropOp51
 70
     0
102
RTVSPost2010Prop52
140
1.0
102
RTVSPost2010PropOp52
 70
     0
102
RTVSPost2010Prop53
 90
        2
102
RTVSPost2010PropOp53
 70
     0
102
RTVSPost2010Prop54
  1
strokes_ogs.tif
102
RTVSPost2010PropOp54
 70
     0
102
RTVSPost2010Prop55
280
     0
102
RTVSPost2010PropOp55
 70
     1
102
RTVSPost2010Prop56
140
1.0
102
RTVSPost2010PropOp56
 70
     0
102
RTVSPost2010Prop57
140
1.0
102
RTVSPost2010PropOp57
 70
     0
102
RTVSPropertyOp0
 70
     0
102
RTVSPropertyOp1
 70
     0
102
RTVSPropertyOp2
 70
     0
102
RTVSPropertyOp3
 70
     0
102
RTVSPropertyOp4
 70
     0
102
RTVSPropertyOp5
 70
     0
102
RTVSPropertyOp6
 70
     0
102
RTVSPropertyOp7
 70
     0
102
RTVSPropertyOp8
 70
     0
102
RTVSPropertyOp9
 70
     0
102
RTVSPropertyOp10
 70
     0
102
RTVSPropertyOp11
 70
     0
102
RTVSPropertyOp12
 70
     0
102
RTVSPropertyOp13
 70
     0
102
RTVSPropertyOp14
 70
     2
102
RTVSPropertyOp15
 70
     0
102
RTVSPropertyOp16
 70
     0
102
RTVSPropertyOp17
 70
     0
102
RTVSPropertyOp18
 70
     0
102
RTVSPropertyOp19
 70
     0
102
RTVSPropertyOp20
 70
     0
102
RTVSPropertyOp21
 70
     0
102
RTVSPropertyOp22
 70
     0
102
RTVSPropertyOp23
 70
     0
102
RTVSPropertyOp24
 70
     0
102
RTVSPropertyOp25
 70
     0
102
RTVSPropertyOp26
 70
     0
102
RTVSPropertyOp27
 70
     0
102
RTVSPropertyOp28
 70
     1
102
RTVSPropertyOp29
 70
     1
102
RTVSPropertyOp30
 70
     1
102
RTVSPropertyOp31
 70
     1
102
RTVSPropertyOp32
 70
     1
102
RTVSPropertyOp33
 70
     1
102
RTVSPropertyOp34
 70
     1
102
RTVSPropertyOp35
 70
     1
102
RTVSPropertyOp36
 70
     1
102
RTVSPropertyOp37
 70
     0
102
RTVSPropertyOp38
 70
     0
102
RTVSPropertyOp39
 70
     0
102
RTVSPropertyOp40
 70
     0
102
RTVSPropertyOp41
 70
     0
102
RTVSPropertyOp42
 70
     0
102
RTVSPropertyOp43
 70
     0
102
RTVSPropertyOp44
 70
     0
102
RTVSPropertyOp45
 70
     1
102
RTVSPropertyOp46
 70
     0
102
RTVSPropertyOp47
 70
     0
102
RTVSPropertyOp48
 70
     0
102
RTVSPropertyOp49
 70
     1
102
RTVSPropertyOp50
 70
     0
102
RTVSPropertyOp51
 70
     0
102
RTVSPropertyOp52
 70
     0
102
RTVSPropertyOp53
 70
     0
102
RTVSPropertyOp54
 70
     0
102
RTVSPropertyOp55
 70
     1
102
RTVSPropertyOp56
 70
     0
102
RTVSPropertyOp57
 70
     0
102
RTVSPropertyOp58
 70
     0
102
RTVSPropertyOp59
 70
     0
102
RTVSPropertyOp60
 70
     0
102
RTVSPropertyOp61
 70
     0
102
RTVSPropertyOp62
 70
     0
  0
XRECORD
  5
6F3D
102
{ACAD_REACTORS
330
6F3C
102
}
330
6F3C
100
AcDbXrecord
280
     1
102
RTVSPost2010Prop28
280
     0
102
RTVSPost2010PropOp28
 70
     1
102
RTVSPost2010Prop29
280
     1
102
RTVSPost2010PropOp29
 70
     1
102
RTVSPost2010Prop30
280
     1
102
RTVSPost2010PropOp30
 70
     1
102
RTVSPost2010Prop31
280
     0
102
RTVSPost2010PropOp31
 70
     1
102
RTVSPost2010Prop32
280
     0
102
RTVSPost2010PropOp32
 70
     1
102
RTVSPost2010Prop33
280
     0
102
RTVSPost2010PropOp33
 70
     1
102
RTVSPost2010Prop34
280
     0
102
RTVSPost2010PropOp34
 70
     1
102
RTVSPost2010Prop35
280
     0
102
RTVSPost2010PropOp35
 70
     1
102
RTVSPost2010Prop36
280
     0
102
RTVSPost2010PropOp36
 70
     1
102
RTVSPost2010Prop37
 90
       50
102
RTVSPost2010PropOp37
 70
     1
102
RTVSPost2010Prop38
140
0.0
102
RTVSPost2010PropOp38
 70
     1
102
RTVSPost2010Prop39
140
1.0
102
RTVSPost2010PropOp39
 70
     1
102
RTVSPost2010Prop40
 90
        0
102
RTVSPost2010PropOp40
 70
     1
102
RTVSPost2010Prop41ColorIndex
 90
       18
102
RTVSPost2010Prop41ColorRGB
 90
        0
102
RTVSPost2010PropOp41
 70
     1
102
RTVSPost2010Prop42
 90
       50
102
RTVSPost2010PropOp42
 70
     1
102
RTVSPost2010Prop43
 90
        3
102
RTVSPost2010PropOp43
 70
     1
102
RTVSPost2010Prop44ColorIndex
 90
        5
102
RTVSPost2010Prop44ColorRGB
 90
      255
102
RTVSPost2010PropOp44
 70
     1
102
RTVSPost2010Prop45
280
     0
102
RTVSPost2010PropOp45
 70
     1
102
RTVSPost2010Prop46
 90
       50
102
RTVSPost2010PropOp46
 70
     1
102
RTVSPost2010Prop47
 90
       50
102
RTVSPost2010PropOp47
 70
     1
102
RTVSPost2010Prop48
 90
       50
102
RTVSPost2010PropOp48
 70
     1
102
RTVSPost2010Prop49
280
     0
102
RTVSPost2010PropOp49
 70
     1
102
RTVSPost2010Prop50
 90
       50
102
RTVSPost2010PropOp50
 70
     1
102
RTVSPost2010Prop51ColorIndex
 90
      256
102
RTVSPost2010Prop51ColorRGB
 90
-16777216
102
RTVSPost2010PropOp51
 70
     0
102
RTVSPost2010Prop52
140
1.0
102
RTVSPost2010PropOp52
 70
     0
102
RTVSPost2010Prop53
 90
        2
102
RTVSPost2010PropOp53
 70
     1
102
RTVSPost2010Prop54
  1
strokes_ogs.tif
102
RTVSPost2010PropOp54
 70
     1
102
RTVSPost2010Prop55
280
     0
102
RTVSPost2010PropOp55
 70
     1
102
RTVSPost2010Prop56
140
1.0
102
RTVSPost2010PropOp56
 70
     1
102
RTVSPost2010Prop57
140
1.0
102
RTVSPost2010PropOp57
 70
     1
102
RTVSPropertyOp0
 70
     1
102
RTVSPropertyOp1
 70
     1
102
RTVSPropertyOp2
 70
     1
102
RTVSPropertyOp3
 70
     1
102
RTVSPropertyOp4
 70
     1
102
RTVSPropertyOp5
 70
     1
102
RTVSPropertyOp6
 70
     1
102
RTVSPropertyOp7
 70
     1
102
RTVSPropertyOp8
 70
     1
102
RTVSPropertyOp9
 70
     1
102
RTVSPropertyOp10
 70
     1
102
RTVSPropertyOp11
 70
     1
102
RTVSPropertyOp12
 70
     1
102
RTVSPropertyOp13
 70
     1
102
RTVSPropertyOp14
 70
     1
102
RTVSPropertyOp15
 70
     1
102
RTVSPropertyOp16
 70
     1
102
RTVSPropertyOp17
 70
     1
102
RTVSPropertyOp18
 70
     1
102
RTVSPropertyOp19
 70
     1
102
RTVSPropertyOp20
 70
     1
102
RTVSPropertyOp21
 70
     1
102
RTVSPropertyOp22
 70
     1
102
RTVSPropertyOp23
 70
     1
102
RTVSPropertyOp24
 70
     1
102
RTVSPropertyOp25
 70
     1
102
RTVSPropertyOp26
 70
     1
102
RTVSPropertyOp27
 70
     1
102
RTVSPropertyOp28
 70
     1
102
RTVSPropertyOp29
 70
     1
102
RTVSPropertyOp30
 70
     1
102
RTVSPropertyOp31
 70
     1
102
RTVSPropertyOp32
 70
     1
102
RTVSPropertyOp33
 70
     1
102
RTVSPropertyOp34
 70
     1
102
RTVSPropertyOp35
 70
     1
102
RTVSPropertyOp36
 70
     1
102
RTVSPropertyOp37
 70
     1
102
RTVSPropertyOp38
 70
     1
102
RTVSPropertyOp39
 70
     1
102
RTVSPropertyOp40
 70
     1
102
RTVSPropertyOp41
 70
     1
102
RTVSPropertyOp42
 70
     1
102
RTVSPropertyOp43
 70
     1
102
RTVSPropertyOp44
 70
     1
102
RTVSPropertyOp45
 70
     1
102
RTVSPropertyOp46
 70
     1
102
RTVSPropertyOp47
 70
     1
102
RTVSPropertyOp48
 70
     1
102
RTVSPropertyOp49
 70
     1
102
RTVSPropertyOp50
 70
     1
102
RTVSPropertyOp51
 70
     0
102
RTVSPropertyOp52
 70
     0
102
RTVSPropertyOp53
 70
     1
102
RTVSPropertyOp54
 70
     1
102
RTVSPropertyOp55
 70
     1
102
RTVSPropertyOp56
 70
     1
102
RTVSPropertyOp57
 70
     1
102
RTVSPropertyOp58
 70
     1
102
RTVSPropertyOp59
 70
     1
102
RTVSPropertyOp60
 70
     1
102
RTVSPropertyOp61
 70
     1
102
RTVSPropertyOp62
 70
     1
  0
XRECORD
  5
6F21
102
{ACAD_REACTORS
330
6F20
102
}
330
6F20
100
AcDbXrecord
280
     1
102
RTVSPost2010Prop28
280
     0
102
RTVSPost2010PropOp28
 70
     1
102
RTVSPost2010Prop29
280
     1
102
RTVSPost2010PropOp29
 70
     1
102
RTVSPost2010Prop30
280
     1
102
RTVSPost2010PropOp30
 70
     1
102
RTVSPost2010Prop31
280
     0
102
RTVSPost2010PropOp31
 70
     1
102
RTVSPost2010Prop32
280
     0
102
RTVSPost2010PropOp32
 70
     1
102
RTVSPost2010Prop33
280
     0
102
RTVSPost2010PropOp33
 70
     1
102
RTVSPost2010Prop34
280
     0
102
RTVSPost2010PropOp34
 70
     1
102
RTVSPost2010Prop35
280
     0
102
RTVSPost2010PropOp35
 70
     1
102
RTVSPost2010Prop36
280
     0
102
RTVSPost2010PropOp36
 70
     1
102
RTVSPost2010Prop37
 90
       50
102
RTVSPost2010PropOp37
 70
     1
102
RTVSPost2010Prop38
140
0.0
102
RTVSPost2010PropOp38
 70
     1
102
RTVSPost2010Prop39
140
1.0
102
RTVSPost2010PropOp39
 70
     1
102
RTVSPost2010Prop40
 90
        0
102
RTVSPost2010PropOp40
 70
     1
102
RTVSPost2010Prop41ColorIndex
 90
       18
102
RTVSPost2010Prop41ColorRGB
 90
        0
102
RTVSPost2010PropOp41
 70
     1
102
RTVSPost2010Prop42
 90
       50
102
RTVSPost2010PropOp42
 70
     1
102
RTVSPost2010Prop43
 90
        3
102
RTVSPost2010PropOp43
 70
     1
102
RTVSPost2010Prop44ColorIndex
 90
        5
102
RTVSPost2010Prop44ColorRGB
 90
      255
102
RTVSPost2010PropOp44
 70
     1
102
RTVSPost2010Prop45
280
     0
102
RTVSPost2010PropOp45
 70
     1
102
RTVSPost2010Prop46
 90
       50
102
RTVSPost2010PropOp46
 70
     1
102
RTVSPost2010Prop47
 90
       50
102
RTVSPost2010PropOp47
 70
     1
102
RTVSPost2010Prop48
 90
       50
102
RTVSPost2010PropOp48
 70
     1
102
RTVSPost2010Prop49
280
     0
102
RTVSPost2010PropOp49
 70
     1
102
RTVSPost2010Prop50
 90
       50
102
RTVSPost2010PropOp50
 70
     1
102
RTVSPost2010Prop51ColorIndex
 90
      256
102
RTVSPost2010Prop51ColorRGB
 90
-16777216
102
RTVSPost2010PropOp51
 70
     0
102
RTVSPost2010Prop52
140
1.0
102
RTVSPost2010PropOp52
 70
     0
102
RTVSPost2010Prop53
 90
        2
102
RTVSPost2010PropOp53
 70
     1
102
RTVSPost2010Prop54
  1
strokes_ogs.tif
102
RTVSPost2010PropOp54
 70
     1
102
RTVSPost2010Prop55
280
     0
102
RTVSPost2010PropOp55
 70
     1
102
RTVSPost2010Prop56
140
1.0
102
RTVSPost2010PropOp56
 70
     1
102
RTVSPost2010Prop57
140
1.0
102
RTVSPost2010PropOp57
 70
     1
102
RTVSPropertyOp0
 70
     1
102
RTVSPropertyOp1
 70
     1
102
RTVSPropertyOp2
 70
     1
102
RTVSPropertyOp3
 70
     1
102
RTVSPropertyOp4
 70
     1
102
RTVSPropertyOp5
 70
     1
102
RTVSPropertyOp6
 70
     1
102
RTVSPropertyOp7
 70
     1
102
RTVSPropertyOp8
 70
     1
102
RTVSPropertyOp9
 70
     1
102
RTVSPropertyOp10
 70
     1
102
RTVSPropertyOp11
 70
     1
102
RTVSPropertyOp12
 70
     1
102
RTVSPropertyOp13
 70
     1
102
RTVSPropertyOp14
 70
     1
102
RTVSPropertyOp15
 70
     1
102
RTVSPropertyOp16
 70
     1
102
RTVSPropertyOp17
 70
     1
102
RTVSPropertyOp18
 70
     1
102
RTVSPropertyOp19
 70
     1
102
RTVSPropertyOp20
 70
     1
102
RTVSPropertyOp21
 70
     1
102
RTVSPropertyOp22
 70
     1
102
RTVSPropertyOp23
 70
     1
102
RTVSPropertyOp24
 70
     1
102
RTVSPropertyOp25
 70
     1
102
RTVSPropertyOp26
 70
     1
102
RTVSPropertyOp27
 70
     1
102
RTVSPropertyOp28
 70
     1
102
RTVSPropertyOp29
 70
     1
102
RTVSPropertyOp30
 70
     1
102
RTVSPropertyOp31
 70
     1
102
RTVSPropertyOp32
 70
     1
102
RTVSPropertyOp33
 70
     1
102
RTVSPropertyOp34
 70
     1
102
RTVSPropertyOp35
 70
     1
102
RTVSPropertyOp36
 70
     1
102
RTVSPropertyOp37
 70
     1
102
RTVSPropertyOp38
 70
     1
102
RTVSPropertyOp39
 70
     1
102
RTVSPropertyOp40
 70
     1
102
RTVSPropertyOp41
 70
     1
102
RTVSPropertyOp42
 70
     1
102
RTVSPropertyOp43
 70
     1
102
RTVSPropertyOp44
 70
     1
102
RTVSPropertyOp45
 70
     1
102
RTVSPropertyOp46
 70
     1
102
RTVSPropertyOp47
 70
     1
102
RTVSPropertyOp48
 70
     1
102
RTVSPropertyOp49
 70
     1
102
RTVSPropertyOp50
 70
     1
102
RTVSPropertyOp51
 70
     0
102
RTVSPropertyOp52
 70
     0
102
RTVSPropertyOp53
 70
     1
102
RTVSPropertyOp54
 70
     1
102
RTVSPropertyOp55
 70
     1
102
RTVSPropertyOp56
 70
     1
102
RTVSPropertyOp57
 70
     1
102
RTVSPropertyOp58
 70
     1
102
RTVSPropertyOp59
 70
     1
102
RTVSPropertyOp60
 70
     1
102
RTVSPropertyOp61
 70
     1
102
RTVSPropertyOp62
 70
     1
  0
XRECORD
  5
6F23
102
{ACAD_REACTORS
330
6F22
102
}
330
6F22
100
AcDbXrecord
280
     1
102
RTVSPost2010Prop28
280
     0
102
RTVSPost2010PropOp28
 70
     1
102
RTVSPost2010Prop29
280
     1
102
RTVSPost2010PropOp29
 70
     1
102
RTVSPost2010Prop30
280
     1
102
RTVSPost2010PropOp30
 70
     1
102
RTVSPost2010Prop31
280
     0
102
RTVSPost2010PropOp31
 70
     1
102
RTVSPost2010Prop32
280
     0
102
RTVSPost2010PropOp32
 70
     1
102
RTVSPost2010Prop33
280
     0
102
RTVSPost2010PropOp33
 70
     1
102
RTVSPost2010Prop34
280
     0
102
RTVSPost2010PropOp34
 70
     1
102
RTVSPost2010Prop35
280
     0
102
RTVSPost2010PropOp35
 70
     1
102
RTVSPost2010Prop36
280
     0
102
RTVSPost2010PropOp36
 70
     1
102
RTVSPost2010Prop37
 90
       50
102
RTVSPost2010PropOp37
 70
     1
102
RTVSPost2010Prop38
140
0.0
102
RTVSPost2010PropOp38
 70
     1
102
RTVSPost2010Prop39
140
1.0
102
RTVSPost2010PropOp39
 70
     1
102
RTVSPost2010Prop40
 90
        0
102
RTVSPost2010PropOp40
 70
     1
102
RTVSPost2010Prop41ColorIndex
 90
       18
102
RTVSPost2010Prop41ColorRGB
 90
        0
102
RTVSPost2010PropOp41
 70
     1
102
RTVSPost2010Prop42
 90
       50
102
RTVSPost2010PropOp42
 70
     1
102
RTVSPost2010Prop43
 90
        3
102
RTVSPost2010PropOp43
 70
     1
102
RTVSPost2010Prop44ColorIndex
 90
        5
102
RTVSPost2010Prop44ColorRGB
 90
      255
102
RTVSPost2010PropOp44
 70
     1
102
RTVSPost2010Prop45
280
     0
102
RTVSPost2010PropOp45
 70
     1
102
RTVSPost2010Prop46
 90
       50
102
RTVSPost2010PropOp46
 70
     1
102
RTVSPost2010Prop47
 90
       50
102
RTVSPost2010PropOp47
 70
     1
102
RTVSPost2010Prop48
 90
       50
102
RTVSPost2010PropOp48
 70
     1
102
RTVSPost2010Prop49
280
     0
102
RTVSPost2010PropOp49
 70
     1
102
RTVSPost2010Prop50
 90
       50
102
RTVSPost2010PropOp50
 70
     1
102
RTVSPost2010Prop51ColorIndex
 90
      256
102
RTVSPost2010Prop51ColorRGB
 90
-16777216
102
RTVSPost2010PropOp51
 70
     0
102
RTVSPost2010Prop52
140
1.0
102
RTVSPost2010PropOp52
 70
     0
102
RTVSPost2010Prop53
 90
        2
102
RTVSPost2010PropOp53
 70
     1
102
RTVSPost2010Prop54
  1
strokes_ogs.tif
102
RTVSPost2010PropOp54
 70
     1
102
RTVSPost2010Prop55
280
     0
102
RTVSPost2010PropOp55
 70
     1
102
RTVSPost2010Prop56
140
1.0
102
RTVSPost2010PropOp56
 70
     1
102
RTVSPost2010Prop57
140
1.0
102
RTVSPost2010PropOp57
 70
     1
102
RTVSPropertyOp0
 70
     1
102
RTVSPropertyOp1
 70
     1
102
RTVSPropertyOp2
 70
     1
102
RTVSPropertyOp3
 70
     1
102
RTVSPropertyOp4
 70
     1
102
RTVSPropertyOp5
 70
     1
102
RTVSPropertyOp6
 70
     1
102
RTVSPropertyOp7
 70
     1
102
RTVSPropertyOp8
 70
     1
102
RTVSPropertyOp9
 70
     1
102
RTVSPropertyOp10
 70
     1
102
RTVSPropertyOp11
 70
     1
102
RTVSPropertyOp12
 70
     1
102
RTVSPropertyOp13
 70
     1
102
RTVSPropertyOp14
 70
     1
102
RTVSPropertyOp15
 70
     1
102
RTVSPropertyOp16
 70
     1
102
RTVSPropertyOp17
 70
     1
102
RTVSPropertyOp18
 70
     1
102
RTVSPropertyOp19
 70
     1
102
RTVSPropertyOp20
 70
     1
102
RTVSPropertyOp21
 70
     1
102
RTVSPropertyOp22
 70
     1
102
RTVSPropertyOp23
 70
     1
102
RTVSPropertyOp24
 70
     1
102
RTVSPropertyOp25
 70
     1
102
RTVSPropertyOp26
 70
     1
102
RTVSPropertyOp27
 70
     1
102
RTVSPropertyOp28
 70
     1
102
RTVSPropertyOp29
 70
     1
102
RTVSPropertyOp30
 70
     1
102
RTVSPropertyOp31
 70
     1
102
RTVSPropertyOp32
 70
     1
102
RTVSPropertyOp33
 70
     1
102
RTVSPropertyOp34
 70
     1
102
RTVSPropertyOp35
 70
     1
102
RTVSPropertyOp36
 70
     1
102
RTVSPropertyOp37
 70
     1
102
RTVSPropertyOp38
 70
     1
102
RTVSPropertyOp39
 70
     1
102
RTVSPropertyOp40
 70
     1
102
RTVSPropertyOp41
 70
     1
102
RTVSPropertyOp42
 70
     1
102
RTVSPropertyOp43
 70
     1
102
RTVSPropertyOp44
 70
     1
102
RTVSPropertyOp45
 70
     1
102
RTVSPropertyOp46
 70
     1
102
RTVSPropertyOp47
 70
     1
102
RTVSPropertyOp48
 70
     1
102
RTVSPropertyOp49
 70
     1
102
RTVSPropertyOp50
 70
     1
102
RTVSPropertyOp51
 70
     0
102
RTVSPropertyOp52
 70
     0
102
RTVSPropertyOp53
 70
     1
102
RTVSPropertyOp54
 70
     1
102
RTVSPropertyOp55
 70
     1
102
RTVSPropertyOp56
 70
     1
102
RTVSPropertyOp57
 70
     1
102
RTVSPropertyOp58
 70
     1
102
RTVSPropertyOp59
 70
     1
102
RTVSPropertyOp60
 70
     1
102
RTVSPropertyOp61
 70
     1
102
RTVSPropertyOp62
 70
     1
  0
XRECORD
  5
6F25
102
{ACAD_REACTORS
330
6F24
102
}
330
6F24
100
AcDbXrecord
280
     1
102
RTVSPost2010Prop28
280
     0
102
RTVSPost2010PropOp28
 70
     1
102
RTVSPost2010Prop29
280
     1
102
RTVSPost2010PropOp29
 70
     1
102
RTVSPost2010Prop30
280
     1
102
RTVSPost2010PropOp30
 70
     1
102
RTVSPost2010Prop31
280
     0
102
RTVSPost2010PropOp31
 70
     1
102
RTVSPost2010Prop32
280
     0
102
RTVSPost2010PropOp32
 70
     1
102
RTVSPost2010Prop33
280
     0
102
RTVSPost2010PropOp33
 70
     1
102
RTVSPost2010Prop34
280
     0
102
RTVSPost2010PropOp34
 70
     1
102
RTVSPost2010Prop35
280
     0
102
RTVSPost2010PropOp35
 70
     1
102
RTVSPost2010Prop36
280
     0
102
RTVSPost2010PropOp36
 70
     1
102
RTVSPost2010Prop37
 90
       50
102
RTVSPost2010PropOp37
 70
     1
102
RTVSPost2010Prop38
140
0.0
102
RTVSPost2010PropOp38
 70
     1
102
RTVSPost2010Prop39
140
1.0
102
RTVSPost2010PropOp39
 70
     1
102
RTVSPost2010Prop40
 90
        0
102
RTVSPost2010PropOp40
 70
     1
102
RTVSPost2010Prop41ColorIndex
 90
       18
102
RTVSPost2010Prop41ColorRGB
 90
        0
102
RTVSPost2010PropOp41
 70
     1
102
RTVSPost2010Prop42
 90
       50
102
RTVSPost2010PropOp42
 70
     1
102
RTVSPost2010Prop43
 90
        3
102
RTVSPost2010PropOp43
 70
     1
102
RTVSPost2010Prop44ColorIndex
 90
        5
102
RTVSPost2010Prop44ColorRGB
 90
      255
102
RTVSPost2010PropOp44
 70
     1
102
RTVSPost2010Prop45
280
     0
102
RTVSPost2010PropOp45
 70
     1
102
RTVSPost2010Prop46
 90
       50
102
RTVSPost2010PropOp46
 70
     1
102
RTVSPost2010Prop47
 90
       50
102
RTVSPost2010PropOp47
 70
     1
102
RTVSPost2010Prop48
 90
       50
102
RTVSPost2010PropOp48
 70
     1
102
RTVSPost2010Prop49
280
     0
102
RTVSPost2010PropOp49
 70
     1
102
RTVSPost2010Prop50
 90
       50
102
RTVSPost2010PropOp50
 70
     1
102
RTVSPost2010Prop51ColorIndex
 90
      256
102
RTVSPost2010Prop51ColorRGB
 90
-16777216
102
RTVSPost2010PropOp51
 70
     0
102
RTVSPost2010Prop52
140
1.0
102
RTVSPost2010PropOp52
 70
     0
102
RTVSPost2010Prop53
 90
        2
102
RTVSPost2010PropOp53
 70
     1
102
RTVSPost2010Prop54
  1
strokes_ogs.tif
102
RTVSPost2010PropOp54
 70
     1
102
RTVSPost2010Prop55
280
     0
102
RTVSPost2010PropOp55
 70
     1
102
RTVSPost2010Prop56
140
1.0
102
RTVSPost2010PropOp56
 70
     1
102
RTVSPost2010Prop57
140
1.0
102
RTVSPost2010PropOp57
 70
     1
102
RTVSPropertyOp0
 70
     1
102
RTVSPropertyOp1
 70
     1
102
RTVSPropertyOp2
 70
     1
102
RTVSPropertyOp3
 70
     1
102
RTVSPropertyOp4
 70
     1
102
RTVSPropertyOp5
 70
     1
102
RTVSPropertyOp6
 70
     1
102
RTVSPropertyOp7
 70
     1
102
RTVSPropertyOp8
 70
     1
102
RTVSPropertyOp9
 70
     1
102
RTVSPropertyOp10
 70
     1
102
RTVSPropertyOp11
 70
     1
102
RTVSPropertyOp12
 70
     1
102
RTVSPropertyOp13
 70
     1
102
RTVSPropertyOp14
 70
     1
102
RTVSPropertyOp15
 70
     1
102
RTVSPropertyOp16
 70
     1
102
RTVSPropertyOp17
 70
     1
102
RTVSPropertyOp18
 70
     1
102
RTVSPropertyOp19
 70
     1
102
RTVSPropertyOp20
 70
     1
102
RTVSPropertyOp21
 70
     1
102
RTVSPropertyOp22
 70
     1
102
RTVSPropertyOp23
 70
     1
102
RTVSPropertyOp24
 70
     1
102
RTVSPropertyOp25
 70
     1
102
RTVSPropertyOp26
 70
     1
102
RTVSPropertyOp27
 70
     1
102
RTVSPropertyOp28
 70
     1
102
RTVSPropertyOp29
 70
     1
102
RTVSPropertyOp30
 70
     1
102
RTVSPropertyOp31
 70
     1
102
RTVSPropertyOp32
 70
     1
102
RTVSPropertyOp33
 70
     1
102
RTVSPropertyOp34
 70
     1
102
RTVSPropertyOp35
 70
     1
102
RTVSPropertyOp36
 70
     1
102
RTVSPropertyOp37
 70
     1
102
RTVSPropertyOp38
 70
     1
102
RTVSPropertyOp39
 70
     1
102
RTVSPropertyOp40
 70
     1
102
RTVSPropertyOp41
 70
     1
102
RTVSPropertyOp42
 70
     1
102
RTVSPropertyOp43
 70
     1
102
RTVSPropertyOp44
 70
     1
102
RTVSPropertyOp45
 70
     1
102
RTVSPropertyOp46
 70
     1
102
RTVSPropertyOp47
 70
     1
102
RTVSPropertyOp48
 70
     1
102
RTVSPropertyOp49
 70
     1
102
RTVSPropertyOp50
 70
     1
102
RTVSPropertyOp51
 70
     0
102
RTVSPropertyOp52
 70
     0
102
RTVSPropertyOp53
 70
     1
102
RTVSPropertyOp54
 70
     1
102
RTVSPropertyOp55
 70
     1
102
RTVSPropertyOp56
 70
     1
102
RTVSPropertyOp57
 70
     1
102
RTVSPropertyOp58
 70
     1
102
RTVSPropertyOp59
 70
     1
102
RTVSPropertyOp60
 70
     1
102
RTVSPropertyOp61
 70
     1
102
RTVSPropertyOp62
 70
     1
  0
XRECORD
  5
6F27
102
{ACAD_REACTORS
330
6F26
102
}
330
6F26
100
AcDbXrecord
280
     1
102
RTVSPost2010Prop28
280
     0
102
RTVSPost2010PropOp28
 70
     1
102
RTVSPost2010Prop29
280
     1
102
RTVSPost2010PropOp29
 70
     1
102
RTVSPost2010Prop30
280
     1
102
RTVSPost2010PropOp30
 70
     1
102
RTVSPost2010Prop31
280
     0
102
RTVSPost2010PropOp31
 70
     1
102
RTVSPost2010Prop32
280
     0
102
RTVSPost2010PropOp32
 70
     1
102
RTVSPost2010Prop33
280
     0
102
RTVSPost2010PropOp33
 70
     1
102
RTVSPost2010Prop34
280
     0
102
RTVSPost2010PropOp34
 70
     1
102
RTVSPost2010Prop35
280
     0
102
RTVSPost2010PropOp35
 70
     1
102
RTVSPost2010Prop36
280
     0
102
RTVSPost2010PropOp36
 70
     1
102
RTVSPost2010Prop37
 90
       50
102
RTVSPost2010PropOp37
 70
     1
102
RTVSPost2010Prop38
140
0.0
102
RTVSPost2010PropOp38
 70
     1
102
RTVSPost2010Prop39
140
1.0
102
RTVSPost2010PropOp39
 70
     1
102
RTVSPost2010Prop40
 90
        0
102
RTVSPost2010PropOp40
 70
     1
102
RTVSPost2010Prop41ColorIndex
 90
       18
102
RTVSPost2010Prop41ColorRGB
 90
        0
102
RTVSPost2010PropOp41
 70
     1
102
RTVSPost2010Prop42
 90
       50
102
RTVSPost2010PropOp42
 70
     1
102
RTVSPost2010Prop43
 90
        3
102
RTVSPost2010PropOp43
 70
     1
102
RTVSPost2010Prop44ColorIndex
 90
        5
102
RTVSPost2010Prop44ColorRGB
 90
      255
102
RTVSPost2010PropOp44
 70
     1
102
RTVSPost2010Prop45
280
     0
102
RTVSPost2010PropOp45
 70
     1
102
RTVSPost2010Prop46
 90
       50
102
RTVSPost2010PropOp46
 70
     1
102
RTVSPost2010Prop47
 90
       50
102
RTVSPost2010PropOp47
 70
     1
102
RTVSPost2010Prop48
 90
       50
102
RTVSPost2010PropOp48
 70
     1
102
RTVSPost2010Prop49
280
     0
102
RTVSPost2010PropOp49
 70
     1
102
RTVSPost2010Prop50
 90
       50
102
RTVSPost2010PropOp50
 70
     1
102
RTVSPost2010Prop51ColorIndex
 90
      256
102
RTVSPost2010Prop51ColorRGB
 90
-16777216
102
RTVSPost2010PropOp51
 70
     0
102
RTVSPost2010Prop52
140
1.0
102
RTVSPost2010PropOp52
 70
     0
102
RTVSPost2010Prop53
 90
        2
102
RTVSPost2010PropOp53
 70
     1
102
RTVSPost2010Prop54
  1
strokes_ogs.tif
102
RTVSPost2010PropOp54
 70
     1
102
RTVSPost2010Prop55
280
     0
102
RTVSPost2010PropOp55
 70
     1
102
RTVSPost2010Prop56
140
1.0
102
RTVSPost2010PropOp56
 70
     1
102
RTVSPost2010Prop57
140
1.0
102
RTVSPost2010PropOp57
 70
     1
102
RTVSPropertyOp0
 70
     1
102
RTVSPropertyOp1
 70
     1
102
RTVSPropertyOp2
 70
     1
102
RTVSPropertyOp3
 70
     1
102
RTVSPropertyOp4
 70
     1
102
RTVSPropertyOp5
 70
     1
102
RTVSPropertyOp6
 70
     1
102
RTVSPropertyOp7
 70
     1
102
RTVSPropertyOp8
 70
     1
102
RTVSPropertyOp9
 70
     1
102
RTVSPropertyOp10
 70
     1
102
RTVSPropertyOp11
 70
     1
102
RTVSPropertyOp12
 70
     1
102
RTVSPropertyOp13
 70
     1
102
RTVSPropertyOp14
 70
     1
102
RTVSPropertyOp15
 70
     1
102
RTVSPropertyOp16
 70
     1
102
RTVSPropertyOp17
 70
     1
102
RTVSPropertyOp18
 70
     1
102
RTVSPropertyOp19
 70
     1
102
RTVSPropertyOp20
 70
     1
102
RTVSPropertyOp21
 70
     1
102
RTVSPropertyOp22
 70
     1
102
RTVSPropertyOp23
 70
     1
102
RTVSPropertyOp24
 70
     1
102
RTVSPropertyOp25
 70
     1
102
RTVSPropertyOp26
 70
     1
102
RTVSPropertyOp27
 70
     1
102
RTVSPropertyOp28
 70
     1
102
RTVSPropertyOp29
 70
     1
102
RTVSPropertyOp30
 70
     1
102
RTVSPropertyOp31
 70
     1
102
RTVSPropertyOp32
 70
     1
102
RTVSPropertyOp33
 70
     1
102
RTVSPropertyOp34
 70
     1
102
RTVSPropertyOp35
 70
     1
102
RTVSPropertyOp36
 70
     1
102
RTVSPropertyOp37
 70
     1
102
RTVSPropertyOp38
 70
     1
102
RTVSPropertyOp39
 70
     1
102
RTVSPropertyOp40
 70
     1
102
RTVSPropertyOp41
 70
     1
102
RTVSPropertyOp42
 70
     1
102
RTVSPropertyOp43
 70
     1
102
RTVSPropertyOp44
 70
     1
102
RTVSPropertyOp45
 70
     1
102
RTVSPropertyOp46
 70
     1
102
RTVSPropertyOp47
 70
     1
102
RTVSPropertyOp48
 70
     1
102
RTVSPropertyOp49
 70
     1
102
RTVSPropertyOp50
 70
     1
102
RTVSPropertyOp51
 70
     0
102
RTVSPropertyOp52
 70
     0
102
RTVSPropertyOp53
 70
     1
102
RTVSPropertyOp54
 70
     1
102
RTVSPropertyOp55
 70
     1
102
RTVSPropertyOp56
 70
     1
102
RTVSPropertyOp57
 70
     1
102
RTVSPropertyOp58
 70
     1
102
RTVSPropertyOp59
 70
     1
102
RTVSPropertyOp60
 70
     1
102
RTVSPropertyOp61
 70
     1
102
RTVSPropertyOp62
 70
     1
  0
XRECORD
  5
6F2F
102
{ACAD_REACTORS
330
6F2E
102
}
330
6F2E
100
AcDbXrecord
280
     1
102
RTVSPost2010Prop28
280
     0
102
RTVSPost2010PropOp28
 70
     1
102
RTVSPost2010Prop29
280
     1
102
RTVSPost2010PropOp29
 70
     1
102
RTVSPost2010Prop30
280
     1
102
RTVSPost2010PropOp30
 70
     1
102
RTVSPost2010Prop31
280
     0
102
RTVSPost2010PropOp31
 70
     1
102
RTVSPost2010Prop32
280
     0
102
RTVSPost2010PropOp32
 70
     1
102
RTVSPost2010Prop33
280
     0
102
RTVSPost2010PropOp33
 70
     1
102
RTVSPost2010Prop34
280
     0
102
RTVSPost2010PropOp34
 70
     1
102
RTVSPost2010Prop35
280
     0
102
RTVSPost2010PropOp35
 70
     1
102
RTVSPost2010Prop36
280
     0
102
RTVSPost2010PropOp36
 70
     1
102
RTVSPost2010Prop37
 90
       50
102
RTVSPost2010PropOp37
 70
     1
102
RTVSPost2010Prop38
140
0.0
102
RTVSPost2010PropOp38
 70
     1
102
RTVSPost2010Prop39
140
1.0
102
RTVSPost2010PropOp39
 70
     1
102
RTVSPost2010Prop40
 90
        0
102
RTVSPost2010PropOp40
 70
     1
102
RTVSPost2010Prop41ColorIndex
 90
       18
102
RTVSPost2010Prop41ColorRGB
 90
        0
102
RTVSPost2010PropOp41
 70
     1
102
RTVSPost2010Prop42
 90
       50
102
RTVSPost2010PropOp42
 70
     1
102
RTVSPost2010Prop43
 90
        3
102
RTVSPost2010PropOp43
 70
     1
102
RTVSPost2010Prop44ColorIndex
 90
        5
102
RTVSPost2010Prop44ColorRGB
 90
      255
102
RTVSPost2010PropOp44
 70
     1
102
RTVSPost2010Prop45
280
     0
102
RTVSPost2010PropOp45
 70
     1
102
RTVSPost2010Prop46
 90
       50
102
RTVSPost2010PropOp46
 70
     1
102
RTVSPost2010Prop47
 90
       50
102
RTVSPost2010PropOp47
 70
     1
102
RTVSPost2010Prop48
 90
       50
102
RTVSPost2010PropOp48
 70
     1
102
RTVSPost2010Prop49
280
     0
102
RTVSPost2010PropOp49
 70
     1
102
RTVSPost2010Prop50
 90
       50
102
RTVSPost2010PropOp50
 70
     1
102
RTVSPost2010Prop51ColorIndex
 90
      256
102
RTVSPost2010Prop51ColorRGB
 90
-16777216
102
RTVSPost2010PropOp51
 70
     0
102
RTVSPost2010Prop52
140
1.0
102
RTVSPost2010PropOp52
 70
     0
102
RTVSPost2010Prop53
 90
        2
102
RTVSPost2010PropOp53
 70
     1
102
RTVSPost2010Prop54
  1
strokes_ogs.tif
102
RTVSPost2010PropOp54
 70
     1
102
RTVSPost2010Prop55
280
     0
102
RTVSPost2010PropOp55
 70
     1
102
RTVSPost2010Prop56
140
1.0
102
RTVSPost2010PropOp56
 70
     1
102
RTVSPost2010Prop57
140
1.0
102
RTVSPost2010PropOp57
 70
     1
102
RTVSPropertyOp0
 70
     1
102
RTVSPropertyOp1
 70
     1
102
RTVSPropertyOp2
 70
     1
102
RTVSPropertyOp3
 70
     1
102
RTVSPropertyOp4
 70
     1
102
RTVSPropertyOp5
 70
     1
102
RTVSPropertyOp6
 70
     1
102
RTVSPropertyOp7
 70
     1
102
RTVSPropertyOp8
 70
     1
102
RTVSPropertyOp9
 70
     1
102
RTVSPropertyOp10
 70
     1
102
RTVSPropertyOp11
 70
     1
102
RTVSPropertyOp12
 70
     1
102
RTVSPropertyOp13
 70
     1
102
RTVSPropertyOp14
 70
     1
102
RTVSPropertyOp15
 70
     1
102
RTVSPropertyOp16
 70
     1
102
RTVSPropertyOp17
 70
     1
102
RTVSPropertyOp18
 70
     1
102
RTVSPropertyOp19
 70
     1
102
RTVSPropertyOp20
 70
     1
102
RTVSPropertyOp21
 70
     1
102
RTVSPropertyOp22
 70
     1
102
RTVSPropertyOp23
 70
     1
102
RTVSPropertyOp24
 70
     1
102
RTVSPropertyOp25
 70
     1
102
RTVSPropertyOp26
 70
     1
102
RTVSPropertyOp27
 70
     1
102
RTVSPropertyOp28
 70
     1
102
RTVSPropertyOp29
 70
     1
102
RTVSPropertyOp30
 70
     1
102
RTVSPropertyOp31
 70
     1
102
RTVSPropertyOp32
 70
     1
102
RTVSPropertyOp33
 70
     1
102
RTVSPropertyOp34
 70
     1
102
RTVSPropertyOp35
 70
     1
102
RTVSPropertyOp36
 70
     1
102
RTVSPropertyOp37
 70
     1
102
RTVSPropertyOp38
 70
     1
102
RTVSPropertyOp39
 70
     1
102
RTVSPropertyOp40
 70
     1
102
RTVSPropertyOp41
 70
     1
102
RTVSPropertyOp42
 70
     1
102
RTVSPropertyOp43
 70
     1
102
RTVSPropertyOp44
 70
     1
102
RTVSPropertyOp45
 70
     1
102
RTVSPropertyOp46
 70
     1
102
RTVSPropertyOp47
 70
     1
102
RTVSPropertyOp48
 70
     1
102
RTVSPropertyOp49
 70
     1
102
RTVSPropertyOp50
 70
     1
102
RTVSPropertyOp51
 70
     0
102
RTVSPropertyOp52
 70
     0
102
RTVSPropertyOp53
 70
     1
102
RTVSPropertyOp54
 70
     1
102
RTVSPropertyOp55
 70
     1
102
RTVSPropertyOp56
 70
     1
102
RTVSPropertyOp57
 70
     1
102
RTVSPropertyOp58
 70
     1
102
RTVSPropertyOp59
 70
     1
102
RTVSPropertyOp60
 70
     1
102
RTVSPropertyOp61
 70
     1
102
RTVSPropertyOp62
 70
     1
  0
XRECORD
  5
6F4B
102
{ACAD_REACTORS
330
6F4A
102
}
330
6F4A
100
AcDbXrecord
280
     1
102
RTVSPost2010Prop28
280
     0
102
RTVSPost2010PropOp28
 70
     1
102
RTVSPost2010Prop29
280
     1
102
RTVSPost2010PropOp29
 70
     1
102
RTVSPost2010Prop30
280
     1
102
RTVSPost2010PropOp30
 70
     1
102
RTVSPost2010Prop31
280
     0
102
RTVSPost2010PropOp31
 70
     1
102
RTVSPost2010Prop32
280
     0
102
RTVSPost2010PropOp32
 70
     1
102
RTVSPost2010Prop33
280
     0
102
RTVSPost2010PropOp33
 70
     1
102
RTVSPost2010Prop34
280
     0
102
RTVSPost2010PropOp34
 70
     1
102
RTVSPost2010Prop35
280
     0
102
RTVSPost2010PropOp35
 70
     1
102
RTVSPost2010Prop36
280
     0
102
RTVSPost2010PropOp36
 70
     1
102
RTVSPost2010Prop37
 90
       50
102
RTVSPost2010PropOp37
 70
     0
102
RTVSPost2010Prop38
140
0.0
102
RTVSPost2010PropOp38
 70
     0
102
RTVSPost2010Prop39
140
1.0
102
RTVSPost2010PropOp39
 70
     0
102
RTVSPost2010Prop40
 90
        0
102
RTVSPost2010PropOp40
 70
     0
102
RTVSPost2010Prop41ColorIndex
 90
       18
102
RTVSPost2010Prop41ColorRGB
 90
        0
102
RTVSPost2010PropOp41
 70
     0
102
RTVSPost2010Prop42
 90
       50
102
RTVSPost2010PropOp42
 70
     0
102
RTVSPost2010Prop43
 90
        3
102
RTVSPost2010PropOp43
 70
     0
102
RTVSPost2010Prop44ColorIndex
 90
        5
102
RTVSPost2010Prop44ColorRGB
 90
      255
102
RTVSPost2010PropOp44
 70
     0
102
RTVSPost2010Prop45
280
     0
102
RTVSPost2010PropOp45
 70
     1
102
RTVSPost2010Prop46
 90
       50
102
RTVSPost2010PropOp46
 70
     0
102
RTVSPost2010Prop47
 90
       50
102
RTVSPost2010PropOp47
 70
     0
102
RTVSPost2010Prop48
 90
       50
102
RTVSPost2010PropOp48
 70
     0
102
RTVSPost2010Prop49
280
     0
102
RTVSPost2010PropOp49
 70
     1
102
RTVSPost2010Prop50
 90
       50
102
RTVSPost2010PropOp50
 70
     0
102
RTVSPost2010Prop51ColorIndex
 90
      256
102
RTVSPost2010Prop51ColorRGB
 90
-16777216
102
RTVSPost2010PropOp51
 70
     0
102
RTVSPost2010Prop52
140
1.0
102
RTVSPost2010PropOp52
 70
     0
102
RTVSPost2010Prop53
 90
        2
102
RTVSPost2010PropOp53
 70
     0
102
RTVSPost2010Prop54
  1
strokes_ogs.tif
102
RTVSPost2010PropOp54
 70
     0
102
RTVSPost2010Prop55
280
     0
102
RTVSPost2010PropOp55
 70
     1
102
RTVSPost2010Prop56
140
1.0
102
RTVSPost2010PropOp56
 70
     0
102
RTVSPost2010Prop57
140
1.0
102
RTVSPost2010PropOp57
 70
     0
102
RTVSPropertyOp0
 70
     0
102
RTVSPropertyOp1
 70
     0
102
RTVSPropertyOp2
 70
     0
102
RTVSPropertyOp3
 70
     0
102
RTVSPropertyOp4
 70
     0
102
RTVSPropertyOp5
 70
     0
102
RTVSPropertyOp6
 70
     0
102
RTVSPropertyOp7
 70
     0
102
RTVSPropertyOp8
 70
     0
102
RTVSPropertyOp9
 70
     0
102
RTVSPropertyOp10
 70
     0
102
RTVSPropertyOp11
 70
     0
102
RTVSPropertyOp12
 70
     0
102
RTVSPropertyOp13
 70
     0
102
RTVSPropertyOp14
 70
     2
102
RTVSPropertyOp15
 70
     0
102
RTVSPropertyOp16
 70
     0
102
RTVSPropertyOp17
 70
     0
102
RTVSPropertyOp18
 70
     0
102
RTVSPropertyOp19
 70
     0
102
RTVSPropertyOp20
 70
     0
102
RTVSPropertyOp21
 70
     0
102
RTVSPropertyOp22
 70
     0
102
RTVSPropertyOp23
 70
     0
102
RTVSPropertyOp24
 70
     0
102
RTVSPropertyOp25
 70
     0
102
RTVSPropertyOp26
 70
     0
102
RTVSPropertyOp27
 70
     0
102
RTVSPropertyOp28
 70
     1
102
RTVSPropertyOp29
 70
     1
102
RTVSPropertyOp30
 70
     1
102
RTVSPropertyOp31
 70
     1
102
RTVSPropertyOp32
 70
     1
102
RTVSPropertyOp33
 70
     1
102
RTVSPropertyOp34
 70
     1
102
RTVSPropertyOp35
 70
     1
102
RTVSPropertyOp36
 70
     1
102
RTVSPropertyOp37
 70
     0
102
RTVSPropertyOp38
 70
     0
102
RTVSPropertyOp39
 70
     0
102
RTVSPropertyOp40
 70
     0
102
RTVSPropertyOp41
 70
     0
102
RTVSPropertyOp42
 70
     0
102
RTVSPropertyOp43
 70
     0
102
RTVSPropertyOp44
 70
     0
102
RTVSPropertyOp45
 70
     1
102
RTVSPropertyOp46
 70
     0
102
RTVSPropertyOp47
 70
     0
102
RTVSPropertyOp48
 70
     0
102
RTVSPropertyOp49
 70
     1
102
RTVSPropertyOp50
 70
     0
102
RTVSPropertyOp51
 70
     0
102
RTVSPropertyOp52
 70
     0
102
RTVSPropertyOp53
 70
     0
102
RTVSPropertyOp54
 70
     0
102
RTVSPropertyOp55
 70
     1
102
RTVSPropertyOp56
 70
     0
102
RTVSPropertyOp57
 70
     0
102
RTVSPropertyOp58
 70
     0
102
RTVSPropertyOp59
 70
     0
102
RTVSPropertyOp60
 70
     0
102
RTVSPropertyOp61
 70
     0
102
RTVSPropertyOp62
 70
     0
  0
XRECORD
  5
6F3B
102
{ACAD_REACTORS
330
6F3A
102
}
330
6F3A
100
AcDbXrecord
280
     1
102
RTVSPost2010Prop28
280
     0
102
RTVSPost2010PropOp28
 70
     1
102
RTVSPost2010Prop29
280
     1
102
RTVSPost2010PropOp29
 70
     1
102
RTVSPost2010Prop30
280
     1
102
RTVSPost2010PropOp30
 70
     1
102
RTVSPost2010Prop31
280
     0
102
RTVSPost2010PropOp31
 70
     1
102
RTVSPost2010Prop32
280
     0
102
RTVSPost2010PropOp32
 70
     1
102
RTVSPost2010Prop33
280
     0
102
RTVSPost2010PropOp33
 70
     1
102
RTVSPost2010Prop34
280
     0
102
RTVSPost2010PropOp34
 70
     1
102
RTVSPost2010Prop35
280
     0
102
RTVSPost2010PropOp35
 70
     1
102
RTVSPost2010Prop36
280
     0
102
RTVSPost2010PropOp36
 70
     1
102
RTVSPost2010Prop37
 90
       50
102
RTVSPost2010PropOp37
 70
     1
102
RTVSPost2010Prop38
140
0.0
102
RTVSPost2010PropOp38
 70
     1
102
RTVSPost2010Prop39
140
1.0
102
RTVSPost2010PropOp39
 70
     1
102
RTVSPost2010Prop40
 90
        0
102
RTVSPost2010PropOp40
 70
     1
102
RTVSPost2010Prop41ColorIndex
 90
       18
102
RTVSPost2010Prop41ColorRGB
 90
        0
102
RTVSPost2010PropOp41
 70
     1
102
RTVSPost2010Prop42
 90
       50
102
RTVSPost2010PropOp42
 70
     1
102
RTVSPost2010Prop43
 90
        3
102
RTVSPost2010PropOp43
 70
     1
102
RTVSPost2010Prop44ColorIndex
 90
        5
102
RTVSPost2010Prop44ColorRGB
 90
      255
102
RTVSPost2010PropOp44
 70
     1
102
RTVSPost2010Prop45
280
     0
102
RTVSPost2010PropOp45
 70
     1
102
RTVSPost2010Prop46
 90
       50
102
RTVSPost2010PropOp46
 70
     1
102
RTVSPost2010Prop47
 90
       50
102
RTVSPost2010PropOp47
 70
     1
102
RTVSPost2010Prop48
 90
       50
102
RTVSPost2010PropOp48
 70
     1
102
RTVSPost2010Prop49
280
     0
102
RTVSPost2010PropOp49
 70
     1
102
RTVSPost2010Prop50
 90
       50
102
RTVSPost2010PropOp50
 70
     1
102
RTVSPost2010Prop51ColorIndex
 90
      256
102
RTVSPost2010Prop51ColorRGB
 90
-16777216
102
RTVSPost2010PropOp51
 70
     0
102
RTVSPost2010Prop52
140
1.0
102
RTVSPost2010PropOp52
 70
     0
102
RTVSPost2010Prop53
 90
        2
102
RTVSPost2010PropOp53
 70
     1
102
RTVSPost2010Prop54
  1
strokes_ogs.tif
102
RTVSPost2010PropOp54
 70
     1
102
RTVSPost2010Prop55
280
     0
102
RTVSPost2010PropOp55
 70
     1
102
RTVSPost2010Prop56
140
1.0
102
RTVSPost2010PropOp56
 70
     1
102
RTVSPost2010Prop57
140
1.0
102
RTVSPost2010PropOp57
 70
     1
102
RTVSPropertyOp0
 70
     1
102
RTVSPropertyOp1
 70
     1
102
RTVSPropertyOp2
 70
     1
102
RTVSPropertyOp3
 70
     1
102
RTVSPropertyOp4
 70
     1
102
RTVSPropertyOp5
 70
     1
102
RTVSPropertyOp6
 70
     1
102
RTVSPropertyOp7
 70
     1
102
RTVSPropertyOp8
 70
     1
102
RTVSPropertyOp9
 70
     1
102
RTVSPropertyOp10
 70
     1
102
RTVSPropertyOp11
 70
     1
102
RTVSPropertyOp12
 70
     1
102
RTVSPropertyOp13
 70
     1
102
RTVSPropertyOp14
 70
     1
102
RTVSPropertyOp15
 70
     1
102
RTVSPropertyOp16
 70
     1
102
RTVSPropertyOp17
 70
     1
102
RTVSPropertyOp18
 70
     1
102
RTVSPropertyOp19
 70
     1
102
RTVSPropertyOp20
 70
     1
102
RTVSPropertyOp21
 70
     1
102
RTVSPropertyOp22
 70
     1
102
RTVSPropertyOp23
 70
     1
102
RTVSPropertyOp24
 70
     1
102
RTVSPropertyOp25
 70
     1
102
RTVSPropertyOp26
 70
     1
102
RTVSPropertyOp27
 70
     1
102
RTVSPropertyOp28
 70
     1
102
RTVSPropertyOp29
 70
     1
102
RTVSPropertyOp30
 70
     1
102
RTVSPropertyOp31
 70
     1
102
RTVSPropertyOp32
 70
     1
102
RTVSPropertyOp33
 70
     1
102
RTVSPropertyOp34
 70
     1
102
RTVSPropertyOp35
 70
     1
102
RTVSPropertyOp36
 70
     1
102
RTVSPropertyOp37
 70
     1
102
RTVSPropertyOp38
 70
     1
102
RTVSPropertyOp39
 70
     1
102
RTVSPropertyOp40
 70
     1
102
RTVSPropertyOp41
 70
     1
102
RTVSPropertyOp42
 70
     1
102
RTVSPropertyOp43
 70
     1
102
RTVSPropertyOp44
 70
     1
102
RTVSPropertyOp45
 70
     1
102
RTVSPropertyOp46
 70
     1
102
RTVSPropertyOp47
 70
     1
102
RTVSPropertyOp48
 70
     1
102
RTVSPropertyOp49
 70
     1
102
RTVSPropertyOp50
 70
     1
102
RTVSPropertyOp51
 70
     0
102
RTVSPropertyOp52
 70
     0
102
RTVSPropertyOp53
 70
     1
102
RTVSPropertyOp54
 70
     1
102
RTVSPropertyOp55
 70
     1
102
RTVSPropertyOp56
 70
     1
102
RTVSPropertyOp57
 70
     1
102
RTVSPropertyOp58
 70
     1
102
RTVSPropertyOp59
 70
     1
102
RTVSPropertyOp60
 70
     1
102
RTVSPropertyOp61
 70
     1
102
RTVSPropertyOp62
 70
     1
  0
XRECORD
  5
6F4D
102
{ACAD_REACTORS
330
6F4C
102
}
330
6F4C
100
AcDbXrecord
280
     1
102
RTVSPost2010Prop28
280
     0
102
RTVSPost2010PropOp28
 70
     1
102
RTVSPost2010Prop29
280
     1
102
RTVSPost2010PropOp29
 70
     1
102
RTVSPost2010Prop30
280
     1
102
RTVSPost2010PropOp30
 70
     1
102
RTVSPost2010Prop31
280
     0
102
RTVSPost2010PropOp31
 70
     1
102
RTVSPost2010Prop32
280
     0
102
RTVSPost2010PropOp32
 70
     1
102
RTVSPost2010Prop33
280
     0
102
RTVSPost2010PropOp33
 70
     1
102
RTVSPost2010Prop34
280
     0
102
RTVSPost2010PropOp34
 70
     1
102
RTVSPost2010Prop35
280
     0
102
RTVSPost2010PropOp35
 70
     1
102
RTVSPost2010Prop36
280
     0
102
RTVSPost2010PropOp36
 70
     1
102
RTVSPost2010Prop37
 90
       50
102
RTVSPost2010PropOp37
 70
     0
102
RTVSPost2010Prop38
140
0.0
102
RTVSPost2010PropOp38
 70
     0
102
RTVSPost2010Prop39
140
1.0
102
RTVSPost2010PropOp39
 70
     0
102
RTVSPost2010Prop40
 90
        0
102
RTVSPost2010PropOp40
 70
     0
102
RTVSPost2010Prop41ColorIndex
 90
       18
102
RTVSPost2010Prop41ColorRGB
 90
        0
102
RTVSPost2010PropOp41
 70
     0
102
RTVSPost2010Prop42
 90
       50
102
RTVSPost2010PropOp42
 70
     0
102
RTVSPost2010Prop43
 90
        3
102
RTVSPost2010PropOp43
 70
     0
102
RTVSPost2010Prop44ColorIndex
 90
        5
102
RTVSPost2010Prop44ColorRGB
 90
      255
102
RTVSPost2010PropOp44
 70
     0
102
RTVSPost2010Prop45
280
     0
102
RTVSPost2010PropOp45
 70
     1
102
RTVSPost2010Prop46
 90
       50
102
RTVSPost2010PropOp46
 70
     0
102
RTVSPost2010Prop47
 90
       50
102
RTVSPost2010PropOp47
 70
     0
102
RTVSPost2010Prop48
 90
       50
102
RTVSPost2010PropOp48
 70
     0
102
RTVSPost2010Prop49
280
     0
102
RTVSPost2010PropOp49
 70
     1
102
RTVSPost2010Prop50
 90
       50
102
RTVSPost2010PropOp50
 70
     0
102
RTVSPost2010Prop51ColorIndex
 90
      256
102
RTVSPost2010Prop51ColorRGB
 90
-16777216
102
RTVSPost2010PropOp51
 70
     0
102
RTVSPost2010Prop52
140
1.0
102
RTVSPost2010PropOp52
 70
     0
102
RTVSPost2010Prop53
 90
        2
102
RTVSPost2010PropOp53
 70
     0
102
RTVSPost2010Prop54
  1
strokes_ogs.tif
102
RTVSPost2010PropOp54
 70
     0
102
RTVSPost2010Prop55
280
     0
102
RTVSPost2010PropOp55
 70
     1
102
RTVSPost2010Prop56
140
1.0
102
RTVSPost2010PropOp56
 70
     0
102
RTVSPost2010Prop57
140
1.0
102
RTVSPost2010PropOp57
 70
     0
102
RTVSPropertyOp0
 70
     0
102
RTVSPropertyOp1
 70
     0
102
RTVSPropertyOp2
 70
     0
102
RTVSPropertyOp3
 70
     0
102
RTVSPropertyOp4
 70
     0
102
RTVSPropertyOp5
 70
     0
102
RTVSPropertyOp6
 70
     0
102
RTVSPropertyOp7
 70
     0
102
RTVSPropertyOp8
 70
     0
102
RTVSPropertyOp9
 70
     0
102
RTVSPropertyOp10
 70
     0
102
RTVSPropertyOp11
 70
     0
102
RTVSPropertyOp12
 70
     0
102
RTVSPropertyOp13
 70
     0
102
RTVSPropertyOp14
 70
     2
102
RTVSPropertyOp15
 70
     0
102
RTVSPropertyOp16
 70
     0
102
RTVSPropertyOp17
 70
     0
102
RTVSPropertyOp18
 70
     0
102
RTVSPropertyOp19
 70
     0
102
RTVSPropertyOp20
 70
     0
102
RTVSPropertyOp21
 70
     0
102
RTVSPropertyOp22
 70
     0
102
RTVSPropertyOp23
 70
     0
102
RTVSPropertyOp24
 70
     0
102
RTVSPropertyOp25
 70
     0
102
RTVSPropertyOp26
 70
     0
102
RTVSPropertyOp27
 70
     0
102
RTVSPropertyOp28
 70
     1
102
RTVSPropertyOp29
 70
     1
102
RTVSPropertyOp30
 70
     1
102
RTVSPropertyOp31
 70
     1
102
RTVSPropertyOp32
 70
     1
102
RTVSPropertyOp33
 70
     1
102
RTVSPropertyOp34
 70
     1
102
RTVSPropertyOp35
 70
     1
102
RTVSPropertyOp36
 70
     1
102
RTVSPropertyOp37
 70
     0
102
RTVSPropertyOp38
 70
     0
102
RTVSPropertyOp39
 70
     0
102
RTVSPropertyOp40
 70
     0
102
RTVSPropertyOp41
 70
     0
102
RTVSPropertyOp42
 70
     0
102
RTVSPropertyOp43
 70
     0
102
RTVSPropertyOp44
 70
     0
102
RTVSPropertyOp45
 70
     1
102
RTVSPropertyOp46
 70
     0
102
RTVSPropertyOp47
 70
     0
102
RTVSPropertyOp48
 70
     0
102
RTVSPropertyOp49
 70
     1
102
RTVSPropertyOp50
 70
     0
102
RTVSPropertyOp51
 70
     0
102
RTVSPropertyOp52
 70
     0
102
RTVSPropertyOp53
 70
     0
102
RTVSPropertyOp54
 70
     0
102
RTVSPropertyOp55
 70
     1
102
RTVSPropertyOp56
 70
     0
102
RTVSPropertyOp57
 70
     0
102
RTVSPropertyOp58
 70
     0
102
RTVSPropertyOp59
 70
     0
102
RTVSPropertyOp60
 70
     0
102
RTVSPropertyOp61
 70
     0
102
RTVSPropertyOp62
 70
     0
  0
XRECORD
  5
6F33
102
{ACAD_REACTORS
330
6F32
102
}
330
6F32
100
AcDbXrecord
280
     1
102
RTVSPost2010Prop28
280
     0
102
RTVSPost2010PropOp28
 70
     1
102
RTVSPost2010Prop29
280
     1
102
RTVSPost2010PropOp29
 70
     1
102
RTVSPost2010Prop30
280
     1
102
RTVSPost2010PropOp30
 70
     1
102
RTVSPost2010Prop31
280
     0
102
RTVSPost2010PropOp31
 70
     1
102
RTVSPost2010Prop32
280
     0
102
RTVSPost2010PropOp32
 70
     1
102
RTVSPost2010Prop33
280
     0
102
RTVSPost2010PropOp33
 70
     1
102
RTVSPost2010Prop34
280
     0
102
RTVSPost2010PropOp34
 70
     1
102
RTVSPost2010Prop35
280
     0
102
RTVSPost2010PropOp35
 70
     1
102
RTVSPost2010Prop36
280
     0
102
RTVSPost2010PropOp36
 70
     1
102
RTVSPost2010Prop37
 90
       50
102
RTVSPost2010PropOp37
 70
     1
102
RTVSPost2010Prop38
140
0.0
102
RTVSPost2010PropOp38
 70
     1
102
RTVSPost2010Prop39
140
1.0
102
RTVSPost2010PropOp39
 70
     1
102
RTVSPost2010Prop40
 90
        0
102
RTVSPost2010PropOp40
 70
     1
102
RTVSPost2010Prop41ColorIndex
 90
       18
102
RTVSPost2010Prop41ColorRGB
 90
        0
102
RTVSPost2010PropOp41
 70
     1
102
RTVSPost2010Prop42
 90
       50
102
RTVSPost2010PropOp42
 70
     1
102
RTVSPost2010Prop43
 90
        3
102
RTVSPost2010PropOp43
 70
     1
102
RTVSPost2010Prop44ColorIndex
 90
        5
102
RTVSPost2010Prop44ColorRGB
 90
      255
102
RTVSPost2010PropOp44
 70
     1
102
RTVSPost2010Prop45
280
     0
102
RTVSPost2010PropOp45
 70
     1
102
RTVSPost2010Prop46
 90
       50
102
RTVSPost2010PropOp46
 70
     1
102
RTVSPost2010Prop47
 90
       50
102
RTVSPost2010PropOp47
 70
     1
102
RTVSPost2010Prop48
 90
       50
102
RTVSPost2010PropOp48
 70
     1
102
RTVSPost2010Prop49
280
     0
102
RTVSPost2010PropOp49
 70
     1
102
RTVSPost2010Prop50
 90
       50
102
RTVSPost2010PropOp50
 70
     1
102
RTVSPost2010Prop51ColorIndex
 90
      256
102
RTVSPost2010Prop51ColorRGB
 90
-16777216
102
RTVSPost2010PropOp51
 70
     0
102
RTVSPost2010Prop52
140
1.0
102
RTVSPost2010PropOp52
 70
     0
102
RTVSPost2010Prop53
 90
        2
102
RTVSPost2010PropOp53
 70
     1
102
RTVSPost2010Prop54
  1
strokes_ogs.tif
102
RTVSPost2010PropOp54
 70
     1
102
RTVSPost2010Prop55
280
     0
102
RTVSPost2010PropOp55
 70
     1
102
RTVSPost2010Prop56
140
1.0
102
RTVSPost2010PropOp56
 70
     1
102
RTVSPost2010Prop57
140
1.0
102
RTVSPost2010PropOp57
 70
     1
102
RTVSPropertyOp0
 70
     1
102
RTVSPropertyOp1
 70
     1
102
RTVSPropertyOp2
 70
     1
102
RTVSPropertyOp3
 70
     1
102
RTVSPropertyOp4
 70
     1
102
RTVSPropertyOp5
 70
     1
102
RTVSPropertyOp6
 70
     1
102
RTVSPropertyOp7
 70
     1
102
RTVSPropertyOp8
 70
     1
102
RTVSPropertyOp9
 70
     1
102
RTVSPropertyOp10
 70
     1
102
RTVSPropertyOp11
 70
     1
102
RTVSPropertyOp12
 70
     1
102
RTVSPropertyOp13
 70
     1
102
RTVSPropertyOp14
 70
     1
102
RTVSPropertyOp15
 70
     1
102
RTVSPropertyOp16
 70
     1
102
RTVSPropertyOp17
 70
     1
102
RTVSPropertyOp18
 70
     1
102
RTVSPropertyOp19
 70
     1
102
RTVSPropertyOp20
 70
     1
102
RTVSPropertyOp21
 70
     1
102
RTVSPropertyOp22
 70
     1
102
RTVSPropertyOp23
 70
     1
102
RTVSPropertyOp24
 70
     1
102
RTVSPropertyOp25
 70
     1
102
RTVSPropertyOp26
 70
     1
102
RTVSPropertyOp27
 70
     1
102
RTVSPropertyOp28
 70
     1
102
RTVSPropertyOp29
 70
     1
102
RTVSPropertyOp30
 70
     1
102
RTVSPropertyOp31
 70
     1
102
RTVSPropertyOp32
 70
     1
102
RTVSPropertyOp33
 70
     1
102
RTVSPropertyOp34
 70
     1
102
RTVSPropertyOp35
 70
     1
102
RTVSPropertyOp36
 70
     1
102
RTVSPropertyOp37
 70
     1
102
RTVSPropertyOp38
 70
     1
102
RTVSPropertyOp39
 70
     1
102
RTVSPropertyOp40
 70
     1
102
RTVSPropertyOp41
 70
     1
102
RTVSPropertyOp42
 70
     1
102
RTVSPropertyOp43
 70
     1
102
RTVSPropertyOp44
 70
     1
102
RTVSPropertyOp45
 70
     1
102
RTVSPropertyOp46
 70
     1
102
RTVSPropertyOp47
 70
     1
102
RTVSPropertyOp48
 70
     1
102
RTVSPropertyOp49
 70
     1
102
RTVSPropertyOp50
 70
     1
102
RTVSPropertyOp51
 70
     0
102
RTVSPropertyOp52
 70
     0
102
RTVSPropertyOp53
 70
     1
102
RTVSPropertyOp54
 70
     1
102
RTVSPropertyOp55
 70
     1
102
RTVSPropertyOp56
 70
     1
102
RTVSPropertyOp57
 70
     1
102
RTVSPropertyOp58
 70
     1
102
RTVSPropertyOp59
 70
     1
102
RTVSPropertyOp60
 70
     1
102
RTVSPropertyOp61
 70
     1
102
RTVSPropertyOp62
 70
     1
  0
XRECORD
  5
6F49
102
{ACAD_REACTORS
330
6F48
102
}
330
6F48
100
AcDbXrecord
280
     1
102
RTVSPost2010Prop28
280
     0
102
RTVSPost2010PropOp28
 70
     1
102
RTVSPost2010Prop29
280
     1
102
RTVSPost2010PropOp29
 70
     1
102
RTVSPost2010Prop30
280
     1
102
RTVSPost2010PropOp30
 70
     1
102
RTVSPost2010Prop31
280
     0
102
RTVSPost2010PropOp31
 70
     1
102
RTVSPost2010Prop32
280
     0
102
RTVSPost2010PropOp32
 70
     1
102
RTVSPost2010Prop33
280
     0
102
RTVSPost2010PropOp33
 70
     1
102
RTVSPost2010Prop34
280
     0
102
RTVSPost2010PropOp34
 70
     1
102
RTVSPost2010Prop35
280
     0
102
RTVSPost2010PropOp35
 70
     1
102
RTVSPost2010Prop36
280
     0
102
RTVSPost2010PropOp36
 70
     1
102
RTVSPost2010Prop37
 90
       50
102
RTVSPost2010PropOp37
 70
     1
102
RTVSPost2010Prop38
140
0.0
102
RTVSPost2010PropOp38
 70
     1
102
RTVSPost2010Prop39
140
1.0
102
RTVSPost2010PropOp39
 70
     1
102
RTVSPost2010Prop40
 90
        0
102
RTVSPost2010PropOp40
 70
     1
102
RTVSPost2010Prop41ColorIndex
 90
       18
102
RTVSPost2010Prop41ColorRGB
 90
        0
102
RTVSPost2010PropOp41
 70
     1
102
RTVSPost2010Prop42
 90
       50
102
RTVSPost2010PropOp42
 70
     1
102
RTVSPost2010Prop43
 90
        3
102
RTVSPost2010PropOp43
 70
     1
102
RTVSPost2010Prop44ColorIndex
 90
        5
102
RTVSPost2010Prop44ColorRGB
 90
      255
102
RTVSPost2010PropOp44
 70
     1
102
RTVSPost2010Prop45
280
     0
102
RTVSPost2010PropOp45
 70
     1
102
RTVSPost2010Prop46
 90
       50
102
RTVSPost2010PropOp46
 70
     1
102
RTVSPost2010Prop47
 90
       50
102
RTVSPost2010PropOp47
 70
     1
102
RTVSPost2010Prop48
 90
       50
102
RTVSPost2010PropOp48
 70
     1
102
RTVSPost2010Prop49
280
     0
102
RTVSPost2010PropOp49
 70
     1
102
RTVSPost2010Prop50
 90
       50
102
RTVSPost2010PropOp50
 70
     1
102
RTVSPost2010Prop51ColorIndex
 90
      256
102
RTVSPost2010Prop51ColorRGB
 90
-16777216
102
RTVSPost2010PropOp51
 70
     0
102
RTVSPost2010Prop52
140
1.0
102
RTVSPost2010PropOp52
 70
     0
102
RTVSPost2010Prop53
 90
        2
102
RTVSPost2010PropOp53
 70
     1
102
RTVSPost2010Prop54
  1
strokes_ogs.tif
102
RTVSPost2010PropOp54
 70
     1
102
RTVSPost2010Prop55
280
     0
102
RTVSPost2010PropOp55
 70
     1
102
RTVSPost2010Prop56
140
1.0
102
RTVSPost2010PropOp56
 70
     1
102
RTVSPost2010Prop57
140
1.0
102
RTVSPost2010PropOp57
 70
     1
102
RTVSPropertyOp0
 70
     1
102
RTVSPropertyOp1
 70
     1
102
RTVSPropertyOp2
 70
     1
102
RTVSPropertyOp3
 70
     1
102
RTVSPropertyOp4
 70
     1
102
RTVSPropertyOp5
 70
     1
102
RTVSPropertyOp6
 70
     1
102
RTVSPropertyOp7
 70
     1
102
RTVSPropertyOp8
 70
     1
102
RTVSPropertyOp9
 70
     1
102
RTVSPropertyOp10
 70
     1
102
RTVSPropertyOp11
 70
     1
102
RTVSPropertyOp12
 70
     1
102
RTVSPropertyOp13
 70
     1
102
RTVSPropertyOp14
 70
     1
102
RTVSPropertyOp15
 70
     1
102
RTVSPropertyOp16
 70
     1
102
RTVSPropertyOp17
 70
     1
102
RTVSPropertyOp18
 70
     1
102
RTVSPropertyOp19
 70
     1
102
RTVSPropertyOp20
 70
     1
102
RTVSPropertyOp21
 70
     1
102
RTVSPropertyOp22
 70
     1
102
RTVSPropertyOp23
 70
     1
102
RTVSPropertyOp24
 70
     1
102
RTVSPropertyOp25
 70
     1
102
RTVSPropertyOp26
 70
     1
102
RTVSPropertyOp27
 70
     1
102
RTVSPropertyOp28
 70
     1
102
RTVSPropertyOp29
 70
     1
102
RTVSPropertyOp30
 70
     1
102
RTVSPropertyOp31
 70
     1
102
RTVSPropertyOp32
 70
     1
102
RTVSPropertyOp33
 70
     1
102
RTVSPropertyOp34
 70
     1
102
RTVSPropertyOp35
 70
     1
102
RTVSPropertyOp36
 70
     1
102
RTVSPropertyOp37
 70
     1
102
RTVSPropertyOp38
 70
     1
102
RTVSPropertyOp39
 70
     1
102
RTVSPropertyOp40
 70
     1
102
RTVSPropertyOp41
 70
     1
102
RTVSPropertyOp42
 70
     1
102
RTVSPropertyOp43
 70
     1
102
RTVSPropertyOp44
 70
     1
102
RTVSPropertyOp45
 70
     1
102
RTVSPropertyOp46
 70
     1
102
RTVSPropertyOp47
 70
     1
102
RTVSPropertyOp48
 70
     1
102
RTVSPropertyOp49
 70
     1
102
RTVSPropertyOp50
 70
     1
102
RTVSPropertyOp51
 70
     0
102
RTVSPropertyOp52
 70
     0
102
RTVSPropertyOp53
 70
     1
102
RTVSPropertyOp54
 70
     1
102
RTVSPropertyOp55
 70
     1
102
RTVSPropertyOp56
 70
     1
102
RTVSPropertyOp57
 70
     1
102
RTVSPropertyOp58
 70
     1
102
RTVSPropertyOp59
 70
     1
102
RTVSPropertyOp60
 70
     1
102
RTVSPropertyOp61
 70
     1
102
RTVSPropertyOp62
 70
     1
  0
XRECORD
  5
6F47
102
{ACAD_REACTORS
330
6F46
102
}
330
6F46
100
AcDbXrecord
280
     1
102
RTVSPost2010Prop28
280
     0
102
RTVSPost2010PropOp28
 70
     1
102
RTVSPost2010Prop29
280
     1
102
RTVSPost2010PropOp29
 70
     1
102
RTVSPost2010Prop30
280
     1
102
RTVSPost2010PropOp30
 70
     1
102
RTVSPost2010Prop31
280
     0
102
RTVSPost2010PropOp31
 70
     1
102
RTVSPost2010Prop32
280
     0
102
RTVSPost2010PropOp32
 70
     1
102
RTVSPost2010Prop33
280
     0
102
RTVSPost2010PropOp33
 70
     1
102
RTVSPost2010Prop34
280
     0
102
RTVSPost2010PropOp34
 70
     1
102
RTVSPost2010Prop35
280
     0
102
RTVSPost2010PropOp35
 70
     1
102
RTVSPost2010Prop36
280
     0
102
RTVSPost2010PropOp36
 70
     1
102
RTVSPost2010Prop37
 90
       50
102
RTVSPost2010PropOp37
 70
     1
102
RTVSPost2010Prop38
140
0.0
102
RTVSPost2010PropOp38
 70
     1
102
RTVSPost2010Prop39
140
1.0
102
RTVSPost2010PropOp39
 70
     1
102
RTVSPost2010Prop40
 90
        0
102
RTVSPost2010PropOp40
 70
     1
102
RTVSPost2010Prop41ColorIndex
 90
       18
102
RTVSPost2010Prop41ColorRGB
 90
        0
102
RTVSPost2010PropOp41
 70
     1
102
RTVSPost2010Prop42
 90
       50
102
RTVSPost2010PropOp42
 70
     1
102
RTVSPost2010Prop43
 90
        3
102
RTVSPost2010PropOp43
 70
     1
102
RTVSPost2010Prop44ColorIndex
 90
        5
102
RTVSPost2010Prop44ColorRGB
 90
      255
102
RTVSPost2010PropOp44
 70
     1
102
RTVSPost2010Prop45
280
     0
102
RTVSPost2010PropOp45
 70
     1
102
RTVSPost2010Prop46
 90
       50
102
RTVSPost2010PropOp46
 70
     1
102
RTVSPost2010Prop47
 90
       50
102
RTVSPost2010PropOp47
 70
     1
102
RTVSPost2010Prop48
 90
       50
102
RTVSPost2010PropOp48
 70
     1
102
RTVSPost2010Prop49
280
     0
102
RTVSPost2010PropOp49
 70
     1
102
RTVSPost2010Prop50
 90
       50
102
RTVSPost2010PropOp50
 70
     1
102
RTVSPost2010Prop51ColorIndex
 90
      256
102
RTVSPost2010Prop51ColorRGB
 90
-16777216
102
RTVSPost2010PropOp51
 70
     0
102
RTVSPost2010Prop52
140
1.0
102
RTVSPost2010PropOp52
 70
     0
102
RTVSPost2010Prop53
 90
        2
102
RTVSPost2010PropOp53
 70
     1
102
RTVSPost2010Prop54
  1
strokes_ogs.tif
102
RTVSPost2010PropOp54
 70
     1
102
RTVSPost2010Prop55
280
     0
102
RTVSPost2010PropOp55
 70
     1
102
RTVSPost2010Prop56
140
1.0
102
RTVSPost2010PropOp56
 70
     1
102
RTVSPost2010Prop57
140
1.0
102
RTVSPost2010PropOp57
 70
     1
102
RTVSPropertyOp0
 70
     1
102
RTVSPropertyOp1
 70
     1
102
RTVSPropertyOp2
 70
     1
102
RTVSPropertyOp3
 70
     1
102
RTVSPropertyOp4
 70
     1
102
RTVSPropertyOp5
 70
     1
102
RTVSPropertyOp6
 70
     1
102
RTVSPropertyOp7
 70
     1
102
RTVSPropertyOp8
 70
     1
102
RTVSPropertyOp9
 70
     1
102
RTVSPropertyOp10
 70
     1
102
RTVSPropertyOp11
 70
     1
102
RTVSPropertyOp12
 70
     1
102
RTVSPropertyOp13
 70
     1
102
RTVSPropertyOp14
 70
     1
102
RTVSPropertyOp15
 70
     1
102
RTVSPropertyOp16
 70
     1
102
RTVSPropertyOp17
 70
     1
102
RTVSPropertyOp18
 70
     1
102
RTVSPropertyOp19
 70
     1
102
RTVSPropertyOp20
 70
     1
102
RTVSPropertyOp21
 70
     1
102
RTVSPropertyOp22
 70
     1
102
RTVSPropertyOp23
 70
     1
102
RTVSPropertyOp24
 70
     1
102
RTVSPropertyOp25
 70
     1
102
RTVSPropertyOp26
 70
     1
102
RTVSPropertyOp27
 70
     1
102
RTVSPropertyOp28
 70
     1
102
RTVSPropertyOp29
 70
     1
102
RTVSPropertyOp30
 70
     1
102
RTVSPropertyOp31
 70
     1
102
RTVSPropertyOp32
 70
     1
102
RTVSPropertyOp33
 70
     1
102
RTVSPropertyOp34
 70
     1
102
RTVSPropertyOp35
 70
     1
102
RTVSPropertyOp36
 70
     1
102
RTVSPropertyOp37
 70
     1
102
RTVSPropertyOp38
 70
     1
102
RTVSPropertyOp39
 70
     1
102
RTVSPropertyOp40
 70
     1
102
RTVSPropertyOp41
 70
     1
102
RTVSPropertyOp42
 70
     1
102
RTVSPropertyOp43
 70
     1
102
RTVSPropertyOp44
 70
     1
102
RTVSPropertyOp45
 70
     1
102
RTVSPropertyOp46
 70
     1
102
RTVSPropertyOp47
 70
     1
102
RTVSPropertyOp48
 70
     1
102
RTVSPropertyOp49
 70
     1
102
RTVSPropertyOp50
 70
     1
102
RTVSPropertyOp51
 70
     0
102
RTVSPropertyOp52
 70
     0
102
RTVSPropertyOp53
 70
     1
102
RTVSPropertyOp54
 70
     1
102
RTVSPropertyOp55
 70
     1
102
RTVSPropertyOp56
 70
     1
102
RTVSPropertyOp57
 70
     1
102
RTVSPropertyOp58
 70
     1
102
RTVSPropertyOp59
 70
     1
102
RTVSPropertyOp60
 70
     1
102
RTVSPropertyOp61
 70
     1
102
RTVSPropertyOp62
 70
     1
  0
XRECORD
  5
6F41
102
{ACAD_REACTORS
330
6F40
102
}
330
6F40
100
AcDbXrecord
280
     1
102
RTVSPost2010Prop28
280
     0
102
RTVSPost2010PropOp28
 70
     1
102
RTVSPost2010Prop29
280
     1
102
RTVSPost2010PropOp29
 70
     1
102
RTVSPost2010Prop30
280
     1
102
RTVSPost2010PropOp30
 70
     1
102
RTVSPost2010Prop31
280
     0
102
RTVSPost2010PropOp31
 70
     1
102
RTVSPost2010Prop32
280
     0
102
RTVSPost2010PropOp32
 70
     1
102
RTVSPost2010Prop33
280
     0
102
RTVSPost2010PropOp33
 70
     1
102
RTVSPost2010Prop34
280
     0
102
RTVSPost2010PropOp34
 70
     1
102
RTVSPost2010Prop35
280
     0
102
RTVSPost2010PropOp35
 70
     1
102
RTVSPost2010Prop36
280
     0
102
RTVSPost2010PropOp36
 70
     1
102
RTVSPost2010Prop37
 90
       50
102
RTVSPost2010PropOp37
 70
     1
102
RTVSPost2010Prop38
140
0.0
102
RTVSPost2010PropOp38
 70
     1
102
RTVSPost2010Prop39
140
1.0
102
RTVSPost2010PropOp39
 70
     1
102
RTVSPost2010Prop40
 90
        0
102
RTVSPost2010PropOp40
 70
     1
102
RTVSPost2010Prop41ColorIndex
 90
       18
102
RTVSPost2010Prop41ColorRGB
 90
        0
102
RTVSPost2010PropOp41
 70
     1
102
RTVSPost2010Prop42
 90
       50
102
RTVSPost2010PropOp42
 70
     1
102
RTVSPost2010Prop43
 90
        3
102
RTVSPost2010PropOp43
 70
     1
102
RTVSPost2010Prop44ColorIndex
 90
        5
102
RTVSPost2010Prop44ColorRGB
 90
      255
102
RTVSPost2010PropOp44
 70
     1
102
RTVSPost2010Prop45
280
     0
102
RTVSPost2010PropOp45
 70
     1
102
RTVSPost2010Prop46
 90
       50
102
RTVSPost2010PropOp46
 70
     1
102
RTVSPost2010Prop47
 90
       50
102
RTVSPost2010PropOp47
 70
     1
102
RTVSPost2010Prop48
 90
       50
102
RTVSPost2010PropOp48
 70
     1
102
RTVSPost2010Prop49
280
     0
102
RTVSPost2010PropOp49
 70
     1
102
RTVSPost2010Prop50
 90
       50
102
RTVSPost2010PropOp50
 70
     1
102
RTVSPost2010Prop51ColorIndex
 90
      256
102
RTVSPost2010Prop51ColorRGB
 90
-16777216
102
RTVSPost2010PropOp51
 70
     0
102
RTVSPost2010Prop52
140
1.0
102
RTVSPost2010PropOp52
 70
     0
102
RTVSPost2010Prop53
 90
        2
102
RTVSPost2010PropOp53
 70
     1
102
RTVSPost2010Prop54
  1
strokes_ogs.tif
102
RTVSPost2010PropOp54
 70
     1
102
RTVSPost2010Prop55
280
     0
102
RTVSPost2010PropOp55
 70
     1
102
RTVSPost2010Prop56
140
1.0
102
RTVSPost2010PropOp56
 70
     1
102
RTVSPost2010Prop57
140
1.0
102
RTVSPost2010PropOp57
 70
     1
102
RTVSPropertyOp0
 70
     1
102
RTVSPropertyOp1
 70
     1
102
RTVSPropertyOp2
 70
     1
102
RTVSPropertyOp3
 70
     1
102
RTVSPropertyOp4
 70
     1
102
RTVSPropertyOp5
 70
     1
102
RTVSPropertyOp6
 70
     1
102
RTVSPropertyOp7
 70
     1
102
RTVSPropertyOp8
 70
     1
102
RTVSPropertyOp9
 70
     1
102
RTVSPropertyOp10
 70
     1
102
RTVSPropertyOp11
 70
     1
102
RTVSPropertyOp12
 70
     1
102
RTVSPropertyOp13
 70
     1
102
RTVSPropertyOp14
 70
     1
102
RTVSPropertyOp15
 70
     1
102
RTVSPropertyOp16
 70
     1
102
RTVSPropertyOp17
 70
     1
102
RTVSPropertyOp18
 70
     1
102
RTVSPropertyOp19
 70
     1
102
RTVSPropertyOp20
 70
     1
102
RTVSPropertyOp21
 70
     1
102
RTVSPropertyOp22
 70
     1
102
RTVSPropertyOp23
 70
     1
102
RTVSPropertyOp24
 70
     1
102
RTVSPropertyOp25
 70
     1
102
RTVSPropertyOp26
 70
     1
102
RTVSPropertyOp27
 70
     1
102
RTVSPropertyOp28
 70
     1
102
RTVSPropertyOp29
 70
     1
102
RTVSPropertyOp30
 70
     1
102
RTVSPropertyOp31
 70
     1
102
RTVSPropertyOp32
 70
     1
102
RTVSPropertyOp33
 70
     1
102
RTVSPropertyOp34
 70
     1
102
RTVSPropertyOp35
 70
     1
102
RTVSPropertyOp36
 70
     1
102
RTVSPropertyOp37
 70
     1
102
RTVSPropertyOp38
 70
     1
102
RTVSPropertyOp39
 70
     1
102
RTVSPropertyOp40
 70
     1
102
RTVSPropertyOp41
 70
     1
102
RTVSPropertyOp42
 70
     1
102
RTVSPropertyOp43
 70
     1
102
RTVSPropertyOp44
 70
     1
102
RTVSPropertyOp45
 70
     1
102
RTVSPropertyOp46
 70
     1
102
RTVSPropertyOp47
 70
     1
102
RTVSPropertyOp48
 70
     1
102
RTVSPropertyOp49
 70
     1
102
RTVSPropertyOp50
 70
     1
102
RTVSPropertyOp51
 70
     0
102
RTVSPropertyOp52
 70
     0
102
RTVSPropertyOp53
 70
     1
102
RTVSPropertyOp54
 70
     1
102
RTVSPropertyOp55
 70
     1
102
RTVSPropertyOp56
 70
     1
102
RTVSPropertyOp57
 70
     1
102
RTVSPropertyOp58
 70
     1
102
RTVSPropertyOp59
 70
     1
102
RTVSPropertyOp60
 70
     1
102
RTVSPropertyOp61
 70
     1
102
RTVSPropertyOp62
 70
     1
  0
XRECORD
  5
6F43
102
{ACAD_REACTORS
330
6F42
102
}
330
6F42
100
AcDbXrecord
280
     1
102
RTVSPost2010Prop28
280
     0
102
RTVSPost2010PropOp28
 70
     1
102
RTVSPost2010Prop29
280
     1
102
RTVSPost2010PropOp29
 70
     1
102
RTVSPost2010Prop30
280
     1
102
RTVSPost2010PropOp30
 70
     1
102
RTVSPost2010Prop31
280
     0
102
RTVSPost2010PropOp31
 70
     1
102
RTVSPost2010Prop32
280
     0
102
RTVSPost2010PropOp32
 70
     1
102
RTVSPost2010Prop33
280
     0
102
RTVSPost2010PropOp33
 70
     1
102
RTVSPost2010Prop34
280
     0
102
RTVSPost2010PropOp34
 70
     1
102
RTVSPost2010Prop35
280
     0
102
RTVSPost2010PropOp35
 70
     1
102
RTVSPost2010Prop36
280
     0
102
RTVSPost2010PropOp36
 70
     1
102
RTVSPost2010Prop37
 90
       50
102
RTVSPost2010PropOp37
 70
     1
102
RTVSPost2010Prop38
140
0.0
102
RTVSPost2010PropOp38
 70
     1
102
RTVSPost2010Prop39
140
1.0
102
RTVSPost2010PropOp39
 70
     1
102
RTVSPost2010Prop40
 90
        0
102
RTVSPost2010PropOp40
 70
     1
102
RTVSPost2010Prop41ColorIndex
 90
       18
102
RTVSPost2010Prop41ColorRGB
 90
        0
102
RTVSPost2010PropOp41
 70
     1
102
RTVSPost2010Prop42
 90
       50
102
RTVSPost2010PropOp42
 70
     1
102
RTVSPost2010Prop43
 90
        3
102
RTVSPost2010PropOp43
 70
     1
102
RTVSPost2010Prop44ColorIndex
 90
        5
102
RTVSPost2010Prop44ColorRGB
 90
      255
102
RTVSPost2010PropOp44
 70
     1
102
RTVSPost2010Prop45
280
     0
102
RTVSPost2010PropOp45
 70
     1
102
RTVSPost2010Prop46
 90
       50
102
RTVSPost2010PropOp46
 70
     1
102
RTVSPost2010Prop47
 90
       50
102
RTVSPost2010PropOp47
 70
     1
102
RTVSPost2010Prop48
 90
       50
102
RTVSPost2010PropOp48
 70
     1
102
RTVSPost2010Prop49
280
     0
102
RTVSPost2010PropOp49
 70
     1
102
RTVSPost2010Prop50
 90
       50
102
RTVSPost2010PropOp50
 70
     1
102
RTVSPost2010Prop51ColorIndex
 90
      256
102
RTVSPost2010Prop51ColorRGB
 90
-16777216
102
RTVSPost2010PropOp51
 70
     0
102
RTVSPost2010Prop52
140
1.0
102
RTVSPost2010PropOp52
 70
     0
102
RTVSPost2010Prop53
 90
        2
102
RTVSPost2010PropOp53
 70
     1
102
RTVSPost2010Prop54
  1
strokes_ogs.tif
102
RTVSPost2010PropOp54
 70
     1
102
RTVSPost2010Prop55
280
     0
102
RTVSPost2010PropOp55
 70
     1
102
RTVSPost2010Prop56
140
1.0
102
RTVSPost2010PropOp56
 70
     1
102
RTVSPost2010Prop57
140
1.0
102
RTVSPost2010PropOp57
 70
     1
102
RTVSPropertyOp0
 70
     1
102
RTVSPropertyOp1
 70
     1
102
RTVSPropertyOp2
 70
     1
102
RTVSPropertyOp3
 70
     1
102
RTVSPropertyOp4
 70
     1
102
RTVSPropertyOp5
 70
     1
102
RTVSPropertyOp6
 70
     1
102
RTVSPropertyOp7
 70
     1
102
RTVSPropertyOp8
 70
     1
102
RTVSPropertyOp9
 70
     1
102
RTVSPropertyOp10
 70
     1
102
RTVSPropertyOp11
 70
     1
102
RTVSPropertyOp12
 70
     1
102
RTVSPropertyOp13
 70
     1
102
RTVSPropertyOp14
 70
     1
102
RTVSPropertyOp15
 70
     1
102
RTVSPropertyOp16
 70
     1
102
RTVSPropertyOp17
 70
     1
102
RTVSPropertyOp18
 70
     1
102
RTVSPropertyOp19
 70
     1
102
RTVSPropertyOp20
 70
     1
102
RTVSPropertyOp21
 70
     1
102
RTVSPropertyOp22
 70
     1
102
RTVSPropertyOp23
 70
     1
102
RTVSPropertyOp24
 70
     1
102
RTVSPropertyOp25
 70
     1
102
RTVSPropertyOp26
 70
     1
102
RTVSPropertyOp27
 70
     1
102
RTVSPropertyOp28
 70
     1
102
RTVSPropertyOp29
 70
     1
102
RTVSPropertyOp30
 70
     1
102
RTVSPropertyOp31
 70
     1
102
RTVSPropertyOp32
 70
     1
102
RTVSPropertyOp33
 70
     1
102
RTVSPropertyOp34
 70
     1
102
RTVSPropertyOp35
 70
     1
102
RTVSPropertyOp36
 70
     1
102
RTVSPropertyOp37
 70
     1
102
RTVSPropertyOp38
 70
     1
102
RTVSPropertyOp39
 70
     1
102
RTVSPropertyOp40
 70
     1
102
RTVSPropertyOp41
 70
     1
102
RTVSPropertyOp42
 70
     1
102
RTVSPropertyOp43
 70
     1
102
RTVSPropertyOp44
 70
     1
102
RTVSPropertyOp45
 70
     1
102
RTVSPropertyOp46
 70
     1
102
RTVSPropertyOp47
 70
     1
102
RTVSPropertyOp48
 70
     1
102
RTVSPropertyOp49
 70
     1
102
RTVSPropertyOp50
 70
     1
102
RTVSPropertyOp51
 70
     0
102
RTVSPropertyOp52
 70
     0
102
RTVSPropertyOp53
 70
     1
102
RTVSPropertyOp54
 70
     1
102
RTVSPropertyOp55
 70
     1
102
RTVSPropertyOp56
 70
     1
102
RTVSPropertyOp57
 70
     1
102
RTVSPropertyOp58
 70
     1
102
RTVSPropertyOp59
 70
     1
102
RTVSPropertyOp60
 70
     1
102
RTVSPropertyOp61
 70
     1
102
RTVSPropertyOp62
 70
     1
  0
XRECORD
  5
6F39
102
{ACAD_REACTORS
330
6F38
102
}
330
6F38
100
AcDbXrecord
280
     1
102
RTVSPost2010Prop28
280
     0
102
RTVSPost2010PropOp28
 70
     1
102
RTVSPost2010Prop29
280
     1
102
RTVSPost2010PropOp29
 70
     1
102
RTVSPost2010Prop30
280
     1
102
RTVSPost2010PropOp30
 70
     1
102
RTVSPost2010Prop31
280
     0
102
RTVSPost2010PropOp31
 70
     1
102
RTVSPost2010Prop32
280
     0
102
RTVSPost2010PropOp32
 70
     1
102
RTVSPost2010Prop33
280
     0
102
RTVSPost2010PropOp33
 70
     1
102
RTVSPost2010Prop34
280
     0
102
RTVSPost2010PropOp34
 70
     1
102
RTVSPost2010Prop35
280
     0
102
RTVSPost2010PropOp35
 70
     1
102
RTVSPost2010Prop36
280
     0
102
RTVSPost2010PropOp36
 70
     1
102
RTVSPost2010Prop37
 90
       50
102
RTVSPost2010PropOp37
 70
     1
102
RTVSPost2010Prop38
140
0.0
102
RTVSPost2010PropOp38
 70
     1
102
RTVSPost2010Prop39
140
1.0
102
RTVSPost2010PropOp39
 70
     1
102
RTVSPost2010Prop40
 90
        0
102
RTVSPost2010PropOp40
 70
     1
102
RTVSPost2010Prop41ColorIndex
 90
       18
102
RTVSPost2010Prop41ColorRGB
 90
        0
102
RTVSPost2010PropOp41
 70
     1
102
RTVSPost2010Prop42
 90
       50
102
RTVSPost2010PropOp42
 70
     1
102
RTVSPost2010Prop43
 90
        3
102
RTVSPost2010PropOp43
 70
     1
102
RTVSPost2010Prop44ColorIndex
 90
        5
102
RTVSPost2010Prop44ColorRGB
 90
      255
102
RTVSPost2010PropOp44
 70
     1
102
RTVSPost2010Prop45
280
     0
102
RTVSPost2010PropOp45
 70
     1
102
RTVSPost2010Prop46
 90
       50
102
RTVSPost2010PropOp46
 70
     1
102
RTVSPost2010Prop47
 90
       50
102
RTVSPost2010PropOp47
 70
     1
102
RTVSPost2010Prop48
 90
       50
102
RTVSPost2010PropOp48
 70
     1
102
RTVSPost2010Prop49
280
     0
102
RTVSPost2010PropOp49
 70
     1
102
RTVSPost2010Prop50
 90
       50
102
RTVSPost2010PropOp50
 70
     1
102
RTVSPost2010Prop51ColorIndex
 90
      256
102
RTVSPost2010Prop51ColorRGB
 90
-16777216
102
RTVSPost2010PropOp51
 70
     0
102
RTVSPost2010Prop52
140
1.0
102
RTVSPost2010PropOp52
 70
     0
102
RTVSPost2010Prop53
 90
        2
102
RTVSPost2010PropOp53
 70
     1
102
RTVSPost2010Prop54
  1
strokes_ogs.tif
102
RTVSPost2010PropOp54
 70
     1
102
RTVSPost2010Prop55
280
     0
102
RTVSPost2010PropOp55
 70
     1
102
RTVSPost2010Prop56
140
1.0
102
RTVSPost2010PropOp56
 70
     1
102
RTVSPost2010Prop57
140
1.0
102
RTVSPost2010PropOp57
 70
     1
102
RTVSPropertyOp0
 70
     1
102
RTVSPropertyOp1
 70
     1
102
RTVSPropertyOp2
 70
     1
102
RTVSPropertyOp3
 70
     1
102
RTVSPropertyOp4
 70
     1
102
RTVSPropertyOp5
 70
     1
102
RTVSPropertyOp6
 70
     1
102
RTVSPropertyOp7
 70
     1
102
RTVSPropertyOp8
 70
     1
102
RTVSPropertyOp9
 70
     1
102
RTVSPropertyOp10
 70
     1
102
RTVSPropertyOp11
 70
     1
102
RTVSPropertyOp12
 70
     1
102
RTVSPropertyOp13
 70
     1
102
RTVSPropertyOp14
 70
     1
102
RTVSPropertyOp15
 70
     1
102
RTVSPropertyOp16
 70
     1
102
RTVSPropertyOp17
 70
     1
102
RTVSPropertyOp18
 70
     1
102
RTVSPropertyOp19
 70
     1
102
RTVSPropertyOp20
 70
     1
102
RTVSPropertyOp21
 70
     1
102
RTVSPropertyOp22
 70
     1
102
RTVSPropertyOp23
 70
     1
102
RTVSPropertyOp24
 70
     1
102
RTVSPropertyOp25
 70
     1
102
RTVSPropertyOp26
 70
     1
102
RTVSPropertyOp27
 70
     1
102
RTVSPropertyOp28
 70
     1
102
RTVSPropertyOp29
 70
     1
102
RTVSPropertyOp30
 70
     1
102
RTVSPropertyOp31
 70
     1
102
RTVSPropertyOp32
 70
     1
102
RTVSPropertyOp33
 70
     1
102
RTVSPropertyOp34
 70
     1
102
RTVSPropertyOp35
 70
     1
102
RTVSPropertyOp36
 70
     1
102
RTVSPropertyOp37
 70
     1
102
RTVSPropertyOp38
 70
     1
102
RTVSPropertyOp39
 70
     1
102
RTVSPropertyOp40
 70
     1
102
RTVSPropertyOp41
 70
     1
102
RTVSPropertyOp42
 70
     1
102
RTVSPropertyOp43
 70
     1
102
RTVSPropertyOp44
 70
     1
102
RTVSPropertyOp45
 70
     1
102
RTVSPropertyOp46
 70
     1
102
RTVSPropertyOp47
 70
     1
102
RTVSPropertyOp48
 70
     1
102
RTVSPropertyOp49
 70
     1
102
RTVSPropertyOp50
 70
     1
102
RTVSPropertyOp51
 70
     0
102
RTVSPropertyOp52
 70
     0
102
RTVSPropertyOp53
 70
     1
102
RTVSPropertyOp54
 70
     1
102
RTVSPropertyOp55
 70
     1
102
RTVSPropertyOp56
 70
     1
102
RTVSPropertyOp57
 70
     1
102
RTVSPropertyOp58
 70
     1
102
RTVSPropertyOp59
 70
     1
102
RTVSPropertyOp60
 70
     1
102
RTVSPropertyOp61
 70
     1
102
RTVSPropertyOp62
 70
     1
  0
XRECORD
  5
6F2D
102
{ACAD_REACTORS
330
6F2C
102
}
330
6F2C
100
AcDbXrecord
280
     1
102
RTVSPost2010Prop28
280
     0
102
RTVSPost2010PropOp28
 70
     1
102
RTVSPost2010Prop29
280
     1
102
RTVSPost2010PropOp29
 70
     1
102
RTVSPost2010Prop30
280
     1
102
RTVSPost2010PropOp30
 70
     1
102
RTVSPost2010Prop31
280
     0
102
RTVSPost2010PropOp31
 70
     1
102
RTVSPost2010Prop32
280
     0
102
RTVSPost2010PropOp32
 70
     1
102
RTVSPost2010Prop33
280
     0
102
RTVSPost2010PropOp33
 70
     1
102
RTVSPost2010Prop34
280
     0
102
RTVSPost2010PropOp34
 70
     1
102
RTVSPost2010Prop35
280
     0
102
RTVSPost2010PropOp35
 70
     1
102
RTVSPost2010Prop36
280
     0
102
RTVSPost2010PropOp36
 70
     1
102
RTVSPost2010Prop37
 90
       50
102
RTVSPost2010PropOp37
 70
     1
102
RTVSPost2010Prop38
140
0.0
102
RTVSPost2010PropOp38
 70
     1
102
RTVSPost2010Prop39
140
1.0
102
RTVSPost2010PropOp39
 70
     1
102
RTVSPost2010Prop40
 90
        0
102
RTVSPost2010PropOp40
 70
     1
102
RTVSPost2010Prop41ColorIndex
 90
       18
102
RTVSPost2010Prop41ColorRGB
 90
        0
102
RTVSPost2010PropOp41
 70
     1
102
RTVSPost2010Prop42
 90
       50
102
RTVSPost2010PropOp42
 70
     1
102
RTVSPost2010Prop43
 90
        3
102
RTVSPost2010PropOp43
 70
     1
102
RTVSPost2010Prop44ColorIndex
 90
        5
102
RTVSPost2010Prop44ColorRGB
 90
      255
102
RTVSPost2010PropOp44
 70
     1
102
RTVSPost2010Prop45
280
     0
102
RTVSPost2010PropOp45
 70
     1
102
RTVSPost2010Prop46
 90
       50
102
RTVSPost2010PropOp46
 70
     1
102
RTVSPost2010Prop47
 90
       50
102
RTVSPost2010PropOp47
 70
     1
102
RTVSPost2010Prop48
 90
       50
102
RTVSPost2010PropOp48
 70
     1
102
RTVSPost2010Prop49
280
     0
102
RTVSPost2010PropOp49
 70
     1
102
RTVSPost2010Prop50
 90
       50
102
RTVSPost2010PropOp50
 70
     1
102
RTVSPost2010Prop51ColorIndex
 90
      256
102
RTVSPost2010Prop51ColorRGB
 90
-16777216
102
RTVSPost2010PropOp51
 70
     0
102
RTVSPost2010Prop52
140
1.0
102
RTVSPost2010PropOp52
 70
     0
102
RTVSPost2010Prop53
 90
        2
102
RTVSPost2010PropOp53
 70
     1
102
RTVSPost2010Prop54
  1
strokes_ogs.tif
102
RTVSPost2010PropOp54
 70
     1
102
RTVSPost2010Prop55
280
     0
102
RTVSPost2010PropOp55
 70
     1
102
RTVSPost2010Prop56
140
1.0
102
RTVSPost2010PropOp56
 70
     1
102
RTVSPost2010Prop57
140
1.0
102
RTVSPost2010PropOp57
 70
     1
102
RTVSPropertyOp0
 70
     1
102
RTVSPropertyOp1
 70
     1
102
RTVSPropertyOp2
 70
     1
102
RTVSPropertyOp3
 70
     1
102
RTVSPropertyOp4
 70
     1
102
RTVSPropertyOp5
 70
     1
102
RTVSPropertyOp6
 70
     1
102
RTVSPropertyOp7
 70
     1
102
RTVSPropertyOp8
 70
     1
102
RTVSPropertyOp9
 70
     1
102
RTVSPropertyOp10
 70
     1
102
RTVSPropertyOp11
 70
     1
102
RTVSPropertyOp12
 70
     1
102
RTVSPropertyOp13
 70
     1
102
RTVSPropertyOp14
 70
     1
102
RTVSPropertyOp15
 70
     1
102
RTVSPropertyOp16
 70
     1
102
RTVSPropertyOp17
 70
     1
102
RTVSPropertyOp18
 70
     1
102
RTVSPropertyOp19
 70
     1
102
RTVSPropertyOp20
 70
     1
102
RTVSPropertyOp21
 70
     1
102
RTVSPropertyOp22
 70
     1
102
RTVSPropertyOp23
 70
     1
102
RTVSPropertyOp24
 70
     1
102
RTVSPropertyOp25
 70
     1
102
RTVSPropertyOp26
 70
     1
102
RTVSPropertyOp27
 70
     1
102
RTVSPropertyOp28
 70
     1
102
RTVSPropertyOp29
 70
     1
102
RTVSPropertyOp30
 70
     1
102
RTVSPropertyOp31
 70
     1
102
RTVSPropertyOp32
 70
     1
102
RTVSPropertyOp33
 70
     1
102
RTVSPropertyOp34
 70
     1
102
RTVSPropertyOp35
 70
     1
102
RTVSPropertyOp36
 70
     1
102
RTVSPropertyOp37
 70
     1
102
RTVSPropertyOp38
 70
     1
102
RTVSPropertyOp39
 70
     1
102
RTVSPropertyOp40
 70
     1
102
RTVSPropertyOp41
 70
     1
102
RTVSPropertyOp42
 70
     1
102
RTVSPropertyOp43
 70
     1
102
RTVSPropertyOp44
 70
     1
102
RTVSPropertyOp45
 70
     1
102
RTVSPropertyOp46
 70
     1
102
RTVSPropertyOp47
 70
     1
102
RTVSPropertyOp48
 70
     1
102
RTVSPropertyOp49
 70
     1
102
RTVSPropertyOp50
 70
     1
102
RTVSPropertyOp51
 70
     0
102
RTVSPropertyOp52
 70
     0
102
RTVSPropertyOp53
 70
     1
102
RTVSPropertyOp54
 70
     1
102
RTVSPropertyOp55
 70
     1
102
RTVSPropertyOp56
 70
     1
102
RTVSPropertyOp57
 70
     1
102
RTVSPropertyOp58
 70
     1
102
RTVSPropertyOp59
 70
     1
102
RTVSPropertyOp60
 70
     1
102
RTVSPropertyOp61
 70
     1
102
RTVSPropertyOp62
 70
     1
  0
XRECORD
  5
6F45
102
{ACAD_REACTORS
330
6F44
102
}
330
6F44
100
AcDbXrecord
280
     1
102
RTVSPost2010Prop28
280
     0
102
RTVSPost2010PropOp28
 70
     1
102
RTVSPost2010Prop29
280
     1
102
RTVSPost2010PropOp29
 70
     1
102
RTVSPost2010Prop30
280
     1
102
RTVSPost2010PropOp30
 70
     1
102
RTVSPost2010Prop31
280
     0
102
RTVSPost2010PropOp31
 70
     1
102
RTVSPost2010Prop32
280
     0
102
RTVSPost2010PropOp32
 70
     1
102
RTVSPost2010Prop33
280
     0
102
RTVSPost2010PropOp33
 70
     1
102
RTVSPost2010Prop34
280
     0
102
RTVSPost2010PropOp34
 70
     1
102
RTVSPost2010Prop35
280
     0
102
RTVSPost2010PropOp35
 70
     1
102
RTVSPost2010Prop36
280
     0
102
RTVSPost2010PropOp36
 70
     1
102
RTVSPost2010Prop37
 90
       50
102
RTVSPost2010PropOp37
 70
     1
102
RTVSPost2010Prop38
140
0.0
102
RTVSPost2010PropOp38
 70
     1
102
RTVSPost2010Prop39
140
1.0
102
RTVSPost2010PropOp39
 70
     1
102
RTVSPost2010Prop40
 90
        0
102
RTVSPost2010PropOp40
 70
     1
102
RTVSPost2010Prop41ColorIndex
 90
       18
102
RTVSPost2010Prop41ColorRGB
 90
        0
102
RTVSPost2010PropOp41
 70
     1
102
RTVSPost2010Prop42
 90
       50
102
RTVSPost2010PropOp42
 70
     1
102
RTVSPost2010Prop43
 90
        3
102
RTVSPost2010PropOp43
 70
     1
102
RTVSPost2010Prop44ColorIndex
 90
        5
102
RTVSPost2010Prop44ColorRGB
 90
      255
102
RTVSPost2010PropOp44
 70
     1
102
RTVSPost2010Prop45
280
     0
102
RTVSPost2010PropOp45
 70
     1
102
RTVSPost2010Prop46
 90
       50
102
RTVSPost2010PropOp46
 70
     1
102
RTVSPost2010Prop47
 90
       50
102
RTVSPost2010PropOp47
 70
     1
102
RTVSPost2010Prop48
 90
       50
102
RTVSPost2010PropOp48
 70
     1
102
RTVSPost2010Prop49
280
     0
102
RTVSPost2010PropOp49
 70
     1
102
RTVSPost2010Prop50
 90
       50
102
RTVSPost2010PropOp50
 70
     1
102
RTVSPost2010Prop51ColorIndex
 90
      256
102
RTVSPost2010Prop51ColorRGB
 90
-16777216
102
RTVSPost2010PropOp51
 70
     0
102
RTVSPost2010Prop52
140
1.0
102
RTVSPost2010PropOp52
 70
     0
102
RTVSPost2010Prop53
 90
        2
102
RTVSPost2010PropOp53
 70
     1
102
RTVSPost2010Prop54
  1
strokes_ogs.tif
102
RTVSPost2010PropOp54
 70
     1
102
RTVSPost2010Prop55
280
     0
102
RTVSPost2010PropOp55
 70
     1
102
RTVSPost2010Prop56
140
1.0
102
RTVSPost2010PropOp56
 70
     1
102
RTVSPost2010Prop57
140
1.0
102
RTVSPost2010PropOp57
 70
     1
102
RTVSPropertyOp0
 70
     1
102
RTVSPropertyOp1
 70
     1
102
RTVSPropertyOp2
 70
     1
102
RTVSPropertyOp3
 70
     1
102
RTVSPropertyOp4
 70
     1
102
RTVSPropertyOp5
 70
     1
102
RTVSPropertyOp6
 70
     1
102
RTVSPropertyOp7
 70
     1
102
RTVSPropertyOp8
 70
     1
102
RTVSPropertyOp9
 70
     1
102
RTVSPropertyOp10
 70
     1
102
RTVSPropertyOp11
 70
     1
102
RTVSPropertyOp12
 70
     1
102
RTVSPropertyOp13
 70
     1
102
RTVSPropertyOp14
 70
     1
102
RTVSPropertyOp15
 70
     1
102
RTVSPropertyOp16
 70
     1
102
RTVSPropertyOp17
 70
     1
102
RTVSPropertyOp18
 70
     1
102
RTVSPropertyOp19
 70
     1
102
RTVSPropertyOp20
 70
     1
102
RTVSPropertyOp21
 70
     1
102
RTVSPropertyOp22
 70
     1
102
RTVSPropertyOp23
 70
     1
102
RTVSPropertyOp24
 70
     1
102
RTVSPropertyOp25
 70
     1
102
RTVSPropertyOp26
 70
     1
102
RTVSPropertyOp27
 70
     1
102
RTVSPropertyOp28
 70
     1
102
RTVSPropertyOp29
 70
     1
102
RTVSPropertyOp30
 70
     1
102
RTVSPropertyOp31
 70
     1
102
RTVSPropertyOp32
 70
     1
102
RTVSPropertyOp33
 70
     1
102
RTVSPropertyOp34
 70
     1
102
RTVSPropertyOp35
 70
     1
102
RTVSPropertyOp36
 70
     1
102
RTVSPropertyOp37
 70
     1
102
RTVSPropertyOp38
 70
     1
102
RTVSPropertyOp39
 70
     1
102
RTVSPropertyOp40
 70
     1
102
RTVSPropertyOp41
 70
     1
102
RTVSPropertyOp42
 70
     1
102
RTVSPropertyOp43
 70
     1
102
RTVSPropertyOp44
 70
     1
102
RTVSPropertyOp45
 70
     1
102
RTVSPropertyOp46
 70
     1
102
RTVSPropertyOp47
 70
     1
102
RTVSPropertyOp48
 70
     1
102
RTVSPropertyOp49
 70
     1
102
RTVSPropertyOp50
 70
     1
102
RTVSPropertyOp51
 70
     0
102
RTVSPropertyOp52
 70
     0
102
RTVSPropertyOp53
 70
     1
102
RTVSPropertyOp54
 70
     1
102
RTVSPropertyOp55
 70
     1
102
RTVSPropertyOp56
 70
     1
102
RTVSPropertyOp57
 70
     1
102
RTVSPropertyOp58
 70
     1
102
RTVSPropertyOp59
 70
     1
102
RTVSPropertyOp60
 70
     1
102
RTVSPropertyOp61
 70
     1
102
RTVSPropertyOp62
 70
     1
  0
ENDSEC
  0
EOF
