  0
SECTION
  2
HEADER
  9
$ACADVER
  1
AC1015
  9
$ACADMAINTVER
 70
    20
  9
$DWGCODEPAGE
  3
ANSI_932
  9
$INSBASE
 10
0.0
 20
0.0
 30
0.0
  9
$EXTMIN
 10
-179.051009908669
 20
-672.5958749999992
 30
0.0
  9
$EXTMAX
 10
514.9944274515278
 20
437.5072763109679
 30
0.0
  9
$LIMMIN
 10
-363.4571171232868
 20
-687.0539829989434
  9
$LIMMAX
 10
605.2191662393842
 20
469.8066136265626
  9
$ORTHOMODE
 70
     0
  9
$REGENMODE
 70
     1
  9
$FILLMODE
 70
     1
  9
$QTEXTMODE
 70
     0
  9
$MIRRTEXT
 70
     1
  9
$LTSCALE
 40
10.0
  9
$ATTMODE
 70
     1
  9
$TEXTSIZE
 40
5.0
  9
$TRACEWID
 40
0.05
  9
$TEXTSTYLE
  7
STANDARD1
  9
$CLAYER
  8
30
  9
$CELTYPE
  6
CONTINUOUS
  9
$CECOLOR
 62
   256
  9
$CELTSCALE
 40
1.0
  9
$DISPSILH
 70
     0
  9
$DIMSCALE
 40
1.0
  9
$DIMASZ
 40
2.0
  9
$DIMEXO
 40
3.0
  9
$DIMDLI
 40
0.5
  9
$DIMRND
 40
0.0
  9
$DIMDLE
 40
0.0
  9
$DIMEXE
 40
0.5
  9
$DIMTP
 40
0.0
  9
$DIMTM
 40
0.0
  9
$DIMTXT
 40
6.0
  9
$DIMCEN
 40
0.09
  9
$DIMTSZ
 40
0.0
  9
$DIMTOL
 70
     0
  9
$DIMLIM
 70
     0
  9
$DIMTIH
 70
     0
  9
$DIMTOH
 70
     1
  9
$DIMSE1
 70
     0
  9
$DIMSE2
 70
     0
  9
$DIMTAD
 70
     3
  9
$DIMZIN
 70
    12
  9
$DIMBLK
  1
OPEN
  9
$DIMASO
 70
     1
  9
$DIMSHO
 70
     1
  9
$DIMPOST
  1

  9
$DIMAPOST
  1

  9
$DIMALT
 70
     0
  9
$DIMALTD
 70
     2
  9
$DIMALTF
 40
25.4
  9
$DIMLFAC
 40
1.0
  9
$DIMTOFL
 70
     0
  9
$DIMTVP
 40
0.0
  9
$DIMTIX
 70
     0
  9
$DIMSOXD
 70
     0
  9
$DIMSAH
 70
     0
  9
$DIMBLK1
  1

  9
$DIMBLK2
  1

  9
$DIMSTYLE
  2
STANDARD1
  9
$DIMCLRD
 70
     0
  9
$DIMCLRE
 70
     0
  9
$DIMCLRT
 70
     0
  9
$DIMTFAC
 40
1.0
  9
$DIMGAP
 40
3.0
  9
$DIMJUST
 70
     0
  9
$DIMSD1
 70
     0
  9
$DIMSD2
 70
     0
  9
$DIMTOLJ
 70
     1
  9
$DIMTZIN
 70
     0
  9
$DIMALTZ
 70
     0
  9
$DIMALTTZ
 70
     0
  9
$DIMUPT
 70
     0
  9
$DIMDEC
 70
     1
  9
$DIMTDEC
 70
     1
  9
$DIMALTU
 70
     2
  9
$DIMALTTD
 70
     2
  9
$DIMTXSTY
  7
STANDARD
  9
$DIMAUNIT
 70
     0
  9
$DIMADEC
 70
     0
  9
$DIMALTRND
 40
0.0
  9
$DIMAZIN
 70
     0
  9
$DIMDSEP
 70
    46
  9
$DIMATFIT
 70
     2
  9
$DIMFRAC
 70
     0
  9
$DIMLDRBLK
  1
OPEN
  9
$DIMLUNIT
 70
     2
  9
$DIMLWD
 70
    -2
  9
$DIMLWE
 70
    -2
  9
$DIMTMOVE
 70
     0
  9
$LUNITS
 70
     2
  9
$LUPREC
 70
     4
  9
$SKETCHINC
 40
0.1
  9
$FILLETRAD
 40
0.0
  9
$AUNITS
 70
     0
  9
$AUPREC
 70
     0
  9
$MENU
  1
.
  9
$ELEVATION
 40
0.0
  9
$PELEVATION
 40
0.0
  9
$THICKNESS
 40
0.0
  9
$LIMCHECK
 70
     0
  9
$CHAMFERA
 40
0.0
  9
$CHAMFERB
 40
0.0
  9
$CHAMFERC
 40
0.0
  9
$CHAMFERD
 40
0.0
  9
$SKPOLY
 70
     0
  9
$TDCREATE
 40
2452286.555658658
  9
$TDUCREATE
 40
2452286.180658658
  9
$TDUPDATE
 40
2456926.653942709
  9
$TDUUPDATE
 40
2456926.278942709
  9
$TDINDWG
 40
1.8027441782
  9
$TDUSRTIMER
 40
1.8027410532
  9
$USRTIMER
 70
     1
  9
$ANGBASE
 50
0.0
  9
$ANGDIR
 70
     0
  9
$PDMODE
 70
     0
  9
$PDSIZE
 40
0.0
  9
$PLINEWID
 40
0.0
  9
$SPLFRAME
 70
     0
  9
$SPLINETYPE
 70
     6
  9
$SPLINESEGS
 70
     8
  9
$HANDSEED
  5
E081
  9
$SURFTAB1
 70
     6
  9
$SURFTAB2
 70
     6
  9
$SURFTYPE
 70
     6
  9
$SURFU
 70
     6
  9
$SURFV
 70
     6
  9
$UCSBASE
  2

  9
$UCSNAME
  2

  9
$UCSORG
 10
0.0
 20
0.0
 30
0.0
  9
$UCSXDIR
 10
1.0
 20
0.0
 30
0.0
  9
$UCSYDIR
 10
0.0
 20
1.0
 30
0.0
  9
$UCSORTHOREF
  2

  9
$UCSORTHOVIEW
 70
     0
  9
$UCSORGTOP
 10
0.0
 20
0.0
 30
0.0
  9
$UCSORGBOTTOM
 10
0.0
 20
0.0
 30
0.0
  9
$UCSORGLEFT
 10
0.0
 20
0.0
 30
0.0
  9
$UCSORGRIGHT
 10
0.0
 20
0.0
 30
0.0
  9
$UCSORGFRONT
 10
0.0
 20
0.0
 30
0.0
  9
$UCSORGBACK
 10
0.0
 20
0.0
 30
0.0
  9
$PUCSBASE
  2

  9
$PUCSNAME
  2

  9
$PUCSORG
 10
0.0
 20
0.0
 30
0.0
  9
$PUCSXDIR
 10
1.0
 20
0.0
 30
0.0
  9
$PUCSYDIR
 10
0.0
 20
1.0
 30
0.0
  9
$PUCSORTHOREF
  2

  9
$PUCSORTHOVIEW
 70
     0
  9
$PUCSORGTOP
 10
0.0
 20
0.0
 30
0.0
  9
$PUCSORGBOTTOM
 10
0.0
 20
0.0
 30
0.0
  9
$PUCSORGLEFT
 10
0.0
 20
0.0
 30
0.0
  9
$PUCSORGRIGHT
 10
0.0
 20
0.0
 30
0.0
  9
$PUCSORGFRONT
 10
0.0
 20
0.0
 30
0.0
  9
$PUCSORGBACK
 10
0.0
 20
0.0
 30
0.0
  9
$USERI1
 70
     0
  9
$USERI2
 70
     0
  9
$USERI3
 70
     0
  9
$USERI4
 70
     0
  9
$USERI5
 70
     0
  9
$USERR1
 40
0.0
  9
$USERR2
 40
0.0
  9
$USERR3
 40
0.0
  9
$USERR4
 40
0.0
  9
$USERR5
 40
0.0
  9
$WORLDVIEW
 70
     1
  9
$SHADEDGE
 70
     3
  9
$SHADEDIF
 70
    70
  9
$TILEMODE
 70
     1
  9
$MAXACTVP
 70
    48
  9
$PINSBASE
 10
0.0
 20
0.0
 30
0.0
  9
$PLIMCHECK
 70
     0
  9
$PEXTMIN
 10
4.273573
 20
5.205245999999998
 30
0.0
  9
$PEXTMAX
 10
194.610095
 20
283.0697009999996
 30
0.0
  9
$PLIMMIN
 10
-5.873749
 20
-5.87375
  9
$PLIMMAX
 10
204.099579
 20
291.1369009999999
  9
$UNITMODE
 70
     0
  9
$VISRETAIN
 70
     1
  9
$PLINEGEN
 70
     0
  9
$PSLTSCALE
 70
     1
  9
$TREEDEPTH
 70
  3020
  9
$CMLSTYLE
  2
STANDARD
  9
$CMLJUST
 70
     0
  9
$CMLSCALE
 40
1.0
  9
$PROXYGRAPHICS
 70
     1
  9
$MEASUREMENT
 70
     0
  9
$CELWEIGHT
370
    -1
  9
$ENDCAPS
280
     0
  9
$JOINSTYLE
280
     0
  9
$LWDISPLAY
290
     0
  9
$INSUNITS
 70
     0
  9
$HYPERLINKBASE
  1

  9
$STYLESHEET
  1
MONOCHROME.CTB
  9
$XEDIT
290
     1
  9
$CEPSNTYPE
380
     0
  9
$PSTYLEMODE
290
     1
  9
$FINGERPRINTGUID
  2

  9
$VERSIONGUID
  2
{5FD49F79-A10E-42F5-ABC7-4E93B7FD32CB}
  9
$EXTNAMES
290
     1
  9
$PSVPSCALE
 40
0.0
  9
$OLESTARTUP
290
     0
  0
ENDSEC
  0
SECTION
  2
CLASSES
  0
CLASS
  1
ACDBDICTIONARYWDFLT
  2
AcDbDictionaryWithDefault
  3
ObjectDBX Classes
 90
        0
280
     0
281
     0
  0
CLASS
  1
ACDBPLACEHOLDER
  2
AcDbPlaceHolder
  3
ObjectDBX Classes
 90
        0
280
     0
281
     0
  0
CLASS
  1
LAYOUT
  2
AcDbLayout
  3
ObjectDBX Classes
 90
        0
280
     0
281
     0
  0
CLASS
  1
DICTIONARYVAR
  2
AcDbDictionaryVar
  3
ObjectDBX Classes
 90
        0
280
     0
281
     0
  0
CLASS
  1
MATERIAL
  2
AcDbMaterial
  3
ObjectDBX Classes
 90
     1153
280
     0
281
     0
  0
CLASS
  1
VISUALSTYLE
  2
AcDbVisualStyle
  3
ObjectDBX Classes
 90
     4095
280
     0
281
     0
  0
CLASS
  1
TABLESTYLE
  2
AcDbTableStyle
  3
ObjectDBX Classes
 90
     4095
280
     0
281
     0
  0
CLASS
  1
SCALE
  2
AcDbScale
  3
ObjectDBX Classes
 90
     1153
280
     0
281
     0
  0
CLASS
  1
MLEADERSTYLE
  2
AcDbMLeaderStyle
  3
ACDB_MLEADERSTYLE_CLASS
 90
     4095
280
     0
281
     0
  0
CLASS
  1
ACDBSECTIONVIEWSTYLE
  2
AcDbSectionViewStyle
  3
ObjectDBX Classes
 90
     1025
280
     0
281
     0
  0
CLASS
  1
ACDBDETAILVIEWSTYLE
  2
AcDbDetailViewStyle
  3
ObjectDBX Classes
 90
     1025
280
     0
281
     0
  0
CLASS
  1
SORTENTSTABLE
  2
AcDbSortentsTable
  3
ObjectDBX Classes
 90
        0
280
     0
281
     0
  0
CLASS
  1
CELLSTYLEMAP
  2
AcDbCellStyleMap
  3
ObjectDBX Classes
 90
     1152
280
     0
281
     0
  0
ENDSEC
  0
SECTION
  2
TABLES
  0
TABLE
  2
VPORT
  5
8
330
0
100
AcDbSymbolTable
 70
     1
  0
VPORT
  5
DC70
330
8
100
AcDbSymbolTableRecord
100
AcDbViewportTableRecord
  2
*Active
 70
     0
 10
0.0
 20
0.0
 11
1.0
 21
1.0
 12
149.5288806515064
 22
-196.5163679010247
 13
0.0
 23
0.0
 14
1.0
 24
1.0
 15
10.0
 25
10.0
 16
0.0
 26
0.0
 36
1.0
 17
0.0
 27
0.0
 37
0.0
 40
284.4939490873403
 41
2.419786096256684
 42
50.0
 43
0.0
 44
0.0
 50
0.0
 51
0.0
 71
     0
 72
   100
 73
     1
 74
     1
 75
     0
 76
     0
 77
     0
 78
     0
281
     0
 65
     1
110
0.0
120
0.0
130
0.0
111
1.0
121
0.0
131
0.0
112
0.0
122
1.0
132
0.0
 79
     0
146
0.0
1001
ACAD_NAV_VCDISPLAY
1070
     3
  0
ENDTAB
  0
TABLE
  2
LTYPE
  5
5
330
0
100
AcDbSymbolTable
 70
     5
  0
LTYPE
  5
13
330
5
100
AcDbSymbolTableRecord
100
AcDbLinetypeTableRecord
  2
BYBLOCK
 70
     0
  3

 72
    65
 73
     0
 40
0.0
  0
LTYPE
  5
14
330
5
100
AcDbSymbolTableRecord
100
AcDbLinetypeTableRecord
  2
BYLAYER
 70
     0
  3

 72
    65
 73
     0
 40
0.0
  0
LTYPE
  5
15
330
5
100
AcDbSymbolTableRecord
100
AcDbLinetypeTableRecord
  2
CONTINUOUS
 70
     0
  3
Solid line
 72
    65
 73
     0
 40
0.0
  0
LTYPE
  5
22
330
5
100
AcDbSymbolTableRecord
100
AcDbLinetypeTableRecord
  2
CONTINOUS
 70
     0
  3
Solid line
 72
    65
 73
     0
 40
0.0
  0
LTYPE
  5
23
330
5
100
AcDbSymbolTableRecord
100
AcDbLinetypeTableRecord
  2
DASHED
 70
     0
  3
__ __ __ __ __ __ __ __ __ __ __ __ __ __ __
 72
    65
 73
     2
 40
0.75
 49
0.5
 74
     0
 49
-0.25
 74
     0
  0
LTYPE
  5
24
330
5
100
AcDbSymbolTableRecord
100
AcDbLinetypeTableRecord
  2
DASHDOT
 70
     0
  3
__ . __ . __ . __ . __ . __ . __ . __ . __ . __
 72
    65
 73
     4
 40
1.0
 49
0.5
 74
     0
 49
-0.25
 74
     0
 49
0.0
 74
     0
 49
-0.25
 74
     0
  0
LTYPE
  5
4C47
330
5
100
AcDbSymbolTableRecord
100
AcDbLinetypeTableRecord
  2
DIVIDE
 70
     0
  3
Divide ____ . . ____ . . ____ . . ____ . . ____
 72
    65
 73
     6
 40
1.25
 49
0.5
 74
     0
 49
-0.25
 74
     0
 49
0.0
 74
     0
 49
-0.25
 74
     0
 49
0.0
 74
     0
 49
-0.25
 74
     0
  0
ENDTAB
  0
TABLE
  2
LAYER
  5
2
330
0
100
AcDbSymbolTable
 70
    12
  0
LAYER
  5
10
102
{ACAD_XDICTIONARY
360
DFCE
102
}
330
2
100
AcDbSymbolTableRecord
100
AcDbLayerTableRecord
  2
0
 70
     0
 62
     7
  6
CONTINOUS
370
    -3
390
F
  0
LAYER
  5
2F
102
{ACAD_XDICTIONARY
360
DFD0
102
}
330
2
100
AcDbSymbolTableRecord
100
AcDbLayerTableRecord
  2
10
 70
     0
 62
     4
  6
CONTINOUS
370
    -3
390
F
  0
LAYER
  5
31
102
{ACAD_XDICTIONARY
360
DFD2
102
}
330
2
100
AcDbSymbolTableRecord
100
AcDbLayerTableRecord
  2
12
 70
     0
 62
     3
  6
CONTINOUS
370
    -3
390
F
  0
LAYER
  5
35
102
{ACAD_XDICTIONARY
360
DFD4
102
}
330
2
100
AcDbSymbolTableRecord
100
AcDbLayerTableRecord
  2
16
 70
     0
 62
     6
  6
DASHDOT
370
    -3
390
F
  0
LAYER
  5
38
102
{ACAD_XDICTIONARY
360
DFD6
102
}
330
2
100
AcDbSymbolTableRecord
100
AcDbLayerTableRecord
  2
19
 70
     0
 62
     7
  6
CONTINOUS
370
    -3
390
F
  0
LAYER
  5
3D
102
{ACAD_XDICTIONARY
360
DFD8
102
}
330
2
100
AcDbSymbolTableRecord
100
AcDbLayerTableRecord
  2
24
 70
     0
 62
     2
  6
CONTINOUS
370
    -3
390
F
  0
LAYER
  5
3A2
102
{ACAD_XDICTIONARY
360
DFDA
102
}
330
2
100
AcDbSymbolTableRecord
100
AcDbLayerTableRecord
  2
30
 70
     0
 62
     9
  6
CONTINUOUS
370
    -3
390
F
  0
LAYER
  5
3A4
330
2
100
AcDbSymbolTableRecord
100
AcDbLayerTableRecord
  2
DEFPOINTS
 70
     0
 62
     7
  6
CONTINUOUS
290
     0
370
    -3
390
F
  0
LAYER
  5
3BBA
102
{ACAD_XDICTIONARY
360
DFDC
102
}
330
2
100
AcDbSymbolTableRecord
100
AcDbLayerTableRecord
  2
18
 70
     0
 62
     5
  6
DIVIDE
370
    -3
390
F
  0
LAYER
  5
67A8
102
{ACAD_XDICTIONARY
360
DFDE
102
}
330
2
100
AcDbSymbolTableRecord
100
AcDbLayerTableRecord
  2
11
 70
     0
 62
     1
  6
CONTINOUS
370
    -3
390
F
  0
LAYER
  5
7BC8
102
{ACAD_XDICTIONARY
360
DFE0
102
}
330
2
100
AcDbSymbolTableRecord
100
AcDbLayerTableRecord
  2
1
 70
     0
 62
     7
  6
CONTINUOUS
370
    -3
390
F
  0
LAYER
  5
C01C
102
{ACAD_XDICTIONARY
360
DFE2
102
}
330
2
100
AcDbSymbolTableRecord
100
AcDbLayerTableRecord
  2
17
 70
     0
 62
     2
  6
CONTINUOUS
370
    -3
390
F
  0
ENDTAB
  0
TABLE
  2
STYLE
  5
3
330
0
100
AcDbSymbolTable
 70
     2
  0
STYLE
  5
11
330
3
100
AcDbSymbolTableRecord
100
AcDbTextStyleTableRecord
  2
STANDARD
 70
     0
 40
0.0
 41
1.0
 50
0.0
 71
     0
 42
2.0
  3
txt.shx
  4
bigfont.shx
  0
STYLE
  5
42
330
3
100
AcDbSymbolTableRecord
100
AcDbTextStyleTableRecord
  2
STANDARD1
 70
     0
 40
0.0
 41
1.0
 50
0.0
 71
     0
 42
5.0
  3
MONOTXT
  4
BIGFONT
  0
ENDTAB
  0
TABLE
  2
VIEW
  5
6
330
0
100
AcDbSymbolTable
 70
     3
  0
VIEW
  5
230C
330
6
100
AcDbSymbolTableRecord
100
AcDbViewTableRecord
  2
OLE1
 70
     0
 40
148.912488
 10
429.497628
 20
2.560627
 41
103.145806
 11
0.0
 21
0.0
 31
1.0
 12
0.0
 22
0.0
 32
0.0
 42
50.0
 43
0.0
 44
0.0
 50
0.0
 71
     0
281
     0
 72
     0
  0
VIEW
  5
230E
330
6
100
AcDbSymbolTableRecord
100
AcDbViewTableRecord
  2
OLE2
 70
     0
 40
170.778692
 10
322.66497
 20
-5.978304
 41
102.467215
 11
0.0
 21
0.0
 31
1.0
 12
0.0
 22
0.0
 32
0.0
 42
50.0
 43
0.0
 44
0.0
 50
0.0
 71
     0
281
     0
 72
     0
  0
VIEW
  5
23AA
330
6
100
AcDbSymbolTableRecord
100
AcDbViewTableRecord
  2
OLE3
 70
     0
 40
591.7897389999998
 10
84.79698199999999
 20
-46.09335999999998
 41
388.792096
 11
0.0
 21
0.0
 31
1.0
 12
0.0
 22
0.0
 32
0.0
 42
50.0
 43
0.0
 44
0.0
 50
0.0
 71
     0
281
     0
 72
     0
  0
ENDTAB
  0
TABLE
  2
UCS
  5
7
330
0
100
AcDbSymbolTable
 70
     0
  0
ENDTAB
  0
TABLE
  2
APPID
  5
9
330
0
100
AcDbSymbolTable
 70
     5
  0
APPID
  5
12
330
9
100
AcDbSymbolTableRecord
100
AcDbRegAppTableRecord
  2
ACAD
 70
     0
  0
APPID
  5
ECD
330
9
100
AcDbSymbolTableRecord
100
AcDbRegAppTableRecord
  2
CONTENTBLOCKICON
 70
     0
  0
APPID
  5
DCE8
330
9
100
AcDbSymbolTableRecord
100
AcDbRegAppTableRecord
  2
ACAD_EXEMPT_FROM_CAD_STANDARDS
 70
     0
  0
APPID
  5
DCF0
330
9
100
AcDbSymbolTableRecord
100
AcDbRegAppTableRecord
  2
ACAD_NAV_VCDISPLAY
 70
     0
  0
APPID
  5
E02E
330
9
100
AcDbSymbolTableRecord
100
AcDbRegAppTableRecord
  2
ACAD_MLEADERVER
 70
     0
  0
ENDTAB
  0
TABLE
  2
DIMSTYLE
  5
A
330
0
100
AcDbSymbolTable
 70
     2
100
AcDbDimStyleTable
 71
     2
340
C13E
340
175
  0
DIMSTYLE
105
175
330
A
100
AcDbSymbolTableRecord
100
AcDbDimStyleTableRecord
  2
STANDARD
 70
     0
 41
2.0
 42
1.0
 43
0.5
 44
0.5
 73
     0
 77
     3
 78
    12
140
4.0
147
1.0
271
     1
272
     1
340
11
341
3B2
342
3B2
  0
DIMSTYLE
105
C13E
102
{ACAD_REACTORS
330
C05D
330
C047
330
C025
330
BB84
330
B862
330
B861
330
B850
330
B84F
330
B84E
330
B84B
330
B3B1
330
B2FF
330
B2FD
330
B2FC
330
B2FB
330
B2F9
330
9F25
330
97CF
330
97BB
330
97B3
330
9784
330
9783
330
9765
330
975C
330
975B
330
975A
330
9759
330
95A3
330
95A1
330
9598
330
9597
330
9581
330
C572
330
C577
330
C57B
330
C57C
330
CE2A
330
C031
330
DEFE
330
DF08
102
}
330
A
100
AcDbSymbolTableRecord
100
AcDbDimStyleTableRecord
  2
STANDARD1
 70
     0
 41
2.0
 42
3.0
 43
0.5
 44
0.5
 73
     0
 77
     3
 78
    12
140
6.0
147
3.0
271
     1
272
     1
289
     2
340
11
341
3B2
342
3B2
  0
ENDTAB
  0
TABLE
  2
BLOCK_RECORD
  5
1
330
0
100
AcDbSymbolTable
 70
    50
  0
BLOCK_RECORD
  5
1E
102
{ACAD_XDICTIONARY
360
178
102
}
330
1
100
AcDbSymbolTableRecord
100
AcDbBlockTableRecord
  2
*MODEL_SPACE
340
904E
  0
BLOCK_RECORD
  5
1A
102
{ACAD_XDICTIONARY
360
17A
102
}
330
1
100
AcDbSymbolTableRecord
100
AcDbBlockTableRecord
  2
*PAPER_SPACE
340
904F
  0
BLOCK_RECORD
  5
3B2
330
1
100
AcDbSymbolTableRecord
100
AcDbBlockTableRecord
  2
_OPEN
340
0
102
{BLKREFS
331
D994
331
D995
331
D99E
331
D99F
331
D9A6
331
D9A7
331
D9C1
331
D9C2
331
D9C9
331
D9D2
331
D9D3
331
D9DC
331
D9DD
331
D9E5
331
D9E6
331
D9ED
331
D9EE
331
D9F6
331
D9F7
331
D979
331
D97A
331
D982
331
D983
331
D900
331
D901
331
DEC0
331
DEC1
331
DECC
331
DECD
331
DF69
331
DF6A
331
DF71
331
DF72
331
D9FF
331
DA00
331
DA08
331
DA09
331
DA11
331
DA12
331
DA46
331
DA4F
331
DA50
331
DA58
331
DA59
331
DA61
331
DA62
331
D98B
331
D98C
331
DB7A
331
DB7B
331
DB83
331
DB84
331
DA7C
331
DA7D
331
DA87
331
DA88
331
DA90
331
DA91
331
DA99
331
DA9A
331
DAA2
331
DAA3
331
DAAB
331
DAAC
331
DAB4
331
DAB5
331
DABC
331
DABD
331
DAC5
331
DAC6
331
DACE
331
DACF
331
DAD7
331
DB4D
331
DB4E
331
DB71
331
DB72
331
DAD8
331
DAE0
331
DAE1
331
DAE9
331
DAEA
331
DB05
331
DB06
331
DB0E
331
DB0F
331
DB29
331
DB2A
331
DA6A
331
DA6B
331
DA73
331
DA74
102
}
  0
BLOCK_RECORD
  5
97F7
330
1
100
AcDbSymbolTableRecord
100
AcDbBlockTableRecord
  2
*D1
340
0
  0
BLOCK_RECORD
  5
9802
330
1
100
AcDbSymbolTableRecord
100
AcDbBlockTableRecord
  2
*D2
340
0
  0
BLOCK_RECORD
  5
98B6
330
1
100
AcDbSymbolTableRecord
100
AcDbBlockTableRecord
  2
*D3
340
0
  0
BLOCK_RECORD
  5
98C2
330
1
100
AcDbSymbolTableRecord
100
AcDbBlockTableRecord
  2
*D4
340
0
  0
BLOCK_RECORD
  5
98CE
330
1
100
AcDbSymbolTableRecord
100
AcDbBlockTableRecord
  2
*D5
340
0
  0
BLOCK_RECORD
  5
98DA
330
1
100
AcDbSymbolTableRecord
100
AcDbBlockTableRecord
  2
*D6
340
0
  0
BLOCK_RECORD
  5
98E7
330
1
100
AcDbSymbolTableRecord
100
AcDbBlockTableRecord
  2
*D7
340
0
  0
BLOCK_RECORD
  5
9900
330
1
100
AcDbSymbolTableRecord
100
AcDbBlockTableRecord
  2
*D8
340
0
  0
BLOCK_RECORD
  5
990D
330
1
100
AcDbSymbolTableRecord
100
AcDbBlockTableRecord
  2
*D9
340
0
  0
BLOCK_RECORD
  5
993E
330
1
100
AcDbSymbolTableRecord
100
AcDbBlockTableRecord
  2
*D10
340
0
  0
BLOCK_RECORD
  5
994A
330
1
100
AcDbSymbolTableRecord
100
AcDbBlockTableRecord
  2
*D11
340
0
  0
BLOCK_RECORD
  5
9956
330
1
100
AcDbSymbolTableRecord
100
AcDbBlockTableRecord
  2
*D12
340
0
  0
BLOCK_RECORD
  5
99CC
330
1
100
AcDbSymbolTableRecord
100
AcDbBlockTableRecord
  2
*D13
340
0
  0
BLOCK_RECORD
  5
99D8
330
1
100
AcDbSymbolTableRecord
100
AcDbBlockTableRecord
  2
*D14
340
0
  0
BLOCK_RECORD
  5
99E4
330
1
100
AcDbSymbolTableRecord
100
AcDbBlockTableRecord
  2
*D15
340
0
  0
BLOCK_RECORD
  5
9A53
330
1
100
AcDbSymbolTableRecord
100
AcDbBlockTableRecord
  2
*D16
340
0
  0
BLOCK_RECORD
  5
9A5F
330
1
100
AcDbSymbolTableRecord
100
AcDbBlockTableRecord
  2
*D17
340
0
  0
BLOCK_RECORD
  5
9A78
330
1
100
AcDbSymbolTableRecord
100
AcDbBlockTableRecord
  2
*D18
340
0
  0
BLOCK_RECORD
  5
9F26
330
1
100
AcDbSymbolTableRecord
100
AcDbBlockTableRecord
  2
*D19
340
0
  0
BLOCK_RECORD
  5
B324
330
1
100
AcDbSymbolTableRecord
100
AcDbBlockTableRecord
  2
*D20
340
0
  0
BLOCK_RECORD
  5
B330
330
1
100
AcDbSymbolTableRecord
100
AcDbBlockTableRecord
  2
*D21
340
0
  0
BLOCK_RECORD
  5
B33C
330
1
100
AcDbSymbolTableRecord
100
AcDbBlockTableRecord
  2
*D22
340
0
  0
BLOCK_RECORD
  5
B348
330
1
100
AcDbSymbolTableRecord
100
AcDbBlockTableRecord
  2
*D23
340
0
  0
BLOCK_RECORD
  5
B354
330
1
100
AcDbSymbolTableRecord
100
AcDbBlockTableRecord
  2
*D24
340
0
  0
BLOCK_RECORD
  5
B3B2
330
1
100
AcDbSymbolTableRecord
100
AcDbBlockTableRecord
  2
*D25
340
0
  0
BLOCK_RECORD
  5
B864
330
1
100
AcDbSymbolTableRecord
100
AcDbBlockTableRecord
  2
*D26
340
0
  0
BLOCK_RECORD
  5
B870
330
1
100
AcDbSymbolTableRecord
100
AcDbBlockTableRecord
  2
*D27
340
0
  0
BLOCK_RECORD
  5
B87C
330
1
100
AcDbSymbolTableRecord
100
AcDbBlockTableRecord
  2
*D28
340
0
  0
BLOCK_RECORD
  5
B888
330
1
100
AcDbSymbolTableRecord
100
AcDbBlockTableRecord
  2
*D29
340
0
  0
BLOCK_RECORD
  5
B894
330
1
100
AcDbSymbolTableRecord
100
AcDbBlockTableRecord
  2
*D30
340
0
  0
BLOCK_RECORD
  5
B8A0
330
1
100
AcDbSymbolTableRecord
100
AcDbBlockTableRecord
  2
*D31
340
0
  0
BLOCK_RECORD
  5
BB85
330
1
100
AcDbSymbolTableRecord
100
AcDbBlockTableRecord
  2
*D32
340
0
  0
BLOCK_RECORD
  5
C026
330
1
100
AcDbSymbolTableRecord
100
AcDbBlockTableRecord
  2
*D33
340
0
  0
BLOCK_RECORD
  5
C032
330
1
100
AcDbSymbolTableRecord
100
AcDbBlockTableRecord
  2
*D34
340
0
  0
BLOCK_RECORD
  5
C048
330
1
100
AcDbSymbolTableRecord
100
AcDbBlockTableRecord
  2
*D35
340
0
  0
BLOCK_RECORD
  5
C05E
330
1
100
AcDbSymbolTableRecord
100
AcDbBlockTableRecord
  2
*D36
340
0
  0
BLOCK_RECORD
  5
C57E
330
1
100
AcDbSymbolTableRecord
100
AcDbBlockTableRecord
  2
*D37
340
0
  0
BLOCK_RECORD
  5
C58A
330
1
100
AcDbSymbolTableRecord
100
AcDbBlockTableRecord
  2
*D38
340
0
  0
BLOCK_RECORD
  5
C596
330
1
100
AcDbSymbolTableRecord
100
AcDbBlockTableRecord
  2
*D39
340
0
  0
BLOCK_RECORD
  5
C5A2
330
1
100
AcDbSymbolTableRecord
100
AcDbBlockTableRecord
  2
*D40
340
0
  0
BLOCK_RECORD
  5
CE2B
330
1
100
AcDbSymbolTableRecord
100
AcDbBlockTableRecord
  2
*D41
340
0
  0
BLOCK_RECORD
  5
CE37
330
1
100
AcDbSymbolTableRecord
100
AcDbBlockTableRecord
  2
*D42
340
0
  0
BLOCK_RECORD
  5
D8FC
330
1
100
AcDbSymbolTableRecord
100
AcDbBlockTableRecord
  2
*D43
340
0
  0
BLOCK_RECORD
  5
DCF1
102
{ACAD_XDICTIONARY
360
DD13
102
}
330
1
100
AcDbSymbolTableRecord
100
AcDbBlockTableRecord
  2
A$C546D1DC9
340
0
  0
BLOCK_RECORD
  5
DEBB
330
1
100
AcDbSymbolTableRecord
100
AcDbBlockTableRecord
  2
*D45
340
0
  0
BLOCK_RECORD
  5
DEC7
330
1
100
AcDbSymbolTableRecord
100
AcDbBlockTableRecord
  2
*D46
340
0
  0
BLOCK_RECORD
  5
DF1F
330
1
100
AcDbSymbolTableRecord
100
AcDbBlockTableRecord
  2
*D47
340
0
  0
BLOCK_RECORD
  5
DF2A
330
1
100
AcDbSymbolTableRecord
100
AcDbBlockTableRecord
  2
*D48
340
0
  0
BLOCK_RECORD
  5
DF77
102
{ACAD_XDICTIONARY
360
DF99
102
}
330
1
100
AcDbSymbolTableRecord
100
AcDbBlockTableRecord
  2
A$C54435CDF
340
0
  0
ENDTAB
  0
ENDSEC
  0
SECTION
  2
BLOCKS
  0
BLOCK
  5
1F
330
1E
100
AcDbEntity
  8
0
100
AcDbBlockBegin
  2
*MODEL_SPACE
 70
     0
 10
0.0
 20
0.0
 30
0.0
  3
*MODEL_SPACE
  1

  0
ENDBLK
  5
20
330
1E
100
AcDbEntity
  8
0
100
AcDbBlockEnd
  0
BLOCK
  5
1B
330
1A
100
AcDbEntity
 67
     1
  8
0
100
AcDbBlockBegin
  2
*PAPER_SPACE
 70
     0
 10
0.0
 20
0.0
 30
0.0
  3
*PAPER_SPACE
  1

  0
ENDBLK
  5
1C
330
1A
100
AcDbEntity
 67
     1
  8
0
100
AcDbBlockEnd
  0
BLOCK
  5
3B6
330
3B2
100
AcDbEntity
  8
0
100
AcDbBlockBegin
  2
_OPEN
 70
     0
 10
0.0
 20
0.0
 30
0.0
  3
_OPEN
  1

  0
LINE
  5
3B3
330
3B2
100
AcDbEntity
  8
30
  6
Continuous
 62
     0
100
AcDbLine
 10
-1.0
 20
0.166667
 30
0.0
 11
0.0
 21
0.0
 31
0.0
  0
LINE
  5
3B4
330
3B2
100
AcDbEntity
  8
30
  6
Continuous
 62
     0
100
AcDbLine
 10
-1.0
 20
-0.166667
 30
0.0
 11
0.0
 21
0.0
 31
0.0
  0
LINE
  5
3B5
330
3B2
100
AcDbEntity
  8
30
  6
Continuous
 62
     0
100
AcDbLine
 10
0.0
 20
0.0
 30
0.0
 11
-1.0
 21
0.0
 31
0.0
  0
ENDBLK
  5
3B7
330
3B2
100
AcDbEntity
  8
0
100
AcDbBlockEnd
  0
BLOCK
  5
9800
330
97F7
100
AcDbEntity
  8
0
100
AcDbBlockBegin
  2
*D1
 70
     1
 10
0.0
 20
0.0
 30
0.0
  3
*D1
  1

  0
LINE
  5
DAB1
330
97F7
100
AcDbEntity
  8
30
  6
Continuous
 62
     0
370
    -2
100
AcDbLine
 10
68.72809630117131
 20
201.7281694910692
 30
0.0
 11
70.86076360188352
 21
210.4718355089305
 31
0.0
  0
LINE
  5
DAB2
330
97F7
100
AcDbEntity
  8
30
  6
Continuous
 62
     0
370
    -2
100
AcDbLine
 10
71.33468977037606
 20
212.4148728186129
 30
0.0
 11
74.82021048750225
 21
226.7050666236713
 31
0.0
  0
LINE
  5
DAB3
330
97F7
100
AcDbEntity
  8
30
  6
Continuous
 62
     0
370
    -2
100
AcDbLine
 10
74.82021048750225
 20
226.7050666236713
 30
0.0
 11
91.82021048750224
 21
226.7050666236713
 31
0.0
  0
INSERT
  5
DAB4
330
97F7
100
AcDbEntity
  8
30
  6
Continuous
 62
     0
370
    -2
100
AcDbBlockReference
  2
_OPEN
 10
68.25417013267878
 20
199.7851321813866
 30
0.0
 41
2.0
 42
2.0
 43
2.0
 50
256.292631826296
  0
INSERT
  5
DAB5
330
97F7
100
AcDbEntity
  8
30
  6
Continuous
 62
     0
370
    -2
100
AcDbBlockReference
  2
_OPEN
 10
71.33468977037606
 20
212.4148728186129
 30
0.0
 41
2.0
 42
2.0
 43
2.0
 50
76.29263182629606
  0
MTEXT
  5
DAB6
102
{ACAD_XDICTIONARY
360
DFF8
102
}
330
97F7
100
AcDbEntity
  8
30
  6
Continuous
 62
     0
100
AcDbMText
 10
84.82021048750226
 20
232.7050666236713
 30
0.0
 40
6.0
 41
0.0
 71
     5
 72
     1
  1
\A1;\U+220513
 73
     1
 44
1.0
1001
ACAD
1000
MTEXTBEGIN
1070
    73
1070
     1
1070
    44
1040
1.0
1070
    74
1070
     0
1000
MTEXTEND
  0
POINT
  5
DAB7
330
97F7
100
AcDbEntity
  8
DEFPOINTS
  6
Continuous
 62
     0
100
AcDbPoint
 10
71.33468977037606
 20
212.4148728186129
 30
0.0
  0
POINT
  5
DAB8
330
97F7
100
AcDbEntity
  8
DEFPOINTS
  6
Continuous
 62
     0
100
AcDbPoint
 10
68.25417013267878
 20
199.7851321813866
 30
0.0
  0
ENDBLK
  5
9801
330
97F7
100
AcDbEntity
  8
0
100
AcDbBlockEnd
  0
BLOCK
  5
980D
330
9802
100
AcDbEntity
  8
0
100
AcDbBlockBegin
  2
*D2
 70
     1
 10
0.0
 20
0.0
 30
0.0
  3
*D2
  1

  0
LINE
  5
DAA8
330
9802
100
AcDbEntity
  8
30
  6
Continuous
 62
     0
370
    -2
100
AcDbLine
 10
63.29442745152718
 20
177.9999999999995
 30
0.0
 11
63.29442745152718
 21
186.4233686405284
 31
0.0
  0
LINE
  5
DAA9
330
9802
100
AcDbEntity
  8
30
  6
Continuous
 62
     0
370
    -2
100
AcDbLine
 10
76.29442745152717
 20
177.9999999999995
 30
0.0
 11
76.29442745152717
 21
186.4233686405284
 31
0.0
  0
LINE
  5
DAAA
330
9802
100
AcDbEntity
  8
30
  6
Continuous
 62
     0
370
    -2
100
AcDbLine
 10
65.29442745152717
 20
185.9233686405284
 30
0.0
 11
74.29442745152717
 21
185.9233686405284
 31
0.0
  0
INSERT
  5
DAAB
330
9802
100
AcDbEntity
  8
30
  6
Continuous
 62
     0
370
    -2
100
AcDbBlockReference
  2
_OPEN
 10
63.29442745152718
 20
185.9233686405284
 30
0.0
 41
2.0
 42
2.0
 43
2.0
 50
180.0
  0
INSERT
  5
DAAC
330
9802
100
AcDbEntity
  8
30
  6
Continuous
 62
     0
370
    -2
100
AcDbBlockReference
  2
_OPEN
 10
76.29442745152717
 20
185.9233686405284
 30
0.0
 41
2.0
 42
2.0
 43
2.0
  0
MTEXT
  5
DAAD
330
9802
100
AcDbEntity
  8
30
  6
Continuous
 62
     0
100
AcDbMText
 10
69.79442745152717
 20
191.9233686405284
 30
0.0
 40
6.0
 41
0.0
 71
     5
 72
     1
  1
\A1; 13 
 73
     1
 44
1.0
1001
ACAD
1000
MTEXTBEGIN
1070
    73
1070
     1
1070
    44
1040
1.0
1070
    74
1070
     0
1000
MTEXTEND
  0
POINT
  5
DAAE
330
9802
100
AcDbEntity
  8
DEFPOINTS
  6
Continuous
 62
     0
100
AcDbPoint
 10
63.29442745152718
 20
174.9999999999995
 30
0.0
  0
POINT
  5
DAAF
330
9802
100
AcDbEntity
  8
DEFPOINTS
  6
Continuous
 62
     0
100
AcDbPoint
 10
76.29442745152717
 20
174.9999999999995
 30
0.0
  0
POINT
  5
DAB0
330
9802
100
AcDbEntity
  8
DEFPOINTS
  6
Continuous
 62
     0
100
AcDbPoint
 10
76.29442745152717
 20
185.9233686405284
 30
0.0
  0
ENDBLK
  5
980E
330
9802
100
AcDbEntity
  8
0
100
AcDbBlockEnd
  0
BLOCK
  5
98C0
330
98B6
100
AcDbEntity
  8
0
100
AcDbBlockBegin
  2
*D3
 70
     1
 10
0.0
 20
0.0
 30
0.0
  3
*D3
  1

  0
LINE
  5
DA9F
330
98B6
100
AcDbEntity
  8
30
  6
Continuous
 62
     0
370
    -2
100
AcDbLine
 10
393.9944274515275
 20
-52.99999999999975
 30
0.0
 11
393.9944274515275
 21
-250.4999999999999
 31
0.0
  0
LINE
  5
DAA0
330
98B6
100
AcDbEntity
  8
30
  6
Continuous
 62
     0
370
    -2
100
AcDbLine
 10
496.9944274515269
 20
-139.9999999999995
 30
0.0
 11
496.9944274515269
 21
-250.4999999999999
 31
0.0
  0
LINE
  5
DAA1
330
98B6
100
AcDbEntity
  8
30
  6
Continuous
 62
     0
370
    -2
100
AcDbLine
 10
395.9944274515277
 20
-249.9999999999999
 30
0.0
 11
494.9944274515273
 21
-249.9999999999999
 31
0.0
  0
INSERT
  5
DAA2
330
98B6
100
AcDbEntity
  8
30
  6
Continuous
 62
     0
370
    -2
100
AcDbBlockReference
  2
_OPEN
 10
393.9944274515275
 20
-249.9999999999999
 30
0.0
 41
2.0
 42
2.0
 43
2.0
 50
180.0
  0
INSERT
  5
DAA3
330
98B6
100
AcDbEntity
  8
30
  6
Continuous
 62
     0
370
    -2
100
AcDbBlockReference
  2
_OPEN
 10
496.9944274515269
 20
-249.9999999999999
 30
0.0
 41
2.0
 42
2.0
 43
2.0
  0
MTEXT
  5
DAA4
330
98B6
100
AcDbEntity
  8
30
  6
Continuous
 62
     0
100
AcDbMText
 10
445.4944274515274
 20
-243.9999999999999
 30
0.0
 40
6.0
 41
0.0
 71
     5
 72
     1
  1
\A1; 103 
 73
     1
 44
1.0
1001
ACAD
1000
MTEXTBEGIN
1070
    73
1070
     1
1070
    44
1040
1.0
1070
    74
1070
     0
1000
MTEXTEND
  0
POINT
  5
DAA5
330
98B6
100
AcDbEntity
  8
DEFPOINTS
  6
Continuous
 62
     0
100
AcDbPoint
 10
393.9944274515275
 20
-49.99999999999976
 30
0.0
  0
POINT
  5
DAA6
330
98B6
100
AcDbEntity
  8
DEFPOINTS
  6
Continuous
 62
     0
100
AcDbPoint
 10
496.9944274515269
 20
-136.9999999999995
 30
0.0
  0
POINT
  5
DAA7
330
98B6
100
AcDbEntity
  8
DEFPOINTS
  6
Continuous
 62
     0
100
AcDbPoint
 10
496.9944274515269
 20
-249.9999999999999
 30
0.0
  0
ENDBLK
  5
98C1
330
98B6
100
AcDbEntity
  8
0
100
AcDbBlockEnd
  0
BLOCK
  5
98CC
330
98C2
100
AcDbEntity
  8
0
100
AcDbBlockBegin
  2
*D4
 70
     1
 10
0.0
 20
0.0
 30
0.0
  3
*D4
  1

  0
LINE
  5
DA96
330
98C2
100
AcDbEntity
  8
30
  6
Continuous
 62
     0
370
    -2
100
AcDbLine
 10
389.9944274515273
 20
-52.99999999999975
 30
0.0
 11
389.9944274515273
 21
-270.5
 31
0.0
  0
LINE
  5
DA97
330
98C2
100
AcDbEntity
  8
30
  6
Continuous
 62
     0
370
    -2
100
AcDbLine
 10
496.9944274515269
 20
-139.9999999999995
 30
0.0
 11
496.9944274515269
 21
-270.5
 31
0.0
  0
LINE
  5
DA98
330
98C2
100
AcDbEntity
  8
30
  6
Continuous
 62
     0
370
    -2
100
AcDbLine
 10
391.9944274515273
 20
-270.0
 30
0.0
 11
494.9944274515273
 21
-270.0
 31
0.0
  0
INSERT
  5
DA99
330
98C2
100
AcDbEntity
  8
30
  6
Continuous
 62
     0
370
    -2
100
AcDbBlockReference
  2
_OPEN
 10
389.9944274515273
 20
-270.0
 30
0.0
 41
2.0
 42
2.0
 43
2.0
 50
180.0
  0
INSERT
  5
DA9A
330
98C2
100
AcDbEntity
  8
30
  6
Continuous
 62
     0
370
    -2
100
AcDbBlockReference
  2
_OPEN
 10
496.9944274515269
 20
-270.0
 30
0.0
 41
2.0
 42
2.0
 43
2.0
  0
MTEXT
  5
DA9B
330
98C2
100
AcDbEntity
  8
30
  6
Continuous
 62
     0
100
AcDbMText
 10
443.4944274515273
 20
-264.0
 30
0.0
 40
6.0
 41
0.0
 71
     5
 72
     1
  1
\A1; 107 
 73
     1
 44
1.0
1001
ACAD
1000
MTEXTBEGIN
1070
    73
1070
     1
1070
    44
1040
1.0
1070
    74
1070
     0
1000
MTEXTEND
  0
POINT
  5
DA9C
330
98C2
100
AcDbEntity
  8
DEFPOINTS
  6
Continuous
 62
     0
100
AcDbPoint
 10
389.9944274515273
 20
-49.99999999999976
 30
0.0
  0
POINT
  5
DA9D
330
98C2
100
AcDbEntity
  8
DEFPOINTS
  6
Continuous
 62
     0
100
AcDbPoint
 10
496.9944274515269
 20
-136.9999999999995
 30
0.0
  0
POINT
  5
DA9E
330
98C2
100
AcDbEntity
  8
DEFPOINTS
  6
Continuous
 62
     0
100
AcDbPoint
 10
496.9944274515269
 20
-270.0
 30
0.0
  0
ENDBLK
  5
98CD
330
98C2
100
AcDbEntity
  8
0
100
AcDbBlockEnd
  0
BLOCK
  5
98D8
330
98CE
100
AcDbEntity
  8
0
100
AcDbBlockBegin
  2
*D5
 70
     1
 10
0.0
 20
0.0
 30
0.0
  3
*D5
  1

  0
LINE
  5
DA8D
330
98CE
100
AcDbEntity
  8
30
  6
Continuous
 62
     0
370
    -2
100
AcDbLine
 10
369.4944274515274
 20
2.000000000000145
 30
0.0
 11
369.4944274515274
 21
-290.5
 31
0.0
  0
LINE
  5
DA8E
330
98CE
100
AcDbEntity
  8
30
  6
Continuous
 62
     0
370
    -2
100
AcDbLine
 10
496.9944274515269
 20
-3.499999999999947
 30
0.0
 11
496.9944274515269
 21
-290.5
 31
0.0
  0
LINE
  5
DA8F
330
98CE
100
AcDbEntity
  8
30
  6
Continuous
 62
     0
370
    -2
100
AcDbLine
 10
371.4944274515274
 20
-290.0
 30
0.0
 11
494.9944274515273
 21
-290.0
 31
0.0
  0
INSERT
  5
DA90
330
98CE
100
AcDbEntity
  8
30
  6
Continuous
 62
     0
370
    -2
100
AcDbBlockReference
  2
_OPEN
 10
369.4944274515274
 20
-290.0
 30
0.0
 41
2.0
 42
2.0
 43
2.0
 50
180.0
  0
INSERT
  5
DA91
330
98CE
100
AcDbEntity
  8
30
  6
Continuous
 62
     0
370
    -2
100
AcDbBlockReference
  2
_OPEN
 10
496.9944274515269
 20
-290.0
 30
0.0
 41
2.0
 42
2.0
 43
2.0
  0
MTEXT
  5
DA92
330
98CE
100
AcDbEntity
  8
30
  6
Continuous
 62
     0
100
AcDbMText
 10
433.2444274515274
 20
-284.0
 30
0.0
 40
6.0
 41
0.0
 71
     5
 72
     1
  1
\A1; 127.5 
 73
     1
 44
1.0
1001
ACAD
1000
MTEXTBEGIN
1070
    73
1070
     1
1070
    44
1040
1.0
1070
    74
1070
     0
1000
MTEXTEND
  0
POINT
  5
DA93
330
98CE
100
AcDbEntity
  8
DEFPOINTS
  6
Continuous
 62
     0
100
AcDbPoint
 10
369.4944274515274
 20
5.000000000000143
 30
0.0
  0
POINT
  5
DA94
330
98CE
100
AcDbEntity
  8
DEFPOINTS
  6
Continuous
 62
     0
100
AcDbPoint
 10
496.9944274515269
 20
-0.4999999999999477
 30
0.0
  0
POINT
  5
DA95
330
98CE
100
AcDbEntity
  8
DEFPOINTS
  6
Continuous
 62
     0
100
AcDbPoint
 10
496.9944274515269
 20
-290.0
 30
0.0
  0
ENDBLK
  5
98D9
330
98CE
100
AcDbEntity
  8
0
100
AcDbBlockEnd
  0
BLOCK
  5
98E5
330
98DA
100
AcDbEntity
  8
0
100
AcDbBlockBegin
  2
*D6
 70
     1
 10
0.0
 20
0.0
 30
0.0
  3
*D6
  1

  0
LINE
  5
DA82
330
98DA
100
AcDbEntity
  8
30
  6
Continuous
 62
     0
370
    -2
100
AcDbLine
 10
385.9944274515274
 20
-3.499999999999947
 30
0.0
 11
385.9944274515274
 21
-270.5
 31
0.0
  0
LINE
  5
DA83
330
98DA
100
AcDbEntity
  8
30
  6
Continuous
 62
     0
370
    -2
100
AcDbLine
 10
389.9944274515273
 20
-52.99999999999975
 30
0.0
 11
389.9944274515273
 21
-270.5
 31
0.0
  0
LINE
  5
DA84
330
98DA
100
AcDbEntity
  8
30
  6
Continuous
 62
     0
370
    -2
100
AcDbLine
 10
383.9944274515275
 20
-270.0
 30
0.0
 11
381.9944274515274
 21
-270.0
 31
0.0
  0
LINE
  5
DA85
330
98DA
100
AcDbEntity
  8
30
  6
Continuous
 62
     0
370
    -2
100
AcDbLine
 10
391.9944274515273
 20
-270.0
 30
0.0
 11
407.5944274515274
 21
-270.0
 31
0.0
  0
LINE
  5
DA86
330
98DA
100
AcDbEntity
  8
30
  6
Continuous
 62
     0
370
    -2
100
AcDbLine
 10
385.9944274515274
 20
-270.0
 30
0.0
 11
389.9944274515273
 21
-270.0
 31
0.0
  0
INSERT
  5
DA87
330
98DA
100
AcDbEntity
  8
30
  6
Continuous
 62
     0
370
    -2
100
AcDbBlockReference
  2
_OPEN
 10
385.9944274515274
 20
-270.0
 30
0.0
 41
2.0
 42
2.0
 43
2.0
  0
INSERT
  5
DA88
330
98DA
100
AcDbEntity
  8
30
  6
Continuous
 62
     0
370
    -2
100
AcDbBlockReference
  2
_OPEN
 10
389.9944274515273
 20
-270.0
 30
0.0
 41
2.0
 42
2.0
 43
2.0
 50
180.0
  0
MTEXT
  5
DA89
330
98DA
100
AcDbEntity
  8
30
  6
Continuous
 62
     0
100
AcDbMText
 10
400.7944274515272
 20
-264.0
 30
0.0
 40
6.0
 41
0.0
 71
     5
 72
     1
  1
\A1; 4 
 73
     1
 44
1.0
1001
ACAD
1000
MTEXTBEGIN
1070
    73
1070
     1
1070
    44
1040
1.0
1070
    74
1070
     0
1000
MTEXTEND
  0
POINT
  5
DA8A
330
98DA
100
AcDbEntity
  8
DEFPOINTS
  6
Continuous
 62
     0
100
AcDbPoint
 10
385.9944274515274
 20
-0.4999999999999477
 30
0.0
  0
POINT
  5
DA8B
330
98DA
100
AcDbEntity
  8
DEFPOINTS
  6
Continuous
 62
     0
100
AcDbPoint
 10
389.9944274515273
 20
-49.99999999999976
 30
0.0
  0
POINT
  5
DA8C
330
98DA
100
AcDbEntity
  8
DEFPOINTS
  6
Continuous
 62
     0
100
AcDbPoint
 10
389.9944274515273
 20
-270.0
 30
0.0
  0
ENDBLK
  5
98E6
330
98DA
100
AcDbEntity
  8
0
100
AcDbBlockEnd
  0
BLOCK
  5
98F1
330
98E7
100
AcDbEntity
  8
0
100
AcDbBlockBegin
  2
*D7
 70
     1
 10
0.0
 20
0.0
 30
0.0
  3
*D7
  1

  0
LINE
  5
DA79
330
98E7
100
AcDbEntity
  8
30
  6
Continuous
 62
     0
370
    -2
100
AcDbLine
 10
-35.20557254847211
 20
-624.9999999999998
 30
0.0
 11
-35.20557254847211
 21
-667.5958749999996
 31
0.0
  0
LINE
  5
DA7A
330
98E7
100
AcDbEntity
  8
30
  6
Continuous
 62
     0
370
    -2
100
AcDbLine
 10
34.79442745152786
 20
-624.9999999999998
 30
0.0
 11
34.79442745152786
 21
-667.5958749999996
 31
0.0
  0
LINE
  5
DA7B
330
98E7
100
AcDbEntity
  8
30
  6
Continuous
 62
     0
370
    -2
100
AcDbLine
 10
-33.20557254847213
 20
-667.0958749999996
 30
0.0
 11
32.79442745152786
 21
-667.0958749999996
 31
0.0
  0
INSERT
  5
DA7C
330
98E7
100
AcDbEntity
  8
30
  6
Continuous
 62
     0
370
    -2
100
AcDbBlockReference
  2
_OPEN
 10
-35.20557254847211
 20
-667.0958749999996
 30
0.0
 41
2.0
 42
2.0
 43
2.0
 50
180.0
  0
INSERT
  5
DA7D
330
98E7
100
AcDbEntity
  8
30
  6
Continuous
 62
     0
370
    -2
100
AcDbBlockReference
  2
_OPEN
 10
34.79442745152786
 20
-667.0958749999996
 30
0.0
 41
2.0
 42
2.0
 43
2.0
  0
MTEXT
  5
DA7E
330
98E7
100
AcDbEntity
  8
30
  6
Continuous
 62
     0
100
AcDbMText
 10
-0.2055725484721332
 20
-661.0958749999996
 30
0.0
 40
6.0
 41
0.0
 71
     5
 72
     1
  1
\A1; 70 
 73
     1
 44
1.0
1001
ACAD
1000
MTEXTBEGIN
1070
    73
1070
     1
1070
    44
1040
1.0
1070
    74
1070
     0
1000
MTEXTEND
  0
POINT
  5
DA7F
330
98E7
100
AcDbEntity
  8
DEFPOINTS
  6
Continuous
 62
     0
100
AcDbPoint
 10
-35.20557254847211
 20
-621.9999999999997
 30
0.0
  0
POINT
  5
DA80
330
98E7
100
AcDbEntity
  8
DEFPOINTS
  6
Continuous
 62
     0
100
AcDbPoint
 10
34.79442745152786
 20
-621.9999999999997
 30
0.0
  0
POINT
  5
DA81
330
98E7
100
AcDbEntity
  8
DEFPOINTS
  6
Continuous
 62
     0
100
AcDbPoint
 10
34.79442745152786
 20
-667.0958749999996
 30
0.0
  0
ENDBLK
  5
98F2
330
98E7
100
AcDbEntity
  8
0
100
AcDbBlockEnd
  0
BLOCK
  5
990B
330
9900
100
AcDbEntity
  8
0
100
AcDbBlockBegin
  2
*D8
 70
     1
 10
0.0
 20
0.0
 30
0.0
  3
*D8
  1

  0
LINE
  5
DA70
330
9900
100
AcDbEntity
  8
30
  6
Continuous
 62
     0
370
    -2
100
AcDbLine
 10
-115.334453076311
 20
-500.0
 30
0.0
 11
-126.988353076311
 21
-500.0
 31
0.0
  0
LINE
  5
DA71
330
9900
100
AcDbEntity
  8
30
  6
Continuous
 62
     0
370
    -2
100
AcDbLine
 10
-44.20557254847259
 20
-374.0000000000002
 30
0.0
 11
-126.9883530763109
 21
-374.0000000000002
 31
0.0
  0
LINE
  5
DA72
330
9900
100
AcDbEntity
  8
30
  6
Continuous
 62
     0
370
    -2
100
AcDbLine
 10
-126.488353076311
 20
-498.0
 30
0.0
 11
-126.4883530763108
 21
-376.0000000000002
 31
0.0
  0
INSERT
  5
DA73
330
9900
100
AcDbEntity
  8
30
  6
Continuous
 62
     0
370
    -2
100
AcDbBlockReference
  2
_OPEN
 10
-126.488353076311
 20
-500.0
 30
0.0
 41
2.0
 42
2.0
 43
2.0
 50
270.0
  0
INSERT
  5
DA74
330
9900
100
AcDbEntity
  8
30
  6
Continuous
 62
     0
370
    -2
100
AcDbBlockReference
  2
_OPEN
 10
-126.4883530763108
 20
-374.0000000000002
 30
0.0
 41
2.0
 42
2.0
 43
2.0
 50
90.0
  0
MTEXT
  5
DA75
330
9900
100
AcDbEntity
  8
30
  6
Continuous
 62
     0
100
AcDbMText
 10
-132.4883530763109
 20
-437.0
 30
0.0
 40
6.0
 41
0.0
 71
     5
 72
     1
  1
\A1; 126 
 11
0.0000000000000001
 21
1.0
 31
0.0
 73
     1
 44
1.0
1001
ACAD
1000
MTEXTBEGIN
1070
    73
1070
     1
1070
    44
1040
1.0
1070
    74
1070
     0
1000
MTEXTEND
  0
POINT
  5
DA76
330
9900
100
AcDbEntity
  8
DEFPOINTS
  6
Continuous
 62
     0
100
AcDbPoint
 10
-112.334453076311
 20
-500.0
 30
0.0
  0
POINT
  5
DA77
330
9900
100
AcDbEntity
  8
DEFPOINTS
  6
Continuous
 62
     0
100
AcDbPoint
 10
-41.20557254847257
 20
-374.0000000000002
 30
0.0
  0
POINT
  5
DA78
330
9900
100
AcDbEntity
  8
DEFPOINTS
  6
Continuous
 62
     0
100
AcDbPoint
 10
-126.4883530763108
 20
-374.0000000000002
 30
0.0
  0
ENDBLK
  5
990C
330
9900
100
AcDbEntity
  8
0
100
AcDbBlockEnd
  0
BLOCK
  5
9918
330
990D
100
AcDbEntity
  8
0
100
AcDbBlockBegin
  2
*D9
 70
     1
 10
0.0
 20
0.0
 30
0.0
  3
*D9
  1

  0
LINE
  5
DA67
330
990D
100
AcDbEntity
  8
30
  6
Continuous
 62
     0
370
    -2
100
AcDbLine
 10
-44.20557254847259
 20
-616.9999999999996
 30
0.0
 11
-126.988353076311
 21
-616.9999999999996
 31
0.0
  0
LINE
  5
DA68
330
990D
100
AcDbEntity
  8
30
  6
Continuous
 62
     0
370
    -2
100
AcDbLine
 10
-117.8055725484719
 20
-500.0
 30
0.0
 11
-126.9883530763109
 21
-500.0
 31
0.0
  0
LINE
  5
DA69
330
990D
100
AcDbEntity
  8
30
  6
Continuous
 62
     0
370
    -2
100
AcDbLine
 10
-126.488353076311
 20
-614.9999999999996
 30
0.0
 11
-126.4883530763108
 21
-502.0
 31
0.0
  0
INSERT
  5
DA6A
330
990D
100
AcDbEntity
  8
30
  6
Continuous
 62
     0
370
    -2
100
AcDbBlockReference
  2
_OPEN
 10
-126.488353076311
 20
-616.9999999999996
 30
0.0
 41
2.0
 42
2.0
 43
2.0
 50
270.0
  0
INSERT
  5
DA6B
330
990D
100
AcDbEntity
  8
30
  6
Continuous
 62
     0
370
    -2
100
AcDbBlockReference
  2
_OPEN
 10
-126.4883530763108
 20
-500.0
 30
0.0
 41
2.0
 42
2.0
 43
2.0
 50
90.0
  0
MTEXT
  5
DA6C
330
990D
100
AcDbEntity
  8
30
  6
Continuous
 62
     0
100
AcDbMText
 10
-132.4883530763109
 20
-558.4999999999999
 30
0.0
 40
6.0
 41
0.0
 71
     5
 72
     1
  1
\A1; 117 
 11
0.0000000000000001
 21
1.0
 31
0.0
 73
     1
 44
1.0
1001
ACAD
1000
MTEXTBEGIN
1070
    73
1070
     1
1070
    44
1040
1.0
1070
    74
1070
     0
1000
MTEXTEND
  0
POINT
  5
DA6D
330
990D
100
AcDbEntity
  8
DEFPOINTS
  6
Continuous
 62
     0
100
AcDbPoint
 10
-41.20557254847257
 20
-616.9999999999996
 30
0.0
  0
POINT
  5
DA6E
330
990D
100
AcDbEntity
  8
DEFPOINTS
  6
Continuous
 62
     0
100
AcDbPoint
 10
-114.805572548472
 20
-500.0
 30
0.0
  0
POINT
  5
DA6F
330
990D
100
AcDbEntity
  8
DEFPOINTS
  6
Continuous
 62
     0
100
AcDbPoint
 10
-126.4883530763108
 20
-500.0
 30
0.0
  0
ENDBLK
  5
9919
330
990D
100
AcDbEntity
  8
0
100
AcDbBlockEnd
  0
BLOCK
  5
9948
330
993E
100
AcDbEntity
  8
0
100
AcDbBlockBegin
  2
*D10
 70
     1
 10
0.0
 20
0.0
 30
0.0
  3
*D10
  1

  0
LINE
  5
DA5E
330
993E
100
AcDbEntity
  8
30
  6
Continuous
 62
     0
370
    -2
100
AcDbLine
 10
468.9944274515274
 20
-100.7499999999994
 30
0.0
 11
468.9944274515274
 21
-71.59587499999971
 31
0.0
  0
LINE
  5
DA5F
330
993E
100
AcDbEntity
  8
30
  6
Continuous
 62
     0
370
    -2
100
AcDbLine
 10
496.9944274515269
 20
-75.34587499999968
 30
0.0
 11
496.9944274515269
 21
-71.59587499999971
 31
0.0
  0
LINE
  5
DA60
330
993E
100
AcDbEntity
  8
30
  6
Continuous
 62
     0
370
    -2
100
AcDbLine
 10
470.9944274515271
 20
-72.09587499999971
 30
0.0
 11
494.9944274515273
 21
-72.09587499999971
 31
0.0
  0
INSERT
  5
DA61
330
993E
100
AcDbEntity
  8
30
  6
Continuous
 62
     0
370
    -2
100
AcDbBlockReference
  2
_OPEN
 10
468.9944274515274
 20
-72.09587499999971
 30
0.0
 41
2.0
 42
2.0
 43
2.0
 50
180.0
  0
INSERT
  5
DA62
330
993E
100
AcDbEntity
  8
30
  6
Continuous
 62
     0
370
    -2
100
AcDbBlockReference
  2
_OPEN
 10
496.9944274515269
 20
-72.09587499999971
 30
0.0
 41
2.0
 42
2.0
 43
2.0
  0
MTEXT
  5
DA63
330
993E
100
AcDbEntity
  8
30
  6
Continuous
 62
     0
100
AcDbMText
 10
482.9944274515272
 20
-66.09587499999971
 30
0.0
 40
6.0
 41
0.0
 71
     5
 72
     1
  1
\A1; 28 
 73
     1
 44
1.0
1001
ACAD
1000
MTEXTBEGIN
1070
    73
1070
     1
1070
    44
1040
1.0
1070
    74
1070
     0
1000
MTEXTEND
  0
POINT
  5
DA64
330
993E
100
AcDbEntity
  8
DEFPOINTS
  6
Continuous
 62
     0
100
AcDbPoint
 10
468.9944274515274
 20
-103.7499999999994
 30
0.0
  0
POINT
  5
DA65
330
993E
100
AcDbEntity
  8
DEFPOINTS
  6
Continuous
 62
     0
100
AcDbPoint
 10
496.9944274515269
 20
-78.34587499999968
 30
0.0
  0
POINT
  5
DA66
330
993E
100
AcDbEntity
  8
DEFPOINTS
  6
Continuous
 62
     0
100
AcDbPoint
 10
496.9944274515269
 20
-72.09587499999971
 30
0.0
  0
ENDBLK
  5
9949
330
993E
100
AcDbEntity
  8
0
100
AcDbBlockEnd
  0
BLOCK
  5
9954
330
994A
100
AcDbEntity
  8
0
100
AcDbBlockBegin
  2
*D11
 70
     1
 10
0.0
 20
0.0
 30
0.0
  3
*D11
  1

  0
LINE
  5
DA55
330
994A
100
AcDbEntity
  8
30
  6
Continuous
 62
     0
370
    -2
100
AcDbLine
 10
509.9944274515273
 20
-104.9999999999996
 30
0.0
 11
509.9944274515273
 21
-71.59587499999971
 31
0.0
  0
LINE
  5
DA56
330
994A
100
AcDbEntity
  8
30
  6
Continuous
 62
     0
370
    -2
100
AcDbLine
 10
496.9944274515269
 20
-75.34587499999968
 30
0.0
 11
496.9944274515269
 21
-71.59587499999971
 31
0.0
  0
LINE
  5
DA57
330
994A
100
AcDbEntity
  8
30
  6
Continuous
 62
     0
370
    -2
100
AcDbLine
 10
507.9944274515272
 20
-72.09587499999971
 30
0.0
 11
498.9944274515273
 21
-72.09587499999971
 31
0.0
  0
INSERT
  5
DA58
330
994A
100
AcDbEntity
  8
30
  6
Continuous
 62
     0
370
    -2
100
AcDbBlockReference
  2
_OPEN
 10
509.9944274515273
 20
-72.09587499999971
 30
0.0
 41
2.0
 42
2.0
 43
2.0
  0
INSERT
  5
DA59
330
994A
100
AcDbEntity
  8
30
  6
Continuous
 62
     0
370
    -2
100
AcDbBlockReference
  2
_OPEN
 10
496.9944274515269
 20
-72.09587499999971
 30
0.0
 41
2.0
 42
2.0
 43
2.0
 50
180.0
  0
MTEXT
  5
DA5A
330
994A
100
AcDbEntity
  8
30
  6
Continuous
 62
     0
100
AcDbMText
 10
503.4944274515273
 20
-66.09587499999971
 30
0.0
 40
6.0
 41
0.0
 71
     5
 72
     1
  1
\A1; 13 
 73
     1
 44
1.0
1001
ACAD
1000
MTEXTBEGIN
1070
    73
1070
     1
1070
    44
1040
1.0
1070
    74
1070
     0
1000
MTEXTEND
  0
POINT
  5
DA5B
330
994A
100
AcDbEntity
  8
DEFPOINTS
  6
Continuous
 62
     0
100
AcDbPoint
 10
509.9944274515273
 20
-107.9999999999996
 30
0.0
  0
POINT
  5
DA5C
330
994A
100
AcDbEntity
  8
DEFPOINTS
  6
Continuous
 62
     0
100
AcDbPoint
 10
496.9944274515269
 20
-78.34587499999968
 30
0.0
  0
POINT
  5
DA5D
330
994A
100
AcDbEntity
  8
DEFPOINTS
  6
Continuous
 62
     0
100
AcDbPoint
 10
496.9944274515269
 20
-72.09587499999971
 30
0.0
  0
ENDBLK
  5
9955
330
994A
100
AcDbEntity
  8
0
100
AcDbBlockEnd
  0
BLOCK
  5
9960
330
9956
100
AcDbEntity
  8
0
100
AcDbBlockBegin
  2
*D12
 70
     1
 10
0.0
 20
0.0
 30
0.0
  3
*D12
  1

  0
LINE
  5
DA4C
330
9956
100
AcDbEntity
  8
30
  6
Continuous
 62
     0
370
    -2
100
AcDbLine
 10
314.1944274515275
 20
-548.0
 30
0.0
 11
314.1944274515275
 21
-672.5958749999992
 31
0.0
  0
LINE
  5
DA4D
330
9956
100
AcDbEntity
  8
30
  6
Continuous
 62
     0
370
    -2
100
AcDbLine
 10
486.1944274515273
 20
-548.0
 30
0.0
 11
486.1944274515273
 21
-672.5958749999992
 31
0.0
  0
LINE
  5
DA4E
330
9956
100
AcDbEntity
  8
30
  6
Continuous
 62
     0
370
    -2
100
AcDbLine
 10
316.1944274515273
 20
-672.0958749999994
 30
0.0
 11
484.1944274515273
 21
-672.0958749999994
 31
0.0
  0
INSERT
  5
DA4F
330
9956
100
AcDbEntity
  8
30
  6
Continuous
 62
     0
370
    -2
100
AcDbBlockReference
  2
_OPEN
 10
314.1944274515275
 20
-672.0958749999994
 30
0.0
 41
2.0
 42
2.0
 43
2.0
 50
180.0
  0
INSERT
  5
DA50
330
9956
100
AcDbEntity
  8
30
  6
Continuous
 62
     0
370
    -2
100
AcDbBlockReference
  2
_OPEN
 10
486.1944274515273
 20
-672.0958749999994
 30
0.0
 41
2.0
 42
2.0
 43
2.0
  0
MTEXT
  5
DA51
330
9956
100
AcDbEntity
  8
30
  6
Continuous
 62
     0
100
AcDbMText
 10
400.1944274515274
 20
-666.0958749999994
 30
0.0
 40
6.0
 41
0.0
 71
     5
 72
     1
  1
\A1; 172 
 73
     1
 44
1.0
1001
ACAD
1000
MTEXTBEGIN
1070
    73
1070
     1
1070
    44
1040
1.0
1070
    74
1070
     0
1000
MTEXTEND
  0
POINT
  5
DA52
330
9956
100
AcDbEntity
  8
DEFPOINTS
  6
Continuous
 62
     0
100
AcDbPoint
 10
314.1944274515275
 20
-545.0
 30
0.0
  0
POINT
  5
DA53
330
9956
100
AcDbEntity
  8
DEFPOINTS
  6
Continuous
 62
     0
100
AcDbPoint
 10
486.1944274515273
 20
-545.0
 30
0.0
  0
POINT
  5
DA54
330
9956
100
AcDbEntity
  8
DEFPOINTS
  6
Continuous
 62
     0
100
AcDbPoint
 10
486.1944274515273
 20
-672.0958749999994
 30
0.0
  0
ENDBLK
  5
9961
330
9956
100
AcDbEntity
  8
0
100
AcDbBlockEnd
  0
BLOCK
  5
99D6
330
99CC
100
AcDbEntity
  8
0
100
AcDbBlockBegin
  2
*D13
 70
     1
 10
0.0
 20
0.0
 30
0.0
  3
*D13
  1

  0
LINE
  5
DAE6
330
99CC
100
AcDbEntity
  8
30
  6
Continuous
 62
     0
370
    -2
100
AcDbLine
 10
351.9944274515277
 20
2.000000000000145
 30
0.0
 11
351.9944274515277
 21
-310.4999999999999
 31
0.0
  0
LINE
  5
DAE7
330
99CC
100
AcDbEntity
  8
30
  6
Continuous
 62
     0
370
    -2
100
AcDbLine
 10
496.9944274515269
 20
-139.9999999999995
 30
0.0
 11
496.9944274515269
 21
-310.4999999999999
 31
0.0
  0
LINE
  5
DAE8
330
99CC
100
AcDbEntity
  8
30
  6
Continuous
 62
     0
370
    -2
100
AcDbLine
 10
353.9944274515277
 20
-310.0
 30
0.0
 11
494.9944274515273
 21
-310.0
 31
0.0
  0
INSERT
  5
DAE9
330
99CC
100
AcDbEntity
  8
30
  6
Continuous
 62
     0
370
    -2
100
AcDbBlockReference
  2
_OPEN
 10
351.9944274515277
 20
-310.0
 30
0.0
 41
2.0
 42
2.0
 43
2.0
 50
180.0
  0
INSERT
  5
DAEA
330
99CC
100
AcDbEntity
  8
30
  6
Continuous
 62
     0
370
    -2
100
AcDbBlockReference
  2
_OPEN
 10
496.9944274515269
 20
-310.0
 30
0.0
 41
2.0
 42
2.0
 43
2.0
  0
MTEXT
  5
DAEB
330
99CC
100
AcDbEntity
  8
30
  6
Continuous
 62
     0
100
AcDbMText
 10
424.4944274515274
 20
-304.0
 30
0.0
 40
6.0
 41
0.0
 71
     5
 72
     1
  1
\A1; 145 
 73
     1
 44
1.0
1001
ACAD
1000
MTEXTBEGIN
1070
    73
1070
     1
1070
    44
1040
1.0
1070
    74
1070
     0
1000
MTEXTEND
  0
POINT
  5
DAEC
330
99CC
100
AcDbEntity
  8
DEFPOINTS
  6
Continuous
 62
     0
100
AcDbPoint
 10
351.9944274515277
 20
5.000000000000143
 30
0.0
  0
POINT
  5
DAED
330
99CC
100
AcDbEntity
  8
DEFPOINTS
  6
Continuous
 62
     0
100
AcDbPoint
 10
496.9944274515269
 20
-136.9999999999995
 30
0.0
  0
POINT
  5
DAEE
330
99CC
100
AcDbEntity
  8
DEFPOINTS
  6
Continuous
 62
     0
100
AcDbPoint
 10
496.9944274515269
 20
-310.0
 30
0.0
  0
ENDBLK
  5
99D7
330
99CC
100
AcDbEntity
  8
0
100
AcDbBlockEnd
  0
BLOCK
  5
99E2
330
99D8
100
AcDbEntity
  8
0
100
AcDbBlockBegin
  2
*D14
 70
     1
 10
0.0
 20
0.0
 30
0.0
  3
*D14
  1

  0
LINE
  5
DADD
330
99D8
100
AcDbEntity
  8
30
  6
Continuous
 62
     0
370
    -2
100
AcDbLine
 10
-70.20557254847259
 20
-224.8999999999993
 30
0.0
 11
-70.20557254847259
 21
-248.197937499999
 31
0.0
  0
LINE
  5
DADE
330
99D8
100
AcDbEntity
  8
30
  6
Continuous
 62
     0
370
    -2
100
AcDbLine
 10
69.79442745152717
 20
-224.8999999999993
 30
0.0
 11
69.79442745152717
 21
-248.197937499999
 31
0.0
  0
LINE
  5
DADF
330
99D8
100
AcDbEntity
  8
30
  6
Continuous
 62
     0
370
    -2
100
AcDbLine
 10
-68.20557254847256
 20
-247.6979374999991
 30
0.0
 11
67.79442745152717
 21
-247.6979374999991
 31
0.0
  0
INSERT
  5
DAE0
330
99D8
100
AcDbEntity
  8
30
  6
Continuous
 62
     0
370
    -2
100
AcDbBlockReference
  2
_OPEN
 10
-70.20557254847259
 20
-247.6979374999991
 30
0.0
 41
2.0
 42
2.0
 43
2.0
 50
180.0
  0
INSERT
  5
DAE1
330
99D8
100
AcDbEntity
  8
30
  6
Continuous
 62
     0
370
    -2
100
AcDbBlockReference
  2
_OPEN
 10
69.79442745152717
 20
-247.6979374999991
 30
0.0
 41
2.0
 42
2.0
 43
2.0
  0
MTEXT
  5
DAE2
330
99D8
100
AcDbEntity
  8
30
  6
Continuous
 62
     0
100
AcDbMText
 10
-0.2055725484727016
 20
-241.6979374999991
 30
0.0
 40
6.0
 41
0.0
 71
     5
 72
     1
  1
\A1; 140 
 73
     1
 44
1.0
1001
ACAD
1000
MTEXTBEGIN
1070
    73
1070
     1
1070
    44
1040
1.0
1070
    74
1070
     0
1000
MTEXTEND
  0
POINT
  5
DAE3
330
99D8
100
AcDbEntity
  8
DEFPOINTS
  6
Continuous
 62
     0
100
AcDbPoint
 10
-70.20557254847259
 20
-221.8999999999993
 30
0.0
  0
POINT
  5
DAE4
330
99D8
100
AcDbEntity
  8
DEFPOINTS
  6
Continuous
 62
     0
100
AcDbPoint
 10
69.79442745152717
 20
-221.8999999999993
 30
0.0
  0
POINT
  5
DAE5
330
99D8
100
AcDbEntity
  8
DEFPOINTS
  6
Continuous
 62
     0
100
AcDbPoint
 10
69.79442745152717
 20
-247.6979374999991
 30
0.0
  0
ENDBLK
  5
99E3
330
99D8
100
AcDbEntity
  8
0
100
AcDbBlockEnd
  0
BLOCK
  5
99EE
330
99E4
100
AcDbEntity
  8
0
100
AcDbBlockBegin
  2
*D15
 70
     1
 10
0.0
 20
0.0
 30
0.0
  3
*D15
  1

  0
LINE
  5
DAD4
330
99E4
100
AcDbEntity
  8
30
  6
Continuous
 62
     0
370
    -2
100
AcDbLine
 10
-105.0055725484724
 20
-134.9999999999995
 30
0.0
 11
-105.0055725484724
 21
-279.8973356080582
 31
0.0
  0
LINE
  5
DAD5
330
99E4
100
AcDbEntity
  8
30
  6
Continuous
 62
     0
370
    -2
100
AcDbLine
 10
104.9944274515266
 20
-134.9999999999995
 30
0.0
 11
104.9944274515265
 21
-279.8973356080582
 31
0.0
  0
LINE
  5
DAD6
330
99E4
100
AcDbEntity
  8
30
  6
Continuous
 62
     0
370
    -2
100
AcDbLine
 10
-103.0055725484725
 20
-279.3973356080582
 30
0.0
 11
102.9944274515269
 21
-279.3973356080582
 31
0.0
  0
INSERT
  5
DAD7
330
99E4
100
AcDbEntity
  8
30
  6
Continuous
 62
     0
370
    -2
100
AcDbBlockReference
  2
_OPEN
 10
-105.0055725484724
 20
-279.3973356080582
 30
0.0
 41
2.0
 42
2.0
 43
2.0
 50
180.0
  0
INSERT
  5
DAD8
330
99E4
100
AcDbEntity
  8
30
  6
Continuous
 62
     0
370
    -2
100
AcDbBlockReference
  2
_OPEN
 10
104.9944274515265
 20
-279.3973356080582
 30
0.0
 41
2.0
 42
2.0
 43
2.0
  0
MTEXT
  5
DAD9
330
99E4
100
AcDbEntity
  8
30
  6
Continuous
 62
     0
100
AcDbMText
 10
-0.0055725484727983
 20
-273.3973356080582
 30
0.0
 40
6.0
 41
0.0
 71
     5
 72
     1
  1
\A1; 210 
 73
     1
 44
1.0
1001
ACAD
1000
MTEXTBEGIN
1070
    73
1070
     1
1070
    44
1040
1.0
1070
    74
1070
     0
1000
MTEXTEND
  0
POINT
  5
DADA
330
99E4
100
AcDbEntity
  8
DEFPOINTS
  6
Continuous
 62
     0
100
AcDbPoint
 10
-105.0055725484724
 20
-131.9999999999995
 30
0.0
  0
POINT
  5
DADB
330
99E4
100
AcDbEntity
  8
DEFPOINTS
  6
Continuous
 62
     0
100
AcDbPoint
 10
104.9944274515266
 20
-131.9999999999995
 30
0.0
  0
POINT
  5
DADC
330
99E4
100
AcDbEntity
  8
DEFPOINTS
  6
Continuous
 62
     0
100
AcDbPoint
 10
104.9944274515265
 20
-279.3973356080582
 30
0.0
  0
ENDBLK
  5
99EF
330
99E4
100
AcDbEntity
  8
0
100
AcDbBlockEnd
  0
BLOCK
  5
9A5D
330
9A53
100
AcDbEntity
  8
0
100
AcDbBlockBegin
  2
*D16
 70
     1
 10
0.0
 20
0.0
 30
0.0
  3
*D16
  1

  0
LINE
  5
DACB
330
9A53
100
AcDbEntity
  8
30
  6
Continuous
 62
     0
370
    -2
100
AcDbLine
 10
351.9944274515277
 20
2.000000000000145
 30
0.0
 11
351.9944274515277
 21
-310.4999999999999
 31
0.0
  0
LINE
  5
DACC
330
9A53
100
AcDbEntity
  8
30
  6
Continuous
 62
     0
370
    -2
100
AcDbLine
 10
271.4933574515274
 20
2.000000000000145
 30
0.0
 11
271.4933574515274
 21
-310.4999999999999
 31
0.0
  0
LINE
  5
DACD
330
9A53
100
AcDbEntity
  8
30
  6
Continuous
 62
     0
370
    -2
100
AcDbLine
 10
349.9944274515279
 20
-310.0
 30
0.0
 11
273.4933574515274
 21
-310.0
 31
0.0
  0
INSERT
  5
DACE
330
9A53
100
AcDbEntity
  8
30
  6
Continuous
 62
     0
370
    -2
100
AcDbBlockReference
  2
_OPEN
 10
351.9944274515277
 20
-310.0
 30
0.0
 41
2.0
 42
2.0
 43
2.0
  0
INSERT
  5
DACF
330
9A53
100
AcDbEntity
  8
30
  6
Continuous
 62
     0
370
    -2
100
AcDbBlockReference
  2
_OPEN
 10
271.4933574515274
 20
-310.0
 30
0.0
 41
2.0
 42
2.0
 43
2.0
 50
180.0
  0
MTEXT
  5
DAD0
330
9A53
100
AcDbEntity
  8
30
  6
Continuous
 62
     0
100
AcDbMText
 10
311.7438924515278
 20
-304.0
 30
0.0
 40
6.0
 41
0.0
 71
     5
 72
     1
  1
\A1; 80.5 
 73
     1
 44
1.0
1001
ACAD
1000
MTEXTBEGIN
1070
    73
1070
     1
1070
    44
1040
1.0
1070
    74
1070
     0
1000
MTEXTEND
  0
POINT
  5
DAD1
330
9A53
100
AcDbEntity
  8
DEFPOINTS
  6
Continuous
 62
     0
100
AcDbPoint
 10
351.9944274515277
 20
5.000000000000143
 30
0.0
  0
POINT
  5
DAD2
330
9A53
100
AcDbEntity
  8
DEFPOINTS
  6
Continuous
 62
     0
100
AcDbPoint
 10
271.4933574515274
 20
5.000000000000143
 30
0.0
  0
POINT
  5
DAD3
330
9A53
100
AcDbEntity
  8
DEFPOINTS
  6
Continuous
 62
     0
100
AcDbPoint
 10
271.4933574515274
 20
-310.0
 30
0.0
  0
ENDBLK
  5
9A5E
330
9A53
100
AcDbEntity
  8
0
100
AcDbBlockEnd
  0
BLOCK
  5
9A69
330
9A5F
100
AcDbEntity
  8
0
100
AcDbBlockBegin
  2
*D17
 70
     1
 10
0.0
 20
0.0
 30
0.0
  3
*D17
  1

  0
LINE
  5
DAC2
330
9A5F
100
AcDbEntity
  8
30
  6
Continuous
 62
     0
370
    -2
100
AcDbLine
 10
49.79442745152717
 20
-219.8999999999993
 30
0.0
 11
49.79442745152717
 21
-231.3250754595471
 31
0.0
  0
LINE
  5
DAC3
330
9A5F
100
AcDbEntity
  8
30
  6
Continuous
 62
     0
370
    -2
100
AcDbLine
 10
89.7944274515272
 20
-219.8999999999993
 30
0.0
 11
89.7944274515272
 21
-231.3250754595471
 31
0.0
  0
LINE
  5
DAC4
330
9A5F
100
AcDbEntity
  8
30
  6
Continuous
 62
     0
370
    -2
100
AcDbLine
 10
51.79442745152718
 20
-230.8250754595472
 30
0.0
 11
87.79442745152719
 21
-230.8250754595472
 31
0.0
  0
INSERT
  5
DAC5
330
9A5F
100
AcDbEntity
  8
30
  6
Continuous
 62
     0
370
    -2
100
AcDbBlockReference
  2
_OPEN
 10
49.79442745152717
 20
-230.8250754595472
 30
0.0
 41
2.0
 42
2.0
 43
2.0
 50
180.0
  0
INSERT
  5
DAC6
330
9A5F
100
AcDbEntity
  8
30
  6
Continuous
 62
     0
370
    -2
100
AcDbBlockReference
  2
_OPEN
 10
89.7944274515272
 20
-230.8250754595472
 30
0.0
 41
2.0
 42
2.0
 43
2.0
  0
MTEXT
  5
DAC7
330
9A5F
100
AcDbEntity
  8
30
  6
Continuous
 62
     0
100
AcDbMText
 10
69.79442745152717
 20
-224.8250754595471
 30
0.0
 40
6.0
 41
0.0
 71
     5
 72
     1
  1
\A1; 40 
 73
     1
 44
1.0
1001
ACAD
1000
MTEXTBEGIN
1070
    73
1070
     1
1070
    44
1040
1.0
1070
    74
1070
     0
1000
MTEXTEND
  0
POINT
  5
DAC8
330
9A5F
100
AcDbEntity
  8
DEFPOINTS
  6
Continuous
 62
     0
100
AcDbPoint
 10
49.79442745152717
 20
-216.8999999999993
 30
0.0
  0
POINT
  5
DAC9
330
9A5F
100
AcDbEntity
  8
DEFPOINTS
  6
Continuous
 62
     0
100
AcDbPoint
 10
89.7944274515272
 20
-216.8999999999993
 30
0.0
  0
POINT
  5
DACA
330
9A5F
100
AcDbEntity
  8
DEFPOINTS
  6
Continuous
 62
     0
100
AcDbPoint
 10
89.7944274515272
 20
-230.8250754595472
 30
0.0
  0
ENDBLK
  5
9A6A
330
9A5F
100
AcDbEntity
  8
0
100
AcDbBlockEnd
  0
BLOCK
  5
9A82
330
9A78
100
AcDbEntity
  8
0
100
AcDbBlockBegin
  2
*D18
 70
     1
 10
0.0
 20
0.0
 30
0.0
  3
*D18
  1

  0
LINE
  5
DAB9
330
9A78
100
AcDbEntity
  8
30
  6
Continuous
 62
     0
370
    -2
100
AcDbLine
 10
-25.50557254847253
 20
-52.99999999999975
 30
0.0
 11
-25.50557254847253
 21
-72.5958749999997
 31
0.0
  0
LINE
  5
DABA
330
9A78
100
AcDbEntity
  8
30
  6
Continuous
 62
     0
370
    -2
100
AcDbLine
 10
25.49442745152744
 20
-52.99999999999975
 30
0.0
 11
25.49442745152744
 21
-72.5958749999997
 31
0.0
  0
LINE
  5
DABB
330
9A78
100
AcDbEntity
  8
30
  6
Continuous
 62
     0
370
    -2
100
AcDbLine
 10
-23.50557254847253
 20
-72.09587499999971
 30
0.0
 11
23.49442745152744
 21
-72.09587499999971
 31
0.0
  0
INSERT
  5
DABC
330
9A78
100
AcDbEntity
  8
30
  6
Continuous
 62
     0
370
    -2
100
AcDbBlockReference
  2
_OPEN
 10
-25.50557254847253
 20
-72.09587499999971
 30
0.0
 41
2.0
 42
2.0
 43
2.0
 50
180.0
  0
INSERT
  5
DABD
330
9A78
100
AcDbEntity
  8
30
  6
Continuous
 62
     0
370
    -2
100
AcDbBlockReference
  2
_OPEN
 10
25.49442745152744
 20
-72.09587499999971
 30
0.0
 41
2.0
 42
2.0
 43
2.0
  0
MTEXT
  5
DABE
330
9A78
100
AcDbEntity
  8
30
  6
Continuous
 62
     0
100
AcDbMText
 10
-0.0055725484725425
 20
-66.09587499999971
 30
0.0
 40
6.0
 41
0.0
 71
     5
 72
     1
  1
\A1; 51 
 73
     1
 44
1.0
1001
ACAD
1000
MTEXTBEGIN
1070
    73
1070
     1
1070
    44
1040
1.0
1070
    74
1070
     0
1000
MTEXTEND
  0
POINT
  5
DABF
330
9A78
100
AcDbEntity
  8
DEFPOINTS
  6
Continuous
 62
     0
100
AcDbPoint
 10
-25.50557254847253
 20
-49.99999999999976
 30
0.0
  0
POINT
  5
DAC0
330
9A78
100
AcDbEntity
  8
DEFPOINTS
  6
Continuous
 62
     0
100
AcDbPoint
 10
25.49442745152744
 20
-49.99999999999976
 30
0.0
  0
POINT
  5
DAC1
330
9A78
100
AcDbEntity
  8
DEFPOINTS
  6
Continuous
 62
     0
100
AcDbPoint
 10
25.49442745152744
 20
-72.09587499999971
 30
0.0
  0
ENDBLK
  5
9A83
330
9A78
100
AcDbEntity
  8
0
100
AcDbBlockEnd
  0
BLOCK
  5
9F2D
330
9F26
100
AcDbEntity
  8
0
100
AcDbBlockBegin
  2
*D19
 70
     1
 10
0.0
 20
0.0
 30
0.0
  3
*D19
  1

  0
LINE
  5
DA44
330
9F26
100
AcDbEntity
  8
30
  6
Continuous
 62
     0
370
    -2
100
AcDbLine
 10
324.2617110559302
 20
-466.8889189341594
 30
0.0
 11
331.9138740087681
 21
-479.8496896549528
 31
0.0
  0
LINE
  5
DA45
330
9F26
100
AcDbEntity
  8
30
  6
Continuous
 62
     0
370
    -2
100
AcDbLine
 10
331.9138740087681
 20
-479.8496896549528
 30
0.0
 11
344.9138740087683
 21
-479.8496896549528
 31
0.0
  0
INSERT
  5
DA46
330
9F26
100
AcDbEntity
  8
30
  6
Continuous
 62
     0
370
    -2
100
AcDbBlockReference
  2
_OPEN
 10
323.2448901548302
 20
-465.16668920062
 30
0.0
 41
2.0
 42
2.0
 43
2.0
 50
120.5580085412219
  0
MTEXT
  5
DA47
330
9F26
100
AcDbEntity
  8
30
  6
Continuous
 62
     0
100
AcDbMText
 10
339.9138740087682
 20
-473.8496896549528
 30
0.0
 40
6.0
 41
0.0
 71
     5
 72
     1
  1
\A1;R6
 73
     1
 44
1.0
1001
ACAD
1000
MTEXTBEGIN
1070
    73
1070
     1
1070
    44
1040
1.0
1070
    74
1070
     0
1000
MTEXTEND
  0
LINE
  5
DA48
330
9F26
100
AcDbEntity
  8
30
  6
Continuous
 62
     0
370
    -2
100
AcDbLine
 10
320.1044274515296
 20
-460.0000000000003
 30
0.0
 11
320.2844274515295
 21
-460.0000000000003
 31
0.0
  0
LINE
  5
DA49
330
9F26
100
AcDbEntity
  8
30
  6
Continuous
 62
     0
370
    -2
100
AcDbLine
 10
320.1944274515296
 20
-460.0900000000001
 30
0.0
 11
320.1944274515295
 21
-459.9100000000003
 31
0.0
  0
POINT
  5
DA4A
330
9F26
100
AcDbEntity
  8
DEFPOINTS
  6
Continuous
 62
     0
100
AcDbPoint
 10
323.2448901548302
 20
-465.16668920062
 30
0.0
  0
POINT
  5
DA4B
330
9F26
100
AcDbEntity
  8
DEFPOINTS
  6
Continuous
 62
     0
100
AcDbPoint
 10
320.1944274515295
 20
-460.0000000000003
 30
0.0
  0
ENDBLK
  5
9F2E
330
9F26
100
AcDbEntity
  8
0
100
AcDbBlockEnd
  0
BLOCK
  5
B32E
330
B324
100
AcDbEntity
  8
0
100
AcDbBlockBegin
  2
*D20
 70
     1
 10
0.0
 20
0.0
 30
0.0
  3
*D20
  1

  0
LINE
  5
DB77
330
B324
100
AcDbEntity
  8
30
  6
Continuous
 62
     0
370
    -2
100
AcDbLine
 10
-98.00557254847207
 20
-211.9769880179239
 30
0.0
 11
-170.5510099086689
 21
-211.9769880179239
 31
0.0
  0
LINE
  5
DB78
330
B324
100
AcDbEntity
  8
30
  6
Continuous
 62
     0
370
    -2
100
AcDbLine
 10
-108.0055725484724
 20
-131.9999999999995
 30
0.0
 11
-170.5510099086689
 21
-131.9999999999995
 31
0.0
  0
LINE
  5
DB79
330
B324
100
AcDbEntity
  8
30
  6
Continuous
 62
     0
370
    -2
100
AcDbLine
 10
-170.0510099086689
 20
-209.9769880179239
 30
0.0
 11
-170.0510099086689
 21
-133.9999999999995
 31
0.0
  0
INSERT
  5
DB7A
330
B324
100
AcDbEntity
  8
30
  6
Continuous
 62
     0
370
    -2
100
AcDbBlockReference
  2
_OPEN
 10
-170.0510099086689
 20
-211.9769880179239
 30
0.0
 41
2.0
 42
2.0
 43
2.0
 50
270.0
  0
INSERT
  5
DB7B
330
B324
100
AcDbEntity
  8
30
  6
Continuous
 62
     0
370
    -2
100
AcDbBlockReference
  2
_OPEN
 10
-170.0510099086689
 20
-131.9999999999995
 30
0.0
 41
2.0
 42
2.0
 43
2.0
 50
90.0
  0
MTEXT
  5
DB7C
330
B324
100
AcDbEntity
  8
30
  6
Continuous
 62
     0
100
AcDbMText
 10
-176.0510099086689
 20
-171.9884940089618
 30
0.0
 40
6.0
 41
0.0
 71
     5
 72
     1
  1
\A1; 80 
 11
0.0000000000000001
 21
1.0
 31
0.0
 73
     1
 44
1.0
1001
ACAD
1000
MTEXTBEGIN
1070
    73
1070
     1
1070
    44
1040
1.0
1070
    74
1070
     0
1000
MTEXTEND
  0
POINT
  5
DB7D
330
B324
100
AcDbEntity
  8
DEFPOINTS
  6
Continuous
 62
     0
100
AcDbPoint
 10
-95.00557254847207
 20
-211.9769880179239
 30
0.0
  0
POINT
  5
DB7E
330
B324
100
AcDbEntity
  8
DEFPOINTS
  6
Continuous
 62
     0
100
AcDbPoint
 10
-105.0055725484724
 20
-131.9999999999995
 30
0.0
  0
POINT
  5
DB7F
330
B324
100
AcDbEntity
  8
DEFPOINTS
  6
Continuous
 62
     0
100
AcDbPoint
 10
-170.0510099086689
 20
-131.9999999999995
 30
0.0
  0
ENDBLK
  5
B32F
330
B324
100
AcDbEntity
  8
0
100
AcDbBlockEnd
  0
BLOCK
  5
B33A
330
B330
100
AcDbEntity
  8
0
100
AcDbBlockBegin
  2
*D21
 70
     1
 10
0.0
 20
0.0
 30
0.0
  3
*D21
  1

  0
LINE
  5
DB4A
330
B330
100
AcDbEntity
  8
30
  6
Continuous
 62
     0
370
    -2
100
AcDbLine
 10
-108.0055725484724
 20
140.9999999999996
 30
0.0
 11
-150.2685001231192
 21
140.9999999999996
 31
0.0
  0
LINE
  5
DB4B
330
B330
100
AcDbEntity
  8
30
  6
Continuous
 62
     0
370
    -2
100
AcDbLine
 10
-133.1198679701443
 20
0.0000000000000121
 30
0.0
 11
-150.2685001231192
 21
0.000000000000017
 31
0.0
  0
LINE
  5
DB4C
330
B330
100
AcDbEntity
  8
30
  6
Continuous
 62
     0
370
    -2
100
AcDbLine
 10
-149.7685001231189
 20
138.9999999999996
 30
0.0
 11
-149.7685001231189
 21
2.000000000000015
 31
0.0
  0
INSERT
  5
DB4D
330
B330
100
AcDbEntity
  8
30
  6
Continuous
 62
     0
370
    -2
100
AcDbBlockReference
  2
_OPEN
 10
-149.7685001231189
 20
140.9999999999996
 30
0.0
 41
2.0
 42
2.0
 43
2.0
 50
90.0
  0
INSERT
  5
DB4E
330
B330
100
AcDbEntity
  8
30
  6
Continuous
 62
     0
370
    -2
100
AcDbBlockReference
  2
_OPEN
 10
-149.7685001231189
 20
0.0000000000000169
 30
0.0
 41
2.0
 42
2.0
 43
2.0
 50
270.0
  0
MTEXT
  5
DB4F
330
B330
100
AcDbEntity
  8
30
  6
Continuous
 62
     0
100
AcDbMText
 10
-155.7685001231192
 20
70.49999999999984
 30
0.0
 40
6.0
 41
0.0
 71
     5
 72
     1
  1
\A1; 141 
 11
0.0000000000000001
 21
1.0
 31
0.0
 73
     1
 44
1.0
1001
ACAD
1000
MTEXTBEGIN
1070
    73
1070
     1
1070
    44
1040
1.0
1070
    74
1070
     0
1000
MTEXTEND
  0
POINT
  5
DB50
330
B330
100
AcDbEntity
  8
DEFPOINTS
  6
Continuous
 62
     0
100
AcDbPoint
 10
-105.0055725484724
 20
140.9999999999996
 30
0.0
  0
POINT
  5
DB51
330
B330
100
AcDbEntity
  8
DEFPOINTS
  6
Continuous
 62
     0
100
AcDbPoint
 10
-130.119867970144
 20
0.0000000000000113
 30
0.0
  0
POINT
  5
DB52
330
B330
100
AcDbEntity
  8
DEFPOINTS
  6
Continuous
 62
     0
100
AcDbPoint
 10
-149.7685001231189
 20
0.0000000000000169
 30
0.0
  0
ENDBLK
  5
B33B
330
B330
100
AcDbEntity
  8
0
100
AcDbBlockEnd
  0
BLOCK
  5
B346
330
B33C
100
AcDbEntity
  8
0
100
AcDbBlockBegin
  2
*D22
 70
     1
 10
0.0
 20
0.0
 30
0.0
  3
*D22
  1

  0
LINE
  5
DB6E
330
B33C
100
AcDbEntity
  8
30
  6
Continuous
 62
     0
370
    -2
100
AcDbLine
 10
-108.0055725484724
 20
-131.9999999999995
 30
0.0
 11
-170.5510099086689
 21
-131.9999999999995
 31
0.0
  0
LINE
  5
DB6F
330
B33C
100
AcDbEntity
  8
30
  6
Continuous
 62
     0
370
    -2
100
AcDbLine
 10
-108.0055725484724
 20
140.9999999999996
 30
0.0
 11
-170.5510099086689
 21
140.9999999999996
 31
0.0
  0
LINE
  5
DB70
330
B33C
100
AcDbEntity
  8
30
  6
Continuous
 62
     0
370
    -2
100
AcDbLine
 10
-170.0510099086689
 20
-129.9999999999995
 30
0.0
 11
-170.0510099086689
 21
138.9999999999996
 31
0.0
  0
INSERT
  5
DB71
330
B33C
100
AcDbEntity
  8
30
  6
Continuous
 62
     0
370
    -2
100
AcDbBlockReference
  2
_OPEN
 10
-170.0510099086689
 20
-131.9999999999995
 30
0.0
 41
2.0
 42
2.0
 43
2.0
 50
270.0
  0
INSERT
  5
DB72
330
B33C
100
AcDbEntity
  8
30
  6
Continuous
 62
     0
370
    -2
100
AcDbBlockReference
  2
_OPEN
 10
-170.0510099086689
 20
140.9999999999996
 30
0.0
 41
2.0
 42
2.0
 43
2.0
 50
90.0
  0
MTEXT
  5
DB73
330
B33C
100
AcDbEntity
  8
30
  6
Continuous
 62
     0
100
AcDbMText
 10
-176.051009908669
 20
4.500000000000048
 30
0.0
 40
6.0
 41
0.0
 71
     5
 72
     1
  1
\A1; 273 
 11
0.0000000000000001
 21
1.0
 31
0.0
 73
     1
 44
1.0
1001
ACAD
1000
MTEXTBEGIN
1070
    73
1070
     1
1070
    44
1040
1.0
1070
    74
1070
     0
1000
MTEXTEND
  0
POINT
  5
DB74
330
B33C
100
AcDbEntity
  8
DEFPOINTS
  6
Continuous
 62
     0
100
AcDbPoint
 10
-105.0055725484724
 20
-131.9999999999995
 30
0.0
  0
POINT
  5
DB75
330
B33C
100
AcDbEntity
  8
DEFPOINTS
  6
Continuous
 62
     0
100
AcDbPoint
 10
-105.0055725484724
 20
140.9999999999996
 30
0.0
  0
POINT
  5
DB76
330
B33C
100
AcDbEntity
  8
DEFPOINTS
  6
Continuous
 62
     0
100
AcDbPoint
 10
-170.0510099086689
 20
140.9999999999996
 30
0.0
  0
ENDBLK
  5
B347
330
B33C
100
AcDbEntity
  8
0
100
AcDbBlockEnd
  0
BLOCK
  5
B352
330
B348
100
AcDbEntity
  8
0
100
AcDbBlockBegin
  2
*D23
 70
     1
 10
0.0
 20
0.0
 30
0.0
  3
*D23
  1

  0
LINE
  5
DB26
330
B348
100
AcDbEntity
  8
30
  6
Continuous
 62
     0
370
    -2
100
AcDbLine
 10
-133.6198679701441
 20
0.0000000000000122
 30
0.0
 11
-150.2685001231192
 21
0.000000000000017
 31
0.0
  0
LINE
  5
DB27
330
B348
100
AcDbEntity
  8
30
  6
Continuous
 62
     0
370
    -2
100
AcDbLine
 10
-108.0055725484724
 20
-131.9999999999995
 30
0.0
 11
-150.2685001231192
 21
-131.9999999999995
 31
0.0
  0
LINE
  5
DB28
330
B348
100
AcDbEntity
  8
30
  6
Continuous
 62
     0
370
    -2
100
AcDbLine
 10
-149.7685001231189
 20
-1.99999999999998
 30
0.0
 11
-149.7685001231189
 21
-129.9999999999995
 31
0.0
  0
INSERT
  5
DB29
330
B348
100
AcDbEntity
  8
30
  6
Continuous
 62
     0
370
    -2
100
AcDbBlockReference
  2
_OPEN
 10
-149.7685001231189
 20
0.0000000000000168
 30
0.0
 41
2.0
 42
2.0
 43
2.0
 50
90.0
  0
INSERT
  5
DB2A
330
B348
100
AcDbEntity
  8
30
  6
Continuous
 62
     0
370
    -2
100
AcDbBlockReference
  2
_OPEN
 10
-149.7685001231189
 20
-131.9999999999995
 30
0.0
 41
2.0
 42
2.0
 43
2.0
 50
270.0
  0
MTEXT
  5
DB2B
330
B348
100
AcDbEntity
  8
30
  6
Continuous
 62
     0
100
AcDbMText
 10
-155.7685001231192
 20
-65.9999999999998
 30
0.0
 40
6.0
 41
0.0
 71
     5
 72
     1
  1
\A1; 132 
 11
0.0000000000000001
 21
1.0
 31
0.0
 73
     1
 44
1.0
1001
ACAD
1000
MTEXTBEGIN
1070
    73
1070
     1
1070
    44
1040
1.0
1070
    74
1070
     0
1000
MTEXTEND
  0
POINT
  5
DB2C
330
B348
100
AcDbEntity
  8
DEFPOINTS
  6
Continuous
 62
     0
100
AcDbPoint
 10
-130.6198679701443
 20
0.0000000000000114
 30
0.0
  0
POINT
  5
DB2D
330
B348
100
AcDbEntity
  8
DEFPOINTS
  6
Continuous
 62
     0
100
AcDbPoint
 10
-105.0055725484724
 20
-131.9999999999995
 30
0.0
  0
POINT
  5
DB2E
330
B348
100
AcDbEntity
  8
DEFPOINTS
  6
Continuous
 62
     0
100
AcDbPoint
 10
-149.7685001231189
 20
-131.9999999999995
 30
0.0
  0
ENDBLK
  5
B353
330
B348
100
AcDbEntity
  8
0
100
AcDbBlockEnd
  0
BLOCK
  5
B35E
330
B354
100
AcDbEntity
  8
0
100
AcDbBlockBegin
  2
*D24
 70
     1
 10
0.0
 20
0.0
 30
0.0
  3
*D24
  1

  0
LINE
  5
DB80
330
B354
100
AcDbEntity
  8
30
  6
Continuous
 62
     0
370
    -2
100
AcDbLine
 10
-108.0055725484724
 20
140.9999999999996
 30
0.0
 11
-170.5510099086689
 21
140.9999999999996
 31
0.0
  0
LINE
  5
DB81
330
B354
100
AcDbEntity
  8
30
  6
Continuous
 62
     0
370
    -2
100
AcDbLine
 10
-98.00557254847207
 20
221.0230119820749
 30
0.0
 11
-170.5510099086689
 21
221.0230119820749
 31
0.0
  0
LINE
  5
DB82
330
B354
100
AcDbEntity
  8
30
  6
Continuous
 62
     0
370
    -2
100
AcDbLine
 10
-170.0510099086689
 20
142.9999999999995
 30
0.0
 11
-170.0510099086689
 21
219.0230119820748
 31
0.0
  0
INSERT
  5
DB83
330
B354
100
AcDbEntity
  8
30
  6
Continuous
 62
     0
370
    -2
100
AcDbBlockReference
  2
_OPEN
 10
-170.0510099086689
 20
140.9999999999996
 30
0.0
 41
2.0
 42
2.0
 43
2.0
 50
270.0
  0
INSERT
  5
DB84
330
B354
100
AcDbEntity
  8
30
  6
Continuous
 62
     0
370
    -2
100
AcDbBlockReference
  2
_OPEN
 10
-170.0510099086689
 20
221.0230119820749
 30
0.0
 41
2.0
 42
2.0
 43
2.0
 50
90.0
  0
MTEXT
  5
DB85
330
B354
100
AcDbEntity
  8
30
  6
Continuous
 62
     0
100
AcDbMText
 10
-176.051009908669
 20
181.0115059910371
 30
0.0
 40
6.0
 41
0.0
 71
     5
 72
     1
  1
\A1; 80 
 11
0.0000000000000001
 21
1.0
 31
0.0
 73
     1
 44
1.0
1001
ACAD
1000
MTEXTBEGIN
1070
    73
1070
     1
1070
    44
1040
1.0
1070
    74
1070
     0
1000
MTEXTEND
  0
POINT
  5
DB86
330
B354
100
AcDbEntity
  8
DEFPOINTS
  6
Continuous
 62
     0
100
AcDbPoint
 10
-105.0055725484724
 20
140.9999999999996
 30
0.0
  0
POINT
  5
DB87
330
B354
100
AcDbEntity
  8
DEFPOINTS
  6
Continuous
 62
     0
100
AcDbPoint
 10
-95.00557254847207
 20
221.0230119820749
 30
0.0
  0
POINT
  5
DB88
330
B354
100
AcDbEntity
  8
DEFPOINTS
  6
Continuous
 62
     0
100
AcDbPoint
 10
-170.0510099086689
 20
221.0230119820749
 30
0.0
  0
ENDBLK
  5
B35F
330
B354
100
AcDbEntity
  8
0
100
AcDbBlockEnd
  0
BLOCK
  5
B3BC
330
B3B2
100
AcDbEntity
  8
0
100
AcDbBlockBegin
  2
*D25
 70
     1
 10
0.0
 20
0.0
 30
0.0
  3
*D25
  1

  0
LINE
  5
DA0E
330
B3B2
100
AcDbEntity
  8
30
  6
Continuous
 62
     0
370
    -2
100
AcDbLine
 10
-108.0055725484724
 20
140.9999999999996
 30
0.0
 11
-105.5055725484725
 21
140.9999999999996
 31
0.0
  0
LINE
  5
DA0F
330
B3B2
100
AcDbEntity
  8
30
  6
Continuous
 62
     0
370
    -2
100
AcDbLine
 10
-45.20557254847235
 20
250.9999999999995
 30
0.0
 11
-105.5055725484721
 21
250.9999999999995
 31
0.0
  0
LINE
  5
DA10
330
B3B2
100
AcDbEntity
  8
30
  6
Continuous
 62
     0
370
    -2
100
AcDbLine
 10
-105.0055725484724
 20
142.9999999999995
 30
0.0
 11
-105.0055725484724
 21
248.9999999999995
 31
0.0
  0
INSERT
  5
DA11
330
B3B2
100
AcDbEntity
  8
30
  6
Continuous
 62
     0
370
    -2
100
AcDbBlockReference
  2
_OPEN
 10
-105.0055725484724
 20
140.9999999999996
 30
0.0
 41
2.0
 42
2.0
 43
2.0
 50
270.0
  0
INSERT
  5
DA12
330
B3B2
100
AcDbEntity
  8
30
  6
Continuous
 62
     0
370
    -2
100
AcDbBlockReference
  2
_OPEN
 10
-105.0055725484724
 20
250.9999999999995
 30
0.0
 41
2.0
 42
2.0
 43
2.0
 50
90.0
  0
MTEXT
  5
DA13
330
B3B2
100
AcDbEntity
  8
30
  6
Continuous
 62
     0
100
AcDbMText
 10
-111.0055725484724
 20
195.9999999999995
 30
0.0
 40
6.0
 41
0.0
 71
     5
 72
     1
  1
\A1; 110 
 11
0.0000000000000001
 21
1.0
 31
0.0
 73
     1
 44
1.0
1001
ACAD
1000
MTEXTBEGIN
1070
    73
1070
     1
1070
    44
1040
1.0
1070
    74
1070
     0
1000
MTEXTEND
  0
POINT
  5
DA14
330
B3B2
100
AcDbEntity
  8
DEFPOINTS
  6
Continuous
 62
     0
100
AcDbPoint
 10
-105.0055725484724
 20
140.9999999999996
 30
0.0
  0
POINT
  5
DA15
330
B3B2
100
AcDbEntity
  8
DEFPOINTS
  6
Continuous
 62
     0
100
AcDbPoint
 10
-42.20557254847236
 20
250.9999999999995
 30
0.0
  0
POINT
  5
DA16
330
B3B2
100
AcDbEntity
  8
DEFPOINTS
  6
Continuous
 62
     0
100
AcDbPoint
 10
-105.0055725484724
 20
250.9999999999995
 30
0.0
  0
ENDBLK
  5
B3BD
330
B3B2
100
AcDbEntity
  8
0
100
AcDbBlockEnd
  0
BLOCK
  5
B86E
330
B864
100
AcDbEntity
  8
0
100
AcDbBlockBegin
  2
*D26
 70
     1
 10
0.0
 20
0.0
 30
0.0
  3
*D26
  1

  0
LINE
  5
D9D8
330
B864
100
AcDbEntity
  8
30
  6
Continuous
 62
     0
370
    -2
100
AcDbLine
 10
92.9944274515272
 20
374.3231618618496
 30
0.0
 11
120.4960382445679
 21
374.3231618618496
 31
0.0
  0
LINE
  5
D9D9
330
B864
100
AcDbEntity
  8
30
  6
Continuous
 62
     0
370
    -2
100
AcDbLine
 10
92.9944274515272
 20
364.3231618618496
 30
0.0
 11
120.4960382445679
 21
364.3231618618496
 31
0.0
  0
LINE
  5
D9DA
330
B864
100
AcDbEntity
  8
30
  6
Continuous
 62
     0
370
    -2
100
AcDbLine
 10
119.9960382445679
 20
372.3231618618496
 30
0.0
 11
119.9960382445679
 21
366.3231618618496
 31
0.0
  0
MTEXT
  5
D9DB
330
B864
100
AcDbEntity
  8
30
  6
Continuous
 62
     0
100
AcDbMText
 10
115.0266388302429
 20
369.1656703716525
 30
0.0
 40
6.0
 41
0.0
 71
     5
 72
     1
  1
\A1;10
 11
0.0000000000000001
 21
1.0
 31
0.0
 73
     1
 44
1.0
1001
ACAD
1000
MTEXTBEGIN
1070
    73
1070
     1
1070
    44
1040
1.0
1070
    74
1070
     0
1000
MTEXTEND
  0
INSERT
  5
D9DC
330
B864
100
AcDbEntity
  8
30
  6
Continuous
 62
     0
370
    -2
100
AcDbBlockReference
  2
_OPEN
 10
119.9960382445679
 20
374.3231618618496
 30
0.0
 41
2.0
 42
2.0
 43
2.0
 50
90.0
  0
INSERT
  5
D9DD
330
B864
100
AcDbEntity
  8
30
  6
Continuous
 62
     0
370
    -2
100
AcDbBlockReference
  2
_OPEN
 10
119.9960382445679
 20
364.3231618618496
 30
0.0
 41
2.0
 42
2.0
 43
2.0
 50
270.0
  0
POINT
  5
D9DE
330
B864
100
AcDbEntity
  8
DEFPOINTS
  6
Continuous
 62
     0
100
AcDbPoint
 10
89.9944274515272
 20
374.3231618618496
 30
0.0
  0
POINT
  5
D9DF
330
B864
100
AcDbEntity
  8
DEFPOINTS
  6
Continuous
 62
     0
100
AcDbPoint
 10
89.9944274515272
 20
364.3231618618496
 30
0.0
  0
POINT
  5
D9E0
330
B864
100
AcDbEntity
  8
DEFPOINTS
  6
Continuous
 62
     0
100
AcDbPoint
 10
119.9960382445679
 20
364.3231618618496
 30
0.0
  0
ENDBLK
  5
B86F
330
B864
100
AcDbEntity
  8
0
100
AcDbBlockEnd
  0
BLOCK
  5
B87A
330
B870
100
AcDbEntity
  8
0
100
AcDbBlockBegin
  2
*D27
 70
     1
 10
0.0
 20
0.0
 30
0.0
  3
*D27
  1

  0
LINE
  5
D9E1
330
B870
100
AcDbEntity
  8
30
  6
Continuous
 62
     0
370
    -2
100
AcDbLine
 10
110.2881848063548
 20
408.3231618618495
 30
0.0
 11
120.4960382445679
 21
408.3231618618495
 31
0.0
  0
LINE
  5
D9E2
330
B870
100
AcDbEntity
  8
30
  6
Continuous
 62
     0
370
    -2
100
AcDbLine
 10
95.78818480635513
 20
374.3231618618496
 30
0.0
 11
120.4960382445679
 21
374.3231618618496
 31
0.0
  0
LINE
  5
D9E3
330
B870
100
AcDbEntity
  8
30
  6
Continuous
 62
     0
370
    -2
100
AcDbLine
 10
119.9960382445679
 20
406.3231618618495
 30
0.0
 11
119.9960382445679
 21
376.3231618618496
 31
0.0
  0
MTEXT
  5
D9E4
330
B870
100
AcDbEntity
  8
30
  6
Continuous
 62
     0
100
AcDbMText
 10
174.0296018703143
 20
392.6981378532842
 30
0.0
 40
6.0
 41
0.0
 71
     5
 72
     1
  1
\A1;ON SIDE 32\POFF SIDE 36
 73
     1
 44
1.0
1001
ACAD
1000
MTEXTBEGIN
1070
    73
1070
     1
1070
    44
1040
1.0
1070
    74
1070
     0
1000
MTEXTEND
  0
INSERT
  5
D9E5
330
B870
100
AcDbEntity
  8
30
  6
Continuous
 62
     0
370
    -2
100
AcDbBlockReference
  2
_OPEN
 10
119.9960382445679
 20
408.3231618618495
 30
0.0
 41
2.0
 42
2.0
 43
2.0
 50
90.0
  0
INSERT
  5
D9E6
330
B870
100
AcDbEntity
  8
30
  6
Continuous
 62
     0
370
    -2
100
AcDbBlockReference
  2
_OPEN
 10
119.9960382445679
 20
374.3231618618496
 30
0.0
 41
2.0
 42
2.0
 43
2.0
 50
270.0
  0
POINT
  5
D9E7
330
B870
100
AcDbEntity
  8
DEFPOINTS
  6
Continuous
 62
     0
100
AcDbPoint
 10
107.2881848063548
 20
408.3231618618495
 30
0.0
  0
POINT
  5
D9E8
330
B870
100
AcDbEntity
  8
DEFPOINTS
  6
Continuous
 62
     0
100
AcDbPoint
 10
92.78818480635512
 20
374.3231618618496
 30
0.0
  0
POINT
  5
D9E9
330
B870
100
AcDbEntity
  8
DEFPOINTS
  6
Continuous
 62
     0
100
AcDbPoint
 10
119.9960382445679
 20
374.3231618618496
 30
0.0
  0
ENDBLK
  5
B87B
330
B870
100
AcDbEntity
  8
0
100
AcDbBlockEnd
  0
BLOCK
  5
B886
330
B87C
100
AcDbEntity
  8
0
100
AcDbBlockBegin
  2
*D28
 70
     1
 10
0.0
 20
0.0
 30
0.0
  3
*D28
  1

  0
LINE
  5
D9FC
330
B87C
100
AcDbEntity
  8
30
  6
Continuous
 62
     0
370
    -2
100
AcDbLine
 10
-70.00758210867535
 20
377.3514423453848
 30
0.0
 11
-70.00758210867535
 21
429.0072763109678
 31
0.0
  0
LINE
  5
D9FD
330
B87C
100
AcDbEntity
  8
30
  6
Continuous
 62
     0
370
    -2
100
AcDbLine
 10
-0.0075821086755709
 20
377.3514423453848
 30
0.0
 11
-0.0075821086755677
 21
429.0072763109678
 31
0.0
  0
LINE
  5
D9FE
330
B87C
100
AcDbEntity
  8
30
  6
Continuous
 62
     0
370
    -2
100
AcDbLine
 10
-68.00758210867535
 20
428.5072763109678
 30
0.0
 11
-2.007582108675566
 21
428.5072763109678
 31
0.0
  0
INSERT
  5
D9FF
330
B87C
100
AcDbEntity
  8
30
  6
Continuous
 62
     0
370
    -2
100
AcDbBlockReference
  2
_OPEN
 10
-70.00758210867535
 20
428.5072763109678
 30
0.0
 41
2.0
 42
2.0
 43
2.0
 50
180.0
  0
INSERT
  5
DA00
330
B87C
100
AcDbEntity
  8
30
  6
Continuous
 62
     0
370
    -2
100
AcDbBlockReference
  2
_OPEN
 10
-0.0075821086755678
 20
428.5072763109678
 30
0.0
 41
2.0
 42
2.0
 43
2.0
  0
MTEXT
  5
DA01
330
B87C
100
AcDbEntity
  8
30
  6
Continuous
 62
     0
100
AcDbMText
 10
-35.00758210867545
 20
434.507276310968
 30
0.0
 40
6.0
 41
0.0
 71
     5
 72
     1
  1
\A1;70
 73
     1
 44
1.0
1001
ACAD
1000
MTEXTBEGIN
1070
    73
1070
     1
1070
    44
1040
1.0
1070
    74
1070
     0
1000
MTEXTEND
  0
POINT
  5
DA02
330
B87C
100
AcDbEntity
  8
DEFPOINTS
  6
Continuous
 62
     0
100
AcDbPoint
 10
-70.00758210867535
 20
374.3514423453849
 30
0.0
  0
POINT
  5
DA03
330
B87C
100
AcDbEntity
  8
DEFPOINTS
  6
Continuous
 62
     0
100
AcDbPoint
 10
-0.0075821086755711
 20
374.3514423453849
 30
0.0
  0
POINT
  5
DA04
330
B87C
100
AcDbEntity
  8
DEFPOINTS
  6
Continuous
 62
     0
100
AcDbPoint
 10
-0.0075821086755678
 20
428.5072763109678
 30
0.0
  0
ENDBLK
  5
B887
330
B87C
100
AcDbEntity
  8
0
100
AcDbBlockEnd
  0
BLOCK
  5
B892
330
B888
100
AcDbEntity
  8
0
100
AcDbBlockBegin
  2
*D29
 70
     1
 10
0.0
 20
0.0
 30
0.0
  3
*D29
  1

  0
LINE
  5
DA05
330
B888
100
AcDbEntity
  8
30
  6
Continuous
 62
     0
370
    -2
100
AcDbLine
 10
-105.0055725484724
 20
411.3231618618495
 30
0.0
 11
-105.0055725484724
 21
429.0072763109678
 31
0.0
  0
LINE
  5
DA06
330
B888
100
AcDbEntity
  8
30
  6
Continuous
 62
     0
370
    -2
100
AcDbLine
 10
-70.00758210867535
 20
377.3514423453848
 30
0.0
 11
-70.00758210867535
 21
429.0072763109678
 31
0.0
  0
LINE
  5
DA07
330
B888
100
AcDbEntity
  8
30
  6
Continuous
 62
     0
370
    -2
100
AcDbLine
 10
-103.0055725484724
 20
428.5072763109678
 30
0.0
 11
-72.0075821086753
 21
428.5072763109678
 31
0.0
  0
INSERT
  5
DA08
330
B888
100
AcDbEntity
  8
30
  6
Continuous
 62
     0
370
    -2
100
AcDbBlockReference
  2
_OPEN
 10
-105.0055725484724
 20
428.5072763109678
 30
0.0
 41
2.0
 42
2.0
 43
2.0
 50
180.0
  0
INSERT
  5
DA09
330
B888
100
AcDbEntity
  8
30
  6
Continuous
 62
     0
370
    -2
100
AcDbBlockReference
  2
_OPEN
 10
-70.00758210867535
 20
428.5072763109678
 30
0.0
 41
2.0
 42
2.0
 43
2.0
  0
MTEXT
  5
DA0A
330
B888
100
AcDbEntity
  8
30
  6
Continuous
 62
     0
100
AcDbMText
 10
-87.50657732857391
 20
434.507276310968
 30
0.0
 40
6.0
 41
0.0
 71
     5
 72
     1
  1
\A1;35
 73
     1
 44
1.0
1001
ACAD
1000
MTEXTBEGIN
1070
    73
1070
     1
1070
    44
1040
1.0
1070
    74
1070
     0
1000
MTEXTEND
  0
POINT
  5
DA0B
330
B888
100
AcDbEntity
  8
DEFPOINTS
  6
Continuous
 62
     0
100
AcDbPoint
 10
-105.0055725484724
 20
408.3231618618496
 30
0.0
  0
POINT
  5
DA0C
330
B888
100
AcDbEntity
  8
DEFPOINTS
  6
Continuous
 62
     0
100
AcDbPoint
 10
-70.00758210867535
 20
374.3514423453849
 30
0.0
  0
POINT
  5
DA0D
330
B888
100
AcDbEntity
  8
DEFPOINTS
  6
Continuous
 62
     0
100
AcDbPoint
 10
-70.00758210867535
 20
428.5072763109678
 30
0.0
  0
ENDBLK
  5
B893
330
B888
100
AcDbEntity
  8
0
100
AcDbBlockEnd
  0
BLOCK
  5
B89E
330
B894
100
AcDbEntity
  8
0
100
AcDbBlockBegin
  2
*D30
 70
     1
 10
0.0
 20
0.0
 30
0.0
  3
*D30
  1

  0
LINE
  5
D9F3
330
B894
100
AcDbEntity
  8
30
  6
Continuous
 62
     0
370
    -2
100
AcDbLine
 10
-0.0075821086755709
 20
377.3514423453848
 30
0.0
 11
-0.0075821086755677
 21
429.0072763109678
 31
0.0
  0
LINE
  5
D9F4
330
B894
100
AcDbEntity
  8
30
  6
Continuous
 62
     0
370
    -2
100
AcDbLine
 10
69.99032535114142
 20
380.3231618618496
 30
0.0
 11
69.99032535114142
 21
429.0072763109678
 31
0.0
  0
LINE
  5
D9F5
330
B894
100
AcDbEntity
  8
30
  6
Continuous
 62
     0
370
    -2
100
AcDbLine
 10
1.992417891324428
 20
428.5072763109678
 30
0.0
 11
67.99032535114142
 21
428.5072763109678
 31
0.0
  0
INSERT
  5
D9F6
330
B894
100
AcDbEntity
  8
30
  6
Continuous
 62
     0
370
    -2
100
AcDbBlockReference
  2
_OPEN
 10
-0.0075821086755678
 20
428.5072763109678
 30
0.0
 41
2.0
 42
2.0
 43
2.0
 50
180.0
  0
INSERT
  5
D9F7
330
B894
100
AcDbEntity
  8
30
  6
Continuous
 62
     0
370
    -2
100
AcDbBlockReference
  2
_OPEN
 10
69.99032535114142
 20
428.5072763109678
 30
0.0
 41
2.0
 42
2.0
 43
2.0
  0
MTEXT
  5
D9F8
330
B894
100
AcDbEntity
  8
30
  6
Continuous
 62
     0
100
AcDbMText
 10
34.99137162123293
 20
434.507276310968
 30
0.0
 40
6.0
 41
0.0
 71
     5
 72
     1
  1
\A1;70
 73
     1
 44
1.0
1001
ACAD
1000
MTEXTBEGIN
1070
    73
1070
     1
1070
    44
1040
1.0
1070
    74
1070
     0
1000
MTEXTEND
  0
POINT
  5
D9F9
330
B894
100
AcDbEntity
  8
DEFPOINTS
  6
Continuous
 62
     0
100
AcDbPoint
 10
-0.0075821086755711
 20
374.3514423453849
 30
0.0
  0
POINT
  5
D9FA
330
B894
100
AcDbEntity
  8
DEFPOINTS
  6
Continuous
 62
     0
100
AcDbPoint
 10
69.99032535114142
 20
377.3231618618495
 30
0.0
  0
POINT
  5
D9FB
330
B894
100
AcDbEntity
  8
DEFPOINTS
  6
Continuous
 62
     0
100
AcDbPoint
 10
69.99032535114142
 20
428.5072763109678
 30
0.0
  0
ENDBLK
  5
B89F
330
B894
100
AcDbEntity
  8
0
100
AcDbBlockEnd
  0
BLOCK
  5
B8AA
330
B8A0
100
AcDbEntity
  8
0
100
AcDbBlockBegin
  2
*D31
 70
     1
 10
0.0
 20
0.0
 30
0.0
  3
*D31
  1

  0
LINE
  5
D9EA
330
B8A0
100
AcDbEntity
  8
30
  6
Continuous
 62
     0
370
    -2
100
AcDbLine
 10
69.99032535114142
 20
377.3231618618495
 30
0.0
 11
69.99032535114142
 21
428.9789958274327
 31
0.0
  0
LINE
  5
D9EB
330
B8A0
100
AcDbEntity
  8
30
  6
Continuous
 62
     0
370
    -2
100
AcDbLine
 10
104.9944274515266
 20
411.3231618618494
 30
0.0
 11
104.9944274515266
 21
428.9789958274327
 31
0.0
  0
LINE
  5
D9EC
330
B8A0
100
AcDbEntity
  8
30
  6
Continuous
 62
     0
370
    -2
100
AcDbLine
 10
71.99032535114142
 20
428.4789958274327
 30
0.0
 11
102.9944274515269
 21
428.4789958274327
 31
0.0
  0
INSERT
  5
D9ED
330
B8A0
100
AcDbEntity
  8
30
  6
Continuous
 62
     0
370
    -2
100
AcDbBlockReference
  2
_OPEN
 10
69.99032535114142
 20
428.4789958274327
 30
0.0
 41
2.0
 42
2.0
 43
2.0
 50
180.0
  0
INSERT
  5
D9EE
330
B8A0
100
AcDbEntity
  8
30
  6
Continuous
 62
     0
370
    -2
100
AcDbBlockReference
  2
_OPEN
 10
104.9944274515266
 20
428.4789958274327
 30
0.0
 41
2.0
 42
2.0
 43
2.0
  0
MTEXT
  5
D9EF
330
B8A0
100
AcDbEntity
  8
30
  6
Continuous
 62
     0
100
AcDbMText
 10
87.49237640133417
 20
434.4789958274327
 30
0.0
 40
6.0
 41
0.0
 71
     5
 72
     1
  1
\A1;35
 73
     1
 44
1.0
1001
ACAD
1000
MTEXTBEGIN
1070
    73
1070
     1
1070
    44
1040
1.0
1070
    74
1070
     0
1000
MTEXTEND
  0
POINT
  5
D9F0
330
B8A0
100
AcDbEntity
  8
DEFPOINTS
  6
Continuous
 62
     0
100
AcDbPoint
 10
69.99032535114142
 20
374.3231618618496
 30
0.0
  0
POINT
  5
D9F1
330
B8A0
100
AcDbEntity
  8
DEFPOINTS
  6
Continuous
 62
     0
100
AcDbPoint
 10
104.9944274515266
 20
408.3231618618492
 30
0.0
  0
POINT
  5
D9F2
330
B8A0
100
AcDbEntity
  8
DEFPOINTS
  6
Continuous
 62
     0
100
AcDbPoint
 10
104.9944274515266
 20
428.4789958274327
 30
0.0
  0
ENDBLK
  5
B8AB
330
B8A0
100
AcDbEntity
  8
0
100
AcDbBlockEnd
  0
BLOCK
  5
BB8F
330
BB85
100
AcDbEntity
  8
0
100
AcDbBlockBegin
  2
*D32
 70
     1
 10
0.0
 20
0.0
 30
0.0
  3
*D32
  1

  0
LINE
  5
D9CF
330
BB85
100
AcDbEntity
  8
30
  6
Continuous
 62
     0
370
    -2
100
AcDbLine
 10
317.1944274515273
 20
-454.0
 30
0.0
 11
276.2416745707087
 21
-454.0
 31
0.0
  0
LINE
  5
D9D0
330
BB85
100
AcDbEntity
  8
30
  6
Continuous
 62
     0
370
    -2
100
AcDbLine
 10
317.1944274515273
 20
-546.0
 30
0.0
 11
276.2416745707087
 21
-546.0
 31
0.0
  0
LINE
  5
D9D1
330
BB85
100
AcDbEntity
  8
30
  6
Continuous
 62
     0
370
    -2
100
AcDbLine
 10
276.7416745707087
 20
-456.0
 30
0.0
 11
276.7416745707087
 21
-544.0
 31
0.0
  0
INSERT
  5
D9D2
330
BB85
100
AcDbEntity
  8
30
  6
Continuous
 62
     0
370
    -2
100
AcDbBlockReference
  2
_OPEN
 10
276.7416745707087
 20
-454.0
 30
0.0
 41
2.0
 42
2.0
 43
2.0
 50
90.0
  0
INSERT
  5
D9D3
330
BB85
100
AcDbEntity
  8
30
  6
Continuous
 62
     0
370
    -2
100
AcDbBlockReference
  2
_OPEN
 10
276.7416745707087
 20
-546.0
 30
0.0
 41
2.0
 42
2.0
 43
2.0
 50
270.0
  0
MTEXT
  5
D9D4
330
BB85
100
AcDbEntity
  8
30
  6
Continuous
 62
     0
100
AcDbMText
 10
270.7416745707087
 20
-499.9999999999998
 30
0.0
 40
6.0
 41
0.0
 71
     5
 72
     1
  1
\A1;92
 11
0.0000000000000001
 21
1.0
 31
0.0
 73
     1
 44
1.0
1001
ACAD
1000
MTEXTBEGIN
1070
    73
1070
     1
1070
    44
1040
1.0
1070
    74
1070
     0
1000
MTEXTEND
  0
POINT
  5
D9D5
330
BB85
100
AcDbEntity
  8
DEFPOINTS
  6
Continuous
 62
     0
100
AcDbPoint
 10
320.1944274515273
 20
-454.0
 30
0.0
  0
POINT
  5
D9D6
330
BB85
100
AcDbEntity
  8
DEFPOINTS
  6
Continuous
 62
     0
100
AcDbPoint
 10
320.1944274515273
 20
-546.0
 30
0.0
  0
POINT
  5
D9D7
330
BB85
100
AcDbEntity
  8
DEFPOINTS
  6
Continuous
 62
     0
100
AcDbPoint
 10
276.7416745707087
 20
-546.0
 30
0.0
  0
ENDBLK
  5
BB90
330
BB85
100
AcDbEntity
  8
0
100
AcDbBlockEnd
  0
BLOCK
  5
C02F
330
C026
100
AcDbEntity
  8
0
100
AcDbBlockBegin
  2
*D33
 70
     1
 10
0.0
 20
0.0
 30
0.0
  3
*D33
  1

  0
LINE
  5
D9C7
330
C026
100
AcDbEntity
  8
30
  6
Continuous
 62
     0
370
    -2
100
AcDbLine
 10
33.89361842448259
 20
-368.0680068192227
 30
0.0
 11
31.52243770705359
 21
-352.4533455271201
 31
0.0
  0
LINE
  5
D9C8
330
C026
100
AcDbEntity
  8
30
  6
Continuous
 62
     0
370
    -2
100
AcDbLine
 10
31.52243770705359
 20
-352.4533455271201
 30
0.0
 11
44.52243770705361
 21
-352.4533455271201
 31
0.0
  0
INSERT
  5
D9C9
330
C026
100
AcDbEntity
  8
30
  6
Continuous
 62
     0
370
    -2
100
AcDbBlockReference
  2
_OPEN
 10
34.19388810016435
 20
-370.0453378794819
 30
0.0
 41
2.0
 42
2.0
 43
2.0
 50
278.6347406869046
  0
MTEXT
  5
D9CA
102
{ACAD_XDICTIONARY
360
DFF6
102
}
330
C026
100
AcDbEntity
  8
30
  6
Continuous
 62
     0
100
AcDbMText
 10
39.5224377070536
 20
-346.4533455271201
 30
0.0
 40
6.0
 41
0.0
 71
     5
 72
     1
  1
\A1;\U+22058
 73
     1
 44
1.0
1001
ACAD
1000
MTEXTBEGIN
1070
    73
1070
     1
1070
    44
1040
1.0
1070
    74
1070
     0
1000
MTEXTEND
  0
LINE
  5
D9CB
330
C026
100
AcDbEntity
  8
30
  6
Continuous
 62
     0
370
    -2
100
AcDbLine
 10
34.70442745152787
 20
-374.0000000000004
 30
0.0
 11
34.88442745152787
 21
-374.0000000000004
 31
0.0
  0
LINE
  5
D9CC
330
C026
100
AcDbEntity
  8
30
  6
Continuous
 62
     0
370
    -2
100
AcDbLine
 10
34.79442745152786
 20
-374.0900000000003
 30
0.0
 11
34.79442745152786
 21
-373.9100000000003
 31
0.0
  0
POINT
  5
D9CD
330
C026
100
AcDbEntity
  8
DEFPOINTS
  6
Continuous
 62
     0
100
AcDbPoint
 10
34.19388810016435
 20
-370.0453378794819
 30
0.0
  0
POINT
  5
D9CE
330
C026
100
AcDbEntity
  8
DEFPOINTS
  6
Continuous
 62
     0
100
AcDbPoint
 10
35.39496680289136
 20
-377.9546621205188
 30
0.0
  0
ENDBLK
  5
C030
330
C026
100
AcDbEntity
  8
0
100
AcDbBlockEnd
  0
BLOCK
  5
C03C
330
C032
100
AcDbEntity
  8
0
100
AcDbBlockBegin
  2
*D34
 70
     1
 10
0.0
 20
0.0
 30
0.0
  3
*D34
  1

  0
LINE
  5
D9BE
330
C032
100
AcDbEntity
  8
30
  6
Continuous
 62
     0
370
    -2
100
AcDbLine
 10
-83.00557254847253
 20
44.99999999999988
 30
0.0
 11
-117.6925670423142
 21
44.99999999999989
 31
0.0
  0
LINE
  5
D9BF
330
C032
100
AcDbEntity
  8
30
  6
Continuous
 62
     0
370
    -2
100
AcDbLine
 10
-83.00557254847239
 20
-44.99999999999989
 30
0.0
 11
-117.6925670423142
 21
-44.99999999999988
 31
0.0
  0
LINE
  5
D9C0
330
C032
100
AcDbEntity
  8
30
  6
Continuous
 62
     0
370
    -2
100
AcDbLine
 10
-117.1925670423142
 20
42.99999999999989
 30
0.0
 11
-117.1925670423142
 21
-42.99999999999989
 31
0.0
  0
INSERT
  5
D9C1
330
C032
100
AcDbEntity
  8
30
  6
Continuous
 62
     0
370
    -2
100
AcDbBlockReference
  2
_OPEN
 10
-117.1925670423142
 20
44.99999999999989
 30
0.0
 41
2.0
 42
2.0
 43
2.0
 50
90.0
  0
INSERT
  5
D9C2
330
C032
100
AcDbEntity
  8
30
  6
Continuous
 62
     0
370
    -2
100
AcDbBlockReference
  2
_OPEN
 10
-117.1925670423142
 20
-44.99999999999988
 30
0.0
 41
2.0
 42
2.0
 43
2.0
 50
270.0
  0
MTEXT
  5
D9C3
330
C032
100
AcDbEntity
  8
30
  6
Continuous
 62
     0
100
AcDbMText
 10
-123.1925670423142
 20
-0.000000000000017
 30
0.0
 40
6.0
 41
0.0
 71
     5
 72
     1
  1
\A1;90
 11
0.0000000000000001
 21
1.0
 31
0.0
 73
     1
 44
1.0
1001
ACAD
1000
MTEXTBEGIN
1070
    73
1070
     1
1070
    44
1040
1.0
1070
    74
1070
     0
1000
MTEXTEND
  0
POINT
  5
D9C4
330
C032
100
AcDbEntity
  8
DEFPOINTS
  6
Continuous
 62
     0
100
AcDbPoint
 10
-80.00557254847253
 20
44.99999999999988
 30
0.0
  0
POINT
  5
D9C5
330
C032
100
AcDbEntity
  8
DEFPOINTS
  6
Continuous
 62
     0
100
AcDbPoint
 10
-80.0055725484724
 20
-44.99999999999989
 30
0.0
  0
POINT
  5
D9C6
330
C032
100
AcDbEntity
  8
DEFPOINTS
  6
Continuous
 62
     0
100
AcDbPoint
 10
-117.1925670423142
 20
-44.99999999999988
 30
0.0
  0
ENDBLK
  5
C03D
330
C032
100
AcDbEntity
  8
0
100
AcDbBlockEnd
  0
BLOCK
  5
C052
330
C048
100
AcDbEntity
  8
0
100
AcDbBlockBegin
  2
*D35
 70
     1
 10
0.0
 20
0.0
 30
0.0
  3
*D35
  1

  0
LINE
  5
DB02
330
C048
100
AcDbEntity
  8
30
  6
Continuous
 62
     0
370
    -2
100
AcDbLine
 10
-108.0055725484724
 20
55.49999999999985
 30
0.0
 11
-130.6198679701443
 21
55.49999999999985
 31
0.0
  0
LINE
  5
DB03
330
C048
100
AcDbEntity
  8
30
  6
Continuous
 62
     0
370
    -2
100
AcDbLine
 10
-92.3055725484725
 20
0.0000000000000008
 30
0.0
 11
-130.6198679701443
 21
0.0000000000000117
 31
0.0
  0
LINE
  5
DB04
330
C048
100
AcDbEntity
  8
30
  6
Continuous
 62
     0
370
    -2
100
AcDbLine
 10
-130.119867970144
 20
53.49999999999985
 30
0.0
 11
-130.119867970144
 21
2.000000000000011
 31
0.0
  0
INSERT
  5
DB05
330
C048
100
AcDbEntity
  8
30
  6
Continuous
 62
     0
370
    -2
100
AcDbBlockReference
  2
_OPEN
 10
-130.119867970144
 20
55.49999999999985
 30
0.0
 41
2.0
 42
2.0
 43
2.0
 50
90.0
  0
INSERT
  5
DB06
330
C048
100
AcDbEntity
  8
30
  6
Continuous
 62
     0
370
    -2
100
AcDbBlockReference
  2
_OPEN
 10
-130.119867970144
 20
0.0000000000000116
 30
0.0
 41
2.0
 42
2.0
 43
2.0
 50
270.0
  0
MTEXT
  5
DB07
330
C048
100
AcDbEntity
  8
30
  6
Continuous
 62
     0
100
AcDbMText
 10
-136.1198679701443
 20
27.74999999999991
 30
0.0
 40
6.0
 41
0.0
 71
     5
 72
     1
  1
\A1;55.5
 11
0.0000000000000001
 21
1.0
 31
0.0
 73
     1
 44
1.0
1001
ACAD
1000
MTEXTBEGIN
1070
    73
1070
     1
1070
    44
1040
1.0
1070
    74
1070
     0
1000
MTEXTEND
  0
POINT
  5
DB08
330
C048
100
AcDbEntity
  8
DEFPOINTS
  6
Continuous
 62
     0
100
AcDbPoint
 10
-105.0055725484724
 20
55.49999999999985
 30
0.0
  0
POINT
  5
DB09
330
C048
100
AcDbEntity
  8
DEFPOINTS
  6
Continuous
 62
     0
100
AcDbPoint
 10
-89.30557254847249
 20
0.0
 30
0.0
  0
POINT
  5
DB0A
330
C048
100
AcDbEntity
  8
DEFPOINTS
  6
Continuous
 62
     0
100
AcDbPoint
 10
-130.119867970144
 20
0.0000000000000116
 30
0.0
  0
ENDBLK
  5
C053
330
C048
100
AcDbEntity
  8
0
100
AcDbBlockEnd
  0
BLOCK
  5
C068
330
C05E
100
AcDbEntity
  8
0
100
AcDbBlockBegin
  2
*D36
 70
     1
 10
0.0
 20
0.0
 30
0.0
  3
*D36
  1

  0
LINE
  5
DB0B
330
C05E
100
AcDbEntity
  8
30
  6
Continuous
 62
     0
370
    -2
100
AcDbLine
 10
-108.0055725484724
 20
0.0000000000000052
 30
0.0
 11
-130.6333815362509
 21
0.0000000000000117
 31
0.0
  0
LINE
  5
DB0C
330
C05E
100
AcDbEntity
  8
30
  6
Continuous
 62
     0
370
    -2
100
AcDbLine
 10
-108.0055725484724
 20
-46.49999999999976
 30
0.0
 11
-130.6333815362509
 21
-46.49999999999975
 31
0.0
  0
LINE
  5
DB0D
330
C05E
100
AcDbEntity
  8
30
  6
Continuous
 62
     0
370
    -2
100
AcDbLine
 10
-130.133381536251
 20
-1.999999999999985
 30
0.0
 11
-130.133381536251
 21
-44.49999999999975
 31
0.0
  0
INSERT
  5
DB0E
330
C05E
100
AcDbEntity
  8
30
  6
Continuous
 62
     0
370
    -2
100
AcDbBlockReference
  2
_OPEN
 10
-130.133381536251
 20
0.0000000000000115
 30
0.0
 41
2.0
 42
2.0
 43
2.0
 50
90.0
  0
INSERT
  5
DB0F
330
C05E
100
AcDbEntity
  8
30
  6
Continuous
 62
     0
370
    -2
100
AcDbBlockReference
  2
_OPEN
 10
-130.133381536251
 20
-46.49999999999975
 30
0.0
 41
2.0
 42
2.0
 43
2.0
 50
270.0
  0
MTEXT
  5
DB10
330
C05E
100
AcDbEntity
  8
30
  6
Continuous
 62
     0
100
AcDbMText
 10
-136.1333815362509
 20
-23.24999999999989
 30
0.0
 40
6.0
 41
0.0
 71
     5
 72
     1
  1
\A1;46.5
 11
0.0000000000000001
 21
1.0
 31
0.0
 73
     1
 44
1.0
1001
ACAD
1000
MTEXTBEGIN
1070
    73
1070
     1
1070
    44
1040
1.0
1070
    74
1070
     0
1000
MTEXTEND
  0
POINT
  5
DB11
330
C05E
100
AcDbEntity
  8
DEFPOINTS
  6
Continuous
 62
     0
100
AcDbPoint
 10
-105.0055725484724
 20
0.0000000000000044
 30
0.0
  0
POINT
  5
DB12
330
C05E
100
AcDbEntity
  8
DEFPOINTS
  6
Continuous
 62
     0
100
AcDbPoint
 10
-105.0055725484724
 20
-46.49999999999976
 30
0.0
  0
POINT
  5
DB13
330
C05E
100
AcDbEntity
  8
DEFPOINTS
  6
Continuous
 62
     0
100
AcDbPoint
 10
-130.133381536251
 20
-46.49999999999975
 30
0.0
  0
ENDBLK
  5
C069
330
C05E
100
AcDbEntity
  8
0
100
AcDbBlockEnd
  0
BLOCK
  5
C588
330
C57E
100
AcDbEntity
  8
0
100
AcDbBlockBegin
  2
*D37
 70
     1
 10
0.0
 20
0.0
 30
0.0
  3
*D37
  1

  0
LINE
  5
D9A3
330
C57E
100
AcDbEntity
  8
30
  6
Continuous
 62
     0
370
    -2
100
AcDbLine
 10
461.1257251614508
 20
-220.6622137404576
 30
0.0
 11
461.1257251614508
 21
-230.3221017547435
 31
0.0
  0
LINE
  5
D9A4
330
C57E
100
AcDbEntity
  8
30
  6
Continuous
 62
     0
370
    -2
100
AcDbLine
 10
497.0944274515272
 20
-140.5095419847322
 30
0.0
 11
497.0944274515272
 21
-230.3221017547435
 31
0.0
  0
LINE
  5
D9A5
330
C57E
100
AcDbEntity
  8
30
  6
Continuous
 62
     0
370
    -2
100
AcDbLine
 10
463.1257251614508
 20
-229.8221017547434
 30
0.0
 11
495.0944274515271
 21
-229.8221017547434
 31
0.0
  0
INSERT
  5
D9A6
330
C57E
100
AcDbEntity
  8
30
  6
Continuous
 62
     0
370
    -2
100
AcDbBlockReference
  2
_OPEN
 10
461.1257251614508
 20
-229.8221017547434
 30
0.0
 41
2.0
 42
2.0
 43
2.0
 50
180.0
  0
INSERT
  5
D9A7
330
C57E
100
AcDbEntity
  8
30
  6
Continuous
 62
     0
370
    -2
100
AcDbBlockReference
  2
_OPEN
 10
497.0944274515272
 20
-229.8221017547434
 30
0.0
 41
2.0
 42
2.0
 43
2.0
  0
MTEXT
  5
D9A8
330
C57E
100
AcDbEntity
  8
30
  6
Continuous
 62
     0
100
AcDbMText
 10
479.110076306489
 20
-223.8221017547434
 30
0.0
 40
6.0
 41
0.0
 71
     5
 72
     1
  1
\A1; 36 
 73
     1
 44
1.0
1001
ACAD
1000
MTEXTBEGIN
1070
    73
1070
     1
1070
    44
1040
1.0
1070
    74
1070
     0
1000
MTEXTEND
  0
POINT
  5
D9A9
330
C57E
100
AcDbEntity
  8
DEFPOINTS
  6
Continuous
 62
     0
100
AcDbPoint
 10
461.1257251614508
 20
-217.6622137404574
 30
0.0
  0
POINT
  5
D9AA
330
C57E
100
AcDbEntity
  8
DEFPOINTS
  6
Continuous
 62
     0
100
AcDbPoint
 10
497.0944274515272
 20
-137.5095419847322
 30
0.0
  0
POINT
  5
D9AB
330
C57E
100
AcDbEntity
  8
DEFPOINTS
  6
Continuous
 62
     0
100
AcDbPoint
 10
497.0944274515272
 20
-229.8221017547434
 30
0.0
  0
ENDBLK
  5
C589
330
C57E
100
AcDbEntity
  8
0
100
AcDbBlockEnd
  0
BLOCK
  5
C594
330
C58A
100
AcDbEntity
  8
0
100
AcDbBlockBegin
  2
*D38
 70
     1
 10
0.0
 20
0.0
 30
0.0
  3
*D38
  1

  0
LINE
  5
D99A
330
C58A
100
AcDbEntity
  8
30
  6
Continuous
 62
     0
370
    -2
100
AcDbLine
 10
451.106641191985
 20
-220.6622137404576
 30
0.0
 11
451.106641191985
 21
-230.2410203581032
 31
0.0
  0
LINE
  5
D99B
330
C58A
100
AcDbEntity
  8
30
  6
Continuous
 62
     0
370
    -2
100
AcDbLine
 10
461.1257251614508
 20
-220.6622137404576
 30
0.0
 11
461.1257251614508
 21
-230.2410203581032
 31
0.0
  0
LINE
  5
D99C
330
C58A
100
AcDbEntity
  8
30
  6
Continuous
 62
     0
370
    -2
100
AcDbLine
 10
453.1066411919851
 20
-229.7410203581033
 30
0.0
 11
459.1257251614508
 21
-229.7410203581033
 31
0.0
  0
MTEXT
  5
D99D
330
C58A
100
AcDbEntity
  8
30
  6
Continuous
 62
     0
100
AcDbMText
 10
455.7944274515273
 20
-224.9999999999999
 30
0.0
 40
6.0
 41
0.0
 71
     5
 72
     1
  1
\A1;10 
 73
     1
 44
1.0
1001
ACAD
1000
MTEXTBEGIN
1070
    73
1070
     1
1070
    44
1040
1.0
1070
    74
1070
     0
1000
MTEXTEND
  0
INSERT
  5
D99E
330
C58A
100
AcDbEntity
  8
30
  6
Continuous
 62
     0
370
    -2
100
AcDbBlockReference
  2
_OPEN
 10
451.106641191985
 20
-229.7410203581033
 30
0.0
 41
2.0
 42
2.0
 43
2.0
 50
180.0
  0
INSERT
  5
D99F
330
C58A
100
AcDbEntity
  8
30
  6
Continuous
 62
     0
370
    -2
100
AcDbBlockReference
  2
_OPEN
 10
461.1257251614508
 20
-229.7410203581033
 30
0.0
 41
2.0
 42
2.0
 43
2.0
  0
POINT
  5
D9A0
330
C58A
100
AcDbEntity
  8
DEFPOINTS
  6
Continuous
 62
     0
100
AcDbPoint
 10
451.106641191985
 20
-217.6622137404574
 30
0.0
  0
POINT
  5
D9A1
330
C58A
100
AcDbEntity
  8
DEFPOINTS
  6
Continuous
 62
     0
100
AcDbPoint
 10
461.1257251614508
 20
-217.6622137404574
 30
0.0
  0
POINT
  5
D9A2
330
C58A
100
AcDbEntity
  8
DEFPOINTS
  6
Continuous
 62
     0
100
AcDbPoint
 10
461.1257251614508
 20
-229.7410203581033
 30
0.0
  0
ENDBLK
  5
C595
330
C58A
100
AcDbEntity
  8
0
100
AcDbBlockEnd
  0
BLOCK
  5
C5A0
330
C596
100
AcDbEntity
  8
0
100
AcDbBlockBegin
  2
*D39
 70
     1
 10
0.0
 20
0.0
 30
0.0
  3
*D39
  1

  0
LINE
  5
D991
330
C596
100
AcDbEntity
  8
30
  6
Continuous
 62
     0
370
    -2
100
AcDbLine
 10
454.9142747797715
 20
228.6622137404578
 30
0.0
 11
454.9142747797715
 21
253.1176824904576
 31
0.0
  0
LINE
  5
D992
330
C596
100
AcDbEntity
  8
30
  6
Continuous
 62
     0
370
    -2
100
AcDbLine
 10
464.9333587492368
 20
228.6622137404578
 30
0.0
 11
464.9333587492368
 21
253.1176824904576
 31
0.0
  0
LINE
  5
D993
330
C596
100
AcDbEntity
  8
30
  6
Continuous
 62
     0
370
    -2
100
AcDbLine
 10
456.9142747797715
 20
252.6176824904577
 30
0.0
 11
462.9333587492371
 21
252.6176824904577
 31
0.0
  0
INSERT
  5
D994
330
C596
100
AcDbEntity
  8
30
  6
Continuous
 62
     0
370
    -2
100
AcDbBlockReference
  2
_OPEN
 10
454.9142747797715
 20
252.6176824904577
 30
0.0
 41
2.0
 42
2.0
 43
2.0
 50
180.0
  0
INSERT
  5
D995
330
C596
100
AcDbEntity
  8
30
  6
Continuous
 62
     0
370
    -2
100
AcDbBlockReference
  2
_OPEN
 10
464.9333587492368
 20
252.6176824904577
 30
0.0
 41
2.0
 42
2.0
 43
2.0
  0
MTEXT
  5
D996
330
C596
100
AcDbEntity
  8
30
  6
Continuous
 62
     0
100
AcDbMText
 10
459.9238167645043
 20
258.6176824904577
 30
0.0
 40
6.0
 41
0.0
 71
     5
 72
     1
  1
\A1; 10 
 73
     1
 44
1.0
1001
ACAD
1000
MTEXTBEGIN
1070
    73
1070
     1
1070
    44
1040
1.0
1070
    74
1070
     0
1000
MTEXTEND
  0
POINT
  5
D997
330
C596
100
AcDbEntity
  8
DEFPOINTS
  6
Continuous
 62
     0
100
AcDbPoint
 10
454.9142747797715
 20
225.6622137404578
 30
0.0
  0
POINT
  5
D998
330
C596
100
AcDbEntity
  8
DEFPOINTS
  6
Continuous
 62
     0
100
AcDbPoint
 10
464.9333587492368
 20
225.6622137404578
 30
0.0
  0
POINT
  5
D999
330
C596
100
AcDbEntity
  8
DEFPOINTS
  6
Continuous
 62
     0
100
AcDbPoint
 10
464.9333587492368
 20
252.6176824904577
 30
0.0
  0
ENDBLK
  5
C5A1
330
C596
100
AcDbEntity
  8
0
100
AcDbBlockEnd
  0
BLOCK
  5
C5AC
330
C5A2
100
AcDbEntity
  8
0
100
AcDbBlockBegin
  2
*D40
 70
     1
 10
0.0
 20
0.0
 30
0.0
  3
*D40
  1

  0
LINE
  5
D988
330
C5A2
100
AcDbEntity
  8
30
  6
Continuous
 62
     0
370
    -2
100
AcDbLine
 10
464.9944274515272
 20
228.4999999999995
 30
0.0
 11
464.9944274515272
 21
252.9041249999993
 31
0.0
  0
LINE
  5
D989
330
C5A2
100
AcDbEntity
  8
30
  6
Continuous
 62
     0
370
    -2
100
AcDbLine
 10
496.9944274515269
 20
148.4999999999996
 30
0.0
 11
496.9944274515269
 21
252.9041249999993
 31
0.0
  0
LINE
  5
D98A
330
C5A2
100
AcDbEntity
  8
30
  6
Continuous
 62
     0
370
    -2
100
AcDbLine
 10
466.9944274515271
 20
252.4041249999994
 30
0.0
 11
494.9944274515273
 21
252.4041249999994
 31
0.0
  0
INSERT
  5
D98B
330
C5A2
100
AcDbEntity
  8
30
  6
Continuous
 62
     0
370
    -2
100
AcDbBlockReference
  2
_OPEN
 10
464.9944274515272
 20
252.4041249999994
 30
0.0
 41
2.0
 42
2.0
 43
2.0
 50
180.0
  0
INSERT
  5
D98C
330
C5A2
100
AcDbEntity
  8
30
  6
Continuous
 62
     0
370
    -2
100
AcDbBlockReference
  2
_OPEN
 10
496.9944274515269
 20
252.4041249999994
 30
0.0
 41
2.0
 42
2.0
 43
2.0
  0
MTEXT
  5
D98D
330
C5A2
100
AcDbEntity
  8
30
  6
Continuous
 62
     0
100
AcDbMText
 10
480.9944274515272
 20
258.4041249999994
 30
0.0
 40
6.0
 41
0.0
 71
     5
 72
     1
  1
\A1; 32 
 73
     1
 44
1.0
1001
ACAD
1000
MTEXTBEGIN
1070
    73
1070
     1
1070
    44
1040
1.0
1070
    74
1070
     0
1000
MTEXTEND
  0
POINT
  5
D98E
330
C5A2
100
AcDbEntity
  8
DEFPOINTS
  6
Continuous
 62
     0
100
AcDbPoint
 10
464.9944274515272
 20
225.4999999999995
 30
0.0
  0
POINT
  5
D98F
330
C5A2
100
AcDbEntity
  8
DEFPOINTS
  6
Continuous
 62
     0
100
AcDbPoint
 10
496.9944274515269
 20
145.4999999999996
 30
0.0
  0
POINT
  5
D990
330
C5A2
100
AcDbEntity
  8
DEFPOINTS
  6
Continuous
 62
     0
100
AcDbPoint
 10
496.9944274515269
 20
252.4041249999994
 30
0.0
  0
ENDBLK
  5
C5AD
330
C5A2
100
AcDbEntity
  8
0
100
AcDbBlockEnd
  0
BLOCK
  5
CE35
330
CE2B
100
AcDbEntity
  8
0
100
AcDbBlockBegin
  2
*D41
 70
     1
 10
0.0
 20
0.0
 30
0.0
  3
*D41
  1

  0
LINE
  5
D97F
330
CE2B
100
AcDbEntity
  8
30
  6
Continuous
 62
     0
370
    -2
100
AcDbLine
 10
373.6944274515273
 20
-548.9999999999999
 30
0.0
 11
373.6944274515273
 21
-657.8305297818661
 31
0.0
  0
LINE
  5
D980
330
CE2B
100
AcDbEntity
  8
30
  6
Continuous
 62
     0
370
    -2
100
AcDbLine
 10
426.6944274515273
 20
-548.9999999999999
 30
0.0
 11
426.6944274515273
 21
-657.8305297818661
 31
0.0
  0
LINE
  5
D981
330
CE2B
100
AcDbEntity
  8
30
  6
Continuous
 62
     0
370
    -2
100
AcDbLine
 10
375.6944274515273
 20
-657.3305297818661
 30
0.0
 11
424.6944274515271
 21
-657.3305297818661
 31
0.0
  0
INSERT
  5
D982
330
CE2B
100
AcDbEntity
  8
30
  6
Continuous
 62
     0
370
    -2
100
AcDbBlockReference
  2
_OPEN
 10
373.6944274515273
 20
-657.3305297818661
 30
0.0
 41
2.0
 42
2.0
 43
2.0
 50
180.0
  0
INSERT
  5
D983
330
CE2B
100
AcDbEntity
  8
30
  6
Continuous
 62
     0
370
    -2
100
AcDbBlockReference
  2
_OPEN
 10
426.6944274515273
 20
-657.3305297818661
 30
0.0
 41
2.0
 42
2.0
 43
2.0
  0
MTEXT
  5
D984
330
CE2B
100
AcDbEntity
  8
30
  6
Continuous
 62
     0
100
AcDbMText
 10
400.194427451527
 20
-651.3305297818662
 30
0.0
 40
6.0
 41
0.0
 71
     5
 72
     1
  1
\A1;53
 73
     1
 44
1.0
1001
ACAD
1000
MTEXTBEGIN
1070
    73
1070
     1
1070
    44
1040
1.0
1070
    74
1070
     0
1000
MTEXTEND
  0
POINT
  5
D985
330
CE2B
100
AcDbEntity
  8
DEFPOINTS
  6
Continuous
 62
     0
100
AcDbPoint
 10
373.6944274515273
 20
-545.9999999999999
 30
0.0
  0
POINT
  5
D986
330
CE2B
100
AcDbEntity
  8
DEFPOINTS
  6
Continuous
 62
     0
100
AcDbPoint
 10
426.6944274515273
 20
-545.9999999999999
 30
0.0
  0
POINT
  5
D987
330
CE2B
100
AcDbEntity
  8
DEFPOINTS
  6
Continuous
 62
     0
100
AcDbPoint
 10
426.6944274515273
 20
-657.3305297818661
 30
0.0
  0
ENDBLK
  5
CE36
330
CE2B
100
AcDbEntity
  8
0
100
AcDbBlockEnd
  0
BLOCK
  5
CE41
330
CE37
100
AcDbEntity
  8
0
100
AcDbBlockBegin
  2
*D42
 70
     1
 10
0.0
 20
0.0
 30
0.0
  3
*D42
  1

  0
LINE
  5
D976
330
CE37
100
AcDbEntity
  8
30
  6
Continuous
 62
     0
370
    -2
100
AcDbLine
 10
314.1944274515275
 20
-548.0
 30
0.0
 11
314.1944274515275
 21
-672.5958749999992
 31
0.0
  0
LINE
  5
D977
330
CE37
100
AcDbEntity
  8
30
  6
Continuous
 62
     0
370
    -2
100
AcDbLine
 10
486.1944274515273
 20
-548.0
 30
0.0
 11
486.1944274515273
 21
-672.5958749999992
 31
0.0
  0
LINE
  5
D978
330
CE37
100
AcDbEntity
  8
30
  6
Continuous
 62
     0
370
    -2
100
AcDbLine
 10
316.1944274515273
 20
-672.0958749999994
 30
0.0
 11
484.1944274515273
 21
-672.0958749999994
 31
0.0
  0
INSERT
  5
D979
330
CE37
100
AcDbEntity
  8
30
  6
Continuous
 62
     0
370
    -2
100
AcDbBlockReference
  2
_OPEN
 10
314.1944274515275
 20
-672.0958749999994
 30
0.0
 41
2.0
 42
2.0
 43
2.0
 50
180.0
  0
INSERT
  5
D97A
330
CE37
100
AcDbEntity
  8
30
  6
Continuous
 62
     0
370
    -2
100
AcDbBlockReference
  2
_OPEN
 10
486.1944274515273
 20
-672.0958749999994
 30
0.0
 41
2.0
 42
2.0
 43
2.0
  0
MTEXT
  5
D97B
330
CE37
100
AcDbEntity
  8
30
  6
Continuous
 62
     0
100
AcDbMText
 10
400.1944274515274
 20
-666.0958749999994
 30
0.0
 40
6.0
 41
0.0
 71
     5
 72
     1
  1
\A1; 172 
 73
     1
 44
1.0
1001
ACAD
1000
MTEXTBEGIN
1070
    73
1070
     1
1070
    44
1040
1.0
1070
    74
1070
     0
1000
MTEXTEND
  0
POINT
  5
D97C
330
CE37
100
AcDbEntity
  8
DEFPOINTS
  6
Continuous
 62
     0
100
AcDbPoint
 10
314.1944274515275
 20
-545.0
 30
0.0
  0
POINT
  5
D97D
330
CE37
100
AcDbEntity
  8
DEFPOINTS
  6
Continuous
 62
     0
100
AcDbPoint
 10
486.1944274515273
 20
-545.0
 30
0.0
  0
POINT
  5
D97E
330
CE37
100
AcDbEntity
  8
DEFPOINTS
  6
Continuous
 62
     0
100
AcDbPoint
 10
486.1944274515273
 20
-672.0958749999994
 30
0.0
  0
ENDBLK
  5
CE42
330
CE37
100
AcDbEntity
  8
0
100
AcDbBlockEnd
  0
BLOCK
  5
D906
330
D8FC
100
AcDbEntity
  8
0
100
AcDbBlockBegin
  2
*D43
 70
     1
 10
0.0
 20
0.0
 30
0.0
  3
*D43
  1

  0
LINE
  5
D8FD
330
D8FC
100
AcDbEntity
  8
30
  6
Continuous
 62
     0
370
    -2
100
AcDbLine
 10
107.6999999999995
 20
408.3231618618496
 30
0.0
 11
137.5
 21
408.3231618618495
 31
0.0
  0
LINE
  5
D8FE
330
D8FC
100
AcDbEntity
  8
30
  6
Continuous
 62
     0
370
    -2
100
AcDbLine
 10
107.6999999999995
 20
305.3231618618493
 30
0.0
 11
137.5
 21
305.3231618618493
 31
0.0
  0
LINE
  5
D8FF
330
D8FC
100
AcDbEntity
  8
30
  6
Continuous
 62
     0
370
    -2
100
AcDbLine
 10
137.0
 20
406.3231618618495
 30
0.0
 11
137.0
 21
307.3231618618493
 31
0.0
  0
INSERT
  5
D900
330
D8FC
100
AcDbEntity
  8
30
  6
Continuous
 62
     0
370
    -2
100
AcDbBlockReference
  2
_OPEN
 10
137.0
 20
408.3231618618495
 30
0.0
 41
2.0
 42
2.0
 43
2.0
 50
90.0
  0
INSERT
  5
D901
330
D8FC
100
AcDbEntity
  8
30
  6
Continuous
 62
     0
370
    -2
100
AcDbBlockReference
  2
_OPEN
 10
137.0
 20
305.3231618618493
 30
0.0
 41
2.0
 42
2.0
 43
2.0
 50
270.0
  0
MTEXT
  5
D902
330
D8FC
100
AcDbEntity
  8
30
  6
Continuous
 62
     0
100
AcDbMText
 10
130.9999999999999
 20
356.8231618618495
 30
0.0
 40
6.0
 41
0.0
 71
     5
 72
     1
  1
\A1;103
 11
0.0000000000000001
 21
1.0
 31
0.0
 73
     1
 44
1.0
1001
ACAD
1000
MTEXTBEGIN
1070
    73
1070
     1
1070
    44
1040
1.0
1070
    74
1070
     0
1000
MTEXTEND
  0
POINT
  5
D903
330
D8FC
100
AcDbEntity
  8
DEFPOINTS
  6
Continuous
 62
     0
100
AcDbPoint
 10
104.6999999999995
 20
408.3231618618496
 30
0.0
  0
POINT
  5
D904
330
D8FC
100
AcDbEntity
  8
DEFPOINTS
  6
Continuous
 62
     0
100
AcDbPoint
 10
104.6999999999995
 20
305.3231618618493
 30
0.0
  0
POINT
  5
D905
330
D8FC
100
AcDbEntity
  8
DEFPOINTS
  6
Continuous
 62
     0
100
AcDbPoint
 10
137.0
 20
305.3231618618493
 30
0.0
  0
ENDBLK
  5
D907
330
D8FC
100
AcDbEntity
  8
0
100
AcDbBlockEnd
  0
BLOCK
  5
DD15
330
DCF1
100
AcDbEntity
  8
0
100
AcDbBlockBegin
  2
A$C546D1DC9
 70
     0
 10
0.0
 20
0.0
 30
0.0
  3
A$C546D1DC9
  1

  0
LINE
  5
DCF2
330
DCF1
100
AcDbEntity
  8
24
  6
CONTINOUS
100
AcDbLine
 10
55.80000281172293
 20
106.2500009329237
 30
0.0
 11
55.80000281172293
 21
83.75000093292376
 31
0.0
  0
LINE
  5
DCF3
330
DCF1
100
AcDbEntity
  8
24
  6
CONTINOUS
100
AcDbLine
 10
125.8000028117229
 20
106.2500009329237
 30
0.0
 11
125.8000028117229
 21
83.75000093292376
 31
0.0
  0
LINE
  5
DCF4
330
DCF1
100
AcDbEntity
  8
17
  6
DASHDOT
100
AcDbLine
 10
11.30000281172313
 20
15.00000093292377
 30
0.0
 11
30.30000281172311
 21
15.00000093292377
 31
0.0
  0
CIRCLE
  5
DCF5
330
DCF1
100
AcDbEntity
  8
24
  6
CONTINOUS
100
AcDbCircle
 10
-20.8000028117231
 20
15.00000093292377
 30
0.0
 40
6.499999999999982
210
0.0
220
0.0
230
-1.0
  0
LINE
  5
DCF6
330
DCF1
100
AcDbEntity
  8
17
  6
DASHDOT
100
AcDbLine
 10
11.30000281172313
 20
55.00000093292367
 30
0.0
 11
30.30000281172311
 21
55.00000093292367
 31
0.0
  0
LINE
  5
DCF7
330
DCF1
100
AcDbEntity
  8
17
  6
DASHDOT
100
AcDbLine
 10
11.30000281172313
 20
47.00000093292375
 30
0.0
 11
30.30000281172311
 21
47.00000093292375
 31
0.0
  0
LINE
  5
DCF8
330
DCF1
100
AcDbEntity
  8
24
  6
CONTINOUS
100
AcDbLine
 10
44.55000281172314
 20
95.00000093292358
 30
0.0
 11
67.05000281172296
 21
95.00000093292358
 31
0.0
  0
CIRCLE
  5
DCF9
330
DCF1
100
AcDbEntity
  8
24
  6
CONTINOUS
100
AcDbCircle
 10
55.80000281172293
 20
95.00000093292358
 30
0.0
 40
8.249999999999976
  0
LINE
  5
DCFA
330
DCF1
100
AcDbEntity
  8
24
  6
CONTINOUS
100
AcDbLine
 10
114.5500028117229
 20
95.00000093292358
 30
0.0
 11
137.0500028117229
 21
95.00000093292358
 31
0.0
  0
CIRCLE
  5
DCFB
330
DCF1
100
AcDbEntity
  8
24
  6
CONTINOUS
100
AcDbCircle
 10
125.8000028117229
 20
95.00000093292358
 30
0.0
 40
8.249999999999976
  0
LWPOLYLINE
  5
DCFC
330
DCF1
100
AcDbEntity
  8
10
  6
Continuous
100
AcDbPolyline
 90
        5
 70
     0
 43
0.0
 10
10.00000281172337
 20
105.0000009329236
 42
1.0
 10
10.00000281172337
 20
85.00000093292356
 10
32.00000281172317
 20
85.00000093292356
 42
1.0
 10
32.00000281172317
 20
105.0000009329236
 10
32.00000281172317
 20
105.0000009329236
  0
LWPOLYLINE
  5
DCFD
330
DCF1
100
AcDbEntity
  8
10
  6
Continuous
100
AcDbPolyline
 90
        5
 70
     0
 43
0.0
 10
80.00000281172296
 20
105.0000009329236
 42
1.0
 10
80.00000281172296
 20
85.00000093292356
 10
102.0000028117229
 20
85.00000093292356
 42
1.0
 10
102.0000028117229
 20
105.0000009329236
 10
102.0000028117229
 20
105.0000009329236
  0
LWPOLYLINE
  5
DCFE
330
DCF1
100
AcDbEntity
  8
10
  6
Continuous
100
AcDbPolyline
 90
        5
 70
     0
 43
0.0
 10
150.0000028117231
 20
105.0000009329236
 42
1.0
 10
150.0000028117231
 20
85.00000093292356
 10
172.0000028117229
 20
85.00000093292356
 42
1.0
 10
172.0000028117229
 20
105.0000009329236
 10
172.0000028117229
 20
105.0000009329236
  0
LINE
  5
DCFF
330
DCF1
100
AcDbEntity
  8
10
  6
Continuous
100
AcDbLine
 10
40.80000281172334
 20
80.00000093292369
 30
0.0
 11
40.80000281172334
 21
0.0000009329239674
 31
0.0
  0
LINE
  5
DD00
330
DCF1
100
AcDbEntity
  8
10
  6
Continuous
100
AcDbLine
 10
40.80000281172334
 20
0.0000009329239674
 30
0.0
 11
0.8000028117233597
 21
0.0000009329239674
 31
0.0
  0
LINE
  5
DD01
330
DCF1
100
AcDbEntity
  8
10
  6
Continuous
100
AcDbLine
 10
0.8000028117233597
 20
0.0000009329239674
 30
0.0
 11
0.8000028117233597
 21
80.00000093292369
 31
0.0
  0
LWPOLYLINE
  5
DD02
330
DCF1
100
AcDbEntity
  8
24
  6
CONTINOUS
100
AcDbPolyline
 90
        5
 70
     1
 43
0.0
 10
27.30000281172334
 20
47.00000093292375
 10
27.30000281172334
 20
55.00000093292367
 42
0.9999999999999998
 10
14.30000281172335
 20
55.00000093292367
 10
14.30000281172335
 20
47.00000093292375
 42
1.000000000000011
 10
27.30000281172334
 20
47.00000093292375
  0
LINE
  5
DD03
330
DCF1
100
AcDbEntity
  8
17
  6
DASHDOT
100
AcDbLine
 10
81.30000281172309
 20
15.00000093292371
 30
0.0
 11
100.3000028117231
 21
15.00000093292371
 31
0.0
  0
CIRCLE
  5
DD04
330
DCF1
100
AcDbEntity
  8
24
  6
CONTINOUS
100
AcDbCircle
 10
-90.80000281172306
 20
15.00000093292371
 30
0.0
 40
6.499999999999982
210
0.0
220
0.0
230
-1.0
  0
LINE
  5
DD05
330
DCF1
100
AcDbEntity
  8
17
  6
DASHDOT
100
AcDbLine
 10
81.30000281172309
 20
55.0000009329236
 30
0.0
 11
100.3000028117231
 21
55.0000009329236
 31
0.0
  0
LINE
  5
DD06
330
DCF1
100
AcDbEntity
  8
17
  6
DASHDOT
100
AcDbLine
 10
81.30000281172309
 20
47.00000093292367
 30
0.0
 11
100.3000028117231
 21
47.00000093292367
 31
0.0
  0
LINE
  5
DD07
330
DCF1
100
AcDbEntity
  8
10
  6
Continuous
100
AcDbLine
 10
110.8000028117233
 20
80.0000009329236
 30
0.0
 11
110.8000028117233
 21
0.0000009329238821
 31
0.0
  0
LINE
  5
DD08
330
DCF1
100
AcDbEntity
  8
10
  6
Continuous
100
AcDbLine
 10
110.8000028117233
 20
0.0000009329238821
 30
0.0
 11
70.8000028117233
 21
0.0000009329238821
 31
0.0
  0
LINE
  5
DD09
330
DCF1
100
AcDbEntity
  8
10
  6
Continuous
100
AcDbLine
 10
70.8000028117233
 20
0.0000009329237685
 30
0.0
 11
70.8000028117233
 21
80.0000009329236
 31
0.0
  0
LWPOLYLINE
  5
DD0A
330
DCF1
100
AcDbEntity
  8
24
  6
CONTINOUS
100
AcDbPolyline
 90
        5
 70
     1
 43
0.0
 10
97.3000028117233
 20
47.00000093292367
 10
97.3000028117233
 20
55.0000009329236
 42
0.9999999999999998
 10
84.30000281172331
 20
55.0000009329236
 10
84.30000281172331
 20
47.00000093292367
 42
1.000000000000011
 10
97.3000028117233
 20
47.00000093292367
  0
LINE
  5
DD0B
330
DCF1
100
AcDbEntity
  8
17
  6
DASHDOT
100
AcDbLine
 10
151.3000028117229
 20
15.00000093292371
 30
0.0
 11
170.3000028117229
 21
15.00000093292371
 31
0.0
  0
CIRCLE
  5
DD0C
330
DCF1
100
AcDbEntity
  8
24
  6
CONTINOUS
100
AcDbCircle
 10
-160.8000028117229
 20
15.00000093292371
 30
0.0
 40
6.499999999999982
210
0.0
220
0.0
230
-1.0
  0
LINE
  5
DD0D
330
DCF1
100
AcDbEntity
  8
17
  6
DASHDOT
100
AcDbLine
 10
151.3000028117229
 20
55.0000009329236
 30
0.0
 11
170.3000028117229
 21
55.0000009329236
 31
0.0
  0
LINE
  5
DD0E
330
DCF1
100
AcDbEntity
  8
17
  6
DASHDOT
100
AcDbLine
 10
151.3000028117229
 20
47.00000093292367
 30
0.0
 11
170.3000028117229
 21
47.00000093292367
 31
0.0
  0
LINE
  5
DD0F
330
DCF1
100
AcDbEntity
  8
10
  6
Continuous
100
AcDbLine
 10
180.8000028117231
 20
80.0000009329236
 30
0.0
 11
180.8000028117231
 21
0.0000009329238821
 31
0.0
  0
LINE
  5
DD10
330
DCF1
100
AcDbEntity
  8
10
  6
Continuous
100
AcDbLine
 10
180.8000028117231
 20
0.0000009329238821
 30
0.0
 11
140.8000028117231
 21
0.0000009329238821
 31
0.0
  0
LINE
  5
DD11
330
DCF1
100
AcDbEntity
  8
10
  6
Continuous
100
AcDbLine
 10
140.8000028117231
 20
0.0000009329237685
 30
0.0
 11
140.8000028117231
 21
80.0000009329236
 31
0.0
  0
LWPOLYLINE
  5
DD12
330
DCF1
100
AcDbEntity
  8
24
  6
CONTINOUS
100
AcDbPolyline
 90
        5
 70
     1
 43
0.0
 10
167.3000028117231
 20
47.00000093292367
 10
167.3000028117231
 20
55.0000009329236
 42
0.9999999999999998
 10
154.3000028117231
 20
55.0000009329236
 10
154.3000028117231
 20
47.00000093292367
 42
1.000000000000011
 10
167.3000028117231
 20
47.00000093292367
  0
ENDBLK
  5
DD16
330
DCF1
100
AcDbEntity
  8
0
100
AcDbBlockEnd
  0
BLOCK
  5
DEBC
330
DEBB
100
AcDbEntity
  8
0
100
AcDbBlockBegin
  2
*D45
 70
     1
 10
0.0
 20
0.0
 30
0.0
  3
*D45
  1

  0
LINE
  5
DEBD
330
DEBB
100
AcDbEntity
  8
30
  6
Continuous
 62
     0
370
    -2
100
AcDbLine
 10
68.84383777821483
 20
201.7281669910689
 30
0.0
 11
70.97650507892703
 21
210.4718330089303
 31
0.0
  0
LINE
  5
DEBE
330
DEBB
100
AcDbEntity
  8
30
  6
Continuous
 62
     0
370
    -2
100
AcDbLine
 10
71.4504312474196
 20
212.4148703186127
 30
0.0
 11
74.93595196454577
 21
226.7050641236711
 31
0.0
  0
LINE
  5
DEBF
330
DEBB
100
AcDbEntity
  8
30
  6
Continuous
 62
     0
370
    -2
100
AcDbLine
 10
74.93595196454577
 20
226.7050641236711
 30
0.0
 11
91.93595196454577
 21
226.7050641236711
 31
0.0
  0
INSERT
  5
DEC0
330
DEBB
100
AcDbEntity
  8
30
  6
Continuous
 62
     0
370
    -2
100
AcDbBlockReference
  2
_OPEN
 10
68.36991160972228
 20
199.7851296813864
 30
0.0
 41
2.0
 42
2.0
 43
2.0
 50
256.2926318262961
  0
INSERT
  5
DEC1
330
DEBB
100
AcDbEntity
  8
30
  6
Continuous
 62
     0
370
    -2
100
AcDbBlockReference
  2
_OPEN
 10
71.4504312474196
 20
212.4148703186127
 30
0.0
 41
2.0
 42
2.0
 43
2.0
 50
76.29263182629606
  0
MTEXT
  5
DEC2
102
{ACAD_XDICTIONARY
360
DEC3
102
}
330
DEBB
100
AcDbEntity
  8
30
  6
Continuous
 62
     0
100
AcDbMText
 10
84.93595196454576
 20
232.705064123671
 30
0.0
 40
6.0
 41
0.0
 71
     5
 72
     1
  1
\A1;\U+220513
 73
     1
 44
1.0
1001
ACAD
1000
MTEXTBEGIN
1070
    73
1070
     1
1070
    44
1040
1.0
1070
    74
1070
     0
1000
MTEXTEND
  0
POINT
  5
DEC4
330
DEBB
100
AcDbEntity
  8
DEFPOINTS
  6
Continuous
 62
     0
100
AcDbPoint
 10
71.4504312474196
 20
212.4148703186127
 30
0.0
  0
POINT
  5
DEC5
330
DEBB
100
AcDbEntity
  8
DEFPOINTS
  6
Continuous
 62
     0
100
AcDbPoint
 10
68.36991160972228
 20
199.7851296813864
 30
0.0
  0
ENDBLK
  5
DEC6
330
DEBB
100
AcDbEntity
  8
0
100
AcDbBlockEnd
  0
BLOCK
  5
DEC8
330
DEC7
100
AcDbEntity
  8
0
100
AcDbBlockBegin
  2
*D46
 70
     1
 10
0.0
 20
0.0
 30
0.0
  3
*D46
  1

  0
LINE
  5
DEC9
330
DEC7
100
AcDbEntity
  8
30
  6
Continuous
 62
     0
370
    -2
100
AcDbLine
 10
63.51016892857067
 20
177.9999974999991
 30
0.0
 11
63.51016892857067
 21
186.4233661405281
 31
0.0
  0
LINE
  5
DECA
330
DEC7
100
AcDbEntity
  8
30
  6
Continuous
 62
     0
370
    -2
100
AcDbLine
 10
76.51016892857064
 20
177.9999974999991
 30
0.0
 11
76.51016892857064
 21
186.4233661405281
 31
0.0
  0
LINE
  5
DECB
330
DEC7
100
AcDbEntity
  8
30
  6
Continuous
 62
     0
370
    -2
100
AcDbLine
 10
65.51016892857068
 20
185.9233661405282
 30
0.0
 11
74.51016892857065
 21
185.9233661405282
 31
0.0
  0
INSERT
  5
DECC
330
DEC7
100
AcDbEntity
  8
30
  6
Continuous
 62
     0
370
    -2
100
AcDbBlockReference
  2
_OPEN
 10
63.51016892857067
 20
185.9233661405282
 30
0.0
 41
2.0
 42
2.0
 43
2.0
 50
180.0
  0
INSERT
  5
DECD
330
DEC7
100
AcDbEntity
  8
30
  6
Continuous
 62
     0
370
    -2
100
AcDbBlockReference
  2
_OPEN
 10
76.51016892857064
 20
185.9233661405282
 30
0.0
 41
2.0
 42
2.0
 43
2.0
  0
MTEXT
  5
DECE
330
DEC7
100
AcDbEntity
  8
30
  6
Continuous
 62
     0
100
AcDbMText
 10
70.01016892857065
 20
191.9233661405282
 30
0.0
 40
6.0
 41
0.0
 71
     5
 72
     1
  1
\A1; 13 
 73
     1
 44
1.0
1001
ACAD
1000
MTEXTBEGIN
1070
    73
1070
     1
1070
    44
1040
1.0
1070
    74
1070
     0
1000
MTEXTEND
  0
POINT
  5
DECF
330
DEC7
100
AcDbEntity
  8
DEFPOINTS
  6
Continuous
 62
     0
100
AcDbPoint
 10
63.51016892857067
 20
174.9999974999991
 30
0.0
  0
POINT
  5
DED0
330
DEC7
100
AcDbEntity
  8
DEFPOINTS
  6
Continuous
 62
     0
100
AcDbPoint
 10
76.51016892857064
 20
174.9999974999991
 30
0.0
  0
POINT
  5
DED1
330
DEC7
100
AcDbEntity
  8
DEFPOINTS
  6
Continuous
 62
     0
100
AcDbPoint
 10
76.51016892857064
 20
185.9233661405282
 30
0.0
  0
ENDBLK
  5
DED2
330
DEC7
100
AcDbEntity
  8
0
100
AcDbBlockEnd
  0
BLOCK
  5
DF20
330
DF1F
100
AcDbEntity
  8
0
100
AcDbBlockBegin
  2
*D47
 70
     1
 10
0.0
 20
0.0
 30
0.0
  3
*D47
  1

  0
LINE
  5
DF66
330
DF1F
100
AcDbEntity
  8
30
  6
Continuous
 62
     0
370
    -2
100
AcDbLine
 10
68.83826640454791
 20
201.6781679119412
 30
0.0
 11
70.97093370526005
 21
210.4218339298025
 31
0.0
  0
LINE
  5
DF67
330
DF1F
100
AcDbEntity
  8
30
  6
Continuous
 62
     0
370
    -2
100
AcDbLine
 10
71.44485987375259
 20
212.3648712394849
 30
0.0
 11
74.93038059087869
 21
226.6550650445432
 31
0.0
  0
LINE
  5
DF68
330
DF1F
100
AcDbEntity
  8
30
  6
Continuous
 62
     0
370
    -2
100
AcDbLine
 10
74.93038059087869
 20
226.6550650445432
 30
0.0
 11
91.9303805908787
 21
226.6550650445432
 31
0.0
  0
INSERT
  5
DF69
330
DF1F
100
AcDbEntity
  8
30
  6
Continuous
 62
     0
370
    -2
100
AcDbBlockReference
  2
_OPEN
 10
68.36434023605537
 20
199.7351306022587
 30
0.0
 41
2.0
 42
2.0
 43
2.0
 50
256.2926318262963
  0
INSERT
  5
DF6A
330
DF1F
100
AcDbEntity
  8
30
  6
Continuous
 62
     0
370
    -2
100
AcDbBlockReference
  2
_OPEN
 10
71.44485987375259
 20
212.3648712394849
 30
0.0
 41
2.0
 42
2.0
 43
2.0
 50
76.29263182629633
  0
MTEXT
  5
DF6B
102
{ACAD_XDICTIONARY
360
E034
102
}
330
DF1F
100
AcDbEntity
  8
30
  6
Continuous
 62
     0
100
AcDbMText
 10
84.9303805908787
 20
232.6550650445432
 30
0.0
 40
6.0
 41
0.0
 71
     5
 72
     1
  1
\A1;\U+220513
 73
     1
 44
1.0
1001
ACAD
1000
MTEXTBEGIN
1070
    73
1070
     1
1070
    44
1040
1.0
1070
    74
1070
     0
1000
MTEXTEND
  0
POINT
  5
DF6C
330
DF1F
100
AcDbEntity
  8
DEFPOINTS
  6
Continuous
 62
     0
100
AcDbPoint
 10
71.44485987375259
 20
212.3648712394849
 30
0.0
  0
POINT
  5
DF6D
330
DF1F
100
AcDbEntity
  8
DEFPOINTS
  6
Continuous
 62
     0
100
AcDbPoint
 10
68.36434023605537
 20
199.7351306022587
 30
0.0
  0
ENDBLK
  5
DF21
330
DF1F
100
AcDbEntity
  8
0
100
AcDbBlockEnd
  0
BLOCK
  5
DF2B
330
DF2A
100
AcDbEntity
  8
0
100
AcDbBlockBegin
  2
*D48
 70
     1
 10
0.0
 20
0.0
 30
0.0
  3
*D48
  1

  0
LINE
  5
DF6E
330
DF2A
100
AcDbEntity
  8
30
  6
Continuous
 62
     0
370
    -2
100
AcDbLine
 10
63.50459755490367
 20
177.9499984208712
 30
0.0
 11
63.50459755490367
 21
186.3733670614003
 31
0.0
  0
LINE
  5
DF6F
330
DF2A
100
AcDbEntity
  8
30
  6
Continuous
 62
     0
370
    -2
100
AcDbLine
 10
76.50459755490364
 20
177.9499984208712
 30
0.0
 11
76.50459755490364
 21
186.3733670614003
 31
0.0
  0
LINE
  5
DF70
330
DF2A
100
AcDbEntity
  8
30
  6
Continuous
 62
     0
370
    -2
100
AcDbLine
 10
65.50459755490367
 20
185.8733670614003
 30
0.0
 11
74.50459755490363
 21
185.8733670614003
 31
0.0
  0
INSERT
  5
DF71
330
DF2A
100
AcDbEntity
  8
30
  6
Continuous
 62
     0
370
    -2
100
AcDbBlockReference
  2
_OPEN
 10
63.50459755490367
 20
185.8733670614003
 30
0.0
 41
2.0
 42
2.0
 43
2.0
 50
180.0
  0
INSERT
  5
DF72
330
DF2A
100
AcDbEntity
  8
30
  6
Continuous
 62
     0
370
    -2
100
AcDbBlockReference
  2
_OPEN
 10
76.50459755490364
 20
185.8733670614003
 30
0.0
 41
2.0
 42
2.0
 43
2.0
  0
MTEXT
  5
DF73
330
DF2A
100
AcDbEntity
  8
30
  6
Continuous
 62
     0
100
AcDbMText
 10
70.00459755490365
 20
191.8733670614003
 30
0.0
 40
6.0
 41
0.0
 71
     5
 72
     1
  1
\A1; 13 
 73
     1
 44
1.0
1001
ACAD
1000
MTEXTBEGIN
1070
    73
1070
     1
1070
    44
1040
1.0
1070
    74
1070
     0
1000
MTEXTEND
  0
POINT
  5
DF74
330
DF2A
100
AcDbEntity
  8
DEFPOINTS
  6
Continuous
 62
     0
100
AcDbPoint
 10
63.50459755490367
 20
174.9499984208712
 30
0.0
  0
POINT
  5
DF75
330
DF2A
100
AcDbEntity
  8
DEFPOINTS
  6
Continuous
 62
     0
100
AcDbPoint
 10
76.50459755490364
 20
174.9499984208712
 30
0.0
  0
POINT
  5
DF76
330
DF2A
100
AcDbEntity
  8
DEFPOINTS
  6
Continuous
 62
     0
100
AcDbPoint
 10
76.50459755490364
 20
185.8733670614003
 30
0.0
  0
ENDBLK
  5
DF2C
330
DF2A
100
AcDbEntity
  8
0
100
AcDbBlockEnd
  0
BLOCK
  5
DF9B
330
DF77
100
AcDbEntity
  8
0
100
AcDbBlockBegin
  2
A$C54435CDF
 70
     0
 10
0.0
 20
0.0
 30
0.0
  3
A$C54435CDF
  1

  0
LINE
  5
DF78
330
DF77
100
AcDbEntity
  8
24
  6
CONTINOUS
100
AcDbLine
 10
55.80000117480528
 20
106.2500009329237
 30
0.0
 11
55.80000117480528
 21
83.75000093292376
 31
0.0
  0
LINE
  5
DF79
330
DF77
100
AcDbEntity
  8
24
  6
CONTINOUS
100
AcDbLine
 10
125.8000011748052
 20
106.2500009329237
 30
0.0
 11
125.8000011748052
 21
83.75000093292376
 31
0.0
  0
LINE
  5
DF7A
330
DF77
100
AcDbEntity
  8
17
  6
DASHDOT
100
AcDbLine
 10
11.30000117480547
 20
15.00000093292377
 30
0.0
 11
30.30000117480545
 21
15.00000093292377
 31
0.0
  0
CIRCLE
  5
DF7B
330
DF77
100
AcDbEntity
  8
24
  6
CONTINOUS
100
AcDbCircle
 10
-20.80000117480544
 20
15.00000093292377
 30
0.0
 40
6.499999999999982
210
0.0
220
0.0
230
-1.0
  0
LINE
  5
DF7C
330
DF77
100
AcDbEntity
  8
17
  6
DASHDOT
100
AcDbLine
 10
11.30000117480547
 20
55.00000093292367
 30
0.0
 11
30.30000117480545
 21
55.00000093292367
 31
0.0
  0
LINE
  5
DF7D
330
DF77
100
AcDbEntity
  8
17
  6
DASHDOT
100
AcDbLine
 10
11.30000117480547
 20
47.00000093292375
 30
0.0
 11
30.30000117480545
 21
47.00000093292375
 31
0.0
  0
LINE
  5
DF7E
330
DF77
100
AcDbEntity
  8
24
  6
CONTINOUS
100
AcDbLine
 10
44.55000117480548
 20
95.00000093292358
 30
0.0
 11
67.05000117480529
 21
95.00000093292358
 31
0.0
  0
CIRCLE
  5
DF7F
330
DF77
100
AcDbEntity
  8
24
  6
CONTINOUS
100
AcDbCircle
 10
55.80000117480528
 20
95.00000093292358
 30
0.0
 40
8.249999999999976
  0
LINE
  5
DF80
330
DF77
100
AcDbEntity
  8
24
  6
CONTINOUS
100
AcDbLine
 10
114.5500011748052
 20
95.00000093292358
 30
0.0
 11
137.0500011748052
 21
95.00000093292358
 31
0.0
  0
CIRCLE
  5
DF81
330
DF77
100
AcDbEntity
  8
24
  6
CONTINOUS
100
AcDbCircle
 10
125.8000011748052
 20
95.00000093292358
 30
0.0
 40
8.249999999999976
  0
LWPOLYLINE
  5
DF82
330
DF77
100
AcDbEntity
  8
10
  6
Continuous
100
AcDbPolyline
 90
        5
 70
     0
 43
0.0
 10
10.00000117480571
 20
105.0000009329236
 42
1.0
 10
10.00000117480571
 20
85.00000093292356
 10
32.0000011748055
 20
85.00000093292356
 42
1.0
 10
32.0000011748055
 20
105.0000009329236
 10
32.0000011748055
 20
105.0000009329236
  0
LWPOLYLINE
  5
DF83
330
DF77
100
AcDbEntity
  8
10
  6
Continuous
100
AcDbPolyline
 90
        5
 70
     0
 43
0.0
 10
80.00000117480531
 20
105.0000009329236
 42
1.0
 10
80.00000117480531
 20
85.00000093292356
 10
102.0000011748053
 20
85.00000093292356
 42
1.0
 10
102.0000011748053
 20
105.0000009329236
 10
102.0000011748053
 20
105.0000009329236
  0
LWPOLYLINE
  5
DF84
330
DF77
100
AcDbEntity
  8
10
  6
Continuous
100
AcDbPolyline
 90
        5
 70
     0
 43
0.0
 10
150.0000011748055
 20
105.0000009329236
 42
1.0
 10
150.0000011748055
 20
85.00000093292356
 10
172.0000011748052
 20
85.00000093292356
 42
1.0
 10
172.0000011748052
 20
105.0000009329236
 10
172.0000011748052
 20
105.0000009329236
  0
LINE
  5
DF85
330
DF77
100
AcDbEntity
  8
10
  6
Continuous
100
AcDbLine
 10
40.80000117480568
 20
80.00000093292369
 30
0.0
 11
40.80000117480568
 21
0.0000009329239674
 31
0.0
  0
LINE
  5
DF86
330
DF77
100
AcDbEntity
  8
10
  6
Continuous
100
AcDbLine
 10
40.80000117480568
 20
0.0000009329239674
 30
0.0
 11
0.8000011748057005
 21
0.0000009329239674
 31
0.0
  0
LINE
  5
DF87
330
DF77
100
AcDbEntity
  8
10
  6
Continuous
100
AcDbLine
 10
0.8000011748057005
 20
0.0000009329239674
 30
0.0
 11
0.8000011748057005
 21
80.00000093292369
 31
0.0
  0
LWPOLYLINE
  5
DF88
330
DF77
100
AcDbEntity
  8
24
  6
CONTINOUS
100
AcDbPolyline
 90
        5
 70
     1
 43
0.0
 10
27.30000117480568
 20
47.00000093292375
 10
27.30000117480568
 20
55.00000093292367
 42
0.9999999999999998
 10
14.3000011748057
 20
55.00000093292367
 10
14.3000011748057
 20
47.00000093292375
 42
1.000000000000011
 10
27.30000117480568
 20
47.00000093292375
  0
LINE
  5
DF89
330
DF77
100
AcDbEntity
  8
17
  6
DASHDOT
100
AcDbLine
 10
81.30000117480545
 20
15.00000093292371
 30
0.0
 11
100.3000011748054
 21
15.00000093292371
 31
0.0
  0
CIRCLE
  5
DF8A
330
DF77
100
AcDbEntity
  8
24
  6
CONTINOUS
100
AcDbCircle
 10
-90.80000117480542
 20
15.00000093292371
 30
0.0
 40
6.499999999999982
210
0.0
220
0.0
230
-1.0
  0
LINE
  5
DF8B
330
DF77
100
AcDbEntity
  8
17
  6
DASHDOT
100
AcDbLine
 10
81.30000117480545
 20
55.0000009329236
 30
0.0
 11
100.3000011748054
 21
55.0000009329236
 31
0.0
  0
LINE
  5
DF8C
330
DF77
100
AcDbEntity
  8
17
  6
DASHDOT
100
AcDbLine
 10
81.30000117480545
 20
47.00000093292367
 30
0.0
 11
100.3000011748054
 21
47.00000093292367
 31
0.0
  0
LINE
  5
DF8D
330
DF77
100
AcDbEntity
  8
10
  6
Continuous
100
AcDbLine
 10
110.8000011748056
 20
80.0000009329236
 30
0.0
 11
110.8000011748056
 21
0.0000009329238821
 31
0.0
  0
LINE
  5
DF8E
330
DF77
100
AcDbEntity
  8
10
  6
Continuous
100
AcDbLine
 10
110.8000011748056
 20
0.0000009329238821
 30
0.0
 11
70.80000117480565
 21
0.0000009329238821
 31
0.0
  0
LINE
  5
DF8F
330
DF77
100
AcDbEntity
  8
10
  6
Continuous
100
AcDbLine
 10
70.80000117480565
 20
0.0000009329237685
 30
0.0
 11
70.80000117480565
 21
80.0000009329236
 31
0.0
  0
LWPOLYLINE
  5
DF90
330
DF77
100
AcDbEntity
  8
24
  6
CONTINOUS
100
AcDbPolyline
 90
        5
 70
     1
 43
0.0
 10
97.30000117480564
 20
47.00000093292367
 10
97.30000117480564
 20
55.0000009329236
 42
0.9999999999999998
 10
84.30000117480565
 20
55.0000009329236
 10
84.30000117480565
 20
47.00000093292367
 42
1.000000000000011
 10
97.30000117480564
 20
47.00000093292367
  0
LINE
  5
DF91
330
DF77
100
AcDbEntity
  8
17
  6
DASHDOT
100
AcDbLine
 10
151.3000011748052
 20
15.00000093292371
 30
0.0
 11
170.3000011748051
 21
15.00000093292371
 31
0.0
  0
CIRCLE
  5
DF92
330
DF77
100
AcDbEntity
  8
24
  6
CONTINOUS
100
AcDbCircle
 10
-160.8000011748051
 20
15.00000093292371
 30
0.0
 40
6.499999999999982
210
0.0
220
0.0
230
-1.0
  0
LINE
  5
DF93
330
DF77
100
AcDbEntity
  8
17
  6
DASHDOT
100
AcDbLine
 10
151.3000011748052
 20
55.0000009329236
 30
0.0
 11
170.3000011748051
 21
55.0000009329236
 31
0.0
  0
LINE
  5
DF94
330
DF77
100
AcDbEntity
  8
17
  6
DASHDOT
100
AcDbLine
 10
151.3000011748052
 20
47.00000093292367
 30
0.0
 11
170.3000011748051
 21
47.00000093292367
 31
0.0
  0
LINE
  5
DF95
330
DF77
100
AcDbEntity
  8
10
  6
Continuous
100
AcDbLine
 10
180.8000011748054
 20
80.0000009329236
 30
0.0
 11
180.8000011748054
 21
0.0000009329238821
 31
0.0
  0
LINE
  5
DF96
330
DF77
100
AcDbEntity
  8
10
  6
Continuous
100
AcDbLine
 10
180.8000011748054
 20
0.0000009329238821
 30
0.0
 11
140.8000011748054
 21
0.0000009329238821
 31
0.0
  0
LINE
  5
DF97
330
DF77
100
AcDbEntity
  8
10
  6
Continuous
100
AcDbLine
 10
140.8000011748054
 20
0.0000009329237685
 30
0.0
 11
140.8000011748054
 21
80.0000009329236
 31
0.0
  0
LWPOLYLINE
  5
DF98
330
DF77
100
AcDbEntity
  8
24
  6
CONTINOUS
100
AcDbPolyline
 90
        5
 70
     1
 43
0.0
 10
167.3000011748054
 20
47.00000093292367
 10
167.3000011748054
 20
55.0000009329236
 42
0.9999999999999998
 10
154.3000011748054
 20
55.0000009329236
 10
154.3000011748054
 20
47.00000093292367
 42
1.000000000000011
 10
167.3000011748054
 20
47.00000093292367
  0
ENDBLK
  5
DF9C
330
DF77
100
AcDbEntity
  8
0
100
AcDbBlockEnd
  0
ENDSEC
  0
SECTION
  2
ENTITIES
  0
MTEXT
  5
BF3
330
1E
100
AcDbEntity
  8
24
  6
Continuous
100
AcDbMText
 10
-1122.491452288449
 20
175.9782715550901
 30
0.0
 40
3.0
 41
0.0
 71
     1
 72
     1
  1
\A1;
 73
     1
 44
1.0
1001
ACAD
1000
MTEXTBEGIN
1070
    73
1070
     1
1070
    44
1040
1.0
1070
    74
1070
     0
1000
MTEXTEND
  0
MTEXT
  5
5C78
330
1E
100
AcDbEntity
  8
30
  6
Continuous
100
AcDbMText
 10
-1101.143783895141
 20
88.62852870035437
 30
0.0
 40
4.0
 41
0.0
 71
     9
 72
     1
  1

 73
     1
 44
1.0
1001
ACAD
1000
MTEXTBEGIN
1070
    73
1070
     1
1070
    44
1040
1.0
1070
    74
1070
     0
1000
MTEXTEND
  0
MTEXT
  5
6200
330
1E
100
AcDbEntity
  8
30
  6
Continuous
100
AcDbMText
 10
-1102.84454213051
 20
90.86832916645674
 30
0.0
 40
4.0
 41
0.0
 71
     9
 72
     1
  1

 73
     1
 44
1.0
1001
ACAD
1000
MTEXTBEGIN
1070
    73
1070
     1
1070
    44
1040
1.0
1070
    74
1070
     0
1000
MTEXTEND
  0
MTEXT
  5
7CA7
330
1E
100
AcDbEntity
  8
30
  6
Continuous
100
AcDbMText
 10
-1052.604901093596
 20
139.1522054711028
 30
0.0
 40
4.0
 41
0.0
 71
     9
 72
     1
  1
\A1;
 73
     1
 44
1.0
1001
ACAD
1000
MTEXTBEGIN
1070
    73
1070
     1
1070
    44
1040
1.0
1070
    74
1070
     0
1000
MTEXTEND
  0
MTEXT
  5
7CA9
330
1E
100
AcDbEntity
  8
30
  6
Continuous
100
AcDbMText
 10
-1045.864661743955
 20
136.4393073898492
 30
0.0
 40
4.0
 41
0.0
 71
     9
 72
     1
  1
\A1;
 73
     1
 44
1.0
1001
ACAD
1000
MTEXTBEGIN
1070
    73
1070
     1
1070
    44
1040
1.0
1070
    74
1070
     0
1000
MTEXTEND
  0
MTEXT
  5
89EA
330
1E
100
AcDbEntity
  8
19
  6
Continuous
100
AcDbMText
 10
373.539336092086
 20
389.9440714890056
 30
0.0
 40
8.0
 41
178.128670620229
 71
     1
 72
     5
  1
ZS800-CF 3P FC\PZS800-NF 3P FC
  7
STANDARD1
 73
     1
 44
1.0
1001
ACAD
1000
MTEXTBEGIN
1070
    73
1070
     1
1070
    44
1040
1.0
1070
    74
1070
     0
1000
MTEXTEND
  0
MTEXT
  5
8D78
330
1E
100
AcDbEntity
  8
30
  6
Continuous
100
AcDbMText
 10
-1491.738763006155
 20
136.439307389849
 30
0.0
 40
4.0
 41
0.0
 71
     9
 72
     1
  1
\A1;
 73
     1
 44
1.0
1001
ACAD
1000
MTEXTBEGIN
1070
    73
1070
     1
1070
    44
1040
1.0
1070
    74
1070
     0
1000
MTEXTEND
  0
LINE
  5
9579
330
1E
100
AcDbEntity
  8
10
  6
Continuous
100
AcDbLine
 10
386.9193624515276
 20
34.89865499999999
 30
0.0
 11
358.2527324515277
 21
45.21927999999995
 31
0.0
  0
LINE
  5
957A
330
1E
100
AcDbEntity
  8
16
100
AcDbLine
 10
510.9944274515274
 20
0.0000000000000284
 30
0.0
 11
334.5944274515279
 21
0.0000000000000284
 31
0.0
  0
LINE
  5
957B
330
1E
100
AcDbEntity
  8
10
  6
Continuous
100
AcDbLine
 10
386.2842974515276
 20
21.52302000000004
 30
0.0
 11
353.9168874515277
 21
33.17600499999993
 31
0.0
  0
LINE
  5
957C
330
1E
100
AcDbEntity
  8
10
  6
Continuous
100
AcDbLine
 10
379.810332451527
 20
44.57905000000001
 30
0.0
 11
355.3474324515274
 21
53.38623500000004
 31
0.0
  0
LINE
  5
957D
330
1E
100
AcDbEntity
  8
10
  6
Continuous
100
AcDbLine
 10
370.9353974515277
 20
19.92797499999995
 30
0.0
 11
346.4724974515271
 21
28.73515999999991
 31
0.0
  0
DIMENSION
  5
9581
330
1E
100
AcDbEntity
  8
30
  6
Continuous
100
AcDbDimension
  2
*D13
 10
496.9944274515269
 20
-310.0
 30
0.0
 11
424.4944274515274
 21
-304.0
 31
0.0
 70
    32
  1
 <> 
 71
     5
 42
144.9999999999993
  3
STANDARD1
100
AcDbAlignedDimension
 13
351.9944274515277
 23
5.000000000000143
 33
0.0
 14
496.9944274515269
 24
-136.9999999999995
 34
0.0
100
AcDbRotatedDimension
  0
LINE
  5
9587
330
1E
100
AcDbEntity
  8
16
100
AcDbLine
 10
-0.0000000000000142
 20
-221.8999999999993
 30
0.0
 11
-0.0000000000000142
 21
231.0999999999995
 31
0.0
  0
LINE
  5
958D
330
1E
100
AcDbEntity
  8
17
  6
DASHDOT
100
AcDbLine
 10
-70.00557254847257
 20
-221.8999999999993
 30
0.0
 11
-70.00557254847257
 21
-98.49999999999972
 31
0.0
  0
LINE
  5
958E
330
1E
100
AcDbEntity
  8
17
  6
DASHDOT
100
AcDbLine
 10
69.99442745152717
 20
-221.8999999999993
 30
0.0
 11
69.99442745152717
 21
-98.49999999999972
 31
0.0
  0
DIMENSION
  5
9597
330
1E
100
AcDbEntity
  8
30
  6
Continuous
100
AcDbDimension
  2
*D14
 10
69.79442745152717
 20
-247.6979374999991
 30
0.0
 11
-0.2055725484727016
 21
-241.6979374999991
 31
0.0
 70
    32
  1
 <> 
 71
     5
 42
139.9999999999996
  3
STANDARD1
100
AcDbAlignedDimension
 13
-70.20557254847259
 23
-221.8999999999993
 33
0.0
 14
69.79442745152717
 24
-221.8999999999993
 34
0.0
100
AcDbRotatedDimension
  0
DIMENSION
  5
9598
330
1E
100
AcDbEntity
  8
30
  6
Continuous
100
AcDbDimension
  2
*D15
 10
104.9944274515265
 20
-279.3973356080582
 30
0.0
 11
-0.0055725484727983
 21
-273.3973356080582
 31
0.0
 70
    32
  1
 <> 
 71
     5
 42
209.9999999999993
  3
STANDARD1
100
AcDbAlignedDimension
 13
-105.0055725484724
 23
-131.9999999999995
 33
0.0
 14
104.9944274515266
 24
-131.9999999999995
 34
0.0
100
AcDbRotatedDimension
  0
DIMENSION
  5
95A1
330
1E
100
AcDbEntity
  8
30
  6
Continuous
100
AcDbDimension
  2
*D16
 10
271.4933574515274
 20
-310.0
 30
0.0
 11
311.7438924515278
 21
-304.0
 31
0.0
 70
    33
  1
 <> 
 71
     5
 42
80.50107000000014
  3
STANDARD1
100
AcDbAlignedDimension
 13
351.9944274515277
 23
5.000000000000143
 33
0.0
 14
271.4933574515274
 24
5.000000000000143
 34
0.0
  0
DIMENSION
  5
95A3
330
1E
100
AcDbEntity
  8
30
  6
Continuous
100
AcDbDimension
  2
*D17
 10
89.7944274515272
 20
-230.8250754595472
 30
0.0
 11
69.79442745152717
 21
-224.8250754595471
 31
0.0
 70
    32
  1
 <> 
 71
     5
 42
40.0
  3
STANDARD1
100
AcDbAlignedDimension
 13
49.79442745152717
 23
-216.8999999999993
 33
0.0
 14
89.7944274515272
 24
-216.8999999999993
 34
0.0
100
AcDbRotatedDimension
  0
LINE
  5
95B4
330
1E
100
AcDbEntity
  8
17
  6
DASHDOT
100
AcDbLine
 10
-70.00557254847257
 20
231.0999999999995
 30
0.0
 11
-70.00557254847257
 21
107.4999999999997
 31
0.0
  0
LINE
  5
95B5
330
1E
100
AcDbEntity
  8
17
  6
DASHDOT
100
AcDbLine
 10
69.99442745152717
 20
231.0999999999995
 30
0.0
 11
69.99442745152717
 21
107.4999999999997
 31
0.0
  0
LINE
  5
95C0
330
1E
100
AcDbEntity
  8
10
  6
Continuous
100
AcDbLine
 10
104.9944274515272
 20
-46.49999999999976
 30
0.0
 11
-105.0055725484724
 21
-46.49999999999976
 31
0.0
  0
LINE
  5
95C1
330
1E
100
AcDbEntity
  8
10
  6
Continuous
100
AcDbLine
 10
104.9944274515272
 20
115.9999999999997
 30
0.0
 11
-105.0055725484724
 21
115.9999999999997
 31
0.0
  0
LINE
  5
95C2
330
1E
100
AcDbEntity
  8
10
  6
Continuous
100
AcDbLine
 10
-105.0055725484724
 20
-106.9999999999996
 30
0.0
 11
104.9944274515272
 21
-106.9999999999996
 31
0.0
  0
LINE
  5
95C3
330
1E
100
AcDbEntity
  8
16
100
AcDbLine
 10
140.694427451527
 20
0.0
 30
0.0
 11
-89.30557254847249
 21
0.0
 31
0.0
  0
LINE
  5
95C4
330
1E
100
AcDbEntity
  8
10
  6
Continuous
100
AcDbLine
 10
104.9944274515272
 20
55.49999999999985
 30
0.0
 11
-105.0055725484724
 21
55.49999999999985
 31
0.0
  0
LINE
  5
95C6
330
1E
100
AcDbEntity
  8
10
  6
Continuous
100
AcDbLine
 10
25.49442745152723
 20
44.99999999999988
 30
0.0
 11
25.49442745152723
 21
-44.99999999999989
 31
0.0
  0
LINE
  5
95C7
330
1E
100
AcDbEntity
  8
10
  6
Continuous
100
AcDbLine
 10
-25.50557254847253
 20
44.99999999999988
 30
0.0
 11
-25.50557254847253
 21
-44.99999999999989
 31
0.0
  0
LINE
  5
9605
330
1E
100
AcDbEntity
  8
10
  6
Continuous
100
AcDbLine
 10
25.49442745152723
 20
44.54681499999987
 30
0.0
 11
-25.50557254847253
 21
44.54681499999987
 31
0.0
  0
LINE
  5
9702
330
1E
100
AcDbEntity
  8
10
  6
Continuous
100
AcDbLine
 10
310.4871124515276
 20
47.53662499999992
 30
0.0
 11
346.4724974515271
 21
28.73515999999991
 31
0.0
  0
LINE
  5
9703
330
1E
100
AcDbEntity
  8
10
  6
Continuous
100
AcDbLine
 10
358.2527324515277
 20
45.21927999999995
 30
0.0
 11
353.9168874515277
 21
33.17600499999993
 31
0.0
  0
ARC
  5
9704
330
1E
100
AcDbEntity
  8
30
  6
Continuous
100
AcDbCircle
 10
496.996248004399
 20
3.806184726795663
 30
0.0
 40
225.5060555675516
100
AcDbArc
 50
165.139448309908
 51
179.6966782288774
  0
ARC
  5
9706
330
1E
100
AcDbEntity
  8
30
  6
Continuous
100
AcDbCircle
 10
496.9944274515269
 20
5.0
 30
0.0
 40
144.9999999999995
100
AcDbArc
 50
169.304221999999
 51
180.0
  0
ARC
  5
9707
330
1E
100
AcDbEntity
  8
10
  6
Continuous
100
AcDbCircle
 10
295.3979974515277
 20
61.04623499999993
 30
0.0
 40
15.99999999999996
100
AcDbArc
 50
19.39509599999842
 51
301.0049040000021
  0
LINE
  5
9709
330
1E
100
AcDbEntity
  8
10
  6
Continuous
100
AcDbLine
 10
315.6357124515277
 20
61.83740999999989
 30
0.0
 11
355.3474324515274
 21
53.38623500000004
 31
0.0
  0
ARC
  5
970A
330
1E
100
AcDbEntity
  8
10
  6
Continuous
100
AcDbCircle
 10
317.0927724515276
 20
68.68408499999988
 30
0.0
 40
6.999999999999982
100
AcDbArc
 50
199.3950959999983
 51
257.9859390000011
  0
ARC
  5
970B
330
1E
100
AcDbEntity
  8
10
  6
Continuous
100
AcDbCircle
 10
-307.2455624515278
 20
41.33240499999994
 30
0.0
 40
6.999999999999982
210
0.0
220
0.0
230
-1.0
100
AcDbArc
 50
58.99509599999789
 51
117.5859389999994
  0
DIMENSION
  5
9759
330
1E
100
AcDbEntity
  8
30
  6
Continuous
100
AcDbDimension
  2
*D3
 10
496.9944274515269
 20
-249.9999999999999
 30
0.0
 11
445.4944274515274
 21
-243.9999999999999
 31
0.0
 70
    32
  1
 <> 
 71
     5
 42
102.9999999999996
  3
STANDARD1
100
AcDbAlignedDimension
 13
393.9944274515275
 23
-49.99999999999976
 33
0.0
 14
496.9944274515269
 24
-136.9999999999995
 34
0.0
100
AcDbRotatedDimension
  0
DIMENSION
  5
975A
330
1E
100
AcDbEntity
  8
30
  6
Continuous
100
AcDbDimension
  2
*D4
 10
496.9944274515269
 20
-270.0
 30
0.0
 11
443.4944274515273
 21
-264.0
 31
0.0
 70
    32
  1
 <> 
 71
     5
 42
106.9999999999996
  3
STANDARD1
100
AcDbAlignedDimension
 13
389.9944274515273
 23
-49.99999999999976
 33
0.0
 14
496.9944274515269
 24
-136.9999999999995
 34
0.0
100
AcDbRotatedDimension
  0
DIMENSION
  5
975B
330
1E
100
AcDbEntity
  8
30
  6
Continuous
100
AcDbDimension
  2
*D5
 10
496.9944274515269
 20
-290.0
 30
0.0
 11
433.2444274515274
 21
-284.0
 31
0.0
 70
    32
  1
 <> 
 71
     5
 42
127.4999999999996
  3
STANDARD1
100
AcDbAlignedDimension
 13
369.4944274515274
 23
5.000000000000143
 33
0.0
 14
496.9944274515269
 24
-0.4999999999999477
 34
0.0
100
AcDbRotatedDimension
  0
DIMENSION
  5
975C
330
1E
100
AcDbEntity
  8
30
  6
Continuous
100
AcDbDimension
  2
*D6
 10
389.9944274515273
 20
-270.0
 30
0.0
 11
400.7944274515272
 21
-264.0
 31
0.0
 70
    32
  1
 <> 
 71
     5
 42
3.999999999999771
  3
STANDARD1
100
AcDbAlignedDimension
 13
385.9944274515274
 23
-0.4999999999999477
 33
0.0
 14
389.9944274515273
 24
-49.99999999999976
 34
0.0
100
AcDbRotatedDimension
1001
ACAD
1000
DSTYLE
1002
{
1070
   172
1070
     1
1002
}
  0
LINE
  5
9763
330
1E
100
AcDbEntity
  8
16
100
AcDbLine
 10
0.0
 20
-641.9999999999996
 30
0.0
 11
0.0
 21
-349.0000000000002
 31
0.0
  0
DIMENSION
  5
9765
330
1E
100
AcDbEntity
  8
30
  6
Continuous
100
AcDbDimension
  2
*D7
 10
34.79442745152786
 20
-667.0958749999996
 30
0.0
 11
-0.2055725484721332
 21
-661.0958749999996
 31
0.0
 70
    32
  1
 <> 
 71
     5
 42
69.99999999999999
  3
STANDARD1
100
AcDbAlignedDimension
 13
-35.20557254847211
 23
-621.9999999999997
 33
0.0
 14
34.79442745152786
 24
-621.9999999999997
 34
0.0
100
AcDbRotatedDimension
  0
LINE
  5
9767
330
1E
100
AcDbEntity
  8
16
100
AcDbLine
 10
114.7944274515274
 20
-500.0
 30
0.0
 11
-114.805572548472
 21
-500.0
 31
0.0
  0
LINE
  5
9768
330
1E
100
AcDbEntity
  8
12
  6
Continuous
 62
     3
100
AcDbLine
 10
-35.20557254847211
 20
-610.9999999999994
 30
0.0
 11
-35.20557254847211
 21
-622.9999999999996
 31
0.0
  0
CIRCLE
  5
9769
330
1E
100
AcDbEntity
  8
12
  6
Continuous
 62
     3
100
AcDbCircle
 10
-35.20557254847211
 20
-616.9999999999996
 30
0.0
 40
3.999999999999986
  0
LINE
  5
976A
330
1E
100
AcDbEntity
  8
12
  6
Continuous
 62
     3
100
AcDbLine
 10
-41.20557254847257
 20
-616.9999999999996
 30
0.0
 11
-29.20557254847167
 21
-616.9999999999996
 31
0.0
  0
LINE
  5
976B
330
1E
100
AcDbEntity
  8
12
  6
Continuous
 62
     3
100
AcDbLine
 10
34.79442745152786
 20
-610.9999999999994
 30
0.0
 11
34.79442745152786
 21
-622.9999999999996
 31
0.0
  0
CIRCLE
  5
976C
330
1E
100
AcDbEntity
  8
12
  6
Continuous
 62
     3
100
AcDbCircle
 10
34.79442745152786
 20
-616.9999999999996
 30
0.0
 40
3.999999999999986
  0
LINE
  5
976D
330
1E
100
AcDbEntity
  8
12
  6
Continuous
 62
     3
100
AcDbLine
 10
28.79442745152786
 20
-616.9999999999996
 30
0.0
 11
40.79442745152738
 21
-616.9999999999996
 31
0.0
  0
LINE
  5
9777
330
1E
100
AcDbEntity
  8
12
  6
Continuous
 62
     3
100
AcDbLine
 10
-35.20557254847211
 20
-368.0000000000002
 30
0.0
 11
-35.20557254847211
 21
-380.0000000000002
 31
0.0
  0
LINE
  5
9778
330
1E
100
AcDbEntity
  8
1
  6
Continuous
 62
     3
100
AcDbLine
 10
-41.20557254847257
 20
-374.0000000000002
 30
0.0
 11
-29.20557254847167
 21
-374.0000000000002
 31
0.0
  0
CIRCLE
  5
9779
330
1E
100
AcDbEntity
  8
12
  6
Continuous
 62
     3
100
AcDbCircle
 10
-35.20557254847211
 20
-374.0000000000002
 30
0.0
 40
3.999999999999986
  0
LINE
  5
977C
330
1E
100
AcDbEntity
  8
12
  6
Continuous
 62
     3
100
AcDbLine
 10
34.79442745152786
 20
-368.0000000000002
 30
0.0
 11
34.79442745152786
 21
-380.0000000000002
 31
0.0
  0
LINE
  5
977D
330
1E
100
AcDbEntity
  8
12
  6
Continuous
 62
     3
100
AcDbLine
 10
28.79442745152786
 20
-374.0000000000002
 30
0.0
 11
40.79442745152738
 21
-374.0000000000002
 31
0.0
  0
CIRCLE
  5
977E
330
1E
100
AcDbEntity
  8
12
  6
Continuous
 62
     3
100
AcDbCircle
 10
34.79442745152786
 20
-374.0000000000002
 30
0.0
 40
3.999999999999986
  0
DIMENSION
  5
9783
330
1E
100
AcDbEntity
  8
30
  6
Continuous
100
AcDbDimension
  2
*D8
 10
-126.4883530763108
 20
-374.0000000000002
 30
0.0
 11
-132.4883530763109
 21
-437.0
 31
0.0
 70
    32
  1
 <> 
 71
     0
 72
     0
 41
0.0
 42
125.9999999999997
  3
STANDARD1
100
AcDbAlignedDimension
 13
-112.334453076311
 23
-500.0
 33
0.0
 14
-41.20557254847257
 24
-374.0000000000002
 34
0.0
 50
90.0
100
AcDbRotatedDimension
  0
DIMENSION
  5
9784
330
1E
100
AcDbEntity
  8
30
  6
Continuous
100
AcDbDimension
  2
*D9
 10
-126.4883530763108
 20
-500.0
 30
0.0
 11
-132.4883530763109
 21
-558.4999999999999
 31
0.0
 70
    32
  1
 <> 
 71
     0
 72
     0
 41
0.0
 42
116.9999999999996
  3
STANDARD1
100
AcDbAlignedDimension
 13
-41.20557254847257
 23
-616.9999999999996
 33
0.0
 14
-114.805572548472
 24
-500.0
 34
0.0
 50
90.0
100
AcDbRotatedDimension
  0
LINE
  5
9799
330
1E
100
AcDbEntity
  8
16
100
AcDbLine
 10
400.0
 20
-641.9999999999998
 30
0.0
 11
400.0
 21
-330.0
 31
0.0
  0
LINE
  5
979D
330
1E
100
AcDbEntity
  8
16
100
AcDbLine
 10
514.9944274515278
 20
-500.0
 30
0.0
 11
285.3944274515273
 21
-500.0
 31
0.0
  0
LINE
  5
97A3
330
1E
100
AcDbEntity
  8
12
  6
DASHED
100
AcDbLine
 10
460.6944274515273
 20
-116.9999999999996
 30
0.0
 11
512.9944274515271
 21
-116.9999999999996
 31
0.0
  0
DIMENSION
  5
97B3
330
1E
100
AcDbEntity
  8
30
  6
Continuous
100
AcDbDimension
  2
*D10
 10
496.9944274515269
 20
-72.09587499999971
 30
0.0
 11
482.9944274515272
 21
-66.09587499999971
 31
0.0
 70
    32
  1
 <> 
 71
     5
 42
27.99999999999988
  3
STANDARD1
100
AcDbAlignedDimension
 13
468.9944274515274
 23
-103.7499999999994
 33
0.0
 14
496.9944274515269
 24
-78.34587499999968
 34
0.0
100
AcDbRotatedDimension
  0
DIMENSION
  5
97BB
330
1E
100
AcDbEntity
  8
30
  6
Continuous
100
AcDbDimension
  2
*D11
 10
496.9944274515269
 20
-72.09587499999971
 30
0.0
 11
503.4944274515273
 21
-72.09587499999971
 31
0.0
 70
   160
  1
 <> 
 71
     5
 42
13.00000000000011
  3
STANDARD1
100
AcDbAlignedDimension
 13
509.9944274515273
 23
-107.9999999999996
 33
0.0
 14
496.9944274515269
 24
-78.34587499999968
 34
0.0
100
AcDbRotatedDimension
  0
ARC
  5
97BE
330
1E
100
AcDbEntity
  8
10
  6
Continuous
100
AcDbCircle
 10
378.4553774515273
 20
40.81552999999987
 30
0.0
 40
3.999999999999986
100
AcDbArc
 50
340.1999999999993
 51
70.19999999999922
  0
ARC
  5
97C0
330
1E
100
AcDbEntity
  8
10
  6
Continuous
100
AcDbCircle
 10
372.2903474515275
 20
23.69150000000002
 30
0.0
 40
3.999999999999986
100
AcDbArc
 50
250.199999999999
 51
340.1999999999993
  0
ARC
  5
97C1
330
1E
100
AcDbEntity
  8
30
  6
Continuous
100
AcDbCircle
 10
496.9944274515269
 20
5.0
 30
0.0
 40
127.4999999999996
100
AcDbArc
 50
169.304221999999
 51
180.0
  0
LINE
  5
97C2
330
1E
100
AcDbEntity
  8
10
  6
Continuous
100
AcDbLine
 10
386.3764124515276
 20
24.04065499999999
 30
0.0
 11
370.8189174515278
 21
29.64169999999993
 31
0.0
  0
LINE
  5
97C3
330
1E
100
AcDbEntity
  8
10
  6
Continuous
100
AcDbLine
 10
386.7734674515276
 20
32.40037999999982
 30
0.0
 11
373.5288224515276
 21
37.1687450000001
 31
0.0
  0
LINE
  5
97C4
330
1E
100
AcDbEntity
  8
10
  6
Continuous
100
AcDbLine
 10
382.2189024515274
 20
39.46057499999989
 30
0.0
 11
376.0538724515274
 21
22.336545
 31
0.0
  0
LINE
  5
97C5
330
1E
100
AcDbEntity
  8
10
  6
Continuous
100
AcDbLine
 10
373.5288224515276
 20
37.1687450000001
 30
0.0
 11
370.8189174515278
 21
29.64169999999993
 31
0.0
  0
DIMENSION
  5
97CF
330
1E
100
AcDbEntity
  8
30
  6
Continuous
100
AcDbDimension
  2
*D12
 10
486.1944274515273
 20
-672.0958749999994
 30
0.0
 11
400.1944274515274
 21
-666.0958749999994
 31
0.0
 70
    32
  1
 <> 
 71
     5
 42
171.9999999999995
  3
STANDARD1
100
AcDbAlignedDimension
 13
314.1944274515275
 23
-545.0
 33
0.0
 14
486.1944274515273
 24
-545.0
 34
0.0
100
AcDbRotatedDimension
  0
LWPOLYLINE
  5
9C99
330
1E
100
AcDbEntity
  8
18
100
AcDbPolyline
 90
        4
 70
     0
 43
0.0
 10
-37.20557254847236
 20
140.9999999999996
 10
-37.20557254847236
 20
250.9999999999994
 10
-33.20557254847236
 20
250.9999999999994
 10
-33.20557254847236
 20
140.9999999999996
  0
LWPOLYLINE
  5
9CA8
330
1E
100
AcDbEntity
  8
18
100
AcDbPolyline
 90
        4
 70
     0
 43
0.0
 10
32.79442745152717
 20
140.9999999999996
 10
32.79442745152717
 20
250.9999999999994
 10
36.79442745152718
 20
250.9999999999994
 10
36.79442745152718
 20
140.9999999999996
  0
LWPOLYLINE
  5
9CEA
330
1E
100
AcDbEntity
  8
10
  6
Continuous
100
AcDbPolyline
 90
        4
 70
     1
 43
0.0
 10
-105.0055725484724
 20
140.9999999999996
 10
104.9944274515266
 20
140.9999999999996
 10
104.9944274515266
 20
-131.9999999999995
 10
-105.0055725484724
 20
-131.9999999999995
  0
LWPOLYLINE
  5
9CEB
330
1E
100
AcDbEntity
  8
10
  6
Continuous
100
AcDbPolyline
 90
        4
 70
     1
 43
0.0
 10
18.79442745152739
 20
-29.69999999999989
 10
24.29442745152718
 20
-29.69999999999989
 10
24.29442745152718
 20
-36.59999999999985
 10
18.79442745152739
 20
-36.59999999999985
  0
LWPOLYLINE
  5
9CED
330
1E
100
AcDbEntity
  8
10
  6
Continuous
100
AcDbPolyline
 90
        4
 70
     1
 43
0.0
 10
-21.00557254847254
 20
37.1687450000001
 10
20.59442745152736
 20
37.1687450000001
 10
20.59442745152736
 20
29.6416999999999
 10
-21.00557254847254
 20
29.6416999999999
  0
LWPOLYLINE
  5
9CEE
330
1E
100
AcDbEntity
  8
10
  6
Continuous
100
AcDbPolyline
 90
        4
 70
     0
 43
0.0
 10
-18.20557254847257
 20
29.6416999999999
 10
-18.20557254847257
 20
-25.49999999999987
 10
17.79442745152718
 20
-25.49999999999987
 10
17.79442745152718
 20
29.6416999999999
  0
LWPOLYLINE
  5
9CF0
330
1E
100
AcDbEntity
  8
10
  6
Continuous
100
AcDbPolyline
 90
        9
 70
     1
 43
0.0
 10
79.9944274515272
 20
44.99999999999989
 10
-80.00557254847254
 20
44.99999999999989
 42
0.4142135623730887
 10
-85.00557254847254
 20
39.99999999999995
 10
-85.00557254847231
 20
-39.99999999999987
 42
0.4142135623730919
 10
-80.00557254847254
 20
-44.99999999999989
 10
79.9944274515272
 20
-44.99999999999988
 42
0.4142135623730913
 10
84.9944274515272
 20
-39.99999999999987
 10
84.99442745152698
 20
39.99999999999995
 42
0.4142135623730943
 10
79.9944274515272
 20
44.99999999999989
  0
LWPOLYLINE
  5
9E8F
330
1E
100
AcDbEntity
  8
10
  6
Continuous
100
AcDbPolyline
 90
       13
 70
     0
 43
0.0
 10
496.9944274515269
 20
140.9999999999996
 10
399.9944274515275
 20
140.9999999999996
 10
399.9944274515275
 20
115.9999999999997
 10
397.4944274515273
 20
115.9999999999997
 10
397.4944274515273
 20
55.4999999999999
 10
393.9944274515275
 20
55.4999999999999
 10
393.9944274515275
 20
-46.49999999999976
 10
397.4944274515273
 20
-46.49999999999976
 10
397.4944274515273
 20
-106.9999999999996
 10
399.9944274515275
 20
-106.9999999999996
 10
399.9944274515275
 20
-131.9999999999995
 10
496.9944274515269
 20
-131.9999999999995
 10
496.9944274515269
 20
140.9999999999996
  0
LWPOLYLINE
  5
9E91
330
1E
100
AcDbEntity
  8
12
  6
DASHED
100
AcDbPolyline
 90
        4
 70
     0
 43
0.0
 10
399.9944274515275
 20
-108.7499999999996
 10
468.9944274515274
 20
-108.7499999999996
 10
468.9944274515275
 20
-125.2499999999995
 10
399.9944274515275
 20
-125.2499999999992
  0
LWPOLYLINE
  5
9E92
330
1E
100
AcDbEntity
  8
12
  6
DASHED
100
AcDbPolyline
 90
        6
 70
     0
 43
0.0
 10
468.9944274515274
 20
-108.9999999999994
 10
468.3244274515272
 20
-108.9999999999994
 42
0.4142135623730733
 10
462.9944274515271
 20
-114.3299999999994
 10
462.9944274515277
 20
-119.6699999999994
 42
0.414213562373041
 10
468.3244274515272
 20
-124.9999999999995
 10
468.9944274515274
 20
-124.9999999999995
  0
LWPOLYLINE
  5
9E94
330
1E
100
AcDbEntity
  8
12
  6
DASHED
100
AcDbPolyline
 90
        4
 70
     0
 43
0.0
 10
468.9944274515274
 20
-112.9999999999995
 10
509.9944274515273
 20
-112.9999999999995
 10
509.9944274515273
 20
-120.9999999999991
 10
468.9944274515275
 20
-121.0
  0
LWPOLYLINE
  5
9F23
330
1E
100
AcDbEntity
  8
11
 48
2.0
100
AcDbPolyline
 90
        9
 70
     1
 43
0.0
 10
480.1944274515273
 20
-454.0
 10
320.1944274515273
 20
-454.0
 42
0.4142135623730951
 10
314.1944274515275
 20
-460.0
 10
314.1944274515275
 20
-540.0
 42
0.4142135623730966
 10
320.1944274515273
 20
-546.0
 10
480.1944274515273
 20
-545.9999999999999
 42
0.4142135623730673
 10
486.1944274515277
 20
-540.0
 10
486.1944274515277
 20
-460.0
 42
0.4142135623731171
 10
480.1944274515273
 20
-454.0
  0
DIMENSION
  5
9F25
330
1E
100
AcDbEntity
  8
30
  6
Continuous
100
AcDbDimension
  2
*D19
 10
320.1944274515295
 20
-460.0000000000003
 30
0.0
 11
339.9138740087682
 21
-479.8496896549528
 31
0.0
 70
   164
 71
     5
 42
6.000000000002612
  3
STANDARD1
100
AcDbRadialDimension
 15
323.2448901548302
 25
-465.16668920062
 35
0.0
 40
0.0
  0
DIMENSION
  5
B2F9
330
1E
100
AcDbEntity
  8
30
  6
Continuous
100
AcDbDimension
  2
*D20
 10
-170.0510099086689
 20
-131.9999999999995
 30
0.0
 11
-176.0510099086689
 21
-171.9884940089618
 31
0.0
 70
    32
  1
 <> 
 71
     0
 72
     0
 41
0.0
 42
79.9769880179244
  3
STANDARD1
100
AcDbAlignedDimension
 13
-95.00557254847207
 23
-211.9769880179239
 33
0.0
 14
-105.0055725484724
 24
-131.9999999999995
 34
0.0
 50
90.0
100
AcDbRotatedDimension
  0
DIMENSION
  5
B2FB
330
1E
100
AcDbEntity
  8
30
  6
Continuous
100
AcDbDimension
  2
*D22
 10
-170.0510099086689
 20
140.9999999999996
 30
0.0
 11
-176.051009908669
 21
4.500000000000048
 31
0.0
 70
    32
  1
 <> 
 71
     0
 72
     0
 41
0.0
 42
272.9999999999993
  3
STANDARD1
100
AcDbAlignedDimension
 13
-105.0055725484724
 23
-131.9999999999995
 33
0.0
 14
-105.0055725484724
 24
140.9999999999996
 34
0.0
 50
90.0
100
AcDbRotatedDimension
  0
DIMENSION
  5
B2FC
330
1E
100
AcDbEntity
  8
30
  6
Continuous
100
AcDbDimension
  2
*D21
 10
-149.7685001231189
 20
0.0000000000000169
 30
0.0
 11
-155.7685001231192
 21
70.49999999999984
 31
0.0
 70
    32
  1
 <> 
 71
     0
 72
     0
 41
0.0
 42
140.9999999999996
  3
STANDARD1
100
AcDbAlignedDimension
 13
-105.0055725484724
 23
140.9999999999996
 33
0.0
 14
-130.119867970144
 24
0.0000000000000113
 34
0.0
 50
90.0
100
AcDbRotatedDimension
  0
DIMENSION
  5
B2FD
330
1E
100
AcDbEntity
  8
30
  6
Continuous
100
AcDbDimension
  2
*D23
 10
-149.7685001231189
 20
-131.9999999999995
 30
0.0
 11
-155.7685001231192
 21
-65.9999999999998
 31
0.0
 70
    32
  1
 <> 
 71
     0
 72
     0
 41
0.0
 42
131.9999999999995
  3
STANDARD1
100
AcDbAlignedDimension
 13
-130.6198679701443
 23
0.0000000000000114
 33
0.0
 14
-105.0055725484724
 24
-131.9999999999995
 34
0.0
 50
90.0
100
AcDbRotatedDimension
  0
DIMENSION
  5
B2FF
330
1E
100
AcDbEntity
  8
30
  6
Continuous
100
AcDbDimension
  2
*D24
 10
-170.0510099086689
 20
221.0230119820749
 30
0.0
 11
-176.051009908669
 21
181.0115059910371
 31
0.0
 70
    32
  1
 <> 
 71
     0
 72
     0
 41
0.0
 42
80.02301198207518
  3
STANDARD1
100
AcDbAlignedDimension
 13
-105.0055725484724
 23
140.9999999999996
 33
0.0
 14
-95.00557254847207
 24
221.0230119820749
 34
0.0
 50
90.0
100
AcDbRotatedDimension
  0
DIMENSION
  5
B3B1
330
1E
100
AcDbEntity
  8
30
  6
Continuous
100
AcDbDimension
  2
*D25
 10
-105.0055725484724
 20
250.9999999999995
 30
0.0
 11
-111.0055725484724
 21
195.9999999999995
 31
0.0
 70
    32
  1
 <> 
 71
     0
 72
     0
 41
0.0
 42
109.9999999999996
  3
STANDARD1
100
AcDbAlignedDimension
 13
-105.0055725484724
 23
140.9999999999996
 33
0.0
 14
-42.20557254847236
 24
250.9999999999995
 34
0.0
 50
90.0
100
AcDbRotatedDimension
  0
DIMENSION
  5
B84B
330
1E
100
AcDbEntity
  8
30
  6
Continuous
100
AcDbDimension
  2
*D29
 10
-70.00758210867535
 20
428.5072763109678
 30
0.0
 11
-87.50657732857391
 21
434.507276310968
 31
0.0
 70
    32
 71
     5
 42
34.99799043979715
  3
STANDARD1
100
AcDbAlignedDimension
 13
-105.0055725484724
 23
408.3231618618496
 33
0.0
 14
-70.00758210867535
 24
374.3514423453849
 34
0.0
100
AcDbRotatedDimension
  0
DIMENSION
  5
B84E
330
1E
100
AcDbEntity
  8
30
  6
Continuous
100
AcDbDimension
  2
*D28
 10
-0.0075821086755678
 20
428.5072763109678
 30
0.0
 11
-35.00758210867545
 21
434.507276310968
 31
0.0
 70
    32
 71
     5
 42
69.99999999999976
  3
STANDARD1
100
AcDbAlignedDimension
 13
-70.00758210867535
 23
374.3514423453849
 33
0.0
 14
-0.0075821086755711
 24
374.3514423453849
 34
0.0
100
AcDbRotatedDimension
  0
DIMENSION
  5
B84F
330
1E
100
AcDbEntity
  8
30
  6
Continuous
100
AcDbDimension
  2
*D30
 10
69.99032535114142
 20
428.5072763109678
 30
0.0
 11
34.99137162123293
 21
434.507276310968
 31
0.0
 70
    32
 71
     5
 42
69.997907459817
  3
STANDARD1
100
AcDbAlignedDimension
 13
-0.0075821086755711
 23
374.3514423453849
 33
0.0
 14
69.99032535114142
 24
377.3231618618495
 34
0.0
100
AcDbRotatedDimension
  0
DIMENSION
  5
B850
330
1E
100
AcDbEntity
  8
30
  6
Continuous
100
AcDbDimension
  2
*D31
 10
104.9944274515266
 20
428.4789958274327
 30
0.0
 11
87.49237640133417
 21
434.4789958274327
 31
0.0
 70
    32
 71
     5
 42
35.00410210038548
  3
STANDARD1
100
AcDbAlignedDimension
 13
69.99032535114142
 23
374.3231618618496
 33
0.0
 14
104.9944274515266
 24
408.3231618618492
 34
0.0
100
AcDbRotatedDimension
  0
LWPOLYLINE
  5
B85C
330
1E
100
AcDbEntity
  8
10
  6
Continuous
100
AcDbPolyline
 90
        4
 70
     1
 43
0.0
 10
-50.3116842090611
 20
364.3514423453849
 10
-90.31168420906107
 20
364.3514423453849
 10
-90.31168420906107
 20
374.3514423453849
 10
-50.3116842090611
 20
374.3514423453849
  0
LWPOLYLINE
  5
B85D
330
1E
100
AcDbEntity
  8
10
  6
Continuous
100
AcDbPolyline
 90
        4
 70
     1
 43
0.0
 10
19.68831579093865
 20
364.3514423453849
 10
-20.3116842090613
 20
364.3514423453849
 10
-20.3116842090613
 20
374.3514423453849
 10
19.68831579093865
 20
374.3514423453849
  0
LWPOLYLINE
  5
B85E
330
1E
100
AcDbEntity
  8
10
  6
Continuous
100
AcDbPolyline
 90
        4
 70
     1
 43
0.0
 10
89.4903253511414
 20
364.3231618618496
 10
49.49032535114142
 20
364.3231618618496
 10
49.49032535114142
 20
374.3231618618496
 10
89.4903253511414
 20
374.3231618618496
  0
DIMENSION
  5
B861
330
1E
100
AcDbEntity
  8
30
  6
Continuous
100
AcDbDimension
  2
*D27
 10
119.9960382445679
 20
374.3231618618496
 30
0.0
 11
174.0296018703143
 21
392.6981378532842
 31
0.0
 70
   160
  1
ON SIDE 32\POFF SIDE 36
 71
     5
 42
33.99999999999987
  3
STANDARD1
100
AcDbAlignedDimension
 13
107.2881848063548
 23
408.3231618618495
 33
0.0
 14
92.78818480635512
 24
374.3231618618496
 34
0.0
 50
90.0
100
AcDbRotatedDimension
1001
ACAD
1000
DSTYLE
1002
{
1070
   279
1070
     2
1070
   172
1070
     1
1002
}
  0
DIMENSION
  5
B862
330
1E
100
AcDbEntity
  8
30
  6
Continuous
100
AcDbDimension
  2
*D26
 10
119.9960382445679
 20
364.3231618618496
 30
0.0
 11
115.0266388302429
 21
369.1656703716525
 31
0.0
 70
   160
 71
     5
 42
10.0
  3
STANDARD1
100
AcDbAlignedDimension
 13
89.9944274515272
 23
374.3231618618496
 33
0.0
 14
89.9944274515272
 24
364.3231618618496
 34
0.0
 50
90.0
100
AcDbRotatedDimension
1001
ACAD
1000
DSTYLE
1002
{
1070
   172
1070
     1
1070
   279
1070
     2
1002
}
  0
LINE
  5
B863
330
1E
100
AcDbEntity
  8
16
100
AcDbLine
 10
-0.007582108675571
 20
422.3514423453848
 30
0.0
 11
-0.2055725484725883
 21
245.9231618618502
 31
0.0
  0
DIMENSION
  5
BB84
330
1E
100
AcDbEntity
  8
30
  6
Continuous
100
AcDbDimension
  2
*D32
 10
276.7416745707087
 20
-546.0
 30
0.0
 11
270.7416745707087
 21
-499.9999999999998
 31
0.0
 70
    32
 71
     5
 42
91.99999999999993
  3
STANDARD1
100
AcDbAlignedDimension
 13
320.1944274515273
 23
-454.0
 33
0.0
 14
320.1944274515273
 24
-546.0
 34
0.0
 50
90.0
100
AcDbRotatedDimension
  0
DIMENSION
  5
C025
330
1E
100
AcDbEntity
  8
30
  6
Continuous
100
AcDbDimension
  2
*D33
 10
35.39496680289136
 20
-377.9546621205188
 30
0.0
 11
39.5224377070536
 21
-352.4533455271201
 31
0.0
 70
   163
 71
     5
 42
7.999999999999829
  3
STANDARD1
100
AcDbDiametricDimension
 15
34.19388810016435
 25
-370.0453378794819
 35
0.0
 40
0.0
  0
DIMENSION
  5
C031
330
1E
100
AcDbEntity
  8
30
  6
Continuous
100
AcDbDimension
  2
*D34
 10
-117.1925670423142
 20
-44.99999999999988
 30
0.0
 11
-123.1925670423142
 21
-0.000000000000017
 31
0.0
 70
    33
 71
     5
 42
89.99999999999976
  3
STANDARD1
100
AcDbAlignedDimension
 13
-80.00557254847253
 23
44.99999999999988
 33
0.0
 14
-80.0055725484724
 24
-44.99999999999989
 34
0.0
  0
DIMENSION
  5
C047
330
1E
100
AcDbEntity
  8
30
  6
Continuous
100
AcDbDimension
  2
*D35
 10
-130.119867970144
 20
0.0000000000000116
 30
0.0
 11
-136.1198679701443
 21
27.74999999999991
 31
0.0
 70
    32
 71
     5
 42
55.49999999999985
  3
STANDARD1
100
AcDbAlignedDimension
 13
-105.0055725484724
 23
55.49999999999985
 33
0.0
 14
-89.30557254847249
 24
0.0
 34
0.0
 50
90.0
100
AcDbRotatedDimension
  0
DIMENSION
  5
C05D
330
1E
100
AcDbEntity
  8
30
  6
Continuous
100
AcDbDimension
  2
*D36
 10
-130.133381536251
 20
-46.49999999999975
 30
0.0
 11
-136.1333815362509
 21
-23.24999999999989
 31
0.0
 70
    32
 71
     5
 42
46.49999999999976
  3
STANDARD1
100
AcDbAlignedDimension
 13
-105.0055725484724
 23
0.0000000000000044
 33
0.0
 14
-105.0055725484724
 24
-46.49999999999976
 34
0.0
 50
90.0
100
AcDbRotatedDimension
  0
DIMENSION
  5
C572
330
1E
100
AcDbEntity
  8
30
  6
Continuous
100
AcDbDimension
  2
*D37
 10
497.0944274515272
 20
-229.8221017547434
 30
0.0
 11
479.110076306489
 21
-223.8221017547434
 31
0.0
 70
    32
  1
 <> 
 71
     5
 42
35.9687022900764
  3
STANDARD1
100
AcDbAlignedDimension
 13
461.1257251614508
 23
-217.6622137404574
 33
0.0
 14
497.0944274515272
 24
-137.5095419847322
 34
0.0
100
AcDbRotatedDimension
  0
LINE
  5
C573
330
1E
100
AcDbEntity
  8
17
  6
DASHDOT
100
AcDbLine
 10
446.5980534057254
 20
-157.5477099236636
 30
0.0
 11
465.6343129477106
 21
-157.5477099236636
 31
0.0
  0
LINE
  5
C574
330
1E
100
AcDbEntity
  8
17
  6
DASHDOT
100
AcDbLine
 10
446.5980534057254
 20
-165.5629770992359
 30
0.0
 11
465.6343129477106
 21
-165.5629770992359
 31
0.0
  0
LINE
  5
C575
330
1E
100
AcDbEntity
  8
17
  6
DASHDOT
100
AcDbLine
 10
446.5980534057254
 20
-197.6240458015261
 30
0.0
 11
465.6343129477106
 21
-197.6240458015261
 31
0.0
  0
LWPOLYLINE
  5
C576
330
1E
100
AcDbEntity
  8
10
  6
Continuous
100
AcDbPolyline
 90
        4
 70
     0
 43
0.0
 10
451.106641191985
 20
-132.4999999999995
 10
451.106641191985
 20
-212.6526717557246
 10
461.1257251614508
 20
-212.6526717557246
 10
461.1257251614508
 20
-132.4999999999995
  0
DIMENSION
  5
C577
330
1E
100
AcDbEntity
  8
30
  6
Continuous
100
AcDbDimension
  2
*D38
 10
461.1257251614508
 20
-229.7410203581033
 30
0.0
 11
455.7944274515273
 21
-224.9999999999999
 31
0.0
 70
   160
  1
<> 
 71
     5
 42
10.01908396946576
  3
STANDARD1
100
AcDbAlignedDimension
 13
451.106641191985
 23
-217.6622137404574
 33
0.0
 14
461.1257251614508
 24
-217.6622137404574
 34
0.0
100
AcDbRotatedDimension
1001
ACAD
1000
DSTYLE
1002
{
1070
   279
1070
     2
1002
}
  0
LINE
  5
C578
330
1E
100
AcDbEntity
  8
17
  6
DASHDOT
100
AcDbLine
 10
450.4056869935118
 20
165.5477099236638
 30
0.0
 11
469.4419465354966
 21
165.5477099236638
 31
0.0
  0
LINE
  5
C579
330
1E
100
AcDbEntity
  8
17
  6
DASHDOT
100
AcDbLine
 10
450.4056869935118
 20
173.562977099236
 30
0.0
 11
469.4419465354966
 21
173.562977099236
 31
0.0
  0
LINE
  5
C57A
330
1E
100
AcDbEntity
  8
17
  6
DASHDOT
100
AcDbLine
 10
450.4056869935118
 20
205.6240458015264
 30
0.0
 11
469.4419465354966
 21
205.6240458015264
 31
0.0
  0
DIMENSION
  5
C57B
330
1E
100
AcDbEntity
  8
30
  6
Continuous
100
AcDbDimension
  2
*D39
 10
464.9333587492368
 20
252.6176824904577
 30
0.0
 11
459.9238167645043
 21
252.6176824904577
 31
0.0
 70
   160
  1
 <> 
 71
     5
 42
10.01908396946555
  3
STANDARD1
100
AcDbAlignedDimension
 13
454.9142747797715
 23
225.6622137404578
 33
0.0
 14
464.9333587492368
 24
225.6622137404578
 34
0.0
100
AcDbRotatedDimension
  0
DIMENSION
  5
C57C
330
1E
100
AcDbEntity
  8
30
  6
Continuous
100
AcDbDimension
  2
*D40
 10
496.9944274515269
 20
252.4041249999994
 30
0.0
 11
480.9944274515272
 21
258.4041249999994
 31
0.0
 70
    32
  1
 <> 
 71
     5
 42
32.0
  3
STANDARD1
100
AcDbAlignedDimension
 13
464.9944274515272
 23
225.4999999999995
 33
0.0
 14
496.9944274515269
 24
145.4999999999996
 34
0.0
100
AcDbRotatedDimension
  0
LWPOLYLINE
  5
C57D
330
1E
100
AcDbEntity
  8
10
  6
Continuous
100
AcDbPolyline
 90
        4
 70
     0
 43
0.0
 10
454.9142747797715
 20
140.4999999999995
 10
454.9142747797715
 20
220.6526717557248
 10
464.9333587492371
 20
220.6526717557248
 10
464.9333587492371
 20
140.4999999999995
  0
LWPOLYLINE
  5
CDE3
330
1E
100
AcDbEntity
  8
10
  6
Continuous
100
AcDbPolyline
 90
        4
 70
     1
 43
0.0
 10
59.99442745152735
 20
-23.99999999999991
 10
67.99442745152735
 20
-23.99999999999991
 10
67.99442745152735
 20
-27.00000000000001
 10
59.99442745152735
 20
-27.00000000000001
  0
LWPOLYLINE
  5
CDE4
330
1E
100
AcDbEntity
  8
10
  6
Continuous
100
AcDbPolyline
 90
        4
 70
     1
 43
0.0
 10
59.99442745152735
 20
-18.99999999999988
 10
67.99442745152735
 20
-18.99999999999988
 10
67.99442745152735
 20
-22.00000000000001
 10
59.99442745152735
 20
-22.00000000000001
  0
CIRCLE
  5
CDE5
330
1E
100
AcDbEntity
  8
10
  6
Continuous
100
AcDbCircle
 10
63.99442745152735
 20
6.500000000000055
 30
0.0
 40
4.749999999999998
  0
CIRCLE
  5
CDE6
330
1E
100
AcDbEntity
  8
10
  6
Continuous
100
AcDbCircle
 10
63.99442745152735
 20
-8.499999999999943
 30
0.0
 40
3.499999999999998
  0
CIRCLE
  5
CDE7
330
1E
100
AcDbEntity
  8
10
  6
Continuous
100
AcDbCircle
 10
63.99442745152735
 20
6.500000000000055
 30
0.0
 40
3.499999999999998
  0
DIMENSION
  5
CE2A
330
1E
100
AcDbEntity
  8
30
  6
Continuous
100
AcDbDimension
  2
*D42
 10
486.1944274515273
 20
-672.0958749999994
 30
0.0
 11
400.1944274515274
 21
-666.0958749999994
 31
0.0
 70
    32
  1
 <> 
 71
     5
 42
171.9999999999995
  3
STANDARD1
100
AcDbAlignedDimension
 13
314.1944274515275
 23
-545.0
 33
0.0
 14
486.1944274515273
 24
-545.0
 34
0.0
100
AcDbRotatedDimension
  0
LINE
  5
D8EE
330
1E
100
AcDbEntity
  8
10
  6
CONTINOUS
100
AcDbLine
 10
-85.50762359866586
 20
301.3231618618497
 30
0.0
 11
84.49237640133398
 21
301.3231618618497
 31
0.0
  0
LINE
  5
D8EF
330
1E
100
AcDbEntity
  8
10
  6
CONTINOUS
100
AcDbLine
 10
-85.50762359866586
 20
301.3231618618497
 30
0.0
 11
-85.50762359866586
 21
305.3231618618493
 31
0.0
  0
LINE
  5
D8F0
330
1E
100
AcDbEntity
  8
10
  6
CONTINOUS
100
AcDbLine
 10
13.49237640133399
 20
283.3231618618496
 30
0.0
 11
13.49237640133399
 21
297.3231618618493
 31
0.0
  0
LINE
  5
D8F1
330
1E
100
AcDbEntity
  8
10
  6
CONTINOUS
100
AcDbLine
 10
-14.50762359866588
 20
283.3231618618496
 30
0.0
 11
-14.50762359866588
 21
297.3231618618493
 31
0.0
  0
LINE
  5
D8F2
330
1E
100
AcDbEntity
  8
10
  6
CONTINOUS
100
AcDbLine
 10
-21.50762359866587
 20
265.3231618618495
 30
0.0
 11
-21.50762359866587
 21
297.3231618618493
 31
0.0
  0
LINE
  5
D8F3
330
1E
100
AcDbEntity
  8
10
  6
CONTINOUS
100
AcDbLine
 10
20.09237640133413
 20
265.3231618618495
 30
0.0
 11
20.09237640133413
 21
297.3231618618493
 31
0.0
  0
LINE
  5
D8F4
330
1E
100
AcDbEntity
  8
10
  6
CONTINOUS
100
AcDbLine
 10
-14.50762359866588
 20
283.3231618618496
 30
0.0
 11
13.49237640133399
 21
283.3231618618496
 31
0.0
  0
LINE
  5
D8F5
330
1E
100
AcDbEntity
  8
10
  6
CONTINOUS
100
AcDbLine
 10
-21.30762359866589
 20
265.3231618618495
 30
0.0
 11
20.2923764013341
 21
265.3231618618495
 31
0.0
  0
LINE
  5
D8F6
330
1E
100
AcDbEntity
  8
10
  6
CONTINOUS
100
AcDbLine
 10
-26.00762359866588
 20
297.3231618618493
 30
0.0
 11
24.99237640133411
 21
297.3231618618493
 31
0.0
  0
LINE
  5
D8F7
330
1E
100
AcDbEntity
  8
10
  6
CONTINOUS
100
AcDbLine
 10
-26.00762359866588
 20
297.3231618618493
 30
0.0
 11
-26.00762359866588
 21
301.3231618618497
 31
0.0
  0
LINE
  5
D8F8
330
1E
100
AcDbEntity
  8
10
  6
CONTINOUS
100
AcDbLine
 10
24.99237640133411
 20
297.3231618618493
 30
0.0
 11
24.99237640133411
 21
301.3231618618497
 31
0.0
  0
LINE
  5
D8F9
330
1E
100
AcDbEntity
  8
10
  6
CONTINOUS
100
AcDbLine
 10
84.49237640133398
 20
301.3231618618497
 30
0.0
 11
84.49237640133398
 21
305.3231618618493
 31
0.0
  0
LWPOLYLINE
  5
DBB2
330
1E
100
AcDbEntity
  8
10
  6
Continuous
100
AcDbPolyline
 90
        4
 70
     0
 43
0.0
 10
59.09340192643067
 20
301.3231618618501
 10
59.09340192643067
 20
297.8231618618501
 10
68.59340192643069
 20
297.8231618618501
 10
68.59340192643069
 20
301.3231618618501
  0
LWPOLYLINE
  5
DBB3
330
1E
100
AcDbEntity
  8
10
  6
Continuous
100
AcDbPolyline
 90
        4
 70
     0
 43
0.0
 10
60.34340192643067
 20
297.8231618618501
 10
60.34340192643067
 20
294.8231618618501
 10
67.34340192643069
 20
294.8231618618501
 10
67.34340192643069
 20
297.8231618618501
  0
LWPOLYLINE
  5
DBB7
330
1E
100
AcDbEntity
  8
10
  6
CONTINOUS
100
AcDbPolyline
 90
        4
 70
     1
 43
0.0
 10
-105.0
 20
408.2999999999998
 10
105.0
 20
408.2999999999998
 10
105.0
 20
305.3
 10
-105.0
 20
305.3
  0
ARC
  5
DBEE
330
1E
100
AcDbEntity
  8
10
  6
Continuous
100
AcDbCircle
 10
-885.9944274514266
 20
4.499999999998219
 30
0.0
 40
499.9999999998991
210
0.0
220
0.0
230
-1.0
100
AcDbArc
 50
358.1088959999996
 51
359.828112
  0
LWPOLYLINE
  5
DBF1
330
1E
100
AcDbEntity
  8
10
  6
Continuous
100
AcDbPolyline
 90
        4
 70
     0
 43
0.0
 10
386.4944274515274
 20
10.0
 10
383.4944274515274
 20
10.0
 10
383.4944274515274
 20
3.0
 10
386.4944274515274
 20
3.0
  0
LWPOLYLINE
  5
DBF2
330
1E
100
AcDbEntity
  8
10
  6
Continuous
100
AcDbPolyline
 90
        4
 70
     0
 43
0.0
 10
389.9944274515275
 20
11.25
 10
386.4944274515274
 20
11.25
 10
386.4944274515274
 20
1.75
 10
389.9944274515275
 20
1.75
  0
LINE
  5
DBF3
330
1E
100
AcDbEntity
  8
10
  6
Continuous
100
AcDbLine
 10
389.9944274515275
 20
-44.99999999999997
 30
0.0
 11
389.9944274515275
 21
45.0
 31
0.0
  0
LWPOLYLINE
  5
DBF4
330
1E
100
AcDbEntity
  8
10
  6
Continuous
100
AcDbPolyline
 90
        4
 70
     0
 43
0.0
 10
393.9944274515275
 20
45.0
 10
386.9944274515272
 20
45.0
 10
386.9944274515272
 20
36.10696500000019
 10
386.0246783666451
 20
10.0
  0
LWPOLYLINE
  5
DBF5
330
1E
100
AcDbEntity
  8
10
  6
Continuous
100
AcDbPolyline
 90
        4
 70
     0
 43
0.0
 10
393.9944274515275
 20
-44.99999999999997
 10
386.9944274515272
 20
-44.99999999999997
 10
386.9944274515272
 20
-27.10695999999995
 10
386.2667515931752
 20
-11.99999943060006
  0
LWPOLYLINE
  5
DBF6
330
1E
100
AcDbEntity
  8
18
  6
DIVIDE
100
AcDbPolyline
 90
        4
 70
     1
 43
0.0
 10
295.0
 20
-359.0000000000002
 10
504.9944274515268
 20
-359.0000000000002
 10
504.9944274515268
 20
-631.9999999999994
 10
294.9944274515276
 20
-631.9999999999994
  0
LWPOLYLINE
  5
DBF7
330
1E
100
AcDbEntity
  8
18
  6
DIVIDE
100
AcDbPolyline
 90
        4
 70
     1
 43
0.0
 10
-105.0
 20
-359.0000000000002
 10
104.9944274515267
 20
-359.0000000000002
 10
104.9944274515267
 20
-631.9999999999994
 10
-105.0055725484724
 20
-631.9999999999994
  0
LWPOLYLINE
  5
DCEF
330
1E
100
AcDbEntity
  8
30
  6
Continuous
100
AcDbPolyline
 90
        4
 70
     1
 43
0.0
 10
-105.0055725484724
 20
140.9999999999996
 10
-90.0055725484724
 20
140.9999999999996
 10
-90.0055725484724
 20
220.9999999999996
 10
-105.0055725484724
 20
220.9999999999996
  0
LINE
  5
DEFC
330
1E
100
AcDbEntity
  8
24
  6
CONTINOUS
100
AcDbLine
 10
34.99442862633286
 20
137.2000009208717
 30
0.0
 11
34.99442862633286
 21
114.7000009208716
 31
0.0
  0
CIRCLE
  5
DEFD
330
1E
100
AcDbEntity
  8
24
  6
CONTINOUS
100
AcDbCircle
 10
34.99442862633286
 20
125.9500009208717
 30
0.0
 40
8.249999999999976
  0
DIMENSION
  5
DEFE
330
1E
100
AcDbEntity
  8
30
  6
Continuous
100
AcDbDimension
  2
*D47
 10
68.36434023605537
 20
199.7351306022587
 30
0.0
 11
84.9303805908787
 21
226.6550650445432
 31
0.0
 70
   163
 71
     5
 42
12.99999806930143
  3
STANDARD1
100
AcDbDiametricDimension
 15
71.44485987375259
 25
212.3648712394849
 35
0.0
 40
0.0
  0
CIRCLE
  5
DEFF
330
1E
100
AcDbEntity
  8
24
  6
CONTINOUS
100
AcDbCircle
 10
-70.00557137366683
 20
206.0500009208717
 30
0.0
 40
6.499999999999982
  0
CIRCLE
  5
DF00
330
1E
100
AcDbEntity
  8
24
  6
CONTINOUS
100
AcDbCircle
 10
-0.2055713736669595
 20
206.0500009208717
 30
0.0
 40
6.499999999999982
  0
LINE
  5
DF01
330
1E
100
AcDbEntity
  8
17
  6
DASHDOT
100
AcDbLine
 10
-79.50557137366683
 20
173.9500009208714
 30
0.0
 11
-60.50557137366681
 21
173.9500009208714
 31
0.0
  0
LINE
  5
DF02
330
1E
100
AcDbEntity
  8
17
  6
DASHDOT
100
AcDbLine
 10
-79.50557137366683
 20
206.0500009208717
 30
0.0
 11
-60.50557137366681
 21
206.0500009208717
 31
0.0
  0
LINE
  5
DF03
330
1E
100
AcDbEntity
  8
24
  6
CONTINOUS
100
AcDbLine
 10
23.74442862633286
 20
125.9500009208717
 30
0.0
 11
46.24442862633285
 21
125.9500009208717
 31
0.0
  0
LINE
  5
DF04
330
1E
100
AcDbEntity
  8
17
  6
DASHDOT
100
AcDbLine
 10
-9.705571373666961
 20
173.9500009208714
 30
0.0
 11
9.294428626333038
 21
173.9500009208714
 31
0.0
  0
LINE
  5
DF05
330
1E
100
AcDbEntity
  8
17
  6
DASHDOT
100
AcDbLine
 10
-9.705571373666961
 20
165.9500009208717
 30
0.0
 11
9.294428626333038
 21
165.9500009208717
 31
0.0
  0
LINE
  5
DF06
330
1E
100
AcDbEntity
  8
17
  6
DASHDOT
100
AcDbLine
 10
-9.705571373666961
 20
206.0500009208717
 30
0.0
 11
9.294428626333038
 21
206.0500009208717
 31
0.0
  0
CIRCLE
  5
DF07
330
1E
100
AcDbEntity
  8
24
  6
CONTINOUS
100
AcDbCircle
 10
70.00459755490364
 20
206.0499984208715
 30
0.0
 40
6.499999999999982
  0
DIMENSION
  5
DF08
330
1E
100
AcDbEntity
  8
30
  6
Continuous
100
AcDbDimension
  2
*D48
 10
76.50459755490364
 20
185.8733670614003
 30
0.0
 11
70.00459755490365
 21
185.8733670614003
 31
0.0
 70
   160
  1
 <> 
 71
     5
 42
12.99999999999997
  3
STANDARD1
100
AcDbAlignedDimension
 13
63.50459755490367
 23
174.9499984208712
 33
0.0
 14
76.50459755490364
 24
174.9499984208712
 34
0.0
100
AcDbRotatedDimension
  0
LINE
  5
DF09
330
1E
100
AcDbEntity
  8
17
  6
DASHDOT
100
AcDbLine
 10
60.50459755490368
 20
165.9499984208715
 30
0.0
 11
79.50459755490363
 21
165.9499984208715
 31
0.0
  0
LINE
  5
DF0A
330
1E
100
AcDbEntity
  8
17
  6
DASHDOT
100
AcDbLine
 10
60.50459755490368
 20
173.9499984208712
 30
0.0
 11
79.50459755490363
 21
173.9499984208712
 31
0.0
  0
LINE
  5
DF0B
330
1E
100
AcDbEntity
  8
17
  6
DASHDOT
100
AcDbLine
 10
60.50459755490368
 20
206.0499984208715
 30
0.0
 11
79.50459755490363
 21
206.0499984208715
 31
0.0
  0
LWPOLYLINE
  5
DF0C
330
1E
100
AcDbEntity
  8
10
  6
Continuous
100
AcDbPolyline
 90
        5
 70
     0
 43
0.0
 10
-58.80557137366679
 20
115.9500009208716
 42
1.0
 10
-58.80557137366679
 20
135.9500009208717
 10
-80.80557137366652
 20
135.9500009208717
 42
1.0
 10
-80.80557137366652
 20
115.9500009208717
 10
-80.80557137366652
 20
115.9500009208717
  0
LINE
  5
DF0D
330
1E
100
AcDbEntity
  8
10
  6
Continuous
100
AcDbLine
 10
-90.0055713736666
 20
140.9500009208717
 30
0.0
 11
-90.0055713736666
 21
220.9500009208716
 31
0.0
  0
LINE
  5
DF0E
330
1E
100
AcDbEntity
  8
10
  6
Continuous
100
AcDbLine
 10
-50.00557137366659
 20
220.9500009208716
 30
0.0
 11
-50.00557137366659
 21
140.9500009208717
 31
0.0
  0
LWPOLYLINE
  5
DF0F
330
1E
100
AcDbEntity
  8
24
  6
CONTINOUS
100
AcDbPolyline
 90
        5
 70
     1
 43
0.0
 10
-76.50557137366658
 20
173.9500009208714
 10
-76.50557137366658
 20
165.9500009208717
 42
0.9999999999999998
 10
-63.50557137366661
 20
165.9500009208717
 10
-63.50557137366661
 20
173.9500009208714
 42
1.000000000000011
 10
-76.50557137366658
 20
173.9500009208714
  0
LINE
  5
DF10
330
1E
100
AcDbEntity
  8
24
  6
CONTINOUS
100
AcDbLine
 10
-35.00557137366712
 20
137.2000009208717
 30
0.0
 11
-35.00557137366712
 21
114.7000009208716
 31
0.0
  0
LINE
  5
DF11
330
1E
100
AcDbEntity
  8
24
  6
CONTINOUS
100
AcDbLine
 10
-46.25557137366715
 20
125.9500009208717
 30
0.0
 11
-23.75557137366711
 21
125.9500009208717
 31
0.0
  0
CIRCLE
  5
DF12
330
1E
100
AcDbEntity
  8
24
  6
CONTINOUS
100
AcDbCircle
 10
-35.00557137366712
 20
125.9500009208717
 30
0.0
 40
8.249999999999976
  0
LINE
  5
DF13
330
1E
100
AcDbEntity
  8
17
  6
DASHDOT
100
AcDbLine
 10
-79.50557137366683
 20
165.9500009208717
 30
0.0
 11
-60.50557137366681
 21
165.9500009208717
 31
0.0
  0
LINE
  5
DF14
330
1E
100
AcDbEntity
  8
10
  6
Continuous
100
AcDbLine
 10
-20.0055713736676
 20
140.9500009208717
 30
0.0
 11
-20.0055713736676
 21
220.9500009208716
 31
0.0
  0
LINE
  5
DF15
330
1E
100
AcDbEntity
  8
10
  6
Continuous
100
AcDbLine
 10
19.99442862633189
 20
220.9500009208716
 30
0.0
 11
19.99442862633189
 21
140.9500009208717
 31
0.0
  0
LWPOLYLINE
  5
DF16
330
1E
100
AcDbEntity
  8
24
  6
CONTINOUS
100
AcDbPolyline
 90
        5
 70
     1
 43
0.0
 10
-6.705571373666945
 20
173.9500009208714
 10
-6.705571373666945
 20
165.9500009208717
 42
0.9999999999999998
 10
6.294428626332812
 20
165.9500009208717
 10
6.294428626333039
 20
173.9500009208714
 42
1.000000000000011
 10
-6.705571373666945
 20
173.9500009208714
  0
LWPOLYLINE
  5
DF17
330
1E
100
AcDbEntity
  8
10
  6
Continuous
100
AcDbPolyline
 90
        5
 70
     0
 43
0.0
 10
10.99442862633305
 20
115.9500009208716
 42
1.0
 10
10.99442862633305
 20
135.9500009208717
 10
-11.00557137366688
 20
135.9500009208717
 42
1.0
 10
-11.00557137366688
 20
115.9500009208717
 10
-11.00557137366688
 20
115.9500009208717
  0
LINE
  5
DF18
330
1E
100
AcDbEntity
  8
10
  6
Continuous
100
AcDbLine
 10
49.99442862633244
 20
140.9500009208717
 30
0.0
 11
49.99442862633244
 21
220.9500009208717
 31
0.0
  0
LINE
  5
DF19
330
1E
100
AcDbEntity
  8
10
  6
Continuous
100
AcDbLine
 10
89.99442862633239
 20
220.9500009208717
 30
0.0
 11
89.99442862633239
 21
140.9500009208717
 31
0.0
  0
LWPOLYLINE
  5
DF1A
330
1E
100
AcDbEntity
  8
24
  6
CONTINOUS
100
AcDbPolyline
 90
        5
 70
     1
 43
0.0
 10
63.59442862633239
 20
173.9500009208716
 10
63.59442862633239
 20
165.9500009208717
 42
0.9999999999999998
 10
76.5944286263322
 20
165.9500009208717
 10
76.59442862633238
 20
173.9500009208716
 42
1.000000000000011
 10
63.59442862633239
 20
173.9500009208716
  0
LWPOLYLINE
  5
DF1B
330
1E
100
AcDbEntity
  8
10
  6
Continuous
100
AcDbPolyline
 90
        5
 70
     0
 43
0.0
 10
81.19442862633226
 20
115.9500009208714
 42
1.0
 10
81.19442862633226
 20
135.9500009208714
 10
59.19442862633228
 20
135.9500009208714
 42
1.0
 10
59.19442862633228
 20
115.9500009208714
 10
59.19442862633228
 20
115.9500009208714
  0
LINE
  5
DF1C
330
1E
100
AcDbEntity
  8
10
  6
Continuous
100
AcDbLine
 10
-50.00557137366659
 20
220.9500009208716
 30
0.0
 11
-90.0055713736666
 21
220.9500009208716
 31
0.0
  0
LINE
  5
DF1D
330
1E
100
AcDbEntity
  8
10
  6
Continuous
100
AcDbLine
 10
19.99442862633189
 20
220.9500009208716
 30
0.0
 11
-20.0055713736676
 21
220.9500009208716
 31
0.0
  0
LINE
  5
DF1E
330
1E
100
AcDbEntity
  8
10
  6
Continuous
100
AcDbLine
 10
89.99442862633239
 20
220.9500009208717
 30
0.0
 11
49.99442862633244
 21
220.9500009208717
 31
0.0
  0
LINE
  5
DF9F
330
1E
100
AcDbEntity
  8
24
  6
CONTINOUS
100
AcDbLine
 10
-35.00557137366711
 20
-105.7499990670758
 30
0.0
 11
-35.00557137366711
 21
-128.2499990670757
 31
0.0
  0
LINE
  5
DFA0
330
1E
100
AcDbEntity
  8
24
  6
CONTINOUS
100
AcDbLine
 10
34.99442862633288
 20
-105.7499990670758
 30
0.0
 11
34.99442862633288
 21
-128.2499990670757
 31
0.0
  0
LINE
  5
DFA1
330
1E
100
AcDbEntity
  8
17
  6
DASHDOT
100
AcDbLine
 10
-79.50557137366691
 20
-196.9999990670757
 30
0.0
 11
-60.50557137366693
 21
-196.9999990670757
 31
0.0
  0
CIRCLE
  5
DFA2
330
1E
100
AcDbEntity
  8
24
  6
CONTINOUS
100
AcDbCircle
 10
70.00557137366694
 20
-196.9999990670757
 30
0.0
 40
6.499999999999982
210
0.0
220
0.0
230
-1.0
  0
LINE
  5
DFA3
330
1E
100
AcDbEntity
  8
17
  6
DASHDOT
100
AcDbLine
 10
-79.50557137366691
 20
-156.9999990670758
 30
0.0
 11
-60.50557137366693
 21
-156.9999990670758
 31
0.0
  0
LINE
  5
DFA4
330
1E
100
AcDbEntity
  8
17
  6
DASHDOT
100
AcDbLine
 10
-79.50557137366691
 20
-164.9999990670757
 30
0.0
 11
-60.50557137366693
 21
-164.9999990670757
 31
0.0
  0
LINE
  5
DFA5
330
1E
100
AcDbEntity
  8
24
  6
CONTINOUS
100
AcDbLine
 10
-46.2555713736669
 20
-116.9999990670759
 30
0.0
 11
-23.7555713736671
 21
-116.9999990670759
 31
0.0
  0
CIRCLE
  5
DFA6
330
1E
100
AcDbEntity
  8
24
  6
CONTINOUS
100
AcDbCircle
 10
-35.00557137366711
 20
-116.9999990670759
 30
0.0
 40
8.249999999999976
  0
LINE
  5
DFA7
330
1E
100
AcDbEntity
  8
24
  6
CONTINOUS
100
AcDbLine
 10
23.74442862633287
 20
-116.9999990670759
 30
0.0
 11
46.24442862633286
 21
-116.9999990670759
 31
0.0
  0
CIRCLE
  5
DFA8
330
1E
100
AcDbEntity
  8
24
  6
CONTINOUS
100
AcDbCircle
 10
34.99442862633288
 20
-116.9999990670759
 30
0.0
 40
8.249999999999976
  0
LWPOLYLINE
  5
DFA9
330
1E
100
AcDbEntity
  8
10
  6
Continuous
100
AcDbPolyline
 90
        5
 70
     0
 43
0.0
 10
-80.80557137366666
 20
-106.9999990670758
 42
1.0
 10
-80.80557137366666
 20
-126.9999990670759
 10
-58.8055713736669
 20
-126.9999990670759
 42
1.0
 10
-58.8055713736669
 20
-106.9999990670758
 10
-58.8055713736669
 20
-106.9999990670758
  0
LWPOLYLINE
  5
DFAA
330
1E
100
AcDbEntity
  8
10
  6
Continuous
100
AcDbPolyline
 90
        5
 70
     0
 43
0.0
 10
-10.80557137366707
 20
-106.9999990670758
 42
1.0
 10
-10.80557137366707
 20
-126.9999990670759
 10
11.19442862633292
 20
-126.9999990670759
 42
1.0
 10
11.19442862633292
 20
-106.9999990670758
 10
11.19442862633292
 20
-106.9999990670758
  0
LWPOLYLINE
  5
DFAB
330
1E
100
AcDbEntity
  8
10
  6
Continuous
100
AcDbPolyline
 90
        5
 70
     0
 43
0.0
 10
59.19442862633311
 20
-106.9999990670758
 42
1.0
 10
59.19442862633311
 20
-126.9999990670759
 10
81.19442862633285
 20
-126.9999990670759
 42
1.0
 10
81.19442862633285
 20
-106.9999990670758
 10
81.19442862633285
 20
-106.9999990670758
  0
LINE
  5
DFAC
330
1E
100
AcDbEntity
  8
10
  6
Continuous
100
AcDbLine
 10
-50.00557137366672
 20
-131.9999990670758
 30
0.0
 11
-50.00557137366672
 21
-211.9999990670756
 31
0.0
  0
LINE
  5
DFAD
330
1E
100
AcDbEntity
  8
10
  6
Continuous
100
AcDbLine
 10
-50.00557137366672
 20
-211.9999990670756
 30
0.0
 11
-90.00557137366667
 21
-211.9999990670756
 31
0.0
  0
LINE
  5
DFAE
330
1E
100
AcDbEntity
  8
10
  6
Continuous
100
AcDbLine
 10
-90.00557137366667
 20
-211.9999990670756
 30
0.0
 11
-90.00557137366667
 21
-131.9999990670758
 31
0.0
  0
LWPOLYLINE
  5
DFAF
330
1E
100
AcDbEntity
  8
24
  6
CONTINOUS
100
AcDbPolyline
 90
        5
 70
     1
 43
0.0
 10
-63.50557137366672
 20
-164.9999990670757
 10
-63.50557137366672
 20
-156.9999990670758
 42
0.9999999999999998
 10
-76.50557137366668
 20
-156.9999990670758
 10
-76.50557137366668
 20
-164.9999990670757
 42
1.000000000000011
 10
-63.50557137366672
 20
-164.9999990670757
  0
LINE
  5
DFB0
330
1E
100
AcDbEntity
  8
17
  6
DASHDOT
100
AcDbLine
 10
-9.505571373666958
 20
-196.9999990670758
 30
0.0
 11
9.494428626333027
 21
-196.9999990670758
 31
0.0
  0
CIRCLE
  5
DFB1
330
1E
100
AcDbEntity
  8
24
  6
CONTINOUS
100
AcDbCircle
 10
0.0055713736669851
 20
-196.9999990670758
 30
0.0
 40
6.499999999999982
210
0.0
220
0.0
230
-1.0
  0
LINE
  5
DFB2
330
1E
100
AcDbEntity
  8
17
  6
DASHDOT
100
AcDbLine
 10
-9.505571373666958
 20
-156.9999990670759
 30
0.0
 11
9.494428626333027
 21
-156.9999990670759
 31
0.0
  0
LINE
  5
DFB3
330
1E
100
AcDbEntity
  8
17
  6
DASHDOT
100
AcDbLine
 10
-9.505571373666958
 20
-164.9999990670758
 30
0.0
 11
9.494428626333027
 21
-164.9999990670758
 31
0.0
  0
LINE
  5
DFB4
330
1E
100
AcDbEntity
  8
10
  6
Continuous
100
AcDbLine
 10
19.99442862633324
 20
-131.9999990670759
 30
0.0
 11
19.99442862633324
 21
-211.9999990670756
 31
0.0
  0
LINE
  5
DFB5
330
1E
100
AcDbEntity
  8
10
  6
Continuous
100
AcDbLine
 10
19.99442862633324
 20
-211.9999990670756
 30
0.0
 11
-20.00557137366673
 21
-211.9999990670756
 31
0.0
  0
LINE
  5
DFB6
330
1E
100
AcDbEntity
  8
10
  6
Continuous
100
AcDbLine
 10
-20.00557137366673
 20
-211.9999990670757
 30
0.0
 11
-20.00557137366673
 21
-131.9999990670759
 31
0.0
  0
LWPOLYLINE
  5
DFB7
330
1E
100
AcDbEntity
  8
24
  6
CONTINOUS
100
AcDbPolyline
 90
        5
 70
     1
 43
0.0
 10
6.494428626333242
 20
-164.9999990670758
 10
6.494428626333242
 20
-156.9999990670759
 42
0.9999999999999998
 10
-6.505571373666728
 20
-156.9999990670759
 10
-6.505571373666728
 20
-164.9999990670758
 42
1.000000000000011
 10
6.494428626333242
 20
-164.9999990670758
  0
LINE
  5
DFB8
330
1E
100
AcDbEntity
  8
17
  6
DASHDOT
100
AcDbLine
 10
60.49442862633288
 20
-196.9999990670758
 30
0.0
 11
79.49442862633285
 21
-196.9999990670758
 31
0.0
  0
CIRCLE
  5
DFB9
330
1E
100
AcDbEntity
  8
24
  6
CONTINOUS
100
AcDbCircle
 10
-69.99442862633284
 20
-196.9999990670758
 30
0.0
 40
6.499999999999982
210
0.0
220
0.0
230
-1.0
  0
LINE
  5
DFBA
330
1E
100
AcDbEntity
  8
17
  6
DASHDOT
100
AcDbLine
 10
60.49442862633288
 20
-156.9999990670759
 30
0.0
 11
79.49442862633285
 21
-156.9999990670759
 31
0.0
  0
LINE
  5
DFBB
330
1E
100
AcDbEntity
  8
17
  6
DASHDOT
100
AcDbLine
 10
60.49442862633288
 20
-164.9999990670758
 30
0.0
 11
79.49442862633285
 21
-164.9999990670758
 31
0.0
  0
LINE
  5
DFBC
330
1E
100
AcDbEntity
  8
10
  6
Continuous
100
AcDbLine
 10
89.99442862633307
 20
-131.9999990670759
 30
0.0
 11
89.99442862633307
 21
-211.9999990670756
 31
0.0
  0
LINE
  5
DFBD
330
1E
100
AcDbEntity
  8
10
  6
Continuous
100
AcDbLine
 10
89.99442862633307
 20
-211.9999990670756
 30
0.0
 11
49.99442862633308
 21
-211.9999990670756
 31
0.0
  0
LINE
  5
DFBE
330
1E
100
AcDbEntity
  8
10
  6
Continuous
100
AcDbLine
 10
49.99442862633308
 20
-211.9999990670757
 30
0.0
 11
49.99442862633308
 21
-131.9999990670759
 31
0.0
  0
LWPOLYLINE
  5
DFBF
330
1E
100
AcDbEntity
  8
24
  6
CONTINOUS
100
AcDbPolyline
 90
        5
 70
     1
 43
0.0
 10
76.49442862633306
 20
-164.9999990670758
 10
76.49442862633306
 20
-156.9999990670759
 42
0.9999999999999998
 10
63.49442862633307
 20
-156.9999990670759
 10
63.49442862633307
 20
-164.9999990670758
 42
1.000000000000011
 10
76.49442862633306
 20
-164.9999990670758
  0
VIEWPORT
  5
9AC
102
{ACAD_XDICTIONARY
360
E042
102
}
330
1A
100
AcDbEntity
 67
     1
  8
0
  6
Continuous
100
AcDbViewport
 10
171.999535
 20
144.1384739999999
 30
0.0
 40
488.867686
 41
292.351491
 68
    -1
 69
     1
 12
171.999535
 22
144.1384739999999
 13
0.0
 23
0.0
 14
10.0
 24
10.0
 15
10.0
 25
10.0
 16
0.0
 26
0.0
 36
1.0
 17
0.0
 27
0.0
 37
0.0
 42
50.0
 43
0.0
 44
0.0
 45
292.351491
 50
0.0
 51
0.0
 72
   100
 90
    32800
  1

281
     0
 71
     1
 74
     0
110
0.0
120
0.0
130
0.0
111
1.0
121
0.0
131
0.0
112
0.0
122
1.0
132
0.0
 79
     0
146
0.0
  0
ENDSEC
  0
SECTION
  2
OBJECTS
  0
DICTIONARY
  5
C
330
0
100
AcDbDictionary
281
     1
  3
ACAD_CIP_PREVIOUS_PRODUCT_INFO
350
DCE7
  3
ACAD_COLOR
350
DCC8
  3
ACAD_DETAILVIEWSTYLE
350
DCE1
  3
ACAD_GROUP
350
D
  3
ACAD_LAYOUT
350
19
  3
ACAD_MATERIAL
350
DC96
  3
ACAD_MLEADERSTYLE
350
DCDD
  3
ACAD_MLINESTYLE
350
16
  3
ACAD_PLOTSETTINGS
350
18
  3
ACAD_PLOTSTYLENAME
350
E
  3
ACAD_SCALELIST
350
DCCB
  3
ACAD_SECTIONVIEWSTYLE
350
DCDF
  3
ACAD_TABLESTYLE
350
DCC9
  3
ACAD_VISUALSTYLE
350
DCAF
  3
ACADDIM
350
6D5E
  3
ACDB_RECOMPOSE_DATA
350
E040
  3
ACDBVARIABLEDICTIONARY
350
5697
  3
DWGPROPS
350
E041
  0
DICTIONARY
  5
DFCE
330
10
100
AcDbDictionary
280
     1
281
     1
  3
ADSK_XREC_LAYER_RECONCILED
360
DFCF
  0
DICTIONARY
  5
DFD0
330
2F
100
AcDbDictionary
280
     1
281
     1
  3
ADSK_XREC_LAYER_RECONCILED
360
DFD1
  0
DICTIONARY
  5
DFD2
330
31
100
AcDbDictionary
280
     1
281
     1
  3
ADSK_XREC_LAYER_RECONCILED
360
DFD3
  0
DICTIONARY
  5
DFD4
330
35
100
AcDbDictionary
280
     1
281
     1
  3
ADSK_XREC_LAYER_RECONCILED
360
DFD5
  0
DICTIONARY
  5
DFD6
330
38
100
AcDbDictionary
280
     1
281
     1
  3
ADSK_XREC_LAYER_RECONCILED
360
DFD7
  0
DICTIONARY
  5
DFD8
330
3D
100
AcDbDictionary
280
     1
281
     1
  3
ADSK_XREC_LAYER_RECONCILED
360
DFD9
  0
DICTIONARY
  5
DFDA
330
3A2
100
AcDbDictionary
280
     1
281
     1
  3
ADSK_XREC_LAYER_RECONCILED
360
DFDB
  0
DICTIONARY
  5
DFDC
330
3BBA
100
AcDbDictionary
280
     1
281
     1
  3
ADSK_XREC_LAYER_RECONCILED
360
DFDD
  0
DICTIONARY
  5
DFDE
330
67A8
100
AcDbDictionary
280
     1
281
     1
  3
ADSK_XREC_LAYER_RECONCILED
360
DFDF
  0
DICTIONARY
  5
DFE0
330
7BC8
100
AcDbDictionary
280
     1
281
     1
  3
ADSK_XREC_LAYER_RECONCILED
360
DFE1
  0
DICTIONARY
  5
DFE2
330
C01C
100
AcDbDictionary
280
     1
281
     1
  3
ADSK_XREC_LAYER_RECONCILED
360
DFE3
  0
DICTIONARY
  5
178
330
1E
100
AcDbDictionary
280
     1
281
     1
  3
ACAD_LAYOUTSELFREF
360
9011
  0
DICTIONARY
  5
17A
330
1A
100
AcDbDictionary
280
     1
281
     1
  3
ACAD_LAYOUTSELFREF
360
9010
  0
DICTIONARY
  5
DD13
330
DCF1
100
AcDbDictionary
280
     1
281
     1
  3
ACAD_SORTENTS
360
DD14
  0
DICTIONARY
  5
DF99
330
DF77
100
AcDbDictionary
280
     1
281
     1
  3
ACAD_SORTENTS
360
DF9A
  0
DICTIONARY
  5
DFF8
330
DAB6
100
AcDbDictionary
280
     1
281
     1
  3
ACAD_MTEXT_RT
360
E049
  0
DICTIONARY
  5
DFF6
330
D9CA
100
AcDbDictionary
280
     1
281
     1
  3
ACAD_MTEXT_RT
360
E048
  0
DICTIONARY
  5
DEC3
330
DEC2
100
AcDbDictionary
280
     1
281
     1
  3
ACAD_MTEXT_RT
360
E07F
  0
DICTIONARY
  5
E034
330
DF6B
100
AcDbDictionary
280
     1
281
     1
  3
ACAD_MTEXT_RT
360
E080
  0
DICTIONARY
  5
E042
330
9AC
100
AcDbDictionary
280
     1
281
     1
  3
ACAD_XREC_ROUNDTRIP
360
E043
  0
XRECORD
  5
DCE7
102
{ACAD_REACTORS
330
C
102
}
330
C
100
AcDbXrecord
280
     1
300
ACDLT
300
2015
300
ACDLT_F_S
  0
DICTIONARY
  5
DCC8
102
{ACAD_REACTORS
330
C
102
}
330
C
100
AcDbDictionary
281
     1
  0
DICTIONARY
  5
DCE1
102
{ACAD_REACTORS
330
C
102
}
330
C
100
AcDbDictionary
281
     1
  3
Imperial24
350
DCE2
  0
DICTIONARY
  5
D
102
{ACAD_REACTORS
330
C
102
}
330
C
100
AcDbDictionary
281
     1
  0
DICTIONARY
  5
19
102
{ACAD_REACTORS
330
C
102
}
330
C
100
AcDbDictionary
281
     1
  3
Model
350
904E
  3
ﾚｲｱｳﾄ1
350
904F
  0
DICTIONARY
  5
DC96
102
{ACAD_REACTORS
330
C
102
}
330
C
100
AcDbDictionary
281
     1
  3
ByBlock
350
DC9F
  3
ByLayer
350
DC97
  3
Global
350
DCA7
  0
DICTIONARY
  5
DCDD
102
{ACAD_REACTORS
330
C
102
}
330
C
100
AcDbDictionary
281
     1
  3
Standard
350
DCDE
  0
DICTIONARY
  5
16
102
{ACAD_REACTORS
330
C
102
}
330
C
100
AcDbDictionary
281
     1
  3
STANDARD
350
17
  0
DICTIONARY
  5
18
102
{ACAD_REACTORS
330
C
102
}
330
C
100
AcDbDictionary
281
     1
  0
ACDBDICTIONARYWDFLT
  5
E
102
{ACAD_REACTORS
330
C
102
}
330
C
100
AcDbDictionary
281
     1
  3
Normal
350
F
100
AcDbDictionaryWithDefault
340
F
  0
DICTIONARY
  5
DCCB
102
{ACAD_REACTORS
330
C
102
}
330
C
100
AcDbDictionary
281
     1
  3
A0
350
DCCC
  3
A1
350
DCCD
  3
A2
350
DCCE
  3
A3
350
DCCF
  3
A4
350
DCD0
  3
A5
350
DCD1
  3
A6
350
DCD2
  3
A7
350
DCD3
  3
A8
350
DCD4
  3
A9
350
DCD5
  3
B0
350
DCD6
  3
B1
350
DCD7
  3
B2
350
DCD8
  3
B3
350
DCD9
  3
B4
350
DCDA
  3
B5
350
DCDB
  3
B6
350
DCDC
  0
DICTIONARY
  5
DCDF
102
{ACAD_REACTORS
330
C
102
}
330
C
100
AcDbDictionary
281
     1
  3
Imperial24
350
DCE0
  0
DICTIONARY
  5
DCC9
102
{ACAD_REACTORS
330
C
102
}
330
C
100
AcDbDictionary
281
     1
  3
Standard
350
DCCA
  0
DICTIONARY
  5
DCAF
102
{ACAD_REACTORS
330
C
102
}
330
C
100
AcDbDictionary
281
     1
  3
2dWireframe
350
DCB5
  3
Basic
350
DCB4
  3
Brighten
350
DCBB
  3
ColorChange
350
DCBF
  3
Conceptual
350
DCB8
  3
Dim
350
DCBA
  3
EdgeColorOff
350
DCC7
  3
Facepattern
350
DCBE
  3
Flat
350
DCB0
  3
FlatWithEdges
350
DCB1
  3
Gouraud
350
DCB2
  3
GouraudWithEdges
350
DCB3
  3
Hidden
350
DCB7
  3
JitterOff
350
DCC5
  3
Linepattern
350
DCBD
  3
OverhangOff
350
DCC6
  3
Realistic
350
DCB9
  3
Shaded
350
DCC4
  3
Shaded with edges
350
DCC3
  3
Shades of Gray
350
DCC0
  3
Sketchy
350
DCC1
  3
Thicken
350
DCBC
  3
Wireframe
350
DCB6
  3
X-Ray
350
DCC2
  0
XRECORD
  5
6D5E
102
{ACAD_REACTORS
330
C
102
}
330
C
100
AcDbXrecord
280
     1
 90
   990106
  3

 60
     0
 61
     0
 62
     1
 63
     3
 64
     0
 65
     0
 66
     0
 67
     3
 68
     1
 69
     0
 70
     0
 71
     0
 72
     0
 40
0.0
170
     0
340
7CA9
  0
XRECORD
  5
E040
102
{ACAD_REACTORS
330
C
102
}
330
C
100
AcDbXrecord
280
     1
 90
        1
330
DCCA
  0
DICTIONARY
  5
5697
102
{ACAD_REACTORS
330
C
102
}
330
C
100
AcDbDictionary
281
     1
  3
CANNOSCALE
350
DFE8
  3
CMLEADERSTYLE
350
DFE5
  3
CTABLESTYLE
350
DFE4
  3
CVIEWDETAILSTYLE
350
DFE6
  3
CVIEWSECTIONSTYLE
350
DFE7
  3
DIMASSOC
350
5698
  3
INDEXCTL
350
DFEA
  3
SORTENTS
350
DFE9
  3
XCLIPFRAME
350
E03E
  0
XRECORD
  5
E041
102
{ACAD_REACTORS
330
C
102
}
330
C
100
AcDbXrecord
280
     1
  1
DWGPROPS COOKIE
  2

  3

  4

  6

  7

  8
ktomoto
  9

300
=
301
=
302
=
303
=
304
=
305
=
306
=
307
=
308
=
309
=
 40
1.802742442129629
 41
2452286.555658658
 42
2456926.653942709
  1

 90
        0
  0
XRECORD
  5
DFCF
102
{ACAD_REACTORS
330
DFCE
102
}
330
DFCE
100
AcDbXrecord
280
     1
290
     1
  0
XRECORD
  5
DFD1
102
{ACAD_REACTORS
330
DFD0
102
}
330
DFD0
100
AcDbXrecord
280
     1
290
     1
  0
XRECORD
  5
DFD3
102
{ACAD_REACTORS
330
DFD2
102
}
330
DFD2
100
AcDbXrecord
280
     1
290
     1
  0
XRECORD
  5
DFD5
102
{ACAD_REACTORS
330
DFD4
102
}
330
DFD4
100
AcDbXrecord
280
     1
290
     1
  0
XRECORD
  5
DFD7
102
{ACAD_REACTORS
330
DFD6
102
}
330
DFD6
100
AcDbXrecord
280
     1
290
     1
  0
XRECORD
  5
DFD9
102
{ACAD_REACTORS
330
DFD8
102
}
330
DFD8
100
AcDbXrecord
280
     1
290
     1
  0
XRECORD
  5
DFDB
102
{ACAD_REACTORS
330
DFDA
102
}
330
DFDA
100
AcDbXrecord
280
     1
290
     1
  0
XRECORD
  5
DFDD
102
{ACAD_REACTORS
330
DFDC
102
}
330
DFDC
100
AcDbXrecord
280
     1
290
     1
  0
XRECORD
  5
DFDF
102
{ACAD_REACTORS
330
DFDE
102
}
330
DFDE
100
AcDbXrecord
280
     1
290
     1
  0
XRECORD
  5
DFE1
102
{ACAD_REACTORS
330
DFE0
102
}
330
DFE0
100
AcDbXrecord
280
     1
290
     1
  0
XRECORD
  5
DFE3
102
{ACAD_REACTORS
330
DFE2
102
}
330
DFE2
100
AcDbXrecord
280
     1
290
     1
  0
XRECORD
  5
9011
102
{ACAD_REACTORS
330
178
102
}
330
178
100
AcDbXrecord
280
     1
340
1E
  0
XRECORD
  5
9010
102
{ACAD_REACTORS
330
17A
102
}
330
17A
100
AcDbXrecord
280
     1
340
1A
  0
SORTENTSTABLE
  5
DD14
102
{ACAD_REACTORS
330
DD13
102
}
330
DD13
100
AcDbSortentsTable
330
DCF1
  0
SORTENTSTABLE
  5
DF9A
102
{ACAD_REACTORS
330
DF99
102
}
330
DF99
100
AcDbSortentsTable
330
DF77
  0
XRECORD
  5
E049
102
{ACAD_REACTORS
330
DFF8
102
}
330
DFF8
100
AcDbXrecord
280
     1
 40
5040.0
  1
\A1;\U+220513
  0
XRECORD
  5
E048
102
{ACAD_REACTORS
330
DFF6
102
}
330
DFF6
100
AcDbXrecord
280
     1
 40
4461.0
  1
\A1;\U+22058
  0
XRECORD
  5
E07F
102
{ACAD_REACTORS
330
DEC3
102
}
330
DEC3
100
AcDbXrecord
280
     1
 40
5040.0
  1
\A1;\U+220513
  0
XRECORD
  5
E080
102
{ACAD_REACTORS
330
E034
102
}
330
E034
100
AcDbXrecord
280
     1
 40
5040.0
  1
\A1;\U+220513
  0
XRECORD
  5
E043
102
{ACAD_REACTORS
330
E042
102
}
330
E042
100
AcDbXrecord
280
     1
102
SHADEPLOT
 70
     0
  0
ACDBDETAILVIEWSTYLE
  5
DCE2
102
{ACAD_XDICTIONARY
360
E07D
102
}
102
{ACAD_REACTORS
330
DCE1
102
}
330
DCE1
100
AcDbModelDocViewStyle
 70
     0
  3
Imperial24
290
     0
100
AcDbDetailViewStyle
 70
     0
 71
     0
 90
        3
 71
     1
340
11
 40
0.24
340
0
 40
0.24
300

 40
0.36
280
     3
 71
     2
340
15
 90
       25
 71
     3
340
11
 40
0.24
 90
        1
 40
0.75
 90
        1
300
%<\AcVar ViewType \f "%tc1">% %<\AcVar ViewDetailId>%\PSCALE %<\AcVar ViewScale \f "%sn">%
 71
     4
340
15
 90
       25
340
15
 90
       25
280
     0
  0
LAYOUT
  5
904E
102
{ACAD_XDICTIONARY
360
E044
102
}
102
{ACAD_REACTORS
330
19
102
}
330
19
100
AcDbPlotSettings
  1

  2
DocuWorks Printer
  4
A4
  6
OLE1
 40
5.408083438873291
 41
5.408078670501708
 42
5.408096313476561
 43
5.4080810546875
 44
210.0156707763671
 45
297.0106506347656
 46
30.19
 47
32.08
 48
0.0
 49
0.0
140
0.0
141
0.0
142
1.0
143
5.0
 70
 11940
 72
     1
 73
     0
 74
     1
  7
monochrome.ctb
 75
     0
147
0.2
148
179.0958585134158
149
672.6144055809708
100
AcDbLayout
  1
Model
 70
     1
 71
     0
 10
0.0
 20
0.0
 11
12.0
 21
9.0
 12
0.0
 22
0.0
 32
0.0
 14
0.0
 24
0.0
 34
0.0
 15
0.0
 25
0.0
 35
0.0
146
0.0
 13
0.0
 23
0.0
 33
0.0
 16
1.0
 26
0.0
 36
0.0
 17
0.0
 27
1.0
 37
0.0
 76
     0
330
1E
331
DC70
  0
LAYOUT
  5
904F
102
{ACAD_XDICTIONARY
360
E046
102
}
102
{ACAD_REACTORS
330
19
102
}
330
19
100
AcDbPlotSettings
  1

  2
LBP5400
  4

  6

 40
0.0
 41
0.0
 42
0.0
 43
0.0
 44
0.0
 45
0.0
 46
0.0
 47
0.0
 48
0.0
 49
0.0
140
0.0
141
0.0
142
1.0
143
1.0
 70
   688
 72
     0
 73
     0
 74
     5
  7
monochrome.ctb
 75
    16
147
1.0
148
0.0
149
0.0
100
AcDbLayout
  1
ﾚｲｱｳﾄ1
 70
     1
 71
     1
 10
-5.873749
 20
-5.87375
 11
204.099579
 21
291.1369009999999
 12
0.0
 22
0.0
 32
0.0
 14
4.273573
 24
5.205245999999998
 34
0.0
 15
194.610095
 25
283.0697009999996
 35
0.0
146
0.0
 13
0.0
 23
0.0
 33
0.0
 16
1.0
 26
0.0
 36
0.0
 17
0.0
 27
1.0
 37
0.0
 76
     0
330
1A
  0
MATERIAL
  5
DC9F
102
{ACAD_XDICTIONARY
360
DCA0
102
}
102
{ACAD_REACTORS
330
DC96
102
}
330
DC96
100
AcDbMaterial
  1
ByBlock
 72
     0
 43
0.0208333333333333
 43
0.0
 43
0.0
 43
0.0
 43
0.0
 43
0.0208333333333333
 43
0.0
 43
0.0
 43
0.0
 43
0.0
 43
1.0
 43
0.0
 43
0.0
 43
0.0
 43
0.0
 43
1.0
 77
     0
 47
0.0208333333333333
 47
0.0
 47
0.0
 47
0.0
 47
0.0
 47
0.0208333333333333
 47
0.0
 47
0.0
 47
0.0
 47
0.0
 47
1.0
 47
0.0
 47
0.0
 47
0.0
 47
0.0
 47
1.0
171
     0
 49
0.0208333333333333
 49
0.0
 49
0.0
 49
0.0
 49
0.0
 49
0.0208333333333333
 49
0.0
 49
0.0
 49
0.0
 49
0.0
 49
1.0
 49
0.0
 49
0.0
 49
0.0
 49
0.0
 49
1.0
175
     0
142
0.0208333333333333
142
0.0
142
0.0
142
0.0
142
0.0
142
0.0208333333333333
142
0.0
142
0.0
142
0.0
142
0.0
142
1.0
142
0.0
142
0.0
142
0.0
142
0.0
142
1.0
179
     0
144
0.0208333333333333
144
0.0
144
0.0
144
0.0
144
0.0
144
0.0208333333333333
144
0.0
144
0.0
144
0.0
144
0.0
144
1.0
144
0.0
144
0.0
144
0.0
144
0.0
144
1.0
147
0.0208333333333333
147
0.0
147
0.0
147
0.0
147
0.0
147
0.0208333333333333
147
0.0
147
0.0
147
0.0
147
0.0
147
1.0
147
0.0
147
0.0
147
0.0
147
0.0
147
1.0
  0
MATERIAL
  5
DC97
102
{ACAD_XDICTIONARY
360
DC98
102
}
102
{ACAD_REACTORS
330
DC96
102
}
330
DC96
100
AcDbMaterial
  1
ByLayer
 72
     0
 43
0.0208333333333333
 43
0.0
 43
0.0
 43
0.0
 43
0.0
 43
0.0208333333333333
 43
0.0
 43
0.0
 43
0.0
 43
0.0
 43
1.0
 43
0.0
 43
0.0
 43
0.0
 43
0.0
 43
1.0
 77
     0
 47
0.0208333333333333
 47
0.0
 47
0.0
 47
0.0
 47
0.0
 47
0.0208333333333333
 47
0.0
 47
0.0
 47
0.0
 47
0.0
 47
1.0
 47
0.0
 47
0.0
 47
0.0
 47
0.0
 47
1.0
171
     0
 49
0.0208333333333333
 49
0.0
 49
0.0
 49
0.0
 49
0.0
 49
0.0208333333333333
 49
0.0
 49
0.0
 49
0.0
 49
0.0
 49
1.0
 49
0.0
 49
0.0
 49
0.0
 49
0.0
 49
1.0
175
     0
142
0.0208333333333333
142
0.0
142
0.0
142
0.0
142
0.0
142
0.0208333333333333
142
0.0
142
0.0
142
0.0
142
0.0
142
1.0
142
0.0
142
0.0
142
0.0
142
0.0
142
1.0
179
     0
144
0.0208333333333333
144
0.0
144
0.0
144
0.0
144
0.0
144
0.0208333333333333
144
0.0
144
0.0
144
0.0
144
0.0
144
1.0
144
0.0
144
0.0
144
0.0
144
0.0
144
1.0
147
0.0208333333333333
147
0.0
147
0.0
147
0.0
147
0.0
147
0.0208333333333333
147
0.0
147
0.0
147
0.0
147
0.0
147
1.0
147
0.0
147
0.0
147
0.0
147
0.0
147
1.0
  0
MATERIAL
  5
DCA7
102
{ACAD_XDICTIONARY
360
DCA8
102
}
102
{ACAD_REACTORS
330
DC96
102
}
330
DC96
100
AcDbMaterial
  1
Global
 72
     0
 43
0.0208333333333333
 43
0.0
 43
0.0
 43
0.0
 43
0.0
 43
0.0208333333333333
 43
0.0
 43
0.0
 43
0.0
 43
0.0
 43
1.0
 43
0.0
 43
0.0
 43
0.0
 43
0.0
 43
1.0
 77
     0
 47
0.0208333333333333
 47
0.0
 47
0.0
 47
0.0
 47
0.0
 47
0.0208333333333333
 47
0.0
 47
0.0
 47
0.0
 47
0.0
 47
1.0
 47
0.0
 47
0.0
 47
0.0
 47
0.0
 47
1.0
171
     0
 49
0.0208333333333333
 49
0.0
 49
0.0
 49
0.0
 49
0.0
 49
0.0208333333333333
 49
0.0
 49
0.0
 49
0.0
 49
0.0
 49
1.0
 49
0.0
 49
0.0
 49
0.0
 49
0.0
 49
1.0
175
     0
142
0.0208333333333333
142
0.0
142
0.0
142
0.0
142
0.0
142
0.0208333333333333
142
0.0
142
0.0
142
0.0
142
0.0
142
1.0
142
0.0
142
0.0
142
0.0
142
0.0
142
1.0
179
     0
144
0.0208333333333333
144
0.0
144
0.0
144
0.0
144
0.0
144
0.0208333333333333
144
0.0
144
0.0
144
0.0
144
0.0
144
1.0
144
0.0
144
0.0
144
0.0
144
0.0
144
1.0
147
0.0208333333333333
147
0.0
147
0.0
147
0.0
147
0.0
147
0.0208333333333333
147
0.0
147
0.0
147
0.0
147
0.0
147
1.0
147
0.0
147
0.0
147
0.0
147
0.0
147
1.0
  0
MLEADERSTYLE
  5
DCDE
102
{ACAD_REACTORS
330
DCDD
102
}
330
DCDD
100
AcDbMLeaderStyle
170
     2
171
     1
172
     0
 90
        2
 40
0.0
 41
0.0
173
     1
 91
-1056964608
340
13
 92
       -2
290
     1
 42
0.09
291
     1
 43
0.36
  3
Standard
 44
0.18
300

342
11
174
     1
178
     6
175
     1
176
     0
 93
-1056964608
 45
0.18
292
     0
297
     0
 46
0.18
 94
-1056964608
 47
1.0
 49
1.0
140
1.0
293
     1
141
0.0
294
     1
177
     0
142
1.0
295
     0
296
     0
143
0.125
1001
ACAD_MLEADERVER
1070
     2
  0
MLINESTYLE
  5
17
102
{ACAD_REACTORS
330
16
102
}
330
16
100
AcDbMlineStyle
  2
STANDARD
 70
     0
  3

 62
   256
 51
90.0
 52
90.0
 71
     2
 49
0.5
 62
   256
  6
BYLAYER
 49
-0.5
 62
   256
  6
BYLAYER
  0
ACDBPLACEHOLDER
  5
F
102
{ACAD_REACTORS
330
E
102
}
330
E
  0
SCALE
  5
DCCC
102
{ACAD_REACTORS
330
DCCB
102
}
330
DCCB
100
AcDbScale
 70
     0
300
1:1
140
1.0
141
1.0
290
     1
  0
SCALE
  5
DCCD
102
{ACAD_REACTORS
330
DCCB
102
}
330
DCCB
100
AcDbScale
 70
     0
300
1/128" = 1'-0"
140
0.0078125
141
12.0
290
     0
  0
SCALE
  5
DCCE
102
{ACAD_REACTORS
330
DCCB
102
}
330
DCCB
100
AcDbScale
 70
     0
300
1/64" = 1'-0"
140
0.015625
141
12.0
290
     0
  0
SCALE
  5
DCCF
102
{ACAD_REACTORS
330
DCCB
102
}
330
DCCB
100
AcDbScale
 70
     0
300
1/32" = 1'-0"
140
0.03125
141
12.0
290
     0
  0
SCALE
  5
DCD0
102
{ACAD_REACTORS
330
DCCB
102
}
330
DCCB
100
AcDbScale
 70
     0
300
1/16" = 1'-0"
140
0.0625
141
12.0
290
     0
  0
SCALE
  5
DCD1
102
{ACAD_REACTORS
330
DCCB
102
}
330
DCCB
100
AcDbScale
 70
     0
300
3/32" = 1'-0"
140
0.09375
141
12.0
290
     0
  0
SCALE
  5
DCD2
102
{ACAD_REACTORS
330
DCCB
102
}
330
DCCB
100
AcDbScale
 70
     0
300
1/8" = 1'-0"
140
0.125
141
12.0
290
     0
  0
SCALE
  5
DCD3
102
{ACAD_REACTORS
330
DCCB
102
}
330
DCCB
100
AcDbScale
 70
     0
300
3/16" = 1'-0"
140
0.1875
141
12.0
290
     0
  0
SCALE
  5
DCD4
102
{ACAD_REACTORS
330
DCCB
102
}
330
DCCB
100
AcDbScale
 70
     0
300
1/4" = 1'-0"
140
0.25
141
12.0
290
     0
  0
SCALE
  5
DCD5
102
{ACAD_REACTORS
330
DCCB
102
}
330
DCCB
100
AcDbScale
 70
     0
300
3/8" = 1'-0"
140
0.375
141
12.0
290
     0
  0
SCALE
  5
DCD6
102
{ACAD_REACTORS
330
DCCB
102
}
330
DCCB
100
AcDbScale
 70
     0
300
1/2" = 1'-0"
140
0.5
141
12.0
290
     0
  0
SCALE
  5
DCD7
102
{ACAD_REACTORS
330
DCCB
102
}
330
DCCB
100
AcDbScale
 70
     0
300
3/4" = 1'-0"
140
0.75
141
12.0
290
     0
  0
SCALE
  5
DCD8
102
{ACAD_REACTORS
330
DCCB
102
}
330
DCCB
100
AcDbScale
 70
     0
300
1" = 1'-0"
140
1.0
141
12.0
290
     0
  0
SCALE
  5
DCD9
102
{ACAD_REACTORS
330
DCCB
102
}
330
DCCB
100
AcDbScale
 70
     0
300
1-1/2" = 1'-0"
140
1.5
141
12.0
290
     0
  0
SCALE
  5
DCDA
102
{ACAD_REACTORS
330
DCCB
102
}
330
DCCB
100
AcDbScale
 70
     0
300
3" = 1'-0"
140
3.0
141
12.0
290
     0
  0
SCALE
  5
DCDB
102
{ACAD_REACTORS
330
DCCB
102
}
330
DCCB
100
AcDbScale
 70
     0
300
6" = 1'-0"
140
6.0
141
12.0
290
     0
  0
SCALE
  5
DCDC
102
{ACAD_REACTORS
330
DCCB
102
}
330
DCCB
100
AcDbScale
 70
     0
300
1'-0" = 1'-0"
140
12.0
141
12.0
290
     0
  0
ACDBSECTIONVIEWSTYLE
  5
DCE0
102
{ACAD_XDICTIONARY
360
E07B
102
}
102
{ACAD_REACTORS
330
DCDF
102
}
330
DCDF
100
AcDbModelDocViewStyle
 70
     0
  3
Imperial24
290
     0
100
AcDbSectionViewStyle
 70
     0
 71
     0
 90
       78
 71
     1
340
11
 40
0.24
340
0
340
0
 40
0.24
300
I, O, Q, S, X, Z
 40
0.48
 90
        3
 40
0.18
 90
        1
 71
     2
340
15
 90
       25
340
15
 90
       50
 40
0.24
 40
0.0
 40
0.24
 71
     3
340
11
 40
0.24
 90
        1
 40
0.75
 90
        1
300
%<\AcVar ViewType \f "%tc1">% %<\AcVar ViewSectionStartId>%-%<\AcVar ViewSectionEndId>%\PSCALE %<\AcVar ViewScale \f "%sn">%
 71
     4
300
ANSI31
 40
1.0
 90
        0
290
     0
290
     0
 90
        6
 40
0.0
 40
1.570796326794896
 40
0.2617993877991494
 40
1.308996938995747
 40
-0.2617993877991494
 40
1.832595714594045
  0
TABLESTYLE
  5
DCCA
102
{ACAD_XDICTIONARY
360
DFEC
102
}
102
{ACAD_REACTORS
330
DCC9
102
}
330
DCC9
100
AcDbTableStyle
  3
Standard
 70
     0
 71
     0
 40
0.06
 41
0.06
280
     0
281
     0
  7
STANDARD
140
0.18
170
     2
 62
     0
 63
     7
283
     0
274
    -2
284
     1
 64
     0
275
    -2
285
     1
 65
     0
276
    -2
286
     1
 66
     0
277
    -2
287
     1
 67
     0
278
    -2
288
     1
 68
     0
279
    -2
289
     1
 69
     0
  7
STANDARD
140
0.25
170
     5
 62
     0
 63
     7
283
     0
274
    -2
284
     1
 64
     0
275
    -2
285
     1
 65
     0
276
    -2
286
     1
 66
     0
277
    -2
287
     1
 67
     0
278
    -2
288
     1
 68
     0
279
    -2
289
     1
 69
     0
  7
STANDARD
140
0.18
170
     5
 62
     0
 63
     7
283
     0
274
    -2
284
     1
 64
     0
275
    -2
285
     1
 65
     0
276
    -2
286
     1
 66
     0
277
    -2
287
     1
 67
     0
278
    -2
288
     1
 68
     0
279
    -2
289
     1
 69
     0
  0
VISUALSTYLE
  5
DCB5
102
{ACAD_XDICTIONARY
360
E054
102
}
102
{ACAD_REACTORS
330
DCAF
102
}
330
DCAF
100
AcDbVisualStyle
  2

 70
     4
 71
     0
 72
     2
 73
     0
 90
        0
 40
-0.6
 41
-30.0
 62
     5
 63
     7
 74
     1
 91
        4
 64
     7
 65
   257
 75
     1
175
     1
 42
1.0
 92
        0
 66
   257
 43
1.0
 76
     1
 77
     6
 78
     2
 67
     7
 79
     5
170
     0
171
     0
290
     0
174
     0
 93
        1
 44
0.0
173
     0
291
     0
 45
0.0
1001
ACAD
1000
AcDbSavedByObjectVersion
1070
     0
  0
VISUALSTYLE
  5
DCB4
102
{ACAD_XDICTIONARY
360
E052
102
}
102
{ACAD_REACTORS
330
DCAF
102
}
330
DCAF
100
AcDbVisualStyle
  2

 70
     7
 71
     1
 72
     0
 73
     1
 90
        0
 40
-0.6
 41
-30.0
 62
     5
 63
     7
 74
     0
 91
        4
 64
     7
 65
   257
 75
     1
175
     1
 42
1.0
 92
        8
 66
     7
 43
1.0
 76
     1
 77
     6
 78
     2
 67
     7
 79
     5
170
     0
171
     0
290
     0
174
     0
 93
        1
 44
0.0
173
     0
291
     1
 45
0.0
1001
ACAD
1000
AcDbSavedByObjectVersion
1070
     0
  0
VISUALSTYLE
  5
DCBB
102
{ACAD_XDICTIONARY
360
E060
102
}
102
{ACAD_REACTORS
330
DCAF
102
}
330
DCAF
100
AcDbVisualStyle
  2

 70
    12
 71
     2
 72
     2
 73
     0
 90
        0
 40
-0.6
 41
-30.0
 62
     5
 63
     7
 74
     1
 91
        4
 64
     7
 65
   257
 75
     1
175
     1
 42
1.0
 92
        8
 66
     7
 43
1.0
 76
     1
 77
     6
 78
     2
 67
     7
 79
     5
170
     0
171
     0
290
     0
174
     0
 93
        1
 44
50.0
173
     0
291
     1
 45
0.0
1001
ACAD
1000
AcDbSavedByObjectVersion
1070
     0
  0
VISUALSTYLE
  5
DCBF
102
{ACAD_XDICTIONARY
360
E068
102
}
102
{ACAD_REACTORS
330
DCAF
102
}
330
DCAF
100
AcDbVisualStyle
  2

 70
    16
 71
     2
 72
     2
 73
     3
 90
        0
 40
-0.6
 41
-30.0
 62
     5
 63
     8
 74
     1
 91
        4
 64
     7
 65
   257
 75
     1
175
     1
 42
1.0
 92
        8
 66
     8
 43
1.0
 76
     1
 77
     6
 78
     2
 67
     7
 79
     5
170
     0
171
     0
290
     0
174
     0
 93
        1
 44
0.0
173
     0
291
     1
 45
0.0
1001
ACAD
1000
AcDbSavedByObjectVersion
1070
     0
  0
VISUALSTYLE
  5
DCB8
102
{ACAD_XDICTIONARY
360
E05A
102
}
102
{ACAD_REACTORS
330
DCAF
102
}
330
DCAF
100
AcDbVisualStyle
  2

 70
     9
 71
     3
 72
     2
 73
     0
 90
        0
 40
-0.6
 41
-30.0
 62
     5
 63
     7
 74
     2
 91
        2
 64
     7
 65
   257
 75
     1
175
     1
 42
179.0
 92
        8
 66
     7
 43
1.0
 76
     1
 77
     6
 78
     2
 67
     7
 79
     3
170
     0
171
     0
290
     0
174
     0
 93
        1
 44
0.0
173
     0
291
     0
 45
0.0
1001
ACAD
1000
AcDbSavedByObjectVersion
1070
     0
  0
VISUALSTYLE
  5
DCBA
102
{ACAD_XDICTIONARY
360
E05E
102
}
102
{ACAD_REACTORS
330
DCAF
102
}
330
DCAF
100
AcDbVisualStyle
  2

 70
    11
 71
     2
 72
     2
 73
     0
 90
        0
 40
-0.6
 41
-30.0
 62
     5
 63
     7
 74
     1
 91
        4
 64
     7
 65
   257
 75
     1
175
     1
 42
1.0
 92
        8
 66
     7
 43
1.0
 76
     1
 77
     6
 78
     2
 67
     7
 79
     5
170
     0
171
     0
290
     0
174
     0
 93
        1
 44
-50.0
173
     0
291
     1
 45
0.0
1001
ACAD
1000
AcDbSavedByObjectVersion
1070
     0
  0
VISUALSTYLE
  5
DCC7
102
{ACAD_XDICTIONARY
360
E078
102
}
102
{ACAD_REACTORS
330
DCAF
102
}
330
DCAF
100
AcDbVisualStyle
  2

 70
    22
 71
     2
 72
     2
 73
     0
 90
        0
 40
-0.6
 41
-30.0
 62
     5
 63
     7
 74
     1
 91
        4
 64
     7
 65
   257
 75
     1
175
     1
 42
1.0
 92
        8
 66
     7
 43
1.0
 76
     1
 77
     6
 78
     2
 67
     7
 79
     5
170
     0
171
     0
290
     0
174
     0
 93
        1
 44
0.0
173
     0
291
     1
 45
0.0
1001
ACAD
1000
AcDbSavedByObjectVersion
1070
     0
  0
VISUALSTYLE
  5
DCBE
102
{ACAD_XDICTIONARY
360
E066
102
}
102
{ACAD_REACTORS
330
DCAF
102
}
330
DCAF
100
AcDbVisualStyle
  2

 70
    15
 71
     2
 72
     2
 73
     0
 90
        0
 40
-0.6
 41
-30.0
 62
     5
 63
     7
 74
     1
 91
        4
 64
     7
 65
   257
 75
     1
175
     1
 42
1.0
 92
        8
 66
     7
 43
1.0
 76
     1
 77
     6
 78
     2
 67
     7
 79
     5
170
     0
171
     0
290
     0
174
     0
 93
        1
 44
0.0
173
     0
291
     1
 45
0.0
1001
ACAD
1000
AcDbSavedByObjectVersion
1070
     0
  0
VISUALSTYLE
  5
DCB0
102
{ACAD_XDICTIONARY
360
E04A
102
}
102
{ACAD_REACTORS
330
DCAF
102
}
330
DCAF
100
AcDbVisualStyle
  2

 70
     0
 71
     2
 72
     1
 73
     1
 90
        2
 40
-0.6
 41
30.0
 62
     5
 63
     7
 74
     0
 91
        0
 64
     7
 65
   257
 75
     1
175
     1
 42
1.0
 92
        8
 66
     7
 43
1.0
 76
     1
 77
     6
 78
     2
 67
     7
 79
     5
170
     0
171
     0
290
     0
174
     0
 93
       13
 44
0.0
173
     0
291
     1
 45
0.0
1001
ACAD
1000
AcDbSavedByObjectVersion
1070
     0
  0
VISUALSTYLE
  5
DCB1
102
{ACAD_XDICTIONARY
360
E04C
102
}
102
{ACAD_REACTORS
330
DCAF
102
}
330
DCAF
100
AcDbVisualStyle
  2

 70
     1
 71
     2
 72
     1
 73
     1
 90
        2
 40
-0.6
 41
30.0
 62
     5
 63
     7
 74
     1
 91
        0
 64
     7
 65
   257
 75
     1
175
     1
 42
1.0
 92
        0
 66
   257
 43
1.0
 76
     1
 77
     6
 78
     2
 67
     7
 79
     5
170
     0
171
     0
290
     0
174
     0
 93
       13
 44
0.0
173
     0
291
     1
 45
0.0
1001
ACAD
1000
AcDbSavedByObjectVersion
1070
     0
  0
VISUALSTYLE
  5
DCB2
102
{ACAD_XDICTIONARY
360
E04E
102
}
102
{ACAD_REACTORS
330
DCAF
102
}
330
DCAF
100
AcDbVisualStyle
  2

 70
     2
 71
     2
 72
     2
 73
     1
 90
        2
 40
-0.6
 41
30.0
 62
     5
 63
     7
 74
     0
 91
        0
 64
     7
 65
   257
 75
     1
175
     1
 42
1.0
 92
        0
 66
     7
 43
1.0
 76
     1
 77
     6
 78
     2
 67
     7
 79
     5
170
     0
171
     0
290
     0
174
     0
 93
       13
 44
0.0
173
     0
291
     1
 45
0.0
1001
ACAD
1000
AcDbSavedByObjectVersion
1070
     0
  0
VISUALSTYLE
  5
DCB3
102
{ACAD_XDICTIONARY
360
E050
102
}
102
{ACAD_REACTORS
330
DCAF
102
}
330
DCAF
100
AcDbVisualStyle
  2

 70
     3
 71
     2
 72
     2
 73
     1
 90
        2
 40
-0.6
 41
30.0
 62
     5
 63
     7
 74
     1
 91
        0
 64
     7
 65
   257
 75
     1
175
     1
 42
1.0
 92
        0
 66
   257
 43
1.0
 76
     1
 77
     6
 78
     2
 67
     7
 79
     5
170
     0
171
     0
290
     0
174
     0
 93
       13
 44
0.0
173
     0
291
     1
 45
0.0
1001
ACAD
1000
AcDbSavedByObjectVersion
1070
     0
  0
VISUALSTYLE
  5
DCB7
102
{ACAD_XDICTIONARY
360
E058
102
}
102
{ACAD_REACTORS
330
DCAF
102
}
330
DCAF
100
AcDbVisualStyle
  2

 70
     6
 71
     1
 72
     2
 73
     2
 90
        0
 40
-0.6
 41
-30.0
 62
     5
 63
     7
 74
     2
 91
        2
 64
     7
 65
   257
 75
     2
175
     1
 42
40.0
 92
        0
 66
   257
 43
1.0
 76
     1
 77
     6
 78
     2
 67
     7
 79
     3
170
     0
171
     0
290
     0
174
     0
 93
        1
 44
0.0
173
     0
291
     0
 45
0.0
1001
ACAD
1000
AcDbSavedByObjectVersion
1070
     0
  0
VISUALSTYLE
  5
DCC5
102
{ACAD_XDICTIONARY
360
E074
102
}
102
{ACAD_REACTORS
330
DCAF
102
}
330
DCAF
100
AcDbVisualStyle
  2

 70
    20
 71
     2
 72
     2
 73
     0
 90
        0
 40
-0.6
 41
-30.0
 62
     5
 63
     7
 74
     1
 91
        4
 64
     7
 65
   257
 75
     1
175
     1
 42
1.0
 92
       10
 66
     7
 43
1.0
 76
     1
 77
     6
 78
     2
 67
     7
 79
     5
170
     0
171
     0
290
     0
174
     0
 93
        1
 44
0.0
173
     0
291
     1
 45
0.0
1001
ACAD
1000
AcDbSavedByObjectVersion
1070
     0
  0
VISUALSTYLE
  5
DCBD
102
{ACAD_XDICTIONARY
360
E064
102
}
102
{ACAD_REACTORS
330
DCAF
102
}
330
DCAF
100
AcDbVisualStyle
  2

 70
    14
 71
     2
 72
     2
 73
     0
 90
        0
 40
-0.6
 41
-30.0
 62
     5
 63
     7
 74
     1
 91
        4
 64
     7
 65
   257
 75
     7
175
     7
 42
1.0
 92
        8
 66
     7
 43
1.0
 76
     1
 77
     6
 78
     2
 67
     7
 79
     5
170
     0
171
     0
290
     0
174
     0
 93
        1
 44
0.0
173
     0
291
     1
 45
0.0
1001
ACAD
1000
AcDbSavedByObjectVersion
1070
     0
  0
VISUALSTYLE
  5
DCC6
102
{ACAD_XDICTIONARY
360
E076
102
}
102
{ACAD_REACTORS
330
DCAF
102
}
330
DCAF
100
AcDbVisualStyle
  2

 70
    21
 71
     2
 72
     2
 73
     0
 90
        0
 40
-0.6
 41
-30.0
 62
     5
 63
     7
 74
     1
 91
        4
 64
     7
 65
   257
 75
     1
175
     1
 42
1.0
 92
        9
 66
     7
 43
1.0
 76
     1
 77
     6
 78
     2
 67
     7
 79
     5
170
     0
171
     0
290
     0
174
     0
 93
        1
 44
0.0
173
     0
291
     1
 45
0.0
1001
ACAD
1000
AcDbSavedByObjectVersion
1070
     0
  0
VISUALSTYLE
  5
DCB9
102
{ACAD_XDICTIONARY
360
E05C
102
}
102
{ACAD_REACTORS
330
DCAF
102
}
330
DCAF
100
AcDbVisualStyle
  2

 70
     8
 71
     2
 72
     3
 73
     0
 90
        2
 40
-0.6
 41
30.0
 62
     5
 63
     7
 74
     0
 91
        0
 64
     7
 65
   257
 75
     1
175
     1
 42
1.0
 92
        8
 66
   257
 43
1.0
 76
     1
 77
     6
 78
     2
 67
     7
 79
     3
170
     0
171
     0
290
     0
174
     0
 93
       13
 44
0.0
173
     0
291
     0
 45
0.0
1001
ACAD
1000
AcDbSavedByObjectVersion
1070
     0
  0
VISUALSTYLE
  5
DCC4
102
{ACAD_XDICTIONARY
360
E072
102
}
102
{ACAD_REACTORS
330
DCAF
102
}
330
DCAF
100
AcDbVisualStyle
  2

 70
    27
 71
     2
 72
     2
 73
     1
 90
        2
 40
-0.6
 41
30.0
 62
     5
 63
     7
 74
     0
 91
        4
 64
     7
 65
   257
 75
     1
175
     1
 42
1.0
 92
        8
 66
   257
 43
1.0
 76
     1
 77
     6
 78
     2
 67
     8
 79
     3
170
     0
171
     0
290
     0
174
     0
 93
        5
 44
0.0
173
     0
291
     0
 45
0.0
1001
ACAD
1000
AcDbSavedByObjectVersion
1070
     0
  0
VISUALSTYLE
  5
DCC3
102
{ACAD_XDICTIONARY
360
E070
102
}
102
{ACAD_REACTORS
330
DCAF
102
}
330
DCAF
100
AcDbVisualStyle
  2

 70
    26
 71
     2
 72
     2
 73
     1
 90
        2
 40
-0.6
 41
30.0
 62
     5
 63
     7
 74
     1
 91
       10
 64
     7
 65
   257
 75
     2
175
     1
 42
1.0
 92
        8
 66
   257
 43
1.0
 76
     1
 77
     6
 78
     2
 67
     7
 79
     3
170
     0
171
     0
290
     0
174
     0
 93
        5
 44
0.0
173
     0
291
     0
 45
0.0
1001
ACAD
1000
AcDbSavedByObjectVersion
1070
     0
  0
VISUALSTYLE
  5
DCC0
102
{ACAD_XDICTIONARY
360
E06A
102
}
102
{ACAD_REACTORS
330
DCAF
102
}
330
DCAF
100
AcDbVisualStyle
  2

 70
    23
 71
     2
 72
     2
 73
     3
 90
        0
 40
-0.6
 41
-30.0
 62
     5
 63
     7
 74
     2
 91
        2
 64
     7
 65
     7
 75
     1
175
     1
 42
40.0
 92
        8
 66
     7
 43
1.0
 76
     1
 77
     6
 78
     2
 67
     7
 79
     3
170
     0
171
     0
290
     0
174
     0
 93
        1
 44
0.0
173
     0
291
     0
 45
0.0
1001
ACAD
1000
AcDbSavedByObjectVersion
1070
     0
  0
VISUALSTYLE
  5
DCC1
102
{ACAD_XDICTIONARY
360
E06C
102
}
102
{ACAD_REACTORS
330
DCAF
102
}
330
DCAF
100
AcDbVisualStyle
  2

 70
    24
 71
     1
 72
     2
 73
     2
 90
        0
 40
-0.6
 41
-30.0
 62
     5
 63
     7
 74
     2
 91
        2
 64
     7
 65
     7
 75
     1
175
     1
 42
40.0
 92
       11
 66
     7
 43
1.0
 76
     1
 77
     6
 78
     2
 67
     7
 79
     6
170
     0
171
     0
290
     0
174
     0
 93
        1
 44
0.0
173
     0
291
     0
 45
0.0
1001
ACAD
1000
AcDbSavedByObjectVersion
1070
     0
  0
VISUALSTYLE
  5
DCBC
102
{ACAD_XDICTIONARY
360
E062
102
}
102
{ACAD_REACTORS
330
DCAF
102
}
330
DCAF
100
AcDbVisualStyle
  2

 70
    13
 71
     2
 72
     2
 73
     0
 90
        0
 40
-0.6
 41
-30.0
 62
     5
 63
     7
 74
     1
 91
        4
 64
     7
 65
   257
 75
     1
175
     1
 42
1.0
 92
       12
 66
     7
 43
1.0
 76
     1
 77
     6
 78
     2
 67
     7
 79
     5
170
     0
171
     0
290
     0
174
     0
 93
        1
 44
0.0
173
     0
291
     1
 45
0.0
1001
ACAD
1000
AcDbSavedByObjectVersion
1070
     0
  0
VISUALSTYLE
  5
DCB6
102
{ACAD_XDICTIONARY
360
E056
102
}
102
{ACAD_REACTORS
330
DCAF
102
}
330
DCAF
100
AcDbVisualStyle
  2

 70
     5
 71
     0
 72
     2
 73
     0
 90
        0
 40
-0.6
 41
-30.0
 62
     5
 63
     7
 74
     1
 91
        4
 64
     7
 65
   257
 75
     1
175
     1
 42
1.0
 92
        0
 66
   257
 43
1.0
 76
     1
 77
     6
 78
     2
 67
     7
 79
     3
170
     0
171
     0
290
     0
174
     0
 93
        1
 44
0.0
173
     0
291
     0
 45
0.0
1001
ACAD
1000
AcDbSavedByObjectVersion
1070
     0
  0
VISUALSTYLE
  5
DCC2
102
{ACAD_XDICTIONARY
360
E06E
102
}
102
{ACAD_REACTORS
330
DCAF
102
}
330
DCAF
100
AcDbVisualStyle
  2

 70
    25
 71
     2
 72
     2
 73
     1
 90
        1
 40
0.5
 41
-30.0
 62
     5
 63
     7
 74
     1
 91
        0
 64
     7
 65
   257
 75
     1
175
     1
 42
1.0
 92
        8
 66
     7
 43
1.0
 76
     1
 77
     6
 78
     2
 67
     7
 79
     3
170
     0
171
     0
290
     0
174
     0
 93
       13
 44
0.0
173
     0
291
     0
 45
0.0
1001
ACAD
1000
AcDbSavedByObjectVersion
1070
     0
  0
DICTIONARYVAR
  5
DFE8
102
{ACAD_REACTORS
330
5697
102
}
330
5697
100
DictionaryVariables
280
     0
  1
1:1
  0
DICTIONARYVAR
  5
DFE5
102
{ACAD_REACTORS
330
5697
102
}
330
5697
100
DictionaryVariables
280
     0
  1
STANDARD
  0
DICTIONARYVAR
  5
DFE4
102
{ACAD_REACTORS
330
5697
102
}
330
5697
100
DictionaryVariables
280
     0
  1
STANDARD
  0
DICTIONARYVAR
  5
DFE6
102
{ACAD_REACTORS
330
5697
102
}
330
5697
100
DictionaryVariables
280
     0
  1
Imperial24
  0
DICTIONARYVAR
  5
DFE7
102
{ACAD_REACTORS
330
5697
102
}
330
5697
100
DictionaryVariables
280
     0
  1
Imperial24
  0
DICTIONARYVAR
  5
5698
102
{ACAD_REACTORS
330
5697
102
}
330
5697
100
DictionaryVariables
280
     0
  1
1
  0
DICTIONARYVAR
  5
DFEA
102
{ACAD_REACTORS
330
5697
102
}
330
5697
100
DictionaryVariables
280
     0
  1
0
  0
DICTIONARYVAR
  5
DFE9
102
{ACAD_REACTORS
330
5697
102
}
330
5697
100
DictionaryVariables
280
     0
  1
127
  0
DICTIONARYVAR
  5
E03E
102
{ACAD_REACTORS
330
5697
102
}
330
5697
100
DictionaryVariables
280
     0
  1
2
  0
DICTIONARY
  5
E07D
330
DCE2
100
AcDbDictionary
280
     1
281
     1
  3
ACAD_XREC_ROUNDTRIP
360
E07E
  0
DICTIONARY
  5
E044
330
904E
100
AcDbDictionary
280
     1
281
     1
  3
ACAD_XREC_ROUNDTRIP
360
E045
  0
DICTIONARY
  5
E046
330
904F
100
AcDbDictionary
280
     1
281
     1
  3
ACAD_XREC_ROUNDTRIP
360
E047
  0
DICTIONARY
  5
DCA0
330
DC9F
100
AcDbDictionary
280
     1
281
     1
  3
ACAD_XREC_ROUNDTRIP
360
DFFB
  3
BUMPTILE
360
DCA2
  3
DIFFUSETILE
360
DCA1
  3
OPACITYTILE
360
DCA5
  3
REFLECTIONTILE
360
DCA4
  3
REFRACTIONTILE
360
DCA6
  3
SPECULARTILE
360
DCA3
  0
DICTIONARY
  5
DC98
330
DC97
100
AcDbDictionary
280
     1
281
     1
  3
ACAD_XREC_ROUNDTRIP
360
DFFA
  3
BUMPTILE
360
DC9A
  3
DIFFUSETILE
360
DC99
  3
OPACITYTILE
360
DC9D
  3
REFLECTIONTILE
360
DC9C
  3
REFRACTIONTILE
360
DC9E
  3
SPECULARTILE
360
DC9B
  0
DICTIONARY
  5
DCA8
330
DCA7
100
AcDbDictionary
280
     1
281
     1
  3
ACAD_XREC_ROUNDTRIP
360
DFFC
  3
BUMPTILE
360
DCAA
  3
DIFFUSETILE
360
DCA9
  3
OPACITYTILE
360
DCAD
  3
REFLECTIONTILE
360
DCAC
  3
REFRACTIONTILE
360
DCAE
  3
SPECULARTILE
360
DCAB
  0
DICTIONARY
  5
E07B
330
DCE0
100
AcDbDictionary
280
     1
281
     1
  3
ACAD_XREC_ROUNDTRIP
360
E07C
  0
DICTIONARY
  5
DFEC
330
DCCA
100
AcDbDictionary
280
     1
281
     1
  3
ACAD_ROUNDTRIP_2008_TABLESTYLE_CELLSTYLEMAP
360
E03F
  3
ACAD_XREC_ROUNDTRIP
360
E07A
  0
DICTIONARY
  5
E054
330
DCB5
100
AcDbDictionary
280
     1
281
     1
  3
ACAD_XREC_ROUNDTRIP
360
E055
  0
DICTIONARY
  5
E052
330
DCB4
100
AcDbDictionary
280
     1
281
     1
  3
ACAD_XREC_ROUNDTRIP
360
E053
  0
DICTIONARY
  5
E060
330
DCBB
100
AcDbDictionary
280
     1
281
     1
  3
ACAD_XREC_ROUNDTRIP
360
E061
  0
DICTIONARY
  5
E068
330
DCBF
100
AcDbDictionary
280
     1
281
     1
  3
ACAD_XREC_ROUNDTRIP
360
E069
  0
DICTIONARY
  5
E05A
330
DCB8
100
AcDbDictionary
280
     1
281
     1
  3
ACAD_XREC_ROUNDTRIP
360
E05B
  0
DICTIONARY
  5
E05E
330
DCBA
100
AcDbDictionary
280
     1
281
     1
  3
ACAD_XREC_ROUNDTRIP
360
E05F
  0
DICTIONARY
  5
E078
330
DCC7
100
AcDbDictionary
280
     1
281
     1
  3
ACAD_XREC_ROUNDTRIP
360
E079
  0
DICTIONARY
  5
E066
330
DCBE
100
AcDbDictionary
280
     1
281
     1
  3
ACAD_XREC_ROUNDTRIP
360
E067
  0
DICTIONARY
  5
E04A
330
DCB0
100
AcDbDictionary
280
     1
281
     1
  3
ACAD_XREC_ROUNDTRIP
360
E04B
  0
DICTIONARY
  5
E04C
330
DCB1
100
AcDbDictionary
280
     1
281
     1
  3
ACAD_XREC_ROUNDTRIP
360
E04D
  0
DICTIONARY
  5
E04E
330
DCB2
100
AcDbDictionary
280
     1
281
     1
  3
ACAD_XREC_ROUNDTRIP
360
E04F
  0
DICTIONARY
  5
E050
330
DCB3
100
AcDbDictionary
280
     1
281
     1
  3
ACAD_XREC_ROUNDTRIP
360
E051
  0
DICTIONARY
  5
E058
330
DCB7
100
AcDbDictionary
280
     1
281
     1
  3
ACAD_XREC_ROUNDTRIP
360
E059
  0
DICTIONARY
  5
E074
330
DCC5
100
AcDbDictionary
280
     1
281
     1
  3
ACAD_XREC_ROUNDTRIP
360
E075
  0
DICTIONARY
  5
E064
330
DCBD
100
AcDbDictionary
280
     1
281
     1
  3
ACAD_XREC_ROUNDTRIP
360
E065
  0
DICTIONARY
  5
E076
330
DCC6
100
AcDbDictionary
280
     1
281
     1
  3
ACAD_XREC_ROUNDTRIP
360
E077
  0
DICTIONARY
  5
E05C
330
DCB9
100
AcDbDictionary
280
     1
281
     1
  3
ACAD_XREC_ROUNDTRIP
360
E05D
  0
DICTIONARY
  5
E072
330
DCC4
100
AcDbDictionary
280
     1
281
     1
  3
ACAD_XREC_ROUNDTRIP
360
E073
  0
DICTIONARY
  5
E070
330
DCC3
100
AcDbDictionary
280
     1
281
     1
  3
ACAD_XREC_ROUNDTRIP
360
E071
  0
DICTIONARY
  5
E06A
330
DCC0
100
AcDbDictionary
280
     1
281
     1
  3
ACAD_XREC_ROUNDTRIP
360
E06B
  0
DICTIONARY
  5
E06C
330
DCC1
100
AcDbDictionary
280
     1
281
     1
  3
ACAD_XREC_ROUNDTRIP
360
E06D
  0
DICTIONARY
  5
E062
330
DCBC
100
AcDbDictionary
280
     1
281
     1
  3
ACAD_XREC_ROUNDTRIP
360
E063
  0
DICTIONARY
  5
E056
330
DCB6
100
AcDbDictionary
280
     1
281
     1
  3
ACAD_XREC_ROUNDTRIP
360
E057
  0
DICTIONARY
  5
E06E
330
DCC2
100
AcDbDictionary
280
     1
281
     1
  3
ACAD_XREC_ROUNDTRIP
360
E06F
  0
XRECORD
  5
E07E
102
{ACAD_REACTORS
330
E07D
102
}
330
E07D
100
AcDbXrecord
280
     1
102
DISPLAYNAME
  1
Imperial24
102
FLAGS
 90
        0
  0
XRECORD
  5
E045
102
{ACAD_REACTORS
330
E044
102
}
330
E044
100
AcDbXrecord
280
     1
102
SHADEPLOT
 70
     0
102
SHADEPLOTRESLEVEL
 70
     2
102
SHADEPLOTCUSTOMDPI
 70
   300
  0
XRECORD
  5
E047
102
{ACAD_REACTORS
330
E046
102
}
330
E046
100
AcDbXrecord
280
     1
102
SHADEPLOT
 70
     0
102
SHADEPLOTRESLEVEL
 70
     2
102
SHADEPLOTCUSTOMDPI
 70
   300
  0
XRECORD
  5
DFFB
102
{ACAD_REACTORS
330
DCA0
102
}
330
DCA0
100
AcDbXrecord
280
     1
102
MATERIAL
148
0.0
149
0.0
149
0.0
 93
        0
 94
      127
282
     0
 72
     0
 77
     0
171
     0
175
     0
179
     0
273
     0
  0
XRECORD
  5
DCA2
102
{ACAD_REACTORS
330
DCA0
102
}
330
DCA0
100
AcDbXrecord
280
     1
270
     1
271
     1
  0
XRECORD
  5
DCA1
102
{ACAD_REACTORS
330
DCA0
102
}
330
DCA0
100
AcDbXrecord
280
     1
270
     1
271
     1
  0
XRECORD
  5
DCA5
102
{ACAD_REACTORS
330
DCA0
102
}
330
DCA0
100
AcDbXrecord
280
     1
270
     1
271
     1
  0
XRECORD
  5
DCA4
102
{ACAD_REACTORS
330
DCA0
102
}
330
DCA0
100
AcDbXrecord
280
     1
270
     1
271
     1
  0
XRECORD
  5
DCA6
102
{ACAD_REACTORS
330
DCA0
102
}
330
DCA0
100
AcDbXrecord
280
     1
270
     1
271
     1
  0
XRECORD
  5
DCA3
102
{ACAD_REACTORS
330
DCA0
102
}
330
DCA0
100
AcDbXrecord
280
     1
270
     1
271
     1
  0
XRECORD
  5
DFFA
102
{ACAD_REACTORS
330
DC98
102
}
330
DC98
100
AcDbXrecord
280
     1
102
MATERIAL
148
0.0
149
0.0
149
0.0
 93
        0
 94
      127
282
     0
 72
     0
 77
     0
171
     0
175
     0
179
     0
273
     0
  0
XRECORD
  5
DC9A
102
{ACAD_REACTORS
330
DC98
102
}
330
DC98
100
AcDbXrecord
280
     1
270
     1
271
     1
  0
XRECORD
  5
DC99
102
{ACAD_REACTORS
330
DC98
102
}
330
DC98
100
AcDbXrecord
280
     1
270
     1
271
     1
  0
XRECORD
  5
DC9D
102
{ACAD_REACTORS
330
DC98
102
}
330
DC98
100
AcDbXrecord
280
     1
270
     1
271
     1
  0
XRECORD
  5
DC9C
102
{ACAD_REACTORS
330
DC98
102
}
330
DC98
100
AcDbXrecord
280
     1
270
     1
271
     1
  0
XRECORD
  5
DC9E
102
{ACAD_REACTORS
330
DC98
102
}
330
DC98
100
AcDbXrecord
280
     1
270
     1
271
     1
  0
XRECORD
  5
DC9B
102
{ACAD_REACTORS
330
DC98
102
}
330
DC98
100
AcDbXrecord
280
     1
270
     1
271
     1
  0
XRECORD
  5
DFFC
102
{ACAD_REACTORS
330
DCA8
102
}
330
DCA8
100
AcDbXrecord
280
     1
102
MATERIAL
148
0.0
149
0.0
149
0.0
 93
        0
 94
      127
282
     0
 72
     0
 77
     0
171
     0
175
     0
179
     0
273
     0
  0
XRECORD
  5
DCAA
102
{ACAD_REACTORS
330
DCA8
102
}
330
DCA8
100
AcDbXrecord
280
     1
270
     1
271
     1
  0
XRECORD
  5
DCA9
102
{ACAD_REACTORS
330
DCA8
102
}
330
DCA8
100
AcDbXrecord
280
     1
270
     1
271
     1
  0
XRECORD
  5
DCAD
102
{ACAD_REACTORS
330
DCA8
102
}
330
DCA8
100
AcDbXrecord
280
     1
270
     1
271
     1
  0
XRECORD
  5
DCAC
102
{ACAD_REACTORS
330
DCA8
102
}
330
DCA8
100
AcDbXrecord
280
     1
270
     1
271
     1
  0
XRECORD
  5
DCAE
102
{ACAD_REACTORS
330
DCA8
102
}
330
DCA8
100
AcDbXrecord
280
     1
270
     1
271
     1
  0
XRECORD
  5
DCAB
102
{ACAD_REACTORS
330
DCA8
102
}
330
DCA8
100
AcDbXrecord
280
     1
270
     1
271
     1
  0
XRECORD
  5
E07C
102
{ACAD_REACTORS
330
E07B
102
}
330
E07B
100
AcDbXrecord
280
     1
102
DISPLAYNAME
  1
Imperial24
102
FLAGS
 90
        0
  0
CELLSTYLEMAP
  5
E03F
102
{ACAD_REACTORS
330
DFEC
102
}
330
DFEC
100
AcDbCellStyleMap
 90
        3
300
CELLSTYLE
  1
TABLEFORMAT_BEGIN
 90
        5
170
     1
 91
        0
 92
    32768
 62
   257
 93
        1
300
CONTENTFORMAT
  1
CONTENTFORMAT_BEGIN
 90
        0
 91
        0
 92
      512
 93
        0
300

 40
0.0
140
1.0
 94
        5
 62
     0
340
11
144
0.25
309
CONTENTFORMAT_END
171
     1
301
MARGIN
  1
CELLMARGIN_BEGIN
 40
0.06
 40
0.06
 40
0.06
 40
0.06
 40
0.18
 40
0.18
309
CELLMARGIN_END
 94
        6
 95
        1
302
GRIDFORMAT
  1
GRIDFORMAT_BEGIN
 90
        0
 91
        1
 62
     0
 92
       -2
340
0
 93
        0
 40
0.045
309
GRIDFORMAT_END
 95
        2
302
GRIDFORMAT
  1
GRIDFORMAT_BEGIN
 90
        0
 91
        1
 62
     0
 92
       -2
340
0
 93
        0
 40
0.045
309
GRIDFORMAT_END
 95
        4
302
GRIDFORMAT
  1
GRIDFORMAT_BEGIN
 90
        0
 91
        1
 62
     0
 92
       -2
340
0
 93
        0
 40
0.045
309
GRIDFORMAT_END
 95
        8
302
GRIDFORMAT
  1
GRIDFORMAT_BEGIN
 90
        0
 91
        1
 62
     0
 92
       -2
340
0
 93
        0
 40
0.045
309
GRIDFORMAT_END
 95
       16
302
GRIDFORMAT
  1
GRIDFORMAT_BEGIN
 90
        0
 91
        1
 62
     0
 92
       -2
340
0
 93
        0
 40
0.045
309
GRIDFORMAT_END
 95
       32
302
GRIDFORMAT
  1
GRIDFORMAT_BEGIN
 90
        0
 91
        1
 62
     0
 92
       -2
340
0
 93
        0
 40
0.045
309
GRIDFORMAT_END
309
TABLEFORMAT_END
  1
CELLSTYLE_BEGIN
 90
        1
 91
        1
300
_TITLE
309
CELLSTYLE_END
300
CELLSTYLE
  1
TABLEFORMAT_BEGIN
 90
        5
170
     1
 91
        0
 92
        0
 62
   257
 93
        1
300
CONTENTFORMAT
  1
CONTENTFORMAT_BEGIN
 90
        0
 91
        0
 92
      512
 93
        0
300

 40
0.0
140
1.0
 94
        5
 62
     0
340
11
144
0.18
309
CONTENTFORMAT_END
171
     1
301
MARGIN
  1
CELLMARGIN_BEGIN
 40
0.06
 40
0.06
 40
0.06
 40
0.06
 40
0.18
 40
0.18
309
CELLMARGIN_END
 94
        6
 95
        1
302
GRIDFORMAT
  1
GRIDFORMAT_BEGIN
 90
        0
 91
        1
 62
     0
 92
       -2
340
0
 93
        0
 40
0.045
309
GRIDFORMAT_END
 95
        2
302
GRIDFORMAT
  1
GRIDFORMAT_BEGIN
 90
        0
 91
        1
 62
     0
 92
       -2
340
0
 93
        0
 40
0.045
309
GRIDFORMAT_END
 95
        4
302
GRIDFORMAT
  1
GRIDFORMAT_BEGIN
 90
        0
 91
        1
 62
     0
 92
       -2
340
0
 93
        0
 40
0.045
309
GRIDFORMAT_END
 95
        8
302
GRIDFORMAT
  1
GRIDFORMAT_BEGIN
 90
        0
 91
        1
 62
     0
 92
       -2
340
0
 93
        0
 40
0.045
309
GRIDFORMAT_END
 95
       16
302
GRIDFORMAT
  1
GRIDFORMAT_BEGIN
 90
        0
 91
        1
 62
     0
 92
       -2
340
0
 93
        0
 40
0.045
309
GRIDFORMAT_END
 95
       32
302
GRIDFORMAT
  1
GRIDFORMAT_BEGIN
 90
        0
 91
        1
 62
     0
 92
       -2
340
0
 93
        0
 40
0.045
309
GRIDFORMAT_END
309
TABLEFORMAT_END
  1
CELLSTYLE_BEGIN
 90
        2
 91
        1
300
_HEADER
309
CELLSTYLE_END
300
CELLSTYLE
  1
TABLEFORMAT_BEGIN
 90
        5
170
     1
 91
        0
 92
        0
 62
   257
 93
        1
300
CONTENTFORMAT
  1
CONTENTFORMAT_BEGIN
 90
        0
 91
        0
 92
      512
 93
        0
300

 40
0.0
140
1.0
 94
        2
 62
     0
340
11
144
0.18
309
CONTENTFORMAT_END
171
     1
301
MARGIN
  1
CELLMARGIN_BEGIN
 40
0.06
 40
0.06
 40
0.06
 40
0.06
 40
0.18
 40
0.18
309
CELLMARGIN_END
 94
        6
 95
        1
302
GRIDFORMAT
  1
GRIDFORMAT_BEGIN
 90
        0
 91
        1
 62
     0
 92
       -2
340
0
 93
        0
 40
0.045
309
GRIDFORMAT_END
 95
        2
302
GRIDFORMAT
  1
GRIDFORMAT_BEGIN
 90
        0
 91
        1
 62
     0
 92
       -2
340
0
 93
        0
 40
0.045
309
GRIDFORMAT_END
 95
        4
302
GRIDFORMAT
  1
GRIDFORMAT_BEGIN
 90
        0
 91
        1
 62
     0
 92
       -2
340
0
 93
        0
 40
0.045
309
GRIDFORMAT_END
 95
        8
302
GRIDFORMAT
  1
GRIDFORMAT_BEGIN
 90
        0
 91
        1
 62
     0
 92
       -2
340
0
 93
        0
 40
0.045
309
GRIDFORMAT_END
 95
       16
302
GRIDFORMAT
  1
GRIDFORMAT_BEGIN
 90
        0
 91
        1
 62
     0
 92
       -2
340
0
 93
        0
 40
0.045
309
GRIDFORMAT_END
 95
       32
302
GRIDFORMAT
  1
GRIDFORMAT_BEGIN
 90
        0
 91
        1
 62
     0
 92
       -2
340
0
 93
        0
 40
0.045
309
GRIDFORMAT_END
309
TABLEFORMAT_END
  1
CELLSTYLE_BEGIN
 90
        3
 91
        2
300
_DATA
309
CELLSTYLE_END
  0
XRECORD
  5
E07A
102
{ACAD_REACTORS
330
DFEC
102
}
330
DFEC
100
AcDbXrecord
280
     1
102
ACAD_ROUNDTRIP_PRE2007_TABLESTYLE
 90
      512
 91
        0
  1

 92
      512
 93
        0
  2

 94
      512
 95
        0
  3

  0
XRECORD
  5
E055
102
{ACAD_REACTORS
330
E054
102
}
330
E054
100
AcDbXrecord
280
     1
102
RTVSPost2010Prop28
280
     1
102
RTVSPost2010PropOp28
 70
     1
102
RTVSPost2010Prop29
280
     1
102
RTVSPost2010PropOp29
 70
     1
102
RTVSPost2010Prop30
280
     0
102
RTVSPost2010PropOp30
 70
     1
102
RTVSPost2010Prop31
280
     0
102
RTVSPost2010PropOp31
 70
     1
102
RTVSPost2010Prop32
280
     0
102
RTVSPost2010PropOp32
 70
     1
102
RTVSPost2010Prop33
280
     0
102
RTVSPost2010PropOp33
 70
     1
102
RTVSPost2010Prop34
280
     0
102
RTVSPost2010PropOp34
 70
     1
102
RTVSPost2010Prop35
280
     0
102
RTVSPost2010PropOp35
 70
     1
102
RTVSPost2010Prop36
280
     0
102
RTVSPost2010PropOp36
 70
     1
102
RTVSPost2010Prop37
 90
       50
102
RTVSPost2010PropOp37
 70
     1
102
RTVSPost2010Prop38
140
0.0
102
RTVSPost2010PropOp38
 70
     1
102
RTVSPost2010Prop39
140
1.0
102
RTVSPost2010PropOp39
 70
     1
102
RTVSPost2010Prop40
 90
        0
102
RTVSPost2010PropOp40
 70
     1
102
RTVSPost2010Prop41ColorIndex
 90
       18
102
RTVSPost2010Prop41ColorRGB
 90
        0
102
RTVSPost2010PropOp41
 70
     1
102
RTVSPost2010Prop42
 90
       50
102
RTVSPost2010PropOp42
 70
     1
102
RTVSPost2010Prop43
 90
        3
102
RTVSPost2010PropOp43
 70
     1
102
RTVSPost2010Prop44ColorIndex
 90
        5
102
RTVSPost2010Prop44ColorRGB
 90
      255
102
RTVSPost2010PropOp44
 70
     1
102
RTVSPost2010Prop45
280
     0
102
RTVSPost2010PropOp45
 70
     1
102
RTVSPost2010Prop46
 90
       50
102
RTVSPost2010PropOp46
 70
     1
102
RTVSPost2010Prop47
 90
       50
102
RTVSPost2010PropOp47
 70
     1
102
RTVSPost2010Prop48
 90
       50
102
RTVSPost2010PropOp48
 70
     1
102
RTVSPost2010Prop49
280
     0
102
RTVSPost2010PropOp49
 70
     1
102
RTVSPost2010Prop50
 90
       50
102
RTVSPost2010PropOp50
 70
     1
102
RTVSPost2010Prop51ColorIndex
 90
      256
102
RTVSPost2010Prop51ColorRGB
 90
-16777216
102
RTVSPost2010PropOp51
 70
     0
102
RTVSPost2010Prop52
140
1.0
102
RTVSPost2010PropOp52
 70
     0
102
RTVSPost2010Prop53
 90
        2
102
RTVSPost2010PropOp53
 70
     1
102
RTVSPost2010Prop54
  1
strokes_ogs.tif
102
RTVSPost2010PropOp54
 70
     1
102
RTVSPost2010Prop55
280
     0
102
RTVSPost2010PropOp55
 70
     1
102
RTVSPost2010Prop56
140
1.0
102
RTVSPost2010PropOp56
 70
     1
102
RTVSPost2010Prop57
140
1.0
102
RTVSPost2010PropOp57
 70
     1
102
RTVSPropertyOp0
 70
     1
102
RTVSPropertyOp1
 70
     1
102
RTVSPropertyOp2
 70
     1
102
RTVSPropertyOp3
 70
     1
102
RTVSPropertyOp4
 70
     1
102
RTVSPropertyOp5
 70
     1
102
RTVSPropertyOp6
 70
     1
102
RTVSPropertyOp7
 70
     1
102
RTVSPropertyOp8
 70
     1
102
RTVSPropertyOp9
 70
     1
102
RTVSPropertyOp10
 70
     1
102
RTVSPropertyOp11
 70
     1
102
RTVSPropertyOp12
 70
     1
102
RTVSPropertyOp13
 70
     1
102
RTVSPropertyOp14
 70
     1
102
RTVSPropertyOp15
 70
     1
102
RTVSPropertyOp16
 70
     1
102
RTVSPropertyOp17
 70
     1
102
RTVSPropertyOp18
 70
     1
102
RTVSPropertyOp19
 70
     1
102
RTVSPropertyOp20
 70
     1
102
RTVSPropertyOp21
 70
     1
102
RTVSPropertyOp22
 70
     1
102
RTVSPropertyOp23
 70
     1
102
RTVSPropertyOp24
 70
     1
102
RTVSPropertyOp25
 70
     1
102
RTVSPropertyOp26
 70
     1
102
RTVSPropertyOp27
 70
     1
102
RTVSPropertyOp28
 70
     1
102
RTVSPropertyOp29
 70
     1
102
RTVSPropertyOp30
 70
     1
102
RTVSPropertyOp31
 70
     1
102
RTVSPropertyOp32
 70
     1
102
RTVSPropertyOp33
 70
     1
102
RTVSPropertyOp34
 70
     1
102
RTVSPropertyOp35
 70
     1
102
RTVSPropertyOp36
 70
     1
102
RTVSPropertyOp37
 70
     1
102
RTVSPropertyOp38
 70
     1
102
RTVSPropertyOp39
 70
     1
102
RTVSPropertyOp40
 70
     1
102
RTVSPropertyOp41
 70
     1
102
RTVSPropertyOp42
 70
     1
102
RTVSPropertyOp43
 70
     1
102
RTVSPropertyOp44
 70
     1
102
RTVSPropertyOp45
 70
     1
102
RTVSPropertyOp46
 70
     1
102
RTVSPropertyOp47
 70
     1
102
RTVSPropertyOp48
 70
     1
102
RTVSPropertyOp49
 70
     1
102
RTVSPropertyOp50
 70
     1
102
RTVSPropertyOp51
 70
     0
102
RTVSPropertyOp52
 70
     0
102
RTVSPropertyOp53
 70
     1
102
RTVSPropertyOp54
 70
     1
102
RTVSPropertyOp55
 70
     1
102
RTVSPropertyOp56
 70
     1
102
RTVSPropertyOp57
 70
     1
102
RTVSPropertyOp58
 70
     1
102
RTVSPropertyOp59
 70
     1
102
RTVSPropertyOp60
 70
     1
102
RTVSPropertyOp61
 70
     1
102
RTVSPropertyOp62
 70
     1
  0
XRECORD
  5
E053
102
{ACAD_REACTORS
330
E052
102
}
330
E052
100
AcDbXrecord
280
     1
102
RTVSPost2010Prop28
280
     0
102
RTVSPost2010PropOp28
 70
     1
102
RTVSPost2010Prop29
280
     1
102
RTVSPost2010PropOp29
 70
     1
102
RTVSPost2010Prop30
280
     1
102
RTVSPost2010PropOp30
 70
     1
102
RTVSPost2010Prop31
280
     0
102
RTVSPost2010PropOp31
 70
     1
102
RTVSPost2010Prop32
280
     0
102
RTVSPost2010PropOp32
 70
     1
102
RTVSPost2010Prop33
280
     0
102
RTVSPost2010PropOp33
 70
     1
102
RTVSPost2010Prop34
280
     0
102
RTVSPost2010PropOp34
 70
     1
102
RTVSPost2010Prop35
280
     0
102
RTVSPost2010PropOp35
 70
     1
102
RTVSPost2010Prop36
280
     0
102
RTVSPost2010PropOp36
 70
     1
102
RTVSPost2010Prop37
 90
       50
102
RTVSPost2010PropOp37
 70
     1
102
RTVSPost2010Prop38
140
0.0
102
RTVSPost2010PropOp38
 70
     1
102
RTVSPost2010Prop39
140
1.0
102
RTVSPost2010PropOp39
 70
     1
102
RTVSPost2010Prop40
 90
        0
102
RTVSPost2010PropOp40
 70
     1
102
RTVSPost2010Prop41ColorIndex
 90
       18
102
RTVSPost2010Prop41ColorRGB
 90
        0
102
RTVSPost2010PropOp41
 70
     1
102
RTVSPost2010Prop42
 90
       50
102
RTVSPost2010PropOp42
 70
     1
102
RTVSPost2010Prop43
 90
        3
102
RTVSPost2010PropOp43
 70
     1
102
RTVSPost2010Prop44ColorIndex
 90
        5
102
RTVSPost2010Prop44ColorRGB
 90
      255
102
RTVSPost2010PropOp44
 70
     1
102
RTVSPost2010Prop45
280
     0
102
RTVSPost2010PropOp45
 70
     1
102
RTVSPost2010Prop46
 90
       50
102
RTVSPost2010PropOp46
 70
     1
102
RTVSPost2010Prop47
 90
       50
102
RTVSPost2010PropOp47
 70
     1
102
RTVSPost2010Prop48
 90
       50
102
RTVSPost2010PropOp48
 70
     1
102
RTVSPost2010Prop49
280
     0
102
RTVSPost2010PropOp49
 70
     1
102
RTVSPost2010Prop50
 90
       50
102
RTVSPost2010PropOp50
 70
     1
102
RTVSPost2010Prop51ColorIndex
 90
      256
102
RTVSPost2010Prop51ColorRGB
 90
-16777216
102
RTVSPost2010PropOp51
 70
     0
102
RTVSPost2010Prop52
140
1.0
102
RTVSPost2010PropOp52
 70
     0
102
RTVSPost2010Prop53
 90
        2
102
RTVSPost2010PropOp53
 70
     1
102
RTVSPost2010Prop54
  1
strokes_ogs.tif
102
RTVSPost2010PropOp54
 70
     1
102
RTVSPost2010Prop55
280
     0
102
RTVSPost2010PropOp55
 70
     1
102
RTVSPost2010Prop56
140
1.0
102
RTVSPost2010PropOp56
 70
     1
102
RTVSPost2010Prop57
140
1.0
102
RTVSPost2010PropOp57
 70
     1
102
RTVSPropertyOp0
 70
     1
102
RTVSPropertyOp1
 70
     1
102
RTVSPropertyOp2
 70
     1
102
RTVSPropertyOp3
 70
     1
102
RTVSPropertyOp4
 70
     1
102
RTVSPropertyOp5
 70
     1
102
RTVSPropertyOp6
 70
     1
102
RTVSPropertyOp7
 70
     1
102
RTVSPropertyOp8
 70
     1
102
RTVSPropertyOp9
 70
     1
102
RTVSPropertyOp10
 70
     1
102
RTVSPropertyOp11
 70
     1
102
RTVSPropertyOp12
 70
     1
102
RTVSPropertyOp13
 70
     1
102
RTVSPropertyOp14
 70
     1
102
RTVSPropertyOp15
 70
     1
102
RTVSPropertyOp16
 70
     1
102
RTVSPropertyOp17
 70
     1
102
RTVSPropertyOp18
 70
     1
102
RTVSPropertyOp19
 70
     1
102
RTVSPropertyOp20
 70
     1
102
RTVSPropertyOp21
 70
     1
102
RTVSPropertyOp22
 70
     1
102
RTVSPropertyOp23
 70
     1
102
RTVSPropertyOp24
 70
     1
102
RTVSPropertyOp25
 70
     1
102
RTVSPropertyOp26
 70
     1
102
RTVSPropertyOp27
 70
     1
102
RTVSPropertyOp28
 70
     1
102
RTVSPropertyOp29
 70
     1
102
RTVSPropertyOp30
 70
     1
102
RTVSPropertyOp31
 70
     1
102
RTVSPropertyOp32
 70
     1
102
RTVSPropertyOp33
 70
     1
102
RTVSPropertyOp34
 70
     1
102
RTVSPropertyOp35
 70
     1
102
RTVSPropertyOp36
 70
     1
102
RTVSPropertyOp37
 70
     1
102
RTVSPropertyOp38
 70
     1
102
RTVSPropertyOp39
 70
     1
102
RTVSPropertyOp40
 70
     1
102
RTVSPropertyOp41
 70
     1
102
RTVSPropertyOp42
 70
     1
102
RTVSPropertyOp43
 70
     1
102
RTVSPropertyOp44
 70
     1
102
RTVSPropertyOp45
 70
     1
102
RTVSPropertyOp46
 70
     1
102
RTVSPropertyOp47
 70
     1
102
RTVSPropertyOp48
 70
     1
102
RTVSPropertyOp49
 70
     1
102
RTVSPropertyOp50
 70
     1
102
RTVSPropertyOp51
 70
     0
102
RTVSPropertyOp52
 70
     0
102
RTVSPropertyOp53
 70
     1
102
RTVSPropertyOp54
 70
     1
102
RTVSPropertyOp55
 70
     1
102
RTVSPropertyOp56
 70
     1
102
RTVSPropertyOp57
 70
     1
102
RTVSPropertyOp58
 70
     1
102
RTVSPropertyOp59
 70
     1
102
RTVSPropertyOp60
 70
     1
102
RTVSPropertyOp61
 70
     1
102
RTVSPropertyOp62
 70
     1
  0
XRECORD
  5
E061
102
{ACAD_REACTORS
330
E060
102
}
330
E060
100
AcDbXrecord
280
     1
102
RTVSPost2010Prop28
280
     0
102
RTVSPost2010PropOp28
 70
     1
102
RTVSPost2010Prop29
280
     1
102
RTVSPost2010PropOp29
 70
     1
102
RTVSPost2010Prop30
280
     1
102
RTVSPost2010PropOp30
 70
     1
102
RTVSPost2010Prop31
280
     0
102
RTVSPost2010PropOp31
 70
     1
102
RTVSPost2010Prop32
280
     0
102
RTVSPost2010PropOp32
 70
     1
102
RTVSPost2010Prop33
280
     0
102
RTVSPost2010PropOp33
 70
     1
102
RTVSPost2010Prop34
280
     0
102
RTVSPost2010PropOp34
 70
     1
102
RTVSPost2010Prop35
280
     0
102
RTVSPost2010PropOp35
 70
     1
102
RTVSPost2010Prop36
280
     0
102
RTVSPost2010PropOp36
 70
     1
102
RTVSPost2010Prop37
 90
       50
102
RTVSPost2010PropOp37
 70
     1
102
RTVSPost2010Prop38
140
0.0
102
RTVSPost2010PropOp38
 70
     1
102
RTVSPost2010Prop39
140
1.0
102
RTVSPost2010PropOp39
 70
     1
102
RTVSPost2010Prop40
 90
        0
102
RTVSPost2010PropOp40
 70
     1
102
RTVSPost2010Prop41ColorIndex
 90
       18
102
RTVSPost2010Prop41ColorRGB
 90
        0
102
RTVSPost2010PropOp41
 70
     1
102
RTVSPost2010Prop42
 90
       50
102
RTVSPost2010PropOp42
 70
     1
102
RTVSPost2010Prop43
 90
        3
102
RTVSPost2010PropOp43
 70
     1
102
RTVSPost2010Prop44ColorIndex
 90
        5
102
RTVSPost2010Prop44ColorRGB
 90
      255
102
RTVSPost2010PropOp44
 70
     1
102
RTVSPost2010Prop45
280
     0
102
RTVSPost2010PropOp45
 70
     1
102
RTVSPost2010Prop46
 90
       50
102
RTVSPost2010PropOp46
 70
     1
102
RTVSPost2010Prop47
 90
       50
102
RTVSPost2010PropOp47
 70
     1
102
RTVSPost2010Prop48
 90
       50
102
RTVSPost2010PropOp48
 70
     1
102
RTVSPost2010Prop49
280
     0
102
RTVSPost2010PropOp49
 70
     1
102
RTVSPost2010Prop50
 90
       50
102
RTVSPost2010PropOp50
 70
     1
102
RTVSPost2010Prop51ColorIndex
 90
      256
102
RTVSPost2010Prop51ColorRGB
 90
-16777216
102
RTVSPost2010PropOp51
 70
     0
102
RTVSPost2010Prop52
140
1.0
102
RTVSPost2010PropOp52
 70
     0
102
RTVSPost2010Prop53
 90
        2
102
RTVSPost2010PropOp53
 70
     1
102
RTVSPost2010Prop54
  1
strokes_ogs.tif
102
RTVSPost2010PropOp54
 70
     1
102
RTVSPost2010Prop55
280
     0
102
RTVSPost2010PropOp55
 70
     1
102
RTVSPost2010Prop56
140
1.0
102
RTVSPost2010PropOp56
 70
     1
102
RTVSPost2010Prop57
140
1.0
102
RTVSPost2010PropOp57
 70
     1
102
RTVSPropertyOp0
 70
     1
102
RTVSPropertyOp1
 70
     1
102
RTVSPropertyOp2
 70
     1
102
RTVSPropertyOp3
 70
     1
102
RTVSPropertyOp4
 70
     1
102
RTVSPropertyOp5
 70
     1
102
RTVSPropertyOp6
 70
     1
102
RTVSPropertyOp7
 70
     1
102
RTVSPropertyOp8
 70
     1
102
RTVSPropertyOp9
 70
     1
102
RTVSPropertyOp10
 70
     1
102
RTVSPropertyOp11
 70
     1
102
RTVSPropertyOp12
 70
     1
102
RTVSPropertyOp13
 70
     1
102
RTVSPropertyOp14
 70
     1
102
RTVSPropertyOp15
 70
     1
102
RTVSPropertyOp16
 70
     1
102
RTVSPropertyOp17
 70
     1
102
RTVSPropertyOp18
 70
     1
102
RTVSPropertyOp19
 70
     1
102
RTVSPropertyOp20
 70
     1
102
RTVSPropertyOp21
 70
     1
102
RTVSPropertyOp22
 70
     1
102
RTVSPropertyOp23
 70
     1
102
RTVSPropertyOp24
 70
     1
102
RTVSPropertyOp25
 70
     1
102
RTVSPropertyOp26
 70
     1
102
RTVSPropertyOp27
 70
     1
102
RTVSPropertyOp28
 70
     1
102
RTVSPropertyOp29
 70
     1
102
RTVSPropertyOp30
 70
     1
102
RTVSPropertyOp31
 70
     1
102
RTVSPropertyOp32
 70
     1
102
RTVSPropertyOp33
 70
     1
102
RTVSPropertyOp34
 70
     1
102
RTVSPropertyOp35
 70
     1
102
RTVSPropertyOp36
 70
     1
102
RTVSPropertyOp37
 70
     1
102
RTVSPropertyOp38
 70
     1
102
RTVSPropertyOp39
 70
     1
102
RTVSPropertyOp40
 70
     1
102
RTVSPropertyOp41
 70
     1
102
RTVSPropertyOp42
 70
     1
102
RTVSPropertyOp43
 70
     1
102
RTVSPropertyOp44
 70
     1
102
RTVSPropertyOp45
 70
     1
102
RTVSPropertyOp46
 70
     1
102
RTVSPropertyOp47
 70
     1
102
RTVSPropertyOp48
 70
     1
102
RTVSPropertyOp49
 70
     1
102
RTVSPropertyOp50
 70
     1
102
RTVSPropertyOp51
 70
     0
102
RTVSPropertyOp52
 70
     0
102
RTVSPropertyOp53
 70
     1
102
RTVSPropertyOp54
 70
     1
102
RTVSPropertyOp55
 70
     1
102
RTVSPropertyOp56
 70
     1
102
RTVSPropertyOp57
 70
     1
102
RTVSPropertyOp58
 70
     1
102
RTVSPropertyOp59
 70
     1
102
RTVSPropertyOp60
 70
     1
102
RTVSPropertyOp61
 70
     1
102
RTVSPropertyOp62
 70
     1
  0
XRECORD
  5
E069
102
{ACAD_REACTORS
330
E068
102
}
330
E068
100
AcDbXrecord
280
     1
102
RTVSPost2010Prop28
280
     0
102
RTVSPost2010PropOp28
 70
     1
102
RTVSPost2010Prop29
280
     1
102
RTVSPost2010PropOp29
 70
     1
102
RTVSPost2010Prop30
280
     1
102
RTVSPost2010PropOp30
 70
     1
102
RTVSPost2010Prop31
280
     0
102
RTVSPost2010PropOp31
 70
     1
102
RTVSPost2010Prop32
280
     0
102
RTVSPost2010PropOp32
 70
     1
102
RTVSPost2010Prop33
280
     0
102
RTVSPost2010PropOp33
 70
     1
102
RTVSPost2010Prop34
280
     0
102
RTVSPost2010PropOp34
 70
     1
102
RTVSPost2010Prop35
280
     0
102
RTVSPost2010PropOp35
 70
     1
102
RTVSPost2010Prop36
280
     0
102
RTVSPost2010PropOp36
 70
     1
102
RTVSPost2010Prop37
 90
       50
102
RTVSPost2010PropOp37
 70
     1
102
RTVSPost2010Prop38
140
0.0
102
RTVSPost2010PropOp38
 70
     1
102
RTVSPost2010Prop39
140
1.0
102
RTVSPost2010PropOp39
 70
     1
102
RTVSPost2010Prop40
 90
        0
102
RTVSPost2010PropOp40
 70
     1
102
RTVSPost2010Prop41ColorIndex
 90
       18
102
RTVSPost2010Prop41ColorRGB
 90
        0
102
RTVSPost2010PropOp41
 70
     1
102
RTVSPost2010Prop42
 90
       50
102
RTVSPost2010PropOp42
 70
     1
102
RTVSPost2010Prop43
 90
        3
102
RTVSPost2010PropOp43
 70
     1
102
RTVSPost2010Prop44ColorIndex
 90
        5
102
RTVSPost2010Prop44ColorRGB
 90
      255
102
RTVSPost2010PropOp44
 70
     1
102
RTVSPost2010Prop45
280
     0
102
RTVSPost2010PropOp45
 70
     1
102
RTVSPost2010Prop46
 90
       50
102
RTVSPost2010PropOp46
 70
     1
102
RTVSPost2010Prop47
 90
       50
102
RTVSPost2010PropOp47
 70
     1
102
RTVSPost2010Prop48
 90
       50
102
RTVSPost2010PropOp48
 70
     1
102
RTVSPost2010Prop49
280
     0
102
RTVSPost2010PropOp49
 70
     1
102
RTVSPost2010Prop50
 90
       50
102
RTVSPost2010PropOp50
 70
     1
102
RTVSPost2010Prop51ColorIndex
 90
      256
102
RTVSPost2010Prop51ColorRGB
 90
-16777216
102
RTVSPost2010PropOp51
 70
     0
102
RTVSPost2010Prop52
140
1.0
102
RTVSPost2010PropOp52
 70
     0
102
RTVSPost2010Prop53
 90
        2
102
RTVSPost2010PropOp53
 70
     1
102
RTVSPost2010Prop54
  1
strokes_ogs.tif
102
RTVSPost2010PropOp54
 70
     1
102
RTVSPost2010Prop55
280
     0
102
RTVSPost2010PropOp55
 70
     1
102
RTVSPost2010Prop56
140
1.0
102
RTVSPost2010PropOp56
 70
     1
102
RTVSPost2010Prop57
140
1.0
102
RTVSPost2010PropOp57
 70
     1
102
RTVSPropertyOp0
 70
     1
102
RTVSPropertyOp1
 70
     1
102
RTVSPropertyOp2
 70
     1
102
RTVSPropertyOp3
 70
     1
102
RTVSPropertyOp4
 70
     1
102
RTVSPropertyOp5
 70
     1
102
RTVSPropertyOp6
 70
     1
102
RTVSPropertyOp7
 70
     1
102
RTVSPropertyOp8
 70
     1
102
RTVSPropertyOp9
 70
     1
102
RTVSPropertyOp10
 70
     1
102
RTVSPropertyOp11
 70
     1
102
RTVSPropertyOp12
 70
     1
102
RTVSPropertyOp13
 70
     1
102
RTVSPropertyOp14
 70
     1
102
RTVSPropertyOp15
 70
     1
102
RTVSPropertyOp16
 70
     1
102
RTVSPropertyOp17
 70
     1
102
RTVSPropertyOp18
 70
     1
102
RTVSPropertyOp19
 70
     1
102
RTVSPropertyOp20
 70
     1
102
RTVSPropertyOp21
 70
     1
102
RTVSPropertyOp22
 70
     1
102
RTVSPropertyOp23
 70
     1
102
RTVSPropertyOp24
 70
     1
102
RTVSPropertyOp25
 70
     1
102
RTVSPropertyOp26
 70
     1
102
RTVSPropertyOp27
 70
     1
102
RTVSPropertyOp28
 70
     1
102
RTVSPropertyOp29
 70
     1
102
RTVSPropertyOp30
 70
     1
102
RTVSPropertyOp31
 70
     1
102
RTVSPropertyOp32
 70
     1
102
RTVSPropertyOp33
 70
     1
102
RTVSPropertyOp34
 70
     1
102
RTVSPropertyOp35
 70
     1
102
RTVSPropertyOp36
 70
     1
102
RTVSPropertyOp37
 70
     1
102
RTVSPropertyOp38
 70
     1
102
RTVSPropertyOp39
 70
     1
102
RTVSPropertyOp40
 70
     1
102
RTVSPropertyOp41
 70
     1
102
RTVSPropertyOp42
 70
     1
102
RTVSPropertyOp43
 70
     1
102
RTVSPropertyOp44
 70
     1
102
RTVSPropertyOp45
 70
     1
102
RTVSPropertyOp46
 70
     1
102
RTVSPropertyOp47
 70
     1
102
RTVSPropertyOp48
 70
     1
102
RTVSPropertyOp49
 70
     1
102
RTVSPropertyOp50
 70
     1
102
RTVSPropertyOp51
 70
     0
102
RTVSPropertyOp52
 70
     0
102
RTVSPropertyOp53
 70
     1
102
RTVSPropertyOp54
 70
     1
102
RTVSPropertyOp55
 70
     1
102
RTVSPropertyOp56
 70
     1
102
RTVSPropertyOp57
 70
     1
102
RTVSPropertyOp58
 70
     1
102
RTVSPropertyOp59
 70
     1
102
RTVSPropertyOp60
 70
     1
102
RTVSPropertyOp61
 70
     1
102
RTVSPropertyOp62
 70
     1
  0
XRECORD
  5
E05B
102
{ACAD_REACTORS
330
E05A
102
}
330
E05A
100
AcDbXrecord
280
     1
102
RTVSPost2010Prop28
280
     0
102
RTVSPost2010PropOp28
 70
     1
102
RTVSPost2010Prop29
280
     1
102
RTVSPost2010PropOp29
 70
     1
102
RTVSPost2010Prop30
280
     1
102
RTVSPost2010PropOp30
 70
     1
102
RTVSPost2010Prop31
280
     0
102
RTVSPost2010PropOp31
 70
     1
102
RTVSPost2010Prop32
280
     0
102
RTVSPost2010PropOp32
 70
     1
102
RTVSPost2010Prop33
280
     0
102
RTVSPost2010PropOp33
 70
     1
102
RTVSPost2010Prop34
280
     0
102
RTVSPost2010PropOp34
 70
     1
102
RTVSPost2010Prop35
280
     0
102
RTVSPost2010PropOp35
 70
     1
102
RTVSPost2010Prop36
280
     0
102
RTVSPost2010PropOp36
 70
     1
102
RTVSPost2010Prop37
 90
       50
102
RTVSPost2010PropOp37
 70
     1
102
RTVSPost2010Prop38
140
0.0
102
RTVSPost2010PropOp38
 70
     1
102
RTVSPost2010Prop39
140
1.0
102
RTVSPost2010PropOp39
 70
     1
102
RTVSPost2010Prop40
 90
        0
102
RTVSPost2010PropOp40
 70
     1
102
RTVSPost2010Prop41ColorIndex
 90
       18
102
RTVSPost2010Prop41ColorRGB
 90
        0
102
RTVSPost2010PropOp41
 70
     1
102
RTVSPost2010Prop42
 90
       50
102
RTVSPost2010PropOp42
 70
     1
102
RTVSPost2010Prop43
 90
        3
102
RTVSPost2010PropOp43
 70
     1
102
RTVSPost2010Prop44ColorIndex
 90
        5
102
RTVSPost2010Prop44ColorRGB
 90
      255
102
RTVSPost2010PropOp44
 70
     1
102
RTVSPost2010Prop45
280
     0
102
RTVSPost2010PropOp45
 70
     1
102
RTVSPost2010Prop46
 90
       50
102
RTVSPost2010PropOp46
 70
     1
102
RTVSPost2010Prop47
 90
       50
102
RTVSPost2010PropOp47
 70
     1
102
RTVSPost2010Prop48
 90
       50
102
RTVSPost2010PropOp48
 70
     1
102
RTVSPost2010Prop49
280
     0
102
RTVSPost2010PropOp49
 70
     1
102
RTVSPost2010Prop50
 90
       50
102
RTVSPost2010PropOp50
 70
     1
102
RTVSPost2010Prop51ColorIndex
 90
      256
102
RTVSPost2010Prop51ColorRGB
 90
-16777216
102
RTVSPost2010PropOp51
 70
     0
102
RTVSPost2010Prop52
140
1.0
102
RTVSPost2010PropOp52
 70
     0
102
RTVSPost2010Prop53
 90
        2
102
RTVSPost2010PropOp53
 70
     1
102
RTVSPost2010Prop54
  1
strokes_ogs.tif
102
RTVSPost2010PropOp54
 70
     1
102
RTVSPost2010Prop55
280
     0
102
RTVSPost2010PropOp55
 70
     1
102
RTVSPost2010Prop56
140
1.0
102
RTVSPost2010PropOp56
 70
     1
102
RTVSPost2010Prop57
140
1.0
102
RTVSPost2010PropOp57
 70
     1
102
RTVSPropertyOp0
 70
     1
102
RTVSPropertyOp1
 70
     1
102
RTVSPropertyOp2
 70
     1
102
RTVSPropertyOp3
 70
     1
102
RTVSPropertyOp4
 70
     1
102
RTVSPropertyOp5
 70
     1
102
RTVSPropertyOp6
 70
     1
102
RTVSPropertyOp7
 70
     1
102
RTVSPropertyOp8
 70
     1
102
RTVSPropertyOp9
 70
     1
102
RTVSPropertyOp10
 70
     1
102
RTVSPropertyOp11
 70
     1
102
RTVSPropertyOp12
 70
     1
102
RTVSPropertyOp13
 70
     1
102
RTVSPropertyOp14
 70
     1
102
RTVSPropertyOp15
 70
     1
102
RTVSPropertyOp16
 70
     1
102
RTVSPropertyOp17
 70
     1
102
RTVSPropertyOp18
 70
     1
102
RTVSPropertyOp19
 70
     1
102
RTVSPropertyOp20
 70
     1
102
RTVSPropertyOp21
 70
     1
102
RTVSPropertyOp22
 70
     1
102
RTVSPropertyOp23
 70
     1
102
RTVSPropertyOp24
 70
     1
102
RTVSPropertyOp25
 70
     1
102
RTVSPropertyOp26
 70
     1
102
RTVSPropertyOp27
 70
     1
102
RTVSPropertyOp28
 70
     1
102
RTVSPropertyOp29
 70
     1
102
RTVSPropertyOp30
 70
     1
102
RTVSPropertyOp31
 70
     1
102
RTVSPropertyOp32
 70
     1
102
RTVSPropertyOp33
 70
     1
102
RTVSPropertyOp34
 70
     1
102
RTVSPropertyOp35
 70
     1
102
RTVSPropertyOp36
 70
     1
102
RTVSPropertyOp37
 70
     1
102
RTVSPropertyOp38
 70
     1
102
RTVSPropertyOp39
 70
     1
102
RTVSPropertyOp40
 70
     1
102
RTVSPropertyOp41
 70
     1
102
RTVSPropertyOp42
 70
     1
102
RTVSPropertyOp43
 70
     1
102
RTVSPropertyOp44
 70
     1
102
RTVSPropertyOp45
 70
     1
102
RTVSPropertyOp46
 70
     1
102
RTVSPropertyOp47
 70
     1
102
RTVSPropertyOp48
 70
     1
102
RTVSPropertyOp49
 70
     1
102
RTVSPropertyOp50
 70
     1
102
RTVSPropertyOp51
 70
     0
102
RTVSPropertyOp52
 70
     0
102
RTVSPropertyOp53
 70
     1
102
RTVSPropertyOp54
 70
     1
102
RTVSPropertyOp55
 70
     1
102
RTVSPropertyOp56
 70
     1
102
RTVSPropertyOp57
 70
     1
102
RTVSPropertyOp58
 70
     1
102
RTVSPropertyOp59
 70
     1
102
RTVSPropertyOp60
 70
     1
102
RTVSPropertyOp61
 70
     1
102
RTVSPropertyOp62
 70
     1
  0
XRECORD
  5
E05F
102
{ACAD_REACTORS
330
E05E
102
}
330
E05E
100
AcDbXrecord
280
     1
102
RTVSPost2010Prop28
280
     0
102
RTVSPost2010PropOp28
 70
     1
102
RTVSPost2010Prop29
280
     1
102
RTVSPost2010PropOp29
 70
     1
102
RTVSPost2010Prop30
280
     1
102
RTVSPost2010PropOp30
 70
     1
102
RTVSPost2010Prop31
280
     0
102
RTVSPost2010PropOp31
 70
     1
102
RTVSPost2010Prop32
280
     0
102
RTVSPost2010PropOp32
 70
     1
102
RTVSPost2010Prop33
280
     0
102
RTVSPost2010PropOp33
 70
     1
102
RTVSPost2010Prop34
280
     0
102
RTVSPost2010PropOp34
 70
     1
102
RTVSPost2010Prop35
280
     0
102
RTVSPost2010PropOp35
 70
     1
102
RTVSPost2010Prop36
280
     0
102
RTVSPost2010PropOp36
 70
     1
102
RTVSPost2010Prop37
 90
       50
102
RTVSPost2010PropOp37
 70
     1
102
RTVSPost2010Prop38
140
0.0
102
RTVSPost2010PropOp38
 70
     1
102
RTVSPost2010Prop39
140
1.0
102
RTVSPost2010PropOp39
 70
     1
102
RTVSPost2010Prop40
 90
        0
102
RTVSPost2010PropOp40
 70
     1
102
RTVSPost2010Prop41ColorIndex
 90
       18
102
RTVSPost2010Prop41ColorRGB
 90
        0
102
RTVSPost2010PropOp41
 70
     1
102
RTVSPost2010Prop42
 90
       50
102
RTVSPost2010PropOp42
 70
     1
102
RTVSPost2010Prop43
 90
        3
102
RTVSPost2010PropOp43
 70
     1
102
RTVSPost2010Prop44ColorIndex
 90
        5
102
RTVSPost2010Prop44ColorRGB
 90
      255
102
RTVSPost2010PropOp44
 70
     1
102
RTVSPost2010Prop45
280
     0
102
RTVSPost2010PropOp45
 70
     1
102
RTVSPost2010Prop46
 90
       50
102
RTVSPost2010PropOp46
 70
     1
102
RTVSPost2010Prop47
 90
       50
102
RTVSPost2010PropOp47
 70
     1
102
RTVSPost2010Prop48
 90
       50
102
RTVSPost2010PropOp48
 70
     1
102
RTVSPost2010Prop49
280
     0
102
RTVSPost2010PropOp49
 70
     1
102
RTVSPost2010Prop50
 90
       50
102
RTVSPost2010PropOp50
 70
     1
102
RTVSPost2010Prop51ColorIndex
 90
      256
102
RTVSPost2010Prop51ColorRGB
 90
-16777216
102
RTVSPost2010PropOp51
 70
     0
102
RTVSPost2010Prop52
140
1.0
102
RTVSPost2010PropOp52
 70
     0
102
RTVSPost2010Prop53
 90
        2
102
RTVSPost2010PropOp53
 70
     1
102
RTVSPost2010Prop54
  1
strokes_ogs.tif
102
RTVSPost2010PropOp54
 70
     1
102
RTVSPost2010Prop55
280
     0
102
RTVSPost2010PropOp55
 70
     1
102
RTVSPost2010Prop56
140
1.0
102
RTVSPost2010PropOp56
 70
     1
102
RTVSPost2010Prop57
140
1.0
102
RTVSPost2010PropOp57
 70
     1
102
RTVSPropertyOp0
 70
     1
102
RTVSPropertyOp1
 70
     1
102
RTVSPropertyOp2
 70
     1
102
RTVSPropertyOp3
 70
     1
102
RTVSPropertyOp4
 70
     1
102
RTVSPropertyOp5
 70
     1
102
RTVSPropertyOp6
 70
     1
102
RTVSPropertyOp7
 70
     1
102
RTVSPropertyOp8
 70
     1
102
RTVSPropertyOp9
 70
     1
102
RTVSPropertyOp10
 70
     1
102
RTVSPropertyOp11
 70
     1
102
RTVSPropertyOp12
 70
     1
102
RTVSPropertyOp13
 70
     1
102
RTVSPropertyOp14
 70
     1
102
RTVSPropertyOp15
 70
     1
102
RTVSPropertyOp16
 70
     1
102
RTVSPropertyOp17
 70
     1
102
RTVSPropertyOp18
 70
     1
102
RTVSPropertyOp19
 70
     1
102
RTVSPropertyOp20
 70
     1
102
RTVSPropertyOp21
 70
     1
102
RTVSPropertyOp22
 70
     1
102
RTVSPropertyOp23
 70
     1
102
RTVSPropertyOp24
 70
     1
102
RTVSPropertyOp25
 70
     1
102
RTVSPropertyOp26
 70
     1
102
RTVSPropertyOp27
 70
     1
102
RTVSPropertyOp28
 70
     1
102
RTVSPropertyOp29
 70
     1
102
RTVSPropertyOp30
 70
     1
102
RTVSPropertyOp31
 70
     1
102
RTVSPropertyOp32
 70
     1
102
RTVSPropertyOp33
 70
     1
102
RTVSPropertyOp34
 70
     1
102
RTVSPropertyOp35
 70
     1
102
RTVSPropertyOp36
 70
     1
102
RTVSPropertyOp37
 70
     1
102
RTVSPropertyOp38
 70
     1
102
RTVSPropertyOp39
 70
     1
102
RTVSPropertyOp40
 70
     1
102
RTVSPropertyOp41
 70
     1
102
RTVSPropertyOp42
 70
     1
102
RTVSPropertyOp43
 70
     1
102
RTVSPropertyOp44
 70
     1
102
RTVSPropertyOp45
 70
     1
102
RTVSPropertyOp46
 70
     1
102
RTVSPropertyOp47
 70
     1
102
RTVSPropertyOp48
 70
     1
102
RTVSPropertyOp49
 70
     1
102
RTVSPropertyOp50
 70
     1
102
RTVSPropertyOp51
 70
     0
102
RTVSPropertyOp52
 70
     0
102
RTVSPropertyOp53
 70
     1
102
RTVSPropertyOp54
 70
     1
102
RTVSPropertyOp55
 70
     1
102
RTVSPropertyOp56
 70
     1
102
RTVSPropertyOp57
 70
     1
102
RTVSPropertyOp58
 70
     1
102
RTVSPropertyOp59
 70
     1
102
RTVSPropertyOp60
 70
     1
102
RTVSPropertyOp61
 70
     1
102
RTVSPropertyOp62
 70
     1
  0
XRECORD
  5
E079
102
{ACAD_REACTORS
330
E078
102
}
330
E078
100
AcDbXrecord
280
     1
102
RTVSPost2010Prop28
280
     0
102
RTVSPost2010PropOp28
 70
     1
102
RTVSPost2010Prop29
280
     1
102
RTVSPost2010PropOp29
 70
     1
102
RTVSPost2010Prop30
280
     1
102
RTVSPost2010PropOp30
 70
     1
102
RTVSPost2010Prop31
280
     0
102
RTVSPost2010PropOp31
 70
     1
102
RTVSPost2010Prop32
280
     0
102
RTVSPost2010PropOp32
 70
     1
102
RTVSPost2010Prop33
280
     0
102
RTVSPost2010PropOp33
 70
     1
102
RTVSPost2010Prop34
280
     0
102
RTVSPost2010PropOp34
 70
     1
102
RTVSPost2010Prop35
280
     0
102
RTVSPost2010PropOp35
 70
     1
102
RTVSPost2010Prop36
280
     0
102
RTVSPost2010PropOp36
 70
     1
102
RTVSPost2010Prop37
 90
       50
102
RTVSPost2010PropOp37
 70
     0
102
RTVSPost2010Prop38
140
0.0
102
RTVSPost2010PropOp38
 70
     0
102
RTVSPost2010Prop39
140
1.0
102
RTVSPost2010PropOp39
 70
     0
102
RTVSPost2010Prop40
 90
        0
102
RTVSPost2010PropOp40
 70
     0
102
RTVSPost2010Prop41ColorIndex
 90
       18
102
RTVSPost2010Prop41ColorRGB
 90
        0
102
RTVSPost2010PropOp41
 70
     0
102
RTVSPost2010Prop42
 90
       50
102
RTVSPost2010PropOp42
 70
     0
102
RTVSPost2010Prop43
 90
        3
102
RTVSPost2010PropOp43
 70
     0
102
RTVSPost2010Prop44ColorIndex
 90
        5
102
RTVSPost2010Prop44ColorRGB
 90
      255
102
RTVSPost2010PropOp44
 70
     0
102
RTVSPost2010Prop45
280
     0
102
RTVSPost2010PropOp45
 70
     1
102
RTVSPost2010Prop46
 90
       50
102
RTVSPost2010PropOp46
 70
     0
102
RTVSPost2010Prop47
 90
       50
102
RTVSPost2010PropOp47
 70
     0
102
RTVSPost2010Prop48
 90
       50
102
RTVSPost2010PropOp48
 70
     0
102
RTVSPost2010Prop49
280
     0
102
RTVSPost2010PropOp49
 70
     1
102
RTVSPost2010Prop50
 90
       50
102
RTVSPost2010PropOp50
 70
     0
102
RTVSPost2010Prop51ColorIndex
 90
      256
102
RTVSPost2010Prop51ColorRGB
 90
-16777216
102
RTVSPost2010PropOp51
 70
     0
102
RTVSPost2010Prop52
140
1.0
102
RTVSPost2010PropOp52
 70
     0
102
RTVSPost2010Prop53
 90
        2
102
RTVSPost2010PropOp53
 70
     0
102
RTVSPost2010Prop54
  1
strokes_ogs.tif
102
RTVSPost2010PropOp54
 70
     0
102
RTVSPost2010Prop55
280
     0
102
RTVSPost2010PropOp55
 70
     1
102
RTVSPost2010Prop56
140
1.0
102
RTVSPost2010PropOp56
 70
     0
102
RTVSPost2010Prop57
140
1.0
102
RTVSPost2010PropOp57
 70
     0
102
RTVSPropertyOp0
 70
     0
102
RTVSPropertyOp1
 70
     0
102
RTVSPropertyOp2
 70
     0
102
RTVSPropertyOp3
 70
     0
102
RTVSPropertyOp4
 70
     0
102
RTVSPropertyOp5
 70
     0
102
RTVSPropertyOp6
 70
     0
102
RTVSPropertyOp7
 70
     0
102
RTVSPropertyOp8
 70
     0
102
RTVSPropertyOp9
 70
     0
102
RTVSPropertyOp10
 70
     0
102
RTVSPropertyOp11
 70
     0
102
RTVSPropertyOp12
 70
     0
102
RTVSPropertyOp13
 70
     0
102
RTVSPropertyOp14
 70
     2
102
RTVSPropertyOp15
 70
     0
102
RTVSPropertyOp16
 70
     0
102
RTVSPropertyOp17
 70
     0
102
RTVSPropertyOp18
 70
     0
102
RTVSPropertyOp19
 70
     0
102
RTVSPropertyOp20
 70
     0
102
RTVSPropertyOp21
 70
     0
102
RTVSPropertyOp22
 70
     0
102
RTVSPropertyOp23
 70
     0
102
RTVSPropertyOp24
 70
     0
102
RTVSPropertyOp25
 70
     0
102
RTVSPropertyOp26
 70
     0
102
RTVSPropertyOp27
 70
     0
102
RTVSPropertyOp28
 70
     1
102
RTVSPropertyOp29
 70
     1
102
RTVSPropertyOp30
 70
     1
102
RTVSPropertyOp31
 70
     1
102
RTVSPropertyOp32
 70
     1
102
RTVSPropertyOp33
 70
     1
102
RTVSPropertyOp34
 70
     1
102
RTVSPropertyOp35
 70
     1
102
RTVSPropertyOp36
 70
     1
102
RTVSPropertyOp37
 70
     0
102
RTVSPropertyOp38
 70
     0
102
RTVSPropertyOp39
 70
     0
102
RTVSPropertyOp40
 70
     0
102
RTVSPropertyOp41
 70
     0
102
RTVSPropertyOp42
 70
     0
102
RTVSPropertyOp43
 70
     0
102
RTVSPropertyOp44
 70
     0
102
RTVSPropertyOp45
 70
     1
102
RTVSPropertyOp46
 70
     0
102
RTVSPropertyOp47
 70
     0
102
RTVSPropertyOp48
 70
     0
102
RTVSPropertyOp49
 70
     1
102
RTVSPropertyOp50
 70
     0
102
RTVSPropertyOp51
 70
     0
102
RTVSPropertyOp52
 70
     0
102
RTVSPropertyOp53
 70
     0
102
RTVSPropertyOp54
 70
     0
102
RTVSPropertyOp55
 70
     1
102
RTVSPropertyOp56
 70
     0
102
RTVSPropertyOp57
 70
     0
102
RTVSPropertyOp58
 70
     0
102
RTVSPropertyOp59
 70
     0
102
RTVSPropertyOp60
 70
     0
102
RTVSPropertyOp61
 70
     0
102
RTVSPropertyOp62
 70
     0
  0
XRECORD
  5
E067
102
{ACAD_REACTORS
330
E066
102
}
330
E066
100
AcDbXrecord
280
     1
102
RTVSPost2010Prop28
280
     0
102
RTVSPost2010PropOp28
 70
     1
102
RTVSPost2010Prop29
280
     1
102
RTVSPost2010PropOp29
 70
     1
102
RTVSPost2010Prop30
280
     1
102
RTVSPost2010PropOp30
 70
     1
102
RTVSPost2010Prop31
280
     0
102
RTVSPost2010PropOp31
 70
     1
102
RTVSPost2010Prop32
280
     0
102
RTVSPost2010PropOp32
 70
     1
102
RTVSPost2010Prop33
280
     0
102
RTVSPost2010PropOp33
 70
     1
102
RTVSPost2010Prop34
280
     0
102
RTVSPost2010PropOp34
 70
     1
102
RTVSPost2010Prop35
280
     0
102
RTVSPost2010PropOp35
 70
     1
102
RTVSPost2010Prop36
280
     0
102
RTVSPost2010PropOp36
 70
     1
102
RTVSPost2010Prop37
 90
       50
102
RTVSPost2010PropOp37
 70
     1
102
RTVSPost2010Prop38
140
0.0
102
RTVSPost2010PropOp38
 70
     1
102
RTVSPost2010Prop39
140
1.0
102
RTVSPost2010PropOp39
 70
     1
102
RTVSPost2010Prop40
 90
        0
102
RTVSPost2010PropOp40
 70
     1
102
RTVSPost2010Prop41ColorIndex
 90
       18
102
RTVSPost2010Prop41ColorRGB
 90
        0
102
RTVSPost2010PropOp41
 70
     1
102
RTVSPost2010Prop42
 90
       50
102
RTVSPost2010PropOp42
 70
     1
102
RTVSPost2010Prop43
 90
        3
102
RTVSPost2010PropOp43
 70
     1
102
RTVSPost2010Prop44ColorIndex
 90
        5
102
RTVSPost2010Prop44ColorRGB
 90
      255
102
RTVSPost2010PropOp44
 70
     1
102
RTVSPost2010Prop45
280
     0
102
RTVSPost2010PropOp45
 70
     1
102
RTVSPost2010Prop46
 90
       50
102
RTVSPost2010PropOp46
 70
     1
102
RTVSPost2010Prop47
 90
       50
102
RTVSPost2010PropOp47
 70
     1
102
RTVSPost2010Prop48
 90
       50
102
RTVSPost2010PropOp48
 70
     1
102
RTVSPost2010Prop49
280
     0
102
RTVSPost2010PropOp49
 70
     1
102
RTVSPost2010Prop50
 90
       50
102
RTVSPost2010PropOp50
 70
     1
102
RTVSPost2010Prop51ColorIndex
 90
      256
102
RTVSPost2010Prop51ColorRGB
 90
-16777216
102
RTVSPost2010PropOp51
 70
     0
102
RTVSPost2010Prop52
140
1.0
102
RTVSPost2010PropOp52
 70
     0
102
RTVSPost2010Prop53
 90
        2
102
RTVSPost2010PropOp53
 70
     1
102
RTVSPost2010Prop54
  1
strokes_ogs.tif
102
RTVSPost2010PropOp54
 70
     1
102
RTVSPost2010Prop55
280
     0
102
RTVSPost2010PropOp55
 70
     1
102
RTVSPost2010Prop56
140
1.0
102
RTVSPost2010PropOp56
 70
     1
102
RTVSPost2010Prop57
140
1.0
102
RTVSPost2010PropOp57
 70
     1
102
RTVSPropertyOp0
 70
     1
102
RTVSPropertyOp1
 70
     1
102
RTVSPropertyOp2
 70
     1
102
RTVSPropertyOp3
 70
     1
102
RTVSPropertyOp4
 70
     1
102
RTVSPropertyOp5
 70
     1
102
RTVSPropertyOp6
 70
     1
102
RTVSPropertyOp7
 70
     1
102
RTVSPropertyOp8
 70
     1
102
RTVSPropertyOp9
 70
     1
102
RTVSPropertyOp10
 70
     1
102
RTVSPropertyOp11
 70
     1
102
RTVSPropertyOp12
 70
     1
102
RTVSPropertyOp13
 70
     1
102
RTVSPropertyOp14
 70
     1
102
RTVSPropertyOp15
 70
     1
102
RTVSPropertyOp16
 70
     1
102
RTVSPropertyOp17
 70
     1
102
RTVSPropertyOp18
 70
     1
102
RTVSPropertyOp19
 70
     1
102
RTVSPropertyOp20
 70
     1
102
RTVSPropertyOp21
 70
     1
102
RTVSPropertyOp22
 70
     1
102
RTVSPropertyOp23
 70
     1
102
RTVSPropertyOp24
 70
     1
102
RTVSPropertyOp25
 70
     1
102
RTVSPropertyOp26
 70
     1
102
RTVSPropertyOp27
 70
     1
102
RTVSPropertyOp28
 70
     1
102
RTVSPropertyOp29
 70
     1
102
RTVSPropertyOp30
 70
     1
102
RTVSPropertyOp31
 70
     1
102
RTVSPropertyOp32
 70
     1
102
RTVSPropertyOp33
 70
     1
102
RTVSPropertyOp34
 70
     1
102
RTVSPropertyOp35
 70
     1
102
RTVSPropertyOp36
 70
     1
102
RTVSPropertyOp37
 70
     1
102
RTVSPropertyOp38
 70
     1
102
RTVSPropertyOp39
 70
     1
102
RTVSPropertyOp40
 70
     1
102
RTVSPropertyOp41
 70
     1
102
RTVSPropertyOp42
 70
     1
102
RTVSPropertyOp43
 70
     1
102
RTVSPropertyOp44
 70
     1
102
RTVSPropertyOp45
 70
     1
102
RTVSPropertyOp46
 70
     1
102
RTVSPropertyOp47
 70
     1
102
RTVSPropertyOp48
 70
     1
102
RTVSPropertyOp49
 70
     1
102
RTVSPropertyOp50
 70
     1
102
RTVSPropertyOp51
 70
     0
102
RTVSPropertyOp52
 70
     0
102
RTVSPropertyOp53
 70
     1
102
RTVSPropertyOp54
 70
     1
102
RTVSPropertyOp55
 70
     1
102
RTVSPropertyOp56
 70
     1
102
RTVSPropertyOp57
 70
     1
102
RTVSPropertyOp58
 70
     1
102
RTVSPropertyOp59
 70
     1
102
RTVSPropertyOp60
 70
     1
102
RTVSPropertyOp61
 70
     1
102
RTVSPropertyOp62
 70
     1
  0
XRECORD
  5
E04B
102
{ACAD_REACTORS
330
E04A
102
}
330
E04A
100
AcDbXrecord
280
     1
102
RTVSPost2010Prop28
280
     0
102
RTVSPost2010PropOp28
 70
     1
102
RTVSPost2010Prop29
280
     1
102
RTVSPost2010PropOp29
 70
     1
102
RTVSPost2010Prop30
280
     1
102
RTVSPost2010PropOp30
 70
     1
102
RTVSPost2010Prop31
280
     0
102
RTVSPost2010PropOp31
 70
     1
102
RTVSPost2010Prop32
280
     0
102
RTVSPost2010PropOp32
 70
     1
102
RTVSPost2010Prop33
280
     0
102
RTVSPost2010PropOp33
 70
     1
102
RTVSPost2010Prop34
280
     0
102
RTVSPost2010PropOp34
 70
     1
102
RTVSPost2010Prop35
280
     0
102
RTVSPost2010PropOp35
 70
     1
102
RTVSPost2010Prop36
280
     0
102
RTVSPost2010PropOp36
 70
     1
102
RTVSPost2010Prop37
 90
       50
102
RTVSPost2010PropOp37
 70
     1
102
RTVSPost2010Prop38
140
0.0
102
RTVSPost2010PropOp38
 70
     1
102
RTVSPost2010Prop39
140
1.0
102
RTVSPost2010PropOp39
 70
     1
102
RTVSPost2010Prop40
 90
        0
102
RTVSPost2010PropOp40
 70
     1
102
RTVSPost2010Prop41ColorIndex
 90
       18
102
RTVSPost2010Prop41ColorRGB
 90
        0
102
RTVSPost2010PropOp41
 70
     1
102
RTVSPost2010Prop42
 90
       50
102
RTVSPost2010PropOp42
 70
     1
102
RTVSPost2010Prop43
 90
        3
102
RTVSPost2010PropOp43
 70
     1
102
RTVSPost2010Prop44ColorIndex
 90
        5
102
RTVSPost2010Prop44ColorRGB
 90
      255
102
RTVSPost2010PropOp44
 70
     1
102
RTVSPost2010Prop45
280
     0
102
RTVSPost2010PropOp45
 70
     1
102
RTVSPost2010Prop46
 90
       50
102
RTVSPost2010PropOp46
 70
     1
102
RTVSPost2010Prop47
 90
       50
102
RTVSPost2010PropOp47
 70
     1
102
RTVSPost2010Prop48
 90
       50
102
RTVSPost2010PropOp48
 70
     1
102
RTVSPost2010Prop49
280
     0
102
RTVSPost2010PropOp49
 70
     1
102
RTVSPost2010Prop50
 90
       50
102
RTVSPost2010PropOp50
 70
     1
102
RTVSPost2010Prop51ColorIndex
 90
      256
102
RTVSPost2010Prop51ColorRGB
 90
-16777216
102
RTVSPost2010PropOp51
 70
     0
102
RTVSPost2010Prop52
140
1.0
102
RTVSPost2010PropOp52
 70
     0
102
RTVSPost2010Prop53
 90
        2
102
RTVSPost2010PropOp53
 70
     1
102
RTVSPost2010Prop54
  1
strokes_ogs.tif
102
RTVSPost2010PropOp54
 70
     1
102
RTVSPost2010Prop55
280
     0
102
RTVSPost2010PropOp55
 70
     1
102
RTVSPost2010Prop56
140
1.0
102
RTVSPost2010PropOp56
 70
     1
102
RTVSPost2010Prop57
140
1.0
102
RTVSPost2010PropOp57
 70
     1
102
RTVSPropertyOp0
 70
     1
102
RTVSPropertyOp1
 70
     1
102
RTVSPropertyOp2
 70
     1
102
RTVSPropertyOp3
 70
     1
102
RTVSPropertyOp4
 70
     1
102
RTVSPropertyOp5
 70
     1
102
RTVSPropertyOp6
 70
     1
102
RTVSPropertyOp7
 70
     1
102
RTVSPropertyOp8
 70
     1
102
RTVSPropertyOp9
 70
     1
102
RTVSPropertyOp10
 70
     1
102
RTVSPropertyOp11
 70
     1
102
RTVSPropertyOp12
 70
     1
102
RTVSPropertyOp13
 70
     1
102
RTVSPropertyOp14
 70
     1
102
RTVSPropertyOp15
 70
     1
102
RTVSPropertyOp16
 70
     1
102
RTVSPropertyOp17
 70
     1
102
RTVSPropertyOp18
 70
     1
102
RTVSPropertyOp19
 70
     1
102
RTVSPropertyOp20
 70
     1
102
RTVSPropertyOp21
 70
     1
102
RTVSPropertyOp22
 70
     1
102
RTVSPropertyOp23
 70
     1
102
RTVSPropertyOp24
 70
     1
102
RTVSPropertyOp25
 70
     1
102
RTVSPropertyOp26
 70
     1
102
RTVSPropertyOp27
 70
     1
102
RTVSPropertyOp28
 70
     1
102
RTVSPropertyOp29
 70
     1
102
RTVSPropertyOp30
 70
     1
102
RTVSPropertyOp31
 70
     1
102
RTVSPropertyOp32
 70
     1
102
RTVSPropertyOp33
 70
     1
102
RTVSPropertyOp34
 70
     1
102
RTVSPropertyOp35
 70
     1
102
RTVSPropertyOp36
 70
     1
102
RTVSPropertyOp37
 70
     1
102
RTVSPropertyOp38
 70
     1
102
RTVSPropertyOp39
 70
     1
102
RTVSPropertyOp40
 70
     1
102
RTVSPropertyOp41
 70
     1
102
RTVSPropertyOp42
 70
     1
102
RTVSPropertyOp43
 70
     1
102
RTVSPropertyOp44
 70
     1
102
RTVSPropertyOp45
 70
     1
102
RTVSPropertyOp46
 70
     1
102
RTVSPropertyOp47
 70
     1
102
RTVSPropertyOp48
 70
     1
102
RTVSPropertyOp49
 70
     1
102
RTVSPropertyOp50
 70
     1
102
RTVSPropertyOp51
 70
     0
102
RTVSPropertyOp52
 70
     0
102
RTVSPropertyOp53
 70
     1
102
RTVSPropertyOp54
 70
     1
102
RTVSPropertyOp55
 70
     1
102
RTVSPropertyOp56
 70
     1
102
RTVSPropertyOp57
 70
     1
102
RTVSPropertyOp58
 70
     1
102
RTVSPropertyOp59
 70
     1
102
RTVSPropertyOp60
 70
     1
102
RTVSPropertyOp61
 70
     1
102
RTVSPropertyOp62
 70
     1
  0
XRECORD
  5
E04D
102
{ACAD_REACTORS
330
E04C
102
}
330
E04C
100
AcDbXrecord
280
     1
102
RTVSPost2010Prop28
280
     0
102
RTVSPost2010PropOp28
 70
     1
102
RTVSPost2010Prop29
280
     1
102
RTVSPost2010PropOp29
 70
     1
102
RTVSPost2010Prop30
280
     1
102
RTVSPost2010PropOp30
 70
     1
102
RTVSPost2010Prop31
280
     0
102
RTVSPost2010PropOp31
 70
     1
102
RTVSPost2010Prop32
280
     0
102
RTVSPost2010PropOp32
 70
     1
102
RTVSPost2010Prop33
280
     0
102
RTVSPost2010PropOp33
 70
     1
102
RTVSPost2010Prop34
280
     0
102
RTVSPost2010PropOp34
 70
     1
102
RTVSPost2010Prop35
280
     0
102
RTVSPost2010PropOp35
 70
     1
102
RTVSPost2010Prop36
280
     0
102
RTVSPost2010PropOp36
 70
     1
102
RTVSPost2010Prop37
 90
       50
102
RTVSPost2010PropOp37
 70
     1
102
RTVSPost2010Prop38
140
0.0
102
RTVSPost2010PropOp38
 70
     1
102
RTVSPost2010Prop39
140
1.0
102
RTVSPost2010PropOp39
 70
     1
102
RTVSPost2010Prop40
 90
        0
102
RTVSPost2010PropOp40
 70
     1
102
RTVSPost2010Prop41ColorIndex
 90
       18
102
RTVSPost2010Prop41ColorRGB
 90
        0
102
RTVSPost2010PropOp41
 70
     1
102
RTVSPost2010Prop42
 90
       50
102
RTVSPost2010PropOp42
 70
     1
102
RTVSPost2010Prop43
 90
        3
102
RTVSPost2010PropOp43
 70
     1
102
RTVSPost2010Prop44ColorIndex
 90
        5
102
RTVSPost2010Prop44ColorRGB
 90
      255
102
RTVSPost2010PropOp44
 70
     1
102
RTVSPost2010Prop45
280
     0
102
RTVSPost2010PropOp45
 70
     1
102
RTVSPost2010Prop46
 90
       50
102
RTVSPost2010PropOp46
 70
     1
102
RTVSPost2010Prop47
 90
       50
102
RTVSPost2010PropOp47
 70
     1
102
RTVSPost2010Prop48
 90
       50
102
RTVSPost2010PropOp48
 70
     1
102
RTVSPost2010Prop49
280
     0
102
RTVSPost2010PropOp49
 70
     1
102
RTVSPost2010Prop50
 90
       50
102
RTVSPost2010PropOp50
 70
     1
102
RTVSPost2010Prop51ColorIndex
 90
      256
102
RTVSPost2010Prop51ColorRGB
 90
-16777216
102
RTVSPost2010PropOp51
 70
     0
102
RTVSPost2010Prop52
140
1.0
102
RTVSPost2010PropOp52
 70
     0
102
RTVSPost2010Prop53
 90
        2
102
RTVSPost2010PropOp53
 70
     1
102
RTVSPost2010Prop54
  1
strokes_ogs.tif
102
RTVSPost2010PropOp54
 70
     1
102
RTVSPost2010Prop55
280
     0
102
RTVSPost2010PropOp55
 70
     1
102
RTVSPost2010Prop56
140
1.0
102
RTVSPost2010PropOp56
 70
     1
102
RTVSPost2010Prop57
140
1.0
102
RTVSPost2010PropOp57
 70
     1
102
RTVSPropertyOp0
 70
     1
102
RTVSPropertyOp1
 70
     1
102
RTVSPropertyOp2
 70
     1
102
RTVSPropertyOp3
 70
     1
102
RTVSPropertyOp4
 70
     1
102
RTVSPropertyOp5
 70
     1
102
RTVSPropertyOp6
 70
     1
102
RTVSPropertyOp7
 70
     1
102
RTVSPropertyOp8
 70
     1
102
RTVSPropertyOp9
 70
     1
102
RTVSPropertyOp10
 70
     1
102
RTVSPropertyOp11
 70
     1
102
RTVSPropertyOp12
 70
     1
102
RTVSPropertyOp13
 70
     1
102
RTVSPropertyOp14
 70
     1
102
RTVSPropertyOp15
 70
     1
102
RTVSPropertyOp16
 70
     1
102
RTVSPropertyOp17
 70
     1
102
RTVSPropertyOp18
 70
     1
102
RTVSPropertyOp19
 70
     1
102
RTVSPropertyOp20
 70
     1
102
RTVSPropertyOp21
 70
     1
102
RTVSPropertyOp22
 70
     1
102
RTVSPropertyOp23
 70
     1
102
RTVSPropertyOp24
 70
     1
102
RTVSPropertyOp25
 70
     1
102
RTVSPropertyOp26
 70
     1
102
RTVSPropertyOp27
 70
     1
102
RTVSPropertyOp28
 70
     1
102
RTVSPropertyOp29
 70
     1
102
RTVSPropertyOp30
 70
     1
102
RTVSPropertyOp31
 70
     1
102
RTVSPropertyOp32
 70
     1
102
RTVSPropertyOp33
 70
     1
102
RTVSPropertyOp34
 70
     1
102
RTVSPropertyOp35
 70
     1
102
RTVSPropertyOp36
 70
     1
102
RTVSPropertyOp37
 70
     1
102
RTVSPropertyOp38
 70
     1
102
RTVSPropertyOp39
 70
     1
102
RTVSPropertyOp40
 70
     1
102
RTVSPropertyOp41
 70
     1
102
RTVSPropertyOp42
 70
     1
102
RTVSPropertyOp43
 70
     1
102
RTVSPropertyOp44
 70
     1
102
RTVSPropertyOp45
 70
     1
102
RTVSPropertyOp46
 70
     1
102
RTVSPropertyOp47
 70
     1
102
RTVSPropertyOp48
 70
     1
102
RTVSPropertyOp49
 70
     1
102
RTVSPropertyOp50
 70
     1
102
RTVSPropertyOp51
 70
     0
102
RTVSPropertyOp52
 70
     0
102
RTVSPropertyOp53
 70
     1
102
RTVSPropertyOp54
 70
     1
102
RTVSPropertyOp55
 70
     1
102
RTVSPropertyOp56
 70
     1
102
RTVSPropertyOp57
 70
     1
102
RTVSPropertyOp58
 70
     1
102
RTVSPropertyOp59
 70
     1
102
RTVSPropertyOp60
 70
     1
102
RTVSPropertyOp61
 70
     1
102
RTVSPropertyOp62
 70
     1
  0
XRECORD
  5
E04F
102
{ACAD_REACTORS
330
E04E
102
}
330
E04E
100
AcDbXrecord
280
     1
102
RTVSPost2010Prop28
280
     0
102
RTVSPost2010PropOp28
 70
     1
102
RTVSPost2010Prop29
280
     1
102
RTVSPost2010PropOp29
 70
     1
102
RTVSPost2010Prop30
280
     1
102
RTVSPost2010PropOp30
 70
     1
102
RTVSPost2010Prop31
280
     0
102
RTVSPost2010PropOp31
 70
     1
102
RTVSPost2010Prop32
280
     0
102
RTVSPost2010PropOp32
 70
     1
102
RTVSPost2010Prop33
280
     0
102
RTVSPost2010PropOp33
 70
     1
102
RTVSPost2010Prop34
280
     0
102
RTVSPost2010PropOp34
 70
     1
102
RTVSPost2010Prop35
280
     0
102
RTVSPost2010PropOp35
 70
     1
102
RTVSPost2010Prop36
280
     0
102
RTVSPost2010PropOp36
 70
     1
102
RTVSPost2010Prop37
 90
       50
102
RTVSPost2010PropOp37
 70
     1
102
RTVSPost2010Prop38
140
0.0
102
RTVSPost2010PropOp38
 70
     1
102
RTVSPost2010Prop39
140
1.0
102
RTVSPost2010PropOp39
 70
     1
102
RTVSPost2010Prop40
 90
        0
102
RTVSPost2010PropOp40
 70
     1
102
RTVSPost2010Prop41ColorIndex
 90
       18
102
RTVSPost2010Prop41ColorRGB
 90
        0
102
RTVSPost2010PropOp41
 70
     1
102
RTVSPost2010Prop42
 90
       50
102
RTVSPost2010PropOp42
 70
     1
102
RTVSPost2010Prop43
 90
        3
102
RTVSPost2010PropOp43
 70
     1
102
RTVSPost2010Prop44ColorIndex
 90
        5
102
RTVSPost2010Prop44ColorRGB
 90
      255
102
RTVSPost2010PropOp44
 70
     1
102
RTVSPost2010Prop45
280
     0
102
RTVSPost2010PropOp45
 70
     1
102
RTVSPost2010Prop46
 90
       50
102
RTVSPost2010PropOp46
 70
     1
102
RTVSPost2010Prop47
 90
       50
102
RTVSPost2010PropOp47
 70
     1
102
RTVSPost2010Prop48
 90
       50
102
RTVSPost2010PropOp48
 70
     1
102
RTVSPost2010Prop49
280
     0
102
RTVSPost2010PropOp49
 70
     1
102
RTVSPost2010Prop50
 90
       50
102
RTVSPost2010PropOp50
 70
     1
102
RTVSPost2010Prop51ColorIndex
 90
      256
102
RTVSPost2010Prop51ColorRGB
 90
-16777216
102
RTVSPost2010PropOp51
 70
     0
102
RTVSPost2010Prop52
140
1.0
102
RTVSPost2010PropOp52
 70
     0
102
RTVSPost2010Prop53
 90
        2
102
RTVSPost2010PropOp53
 70
     1
102
RTVSPost2010Prop54
  1
strokes_ogs.tif
102
RTVSPost2010PropOp54
 70
     1
102
RTVSPost2010Prop55
280
     0
102
RTVSPost2010PropOp55
 70
     1
102
RTVSPost2010Prop56
140
1.0
102
RTVSPost2010PropOp56
 70
     1
102
RTVSPost2010Prop57
140
1.0
102
RTVSPost2010PropOp57
 70
     1
102
RTVSPropertyOp0
 70
     1
102
RTVSPropertyOp1
 70
     1
102
RTVSPropertyOp2
 70
     1
102
RTVSPropertyOp3
 70
     1
102
RTVSPropertyOp4
 70
     1
102
RTVSPropertyOp5
 70
     1
102
RTVSPropertyOp6
 70
     1
102
RTVSPropertyOp7
 70
     1
102
RTVSPropertyOp8
 70
     1
102
RTVSPropertyOp9
 70
     1
102
RTVSPropertyOp10
 70
     1
102
RTVSPropertyOp11
 70
     1
102
RTVSPropertyOp12
 70
     1
102
RTVSPropertyOp13
 70
     1
102
RTVSPropertyOp14
 70
     1
102
RTVSPropertyOp15
 70
     1
102
RTVSPropertyOp16
 70
     1
102
RTVSPropertyOp17
 70
     1
102
RTVSPropertyOp18
 70
     1
102
RTVSPropertyOp19
 70
     1
102
RTVSPropertyOp20
 70
     1
102
RTVSPropertyOp21
 70
     1
102
RTVSPropertyOp22
 70
     1
102
RTVSPropertyOp23
 70
     1
102
RTVSPropertyOp24
 70
     1
102
RTVSPropertyOp25
 70
     1
102
RTVSPropertyOp26
 70
     1
102
RTVSPropertyOp27
 70
     1
102
RTVSPropertyOp28
 70
     1
102
RTVSPropertyOp29
 70
     1
102
RTVSPropertyOp30
 70
     1
102
RTVSPropertyOp31
 70
     1
102
RTVSPropertyOp32
 70
     1
102
RTVSPropertyOp33
 70
     1
102
RTVSPropertyOp34
 70
     1
102
RTVSPropertyOp35
 70
     1
102
RTVSPropertyOp36
 70
     1
102
RTVSPropertyOp37
 70
     1
102
RTVSPropertyOp38
 70
     1
102
RTVSPropertyOp39
 70
     1
102
RTVSPropertyOp40
 70
     1
102
RTVSPropertyOp41
 70
     1
102
RTVSPropertyOp42
 70
     1
102
RTVSPropertyOp43
 70
     1
102
RTVSPropertyOp44
 70
     1
102
RTVSPropertyOp45
 70
     1
102
RTVSPropertyOp46
 70
     1
102
RTVSPropertyOp47
 70
     1
102
RTVSPropertyOp48
 70
     1
102
RTVSPropertyOp49
 70
     1
102
RTVSPropertyOp50
 70
     1
102
RTVSPropertyOp51
 70
     0
102
RTVSPropertyOp52
 70
     0
102
RTVSPropertyOp53
 70
     1
102
RTVSPropertyOp54
 70
     1
102
RTVSPropertyOp55
 70
     1
102
RTVSPropertyOp56
 70
     1
102
RTVSPropertyOp57
 70
     1
102
RTVSPropertyOp58
 70
     1
102
RTVSPropertyOp59
 70
     1
102
RTVSPropertyOp60
 70
     1
102
RTVSPropertyOp61
 70
     1
102
RTVSPropertyOp62
 70
     1
  0
XRECORD
  5
E051
102
{ACAD_REACTORS
330
E050
102
}
330
E050
100
AcDbXrecord
280
     1
102
RTVSPost2010Prop28
280
     0
102
RTVSPost2010PropOp28
 70
     1
102
RTVSPost2010Prop29
280
     1
102
RTVSPost2010PropOp29
 70
     1
102
RTVSPost2010Prop30
280
     1
102
RTVSPost2010PropOp30
 70
     1
102
RTVSPost2010Prop31
280
     0
102
RTVSPost2010PropOp31
 70
     1
102
RTVSPost2010Prop32
280
     0
102
RTVSPost2010PropOp32
 70
     1
102
RTVSPost2010Prop33
280
     0
102
RTVSPost2010PropOp33
 70
     1
102
RTVSPost2010Prop34
280
     0
102
RTVSPost2010PropOp34
 70
     1
102
RTVSPost2010Prop35
280
     0
102
RTVSPost2010PropOp35
 70
     1
102
RTVSPost2010Prop36
280
     0
102
RTVSPost2010PropOp36
 70
     1
102
RTVSPost2010Prop37
 90
       50
102
RTVSPost2010PropOp37
 70
     1
102
RTVSPost2010Prop38
140
0.0
102
RTVSPost2010PropOp38
 70
     1
102
RTVSPost2010Prop39
140
1.0
102
RTVSPost2010PropOp39
 70
     1
102
RTVSPost2010Prop40
 90
        0
102
RTVSPost2010PropOp40
 70
     1
102
RTVSPost2010Prop41ColorIndex
 90
       18
102
RTVSPost2010Prop41ColorRGB
 90
        0
102
RTVSPost2010PropOp41
 70
     1
102
RTVSPost2010Prop42
 90
       50
102
RTVSPost2010PropOp42
 70
     1
102
RTVSPost2010Prop43
 90
        3
102
RTVSPost2010PropOp43
 70
     1
102
RTVSPost2010Prop44ColorIndex
 90
        5
102
RTVSPost2010Prop44ColorRGB
 90
      255
102
RTVSPost2010PropOp44
 70
     1
102
RTVSPost2010Prop45
280
     0
102
RTVSPost2010PropOp45
 70
     1
102
RTVSPost2010Prop46
 90
       50
102
RTVSPost2010PropOp46
 70
     1
102
RTVSPost2010Prop47
 90
       50
102
RTVSPost2010PropOp47
 70
     1
102
RTVSPost2010Prop48
 90
       50
102
RTVSPost2010PropOp48
 70
     1
102
RTVSPost2010Prop49
280
     0
102
RTVSPost2010PropOp49
 70
     1
102
RTVSPost2010Prop50
 90
       50
102
RTVSPost2010PropOp50
 70
     1
102
RTVSPost2010Prop51ColorIndex
 90
      256
102
RTVSPost2010Prop51ColorRGB
 90
-16777216
102
RTVSPost2010PropOp51
 70
     0
102
RTVSPost2010Prop52
140
1.0
102
RTVSPost2010PropOp52
 70
     0
102
RTVSPost2010Prop53
 90
        2
102
RTVSPost2010PropOp53
 70
     1
102
RTVSPost2010Prop54
  1
strokes_ogs.tif
102
RTVSPost2010PropOp54
 70
     1
102
RTVSPost2010Prop55
280
     0
102
RTVSPost2010PropOp55
 70
     1
102
RTVSPost2010Prop56
140
1.0
102
RTVSPost2010PropOp56
 70
     1
102
RTVSPost2010Prop57
140
1.0
102
RTVSPost2010PropOp57
 70
     1
102
RTVSPropertyOp0
 70
     1
102
RTVSPropertyOp1
 70
     1
102
RTVSPropertyOp2
 70
     1
102
RTVSPropertyOp3
 70
     1
102
RTVSPropertyOp4
 70
     1
102
RTVSPropertyOp5
 70
     1
102
RTVSPropertyOp6
 70
     1
102
RTVSPropertyOp7
 70
     1
102
RTVSPropertyOp8
 70
     1
102
RTVSPropertyOp9
 70
     1
102
RTVSPropertyOp10
 70
     1
102
RTVSPropertyOp11
 70
     1
102
RTVSPropertyOp12
 70
     1
102
RTVSPropertyOp13
 70
     1
102
RTVSPropertyOp14
 70
     1
102
RTVSPropertyOp15
 70
     1
102
RTVSPropertyOp16
 70
     1
102
RTVSPropertyOp17
 70
     1
102
RTVSPropertyOp18
 70
     1
102
RTVSPropertyOp19
 70
     1
102
RTVSPropertyOp20
 70
     1
102
RTVSPropertyOp21
 70
     1
102
RTVSPropertyOp22
 70
     1
102
RTVSPropertyOp23
 70
     1
102
RTVSPropertyOp24
 70
     1
102
RTVSPropertyOp25
 70
     1
102
RTVSPropertyOp26
 70
     1
102
RTVSPropertyOp27
 70
     1
102
RTVSPropertyOp28
 70
     1
102
RTVSPropertyOp29
 70
     1
102
RTVSPropertyOp30
 70
     1
102
RTVSPropertyOp31
 70
     1
102
RTVSPropertyOp32
 70
     1
102
RTVSPropertyOp33
 70
     1
102
RTVSPropertyOp34
 70
     1
102
RTVSPropertyOp35
 70
     1
102
RTVSPropertyOp36
 70
     1
102
RTVSPropertyOp37
 70
     1
102
RTVSPropertyOp38
 70
     1
102
RTVSPropertyOp39
 70
     1
102
RTVSPropertyOp40
 70
     1
102
RTVSPropertyOp41
 70
     1
102
RTVSPropertyOp42
 70
     1
102
RTVSPropertyOp43
 70
     1
102
RTVSPropertyOp44
 70
     1
102
RTVSPropertyOp45
 70
     1
102
RTVSPropertyOp46
 70
     1
102
RTVSPropertyOp47
 70
     1
102
RTVSPropertyOp48
 70
     1
102
RTVSPropertyOp49
 70
     1
102
RTVSPropertyOp50
 70
     1
102
RTVSPropertyOp51
 70
     0
102
RTVSPropertyOp52
 70
     0
102
RTVSPropertyOp53
 70
     1
102
RTVSPropertyOp54
 70
     1
102
RTVSPropertyOp55
 70
     1
102
RTVSPropertyOp56
 70
     1
102
RTVSPropertyOp57
 70
     1
102
RTVSPropertyOp58
 70
     1
102
RTVSPropertyOp59
 70
     1
102
RTVSPropertyOp60
 70
     1
102
RTVSPropertyOp61
 70
     1
102
RTVSPropertyOp62
 70
     1
  0
XRECORD
  5
E059
102
{ACAD_REACTORS
330
E058
102
}
330
E058
100
AcDbXrecord
280
     1
102
RTVSPost2010Prop28
280
     0
102
RTVSPost2010PropOp28
 70
     1
102
RTVSPost2010Prop29
280
     1
102
RTVSPost2010PropOp29
 70
     1
102
RTVSPost2010Prop30
280
     1
102
RTVSPost2010PropOp30
 70
     1
102
RTVSPost2010Prop31
280
     0
102
RTVSPost2010PropOp31
 70
     1
102
RTVSPost2010Prop32
280
     0
102
RTVSPost2010PropOp32
 70
     1
102
RTVSPost2010Prop33
280
     0
102
RTVSPost2010PropOp33
 70
     1
102
RTVSPost2010Prop34
280
     0
102
RTVSPost2010PropOp34
 70
     1
102
RTVSPost2010Prop35
280
     0
102
RTVSPost2010PropOp35
 70
     1
102
RTVSPost2010Prop36
280
     0
102
RTVSPost2010PropOp36
 70
     1
102
RTVSPost2010Prop37
 90
       50
102
RTVSPost2010PropOp37
 70
     1
102
RTVSPost2010Prop38
140
0.0
102
RTVSPost2010PropOp38
 70
     1
102
RTVSPost2010Prop39
140
1.0
102
RTVSPost2010PropOp39
 70
     1
102
RTVSPost2010Prop40
 90
        0
102
RTVSPost2010PropOp40
 70
     1
102
RTVSPost2010Prop41ColorIndex
 90
       18
102
RTVSPost2010Prop41ColorRGB
 90
        0
102
RTVSPost2010PropOp41
 70
     1
102
RTVSPost2010Prop42
 90
       50
102
RTVSPost2010PropOp42
 70
     1
102
RTVSPost2010Prop43
 90
        3
102
RTVSPost2010PropOp43
 70
     1
102
RTVSPost2010Prop44ColorIndex
 90
        5
102
RTVSPost2010Prop44ColorRGB
 90
      255
102
RTVSPost2010PropOp44
 70
     1
102
RTVSPost2010Prop45
280
     0
102
RTVSPost2010PropOp45
 70
     1
102
RTVSPost2010Prop46
 90
       50
102
RTVSPost2010PropOp46
 70
     1
102
RTVSPost2010Prop47
 90
       50
102
RTVSPost2010PropOp47
 70
     1
102
RTVSPost2010Prop48
 90
       50
102
RTVSPost2010PropOp48
 70
     1
102
RTVSPost2010Prop49
280
     0
102
RTVSPost2010PropOp49
 70
     1
102
RTVSPost2010Prop50
 90
       50
102
RTVSPost2010PropOp50
 70
     1
102
RTVSPost2010Prop51ColorIndex
 90
      256
102
RTVSPost2010Prop51ColorRGB
 90
-16777216
102
RTVSPost2010PropOp51
 70
     0
102
RTVSPost2010Prop52
140
1.0
102
RTVSPost2010PropOp52
 70
     0
102
RTVSPost2010Prop53
 90
        2
102
RTVSPost2010PropOp53
 70
     1
102
RTVSPost2010Prop54
  1
strokes_ogs.tif
102
RTVSPost2010PropOp54
 70
     1
102
RTVSPost2010Prop55
280
     0
102
RTVSPost2010PropOp55
 70
     1
102
RTVSPost2010Prop56
140
1.0
102
RTVSPost2010PropOp56
 70
     1
102
RTVSPost2010Prop57
140
1.0
102
RTVSPost2010PropOp57
 70
     1
102
RTVSPropertyOp0
 70
     1
102
RTVSPropertyOp1
 70
     1
102
RTVSPropertyOp2
 70
     1
102
RTVSPropertyOp3
 70
     1
102
RTVSPropertyOp4
 70
     1
102
RTVSPropertyOp5
 70
     1
102
RTVSPropertyOp6
 70
     1
102
RTVSPropertyOp7
 70
     1
102
RTVSPropertyOp8
 70
     1
102
RTVSPropertyOp9
 70
     1
102
RTVSPropertyOp10
 70
     1
102
RTVSPropertyOp11
 70
     1
102
RTVSPropertyOp12
 70
     1
102
RTVSPropertyOp13
 70
     1
102
RTVSPropertyOp14
 70
     1
102
RTVSPropertyOp15
 70
     1
102
RTVSPropertyOp16
 70
     1
102
RTVSPropertyOp17
 70
     1
102
RTVSPropertyOp18
 70
     1
102
RTVSPropertyOp19
 70
     1
102
RTVSPropertyOp20
 70
     1
102
RTVSPropertyOp21
 70
     1
102
RTVSPropertyOp22
 70
     1
102
RTVSPropertyOp23
 70
     1
102
RTVSPropertyOp24
 70
     1
102
RTVSPropertyOp25
 70
     1
102
RTVSPropertyOp26
 70
     1
102
RTVSPropertyOp27
 70
     1
102
RTVSPropertyOp28
 70
     1
102
RTVSPropertyOp29
 70
     1
102
RTVSPropertyOp30
 70
     1
102
RTVSPropertyOp31
 70
     1
102
RTVSPropertyOp32
 70
     1
102
RTVSPropertyOp33
 70
     1
102
RTVSPropertyOp34
 70
     1
102
RTVSPropertyOp35
 70
     1
102
RTVSPropertyOp36
 70
     1
102
RTVSPropertyOp37
 70
     1
102
RTVSPropertyOp38
 70
     1
102
RTVSPropertyOp39
 70
     1
102
RTVSPropertyOp40
 70
     1
102
RTVSPropertyOp41
 70
     1
102
RTVSPropertyOp42
 70
     1
102
RTVSPropertyOp43
 70
     1
102
RTVSPropertyOp44
 70
     1
102
RTVSPropertyOp45
 70
     1
102
RTVSPropertyOp46
 70
     1
102
RTVSPropertyOp47
 70
     1
102
RTVSPropertyOp48
 70
     1
102
RTVSPropertyOp49
 70
     1
102
RTVSPropertyOp50
 70
     1
102
RTVSPropertyOp51
 70
     0
102
RTVSPropertyOp52
 70
     0
102
RTVSPropertyOp53
 70
     1
102
RTVSPropertyOp54
 70
     1
102
RTVSPropertyOp55
 70
     1
102
RTVSPropertyOp56
 70
     1
102
RTVSPropertyOp57
 70
     1
102
RTVSPropertyOp58
 70
     1
102
RTVSPropertyOp59
 70
     1
102
RTVSPropertyOp60
 70
     1
102
RTVSPropertyOp61
 70
     1
102
RTVSPropertyOp62
 70
     1
  0
XRECORD
  5
E075
102
{ACAD_REACTORS
330
E074
102
}
330
E074
100
AcDbXrecord
280
     1
102
RTVSPost2010Prop28
280
     0
102
RTVSPost2010PropOp28
 70
     1
102
RTVSPost2010Prop29
280
     1
102
RTVSPost2010PropOp29
 70
     1
102
RTVSPost2010Prop30
280
     1
102
RTVSPost2010PropOp30
 70
     1
102
RTVSPost2010Prop31
280
     0
102
RTVSPost2010PropOp31
 70
     1
102
RTVSPost2010Prop32
280
     0
102
RTVSPost2010PropOp32
 70
     1
102
RTVSPost2010Prop33
280
     0
102
RTVSPost2010PropOp33
 70
     1
102
RTVSPost2010Prop34
280
     0
102
RTVSPost2010PropOp34
 70
     1
102
RTVSPost2010Prop35
280
     0
102
RTVSPost2010PropOp35
 70
     1
102
RTVSPost2010Prop36
280
     0
102
RTVSPost2010PropOp36
 70
     1
102
RTVSPost2010Prop37
 90
       50
102
RTVSPost2010PropOp37
 70
     0
102
RTVSPost2010Prop38
140
0.0
102
RTVSPost2010PropOp38
 70
     0
102
RTVSPost2010Prop39
140
1.0
102
RTVSPost2010PropOp39
 70
     0
102
RTVSPost2010Prop40
 90
        0
102
RTVSPost2010PropOp40
 70
     0
102
RTVSPost2010Prop41ColorIndex
 90
       18
102
RTVSPost2010Prop41ColorRGB
 90
        0
102
RTVSPost2010PropOp41
 70
     0
102
RTVSPost2010Prop42
 90
       50
102
RTVSPost2010PropOp42
 70
     0
102
RTVSPost2010Prop43
 90
        3
102
RTVSPost2010PropOp43
 70
     0
102
RTVSPost2010Prop44ColorIndex
 90
        5
102
RTVSPost2010Prop44ColorRGB
 90
      255
102
RTVSPost2010PropOp44
 70
     0
102
RTVSPost2010Prop45
280
     0
102
RTVSPost2010PropOp45
 70
     1
102
RTVSPost2010Prop46
 90
       50
102
RTVSPost2010PropOp46
 70
     0
102
RTVSPost2010Prop47
 90
       50
102
RTVSPost2010PropOp47
 70
     0
102
RTVSPost2010Prop48
 90
       50
102
RTVSPost2010PropOp48
 70
     0
102
RTVSPost2010Prop49
280
     0
102
RTVSPost2010PropOp49
 70
     1
102
RTVSPost2010Prop50
 90
       50
102
RTVSPost2010PropOp50
 70
     0
102
RTVSPost2010Prop51ColorIndex
 90
      256
102
RTVSPost2010Prop51ColorRGB
 90
-16777216
102
RTVSPost2010PropOp51
 70
     0
102
RTVSPost2010Prop52
140
1.0
102
RTVSPost2010PropOp52
 70
     0
102
RTVSPost2010Prop53
 90
        2
102
RTVSPost2010PropOp53
 70
     0
102
RTVSPost2010Prop54
  1
strokes_ogs.tif
102
RTVSPost2010PropOp54
 70
     0
102
RTVSPost2010Prop55
280
     0
102
RTVSPost2010PropOp55
 70
     1
102
RTVSPost2010Prop56
140
1.0
102
RTVSPost2010PropOp56
 70
     0
102
RTVSPost2010Prop57
140
1.0
102
RTVSPost2010PropOp57
 70
     0
102
RTVSPropertyOp0
 70
     0
102
RTVSPropertyOp1
 70
     0
102
RTVSPropertyOp2
 70
     0
102
RTVSPropertyOp3
 70
     0
102
RTVSPropertyOp4
 70
     0
102
RTVSPropertyOp5
 70
     0
102
RTVSPropertyOp6
 70
     0
102
RTVSPropertyOp7
 70
     0
102
RTVSPropertyOp8
 70
     0
102
RTVSPropertyOp9
 70
     0
102
RTVSPropertyOp10
 70
     0
102
RTVSPropertyOp11
 70
     0
102
RTVSPropertyOp12
 70
     0
102
RTVSPropertyOp13
 70
     0
102
RTVSPropertyOp14
 70
     2
102
RTVSPropertyOp15
 70
     0
102
RTVSPropertyOp16
 70
     0
102
RTVSPropertyOp17
 70
     0
102
RTVSPropertyOp18
 70
     0
102
RTVSPropertyOp19
 70
     0
102
RTVSPropertyOp20
 70
     0
102
RTVSPropertyOp21
 70
     0
102
RTVSPropertyOp22
 70
     0
102
RTVSPropertyOp23
 70
     0
102
RTVSPropertyOp24
 70
     0
102
RTVSPropertyOp25
 70
     0
102
RTVSPropertyOp26
 70
     0
102
RTVSPropertyOp27
 70
     0
102
RTVSPropertyOp28
 70
     1
102
RTVSPropertyOp29
 70
     1
102
RTVSPropertyOp30
 70
     1
102
RTVSPropertyOp31
 70
     1
102
RTVSPropertyOp32
 70
     1
102
RTVSPropertyOp33
 70
     1
102
RTVSPropertyOp34
 70
     1
102
RTVSPropertyOp35
 70
     1
102
RTVSPropertyOp36
 70
     1
102
RTVSPropertyOp37
 70
     0
102
RTVSPropertyOp38
 70
     0
102
RTVSPropertyOp39
 70
     0
102
RTVSPropertyOp40
 70
     0
102
RTVSPropertyOp41
 70
     0
102
RTVSPropertyOp42
 70
     0
102
RTVSPropertyOp43
 70
     0
102
RTVSPropertyOp44
 70
     0
102
RTVSPropertyOp45
 70
     1
102
RTVSPropertyOp46
 70
     0
102
RTVSPropertyOp47
 70
     0
102
RTVSPropertyOp48
 70
     0
102
RTVSPropertyOp49
 70
     1
102
RTVSPropertyOp50
 70
     0
102
RTVSPropertyOp51
 70
     0
102
RTVSPropertyOp52
 70
     0
102
RTVSPropertyOp53
 70
     0
102
RTVSPropertyOp54
 70
     0
102
RTVSPropertyOp55
 70
     1
102
RTVSPropertyOp56
 70
     0
102
RTVSPropertyOp57
 70
     0
102
RTVSPropertyOp58
 70
     0
102
RTVSPropertyOp59
 70
     0
102
RTVSPropertyOp60
 70
     0
102
RTVSPropertyOp61
 70
     0
102
RTVSPropertyOp62
 70
     0
  0
XRECORD
  5
E065
102
{ACAD_REACTORS
330
E064
102
}
330
E064
100
AcDbXrecord
280
     1
102
RTVSPost2010Prop28
280
     0
102
RTVSPost2010PropOp28
 70
     1
102
RTVSPost2010Prop29
280
     1
102
RTVSPost2010PropOp29
 70
     1
102
RTVSPost2010Prop30
280
     1
102
RTVSPost2010PropOp30
 70
     1
102
RTVSPost2010Prop31
280
     0
102
RTVSPost2010PropOp31
 70
     1
102
RTVSPost2010Prop32
280
     0
102
RTVSPost2010PropOp32
 70
     1
102
RTVSPost2010Prop33
280
     0
102
RTVSPost2010PropOp33
 70
     1
102
RTVSPost2010Prop34
280
     0
102
RTVSPost2010PropOp34
 70
     1
102
RTVSPost2010Prop35
280
     0
102
RTVSPost2010PropOp35
 70
     1
102
RTVSPost2010Prop36
280
     0
102
RTVSPost2010PropOp36
 70
     1
102
RTVSPost2010Prop37
 90
       50
102
RTVSPost2010PropOp37
 70
     1
102
RTVSPost2010Prop38
140
0.0
102
RTVSPost2010PropOp38
 70
     1
102
RTVSPost2010Prop39
140
1.0
102
RTVSPost2010PropOp39
 70
     1
102
RTVSPost2010Prop40
 90
        0
102
RTVSPost2010PropOp40
 70
     1
102
RTVSPost2010Prop41ColorIndex
 90
       18
102
RTVSPost2010Prop41ColorRGB
 90
        0
102
RTVSPost2010PropOp41
 70
     1
102
RTVSPost2010Prop42
 90
       50
102
RTVSPost2010PropOp42
 70
     1
102
RTVSPost2010Prop43
 90
        3
102
RTVSPost2010PropOp43
 70
     1
102
RTVSPost2010Prop44ColorIndex
 90
        5
102
RTVSPost2010Prop44ColorRGB
 90
      255
102
RTVSPost2010PropOp44
 70
     1
102
RTVSPost2010Prop45
280
     0
102
RTVSPost2010PropOp45
 70
     1
102
RTVSPost2010Prop46
 90
       50
102
RTVSPost2010PropOp46
 70
     1
102
RTVSPost2010Prop47
 90
       50
102
RTVSPost2010PropOp47
 70
     1
102
RTVSPost2010Prop48
 90
       50
102
RTVSPost2010PropOp48
 70
     1
102
RTVSPost2010Prop49
280
     0
102
RTVSPost2010PropOp49
 70
     1
102
RTVSPost2010Prop50
 90
       50
102
RTVSPost2010PropOp50
 70
     1
102
RTVSPost2010Prop51ColorIndex
 90
      256
102
RTVSPost2010Prop51ColorRGB
 90
-16777216
102
RTVSPost2010PropOp51
 70
     0
102
RTVSPost2010Prop52
140
1.0
102
RTVSPost2010PropOp52
 70
     0
102
RTVSPost2010Prop53
 90
        2
102
RTVSPost2010PropOp53
 70
     1
102
RTVSPost2010Prop54
  1
strokes_ogs.tif
102
RTVSPost2010PropOp54
 70
     1
102
RTVSPost2010Prop55
280
     0
102
RTVSPost2010PropOp55
 70
     1
102
RTVSPost2010Prop56
140
1.0
102
RTVSPost2010PropOp56
 70
     1
102
RTVSPost2010Prop57
140
1.0
102
RTVSPost2010PropOp57
 70
     1
102
RTVSPropertyOp0
 70
     1
102
RTVSPropertyOp1
 70
     1
102
RTVSPropertyOp2
 70
     1
102
RTVSPropertyOp3
 70
     1
102
RTVSPropertyOp4
 70
     1
102
RTVSPropertyOp5
 70
     1
102
RTVSPropertyOp6
 70
     1
102
RTVSPropertyOp7
 70
     1
102
RTVSPropertyOp8
 70
     1
102
RTVSPropertyOp9
 70
     1
102
RTVSPropertyOp10
 70
     1
102
RTVSPropertyOp11
 70
     1
102
RTVSPropertyOp12
 70
     1
102
RTVSPropertyOp13
 70
     1
102
RTVSPropertyOp14
 70
     1
102
RTVSPropertyOp15
 70
     1
102
RTVSPropertyOp16
 70
     1
102
RTVSPropertyOp17
 70
     1
102
RTVSPropertyOp18
 70
     1
102
RTVSPropertyOp19
 70
     1
102
RTVSPropertyOp20
 70
     1
102
RTVSPropertyOp21
 70
     1
102
RTVSPropertyOp22
 70
     1
102
RTVSPropertyOp23
 70
     1
102
RTVSPropertyOp24
 70
     1
102
RTVSPropertyOp25
 70
     1
102
RTVSPropertyOp26
 70
     1
102
RTVSPropertyOp27
 70
     1
102
RTVSPropertyOp28
 70
     1
102
RTVSPropertyOp29
 70
     1
102
RTVSPropertyOp30
 70
     1
102
RTVSPropertyOp31
 70
     1
102
RTVSPropertyOp32
 70
     1
102
RTVSPropertyOp33
 70
     1
102
RTVSPropertyOp34
 70
     1
102
RTVSPropertyOp35
 70
     1
102
RTVSPropertyOp36
 70
     1
102
RTVSPropertyOp37
 70
     1
102
RTVSPropertyOp38
 70
     1
102
RTVSPropertyOp39
 70
     1
102
RTVSPropertyOp40
 70
     1
102
RTVSPropertyOp41
 70
     1
102
RTVSPropertyOp42
 70
     1
102
RTVSPropertyOp43
 70
     1
102
RTVSPropertyOp44
 70
     1
102
RTVSPropertyOp45
 70
     1
102
RTVSPropertyOp46
 70
     1
102
RTVSPropertyOp47
 70
     1
102
RTVSPropertyOp48
 70
     1
102
RTVSPropertyOp49
 70
     1
102
RTVSPropertyOp50
 70
     1
102
RTVSPropertyOp51
 70
     0
102
RTVSPropertyOp52
 70
     0
102
RTVSPropertyOp53
 70
     1
102
RTVSPropertyOp54
 70
     1
102
RTVSPropertyOp55
 70
     1
102
RTVSPropertyOp56
 70
     1
102
RTVSPropertyOp57
 70
     1
102
RTVSPropertyOp58
 70
     1
102
RTVSPropertyOp59
 70
     1
102
RTVSPropertyOp60
 70
     1
102
RTVSPropertyOp61
 70
     1
102
RTVSPropertyOp62
 70
     1
  0
XRECORD
  5
E077
102
{ACAD_REACTORS
330
E076
102
}
330
E076
100
AcDbXrecord
280
     1
102
RTVSPost2010Prop28
280
     0
102
RTVSPost2010PropOp28
 70
     1
102
RTVSPost2010Prop29
280
     1
102
RTVSPost2010PropOp29
 70
     1
102
RTVSPost2010Prop30
280
     1
102
RTVSPost2010PropOp30
 70
     1
102
RTVSPost2010Prop31
280
     0
102
RTVSPost2010PropOp31
 70
     1
102
RTVSPost2010Prop32
280
     0
102
RTVSPost2010PropOp32
 70
     1
102
RTVSPost2010Prop33
280
     0
102
RTVSPost2010PropOp33
 70
     1
102
RTVSPost2010Prop34
280
     0
102
RTVSPost2010PropOp34
 70
     1
102
RTVSPost2010Prop35
280
     0
102
RTVSPost2010PropOp35
 70
     1
102
RTVSPost2010Prop36
280
     0
102
RTVSPost2010PropOp36
 70
     1
102
RTVSPost2010Prop37
 90
       50
102
RTVSPost2010PropOp37
 70
     0
102
RTVSPost2010Prop38
140
0.0
102
RTVSPost2010PropOp38
 70
     0
102
RTVSPost2010Prop39
140
1.0
102
RTVSPost2010PropOp39
 70
     0
102
RTVSPost2010Prop40
 90
        0
102
RTVSPost2010PropOp40
 70
     0
102
RTVSPost2010Prop41ColorIndex
 90
       18
102
RTVSPost2010Prop41ColorRGB
 90
        0
102
RTVSPost2010PropOp41
 70
     0
102
RTVSPost2010Prop42
 90
       50
102
RTVSPost2010PropOp42
 70
     0
102
RTVSPost2010Prop43
 90
        3
102
RTVSPost2010PropOp43
 70
     0
102
RTVSPost2010Prop44ColorIndex
 90
        5
102
RTVSPost2010Prop44ColorRGB
 90
      255
102
RTVSPost2010PropOp44
 70
     0
102
RTVSPost2010Prop45
280
     0
102
RTVSPost2010PropOp45
 70
     1
102
RTVSPost2010Prop46
 90
       50
102
RTVSPost2010PropOp46
 70
     0
102
RTVSPost2010Prop47
 90
       50
102
RTVSPost2010PropOp47
 70
     0
102
RTVSPost2010Prop48
 90
       50
102
RTVSPost2010PropOp48
 70
     0
102
RTVSPost2010Prop49
280
     0
102
RTVSPost2010PropOp49
 70
     1
102
RTVSPost2010Prop50
 90
       50
102
RTVSPost2010PropOp50
 70
     0
102
RTVSPost2010Prop51ColorIndex
 90
      256
102
RTVSPost2010Prop51ColorRGB
 90
-16777216
102
RTVSPost2010PropOp51
 70
     0
102
RTVSPost2010Prop52
140
1.0
102
RTVSPost2010PropOp52
 70
     0
102
RTVSPost2010Prop53
 90
        2
102
RTVSPost2010PropOp53
 70
     0
102
RTVSPost2010Prop54
  1
strokes_ogs.tif
102
RTVSPost2010PropOp54
 70
     0
102
RTVSPost2010Prop55
280
     0
102
RTVSPost2010PropOp55
 70
     1
102
RTVSPost2010Prop56
140
1.0
102
RTVSPost2010PropOp56
 70
     0
102
RTVSPost2010Prop57
140
1.0
102
RTVSPost2010PropOp57
 70
     0
102
RTVSPropertyOp0
 70
     0
102
RTVSPropertyOp1
 70
     0
102
RTVSPropertyOp2
 70
     0
102
RTVSPropertyOp3
 70
     0
102
RTVSPropertyOp4
 70
     0
102
RTVSPropertyOp5
 70
     0
102
RTVSPropertyOp6
 70
     0
102
RTVSPropertyOp7
 70
     0
102
RTVSPropertyOp8
 70
     0
102
RTVSPropertyOp9
 70
     0
102
RTVSPropertyOp10
 70
     0
102
RTVSPropertyOp11
 70
     0
102
RTVSPropertyOp12
 70
     0
102
RTVSPropertyOp13
 70
     0
102
RTVSPropertyOp14
 70
     2
102
RTVSPropertyOp15
 70
     0
102
RTVSPropertyOp16
 70
     0
102
RTVSPropertyOp17
 70
     0
102
RTVSPropertyOp18
 70
     0
102
RTVSPropertyOp19
 70
     0
102
RTVSPropertyOp20
 70
     0
102
RTVSPropertyOp21
 70
     0
102
RTVSPropertyOp22
 70
     0
102
RTVSPropertyOp23
 70
     0
102
RTVSPropertyOp24
 70
     0
102
RTVSPropertyOp25
 70
     0
102
RTVSPropertyOp26
 70
     0
102
RTVSPropertyOp27
 70
     0
102
RTVSPropertyOp28
 70
     1
102
RTVSPropertyOp29
 70
     1
102
RTVSPropertyOp30
 70
     1
102
RTVSPropertyOp31
 70
     1
102
RTVSPropertyOp32
 70
     1
102
RTVSPropertyOp33
 70
     1
102
RTVSPropertyOp34
 70
     1
102
RTVSPropertyOp35
 70
     1
102
RTVSPropertyOp36
 70
     1
102
RTVSPropertyOp37
 70
     0
102
RTVSPropertyOp38
 70
     0
102
RTVSPropertyOp39
 70
     0
102
RTVSPropertyOp40
 70
     0
102
RTVSPropertyOp41
 70
     0
102
RTVSPropertyOp42
 70
     0
102
RTVSPropertyOp43
 70
     0
102
RTVSPropertyOp44
 70
     0
102
RTVSPropertyOp45
 70
     1
102
RTVSPropertyOp46
 70
     0
102
RTVSPropertyOp47
 70
     0
102
RTVSPropertyOp48
 70
     0
102
RTVSPropertyOp49
 70
     1
102
RTVSPropertyOp50
 70
     0
102
RTVSPropertyOp51
 70
     0
102
RTVSPropertyOp52
 70
     0
102
RTVSPropertyOp53
 70
     0
102
RTVSPropertyOp54
 70
     0
102
RTVSPropertyOp55
 70
     1
102
RTVSPropertyOp56
 70
     0
102
RTVSPropertyOp57
 70
     0
102
RTVSPropertyOp58
 70
     0
102
RTVSPropertyOp59
 70
     0
102
RTVSPropertyOp60
 70
     0
102
RTVSPropertyOp61
 70
     0
102
RTVSPropertyOp62
 70
     0
  0
XRECORD
  5
E05D
102
{ACAD_REACTORS
330
E05C
102
}
330
E05C
100
AcDbXrecord
280
     1
102
RTVSPost2010Prop28
280
     0
102
RTVSPost2010PropOp28
 70
     1
102
RTVSPost2010Prop29
280
     1
102
RTVSPost2010PropOp29
 70
     1
102
RTVSPost2010Prop30
280
     1
102
RTVSPost2010PropOp30
 70
     1
102
RTVSPost2010Prop31
280
     0
102
RTVSPost2010PropOp31
 70
     1
102
RTVSPost2010Prop32
280
     0
102
RTVSPost2010PropOp32
 70
     1
102
RTVSPost2010Prop33
280
     0
102
RTVSPost2010PropOp33
 70
     1
102
RTVSPost2010Prop34
280
     0
102
RTVSPost2010PropOp34
 70
     1
102
RTVSPost2010Prop35
280
     0
102
RTVSPost2010PropOp35
 70
     1
102
RTVSPost2010Prop36
280
     0
102
RTVSPost2010PropOp36
 70
     1
102
RTVSPost2010Prop37
 90
       50
102
RTVSPost2010PropOp37
 70
     1
102
RTVSPost2010Prop38
140
0.0
102
RTVSPost2010PropOp38
 70
     1
102
RTVSPost2010Prop39
140
1.0
102
RTVSPost2010PropOp39
 70
     1
102
RTVSPost2010Prop40
 90
        0
102
RTVSPost2010PropOp40
 70
     1
102
RTVSPost2010Prop41ColorIndex
 90
       18
102
RTVSPost2010Prop41ColorRGB
 90
        0
102
RTVSPost2010PropOp41
 70
     1
102
RTVSPost2010Prop42
 90
       50
102
RTVSPost2010PropOp42
 70
     1
102
RTVSPost2010Prop43
 90
        3
102
RTVSPost2010PropOp43
 70
     1
102
RTVSPost2010Prop44ColorIndex
 90
        5
102
RTVSPost2010Prop44ColorRGB
 90
      255
102
RTVSPost2010PropOp44
 70
     1
102
RTVSPost2010Prop45
280
     0
102
RTVSPost2010PropOp45
 70
     1
102
RTVSPost2010Prop46
 90
       50
102
RTVSPost2010PropOp46
 70
     1
102
RTVSPost2010Prop47
 90
       50
102
RTVSPost2010PropOp47
 70
     1
102
RTVSPost2010Prop48
 90
       50
102
RTVSPost2010PropOp48
 70
     1
102
RTVSPost2010Prop49
280
     0
102
RTVSPost2010PropOp49
 70
     1
102
RTVSPost2010Prop50
 90
       50
102
RTVSPost2010PropOp50
 70
     1
102
RTVSPost2010Prop51ColorIndex
 90
      256
102
RTVSPost2010Prop51ColorRGB
 90
-16777216
102
RTVSPost2010PropOp51
 70
     0
102
RTVSPost2010Prop52
140
1.0
102
RTVSPost2010PropOp52
 70
     0
102
RTVSPost2010Prop53
 90
        2
102
RTVSPost2010PropOp53
 70
     1
102
RTVSPost2010Prop54
  1
strokes_ogs.tif
102
RTVSPost2010PropOp54
 70
     1
102
RTVSPost2010Prop55
280
     0
102
RTVSPost2010PropOp55
 70
     1
102
RTVSPost2010Prop56
140
1.0
102
RTVSPost2010PropOp56
 70
     1
102
RTVSPost2010Prop57
140
1.0
102
RTVSPost2010PropOp57
 70
     1
102
RTVSPropertyOp0
 70
     1
102
RTVSPropertyOp1
 70
     1
102
RTVSPropertyOp2
 70
     1
102
RTVSPropertyOp3
 70
     1
102
RTVSPropertyOp4
 70
     1
102
RTVSPropertyOp5
 70
     1
102
RTVSPropertyOp6
 70
     1
102
RTVSPropertyOp7
 70
     1
102
RTVSPropertyOp8
 70
     1
102
RTVSPropertyOp9
 70
     1
102
RTVSPropertyOp10
 70
     1
102
RTVSPropertyOp11
 70
     1
102
RTVSPropertyOp12
 70
     1
102
RTVSPropertyOp13
 70
     1
102
RTVSPropertyOp14
 70
     1
102
RTVSPropertyOp15
 70
     1
102
RTVSPropertyOp16
 70
     1
102
RTVSPropertyOp17
 70
     1
102
RTVSPropertyOp18
 70
     1
102
RTVSPropertyOp19
 70
     1
102
RTVSPropertyOp20
 70
     1
102
RTVSPropertyOp21
 70
     1
102
RTVSPropertyOp22
 70
     1
102
RTVSPropertyOp23
 70
     1
102
RTVSPropertyOp24
 70
     1
102
RTVSPropertyOp25
 70
     1
102
RTVSPropertyOp26
 70
     1
102
RTVSPropertyOp27
 70
     1
102
RTVSPropertyOp28
 70
     1
102
RTVSPropertyOp29
 70
     1
102
RTVSPropertyOp30
 70
     1
102
RTVSPropertyOp31
 70
     1
102
RTVSPropertyOp32
 70
     1
102
RTVSPropertyOp33
 70
     1
102
RTVSPropertyOp34
 70
     1
102
RTVSPropertyOp35
 70
     1
102
RTVSPropertyOp36
 70
     1
102
RTVSPropertyOp37
 70
     1
102
RTVSPropertyOp38
 70
     1
102
RTVSPropertyOp39
 70
     1
102
RTVSPropertyOp40
 70
     1
102
RTVSPropertyOp41
 70
     1
102
RTVSPropertyOp42
 70
     1
102
RTVSPropertyOp43
 70
     1
102
RTVSPropertyOp44
 70
     1
102
RTVSPropertyOp45
 70
     1
102
RTVSPropertyOp46
 70
     1
102
RTVSPropertyOp47
 70
     1
102
RTVSPropertyOp48
 70
     1
102
RTVSPropertyOp49
 70
     1
102
RTVSPropertyOp50
 70
     1
102
RTVSPropertyOp51
 70
     0
102
RTVSPropertyOp52
 70
     0
102
RTVSPropertyOp53
 70
     1
102
RTVSPropertyOp54
 70
     1
102
RTVSPropertyOp55
 70
     1
102
RTVSPropertyOp56
 70
     1
102
RTVSPropertyOp57
 70
     1
102
RTVSPropertyOp58
 70
     1
102
RTVSPropertyOp59
 70
     1
102
RTVSPropertyOp60
 70
     1
102
RTVSPropertyOp61
 70
     1
102
RTVSPropertyOp62
 70
     1
  0
XRECORD
  5
E073
102
{ACAD_REACTORS
330
E072
102
}
330
E072
100
AcDbXrecord
280
     1
102
RTVSPost2010Prop28
280
     0
102
RTVSPost2010PropOp28
 70
     1
102
RTVSPost2010Prop29
280
     1
102
RTVSPost2010PropOp29
 70
     1
102
RTVSPost2010Prop30
280
     1
102
RTVSPost2010PropOp30
 70
     1
102
RTVSPost2010Prop31
280
     0
102
RTVSPost2010PropOp31
 70
     1
102
RTVSPost2010Prop32
280
     0
102
RTVSPost2010PropOp32
 70
     1
102
RTVSPost2010Prop33
280
     0
102
RTVSPost2010PropOp33
 70
     1
102
RTVSPost2010Prop34
280
     0
102
RTVSPost2010PropOp34
 70
     1
102
RTVSPost2010Prop35
280
     0
102
RTVSPost2010PropOp35
 70
     1
102
RTVSPost2010Prop36
280
     0
102
RTVSPost2010PropOp36
 70
     1
102
RTVSPost2010Prop37
 90
       50
102
RTVSPost2010PropOp37
 70
     1
102
RTVSPost2010Prop38
140
0.0
102
RTVSPost2010PropOp38
 70
     1
102
RTVSPost2010Prop39
140
1.0
102
RTVSPost2010PropOp39
 70
     1
102
RTVSPost2010Prop40
 90
        0
102
RTVSPost2010PropOp40
 70
     1
102
RTVSPost2010Prop41ColorIndex
 90
       18
102
RTVSPost2010Prop41ColorRGB
 90
        0
102
RTVSPost2010PropOp41
 70
     1
102
RTVSPost2010Prop42
 90
       50
102
RTVSPost2010PropOp42
 70
     1
102
RTVSPost2010Prop43
 90
        3
102
RTVSPost2010PropOp43
 70
     1
102
RTVSPost2010Prop44ColorIndex
 90
        5
102
RTVSPost2010Prop44ColorRGB
 90
      255
102
RTVSPost2010PropOp44
 70
     1
102
RTVSPost2010Prop45
280
     0
102
RTVSPost2010PropOp45
 70
     1
102
RTVSPost2010Prop46
 90
       50
102
RTVSPost2010PropOp46
 70
     1
102
RTVSPost2010Prop47
 90
       50
102
RTVSPost2010PropOp47
 70
     1
102
RTVSPost2010Prop48
 90
       50
102
RTVSPost2010PropOp48
 70
     1
102
RTVSPost2010Prop49
280
     0
102
RTVSPost2010PropOp49
 70
     1
102
RTVSPost2010Prop50
 90
       50
102
RTVSPost2010PropOp50
 70
     1
102
RTVSPost2010Prop51ColorIndex
 90
      256
102
RTVSPost2010Prop51ColorRGB
 90
-16777216
102
RTVSPost2010PropOp51
 70
     0
102
RTVSPost2010Prop52
140
1.0
102
RTVSPost2010PropOp52
 70
     0
102
RTVSPost2010Prop53
 90
        2
102
RTVSPost2010PropOp53
 70
     1
102
RTVSPost2010Prop54
  1
strokes_ogs.tif
102
RTVSPost2010PropOp54
 70
     1
102
RTVSPost2010Prop55
280
     0
102
RTVSPost2010PropOp55
 70
     1
102
RTVSPost2010Prop56
140
1.0
102
RTVSPost2010PropOp56
 70
     1
102
RTVSPost2010Prop57
140
1.0
102
RTVSPost2010PropOp57
 70
     1
102
RTVSPropertyOp0
 70
     1
102
RTVSPropertyOp1
 70
     1
102
RTVSPropertyOp2
 70
     1
102
RTVSPropertyOp3
 70
     1
102
RTVSPropertyOp4
 70
     1
102
RTVSPropertyOp5
 70
     1
102
RTVSPropertyOp6
 70
     1
102
RTVSPropertyOp7
 70
     1
102
RTVSPropertyOp8
 70
     1
102
RTVSPropertyOp9
 70
     1
102
RTVSPropertyOp10
 70
     1
102
RTVSPropertyOp11
 70
     1
102
RTVSPropertyOp12
 70
     1
102
RTVSPropertyOp13
 70
     1
102
RTVSPropertyOp14
 70
     1
102
RTVSPropertyOp15
 70
     1
102
RTVSPropertyOp16
 70
     1
102
RTVSPropertyOp17
 70
     1
102
RTVSPropertyOp18
 70
     1
102
RTVSPropertyOp19
 70
     1
102
RTVSPropertyOp20
 70
     1
102
RTVSPropertyOp21
 70
     1
102
RTVSPropertyOp22
 70
     1
102
RTVSPropertyOp23
 70
     1
102
RTVSPropertyOp24
 70
     1
102
RTVSPropertyOp25
 70
     1
102
RTVSPropertyOp26
 70
     1
102
RTVSPropertyOp27
 70
     1
102
RTVSPropertyOp28
 70
     1
102
RTVSPropertyOp29
 70
     1
102
RTVSPropertyOp30
 70
     1
102
RTVSPropertyOp31
 70
     1
102
RTVSPropertyOp32
 70
     1
102
RTVSPropertyOp33
 70
     1
102
RTVSPropertyOp34
 70
     1
102
RTVSPropertyOp35
 70
     1
102
RTVSPropertyOp36
 70
     1
102
RTVSPropertyOp37
 70
     1
102
RTVSPropertyOp38
 70
     1
102
RTVSPropertyOp39
 70
     1
102
RTVSPropertyOp40
 70
     1
102
RTVSPropertyOp41
 70
     1
102
RTVSPropertyOp42
 70
     1
102
RTVSPropertyOp43
 70
     1
102
RTVSPropertyOp44
 70
     1
102
RTVSPropertyOp45
 70
     1
102
RTVSPropertyOp46
 70
     1
102
RTVSPropertyOp47
 70
     1
102
RTVSPropertyOp48
 70
     1
102
RTVSPropertyOp49
 70
     1
102
RTVSPropertyOp50
 70
     1
102
RTVSPropertyOp51
 70
     0
102
RTVSPropertyOp52
 70
     0
102
RTVSPropertyOp53
 70
     1
102
RTVSPropertyOp54
 70
     1
102
RTVSPropertyOp55
 70
     1
102
RTVSPropertyOp56
 70
     1
102
RTVSPropertyOp57
 70
     1
102
RTVSPropertyOp58
 70
     1
102
RTVSPropertyOp59
 70
     1
102
RTVSPropertyOp60
 70
     1
102
RTVSPropertyOp61
 70
     1
102
RTVSPropertyOp62
 70
     1
  0
XRECORD
  5
E071
102
{ACAD_REACTORS
330
E070
102
}
330
E070
100
AcDbXrecord
280
     1
102
RTVSPost2010Prop28
280
     0
102
RTVSPost2010PropOp28
 70
     1
102
RTVSPost2010Prop29
280
     1
102
RTVSPost2010PropOp29
 70
     1
102
RTVSPost2010Prop30
280
     1
102
RTVSPost2010PropOp30
 70
     1
102
RTVSPost2010Prop31
280
     0
102
RTVSPost2010PropOp31
 70
     1
102
RTVSPost2010Prop32
280
     0
102
RTVSPost2010PropOp32
 70
     1
102
RTVSPost2010Prop33
280
     0
102
RTVSPost2010PropOp33
 70
     1
102
RTVSPost2010Prop34
280
     0
102
RTVSPost2010PropOp34
 70
     1
102
RTVSPost2010Prop35
280
     0
102
RTVSPost2010PropOp35
 70
     1
102
RTVSPost2010Prop36
280
     0
102
RTVSPost2010PropOp36
 70
     1
102
RTVSPost2010Prop37
 90
       50
102
RTVSPost2010PropOp37
 70
     1
102
RTVSPost2010Prop38
140
0.0
102
RTVSPost2010PropOp38
 70
     1
102
RTVSPost2010Prop39
140
1.0
102
RTVSPost2010PropOp39
 70
     1
102
RTVSPost2010Prop40
 90
        0
102
RTVSPost2010PropOp40
 70
     1
102
RTVSPost2010Prop41ColorIndex
 90
       18
102
RTVSPost2010Prop41ColorRGB
 90
        0
102
RTVSPost2010PropOp41
 70
     1
102
RTVSPost2010Prop42
 90
       50
102
RTVSPost2010PropOp42
 70
     1
102
RTVSPost2010Prop43
 90
        3
102
RTVSPost2010PropOp43
 70
     1
102
RTVSPost2010Prop44ColorIndex
 90
        5
102
RTVSPost2010Prop44ColorRGB
 90
      255
102
RTVSPost2010PropOp44
 70
     1
102
RTVSPost2010Prop45
280
     0
102
RTVSPost2010PropOp45
 70
     1
102
RTVSPost2010Prop46
 90
       50
102
RTVSPost2010PropOp46
 70
     1
102
RTVSPost2010Prop47
 90
       50
102
RTVSPost2010PropOp47
 70
     1
102
RTVSPost2010Prop48
 90
       50
102
RTVSPost2010PropOp48
 70
     1
102
RTVSPost2010Prop49
280
     0
102
RTVSPost2010PropOp49
 70
     1
102
RTVSPost2010Prop50
 90
       50
102
RTVSPost2010PropOp50
 70
     1
102
RTVSPost2010Prop51ColorIndex
 90
      256
102
RTVSPost2010Prop51ColorRGB
 90
-16777216
102
RTVSPost2010PropOp51
 70
     0
102
RTVSPost2010Prop52
140
1.0
102
RTVSPost2010PropOp52
 70
     0
102
RTVSPost2010Prop53
 90
        2
102
RTVSPost2010PropOp53
 70
     1
102
RTVSPost2010Prop54
  1
strokes_ogs.tif
102
RTVSPost2010PropOp54
 70
     1
102
RTVSPost2010Prop55
280
     0
102
RTVSPost2010PropOp55
 70
     1
102
RTVSPost2010Prop56
140
1.0
102
RTVSPost2010PropOp56
 70
     1
102
RTVSPost2010Prop57
140
1.0
102
RTVSPost2010PropOp57
 70
     1
102
RTVSPropertyOp0
 70
     1
102
RTVSPropertyOp1
 70
     1
102
RTVSPropertyOp2
 70
     1
102
RTVSPropertyOp3
 70
     1
102
RTVSPropertyOp4
 70
     1
102
RTVSPropertyOp5
 70
     1
102
RTVSPropertyOp6
 70
     1
102
RTVSPropertyOp7
 70
     1
102
RTVSPropertyOp8
 70
     1
102
RTVSPropertyOp9
 70
     1
102
RTVSPropertyOp10
 70
     1
102
RTVSPropertyOp11
 70
     1
102
RTVSPropertyOp12
 70
     1
102
RTVSPropertyOp13
 70
     1
102
RTVSPropertyOp14
 70
     1
102
RTVSPropertyOp15
 70
     1
102
RTVSPropertyOp16
 70
     1
102
RTVSPropertyOp17
 70
     1
102
RTVSPropertyOp18
 70
     1
102
RTVSPropertyOp19
 70
     1
102
RTVSPropertyOp20
 70
     1
102
RTVSPropertyOp21
 70
     1
102
RTVSPropertyOp22
 70
     1
102
RTVSPropertyOp23
 70
     1
102
RTVSPropertyOp24
 70
     1
102
RTVSPropertyOp25
 70
     1
102
RTVSPropertyOp26
 70
     1
102
RTVSPropertyOp27
 70
     1
102
RTVSPropertyOp28
 70
     1
102
RTVSPropertyOp29
 70
     1
102
RTVSPropertyOp30
 70
     1
102
RTVSPropertyOp31
 70
     1
102
RTVSPropertyOp32
 70
     1
102
RTVSPropertyOp33
 70
     1
102
RTVSPropertyOp34
 70
     1
102
RTVSPropertyOp35
 70
     1
102
RTVSPropertyOp36
 70
     1
102
RTVSPropertyOp37
 70
     1
102
RTVSPropertyOp38
 70
     1
102
RTVSPropertyOp39
 70
     1
102
RTVSPropertyOp40
 70
     1
102
RTVSPropertyOp41
 70
     1
102
RTVSPropertyOp42
 70
     1
102
RTVSPropertyOp43
 70
     1
102
RTVSPropertyOp44
 70
     1
102
RTVSPropertyOp45
 70
     1
102
RTVSPropertyOp46
 70
     1
102
RTVSPropertyOp47
 70
     1
102
RTVSPropertyOp48
 70
     1
102
RTVSPropertyOp49
 70
     1
102
RTVSPropertyOp50
 70
     1
102
RTVSPropertyOp51
 70
     0
102
RTVSPropertyOp52
 70
     0
102
RTVSPropertyOp53
 70
     1
102
RTVSPropertyOp54
 70
     1
102
RTVSPropertyOp55
 70
     1
102
RTVSPropertyOp56
 70
     1
102
RTVSPropertyOp57
 70
     1
102
RTVSPropertyOp58
 70
     1
102
RTVSPropertyOp59
 70
     1
102
RTVSPropertyOp60
 70
     1
102
RTVSPropertyOp61
 70
     1
102
RTVSPropertyOp62
 70
     1
  0
XRECORD
  5
E06B
102
{ACAD_REACTORS
330
E06A
102
}
330
E06A
100
AcDbXrecord
280
     1
102
RTVSPost2010Prop28
280
     0
102
RTVSPost2010PropOp28
 70
     1
102
RTVSPost2010Prop29
280
     1
102
RTVSPost2010PropOp29
 70
     1
102
RTVSPost2010Prop30
280
     1
102
RTVSPost2010PropOp30
 70
     1
102
RTVSPost2010Prop31
280
     0
102
RTVSPost2010PropOp31
 70
     1
102
RTVSPost2010Prop32
280
     0
102
RTVSPost2010PropOp32
 70
     1
102
RTVSPost2010Prop33
280
     0
102
RTVSPost2010PropOp33
 70
     1
102
RTVSPost2010Prop34
280
     0
102
RTVSPost2010PropOp34
 70
     1
102
RTVSPost2010Prop35
280
     0
102
RTVSPost2010PropOp35
 70
     1
102
RTVSPost2010Prop36
280
     0
102
RTVSPost2010PropOp36
 70
     1
102
RTVSPost2010Prop37
 90
       50
102
RTVSPost2010PropOp37
 70
     1
102
RTVSPost2010Prop38
140
0.0
102
RTVSPost2010PropOp38
 70
     1
102
RTVSPost2010Prop39
140
1.0
102
RTVSPost2010PropOp39
 70
     1
102
RTVSPost2010Prop40
 90
        0
102
RTVSPost2010PropOp40
 70
     1
102
RTVSPost2010Prop41ColorIndex
 90
       18
102
RTVSPost2010Prop41ColorRGB
 90
        0
102
RTVSPost2010PropOp41
 70
     1
102
RTVSPost2010Prop42
 90
       50
102
RTVSPost2010PropOp42
 70
     1
102
RTVSPost2010Prop43
 90
        3
102
RTVSPost2010PropOp43
 70
     1
102
RTVSPost2010Prop44ColorIndex
 90
        5
102
RTVSPost2010Prop44ColorRGB
 90
      255
102
RTVSPost2010PropOp44
 70
     1
102
RTVSPost2010Prop45
280
     0
102
RTVSPost2010PropOp45
 70
     1
102
RTVSPost2010Prop46
 90
       50
102
RTVSPost2010PropOp46
 70
     1
102
RTVSPost2010Prop47
 90
       50
102
RTVSPost2010PropOp47
 70
     1
102
RTVSPost2010Prop48
 90
       50
102
RTVSPost2010PropOp48
 70
     1
102
RTVSPost2010Prop49
280
     0
102
RTVSPost2010PropOp49
 70
     1
102
RTVSPost2010Prop50
 90
       50
102
RTVSPost2010PropOp50
 70
     1
102
RTVSPost2010Prop51ColorIndex
 90
      256
102
RTVSPost2010Prop51ColorRGB
 90
-16777216
102
RTVSPost2010PropOp51
 70
     0
102
RTVSPost2010Prop52
140
1.0
102
RTVSPost2010PropOp52
 70
     0
102
RTVSPost2010Prop53
 90
        2
102
RTVSPost2010PropOp53
 70
     1
102
RTVSPost2010Prop54
  1
strokes_ogs.tif
102
RTVSPost2010PropOp54
 70
     1
102
RTVSPost2010Prop55
280
     0
102
RTVSPost2010PropOp55
 70
     1
102
RTVSPost2010Prop56
140
1.0
102
RTVSPost2010PropOp56
 70
     1
102
RTVSPost2010Prop57
140
1.0
102
RTVSPost2010PropOp57
 70
     1
102
RTVSPropertyOp0
 70
     1
102
RTVSPropertyOp1
 70
     1
102
RTVSPropertyOp2
 70
     1
102
RTVSPropertyOp3
 70
     1
102
RTVSPropertyOp4
 70
     1
102
RTVSPropertyOp5
 70
     1
102
RTVSPropertyOp6
 70
     1
102
RTVSPropertyOp7
 70
     1
102
RTVSPropertyOp8
 70
     1
102
RTVSPropertyOp9
 70
     1
102
RTVSPropertyOp10
 70
     1
102
RTVSPropertyOp11
 70
     1
102
RTVSPropertyOp12
 70
     1
102
RTVSPropertyOp13
 70
     1
102
RTVSPropertyOp14
 70
     1
102
RTVSPropertyOp15
 70
     1
102
RTVSPropertyOp16
 70
     1
102
RTVSPropertyOp17
 70
     1
102
RTVSPropertyOp18
 70
     1
102
RTVSPropertyOp19
 70
     1
102
RTVSPropertyOp20
 70
     1
102
RTVSPropertyOp21
 70
     1
102
RTVSPropertyOp22
 70
     1
102
RTVSPropertyOp23
 70
     1
102
RTVSPropertyOp24
 70
     1
102
RTVSPropertyOp25
 70
     1
102
RTVSPropertyOp26
 70
     1
102
RTVSPropertyOp27
 70
     1
102
RTVSPropertyOp28
 70
     1
102
RTVSPropertyOp29
 70
     1
102
RTVSPropertyOp30
 70
     1
102
RTVSPropertyOp31
 70
     1
102
RTVSPropertyOp32
 70
     1
102
RTVSPropertyOp33
 70
     1
102
RTVSPropertyOp34
 70
     1
102
RTVSPropertyOp35
 70
     1
102
RTVSPropertyOp36
 70
     1
102
RTVSPropertyOp37
 70
     1
102
RTVSPropertyOp38
 70
     1
102
RTVSPropertyOp39
 70
     1
102
RTVSPropertyOp40
 70
     1
102
RTVSPropertyOp41
 70
     1
102
RTVSPropertyOp42
 70
     1
102
RTVSPropertyOp43
 70
     1
102
RTVSPropertyOp44
 70
     1
102
RTVSPropertyOp45
 70
     1
102
RTVSPropertyOp46
 70
     1
102
RTVSPropertyOp47
 70
     1
102
RTVSPropertyOp48
 70
     1
102
RTVSPropertyOp49
 70
     1
102
RTVSPropertyOp50
 70
     1
102
RTVSPropertyOp51
 70
     0
102
RTVSPropertyOp52
 70
     0
102
RTVSPropertyOp53
 70
     1
102
RTVSPropertyOp54
 70
     1
102
RTVSPropertyOp55
 70
     1
102
RTVSPropertyOp56
 70
     1
102
RTVSPropertyOp57
 70
     1
102
RTVSPropertyOp58
 70
     1
102
RTVSPropertyOp59
 70
     1
102
RTVSPropertyOp60
 70
     1
102
RTVSPropertyOp61
 70
     1
102
RTVSPropertyOp62
 70
     1
  0
XRECORD
  5
E06D
102
{ACAD_REACTORS
330
E06C
102
}
330
E06C
100
AcDbXrecord
280
     1
102
RTVSPost2010Prop28
280
     0
102
RTVSPost2010PropOp28
 70
     1
102
RTVSPost2010Prop29
280
     1
102
RTVSPost2010PropOp29
 70
     1
102
RTVSPost2010Prop30
280
     1
102
RTVSPost2010PropOp30
 70
     1
102
RTVSPost2010Prop31
280
     0
102
RTVSPost2010PropOp31
 70
     1
102
RTVSPost2010Prop32
280
     0
102
RTVSPost2010PropOp32
 70
     1
102
RTVSPost2010Prop33
280
     0
102
RTVSPost2010PropOp33
 70
     1
102
RTVSPost2010Prop34
280
     0
102
RTVSPost2010PropOp34
 70
     1
102
RTVSPost2010Prop35
280
     0
102
RTVSPost2010PropOp35
 70
     1
102
RTVSPost2010Prop36
280
     0
102
RTVSPost2010PropOp36
 70
     1
102
RTVSPost2010Prop37
 90
       50
102
RTVSPost2010PropOp37
 70
     1
102
RTVSPost2010Prop38
140
0.0
102
RTVSPost2010PropOp38
 70
     1
102
RTVSPost2010Prop39
140
1.0
102
RTVSPost2010PropOp39
 70
     1
102
RTVSPost2010Prop40
 90
        0
102
RTVSPost2010PropOp40
 70
     1
102
RTVSPost2010Prop41ColorIndex
 90
       18
102
RTVSPost2010Prop41ColorRGB
 90
        0
102
RTVSPost2010PropOp41
 70
     1
102
RTVSPost2010Prop42
 90
       50
102
RTVSPost2010PropOp42
 70
     1
102
RTVSPost2010Prop43
 90
        3
102
RTVSPost2010PropOp43
 70
     1
102
RTVSPost2010Prop44ColorIndex
 90
        5
102
RTVSPost2010Prop44ColorRGB
 90
      255
102
RTVSPost2010PropOp44
 70
     1
102
RTVSPost2010Prop45
280
     0
102
RTVSPost2010PropOp45
 70
     1
102
RTVSPost2010Prop46
 90
       50
102
RTVSPost2010PropOp46
 70
     1
102
RTVSPost2010Prop47
 90
       50
102
RTVSPost2010PropOp47
 70
     1
102
RTVSPost2010Prop48
 90
       50
102
RTVSPost2010PropOp48
 70
     1
102
RTVSPost2010Prop49
280
     0
102
RTVSPost2010PropOp49
 70
     1
102
RTVSPost2010Prop50
 90
       50
102
RTVSPost2010PropOp50
 70
     1
102
RTVSPost2010Prop51ColorIndex
 90
      256
102
RTVSPost2010Prop51ColorRGB
 90
-16777216
102
RTVSPost2010PropOp51
 70
     0
102
RTVSPost2010Prop52
140
1.0
102
RTVSPost2010PropOp52
 70
     0
102
RTVSPost2010Prop53
 90
        2
102
RTVSPost2010PropOp53
 70
     1
102
RTVSPost2010Prop54
  1
strokes_ogs.tif
102
RTVSPost2010PropOp54
 70
     1
102
RTVSPost2010Prop55
280
     0
102
RTVSPost2010PropOp55
 70
     1
102
RTVSPost2010Prop56
140
1.0
102
RTVSPost2010PropOp56
 70
     1
102
RTVSPost2010Prop57
140
1.0
102
RTVSPost2010PropOp57
 70
     1
102
RTVSPropertyOp0
 70
     1
102
RTVSPropertyOp1
 70
     1
102
RTVSPropertyOp2
 70
     1
102
RTVSPropertyOp3
 70
     1
102
RTVSPropertyOp4
 70
     1
102
RTVSPropertyOp5
 70
     1
102
RTVSPropertyOp6
 70
     1
102
RTVSPropertyOp7
 70
     1
102
RTVSPropertyOp8
 70
     1
102
RTVSPropertyOp9
 70
     1
102
RTVSPropertyOp10
 70
     1
102
RTVSPropertyOp11
 70
     1
102
RTVSPropertyOp12
 70
     1
102
RTVSPropertyOp13
 70
     1
102
RTVSPropertyOp14
 70
     1
102
RTVSPropertyOp15
 70
     1
102
RTVSPropertyOp16
 70
     1
102
RTVSPropertyOp17
 70
     1
102
RTVSPropertyOp18
 70
     1
102
RTVSPropertyOp19
 70
     1
102
RTVSPropertyOp20
 70
     1
102
RTVSPropertyOp21
 70
     1
102
RTVSPropertyOp22
 70
     1
102
RTVSPropertyOp23
 70
     1
102
RTVSPropertyOp24
 70
     1
102
RTVSPropertyOp25
 70
     1
102
RTVSPropertyOp26
 70
     1
102
RTVSPropertyOp27
 70
     1
102
RTVSPropertyOp28
 70
     1
102
RTVSPropertyOp29
 70
     1
102
RTVSPropertyOp30
 70
     1
102
RTVSPropertyOp31
 70
     1
102
RTVSPropertyOp32
 70
     1
102
RTVSPropertyOp33
 70
     1
102
RTVSPropertyOp34
 70
     1
102
RTVSPropertyOp35
 70
     1
102
RTVSPropertyOp36
 70
     1
102
RTVSPropertyOp37
 70
     1
102
RTVSPropertyOp38
 70
     1
102
RTVSPropertyOp39
 70
     1
102
RTVSPropertyOp40
 70
     1
102
RTVSPropertyOp41
 70
     1
102
RTVSPropertyOp42
 70
     1
102
RTVSPropertyOp43
 70
     1
102
RTVSPropertyOp44
 70
     1
102
RTVSPropertyOp45
 70
     1
102
RTVSPropertyOp46
 70
     1
102
RTVSPropertyOp47
 70
     1
102
RTVSPropertyOp48
 70
     1
102
RTVSPropertyOp49
 70
     1
102
RTVSPropertyOp50
 70
     1
102
RTVSPropertyOp51
 70
     0
102
RTVSPropertyOp52
 70
     0
102
RTVSPropertyOp53
 70
     1
102
RTVSPropertyOp54
 70
     1
102
RTVSPropertyOp55
 70
     1
102
RTVSPropertyOp56
 70
     1
102
RTVSPropertyOp57
 70
     1
102
RTVSPropertyOp58
 70
     1
102
RTVSPropertyOp59
 70
     1
102
RTVSPropertyOp60
 70
     1
102
RTVSPropertyOp61
 70
     1
102
RTVSPropertyOp62
 70
     1
  0
XRECORD
  5
E063
102
{ACAD_REACTORS
330
E062
102
}
330
E062
100
AcDbXrecord
280
     1
102
RTVSPost2010Prop28
280
     0
102
RTVSPost2010PropOp28
 70
     1
102
RTVSPost2010Prop29
280
     1
102
RTVSPost2010PropOp29
 70
     1
102
RTVSPost2010Prop30
280
     1
102
RTVSPost2010PropOp30
 70
     1
102
RTVSPost2010Prop31
280
     0
102
RTVSPost2010PropOp31
 70
     1
102
RTVSPost2010Prop32
280
     0
102
RTVSPost2010PropOp32
 70
     1
102
RTVSPost2010Prop33
280
     0
102
RTVSPost2010PropOp33
 70
     1
102
RTVSPost2010Prop34
280
     0
102
RTVSPost2010PropOp34
 70
     1
102
RTVSPost2010Prop35
280
     0
102
RTVSPost2010PropOp35
 70
     1
102
RTVSPost2010Prop36
280
     0
102
RTVSPost2010PropOp36
 70
     1
102
RTVSPost2010Prop37
 90
       50
102
RTVSPost2010PropOp37
 70
     1
102
RTVSPost2010Prop38
140
0.0
102
RTVSPost2010PropOp38
 70
     1
102
RTVSPost2010Prop39
140
1.0
102
RTVSPost2010PropOp39
 70
     1
102
RTVSPost2010Prop40
 90
        0
102
RTVSPost2010PropOp40
 70
     1
102
RTVSPost2010Prop41ColorIndex
 90
       18
102
RTVSPost2010Prop41ColorRGB
 90
        0
102
RTVSPost2010PropOp41
 70
     1
102
RTVSPost2010Prop42
 90
       50
102
RTVSPost2010PropOp42
 70
     1
102
RTVSPost2010Prop43
 90
        3
102
RTVSPost2010PropOp43
 70
     1
102
RTVSPost2010Prop44ColorIndex
 90
        5
102
RTVSPost2010Prop44ColorRGB
 90
      255
102
RTVSPost2010PropOp44
 70
     1
102
RTVSPost2010Prop45
280
     0
102
RTVSPost2010PropOp45
 70
     1
102
RTVSPost2010Prop46
 90
       50
102
RTVSPost2010PropOp46
 70
     1
102
RTVSPost2010Prop47
 90
       50
102
RTVSPost2010PropOp47
 70
     1
102
RTVSPost2010Prop48
 90
       50
102
RTVSPost2010PropOp48
 70
     1
102
RTVSPost2010Prop49
280
     0
102
RTVSPost2010PropOp49
 70
     1
102
RTVSPost2010Prop50
 90
       50
102
RTVSPost2010PropOp50
 70
     1
102
RTVSPost2010Prop51ColorIndex
 90
      256
102
RTVSPost2010Prop51ColorRGB
 90
-16777216
102
RTVSPost2010PropOp51
 70
     0
102
RTVSPost2010Prop52
140
1.0
102
RTVSPost2010PropOp52
 70
     0
102
RTVSPost2010Prop53
 90
        2
102
RTVSPost2010PropOp53
 70
     1
102
RTVSPost2010Prop54
  1
strokes_ogs.tif
102
RTVSPost2010PropOp54
 70
     1
102
RTVSPost2010Prop55
280
     0
102
RTVSPost2010PropOp55
 70
     1
102
RTVSPost2010Prop56
140
1.0
102
RTVSPost2010PropOp56
 70
     1
102
RTVSPost2010Prop57
140
1.0
102
RTVSPost2010PropOp57
 70
     1
102
RTVSPropertyOp0
 70
     1
102
RTVSPropertyOp1
 70
     1
102
RTVSPropertyOp2
 70
     1
102
RTVSPropertyOp3
 70
     1
102
RTVSPropertyOp4
 70
     1
102
RTVSPropertyOp5
 70
     1
102
RTVSPropertyOp6
 70
     1
102
RTVSPropertyOp7
 70
     1
102
RTVSPropertyOp8
 70
     1
102
RTVSPropertyOp9
 70
     1
102
RTVSPropertyOp10
 70
     1
102
RTVSPropertyOp11
 70
     1
102
RTVSPropertyOp12
 70
     1
102
RTVSPropertyOp13
 70
     1
102
RTVSPropertyOp14
 70
     1
102
RTVSPropertyOp15
 70
     1
102
RTVSPropertyOp16
 70
     1
102
RTVSPropertyOp17
 70
     1
102
RTVSPropertyOp18
 70
     1
102
RTVSPropertyOp19
 70
     1
102
RTVSPropertyOp20
 70
     1
102
RTVSPropertyOp21
 70
     1
102
RTVSPropertyOp22
 70
     1
102
RTVSPropertyOp23
 70
     1
102
RTVSPropertyOp24
 70
     1
102
RTVSPropertyOp25
 70
     1
102
RTVSPropertyOp26
 70
     1
102
RTVSPropertyOp27
 70
     1
102
RTVSPropertyOp28
 70
     1
102
RTVSPropertyOp29
 70
     1
102
RTVSPropertyOp30
 70
     1
102
RTVSPropertyOp31
 70
     1
102
RTVSPropertyOp32
 70
     1
102
RTVSPropertyOp33
 70
     1
102
RTVSPropertyOp34
 70
     1
102
RTVSPropertyOp35
 70
     1
102
RTVSPropertyOp36
 70
     1
102
RTVSPropertyOp37
 70
     1
102
RTVSPropertyOp38
 70
     1
102
RTVSPropertyOp39
 70
     1
102
RTVSPropertyOp40
 70
     1
102
RTVSPropertyOp41
 70
     1
102
RTVSPropertyOp42
 70
     1
102
RTVSPropertyOp43
 70
     1
102
RTVSPropertyOp44
 70
     1
102
RTVSPropertyOp45
 70
     1
102
RTVSPropertyOp46
 70
     1
102
RTVSPropertyOp47
 70
     1
102
RTVSPropertyOp48
 70
     1
102
RTVSPropertyOp49
 70
     1
102
RTVSPropertyOp50
 70
     1
102
RTVSPropertyOp51
 70
     0
102
RTVSPropertyOp52
 70
     0
102
RTVSPropertyOp53
 70
     1
102
RTVSPropertyOp54
 70
     1
102
RTVSPropertyOp55
 70
     1
102
RTVSPropertyOp56
 70
     1
102
RTVSPropertyOp57
 70
     1
102
RTVSPropertyOp58
 70
     1
102
RTVSPropertyOp59
 70
     1
102
RTVSPropertyOp60
 70
     1
102
RTVSPropertyOp61
 70
     1
102
RTVSPropertyOp62
 70
     1
  0
XRECORD
  5
E057
102
{ACAD_REACTORS
330
E056
102
}
330
E056
100
AcDbXrecord
280
     1
102
RTVSPost2010Prop28
280
     0
102
RTVSPost2010PropOp28
 70
     1
102
RTVSPost2010Prop29
280
     1
102
RTVSPost2010PropOp29
 70
     1
102
RTVSPost2010Prop30
280
     1
102
RTVSPost2010PropOp30
 70
     1
102
RTVSPost2010Prop31
280
     0
102
RTVSPost2010PropOp31
 70
     1
102
RTVSPost2010Prop32
280
     0
102
RTVSPost2010PropOp32
 70
     1
102
RTVSPost2010Prop33
280
     0
102
RTVSPost2010PropOp33
 70
     1
102
RTVSPost2010Prop34
280
     0
102
RTVSPost2010PropOp34
 70
     1
102
RTVSPost2010Prop35
280
     0
102
RTVSPost2010PropOp35
 70
     1
102
RTVSPost2010Prop36
280
     0
102
RTVSPost2010PropOp36
 70
     1
102
RTVSPost2010Prop37
 90
       50
102
RTVSPost2010PropOp37
 70
     1
102
RTVSPost2010Prop38
140
0.0
102
RTVSPost2010PropOp38
 70
     1
102
RTVSPost2010Prop39
140
1.0
102
RTVSPost2010PropOp39
 70
     1
102
RTVSPost2010Prop40
 90
        0
102
RTVSPost2010PropOp40
 70
     1
102
RTVSPost2010Prop41ColorIndex
 90
       18
102
RTVSPost2010Prop41ColorRGB
 90
        0
102
RTVSPost2010PropOp41
 70
     1
102
RTVSPost2010Prop42
 90
       50
102
RTVSPost2010PropOp42
 70
     1
102
RTVSPost2010Prop43
 90
        3
102
RTVSPost2010PropOp43
 70
     1
102
RTVSPost2010Prop44ColorIndex
 90
        5
102
RTVSPost2010Prop44ColorRGB
 90
      255
102
RTVSPost2010PropOp44
 70
     1
102
RTVSPost2010Prop45
280
     0
102
RTVSPost2010PropOp45
 70
     1
102
RTVSPost2010Prop46
 90
       50
102
RTVSPost2010PropOp46
 70
     1
102
RTVSPost2010Prop47
 90
       50
102
RTVSPost2010PropOp47
 70
     1
102
RTVSPost2010Prop48
 90
       50
102
RTVSPost2010PropOp48
 70
     1
102
RTVSPost2010Prop49
280
     0
102
RTVSPost2010PropOp49
 70
     1
102
RTVSPost2010Prop50
 90
       50
102
RTVSPost2010PropOp50
 70
     1
102
RTVSPost2010Prop51ColorIndex
 90
      256
102
RTVSPost2010Prop51ColorRGB
 90
-16777216
102
RTVSPost2010PropOp51
 70
     0
102
RTVSPost2010Prop52
140
1.0
102
RTVSPost2010PropOp52
 70
     0
102
RTVSPost2010Prop53
 90
        2
102
RTVSPost2010PropOp53
 70
     1
102
RTVSPost2010Prop54
  1
strokes_ogs.tif
102
RTVSPost2010PropOp54
 70
     1
102
RTVSPost2010Prop55
280
     0
102
RTVSPost2010PropOp55
 70
     1
102
RTVSPost2010Prop56
140
1.0
102
RTVSPost2010PropOp56
 70
     1
102
RTVSPost2010Prop57
140
1.0
102
RTVSPost2010PropOp57
 70
     1
102
RTVSPropertyOp0
 70
     1
102
RTVSPropertyOp1
 70
     1
102
RTVSPropertyOp2
 70
     1
102
RTVSPropertyOp3
 70
     1
102
RTVSPropertyOp4
 70
     1
102
RTVSPropertyOp5
 70
     1
102
RTVSPropertyOp6
 70
     1
102
RTVSPropertyOp7
 70
     1
102
RTVSPropertyOp8
 70
     1
102
RTVSPropertyOp9
 70
     1
102
RTVSPropertyOp10
 70
     1
102
RTVSPropertyOp11
 70
     1
102
RTVSPropertyOp12
 70
     1
102
RTVSPropertyOp13
 70
     1
102
RTVSPropertyOp14
 70
     1
102
RTVSPropertyOp15
 70
     1
102
RTVSPropertyOp16
 70
     1
102
RTVSPropertyOp17
 70
     1
102
RTVSPropertyOp18
 70
     1
102
RTVSPropertyOp19
 70
     1
102
RTVSPropertyOp20
 70
     1
102
RTVSPropertyOp21
 70
     1
102
RTVSPropertyOp22
 70
     1
102
RTVSPropertyOp23
 70
     1
102
RTVSPropertyOp24
 70
     1
102
RTVSPropertyOp25
 70
     1
102
RTVSPropertyOp26
 70
     1
102
RTVSPropertyOp27
 70
     1
102
RTVSPropertyOp28
 70
     1
102
RTVSPropertyOp29
 70
     1
102
RTVSPropertyOp30
 70
     1
102
RTVSPropertyOp31
 70
     1
102
RTVSPropertyOp32
 70
     1
102
RTVSPropertyOp33
 70
     1
102
RTVSPropertyOp34
 70
     1
102
RTVSPropertyOp35
 70
     1
102
RTVSPropertyOp36
 70
     1
102
RTVSPropertyOp37
 70
     1
102
RTVSPropertyOp38
 70
     1
102
RTVSPropertyOp39
 70
     1
102
RTVSPropertyOp40
 70
     1
102
RTVSPropertyOp41
 70
     1
102
RTVSPropertyOp42
 70
     1
102
RTVSPropertyOp43
 70
     1
102
RTVSPropertyOp44
 70
     1
102
RTVSPropertyOp45
 70
     1
102
RTVSPropertyOp46
 70
     1
102
RTVSPropertyOp47
 70
     1
102
RTVSPropertyOp48
 70
     1
102
RTVSPropertyOp49
 70
     1
102
RTVSPropertyOp50
 70
     1
102
RTVSPropertyOp51
 70
     0
102
RTVSPropertyOp52
 70
     0
102
RTVSPropertyOp53
 70
     1
102
RTVSPropertyOp54
 70
     1
102
RTVSPropertyOp55
 70
     1
102
RTVSPropertyOp56
 70
     1
102
RTVSPropertyOp57
 70
     1
102
RTVSPropertyOp58
 70
     1
102
RTVSPropertyOp59
 70
     1
102
RTVSPropertyOp60
 70
     1
102
RTVSPropertyOp61
 70
     1
102
RTVSPropertyOp62
 70
     1
  0
XRECORD
  5
E06F
102
{ACAD_REACTORS
330
E06E
102
}
330
E06E
100
AcDbXrecord
280
     1
102
RTVSPost2010Prop28
280
     0
102
RTVSPost2010PropOp28
 70
     1
102
RTVSPost2010Prop29
280
     1
102
RTVSPost2010PropOp29
 70
     1
102
RTVSPost2010Prop30
280
     1
102
RTVSPost2010PropOp30
 70
     1
102
RTVSPost2010Prop31
280
     0
102
RTVSPost2010PropOp31
 70
     1
102
RTVSPost2010Prop32
280
     0
102
RTVSPost2010PropOp32
 70
     1
102
RTVSPost2010Prop33
280
     0
102
RTVSPost2010PropOp33
 70
     1
102
RTVSPost2010Prop34
280
     0
102
RTVSPost2010PropOp34
 70
     1
102
RTVSPost2010Prop35
280
     0
102
RTVSPost2010PropOp35
 70
     1
102
RTVSPost2010Prop36
280
     0
102
RTVSPost2010PropOp36
 70
     1
102
RTVSPost2010Prop37
 90
       50
102
RTVSPost2010PropOp37
 70
     1
102
RTVSPost2010Prop38
140
0.0
102
RTVSPost2010PropOp38
 70
     1
102
RTVSPost2010Prop39
140
1.0
102
RTVSPost2010PropOp39
 70
     1
102
RTVSPost2010Prop40
 90
        0
102
RTVSPost2010PropOp40
 70
     1
102
RTVSPost2010Prop41ColorIndex
 90
       18
102
RTVSPost2010Prop41ColorRGB
 90
        0
102
RTVSPost2010PropOp41
 70
     1
102
RTVSPost2010Prop42
 90
       50
102
RTVSPost2010PropOp42
 70
     1
102
RTVSPost2010Prop43
 90
        3
102
RTVSPost2010PropOp43
 70
     1
102
RTVSPost2010Prop44ColorIndex
 90
        5
102
RTVSPost2010Prop44ColorRGB
 90
      255
102
RTVSPost2010PropOp44
 70
     1
102
RTVSPost2010Prop45
280
     0
102
RTVSPost2010PropOp45
 70
     1
102
RTVSPost2010Prop46
 90
       50
102
RTVSPost2010PropOp46
 70
     1
102
RTVSPost2010Prop47
 90
       50
102
RTVSPost2010PropOp47
 70
     1
102
RTVSPost2010Prop48
 90
       50
102
RTVSPost2010PropOp48
 70
     1
102
RTVSPost2010Prop49
280
     0
102
RTVSPost2010PropOp49
 70
     1
102
RTVSPost2010Prop50
 90
       50
102
RTVSPost2010PropOp50
 70
     1
102
RTVSPost2010Prop51ColorIndex
 90
      256
102
RTVSPost2010Prop51ColorRGB
 90
-16777216
102
RTVSPost2010PropOp51
 70
     0
102
RTVSPost2010Prop52
140
1.0
102
RTVSPost2010PropOp52
 70
     0
102
RTVSPost2010Prop53
 90
        2
102
RTVSPost2010PropOp53
 70
     1
102
RTVSPost2010Prop54
  1
strokes_ogs.tif
102
RTVSPost2010PropOp54
 70
     1
102
RTVSPost2010Prop55
280
     0
102
RTVSPost2010PropOp55
 70
     1
102
RTVSPost2010Prop56
140
1.0
102
RTVSPost2010PropOp56
 70
     1
102
RTVSPost2010Prop57
140
1.0
102
RTVSPost2010PropOp57
 70
     1
102
RTVSPropertyOp0
 70
     1
102
RTVSPropertyOp1
 70
     1
102
RTVSPropertyOp2
 70
     1
102
RTVSPropertyOp3
 70
     1
102
RTVSPropertyOp4
 70
     1
102
RTVSPropertyOp5
 70
     1
102
RTVSPropertyOp6
 70
     1
102
RTVSPropertyOp7
 70
     1
102
RTVSPropertyOp8
 70
     1
102
RTVSPropertyOp9
 70
     1
102
RTVSPropertyOp10
 70
     1
102
RTVSPropertyOp11
 70
     1
102
RTVSPropertyOp12
 70
     1
102
RTVSPropertyOp13
 70
     1
102
RTVSPropertyOp14
 70
     1
102
RTVSPropertyOp15
 70
     1
102
RTVSPropertyOp16
 70
     1
102
RTVSPropertyOp17
 70
     1
102
RTVSPropertyOp18
 70
     1
102
RTVSPropertyOp19
 70
     1
102
RTVSPropertyOp20
 70
     1
102
RTVSPropertyOp21
 70
     1
102
RTVSPropertyOp22
 70
     1
102
RTVSPropertyOp23
 70
     1
102
RTVSPropertyOp24
 70
     1
102
RTVSPropertyOp25
 70
     1
102
RTVSPropertyOp26
 70
     1
102
RTVSPropertyOp27
 70
     1
102
RTVSPropertyOp28
 70
     1
102
RTVSPropertyOp29
 70
     1
102
RTVSPropertyOp30
 70
     1
102
RTVSPropertyOp31
 70
     1
102
RTVSPropertyOp32
 70
     1
102
RTVSPropertyOp33
 70
     1
102
RTVSPropertyOp34
 70
     1
102
RTVSPropertyOp35
 70
     1
102
RTVSPropertyOp36
 70
     1
102
RTVSPropertyOp37
 70
     1
102
RTVSPropertyOp38
 70
     1
102
RTVSPropertyOp39
 70
     1
102
RTVSPropertyOp40
 70
     1
102
RTVSPropertyOp41
 70
     1
102
RTVSPropertyOp42
 70
     1
102
RTVSPropertyOp43
 70
     1
102
RTVSPropertyOp44
 70
     1
102
RTVSPropertyOp45
 70
     1
102
RTVSPropertyOp46
 70
     1
102
RTVSPropertyOp47
 70
     1
102
RTVSPropertyOp48
 70
     1
102
RTVSPropertyOp49
 70
     1
102
RTVSPropertyOp50
 70
     1
102
RTVSPropertyOp51
 70
     0
102
RTVSPropertyOp52
 70
     0
102
RTVSPropertyOp53
 70
     1
102
RTVSPropertyOp54
 70
     1
102
RTVSPropertyOp55
 70
     1
102
RTVSPropertyOp56
 70
     1
102
RTVSPropertyOp57
 70
     1
102
RTVSPropertyOp58
 70
     1
102
RTVSPropertyOp59
 70
     1
102
RTVSPropertyOp60
 70
     1
102
RTVSPropertyOp61
 70
     1
102
RTVSPropertyOp62
 70
     1
  0
ENDSEC
  0
EOF
