  0
SECTION
  2
HEADER
  9
$ACADVER
  1
AC1015
  9
$ACADMAINTVER
 70
    10
  9
$DWGCODEPAGE
  3
ANSI_932
  9
$INSBASE
 10
0.0
 20
0.0
 30
0.0
  9
$EXTMIN
 10
-89.5460487772998
 20
-557.3840353210402
 30
-0.0000000349181948
  9
$EXTMAX
 10
658.1381658313817
 20
501.2876521309122
 30
0.0000000814935747
  9
$LIMMIN
 10
-137.0
 20
-558.0
  9
$LIMMAX
 10
685.0
 20
495.0
  9
$ORTHOMODE
 70
     1
  9
$REGENMODE
 70
     1
  9
$FILLMODE
 70
     1
  9
$QTEXTMODE
 70
     0
  9
$MIRRTEXT
 70
     1
  9
$LTSCALE
 40
10.0
  9
$ATTMODE
 70
     1
  9
$TEXTSIZE
 40
5.0
  9
$TRACEWID
 40
0.05
  9
$TEXTSTYLE
  7
STANDARD1
  9
$CLAYER
  8
30
  9
$CELTYPE
  6
CONTINUOUS
  9
$CECOLOR
 62
   256
  9
$CELTSCALE
 40
1.0
  9
$DISPSILH
 70
     0
  9
$DIMSCALE
 40
1.0
  9
$DIMASZ
 40
2.0
  9
$DIMEXO
 40
3.0
  9
$DIMDLI
 40
0.5
  9
$DIMRND
 40
0.0
  9
$DIMDLE
 40
0.0
  9
$DIMEXE
 40
0.5
  9
$DIMTP
 40
0.0
  9
$DIMTM
 40
0.0
  9
$DIMTXT
 40
6.0
  9
$DIMCEN
 40
0.09
  9
$DIMTSZ
 40
0.0
  9
$DIMTOL
 70
     0
  9
$DIMLIM
 70
     0
  9
$DIMTIH
 70
     0
  9
$DIMTOH
 70
     1
  9
$DIMSE1
 70
     0
  9
$DIMSE2
 70
     0
  9
$DIMTAD
 70
     3
  9
$DIMZIN
 70
    12
  9
$DIMBLK
  1
OPEN
  9
$DIMASO
 70
     1
  9
$DIMSHO
 70
     1
  9
$DIMPOST
  1

  9
$DIMAPOST
  1

  9
$DIMALT
 70
     0
  9
$DIMALTD
 70
     2
  9
$DIMALTF
 40
25.4
  9
$DIMLFAC
 40
1.0
  9
$DIMTOFL
 70
     0
  9
$DIMTVP
 40
0.0
  9
$DIMTIX
 70
     0
  9
$DIMSOXD
 70
     0
  9
$DIMSAH
 70
     0
  9
$DIMBLK1
  1

  9
$DIMBLK2
  1

  9
$DIMSTYLE
  2
STANDARD1
  9
$DIMCLRD
 70
     0
  9
$DIMCLRE
 70
     0
  9
$DIMCLRT
 70
     0
  9
$DIMTFAC
 40
1.0
  9
$DIMGAP
 40
3.0
  9
$DIMJUST
 70
     0
  9
$DIMSD1
 70
     0
  9
$DIMSD2
 70
     0
  9
$DIMTOLJ
 70
     1
  9
$DIMTZIN
 70
     0
  9
$DIMALTZ
 70
     0
  9
$DIMALTTZ
 70
     0
  9
$DIMUPT
 70
     0
  9
$DIMDEC
 70
     1
  9
$DIMTDEC
 70
     1
  9
$DIMALTU
 70
     2
  9
$DIMALTTD
 70
     2
  9
$DIMTXSTY
  7
STANDARD
  9
$DIMAUNIT
 70
     0
  9
$DIMADEC
 70
     0
  9
$DIMALTRND
 40
0.0
  9
$DIMAZIN
 70
     0
  9
$DIMDSEP
 70
    46
  9
$DIMATFIT
 70
     2
  9
$DIMFRAC
 70
     0
  9
$DIMLDRBLK
  1
OPEN
  9
$DIMLUNIT
 70
     2
  9
$DIMLWD
 70
    -2
  9
$DIMLWE
 70
    -2
  9
$DIMTMOVE
 70
     0
  9
$LUNITS
 70
     2
  9
$LUPREC
 70
     3
  9
$SKETCHINC
 40
0.1
  9
$FILLETRAD
 40
0.0
  9
$AUNITS
 70
     0
  9
$AUPREC
 70
     0
  9
$MENU
  1
.
  9
$ELEVATION
 40
0.0
  9
$PELEVATION
 40
0.0
  9
$THICKNESS
 40
0.0
  9
$LIMCHECK
 70
     0
  9
$CHAMFERA
 40
0.0
  9
$CHAMFERB
 40
0.0
  9
$CHAMFERC
 40
0.0
  9
$CHAMFERD
 40
0.0
  9
$SKPOLY
 70
     0
  9
$TDCREATE
 40
2452286.555658657
  9
$TDUCREATE
 40
2452286.180658657
  9
$TDUPDATE
 40
2454700.768963935
  9
$TDUUPDATE
 40
2454700.393963935
  9
$TDINDWG
 40
1.6682984606
  9
$TDUSRTIMER
 40
1.6682936227
  9
$USRTIMER
 70
     1
  9
$ANGBASE
 50
0.0
  9
$ANGDIR
 70
     0
  9
$PDMODE
 70
     0
  9
$PDSIZE
 40
0.0
  9
$PLINEWID
 40
0.0
  9
$SPLFRAME
 70
     0
  9
$SPLINETYPE
 70
     6
  9
$SPLINESEGS
 70
     8
  9
$HANDSEED
  5
C45D
  9
$SURFTAB1
 70
     6
  9
$SURFTAB2
 70
     6
  9
$SURFTYPE
 70
     6
  9
$SURFU
 70
     6
  9
$SURFV
 70
     6
  9
$UCSBASE
  2

  9
$UCSNAME
  2

  9
$UCSORG
 10
0.0
 20
0.0
 30
0.0
  9
$UCSXDIR
 10
1.0
 20
0.0
 30
0.0
  9
$UCSYDIR
 10
0.0
 20
1.0
 30
0.0
  9
$UCSORTHOREF
  2

  9
$UCSORTHOVIEW
 70
     0
  9
$UCSORGTOP
 10
0.0
 20
0.0
 30
0.0
  9
$UCSORGBOTTOM
 10
0.0
 20
0.0
 30
0.0
  9
$UCSORGLEFT
 10
0.0
 20
0.0
 30
0.0
  9
$UCSORGRIGHT
 10
0.0
 20
0.0
 30
0.0
  9
$UCSORGFRONT
 10
0.0
 20
0.0
 30
0.0
  9
$UCSORGBACK
 10
0.0
 20
0.0
 30
0.0
  9
$PUCSBASE
  2

  9
$PUCSNAME
  2

  9
$PUCSORG
 10
0.0
 20
0.0
 30
0.0
  9
$PUCSXDIR
 10
1.0
 20
0.0
 30
0.0
  9
$PUCSYDIR
 10
0.0
 20
1.0
 30
0.0
  9
$PUCSORTHOREF
  2

  9
$PUCSORTHOVIEW
 70
     0
  9
$PUCSORGTOP
 10
0.0
 20
0.0
 30
0.0
  9
$PUCSORGBOTTOM
 10
0.0
 20
0.0
 30
0.0
  9
$PUCSORGLEFT
 10
0.0
 20
0.0
 30
0.0
  9
$PUCSORGRIGHT
 10
0.0
 20
0.0
 30
0.0
  9
$PUCSORGFRONT
 10
0.0
 20
0.0
 30
0.0
  9
$PUCSORGBACK
 10
0.0
 20
0.0
 30
0.0
  9
$USERI1
 70
     0
  9
$USERI2
 70
     0
  9
$USERI3
 70
     0
  9
$USERI4
 70
     0
  9
$USERI5
 70
     0
  9
$USERR1
 40
0.0
  9
$USERR2
 40
0.0
  9
$USERR3
 40
0.0
  9
$USERR4
 40
0.0
  9
$USERR5
 40
0.0
  9
$WORLDVIEW
 70
     1
  9
$SHADEDGE
 70
     3
  9
$SHADEDIF
 70
    70
  9
$TILEMODE
 70
     1
  9
$MAXACTVP
 70
    48
  9
$PINSBASE
 10
0.0
 20
0.0
 30
0.0
  9
$PLIMCHECK
 70
     0
  9
$PEXTMIN
 10
4.273573
 20
5.205245999999998
 30
0.0
  9
$PEXTMAX
 10
194.610095
 20
283.0697009999996
 30
0.0
  9
$PLIMMIN
 10
-5.873749
 20
-5.87375
  9
$PLIMMAX
 10
204.099579
 20
291.1369009999999
  9
$UNITMODE
 70
     0
  9
$VISRETAIN
 70
     1
  9
$PLINEGEN
 70
     0
  9
$PSLTSCALE
 70
     1
  9
$TREEDEPTH
 70
  3020
  9
$CMLSTYLE
  2
STANDARD
  9
$CMLJUST
 70
     0
  9
$CMLSCALE
 40
1.0
  9
$PROXYGRAPHICS
 70
     1
  9
$MEASUREMENT
 70
     0
  9
$CELWEIGHT
370
    -1
  9
$ENDCAPS
280
     0
  9
$JOINSTYLE
280
     0
  9
$LWDISPLAY
290
     0
  9
$INSUNITS
 70
     0
  9
$HYPERLINKBASE
  1

  9
$STYLESHEET
  1
monochrome.ctb
  9
$XEDIT
290
     1
  9
$CEPSNTYPE
380
     0
  9
$PSTYLEMODE
290
     1
  9
$FINGERPRINTGUID
  2

  9
$VERSIONGUID
  2
{DC2BF64E-590E-4B70-988D-05B9CE50E899}
  9
$EXTNAMES
290
     1
  9
$PSVPSCALE
 40
0.0
  9
$OLESTARTUP
290
     0
  0
ENDSEC
  0
SECTION
  2
CLASSES
  0
CLASS
  1
ACDBDICTIONARYWDFLT
  2
AcDbDictionaryWithDefault
  3
AutoCAD 2000
 90
        0
280
     0
281
     0
  0
CLASS
  1
ACDBPLACEHOLDER
  2
AcDbPlaceHolder
  3
AutoCAD 2000
 90
        0
280
     0
281
     0
  0
CLASS
  1
LAYOUT
  2
AcDbLayout
  3
AutoCAD 2000
 90
        0
280
     0
281
     0
  0
CLASS
  1
LONG_TRANSACTION
  2
AcDbLongTransaction
  3
AutoCAD 2000
 90
    32768
280
     0
281
     0
  0
CLASS
  1
LWPOLYLINE
  2
AcDbPolyline
  3
AutoCAD 2000
 90
    32768
280
     0
281
     1
  0
CLASS
  1
HATCH
  2
AcDbHatch
  3
AutoCAD 2000
 90
    32768
280
     0
281
     1
  0
CLASS
  1
XRECORD
  2
AcDbXrecord
  3
AutoCAD 2000
 90
    32768
280
     0
281
     0
  0
CLASS
  1
LONG_TRANSACTION
  2
AcDbLongTransaction
  3
AutoCAD 2000
 90
    32768
280
     0
281
     0
  0
CLASS
  1
LWPOLYLINE
  2
AcDbPolyline
  3
AutoCAD 2000
 90
    32768
280
     0
281
     1
  0
CLASS
  1
HATCH
  2
AcDbHatch
  3
AutoCAD 2000
 90
    32768
280
     0
281
     1
  0
CLASS
  1
XRECORD
  2
AcDbXrecord
  3
AutoCAD 2000
 90
    32768
280
     0
281
     0
  0
CLASS
  1
LONG_TRANSACTION
  2
AcDbLongTransaction
  3
AutoCAD 2000
 90
    32768
280
     0
281
     0
  0
CLASS
  1
LWPOLYLINE
  2
AcDbPolyline
  3
AutoCAD 2000
 90
    32768
280
     0
281
     1
  0
CLASS
  1
HATCH
  2
AcDbHatch
  3
AutoCAD 2000
 90
    32768
280
     0
281
     1
  0
CLASS
  1
XRECORD
  2
AcDbXrecord
  3
AutoCAD 2000
 90
    32768
280
     0
281
     0
  0
CLASS
  1
LONG_TRANSACTION
  2
AcDbLongTransaction
  3
AutoCAD 2000
 90
    32768
280
     0
281
     0
  0
CLASS
  1
LWPOLYLINE
  2
AcDbPolyline
  3
AutoCAD 2000
 90
    32768
280
     0
281
     1
  0
CLASS
  1
HATCH
  2
AcDbHatch
  3
AutoCAD 2000
 90
    32768
280
     0
281
     1
  0
CLASS
  1
XRECORD
  2
AcDbXrecord
  3
AutoCAD 2000
 90
    32768
280
     0
281
     0
  0
CLASS
  1
LONG_TRANSACTION
  2
AcDbLongTransaction
  3
AutoCAD 2000
 90
    32768
280
     0
281
     0
  0
CLASS
  1
LWPOLYLINE
  2
AcDbPolyline
  3
AutoCAD 2000
 90
    32768
280
     0
281
     1
  0
CLASS
  1
HATCH
  2
AcDbHatch
  3
AutoCAD 2000
 90
    32768
280
     0
281
     1
  0
CLASS
  1
XRECORD
  2
AcDbXrecord
  3
AutoCAD 2000
 90
    32768
280
     0
281
     0
  0
CLASS
  1
LONG_TRANSACTION
  2
AcDbLongTransaction
  3
AutoCAD 2000
 90
    32768
280
     0
281
     0
  0
CLASS
  1
LWPOLYLINE
  2
AcDbPolyline
  3
AutoCAD 2000
 90
    32768
280
     0
281
     1
  0
CLASS
  1
HATCH
  2
AcDbHatch
  3
AutoCAD 2000
 90
    32768
280
     0
281
     1
  0
CLASS
  1
XRECORD
  2
AcDbXrecord
  3
AutoCAD 2000
 90
    32768
280
     0
281
     0
  0
CLASS
  1
LONG_TRANSACTION
  2
AcDbLongTransaction
  3
AutoCAD 2000
 90
    32768
280
     0
281
     0
  0
CLASS
  1
LWPOLYLINE
  2
AcDbPolyline
  3
AutoCAD 2000
 90
    32768
280
     0
281
     1
  0
CLASS
  1
HATCH
  2
AcDbHatch
  3
AutoCAD 2000
 90
    32768
280
     0
281
     1
  0
CLASS
  1
XRECORD
  2
AcDbXrecord
  3
AutoCAD 2000
 90
    32768
280
     0
281
     0
  0
CLASS
  1
LONG_TRANSACTION
  2
AcDbLongTransaction
  3
AutoCAD 2000
 90
    32768
280
     0
281
     0
  0
CLASS
  1
LWPOLYLINE
  2
AcDbPolyline
  3
AutoCAD 2000
 90
    32768
280
     0
281
     1
  0
CLASS
  1
HATCH
  2
AcDbHatch
  3
AutoCAD 2000
 90
    32768
280
     0
281
     1
  0
CLASS
  1
XRECORD
  2
AcDbXrecord
  3
AutoCAD 2000
 90
    32768
280
     0
281
     0
  0
CLASS
  1
LONG_TRANSACTION
  2
AcDbLongTransaction
  3
AutoCAD 2000
 90
    32768
280
     0
281
     0
  0
CLASS
  1
LWPOLYLINE
  2
AcDbPolyline
  3
AutoCAD 2000
 90
    32768
280
     0
281
     1
  0
CLASS
  1
HATCH
  2
AcDbHatch
  3
AutoCAD 2000
 90
    32768
280
     0
281
     1
  0
CLASS
  1
XRECORD
  2
AcDbXrecord
  3
AutoCAD 2000
 90
    32768
280
     0
281
     0
  0
CLASS
  1
LONG_TRANSACTION
  2
AcDbLongTransaction
  3
AutoCAD 2000
 90
    32768
280
     0
281
     0
  0
CLASS
  1
LWPOLYLINE
  2
AcDbPolyline
  3
AutoCAD 2000
 90
    32768
280
     0
281
     1
  0
CLASS
  1
HATCH
  2
AcDbHatch
  3
AutoCAD 2000
 90
    32768
280
     0
281
     1
  0
CLASS
  1
XRECORD
  2
AcDbXrecord
  3
AutoCAD 2000
 90
    32768
280
     0
281
     0
  0
CLASS
  1
LONG_TRANSACTION
  2
AcDbLongTransaction
  3
AutoCAD 2000
 90
    32768
280
     0
281
     0
  0
CLASS
  1
LWPOLYLINE
  2
AcDbPolyline
  3
AutoCAD 2000
 90
    32768
280
     0
281
     1
  0
CLASS
  1
HATCH
  2
AcDbHatch
  3
AutoCAD 2000
 90
    32768
280
     0
281
     1
  0
CLASS
  1
XRECORD
  2
AcDbXrecord
  3
AutoCAD 2000
 90
    32768
280
     0
281
     0
  0
CLASS
  1
LONG_TRANSACTION
  2
AcDbLongTransaction
  3
AutoCAD 2000
 90
    32768
280
     0
281
     0
  0
CLASS
  1
LWPOLYLINE
  2
AcDbPolyline
  3
AutoCAD 2000
 90
    32768
280
     0
281
     1
  0
CLASS
  1
HATCH
  2
AcDbHatch
  3
AutoCAD 2000
 90
    32768
280
     0
281
     1
  0
CLASS
  1
XRECORD
  2
AcDbXrecord
  3
AutoCAD 2000
 90
    32768
280
     0
281
     0
  0
CLASS
  1
LONG_TRANSACTION
  2
AcDbLongTransaction
  3
AutoCAD 2000
 90
    32768
280
     0
281
     0
  0
CLASS
  1
LWPOLYLINE
  2
AcDbPolyline
  3
AutoCAD 2000
 90
    32768
280
     0
281
     1
  0
CLASS
  1
HATCH
  2
AcDbHatch
  3
AutoCAD 2000
 90
    32768
280
     0
281
     1
  0
CLASS
  1
XRECORD
  2
AcDbXrecord
  3
AutoCAD 2000
 90
    32768
280
     0
281
     0
  0
CLASS
  1
LONG_TRANSACTION
  2
AcDbLongTransaction
  3
AutoCAD 2000
 90
    32768
280
     0
281
     0
  0
CLASS
  1
LWPOLYLINE
  2
AcDbPolyline
  3
AutoCAD 2000
 90
    32768
280
     0
281
     1
  0
CLASS
  1
HATCH
  2
AcDbHatch
  3
AutoCAD 2000
 90
    32768
280
     0
281
     1
  0
CLASS
  1
XRECORD
  2
AcDbXrecord
  3
AutoCAD 2000
 90
    32768
280
     0
281
     0
  0
CLASS
  1
LONG_TRANSACTION
  2
AcDbLongTransaction
  3
AutoCAD 2000
 90
    32768
280
     0
281
     0
  0
CLASS
  1
LWPOLYLINE
  2
AcDbPolyline
  3
AutoCAD 2000
 90
    32768
280
     0
281
     1
  0
CLASS
  1
HATCH
  2
AcDbHatch
  3
AutoCAD 2000
 90
    32768
280
     0
281
     1
  0
CLASS
  1
XRECORD
  2
AcDbXrecord
  3
AutoCAD 2000
 90
    32768
280
     0
281
     0
  0
CLASS
  1
LONG_TRANSACTION
  2
AcDbLongTransaction
  3
AutoCAD 2000
 90
    32768
280
     0
281
     0
  0
CLASS
  1
LWPOLYLINE
  2
AcDbPolyline
  3
AutoCAD 2000
 90
    32768
280
     0
281
     1
  0
CLASS
  1
HATCH
  2
AcDbHatch
  3
AutoCAD 2000
 90
    32768
280
     0
281
     1
  0
CLASS
  1
XRECORD
  2
AcDbXrecord
  3
AutoCAD 2000
 90
    32768
280
     0
281
     0
  0
CLASS
  1
LONG_TRANSACTION
  2
AcDbLongTransaction
  3
AutoCAD 2000
 90
    32768
280
     0
281
     0
  0
CLASS
  1
LWPOLYLINE
  2
AcDbPolyline
  3
AutoCAD 2000
 90
    32768
280
     0
281
     1
  0
CLASS
  1
HATCH
  2
AcDbHatch
  3
AutoCAD 2000
 90
    32768
280
     0
281
     1
  0
CLASS
  1
XRECORD
  2
AcDbXrecord
  3
AutoCAD 2000
 90
    32768
280
     0
281
     0
  0
CLASS
  1
LONG_TRANSACTION
  2
AcDbLongTransaction
  3
AutoCAD 2000
 90
    32768
280
     0
281
     0
  0
CLASS
  1
LWPOLYLINE
  2
AcDbPolyline
  3
AutoCAD 2000
 90
    32768
280
     0
281
     1
  0
CLASS
  1
HATCH
  2
AcDbHatch
  3
AutoCAD 2000
 90
    32768
280
     0
281
     1
  0
CLASS
  1
XRECORD
  2
AcDbXrecord
  3
AutoCAD 2000
 90
    32768
280
     0
281
     0
  0
CLASS
  1
LONG_TRANSACTION
  2
AcDbLongTransaction
  3
AutoCAD 2000
 90
    32768
280
     0
281
     0
  0
CLASS
  1
LWPOLYLINE
  2
AcDbPolyline
  3
AutoCAD 2000
 90
    32768
280
     0
281
     1
  0
CLASS
  1
HATCH
  2
AcDbHatch
  3
AutoCAD 2000
 90
    32768
280
     0
281
     1
  0
CLASS
  1
XRECORD
  2
AcDbXrecord
  3
AutoCAD 2000
 90
    32768
280
     0
281
     0
  0
CLASS
  1
LONG_TRANSACTION
  2
AcDbLongTransaction
  3
AutoCAD 2000
 90
    32768
280
     0
281
     0
  0
CLASS
  1
LWPOLYLINE
  2
AcDbPolyline
  3
AutoCAD 2000
 90
    32768
280
     0
281
     1
  0
CLASS
  1
HATCH
  2
AcDbHatch
  3
AutoCAD 2000
 90
    32768
280
     0
281
     1
  0
CLASS
  1
XRECORD
  2
AcDbXrecord
  3
AutoCAD 2000
 90
    32768
280
     0
281
     0
  0
CLASS
  1
LONG_TRANSACTION
  2
AcDbLongTransaction
  3
AutoCAD 2000
 90
    32768
280
     0
281
     0
  0
CLASS
  1
LWPOLYLINE
  2
AcDbPolyline
  3
AutoCAD 2000
 90
    32768
280
     0
281
     1
  0
CLASS
  1
HATCH
  2
AcDbHatch
  3
AutoCAD 2000
 90
    32768
280
     0
281
     1
  0
CLASS
  1
XRECORD
  2
AcDbXrecord
  3
AutoCAD 2000
 90
    32768
280
     0
281
     0
  0
CLASS
  1
LONG_TRANSACTION
  2
AcDbLongTransaction
  3
AutoCAD 2000
 90
    32768
280
     0
281
     0
  0
CLASS
  1
LWPOLYLINE
  2
AcDbPolyline
  3
AutoCAD 2000
 90
    32768
280
     0
281
     1
  0
CLASS
  1
HATCH
  2
AcDbHatch
  3
AutoCAD 2000
 90
    32768
280
     0
281
     1
  0
CLASS
  1
XRECORD
  2
AcDbXrecord
  3
AutoCAD 2000
 90
    32768
280
     0
281
     0
  0
CLASS
  1
LONG_TRANSACTION
  2
AcDbLongTransaction
  3
AutoCAD 2000
 90
    32768
280
     0
281
     0
  0
CLASS
  1
LWPOLYLINE
  2
AcDbPolyline
  3
AutoCAD 2000
 90
    32768
280
     0
281
     1
  0
CLASS
  1
HATCH
  2
AcDbHatch
  3
AutoCAD 2000
 90
    32768
280
     0
281
     1
  0
CLASS
  1
XRECORD
  2
AcDbXrecord
  3
AutoCAD 2000
 90
    32768
280
     0
281
     0
  0
CLASS
  1
LONG_TRANSACTION
  2
AcDbLongTransaction
  3
AutoCAD 2000
 90
    32768
280
     0
281
     0
  0
CLASS
  1
LWPOLYLINE
  2
AcDbPolyline
  3
AutoCAD 2000
 90
    32768
280
     0
281
     1
  0
CLASS
  1
HATCH
  2
AcDbHatch
  3
AutoCAD 2000
 90
    32768
280
     0
281
     1
  0
CLASS
  1
XRECORD
  2
AcDbXrecord
  3
AutoCAD 2000
 90
    32768
280
     0
281
     0
  0
CLASS
  1
LONG_TRANSACTION
  2
AcDbLongTransaction
  3
AutoCAD 2000
 90
    32768
280
     0
281
     0
  0
CLASS
  1
LWPOLYLINE
  2
AcDbPolyline
  3
AutoCAD 2000
 90
    32768
280
     0
281
     1
  0
CLASS
  1
HATCH
  2
AcDbHatch
  3
AutoCAD 2000
 90
    32768
280
     0
281
     1
  0
CLASS
  1
XRECORD
  2
AcDbXrecord
  3
AutoCAD 2000
 90
    32768
280
     0
281
     0
  0
CLASS
  1
LONG_TRANSACTION
  2
AcDbLongTransaction
  3
AutoCAD 2000
 90
    32768
280
     0
281
     0
  0
CLASS
  1
LWPOLYLINE
  2
AcDbPolyline
  3
AutoCAD 2000
 90
    32768
280
     0
281
     1
  0
CLASS
  1
HATCH
  2
AcDbHatch
  3
AutoCAD 2000
 90
    32768
280
     0
281
     1
  0
CLASS
  1
XRECORD
  2
AcDbXrecord
  3
AutoCAD 2000
 90
    32768
280
     0
281
     0
  0
CLASS
  1
LONG_TRANSACTION
  2
AcDbLongTransaction
  3
AutoCAD 2000
 90
    32768
280
     0
281
     0
  0
CLASS
  1
LWPOLYLINE
  2
AcDbPolyline
  3
AutoCAD 2000
 90
    32768
280
     0
281
     1
  0
CLASS
  1
HATCH
  2
AcDbHatch
  3
AutoCAD 2000
 90
    32768
280
     0
281
     1
  0
CLASS
  1
XRECORD
  2
AcDbXrecord
  3
AutoCAD 2000
 90
    32768
280
     0
281
     0
  0
CLASS
  1
LONG_TRANSACTION
  2
AcDbLongTransaction
  3
AutoCAD 2000
 90
    32768
280
     0
281
     0
  0
CLASS
  1
LWPOLYLINE
  2
AcDbPolyline
  3
AutoCAD 2000
 90
    32768
280
     0
281
     1
  0
CLASS
  1
HATCH
  2
AcDbHatch
  3
AutoCAD 2000
 90
    32768
280
     0
281
     1
  0
CLASS
  1
XRECORD
  2
AcDbXrecord
  3
AutoCAD 2000
 90
    32768
280
     0
281
     0
  0
CLASS
  1
LONG_TRANSACTION
  2
AcDbLongTransaction
  3
AutoCAD 2000
 90
    32768
280
     0
281
     0
  0
CLASS
  1
LWPOLYLINE
  2
AcDbPolyline
  3
AutoCAD 2000
 90
    32768
280
     0
281
     1
  0
CLASS
  1
HATCH
  2
AcDbHatch
  3
AutoCAD 2000
 90
    32768
280
     0
281
     1
  0
CLASS
  1
XRECORD
  2
AcDbXrecord
  3
AutoCAD 2000
 90
    32768
280
     0
281
     0
  0
CLASS
  1
LONG_TRANSACTION
  2
AcDbLongTransaction
  3
AutoCAD 2000
 90
    32768
280
     0
281
     0
  0
CLASS
  1
LWPOLYLINE
  2
AcDbPolyline
  3
AutoCAD 2000
 90
    32768
280
     0
281
     1
  0
CLASS
  1
HATCH
  2
AcDbHatch
  3
AutoCAD 2000
 90
    32768
280
     0
281
     1
  0
CLASS
  1
XRECORD
  2
AcDbXrecord
  3
AutoCAD 2000
 90
    32768
280
     0
281
     0
  0
CLASS
  1
LONG_TRANSACTION
  2
AcDbLongTransaction
  3
AutoCAD 2000
 90
    32768
280
     0
281
     0
  0
CLASS
  1
LWPOLYLINE
  2
AcDbPolyline
  3
AutoCAD 2000
 90
    32768
280
     0
281
     1
  0
CLASS
  1
HATCH
  2
AcDbHatch
  3
AutoCAD 2000
 90
    32768
280
     0
281
     1
  0
CLASS
  1
XRECORD
  2
AcDbXrecord
  3
AutoCAD 2000
 90
    32768
280
     0
281
     0
  0
CLASS
  1
LONG_TRANSACTION
  2
AcDbLongTransaction
  3
AutoCAD 2000
 90
    32768
280
     0
281
     0
  0
CLASS
  1
LWPOLYLINE
  2
AcDbPolyline
  3
AutoCAD 2000
 90
    32768
280
     0
281
     1
  0
CLASS
  1
HATCH
  2
AcDbHatch
  3
AutoCAD 2000
 90
    32768
280
     0
281
     1
  0
CLASS
  1
XRECORD
  2
AcDbXrecord
  3
AutoCAD 2000
 90
    32768
280
     0
281
     0
  0
CLASS
  1
LONG_TRANSACTION
  2
AcDbLongTransaction
  3
AutoCAD 2000
 90
    32768
280
     0
281
     0
  0
CLASS
  1
LWPOLYLINE
  2
AcDbPolyline
  3
AutoCAD 2000
 90
    32768
280
     0
281
     1
  0
CLASS
  1
HATCH
  2
AcDbHatch
  3
AutoCAD 2000
 90
    32768
280
     0
281
     1
  0
CLASS
  1
XRECORD
  2
AcDbXrecord
  3
AutoCAD 2000
 90
    32768
280
     0
281
     0
  0
CLASS
  1
DICTIONARYVAR
  2
AcDbDictionaryVar
  3
AutoCAD 2000
 90
        0
280
     0
281
     0
  0
CLASS
  1
LONG_TRANSACTION
  2
AcDbLongTransaction
  3
AutoCAD 2000
 90
    32768
280
     0
281
     0
  0
CLASS
  1
LWPOLYLINE
  2
AcDbPolyline
  3
AutoCAD 2000
 90
    32768
280
     0
281
     1
  0
CLASS
  1
HATCH
  2
AcDbHatch
  3
AutoCAD 2000
 90
    32768
280
     0
281
     1
  0
CLASS
  1
XRECORD
  2
AcDbXrecord
  3
AutoCAD 2000
 90
    32768
280
     0
281
     0
  0
CLASS
  1
LONG_TRANSACTION
  2
AcDbLongTransaction
  3
AutoCAD 2000
 90
    32768
280
     0
281
     0
  0
CLASS
  1
LWPOLYLINE
  2
AcDbPolyline
  3
AutoCAD 2000
 90
    32768
280
     0
281
     1
  0
CLASS
  1
HATCH
  2
AcDbHatch
  3
AutoCAD 2000
 90
    32768
280
     0
281
     1
  0
CLASS
  1
XRECORD
  2
AcDbXrecord
  3
AutoCAD 2000
 90
    32768
280
     0
281
     0
  0
CLASS
  1
LONG_TRANSACTION
  2
AcDbLongTransaction
  3
AutoCAD 2000
 90
    32768
280
     0
281
     0
  0
CLASS
  1
LWPOLYLINE
  2
AcDbPolyline
  3
AutoCAD 2000
 90
    32768
280
     0
281
     1
  0
CLASS
  1
HATCH
  2
AcDbHatch
  3
AutoCAD 2000
 90
    32768
280
     0
281
     1
  0
CLASS
  1
XRECORD
  2
AcDbXrecord
  3
AutoCAD 2000
 90
    32768
280
     0
281
     0
  0
CLASS
  1
LONG_TRANSACTION
  2
AcDbLongTransaction
  3
AutoCAD 2000
 90
    32768
280
     0
281
     0
  0
CLASS
  1
LWPOLYLINE
  2
AcDbPolyline
  3
AutoCAD 2000
 90
    32768
280
     0
281
     1
  0
CLASS
  1
HATCH
  2
AcDbHatch
  3
AutoCAD 2000
 90
    32768
280
     0
281
     1
  0
CLASS
  1
XRECORD
  2
AcDbXrecord
  3
AutoCAD 2000
 90
    32768
280
     0
281
     0
  0
CLASS
  1
LONG_TRANSACTION
  2
AcDbLongTransaction
  3
AutoCAD 2000
 90
    32768
280
     0
281
     0
  0
CLASS
  1
LWPOLYLINE
  2
AcDbPolyline
  3
AutoCAD 2000
 90
    32768
280
     0
281
     1
  0
CLASS
  1
HATCH
  2
AcDbHatch
  3
AutoCAD 2000
 90
    32768
280
     0
281
     1
  0
CLASS
  1
XRECORD
  2
AcDbXrecord
  3
AutoCAD 2000
 90
    32768
280
     0
281
     0
  0
CLASS
  1
LONG_TRANSACTION
  2
AcDbLongTransaction
  3
AutoCAD 2000
 90
    32768
280
     0
281
     0
  0
CLASS
  1
LWPOLYLINE
  2
AcDbPolyline
  3
AutoCAD 2000
 90
    32768
280
     0
281
     1
  0
CLASS
  1
HATCH
  2
AcDbHatch
  3
AutoCAD 2000
 90
    32768
280
     0
281
     1
  0
CLASS
  1
XRECORD
  2
AcDbXrecord
  3
AutoCAD 2000
 90
    32768
280
     0
281
     0
  0
CLASS
  1
LONG_TRANSACTION
  2
AcDbLongTransaction
  3
AutoCAD 2000
 90
    32768
280
     0
281
     0
  0
CLASS
  1
LWPOLYLINE
  2
AcDbPolyline
  3
AutoCAD 2000
 90
    32768
280
     0
281
     1
  0
CLASS
  1
HATCH
  2
AcDbHatch
  3
AutoCAD 2000
 90
    32768
280
     0
281
     1
  0
CLASS
  1
XRECORD
  2
AcDbXrecord
  3
AutoCAD 2000
 90
    32768
280
     0
281
     0
  0
CLASS
  1
LONG_TRANSACTION
  2
AcDbLongTransaction
  3
AutoCAD 2000
 90
    32768
280
     0
281
     0
  0
CLASS
  1
LWPOLYLINE
  2
AcDbPolyline
  3
AutoCAD 2000
 90
    32768
280
     0
281
     1
  0
CLASS
  1
HATCH
  2
AcDbHatch
  3
AutoCAD 2000
 90
    32768
280
     0
281
     1
  0
CLASS
  1
XRECORD
  2
AcDbXrecord
  3
AutoCAD 2000
 90
    32768
280
     0
281
     0
  0
CLASS
  1
LONG_TRANSACTION
  2
AcDbLongTransaction
  3
AutoCAD 2000
 90
    32768
280
     0
281
     0
  0
CLASS
  1
LWPOLYLINE
  2
AcDbPolyline
  3
AutoCAD 2000
 90
    32768
280
     0
281
     1
  0
CLASS
  1
HATCH
  2
AcDbHatch
  3
AutoCAD 2000
 90
    32768
280
     0
281
     1
  0
CLASS
  1
XRECORD
  2
AcDbXrecord
  3
AutoCAD 2000
 90
    32768
280
     0
281
     0
  0
CLASS
  1
LONG_TRANSACTION
  2
AcDbLongTransaction
  3
AutoCAD 2000
 90
    32768
280
     0
281
     0
  0
CLASS
  1
LWPOLYLINE
  2
AcDbPolyline
  3
AutoCAD 2000
 90
    32768
280
     0
281
     1
  0
CLASS
  1
HATCH
  2
AcDbHatch
  3
AutoCAD 2000
 90
    32768
280
     0
281
     1
  0
CLASS
  1
XRECORD
  2
AcDbXrecord
  3
AutoCAD 2000
 90
    32768
280
     0
281
     0
  0
CLASS
  1
LONG_TRANSACTION
  2
AcDbLongTransaction
  3
AutoCAD 2000
 90
    32768
280
     0
281
     0
  0
CLASS
  1
LWPOLYLINE
  2
AcDbPolyline
  3
AutoCAD 2000
 90
    32768
280
     0
281
     1
  0
CLASS
  1
HATCH
  2
AcDbHatch
  3
AutoCAD 2000
 90
    32768
280
     0
281
     1
  0
CLASS
  1
XRECORD
  2
AcDbXrecord
  3
AutoCAD 2000
 90
    32768
280
     0
281
     0
  0
CLASS
  1
LONG_TRANSACTION
  2
AcDbLongTransaction
  3
AutoCAD 2000
 90
    32768
280
     0
281
     0
  0
CLASS
  1
LWPOLYLINE
  2
AcDbPolyline
  3
AutoCAD 2000
 90
    32768
280
     0
281
     1
  0
CLASS
  1
HATCH
  2
AcDbHatch
  3
AutoCAD 2000
 90
    32768
280
     0
281
     1
  0
CLASS
  1
XRECORD
  2
AcDbXrecord
  3
AutoCAD 2000
 90
    32768
280
     0
281
     0
  0
CLASS
  1
LONG_TRANSACTION
  2
AcDbLongTransaction
  3
AutoCAD 2000
 90
    32768
280
     0
281
     0
  0
CLASS
  1
LWPOLYLINE
  2
AcDbPolyline
  3
AutoCAD 2000
 90
    32768
280
     0
281
     1
  0
CLASS
  1
HATCH
  2
AcDbHatch
  3
AutoCAD 2000
 90
    32768
280
     0
281
     1
  0
CLASS
  1
XRECORD
  2
AcDbXrecord
  3
AutoCAD 2000
 90
    32768
280
     0
281
     0
  0
CLASS
  1
LONG_TRANSACTION
  2
AcDbLongTransaction
  3
AutoCAD 2000
 90
    32768
280
     0
281
     0
  0
CLASS
  1
LWPOLYLINE
  2
AcDbPolyline
  3
AutoCAD 2000
 90
    32768
280
     0
281
     1
  0
CLASS
  1
HATCH
  2
AcDbHatch
  3
AutoCAD 2000
 90
    32768
280
     0
281
     1
  0
CLASS
  1
XRECORD
  2
AcDbXrecord
  3
AutoCAD 2000
 90
    32768
280
     0
281
     0
  0
CLASS
  1
LONG_TRANSACTION
  2
AcDbLongTransaction
  3
AutoCAD 2000
 90
    32768
280
     0
281
     0
  0
CLASS
  1
LWPOLYLINE
  2
AcDbPolyline
  3
AutoCAD 2000
 90
    32768
280
     0
281
     1
  0
CLASS
  1
HATCH
  2
AcDbHatch
  3
AutoCAD 2000
 90
    32768
280
     0
281
     1
  0
CLASS
  1
XRECORD
  2
AcDbXrecord
  3
AutoCAD 2000
 90
    32768
280
     0
281
     0
  0
CLASS
  1
LONG_TRANSACTION
  2
AcDbLongTransaction
  3
AutoCAD 2000
 90
    32768
280
     0
281
     0
  0
CLASS
  1
LWPOLYLINE
  2
AcDbPolyline
  3
AutoCAD 2000
 90
    32768
280
     0
281
     1
  0
CLASS
  1
HATCH
  2
AcDbHatch
  3
AutoCAD 2000
 90
    32768
280
     0
281
     1
  0
CLASS
  1
XRECORD
  2
AcDbXrecord
  3
AutoCAD 2000
 90
    32768
280
     0
281
     0
  0
CLASS
  1
LONG_TRANSACTION
  2
AcDbLongTransaction
  3
AutoCAD 2000
 90
    32768
280
     0
281
     0
  0
CLASS
  1
LWPOLYLINE
  2
AcDbPolyline
  3
AutoCAD 2000
 90
    32768
280
     0
281
     1
  0
CLASS
  1
HATCH
  2
AcDbHatch
  3
AutoCAD 2000
 90
    32768
280
     0
281
     1
  0
CLASS
  1
XRECORD
  2
AcDbXrecord
  3
AutoCAD 2000
 90
    32768
280
     0
281
     0
  0
ENDSEC
  0
SECTION
  2
TABLES
  0
TABLE
  2
VPORT
  5
8
330
0
100
AcDbSymbolTable
 70
     3
  0
VPORT
  5
C43B
330
8
100
AcDbSymbolTableRecord
100
AcDbViewportTableRecord
  2
*Active
 70
     0
 10
0.0
 20
0.0
 11
1.0
 21
1.0
 12
284.2960585270409
 22
-28.04819159506405
 13
0.0
 23
0.0
 14
1.0
 24
1.0
 15
10.0
 25
10.0
 16
0.0
 26
0.0
 36
1.0
 17
0.0
 27
0.0
 37
0.0
 40
1066.591924515184
 41
1.123595505617977
 42
50.0
 43
0.0
 44
0.0
 50
0.0
 51
0.0
 71
     0
 72
   100
 73
     1
 74
     1
 75
     1
 76
     0
 77
     0
 78
     0
281
     0
 65
     1
110
0.0
120
0.0
130
0.0
111
1.0
121
0.0
131
0.0
112
0.0
122
1.0
132
0.0
 79
     0
146
0.0
  0
ENDTAB
  0
TABLE
  2
LTYPE
  5
5
330
0
100
AcDbSymbolTable
 70
     6
  0
LTYPE
  5
13
330
5
100
AcDbSymbolTableRecord
100
AcDbLinetypeTableRecord
  2
BYBLOCK
 70
     0
  3

 72
    65
 73
     0
 40
0.0
  0
LTYPE
  5
14
330
5
100
AcDbSymbolTableRecord
100
AcDbLinetypeTableRecord
  2
BYLAYER
 70
     0
  3

 72
    65
 73
     0
 40
0.0
  0
LTYPE
  5
15
330
5
100
AcDbSymbolTableRecord
100
AcDbLinetypeTableRecord
  2
CONTINUOUS
 70
     0
  3
Solid line
 72
    65
 73
     0
 40
0.0
  0
LTYPE
  5
22
330
5
100
AcDbSymbolTableRecord
100
AcDbLinetypeTableRecord
  2
CONTINOUS
 70
     0
  3
Solid line
 72
    65
 73
     0
 40
0.0
  0
LTYPE
  5
23
330
5
100
AcDbSymbolTableRecord
100
AcDbLinetypeTableRecord
  2
DASHED
 70
     0
  3
__ __ __ __ __ __ __ __ __ __ __ __ __ __ __
 72
    65
 73
     2
 40
0.75
 49
0.5
 74
     0
 49
-0.25
 74
     0
  0
LTYPE
  5
24
330
5
100
AcDbSymbolTableRecord
100
AcDbLinetypeTableRecord
  2
DASHDOT
 70
     0
  3
__ . __ . __ . __ . __ . __ . __ . __ . __ . __
 72
    65
 73
     4
 40
1.0
 49
0.5
 74
     0
 49
-0.25
 74
     0
 49
0.0
 74
     0
 49
-0.25
 74
     0
  0
LTYPE
  5
4C47
330
5
100
AcDbSymbolTableRecord
100
AcDbLinetypeTableRecord
  2
DIVIDE
 70
     0
  3
Divide ____ . . ____ . . ____ . . ____ . . ____
 72
    65
 73
     6
 40
1.25
 49
0.5
 74
     0
 49
-0.25
 74
     0
 49
0.0
 74
     0
 49
-0.25
 74
     0
 49
0.0
 74
     0
 49
-0.25
 74
     0
  0
LTYPE
  5
6265
330
5
100
AcDbSymbolTableRecord
100
AcDbLinetypeTableRecord
  2
CENTER
 70
     0
  3
Center ____ _ ____ _ ____ _ ____ _ ____ _ ____
 72
    65
 73
     4
 40
50.8
 49
31.75
 74
     0
 49
-6.349999999999997
 74
     0
 49
6.349999999999997
 74
     0
 49
-6.349999999999997
 74
     0
  0
ENDTAB
  0
TABLE
  2
LAYER
  5
2
330
0
100
AcDbSymbolTable
 70
    12
  0
LAYER
  5
10
330
2
100
AcDbSymbolTableRecord
100
AcDbLayerTableRecord
  2
0
 70
     0
 62
     7
  6
CONTINOUS
370
    -3
390
F
  0
LAYER
  5
2F
330
2
100
AcDbSymbolTableRecord
100
AcDbLayerTableRecord
  2
10
 70
     0
 62
     4
  6
CONTINOUS
370
    -3
390
F
  0
LAYER
  5
31
330
2
100
AcDbSymbolTableRecord
100
AcDbLayerTableRecord
  2
12
 70
     0
 62
     3
  6
CONTINOUS
370
    -3
390
F
  0
LAYER
  5
35
330
2
100
AcDbSymbolTableRecord
100
AcDbLayerTableRecord
  2
16
 70
     0
 62
     6
  6
DASHDOT
370
    -3
390
F
  0
LAYER
  5
38
330
2
100
AcDbSymbolTableRecord
100
AcDbLayerTableRecord
  2
19
 70
     0
 62
     7
  6
CONTINOUS
370
    -3
390
F
  0
LAYER
  5
3D
330
2
100
AcDbSymbolTableRecord
100
AcDbLayerTableRecord
  2
24
 70
     0
 62
     2
  6
CONTINOUS
370
    -3
390
F
  0
LAYER
  5
3A2
330
2
100
AcDbSymbolTableRecord
100
AcDbLayerTableRecord
  2
30
 70
     0
 62
     9
  6
CONTINUOUS
370
    -3
390
F
  0
LAYER
  5
3A4
330
2
100
AcDbSymbolTableRecord
100
AcDbLayerTableRecord
  2
DEFPOINTS
 70
     0
 62
     7
  6
CONTINUOUS
290
     0
370
    -3
390
F
  0
LAYER
  5
3BBA
330
2
100
AcDbSymbolTableRecord
100
AcDbLayerTableRecord
  2
18
 70
     0
 62
     5
  6
DIVIDE
370
    -3
390
F
  0
LAYER
  5
7837
330
2
100
AcDbSymbolTableRecord
100
AcDbLayerTableRecord
  2
17
 70
     0
 62
     2
  6
DASHDOT
370
    -3
390
F
  0
LAYER
  5
7BC8
330
2
100
AcDbSymbolTableRecord
100
AcDbLayerTableRecord
  2
1
 70
     0
 62
     7
  6
CONTINUOUS
370
    -3
390
F
  0
LAYER
  5
8A0F
330
2
100
AcDbSymbolTableRecord
100
AcDbLayerTableRecord
  2
21
 70
     0
 62
     7
  6
CONTINUOUS
370
    -3
390
F
  0
ENDTAB
  0
TABLE
  2
STYLE
  5
3
330
0
100
AcDbSymbolTable
 70
     2
  0
STYLE
  5
11
330
3
100
AcDbSymbolTableRecord
100
AcDbTextStyleTableRecord
  2
STANDARD
 70
     0
 40
0.0
 41
1.0
 50
0.0
 71
     0
 42
2.0
  3
txt.shx
  4
bigfont.shx
  0
STYLE
  5
42
330
3
100
AcDbSymbolTableRecord
100
AcDbTextStyleTableRecord
  2
STANDARD1
 70
     0
 40
0.0
 41
1.0
 50
0.0
 71
     0
 42
5.0
  3
MONOTXT
  4
BIGFONT
  0
ENDTAB
  0
TABLE
  2
VIEW
  5
6
330
0
100
AcDbSymbolTable
 70
     3
  0
VIEW
  5
230C
330
6
100
AcDbSymbolTableRecord
100
AcDbViewTableRecord
  2
OLE1
 70
     0
 40
148.912488
 10
429.497628
 20
2.560627
 41
103.145806
 11
0.0
 21
0.0
 31
1.0
 12
0.0
 22
0.0
 32
0.0
 42
50.0
 43
0.0
 44
0.0
 50
0.0
 71
     0
281
     0
 72
     0
  0
VIEW
  5
230E
330
6
100
AcDbSymbolTableRecord
100
AcDbViewTableRecord
  2
OLE2
 70
     0
 40
170.778692
 10
322.66497
 20
-5.978304
 41
102.467215
 11
0.0
 21
0.0
 31
1.0
 12
0.0
 22
0.0
 32
0.0
 42
50.0
 43
0.0
 44
0.0
 50
0.0
 71
     0
281
     0
 72
     0
  0
VIEW
  5
23AA
330
6
100
AcDbSymbolTableRecord
100
AcDbViewTableRecord
  2
OLE3
 70
     0
 40
591.7897389999998
 10
84.79698199999999
 20
-46.09335999999998
 41
388.792096
 11
0.0
 21
0.0
 31
1.0
 12
0.0
 22
0.0
 32
0.0
 42
50.0
 43
0.0
 44
0.0
 50
0.0
 71
     0
281
     0
 72
     0
  0
ENDTAB
  0
TABLE
  2
UCS
  5
7
330
0
100
AcDbSymbolTable
 70
     0
  0
ENDTAB
  0
TABLE
  2
APPID
  5
9
330
0
100
AcDbSymbolTable
 70
     2
  0
APPID
  5
12
330
9
100
AcDbSymbolTableRecord
100
AcDbRegAppTableRecord
  2
ACAD
 70
     0
  0
APPID
  5
ECD
330
9
100
AcDbSymbolTableRecord
100
AcDbRegAppTableRecord
  2
CONTENTBLOCKICON
 70
     0
  0
ENDTAB
  0
TABLE
  2
DIMSTYLE
  5
A
330
0
100
AcDbSymbolTable
 70
     2
100
AcDbDimStyleTable
 71
     2
340
B557
340
175
  0
DIMSTYLE
105
175
330
A
100
AcDbSymbolTableRecord
100
AcDbDimStyleTableRecord
  2
STANDARD
 70
     0
 41
2.0
 42
1.0
 43
0.5
 44
0.5
 73
     0
 77
     3
 78
    12
140
6.0
147
1.0
271
     1
272
     1
340
11
341
3B2
342
3B2
  0
DIMSTYLE
105
B557
102
{ACAD_REACTORS
330
B0DA
330
B09B
330
AF8B
330
AF7E
330
AE89
330
AA15
330
A9DB
330
A950
330
A94F
330
A94E
330
A94D
330
A92E
330
A86C
330
A12B
330
A12A
330
A07B
330
A073
330
A05F
330
A04D
330
A04C
330
9EDD
330
9EDC
330
9EDB
330
9ED5
330
9EC2
330
9EA4
330
9EA3
330
9E9C
330
9E9B
330
9E9A
330
9E99
330
9E90
330
9E8F
330
9E8E
330
9E8C
330
9E8B
330
BAA4
330
BCC2
330
C1D2
102
}
330
A
100
AcDbSymbolTableRecord
100
AcDbDimStyleTableRecord
  2
STANDARD1
 70
     0
 41
2.0
 42
3.0
 43
0.5
 44
0.5
 73
     0
 77
     3
 78
    12
140
6.0
147
3.0
271
     1
272
     1
289
     2
340
11
341
3B2
342
3B2
  0
ENDTAB
  0
TABLE
  2
BLOCK_RECORD
  5
1
330
0
100
AcDbSymbolTable
 70
    43
  0
BLOCK_RECORD
  5
1E
102
{ACAD_XDICTIONARY
360
178
102
}
330
1
100
AcDbSymbolTableRecord
100
AcDbBlockTableRecord
  2
*MODEL_SPACE
340
9913
  0
BLOCK_RECORD
  5
1A
102
{ACAD_XDICTIONARY
360
17A
102
}
330
1
100
AcDbSymbolTableRecord
100
AcDbBlockTableRecord
  2
*PAPER_SPACE
340
9914
  0
BLOCK_RECORD
  5
3B2
330
1
100
AcDbSymbolTableRecord
100
AcDbBlockTableRecord
  2
_OPEN
340
0
102
{BLKREFS
331
BAF2
331
BAF3
331
BBD5
331
BBD6
331
BBDE
331
BBDF
331
BBF3
331
BBF4
331
BC1F
331
BC20
331
BC31
331
BC32
331
C152
331
C153
331
C15B
331
C15C
331
C164
331
C165
331
C16D
331
C16E
331
C176
331
C177
331
C17F
331
C180
331
C187
331
C188
331
C190
331
C191
331
C199
331
C19A
331
C1A2
331
C1A9
331
C1BA
331
C29C
331
C29D
331
C2A5
331
C2A6
331
C2AE
331
C2AF
331
C2B9
331
C2BA
331
C2C2
331
C2C3
331
C2CB
331
C2CC
331
C2D4
331
C2D5
331
C2DD
331
C2DE
331
C2E5
331
C2E6
331
C2EE
331
C2EF
331
C2F7
331
C2F8
331
C300
331
C301
331
C309
331
C30A
331
C312
331
C313
331
C31B
331
C31C
331
C326
331
C327
331
C32F
331
C330
331
C338
331
C339
331
C341
331
C342
331
C35C
331
C35D
331
C365
331
C366
331
C36E
331
C36F
331
C428
331
C429
331
C431
331
C432
102
}
  0
BLOCK_RECORD
  5
A138
330
1
100
AcDbSymbolTableRecord
100
AcDbBlockTableRecord
  2
*D1
340
0
  0
BLOCK_RECORD
  5
A144
330
1
100
AcDbSymbolTableRecord
100
AcDbBlockTableRecord
  2
*D2
340
0
  0
BLOCK_RECORD
  5
A15B
330
1
100
AcDbSymbolTableRecord
100
AcDbBlockTableRecord
  2
*D3
340
0
  0
BLOCK_RECORD
  5
A168
330
1
100
AcDbSymbolTableRecord
100
AcDbBlockTableRecord
  2
*D4
340
0
  0
BLOCK_RECORD
  5
A174
330
1
100
AcDbSymbolTableRecord
100
AcDbBlockTableRecord
  2
*D5
340
0
  0
BLOCK_RECORD
  5
A198
330
1
100
AcDbSymbolTableRecord
100
AcDbBlockTableRecord
  2
*D6
340
0
  0
BLOCK_RECORD
  5
A1A4
330
1
100
AcDbSymbolTableRecord
100
AcDbBlockTableRecord
  2
*D7
340
0
  0
BLOCK_RECORD
  5
A1B0
330
1
100
AcDbSymbolTableRecord
100
AcDbBlockTableRecord
  2
*D8
340
0
  0
BLOCK_RECORD
  5
A1BD
330
1
100
AcDbSymbolTableRecord
100
AcDbBlockTableRecord
  2
*D9
340
0
  0
BLOCK_RECORD
  5
A1EE
330
1
100
AcDbSymbolTableRecord
100
AcDbBlockTableRecord
  2
*D10
340
0
  0
BLOCK_RECORD
  5
A1FA
330
1
100
AcDbSymbolTableRecord
100
AcDbBlockTableRecord
  2
*D11
340
0
  0
BLOCK_RECORD
  5
A212
330
1
100
AcDbSymbolTableRecord
100
AcDbBlockTableRecord
  2
*D12
340
0
  0
BLOCK_RECORD
  5
A229
330
1
100
AcDbSymbolTableRecord
100
AcDbBlockTableRecord
  2
*D13
340
0
  0
BLOCK_RECORD
  5
A237
330
1
100
AcDbSymbolTableRecord
100
AcDbBlockTableRecord
  2
*D14
340
0
  0
BLOCK_RECORD
  5
A244
330
1
100
AcDbSymbolTableRecord
100
AcDbBlockTableRecord
  2
*D15
340
0
  0
BLOCK_RECORD
  5
A251
330
1
100
AcDbSymbolTableRecord
100
AcDbBlockTableRecord
  2
*D16
340
0
  0
BLOCK_RECORD
  5
A33F
330
1
100
AcDbSymbolTableRecord
100
AcDbBlockTableRecord
  2
*D17
340
0
  0
BLOCK_RECORD
  5
A34A
330
1
100
AcDbSymbolTableRecord
100
AcDbBlockTableRecord
  2
*D18
340
0
  0
BLOCK_RECORD
  5
A357
330
1
100
AcDbSymbolTableRecord
100
AcDbBlockTableRecord
  2
*D19
340
0
  0
BLOCK_RECORD
  5
A364
330
1
100
AcDbSymbolTableRecord
100
AcDbBlockTableRecord
  2
*D20
340
0
  0
BLOCK_RECORD
  5
A370
330
1
100
AcDbSymbolTableRecord
100
AcDbBlockTableRecord
  2
*D21
340
0
  0
BLOCK_RECORD
  5
A3BB
330
1
100
AcDbSymbolTableRecord
100
AcDbBlockTableRecord
  2
*D22
340
0
  0
BLOCK_RECORD
  5
A3C7
330
1
100
AcDbSymbolTableRecord
100
AcDbBlockTableRecord
  2
*D23
340
0
  0
BLOCK_RECORD
  5
A86F
330
1
100
AcDbSymbolTableRecord
100
AcDbBlockTableRecord
  2
*D24
340
0
  0
BLOCK_RECORD
  5
A87B
330
1
100
AcDbSymbolTableRecord
100
AcDbBlockTableRecord
  2
*D25
340
0
  0
BLOCK_RECORD
  5
A92F
330
1
100
AcDbSymbolTableRecord
100
AcDbBlockTableRecord
  2
*D26
340
0
  0
BLOCK_RECORD
  5
A951
330
1
100
AcDbSymbolTableRecord
100
AcDbBlockTableRecord
  2
*D27
340
0
  0
BLOCK_RECORD
  5
A95D
330
1
100
AcDbSymbolTableRecord
100
AcDbBlockTableRecord
  2
*D28
340
0
  0
BLOCK_RECORD
  5
A969
330
1
100
AcDbSymbolTableRecord
100
AcDbBlockTableRecord
  2
*D29
340
0
  0
BLOCK_RECORD
  5
A975
330
1
100
AcDbSymbolTableRecord
100
AcDbBlockTableRecord
  2
*D30
340
0
  0
BLOCK_RECORD
  5
A9DC
330
1
100
AcDbSymbolTableRecord
100
AcDbBlockTableRecord
  2
*D31
340
0
  0
BLOCK_RECORD
  5
AA16
330
1
100
AcDbSymbolTableRecord
100
AcDbBlockTableRecord
  2
*D32
340
0
  0
BLOCK_RECORD
  5
AE8A
330
1
100
AcDbSymbolTableRecord
100
AcDbBlockTableRecord
  2
*D33
340
0
  0
BLOCK_RECORD
  5
AF7F
330
1
100
AcDbSymbolTableRecord
100
AcDbBlockTableRecord
  2
*D34
340
0
  0
BLOCK_RECORD
  5
AF8C
330
1
100
AcDbSymbolTableRecord
100
AcDbBlockTableRecord
  2
*D35
340
0
  0
BLOCK_RECORD
  5
B09C
330
1
100
AcDbSymbolTableRecord
100
AcDbBlockTableRecord
  2
*D36
340
0
  0
BLOCK_RECORD
  5
B0DB
330
1
100
AcDbSymbolTableRecord
100
AcDbBlockTableRecord
  2
*D37
340
0
  0
BLOCK_RECORD
  5
BAA5
330
1
100
AcDbSymbolTableRecord
100
AcDbBlockTableRecord
  2
*D38
340
0
  0
BLOCK_RECORD
  5
BCC3
330
1
100
AcDbSymbolTableRecord
100
AcDbBlockTableRecord
  2
*D39
340
0
  0
BLOCK_RECORD
  5
C1D3
330
1
100
AcDbSymbolTableRecord
100
AcDbBlockTableRecord
  2
*D40
340
0
  0
ENDTAB
  0
ENDSEC
  0
SECTION
  2
BLOCKS
  0
BLOCK
  5
1F
330
1E
100
AcDbEntity
  8
0
100
AcDbBlockBegin
  2
*MODEL_SPACE
 70
     0
 10
0.0
 20
0.0
 30
0.0
  3
*MODEL_SPACE
  1

  0
ENDBLK
  5
20
330
1E
100
AcDbEntity
  8
0
100
AcDbBlockEnd
  0
BLOCK
  5
1B
330
1A
100
AcDbEntity
 67
     1
  8
0
100
AcDbBlockBegin
  2
*PAPER_SPACE
 70
     0
 10
0.0
 20
0.0
 30
0.0
  3
*PAPER_SPACE
  1

  0
ENDBLK
  5
1C
330
1A
100
AcDbEntity
 67
     1
  8
0
100
AcDbBlockEnd
  0
BLOCK
  5
3B6
330
3B2
100
AcDbEntity
  8
0
100
AcDbBlockBegin
  2
_OPEN
 70
     0
 10
0.0
 20
0.0
 30
0.0
  3
_OPEN
  1

  0
LINE
  5
3B3
330
3B2
100
AcDbEntity
  8
30
  6
Continuous
 62
     0
100
AcDbLine
 10
-1.0
 20
0.166667
 30
0.0
 11
0.0
 21
0.0
 31
0.0
  0
LINE
  5
3B4
330
3B2
100
AcDbEntity
  8
30
  6
Continuous
 62
     0
100
AcDbLine
 10
-1.0
 20
-0.166667
 30
0.0
 11
0.0
 21
0.0
 31
0.0
  0
LINE
  5
3B5
330
3B2
100
AcDbEntity
  8
30
  6
Continuous
 62
     0
100
AcDbLine
 10
0.0
 20
0.0
 30
0.0
 11
-1.0
 21
0.0
 31
0.0
  0
ENDBLK
  5
3B7
330
3B2
100
AcDbEntity
  8
0
100
AcDbBlockEnd
  0
BLOCK
  5
A142
330
A138
100
AcDbEntity
  8
0
100
AcDbBlockBegin
  2
*D1
 70
     1
 10
0.0
 20
0.0
 30
0.0
  3
*D1
  1

  0
LINE
  5
C36B
330
A138
100
AcDbEntity
  8
30
  6
Continuous
 62
     0
370
    -2
100
AcDbLine
 10
-35.00000000000012
 20
-139.9999999999999
 30
0.0
 11
-35.00000000000012
 21
-169.7053729314843
 31
0.0
  0
LINE
  5
C36C
330
A138
100
AcDbEntity
  8
30
  6
Continuous
 62
     0
370
    -2
100
AcDbLine
 10
174.9999999999995
 20
-139.9999999999999
 30
0.0
 11
174.9999999999995
 21
-169.7053729314843
 31
0.0
  0
LINE
  5
C36D
330
A138
100
AcDbEntity
  8
30
  6
Continuous
 62
     0
370
    -2
100
AcDbLine
 10
-33.00000000000013
 20
-169.205372931484
 30
0.0
 11
172.9999999999995
 21
-169.205372931484
 31
0.0
  0
INSERT
  5
C36E
330
A138
100
AcDbEntity
  8
30
  6
Continuous
 62
     0
370
    -2
100
AcDbBlockReference
  2
_OPEN
 10
-35.00000000000012
 20
-169.205372931484
 30
0.0
 41
2.0
 42
2.0
 43
2.0
 50
180.0
  0
INSERT
  5
C36F
330
A138
100
AcDbEntity
  8
30
  6
Continuous
 62
     0
370
    -2
100
AcDbBlockReference
  2
_OPEN
 10
174.9999999999995
 20
-169.205372931484
 30
0.0
 41
2.0
 42
2.0
 43
2.0
  0
MTEXT
  5
C370
330
A138
100
AcDbEntity
  8
30
  6
Continuous
 62
     0
100
AcDbMText
 10
69.99999999999982
 20
-163.2053729314843
 30
0.0
 40
6.0
 41
0.0
 71
     5
 72
     1
  1
\A1; 210 
 73
     1
 44
1.0
  0
POINT
  5
C371
330
A138
100
AcDbEntity
  8
DEFPOINTS
  6
Continuous
 62
     0
100
AcDbPoint
 10
-35.00000000000012
 20
-136.9999999999999
 30
0.0
  0
POINT
  5
C372
330
A138
100
AcDbEntity
  8
DEFPOINTS
  6
Continuous
 62
     0
100
AcDbPoint
 10
174.9999999999995
 20
-136.9999999999999
 30
0.0
  0
POINT
  5
C373
330
A138
100
AcDbEntity
  8
DEFPOINTS
  6
Continuous
 62
     0
100
AcDbPoint
 10
174.9999999999995
 20
-169.205372931484
 30
0.0
  0
ENDBLK
  5
A143
330
A138
100
AcDbEntity
  8
0
100
AcDbBlockEnd
  0
BLOCK
  5
A14D
330
A144
100
AcDbEntity
  8
0
100
AcDbBlockBegin
  2
*D2
 70
     1
 10
0.0
 20
0.0
 30
0.0
  3
*D2
  1

  0
LINE
  5
C2D1
330
A144
100
AcDbEntity
  8
30
  6
Continuous
 62
     0
370
    -2
100
AcDbLine
 10
400.3999999999998
 20
-47.99999999999993
 30
0.0
 11
400.3999999999998
 21
-204.5732068069062
 31
0.0
  0
LINE
  5
C2D2
330
A144
100
AcDbEntity
  8
30
  6
Continuous
 62
     0
370
    -2
100
AcDbLine
 10
507.3999999999998
 20
-134.9999999999999
 30
0.0
 11
507.3999999999998
 21
-204.5732068069062
 31
0.0
  0
LINE
  5
C2D3
330
A144
100
AcDbEntity
  8
30
  6
Continuous
 62
     0
370
    -2
100
AcDbLine
 10
402.3999999999999
 20
-204.0732068069063
 30
0.0
 11
505.3999999999998
 21
-204.0732068069063
 31
0.0
  0
INSERT
  5
C2D4
330
A144
100
AcDbEntity
  8
30
  6
Continuous
 62
     0
370
    -2
100
AcDbBlockReference
  2
_OPEN
 10
400.3999999999998
 20
-204.0732068069063
 30
0.0
 41
2.0
 42
2.0
 43
2.0
 50
180.0
  0
INSERT
  5
C2D5
330
A144
100
AcDbEntity
  8
30
  6
Continuous
 62
     0
370
    -2
100
AcDbBlockReference
  2
_OPEN
 10
507.3999999999998
 20
-204.0732068069063
 30
0.0
 41
2.0
 42
2.0
 43
2.0
  0
MTEXT
  5
C2D6
330
A144
100
AcDbEntity
  8
30
  6
Continuous
 62
     0
100
AcDbMText
 10
453.8999999999998
 20
-198.0732068069062
 30
0.0
 40
6.0
 41
0.0
 71
     5
 72
     1
  1
\A1; 107 
 73
     1
 44
1.0
  0
POINT
  5
C2D7
330
A144
100
AcDbEntity
  8
DEFPOINTS
  6
Continuous
 62
     0
100
AcDbPoint
 10
400.3999999999998
 20
-44.99999999999993
 30
0.0
  0
POINT
  5
C2D8
330
A144
100
AcDbEntity
  8
DEFPOINTS
  6
Continuous
 62
     0
100
AcDbPoint
 10
507.3999999999998
 20
-131.9999999999999
 30
0.0
  0
POINT
  5
C2D9
330
A144
100
AcDbEntity
  8
DEFPOINTS
  6
Continuous
 62
     0
100
AcDbPoint
 10
507.3999999999998
 20
-204.0732068069063
 30
0.0
  0
ENDBLK
  5
A14E
330
A144
100
AcDbEntity
  8
0
100
AcDbBlockEnd
  0
BLOCK
  5
A166
330
A15B
100
AcDbEntity
  8
0
100
AcDbBlockBegin
  2
*D3
 70
     1
 10
0.0
 20
0.0
 30
0.0
  3
*D3
  1

  0
LINE
  5
C2B4
330
A15B
100
AcDbEntity
  8
30
  6
Continuous
 62
     0
370
    -2
100
AcDbLine
 10
396.3999999999998
 20
-3.499999999999943
 30
0.0
 11
396.3999999999998
 21
-204.5732068069062
 31
0.0
  0
LINE
  5
C2B5
330
A15B
100
AcDbEntity
  8
30
  6
Continuous
 62
     0
370
    -2
100
AcDbLine
 10
400.3999999999998
 20
-52.99999999999993
 30
0.0
 11
400.3999999999998
 21
-204.5732068069062
 31
0.0
  0
LINE
  5
C2B6
330
A15B
100
AcDbEntity
  8
30
  6
Continuous
 62
     0
370
    -2
100
AcDbLine
 10
402.3999999999999
 20
-204.0732068069063
 30
0.0
 11
404.3999999999998
 21
-204.0732068069063
 31
0.0
  0
LINE
  5
C2B7
330
A15B
100
AcDbEntity
  8
30
  6
Continuous
 62
     0
370
    -2
100
AcDbLine
 10
394.3999999999998
 20
-204.0732068069063
 30
0.0
 11
378.7999999999998
 21
-204.0732068069063
 31
0.0
  0
LINE
  5
C2B8
330
A15B
100
AcDbEntity
  8
30
  6
Continuous
 62
     0
370
    -2
100
AcDbLine
 10
400.3999999999998
 20
-204.0732068069063
 30
0.0
 11
396.3999999999998
 21
-204.0732068069063
 31
0.0
  0
INSERT
  5
C2B9
330
A15B
100
AcDbEntity
  8
30
  6
Continuous
 62
     0
370
    -2
100
AcDbBlockReference
  2
_OPEN
 10
400.3999999999998
 20
-204.0732068069063
 30
0.0
 41
2.0
 42
2.0
 43
2.0
 50
180.0
  0
INSERT
  5
C2BA
330
A15B
100
AcDbEntity
  8
30
  6
Continuous
 62
     0
370
    -2
100
AcDbBlockReference
  2
_OPEN
 10
396.3999999999998
 20
-204.0732068069063
 30
0.0
 41
2.0
 42
2.0
 43
2.0
  0
MTEXT
  5
C2BB
330
A15B
100
AcDbEntity
  8
30
  6
Continuous
 62
     0
100
AcDbMText
 10
385.5999999999998
 20
-198.0732068069062
 30
0.0
 40
6.0
 41
0.0
 71
     5
 72
     1
  1
\A1; 4 
 73
     1
 44
1.0
  0
POINT
  5
C2BC
330
A15B
100
AcDbEntity
  8
DEFPOINTS
  6
Continuous
 62
     0
100
AcDbPoint
 10
396.3999999999998
 20
-0.4999999999999434
 30
0.0
  0
POINT
  5
C2BD
330
A15B
100
AcDbEntity
  8
DEFPOINTS
  6
Continuous
 62
     0
100
AcDbPoint
 10
400.3999999999998
 20
-49.99999999999993
 30
0.0
  0
POINT
  5
C2BE
330
A15B
100
AcDbEntity
  8
DEFPOINTS
  6
Continuous
 62
     0
100
AcDbPoint
 10
400.3999999999998
 20
-204.0732068069063
 30
0.0
  0
ENDBLK
  5
A167
330
A15B
100
AcDbEntity
  8
0
100
AcDbBlockEnd
  0
BLOCK
  5
A172
330
A168
100
AcDbEntity
  8
0
100
AcDbBlockBegin
  2
*D4
 70
     1
 10
0.0
 20
0.0
 30
0.0
  3
*D4
  1

  0
LINE
  5
C2AB
330
A168
100
AcDbEntity
  8
30
  6
Continuous
 62
     0
370
    -2
100
AcDbLine
 10
362.3999999999998
 20
-2.999999999999943
 30
0.0
 11
362.3999999999998
 21
-223.5492436799555
 31
0.0
  0
LINE
  5
C2AC
330
A168
100
AcDbEntity
  8
30
  6
Continuous
 62
     0
370
    -2
100
AcDbLine
 10
507.3999999999998
 20
-189.9999999999999
 30
0.0
 11
507.3999999999998
 21
-223.5492436799555
 31
0.0
  0
LINE
  5
C2AD
330
A168
100
AcDbEntity
  8
30
  6
Continuous
 62
     0
370
    -2
100
AcDbLine
 10
364.3999999999998
 20
-223.0492436799555
 30
0.0
 11
505.3999999999998
 21
-223.0492436799555
 31
0.0
  0
INSERT
  5
C2AE
330
A168
100
AcDbEntity
  8
30
  6
Continuous
 62
     0
370
    -2
100
AcDbBlockReference
  2
_OPEN
 10
362.3999999999998
 20
-223.0492436799555
 30
0.0
 41
2.0
 42
2.0
 43
2.0
 50
180.0
  0
INSERT
  5
C2AF
330
A168
100
AcDbEntity
  8
30
  6
Continuous
 62
     0
370
    -2
100
AcDbBlockReference
  2
_OPEN
 10
507.3999999999998
 20
-223.0492436799555
 30
0.0
 41
2.0
 42
2.0
 43
2.0
  0
MTEXT
  5
C2B0
330
A168
100
AcDbEntity
  8
30
  6
Continuous
 62
     0
100
AcDbMText
 10
434.8999999999998
 20
-217.0492436799555
 30
0.0
 40
6.0
 41
0.0
 71
     5
 72
     1
  1
\A1; 145 
 73
     1
 44
1.0
  0
POINT
  5
C2B1
330
A168
100
AcDbEntity
  8
DEFPOINTS
  6
Continuous
 62
     0
100
AcDbPoint
 10
362.3999999999998
 20
0.0000000000000568
 30
0.0
  0
POINT
  5
C2B2
330
A168
100
AcDbEntity
  8
DEFPOINTS
  6
Continuous
 62
     0
100
AcDbPoint
 10
507.3999999999998
 20
-186.9999999999999
 30
0.0
  0
POINT
  5
C2B3
330
A168
100
AcDbEntity
  8
DEFPOINTS
  6
Continuous
 62
     0
100
AcDbPoint
 10
507.3999999999998
 20
-223.0492436799555
 30
0.0
  0
ENDBLK
  5
A173
330
A168
100
AcDbEntity
  8
0
100
AcDbBlockEnd
  0
BLOCK
  5
A17E
330
A174
100
AcDbEntity
  8
0
100
AcDbBlockBegin
  2
*D5
 70
     1
 10
0.0
 20
0.0
 30
0.0
  3
*D5
  1

  0
LINE
  5
C2A2
330
A174
100
AcDbEntity
  8
30
  6
Continuous
 62
     0
370
    -2
100
AcDbLine
 10
362.3999999999998
 20
1.999999999999943
 30
0.0
 11
362.3999999999998
 21
-223.5492436799555
 31
0.0
  0
LINE
  5
C2A3
330
A174
100
AcDbEntity
  8
30
  6
Continuous
 62
     0
370
    -2
100
AcDbLine
 10
281.8989299999998
 20
1.999999999999943
 30
0.0
 11
281.8989299999998
 21
-223.5492436799555
 31
0.0
  0
LINE
  5
C2A4
330
A174
100
AcDbEntity
  8
30
  6
Continuous
 62
     0
370
    -2
100
AcDbLine
 10
360.3999999999998
 20
-223.0492436799555
 30
0.0
 11
283.8989299999998
 21
-223.0492436799555
 31
0.0
  0
INSERT
  5
C2A5
330
A174
100
AcDbEntity
  8
30
  6
Continuous
 62
     0
370
    -2
100
AcDbBlockReference
  2
_OPEN
 10
362.3999999999998
 20
-223.0492436799555
 30
0.0
 41
2.0
 42
2.0
 43
2.0
  0
INSERT
  5
C2A6
330
A174
100
AcDbEntity
  8
30
  6
Continuous
 62
     0
370
    -2
100
AcDbBlockReference
  2
_OPEN
 10
281.8989299999998
 20
-223.0492436799555
 30
0.0
 41
2.0
 42
2.0
 43
2.0
 50
180.0
  0
MTEXT
  5
C2A7
330
A174
100
AcDbEntity
  8
30
  6
Continuous
 62
     0
100
AcDbMText
 10
322.1494649999998
 20
-217.0492436799555
 30
0.0
 40
6.0
 41
0.0
 71
     5
 72
     1
  1
\A1; 80.5 
 73
     1
 44
1.0
  0
POINT
  5
C2A8
330
A174
100
AcDbEntity
  8
DEFPOINTS
  6
Continuous
 62
     0
100
AcDbPoint
 10
362.3999999999998
 20
4.999999999999943
 30
0.0
  0
POINT
  5
C2A9
330
A174
100
AcDbEntity
  8
DEFPOINTS
  6
Continuous
 62
     0
100
AcDbPoint
 10
281.8989299999998
 20
4.999999999999943
 30
0.0
  0
POINT
  5
C2AA
330
A174
100
AcDbEntity
  8
DEFPOINTS
  6
Continuous
 62
     0
100
AcDbPoint
 10
281.8989299999998
 20
-223.0492436799555
 30
0.0
  0
ENDBLK
  5
A17F
330
A174
100
AcDbEntity
  8
0
100
AcDbBlockEnd
  0
BLOCK
  5
A1A2
330
A198
100
AcDbEntity
  8
0
100
AcDbBlockBegin
  2
*D6
 70
     1
 10
0.0
 20
0.0
 30
0.0
  3
*D6
  1

  0
LINE
  5
C173
330
A198
100
AcDbEntity
  8
30
  6
Continuous
 62
     0
370
    -2
100
AcDbLine
 10
-43.0
 20
-337.2235549737841
 30
0.0
 11
-43.0
 21
-557.319429973784
 31
0.0
  0
LINE
  5
C174
330
A198
100
AcDbEntity
  8
30
  6
Continuous
 62
     0
370
    -2
100
AcDbLine
 10
-0.0000000000000002
 20
-484.7235549737844
 30
0.0
 11
-0.0000000000000046
 21
-557.319429973784
 31
0.0
  0
LINE
  5
C175
330
A198
100
AcDbEntity
  8
30
  6
Continuous
 62
     0
370
    -2
100
AcDbLine
 10
-41.0
 20
-556.819429973784
 30
0.0
 11
-2.000000000000003
 21
-556.819429973784
 31
0.0
  0
INSERT
  5
C176
330
A198
100
AcDbEntity
  8
30
  6
Continuous
 62
     0
370
    -2
100
AcDbBlockReference
  2
_OPEN
 10
-43.0
 20
-556.819429973784
 30
0.0
 41
2.0
 42
2.0
 43
2.0
 50
180.0
  0
INSERT
  5
C177
330
A198
100
AcDbEntity
  8
30
  6
Continuous
 62
     0
370
    -2
100
AcDbBlockReference
  2
_OPEN
 10
-0.0000000000000046
 20
-556.819429973784
 30
0.0
 41
2.0
 42
2.0
 43
2.0
  0
MTEXT
  5
C178
330
A198
100
AcDbEntity
  8
30
  6
Continuous
 62
     0
100
AcDbMText
 10
-21.50000000000001
 20
-550.8194299737843
 30
0.0
 40
6.0
 41
0.0
 71
     5
 72
     1
  1
\A1; 43 
 73
     1
 44
1.0
  0
POINT
  5
C179
330
A198
100
AcDbEntity
  8
DEFPOINTS
  6
Continuous
 62
     0
100
AcDbPoint
 10
-43.0
 20
-334.2235549737841
 30
0.0
  0
POINT
  5
C17A
330
A198
100
AcDbEntity
  8
DEFPOINTS
  6
Continuous
 62
     0
100
AcDbPoint
 10
0.0
 20
-481.7235549737842
 30
0.0
  0
POINT
  5
C17B
330
A198
100
AcDbEntity
  8
DEFPOINTS
  6
Continuous
 62
     0
100
AcDbPoint
 10
-0.0000000000000046
 20
-556.819429973784
 30
0.0
  0
ENDBLK
  5
A1A3
330
A198
100
AcDbEntity
  8
0
100
AcDbBlockEnd
  0
BLOCK
  5
A1AE
330
A1A4
100
AcDbEntity
  8
0
100
AcDbBlockBegin
  2
*D7
 70
     1
 10
0.0
 20
0.0
 30
0.0
  3
*D7
  1

  0
LINE
  5
BC2E
330
A1A4
100
AcDbEntity
  8
30
  6
Continuous
 62
     0
370
    -2
100
AcDbLine
 10
140.0
 20
-484.7235549737844
 30
0.0
 11
140.0
 21
-557.319429973784
 31
0.0
  0
LINE
  5
BC2F
330
A1A4
100
AcDbEntity
  8
30
  6
Continuous
 62
     0
370
    -2
100
AcDbLine
 10
183.0
 20
-337.2235549737841
 30
0.0
 11
183.0
 21
-557.319429973784
 31
0.0
  0
LINE
  5
BC30
330
A1A4
100
AcDbEntity
  8
30
  6
Continuous
 62
     0
370
    -2
100
AcDbLine
 10
142.0
 20
-556.819429973784
 30
0.0
 11
181.0
 21
-556.819429973784
 31
0.0
  0
INSERT
  5
BC31
330
A1A4
100
AcDbEntity
  8
30
  6
Continuous
 62
     0
370
    -2
100
AcDbBlockReference
  2
_OPEN
 10
140.0
 20
-556.819429973784
 30
0.0
 41
2.0
 42
2.0
 43
2.0
 50
180.0
  0
INSERT
  5
BC32
330
A1A4
100
AcDbEntity
  8
30
  6
Continuous
 62
     0
370
    -2
100
AcDbBlockReference
  2
_OPEN
 10
183.0
 20
-556.819429973784
 30
0.0
 41
2.0
 42
2.0
 43
2.0
  0
MTEXT
  5
BC33
330
A1A4
100
AcDbEntity
  8
30
  6
Continuous
 62
     0
100
AcDbMText
 10
161.5
 20
-550.8194299737843
 30
0.0
 40
6.0
 41
0.0
 71
     5
 72
     1
  1
\A1; 43 
 73
     1
 44
1.0
  0
POINT
  5
BC34
330
A1A4
100
AcDbEntity
  8
DEFPOINTS
  6
Continuous
 62
     0
100
AcDbPoint
 10
140.0
 20
-481.7235549737842
 30
0.0
  0
POINT
  5
BC35
330
A1A4
100
AcDbEntity
  8
DEFPOINTS
  6
Continuous
 62
     0
100
AcDbPoint
 10
183.0
 20
-334.2235549737841
 30
0.0
  0
POINT
  5
BC36
330
A1A4
100
AcDbEntity
  8
DEFPOINTS
  6
Continuous
 62
     0
100
AcDbPoint
 10
183.0
 20
-556.819429973784
 30
0.0
  0
ENDBLK
  5
A1AF
330
A1A4
100
AcDbEntity
  8
0
100
AcDbBlockEnd
  0
BLOCK
  5
A1BB
330
A1B0
100
AcDbEntity
  8
0
100
AcDbBlockBegin
  2
*D8
 70
     1
 10
0.0
 20
0.0
 30
0.0
  3
*D8
  1

  0
LINE
  5
C158
330
A1B0
100
AcDbEntity
  8
30
  6
Continuous
 62
     0
370
    -2
100
AcDbLine
 10
113.0
 20
-476.7235549737844
 30
0.0
 11
227.0245325812547
 21
-476.7235549737844
 31
0.0
  0
LINE
  5
C159
330
A1B0
100
AcDbEntity
  8
30
  6
Continuous
 62
     0
370
    -2
100
AcDbLine
 10
178.0
 20
-359.7235549737843
 30
0.0
 11
227.0245325812548
 21
-359.7235549737843
 31
0.0
  0
LINE
  5
C15A
330
A1B0
100
AcDbEntity
  8
30
  6
Continuous
 62
     0
370
    -2
100
AcDbLine
 10
226.5245325812546
 20
-474.7235549737843
 30
0.0
 11
226.5245325812546
 21
-361.7235549737843
 31
0.0
  0
INSERT
  5
C15B
330
A1B0
100
AcDbEntity
  8
30
  6
Continuous
 62
     0
370
    -2
100
AcDbBlockReference
  2
_OPEN
 10
226.5245325812546
 20
-476.7235549737844
 30
0.0
 41
2.0
 42
2.0
 43
2.0
 50
270.0
  0
INSERT
  5
C15C
330
A1B0
100
AcDbEntity
  8
30
  6
Continuous
 62
     0
370
    -2
100
AcDbBlockReference
  2
_OPEN
 10
226.5245325812546
 20
-359.7235549737843
 30
0.0
 41
2.0
 42
2.0
 43
2.0
 50
90.0
  0
MTEXT
  5
C15D
330
A1B0
100
AcDbEntity
  8
30
  6
Continuous
 62
     0
100
AcDbMText
 10
220.5245325812548
 20
-418.2235549737844
 30
0.0
 40
6.0
 41
0.0
 71
     5
 72
     1
  1
\A1; 117 
 11
0.0000000000000001
 21
1.0
 31
0.0
 73
     1
 44
1.0
  0
POINT
  5
C15E
330
A1B0
100
AcDbEntity
  8
DEFPOINTS
  6
Continuous
 62
     0
100
AcDbPoint
 10
110.0
 20
-476.7235549737844
 30
0.0
  0
POINT
  5
C15F
330
A1B0
100
AcDbEntity
  8
DEFPOINTS
  6
Continuous
 62
     0
100
AcDbPoint
 10
175.0
 20
-359.7235549737843
 30
0.0
  0
POINT
  5
C160
330
A1B0
100
AcDbEntity
  8
DEFPOINTS
  6
Continuous
 62
     0
100
AcDbPoint
 10
226.5245325812546
 20
-359.7235549737843
 30
0.0
  0
ENDBLK
  5
A1BC
330
A1B0
100
AcDbEntity
  8
0
100
AcDbBlockEnd
  0
BLOCK
  5
A1C8
330
A1BD
100
AcDbEntity
  8
0
100
AcDbBlockBegin
  2
*D9
 70
     1
 10
0.0
 20
0.0
 30
0.0
  3
*D9
  1

  0
LINE
  5
BC1C
330
A1BD
100
AcDbEntity
  8
30
  6
Continuous
 62
     0
370
    -2
100
AcDbLine
 10
178.0
 20
-359.7235549737843
 30
0.0
 11
246.4692079724304
 21
-359.7235549737843
 31
0.0
  0
LINE
  5
BC1D
330
A1BD
100
AcDbEntity
  8
30
  6
Continuous
 62
     0
370
    -2
100
AcDbLine
 10
126.1825799999996
 20
-486.7235549737841
 30
0.0
 11
246.4692079724304
 21
-486.7235549737843
 31
0.0
  0
LINE
  5
BC1E
330
A1BD
100
AcDbEntity
  8
30
  6
Continuous
 62
     0
370
    -2
100
AcDbLine
 10
245.9692079724304
 20
-361.7235549737843
 30
0.0
 11
245.9692079724304
 21
-484.7235549737844
 31
0.0
  0
INSERT
  5
BC1F
330
A1BD
100
AcDbEntity
  8
30
  6
Continuous
 62
     0
370
    -2
100
AcDbBlockReference
  2
_OPEN
 10
245.9692079724304
 20
-359.7235549737843
 30
0.0
 41
2.0
 42
2.0
 43
2.0
 50
90.0
  0
INSERT
  5
BC20
330
A1BD
100
AcDbEntity
  8
30
  6
Continuous
 62
     0
370
    -2
100
AcDbBlockReference
  2
_OPEN
 10
245.9692079724304
 20
-486.7235549737843
 30
0.0
 41
2.0
 42
2.0
 43
2.0
 50
270.0
  0
MTEXT
  5
BC21
330
A1BD
100
AcDbEntity
  8
30
  6
Continuous
 62
     0
100
AcDbMText
 10
239.9692079724303
 20
-423.2235549737842
 30
0.0
 40
6.0
 41
0.0
 71
     5
 72
     1
  1
\A1; 127 
 11
0.0000000000000001
 21
1.0
 31
0.0
 73
     1
 44
1.0
  0
POINT
  5
BC22
330
A1BD
100
AcDbEntity
  8
DEFPOINTS
  6
Continuous
 62
     0
100
AcDbPoint
 10
175.0
 20
-359.7235549737843
 30
0.0
  0
POINT
  5
BC23
330
A1BD
100
AcDbEntity
  8
DEFPOINTS
  6
Continuous
 62
     0
100
AcDbPoint
 10
123.1825799999995
 20
-486.7235549737841
 30
0.0
  0
POINT
  5
BC24
330
A1BD
100
AcDbEntity
  8
DEFPOINTS
  6
Continuous
 62
     0
100
AcDbPoint
 10
245.9692079724304
 20
-486.7235549737843
 30
0.0
  0
ENDBLK
  5
A1C9
330
A1BD
100
AcDbEntity
  8
0
100
AcDbBlockEnd
  0
BLOCK
  5
A1F8
330
A1EE
100
AcDbEntity
  8
0
100
AcDbBlockBegin
  2
*D10
 70
     1
 10
0.0
 20
0.0
 30
0.0
  3
*D10
  1

  0
LINE
  5
C18D
330
A1EE
100
AcDbEntity
  8
30
  6
Continuous
 62
     0
370
    -2
100
AcDbLine
 10
-0.0000000000000002
 20
-484.7235549737844
 30
0.0
 11
-0.0000000000000046
 21
-557.319429973784
 31
0.0
  0
LINE
  5
C18E
330
A1EE
100
AcDbEntity
  8
30
  6
Continuous
 62
     0
370
    -2
100
AcDbLine
 10
70.0
 20
-484.7235549737844
 30
0.0
 11
70.0
 21
-557.319429973784
 31
0.0
  0
LINE
  5
C18F
330
A1EE
100
AcDbEntity
  8
30
  6
Continuous
 62
     0
370
    -2
100
AcDbLine
 10
1.999999999999995
 20
-556.819429973784
 30
0.0
 11
68.0
 21
-556.819429973784
 31
0.0
  0
INSERT
  5
C190
330
A1EE
100
AcDbEntity
  8
30
  6
Continuous
 62
     0
370
    -2
100
AcDbBlockReference
  2
_OPEN
 10
-0.0000000000000046
 20
-556.819429973784
 30
0.0
 41
2.0
 42
2.0
 43
2.0
 50
180.0
  0
INSERT
  5
C191
330
A1EE
100
AcDbEntity
  8
30
  6
Continuous
 62
     0
370
    -2
100
AcDbBlockReference
  2
_OPEN
 10
70.0
 20
-556.819429973784
 30
0.0
 41
2.0
 42
2.0
 43
2.0
  0
MTEXT
  5
C192
330
A1EE
100
AcDbEntity
  8
30
  6
Continuous
 62
     0
100
AcDbMText
 10
35.0
 20
-550.8194299737843
 30
0.0
 40
6.0
 41
0.0
 71
     5
 72
     1
  1
\A1; 70 
 73
     1
 44
1.0
  0
POINT
  5
C193
330
A1EE
100
AcDbEntity
  8
DEFPOINTS
  6
Continuous
 62
     0
100
AcDbPoint
 10
0.0
 20
-481.7235549737842
 30
0.0
  0
POINT
  5
C194
330
A1EE
100
AcDbEntity
  8
DEFPOINTS
  6
Continuous
 62
     0
100
AcDbPoint
 10
70.0
 20
-481.7235549737842
 30
0.0
  0
POINT
  5
C195
330
A1EE
100
AcDbEntity
  8
DEFPOINTS
  6
Continuous
 62
     0
100
AcDbPoint
 10
70.0
 20
-556.819429973784
 30
0.0
  0
ENDBLK
  5
A1F9
330
A1EE
100
AcDbEntity
  8
0
100
AcDbBlockEnd
  0
BLOCK
  5
A204
330
A1FA
100
AcDbEntity
  8
0
100
AcDbBlockBegin
  2
*D11
 70
     1
 10
0.0
 20
0.0
 30
0.0
  3
*D11
  1

  0
LINE
  5
C184
330
A1FA
100
AcDbEntity
  8
30
  6
Continuous
 62
     0
370
    -2
100
AcDbLine
 10
70.0
 20
-484.7235549737844
 30
0.0
 11
70.0
 21
-557.319429973784
 31
0.0
  0
LINE
  5
C185
330
A1FA
100
AcDbEntity
  8
30
  6
Continuous
 62
     0
370
    -2
100
AcDbLine
 10
140.0
 20
-484.7235549737844
 30
0.0
 11
140.0
 21
-557.319429973784
 31
0.0
  0
LINE
  5
C186
330
A1FA
100
AcDbEntity
  8
30
  6
Continuous
 62
     0
370
    -2
100
AcDbLine
 10
72.0
 20
-556.819429973784
 30
0.0
 11
138.0
 21
-556.819429973784
 31
0.0
  0
INSERT
  5
C187
330
A1FA
100
AcDbEntity
  8
30
  6
Continuous
 62
     0
370
    -2
100
AcDbBlockReference
  2
_OPEN
 10
70.0
 20
-556.819429973784
 30
0.0
 41
2.0
 42
2.0
 43
2.0
 50
180.0
  0
INSERT
  5
C188
330
A1FA
100
AcDbEntity
  8
30
  6
Continuous
 62
     0
370
    -2
100
AcDbBlockReference
  2
_OPEN
 10
140.0
 20
-556.819429973784
 30
0.0
 41
2.0
 42
2.0
 43
2.0
  0
MTEXT
  5
C189
330
A1FA
100
AcDbEntity
  8
30
  6
Continuous
 62
     0
100
AcDbMText
 10
105.0
 20
-550.8194299737843
 30
0.0
 40
6.0
 41
0.0
 71
     5
 72
     1
  1
\A1; 70 
 73
     1
 44
1.0
  0
POINT
  5
C18A
330
A1FA
100
AcDbEntity
  8
DEFPOINTS
  6
Continuous
 62
     0
100
AcDbPoint
 10
70.0
 20
-481.7235549737842
 30
0.0
  0
POINT
  5
C18B
330
A1FA
100
AcDbEntity
  8
DEFPOINTS
  6
Continuous
 62
     0
100
AcDbPoint
 10
140.0
 20
-481.7235549737842
 30
0.0
  0
POINT
  5
C18C
330
A1FA
100
AcDbEntity
  8
DEFPOINTS
  6
Continuous
 62
     0
100
AcDbPoint
 10
140.0
 20
-556.819429973784
 30
0.0
  0
ENDBLK
  5
A205
330
A1FA
100
AcDbEntity
  8
0
100
AcDbBlockEnd
  0
BLOCK
  5
A21C
330
A212
100
AcDbEntity
  8
0
100
AcDbBlockBegin
  2
*D12
 70
     1
 10
0.0
 20
0.0
 30
0.0
  3
*D12
  1

  0
LINE
  5
C196
330
A212
100
AcDbEntity
  8
30
  6
Continuous
 62
     0
370
    -2
100
AcDbLine
 10
35.0
 20
-484.7235549737844
 30
0.0
 11
35.0
 21
-522.319429973784
 31
0.0
  0
LINE
  5
C197
330
A212
100
AcDbEntity
  8
30
  6
Continuous
 62
     0
370
    -2
100
AcDbLine
 10
105.0
 20
-484.7235549737844
 30
0.0
 11
105.0
 21
-522.319429973784
 31
0.0
  0
LINE
  5
C198
330
A212
100
AcDbEntity
  8
30
  6
Continuous
 62
     0
370
    -2
100
AcDbLine
 10
37.0
 20
-521.8194299737842
 30
0.0
 11
103.0
 21
-521.8194299737842
 31
0.0
  0
INSERT
  5
C199
330
A212
100
AcDbEntity
  8
30
  6
Continuous
 62
     0
370
    -2
100
AcDbBlockReference
  2
_OPEN
 10
35.0
 20
-521.8194299737842
 30
0.0
 41
2.0
 42
2.0
 43
2.0
 50
180.0
  0
INSERT
  5
C19A
330
A212
100
AcDbEntity
  8
30
  6
Continuous
 62
     0
370
    -2
100
AcDbBlockReference
  2
_OPEN
 10
105.0
 20
-521.8194299737842
 30
0.0
 41
2.0
 42
2.0
 43
2.0
  0
MTEXT
  5
C19B
330
A212
100
AcDbEntity
  8
30
  6
Continuous
 62
     0
100
AcDbMText
 10
70.0
 20
-515.819429973784
 30
0.0
 40
6.0
 41
0.0
 71
     5
 72
     1
  1
\A1; 70 
 73
     1
 44
1.0
  0
POINT
  5
C19C
330
A212
100
AcDbEntity
  8
DEFPOINTS
  6
Continuous
 62
     0
100
AcDbPoint
 10
35.0
 20
-481.7235549737842
 30
0.0
  0
POINT
  5
C19D
330
A212
100
AcDbEntity
  8
DEFPOINTS
  6
Continuous
 62
     0
100
AcDbPoint
 10
105.0
 20
-481.7235549737842
 30
0.0
  0
POINT
  5
C19E
330
A212
100
AcDbEntity
  8
DEFPOINTS
  6
Continuous
 62
     0
100
AcDbPoint
 10
105.0
 20
-521.8194299737842
 30
0.0
  0
ENDBLK
  5
A21D
330
A212
100
AcDbEntity
  8
0
100
AcDbBlockEnd
  0
BLOCK
  5
A235
330
A229
100
AcDbEntity
  8
0
100
AcDbBlockBegin
  2
*D13
 70
     1
 10
0.0
 20
0.0
 30
0.0
  3
*D13
  1

  0
LINE
  5
BBED
330
A229
100
AcDbEntity
  8
30
  6
Continuous
 62
     0
370
    -2
100
AcDbLine
 10
126.1825799999996
 20
-486.7235549737841
 30
0.0
 11
246.4692079724304
 21
-486.7235549737843
 31
0.0
  0
LINE
  5
BBEE
330
A229
100
AcDbEntity
  8
30
  6
Continuous
 62
     0
370
    -2
100
AcDbLine
 10
129.26501
 20
-491.7235549737843
 30
0.0
 11
246.4692079724304
 21
-491.7235549737843
 31
0.0
  0
LINE
  5
BBEF
330
A229
100
AcDbEntity
  8
30
  6
Continuous
 62
     0
370
    -2
100
AcDbLine
 10
245.9692079724304
 20
-484.7235549737844
 30
0.0
 11
245.9692079724304
 21
-482.7235549737843
 31
0.0
  0
LINE
  5
BBF0
330
A229
100
AcDbEntity
  8
30
  6
Continuous
 62
     0
370
    -2
100
AcDbLine
 10
245.9692079724304
 20
-493.7235549737843
 30
0.0
 11
245.9692079724304
 21
-495.7235549737843
 31
0.0
  0
MTEXT
  5
BBF1
330
A229
100
AcDbEntity
  8
30
  6
Continuous
 62
     0
100
AcDbMText
 10
241.5238731006845
 20
-490.9270399896247
 30
0.0
 40
6.0
 41
0.0
 71
     5
 72
     1
  1
\A1; 5 
 11
0.0000000000000001
 21
1.0
 31
0.0
 73
     1
 44
1.0
  0
LINE
  5
BBF2
330
A229
100
AcDbEntity
  8
30
  6
Continuous
 62
     0
370
    -2
100
AcDbLine
 10
245.9692079724304
 20
-486.7235549737843
 30
0.0
 11
245.9692079724304
 21
-491.7235549737843
 31
0.0
  0
INSERT
  5
BBF3
330
A229
100
AcDbEntity
  8
30
  6
Continuous
 62
     0
370
    -2
100
AcDbBlockReference
  2
_OPEN
 10
245.9692079724304
 20
-486.7235549737843
 30
0.0
 41
2.0
 42
2.0
 43
2.0
 50
270.0
  0
INSERT
  5
BBF4
330
A229
100
AcDbEntity
  8
30
  6
Continuous
 62
     0
370
    -2
100
AcDbBlockReference
  2
_OPEN
 10
245.9692079724304
 20
-491.7235549737843
 30
0.0
 41
2.0
 42
2.0
 43
2.0
 50
90.0
  0
POINT
  5
BBF5
330
A229
100
AcDbEntity
  8
DEFPOINTS
  6
Continuous
 62
     0
100
AcDbPoint
 10
123.1825799999995
 20
-486.7235549737841
 30
0.0
  0
POINT
  5
BBF6
330
A229
100
AcDbEntity
  8
DEFPOINTS
  6
Continuous
 62
     0
100
AcDbPoint
 10
126.26501
 20
-491.7235549737843
 30
0.0
  0
POINT
  5
BBF7
330
A229
100
AcDbEntity
  8
DEFPOINTS
  6
Continuous
 62
     0
100
AcDbPoint
 10
245.9692079724304
 20
-491.7235549737843
 30
0.0
  0
ENDBLK
  5
A236
330
A229
100
AcDbEntity
  8
0
100
AcDbBlockEnd
  0
BLOCK
  5
A242
330
A237
100
AcDbEntity
  8
0
100
AcDbBlockBegin
  2
*D14
 70
     1
 10
0.0
 20
0.0
 30
0.0
  3
*D14
  1

  0
LINE
  5
C14F
330
A237
100
AcDbEntity
  8
30
  6
Continuous
 62
     0
370
    -2
100
AcDbLine
 10
193.0
 20
-359.7235549737843
 30
0.0
 11
227.0245325812547
 21
-359.7235549737843
 31
0.0
  0
LINE
  5
C150
330
A237
100
AcDbEntity
  8
30
  6
Continuous
 62
     0
370
    -2
100
AcDbLine
 10
113.0
 20
-233.7235549737842
 30
0.0
 11
227.0245325812548
 21
-233.7235549737842
 31
0.0
  0
LINE
  5
C151
330
A237
100
AcDbEntity
  8
30
  6
Continuous
 62
     0
370
    -2
100
AcDbLine
 10
226.5245325812546
 20
-357.7235549737843
 30
0.0
 11
226.5245325812546
 21
-235.7235549737842
 31
0.0
  0
INSERT
  5
C152
330
A237
100
AcDbEntity
  8
30
  6
Continuous
 62
     0
370
    -2
100
AcDbBlockReference
  2
_OPEN
 10
226.5245325812546
 20
-359.7235549737843
 30
0.0
 41
2.0
 42
2.0
 43
2.0
 50
270.0
  0
INSERT
  5
C153
330
A237
100
AcDbEntity
  8
30
  6
Continuous
 62
     0
370
    -2
100
AcDbBlockReference
  2
_OPEN
 10
226.5245325812546
 20
-233.7235549737842
 30
0.0
 41
2.0
 42
2.0
 43
2.0
 50
90.0
  0
MTEXT
  5
C154
330
A237
100
AcDbEntity
  8
30
  6
Continuous
 62
     0
100
AcDbMText
 10
220.5245325812548
 20
-296.7235549737841
 30
0.0
 40
6.0
 41
0.0
 71
     5
 72
     1
  1
\A1; 126 
 11
0.0000000000000001
 21
1.0
 31
0.0
 73
     1
 44
1.0
  0
POINT
  5
C155
330
A237
100
AcDbEntity
  8
DEFPOINTS
  6
Continuous
 62
     0
100
AcDbPoint
 10
190.0
 20
-359.7235549737843
 30
0.0
  0
POINT
  5
C156
330
A237
100
AcDbEntity
  8
DEFPOINTS
  6
Continuous
 62
     0
100
AcDbPoint
 10
110.0
 20
-233.7235549737842
 30
0.0
  0
POINT
  5
C157
330
A237
100
AcDbEntity
  8
DEFPOINTS
  6
Continuous
 62
     0
100
AcDbPoint
 10
226.5245325812546
 20
-233.7235549737842
 30
0.0
  0
ENDBLK
  5
A243
330
A237
100
AcDbEntity
  8
0
100
AcDbBlockEnd
  0
BLOCK
  5
A24F
330
A244
100
AcDbEntity
  8
0
100
AcDbBlockBegin
  2
*D15
 70
     1
 10
0.0
 20
0.0
 30
0.0
  3
*D15
  1

  0
LINE
  5
BBDB
330
A244
100
AcDbEntity
  8
30
  6
Continuous
 62
     0
370
    -2
100
AcDbLine
 10
178.0
 20
-223.7235549737841
 30
0.0
 11
246.4692079724309
 21
-223.7235549737844
 31
0.0
  0
LINE
  5
BBDC
330
A244
100
AcDbEntity
  8
30
  6
Continuous
 62
     0
370
    -2
100
AcDbLine
 10
178.0
 20
-359.7235549737843
 30
0.0
 11
246.4692079724309
 21
-359.7235549737843
 31
0.0
  0
LINE
  5
BBDD
330
A244
100
AcDbEntity
  8
30
  6
Continuous
 62
     0
370
    -2
100
AcDbLine
 10
245.9692079724309
 20
-225.7235549737844
 30
0.0
 11
245.9692079724309
 21
-357.7235549737843
 31
0.0
  0
INSERT
  5
BBDE
330
A244
100
AcDbEntity
  8
30
  6
Continuous
 62
     0
370
    -2
100
AcDbBlockReference
  2
_OPEN
 10
245.9692079724309
 20
-223.7235549737844
 30
0.0
 41
2.0
 42
2.0
 43
2.0
 50
90.0
  0
INSERT
  5
BBDF
330
A244
100
AcDbEntity
  8
30
  6
Continuous
 62
     0
370
    -2
100
AcDbBlockReference
  2
_OPEN
 10
245.9692079724309
 20
-359.7235549737843
 30
0.0
 41
2.0
 42
2.0
 43
2.0
 50
270.0
  0
MTEXT
  5
BBE0
330
A244
100
AcDbEntity
  8
30
  6
Continuous
 62
     0
100
AcDbMText
 10
239.9692079724309
 20
-291.7235549737842
 30
0.0
 40
6.0
 41
0.0
 71
     5
 72
     1
  1
\A1; 136 
 11
0.0000000000000001
 21
1.0
 31
0.0
 73
     1
 44
1.0
  0
POINT
  5
BBE1
330
A244
100
AcDbEntity
  8
DEFPOINTS
  6
Continuous
 62
     0
100
AcDbPoint
 10
175.0
 20
-223.7235549737841
 30
0.0
  0
POINT
  5
BBE2
330
A244
100
AcDbEntity
  8
DEFPOINTS
  6
Continuous
 62
     0
100
AcDbPoint
 10
175.0
 20
-359.7235549737843
 30
0.0
  0
POINT
  5
BBE3
330
A244
100
AcDbEntity
  8
DEFPOINTS
  6
Continuous
 62
     0
100
AcDbPoint
 10
245.9692079724309
 20
-359.7235549737843
 30
0.0
  0
ENDBLK
  5
A250
330
A244
100
AcDbEntity
  8
0
100
AcDbBlockEnd
  0
BLOCK
  5
A25C
330
A251
100
AcDbEntity
  8
0
100
AcDbBlockBegin
  2
*D16
 70
     1
 10
0.0
 20
0.0
 30
0.0
  3
*D16
  1

  0
LINE
  5
BBD2
330
A251
100
AcDbEntity
  8
30
  6
Continuous
 62
     0
370
    -2
100
AcDbLine
 10
179.0
 20
-359.7235549737843
 30
0.0
 11
209.6539000000002
 21
-359.7235549737843
 31
0.0
  0
LINE
  5
BBD3
330
A251
100
AcDbEntity
  8
30
  6
Continuous
 62
     0
370
    -2
100
AcDbLine
 10
191.0
 20
-329.2235549737842
 30
0.0
 11
209.6539000000002
 21
-329.2235549737842
 31
0.0
  0
LINE
  5
BBD4
330
A251
100
AcDbEntity
  8
30
  6
Continuous
 62
     0
370
    -2
100
AcDbLine
 10
209.1539
 20
-357.7235549737843
 30
0.0
 11
209.1539
 21
-331.2235549737842
 31
0.0
  0
INSERT
  5
BBD5
330
A251
100
AcDbEntity
  8
30
  6
Continuous
 62
     0
370
    -2
100
AcDbBlockReference
  2
_OPEN
 10
209.1539
 20
-359.7235549737843
 30
0.0
 41
2.0
 42
2.0
 43
2.0
 50
270.0
  0
INSERT
  5
BBD6
330
A251
100
AcDbEntity
  8
30
  6
Continuous
 62
     0
370
    -2
100
AcDbBlockReference
  2
_OPEN
 10
209.1539
 20
-329.2235549737842
 30
0.0
 41
2.0
 42
2.0
 43
2.0
 50
90.0
  0
MTEXT
  5
BBD7
330
A251
100
AcDbEntity
  8
30
  6
Continuous
 62
     0
100
AcDbMText
 10
203.1539000000003
 20
-344.4735549737842
 30
0.0
 40
6.0
 41
0.0
 71
     5
 72
     1
  1
\A1; 30.5 
 11
0.0000000000000001
 21
1.0
 31
0.0
 73
     1
 44
1.0
  0
POINT
  5
BBD8
330
A251
100
AcDbEntity
  8
DEFPOINTS
  6
Continuous
 62
     0
100
AcDbPoint
 10
176.0
 20
-359.7235549737843
 30
0.0
  0
POINT
  5
BBD9
330
A251
100
AcDbEntity
  8
DEFPOINTS
  6
Continuous
 62
     0
100
AcDbPoint
 10
188.0
 20
-329.2235549737842
 30
0.0
  0
POINT
  5
BBDA
330
A251
100
AcDbEntity
  8
DEFPOINTS
  6
Continuous
 62
     0
100
AcDbPoint
 10
209.1539
 20
-329.2235549737842
 30
0.0
  0
ENDBLK
  5
A25D
330
A251
100
AcDbEntity
  8
0
100
AcDbBlockEnd
  0
BLOCK
  5
A348
330
A33F
100
AcDbEntity
  8
0
100
AcDbBlockBegin
  2
*D17
 70
     1
 10
0.0
 20
0.0
 30
0.0
  3
*D17
  1

  0
LINE
  5
C2C8
330
A33F
100
AcDbEntity
  8
30
  6
Continuous
 62
     0
370
    -2
100
AcDbLine
 10
404.3999999999998
 20
-47.99999999999993
 30
0.0
 11
404.3999999999998
 21
-187.5958749999999
 31
0.0
  0
LINE
  5
C2C9
330
A33F
100
AcDbEntity
  8
30
  6
Continuous
 62
     0
370
    -2
100
AcDbLine
 10
507.3999999999998
 20
-139.9999999999999
 30
0.0
 11
507.3999999999998
 21
-187.5958749999999
 31
0.0
  0
LINE
  5
C2CA
330
A33F
100
AcDbEntity
  8
30
  6
Continuous
 62
     0
370
    -2
100
AcDbLine
 10
406.3999999999998
 20
-187.0958749999999
 30
0.0
 11
505.3999999999998
 21
-187.0958749999999
 31
0.0
  0
INSERT
  5
C2CB
330
A33F
100
AcDbEntity
  8
30
  6
Continuous
 62
     0
370
    -2
100
AcDbBlockReference
  2
_OPEN
 10
404.3999999999998
 20
-187.0958749999999
 30
0.0
 41
2.0
 42
2.0
 43
2.0
 50
180.0
  0
INSERT
  5
C2CC
330
A33F
100
AcDbEntity
  8
30
  6
Continuous
 62
     0
370
    -2
100
AcDbBlockReference
  2
_OPEN
 10
507.3999999999998
 20
-187.0958749999999
 30
0.0
 41
2.0
 42
2.0
 43
2.0
  0
MTEXT
  5
C2CD
330
A33F
100
AcDbEntity
  8
30
  6
Continuous
 62
     0
100
AcDbMText
 10
455.8999999999998
 20
-181.0958749999999
 30
0.0
 40
6.0
 41
0.0
 71
     5
 72
     1
  1
\A1; 103 
 73
     1
 44
1.0
  0
POINT
  5
C2CE
330
A33F
100
AcDbEntity
  8
DEFPOINTS
  6
Continuous
 62
     0
100
AcDbPoint
 10
404.3999999999998
 20
-44.99999999999993
 30
0.0
  0
POINT
  5
C2CF
330
A33F
100
AcDbEntity
  8
DEFPOINTS
  6
Continuous
 62
     0
100
AcDbPoint
 10
507.3999999999998
 20
-136.9999999999999
 30
0.0
  0
POINT
  5
C2D0
330
A33F
100
AcDbEntity
  8
DEFPOINTS
  6
Continuous
 62
     0
100
AcDbPoint
 10
507.3999999999998
 20
-187.0958749999999
 30
0.0
  0
ENDBLK
  5
A349
330
A33F
100
AcDbEntity
  8
0
100
AcDbBlockEnd
  0
BLOCK
  5
A355
330
A34A
100
AcDbEntity
  8
0
100
AcDbBlockBegin
  2
*D18
 70
     1
 10
0.0
 20
0.0
 30
0.0
  3
*D18
  1

  0
LINE
  5
C33E
330
A34A
100
AcDbEntity
  8
30
  6
Continuous
 62
     0
370
    -2
100
AcDbLine
 10
637.3999999999997
 20
121.0000000000001
 30
0.0
 11
644.5279244687826
 21
121.0000000000001
 31
0.0
  0
LINE
  5
C33F
330
A34A
100
AcDbEntity
  8
30
  6
Continuous
 62
     0
370
    -2
100
AcDbLine
 10
637.3999999999997
 20
131.0
 30
0.0
 11
644.5279244687826
 21
131.0
 31
0.0
  0
LINE
  5
C340
330
A34A
100
AcDbEntity
  8
30
  6
Continuous
 62
     0
370
    -2
100
AcDbLine
 10
644.0279244687826
 20
123.0000000000001
 30
0.0
 11
644.0279244687826
 21
129.0
 31
0.0
  0
INSERT
  5
C341
330
A34A
100
AcDbEntity
  8
30
  6
Continuous
 62
     0
370
    -2
100
AcDbBlockReference
  2
_OPEN
 10
644.0279244687826
 20
121.0000000000001
 30
0.0
 41
2.0
 42
2.0
 43
2.0
 50
270.0
  0
INSERT
  5
C342
330
A34A
100
AcDbEntity
  8
30
  6
Continuous
 62
     0
370
    -2
100
AcDbBlockReference
  2
_OPEN
 10
644.0279244687826
 20
131.0
 30
0.0
 41
2.0
 42
2.0
 43
2.0
 50
90.0
  0
MTEXT
  5
C343
330
A34A
100
AcDbEntity
  8
30
  6
Continuous
 62
     0
100
AcDbMText
 10
638.0279244687828
 20
126.0000000000002
 30
0.0
 40
6.0
 41
0.0
 71
     5
 72
     1
  1
\A1;10 
 11
0.0000000000000001
 21
1.0
 31
0.0
 73
     1
 44
1.0
  0
POINT
  5
C344
330
A34A
100
AcDbEntity
  8
DEFPOINTS
  6
Continuous
 62
     0
100
AcDbPoint
 10
634.3999999999997
 20
121.0000000000001
 30
0.0
  0
POINT
  5
C345
330
A34A
100
AcDbEntity
  8
DEFPOINTS
  6
Continuous
 62
     0
100
AcDbPoint
 10
634.3999999999997
 20
131.0
 30
0.0
  0
POINT
  5
C346
330
A34A
100
AcDbEntity
  8
DEFPOINTS
  6
Continuous
 62
     0
100
AcDbPoint
 10
644.0279244687826
 20
131.0
 30
0.0
  0
ENDBLK
  5
A356
330
A34A
100
AcDbEntity
  8
0
100
AcDbBlockEnd
  0
BLOCK
  5
A362
330
A357
100
AcDbEntity
  8
0
100
AcDbBlockBegin
  2
*D19
 70
     1
 10
0.0
 20
0.0
 30
0.0
  3
*D19
  1

  0
LINE
  5
C32C
330
A357
100
AcDbEntity
  8
30
  6
Continuous
 62
     0
370
    -2
100
AcDbLine
 10
635.3999999999999
 20
-95.99999999999985
 30
0.0
 11
644.4269499999998
 21
-95.99999999999985
 31
0.0
  0
LINE
  5
C32D
330
A357
100
AcDbEntity
  8
30
  6
Continuous
 62
     0
370
    -2
100
AcDbLine
 10
635.3999999999999
 20
-137.9999999999999
 30
0.0
 11
644.4269499999998
 21
-137.9999999999999
 31
0.0
  0
LINE
  5
C32E
330
A357
100
AcDbEntity
  8
30
  6
Continuous
 62
     0
370
    -2
100
AcDbLine
 10
643.9269499999998
 20
-97.99999999999982
 30
0.0
 11
643.9269499999998
 21
-135.9999999999999
 31
0.0
  0
INSERT
  5
C32F
330
A357
100
AcDbEntity
  8
30
  6
Continuous
 62
     0
370
    -2
100
AcDbBlockReference
  2
_OPEN
 10
643.9269499999998
 20
-95.99999999999985
 30
0.0
 41
2.0
 42
2.0
 43
2.0
 50
90.0
  0
INSERT
  5
C330
330
A357
100
AcDbEntity
  8
30
  6
Continuous
 62
     0
370
    -2
100
AcDbBlockReference
  2
_OPEN
 10
643.9269499999998
 20
-137.9999999999999
 30
0.0
 41
2.0
 42
2.0
 43
2.0
 50
270.0
  0
MTEXT
  5
C331
330
A357
100
AcDbEntity
  8
30
  6
Continuous
 62
     0
100
AcDbMText
 10
637.9269499999998
 20
-116.9999999999997
 30
0.0
 40
6.0
 41
0.0
 71
     5
 72
     1
  1
\A1; 42 
 11
0.0000000000000001
 21
1.0
 31
0.0
 73
     1
 44
1.0
  0
POINT
  5
C332
330
A357
100
AcDbEntity
  8
DEFPOINTS
  6
Continuous
 62
     0
100
AcDbPoint
 10
632.3999999999998
 20
-95.99999999999985
 30
0.0
  0
POINT
  5
C333
330
A357
100
AcDbEntity
  8
DEFPOINTS
  6
Continuous
 62
     0
100
AcDbPoint
 10
632.3999999999998
 20
-137.9999999999999
 30
0.0
  0
POINT
  5
C334
330
A357
100
AcDbEntity
  8
DEFPOINTS
  6
Continuous
 62
     0
100
AcDbPoint
 10
643.9269499999998
 20
-137.9999999999999
 30
0.0
  0
ENDBLK
  5
A363
330
A357
100
AcDbEntity
  8
0
100
AcDbBlockEnd
  0
BLOCK
  5
A36E
330
A364
100
AcDbEntity
  8
0
100
AcDbBlockBegin
  2
*D20
 70
     1
 10
0.0
 20
0.0
 30
0.0
  3
*D20
  1

  0
LINE
  5
C306
330
A364
100
AcDbEntity
  8
30
  6
Continuous
 62
     0
370
    -2
100
AcDbLine
 10
479.3999999999998
 20
-100.7499999999997
 30
0.0
 11
479.3999999999998
 21
-78.28423179670237
 31
0.0
  0
LINE
  5
C307
330
A364
100
AcDbEntity
  8
30
  6
Continuous
 62
     0
370
    -2
100
AcDbLine
 10
507.3999999999998
 20
-82.03423179670236
 30
0.0
 11
507.3999999999998
 21
-78.28423179670237
 31
0.0
  0
LINE
  5
C308
330
A364
100
AcDbEntity
  8
30
  6
Continuous
 62
     0
370
    -2
100
AcDbLine
 10
481.3999999999999
 20
-78.7842317967024
 30
0.0
 11
505.3999999999998
 21
-78.7842317967024
 31
0.0
  0
INSERT
  5
C309
330
A364
100
AcDbEntity
  8
30
  6
Continuous
 62
     0
370
    -2
100
AcDbBlockReference
  2
_OPEN
 10
479.3999999999998
 20
-78.7842317967024
 30
0.0
 41
2.0
 42
2.0
 43
2.0
 50
180.0
  0
INSERT
  5
C30A
330
A364
100
AcDbEntity
  8
30
  6
Continuous
 62
     0
370
    -2
100
AcDbBlockReference
  2
_OPEN
 10
507.3999999999998
 20
-78.7842317967024
 30
0.0
 41
2.0
 42
2.0
 43
2.0
  0
MTEXT
  5
C30B
330
A364
100
AcDbEntity
  8
30
  6
Continuous
 62
     0
100
AcDbMText
 10
493.3999999999998
 20
-72.78423179670237
 30
0.0
 40
6.0
 41
0.0
 71
     5
 72
     1
  1
\A1; 28 
 73
     1
 44
1.0
  0
POINT
  5
C30C
330
A364
100
AcDbEntity
  8
DEFPOINTS
  6
Continuous
 62
     0
100
AcDbPoint
 10
479.3999999999998
 20
-103.7499999999997
 30
0.0
  0
POINT
  5
C30D
330
A364
100
AcDbEntity
  8
DEFPOINTS
  6
Continuous
 62
     0
100
AcDbPoint
 10
507.3999999999998
 20
-85.03423179670233
 30
0.0
  0
POINT
  5
C30E
330
A364
100
AcDbEntity
  8
DEFPOINTS
  6
Continuous
 62
     0
100
AcDbPoint
 10
507.3999999999998
 20
-78.7842317967024
 30
0.0
  0
ENDBLK
  5
A36F
330
A364
100
AcDbEntity
  8
0
100
AcDbBlockEnd
  0
BLOCK
  5
A37A
330
A370
100
AcDbEntity
  8
0
100
AcDbBlockBegin
  2
*D21
 70
     1
 10
0.0
 20
0.0
 30
0.0
  3
*D21
  1

  0
LINE
  5
C2FD
330
A370
100
AcDbEntity
  8
30
  6
Continuous
 62
     0
370
    -2
100
AcDbLine
 10
520.3999999999998
 20
-104.9999999999997
 30
0.0
 11
520.3999999999998
 21
-78.28423179670237
 31
0.0
  0
LINE
  5
C2FE
330
A370
100
AcDbEntity
  8
30
  6
Continuous
 62
     0
370
    -2
100
AcDbLine
 10
507.3999999999998
 20
-81.03423179670235
 30
0.0
 11
507.3999999999998
 21
-78.28423179670237
 31
0.0
  0
LINE
  5
C2FF
330
A370
100
AcDbEntity
  8
30
  6
Continuous
 62
     0
370
    -2
100
AcDbLine
 10
518.3999999999998
 20
-78.7842317967024
 30
0.0
 11
509.3999999999998
 21
-78.7842317967024
 31
0.0
  0
INSERT
  5
C300
330
A370
100
AcDbEntity
  8
30
  6
Continuous
 62
     0
370
    -2
100
AcDbBlockReference
  2
_OPEN
 10
520.3999999999998
 20
-78.7842317967024
 30
0.0
 41
2.0
 42
2.0
 43
2.0
  0
INSERT
  5
C301
330
A370
100
AcDbEntity
  8
30
  6
Continuous
 62
     0
370
    -2
100
AcDbBlockReference
  2
_OPEN
 10
507.3999999999998
 20
-78.7842317967024
 30
0.0
 41
2.0
 42
2.0
 43
2.0
 50
180.0
  0
MTEXT
  5
C302
330
A370
100
AcDbEntity
  8
30
  6
Continuous
 62
     0
100
AcDbMText
 10
511.4630848795832
 20
-72.78423179670237
 30
0.0
 40
6.0
 41
0.0
 71
     5
 72
     1
  1
\A1; 13 
 73
     1
 44
1.0
  0
POINT
  5
C303
330
A370
100
AcDbEntity
  8
DEFPOINTS
  6
Continuous
 62
     0
100
AcDbPoint
 10
520.3999999999998
 20
-107.9999999999997
 30
0.0
  0
POINT
  5
C304
330
A370
100
AcDbEntity
  8
DEFPOINTS
  6
Continuous
 62
     0
100
AcDbPoint
 10
507.3999999999998
 20
-84.03423179670236
 30
0.0
  0
POINT
  5
C305
330
A370
100
AcDbEntity
  8
DEFPOINTS
  6
Continuous
 62
     0
100
AcDbPoint
 10
507.3999999999998
 20
-78.7842317967024
 30
0.0
  0
ENDBLK
  5
A37B
330
A370
100
AcDbEntity
  8
0
100
AcDbBlockEnd
  0
BLOCK
  5
A3C5
330
A3BB
100
AcDbEntity
  8
0
100
AcDbBlockBegin
  2
*D22
 70
     1
 10
0.0
 20
0.0
 30
0.0
  3
*D22
  1

  0
LINE
  5
C42E
330
A3BB
100
AcDbEntity
  8
30
  6
Continuous
 62
     0
370
    -2
100
AcDbLine
 10
70.19999999999976
 20
445.1271619249113
 30
0.0
 11
70.19999999999976
 21
492.7230369249113
 31
0.0
  0
LINE
  5
C42F
330
A3BB
100
AcDbEntity
  8
30
  6
Continuous
 62
     0
370
    -2
100
AcDbLine
 10
140.1999999999999
 20
445.1271619249113
 30
0.0
 11
140.1999999999999
 21
492.7230369249113
 31
0.0
  0
LINE
  5
C430
330
A3BB
100
AcDbEntity
  8
30
  6
Continuous
 62
     0
370
    -2
100
AcDbLine
 10
72.19999999999976
 20
492.2230369249113
 30
0.0
 11
138.1999999999999
 21
492.2230369249113
 31
0.0
  0
INSERT
  5
C431
330
A3BB
100
AcDbEntity
  8
30
  6
Continuous
 62
     0
370
    -2
100
AcDbBlockReference
  2
_OPEN
 10
70.19999999999976
 20
492.2230369249113
 30
0.0
 41
2.0
 42
2.0
 43
2.0
 50
180.0
  0
INSERT
  5
C432
330
A3BB
100
AcDbEntity
  8
30
  6
Continuous
 62
     0
370
    -2
100
AcDbBlockReference
  2
_OPEN
 10
140.1999999999999
 20
492.2230369249113
 30
0.0
 41
2.0
 42
2.0
 43
2.0
  0
MTEXT
  5
C433
330
A3BB
100
AcDbEntity
  8
30
  6
Continuous
 62
     0
100
AcDbMText
 10
105.1999999999998
 20
498.2230369249113
 30
0.0
 40
6.0
 41
0.0
 71
     5
 72
     1
  1
\A1; 70 
 73
     1
 44
1.0
  0
POINT
  5
C434
330
A3BB
100
AcDbEntity
  8
DEFPOINTS
  6
Continuous
 62
     0
100
AcDbPoint
 10
70.19999999999976
 20
442.1271619249113
 30
0.0
  0
POINT
  5
C435
330
A3BB
100
AcDbEntity
  8
DEFPOINTS
  6
Continuous
 62
     0
100
AcDbPoint
 10
140.1999999999999
 20
442.1271619249113
 30
0.0
  0
POINT
  5
C436
330
A3BB
100
AcDbEntity
  8
DEFPOINTS
  6
Continuous
 62
     0
100
AcDbPoint
 10
140.1999999999999
 20
492.2230369249113
 30
0.0
  0
ENDBLK
  5
A3C6
330
A3BB
100
AcDbEntity
  8
0
100
AcDbBlockEnd
  0
BLOCK
  5
A3D1
330
A3C7
100
AcDbEntity
  8
0
100
AcDbBlockBegin
  2
*D23
 70
     1
 10
0.0
 20
0.0
 30
0.0
  3
*D23
  1

  0
LINE
  5
C425
330
A3C7
100
AcDbEntity
  8
30
  6
Continuous
 62
     0
370
    -2
100
AcDbLine
 10
0.1999999999997614
 20
445.1271619249113
 30
0.0
 11
0.1999999999997643
 21
492.7230369249113
 31
0.0
  0
LINE
  5
C426
330
A3C7
100
AcDbEntity
  8
30
  6
Continuous
 62
     0
370
    -2
100
AcDbLine
 10
70.19999999999976
 20
445.1271619249113
 30
0.0
 11
70.19999999999976
 21
492.7230369249113
 31
0.0
  0
LINE
  5
C427
330
A3C7
100
AcDbEntity
  8
30
  6
Continuous
 62
     0
370
    -2
100
AcDbLine
 10
2.199999999999764
 20
492.2230369249113
 30
0.0
 11
68.19999999999976
 21
492.2230369249113
 31
0.0
  0
INSERT
  5
C428
330
A3C7
100
AcDbEntity
  8
30
  6
Continuous
 62
     0
370
    -2
100
AcDbBlockReference
  2
_OPEN
 10
0.1999999999997643
 20
492.2230369249113
 30
0.0
 41
2.0
 42
2.0
 43
2.0
 50
180.0
  0
INSERT
  5
C429
330
A3C7
100
AcDbEntity
  8
30
  6
Continuous
 62
     0
370
    -2
100
AcDbBlockReference
  2
_OPEN
 10
70.19999999999976
 20
492.2230369249113
 30
0.0
 41
2.0
 42
2.0
 43
2.0
  0
MTEXT
  5
C42A
330
A3C7
100
AcDbEntity
  8
30
  6
Continuous
 62
     0
100
AcDbMText
 10
35.19999999999976
 20
498.2230369249113
 30
0.0
 40
6.0
 41
0.0
 71
     5
 72
     1
  1
\A1; 70 
 73
     1
 44
1.0
  0
POINT
  5
C42B
330
A3C7
100
AcDbEntity
  8
DEFPOINTS
  6
Continuous
 62
     0
100
AcDbPoint
 10
0.1999999999997612
 20
442.1271619249113
 30
0.0
  0
POINT
  5
C42C
330
A3C7
100
AcDbEntity
  8
DEFPOINTS
  6
Continuous
 62
     0
100
AcDbPoint
 10
70.19999999999976
 20
442.1271619249113
 30
0.0
  0
POINT
  5
C42D
330
A3C7
100
AcDbEntity
  8
DEFPOINTS
  6
Continuous
 62
     0
100
AcDbPoint
 10
70.19999999999976
 20
492.2230369249113
 30
0.0
  0
ENDBLK
  5
A3D2
330
A3C7
100
AcDbEntity
  8
0
100
AcDbBlockEnd
  0
BLOCK
  5
A879
330
A86F
100
AcDbEntity
  8
0
100
AcDbBlockBegin
  2
*D24
 70
     1
 10
0.0
 20
0.0
 30
0.0
  3
*D24
  1

  0
LINE
  5
C16A
330
A86F
100
AcDbEntity
  8
30
  6
Continuous
 62
     0
370
    -2
100
AcDbLine
 10
-38.00000000000013
 20
141.0
 30
0.0
 11
-81.01913889441719
 21
141.0
 31
0.0
  0
LINE
  5
C16B
330
A86F
100
AcDbEntity
  8
30
  6
Continuous
 62
     0
370
    -2
100
AcDbLine
 10
-38.00000000000002
 20
-131.9999999999999
 30
0.0
 11
-81.01913889441723
 21
-131.9999999999999
 31
0.0
  0
LINE
  5
C16C
330
A86F
100
AcDbEntity
  8
30
  6
Continuous
 62
     0
370
    -2
100
AcDbLine
 10
-80.51913889441719
 20
139.0
 30
0.0
 11
-80.51913889441724
 21
-129.9999999999999
 31
0.0
  0
INSERT
  5
C16D
330
A86F
100
AcDbEntity
  8
30
  6
Continuous
 62
     0
370
    -2
100
AcDbBlockReference
  2
_OPEN
 10
-80.51913889441719
 20
141.0
 30
0.0
 41
2.0
 42
2.0
 43
2.0
 50
90.0
  0
INSERT
  5
C16E
330
A86F
100
AcDbEntity
  8
30
  6
Continuous
 62
     0
370
    -2
100
AcDbBlockReference
  2
_OPEN
 10
-80.51913889441724
 20
-131.9999999999999
 30
0.0
 41
2.0
 42
2.0
 43
2.0
 50
270.0
  0
MTEXT
  5
C16F
330
A86F
100
AcDbEntity
  8
30
  6
Continuous
 62
     0
100
AcDbMText
 10
-86.5191388944172
 20
4.500000000000033
 30
0.0
 40
6.0
 41
0.0
 71
     5
 72
     1
  1
\A1;273
 11
0.0000000000000001
 21
1.0
 31
0.0
 73
     1
 44
1.0
  0
POINT
  5
C170
330
A86F
100
AcDbEntity
  8
DEFPOINTS
  6
Continuous
 62
     0
100
AcDbPoint
 10
-35.00000000000012
 20
141.0
 30
0.0
  0
POINT
  5
C171
330
A86F
100
AcDbEntity
  8
DEFPOINTS
  6
Continuous
 62
     0
100
AcDbPoint
 10
-35.00000000000003
 20
-131.9999999999999
 30
0.0
  0
POINT
  5
C172
330
A86F
100
AcDbEntity
  8
DEFPOINTS
  6
Continuous
 62
     0
100
AcDbPoint
 10
-80.51913889441724
 20
-131.9999999999999
 30
0.0
  0
ENDBLK
  5
A87A
330
A86F
100
AcDbEntity
  8
0
100
AcDbBlockEnd
  0
BLOCK
  5
A885
330
A87B
100
AcDbEntity
  8
0
100
AcDbBlockBegin
  2
*D25
 70
     1
 10
0.0
 20
0.0
 30
0.0
  3
*D25
  1

  0
LINE
  5
C161
330
A87B
100
AcDbEntity
  8
30
  6
Continuous
 62
     0
370
    -2
100
AcDbLine
 10
-38.00000000000002
 20
55.49999999999993
 30
0.0
 11
-68.34791239543744
 21
55.49999999999995
 31
0.0
  0
LINE
  5
C162
330
A87B
100
AcDbEntity
  8
30
  6
Continuous
 62
     0
370
    -2
100
AcDbLine
 10
-38.00000000000002
 20
-46.49999999999989
 30
0.0
 11
-68.34791239543747
 21
-46.49999999999989
 31
0.0
  0
LINE
  5
C163
330
A87B
100
AcDbEntity
  8
30
  6
Continuous
 62
     0
370
    -2
100
AcDbLine
 10
-67.84791239543745
 20
53.49999999999995
 30
0.0
 11
-67.84791239543747
 21
-44.49999999999991
 31
0.0
  0
INSERT
  5
C164
330
A87B
100
AcDbEntity
  8
30
  6
Continuous
 62
     0
370
    -2
100
AcDbBlockReference
  2
_OPEN
 10
-67.84791239543745
 20
55.49999999999995
 30
0.0
 41
2.0
 42
2.0
 43
2.0
 50
90.0
  0
INSERT
  5
C165
330
A87B
100
AcDbEntity
  8
30
  6
Continuous
 62
     0
370
    -2
100
AcDbBlockReference
  2
_OPEN
 10
-67.84791239543747
 20
-46.49999999999989
 30
0.0
 41
2.0
 42
2.0
 43
2.0
 50
270.0
  0
MTEXT
  5
C166
330
A87B
100
AcDbEntity
  8
30
  6
Continuous
 62
     0
100
AcDbMText
 10
-73.84791239543744
 20
4.500000000000011
 30
0.0
 40
6.0
 41
0.0
 71
     5
 72
     1
  1
\A1;102
 11
0.0000000000000001
 21
1.0
 31
0.0
 73
     1
 44
1.0
  0
POINT
  5
C167
330
A87B
100
AcDbEntity
  8
DEFPOINTS
  6
Continuous
 62
     0
100
AcDbPoint
 10
-35.00000000000003
 20
55.49999999999993
 30
0.0
  0
POINT
  5
C168
330
A87B
100
AcDbEntity
  8
DEFPOINTS
  6
Continuous
 62
     0
100
AcDbPoint
 10
-35.00000000000003
 20
-46.49999999999989
 30
0.0
  0
POINT
  5
C169
330
A87B
100
AcDbEntity
  8
DEFPOINTS
  6
Continuous
 62
     0
100
AcDbPoint
 10
-67.84791239543747
 20
-46.49999999999989
 30
0.0
  0
ENDBLK
  5
A886
330
A87B
100
AcDbEntity
  8
0
100
AcDbBlockEnd
  0
BLOCK
  5
A939
330
A92F
100
AcDbEntity
  8
0
100
AcDbBlockBegin
  2
*D26
 70
     1
 10
0.0
 20
0.0
 30
0.0
  3
*D26
  1

  0
LINE
  5
C2BF
330
A92F
100
AcDbEntity
  8
30
  6
Continuous
 62
     0
370
    -2
100
AcDbLine
 10
410.3999999999998
 20
-134.9999999999999
 30
0.0
 11
410.3999999999998
 21
-169.5532887500315
 31
0.0
  0
LINE
  5
C2C0
330
A92F
100
AcDbEntity
  8
30
  6
Continuous
 62
     0
370
    -2
100
AcDbLine
 10
507.3999999999998
 20
-134.9999999999999
 30
0.0
 11
507.3999999999998
 21
-169.5532887500315
 31
0.0
  0
LINE
  5
C2C1
330
A92F
100
AcDbEntity
  8
30
  6
Continuous
 62
     0
370
    -2
100
AcDbLine
 10
412.3999999999998
 20
-169.0532887500314
 30
0.0
 11
505.3999999999998
 21
-169.0532887500314
 31
0.0
  0
INSERT
  5
C2C2
330
A92F
100
AcDbEntity
  8
30
  6
Continuous
 62
     0
370
    -2
100
AcDbBlockReference
  2
_OPEN
 10
410.3999999999998
 20
-169.0532887500314
 30
0.0
 41
2.0
 42
2.0
 43
2.0
 50
180.0
  0
INSERT
  5
C2C3
330
A92F
100
AcDbEntity
  8
30
  6
Continuous
 62
     0
370
    -2
100
AcDbBlockReference
  2
_OPEN
 10
507.3999999999998
 20
-169.0532887500314
 30
0.0
 41
2.0
 42
2.0
 43
2.0
  0
MTEXT
  5
C2C4
330
A92F
100
AcDbEntity
  8
30
  6
Continuous
 62
     0
100
AcDbMText
 10
458.8999999999998
 20
-163.0532887500315
 30
0.0
 40
6.0
 41
0.0
 71
     5
 72
     1
  1
\A1;97
 73
     1
 44
1.0
  0
POINT
  5
C2C5
330
A92F
100
AcDbEntity
  8
DEFPOINTS
  6
Continuous
 62
     0
100
AcDbPoint
 10
410.3999999999998
 20
-131.9999999999999
 30
0.0
  0
POINT
  5
C2C6
330
A92F
100
AcDbEntity
  8
DEFPOINTS
  6
Continuous
 62
     0
100
AcDbPoint
 10
507.3999999999998
 20
-131.9999999999999
 30
0.0
  0
POINT
  5
C2C7
330
A92F
100
AcDbEntity
  8
DEFPOINTS
  6
Continuous
 62
     0
100
AcDbPoint
 10
507.3999999999998
 20
-169.0532887500314
 30
0.0
  0
ENDBLK
  5
A93A
330
A92F
100
AcDbEntity
  8
0
100
AcDbBlockEnd
  0
BLOCK
  5
A95B
330
A951
100
AcDbEntity
  8
0
100
AcDbBlockBegin
  2
*D27
 70
     1
 10
0.0
 20
0.0
 30
0.0
  3
*D27
  1

  0
LINE
  5
C2F4
330
A951
100
AcDbEntity
  8
30
  6
Continuous
 62
     0
370
    -2
100
AcDbLine
 10
507.3999999999998
 20
-166.0532887500314
 30
0.0
 11
507.3999999999998
 21
-168.5532887500315
 31
0.0
  0
LINE
  5
C2F5
330
A951
100
AcDbEntity
  8
30
  6
Continuous
 62
     0
370
    -2
100
AcDbLine
 10
569.3999999999999
 20
-152.9999999999999
 30
0.0
 11
569.3999999999999
 21
-169.5532887500315
 31
0.0
  0
LINE
  5
C2F6
330
A951
100
AcDbEntity
  8
30
  6
Continuous
 62
     0
370
    -2
100
AcDbLine
 10
509.3999999999998
 20
-169.0532887500314
 30
0.0
 11
567.3999999999997
 21
-169.0532887500314
 31
0.0
  0
INSERT
  5
C2F7
330
A951
100
AcDbEntity
  8
30
  6
Continuous
 62
     0
370
    -2
100
AcDbBlockReference
  2
_OPEN
 10
507.3999999999998
 20
-169.0532887500314
 30
0.0
 41
2.0
 42
2.0
 43
2.0
 50
180.0
  0
INSERT
  5
C2F8
330
A951
100
AcDbEntity
  8
30
  6
Continuous
 62
     0
370
    -2
100
AcDbBlockReference
  2
_OPEN
 10
569.3999999999999
 20
-169.0532887500314
 30
0.0
 41
2.0
 42
2.0
 43
2.0
  0
MTEXT
  5
C2F9
330
A951
100
AcDbEntity
  8
30
  6
Continuous
 62
     0
100
AcDbMText
 10
538.3999999999998
 20
-163.0532887500315
 30
0.0
 40
6.0
 41
0.0
 71
     5
 72
     1
  1
\A1;62
 73
     1
 44
1.0
  0
POINT
  5
C2FA
330
A951
100
AcDbEntity
  8
DEFPOINTS
  6
Continuous
 62
     0
100
AcDbPoint
 10
507.3999999999998
 20
-169.0532887500314
 30
0.0
  0
POINT
  5
C2FB
330
A951
100
AcDbEntity
  8
DEFPOINTS
  6
Continuous
 62
     0
100
AcDbPoint
 10
569.3999999999999
 20
-149.9999999999999
 30
0.0
  0
POINT
  5
C2FC
330
A951
100
AcDbEntity
  8
DEFPOINTS
  6
Continuous
 62
     0
100
AcDbPoint
 10
569.3999999999999
 20
-169.0532887500314
 30
0.0
  0
ENDBLK
  5
A95C
330
A951
100
AcDbEntity
  8
0
100
AcDbBlockEnd
  0
BLOCK
  5
A967
330
A95D
100
AcDbEntity
  8
0
100
AcDbBlockBegin
  2
*D28
 70
     1
 10
0.0
 20
0.0
 30
0.0
  3
*D28
  1

  0
LINE
  5
C318
330
A95D
100
AcDbEntity
  8
30
  6
Continuous
 62
     0
370
    -2
100
AcDbLine
 10
577.3999999999999
 20
-149.9999999999999
 30
0.0
 11
577.3999999999999
 21
-169.5532887500315
 31
0.0
  0
LINE
  5
C319
330
A95D
100
AcDbEntity
  8
30
  6
Continuous
 62
     0
370
    -2
100
AcDbLine
 10
609.3999999999997
 20
-165.7499999999999
 30
0.0
 11
609.3999999999997
 21
-169.5532887500315
 31
0.0
  0
LINE
  5
C31A
330
A95D
100
AcDbEntity
  8
30
  6
Continuous
 62
     0
370
    -2
100
AcDbLine
 10
579.3999999999997
 20
-169.0532887500314
 30
0.0
 11
607.3999999999998
 21
-169.0532887500314
 31
0.0
  0
INSERT
  5
C31B
330
A95D
100
AcDbEntity
  8
30
  6
Continuous
 62
     0
370
    -2
100
AcDbBlockReference
  2
_OPEN
 10
577.3999999999999
 20
-169.0532887500314
 30
0.0
 41
2.0
 42
2.0
 43
2.0
 50
180.0
  0
INSERT
  5
C31C
330
A95D
100
AcDbEntity
  8
30
  6
Continuous
 62
     0
370
    -2
100
AcDbBlockReference
  2
_OPEN
 10
609.3999999999997
 20
-169.0532887500314
 30
0.0
 41
2.0
 42
2.0
 43
2.0
  0
MTEXT
  5
C31D
330
A95D
100
AcDbEntity
  8
30
  6
Continuous
 62
     0
100
AcDbMText
 10
593.3999999999997
 20
-163.0532887500315
 30
0.0
 40
6.0
 41
0.0
 71
     5
 72
     1
  1
\A1;32
 73
     1
 44
1.0
  0
POINT
  5
C31E
330
A95D
100
AcDbEntity
  8
DEFPOINTS
  6
Continuous
 62
     0
100
AcDbPoint
 10
577.3999999999999
 20
-146.9999999999999
 30
0.0
  0
POINT
  5
C31F
330
A95D
100
AcDbEntity
  8
DEFPOINTS
  6
Continuous
 62
     0
100
AcDbPoint
 10
609.3999999999997
 20
-162.7499999999999
 30
0.0
  0
POINT
  5
C320
330
A95D
100
AcDbEntity
  8
DEFPOINTS
  6
Continuous
 62
     0
100
AcDbPoint
 10
609.3999999999997
 20
-169.0532887500314
 30
0.0
  0
ENDBLK
  5
A968
330
A95D
100
AcDbEntity
  8
0
100
AcDbBlockEnd
  0
BLOCK
  5
A973
330
A969
100
AcDbEntity
  8
0
100
AcDbBlockBegin
  2
*D29
 70
     1
 10
0.0
 20
0.0
 30
0.0
  3
*D29
  1

  0
LINE
  5
C2E2
330
A969
100
AcDbEntity
  8
30
  6
Continuous
 62
     0
370
    -2
100
AcDbLine
 10
609.3999999999997
 20
-149.9999999999999
 30
0.0
 11
609.3999999999997
 21
-169.5532887500315
 31
0.0
  0
LINE
  5
C2E3
330
A969
100
AcDbEntity
  8
30
  6
Continuous
 62
     0
370
    -2
100
AcDbLine
 10
629.3999999999997
 20
-138.9999999999999
 30
0.0
 11
629.3999999999997
 21
-169.5532887500315
 31
0.0
  0
LINE
  5
C2E4
330
A969
100
AcDbEntity
  8
30
  6
Continuous
 62
     0
370
    -2
100
AcDbLine
 10
611.3999999999997
 20
-169.0532887500314
 30
0.0
 11
627.3999999999999
 21
-169.0532887500314
 31
0.0
  0
INSERT
  5
C2E5
330
A969
100
AcDbEntity
  8
30
  6
Continuous
 62
     0
370
    -2
100
AcDbBlockReference
  2
_OPEN
 10
609.3999999999997
 20
-169.0532887500314
 30
0.0
 41
2.0
 42
2.0
 43
2.0
 50
180.0
  0
INSERT
  5
C2E6
330
A969
100
AcDbEntity
  8
30
  6
Continuous
 62
     0
370
    -2
100
AcDbBlockReference
  2
_OPEN
 10
629.3999999999997
 20
-169.0532887500314
 30
0.0
 41
2.0
 42
2.0
 43
2.0
  0
MTEXT
  5
C2E7
330
A969
100
AcDbEntity
  8
30
  6
Continuous
 62
     0
100
AcDbMText
 10
619.3999999999999
 20
-163.0532887500315
 30
0.0
 40
6.0
 41
0.0
 71
     5
 72
     1
  1
\A1;20
 73
     1
 44
1.0
  0
POINT
  5
C2E8
330
A969
100
AcDbEntity
  8
DEFPOINTS
  6
Continuous
 62
     0
100
AcDbPoint
 10
609.3999999999997
 20
-146.9999999999999
 30
0.0
  0
POINT
  5
C2E9
330
A969
100
AcDbEntity
  8
DEFPOINTS
  6
Continuous
 62
     0
100
AcDbPoint
 10
629.3999999999997
 20
-135.9999999999999
 30
0.0
  0
POINT
  5
C2EA
330
A969
100
AcDbEntity
  8
DEFPOINTS
  6
Continuous
 62
     0
100
AcDbPoint
 10
629.3999999999997
 20
-169.0532887500314
 30
0.0
  0
ENDBLK
  5
A974
330
A969
100
AcDbEntity
  8
0
100
AcDbBlockEnd
  0
BLOCK
  5
A97F
330
A975
100
AcDbEntity
  8
0
100
AcDbBlockBegin
  2
*D30
 70
     1
 10
0.0
 20
0.0
 30
0.0
  3
*D30
  1

  0
LINE
  5
C2EB
330
A975
100
AcDbEntity
  8
30
  6
Continuous
 62
     0
370
    -2
100
AcDbLine
 10
507.3999999999998
 20
-184.1203109059123
 30
0.0
 11
507.3999999999998
 21
-186.6203109059123
 31
0.0
  0
LINE
  5
C2EC
330
A975
100
AcDbEntity
  8
30
  6
Continuous
 62
     0
370
    -2
100
AcDbLine
 10
629.3999999999997
 20
-138.9999999999999
 30
0.0
 11
629.3999999999997
 21
-187.6203109059123
 31
0.0
  0
LINE
  5
C2ED
330
A975
100
AcDbEntity
  8
30
  6
Continuous
 62
     0
370
    -2
100
AcDbLine
 10
509.3999999999998
 20
-187.1203109059123
 30
0.0
 11
627.3999999999999
 21
-187.1203109059123
 31
0.0
  0
INSERT
  5
C2EE
330
A975
100
AcDbEntity
  8
30
  6
Continuous
 62
     0
370
    -2
100
AcDbBlockReference
  2
_OPEN
 10
507.3999999999998
 20
-187.1203109059123
 30
0.0
 41
2.0
 42
2.0
 43
2.0
 50
180.0
  0
INSERT
  5
C2EF
330
A975
100
AcDbEntity
  8
30
  6
Continuous
 62
     0
370
    -2
100
AcDbBlockReference
  2
_OPEN
 10
629.3999999999997
 20
-187.1203109059123
 30
0.0
 41
2.0
 42
2.0
 43
2.0
  0
MTEXT
  5
C2F0
330
A975
100
AcDbEntity
  8
30
  6
Continuous
 62
     0
100
AcDbMText
 10
568.3999999999997
 20
-181.1203109059123
 30
0.0
 40
6.0
 41
0.0
 71
     5
 72
     1
  1
\A1;122
 73
     1
 44
1.0
  0
POINT
  5
C2F1
330
A975
100
AcDbEntity
  8
DEFPOINTS
  6
Continuous
 62
     0
100
AcDbPoint
 10
507.3999999999998
 20
-187.1203109059123
 30
0.0
  0
POINT
  5
C2F2
330
A975
100
AcDbEntity
  8
DEFPOINTS
  6
Continuous
 62
     0
100
AcDbPoint
 10
629.3999999999997
 20
-135.9999999999999
 30
0.0
  0
POINT
  5
C2F3
330
A975
100
AcDbEntity
  8
DEFPOINTS
  6
Continuous
 62
     0
100
AcDbPoint
 10
629.3999999999997
 20
-187.1203109059123
 30
0.0
  0
ENDBLK
  5
A980
330
A975
100
AcDbEntity
  8
0
100
AcDbBlockEnd
  0
BLOCK
  5
A9E6
330
A9DC
100
AcDbEntity
  8
0
100
AcDbBlockBegin
  2
*D31
 70
     1
 10
0.0
 20
0.0
 30
0.0
  3
*D31
  1

  0
LINE
  5
C321
330
A9DC
100
AcDbEntity
  8
30
  6
Continuous
 62
     0
370
    -2
100
AcDbLine
 10
569.3999999999999
 20
-149.9999999999999
 30
0.0
 11
569.3999999999999
 21
-169.5532887500315
 31
0.0
  0
LINE
  5
C322
330
A9DC
100
AcDbEntity
  8
30
  6
Continuous
 62
     0
370
    -2
100
AcDbLine
 10
577.3999999999999
 20
-149.9999999999999
 30
0.0
 11
577.3999999999999
 21
-169.5532887500315
 31
0.0
  0
LINE
  5
C323
330
A9DC
100
AcDbEntity
  8
30
  6
Continuous
 62
     0
370
    -2
100
AcDbLine
 10
567.3999999999997
 20
-169.0532887500314
 30
0.0
 11
565.3999999999999
 21
-169.0532887500314
 31
0.0
  0
LINE
  5
C324
330
A9DC
100
AcDbEntity
  8
30
  6
Continuous
 62
     0
370
    -2
100
AcDbLine
 10
579.3999999999997
 20
-169.0532887500314
 30
0.0
 11
581.3999999999999
 21
-169.0532887500314
 31
0.0
  0
LINE
  5
C325
330
A9DC
100
AcDbEntity
  8
30
  6
Continuous
 62
     0
370
    -2
100
AcDbLine
 10
569.3999999999999
 20
-169.0532887500314
 30
0.0
 11
577.3999999999999
 21
-169.0532887500314
 31
0.0
  0
INSERT
  5
C326
330
A9DC
100
AcDbEntity
  8
30
  6
Continuous
 62
     0
370
    -2
100
AcDbBlockReference
  2
_OPEN
 10
569.3999999999999
 20
-169.0532887500314
 30
0.0
 41
2.0
 42
2.0
 43
2.0
  0
INSERT
  5
C327
330
A9DC
100
AcDbEntity
  8
30
  6
Continuous
 62
     0
370
    -2
100
AcDbBlockReference
  2
_OPEN
 10
577.3999999999999
 20
-169.0532887500314
 30
0.0
 41
2.0
 42
2.0
 43
2.0
 50
180.0
  0
MTEXT
  5
C328
330
A9DC
100
AcDbEntity
  8
30
  6
Continuous
 62
     0
100
AcDbMText
 10
573.3999999999999
 20
-163.0532887500315
 30
0.0
 40
6.0
 41
0.0
 71
     5
 72
     1
  1
\A1;8
 73
     1
 44
1.0
  0
POINT
  5
C329
330
A9DC
100
AcDbEntity
  8
DEFPOINTS
  6
Continuous
 62
     0
100
AcDbPoint
 10
569.3999999999999
 20
-146.9999999999999
 30
0.0
  0
POINT
  5
C32A
330
A9DC
100
AcDbEntity
  8
DEFPOINTS
  6
Continuous
 62
     0
100
AcDbPoint
 10
577.3999999999999
 20
-146.9999999999999
 30
0.0
  0
POINT
  5
C32B
330
A9DC
100
AcDbEntity
  8
DEFPOINTS
  6
Continuous
 62
     0
100
AcDbPoint
 10
577.3999999999999
 20
-169.0532887500314
 30
0.0
  0
ENDBLK
  5
A9E7
330
A9DC
100
AcDbEntity
  8
0
100
AcDbBlockEnd
  0
BLOCK
  5
AA1F
330
AA16
100
AcDbEntity
  8
0
100
AcDbBlockBegin
  2
*D32
 70
     1
 10
0.0
 20
0.0
 30
0.0
  3
*D32
  1

  0
LINE
  5
C2DA
330
AA16
100
AcDbEntity
  8
30
  6
Continuous
 62
     0
370
    -2
100
AcDbLine
 10
605.8207708520134
 20
-120.6874892545164
 30
0.0
 11
610.9792291479878
 21
-113.3125107454837
 31
0.0
  0
LINE
  5
C2DB
330
AA16
100
AcDbEntity
  8
30
  6
Continuous
 62
     0
370
    -2
100
AcDbLine
 10
612.1255532137596
 20
-111.6736266323653
 30
0.0
 11
631.4130359896462
 21
-84.09857168299888
 31
0.0
  0
LINE
  5
C2DC
330
AA16
100
AcDbEntity
  8
30
  6
Continuous
 62
     0
370
    -2
100
AcDbLine
 10
631.4130359896462
 20
-84.09857168299888
 30
0.0
 11
648.4130359896462
 21
-84.09857168299893
 31
0.0
  0
INSERT
  5
C2DD
330
AA16
100
AcDbEntity
  8
30
  6
Continuous
 62
     0
370
    -2
100
AcDbBlockReference
  2
_OPEN
 10
604.6744467862412
 20
-122.3263733676346
 30
0.0
 41
2.0
 42
2.0
 43
2.0
 50
235.0289804156418
  0
INSERT
  5
C2DE
330
AA16
100
AcDbEntity
  8
30
  6
Continuous
 62
     0
370
    -2
100
AcDbBlockReference
  2
_OPEN
 10
612.1255532137596
 20
-111.6736266323653
 30
0.0
 41
2.0
 42
2.0
 43
2.0
 50
55.02898041564183
  0
MTEXT
  5
C2DF
330
AA16
100
AcDbEntity
  8
30
  6
Continuous
 62
     0
100
AcDbMText
 10
641.4130359896462
 20
-78.09857168299898
 30
0.0
 40
6.0
 41
0.0
 71
     5
 72
     1
  1
\A1;\U+220513
 73
     1
 44
1.0
  0
POINT
  5
C2E0
330
AA16
100
AcDbEntity
  8
DEFPOINTS
  6
Continuous
 62
     0
100
AcDbPoint
 10
612.1255532137596
 20
-111.6736266323653
 30
0.0
  0
POINT
  5
C2E1
330
AA16
100
AcDbEntity
  8
DEFPOINTS
  6
Continuous
 62
     0
100
AcDbPoint
 10
604.6744467862412
 20
-122.3263733676346
 30
0.0
  0
ENDBLK
  5
AA20
330
AA16
100
AcDbEntity
  8
0
100
AcDbBlockEnd
  0
BLOCK
  5
AE93
330
AE8A
100
AcDbEntity
  8
0
100
AcDbBlockBegin
  2
*D33
 70
     1
 10
0.0
 20
0.0
 30
0.0
  3
*D33
  1

  0
LINE
  5
C1B8
330
AE8A
100
AcDbEntity
  8
30
  6
Continuous
 62
     0
370
    -2
100
AcDbLine
 10
34.086426441704
 20
-228.7177250994314
 30
0.0
 11
27.75255916610702
 21
-194.6359440640319
 31
0.0
  0
LINE
  5
C1B9
330
AE8A
100
AcDbEntity
  8
30
  6
Continuous
 62
     0
370
    -2
100
AcDbLine
 10
27.75255916610702
 20
-194.6359440640319
 30
0.0
 11
14.75255916610702
 21
-194.6359440640319
 31
0.0
  0
INSERT
  5
C1BA
330
AE8A
100
AcDbEntity
  8
30
  6
Continuous
 62
     0
370
    -2
100
AcDbBlockReference
  2
_OPEN
 10
34.45185586502232
 20
-230.6840570491726
 30
0.0
 41
2.0
 42
2.0
 43
2.0
 50
280.5279241790731
  0
MTEXT
  5
C1BB
330
AE8A
100
AcDbEntity
  8
30
  6
Continuous
 62
     0
100
AcDbMText
 10
19.75255916610707
 20
-188.6359440640319
 30
0.0
 40
6.0
 41
0.0
 71
     5
 72
     1
  1
\A1;M6
 73
     1
 44
1.0
  0
LINE
  5
C1BC
330
AE8A
100
AcDbEntity
  8
30
  6
Continuous
 62
     0
370
    -2
100
AcDbLine
 10
34.90999999999977
 20
-233.6335549737845
 30
0.0
 11
35.08999999999977
 21
-233.6335549737845
 31
0.0
  0
LINE
  5
C1BD
330
AE8A
100
AcDbEntity
  8
30
  6
Continuous
 62
     0
370
    -2
100
AcDbLine
 10
34.99999999999977
 20
-233.7235549737846
 30
0.0
 11
34.99999999999977
 21
-233.5435549737846
 31
0.0
  0
POINT
  5
C1BE
330
AE8A
100
AcDbEntity
  8
DEFPOINTS
  6
Continuous
 62
     0
100
AcDbPoint
 10
34.45185586502232
 20
-230.6840570491726
 30
0.0
  0
POINT
  5
C1BF
330
AE8A
100
AcDbEntity
  8
DEFPOINTS
  6
Continuous
 62
     0
100
AcDbPoint
 10
35.54814413497721
 20
-236.5830528983964
 30
0.0
  0
ENDBLK
  5
AE94
330
AE8A
100
AcDbEntity
  8
0
100
AcDbBlockEnd
  0
BLOCK
  5
AF89
330
AF7F
100
AcDbEntity
  8
0
100
AcDbBlockBegin
  2
*D34
 70
     1
 10
0.0
 20
0.0
 30
0.0
  3
*D34
  1

  0
LINE
  5
C335
330
AF7F
100
AcDbEntity
  8
30
  6
Continuous
 62
     0
370
    -2
100
AcDbLine
 10
632.3999999999998
 20
126.0
 30
0.0
 11
658.0799087336529
 21
126.0
 31
0.0
  0
LINE
  5
C336
330
AF7F
100
AcDbEntity
  8
30
  6
Continuous
 62
     0
370
    -2
100
AcDbLine
 10
632.3999999999998
 20
0.0000000000002265
 30
0.0
 11
658.0799087336529
 21
0.0000000000002192
 31
0.0
  0
LINE
  5
C337
330
AF7F
100
AcDbEntity
  8
30
  6
Continuous
 62
     0
370
    -2
100
AcDbLine
 10
657.5799087336529
 20
124.0
 30
0.0
 11
657.5799087336529
 21
2.000000000000218
 31
0.0
  0
INSERT
  5
C338
330
AF7F
100
AcDbEntity
  8
30
  6
Continuous
 62
     0
370
    -2
100
AcDbBlockReference
  2
_OPEN
 10
657.5799087336529
 20
126.0
 30
0.0
 41
2.0
 42
2.0
 43
2.0
 50
90.0
  0
INSERT
  5
C339
330
AF7F
100
AcDbEntity
  8
30
  6
Continuous
 62
     0
370
    -2
100
AcDbBlockReference
  2
_OPEN
 10
657.5799087336529
 20
0.0000000000002194
 30
0.0
 41
2.0
 42
2.0
 43
2.0
 50
270.0
  0
MTEXT
  5
C33A
330
AF7F
100
AcDbEntity
  8
30
  6
Continuous
 62
     0
100
AcDbMText
 10
651.5799087336529
 20
63.00000000000022
 30
0.0
 40
6.0
 41
0.0
 71
     5
 72
     1
  1
\A1;126
 11
0.0000000000000001
 21
1.0
 31
0.0
 73
     1
 44
1.0
  0
POINT
  5
C33B
330
AF7F
100
AcDbEntity
  8
DEFPOINTS
  6
Continuous
 62
     0
100
AcDbPoint
 10
629.3999999999997
 20
126.0
 30
0.0
  0
POINT
  5
C33C
330
AF7F
100
AcDbEntity
  8
DEFPOINTS
  6
Continuous
 62
     0
100
AcDbPoint
 10
629.3999999999997
 20
0.0000000000002274
 30
0.0
  0
POINT
  5
C33D
330
AF7F
100
AcDbEntity
  8
DEFPOINTS
  6
Continuous
 62
     0
100
AcDbPoint
 10
657.5799087336529
 20
0.0000000000002194
 30
0.0
  0
ENDBLK
  5
AF8A
330
AF7F
100
AcDbEntity
  8
0
100
AcDbBlockEnd
  0
BLOCK
  5
AF96
330
AF8C
100
AcDbEntity
  8
0
100
AcDbBlockBegin
  2
*D35
 70
     1
 10
0.0
 20
0.0
 30
0.0
  3
*D35
  1

  0
LINE
  5
C299
330
AF8C
100
AcDbEntity
  8
30
  6
Continuous
 62
     0
370
    -2
100
AcDbLine
 10
632.3999999999998
 20
-116.9999999999999
 30
0.0
 11
658.0799087336529
 21
-116.9999999999999
 31
0.0
  0
LINE
  5
C29A
330
AF8C
100
AcDbEntity
  8
30
  6
Continuous
 62
     0
370
    -2
100
AcDbLine
 10
654.5799087336529
 20
0.0000000000002202
 30
0.0
 11
657.0799087336529
 21
0.0000000000002195
 31
0.0
  0
LINE
  5
C29B
330
AF8C
100
AcDbEntity
  8
30
  6
Continuous
 62
     0
370
    -2
100
AcDbLine
 10
657.5799087336529
 20
-114.9999999999999
 30
0.0
 11
657.5799087336529
 21
-1.999999999999779
 31
0.0
  0
INSERT
  5
C29C
330
AF8C
100
AcDbEntity
  8
30
  6
Continuous
 62
     0
370
    -2
100
AcDbBlockReference
  2
_OPEN
 10
657.5799087336529
 20
-116.9999999999999
 30
0.0
 41
2.0
 42
2.0
 43
2.0
 50
270.0
  0
INSERT
  5
C29D
330
AF8C
100
AcDbEntity
  8
30
  6
Continuous
 62
     0
370
    -2
100
AcDbBlockReference
  2
_OPEN
 10
657.5799087336529
 20
0.0000000000002194
 30
0.0
 41
2.0
 42
2.0
 43
2.0
 50
90.0
  0
MTEXT
  5
C29E
330
AF8C
100
AcDbEntity
  8
30
  6
Continuous
 62
     0
100
AcDbMText
 10
651.5799087336529
 20
-58.49999999999977
 30
0.0
 40
6.0
 41
0.0
 71
     5
 72
     1
  1
\A1;117
 11
0.0000000000000001
 21
1.0
 31
0.0
 73
     1
 44
1.0
  0
POINT
  5
C29F
330
AF8C
100
AcDbEntity
  8
DEFPOINTS
  6
Continuous
 62
     0
100
AcDbPoint
 10
629.3999999999997
 20
-116.9999999999999
 30
0.0
  0
POINT
  5
C2A0
330
AF8C
100
AcDbEntity
  8
DEFPOINTS
  6
Continuous
 62
     0
100
AcDbPoint
 10
657.5799087336529
 20
0.0000000000002194
 30
0.0
  0
POINT
  5
C2A1
330
AF8C
100
AcDbEntity
  8
DEFPOINTS
  6
Continuous
 62
     0
100
AcDbPoint
 10
657.5799087336529
 20
0.0000000000002194
 30
0.0
  0
ENDBLK
  5
AF97
330
AF8C
100
AcDbEntity
  8
0
100
AcDbBlockEnd
  0
BLOCK
  5
B0A8
330
B09C
100
AcDbEntity
  8
0
100
AcDbBlockBegin
  2
*D36
 70
     1
 10
0.0
 20
0.0
 30
0.0
  3
*D36
  1

  0
LINE
  5
BAED
330
B09C
100
AcDbEntity
  8
30
  6
Continuous
 62
     0
370
    -2
100
AcDbLine
 10
179.0
 20
-223.7235549737841
 30
0.0
 11
246.4692079724309
 21
-223.7235549737844
 31
0.0
  0
LINE
  5
BAEE
330
B09C
100
AcDbEntity
  8
30
  6
Continuous
 62
     0
370
    -2
100
AcDbLine
 10
178.0
 20
-218.7235549737841
 30
0.0
 11
246.4692079724309
 21
-218.7235549737841
 31
0.0
  0
LINE
  5
BAEF
330
B09C
100
AcDbEntity
  8
30
  6
Continuous
 62
     0
370
    -2
100
AcDbLine
 10
245.9692079724309
 20
-225.7235549737844
 30
0.0
 11
245.9692079724309
 21
-227.7235549737844
 31
0.0
  0
LINE
  5
BAF0
330
B09C
100
AcDbEntity
  8
30
  6
Continuous
 62
     0
370
    -2
100
AcDbLine
 10
245.9692079724309
 20
-216.7235549737842
 30
0.0
 11
245.9692079724309
 21
-214.7235549737842
 31
0.0
  0
LINE
  5
BAF1
330
B09C
100
AcDbEntity
  8
30
  6
Continuous
 62
     0
370
    -2
100
AcDbLine
 10
245.9692079724309
 20
-223.7235549737844
 30
0.0
 11
245.9692079724309
 21
-218.7235549737841
 31
0.0
  0
INSERT
  5
BAF2
330
B09C
100
AcDbEntity
  8
30
  6
Continuous
 62
     0
370
    -2
100
AcDbBlockReference
  2
_OPEN
 10
245.9692079724309
 20
-223.7235549737844
 30
0.0
 41
2.0
 42
2.0
 43
2.0
 50
90.0
  0
INSERT
  5
BAF3
330
B09C
100
AcDbEntity
  8
30
  6
Continuous
 62
     0
370
    -2
100
AcDbBlockReference
  2
_OPEN
 10
245.9692079724309
 20
-218.7235549737841
 30
0.0
 41
2.0
 42
2.0
 43
2.0
 50
270.0
  0
MTEXT
  5
BAF4
330
B09C
100
AcDbEntity
  8
30
  6
Continuous
 62
     0
100
AcDbMText
 10
239.9692079724309
 20
-221.2235549737842
 30
0.0
 40
6.0
 41
0.0
 71
     5
 72
     1
  1
\A1;5
 11
0.0000000000000001
 21
1.0
 31
0.0
 73
     1
 44
1.0
  0
POINT
  5
BAF5
330
B09C
100
AcDbEntity
  8
DEFPOINTS
  6
Continuous
 62
     0
100
AcDbPoint
 10
176.0
 20
-223.7235549737841
 30
0.0
  0
POINT
  5
BAF6
330
B09C
100
AcDbEntity
  8
DEFPOINTS
  6
Continuous
 62
     0
100
AcDbPoint
 10
175.0
 20
-218.7235549737841
 30
0.0
  0
POINT
  5
BAF7
330
B09C
100
AcDbEntity
  8
DEFPOINTS
  6
Continuous
 62
     0
100
AcDbPoint
 10
245.9692079724309
 20
-218.7235549737841
 30
0.0
  0
ENDBLK
  5
B0A9
330
B09C
100
AcDbEntity
  8
0
100
AcDbBlockEnd
  0
BLOCK
  5
B0E4
330
B0DB
100
AcDbEntity
  8
0
100
AcDbBlockBegin
  2
*D37
 70
     1
 10
0.0
 20
0.0
 30
0.0
  3
*D37
  1

  0
LINE
  5
C1A7
330
B0DB
100
AcDbEntity
  8
30
  6
Continuous
 62
     0
370
    -2
100
AcDbLine
 10
104.7941409853974
 20
-470.7270875081753
 30
0.0
 11
104.4106443281547
 21
-459.5562129522756
 31
0.0
  0
LINE
  5
C1A8
330
B0DB
100
AcDbEntity
  8
30
  6
Continuous
 62
     0
370
    -2
100
AcDbLine
 10
104.4106443281547
 20
-459.5562129522756
 30
0.0
 11
117.4106443281548
 21
-459.5562129522756
 31
0.0
  0
INSERT
  5
C1A9
330
B0DB
100
AcDbEntity
  8
30
  6
Continuous
 62
     0
370
    -2
100
AcDbBlockReference
  2
_OPEN
 10
104.8627606569318
 20
-472.7259099967112
 30
0.0
 41
2.0
 42
2.0
 43
2.0
 50
271.9661946698495
  0
MTEXT
  5
C1AA
330
B0DB
100
AcDbEntity
  8
30
  6
Continuous
 62
     0
100
AcDbMText
 10
112.4106443281547
 20
-453.5562129522753
 30
0.0
 40
6.0
 41
0.0
 71
     5
 72
     1
  1
\A1;\U+22058
 73
     1
 44
1.0
  0
LINE
  5
C1AB
330
B0DB
100
AcDbEntity
  8
30
  6
Continuous
 62
     0
370
    -2
100
AcDbLine
 10
104.9100000000002
 20
-476.7235549737844
 30
0.0
 11
105.0900000000002
 21
-476.7235549737844
 31
0.0
  0
LINE
  5
C1AC
330
B0DB
100
AcDbEntity
  8
30
  6
Continuous
 62
     0
370
    -2
100
AcDbLine
 10
105.0000000000002
 20
-476.8135549737841
 30
0.0
 11
105.0000000000002
 21
-476.6335549737843
 31
0.0
  0
POINT
  5
C1AD
330
B0DB
100
AcDbEntity
  8
DEFPOINTS
  6
Continuous
 62
     0
100
AcDbPoint
 10
104.8627606569318
 20
-472.7259099967112
 30
0.0
  0
POINT
  5
C1AE
330
B0DB
100
AcDbEntity
  8
DEFPOINTS
  6
Continuous
 62
     0
100
AcDbPoint
 10
105.1372393430686
 20
-480.7211999508571
 30
0.0
  0
ENDBLK
  5
B0E5
330
B0DB
100
AcDbEntity
  8
0
100
AcDbBlockEnd
  0
BLOCK
  5
BAAE
330
BAA5
100
AcDbEntity
  8
0
100
AcDbBlockBegin
  2
*D38
 70
     1
 10
0.0
 20
0.0
 30
0.0
  3
*D38
  1

  0
LINE
  5
C19F
330
BAA5
100
AcDbEntity
  8
30
  6
Continuous
 62
     0
370
    -2
100
AcDbLine
 10
26.77822118325669
 20
-449.8256131338528
 30
0.0
 11
7.77822118325666
 21
-449.8256131338528
 31
0.0
  0
LINE
  5
C1A0
330
BAA5
100
AcDbEntity
  8
30
  6
Continuous
 62
     0
370
    -2
100
AcDbLine
 10
7.77822118325666
 20
-449.8256131338528
 30
0.0
 11
7.222633955881176
 21
-451.7468946938481
 31
0.0
  0
MTEXT
  5
C1A1
330
BAA5
100
AcDbEntity
  8
30
  6
Continuous
 62
     0
100
AcDbMText
 10
18.7782211832566
 20
-443.8256131338528
 30
0.0
 40
6.0
 41
0.0
 71
     5
 72
     1
  1
\A1;\U+220548
 73
     1
 44
1.0
  0
INSERT
  5
C1A2
330
BAA5
100
AcDbEntity
  8
30
  6
Continuous
 62
     0
370
    -2
100
AcDbBlockReference
  2
_OPEN
 10
6.667046728505694
 20
-453.6681762538432
 30
0.0
 41
2.0
 42
2.0
 43
2.0
 50
253.8714352832726
  0
LINE
  5
C1A3
330
BAA5
100
AcDbEntity
  8
30
  6
Continuous
 62
     0
370
    -2
100
AcDbLine
 10
-0.0900000000000319
 20
-476.7235549737844
 30
0.0
 11
0.0899999999999892
 21
-476.7235549737844
 31
0.0
  0
LINE
  5
C1A4
330
BAA5
100
AcDbEntity
  8
30
  6
Continuous
 62
     0
370
    -2
100
AcDbLine
 10
0.0
 20
-476.8135549737841
 30
0.0
 11
-0.0000000000000142
 21
-476.6335549737844
 31
0.0
  0
POINT
  5
C1A5
330
BAA5
100
AcDbEntity
  8
DEFPOINTS
  6
Continuous
 62
     0
100
AcDbPoint
 10
6.667046728505694
 20
-453.6681762538432
 30
0.0
  0
POINT
  5
C1A6
330
BAA5
100
AcDbEntity
  8
DEFPOINTS
  6
Continuous
 62
     0
100
AcDbPoint
 10
-6.667046728505737
 20
-499.7789336937255
 30
0.0
  0
ENDBLK
  5
BAAF
330
BAA5
100
AcDbEntity
  8
0
100
AcDbBlockEnd
  0
BLOCK
  5
BCCC
330
BCC3
100
AcDbEntity
  8
0
100
AcDbBlockBegin
  2
*D39
 70
     1
 10
0.0
 20
0.0
 30
0.0
  3
*D39
  1

  0
LINE
  5
C17C
330
BCC3
100
AcDbEntity
  8
30
  6
Continuous
 62
     0
370
    -2
100
AcDbLine
 10
-39.8559692514105
 20
-333.7363224896133
 30
0.0
 11
-46.14403074858953
 21
-324.710787457955
 31
0.0
  0
LINE
  5
C17D
330
BCC3
100
AcDbEntity
  8
30
  6
Continuous
 62
     0
370
    -2
100
AcDbLine
 10
-47.2873146571676
 20
-323.0697810885626
 30
0.0
 11
-54.65254199615177
 21
-312.4981418967461
 31
0.0
  0
LINE
  5
C17E
330
BCC3
100
AcDbEntity
  8
30
  6
Continuous
 62
     0
370
    -2
100
AcDbLine
 10
-54.65254199615177
 20
-312.4981418967461
 30
0.0
 11
-71.65254199615174
 21
-312.4981418967461
 31
0.0
  0
INSERT
  5
C17F
330
BCC3
100
AcDbEntity
  8
30
  6
Continuous
 62
     0
370
    -2
100
AcDbBlockReference
  2
_OPEN
 10
-38.71268534283247
 20
-335.3773288590057
 30
0.0
 41
2.0
 42
2.0
 43
2.0
 50
304.8648037656791
  0
INSERT
  5
C180
330
BCC3
100
AcDbEntity
  8
30
  6
Continuous
 62
     0
370
    -2
100
AcDbBlockReference
  2
_OPEN
 10
-47.2873146571676
 20
-323.0697810885626
 30
0.0
 41
2.0
 42
2.0
 43
2.0
 50
124.864803765679
  0
MTEXT
  5
C181
330
BCC3
100
AcDbEntity
  8
30
  6
Continuous
 62
     0
100
AcDbMText
 10
-64.65254199615175
 20
-306.4981418967462
 30
0.0
 40
6.0
 41
0.0
 71
     5
 72
     1
  1
\A1;\U+220515
 73
     1
 44
1.0
  0
POINT
  5
C182
330
BCC3
100
AcDbEntity
  8
DEFPOINTS
  6
Continuous
 62
     0
100
AcDbPoint
 10
-47.2873146571676
 20
-323.0697810885626
 30
0.0
  0
POINT
  5
C183
330
BCC3
100
AcDbEntity
  8
DEFPOINTS
  6
Continuous
 62
     0
100
AcDbPoint
 10
-38.71268534283247
 20
-335.3773288590057
 30
0.0
  0
ENDBLK
  5
BCCD
330
BCC3
100
AcDbEntity
  8
0
100
AcDbBlockEnd
  0
BLOCK
  5
C1DF
330
C1D3
100
AcDbEntity
  8
0
100
AcDbBlockBegin
  2
*D40
 70
     1
 10
0.0
 20
0.0
 30
0.0
  3
*D40
  1

  0
LINE
  5
C30F
330
C1D3
100
AcDbEntity
  8
30
  6
Continuous
 62
     0
370
    -2
100
AcDbLine
 10
580.3999999999997
 20
-110.4999999999999
 30
0.0
 11
596.6580735902952
 21
-110.4999999999999
 31
0.0
  0
LINE
  5
C310
330
C1D3
100
AcDbEntity
  8
30
  6
Continuous
 62
     0
370
    -2
100
AcDbLine
 10
580.3999999999997
 20
-123.4999999999997
 30
0.0
 11
596.6580735902952
 21
-123.4999999999997
 31
0.0
  0
LINE
  5
C311
330
C1D3
100
AcDbEntity
  8
30
  6
Continuous
 62
     0
370
    -2
100
AcDbLine
 10
596.1580735902952
 20
-112.4999999999999
 30
0.0
 11
596.1580735902952
 21
-121.4999999999997
 31
0.0
  0
INSERT
  5
C312
330
C1D3
100
AcDbEntity
  8
30
  6
Continuous
 62
     0
370
    -2
100
AcDbBlockReference
  2
_OPEN
 10
596.1580735902952
 20
-110.4999999999999
 30
0.0
 41
2.0
 42
2.0
 43
2.0
 50
90.0
  0
INSERT
  5
C313
330
C1D3
100
AcDbEntity
  8
30
  6
Continuous
 62
     0
370
    -2
100
AcDbBlockReference
  2
_OPEN
 10
596.1580735902952
 20
-123.4999999999997
 30
0.0
 41
2.0
 42
2.0
 43
2.0
 50
270.0
  0
MTEXT
  5
C314
330
C1D3
100
AcDbEntity
  8
30
  6
Continuous
 62
     0
100
AcDbMText
 10
590.1580735902951
 20
-116.9999999999997
 30
0.0
 40
6.0
 41
0.0
 71
     5
 72
     1
  1
\A1;13
 11
0.0000000000000001
 21
1.0
 31
0.0
 73
     1
 44
1.0
  0
POINT
  5
C315
330
C1D3
100
AcDbEntity
  8
DEFPOINTS
  6
Continuous
 62
     0
100
AcDbPoint
 10
577.3999999999999
 20
-110.4999999999999
 30
0.0
  0
POINT
  5
C316
330
C1D3
100
AcDbEntity
  8
DEFPOINTS
  6
Continuous
 62
     0
100
AcDbPoint
 10
577.3999999999999
 20
-123.4999999999997
 30
0.0
  0
POINT
  5
C317
330
C1D3
100
AcDbEntity
  8
DEFPOINTS
  6
Continuous
 62
     0
100
AcDbPoint
 10
596.1580735902952
 20
-123.4999999999997
 30
0.0
  0
ENDBLK
  5
C1E0
330
C1D3
100
AcDbEntity
  8
0
100
AcDbBlockEnd
  0
ENDSEC
  0
SECTION
  2
ENTITIES
  0
MTEXT
  5
BF3
330
1E
100
AcDbEntity
  8
24
  6
Continuous
100
AcDbMText
 10
-959.1964146395261
 20
176.6241271810525
 30
0.0
 40
3.0
 41
0.0
 71
     1
 72
     1
  1
\A1;
 73
     1
 44
1.0
  0
MTEXT
  5
5C78
330
1E
100
AcDbEntity
  8
30
  6
Continuous
100
AcDbMText
 10
-937.8487462462183
 20
89.27438432631687
 30
0.0
 40
4.0
 41
0.0
 71
     9
 72
     1
  1

 73
     1
 44
1.0
  0
MTEXT
  5
6200
330
1E
100
AcDbEntity
  8
30
  6
Continuous
100
AcDbMText
 10
-939.5495044815866
 20
91.5141847924192
 30
0.0
 40
4.0
 41
0.0
 71
     9
 72
     1
  1

 73
     1
 44
1.0
  0
MTEXT
  5
7CA7
330
1E
100
AcDbEntity
  8
30
  6
Continuous
100
AcDbMText
 10
-889.3098634446728
 20
139.798061097065
 30
0.0
 40
4.0
 41
0.0
 71
     9
 72
     1
  1
\A1;
 73
     1
 44
1.0
  0
MTEXT
  5
7CA9
330
1E
100
AcDbEntity
  8
30
  6
Continuous
100
AcDbMText
 10
-882.5696240950307
 20
137.0851630158117
 30
0.0
 40
4.0
 41
0.0
 71
     9
 72
     1
  1
\A1;
 73
     1
 44
1.0
  0
MTEXT
  5
7E8C
330
1E
100
AcDbEntity
  8
19
  6
Continuous
100
AcDbMText
 10
429.6513759806942
 20
271.5412639369449
 30
0.0
 40
8.0
 41
212.885100412648
 71
     1
 72
     5
  1
ZS800-CF 3P RC\PZS800-NF 3P RC\PZS630-CF 3P RC\PZS630-NF 3P RC
  7
STANDARD1
 73
     1
 44
1.0
  0
DIMENSION
  5
9E8B
330
1E
100
AcDbEntity
  8
30
  6
Continuous
100
AcDbDimension
  2
*D1
 10
174.9999999999995
 20
-169.205372931484
 30
0.0
 11
69.99999999999982
 21
-163.2053729314843
 31
0.0
 70
    32
  1
 <> 
 71
     5
 42
209.9999999999999
  3
STANDARD1
100
AcDbAlignedDimension
 13
-35.00000000000012
 23
-136.9999999999999
 33
0.0
 14
174.9999999999995
 24
-136.9999999999999
 34
0.0
100
AcDbRotatedDimension
  0
DIMENSION
  5
9E8C
330
1E
100
AcDbEntity
  8
30
  6
Continuous
100
AcDbDimension
  2
*D2
 10
507.3999999999998
 20
-204.0732068069063
 30
0.0
 11
453.8999999999998
 21
-198.0732068069062
 31
0.0
 70
    32
  1
 <> 
 71
     5
 42
107.0
  3
STANDARD1
100
AcDbAlignedDimension
 13
400.3999999999998
 23
-44.99999999999993
 33
0.0
 14
507.3999999999998
 24
-131.9999999999999
 34
0.0
100
AcDbRotatedDimension
  0
DIMENSION
  5
9E8E
330
1E
100
AcDbEntity
  8
30
  6
Continuous
100
AcDbDimension
  2
*D3
 10
400.3999999999998
 20
-204.0732068069063
 30
0.0
 11
385.5999999999998
 21
-204.0732068069063
 31
0.0
 70
   160
  1
 <> 
 71
     5
 42
4.0
  3
STANDARD1
100
AcDbAlignedDimension
 13
396.3999999999998
 23
-0.4999999999999434
 33
0.0
 14
400.3999999999998
 24
-49.99999999999993
 34
0.0
100
AcDbRotatedDimension
1001
ACAD
1000
DSTYLE
1002
{
1070
   172
1070
     1
1002
}
  0
DIMENSION
  5
9E8F
330
1E
100
AcDbEntity
  8
30
  6
Continuous
100
AcDbDimension
  2
*D4
 10
507.3999999999998
 20
-223.0492436799555
 30
0.0
 11
434.8999999999998
 21
-217.0492436799555
 31
0.0
 70
    32
  1
 <> 
 71
     5
 42
145.0
  3
STANDARD1
100
AcDbAlignedDimension
 13
362.3999999999998
 23
0.0000000000000568
 33
0.0
 14
507.3999999999998
 24
-186.9999999999999
 34
0.0
100
AcDbRotatedDimension
  0
DIMENSION
  5
9E90
330
1E
100
AcDbEntity
  8
30
  6
Continuous
100
AcDbDimension
  2
*D5
 10
281.8989299999998
 20
-223.0492436799555
 30
0.0
 11
322.1494649999998
 21
-217.0492436799555
 31
0.0
 70
    33
  1
 <> 
 71
     5
 42
80.50107000000002
  3
STANDARD1
100
AcDbAlignedDimension
 13
362.3999999999998
 23
4.999999999999943
 33
0.0
 14
281.8989299999998
 24
4.999999999999943
 34
0.0
  0
LINE
  5
9E93
330
1E
100
AcDbEntity
  8
18
  6
DIVIDE
100
AcDbLine
 10
175.0
 20
-218.7235549737841
 30
0.0
 11
175.0
 21
-491.7235549737843
 31
0.0
  0
LINE
  5
9E94
330
1E
100
AcDbEntity
  8
18
  6
DIVIDE
100
AcDbLine
 10
-34.59999999999944
 20
-218.7235549737841
 30
0.0
 11
-34.59999999999944
 21
-491.7235549737843
 31
0.0
  0
LINE
  5
9E96
330
1E
100
AcDbEntity
  8
16
100
AcDbLine
 10
70.0
 20
-500.7235549737843
 30
0.0
 11
70.0
 21
-209.7235549737843
 31
0.0
  0
DIMENSION
  5
9E99
330
1E
100
AcDbEntity
  8
30
  6
Continuous
100
AcDbDimension
  2
*D6
 10
-0.0000000000000046
 20
-556.819429973784
 30
0.0
 11
-21.50000000000001
 21
-550.8194299737843
 31
0.0
 70
    32
  1
 <> 
 71
     5
 42
43.0
  3
STANDARD1
100
AcDbAlignedDimension
 13
-43.0
 23
-334.2235549737841
 33
0.0
 14
0.0
 24
-481.7235549737842
 34
0.0
100
AcDbRotatedDimension
  0
DIMENSION
  5
9E9A
330
1E
100
AcDbEntity
  8
30
  6
Continuous
100
AcDbDimension
  2
*D7
 10
183.0
 20
-556.819429973784
 30
0.0
 11
161.5
 21
-550.8194299737843
 31
0.0
 70
    32
  1
 <> 
 71
     5
 42
43.0
  3
STANDARD1
100
AcDbAlignedDimension
 13
140.0
 23
-481.7235549737842
 33
0.0
 14
183.0
 24
-334.2235549737841
 34
0.0
100
AcDbRotatedDimension
  0
DIMENSION
  5
9E9B
330
1E
100
AcDbEntity
  8
30
  6
Continuous
100
AcDbDimension
  2
*D8
 10
226.5245325812546
 20
-359.7235549737843
 30
0.0
 11
220.5245325812548
 21
-418.2235549737844
 31
0.0
 70
    32
  1
 <> 
 71
     0
 72
     0
 41
0.0
 42
117.0
  3
STANDARD1
100
AcDbAlignedDimension
 13
110.0
 23
-476.7235549737844
 33
0.0
 14
175.0
 24
-359.7235549737843
 34
0.0
 50
90.0
100
AcDbRotatedDimension
  0
DIMENSION
  5
9E9C
330
1E
100
AcDbEntity
  8
30
  6
Continuous
100
AcDbDimension
  2
*D9
 10
245.9692079724304
 20
-486.7235549737843
 30
0.0
 11
239.9692079724303
 21
-423.2235549737842
 31
0.0
 70
    32
  1
 <> 
 71
     0
 72
     0
 41
0.0
 42
127.0
  3
STANDARD1
100
AcDbAlignedDimension
 13
175.0
 23
-359.7235549737843
 33
0.0
 14
123.1825799999995
 24
-486.7235549737841
 34
0.0
 50
90.0
100
AcDbRotatedDimension
  0
LINE
  5
9E9F
330
1E
100
AcDbEntity
  8
18
  6
DIVIDE
100
AcDbLine
 10
175.0
 20
-491.7235549737843
 30
0.0
 11
-34.59999999999944
 21
-491.7235549737843
 31
0.0
  0
DIMENSION
  5
9EA3
330
1E
100
AcDbEntity
  8
30
  6
Continuous
100
AcDbDimension
  2
*D10
 10
70.0
 20
-556.819429973784
 30
0.0
 11
35.0
 21
-550.8194299737843
 31
0.0
 70
    32
  1
 <> 
 71
     5
 42
70.0
  3
STANDARD1
100
AcDbAlignedDimension
 13
0.0
 23
-481.7235549737842
 33
0.0
 14
70.0
 24
-481.7235549737842
 34
0.0
100
AcDbRotatedDimension
  0
DIMENSION
  5
9EA4
330
1E
100
AcDbEntity
  8
30
  6
Continuous
100
AcDbDimension
  2
*D11
 10
140.0
 20
-556.819429973784
 30
0.0
 11
105.0
 21
-550.8194299737843
 31
0.0
 70
    32
  1
 <> 
 71
     5
 42
70.0
  3
STANDARD1
100
AcDbAlignedDimension
 13
70.0
 23
-481.7235549737842
 33
0.0
 14
140.0
 24
-481.7235549737842
 34
0.0
100
AcDbRotatedDimension
  0
LINE
  5
9EAB
330
1E
100
AcDbEntity
  8
12
  6
DASHED
100
AcDbLine
 10
0.0
 20
-505.7235549737844
 30
0.0
 11
0.0
 21
-447.7235549737843
 31
0.0
  0
LINE
  5
9EAC
330
1E
100
AcDbEntity
  8
1
  6
CENTER
 62
     3
 48
3.866666999999998
100
AcDbLine
 10
70.0
 20
-505.7235549737844
 30
0.0
 11
70.0
 21
-447.7235549737843
 31
0.0
  0
LINE
  5
9EAD
330
1E
100
AcDbEntity
  8
12
  6
DASHED
100
AcDbLine
 10
140.0
 20
-505.7235549737844
 30
0.0
 11
140.0
 21
-447.7235549737843
 31
0.0
  0
ARC
  5
9EBF
330
1E
100
AcDbEntity
  8
12
  6
DASHED
100
AcDbCircle
 10
-140.0
 20
-476.7235549737844
 30
0.0
 40
23.99999999999999
210
0.0
220
0.0
230
-1.0
100
AcDbArc
 50
335.3756819999992
 51
204.6243180000006
  0
ARC
  5
9EC0
330
1E
100
AcDbEntity
  8
12
  6
DASHED
100
AcDbCircle
 10
-70.0
 20
-476.7235549737844
 30
0.0
 40
23.99999999999999
210
0.0
220
0.0
230
-1.0
100
AcDbArc
 50
335.3756819999992
 51
204.6243180000006
  0
ARC
  5
9EC1
330
1E
100
AcDbEntity
  8
12
  6
DASHED
100
AcDbCircle
 10
0.0
 20
-476.7235549737844
 30
0.0
 40
23.99999999999999
210
0.0
220
0.0
230
-1.0
100
AcDbArc
 50
218.6821870000014
 51
204.6243180000006
  0
DIMENSION
  5
9EC2
330
1E
100
AcDbEntity
  8
30
  6
Continuous
100
AcDbDimension
  2
*D12
 10
105.0
 20
-521.8194299737842
 30
0.0
 11
70.0
 21
-515.819429973784
 31
0.0
 70
    32
  1
 <> 
 71
     5
 42
70.0
  3
STANDARD1
100
AcDbAlignedDimension
 13
35.0
 23
-481.7235549737842
 33
0.0
 14
105.0
 24
-481.7235549737842
 34
0.0
100
AcDbRotatedDimension
  0
ARC
  5
9EC3
330
1E
100
AcDbEntity
  8
12
  6
DASHED
100
AcDbCircle
 10
-70.0
 20
-476.7235549737844
 30
0.0
 40
23.99999999999999
210
0.0
220
0.0
230
-1.0
100
AcDbArc
 50
218.6821870000014
 51
321.3178129999982
  0
LINE
  5
9EC4
330
1E
100
AcDbEntity
  8
1
  6
Continuous
 62
     3
100
AcDbLine
 10
18.73499499999979
 20
-491.7235549737843
 30
0.0
 11
51.26501000000008
 21
-491.7235549737843
 31
0.0
  0
LINE
  5
9EC5
330
1E
100
AcDbEntity
  8
1
  6
Continuous
 62
     3
100
AcDbLine
 10
88.73499499999978
 20
-491.7235549737843
 30
0.0
 11
121.26501
 21
-491.7235549737843
 31
0.0
  0
ARC
  5
9EC6
330
1E
100
AcDbEntity
  8
12
  6
DASHED
100
AcDbCircle
 10
-140.0000003299658
 20
-476.7235542869055
 30
0.0
 40
24.00000068687866
210
0.0
220
0.0
230
-1.0
100
AcDbArc
 50
204.6243194044067
 51
321.3178122122631
  0
LINE
  5
9EC7
330
1E
100
AcDbEntity
  8
12
  6
DASHED
100
AcDbLine
 10
41.0
 20
-476.7235549737844
 30
0.0
 11
99.0
 21
-476.7235549737844
 31
0.0
  0
LINE
  5
9EC8
330
1E
100
AcDbEntity
  8
12
  6
DASHED
100
AcDbLine
 10
-29.0
 20
-476.7235549737844
 30
0.0
 11
29.0
 21
-476.7235549737844
 31
0.0
  0
LINE
  5
9EC9
330
1E
100
AcDbEntity
  8
1
  6
Continuous
 62
     3
100
AcDbLine
 10
29.0
 20
-476.7235549737844
 30
0.0
 11
41.0
 21
-476.7235549737844
 31
0.0
  0
LINE
  5
9ECA
330
1E
100
AcDbEntity
  8
1
  6
Continuous
 62
     3
100
AcDbLine
 10
35.0
 20
-470.7235549737843
 30
0.0
 11
35.0
 21
-482.723554973784
 31
0.0
  0
LINE
  5
9ECB
330
1E
100
AcDbEntity
  8
12
  6
DASHED
100
AcDbLine
 10
48.18257999999968
 20
-486.7235549737841
 30
0.0
 11
21.81742500000018
 21
-486.7235549737841
 31
0.0
  0
CIRCLE
  5
9ECC
330
1E
100
AcDbEntity
  8
12
  6
DASHED
100
AcDbCircle
 10
35.0
 20
-476.7235549737844
 30
0.0
 40
3.999999999999998
  0
LINE
  5
9ECD
330
1E
100
AcDbEntity
  8
12
  6
DASHED
100
AcDbLine
 10
118.1825799999996
 20
-486.7235549737841
 30
0.0
 11
91.81742500000018
 21
-486.7235549737841
 31
0.0
  0
LINE
  5
9ECE
330
1E
100
AcDbEntity
  8
1
  6
CENTER
 62
     3
 48
3.866666999999998
100
AcDbLine
 10
111.0
 20
-476.7235549737844
 30
0.0
 11
169.0
 21
-476.7235549737844
 31
0.0
  0
LINE
  5
9ECF
330
1E
100
AcDbEntity
  8
1
  6
Continuous
 62
     3
100
AcDbLine
 10
99.0
 20
-476.7235549737844
 30
0.0
 11
111.0
 21
-476.7235549737844
 31
0.0
  0
LINE
  5
9ED0
330
1E
100
AcDbEntity
  8
1
  6
Continuous
 62
     3
100
AcDbLine
 10
105.0
 20
-470.7235549737843
 30
0.0
 11
105.0
 21
-482.723554973784
 31
0.0
  0
CIRCLE
  5
9ED1
330
1E
100
AcDbEntity
  8
12
  6
DASHED
100
AcDbCircle
 10
105.0
 20
-476.7235549737844
 30
0.0
 40
3.999999999999998
  0
DIMENSION
  5
9ED5
330
1E
100
AcDbEntity
  8
30
  6
Continuous
100
AcDbDimension
  2
*D13
 10
245.9692079724304
 20
-491.7235549737843
 30
0.0
 11
241.5238731006845
 21
-490.9270399896247
 31
0.0
 70
   160
  1
 <> 
 71
     0
 72
     0
 41
0.0
 42
5.0
  3
STANDARD1
100
AcDbAlignedDimension
 13
123.1825799999995
 23
-486.7235549737841
 33
0.0
 14
126.26501
 24
-491.7235549737843
 34
0.0
 50
90.0
100
AcDbRotatedDimension
1001
ACAD
1000
DSTYLE
1002
{
1070
   279
1070
     2
1070
   172
1070
     1
1002
}
  0
LINE
  5
9ED8
330
1E
100
AcDbEntity
  8
18
  6
DIVIDE
100
AcDbLine
 10
175.0
 20
-218.7235549737841
 30
0.0
 11
-34.59999999999944
 21
-218.7235549737841
 31
0.0
  0
LINE
  5
9EDA
330
1E
100
AcDbEntity
  8
16
100
AcDbLine
 10
185.0
 20
-359.7235549737843
 30
0.0
 11
-44.59999999999989
 21
-359.7235549737843
 31
0.0
  0
DIMENSION
  5
9EDB
330
1E
100
AcDbEntity
  8
30
  6
Continuous
100
AcDbDimension
  2
*D14
 10
226.5245325812546
 20
-233.7235549737842
 30
0.0
 11
220.5245325812548
 21
-296.7235549737841
 31
0.0
 70
    32
  1
 <> 
 71
     0
 72
     0
 41
0.0
 42
125.9999999999999
  3
STANDARD1
100
AcDbAlignedDimension
 13
190.0
 23
-359.7235549737843
 33
0.0
 14
110.0
 24
-233.7235549737842
 34
0.0
 50
90.0
100
AcDbRotatedDimension
  0
DIMENSION
  5
9EDC
330
1E
100
AcDbEntity
  8
30
  6
Continuous
100
AcDbDimension
  2
*D15
 10
245.9692079724309
 20
-359.7235549737843
 30
0.0
 11
239.9692079724309
 21
-291.7235549737842
 31
0.0
 70
    32
  1
 <> 
 71
     0
 72
     0
 41
0.0
 42
135.9999999999998
  3
STANDARD1
100
AcDbAlignedDimension
 13
175.0
 23
-223.7235549737841
 33
0.0
 14
175.0
 24
-359.7235549737843
 34
0.0
 50
90.0
100
AcDbRotatedDimension
  0
DIMENSION
  5
9EDD
330
1E
100
AcDbEntity
  8
30
  6
Continuous
100
AcDbDimension
  2
*D16
 10
209.1539
 20
-329.2235549737842
 30
0.0
 11
203.1539000000003
 21
-344.4735549737842
 31
0.0
 70
    32
  1
 <> 
 71
     0
 72
     0
 41
0.0
 42
30.50000000000006
  3
STANDARD1
100
AcDbAlignedDimension
 13
176.0
 23
-359.7235549737843
 33
0.0
 14
188.0
 24
-329.2235549737842
 34
0.0
 50
90.0
100
AcDbRotatedDimension
  0
CIRCLE
  5
9EE8
330
1E
100
AcDbEntity
  8
12
  6
DASHED
100
AcDbCircle
 10
43.0
 20
-329.2235549737842
 30
0.0
 40
7.499999999999997
210
0.0
220
0.0
230
-1.0
  0
LINE
  5
9EE9
330
1E
100
AcDbEntity
  8
12
  6
DASHED
100
AcDbLine
 10
-43.0
 20
-341.7235549737843
 30
0.0
 11
-43.0
 21
-316.7235549737842
 31
0.0
  0
LINE
  5
9EEA
330
1E
100
AcDbEntity
  8
12
  6
DASHED
100
AcDbLine
 10
-55.5
 20
-329.2235549737842
 30
0.0
 11
-30.5
 21
-329.2235549737842
 31
0.0
  0
ARC
  5
9EFD
330
1E
100
AcDbEntity
  8
12
  6
DASHED
100
AcDbCircle
 10
0.0
 20
-233.7235549737842
 30
0.0
 40
23.99999999999999
100
AcDbArc
 50
38.68218700000154
 51
24.62431800000072
  0
ARC
  5
9EFE
330
1E
100
AcDbEntity
  8
12
  6
DASHED
100
AcDbCircle
 10
70.0
 20
-233.7235549737842
 30
0.0
 40
23.99999999999999
100
AcDbArc
 50
155.375681999999
 51
24.62431800000072
  0
ARC
  5
9EFF
330
1E
100
AcDbEntity
  8
12
  6
DASHED
100
AcDbCircle
 10
140.0000004301791
 20
-233.7235546977431
 30
0.0
 40
24.00000027604125
100
AcDbArc
 50
155.3756830269763
 51
38.68218608167243
  0
LINE
  5
9F00
330
1E
100
AcDbEntity
  8
12
  6
DASHED
100
AcDbLine
 10
0.0
 20
-262.7235549737843
 30
0.0
 11
0.0
 21
-204.7235549737842
 31
0.0
  0
LINE
  5
9F01
330
1E
100
AcDbEntity
  8
1
  6
CENTER
 62
     3
 48
3.866666999999998
100
AcDbLine
 10
70.0
 20
-262.7235549737843
 30
0.0
 11
70.0
 21
-204.7235549737842
 31
0.0
  0
LINE
  5
9F02
330
1E
100
AcDbEntity
  8
12
  6
DASHED
100
AcDbLine
 10
140.0
 20
-262.7235549737843
 30
0.0
 11
140.0
 21
-204.7235549737842
 31
0.0
  0
ARC
  5
9F04
330
1E
100
AcDbEntity
  8
12
  6
DASHED
100
AcDbCircle
 10
70.0
 20
-233.7235549737842
 30
0.0
 40
23.99999999999999
100
AcDbArc
 50
38.68218700000154
 51
141.3178129999984
  0
LINE
  5
9F05
330
1E
100
AcDbEntity
  8
12
  6
DASHED
100
AcDbLine
 10
41.0
 20
-233.7235549737842
 30
0.0
 11
99.0
 21
-233.7235549737842
 31
0.0
  0
LINE
  5
9F06
330
1E
100
AcDbEntity
  8
12
  6
DASHED
100
AcDbLine
 10
-29.0
 20
-233.7235549737842
 30
0.0
 11
29.0
 21
-233.7235549737842
 31
0.0
  0
LINE
  5
9F07
330
1E
100
AcDbEntity
  8
12
  6
DASHED
100
AcDbLine
 10
29.0
 20
-233.7235549737842
 30
0.0
 11
41.0
 21
-233.7235549737842
 31
0.0
  0
LINE
  5
9F08
330
1E
100
AcDbEntity
  8
12
  6
DASHED
100
AcDbLine
 10
35.0
 20
-227.7235549737842
 30
0.0
 11
35.0
 21
-239.7235549737843
 31
0.0
  0
LINE
  5
9F09
330
1E
100
AcDbEntity
  8
12
  6
DASHED
100
AcDbLine
 10
48.18257999999968
 20
-223.7235549737841
 30
0.0
 11
21.81742500000018
 21
-223.7235549737841
 31
0.0
  0
CIRCLE
  5
9F0A
330
1E
100
AcDbEntity
  8
12
  6
DASHED
100
AcDbCircle
 10
35.0
 20
-233.7235549737842
 30
0.0
 40
3.999999999999998
  0
LINE
  5
9F0B
330
1E
100
AcDbEntity
  8
1
  6
Continuous
 62
     3
100
AcDbLine
 10
18.73499499999979
 20
-218.7235549737841
 30
0.0
 11
51.26501000000008
 21
-218.7235549737841
 31
0.0
  0
LINE
  5
9F0C
330
1E
100
AcDbEntity
  8
12
  6
DASHED
100
AcDbLine
 10
118.1825799999996
 20
-223.7235549737841
 30
0.0
 11
91.81742500000018
 21
-223.7235549737841
 31
0.0
  0
LINE
  5
9F0D
330
1E
100
AcDbEntity
  8
1
  6
CENTER
 62
     3
 48
3.866666999999998
100
AcDbLine
 10
111.0
 20
-233.7235549737842
 30
0.0
 11
169.0
 21
-233.7235549737842
 31
0.0
  0
LINE
  5
9F0E
330
1E
100
AcDbEntity
  8
12
  6
DASHED
100
AcDbLine
 10
99.0
 20
-233.7235549737842
 30
0.0
 11
111.0
 21
-233.7235549737842
 31
0.0
  0
LINE
  5
9F0F
330
1E
100
AcDbEntity
  8
12
  6
DASHED
100
AcDbLine
 10
105.0
 20
-227.7235549737842
 30
0.0
 11
105.0
 21
-239.7235549737843
 31
0.0
  0
CIRCLE
  5
9F10
330
1E
100
AcDbEntity
  8
12
  6
DASHED
100
AcDbCircle
 10
105.0
 20
-233.7235549737842
 30
0.0
 40
3.999999999999998
  0
LINE
  5
9F11
330
1E
100
AcDbEntity
  8
1
  6
Continuous
 62
     3
100
AcDbLine
 10
88.73499499999978
 20
-218.7235549737841
 30
0.0
 11
121.26501
 21
-218.7235549737841
 31
0.0
  0
ARC
  5
9F12
330
1E
100
AcDbEntity
  8
12
  6
DASHED
100
AcDbCircle
 10
140.0
 20
-233.7235549737842
 30
0.0
 40
23.99999999999999
100
AcDbArc
 50
38.68218700000154
 51
141.3178129999984
  0
CIRCLE
  5
9F13
330
1E
100
AcDbEntity
  8
12
  6
DASHED
100
AcDbCircle
 10
183.0
 20
-329.2235549737842
 30
0.0
 40
7.499999999999997
  0
LINE
  5
9F14
330
1E
100
AcDbEntity
  8
12
  6
DASHED
100
AcDbLine
 10
183.0
 20
-341.7235549737843
 30
0.0
 11
183.0
 21
-316.7235549737842
 31
0.0
  0
LINE
  5
9F15
330
1E
100
AcDbEntity
  8
12
  6
DASHED
100
AcDbLine
 10
170.5
 20
-329.2235549737842
 30
0.0
 11
195.5
 21
-329.2235549737842
 31
0.0
  0
LINE
  5
9F1B
330
1E
100
AcDbEntity
  8
21
100
AcDbLine
 10
152.9999999999995
 20
366.1271619249113
 30
0.0
 11
152.9999999999995
 21
335.1271619249113
 31
0.0
  0
LINE
  5
9F1D
330
1E
100
AcDbEntity
  8
21
100
AcDbLine
 10
127.3999999999998
 20
366.1271619249113
 30
0.0
 11
127.3999999999998
 21
335.1271619249113
 31
0.0
  0
LINE
  5
9F1E
330
1E
100
AcDbEntity
  8
21
100
AcDbLine
 10
57.3999999999998
 20
366.1271619249113
 30
0.0
 11
57.3999999999998
 21
335.1271619249113
 31
0.0
  0
LINE
  5
9F1F
330
1E
100
AcDbEntity
  8
21
100
AcDbLine
 10
82.99999999999972
 20
366.1271619249113
 30
0.0
 11
82.99999999999972
 21
335.1271619249113
 31
0.0
  0
LINE
  5
9F20
330
1E
100
AcDbEntity
  8
21
100
AcDbLine
 10
12.99999999999971
 20
366.1271619249113
 30
0.0
 11
12.99999999999971
 21
335.1271619249113
 31
0.0
  0
LINE
  5
9F21
330
1E
100
AcDbEntity
  8
21
100
AcDbLine
 10
-12.60000000000019
 20
366.1271619249113
 30
0.0
 11
-12.60000000000019
 21
335.1271619249113
 31
0.0
  0
LINE
  5
9F22
330
1E
100
AcDbEntity
  8
17
100
AcDbLine
 10
140.1999999999999
 20
467.1271619249113
 30
0.0
 11
140.1999999999999
 21
325.1271619249114
 31
0.0
  0
LINE
  5
9F24
330
1E
100
AcDbEntity
  8
17
100
AcDbLine
 10
0.1999999999999886
 20
467.1271619249113
 30
0.0
 11
0.1999999999999886
 21
325.1271619249114
 31
0.0
  0
LINE
  5
9F2E
330
1E
100
AcDbEntity
  8
16
100
AcDbLine
 10
70.0
 20
467.1271619249113
 30
0.0
 11
70.0
 21
180.0
 31
0.0
  0
LINE
  5
9F32
330
1E
100
AcDbEntity
  8
10
  6
CONTINOUS
100
AcDbLine
 10
174.9999999999995
 20
141.0
 30
0.0
 11
174.9999999999995
 21
-131.9999999999999
 31
0.0
  0
LINE
  5
9F36
330
1E
100
AcDbEntity
  8
10
  6
CONTINOUS
100
AcDbLine
 10
-35.00000000000003
 20
141.0
 30
0.0
 11
-35.00000000000003
 21
-131.9999999999999
 31
0.0
  0
LINE
  5
9F39
330
1E
100
AcDbEntity
  8
12
  6
DASHED
100
AcDbLine
 10
105.1999999999996
 20
137.25
 30
0.0
 11
105.1999999999996
 21
114.7499999999999
 31
0.0
  0
LINE
  5
9F3A
330
1E
100
AcDbEntity
  8
16
100
AcDbLine
 10
70.0
 20
-141.9999999999999
 30
0.0
 11
70.0
 21
151.0
 31
0.0
  0
LINE
  5
9F3B
330
1E
100
AcDbEntity
  8
12
  6
DASHED
100
AcDbLine
 10
35.20000000000004
 20
137.25
 30
0.0
 11
35.20000000000004
 21
114.7499999999999
 31
0.0
  0
ARC
  5
9F3C
330
1E
100
AcDbEntity
  8
10
  6
CONTINOUS
100
AcDbCircle
 10
11.20000000000002
 20
126.0
 30
0.0
 40
9.999999999999996
100
AcDbArc
 50
270.0
 51
90.0
  0
ARC
  5
9F3E
330
1E
100
AcDbEntity
  8
10
  6
CONTINOUS
100
AcDbCircle
 10
151.1999999999998
 20
126.0
 30
0.0
 40
9.999999999999996
100
AcDbArc
 50
270.0
 51
90.0
  0
ARC
  5
9F44
330
1E
100
AcDbEntity
  8
10
  6
CONTINOUS
100
AcDbCircle
 10
81.20000000000004
 20
126.0
 30
0.0
 40
9.999999999999996
100
AcDbArc
 50
270.0
 51
90.0
  0
CIRCLE
  5
9F45
330
1E
100
AcDbEntity
  8
12
  6
DASHED
100
AcDbCircle
 10
105.1999999999996
 20
126.0
 30
0.0
 40
8.249999999999996
  0
ARC
  5
9F47
330
1E
100
AcDbEntity
  8
10
  6
CONTINOUS
100
AcDbCircle
 10
-10.80000000000006
 20
126.0
 30
0.0
 40
9.999999999999996
100
AcDbArc
 50
90.0
 51
270.0
  0
ARC
  5
9F48
330
1E
100
AcDbEntity
  8
10
  6
CONTINOUS
100
AcDbCircle
 10
59.19999999999982
 20
126.0
 30
0.0
 40
9.999999999999996
100
AcDbArc
 50
90.0
 51
270.0
  0
ARC
  5
9F4A
330
1E
100
AcDbEntity
  8
10
  6
CONTINOUS
100
AcDbCircle
 10
129.1999999999997
 20
126.0
 30
0.0
 40
9.999999999999996
100
AcDbArc
 50
90.0
 51
270.0
  0
CIRCLE
  5
9F4D
330
1E
100
AcDbEntity
  8
12
  6
DASHED
100
AcDbCircle
 10
35.20000000000004
 20
126.0
 30
0.0
 40
8.249999999999996
  0
LINE
  5
9F4F
330
1E
100
AcDbEntity
  8
10
  6
CONTINOUS
100
AcDbLine
 10
94.49999999999977
 20
-36.59999999999996
 30
0.0
 11
94.49999999999977
 21
-29.69999999999998
 31
0.0
  0
LINE
  5
9F51
330
1E
100
AcDbEntity
  8
10
  6
CONTINOUS
100
AcDbLine
 10
155.1999999999999
 20
40.0
 30
0.0
 11
155.1999999999999
 21
-40.0
 31
0.0
  0
LINE
  5
9F53
330
1E
100
AcDbEntity
  8
10
  6
CONTINOUS
100
AcDbLine
 10
88.99999999999977
 20
-36.59999999999996
 30
0.0
 11
88.99999999999977
 21
-29.69999999999998
 31
0.0
  0
LINE
  5
9F57
330
1E
100
AcDbEntity
  8
10
  6
CONTINOUS
100
AcDbLine
 10
-14.80000000000005
 20
40.0
 30
0.0
 11
-14.80000000000005
 21
-40.0
 31
0.0
  0
LINE
  5
9F58
330
1E
100
AcDbEntity
  8
10
  6
CONTINOUS
100
AcDbLine
 10
95.69999999999978
 20
44.99999999999997
 30
0.0
 11
95.69999999999978
 21
-45.0
 31
0.0
  0
LINE
  5
9F59
330
1E
100
AcDbEntity
  8
10
  6
CONTINOUS
100
AcDbLine
 10
44.70000000000005
 20
44.99999999999997
 30
0.0
 11
44.70000000000005
 21
-45.0
 31
0.0
  0
LINE
  5
9F77
330
1E
100
AcDbEntity
  8
12
  6
DASHED
100
AcDbLine
 10
35.20000000000004
 20
-105.75
 30
0.0
 11
35.20000000000004
 21
-128.2499999999999
 31
0.0
  0
LINE
  5
9F78
330
1E
100
AcDbEntity
  8
12
  6
DASHED
100
AcDbLine
 10
105.1999999999996
 20
-105.75
 30
0.0
 11
105.1999999999996
 21
-128.2499999999999
 31
0.0
  0
CIRCLE
  5
9F79
330
1E
100
AcDbEntity
  8
12
  6
DASHED
100
AcDbCircle
 10
105.1999999999996
 20
-116.9999999999999
 30
0.0
 40
8.249999999999996
  0
ARC
  5
9F7B
330
1E
100
AcDbEntity
  8
10
  6
CONTINOUS
100
AcDbCircle
 10
129.1999999999997
 20
-116.9999999999999
 30
0.0
 40
9.999999999999996
100
AcDbArc
 50
90.0
 51
270.0
  0
ARC
  5
9F7C
330
1E
100
AcDbEntity
  8
10
  6
CONTINOUS
100
AcDbCircle
 10
59.19999999999982
 20
-116.9999999999999
 30
0.0
 40
9.999999999999996
100
AcDbArc
 50
90.0
 51
270.0
  0
ARC
  5
9F7D
330
1E
100
AcDbEntity
  8
10
  6
CONTINOUS
100
AcDbCircle
 10
-10.80000000000006
 20
-116.9999999999999
 30
0.0
 40
9.999999999999996
100
AcDbArc
 50
90.0
 51
270.0
  0
ARC
  5
9F7F
330
1E
100
AcDbEntity
  8
10
  6
CONTINOUS
100
AcDbCircle
 10
151.1999999999998
 20
-116.9999999999999
 30
0.0
 40
9.999999999999996
100
AcDbArc
 50
270.0
 51
90.0
  0
ARC
  5
9F80
330
1E
100
AcDbEntity
  8
10
  6
CONTINOUS
100
AcDbCircle
 10
81.20000000000004
 20
-116.9999999999999
 30
0.0
 40
9.999999999999996
100
AcDbArc
 50
270.0
 51
90.0
  0
CIRCLE
  5
9F81
330
1E
100
AcDbEntity
  8
12
  6
DASHED
100
AcDbCircle
 10
35.20000000000004
 20
-116.9999999999999
 30
0.0
 40
8.249999999999996
  0
ARC
  5
9F82
330
1E
100
AcDbEntity
  8
10
  6
CONTINOUS
100
AcDbCircle
 10
11.20000000000002
 20
-116.9999999999999
 30
0.0
 40
9.999999999999996
100
AcDbArc
 50
270.0
 51
90.0
  0
LINE
  5
9F83
330
1E
100
AcDbEntity
  8
10
  6
CONTINOUS
100
AcDbLine
 10
174.9999999999995
 20
-131.9999999999999
 30
0.0
 11
-35.00000000000003
 21
-131.9999999999999
 31
0.0
  0
LINE
  5
9F84
330
1E
100
AcDbEntity
  8
10
  6
CONTINOUS
100
AcDbLine
 10
129.1999999999997
 20
-126.9999999999999
 30
0.0
 11
151.1999999999998
 21
-126.9999999999999
 31
0.0
  0
LINE
  5
9F87
330
1E
100
AcDbEntity
  8
10
  6
CONTINOUS
100
AcDbLine
 10
-10.80000000000006
 20
-126.9999999999999
 30
0.0
 11
11.20000000000002
 21
-126.9999999999999
 31
0.0
  0
LINE
  5
9F88
330
1E
100
AcDbEntity
  8
10
  6
CONTINOUS
100
AcDbLine
 10
59.19999999999982
 20
-126.9999999999999
 30
0.0
 11
81.20000000000004
 21
-126.9999999999999
 31
0.0
  0
LINE
  5
9F89
330
1E
100
AcDbEntity
  8
12
  6
DASHED
100
AcDbLine
 10
23.95000000000004
 20
-116.9999999999999
 30
0.0
 11
46.45000000000004
 21
-116.9999999999999
 31
0.0
  0
LINE
  5
9F8A
330
1E
100
AcDbEntity
  8
12
  6
DASHED
100
AcDbLine
 10
93.9499999999998
 20
-116.9999999999999
 30
0.0
 11
116.45
 21
-116.9999999999999
 31
0.0
  0
LINE
  5
9F8C
330
1E
100
AcDbEntity
  8
10
  6
CONTINOUS
100
AcDbLine
 10
174.9999999999995
 20
-46.49999999999989
 30
0.0
 11
-35.00000000000003
 21
-46.49999999999989
 31
0.0
  0
LINE
  5
9F8D
330
1E
100
AcDbEntity
  8
10
  6
CONTINOUS
100
AcDbLine
 10
-9.800000000000068
 20
-45.0
 30
0.0
 11
150.1999999999999
 21
-45.0
 31
0.0
  0
LINE
  5
9F8E
330
1E
100
AcDbEntity
  8
10
  6
CONTINOUS
100
AcDbLine
 10
-35.00000000000003
 20
-107.0
 30
0.0
 11
174.9999999999995
 21
-107.0
 31
0.0
  0
ARC
  5
9F8F
330
1E
100
AcDbEntity
  8
10
  6
CONTINOUS
100
AcDbCircle
 10
-9.800000000000068
 20
-40.0
 30
0.0
 40
4.999999999999998
100
AcDbArc
 50
180.0
 51
270.0
  0
LINE
  5
9F91
330
1E
100
AcDbEntity
  8
10
  6
CONTINOUS
100
AcDbLine
 10
88.99999999999977
 20
-36.59999999999996
 30
0.0
 11
94.49999999999977
 21
-36.59999999999996
 31
0.0
  0
ARC
  5
9F92
330
1E
100
AcDbEntity
  8
10
  6
CONTINOUS
100
AcDbCircle
 10
150.1999999999999
 20
-40.0
 30
0.0
 40
4.999999999999998
100
AcDbArc
 50
270.0
 51
0.0
  0
LINE
  5
9FA7
330
1E
100
AcDbEntity
  8
10
  6
CONTINOUS
100
AcDbLine
 10
-9.800000000000068
 20
44.99999999999997
 30
0.0
 11
150.1999999999999
 21
44.99999999999997
 31
0.0
  0
LINE
  5
9FA8
330
1E
100
AcDbEntity
  8
16
100
AcDbLine
 10
184.9999999999995
 20
0.0
 30
0.0
 11
-45.00000000000002
 21
0.0
 31
0.0
  0
LINE
  5
9FA9
330
1E
100
AcDbEntity
  8
10
  6
CONTINOUS
100
AcDbLine
 10
51.99999999999977
 20
-25.49999999999997
 30
0.0
 11
51.99999999999977
 21
29.64169999999994
 31
0.0
  0
LINE
  5
9FAA
330
1E
100
AcDbEntity
  8
10
  6
CONTINOUS
100
AcDbLine
 10
87.99999999999977
 20
-25.49999999999997
 30
0.0
 11
87.99999999999977
 21
29.64169999999994
 31
0.0
  0
LINE
  5
9FAB
330
1E
100
AcDbEntity
  8
10
  6
CONTINOUS
100
AcDbLine
 10
87.99999999999977
 20
-25.49999999999997
 30
0.0
 11
51.99999999999977
 21
-25.49999999999997
 31
0.0
  0
LINE
  5
9FAC
330
1E
100
AcDbEntity
  8
10
  6
CONTINOUS
100
AcDbLine
 10
88.99999999999977
 20
-29.69999999999998
 30
0.0
 11
94.49999999999977
 21
-29.69999999999998
 31
0.0
  0
ARC
  5
9FAD
330
1E
100
AcDbEntity
  8
10
  6
CONTINOUS
100
AcDbCircle
 10
-9.800000000000068
 20
40.0
 30
0.0
 40
4.999999999999998
100
AcDbArc
 50
90.0
 51
180.0
  0
LINE
  5
9FAE
330
1E
100
AcDbEntity
  8
10
  6
CONTINOUS
100
AcDbLine
 10
90.79999999999996
 20
29.64169999999994
 30
0.0
 11
49.19999999999982
 21
29.64169999999994
 31
0.0
  0
LINE
  5
9FAF
330
1E
100
AcDbEntity
  8
10
  6
CONTINOUS
100
AcDbLine
 10
95.69999999999978
 20
44.54681499999989
 30
0.0
 11
44.70000000000005
 21
44.54681499999989
 31
0.0
  0
LINE
  5
9FB0
330
1E
100
AcDbEntity
  8
10
  6
CONTINOUS
100
AcDbLine
 10
90.79999999999996
 20
37.16874500000017
 30
0.0
 11
49.19999999999982
 21
37.16874500000017
 31
0.0
  0
LINE
  5
9FB1
330
1E
100
AcDbEntity
  8
10
  6
CONTINOUS
100
AcDbLine
 10
49.19999999999982
 20
29.64169999999994
 30
0.0
 11
49.19999999999982
 21
37.16874500000017
 31
0.0
  0
LINE
  5
9FB2
330
1E
100
AcDbEntity
  8
10
  6
CONTINOUS
100
AcDbLine
 10
90.79999999999996
 20
29.64169999999994
 30
0.0
 11
90.79999999999996
 21
37.16874500000017
 31
0.0
  0
ARC
  5
9FB3
330
1E
100
AcDbEntity
  8
10
  6
CONTINOUS
100
AcDbCircle
 10
150.1999999999999
 20
40.0
 30
0.0
 40
4.999999999999998
100
AcDbArc
 50
0.0
 51
90.0
  0
LINE
  5
9FB4
330
1E
100
AcDbEntity
  8
10
  6
CONTINOUS
100
AcDbLine
 10
174.9999999999995
 20
116.0
 30
0.0
 11
-35.00000000000003
 21
116.0
 31
0.0
  0
LINE
  5
9FB5
330
1E
100
AcDbEntity
  8
10
  6
CONTINOUS
100
AcDbLine
 10
174.9999999999995
 20
55.49999999999993
 30
0.0
 11
-35.00000000000003
 21
55.49999999999993
 31
0.0
  0
LINE
  5
9FB6
330
1E
100
AcDbEntity
  8
12
  6
DASHED
100
AcDbLine
 10
23.95000000000004
 20
126.0
 30
0.0
 11
46.45000000000004
 21
126.0
 31
0.0
  0
LINE
  5
9FB7
330
1E
100
AcDbEntity
  8
12
  6
DASHED
100
AcDbLine
 10
93.9499999999998
 20
126.0
 30
0.0
 11
116.45
 21
126.0
 31
0.0
  0
LINE
  5
A014
330
1E
100
AcDbEntity
  8
10
  6
CONTINOUS
100
AcDbLine
 10
49.19999999999976
 20
192.1271619249114
 30
0.0
 11
49.19999999999976
 21
224.1271619249113
 31
0.0
  0
LINE
  5
A015
330
1E
100
AcDbEntity
  8
10
  6
CONTINOUS
100
AcDbLine
 10
90.79999999999989
 20
192.1271619249114
 30
0.0
 11
90.79999999999989
 21
224.1271619249113
 31
0.0
  0
LINE
  5
A01D
330
1E
100
AcDbEntity
  8
10
  6
CONTINOUS
100
AcDbLine
 10
129.1999999999997
 20
136.0
 30
0.0
 11
151.1999999999998
 21
136.0
 31
0.0
  0
LINE
  5
A01E
330
1E
100
AcDbEntity
  8
10
  6
CONTINOUS
100
AcDbLine
 10
174.9999999999995
 20
141.0
 30
0.0
 11
-35.00000000000003
 21
141.0
 31
0.0
  0
LINE
  5
A01F
330
1E
100
AcDbEntity
  8
10
  6
CONTINOUS
100
AcDbLine
 10
-10.80000000000006
 20
136.0
 30
0.0
 11
11.20000000000002
 21
136.0
 31
0.0
  0
LINE
  5
A020
330
1E
100
AcDbEntity
  8
10
  6
CONTINOUS
100
AcDbLine
 10
59.19999999999982
 20
136.0
 30
0.0
 11
81.20000000000004
 21
136.0
 31
0.0
  0
LINE
  5
A023
330
1E
100
AcDbEntity
  8
10
  6
CONTINOUS
100
AcDbLine
 10
49.19999999999976
 20
192.1271619249114
 30
0.0
 11
90.79999999999989
 21
192.1271619249114
 31
0.0
  0
LINE
  5
A034
330
1E
100
AcDbEntity
  8
10
  6
CONTINOUS
100
AcDbLine
 10
-35.00000000000003
 20
232.1271619249114
 30
0.0
 11
-35.00000000000003
 21
335.1271619249113
 31
0.0
  0
LINE
  5
A035
330
1E
100
AcDbEntity
  8
10
  6
CONTINOUS
100
AcDbLine
 10
174.9999999999997
 20
232.1271619249114
 30
0.0
 11
174.9999999999997
 21
335.1271619249113
 31
0.0
  0
LINE
  5
A037
330
1E
100
AcDbEntity
  8
10
  6
CONTINOUS
100
AcDbLine
 10
-35.00000000000003
 20
232.1271619249114
 30
0.0
 11
174.9999999999997
 21
232.1271619249114
 31
0.0
  0
LINE
  5
A038
330
1E
100
AcDbEntity
  8
10
  6
CONTINOUS
100
AcDbLine
 10
-14.80000000000012
 20
228.1271619249114
 30
0.0
 11
155.1999999999999
 21
228.1271619249114
 31
0.0
  0
LINE
  5
A039
330
1E
100
AcDbEntity
  8
10
  6
CONTINOUS
100
AcDbLine
 10
-14.80000000000012
 20
228.1271619249114
 30
0.0
 11
-14.80000000000012
 21
232.1271619249114
 31
0.0
  0
LINE
  5
A03A
330
1E
100
AcDbEntity
  8
10
  6
CONTINOUS
100
AcDbLine
 10
84.19999999999976
 20
210.1271619249114
 30
0.0
 11
84.19999999999976
 21
224.1271619249113
 31
0.0
  0
LINE
  5
A03B
330
1E
100
AcDbEntity
  8
10
  6
CONTINOUS
100
AcDbLine
 10
56.19999999999999
 20
210.1271619249114
 30
0.0
 11
56.19999999999999
 21
224.1271619249113
 31
0.0
  0
LINE
  5
A03C
330
1E
100
AcDbEntity
  8
10
  6
CONTINOUS
100
AcDbLine
 10
56.19999999999999
 20
210.1271619249114
 30
0.0
 11
84.19999999999976
 21
210.1271619249114
 31
0.0
  0
LINE
  5
A03D
330
1E
100
AcDbEntity
  8
10
  6
CONTINOUS
100
AcDbLine
 10
44.69999999999998
 20
224.1271619249113
 30
0.0
 11
95.69999999999977
 21
224.1271619249113
 31
0.0
  0
LINE
  5
A03E
330
1E
100
AcDbEntity
  8
10
  6
CONTINOUS
100
AcDbLine
 10
44.69999999999998
 20
224.1271619249113
 30
0.0
 11
44.69999999999998
 21
228.1271619249114
 31
0.0
  0
LINE
  5
A03F
330
1E
100
AcDbEntity
  8
10
  6
CONTINOUS
100
AcDbLine
 10
95.69999999999977
 20
224.1271619249113
 30
0.0
 11
95.69999999999977
 21
228.1271619249114
 31
0.0
  0
LINE
  5
A040
330
1E
100
AcDbEntity
  8
10
  6
CONTINOUS
100
AcDbLine
 10
155.1999999999999
 20
228.1271619249114
 30
0.0
 11
155.1999999999999
 21
232.1271619249114
 31
0.0
  0
LINE
  5
A041
330
1E
100
AcDbEntity
  8
18
100
AcDbLine
 10
-74.60000000000007
 20
340.1271619249114
 30
0.0
 11
214.9999999999996
 21
340.1271619249114
 31
0.0
  0
LINE
  5
A042
330
1E
100
AcDbEntity
  8
10
  6
CONTINOUS
100
AcDbLine
 10
-35.00000000000003
 20
335.1271619249113
 30
0.0
 11
174.9999999999997
 21
335.1271619249113
 31
0.0
  0
LINE
  5
A045
330
1E
100
AcDbEntity
  8
18
100
AcDbLine
 10
-39.60000000000007
 20
335.1271619249113
 30
0.0
 11
-74.60000000000007
 21
335.1271619249113
 31
0.0
  0
SPLINE
  5
A046
330
1E
100
AcDbEntity
  8
18
100
AcDbSpline
210
0.0
220
0.0
230
1.0
 70
     8
 71
     2
 72
     8
 73
     5
 74
     0
 42
0.0000000001
 43
0.0000000001
 40
0.0
 40
0.0
 40
0.0
 40
0.375
 40
0.625
 40
1.0
 40
1.0
 40
1.0
 10
215.0000017885783
 20
335.1271606277856
 30
0.0
 10
217.008930360007
 20
336.0646606277855
 30
0.0
 10
215.0000017885783
 20
337.6271606277855
 30
0.0
 10
212.9910732171501
 20
339.1896606277855
 30
0.0
 10
215.0000017885787
 20
340.1271606277853
 30
0.0
  0
LINE
  5
A047
330
1E
100
AcDbEntity
  8
18
100
AcDbLine
 10
179.9999999999996
 20
335.1271619249113
 30
0.0
 11
214.9999999999996
 21
335.1271619249113
 31
0.0
  0
LINE
  5
A048
330
1E
100
AcDbEntity
  8
10
100
AcDbLine
 10
507.3999999999998
 20
-132.0
 30
0.0
 11
507.3999999999998
 21
141.0
 31
0.0
  0
LINE
  5
A049
330
1E
100
AcDbEntity
  8
10
100
AcDbLine
 10
410.3999999999998
 20
116.0
 30
0.0
 11
410.3999999999998
 21
141.0
 31
0.0
  0
LINE
  5
A04A
330
1E
100
AcDbEntity
  8
21
100
AcDbLine
 10
629.3999999999997
 20
121.0
 30
0.0
 11
629.3999999999997
 21
131.0
 31
0.0
  0
LINE
  5
A04B
330
1E
100
AcDbEntity
  8
21
100
AcDbLine
 10
538.3999999999998
 20
113.2
 30
0.0
 11
538.3999999999998
 21
138.7999999999999
 31
0.0
  0
DIMENSION
  5
A04C
330
1E
100
AcDbEntity
  8
30
  6
Continuous
100
AcDbDimension
  2
*D17
 10
507.3999999999998
 20
-187.0958749999999
 30
0.0
 11
455.8999999999998
 21
-181.0958749999999
 31
0.0
 70
    32
  1
 <> 
 71
     5
 42
103.0
  3
STANDARD1
100
AcDbAlignedDimension
 13
404.3999999999998
 23
-44.99999999999993
 33
0.0
 14
507.3999999999998
 24
-136.9999999999999
 34
0.0
100
AcDbRotatedDimension
  0
DIMENSION
  5
A04D
330
1E
100
AcDbEntity
  8
30
  6
Continuous
100
AcDbDimension
  2
*D18
 10
644.0279244687826
 20
131.0
 30
0.0
 11
644.0279244687826
 21
126.0000000000002
 31
0.0
 70
   160
  1
<> 
 71
     5
 42
10.0
  3
STANDARD1
100
AcDbAlignedDimension
 13
634.3999999999997
 23
121.0000000000001
 33
0.0
 14
634.3999999999997
 24
131.0
 34
0.0
 50
90.0
100
AcDbRotatedDimension
1001
ACAD
1000
DSTYLE
1002
{
1070
   172
1070
     1
1002
}
  0
LINE
  5
A04E
330
1E
100
AcDbEntity
  8
10
100
AcDbLine
 10
404.3999999999998
 20
-45.0
 30
0.0
 11
404.3999999999998
 21
45.0
 31
0.0
  0
LINE
  5
A04F
330
1E
100
AcDbEntity
  8
10
100
AcDbLine
 10
397.3999999999998
 20
-45.0
 30
0.0
 11
397.3999999999998
 21
-27.10695999999995
 31
0.0
  0
LINE
  5
A050
330
1E
100
AcDbEntity
  8
10
100
AcDbLine
 10
400.3999999999998
 20
-45.0
 30
0.0
 11
400.3999999999998
 21
45.0
 31
0.0
  0
LINE
  5
A052
330
1E
100
AcDbEntity
  8
12
  6
DASHED
100
AcDbLine
 10
520.3999999999998
 20
-112.9999999999999
 30
0.0
 11
520.3999999999998
 21
-120.9999999999997
 31
0.0
  0
LINE
  5
A053
330
1E
100
AcDbEntity
  8
17
100
AcDbLine
 10
609.3999999999997
 20
-87.0
 30
0.0
 11
609.3999999999997
 21
-147.0
 31
0.0
  0
LINE
  5
A054
330
1E
100
AcDbEntity
  8
21
100
AcDbLine
 10
544.3999999999999
 20
-105.4999999999999
 30
0.0
 11
544.3999999999999
 21
-128.4999999999998
 31
0.0
  0
LINE
  5
A055
330
1E
100
AcDbEntity
  8
17
100
AcDbLine
 10
569.3999999999999
 20
-87.0
 30
0.0
 11
569.3999999999999
 21
-147.0
 31
0.0
  0
LINE
  5
A056
330
1E
100
AcDbEntity
  8
1
  6
DASHED
 62
   113
 48
0.356
100
AcDbLine
 10
473.3999999999999
 20
-114.3299999999999
 30
0.0
 11
473.3999999999999
 21
-119.6699999999997
 31
0.0
  0
LINE
  5
A057
330
1E
100
AcDbEntity
  8
12
  6
DASHED
100
AcDbLine
 10
479.3999999999998
 20
-125.2499999999997
 30
0.0
 11
479.3999999999998
 21
-108.75
 31
0.0
  0
LINE
  5
A058
330
1E
100
AcDbEntity
  8
21
100
AcDbLine
 10
629.3999999999997
 20
-97.99999999999997
 30
0.0
 11
629.3999999999997
 21
-135.9999999999998
 31
0.0
  0
LINE
  5
A059
330
1E
100
AcDbEntity
  8
10
100
AcDbLine
 10
410.3999999999998
 20
-132.0
 30
0.0
 11
410.3999999999998
 21
-107.0
 31
0.0
  0
LINE
  5
A05A
330
1E
100
AcDbEntity
  8
17
100
AcDbLine
 10
577.3999999999999
 20
-87.0
 30
0.0
 11
577.3999999999999
 21
-147.0
 31
0.0
  0
LINE
  5
A05B
330
1E
100
AcDbEntity
  8
21
100
AcDbLine
 10
538.3999999999998
 20
-129.7999999999997
 30
0.0
 11
538.3999999999998
 21
-104.1999999999999
 31
0.0
  0
ARC
  5
A05C
330
1E
100
AcDbEntity
  8
17
100
AcDbCircle
 10
577.3999999999999
 20
-117.0
 30
0.0
 40
6.499999999999997
100
AcDbArc
 50
270.0
 51
90.0
  0
ARC
  5
A05D
330
1E
100
AcDbEntity
  8
17
100
AcDbCircle
 10
569.3999999999999
 20
-117.0
 30
0.0
 40
6.499999999999997
100
AcDbArc
 50
90.0
 51
270.0
  0
CIRCLE
  5
A05E
330
1E
100
AcDbEntity
  8
17
100
AcDbCircle
 10
609.3999999999997
 20
-117.0
 30
0.0
 40
6.499999999999997
  0
DIMENSION
  5
A05F
330
1E
100
AcDbEntity
  8
30
  6
Continuous
100
AcDbDimension
  2
*D19
 10
643.9269499999998
 20
-137.9999999999999
 30
0.0
 11
637.9269499999998
 21
-116.9999999999997
 31
0.0
 70
    32
  1
 <> 
 71
     0
 72
     0
 41
0.0
 42
42.00000000000009
  3
STANDARD1
100
AcDbAlignedDimension
 13
632.3999999999998
 23
-95.99999999999985
 33
0.0
 14
632.3999999999998
 24
-137.9999999999999
 34
0.0
 50
90.0
100
AcDbRotatedDimension
  0
LINE
  5
A060
330
1E
100
AcDbEntity
  8
10
100
AcDbLine
 10
410.3999999999998
 20
-132.0
 30
0.0
 11
507.3999999999998
 21
-132.0
 31
0.0
  0
LINE
  5
A061
330
1E
100
AcDbEntity
  8
12
  6
DASHED
100
AcDbLine
 10
479.3999999999998
 20
-120.9999999999997
 30
0.0
 11
507.3999999999998
 21
-120.9999999999997
 31
0.0
  0
LINE
  5
A062
330
1E
100
AcDbEntity
  8
17
100
AcDbLine
 10
471.0999999999996
 20
-117.0
 30
0.0
 11
523.3999999999999
 21
-117.0
 31
0.0
  0
LINE
  5
A063
330
1E
100
AcDbEntity
  8
12
  6
DASHED
100
AcDbLine
 10
410.3999999999998
 20
-125.2499999999997
 30
0.0
 11
479.3999999999998
 21
-125.2499999999997
 31
0.0
  0
LINE
  5
A064
330
1E
100
AcDbEntity
  8
12
  6
DASHED
100
AcDbLine
 10
479.3999999999998
 20
-125.0
 30
0.0
 11
478.7299999999998
 21
-125.0
 31
0.0
  0
ARC
  5
A065
330
1E
100
AcDbEntity
  8
12
  6
DASHED
100
AcDbCircle
 10
478.7299999999998
 20
-119.6699999999997
 30
0.0
 40
5.329999999999997
100
AcDbArc
 50
180.0
 51
270.0
  0
LINE
  5
A066
330
1E
100
AcDbEntity
  8
1
  6
DASHDOT
 62
     3
100
AcDbLine
 10
507.3999999999998
 20
-137.0
 30
0.0
 11
507.3999999999998
 21
-182.0
 31
0.0
  0
LINE
  5
A068
330
1E
100
AcDbEntity
  8
21
100
AcDbLine
 10
627.3999999999999
 20
-137.9999999999998
 30
0.0
 11
572.3128049999997
 21
-137.9999999999998
 31
0.0
  0
LINE
  5
A069
330
1E
100
AcDbEntity
  8
17
100
AcDbLine
 10
583.1359575549902
 20
-117.1116004490122
 30
0.0
 11
507.3999999999998
 21
-117.0
 31
0.0
  0
ELLIPSE
  5
A06A
330
1E
100
AcDbEntity
  8
21
100
AcDbEllipse
 10
572.3105749999997
 20
-122.9999999999999
 30
0.0
 11
29.99999999999999
 21
0.0
 31
0.0
210
0.0
220
0.0
230
-1.0
 40
0.5
 41
1.570721942727706
 42
2.766169045608751
  0
LINE
  5
A06B
330
1E
100
AcDbEntity
  8
21
100
AcDbLine
 10
538.3999999999998
 20
-129.7999999999997
 30
0.0
 11
507.3999999999998
 21
-129.7999999999997
 31
0.0
  0
LINE
  5
A06C
330
1E
100
AcDbEntity
  8
21
100
AcDbLine
 10
544.3999999999999
 20
-128.4999999999998
 30
0.0
 11
538.3999999999998
 21
-128.4999999999998
 31
0.0
  0
LINE
  5
A06D
330
1E
100
AcDbEntity
  8
12
  6
DASHED
100
AcDbLine
 10
507.3999999999998
 20
-120.9999999999997
 30
0.0
 11
520.3999999999998
 21
-120.9999999999997
 31
0.0
  0
LINE
  5
A06F
330
1E
100
AcDbEntity
  8
17
100
AcDbLine
 10
569.3999999999999
 20
-123.4999999999996
 30
0.0
 11
577.3999999999999
 21
-123.4999999999996
 31
0.0
  0
ARC
  5
A070
330
1E
100
AcDbEntity
  8
21
100
AcDbCircle
 10
627.3999999999999
 20
-135.9999999999998
 30
0.0
 40
1.999999999999999
100
AcDbArc
 50
270.0
 51
0.0
  0
LINE
  5
A071
330
1E
100
AcDbEntity
  8
12
  6
DASHED
100
AcDbLine
 10
479.3999999999998
 20
-112.9999999999999
 30
0.0
 11
507.3999999999998
 21
-112.9999999999999
 31
0.0
  0
LINE
  5
A072
330
1E
100
AcDbEntity
  8
10
100
AcDbLine
 10
407.8999999999998
 20
-107.0
 30
0.0
 11
407.8999999999998
 21
-46.49999999999988
 31
0.0
  0
DIMENSION
  5
A073
330
1E
100
AcDbEntity
  8
30
  6
Continuous
100
AcDbDimension
  2
*D20
 10
507.3999999999998
 20
-78.7842317967024
 30
0.0
 11
493.3999999999998
 21
-72.78423179670237
 31
0.0
 70
    32
  1
 <> 
 71
     5
 42
28.0
  3
STANDARD1
100
AcDbAlignedDimension
 13
479.3999999999998
 23
-103.7499999999997
 33
0.0
 14
507.3999999999998
 24
-85.03423179670233
 34
0.0
100
AcDbRotatedDimension
  0
LINE
  5
A074
330
1E
100
AcDbEntity
  8
12
  6
DASHED
100
AcDbLine
 10
410.3999999999998
 20
-108.75
 30
0.0
 11
479.3999999999998
 21
-108.75
 31
0.0
  0
LINE
  5
A075
330
1E
100
AcDbEntity
  8
10
100
AcDbLine
 10
410.3999999999998
 20
-107.0
 30
0.0
 11
407.8999999999998
 21
-107.0
 31
0.0
  0
LINE
  5
A076
330
1E
100
AcDbEntity
  8
1
  6
DASHED
 62
   113
 48
0.044667
100
AcDbLine
 10
479.3999999999998
 20
-108.9999999999996
 30
0.0
 11
478.7299999999998
 21
-108.9999999999996
 31
0.0
  0
ARC
  5
A077
330
1E
100
AcDbEntity
  8
1
  6
DASHED
 62
   113
100
AcDbCircle
 10
478.7299999999998
 20
-114.3299999999999
 30
0.0
 40
5.329999999999997
100
AcDbArc
 50
90.0
 51
180.0
  0
LINE
  5
A078
330
1E
100
AcDbEntity
  8
10
100
AcDbLine
 10
404.3999999999998
 20
-45.0
 30
0.0
 11
397.3999999999998
 21
-45.0
 31
0.0
  0
LINE
  5
A079
330
1E
100
AcDbEntity
  8
10
100
AcDbLine
 10
404.3999999999998
 20
-46.49999999999988
 30
0.0
 11
404.3999999999998
 21
-45.0
 31
0.0
  0
LINE
  5
A07A
330
1E
100
AcDbEntity
  8
10
100
AcDbLine
 10
407.8999999999998
 20
-46.49999999999988
 30
0.0
 11
404.3999999999998
 21
-46.49999999999988
 31
0.0
  0
DIMENSION
  5
A07B
330
1E
100
AcDbEntity
  8
30
  6
Continuous
100
AcDbDimension
  2
*D21
 10
507.3999999999998
 20
-78.7842317967024
 30
0.0
 11
511.4630848795832
 21
-78.7842317967024
 31
0.0
 70
   160
  1
 <> 
 71
     5
 42
13.0
  3
STANDARD1
100
AcDbAlignedDimension
 13
520.3999999999998
 23
-107.9999999999997
 33
0.0
 14
507.3999999999998
 24
-84.03423179670236
 34
0.0
100
AcDbRotatedDimension
  0
LINE
  5
A07C
330
1E
100
AcDbEntity
  8
21
100
AcDbLine
 10
627.3999999999999
 20
-95.99999999999987
 30
0.0
 11
572.3128049999997
 21
-95.99999999999987
 31
0.0
  0
ELLIPSE
  5
A07D
330
1E
100
AcDbEntity
  8
21
100
AcDbEllipse
 10
572.3105749999997
 20
-110.9999999999996
 30
0.0
 11
29.99999999999999
 21
0.0
 31
0.0
210
0.0
220
0.0
230
1.0
 40
0.5
 41
1.570721942727706
 42
2.766169045608751
  0
LINE
  5
A07E
330
1E
100
AcDbEntity
  8
21
100
AcDbLine
 10
538.3999999999998
 20
-104.1999999999999
 30
0.0
 11
507.3999999999998
 21
-104.1999999999999
 31
0.0
  0
LINE
  5
A07F
330
1E
100
AcDbEntity
  8
21
100
AcDbLine
 10
544.3999999999999
 20
-105.4999999999999
 30
0.0
 11
538.3999999999998
 21
-105.4999999999999
 31
0.0
  0
LINE
  5
A080
330
1E
100
AcDbEntity
  8
12
  6
DASHED
100
AcDbLine
 10
507.3999999999998
 20
-112.9999999999999
 30
0.0
 11
520.3999999999998
 21
-112.9999999999999
 31
0.0
  0
LINE
  5
A081
330
1E
100
AcDbEntity
  8
17
100
AcDbLine
 10
569.3999999999999
 20
-110.4999999999999
 30
0.0
 11
577.3999999999999
 21
-110.4999999999999
 31
0.0
  0
ARC
  5
A082
330
1E
100
AcDbEntity
  8
21
100
AcDbCircle
 10
627.3999999999999
 20
-97.99999999999997
 30
0.0
 40
1.999999999999999
100
AcDbArc
 50
0.0
 51
90.0
  0
LINE
  5
A083
330
1E
100
AcDbEntity
  8
10
100
AcDbLine
 10
404.3999999999998
 20
45.0
 30
0.0
 11
404.3999999999998
 21
55.5
 31
0.0
  0
LINE
  5
A084
330
1E
100
AcDbEntity
  8
10
100
AcDbLine
 10
390.2159049999998
 20
44.57905000000003
 30
0.0
 11
365.7530049999998
 21
53.38623500000005
 31
0.0
  0
ARC
  5
A085
330
1E
100
AcDbEntity
  8
10
100
AcDbCircle
 10
305.8035699999998
 20
61.04623500000013
 30
0.0
 40
15.99999999999999
100
AcDbArc
 50
19.39509599999932
 51
301.0049040000016
  0
ARC
  5
A086
330
1E
100
AcDbEntity
  8
1
  6
Continuous
 62
   131
100
AcDbCircle
 10
507.4018205528714
 20
3.80618472679606
 30
0.0
 40
225.5060555675518
100
AcDbArc
 50
165.1394483099086
 51
179.6966782288776
  0
ARC
  5
A087
330
1E
100
AcDbEntity
  8
10
100
AcDbCircle
 10
-317.6511349999996
 20
41.33240499999997
 30
0.0
 40
6.999999999999997
210
0.0
220
0.0
230
-1.0
100
AcDbArc
 50
58.99509599999825
 51
117.5859389999994
  0
LINE
  5
A089
330
1E
100
AcDbEntity
  8
16
100
AcDbLine
 10
521.3999999999998
 20
0.0
 30
0.0
 11
344.9999999999997
 21
0.0
 31
0.0
  0
ARC
  5
A08A
330
1E
100
AcDbEntity
  8
1
  6
Continuous
 62
     4
100
AcDbCircle
 10
507.3999999999998
 20
5.0
 30
0.0
 40
144.9999999999999
100
AcDbArc
 50
169.3042220000005
 51
180.0
  0
ARC
  5
A08C
330
1E
100
AcDbEntity
  8
10
100
AcDbCircle
 10
896.3999999999996
 20
4.5
 30
0.0
 40
499.9999999999998
100
AcDbArc
 50
176.3756930000003
 51
183.6243069999994
  0
LINE
  5
A08E
330
1E
100
AcDbEntity
  8
10
100
AcDbLine
 10
381.3409699999994
 20
19.92797499999993
 30
0.0
 11
356.8780699999996
 21
28.73515999999995
 31
0.0
  0
LINE
  5
A08F
330
1E
100
AcDbEntity
  8
10
100
AcDbLine
 10
396.6898699999997
 20
21.52302000000003
 30
0.0
 11
364.3224599999996
 21
33.17600499999997
 31
0.0
  0
LINE
  5
A090
330
1E
100
AcDbEntity
  8
10
100
AcDbLine
 10
368.6583049999998
 20
45.21928000000001
 30
0.0
 11
364.3224599999996
 21
33.17600499999997
 31
0.0
  0
LINE
  5
A091
330
1E
100
AcDbEntity
  8
10
100
AcDbLine
 10
320.8926849999996
 20
47.53662499999996
 30
0.0
 11
356.8780699999996
 21
28.73515999999995
 31
0.0
  0
LINE
  5
A092
330
1E
100
AcDbEntity
  8
10
100
AcDbLine
 10
392.6244749999998
 20
39.46057499999993
 30
0.0
 11
386.4594449999996
 21
22.336545
 31
0.0
  0
LINE
  5
A093
330
1E
100
AcDbEntity
  8
10
100
AcDbLine
 10
396.7819849999998
 20
24.04065500000001
 30
0.0
 11
381.2244899999998
 21
29.64169999999994
 31
0.0
  0
ARC
  5
A094
330
1E
100
AcDbEntity
  8
10
100
AcDbCircle
 10
382.6959199999998
 20
23.69150000000002
 30
0.0
 40
3.999999999999998
100
AcDbArc
 50
250.199999999999
 51
340.2
  0
LINE
  5
A095
330
1E
100
AcDbEntity
  8
10
100
AcDbLine
 10
397.3999999999998
 20
36.10696500000017
 30
0.0
 11
397.3999999999998
 21
45.0
 31
0.0
  0
LINE
  5
A096
330
1E
100
AcDbEntity
  8
10
100
AcDbLine
 10
397.1790399999997
 20
32.4003799999998
 30
0.0
 11
383.9343949999993
 21
37.16874500000017
 31
0.0
  0
LINE
  5
A097
330
1E
100
AcDbEntity
  8
10
100
AcDbLine
 10
383.9343949999993
 20
37.16874500000017
 30
0.0
 11
381.2244899999998
 21
29.64169999999994
 31
0.0
  0
LINE
  5
A098
330
1E
100
AcDbEntity
  8
10
100
AcDbLine
 10
397.3999999999998
 20
45.0
 30
0.0
 11
404.3999999999998
 21
45.0
 31
0.0
  0
LINE
  5
A099
330
1E
100
AcDbEntity
  8
10
100
AcDbLine
 10
397.3249349999998
 20
34.89865500000007
 30
0.0
 11
368.6583049999998
 21
45.21928000000001
 31
0.0
  0
ARC
  5
A09A
330
1E
100
AcDbEntity
  8
10
100
AcDbCircle
 10
388.8609499999997
 20
40.81552999999995
 30
0.0
 40
3.999999999999998
100
AcDbArc
 50
340.2
 51
70.19999999999902
  0
LINE
  5
A09B
330
1E
100
AcDbEntity
  8
10
100
AcDbLine
 10
407.8999999999998
 20
55.5
 30
0.0
 11
407.8999999999998
 21
116.0
 31
0.0
  0
LINE
  5
A09C
330
1E
100
AcDbEntity
  8
10
100
AcDbLine
 10
326.0412849999998
 20
61.83740999999997
 30
0.0
 11
365.7530049999998
 21
53.38623500000005
 31
0.0
  0
ARC
  5
A09D
330
1E
100
AcDbEntity
  8
10
100
AcDbCircle
 10
327.4983449999997
 20
68.68408499999998
 30
0.0
 40
6.999999999999997
100
AcDbArc
 50
199.3950959999986
 51
257.9859390000011
  0
LINE
  5
A09E
330
1E
100
AcDbEntity
  8
10
100
AcDbLine
 10
407.8999999999998
 20
55.5
 30
0.0
 11
404.3999999999998
 21
55.5
 31
0.0
  0
LINE
  5
A09F
330
1E
100
AcDbEntity
  8
10
100
AcDbLine
 10
410.3999999999998
 20
116.0
 30
0.0
 11
407.8999999999998
 21
116.0
 31
0.0
  0
LINE
  5
A0A0
330
1E
100
AcDbEntity
  8
17
100
AcDbLine
 10
639.3999999999997
 20
126.0
 30
0.0
 11
497.3999999999998
 21
126.0
 31
0.0
  0
LINE
  5
A0A1
330
1E
100
AcDbEntity
  8
21
100
AcDbLine
 10
544.3999999999999
 20
121.0
 30
0.0
 11
629.3999999999997
 21
121.0
 31
0.0
  0
LINE
  5
A0A2
330
1E
100
AcDbEntity
  8
21
100
AcDbLine
 10
538.3999999999998
 20
113.2
 30
0.0
 11
507.3999999999998
 21
113.2
 31
0.0
  0
LINE
  5
A0A3
330
1E
100
AcDbEntity
  8
21
100
AcDbLine
 10
540.3999999999999
 20
114.5
 30
0.0
 11
538.3999999999998
 21
114.5
 31
0.0
  0
ARC
  5
A0A4
330
1E
100
AcDbEntity
  8
21
100
AcDbCircle
 10
-548.3843599999999
 20
114.0627899999999
 30
0.0
 40
7.999999999999997
210
0.0
220
0.0
230
-1.0
100
AcDbArc
 50
3.132844000000278
 51
60.12926000000296
  0
LINE
  5
A0A5
330
1E
100
AcDbEntity
  8
10
100
AcDbLine
 10
507.3999999999998
 20
141.0
 30
0.0
 11
410.3999999999998
 21
141.0
 31
0.0
  0
LINE
  5
A0A6
330
1E
100
AcDbEntity
  8
21
100
AcDbLine
 10
544.3999999999999
 20
131.0
 30
0.0
 11
629.3999999999997
 21
131.0
 31
0.0
  0
LINE
  5
A0A7
330
1E
100
AcDbEntity
  8
21
100
AcDbLine
 10
540.3999999999999
 20
137.5
 30
0.0
 11
538.3999999999998
 21
137.5
 31
0.0
  0
LINE
  5
A0A8
330
1E
100
AcDbEntity
  8
21
100
AcDbLine
 10
538.3999999999998
 20
138.7999999999999
 30
0.0
 11
507.3999999999998
 21
138.7999999999999
 31
0.0
  0
ARC
  5
A0A9
330
1E
100
AcDbEntity
  8
21
100
AcDbCircle
 10
548.3843599999999
 20
137.93721
 30
0.0
 40
7.999999999999997
100
AcDbArc
 50
183.1328440000003
 51
240.1292600000028
  0
LINE
  5
A0E7
330
1E
100
AcDbEntity
  8
21
100
AcDbLine
 10
161.1999999999995
 20
455.1271619249113
 30
0.0
 11
161.1999999999995
 21
400.0399669249113
 31
0.0
  0
CIRCLE
  5
A0EA
330
1E
100
AcDbEntity
  8
17
100
AcDbCircle
 10
140.1999999999999
 20
437.1271619249113
 30
0.0
 40
6.499999999999997
  0
LINE
  5
A0EC
330
1E
100
AcDbEntity
  8
21
100
AcDbLine
 10
91.19999999999999
 20
455.1271619249113
 30
0.0
 11
91.19999999999999
 21
400.0399669249113
 31
0.0
  0
LINE
  5
A0ED
330
1E
100
AcDbEntity
  8
21
100
AcDbLine
 10
49.19999999999976
 20
455.1271619249113
 30
0.0
 11
49.19999999999976
 21
400.0399669249113
 31
0.0
  0
LINE
  5
A0EE
330
1E
100
AcDbEntity
  8
21
100
AcDbLine
 10
-20.80000000000012
 20
455.1271619249113
 30
0.0
 11
-20.80000000000012
 21
400.0399669249113
 31
0.0
  0
LINE
  5
A0EF
330
1E
100
AcDbEntity
  8
21
100
AcDbLine
 10
119.1999999999997
 20
455.1271619249113
 30
0.0
 11
119.1999999999997
 21
400.0399669249113
 31
0.0
  0
LINE
  5
A0F0
330
1E
100
AcDbEntity
  8
21
100
AcDbLine
 10
21.19999999999998
 20
455.1271619249113
 30
0.0
 11
21.19999999999998
 21
400.0399669249113
 31
0.0
  0
CIRCLE
  5
A0F1
330
1E
100
AcDbEntity
  8
17
100
AcDbCircle
 10
0.1999999999999886
 20
437.1271619249113
 30
0.0
 40
6.499999999999997
  0
CIRCLE
  5
A0F2
330
1E
100
AcDbEntity
  8
17
100
AcDbCircle
 10
70.19999999999999
 20
437.1271619249113
 30
0.0
 40
6.499999999999997
  0
LINE
  5
A0F3
330
1E
100
AcDbEntity
  8
17
100
AcDbLine
 10
170.1999999999999
 20
405.1271619249113
 30
0.0
 11
110.1999999999995
 21
405.1271619249113
 31
0.0
  0
LINE
  5
A0F4
330
1E
100
AcDbEntity
  8
17
100
AcDbLine
 10
170.1999999999999
 20
397.1271619249113
 30
0.0
 11
110.1999999999995
 21
397.1271619249113
 31
0.0
  0
LINE
  5
A0F5
330
1E
100
AcDbEntity
  8
17
100
AcDbLine
 10
170.1999999999999
 20
437.1271619249113
 30
0.0
 11
110.1999999999995
 21
437.1271619249113
 31
0.0
  0
LINE
  5
A0F6
330
1E
100
AcDbEntity
  8
21
100
AcDbLine
 10
151.6999999999996
 20
372.1271619249113
 30
0.0
 11
128.6999999999998
 21
372.1271619249113
 31
0.0
  0
LINE
  5
A0F7
330
1E
100
AcDbEntity
  8
21
100
AcDbLine
 10
127.3999999999998
 20
366.1271619249113
 30
0.0
 11
152.9999999999995
 21
366.1271619249113
 31
0.0
  0
LINE
  5
A0F8
330
1E
100
AcDbEntity
  8
17
100
AcDbLine
 10
76.69999999999976
 20
397.1271619249113
 30
0.0
 11
76.69999999999976
 21
405.1271619249113
 31
0.0
  0
LINE
  5
A0F9
330
1E
100
AcDbEntity
  8
17
100
AcDbLine
 10
63.69999999999999
 20
397.1271619249113
 30
0.0
 11
63.69999999999999
 21
405.1271619249113
 31
0.0
  0
LINE
  5
A0FA
330
1E
100
AcDbEntity
  8
17
100
AcDbLine
 10
6.699999999999988
 20
397.1271619249113
 30
0.0
 11
6.699999999999988
 21
405.1271619249113
 31
0.0
  0
LINE
  5
A0FB
330
1E
100
AcDbEntity
  8
17
100
AcDbLine
 10
-6.300000000000125
 20
397.1271619249113
 30
0.0
 11
-6.300000000000125
 21
405.1271619249113
 31
0.0
  0
ELLIPSE
  5
A0FC
330
1E
100
AcDbEntity
  8
21
100
AcDbEllipse
 10
-5.800000000000238
 20
400.0377319249113
 30
0.0
 11
0.0000000000000583
 21
29.99999999999994
 31
0.0
210
0.0
220
0.0
230
1.0
 40
0.5000000000000006
 41
1.570721942727706
 42
2.766169045608754
  0
ELLIPSE
  5
A0FD
330
1E
100
AcDbEntity
  8
21
100
AcDbEllipse
 10
6.199999999999988
 20
400.0377319249113
 30
0.0
 11
-0.0000000000000583
 21
29.99999999999994
 31
0.0
210
0.0
220
0.0
230
-1.0
 40
0.5000000000000006
 41
1.570721942727706
 42
2.766169045608754
  0
ELLIPSE
  5
A0FE
330
1E
100
AcDbEntity
  8
21
100
AcDbEllipse
 10
76.19999999999975
 20
400.0377319249113
 30
0.0
 11
-0.0000000000000273
 21
29.99999999999996
 31
0.0
210
0.0
220
0.0
230
-1.0
 40
0.5000000000000002
 41
1.570721942727706
 42
2.766169045608751
  0
ELLIPSE
  5
A0FF
330
1E
100
AcDbEntity
  8
21
100
AcDbEllipse
 10
134.1999999999995
 20
400.0377319249113
 30
0.0
 11
0.0000000000000556
 21
29.9999999999999
 31
0.0
210
0.0
220
0.0
230
1.0
 40
0.5000000000000016
 41
1.570721942727706
 42
2.766169045608759
  0
ELLIPSE
  5
A100
330
1E
100
AcDbEntity
  8
21
100
AcDbEllipse
 10
64.19999999999976
 20
400.0377319249113
 30
0.0
 11
0.0000000000000492
 21
29.99999999999996
 31
0.0
210
0.0
220
0.0
230
1.0
 40
0.5000000000000006
 41
1.570721942727706
 42
2.766169045608754
  0
LINE
  5
A101
330
1E
100
AcDbEntity
  8
17
100
AcDbLine
 10
30.19999999999999
 20
397.1271619249113
 30
0.0
 11
-29.80000000000012
 21
397.1271619249113
 31
0.0
  0
LINE
  5
A102
330
1E
100
AcDbEntity
  8
21
100
AcDbLine
 10
-12.60000000000019
 20
366.1271619249113
 30
0.0
 11
12.99999999999971
 21
366.1271619249113
 31
0.0
  0
LINE
  5
A103
330
1E
100
AcDbEntity
  8
21
100
AcDbLine
 10
11.69999999999998
 20
372.1271619249113
 30
0.0
 11
-11.30000000000012
 21
372.1271619249113
 31
0.0
  0
LINE
  5
A104
330
1E
100
AcDbEntity
  8
21
100
AcDbLine
 10
-11.30000000000012
 20
372.1271619249113
 30
0.0
 11
-11.30000000000012
 21
366.1271619249113
 31
0.0
  0
ARC
  5
A105
330
1E
100
AcDbEntity
  8
1
  6
Continuous
 62
     2
100
AcDbCircle
 10
0.1999999999999886
 20
397.1271619249113
 30
0.0
 40
6.499999999999997
100
AcDbArc
 50
180.0
 51
0.0
  0
LINE
  5
A106
330
1E
100
AcDbEntity
  8
21
100
AcDbLine
 10
81.69999999999976
 20
372.1271619249113
 30
0.0
 11
58.69999999999999
 21
372.1271619249113
 31
0.0
  0
LINE
  5
A107
330
1E
100
AcDbEntity
  8
21
100
AcDbLine
 10
57.3999999999998
 20
366.1271619249113
 30
0.0
 11
82.99999999999972
 21
366.1271619249113
 31
0.0
  0
LINE
  5
A108
330
1E
100
AcDbEntity
  8
21
100
AcDbLine
 10
11.69999999999998
 20
372.1271619249113
 30
0.0
 11
11.69999999999998
 21
366.1271619249113
 31
0.0
  0
LINE
  5
A109
330
1E
100
AcDbEntity
  8
21
100
AcDbLine
 10
58.69999999999999
 20
372.1271619249113
 30
0.0
 11
58.69999999999999
 21
366.1271619249113
 31
0.0
  0
LINE
  5
A10A
330
1E
100
AcDbEntity
  8
21
100
AcDbLine
 10
81.69999999999976
 20
372.1271619249113
 30
0.0
 11
81.69999999999976
 21
366.1271619249113
 31
0.0
  0
LINE
  5
A10B
330
1E
100
AcDbEntity
  8
21
100
AcDbLine
 10
128.6999999999998
 20
372.1271619249113
 30
0.0
 11
128.6999999999998
 21
366.1271619249113
 31
0.0
  0
ARC
  5
A10C
330
1E
100
AcDbEntity
  8
1
  6
Continuous
 62
     2
100
AcDbCircle
 10
70.19999999999999
 20
397.1271619249113
 30
0.0
 40
6.499999999999997
100
AcDbArc
 50
180.0
 51
0.0
  0
LINE
  5
A10D
330
1E
100
AcDbEntity
  8
17
100
AcDbLine
 10
100.1999999999997
 20
397.1271619249113
 30
0.0
 11
40.19999999999998
 21
397.1271619249113
 31
0.0
  0
LINE
  5
A10E
330
1E
100
AcDbEntity
  8
17
100
AcDbLine
 10
30.19999999999999
 20
437.1271619249113
 30
0.0
 11
-29.80000000000012
 21
437.1271619249113
 31
0.0
  0
LINE
  5
A10F
330
1E
100
AcDbEntity
  8
17
100
AcDbLine
 10
30.19999999999999
 20
405.1271619249113
 30
0.0
 11
-29.80000000000012
 21
405.1271619249113
 31
0.0
  0
ARC
  5
A110
330
1E
100
AcDbEntity
  8
17
100
AcDbCircle
 10
0.1999999999999886
 20
405.1271619249113
 30
0.0
 40
6.499999999999997
100
AcDbArc
 50
0.0
 51
180.0
  0
LINE
  5
A111
330
1E
100
AcDbEntity
  8
17
100
AcDbLine
 10
100.1999999999997
 20
405.1271619249113
 30
0.0
 11
40.19999999999998
 21
405.1271619249113
 31
0.0
  0
ARC
  5
A112
330
1E
100
AcDbEntity
  8
17
100
AcDbCircle
 10
70.19999999999999
 20
405.1271619249113
 30
0.0
 40
6.499999999999997
100
AcDbArc
 50
0.0
 51
180.0
  0
LINE
  5
A113
330
1E
100
AcDbEntity
  8
17
100
AcDbLine
 10
100.1999999999997
 20
437.1271619249113
 30
0.0
 11
40.19999999999998
 21
437.1271619249113
 31
0.0
  0
LINE
  5
A116
330
1E
100
AcDbEntity
  8
17
100
AcDbLine
 10
133.6999999999998
 20
397.1271619249113
 30
0.0
 11
133.6999999999998
 21
405.1271619249113
 31
0.0
  0
LINE
  5
A117
330
1E
100
AcDbEntity
  8
17
100
AcDbLine
 10
146.6999999999996
 20
397.1271619249113
 30
0.0
 11
146.6999999999996
 21
405.1271619249113
 31
0.0
  0
ELLIPSE
  5
A118
330
1E
100
AcDbEntity
  8
21
100
AcDbEllipse
 10
146.1999999999996
 20
400.0377319249113
 30
0.0
 11
0.0000000000000082
 21
29.99999999999996
 31
0.0
210
0.0
220
0.0
230
-1.0
 40
0.5000000000000002
 41
1.570721942727706
 42
2.766169045608751
  0
LINE
  5
A11C
330
1E
100
AcDbEntity
  8
21
100
AcDbLine
 10
151.6999999999996
 20
372.1271619249113
 30
0.0
 11
151.6999999999996
 21
366.1271619249113
 31
0.0
  0
ARC
  5
A122
330
1E
100
AcDbEntity
  8
1
  6
Continuous
 62
     2
100
AcDbCircle
 10
140.1999999999999
 20
397.1271619249113
 30
0.0
 40
6.499999999999997
100
AcDbArc
 50
180.0
 51
0.0
  0
ARC
  5
A126
330
1E
100
AcDbEntity
  8
17
100
AcDbCircle
 10
140.1999999999999
 20
405.1271619249113
 30
0.0
 40
6.499999999999997
100
AcDbArc
 50
0.0
 51
180.0
  0
LINE
  5
A129
330
1E
100
AcDbEntity
  8
21
100
AcDbLine
 10
159.1999999999996
 20
457.1271619249113
 30
0.0
 11
121.1999999999999
 21
457.1271619249113
 31
0.0
  0
DIMENSION
  5
A12A
330
1E
100
AcDbEntity
  8
30
  6
Continuous
100
AcDbDimension
  2
*D22
 10
140.1999999999999
 20
492.2230369249113
 30
0.0
 11
105.1999999999998
 21
498.2230369249113
 31
0.0
 70
    32
  1
 <> 
 71
     5
 42
70.00000000000023
  3
STANDARD1
100
AcDbAlignedDimension
 13
70.19999999999976
 23
442.1271619249113
 33
0.0
 14
140.1999999999999
 24
442.1271619249113
 34
0.0
100
AcDbRotatedDimension
  0
DIMENSION
  5
A12B
330
1E
100
AcDbEntity
  8
30
  6
Continuous
100
AcDbDimension
  2
*D23
 10
70.19999999999976
 20
492.2230369249113
 30
0.0
 11
35.19999999999976
 21
498.2230369249113
 31
0.0
 70
    32
  1
 <> 
 71
     5
 42
70.0
  3
STANDARD1
100
AcDbAlignedDimension
 13
0.1999999999997612
 23
442.1271619249113
 33
0.0
 14
70.19999999999976
 24
442.1271619249113
 34
0.0
100
AcDbRotatedDimension
  0
LINE
  5
A12C
330
1E
100
AcDbEntity
  8
21
100
AcDbLine
 10
19.19999999999999
 20
457.1271619249113
 30
0.0
 11
-18.80000000000012
 21
457.1271619249113
 31
0.0
  0
ARC
  5
A12D
330
1E
100
AcDbEntity
  8
21
100
AcDbCircle
 10
-18.80000000000012
 20
455.1271619249113
 30
0.0
 40
1.999999999999999
100
AcDbArc
 50
90.0
 51
180.0
  0
LINE
  5
A12E
330
1E
100
AcDbEntity
  8
21
100
AcDbLine
 10
89.19999999999976
 20
457.1271619249113
 30
0.0
 11
51.19999999999999
 21
457.1271619249113
 31
0.0
  0
ARC
  5
A12F
330
1E
100
AcDbEntity
  8
21
100
AcDbCircle
 10
51.19999999999999
 20
455.1271619249113
 30
0.0
 40
1.999999999999999
100
AcDbArc
 50
90.0
 51
180.0
  0
ARC
  5
A130
330
1E
100
AcDbEntity
  8
21
100
AcDbCircle
 10
19.19999999999999
 20
455.1271619249113
 30
0.0
 40
1.999999999999999
100
AcDbArc
 50
0.0
 51
90.0
  0
ARC
  5
A131
330
1E
100
AcDbEntity
  8
21
100
AcDbCircle
 10
89.19999999999976
 20
455.1271619249113
 30
0.0
 40
1.999999999999999
100
AcDbArc
 50
0.0
 51
90.0
  0
ARC
  5
A132
330
1E
100
AcDbEntity
  8
21
100
AcDbCircle
 10
121.1999999999999
 20
455.1271619249113
 30
0.0
 40
1.999999999999999
100
AcDbArc
 50
90.0
 51
180.0
  0
ARC
  5
A135
330
1E
100
AcDbEntity
  8
21
100
AcDbCircle
 10
159.1999999999996
 20
455.1271619249113
 30
0.0
 40
1.999999999999999
100
AcDbArc
 50
0.0
 51
90.0
  0
DIMENSION
  5
A86C
330
1E
100
AcDbEntity
  8
30
  6
Continuous
100
AcDbDimension
  2
*D24
 10
-80.51913889441724
 20
-131.9999999999999
 30
0.0
 11
-86.5191388944172
 21
4.500000000000033
 31
0.0
 70
    32
 71
     5
 42
273.0
  3
STANDARD1
100
AcDbAlignedDimension
 13
-35.00000000000012
 23
141.0
 33
0.0
 14
-35.00000000000003
 24
-131.9999999999999
 34
0.0
 50
90.0
100
AcDbRotatedDimension
  0
DIMENSION
  5
A92E
330
1E
100
AcDbEntity
  8
30
  6
Continuous
100
AcDbDimension
  2
*D26
 10
507.3999999999998
 20
-169.0532887500314
 30
0.0
 11
458.8999999999998
 21
-163.0532887500315
 31
0.0
 70
    32
 71
     5
 42
97.0
  3
STANDARD1
100
AcDbAlignedDimension
 13
410.3999999999998
 23
-131.9999999999999
 33
0.0
 14
507.3999999999998
 24
-131.9999999999999
 34
0.0
100
AcDbRotatedDimension
  0
DIMENSION
  5
A94D
330
1E
100
AcDbEntity
  8
30
  6
Continuous
100
AcDbDimension
  2
*D30
 10
629.3999999999997
 20
-187.1203109059123
 30
0.0
 11
568.3999999999997
 21
-181.1203109059123
 31
0.0
 70
    32
 71
     5
 42
122.0
  3
STANDARD1
100
AcDbAlignedDimension
 13
507.3999999999998
 23
-187.1203109059123
 33
0.0
 14
629.3999999999997
 24
-135.9999999999999
 34
0.0
100
AcDbRotatedDimension
  0
DIMENSION
  5
A94E
330
1E
100
AcDbEntity
  8
30
  6
Continuous
100
AcDbDimension
  2
*D28
 10
609.3999999999997
 20
-169.0532887500314
 30
0.0
 11
593.3999999999997
 21
-163.0532887500315
 31
0.0
 70
    32
 71
     5
 42
32.0
  3
STANDARD1
100
AcDbAlignedDimension
 13
577.3999999999999
 23
-146.9999999999999
 33
0.0
 14
609.3999999999997
 24
-162.7499999999999
 34
0.0
100
AcDbRotatedDimension
  0
DIMENSION
  5
A94F
330
1E
100
AcDbEntity
  8
30
  6
Continuous
100
AcDbDimension
  2
*D27
 10
569.3999999999999
 20
-169.0532887500314
 30
0.0
 11
538.3999999999998
 21
-163.0532887500315
 31
0.0
 70
    32
 71
     5
 42
62.0
  3
STANDARD1
100
AcDbAlignedDimension
 13
507.3999999999998
 23
-169.0532887500314
 33
0.0
 14
569.3999999999999
 24
-149.9999999999999
 34
0.0
100
AcDbRotatedDimension
  0
DIMENSION
  5
A950
330
1E
100
AcDbEntity
  8
30
  6
Continuous
100
AcDbDimension
  2
*D29
 10
629.3999999999997
 20
-169.0532887500314
 30
0.0
 11
619.3999999999999
 21
-163.0532887500315
 31
0.0
 70
    32
 71
     5
 42
20.0
  3
STANDARD1
100
AcDbAlignedDimension
 13
609.3999999999997
 23
-146.9999999999999
 33
0.0
 14
629.3999999999997
 24
-135.9999999999999
 34
0.0
100
AcDbRotatedDimension
  0
DIMENSION
  5
A9DB
330
1E
100
AcDbEntity
  8
30
  6
Continuous
100
AcDbDimension
  2
*D31
 10
577.3999999999999
 20
-169.0532887500314
 30
0.0
 11
573.3999999999999
 21
-169.0532887500314
 31
0.0
 70
   160
 71
     5
 42
8.0
  3
STANDARD1
100
AcDbAlignedDimension
 13
569.3999999999999
 23
-146.9999999999999
 33
0.0
 14
577.3999999999999
 24
-146.9999999999999
 34
0.0
100
AcDbRotatedDimension
1001
ACAD
1000
DSTYLE
1002
{
1070
   172
1070
     1
1002
}
  0
DIMENSION
  5
AA15
330
1E
100
AcDbEntity
  8
30
  6
Continuous
100
AcDbDimension
  2
*D32
 10
604.6744467862412
 20
-122.3263733676346
 30
0.0
 11
641.4130359896462
 21
-84.09857168299899
 31
0.0
 70
   163
 71
     5
 42
12.99999999999984
  3
STANDARD1
100
AcDbDiametricDimension
 15
612.1255532137596
 25
-111.6736266323653
 35
0.0
 40
0.0
  0
DIMENSION
  5
AE89
330
1E
100
AcDbEntity
  8
30
  6
Continuous
100
AcDbDimension
  2
*D33
 10
35.54814413497721
 20
-236.5830528983964
 30
0.0
 11
19.75255916610707
 21
-194.6359440640319
 31
0.0
 70
   163
  1
M6
 71
     5
 42
5.999999999999912
  3
STANDARD1
100
AcDbDiametricDimension
 15
34.45185586502232
 25
-230.6840570491726
 35
0.0
 40
0.0
  0
DIMENSION
  5
AF7E
330
1E
100
AcDbEntity
  8
30
  6
Continuous
100
AcDbDimension
  2
*D34
 10
657.5799087336529
 20
0.0000000000002194
 30
0.0
 11
651.5799087336529
 21
63.00000000000022
 31
0.0
 70
    32
 71
     5
 42
125.9999999999997
  3
STANDARD1
100
AcDbAlignedDimension
 13
629.3999999999997
 23
126.0
 33
0.0
 14
629.3999999999997
 24
0.0000000000002274
 34
0.0
 50
90.0
100
AcDbRotatedDimension
  0
DIMENSION
  5
AF8B
330
1E
100
AcDbEntity
  8
30
  6
Continuous
100
AcDbDimension
  2
*D35
 10
657.5799087336529
 20
0.0000000000002194
 30
0.0
 11
651.5799087336529
 21
-58.49999999999977
 31
0.0
 70
    32
 71
     5
 42
117.0000000000001
  3
STANDARD1
100
AcDbAlignedDimension
 13
629.3999999999997
 23
-116.9999999999999
 33
0.0
 14
657.5799087336529
 24
0.0000000000002194
 34
0.0
 50
90.0
100
AcDbRotatedDimension
  0
DIMENSION
  5
B09B
330
1E
100
AcDbEntity
  8
30
  6
Continuous
100
AcDbDimension
  2
*D36
 10
245.9692079724309
 20
-218.7235549737841
 30
0.0
 11
245.9692079724309
 21
-221.2235549737842
 31
0.0
 70
   160
 71
     5
 42
5.000000000000142
  3
STANDARD1
100
AcDbAlignedDimension
 13
176.0
 23
-223.7235549737841
 33
0.0
 14
175.0
 24
-218.7235549737841
 34
0.0
 50
90.0
100
AcDbRotatedDimension
1001
ACAD
1000
DSTYLE
1002
{
1070
   172
1070
     1
1002
}
  0
DIMENSION
  5
B0DA
330
1E
100
AcDbEntity
  8
30
  6
Continuous
100
AcDbDimension
  2
*D37
 10
105.1372393430686
 20
-480.7211999508571
 30
0.0
 11
112.4106443281547
 21
-459.5562129522754
 31
0.0
 70
   163
 71
     5
 42
8.000000000000227
  3
STANDARD1
100
AcDbDiametricDimension
 15
104.8627606569318
 25
-472.7259099967112
 35
0.0
 40
0.0
  0
DIMENSION
  5
BAA4
330
1E
100
AcDbEntity
  8
30
  6
Continuous
100
AcDbDimension
  2
*D38
 10
-6.667046728505737
 20
-499.7789336937255
 30
0.0
 11
18.7782211832566
 21
-443.8256131338528
 31
0.0
 70
    35
 71
     5
 42
47.99999999999982
  3
STANDARD1
100
AcDbDiametricDimension
 15
6.667046728505694
 25
-453.6681762538432
 35
0.0
 40
0.0
1001
ACAD
1000
DSTYLE
1002
{
1070
   279
1070
     1
1002
}
  0
DIMENSION
  5
BCC2
330
1E
100
AcDbEntity
  8
30
  6
Continuous
100
AcDbDimension
  2
*D39
 10
-38.71268534283247
 20
-335.3773288590057
 30
0.0
 11
-64.65254199615175
 21
-312.4981418967461
 31
0.0
 70
   163
 71
     5
 42
15.0
  3
STANDARD1
100
AcDbDiametricDimension
 15
-47.2873146571676
 25
-323.0697810885626
 35
0.0
 40
0.0
  0
CIRCLE
  5
C0B5
330
1E
100
AcDbEntity
  8
10
  6
CONTINOUS
100
AcDbCircle
 10
134.1999999999998
 20
-8.499999999999943
 30
0.0
 40
3.499999999999998
  0
LWPOLYLINE
  5
C0B6
330
1E
100
AcDbEntity
  8
10
  6
CONTINOUS
100
AcDbPolyline
 90
        4
 70
     1
 43
0.0
 10
130.2000000000002
 20
-23.99999999999991
 10
138.2000000000002
 20
-23.99999999999991
 10
138.2000000000002
 20
-27.00000000000001
 10
130.2000000000002
 20
-27.00000000000001
  0
LWPOLYLINE
  5
C0B7
330
1E
100
AcDbEntity
  8
10
  6
CONTINOUS
100
AcDbPolyline
 90
        4
 70
     1
 43
0.0
 10
130.2000000000002
 20
-18.99999999999989
 10
138.2000000000002
 20
-18.99999999999989
 10
138.2000000000002
 20
-22.00000000000001
 10
130.2000000000002
 20
-22.00000000000001
  0
CIRCLE
  5
C0B8
330
1E
100
AcDbEntity
  8
10
  6
CONTINOUS
100
AcDbCircle
 10
134.1999999999998
 20
6.500000000000056
 30
0.0
 40
3.499999999999998
  0
CIRCLE
  5
C0B9
330
1E
100
AcDbEntity
  8
10
  6
CONTINOUS
100
AcDbCircle
 10
134.1999999999998
 20
6.500000000000056
 30
0.0
 40
4.749999999999998
  0
LWPOLYLINE
  5
C0BA
330
1E
100
AcDbEntity
  8
10
  6
CONTINOUS
100
AcDbPolyline
 90
        4
 70
     1
 43
0.0
 10
89.0
 20
-29.69999999999998
 10
94.50000000000001
 20
-29.69999999999998
 10
94.50000000000001
 20
-36.59999999999996
 10
89.0
 20
-36.59999999999996
  0
DIMENSION
  5
C1D2
330
1E
100
AcDbEntity
  8
30
  6
Continuous
100
AcDbDimension
  2
*D40
 10
596.1580735902952
 20
-123.4999999999997
 30
0.0
 11
596.1580735902952
 21
-116.9999999999997
 31
0.0
 70
   160
 71
     5
 42
12.99999999999994
  3
STANDARD1
100
AcDbAlignedDimension
 13
577.3999999999999
 23
-110.4999999999999
 33
0.0
 14
577.3999999999999
 24
-123.4999999999997
 34
0.0
 50
90.0
100
AcDbRotatedDimension
  0
LINE
  5
C1EA
330
1E
100
AcDbEntity
  8
17
100
AcDbLine
 10
622.282126297402
 20
-117.1116004490122
 30
0.0
 11
586.6397662918683
 21
-117.0
 31
0.0
  0
LWPOLYLINE
  5
C41B
330
1E
100
AcDbEntity
  8
10
  6
Continuous
100
AcDbPolyline
 90
        4
 70
     0
 43
0.0
 10
400.3999999999998
 20
11.25
 10
396.8999999999998
 20
11.25
 10
396.8999999999998
 20
1.749999999999971
 10
400.3999999999998
 20
1.749999999999971
  0
LWPOLYLINE
  5
C41C
330
1E
100
AcDbEntity
  8
10
  6
Continuous
100
AcDbPolyline
 90
        4
 70
     0
 43
0.0
 10
396.8999999999998
 20
10.0
 10
393.8999999999998
 20
10.0
 10
393.8999999999998
 20
2.999999999999971
 10
396.8999999999998
 20
2.999999999999971
  0
LWPOLYLINE
  5
C423
330
1E
100
AcDbEntity
  8
10
  6
Continuous
100
AcDbPolyline
 90
        4
 70
     0
 43
0.0
 10
129.7520510501932
 20
228.1271619249121
 10
129.7520510501932
 20
224.627161924912
 10
139.2520510501932
 20
224.627161924912
 10
139.2520510501932
 20
228.1271619249121
  0
LWPOLYLINE
  5
C424
330
1E
100
AcDbEntity
  8
10
  6
Continuous
100
AcDbPolyline
 90
        4
 70
     0
 43
0.0
 10
131.0020510501932
 20
224.627161924912
 10
131.0020510501932
 20
221.6271619249121
 10
138.0020510501932
 20
221.6271619249121
 10
138.0020510501932
 20
224.627161924912
  0
VIEWPORT
  5
9AC
330
1A
100
AcDbEntity
 67
     1
  8
0
  6
Continuous
100
AcDbViewport
 10
171.999535
 20
144.1384739999999
 30
0.0
 40
488.867686
 41
292.351491
 68
    -1
 69
     1
 12
171.999535
 22
144.1384739999999
 13
0.0
 23
0.0
 14
10.0
 24
10.0
 15
10.0
 25
10.0
 16
0.0
 26
0.0
 36
1.0
 17
0.0
 27
0.0
 37
0.0
 42
50.0
 43
0.0
 44
0.0
 45
292.351491
 50
0.0
 51
0.0
 72
   100
 90
    32800
  1

281
     0
 71
     1
 74
     0
110
0.0
120
0.0
130
0.0
111
1.0
121
0.0
131
0.0
112
0.0
122
1.0
132
0.0
 79
     0
146
0.0
  0
ENDSEC
  0
SECTION
  2
OBJECTS
  0
DICTIONARY
  5
C
330
0
100
AcDbDictionary
281
     1
  3
ACAD_GROUP
350
D
  3
ACAD_LAYOUT
350
19
  3
ACAD_MLINESTYLE
350
16
  3
ACAD_PLOTSETTINGS
350
18
  3
ACAD_PLOTSTYLENAME
350
E
  3
ACADDIM
350
6D5E
  3
ACDBHEADERROUNDTRIPXREC
350
C43C
  3
ACDBVARIABLEDICTIONARY
350
5697
  0
DICTIONARY
  5
178
330
1E
100
AcDbDictionary
280
     1
281
     1
  3
ACAD_LAYOUTSELFREF
360
98E8
  0
DICTIONARY
  5
17A
330
1A
100
AcDbDictionary
280
     1
281
     1
  3
ACAD_LAYOUTSELFREF
360
98E7
  0
DICTIONARY
  5
D
102
{ACAD_REACTORS
330
C
102
}
330
C
100
AcDbDictionary
281
     1
  0
DICTIONARY
  5
19
102
{ACAD_REACTORS
330
C
102
}
330
C
100
AcDbDictionary
281
     1
  3
Model
350
9913
  3
ﾚｲｱｳﾄ1
350
9914
  0
DICTIONARY
  5
16
102
{ACAD_REACTORS
330
C
102
}
330
C
100
AcDbDictionary
281
     1
  3
STANDARD
350
17
  0
DICTIONARY
  5
18
102
{ACAD_REACTORS
330
C
102
}
330
C
100
AcDbDictionary
281
     1
  0
ACDBDICTIONARYWDFLT
  5
E
102
{ACAD_REACTORS
330
C
102
}
330
C
100
AcDbDictionary
281
     1
  3
Normal
350
F
100
AcDbDictionaryWithDefault
340
F
  0
XRECORD
  5
6D5E
102
{ACAD_REACTORS
330
C
102
}
330
C
100
AcDbXrecord
280
     1
 90
   990106
  3

 60
     0
 61
     0
 62
     1
 63
     3
 64
     0
 65
     0
 66
     0
 67
     3
 68
     1
 69
     0
 70
     0
 71
     0
 72
     0
 40
0.0
170
     0
340
7CA9
  0
DICTIONARY
  5
C43C
102
{ACAD_REACTORS
330
C
102
}
330
C
100
AcDbDictionary
281
     1
  3
CEPSNTYPE
350
C446
  3
DIMSTYLEDATA
350
C44A
  3
FINGERPRINTGUID
350
C447
  3
HYPERLINKBASE
350
C43F
  3
INSUNITS
350
C445
  3
LAYOUTDICT
350
C441
  3
LWETCUNION
350
C444
  3
PLOTSETDICT
350
C442
  3
PLOTSTYLNAMDICT
350
C443
  3
PSVPSCALE
350
C449
  3
PUCSBASE
350
C44D
  3
PUCSORGBACK
350
C453
  3
PUCSORGBOTTOM
350
C44F
  3
PUCSORGFRONT
350
C452
  3
PUCSORGLEFT
350
C450
  3
PUCSORGRIGHT
350
C451
  3
PUCSORGTOP
350
C44E
  3
PUCSORTHOREF
350
C44B
  3
PUCSORTHOVIEW
350
C44C
  3
STYLESHEET
350
C440
  3
TSTACKALIGN
350
C43D
  3
TSTACKSIZE
350
C43E
  3
UCSBASE
350
C456
  3
UCSORGBACK
350
C45C
  3
UCSORGBOTTOM
350
C458
  3
UCSORGFRONT
350
C45B
  3
UCSORGLEFT
350
C459
  3
UCSORGRIGHT
350
C45A
  3
UCSORGTOP
350
C457
  3
UCSORTHOREF
350
C454
  3
UCSORTHOVIEW
350
C455
  3
VERSIONGUID
350
C448
  0
DICTIONARY
  5
5697
102
{ACAD_REACTORS
330
C
102
}
330
C
100
AcDbDictionary
281
     1
  3
DIMASSOC
350
5698
  0
XRECORD
  5
98E8
102
{ACAD_REACTORS
330
178
102
}
330
178
100
AcDbXrecord
280
     1
340
1E
  0
XRECORD
  5
98E7
102
{ACAD_REACTORS
330
17A
102
}
330
17A
100
AcDbXrecord
280
     1
340
1A
  0
LAYOUT
  5
9913
102
{ACAD_REACTORS
330
19
102
}
330
19
100
AcDbPlotSettings
  1

  2
DocuWorks Printer
  4
A4
  6
OLE1
 40
5.408083438873291
 41
5.408078670501708
 42
5.408096313476561
 43
5.4080810546875
 44
210.015670776367
 45
297.0106506347656
 46
24.83
 47
37.24
 48
0.0
 49
0.0
140
0.0
141
0.0
142
1.0
143
5.0
 70
 11940
 72
     1
 73
     0
 74
     1
  7
monochrome.ctb
 75
     0
147
0.2
148
89.55235921478104
149
557.351731661643
100
AcDbLayout
  1
Model
 70
     1
 71
     0
 10
0.0
 20
0.0
 11
12.0
 21
9.0
 12
0.0
 22
0.0
 32
0.0
 14
0.0
 24
0.0
 34
0.0
 15
0.0
 25
0.0
 35
0.0
146
0.0
 13
0.0
 23
0.0
 33
0.0
 16
1.0
 26
0.0
 36
0.0
 17
0.0
 27
1.0
 37
0.0
 76
     0
330
1E
  0
LAYOUT
  5
9914
102
{ACAD_REACTORS
330
19
102
}
330
19
100
AcDbPlotSettings
  1

  2
LBP5400
  4

  6

 40
0.0
 41
0.0
 42
0.0
 43
0.0
 44
0.0
 45
0.0
 46
0.0
 47
0.0
 48
0.0
 49
0.0
140
0.0
141
0.0
142
1.0
143
1.0
 70
   688
 72
     0
 73
     0
 74
     5
  7
monochrome.stb
 75
    16
147
1.0
148
0.0
149
0.0
100
AcDbLayout
  1
ﾚｲｱｳﾄ1
 70
     1
 71
     1
 10
-5.873749
 20
-5.87375
 11
204.099579
 21
291.1369009999999
 12
0.0
 22
0.0
 32
0.0
 14
4.273573
 24
5.205245999999998
 34
0.0
 15
194.610095
 25
283.0697009999996
 35
0.0
146
0.0
 13
0.0
 23
0.0
 33
0.0
 16
1.0
 26
0.0
 36
0.0
 17
0.0
 27
1.0
 37
0.0
 76
     0
330
1A
  0
MLINESTYLE
  5
17
102
{ACAD_REACTORS
330
16
102
}
330
16
100
AcDbMlineStyle
  2
STANDARD
 70
     0
  3

 62
   256
 51
90.0
 52
90.0
 71
     2
 49
0.5
 62
   256
  6
BYLAYER
 49
-0.5
 62
   256
  6
BYLAYER
  0
ACDBPLACEHOLDER
  5
F
102
{ACAD_REACTORS
330
E
102
}
330
E
  0
XRECORD
  5
C446
102
{ACAD_REACTORS
330
C43C
102
}
330
C43C
100
AcDbXrecord
280
     1
 90
        0
  0
XRECORD
  5
C44A
102
{ACAD_REACTORS
330
C43C
102
}
330
C43C
100
AcDbXrecord
280
     1
1000
DSTYLE
1002
{
1070
   289
 70
     2
1070
   341
340
3B2
1070
   342
340
3B2
1002
}
  0
XRECORD
  5
C447
102
{ACAD_REACTORS
330
C43C
102
}
330
C43C
100
AcDbXrecord
280
     1
  1

  0
XRECORD
  5
C43F
102
{ACAD_REACTORS
330
C43C
102
}
330
C43C
100
AcDbXrecord
280
     1
  1

  0
XRECORD
  5
C445
102
{ACAD_REACTORS
330
C43C
102
}
330
C43C
100
AcDbXrecord
280
     1
 90
        0
  0
XRECORD
  5
C441
102
{ACAD_REACTORS
330
C43C
102
}
330
C43C
100
AcDbXrecord
280
     1
340
19
  0
XRECORD
  5
C444
102
{ACAD_REACTORS
330
C43C
102
}
330
C43C
100
AcDbXrecord
280
     1
 90
    10781
  0
XRECORD
  5
C442
102
{ACAD_REACTORS
330
C43C
102
}
330
C43C
100
AcDbXrecord
280
     1
340
18
  0
XRECORD
  5
C443
102
{ACAD_REACTORS
330
C43C
102
}
330
C43C
100
AcDbXrecord
280
     1
340
E
  0
XRECORD
  5
C449
102
{ACAD_REACTORS
330
C43C
102
}
330
C43C
100
AcDbXrecord
280
     1
 40
0.0
  0
XRECORD
  5
C44D
102
{ACAD_REACTORS
330
C43C
102
}
330
C43C
100
AcDbXrecord
280
     1
340
0
  0
XRECORD
  5
C453
102
{ACAD_REACTORS
330
C43C
102
}
330
C43C
100
AcDbXrecord
280
     1
 10
0.0
 20
0.0
 30
0.0
  0
XRECORD
  5
C44F
102
{ACAD_REACTORS
330
C43C
102
}
330
C43C
100
AcDbXrecord
280
     1
 10
0.0
 20
0.0
 30
0.0
  0
XRECORD
  5
C452
102
{ACAD_REACTORS
330
C43C
102
}
330
C43C
100
AcDbXrecord
280
     1
 10
0.0
 20
0.0
 30
0.0
  0
XRECORD
  5
C450
102
{ACAD_REACTORS
330
C43C
102
}
330
C43C
100
AcDbXrecord
280
     1
 10
0.0
 20
0.0
 30
0.0
  0
XRECORD
  5
C451
102
{ACAD_REACTORS
330
C43C
102
}
330
C43C
100
AcDbXrecord
280
     1
 10
0.0
 20
0.0
 30
0.0
  0
XRECORD
  5
C44E
102
{ACAD_REACTORS
330
C43C
102
}
330
C43C
100
AcDbXrecord
280
     1
 10
0.0
 20
0.0
 30
0.0
  0
XRECORD
  5
C44B
102
{ACAD_REACTORS
330
C43C
102
}
330
C43C
100
AcDbXrecord
280
     1
340
0
  0
XRECORD
  5
C44C
102
{ACAD_REACTORS
330
C43C
102
}
330
C43C
100
AcDbXrecord
280
     1
 70
     0
  0
XRECORD
  5
C440
102
{ACAD_REACTORS
330
C43C
102
}
330
C43C
100
AcDbXrecord
280
     1
  1
monochrome.ctb
  0
XRECORD
  5
C43D
102
{ACAD_REACTORS
330
C43C
102
}
330
C43C
100
AcDbXrecord
280
     1
 90
        1
  0
XRECORD
  5
C43E
102
{ACAD_REACTORS
330
C43C
102
}
330
C43C
100
AcDbXrecord
280
     1
 90
       70
  0
XRECORD
  5
C456
102
{ACAD_REACTORS
330
C43C
102
}
330
C43C
100
AcDbXrecord
280
     1
340
0
  0
XRECORD
  5
C45C
102
{ACAD_REACTORS
330
C43C
102
}
330
C43C
100
AcDbXrecord
280
     1
 10
0.0
 20
0.0
 30
0.0
  0
XRECORD
  5
C458
102
{ACAD_REACTORS
330
C43C
102
}
330
C43C
100
AcDbXrecord
280
     1
 10
0.0
 20
0.0
 30
0.0
  0
XRECORD
  5
C45B
102
{ACAD_REACTORS
330
C43C
102
}
330
C43C
100
AcDbXrecord
280
     1
 10
0.0
 20
0.0
 30
0.0
  0
XRECORD
  5
C459
102
{ACAD_REACTORS
330
C43C
102
}
330
C43C
100
AcDbXrecord
280
     1
 10
0.0
 20
0.0
 30
0.0
  0
XRECORD
  5
C45A
102
{ACAD_REACTORS
330
C43C
102
}
330
C43C
100
AcDbXrecord
280
     1
 10
0.0
 20
0.0
 30
0.0
  0
XRECORD
  5
C457
102
{ACAD_REACTORS
330
C43C
102
}
330
C43C
100
AcDbXrecord
280
     1
 10
0.0
 20
0.0
 30
0.0
  0
XRECORD
  5
C454
102
{ACAD_REACTORS
330
C43C
102
}
330
C43C
100
AcDbXrecord
280
     1
340
0
  0
XRECORD
  5
C455
102
{ACAD_REACTORS
330
C43C
102
}
330
C43C
100
AcDbXrecord
280
     1
 70
     0
  0
XRECORD
  5
C448
102
{ACAD_REACTORS
330
C43C
102
}
330
C43C
100
AcDbXrecord
280
     1
  1
{DC2BF64E-590E-4B70-988D-05B9CE50E899}
  0
DICTIONARYVAR
  5
5698
102
{ACAD_REACTORS
330
5697
102
}
330
5697
100
DictionaryVariables
280
     0
  1
1
  0
ENDSEC
  0
EOF
