  0
SECTION
  2
HEADER
  9
$ACADVER
  1
AC1015
  9
$ACADMAINTVER
 70
    10
  9
$DWGCODEPAGE
  3
ANSI_932
  9
$INSBASE
 10
0.0
 20
0.0
 30
0.0
  9
$EXTMIN
 10
-148.9999999999997
 20
-810.5
 30
0.0
  9
$EXTMAX
 10
730.4999999999997
 20
679.0
 30
0.0
  9
$LIMMIN
 10
-396.0
 20
-1187.0
  9
$LIMMAX
 10
1243.0
 20
1822.0
  9
$ORTHOMODE
 70
     1
  9
$REGENMODE
 70
     1
  9
$FILLMODE
 70
     1
  9
$QTEXTMODE
 70
     0
  9
$MIRRTEXT
 70
     1
  9
$LTSCALE
 40
20.0
  9
$ATTMODE
 70
     1
  9
$TEXTSIZE
 40
5.0
  9
$TRACEWID
 40
0.05
  9
$TEXTSTYLE
  7
STANDARD1
  9
$CLAYER
  8
21
  9
$CELTYPE
  6
CONTINUOUS
  9
$CECOLOR
 62
   256
  9
$CELTSCALE
 40
1.0
  9
$DISPSILH
 70
     0
  9
$DIMSCALE
 40
1.0
  9
$DIMASZ
 40
2.0
  9
$DIMEXO
 40
3.0
  9
$DIMDLI
 40
0.5
  9
$DIMRND
 40
0.0
  9
$DIMDLE
 40
0.0
  9
$DIMEXE
 40
0.5
  9
$DIMTP
 40
0.0
  9
$DIMTM
 40
0.0
  9
$DIMTXT
 40
6.0
  9
$DIMCEN
 40
0.09
  9
$DIMTSZ
 40
0.0
  9
$DIMTOL
 70
     0
  9
$DIMLIM
 70
     0
  9
$DIMTIH
 70
     0
  9
$DIMTOH
 70
     1
  9
$DIMSE1
 70
     0
  9
$DIMSE2
 70
     0
  9
$DIMTAD
 70
     3
  9
$DIMZIN
 70
    12
  9
$DIMBLK
  1
OPEN
  9
$DIMASO
 70
     1
  9
$DIMSHO
 70
     1
  9
$DIMPOST
  1

  9
$DIMAPOST
  1

  9
$DIMALT
 70
     0
  9
$DIMALTD
 70
     2
  9
$DIMALTF
 40
25.4
  9
$DIMLFAC
 40
1.0
  9
$DIMTOFL
 70
     0
  9
$DIMTVP
 40
0.0
  9
$DIMTIX
 70
     0
  9
$DIMSOXD
 70
     0
  9
$DIMSAH
 70
     0
  9
$DIMBLK1
  1

  9
$DIMBLK2
  1

  9
$DIMSTYLE
  2
STANDARD1
  9
$DIMCLRD
 70
     0
  9
$DIMCLRE
 70
     0
  9
$DIMCLRT
 70
     0
  9
$DIMTFAC
 40
1.0
  9
$DIMGAP
 40
3.0
  9
$DIMJUST
 70
     0
  9
$DIMSD1
 70
     0
  9
$DIMSD2
 70
     0
  9
$DIMTOLJ
 70
     1
  9
$DIMTZIN
 70
     0
  9
$DIMALTZ
 70
     0
  9
$DIMALTTZ
 70
     0
  9
$DIMUPT
 70
     0
  9
$DIMDEC
 70
     1
  9
$DIMTDEC
 70
     1
  9
$DIMALTU
 70
     2
  9
$DIMALTTD
 70
     2
  9
$DIMTXSTY
  7
STANDARD
  9
$DIMAUNIT
 70
     0
  9
$DIMADEC
 70
     0
  9
$DIMALTRND
 40
0.0
  9
$DIMAZIN
 70
     0
  9
$DIMDSEP
 70
    46
  9
$DIMATFIT
 70
     2
  9
$DIMFRAC
 70
     0
  9
$DIMLDRBLK
  1
OPEN
  9
$DIMLUNIT
 70
     2
  9
$DIMLWD
 70
    -2
  9
$DIMLWE
 70
    -2
  9
$DIMTMOVE
 70
     0
  9
$LUNITS
 70
     2
  9
$LUPREC
 70
     4
  9
$SKETCHINC
 40
0.1
  9
$FILLETRAD
 40
0.0
  9
$AUNITS
 70
     0
  9
$AUPREC
 70
     0
  9
$MENU
  1
.
  9
$ELEVATION
 40
0.0
  9
$PELEVATION
 40
0.0
  9
$THICKNESS
 40
0.0
  9
$LIMCHECK
 70
     0
  9
$CHAMFERA
 40
0.0
  9
$CHAMFERB
 40
0.0
  9
$CHAMFERC
 40
0.0
  9
$CHAMFERD
 40
0.0
  9
$SKPOLY
 70
     0
  9
$TDCREATE
 40
2452286.555658657
  9
$TDUCREATE
 40
2452286.180658657
  9
$TDUPDATE
 40
2456086.715028021
  9
$TDUUPDATE
 40
2456086.340028021
  9
$TDINDWG
 40
2.1134158912
  9
$TDUSRTIMER
 40
2.1134153472
  9
$USRTIMER
 70
     1
  9
$ANGBASE
 50
0.0
  9
$ANGDIR
 70
     0
  9
$PDMODE
 70
     0
  9
$PDSIZE
 40
0.0
  9
$PLINEWID
 40
0.0
  9
$SPLFRAME
 70
     0
  9
$SPLINETYPE
 70
     6
  9
$SPLINESEGS
 70
     8
  9
$HANDSEED
  5
142F4
  9
$SURFTAB1
 70
     6
  9
$SURFTAB2
 70
     6
  9
$SURFTYPE
 70
     6
  9
$SURFU
 70
     6
  9
$SURFV
 70
     6
  9
$UCSBASE
  2

  9
$UCSNAME
  2

  9
$UCSORG
 10
0.0
 20
0.0
 30
0.0
  9
$UCSXDIR
 10
1.0
 20
0.0
 30
0.0
  9
$UCSYDIR
 10
0.0
 20
1.0
 30
0.0
  9
$UCSORTHOREF
  2

  9
$UCSORTHOVIEW
 70
     0
  9
$UCSORGTOP
 10
0.0
 20
0.0
 30
0.0
  9
$UCSORGBOTTOM
 10
0.0
 20
0.0
 30
0.0
  9
$UCSORGLEFT
 10
0.0
 20
0.0
 30
0.0
  9
$UCSORGRIGHT
 10
0.0
 20
0.0
 30
0.0
  9
$UCSORGFRONT
 10
0.0
 20
0.0
 30
0.0
  9
$UCSORGBACK
 10
0.0
 20
0.0
 30
0.0
  9
$PUCSBASE
  2

  9
$PUCSNAME
  2

  9
$PUCSORG
 10
0.0
 20
0.0
 30
0.0
  9
$PUCSXDIR
 10
1.0
 20
0.0
 30
0.0
  9
$PUCSYDIR
 10
0.0
 20
1.0
 30
0.0
  9
$PUCSORTHOREF
  2

  9
$PUCSORTHOVIEW
 70
     0
  9
$PUCSORGTOP
 10
0.0
 20
0.0
 30
0.0
  9
$PUCSORGBOTTOM
 10
0.0
 20
0.0
 30
0.0
  9
$PUCSORGLEFT
 10
0.0
 20
0.0
 30
0.0
  9
$PUCSORGRIGHT
 10
0.0
 20
0.0
 30
0.0
  9
$PUCSORGFRONT
 10
0.0
 20
0.0
 30
0.0
  9
$PUCSORGBACK
 10
0.0
 20
0.0
 30
0.0
  9
$USERI1
 70
     0
  9
$USERI2
 70
     0
  9
$USERI3
 70
     0
  9
$USERI4
 70
     0
  9
$USERI5
 70
     0
  9
$USERR1
 40
0.0
  9
$USERR2
 40
0.0
  9
$USERR3
 40
0.0
  9
$USERR4
 40
0.0
  9
$USERR5
 40
0.0
  9
$WORLDVIEW
 70
     1
  9
$SHADEDGE
 70
     3
  9
$SHADEDIF
 70
    70
  9
$TILEMODE
 70
     1
  9
$MAXACTVP
 70
    48
  9
$PINSBASE
 10
0.0
 20
0.0
 30
0.0
  9
$PLIMCHECK
 70
     0
  9
$PEXTMIN
 10
0.0
 20
0.0
 30
0.0
  9
$PEXTMAX
 10
0.0
 20
0.0
 30
0.0
  9
$PLIMMIN
 10
0.0
 20
0.0
  9
$PLIMMAX
 10
0.0
 20
0.0
  9
$UNITMODE
 70
     0
  9
$VISRETAIN
 70
     1
  9
$PLINEGEN
 70
     0
  9
$PSLTSCALE
 70
     1
  9
$TREEDEPTH
 70
  3020
  9
$CMLSTYLE
  2
STANDARD
  9
$CMLJUST
 70
     0
  9
$CMLSCALE
 40
1.0
  9
$PROXYGRAPHICS
 70
     1
  9
$MEASUREMENT
 70
     0
  9
$CELWEIGHT
370
    -1
  9
$ENDCAPS
280
     0
  9
$JOINSTYLE
280
     0
  9
$LWDISPLAY
290
     0
  9
$INSUNITS
 70
     0
  9
$HYPERLINKBASE
  1

  9
$STYLESHEET
  1
MONOCHROME.CTB
  9
$XEDIT
290
     1
  9
$CEPSNTYPE
380
     0
  9
$PSTYLEMODE
290
     1
  9
$FINGERPRINTGUID
  2

  9
$VERSIONGUID
  2
{F837A0E8-6C33-47A6-A801-E807C0724492}
  9
$EXTNAMES
290
     1
  9
$PSVPSCALE
 40
0.0
  9
$OLESTARTUP
290
     0
  0
ENDSEC
  0
SECTION
  2
CLASSES
  0
CLASS
  1
ACDBDICTIONARYWDFLT
  2
AcDbDictionaryWithDefault
  3
AutoCAD 2000
 90
        0
280
     0
281
     0
  0
CLASS
  1
ACDBPLACEHOLDER
  2
AcDbPlaceHolder
  3
AutoCAD 2000
 90
        0
280
     0
281
     0
  0
CLASS
  1
LAYOUT
  2
AcDbLayout
  3
AutoCAD 2000
 90
        0
280
     0
281
     0
  0
CLASS
  1
DICTIONARYVAR
  2
AcDbDictionaryVar
  3
AutoCAD 2000
 90
        0
280
     0
281
     0
  0
CLASS
  1
MATERIAL
  2
AcDbMaterial
  3
ObjectDBX Classes
 90
     1153
280
     0
281
     0
  0
CLASS
  1
VISUALSTYLE
  2
AcDbVisualStyle
  3
ObjectDBX Classes
 90
     4095
280
     0
281
     0
  0
CLASS
  1
TABLESTYLE
  2
AcDbTableStyle
  3
ObjectDBX Classes
 90
     4095
280
     0
281
     0
  0
CLASS
  1
SCALE
  2
AcDbScale
  3
ObjectDBX Classes
 90
     1153
280
     0
281
     0
  0
CLASS
  1
MLEADERSTYLE
  2
AcDbMLeaderStyle
  3
ACDB_MLEADERSTYLE_CLASS
 90
     4095
280
     0
281
     0
  0
CLASS
  1
CELLSTYLEMAP
  2
AcDbCellStyleMap
  3
ObjectDBX Classes
 90
     1152
280
     0
281
     0
  0
ENDSEC
  0
SECTION
  2
TABLES
  0
TABLE
  2
VPORT
  5
8
330
0
100
AcDbSymbolTable
 70
     2
  0
VPORT
  5
142F3
330
8
100
AcDbSymbolTableRecord
100
AcDbViewportTableRecord
  2
*Active
 70
     0
 10
0.0
 20
0.0
 11
1.0
 21
1.0
 12
290.7639120477993
 22
-10.63576586156511
 13
0.0
 23
0.0
 14
1.0
 24
1.0
 15
10.0
 25
10.0
 16
0.0
 26
0.0
 36
1.0
 17
0.0
 27
0.0
 37
0.0
 40
1610.295368895288
 41
1.614711033274956
 42
50.0
 43
0.0
 44
0.0
 50
0.0
 51
0.0
 71
     0
 72
   100
 73
     1
 74
     1
 75
     1
 76
     0
 77
     0
 78
     0
281
     0
 65
     1
110
0.0
120
0.0
130
0.0
111
1.0
121
0.0
131
0.0
112
0.0
122
1.0
132
0.0
 79
     0
146
0.0
  0
ENDTAB
  0
TABLE
  2
LTYPE
  5
5
330
0
100
AcDbSymbolTable
 70
     5
  0
LTYPE
  5
13
330
5
100
AcDbSymbolTableRecord
100
AcDbLinetypeTableRecord
  2
BYBLOCK
 70
     0
  3

 72
    65
 73
     0
 40
0.0
  0
LTYPE
  5
14
330
5
100
AcDbSymbolTableRecord
100
AcDbLinetypeTableRecord
  2
BYLAYER
 70
     0
  3

 72
    65
 73
     0
 40
0.0
  0
LTYPE
  5
15
330
5
100
AcDbSymbolTableRecord
100
AcDbLinetypeTableRecord
  2
CONTINUOUS
 70
     0
  3
Solid line
 72
    65
 73
     0
 40
0.0
  0
LTYPE
  5
22
330
5
100
AcDbSymbolTableRecord
100
AcDbLinetypeTableRecord
  2
CONTINOUS
 70
     0
  3
Solid line
 72
    65
 73
     0
 40
0.0
  0
LTYPE
  5
24
330
5
100
AcDbSymbolTableRecord
100
AcDbLinetypeTableRecord
  2
DASHDOT
 70
     0
  3
__ . __ . __ . __ . __ . __ . __ . __ . __ . __
 72
    65
 73
     4
 40
1.0
 49
0.5
 74
     0
 49
-0.25
 74
     0
 49
0.0
 74
     0
 49
-0.25
 74
     0
  0
LTYPE
  5
4C47
330
5
100
AcDbSymbolTableRecord
100
AcDbLinetypeTableRecord
  2
DIVIDE
 70
     0
  3
Divide ____ . . ____ . . ____ . . ____ . . ____
 72
    65
 73
     6
 40
1.25
 49
0.5
 74
     0
 49
-0.25
 74
     0
 49
0.0
 74
     0
 49
-0.25
 74
     0
 49
0.0
 74
     0
 49
-0.25
 74
     0
  0
LTYPE
  5
7C4F
330
5
100
AcDbSymbolTableRecord
100
AcDbLinetypeTableRecord
  2
DASHED
 70
     0
  3
__ __ __ __ __ __ __ __ __
 72
    65
 73
     2
 40
0.75
 49
0.5
 74
     0
 49
-0.25
 74
     0
  0
ENDTAB
  0
TABLE
  2
LAYER
  5
2
330
0
100
AcDbSymbolTable
 70
    15
  0
LAYER
  5
10
102
{ACAD_XDICTIONARY
360
1428E
102
}
330
2
100
AcDbSymbolTableRecord
100
AcDbLayerTableRecord
  2
0
 70
     0
 62
     7
  6
CONTINOUS
370
    -3
390
F
  0
LAYER
  5
2F
102
{ACAD_XDICTIONARY
360
14290
102
}
330
2
100
AcDbSymbolTableRecord
100
AcDbLayerTableRecord
  2
10
 70
     0
 62
     4
  6
CONTINOUS
370
    -3
390
F
  0
LAYER
  5
31
102
{ACAD_XDICTIONARY
360
14292
102
}
330
2
100
AcDbSymbolTableRecord
100
AcDbLayerTableRecord
  2
12
 70
     0
 62
     3
  6
CONTINOUS
370
    -3
390
F
  0
LAYER
  5
35
102
{ACAD_XDICTIONARY
360
14294
102
}
330
2
100
AcDbSymbolTableRecord
100
AcDbLayerTableRecord
  2
16
 70
     0
 62
     6
  6
DASHDOT
370
    -3
390
F
  0
LAYER
  5
38
102
{ACAD_XDICTIONARY
360
14296
102
}
330
2
100
AcDbSymbolTableRecord
100
AcDbLayerTableRecord
  2
19
 70
     0
 62
     7
  6
CONTINOUS
370
    -3
390
F
  0
LAYER
  5
3C
102
{ACAD_XDICTIONARY
360
14298
102
}
330
2
100
AcDbSymbolTableRecord
100
AcDbLayerTableRecord
  2
11
 70
     0
 62
     1
  6
CONTINOUS
370
    -3
390
F
  0
LAYER
  5
3D
102
{ACAD_XDICTIONARY
360
1429A
102
}
330
2
100
AcDbSymbolTableRecord
100
AcDbLayerTableRecord
  2
24
 70
     0
 62
     2
  6
CONTINOUS
370
    -3
390
F
  0
LAYER
  5
3A2
102
{ACAD_XDICTIONARY
360
1429C
102
}
330
2
100
AcDbSymbolTableRecord
100
AcDbLayerTableRecord
  2
30
 70
     0
 62
     9
  6
CONTINUOUS
370
    -3
390
F
  0
LAYER
  5
3A4
330
2
100
AcDbSymbolTableRecord
100
AcDbLayerTableRecord
  2
DEFPOINTS
 70
     0
 62
     7
  6
CONTINUOUS
290
     0
370
    -3
390
F
  0
LAYER
  5
3BBA
102
{ACAD_XDICTIONARY
360
1429E
102
}
330
2
100
AcDbSymbolTableRecord
100
AcDbLayerTableRecord
  2
18
 70
     0
 62
     5
  6
DIVIDE
370
    -3
390
F
  0
LAYER
  5
3BBB
102
{ACAD_XDICTIONARY
360
142A0
102
}
330
2
100
AcDbSymbolTableRecord
100
AcDbLayerTableRecord
  2
21
 70
     0
 62
     7
  6
CONTINUOUS
370
    -3
390
F
  0
LAYER
  5
7355
102
{ACAD_XDICTIONARY
360
142A2
102
}
330
2
100
AcDbSymbolTableRecord
100
AcDbLayerTableRecord
  2
1
 70
     0
 62
     7
  6
CONTINUOUS
370
    -3
390
F
  0
LAYER
  5
970E
102
{ACAD_XDICTIONARY
360
142A4
102
}
330
2
100
AcDbSymbolTableRecord
100
AcDbLayerTableRecord
  2
17
 70
     0
 62
     2
  6
DASHDOT
370
    -3
390
F
  0
LAYER
  5
9BE8
102
{ACAD_XDICTIONARY
360
142A6
102
}
330
2
100
AcDbSymbolTableRecord
100
AcDbLayerTableRecord
  2
225
 70
     0
 62
     7
  6
CONTINUOUS
370
    -3
390
F
  0
LAYER
  5
9BEA
102
{ACAD_XDICTIONARY
360
142A8
102
}
330
2
100
AcDbSymbolTableRecord
100
AcDbLayerTableRecord
  2
160
 70
     0
 62
     7
  6
CONTINUOUS
370
    -3
390
F
  0
ENDTAB
  0
TABLE
  2
STYLE
  5
3
330
0
100
AcDbSymbolTable
 70
     2
  0
STYLE
  5
11
330
3
100
AcDbSymbolTableRecord
100
AcDbTextStyleTableRecord
  2
STANDARD
 70
     0
 40
0.0
 41
1.0
 50
0.0
 71
     0
 42
2.0
  3
txt.shx
  4
bigfont.shx
  0
STYLE
  5
42
330
3
100
AcDbSymbolTableRecord
100
AcDbTextStyleTableRecord
  2
STANDARD1
 70
     0
 40
0.0
 41
1.0
 50
0.0
 71
     0
 42
5.0
  3
MONOTXT
  4
BIGFONT
  0
ENDTAB
  0
TABLE
  2
VIEW
  5
6
330
0
100
AcDbSymbolTable
 70
     3
  0
VIEW
  5
230C
330
6
100
AcDbSymbolTableRecord
100
AcDbViewTableRecord
  2
OLE1
 70
     0
 40
148.9124878027714
 10
429.4976280407222
 20
2.560626997828478
 41
103.1458057716444
 11
0.0
 21
0.0
 31
1.0
 12
0.0
 22
0.0
 32
0.0
 42
50.0
 43
0.0
 44
0.0
 50
0.0
 71
     0
281
     0
 72
     0
  0
VIEW
  5
230E
330
6
100
AcDbSymbolTableRecord
100
AcDbViewTableRecord
  2
OLE2
 70
     0
 40
170.7786920545775
 10
322.664969958371
 20
-5.978304054290276
 41
102.4672152327465
 11
0.0
 21
0.0
 31
1.0
 12
0.0
 22
0.0
 32
0.0
 42
50.0
 43
0.0
 44
0.0
 50
0.0
 71
     0
281
     0
 72
     0
  0
VIEW
  5
23AA
330
6
100
AcDbSymbolTableRecord
100
AcDbViewTableRecord
  2
OLE3
 70
     0
 40
591.7897393182231
 10
84.79698158148218
 20
-46.09336010803995
 41
388.7920961799953
 11
0.0
 21
0.0
 31
1.0
 12
0.0
 22
0.0
 32
0.0
 42
50.0
 43
0.0
 44
0.0
 50
0.0
 71
     0
281
     0
 72
     0
  0
ENDTAB
  0
TABLE
  2
UCS
  5
7
330
0
100
AcDbSymbolTable
 70
     0
  0
ENDTAB
  0
TABLE
  2
APPID
  5
9
330
0
100
AcDbSymbolTable
 70
     5
  0
APPID
  5
12
330
9
100
AcDbSymbolTableRecord
100
AcDbRegAppTableRecord
  2
ACAD
 70
     0
  0
APPID
  5
ECD
330
9
100
AcDbSymbolTableRecord
100
AcDbRegAppTableRecord
  2
CONTENTBLOCKICON
 70
     0
  0
APPID
  5
1428C
330
9
100
AcDbSymbolTableRecord
100
AcDbRegAppTableRecord
  2
ACAD_EXEMPT_FROM_CAD_STANDARDS
 70
     0
  0
APPID
  5
142AC
330
9
100
AcDbSymbolTableRecord
100
AcDbRegAppTableRecord
  2
DCO15
 70
     0
  0
APPID
  5
142E9
330
9
100
AcDbSymbolTableRecord
100
AcDbRegAppTableRecord
  2
ACAD_MLEADERVER
 70
     0
  0
ENDTAB
  0
TABLE
  2
DIMSTYLE
  5
A
330
0
100
AcDbSymbolTable
 70
     2
100
AcDbDimStyleTable
 71
     2
340
9742
340
175
  0
DIMSTYLE
105
175
330
A
100
AcDbSymbolTableRecord
100
AcDbDimStyleTableRecord
  2
STANDARD
 70
     0
 41
2.0
 42
1.0
 43
0.5
 44
0.5
 73
     0
 77
     3
 78
    12
140
5.0
147
1.0
271
     1
272
     1
340
11
341
3B2
342
3B2
  0
DIMSTYLE
105
9742
102
{ACAD_REACTORS
330
10E4B
330
10E4C
330
10E01
330
10DD3
330
11FD1
330
11FD0
330
1200E
330
120B4
330
120B5
330
1384B
330
1384C
330
139A3
330
13A18
330
13A17
330
13A1D
330
13A21
330
13A1A
330
13A19
330
13A16
330
13A15
330
13A1B
330
13A20
330
13A1C
330
13A44
330
13A28
330
13A25
330
13A3F
330
1417D
102
}
330
A
100
AcDbSymbolTableRecord
100
AcDbDimStyleTableRecord
  2
STANDARD1
 70
     0
 41
2.0
 42
3.0
 43
0.5
 44
0.5
 73
     0
 77
     3
 78
    12
140
6.0
147
3.0
271
     1
272
     1
289
     2
340
11
341
3B2
342
3B2
  0
ENDTAB
  0
TABLE
  2
BLOCK_RECORD
  5
1
330
0
100
AcDbSymbolTable
 70
    31
  0
BLOCK_RECORD
  5
1E
102
{ACAD_XDICTIONARY
360
178
102
}
330
1
100
AcDbSymbolTableRecord
100
AcDbBlockTableRecord
  2
*MODEL_SPACE
340
7AE4
  0
BLOCK_RECORD
  5
1A
102
{ACAD_XDICTIONARY
360
17A
102
}
330
1
100
AcDbSymbolTableRecord
100
AcDbBlockTableRecord
  2
*PAPER_SPACE
340
7AE5
  0
BLOCK_RECORD
  5
3B2
330
1
100
AcDbSymbolTableRecord
100
AcDbBlockTableRecord
  2
_OPEN
340
0
102
{BLKREFS
331
13EF9
331
13EFA
331
13F03
331
13F04
331
13F0C
331
13F0D
331
13F15
331
13F16
331
13F5D
331
13F5E
331
13F66
331
13F67
331
13F6F
331
13F70
331
13F78
331
13F79
331
13F81
331
13F82
331
13F8A
331
13F8B
331
13F94
331
13F95
331
13F9E
331
13F9F
331
13FA7
331
13FA8
331
13FB0
331
13FB1
331
13FB9
331
13FBA
331
13FC2
331
13FC3
331
13FCB
331
13FCC
331
13FD4
331
13FD5
331
13FDD
331
13FDE
331
13FE6
331
13FE7
331
14047
331
14048
331
14063
331
14064
331
1406C
331
1406D
331
140A4
331
140A5
331
140AD
331
140AE
331
1411E
331
1411F
331
14127
331
14128
331
1416F
331
14170
331
14177
331
1418B
102
}
  0
BLOCK_RECORD
  5
10ECA
330
1
100
AcDbSymbolTableRecord
100
AcDbBlockTableRecord
  2
*D1
340
0
  0
BLOCK_RECORD
  5
10EFA
330
1
100
AcDbSymbolTableRecord
100
AcDbBlockTableRecord
  2
*D2
340
0
  0
BLOCK_RECORD
  5
10F1D
330
1
100
AcDbSymbolTableRecord
100
AcDbBlockTableRecord
  2
*D3
340
0
  0
BLOCK_RECORD
  5
10F2A
330
1
100
AcDbSymbolTableRecord
100
AcDbBlockTableRecord
  2
*D4
340
0
  0
BLOCK_RECORD
  5
11FD2
330
1
100
AcDbSymbolTableRecord
100
AcDbBlockTableRecord
  2
*D5
340
0
  0
BLOCK_RECORD
  5
11FDE
330
1
100
AcDbSymbolTableRecord
100
AcDbBlockTableRecord
  2
*D6
340
0
  0
BLOCK_RECORD
  5
1200F
330
1
100
AcDbSymbolTableRecord
100
AcDbBlockTableRecord
  2
*D7
340
0
  0
BLOCK_RECORD
  5
120B6
330
1
100
AcDbSymbolTableRecord
100
AcDbBlockTableRecord
  2
*D8
340
0
  0
BLOCK_RECORD
  5
120C2
330
1
100
AcDbSymbolTableRecord
100
AcDbBlockTableRecord
  2
*D9
340
0
  0
BLOCK_RECORD
  5
1384D
330
1
100
AcDbSymbolTableRecord
100
AcDbBlockTableRecord
  2
*D10
340
0
  0
BLOCK_RECORD
  5
13859
330
1
100
AcDbSymbolTableRecord
100
AcDbBlockTableRecord
  2
*D11
340
0
  0
BLOCK_RECORD
  5
139A4
330
1
100
AcDbSymbolTableRecord
100
AcDbBlockTableRecord
  2
*D12
340
0
  0
BLOCK_RECORD
  5
13A4D
330
1
100
AcDbSymbolTableRecord
100
AcDbBlockTableRecord
  2
*D13
340
0
  0
BLOCK_RECORD
  5
13A5A
330
1
100
AcDbSymbolTableRecord
100
AcDbBlockTableRecord
  2
*D14
340
0
  0
BLOCK_RECORD
  5
13A67
330
1
100
AcDbSymbolTableRecord
100
AcDbBlockTableRecord
  2
*D15
340
0
  0
BLOCK_RECORD
  5
13A7F
330
1
100
AcDbSymbolTableRecord
100
AcDbBlockTableRecord
  2
*D16
340
0
  0
BLOCK_RECORD
  5
13A8C
330
1
100
AcDbSymbolTableRecord
100
AcDbBlockTableRecord
  2
*D17
340
0
  0
BLOCK_RECORD
  5
13A98
330
1
100
AcDbSymbolTableRecord
100
AcDbBlockTableRecord
  2
*D18
340
0
  0
BLOCK_RECORD
  5
13AA4
330
1
100
AcDbSymbolTableRecord
100
AcDbBlockTableRecord
  2
*D19
340
0
  0
BLOCK_RECORD
  5
13AB0
330
1
100
AcDbSymbolTableRecord
100
AcDbBlockTableRecord
  2
*D20
340
0
  0
BLOCK_RECORD
  5
13ABC
330
1
100
AcDbSymbolTableRecord
100
AcDbBlockTableRecord
  2
*D21
340
0
  0
BLOCK_RECORD
  5
13AC8
330
1
100
AcDbSymbolTableRecord
100
AcDbBlockTableRecord
  2
*D22
340
0
  0
BLOCK_RECORD
  5
13AD4
330
1
100
AcDbSymbolTableRecord
100
AcDbBlockTableRecord
  2
*D23
340
0
  0
BLOCK_RECORD
  5
13AE0
330
1
100
AcDbSymbolTableRecord
100
AcDbBlockTableRecord
  2
*D24
340
0
  0
BLOCK_RECORD
  5
13AEC
330
1
100
AcDbSymbolTableRecord
100
AcDbBlockTableRecord
  2
*D25
340
0
  0
BLOCK_RECORD
  5
13AF8
330
1
100
AcDbSymbolTableRecord
100
AcDbBlockTableRecord
  2
*D26
340
0
  0
BLOCK_RECORD
  5
13B04
330
1
100
AcDbSymbolTableRecord
100
AcDbBlockTableRecord
  2
*D27
340
0
  0
BLOCK_RECORD
  5
14155
330
1
100
AcDbSymbolTableRecord
100
AcDbBlockTableRecord
  2
*D28
340
0
  0
BLOCK_RECORD
  5
14161
330
1
100
AcDbSymbolTableRecord
100
AcDbBlockTableRecord
  2
*D29
340
0
  0
BLOCK_RECORD
  5
1417E
330
1
100
AcDbSymbolTableRecord
100
AcDbBlockTableRecord
  2
*D30
340
0
  0
ENDTAB
  0
ENDSEC
  0
SECTION
  2
BLOCKS
  0
BLOCK
  5
1F
330
1E
100
AcDbEntity
  8
0
100
AcDbBlockBegin
  2
*MODEL_SPACE
 70
     0
 10
0.0
 20
0.0
 30
0.0
  3
*MODEL_SPACE
  1

  0
ENDBLK
  5
20
330
1E
100
AcDbEntity
  8
0
100
AcDbBlockEnd
  0
BLOCK
  5
1B
330
1A
100
AcDbEntity
 67
     1
  8
0
100
AcDbBlockBegin
  2
*PAPER_SPACE
 70
     0
 10
0.0
 20
0.0
 30
0.0
  3
*PAPER_SPACE
  1

  0
ENDBLK
  5
1C
330
1A
100
AcDbEntity
 67
     1
  8
0
100
AcDbBlockEnd
  0
BLOCK
  5
3B6
330
3B2
100
AcDbEntity
  8
0
100
AcDbBlockBegin
  2
_OPEN
 70
     0
 10
0.0
 20
0.0
 30
0.0
  3
_OPEN
  1

  0
LINE
  5
3B3
330
3B2
100
AcDbEntity
  8
30
  6
Continuous
 62
     0
100
AcDbLine
 10
-1.0
 20
0.1666666666666666
 30
0.0
 11
0.0
 21
0.0
 31
0.0
  0
LINE
  5
3B4
330
3B2
100
AcDbEntity
  8
30
  6
Continuous
 62
     0
100
AcDbLine
 10
-1.0
 20
-0.1666666666666666
 30
0.0
 11
0.0
 21
0.0
 31
0.0
  0
LINE
  5
3B5
330
3B2
100
AcDbEntity
  8
30
  6
Continuous
 62
     0
100
AcDbLine
 10
0.0
 20
0.0
 30
0.0
 11
-1.0
 21
0.0
 31
0.0
  0
ENDBLK
  5
3B7
330
3B2
100
AcDbEntity
  8
0
100
AcDbBlockEnd
  0
BLOCK
  5
10ED4
330
10ECA
100
AcDbEntity
  8
0
100
AcDbBlockBegin
  2
*D1
 70
     1
 10
0.0
 20
0.0
 30
0.0
  3
*D1
  1

  0
LINE
  5
13F75
330
10ECA
100
AcDbEntity
  8
30
  6
Continuous
 62
     0
370
    -2
100
AcDbLine
 10
-39.0
 20
-50.5
 30
0.0
 11
-39.0
 21
-100.5
 31
0.0
  0
LINE
  5
13F76
330
10ECA
100
AcDbEntity
  8
30
  6
Continuous
 62
     0
370
    -2
100
AcDbLine
 10
38.99999999999954
 20
-50.5
 30
0.0
 11
38.99999999999954
 21
-100.5
 31
0.0
  0
LINE
  5
13F77
330
10ECA
100
AcDbEntity
  8
30
  6
Continuous
 62
     0
370
    -2
100
AcDbLine
 10
-37.0
 20
-100.0
 30
0.0
 11
36.99999999999953
 21
-100.0
 31
0.0
  0
INSERT
  5
13F78
330
10ECA
100
AcDbEntity
  8
30
  6
Continuous
 62
     0
370
    -2
100
AcDbBlockReference
  2
_OPEN
 10
-39.0
 20
-100.0
 30
0.0
 41
2.0
 42
2.0
 43
2.0
 50
180.0
  0
INSERT
  5
13F79
330
10ECA
100
AcDbEntity
  8
30
  6
Continuous
 62
     0
370
    -2
100
AcDbBlockReference
  2
_OPEN
 10
38.99999999999954
 20
-100.0
 30
0.0
 41
2.0
 42
2.0
 43
2.0
  0
MTEXT
  5
13F7A
330
10ECA
100
AcDbEntity
  8
30
  6
Continuous
 62
     0
100
AcDbMText
 10
-0.000000000000227
 20
-94.0
 30
0.0
 40
6.0
 41
0.0
 71
     5
 72
     1
  1
\A1; 78 
 73
     1
 44
1.0
1001
ACAD
1000
MTEXTBEGIN
1070
    73
1070
     1
1070
    44
1040
1.0
1070
    74
1070
     0
1000
MTEXTEND
  0
POINT
  5
13F7B
330
10ECA
100
AcDbEntity
  8
DEFPOINTS
  6
Continuous
 62
     0
100
AcDbPoint
 10
-39.0
 20
-47.5
 30
0.0
  0
POINT
  5
13F7C
330
10ECA
100
AcDbEntity
  8
DEFPOINTS
  6
Continuous
 62
     0
100
AcDbPoint
 10
38.99999999999954
 20
-47.5
 30
0.0
  0
POINT
  5
13F7D
330
10ECA
100
AcDbEntity
  8
DEFPOINTS
  6
Continuous
 62
     0
100
AcDbPoint
 10
38.99999999999954
 20
-100.0
 30
0.0
  0
ENDBLK
  5
10ED5
330
10ECA
100
AcDbEntity
  8
0
100
AcDbBlockEnd
  0
BLOCK
  5
10F04
330
10EFA
100
AcDbEntity
  8
0
100
AcDbBlockBegin
  2
*D2
 70
     1
 10
0.0
 20
0.0
 30
0.0
  3
*D2
  1

  0
LINE
  5
13F7E
330
10EFA
100
AcDbEntity
  8
30
  6
Continuous
 62
     0
370
    -2
100
AcDbLine
 10
-95.0
 20
54.50000000000091
 30
0.0
 11
-95.0
 21
90.5
 31
0.0
  0
LINE
  5
13F7F
330
10EFA
100
AcDbEntity
  8
30
  6
Continuous
 62
     0
370
    -2
100
AcDbLine
 10
95.0
 20
54.50000000000091
 30
0.0
 11
95.0
 21
90.5
 31
0.0
  0
LINE
  5
13F80
330
10EFA
100
AcDbEntity
  8
30
  6
Continuous
 62
     0
370
    -2
100
AcDbLine
 10
-93.0
 20
90.0
 30
0.0
 11
93.0
 21
90.0
 31
0.0
  0
INSERT
  5
13F81
330
10EFA
100
AcDbEntity
  8
30
  6
Continuous
 62
     0
370
    -2
100
AcDbBlockReference
  2
_OPEN
 10
-95.0
 20
90.0
 30
0.0
 41
2.0
 42
2.0
 43
2.0
 50
180.0
  0
INSERT
  5
13F82
330
10EFA
100
AcDbEntity
  8
30
  6
Continuous
 62
     0
370
    -2
100
AcDbBlockReference
  2
_OPEN
 10
95.0
 20
90.0
 30
0.0
 41
2.0
 42
2.0
 43
2.0
  0
MTEXT
  5
13F83
330
10EFA
100
AcDbEntity
  8
30
  6
Continuous
 62
     0
100
AcDbMText
 10
0.0000000000000004
 20
96.0
 30
0.0
 40
6.0
 41
0.0
 71
     5
 72
     1
  1
\A1; 190 
 73
     1
 44
1.0
1001
ACAD
1000
MTEXTBEGIN
1070
    73
1070
     1
1070
    44
1040
1.0
1070
    74
1070
     0
1000
MTEXTEND
  0
POINT
  5
13F84
330
10EFA
100
AcDbEntity
  8
DEFPOINTS
  6
Continuous
 62
     0
100
AcDbPoint
 10
-95.0
 20
51.5000000000009
 30
0.0
  0
POINT
  5
13F85
330
10EFA
100
AcDbEntity
  8
DEFPOINTS
  6
Continuous
 62
     0
100
AcDbPoint
 10
95.0
 20
51.5000000000009
 30
0.0
  0
POINT
  5
13F86
330
10EFA
100
AcDbEntity
  8
DEFPOINTS
  6
Continuous
 62
     0
100
AcDbPoint
 10
95.0
 20
90.0
 30
0.0
  0
ENDBLK
  5
10F05
330
10EFA
100
AcDbEntity
  8
0
100
AcDbBlockEnd
  0
BLOCK
  5
10F28
330
10F1D
100
AcDbEntity
  8
0
100
AcDbBlockBegin
  2
*D3
 70
     1
 10
0.0
 20
0.0
 30
0.0
  3
*D3
  1

  0
LINE
  5
13F5A
330
10F1D
100
AcDbEntity
  8
30
  6
Continuous
 62
     0
370
    -2
100
AcDbLine
 10
284.1000000000008
 20
-0.0000000000008518
 30
0.0
 11
279.4999999999999
 21
-0.0000000000008505
 31
0.0
  0
LINE
  5
13F5B
330
10F1D
100
AcDbEntity
  8
30
  6
Continuous
 62
     0
370
    -2
100
AcDbLine
 10
352.0000000000004
 20
169.999999999999
 30
0.0
 11
279.4999999999999
 21
169.999999999999
 31
0.0
  0
LINE
  5
13F5C
330
10F1D
100
AcDbEntity
  8
30
  6
Continuous
 62
     0
370
    -2
100
AcDbLine
 10
279.9999999999999
 20
1.999999999999149
 30
0.0
 11
280.0
 21
167.999999999999
 31
0.0
  0
INSERT
  5
13F5D
330
10F1D
100
AcDbEntity
  8
30
  6
Continuous
 62
     0
370
    -2
100
AcDbBlockReference
  2
_OPEN
 10
279.9999999999999
 20
-0.0000000000008506
 30
0.0
 41
2.0
 42
2.0
 43
2.0
 50
270.0
  0
INSERT
  5
13F5E
330
10F1D
100
AcDbEntity
  8
30
  6
Continuous
 62
     0
370
    -2
100
AcDbBlockReference
  2
_OPEN
 10
280.0
 20
169.999999999999
 30
0.0
 41
2.0
 42
2.0
 43
2.0
 50
90.0
  0
MTEXT
  5
13F5F
330
10F1D
100
AcDbEntity
  8
30
  6
Continuous
 62
     0
100
AcDbMText
 10
273.9999999999999
 20
84.9999999999992
 30
0.0
 40
6.0
 41
0.0
 71
     5
 72
     1
  1
\A1; 170 
 11
0.0000000000000001
 21
1.0
 31
0.0
 73
     1
 44
1.0
1001
ACAD
1000
MTEXTBEGIN
1070
    73
1070
     1
1070
    44
1040
1.0
1070
    74
1070
     0
1000
MTEXTEND
  0
POINT
  5
13F60
330
10F1D
100
AcDbEntity
  8
DEFPOINTS
  6
Continuous
 62
     0
100
AcDbPoint
 10
287.1000000000008
 20
-0.0000000000008527
 30
0.0
  0
POINT
  5
13F61
330
10F1D
100
AcDbEntity
  8
DEFPOINTS
  6
Continuous
 62
     0
100
AcDbPoint
 10
355.0000000000004
 20
169.999999999999
 30
0.0
  0
POINT
  5
13F62
330
10F1D
100
AcDbEntity
  8
DEFPOINTS
  6
Continuous
 62
     0
100
AcDbPoint
 10
280.0
 20
169.999999999999
 30
0.0
  0
ENDBLK
  5
10F29
330
10F1D
100
AcDbEntity
  8
0
100
AcDbBlockEnd
  0
BLOCK
  5
10F35
330
10F2A
100
AcDbEntity
  8
0
100
AcDbBlockBegin
  2
*D4
 70
     1
 10
0.0
 20
0.0
 30
0.0
  3
*D4
  1

  0
LINE
  5
13FD1
330
10F2A
100
AcDbEntity
  8
30
  6
Continuous
 62
     0
370
    -2
100
AcDbLine
 10
352.0000000000004
 20
-140.0000000000007
 30
0.0
 11
279.4999999999999
 21
-140.0000000000007
 31
0.0
  0
LINE
  5
13FD2
330
10F2A
100
AcDbEntity
  8
30
  6
Continuous
 62
     0
370
    -2
100
AcDbLine
 10
289.1000000000008
 20
-0.0000000000008518
 30
0.0
 11
279.4999999999999
 21
-0.0000000000008491
 31
0.0
  0
LINE
  5
13FD3
330
10F2A
100
AcDbEntity
  8
30
  6
Continuous
 62
     0
370
    -2
100
AcDbLine
 10
279.9999999999999
 20
-138.0000000000007
 30
0.0
 11
280.0
 21
-2.000000000000849
 31
0.0
  0
INSERT
  5
13FD4
330
10F2A
100
AcDbEntity
  8
30
  6
Continuous
 62
     0
370
    -2
100
AcDbBlockReference
  2
_OPEN
 10
279.9999999999999
 20
-140.0000000000007
 30
0.0
 41
2.0
 42
2.0
 43
2.0
 50
270.0
  0
INSERT
  5
13FD5
330
10F2A
100
AcDbEntity
  8
30
  6
Continuous
 62
     0
370
    -2
100
AcDbBlockReference
  2
_OPEN
 10
280.0
 20
-0.0000000000008492
 30
0.0
 41
2.0
 42
2.0
 43
2.0
 50
90.0
  0
MTEXT
  5
13FD6
330
10F2A
100
AcDbEntity
  8
30
  6
Continuous
 62
     0
100
AcDbMText
 10
274.0
 20
-70.00000000000079
 30
0.0
 40
6.0
 41
0.0
 71
     5
 72
     1
  1
\A1; 140 
 11
0.0000000000000001
 21
1.0
 31
0.0
 73
     1
 44
1.0
1001
ACAD
1000
MTEXTBEGIN
1070
    73
1070
     1
1070
    44
1040
1.0
1070
    74
1070
     0
1000
MTEXTEND
  0
POINT
  5
13FD7
330
10F2A
100
AcDbEntity
  8
DEFPOINTS
  6
Continuous
 62
     0
100
AcDbPoint
 10
355.0000000000004
 20
-140.0000000000007
 30
0.0
  0
POINT
  5
13FD8
330
10F2A
100
AcDbEntity
  8
DEFPOINTS
  6
Continuous
 62
     0
100
AcDbPoint
 10
292.1000000000008
 20
-0.0000000000008527
 30
0.0
  0
POINT
  5
13FD9
330
10F2A
100
AcDbEntity
  8
DEFPOINTS
  6
Continuous
 62
     0
100
AcDbPoint
 10
280.0
 20
-0.0000000000008492
 30
0.0
  0
ENDBLK
  5
10F36
330
10F2A
100
AcDbEntity
  8
0
100
AcDbBlockEnd
  0
BLOCK
  5
11FDC
330
11FD2
100
AcDbEntity
  8
0
100
AcDbBlockBegin
  2
*D5
 70
     1
 10
0.0
 20
0.0
 30
0.0
  3
*D5
  1

  0
LINE
  5
140AA
330
11FD2
100
AcDbEntity
  8
30
  6
Continuous
 62
     0
370
    -2
100
AcDbLine
 10
-52.99999999999998
 20
-754.0000000000008
 30
0.0
 11
-140.5
 21
-754.0000000000008
 31
0.0
  0
LINE
  5
140AB
330
11FD2
100
AcDbEntity
  8
30
  6
Continuous
 62
     0
370
    -2
100
AcDbLine
 10
-120.4711194721602
 20
-600.0
 30
0.0
 11
-140.5
 21
-600.0
 31
0.0
  0
LINE
  5
140AC
330
11FD2
100
AcDbEntity
  8
30
  6
Continuous
 62
     0
370
    -2
100
AcDbLine
 10
-140.0
 20
-752.0000000000009
 30
0.0
 11
-140.0
 21
-602.0
 31
0.0
  0
INSERT
  5
140AD
330
11FD2
100
AcDbEntity
  8
30
  6
Continuous
 62
     0
370
    -2
100
AcDbBlockReference
  2
_OPEN
 10
-140.0
 20
-754.0000000000008
 30
0.0
 41
2.0
 42
2.0
 43
2.0
 50
270.0
  0
INSERT
  5
140AE
330
11FD2
100
AcDbEntity
  8
30
  6
Continuous
 62
     0
370
    -2
100
AcDbBlockReference
  2
_OPEN
 10
-140.0
 20
-600.0
 30
0.0
 41
2.0
 42
2.0
 43
2.0
 50
90.0
  0
MTEXT
  5
140AF
330
11FD2
100
AcDbEntity
  8
30
  6
Continuous
 62
     0
100
AcDbMText
 10
-145.9999999999998
 20
-677.0000000000002
 30
0.0
 40
6.0
 41
0.0
 71
     5
 72
     1
  1
\A1; 154 
 11
0.0000000000000001
 21
1.0
 31
0.0
 73
     1
 44
1.0
1001
ACAD
1000
MTEXTBEGIN
1070
    73
1070
     1
1070
    44
1040
1.0
1070
    74
1070
     0
1000
MTEXTEND
  0
POINT
  5
140B0
330
11FD2
100
AcDbEntity
  8
DEFPOINTS
  6
Continuous
 62
     0
100
AcDbPoint
 10
-50.0
 20
-754.0000000000008
 30
0.0
  0
POINT
  5
140B1
330
11FD2
100
AcDbEntity
  8
DEFPOINTS
  6
Continuous
 62
     0
100
AcDbPoint
 10
-117.4711194721602
 20
-600.0
 30
0.0
  0
POINT
  5
140B2
330
11FD2
100
AcDbEntity
  8
DEFPOINTS
  6
Continuous
 62
     0
100
AcDbPoint
 10
-140.0
 20
-600.0
 30
0.0
  0
ENDBLK
  5
11FDD
330
11FD2
100
AcDbEntity
  8
0
100
AcDbBlockEnd
  0
BLOCK
  5
11FE8
330
11FDE
100
AcDbEntity
  8
0
100
AcDbBlockBegin
  2
*D6
 70
     1
 10
0.0
 20
0.0
 30
0.0
  3
*D6
  1

  0
LINE
  5
140A1
330
11FDE
100
AcDbEntity
  8
30
  6
Continuous
 62
     0
370
    -2
100
AcDbLine
 10
-118.0
 20
-600.0
 30
0.0
 11
-140.5
 21
-600.0
 31
0.0
  0
LINE
  5
140A2
330
11FDE
100
AcDbEntity
  8
30
  6
Continuous
 62
     0
370
    -2
100
AcDbLine
 10
-52.99999999999998
 20
-415.9999999999991
 30
0.0
 11
-140.4999999999999
 21
-415.999999999999
 31
0.0
  0
LINE
  5
140A3
330
11FDE
100
AcDbEntity
  8
30
  6
Continuous
 62
     0
370
    -2
100
AcDbLine
 10
-140.0
 20
-598.0
 30
0.0
 11
-139.9999999999999
 21
-417.999999999999
 31
0.0
  0
INSERT
  5
140A4
330
11FDE
100
AcDbEntity
  8
30
  6
Continuous
 62
     0
370
    -2
100
AcDbBlockReference
  2
_OPEN
 10
-140.0
 20
-600.0
 30
0.0
 41
2.0
 42
2.0
 43
2.0
 50
270.0
  0
INSERT
  5
140A5
330
11FDE
100
AcDbEntity
  8
30
  6
Continuous
 62
     0
370
    -2
100
AcDbBlockReference
  2
_OPEN
 10
-139.9999999999999
 20
-415.999999999999
 30
0.0
 41
2.0
 42
2.0
 43
2.0
 50
90.0
  0
MTEXT
  5
140A6
330
11FDE
100
AcDbEntity
  8
30
  6
Continuous
 62
     0
100
AcDbMText
 10
-145.9999999999998
 20
-507.9999999999991
 30
0.0
 40
6.0
 41
0.0
 71
     5
 72
     1
  1
\A1; 184 
 11
0.0000000000000001
 21
1.0
 31
0.0
 73
     1
 44
1.0
1001
ACAD
1000
MTEXTBEGIN
1070
    73
1070
     1
1070
    44
1040
1.0
1070
    74
1070
     0
1000
MTEXTEND
  0
POINT
  5
140A7
330
11FDE
100
AcDbEntity
  8
DEFPOINTS
  6
Continuous
 62
     0
100
AcDbPoint
 10
-115.0
 20
-600.0
 30
0.0
  0
POINT
  5
140A8
330
11FDE
100
AcDbEntity
  8
DEFPOINTS
  6
Continuous
 62
     0
100
AcDbPoint
 10
-50.0
 20
-415.9999999999991
 30
0.0
  0
POINT
  5
140A9
330
11FDE
100
AcDbEntity
  8
DEFPOINTS
  6
Continuous
 62
     0
100
AcDbPoint
 10
-139.9999999999999
 20
-415.999999999999
 30
0.0
  0
ENDBLK
  5
11FE9
330
11FDE
100
AcDbEntity
  8
0
100
AcDbBlockEnd
  0
BLOCK
  5
12019
330
1200F
100
AcDbEntity
  8
0
100
AcDbBlockBegin
  2
*D7
 70
     1
 10
0.0
 20
0.0
 30
0.0
  3
*D7
  1

  0
LINE
  5
14044
330
1200F
100
AcDbEntity
  8
30
  6
Continuous
 62
     0
370
    -2
100
AcDbLine
 10
-35.0
 20
-772.0000000000009
 30
0.0
 11
-35.0
 21
-810.5
 31
0.0
  0
LINE
  5
14045
330
1200F
100
AcDbEntity
  8
30
  6
Continuous
 62
     0
370
    -2
100
AcDbLine
 10
35.0
 20
-772.0000000000009
 30
0.0
 11
35.0
 21
-810.5
 31
0.0
  0
LINE
  5
14046
330
1200F
100
AcDbEntity
  8
30
  6
Continuous
 62
     0
370
    -2
100
AcDbLine
 10
-33.0
 20
-810.0
 30
0.0
 11
33.0
 21
-810.0
 31
0.0
  0
INSERT
  5
14047
330
1200F
100
AcDbEntity
  8
30
  6
Continuous
 62
     0
370
    -2
100
AcDbBlockReference
  2
_OPEN
 10
-35.0
 20
-810.0
 30
0.0
 41
2.0
 42
2.0
 43
2.0
 50
180.0
  0
INSERT
  5
14048
330
1200F
100
AcDbEntity
  8
30
  6
Continuous
 62
     0
370
    -2
100
AcDbBlockReference
  2
_OPEN
 10
35.0
 20
-810.0
 30
0.0
 41
2.0
 42
2.0
 43
2.0
  0
MTEXT
  5
14049
330
1200F
100
AcDbEntity
  8
30
  6
Continuous
 62
     0
100
AcDbMText
 10
0.0000000000000004
 20
-804.0
 30
0.0
 40
6.0
 41
0.0
 71
     5
 72
     1
  1
\A1; 70 
 73
     1
 44
1.0
1001
ACAD
1000
MTEXTBEGIN
1070
    73
1070
     1
1070
    44
1040
1.0
1070
    74
1070
     0
1000
MTEXTEND
  0
POINT
  5
1404A
330
1200F
100
AcDbEntity
  8
DEFPOINTS
  6
Continuous
 62
     0
100
AcDbPoint
 10
-35.0
 20
-769.0000000000009
 30
0.0
  0
POINT
  5
1404B
330
1200F
100
AcDbEntity
  8
DEFPOINTS
  6
Continuous
 62
     0
100
AcDbPoint
 10
35.0
 20
-769.0000000000009
 30
0.0
  0
POINT
  5
1404C
330
1200F
100
AcDbEntity
  8
DEFPOINTS
  6
Continuous
 62
     0
100
AcDbPoint
 10
35.0
 20
-810.0
 30
0.0
  0
ENDBLK
  5
1201A
330
1200F
100
AcDbEntity
  8
0
100
AcDbBlockEnd
  0
BLOCK
  5
120C0
330
120B6
100
AcDbEntity
  8
0
100
AcDbBlockBegin
  2
*D8
 70
     1
 10
0.0
 20
0.0
 30
0.0
  3
*D8
  1

  0
LINE
  5
1411B
330
120B6
100
AcDbEntity
  8
30
  6
Continuous
 62
     0
370
    -2
100
AcDbLine
 10
253.4999999999997
 20
-648.9999999999997
 30
0.0
 11
253.4999999999997
 21
-810.5
 31
0.0
  0
LINE
  5
1411C
330
120B6
100
AcDbEntity
  8
30
  6
Continuous
 62
     0
370
    -2
100
AcDbLine
 10
446.4999999999998
 20
-648.9999999999992
 30
0.0
 11
446.4999999999998
 21
-810.5
 31
0.0
  0
LINE
  5
1411D
330
120B6
100
AcDbEntity
  8
30
  6
Continuous
 62
     0
370
    -2
100
AcDbLine
 10
255.4999999999997
 20
-810.0
 30
0.0
 11
444.5
 21
-810.0
 31
0.0
  0
INSERT
  5
1411E
330
120B6
100
AcDbEntity
  8
30
  6
Continuous
 62
     0
370
    -2
100
AcDbBlockReference
  2
_OPEN
 10
253.4999999999997
 20
-810.0
 30
0.0
 41
2.0
 42
2.0
 43
2.0
 50
180.0
  0
INSERT
  5
1411F
330
120B6
100
AcDbEntity
  8
30
  6
Continuous
 62
     0
370
    -2
100
AcDbBlockReference
  2
_OPEN
 10
446.4999999999998
 20
-810.0
 30
0.0
 41
2.0
 42
2.0
 43
2.0
  0
MTEXT
  5
14120
330
120B6
100
AcDbEntity
  8
30
  6
Continuous
 62
     0
100
AcDbMText
 10
349.9999999999998
 20
-804.0
 30
0.0
 40
6.0
 41
0.0
 71
     5
 72
     1
  1
\A1; 193 
 73
     1
 44
1.0
1001
ACAD
1000
MTEXTBEGIN
1070
    73
1070
     1
1070
    44
1040
1.0
1070
    74
1070
     0
1000
MTEXTEND
  0
POINT
  5
14121
330
120B6
100
AcDbEntity
  8
DEFPOINTS
  6
Continuous
 62
     0
100
AcDbPoint
 10
253.4999999999997
 20
-645.9999999999998
 30
0.0
  0
POINT
  5
14122
330
120B6
100
AcDbEntity
  8
DEFPOINTS
  6
Continuous
 62
     0
100
AcDbPoint
 10
446.4999999999998
 20
-645.9999999999991
 30
0.0
  0
POINT
  5
14123
330
120B6
100
AcDbEntity
  8
DEFPOINTS
  6
Continuous
 62
     0
100
AcDbPoint
 10
446.4999999999998
 20
-810.0
 30
0.0
  0
ENDBLK
  5
120C1
330
120B6
100
AcDbEntity
  8
0
100
AcDbBlockEnd
  0
BLOCK
  5
120CC
330
120C2
100
AcDbEntity
  8
0
100
AcDbBlockBegin
  2
*D9
 70
     1
 10
0.0
 20
0.0
 30
0.0
  3
*D9
  1

  0
LINE
  5
14124
330
120C2
100
AcDbEntity
  8
30
  6
Continuous
 62
     0
370
    -2
100
AcDbLine
 10
250.4999999999999
 20
-550.9999999999991
 30
0.0
 11
224.5
 21
-550.9999999999991
 31
0.0
  0
LINE
  5
14125
330
120C2
100
AcDbEntity
  8
30
  6
Continuous
 62
     0
370
    -2
100
AcDbLine
 10
250.4999999999999
 20
-648.9999999999997
 30
0.0
 11
224.5
 21
-648.9999999999997
 31
0.0
  0
LINE
  5
14126
330
120C2
100
AcDbEntity
  8
30
  6
Continuous
 62
     0
370
    -2
100
AcDbLine
 10
225.0
 20
-552.9999999999992
 30
0.0
 11
225.0
 21
-646.9999999999997
 31
0.0
  0
INSERT
  5
14127
330
120C2
100
AcDbEntity
  8
30
  6
Continuous
 62
     0
370
    -2
100
AcDbBlockReference
  2
_OPEN
 10
225.0
 20
-550.9999999999991
 30
0.0
 41
2.0
 42
2.0
 43
2.0
 50
90.0
  0
INSERT
  5
14128
330
120C2
100
AcDbEntity
  8
30
  6
Continuous
 62
     0
370
    -2
100
AcDbBlockReference
  2
_OPEN
 10
225.0
 20
-648.9999999999997
 30
0.0
 41
2.0
 42
2.0
 43
2.0
 50
270.0
  0
MTEXT
  5
14129
330
120C2
100
AcDbEntity
  8
30
  6
Continuous
 62
     0
100
AcDbMText
 10
219.0
 20
-599.9999999999994
 30
0.0
 40
6.0
 41
0.0
 71
     5
 72
     1
  1
\A1;98
 11
0.0000000000000001
 21
1.0
 31
0.0
 73
     1
 44
1.0
1001
ACAD
1000
MTEXTBEGIN
1070
    73
1070
     1
1070
    44
1040
1.0
1070
    74
1070
     0
1000
MTEXTEND
  0
POINT
  5
1412A
330
120C2
100
AcDbEntity
  8
DEFPOINTS
  6
Continuous
 62
     0
100
AcDbPoint
 10
253.4999999999997
 20
-550.9999999999991
 30
0.0
  0
POINT
  5
1412B
330
120C2
100
AcDbEntity
  8
DEFPOINTS
  6
Continuous
 62
     0
100
AcDbPoint
 10
253.4999999999997
 20
-648.9999999999997
 30
0.0
  0
POINT
  5
1412C
330
120C2
100
AcDbEntity
  8
DEFPOINTS
  6
Continuous
 62
     0
100
AcDbPoint
 10
225.0
 20
-648.9999999999997
 30
0.0
  0
ENDBLK
  5
120CD
330
120C2
100
AcDbEntity
  8
0
100
AcDbBlockEnd
  0
BLOCK
  5
13857
330
1384D
100
AcDbEntity
  8
0
100
AcDbBlockBegin
  2
*D10
 70
     1
 10
0.0
 20
0.0
 30
0.0
  3
*D10
  1

  0
LINE
  5
14069
330
1384D
100
AcDbEntity
  8
30
  6
Continuous
 62
     0
370
    -2
100
AcDbLine
 10
-0.0000000000001917
 20
634.0000000000002
 30
0.0
 11
-0.0000000000001894
 21
670.5
 31
0.0
  0
LINE
  5
1406A
330
1384D
100
AcDbEntity
  8
30
  6
Continuous
 62
     0
370
    -2
100
AcDbLine
 10
-70.0000000000002
 20
599.0000000000001
 30
0.0
 11
-70.0000000000002
 21
670.5
 31
0.0
  0
LINE
  5
1406B
330
1384D
100
AcDbEntity
  8
30
  6
Continuous
 62
     0
370
    -2
100
AcDbLine
 10
-2.000000000000188
 20
670.0
 30
0.0
 11
-68.0000000000002
 21
670.0
 31
0.0
  0
INSERT
  5
1406C
330
1384D
100
AcDbEntity
  8
30
  6
Continuous
 62
     0
370
    -2
100
AcDbBlockReference
  2
_OPEN
 10
-0.0000000000001895
 20
670.0
 30
0.0
 41
2.0
 42
2.0
 43
2.0
  0
INSERT
  5
1406D
330
1384D
100
AcDbEntity
  8
30
  6
Continuous
 62
     0
370
    -2
100
AcDbBlockReference
  2
_OPEN
 10
-70.0000000000002
 20
670.0
 30
0.0
 41
2.0
 42
2.0
 43
2.0
 50
180.0
  0
MTEXT
  5
1406E
330
1384D
100
AcDbEntity
  8
30
  6
Continuous
 62
     0
100
AcDbMText
 10
-35.00000000000019
 20
676.0
 30
0.0
 40
6.0
 41
0.0
 71
     5
 72
     1
  1
\A1; 70 
 73
     1
 44
1.0
1001
ACAD
1000
MTEXTBEGIN
1070
    73
1070
     1
1070
    44
1040
1.0
1070
    74
1070
     0
1000
MTEXTEND
  0
POINT
  5
1406F
330
1384D
100
AcDbEntity
  8
DEFPOINTS
  6
Continuous
 62
     0
100
AcDbPoint
 10
-0.0000000000001918
 20
631.0000000000002
 30
0.0
  0
POINT
  5
14070
330
1384D
100
AcDbEntity
  8
DEFPOINTS
  6
Continuous
 62
     0
100
AcDbPoint
 10
-70.0000000000002
 20
596.0000000000002
 30
0.0
  0
POINT
  5
14071
330
1384D
100
AcDbEntity
  8
DEFPOINTS
  6
Continuous
 62
     0
100
AcDbPoint
 10
-70.0000000000002
 20
670.0
 30
0.0
  0
ENDBLK
  5
13858
330
1384D
100
AcDbEntity
  8
0
100
AcDbBlockEnd
  0
BLOCK
  5
13863
330
13859
100
AcDbEntity
  8
0
100
AcDbBlockBegin
  2
*D11
 70
     1
 10
0.0
 20
0.0
 30
0.0
  3
*D11
  1

  0
LINE
  5
14060
330
13859
100
AcDbEntity
  8
30
  6
Continuous
 62
     0
370
    -2
100
AcDbLine
 10
69.9999999999998
 20
599.0000000000001
 30
0.0
 11
69.9999999999998
 21
670.5
 31
0.0
  0
LINE
  5
14061
330
13859
100
AcDbEntity
  8
30
  6
Continuous
 62
     0
370
    -2
100
AcDbLine
 10
-0.0000000000001917
 20
634.0000000000002
 30
0.0
 11
-0.0000000000001894
 21
670.5
 31
0.0
  0
LINE
  5
14062
330
13859
100
AcDbEntity
  8
30
  6
Continuous
 62
     0
370
    -2
100
AcDbLine
 10
67.9999999999998
 20
670.0
 30
0.0
 11
1.99999999999981
 21
670.0
 31
0.0
  0
INSERT
  5
14063
330
13859
100
AcDbEntity
  8
30
  6
Continuous
 62
     0
370
    -2
100
AcDbBlockReference
  2
_OPEN
 10
69.9999999999998
 20
670.0
 30
0.0
 41
2.0
 42
2.0
 43
2.0
  0
INSERT
  5
14064
330
13859
100
AcDbEntity
  8
30
  6
Continuous
 62
     0
370
    -2
100
AcDbBlockReference
  2
_OPEN
 10
-0.0000000000001895
 20
670.0
 30
0.0
 41
2.0
 42
2.0
 43
2.0
 50
180.0
  0
MTEXT
  5
14065
330
13859
100
AcDbEntity
  8
30
  6
Continuous
 62
     0
100
AcDbMText
 10
34.9999999999998
 20
676.0
 30
0.0
 40
6.0
 41
0.0
 71
     5
 72
     1
  1
\A1; 70 
 73
     1
 44
1.0
1001
ACAD
1000
MTEXTBEGIN
1070
    73
1070
     1
1070
    44
1040
1.0
1070
    74
1070
     0
1000
MTEXTEND
  0
POINT
  5
14066
330
13859
100
AcDbEntity
  8
DEFPOINTS
  6
Continuous
 62
     0
100
AcDbPoint
 10
69.9999999999998
 20
596.0000000000002
 30
0.0
  0
POINT
  5
14067
330
13859
100
AcDbEntity
  8
DEFPOINTS
  6
Continuous
 62
     0
100
AcDbPoint
 10
-0.0000000000001918
 20
631.0000000000002
 30
0.0
  0
POINT
  5
14068
330
13859
100
AcDbEntity
  8
DEFPOINTS
  6
Continuous
 62
     0
100
AcDbPoint
 10
-0.0000000000001895
 20
670.0
 30
0.0
  0
ENDBLK
  5
13864
330
13859
100
AcDbEntity
  8
0
100
AcDbBlockEnd
  0
BLOCK
  5
139AE
330
139A4
100
AcDbEntity
  8
0
100
AcDbBlockBegin
  2
*D12
 70
     1
 10
0.0
 20
0.0
 30
0.0
  3
*D12
  1

  0
LINE
  5
13F6C
330
139A4
100
AcDbEntity
  8
30
  6
Continuous
 62
     0
370
    -2
100
AcDbLine
 10
-104.9999999999996
 20
-178.0000000000004
 30
0.0
 11
-104.9999999999996
 21
-210.4999999999999
 31
0.0
  0
LINE
  5
13F6D
330
139A4
100
AcDbEntity
  8
30
  6
Continuous
 62
     0
370
    -2
100
AcDbLine
 10
105.0000000000002
 20
-178.0000000000004
 30
0.0
 11
105.0000000000002
 21
-210.4999999999999
 31
0.0
  0
LINE
  5
13F6E
330
139A4
100
AcDbEntity
  8
30
  6
Continuous
 62
     0
370
    -2
100
AcDbLine
 10
-102.9999999999997
 20
-210.0
 30
0.0
 11
103.0000000000002
 21
-210.0
 31
0.0
  0
INSERT
  5
13F6F
330
139A4
100
AcDbEntity
  8
30
  6
Continuous
 62
     0
370
    -2
100
AcDbBlockReference
  2
_OPEN
 10
-104.9999999999996
 20
-210.0
 30
0.0
 41
2.0
 42
2.0
 43
2.0
 50
180.0
  0
INSERT
  5
13F70
330
139A4
100
AcDbEntity
  8
30
  6
Continuous
 62
     0
370
    -2
100
AcDbBlockReference
  2
_OPEN
 10
105.0000000000002
 20
-210.0
 30
0.0
 41
2.0
 42
2.0
 43
2.0
  0
MTEXT
  5
13F71
330
139A4
100
AcDbEntity
  8
30
  6
Continuous
 62
     0
100
AcDbMText
 10
0.0000000000002277
 20
-204.0
 30
0.0
 40
6.0
 41
0.0
 71
     5
 72
     1
  1
\A1; 210 
 73
     1
 44
1.0
1001
ACAD
1000
MTEXTBEGIN
1070
    73
1070
     1
1070
    44
1040
1.0
1070
    74
1070
     0
1000
MTEXTEND
  0
POINT
  5
13F72
330
139A4
100
AcDbEntity
  8
DEFPOINTS
  6
Continuous
 62
     0
100
AcDbPoint
 10
-104.9999999999996
 20
-175.0000000000004
 30
0.0
  0
POINT
  5
13F73
330
139A4
100
AcDbEntity
  8
DEFPOINTS
  6
Continuous
 62
     0
100
AcDbPoint
 10
105.0000000000002
 20
-175.0000000000004
 30
0.0
  0
POINT
  5
13F74
330
139A4
100
AcDbEntity
  8
DEFPOINTS
  6
Continuous
 62
     0
100
AcDbPoint
 10
105.0000000000002
 20
-210.0
 30
0.0
  0
ENDBLK
  5
139AF
330
139A4
100
AcDbEntity
  8
0
100
AcDbBlockEnd
  0
BLOCK
  5
13A58
330
13A4D
100
AcDbEntity
  8
0
100
AcDbBlockBegin
  2
*D13
 70
     1
 10
0.0
 20
0.0
 30
0.0
  3
*D13
  1

  0
LINE
  5
13F09
330
13A4D
100
AcDbEntity
  8
30
  6
Continuous
 62
     0
370
    -2
100
AcDbLine
 10
513.0
 20
-0.0000000000004556
 30
0.0
 11
730.4999999999997
 21
-0.0000000000005172
 31
0.0
  0
LINE
  5
13F0A
330
13A4D
100
AcDbEntity
  8
30
  6
Continuous
 62
     0
370
    -2
100
AcDbLine
 10
693.0
 20
59.99999999999953
 30
0.0
 11
730.4999999999997
 21
59.99999999999952
 31
0.0
  0
LINE
  5
13F0B
330
13A4D
100
AcDbEntity
  8
30
  6
Continuous
 62
     0
370
    -2
100
AcDbLine
 10
730.0
 20
1.999999999999482
 30
0.0
 11
730.0
 21
57.99999999999952
 31
0.0
  0
INSERT
  5
13F0C
330
13A4D
100
AcDbEntity
  8
30
  6
Continuous
 62
     0
370
    -2
100
AcDbBlockReference
  2
_OPEN
 10
730.0
 20
-0.0000000000005171
 30
0.0
 41
2.0
 42
2.0
 43
2.0
 50
270.0
  0
INSERT
  5
13F0D
330
13A4D
100
AcDbEntity
  8
30
  6
Continuous
 62
     0
370
    -2
100
AcDbBlockReference
  2
_OPEN
 10
730.0
 20
59.99999999999952
 30
0.0
 41
2.0
 42
2.0
 43
2.0
 50
90.0
  0
MTEXT
  5
13F0E
330
13A4D
100
AcDbEntity
  8
30
  6
Continuous
 62
     0
100
AcDbMText
 10
724.0
 20
29.99999999999962
 30
0.0
 40
6.0
 41
0.0
 71
     5
 72
     1
  1
\A1; 60 
 11
0.0000000000000001
 21
1.0
 31
0.0
 73
     1
 44
1.0
1001
ACAD
1000
MTEXTBEGIN
1070
    73
1070
     1
1070
    44
1040
1.0
1070
    74
1070
     0
1000
MTEXTEND
  0
POINT
  5
13F0F
330
13A4D
100
AcDbEntity
  8
DEFPOINTS
  6
Continuous
 62
     0
100
AcDbPoint
 10
510.0
 20
-0.0000000000004547
 30
0.0
  0
POINT
  5
13F10
330
13A4D
100
AcDbEntity
  8
DEFPOINTS
  6
Continuous
 62
     0
100
AcDbPoint
 10
690.0
 20
59.99999999999953
 30
0.0
  0
POINT
  5
13F11
330
13A4D
100
AcDbEntity
  8
DEFPOINTS
  6
Continuous
 62
     0
100
AcDbPoint
 10
730.0
 20
59.99999999999952
 30
0.0
  0
ENDBLK
  5
13A59
330
13A4D
100
AcDbEntity
  8
0
100
AcDbBlockEnd
  0
BLOCK
  5
13A65
330
13A5A
100
AcDbEntity
  8
0
100
AcDbBlockBegin
  2
*D14
 70
     1
 10
0.0
 20
0.0
 30
0.0
  3
*D14
  1

  0
LINE
  5
13F12
330
13A5A
100
AcDbEntity
  8
30
  6
Continuous
 62
     0
370
    -2
100
AcDbLine
 10
643.0
 20
-100.0000000000003
 30
0.0
 11
730.4999999999997
 21
-100.0000000000003
 31
0.0
  0
LINE
  5
13F13
330
13A5A
100
AcDbEntity
  8
30
  6
Continuous
 62
     0
370
    -2
100
AcDbLine
 10
513.0
 20
-0.0000000000004556
 30
0.0
 11
730.4999999999997
 21
-0.0000000000005172
 31
0.0
  0
LINE
  5
13F14
330
13A5A
100
AcDbEntity
  8
30
  6
Continuous
 62
     0
370
    -2
100
AcDbLine
 10
730.0
 20
-98.00000000000046
 30
0.0
 11
730.0
 21
-2.000000000000516
 31
0.0
  0
INSERT
  5
13F15
330
13A5A
100
AcDbEntity
  8
30
  6
Continuous
 62
     0
370
    -2
100
AcDbBlockReference
  2
_OPEN
 10
730.0
 20
-100.0000000000003
 30
0.0
 41
2.0
 42
2.0
 43
2.0
 50
270.0
  0
INSERT
  5
13F16
330
13A5A
100
AcDbEntity
  8
30
  6
Continuous
 62
     0
370
    -2
100
AcDbBlockReference
  2
_OPEN
 10
730.0
 20
-0.0000000000005171
 30
0.0
 41
2.0
 42
2.0
 43
2.0
 50
90.0
  0
MTEXT
  5
13F17
330
13A5A
100
AcDbEntity
  8
30
  6
Continuous
 62
     0
100
AcDbMText
 10
724.0
 20
-50.00000000000039
 30
0.0
 40
6.0
 41
0.0
 71
     5
 72
     1
  1
\A1; 100 
 11
0.0000000000000001
 21
1.0
 31
0.0
 73
     1
 44
1.0
1001
ACAD
1000
MTEXTBEGIN
1070
    73
1070
     1
1070
    44
1040
1.0
1070
    74
1070
     0
1000
MTEXTEND
  0
POINT
  5
13F18
330
13A5A
100
AcDbEntity
  8
DEFPOINTS
  6
Continuous
 62
     0
100
AcDbPoint
 10
640.0
 20
-100.0000000000003
 30
0.0
  0
POINT
  5
13F19
330
13A5A
100
AcDbEntity
  8
DEFPOINTS
  6
Continuous
 62
     0
100
AcDbPoint
 10
510.0
 20
-0.0000000000004547
 30
0.0
  0
POINT
  5
13F1A
330
13A5A
100
AcDbEntity
  8
DEFPOINTS
  6
Continuous
 62
     0
100
AcDbPoint
 10
730.0
 20
-0.0000000000005171
 30
0.0
  0
ENDBLK
  5
13A66
330
13A5A
100
AcDbEntity
  8
0
100
AcDbBlockEnd
  0
BLOCK
  5
13A72
330
13A67
100
AcDbEntity
  8
0
100
AcDbBlockBegin
  2
*D15
 70
     1
 10
0.0
 20
0.0
 30
0.0
  3
*D15
  1

  0
LINE
  5
13FDA
330
13A67
100
AcDbEntity
  8
30
  6
Continuous
 62
     0
370
    -2
100
AcDbLine
 10
638.0
 20
27.49999999999953
 30
0.0
 11
690.5
 21
27.49999999999953
 31
0.0
  0
LINE
  5
13FDB
330
13A67
100
AcDbEntity
  8
30
  6
Continuous
 62
     0
370
    -2
100
AcDbLine
 10
638.0
 20
92.49999999999955
 30
0.0
 11
690.5
 21
92.49999999999952
 31
0.0
  0
LINE
  5
13FDC
330
13A67
100
AcDbEntity
  8
30
  6
Continuous
 62
     0
370
    -2
100
AcDbLine
 10
690.0
 20
29.49999999999953
 30
0.0
 11
690.0
 21
90.49999999999952
 31
0.0
  0
INSERT
  5
13FDD
330
13A67
100
AcDbEntity
  8
30
  6
Continuous
 62
     0
370
    -2
100
AcDbBlockReference
  2
_OPEN
 10
690.0
 20
27.49999999999953
 30
0.0
 41
2.0
 42
2.0
 43
2.0
 50
270.0
  0
INSERT
  5
13FDE
330
13A67
100
AcDbEntity
  8
30
  6
Continuous
 62
     0
370
    -2
100
AcDbBlockReference
  2
_OPEN
 10
690.0
 20
92.49999999999952
 30
0.0
 41
2.0
 42
2.0
 43
2.0
 50
90.0
  0
MTEXT
  5
13FDF
330
13A67
100
AcDbEntity
  8
30
  6
Continuous
 62
     0
100
AcDbMText
 10
684.0
 20
59.99999999999964
 30
0.0
 40
6.0
 41
0.0
 71
     5
 72
     1
  1
\A1; 65 
 11
0.0000000000000001
 21
1.0
 31
0.0
 73
     1
 44
1.0
1001
ACAD
1000
MTEXTBEGIN
1070
    73
1070
     1
1070
    44
1040
1.0
1070
    74
1070
     0
1000
MTEXTEND
  0
POINT
  5
13FE0
330
13A67
100
AcDbEntity
  8
DEFPOINTS
  6
Continuous
 62
     0
100
AcDbPoint
 10
635.0
 20
27.49999999999953
 30
0.0
  0
POINT
  5
13FE1
330
13A67
100
AcDbEntity
  8
DEFPOINTS
  6
Continuous
 62
     0
100
AcDbPoint
 10
635.0
 20
92.49999999999955
 30
0.0
  0
POINT
  5
13FE2
330
13A67
100
AcDbEntity
  8
DEFPOINTS
  6
Continuous
 62
     0
100
AcDbPoint
 10
690.0
 20
92.49999999999952
 30
0.0
  0
ENDBLK
  5
13A73
330
13A67
100
AcDbEntity
  8
0
100
AcDbBlockEnd
  0
BLOCK
  5
13A8A
330
13A7F
100
AcDbEntity
  8
0
100
AcDbBlockBegin
  2
*D16
 70
     1
 10
0.0
 20
0.0
 30
0.0
  3
*D16
  1

  0
LINE
  5
13FE3
330
13A7F
100
AcDbEntity
  8
30
  6
Continuous
 62
     0
370
    -2
100
AcDbLine
 10
629.0000000000002
 20
45.0
 30
0.0
 11
660.5
 21
44.99999999999999
 31
0.0
  0
LINE
  5
13FE4
330
13A7F
100
AcDbEntity
  8
30
  6
Continuous
 62
     0
370
    -2
100
AcDbLine
 10
629.0000000000002
 20
75.0
 30
0.0
 11
660.5
 21
75.0
 31
0.0
  0
LINE
  5
13FE5
330
13A7F
100
AcDbEntity
  8
30
  6
Continuous
 62
     0
370
    -2
100
AcDbLine
 10
660.0
 20
46.99999999999999
 30
0.0
 11
660.0
 21
73.0
 31
0.0
  0
INSERT
  5
13FE6
330
13A7F
100
AcDbEntity
  8
30
  6
Continuous
 62
     0
370
    -2
100
AcDbBlockReference
  2
_OPEN
 10
660.0
 20
44.99999999999999
 30
0.0
 41
2.0
 42
2.0
 43
2.0
 50
270.0
  0
INSERT
  5
13FE7
330
13A7F
100
AcDbEntity
  8
30
  6
Continuous
 62
     0
370
    -2
100
AcDbBlockReference
  2
_OPEN
 10
660.0
 20
75.0
 30
0.0
 41
2.0
 42
2.0
 43
2.0
 50
90.0
  0
MTEXT
  5
13FE8
330
13A7F
100
AcDbEntity
  8
30
  6
Continuous
 62
     0
100
AcDbMText
 10
654.0
 20
60.0000000000001
 30
0.0
 40
6.0
 41
0.0
 71
     5
 72
     1
  1
\A1; 30 
 11
0.0000000000000001
 21
1.0
 31
0.0
 73
     1
 44
1.0
1001
ACAD
1000
MTEXTBEGIN
1070
    73
1070
     1
1070
    44
1040
1.0
1070
    74
1070
     0
1000
MTEXTEND
  0
POINT
  5
13FE9
330
13A7F
100
AcDbEntity
  8
DEFPOINTS
  6
Continuous
 62
     0
100
AcDbPoint
 10
626.0000000000002
 20
45.0
 30
0.0
  0
POINT
  5
13FEA
330
13A7F
100
AcDbEntity
  8
DEFPOINTS
  6
Continuous
 62
     0
100
AcDbPoint
 10
626.0000000000002
 20
75.0
 30
0.0
  0
POINT
  5
13FEB
330
13A7F
100
AcDbEntity
  8
DEFPOINTS
  6
Continuous
 62
     0
100
AcDbPoint
 10
660.0
 20
75.0
 30
0.0
  0
ENDBLK
  5
13A8B
330
13A7F
100
AcDbEntity
  8
0
100
AcDbBlockEnd
  0
BLOCK
  5
13A96
330
13A8C
100
AcDbEntity
  8
0
100
AcDbBlockBegin
  2
*D17
 70
     1
 10
0.0
 20
0.0
 30
0.0
  3
*D17
  1

  0
LINE
  5
13EF6
330
13A8C
100
AcDbEntity
  8
30
  6
Continuous
 62
     0
370
    -2
100
AcDbLine
 10
500.0
 20
-172.9999999999999
 30
0.0
 11
500.0
 21
-350.4999999999998
 31
0.0
  0
LINE
  5
13EF7
330
13A8C
100
AcDbEntity
  8
30
  6
Continuous
 62
     0
370
    -2
100
AcDbLine
 10
630.0
 20
-140.5000000000003
 30
0.0
 11
630.0
 21
-350.4999999999998
 31
0.0
  0
LINE
  5
13EF8
330
13A8C
100
AcDbEntity
  8
30
  6
Continuous
 62
     0
370
    -2
100
AcDbLine
 10
502.0
 20
-350.0
 30
0.0
 11
628.0
 21
-350.0
 31
0.0
  0
INSERT
  5
13EF9
330
13A8C
100
AcDbEntity
  8
30
  6
Continuous
 62
     0
370
    -2
100
AcDbBlockReference
  2
_OPEN
 10
500.0
 20
-350.0
 30
0.0
 41
2.0
 42
2.0
 43
2.0
 50
180.0
  0
INSERT
  5
13EFA
330
13A8C
100
AcDbEntity
  8
30
  6
Continuous
 62
     0
370
    -2
100
AcDbBlockReference
  2
_OPEN
 10
630.0
 20
-350.0
 30
0.0
 41
2.0
 42
2.0
 43
2.0
  0
MTEXT
  5
13EFB
330
13A8C
100
AcDbEntity
  8
30
  6
Continuous
 62
     0
100
AcDbMText
 10
565.0
 20
-344.0
 30
0.0
 40
6.0
 41
0.0
 71
     5
 72
     1
  1
\A1; 130 
 73
     1
 44
1.0
1001
ACAD
1000
MTEXTBEGIN
1070
    73
1070
     1
1070
    44
1040
1.0
1070
    74
1070
     0
1000
MTEXTEND
  0
POINT
  5
13EFC
330
13A8C
100
AcDbEntity
  8
DEFPOINTS
  6
Continuous
 62
     0
100
AcDbPoint
 10
500.0
 20
-169.9999999999999
 30
0.0
  0
POINT
  5
13EFD
330
13A8C
100
AcDbEntity
  8
DEFPOINTS
  6
Continuous
 62
     0
100
AcDbPoint
 10
630.0
 20
-137.5000000000003
 30
0.0
  0
POINT
  5
13EFE
330
13A8C
100
AcDbEntity
  8
DEFPOINTS
  6
Continuous
 62
     0
100
AcDbPoint
 10
630.0
 20
-350.0
 30
0.0
  0
ENDBLK
  5
13A97
330
13A8C
100
AcDbEntity
  8
0
100
AcDbBlockEnd
  0
BLOCK
  5
13AA2
330
13A98
100
AcDbEntity
  8
0
100
AcDbBlockBegin
  2
*D18
 70
     1
 10
0.0
 20
0.0
 30
0.0
  3
*D18
  1

  0
LINE
  5
13FBF
330
13A98
100
AcDbEntity
  8
30
  6
Continuous
 62
     0
370
    -2
100
AcDbLine
 10
500.0
 20
-172.9999999999999
 30
0.0
 11
500.0
 21
-300.4999999999999
 31
0.0
  0
LINE
  5
13FC0
330
13A98
100
AcDbEntity
  8
30
  6
Continuous
 62
     0
370
    -2
100
AcDbLine
 10
615.0
 20
-123.0000000000003
 30
0.0
 11
615.0
 21
-300.4999999999999
 31
0.0
  0
LINE
  5
13FC1
330
13A98
100
AcDbEntity
  8
30
  6
Continuous
 62
     0
370
    -2
100
AcDbLine
 10
502.0
 20
-300.0
 30
0.0
 11
613.0
 21
-300.0
 31
0.0
  0
INSERT
  5
13FC2
330
13A98
100
AcDbEntity
  8
30
  6
Continuous
 62
     0
370
    -2
100
AcDbBlockReference
  2
_OPEN
 10
500.0
 20
-300.0
 30
0.0
 41
2.0
 42
2.0
 43
2.0
 50
180.0
  0
INSERT
  5
13FC3
330
13A98
100
AcDbEntity
  8
30
  6
Continuous
 62
     0
370
    -2
100
AcDbBlockReference
  2
_OPEN
 10
615.0
 20
-300.0
 30
0.0
 41
2.0
 42
2.0
 43
2.0
  0
MTEXT
  5
13FC4
330
13A98
100
AcDbEntity
  8
30
  6
Continuous
 62
     0
100
AcDbMText
 10
557.5
 20
-294.0
 30
0.0
 40
6.0
 41
0.0
 71
     5
 72
     1
  1
\A1; 115 
 73
     1
 44
1.0
1001
ACAD
1000
MTEXTBEGIN
1070
    73
1070
     1
1070
    44
1040
1.0
1070
    74
1070
     0
1000
MTEXTEND
  0
POINT
  5
13FC5
330
13A98
100
AcDbEntity
  8
DEFPOINTS
  6
Continuous
 62
     0
100
AcDbPoint
 10
500.0
 20
-169.9999999999999
 30
0.0
  0
POINT
  5
13FC6
330
13A98
100
AcDbEntity
  8
DEFPOINTS
  6
Continuous
 62
     0
100
AcDbPoint
 10
615.0
 20
-120.0000000000003
 30
0.0
  0
POINT
  5
13FC7
330
13A98
100
AcDbEntity
  8
DEFPOINTS
  6
Continuous
 62
     0
100
AcDbPoint
 10
615.0
 20
-300.0
 30
0.0
  0
ENDBLK
  5
13AA3
330
13A98
100
AcDbEntity
  8
0
100
AcDbBlockEnd
  0
BLOCK
  5
13AAE
330
13AA4
100
AcDbEntity
  8
0
100
AcDbBlockBegin
  2
*D19
 70
     1
 10
0.0
 20
0.0
 30
0.0
  3
*D19
  1

  0
LINE
  5
13FC8
330
13AA4
100
AcDbEntity
  8
30
  6
Continuous
 62
     0
370
    -2
100
AcDbLine
 10
500.0
 20
-172.9999999999999
 30
0.0
 11
500.0
 21
-250.4999999999999
 31
0.0
  0
LINE
  5
13FC9
330
13AA4
100
AcDbEntity
  8
30
  6
Continuous
 62
     0
370
    -2
100
AcDbLine
 10
585.0
 20
-140.5000000000003
 30
0.0
 11
585.0
 21
-250.4999999999999
 31
0.0
  0
LINE
  5
13FCA
330
13AA4
100
AcDbEntity
  8
30
  6
Continuous
 62
     0
370
    -2
100
AcDbLine
 10
502.0
 20
-250.0
 30
0.0
 11
583.0
 21
-250.0
 31
0.0
  0
INSERT
  5
13FCB
330
13AA4
100
AcDbEntity
  8
30
  6
Continuous
 62
     0
370
    -2
100
AcDbBlockReference
  2
_OPEN
 10
500.0
 20
-250.0
 30
0.0
 41
2.0
 42
2.0
 43
2.0
 50
180.0
  0
INSERT
  5
13FCC
330
13AA4
100
AcDbEntity
  8
30
  6
Continuous
 62
     0
370
    -2
100
AcDbBlockReference
  2
_OPEN
 10
585.0
 20
-250.0
 30
0.0
 41
2.0
 42
2.0
 43
2.0
  0
MTEXT
  5
13FCD
330
13AA4
100
AcDbEntity
  8
30
  6
Continuous
 62
     0
100
AcDbMText
 10
542.4999999999998
 20
-244.0
 30
0.0
 40
6.0
 41
0.0
 71
     5
 72
     1
  1
\A1; 85 
 73
     1
 44
1.0
1001
ACAD
1000
MTEXTBEGIN
1070
    73
1070
     1
1070
    44
1040
1.0
1070
    74
1070
     0
1000
MTEXTEND
  0
POINT
  5
13FCE
330
13AA4
100
AcDbEntity
  8
DEFPOINTS
  6
Continuous
 62
     0
100
AcDbPoint
 10
500.0
 20
-169.9999999999999
 30
0.0
  0
POINT
  5
13FCF
330
13AA4
100
AcDbEntity
  8
DEFPOINTS
  6
Continuous
 62
     0
100
AcDbPoint
 10
585.0
 20
-137.5000000000003
 30
0.0
  0
POINT
  5
13FD0
330
13AA4
100
AcDbEntity
  8
DEFPOINTS
  6
Continuous
 62
     0
100
AcDbPoint
 10
585.0
 20
-250.0
 30
0.0
  0
ENDBLK
  5
13AAF
330
13AA4
100
AcDbEntity
  8
0
100
AcDbBlockEnd
  0
BLOCK
  5
13ABA
330
13AB0
100
AcDbEntity
  8
0
100
AcDbBlockBegin
  2
*D20
 70
     1
 10
0.0
 20
0.0
 30
0.0
  3
*D20
  1

  0
LINE
  5
13F90
330
13AB0
100
AcDbEntity
  8
30
  6
Continuous
 62
     0
370
    -2
100
AcDbLine
 10
570.0
 20
-123.0000000000003
 30
0.0
 11
570.0
 21
-210.4999999999999
 31
0.0
  0
LINE
  5
13F91
330
13AB0
100
AcDbEntity
  8
30
  6
Continuous
 62
     0
370
    -2
100
AcDbLine
 10
585.0
 20
-140.5000000000003
 30
0.0
 11
585.0
 21
-210.4999999999999
 31
0.0
  0
LINE
  5
13F92
330
13AB0
100
AcDbEntity
  8
30
  6
Continuous
 62
     0
370
    -2
100
AcDbLine
 10
572.0
 20
-210.0
 30
0.0
 11
583.0
 21
-210.0
 31
0.0
  0
LINE
  5
13F93
330
13AB0
100
AcDbEntity
  8
30
  6
Continuous
 62
     0
370
    -2
100
AcDbLine
 10
585.0
 20
-210.0
 30
0.0
 11
604.6
 21
-210.0
 31
0.0
  0
INSERT
  5
13F94
330
13AB0
100
AcDbEntity
  8
30
  6
Continuous
 62
     0
370
    -2
100
AcDbBlockReference
  2
_OPEN
 10
570.0
 20
-210.0
 30
0.0
 41
2.0
 42
2.0
 43
2.0
 50
180.0
  0
INSERT
  5
13F95
330
13AB0
100
AcDbEntity
  8
30
  6
Continuous
 62
     0
370
    -2
100
AcDbBlockReference
  2
_OPEN
 10
585.0
 20
-210.0
 30
0.0
 41
2.0
 42
2.0
 43
2.0
  0
MTEXT
  5
13F96
330
13AB0
100
AcDbEntity
  8
30
  6
Continuous
 62
     0
100
AcDbMText
 10
595.7999999999997
 20
-204.0
 30
0.0
 40
6.0
 41
0.0
 71
     5
 72
     1
  1
\A1; 15 
 73
     1
 44
1.0
1001
ACAD
1000
MTEXTBEGIN
1070
    73
1070
     1
1070
    44
1040
1.0
1070
    74
1070
     0
1000
MTEXTEND
  0
POINT
  5
13F97
330
13AB0
100
AcDbEntity
  8
DEFPOINTS
  6
Continuous
 62
     0
100
AcDbPoint
 10
570.0
 20
-120.0000000000003
 30
0.0
  0
POINT
  5
13F98
330
13AB0
100
AcDbEntity
  8
DEFPOINTS
  6
Continuous
 62
     0
100
AcDbPoint
 10
585.0
 20
-137.5000000000003
 30
0.0
  0
POINT
  5
13F99
330
13AB0
100
AcDbEntity
  8
DEFPOINTS
  6
Continuous
 62
     0
100
AcDbPoint
 10
585.0
 20
-210.0
 30
0.0
  0
ENDBLK
  5
13ABB
330
13AB0
100
AcDbEntity
  8
0
100
AcDbBlockEnd
  0
BLOCK
  5
13AC6
330
13ABC
100
AcDbEntity
  8
0
100
AcDbBlockBegin
  2
*D21
 70
     1
 10
0.0
 20
0.0
 30
0.0
  3
*D21
  1

  0
LINE
  5
13F87
330
13ABC
100
AcDbEntity
  8
30
  6
Continuous
 62
     0
370
    -2
100
AcDbLine
 10
500.0
 20
-172.9999999999999
 30
0.0
 11
500.0
 21
-210.4999999999999
 31
0.0
  0
LINE
  5
13F88
330
13ABC
100
AcDbEntity
  8
30
  6
Continuous
 62
     0
370
    -2
100
AcDbLine
 10
570.0
 20
-123.0000000000003
 30
0.0
 11
570.0
 21
-210.4999999999999
 31
0.0
  0
LINE
  5
13F89
330
13ABC
100
AcDbEntity
  8
30
  6
Continuous
 62
     0
370
    -2
100
AcDbLine
 10
502.0
 20
-210.0
 30
0.0
 11
568.0
 21
-210.0
 31
0.0
  0
INSERT
  5
13F8A
330
13ABC
100
AcDbEntity
  8
30
  6
Continuous
 62
     0
370
    -2
100
AcDbBlockReference
  2
_OPEN
 10
500.0
 20
-210.0
 30
0.0
 41
2.0
 42
2.0
 43
2.0
 50
180.0
  0
INSERT
  5
13F8B
330
13ABC
100
AcDbEntity
  8
30
  6
Continuous
 62
     0
370
    -2
100
AcDbBlockReference
  2
_OPEN
 10
570.0
 20
-210.0
 30
0.0
 41
2.0
 42
2.0
 43
2.0
  0
MTEXT
  5
13F8C
330
13ABC
100
AcDbEntity
  8
30
  6
Continuous
 62
     0
100
AcDbMText
 10
535.0
 20
-204.0
 30
0.0
 40
6.0
 41
0.0
 71
     5
 72
     1
  1
\A1; 70 
 73
     1
 44
1.0
1001
ACAD
1000
MTEXTBEGIN
1070
    73
1070
     1
1070
    44
1040
1.0
1070
    74
1070
     0
1000
MTEXTEND
  0
POINT
  5
13F8D
330
13ABC
100
AcDbEntity
  8
DEFPOINTS
  6
Continuous
 62
     0
100
AcDbPoint
 10
500.0
 20
-169.9999999999999
 30
0.0
  0
POINT
  5
13F8E
330
13ABC
100
AcDbEntity
  8
DEFPOINTS
  6
Continuous
 62
     0
100
AcDbPoint
 10
570.0
 20
-120.0000000000003
 30
0.0
  0
POINT
  5
13F8F
330
13ABC
100
AcDbEntity
  8
DEFPOINTS
  6
Continuous
 62
     0
100
AcDbPoint
 10
570.0
 20
-210.0
 30
0.0
  0
ENDBLK
  5
13AC7
330
13ABC
100
AcDbEntity
  8
0
100
AcDbBlockEnd
  0
BLOCK
  5
13AD2
330
13AC8
100
AcDbEntity
  8
0
100
AcDbBlockBegin
  2
*D22
 70
     1
 10
0.0
 20
0.0
 30
0.0
  3
*D22
  1

  0
LINE
  5
13EFF
330
13AC8
100
AcDbEntity
  8
30
  6
Continuous
 62
     0
370
    -2
100
AcDbLine
 10
615.0
 20
-123.0000000000003
 30
0.0
 11
615.0
 21
-300.4999999999999
 31
0.0
  0
LINE
  5
13F00
330
13AC8
100
AcDbEntity
  8
30
  6
Continuous
 62
     0
370
    -2
100
AcDbLine
 10
630.0
 20
-140.5000000000003
 30
0.0
 11
630.0
 21
-300.4999999999999
 31
0.0
  0
LINE
  5
13F01
330
13AC8
100
AcDbEntity
  8
30
  6
Continuous
 62
     0
370
    -2
100
AcDbLine
 10
617.0
 20
-300.0
 30
0.0
 11
628.0
 21
-300.0
 31
0.0
  0
LINE
  5
13F02
330
13AC8
100
AcDbEntity
  8
30
  6
Continuous
 62
     0
370
    -2
100
AcDbLine
 10
630.0
 20
-300.0
 30
0.0
 11
649.6
 21
-300.0
 31
0.0
  0
INSERT
  5
13F03
330
13AC8
100
AcDbEntity
  8
30
  6
Continuous
 62
     0
370
    -2
100
AcDbBlockReference
  2
_OPEN
 10
615.0
 20
-300.0
 30
0.0
 41
2.0
 42
2.0
 43
2.0
 50
180.0
  0
INSERT
  5
13F04
330
13AC8
100
AcDbEntity
  8
30
  6
Continuous
 62
     0
370
    -2
100
AcDbBlockReference
  2
_OPEN
 10
630.0
 20
-300.0
 30
0.0
 41
2.0
 42
2.0
 43
2.0
  0
MTEXT
  5
13F05
330
13AC8
100
AcDbEntity
  8
30
  6
Continuous
 62
     0
100
AcDbMText
 10
640.7999999999997
 20
-294.0
 30
0.0
 40
6.0
 41
0.0
 71
     5
 72
     1
  1
\A1; 15 
 73
     1
 44
1.0
1001
ACAD
1000
MTEXTBEGIN
1070
    73
1070
     1
1070
    44
1040
1.0
1070
    74
1070
     0
1000
MTEXTEND
  0
POINT
  5
13F06
330
13AC8
100
AcDbEntity
  8
DEFPOINTS
  6
Continuous
 62
     0
100
AcDbPoint
 10
615.0
 20
-120.0000000000003
 30
0.0
  0
POINT
  5
13F07
330
13AC8
100
AcDbEntity
  8
DEFPOINTS
  6
Continuous
 62
     0
100
AcDbPoint
 10
630.0
 20
-137.5000000000003
 30
0.0
  0
POINT
  5
13F08
330
13AC8
100
AcDbEntity
  8
DEFPOINTS
  6
Continuous
 62
     0
100
AcDbPoint
 10
630.0
 20
-300.0
 30
0.0
  0
ENDBLK
  5
13AD3
330
13AC8
100
AcDbEntity
  8
0
100
AcDbBlockEnd
  0
BLOCK
  5
13ADE
330
13AD4
100
AcDbEntity
  8
0
100
AcDbBlockBegin
  2
*D23
 70
     1
 10
0.0
 20
0.0
 30
0.0
  3
*D23
  1

  0
LINE
  5
13F63
330
13AD4
100
AcDbEntity
  8
30
  6
Continuous
 62
     0
370
    -2
100
AcDbLine
 10
229.0
 20
-5.799999999999727
 30
0.0
 11
228.9999999999999
 21
-350.4999999999998
 31
0.0
  0
LINE
  5
13F64
330
13AD4
100
AcDbEntity
  8
30
  6
Continuous
 62
     0
370
    -2
100
AcDbLine
 10
309.0
 20
-5.799999999999727
 30
0.0
 11
309.0
 21
-350.4999999999998
 31
0.0
  0
LINE
  5
13F65
330
13AD4
100
AcDbEntity
  8
30
  6
Continuous
 62
     0
370
    -2
100
AcDbLine
 10
230.9999999999999
 20
-350.0
 30
0.0
 11
307.0
 21
-350.0
 31
0.0
  0
INSERT
  5
13F66
330
13AD4
100
AcDbEntity
  8
30
  6
Continuous
 62
     0
370
    -2
100
AcDbBlockReference
  2
_OPEN
 10
228.9999999999999
 20
-350.0
 30
0.0
 41
2.0
 42
2.0
 43
2.0
 50
180.0
  0
INSERT
  5
13F67
330
13AD4
100
AcDbEntity
  8
30
  6
Continuous
 62
     0
370
    -2
100
AcDbBlockReference
  2
_OPEN
 10
309.0
 20
-350.0
 30
0.0
 41
2.0
 42
2.0
 43
2.0
  0
MTEXT
  5
13F68
330
13AD4
100
AcDbEntity
  8
30
  6
Continuous
 62
     0
100
AcDbMText
 10
269.0
 20
-344.0
 30
0.0
 40
6.0
 41
0.0
 71
     5
 72
     1
  1
\A1; 80 
 73
     1
 44
1.0
1001
ACAD
1000
MTEXTBEGIN
1070
    73
1070
     1
1070
    44
1040
1.0
1070
    74
1070
     0
1000
MTEXTEND
  0
POINT
  5
13F69
330
13AD4
100
AcDbEntity
  8
DEFPOINTS
  6
Continuous
 62
     0
100
AcDbPoint
 10
229.0
 20
-2.799999999999727
 30
0.0
  0
POINT
  5
13F6A
330
13AD4
100
AcDbEntity
  8
DEFPOINTS
  6
Continuous
 62
     0
100
AcDbPoint
 10
309.0
 20
-2.799999999999727
 30
0.0
  0
POINT
  5
13F6B
330
13AD4
100
AcDbEntity
  8
DEFPOINTS
  6
Continuous
 62
     0
100
AcDbPoint
 10
309.0
 20
-350.0
 30
0.0
  0
ENDBLK
  5
13ADF
330
13AD4
100
AcDbEntity
  8
0
100
AcDbBlockEnd
  0
BLOCK
  5
13AEA
330
13AE0
100
AcDbEntity
  8
0
100
AcDbBlockBegin
  2
*D24
 70
     1
 10
0.0
 20
0.0
 30
0.0
  3
*D24
  1

  0
LINE
  5
13F9A
330
13AE0
100
AcDbEntity
  8
30
  6
Continuous
 62
     0
370
    -2
100
AcDbLine
 10
343.0
 20
1.500000000000454
 30
0.0
 11
343.0
 21
-300.4999999999999
 31
0.0
  0
LINE
  5
13F9B
330
13AE0
100
AcDbEntity
  8
30
  6
Continuous
 62
     0
370
    -2
100
AcDbLine
 10
353.0
 20
-55.50000000000046
 30
0.0
 11
353.0
 21
-300.4999999999999
 31
0.0
  0
LINE
  5
13F9C
330
13AE0
100
AcDbEntity
  8
30
  6
Continuous
 62
     0
370
    -2
100
AcDbLine
 10
351.0
 20
-300.0
 30
0.0
 11
345.0
 21
-300.0
 31
0.0
  0
LINE
  5
13F9D
330
13AE0
100
AcDbEntity
  8
30
  6
Continuous
 62
     0
370
    -2
100
AcDbLine
 10
343.0
 20
-300.0
 30
0.0
 11
324.3999999999997
 21
-300.0
 31
0.0
  0
INSERT
  5
13F9E
330
13AE0
100
AcDbEntity
  8
30
  6
Continuous
 62
     0
370
    -2
100
AcDbBlockReference
  2
_OPEN
 10
353.0
 20
-300.0
 30
0.0
 41
2.0
 42
2.0
 43
2.0
  0
INSERT
  5
13F9F
330
13AE0
100
AcDbEntity
  8
30
  6
Continuous
 62
     0
370
    -2
100
AcDbBlockReference
  2
_OPEN
 10
343.0
 20
-300.0
 30
0.0
 41
2.0
 42
2.0
 43
2.0
 50
180.0
  0
MTEXT
  5
13FA0
330
13AE0
100
AcDbEntity
  8
30
  6
Continuous
 62
     0
100
AcDbMText
 10
332.6999999999998
 20
-294.0
 30
0.0
 40
6.0
 41
0.0
 71
     5
 72
     1
  1
\A1; 10 
 73
     1
 44
1.0
1001
ACAD
1000
MTEXTBEGIN
1070
    73
1070
     1
1070
    44
1040
1.0
1070
    74
1070
     0
1000
MTEXTEND
  0
POINT
  5
13FA1
330
13AE0
100
AcDbEntity
  8
DEFPOINTS
  6
Continuous
 62
     0
100
AcDbPoint
 10
343.0
 20
4.500000000000452
 30
0.0
  0
POINT
  5
13FA2
330
13AE0
100
AcDbEntity
  8
DEFPOINTS
  6
Continuous
 62
     0
100
AcDbPoint
 10
353.0
 20
-52.50000000000046
 30
0.0
  0
POINT
  5
13FA3
330
13AE0
100
AcDbEntity
  8
DEFPOINTS
  6
Continuous
 62
     0
100
AcDbPoint
 10
353.0
 20
-300.0
 30
0.0
  0
ENDBLK
  5
13AEB
330
13AE0
100
AcDbEntity
  8
0
100
AcDbBlockEnd
  0
BLOCK
  5
13AF6
330
13AEC
100
AcDbEntity
  8
0
100
AcDbBlockBegin
  2
*D25
 70
     1
 10
0.0
 20
0.0
 30
0.0
  3
*D25
  1

  0
LINE
  5
13FA4
330
13AEC
100
AcDbEntity
  8
30
  6
Continuous
 62
     0
370
    -2
100
AcDbLine
 10
309.0
 20
-10.79999999999972
 30
0.0
 11
309.0
 21
-350.4999999999998
 31
0.0
  0
LINE
  5
13FA5
330
13AEC
100
AcDbEntity
  8
30
  6
Continuous
 62
     0
370
    -2
100
AcDbLine
 10
500.0
 20
-172.9999999999999
 30
0.0
 11
500.0
 21
-350.4999999999998
 31
0.0
  0
LINE
  5
13FA6
330
13AEC
100
AcDbEntity
  8
30
  6
Continuous
 62
     0
370
    -2
100
AcDbLine
 10
311.0
 20
-350.0
 30
0.0
 11
498.0
 21
-350.0
 31
0.0
  0
INSERT
  5
13FA7
330
13AEC
100
AcDbEntity
  8
30
  6
Continuous
 62
     0
370
    -2
100
AcDbBlockReference
  2
_OPEN
 10
309.0
 20
-350.0
 30
0.0
 41
2.0
 42
2.0
 43
2.0
 50
180.0
  0
INSERT
  5
13FA8
330
13AEC
100
AcDbEntity
  8
30
  6
Continuous
 62
     0
370
    -2
100
AcDbBlockReference
  2
_OPEN
 10
500.0
 20
-350.0
 30
0.0
 41
2.0
 42
2.0
 43
2.0
  0
MTEXT
  5
13FA9
330
13AEC
100
AcDbEntity
  8
30
  6
Continuous
 62
     0
100
AcDbMText
 10
404.4999999999998
 20
-344.0
 30
0.0
 40
6.0
 41
0.0
 71
     5
 72
     1
  1
\A1; 191 
 73
     1
 44
1.0
1001
ACAD
1000
MTEXTBEGIN
1070
    73
1070
     1
1070
    44
1040
1.0
1070
    74
1070
     0
1000
MTEXTEND
  0
POINT
  5
13FAA
330
13AEC
100
AcDbEntity
  8
DEFPOINTS
  6
Continuous
 62
     0
100
AcDbPoint
 10
309.0
 20
-7.799999999999727
 30
0.0
  0
POINT
  5
13FAB
330
13AEC
100
AcDbEntity
  8
DEFPOINTS
  6
Continuous
 62
     0
100
AcDbPoint
 10
500.0
 20
-169.9999999999999
 30
0.0
  0
POINT
  5
13FAC
330
13AEC
100
AcDbEntity
  8
DEFPOINTS
  6
Continuous
 62
     0
100
AcDbPoint
 10
500.0
 20
-350.0
 30
0.0
  0
ENDBLK
  5
13AF7
330
13AEC
100
AcDbEntity
  8
0
100
AcDbBlockEnd
  0
BLOCK
  5
13B02
330
13AF8
100
AcDbEntity
  8
0
100
AcDbBlockBegin
  2
*D26
 70
     1
 10
0.0
 20
0.0
 30
0.0
  3
*D26
  1

  0
LINE
  5
13FAD
330
13AF8
100
AcDbEntity
  8
30
  6
Continuous
 62
     0
370
    -2
100
AcDbLine
 10
353.0
 20
-55.50000000000046
 30
0.0
 11
353.0
 21
-300.4999999999999
 31
0.0
  0
LINE
  5
13FAE
330
13AF8
100
AcDbEntity
  8
30
  6
Continuous
 62
     0
370
    -2
100
AcDbLine
 10
500.0
 20
-172.9999999999999
 30
0.0
 11
500.0
 21
-300.4999999999999
 31
0.0
  0
LINE
  5
13FAF
330
13AF8
100
AcDbEntity
  8
30
  6
Continuous
 62
     0
370
    -2
100
AcDbLine
 10
355.0
 20
-300.0
 30
0.0
 11
498.0
 21
-300.0
 31
0.0
  0
INSERT
  5
13FB0
330
13AF8
100
AcDbEntity
  8
30
  6
Continuous
 62
     0
370
    -2
100
AcDbBlockReference
  2
_OPEN
 10
353.0
 20
-300.0
 30
0.0
 41
2.0
 42
2.0
 43
2.0
 50
180.0
  0
INSERT
  5
13FB1
330
13AF8
100
AcDbEntity
  8
30
  6
Continuous
 62
     0
370
    -2
100
AcDbBlockReference
  2
_OPEN
 10
500.0
 20
-300.0
 30
0.0
 41
2.0
 42
2.0
 43
2.0
  0
MTEXT
  5
13FB2
330
13AF8
100
AcDbEntity
  8
30
  6
Continuous
 62
     0
100
AcDbMText
 10
426.4999999999998
 20
-294.0
 30
0.0
 40
6.0
 41
0.0
 71
     5
 72
     1
  1
\A1; 147 
 73
     1
 44
1.0
1001
ACAD
1000
MTEXTBEGIN
1070
    73
1070
     1
1070
    44
1040
1.0
1070
    74
1070
     0
1000
MTEXTEND
  0
POINT
  5
13FB3
330
13AF8
100
AcDbEntity
  8
DEFPOINTS
  6
Continuous
 62
     0
100
AcDbPoint
 10
353.0
 20
-52.50000000000046
 30
0.0
  0
POINT
  5
13FB4
330
13AF8
100
AcDbEntity
  8
DEFPOINTS
  6
Continuous
 62
     0
100
AcDbPoint
 10
500.0
 20
-169.9999999999999
 30
0.0
  0
POINT
  5
13FB5
330
13AF8
100
AcDbEntity
  8
DEFPOINTS
  6
Continuous
 62
     0
100
AcDbPoint
 10
500.0
 20
-300.0
 30
0.0
  0
ENDBLK
  5
13B03
330
13AF8
100
AcDbEntity
  8
0
100
AcDbBlockEnd
  0
BLOCK
  5
13B0E
330
13B04
100
AcDbEntity
  8
0
100
AcDbBlockBegin
  2
*D27
 70
     1
 10
0.0
 20
0.0
 30
0.0
  3
*D27
  1

  0
LINE
  5
13FB6
330
13B04
100
AcDbEntity
  8
30
  6
Continuous
 62
     0
370
    -2
100
AcDbLine
 10
360.0
 20
-148.0000000000003
 30
0.0
 11
360.0
 21
-250.4999999999999
 31
0.0
  0
LINE
  5
13FB7
330
13B04
100
AcDbEntity
  8
30
  6
Continuous
 62
     0
370
    -2
100
AcDbLine
 10
500.0
 20
-172.9999999999999
 30
0.0
 11
500.0
 21
-250.4999999999999
 31
0.0
  0
LINE
  5
13FB8
330
13B04
100
AcDbEntity
  8
30
  6
Continuous
 62
     0
370
    -2
100
AcDbLine
 10
362.0
 20
-250.0
 30
0.0
 11
498.0
 21
-250.0
 31
0.0
  0
INSERT
  5
13FB9
330
13B04
100
AcDbEntity
  8
30
  6
Continuous
 62
     0
370
    -2
100
AcDbBlockReference
  2
_OPEN
 10
360.0
 20
-250.0
 30
0.0
 41
2.0
 42
2.0
 43
2.0
 50
180.0
  0
INSERT
  5
13FBA
330
13B04
100
AcDbEntity
  8
30
  6
Continuous
 62
     0
370
    -2
100
AcDbBlockReference
  2
_OPEN
 10
500.0
 20
-250.0
 30
0.0
 41
2.0
 42
2.0
 43
2.0
  0
MTEXT
  5
13FBB
330
13B04
100
AcDbEntity
  8
30
  6
Continuous
 62
     0
100
AcDbMText
 10
430.0
 20
-244.0
 30
0.0
 40
6.0
 41
0.0
 71
     5
 72
     1
  1
\A1; 140 
 73
     1
 44
1.0
1001
ACAD
1000
MTEXTBEGIN
1070
    73
1070
     1
1070
    44
1040
1.0
1070
    74
1070
     0
1000
MTEXTEND
  0
POINT
  5
13FBC
330
13B04
100
AcDbEntity
  8
DEFPOINTS
  6
Continuous
 62
     0
100
AcDbPoint
 10
360.0
 20
-145.0000000000003
 30
0.0
  0
POINT
  5
13FBD
330
13B04
100
AcDbEntity
  8
DEFPOINTS
  6
Continuous
 62
     0
100
AcDbPoint
 10
500.0
 20
-169.9999999999999
 30
0.0
  0
POINT
  5
13FBE
330
13B04
100
AcDbEntity
  8
DEFPOINTS
  6
Continuous
 62
     0
100
AcDbPoint
 10
500.0
 20
-250.0
 30
0.0
  0
ENDBLK
  5
13B0F
330
13B04
100
AcDbEntity
  8
0
100
AcDbBlockEnd
  0
BLOCK
  5
1415F
330
14155
100
AcDbEntity
  8
0
100
AcDbBlockBegin
  2
*D28
 70
     1
 10
0.0
 20
0.0
 30
0.0
  3
*D28
  1

  0
LINE
  5
1416C
330
14155
100
AcDbEntity
  8
30
  6
Continuous
 62
     0
370
    -2
100
AcDbLine
 10
309.5
 20
-654.0
 30
0.0
 11
309.5
 21
-792.595875
 31
0.0
  0
LINE
  5
1416D
330
14155
100
AcDbEntity
  8
30
  6
Continuous
 62
     0
370
    -2
100
AcDbLine
 10
390.4999999999997
 20
-654.0
 30
0.0
 11
390.4999999999997
 21
-792.595875
 31
0.0
  0
LINE
  5
1416E
330
14155
100
AcDbEntity
  8
30
  6
Continuous
 62
     0
370
    -2
100
AcDbLine
 10
311.5
 20
-792.0958749999997
 30
0.0
 11
388.4999999999998
 21
-792.0958749999997
 31
0.0
  0
INSERT
  5
1416F
330
14155
100
AcDbEntity
  8
30
  6
Continuous
 62
     0
370
    -2
100
AcDbBlockReference
  2
_OPEN
 10
309.5
 20
-792.0958749999997
 30
0.0
 41
2.0
 42
2.0
 43
2.0
 50
180.0
  0
INSERT
  5
14170
330
14155
100
AcDbEntity
  8
30
  6
Continuous
 62
     0
370
    -2
100
AcDbBlockReference
  2
_OPEN
 10
390.4999999999997
 20
-792.0958749999997
 30
0.0
 41
2.0
 42
2.0
 43
2.0
  0
MTEXT
  5
14171
330
14155
100
AcDbEntity
  8
30
  6
Continuous
 62
     0
100
AcDbMText
 10
349.9999999999998
 20
-786.0958749999999
 30
0.0
 40
6.0
 41
0.0
 71
     5
 72
     1
  1
\A1; 81 
 73
     1
 44
1.0
1001
ACAD
1000
MTEXTBEGIN
1070
    73
1070
     1
1070
    44
1040
1.0
1070
    74
1070
     0
1000
MTEXTEND
  0
POINT
  5
14172
330
14155
100
AcDbEntity
  8
DEFPOINTS
  6
Continuous
 62
     0
100
AcDbPoint
 10
309.5
 20
-651.0
 30
0.0
  0
POINT
  5
14173
330
14155
100
AcDbEntity
  8
DEFPOINTS
  6
Continuous
 62
     0
100
AcDbPoint
 10
390.4999999999997
 20
-651.0
 30
0.0
  0
POINT
  5
14174
330
14155
100
AcDbEntity
  8
DEFPOINTS
  6
Continuous
 62
     0
100
AcDbPoint
 10
390.4999999999997
 20
-792.0958749999997
 30
0.0
  0
ENDBLK
  5
14160
330
14155
100
AcDbEntity
  8
0
100
AcDbBlockEnd
  0
BLOCK
  5
1416A
330
14161
100
AcDbEntity
  8
0
100
AcDbBlockBegin
  2
*D29
 70
     1
 10
0.0
 20
0.0
 30
0.0
  3
*D29
  1

  0
LINE
  5
14175
330
14161
100
AcDbEntity
  8
30
  6
Continuous
 62
     0
370
    -2
100
AcDbLine
 10
311.5899257061641
 20
-549.0835210994344
 30
0.0
 11
310.0868486915061
 21
-540.9634736719372
 31
0.0
  0
LINE
  5
14176
330
14161
100
AcDbEntity
  8
30
  6
Continuous
 62
     0
370
    -2
100
AcDbLine
 10
310.0868486915061
 20
-540.9634736719372
 30
0.0
 11
323.0868486915062
 21
-540.9634736719373
 31
0.0
  0
INSERT
  5
14177
330
14161
100
AcDbEntity
  8
30
  6
Continuous
 62
     0
370
    -2
100
AcDbBlockReference
  2
_OPEN
 10
311.9539554236983
 20
-551.0501126596603
 30
0.0
 41
2.0
 42
2.0
 43
2.0
 50
280.4871416769974
  0
MTEXT
  5
14178
330
14161
100
AcDbEntity
  8
30
  6
Continuous
 62
     0
100
AcDbMText
 10
318.0868486915063
 20
-534.9634736719373
 30
0.0
 40
6.0
 41
0.0
 71
     5
 72
     1
  1
\A1;R3
 73
     1
 44
1.0
1001
ACAD
1000
MTEXTBEGIN
1070
    73
1070
     1
1070
    44
1040
1.0
1070
    74
1070
     0
1000
MTEXTEND
  0
LINE
  5
14179
330
14161
100
AcDbEntity
  8
30
  6
Continuous
 62
     0
370
    -2
100
AcDbLine
 10
312.4099999999996
 20
-553.9999999999992
 30
0.0
 11
312.5899999999997
 21
-553.9999999999992
 31
0.0
  0
LINE
  5
1417A
330
14161
100
AcDbEntity
  8
30
  6
Continuous
 62
     0
370
    -2
100
AcDbLine
 10
312.4999999999996
 20
-554.0899999999991
 30
0.0
 11
312.4999999999997
 21
-553.909999999999
 31
0.0
  0
POINT
  5
1417B
330
14161
100
AcDbEntity
  8
DEFPOINTS
  6
Continuous
 62
     0
100
AcDbPoint
 10
311.9539554236983
 20
-551.0501126596603
 30
0.0
  0
POINT
  5
1417C
330
14161
100
AcDbEntity
  8
DEFPOINTS
  6
Continuous
 62
     0
100
AcDbPoint
 10
312.4999999999996
 20
-553.9999999999992
 30
0.0
  0
ENDBLK
  5
1416B
330
14161
100
AcDbEntity
  8
0
100
AcDbBlockEnd
  0
BLOCK
  5
14187
330
1417E
100
AcDbEntity
  8
0
100
AcDbBlockBegin
  2
*D30
 70
     1
 10
0.0
 20
0.0
 30
0.0
  3
*D30
  1

  0
LINE
  5
14189
330
1417E
100
AcDbEntity
  8
30
  6
Continuous
 62
     0
370
    -2
100
AcDbLine
 10
255.4999257061643
 20
-549.0835210994338
 30
0.0
 11
253.9968486915065
 21
-540.9634736719373
 31
0.0
  0
LINE
  5
1418A
330
1417E
100
AcDbEntity
  8
30
  6
Continuous
 62
     0
370
    -2
100
AcDbLine
 10
253.9968486915065
 20
-540.9634736719373
 30
0.0
 11
266.9968486915065
 21
-540.9634736719372
 31
0.0
  0
INSERT
  5
1418B
330
1417E
100
AcDbEntity
  8
30
  6
Continuous
 62
     0
370
    -2
100
AcDbBlockReference
  2
_OPEN
 10
255.8639554236985
 20
-551.0501126596598
 30
0.0
 41
2.0
 42
2.0
 43
2.0
 50
280.4871416769971
  0
MTEXT
  5
1418C
330
1417E
100
AcDbEntity
  8
30
  6
Continuous
 62
     0
100
AcDbMText
 10
261.9968486915065
 20
-534.9634736719373
 30
0.0
 40
6.0
 41
0.0
 71
     5
 72
     1
  1
\A1;R3
 73
     1
 44
1.0
1001
ACAD
1000
MTEXTBEGIN
1070
    73
1070
     1
1070
    44
1040
1.0
1070
    74
1070
     0
1000
MTEXTEND
  0
LINE
  5
1418D
330
1417E
100
AcDbEntity
  8
30
  6
Continuous
 62
     0
370
    -2
100
AcDbLine
 10
256.3199999999997
 20
-553.9999999999992
 30
0.0
 11
256.4999999999997
 21
-553.999999999999
 31
0.0
  0
LINE
  5
1418E
330
1417E
100
AcDbEntity
  8
30
  6
Continuous
 62
     0
370
    -2
100
AcDbLine
 10
256.4099999999995
 20
-554.0899999999989
 30
0.0
 11
256.4099999999995
 21
-553.9099999999988
 31
0.0
  0
POINT
  5
1418F
330
1417E
100
AcDbEntity
  8
DEFPOINTS
  6
Continuous
 62
     0
100
AcDbPoint
 10
255.8639554236985
 20
-551.0501126596598
 30
0.0
  0
POINT
  5
14190
330
1417E
100
AcDbEntity
  8
DEFPOINTS
  6
Continuous
 62
     0
100
AcDbPoint
 10
256.4099999999998
 20
-553.999999999999
 30
0.0
  0
ENDBLK
  5
14188
330
1417E
100
AcDbEntity
  8
0
100
AcDbBlockEnd
  0
ENDSEC
  0
SECTION
  2
ENTITIES
  0
MTEXT
  5
BF3
330
1E
100
AcDbEntity
  8
24
  6
Continuous
100
AcDbMText
 10
-860.8818093901257
 20
177.5
 30
0.0
 40
3.0
 41
0.0
 71
     1
 72
     1
  1
\A1;
 73
     1
 44
1.0
1001
ACAD
1000
MTEXTBEGIN
1070
    73
1070
     1
1070
    44
1040
1.0
1070
    74
1070
     0
1000
MTEXTEND
  0
DIMENSION
  5
10DD3
330
1E
100
AcDbEntity
  8
30
  6
Continuous
100
AcDbDimension
  2
*D1
 10
38.99999999999954
 20
-100.0
 30
0.0
 11
-0.000000000000227
 21
-94.0
 31
0.0
 70
    32
  1
 <> 
 71
     5
 42
77.99999999999954
  3
STANDARD1
100
AcDbAlignedDimension
 13
-39.0
 23
-47.5
 33
0.0
 14
38.99999999999954
 24
-47.5
 34
0.0
100
AcDbRotatedDimension
  0
CIRCLE
  5
10DE5
330
1E
100
AcDbEntity
  8
12
  6
DASHED
100
AcDbCircle
 10
-34.80000000000018
 20
-155.0
 30
0.0
 40
8.5
  0
LINE
  5
10DE6
330
1E
100
AcDbEntity
  8
12
  6
DASHED
100
AcDbLine
 10
-34.80000000000018
 20
-143.75
 30
0.0
 11
-34.80000000000018
 21
-166.25
 31
0.0
  0
CIRCLE
  5
10DF8
330
1E
100
AcDbEntity
  8
12
  6
DASHED
100
AcDbCircle
 10
35.19999999999981
 20
-155.0
 30
0.0
 40
8.5
  0
LINE
  5
10DF9
330
1E
100
AcDbEntity
  8
12
  6
DASHED
100
AcDbLine
 10
35.19999999999981
 20
-143.75
 30
0.0
 11
35.19999999999981
 21
-166.25
 31
0.0
  0
DIMENSION
  5
10E01
330
1E
100
AcDbEntity
  8
30
  6
Continuous
100
AcDbDimension
  2
*D2
 10
95.0
 20
90.0
 30
0.0
 11
0.0000000000000004
 21
96.0
 31
0.0
 70
    32
  1
 <> 
 71
     5
 42
190.0
  3
STANDARD1
100
AcDbAlignedDimension
 13
-95.0
 23
51.5000000000009
 33
0.0
 14
95.0
 24
51.5000000000009
 34
0.0
100
AcDbRotatedDimension
  0
LINE
  5
10E02
330
1E
100
AcDbEntity
  8
10
  6
Continuous
100
AcDbLine
 10
105.0
 20
170.0
 30
0.0
 11
-105.0
 21
170.0
 31
0.0
  0
LINE
  5
10E04
330
1E
100
AcDbEntity
  8
16
100
AcDbLine
 10
115.0
 20
0.0
 30
0.0
 11
-115.0
 21
0.0
 31
0.0
  0
CIRCLE
  5
10E14
330
1E
100
AcDbEntity
  8
12
  6
DASHED
100
AcDbCircle
 10
-34.80000000000018
 20
185.0
 30
0.0
 40
8.5
  0
LINE
  5
10E15
330
1E
100
AcDbEntity
  8
12
  6
DASHED
100
AcDbLine
 10
-46.05000000000018
 20
185.0
 30
0.0
 11
-23.55000000000018
 21
185.0
 31
0.0
  0
LINE
  5
10E16
330
1E
100
AcDbEntity
  8
12
  6
DASHED
100
AcDbLine
 10
-34.80000000000018
 20
196.25
 30
0.0
 11
-34.80000000000018
 21
173.75
 31
0.0
  0
CIRCLE
  5
10E2D
330
1E
100
AcDbEntity
  8
10
  6
Continuous
100
AcDbCircle
 10
31.19999999999981
 20
-70.49999999999954
 30
0.0
 40
3.299999999999998
  0
CIRCLE
  5
10E36
330
1E
100
AcDbEntity
  8
12
  6
DASHED
100
AcDbCircle
 10
35.19999999999981
 20
185.0
 30
0.0
 40
8.5
  0
LINE
  5
10E37
330
1E
100
AcDbEntity
  8
12
  6
DASHED
100
AcDbLine
 10
23.94999999999981
 20
185.0
 30
0.0
 11
46.4499999999998
 21
185.0
 31
0.0
  0
LINE
  5
10E38
330
1E
100
AcDbEntity
  8
12
  6
DASHED
100
AcDbLine
 10
35.19999999999981
 20
196.25
 30
0.0
 11
35.19999999999981
 21
173.75
 31
0.0
  0
LINE
  5
10E4A
330
1E
100
AcDbEntity
  8
16
100
AcDbLine
 10
510.0
 20
0.0000000000000568
 30
0.0
 11
292.1000000000002
 21
0.0000000000000568
 31
0.0
  0
DIMENSION
  5
10E4B
330
1E
100
AcDbEntity
  8
30
  6
Continuous
100
AcDbDimension
  2
*D3
 10
280.0
 20
169.999999999999
 30
0.0
 11
273.9999999999999
 21
84.9999999999992
 31
0.0
 70
    32
  1
 <> 
 71
     0
 72
     0
 41
0.0
 42
170.0
  3
STANDARD1
100
AcDbAlignedDimension
 13
287.1000000000008
 23
-0.0000000000008527
 33
0.0
 14
355.0000000000004
 24
169.999999999999
 34
0.0
 50
90.0
100
AcDbRotatedDimension
  0
DIMENSION
  5
10E4C
330
1E
100
AcDbEntity
  8
30
  6
Continuous
100
AcDbDimension
  2
*D4
 10
280.0
 20
-0.0000000000008492
 30
0.0
 11
274.0
 21
-70.00000000000079
 31
0.0
 70
    32
  1
 <> 
 71
     0
 72
     0
 41
0.0
 42
139.9999999999999
  3
STANDARD1
100
AcDbAlignedDimension
 13
355.0000000000004
 23
-140.0000000000007
 33
0.0
 14
292.1000000000008
 24
-0.0000000000008527
 34
0.0
 50
90.0
100
AcDbRotatedDimension
  0
ARC
  5
10E50
330
1E
100
AcDbEntity
  8
1
  6
Continuous
 62
     4
100
AcDbCircle
 10
406.4999999999995
 20
-2.620154999999556
 30
0.0
 40
177.5
100
AcDbArc
 50
161.7763989999946
 51
180.0
  0
ARC
  5
10E51
330
1E
100
AcDbEntity
  8
1
  6
Continuous
 62
     4
100
AcDbCircle
 10
406.4999999999995
 20
-2.620154999999556
 30
0.0
 40
97.5
100
AcDbArc
 50
162.9956370000022
 51
180.0
  0
ARC
  5
10EA3
330
1E
100
AcDbEntity
  8
10
  6
Continuous
100
AcDbCircle
 10
842.9999999999996
 20
4.500000000000511
 30
0.0
 40
500.0
100
AcDbArc
 50
176.3756929999888
 51
183.6243070000111
  0
LINE
  5
10EA6
330
1E
100
AcDbEntity
  8
10
  6
Continuous
100
AcDbLine
 10
343.9999999999995
 20
-47.49999999999993
 30
0.0
 11
343.9999999999995
 21
-27.10696000000092
 31
0.0
  0
LINE
  5
10EA9
330
1E
100
AcDbEntity
  8
10
  6
Continuous
100
AcDbLine
 10
343.9999999999995
 20
36.10696499999909
 30
0.0
 11
343.9999999999995
 21
47.50000000000006
 31
0.0
  0
LINE
  5
10EAA
330
1E
100
AcDbEntity
  8
10
  6
Continuous
100
AcDbLine
 10
343.9999999999995
 20
47.50000000000006
 30
0.0
 11
360.0
 21
47.50000000000006
 31
0.0
  0
LWPOLYLINE
  5
115BD
330
1E
100
AcDbEntity
  8
10
  6
Continuous
100
AcDbPolyline
 90
        4
 70
     1
 43
0.0
 10
-105.0
 20
491.0000000000001
 10
104.9999999999996
 20
491.0000000000001
 10
104.9999999999996
 20
358.9999999999998
 10
-105.0
 20
358.9999999999998
  0
LWPOLYLINE
  5
115C2
330
1E
100
AcDbEntity
  8
10
  6
Continuous
100
AcDbPolyline
 90
        4
 70
     1
 43
0.0
 10
-105.0
 20
358.9999999999998
 10
104.9999999999996
 20
358.9999999999998
 10
105.0
 20
351.0000000000001
 10
-105.0
 20
351.0000000000001
  0
LWPOLYLINE
  5
115D0
330
1E
100
AcDbEntity
  8
10
  6
Continuous
100
AcDbPolyline
 90
        4
 70
     1
 43
0.0
 10
94.99999999999998
 20
343.9999999999998
 10
-95.00000000000005
 20
343.9999999999998
 10
-95.00000000000005
 20
351.0000000000001
 10
94.99999999999998
 20
351.0000000000001
  0
LWPOLYLINE
  5
115D1
330
1E
100
AcDbEntity
  8
10
  6
Continuous
100
AcDbPolyline
 90
        4
 70
     1
 43
0.0
 10
-39.00000000000002
 20
333.9999999999998
 10
38.99999999999952
 20
333.9999999999998
 10
38.99999999999952
 20
343.9999999999998
 10
-39.00000000000002
 20
343.9999999999998
  0
LWPOLYLINE
  5
115D7
330
1E
100
AcDbEntity
  8
10
  6
Continuous
100
AcDbPolyline
 90
        4
 70
     1
 43
0.0
 10
22.49999999999996
 20
300.0
 10
-22.50000000000003
 20
300.0
 10
-22.50000000000003
 20
333.9999999999998
 10
22.49999999999996
 20
333.9999999999998
  0
LINE
  5
115E7
330
1E
100
AcDbEntity
  8
16
100
AcDbLine
 10
-0.0020510501931561
 20
500.2979050000003
 30
0.0
 11
-0.0020510501931561
 21
323.8979050000005
 31
0.0
  0
LWPOLYLINE
  5
11F76
330
1E
100
AcDbEntity
  8
10
  6
Continuous
100
AcDbPolyline
 90
        8
 70
     1
 43
0.0
 10
91.99999999999977
 20
47.5
 10
-92.00000000000022
 20
47.5
 42
0.4142135623730951
 10
-95.00000000000023
 20
44.5
 10
-95.00000000000023
 20
-44.5
 42
0.4142135623730951
 10
-92.00000000000022
 20
-47.5
 10
91.99999999999977
 20
-47.5
 42
0.4142135623730951
 10
94.99999999999976
 20
-44.5
 10
94.99999999999976
 20
44.5
 42
0.4142135623730951
  0
LWPOLYLINE
  5
11F77
330
1E
100
AcDbEntity
  8
10
  6
Continuous
100
AcDbPolyline
 90
        4
 70
     1
 43
0.0
 10
-105.0
 20
200.0
 10
105.0
 20
200.0
 10
105.0
 20
-170.0
 10
-105.0
 20
-170.0
  0
LWPOLYLINE
  5
11F78
330
1E
100
AcDbEntity
  8
10
  6
Continuous
100
AcDbPolyline
 90
        4
 70
     1
 43
0.0
 10
-105.0
 20
170.0
 10
105.0
 20
170.0
 10
105.0
 20
-140.0
 10
-105.0
 20
-140.0
  0
LINE
  5
11F79
330
1E
100
AcDbEntity
  8
12
  6
DASHED
100
AcDbLine
 10
23.94999999999981
 20
-155.0
 30
0.0
 11
46.4499999999998
 21
-155.0
 31
0.0
  0
LINE
  5
11F7A
330
1E
100
AcDbEntity
  8
12
  6
DASHED
100
AcDbLine
 10
-46.05000000000018
 20
-155.0
 30
0.0
 11
-23.55000000000018
 21
-155.0
 31
0.0
  0
LWPOLYLINE
  5
11F7E
330
1E
100
AcDbEntity
  8
10
  6
Continuous
100
AcDbPolyline
 90
        4
 70
     1
 43
0.0
 10
-39.0
 20
47.5
 10
38.99999999999954
 20
47.5
 10
38.99999999999954
 20
-47.5
 10
-39.0
 20
-47.5
  0
LWPOLYLINE
  5
11F7F
330
1E
100
AcDbEntity
  8
10
  6
Continuous
100
AcDbPolyline
 90
        4
 70
     1
 43
0.0
 10
-22.5
 20
43.33292999999911
 10
22.5
 20
43.33292999999911
 10
22.5
 20
-22.99999999999954
 10
-22.5
 20
-22.99999999999954
  0
LWPOLYLINE
  5
11F80
330
1E
100
AcDbEntity
  8
10
  6
Continuous
100
AcDbPolyline
 90
        4
 70
     1
 43
0.0
 10
-22.5
 20
43.33292999999911
 10
22.5
 20
43.33292999999911
 10
22.5
 20
31.9322349999993
 10
-22.5
 20
31.9322349999993
  0
LWPOLYLINE
  5
11F81
330
1E
100
AcDbEntity
  8
10
  6
Continuous
100
AcDbPolyline
 90
        4
 70
     1
 43
0.0
 10
27.20000000000027
 20
-33.49999999999909
 10
33.20000000000027
 20
-33.49999999999909
 10
33.20000000000027
 20
-41.5000000000009
 10
27.20000000000027
 20
-41.5000000000009
  0
LWPOLYLINE
  5
11F85
330
1E
100
AcDbEntity
  8
10
  6
Continuous
100
AcDbPolyline
 90
        9
 70
     0
 43
0.0
 10
500.0
 20
200.0
 10
367.9999999999993
 20
200.0
 10
367.9999999999993
 20
170.0
 10
360.0
 20
170.0
 10
360.0
 20
-139.9999999999999
 10
367.9999999999993
 20
-139.9999999999999
 10
367.9999999999993
 20
-169.9999999999999
 10
500.0
 20
-169.9999999999999
 10
500.0
 20
200.0
  0
LWPOLYLINE
  5
11F86
330
1E
100
AcDbEntity
  8
10
  6
Continuous
100
AcDbPolyline
 90
       11
 70
     0
 43
0.0
 10
264.0054738200764
 20
44.04586291069775
 42
-0.2280087862796968
 10
270.8556642969125
 20
43.98718605965934
 10
306.0927200000023
 20
23.81821500000007
 10
330.1994992049396
 20
14.07844532122664
 42
0.4142135425216232
 10
335.4066607896561
 20
16.28875436337132
 10
342.2245000502929
 20
33.16349771556572
 42
0.4142135822245514
 10
340.0141908583396
 20
38.37065965320817
 10
315.9074100000007
 20
48.11043000000002
 10
276.5493803315998
 20
58.07982118250453
 42
-0.261369876899627
 10
271.5810735103679
 20
62.7961311752202
 42
2.80870652995242
 10
264.0054738200764
 20
44.04586291069775
 42
-2.80870652995242
  0
LWPOLYLINE
  5
11F87
330
1E
100
AcDbEntity
  8
10
  6
Continuous
100
AcDbPolyline
 90
        4
 70
     0
 43
0.0
 10
343.1299899999999
 20
16.08036999999973
 10
313.7020954115541
 20
27.97001101863235
 10
318.4970599999997
 20
39.83796499999931
 10
343.6256699999998
 20
29.68534500000037
  0
LWPOLYLINE
  5
11F8B
330
1E
100
AcDbEntity
  8
10
  6
Continuous
100
AcDbPolyline
 90
        4
 70
     1
 43
0.0
 10
352.9999999999994
 20
47.50000000000006
 10
360.0
 20
47.50000000000006
 10
360.0
 20
-47.49999999999993
 10
352.9999999999994
 20
-47.49999999999993
  0
LINE
  5
11F8C
330
1E
100
AcDbEntity
  8
10
  6
Continuous
100
AcDbLine
 10
352.9999999999994
 20
-47.49999999999993
 30
0.0
 11
343.9999999999995
 21
-47.49999999999993
 31
0.0
  0
LINE
  5
11FB2
330
1E
100
AcDbEntity
  8
16
100
AcDbLine
 10
0.0
 20
-780.0
 30
0.0
 11
0.0
 21
-390.0
 31
0.0
  0
LINE
  5
11FB7
330
1E
100
AcDbEntity
  8
225
  6
Continuous
 62
     3
100
AcDbLine
 10
-50.0
 20
-754.0000000000008
 30
0.0
 11
-20.0
 21
-754.0000000000008
 31
0.0
  0
LINE
  5
11FB8
330
1E
100
AcDbEntity
  8
225
  6
Continuous
 62
     3
100
AcDbLine
 10
-35.0
 20
-769.0000000000009
 30
0.0
 11
-35.0
 21
-739.0000000000009
 31
0.0
  0
CIRCLE
  5
11FB9
330
1E
100
AcDbEntity
  8
160
  6
Continuous
 62
     3
100
AcDbCircle
 10
-35.0
 20
-754.0000000000008
 30
0.0
 40
4.5
  0
CIRCLE
  5
11FBA
330
1E
100
AcDbEntity
  8
160
  6
Continuous
 62
     3
100
AcDbCircle
 10
35.0
 20
-754.0000000000008
 30
0.0
 40
4.5
  0
LINE
  5
11FBB
330
1E
100
AcDbEntity
  8
225
  6
Continuous
 62
     3
100
AcDbLine
 10
20.0
 20
-754.0000000000008
 30
0.0
 11
50.0
 21
-754.0000000000008
 31
0.0
  0
LINE
  5
11FBC
330
1E
100
AcDbEntity
  8
225
  6
Continuous
 62
     3
100
AcDbLine
 10
35.0
 20
-769.0000000000009
 30
0.0
 11
35.0
 21
-739.0000000000009
 31
0.0
  0
LINE
  5
11FC1
330
1E
100
AcDbEntity
  8
225
  6
Continuous
 62
     3
100
AcDbLine
 10
-35.0
 20
-430.999999999999
 30
0.0
 11
-35.0
 21
-400.999999999999
 31
0.0
  0
LINE
  5
11FC2
330
1E
100
AcDbEntity
  8
225
  6
Continuous
 62
     3
100
AcDbLine
 10
-50.0
 20
-415.9999999999991
 30
0.0
 11
-20.0
 21
-415.9999999999991
 31
0.0
  0
CIRCLE
  5
11FC3
330
1E
100
AcDbEntity
  8
160
  6
Continuous
 62
     3
100
AcDbCircle
 10
-35.0
 20
-415.9999999999991
 30
0.0
 40
4.5
  0
LINE
  5
11FC4
330
1E
100
AcDbEntity
  8
225
  6
Continuous
 62
     3
100
AcDbLine
 10
35.0
 20
-430.999999999999
 30
0.0
 11
35.0
 21
-400.999999999999
 31
0.0
  0
CIRCLE
  5
11FC5
330
1E
100
AcDbEntity
  8
160
  6
Continuous
 62
     3
100
AcDbCircle
 10
35.0
 20
-415.9999999999991
 30
0.0
 40
4.5
  0
LINE
  5
11FC6
330
1E
100
AcDbEntity
  8
225
  6
Continuous
 62
     3
100
AcDbLine
 10
20.0
 20
-415.9999999999991
 30
0.0
 11
50.0
 21
-415.9999999999991
 31
0.0
  0
LWPOLYLINE
  5
11FCE
330
1E
100
AcDbEntity
  8
18
  6
DIVIDE
100
AcDbPolyline
 90
        4
 70
     1
 43
0.0
 10
-105.0
 20
-400.0
 10
105.0
 20
-400.0
 10
105.0
 20
-770.0
 10
-105.0
 20
-770.0
  0
LINE
  5
11FCF
330
1E
100
AcDbEntity
  8
16
100
AcDbLine
 10
115.0
 20
-600.0
 30
0.0
 11
-115.0
 21
-600.0
 31
0.0
  0
DIMENSION
  5
11FD0
330
1E
100
AcDbEntity
  8
30
  6
Continuous
100
AcDbDimension
  2
*D6
 10
-139.9999999999999
 20
-415.999999999999
 30
0.0
 11
-145.9999999999998
 21
-507.9999999999991
 31
0.0
 70
    32
  1
 <> 
 71
     0
 72
     0
 41
0.0
 42
184.0000000000009
  3
STANDARD1
100
AcDbAlignedDimension
 13
-115.0
 23
-600.0
 33
0.0
 14
-50.0
 24
-415.9999999999991
 34
0.0
 50
90.0
100
AcDbRotatedDimension
  0
DIMENSION
  5
11FD1
330
1E
100
AcDbEntity
  8
30
  6
Continuous
100
AcDbDimension
  2
*D5
 10
-140.0
 20
-600.0
 30
0.0
 11
-145.9999999999998
 21
-677.0000000000002
 31
0.0
 70
    32
  1
 <> 
 71
     0
 72
     0
 41
0.0
 42
154.0000000000009
  3
STANDARD1
100
AcDbAlignedDimension
 13
-50.0
 23
-754.0000000000008
 33
0.0
 14
-117.4711194721602
 24
-600.0
 34
0.0
 50
90.0
100
AcDbRotatedDimension
  0
DIMENSION
  5
1200E
330
1E
100
AcDbEntity
  8
30
  6
Continuous
100
AcDbDimension
  2
*D7
 10
35.0
 20
-810.0
 30
0.0
 11
0.0000000000000004
 21
-804.0
 31
0.0
 70
    32
  1
 <> 
 71
     5
 42
70.0
  3
STANDARD1
100
AcDbAlignedDimension
 13
-35.0
 23
-769.0000000000009
 33
0.0
 14
35.0
 24
-769.0000000000009
 34
0.0
100
AcDbRotatedDimension
  0
MTEXT
  5
12075
330
1E
100
AcDbEntity
  8
19
  6
Continuous
100
AcDbMText
 10
373.1041004604666
 20
308.1417601141461
 30
0.0
 40
8.0
 41
178.1287
 71
     1
 72
     5
  1
S1600-NE 3P RC\PS1600-NN 3P RC
  7
STANDARD1
 73
     1
 44
1.0
1001
ACAD
1000
MTEXTBEGIN
1070
    73
1070
     1
1070
    44
1040
1.0
1070
    74
1070
     0
1000
MTEXTEND
  0
LINE
  5
12093
330
1E
100
AcDbEntity
  8
18
  6
DIVIDE
100
AcDbLine
 10
245.0
 20
-400.0
 30
0.0
 11
245.0
 21
-770.0
 31
0.0
  0
LINE
  5
12095
330
1E
100
AcDbEntity
  8
16
100
AcDbLine
 10
350.0
 20
-780.0
 30
0.0
 11
350.0
 21
-390.0
 31
0.0
  0
LINE
  5
12099
330
1E
100
AcDbEntity
  8
18
  6
DIVIDE
100
AcDbLine
 10
455.0
 20
-400.0
 30
0.0
 11
245.0
 21
-400.0
 31
0.0
  0
LINE
  5
1209B
330
1E
100
AcDbEntity
  8
16
100
AcDbLine
 10
465.0
 20
-600.0
 30
0.0
 11
235.0
 21
-600.0
 31
0.0
  0
LWPOLYLINE
  5
120B0
330
1E
100
AcDbEntity
  8
18
  6
DIVIDE
100
AcDbPolyline
 90
        4
 70
     1
 43
0.0
 10
245.0
 20
-400.0
 10
455.0
 20
-400.0
 10
455.0
 20
-770.0
 10
245.0
 20
-770.0
  0
LWPOLYLINE
  5
120B1
330
1E
100
AcDbEntity
  8
18
  6
DIVIDE
100
AcDbPolyline
 90
        4
 70
     1
 43
0.0
 10
245.0
 20
-400.0
 10
455.0
 20
-400.0
 10
455.0
 20
-770.0
 10
245.0
 20
-770.0
  0
LWPOLYLINE
  5
120B3
330
1E
100
AcDbEntity
  8
11
 48
2.0
100
AcDbPolyline
 90
        8
 70
     1
 43
0.0
 10
256.4999999999999
 20
-550.9999999999991
 10
443.5
 20
-550.999999999999
 42
-0.4142135623730951
 10
446.4999999999998
 20
-553.9999999999992
 10
446.4999999999998
 20
-645.9999999999991
 42
-0.4142135623730951
 10
443.5
 20
-648.9999999999992
 10
256.4999999999999
 20
-648.9999999999992
 42
-0.4142135623730951
 10
253.4999999999997
 20
-645.9999999999991
 10
253.4999999999997
 20
-553.9999999999992
 42
-0.4142135623730951
  0
DIMENSION
  5
120B4
330
1E
100
AcDbEntity
  8
30
  6
Continuous
100
AcDbDimension
  2
*D8
 10
446.4999999999998
 20
-810.0
 30
0.0
 11
349.9999999999998
 21
-804.0
 31
0.0
 70
    32
  1
 <> 
 71
     5
 42
193.0
  3
STANDARD1
100
AcDbAlignedDimension
 13
253.4999999999997
 23
-645.9999999999998
 33
0.0
 14
446.4999999999998
 24
-645.9999999999991
 34
0.0
100
AcDbRotatedDimension
  0
DIMENSION
  5
120B5
330
1E
100
AcDbEntity
  8
30
  6
Continuous
100
AcDbDimension
  2
*D9
 10
225.0
 20
-648.9999999999997
 30
0.0
 11
219.0
 21
-599.9999999999994
 31
0.0
 70
    32
 71
     5
 42
98.00000000000055
  3
STANDARD1
100
AcDbAlignedDimension
 13
253.4999999999997
 23
-550.9999999999991
 33
0.0
 14
253.4999999999997
 24
-648.9999999999997
 34
0.0
 50
90.0
100
AcDbRotatedDimension
  0
LINE
  5
13826
330
1E
100
AcDbEntity
  8
16
100
AcDbLine
 10
-0.0000000000000213
 20
256.0000000000005
 30
0.0
 11
0.0000000000000355
 21
631.0000000000002
 31
0.0
  0
LINE
  5
13828
330
1E
100
AcDbEntity
  8
17
  6
DASHDOT
100
AcDbLine
 10
69.99999999999997
 20
476.0000000000003
 30
0.0
 11
69.99999999999997
 21
596.0000000000002
 31
0.0
  0
LINE
  5
1382B
330
1E
100
AcDbEntity
  8
17
  6
DASHDOT
100
AcDbLine
 10
82.49999999999998
 20
561.0000000000001
 30
0.0
 11
57.49999999999998
 21
561.0000000000001
 31
0.0
  0
LINE
  5
13831
330
1E
100
AcDbEntity
  8
17
  6
DASHDOT
100
AcDbLine
 10
12.5
 20
606.0000000000002
 30
0.0
 11
-12.49999999999996
 21
606.0000000000002
 31
0.0
  0
LINE
  5
13838
330
1E
100
AcDbEntity
  8
17
  6
DASHDOT
100
AcDbLine
 10
-69.99999999999997
 20
476.0000000000003
 30
0.0
 11
-69.99999999999997
 21
596.0000000000002
 31
0.0
  0
LINE
  5
1383A
330
1E
100
AcDbEntity
  8
17
  6
DASHDOT
100
AcDbLine
 10
-57.49999999999997
 20
561.0000000000001
 30
0.0
 11
-82.49999999999998
 21
561.0000000000001
 31
0.0
  0
DIMENSION
  5
1384B
330
1E
100
AcDbEntity
  8
30
  6
Continuous
100
AcDbDimension
  2
*D10
 10
-70.0000000000002
 20
670.0
 30
0.0
 11
-35.00000000000019
 21
676.0
 31
0.0
 70
    32
  1
 <> 
 71
     5
 42
70.0
  3
STANDARD1
100
AcDbAlignedDimension
 13
-0.0000000000001918
 23
631.0000000000002
 33
0.0
 14
-70.0000000000002
 24
596.0000000000002
 34
0.0
 50
180.0
100
AcDbRotatedDimension
  0
DIMENSION
  5
1384C
330
1E
100
AcDbEntity
  8
30
  6
Continuous
100
AcDbDimension
  2
*D11
 10
-0.0000000000001895
 20
670.0
 30
0.0
 11
34.9999999999998
 21
676.0
 31
0.0
 70
    32
  1
 <> 
 71
     5
 42
70.0
  3
STANDARD1
100
AcDbAlignedDimension
 13
69.9999999999998
 23
596.0000000000002
 33
0.0
 14
-0.0000000000001918
 24
631.0000000000002
 34
0.0
 50
180.0
100
AcDbRotatedDimension
  0
LWPOLYLINE
  5
138AF
330
1E
100
AcDbEntity
  8
21
  6
Continuous
100
AcDbPolyline
 90
        4
 70
     1
 43
0.0
 10
-79.99999999999997
 20
531.0000000000001
 10
-59.99999999999996
 20
531.0000000000001
 10
-59.99999999999996
 20
491.0000000000001
 10
-79.99999999999997
 20
491.0000000000001
  0
LWPOLYLINE
  5
138B0
330
1E
100
AcDbEntity
  8
21
  6
Continuous
100
AcDbPolyline
 90
        4
 70
     1
 43
0.0
 10
-77.49999999999997
 20
576.0000000000002
 10
-62.49999999999996
 20
576.0000000000002
 10
-62.49999999999996
 20
531.0000000000001
 10
-77.49999999999997
 20
531.0000000000001
  0
LWPOLYLINE
  5
138B1
330
1E
100
AcDbEntity
  8
21
  6
Continuous
100
AcDbPolyline
 90
        4
 70
     1
 43
0.0
 10
-9.999999999999962
 20
576.0000000000002
 10
10.00000000000003
 20
576.0000000000002
 10
10.00000000000003
 20
491.0000000000001
 10
-9.999999999999962
 20
491.0000000000001
  0
LWPOLYLINE
  5
138B2
330
1E
100
AcDbEntity
  8
21
  6
Continuous
100
AcDbPolyline
 90
        4
 70
     1
 43
0.0
 10
-7.499999999999964
 20
621.0000000000002
 10
7.500000000000034
 20
621.0000000000002
 10
7.500000000000034
 20
576.0000000000002
 10
-7.499999999999964
 20
576.0000000000002
  0
LWPOLYLINE
  5
138B3
330
1E
100
AcDbEntity
  8
21
  6
Continuous
100
AcDbPolyline
 90
        4
 70
     1
 43
0.0
 10
59.99999999999998
 20
531.0000000000001
 10
79.99999999999997
 20
531.0000000000001
 10
79.99999999999997
 20
491.0000000000001
 10
59.99999999999998
 20
491.0000000000001
  0
LWPOLYLINE
  5
138B4
330
1E
100
AcDbEntity
  8
21
  6
Continuous
100
AcDbPolyline
 90
        4
 70
     1
 43
0.0
 10
62.49999999999998
 20
576.0000000000002
 10
77.49999999999997
 20
576.0000000000002
 10
77.49999999999997
 20
531.0000000000001
 10
62.49999999999998
 20
531.0000000000001
  0
LINE
  5
139A2
330
1E
100
AcDbEntity
  8
16
100
AcDbLine
 10
0.0
 20
-190.0
 30
0.0
 11
0.0
 21
240.0
 31
0.0
  0
DIMENSION
  5
139A3
330
1E
100
AcDbEntity
  8
30
  6
Continuous
100
AcDbDimension
  2
*D12
 10
105.0000000000002
 20
-210.0
 30
0.0
 11
0.0000000000002277
 21
-204.0
 31
0.0
 70
    32
  1
 <> 
 71
     5
 42
210.0
  3
STANDARD1
100
AcDbAlignedDimension
 13
-104.9999999999996
 23
-175.0000000000004
 33
0.0
 14
105.0000000000002
 24
-175.0000000000004
 34
0.0
100
AcDbRotatedDimension
  0
DIMENSION
  5
13A15
330
1E
100
AcDbEntity
  8
30
  6
Continuous
100
AcDbDimension
  2
*D19
 10
585.0
 20
-250.0
 30
0.0
 11
542.4999999999998
 21
-244.0
 31
0.0
 70
    32
  1
 <> 
 71
     5
 42
85.0
  3
STANDARD1
100
AcDbAlignedDimension
 13
500.0
 23
-169.9999999999999
 33
0.0
 14
585.0
 24
-137.5000000000003
 34
0.0
100
AcDbRotatedDimension
  0
DIMENSION
  5
13A16
330
1E
100
AcDbEntity
  8
30
  6
Continuous
100
AcDbDimension
  2
*D18
 10
615.0
 20
-300.0
 30
0.0
 11
557.5
 21
-294.0
 31
0.0
 70
    32
  1
 <> 
 71
     5
 42
115.0
  3
STANDARD1
100
AcDbAlignedDimension
 13
500.0
 23
-169.9999999999999
 33
0.0
 14
615.0
 24
-120.0000000000003
 34
0.0
100
AcDbRotatedDimension
  0
DIMENSION
  5
13A17
330
1E
100
AcDbEntity
  8
30
  6
Continuous
100
AcDbDimension
  2
*D22
 10
630.0
 20
-300.0
 30
0.0
 11
640.7999999999997
 21
-294.0
 31
0.0
 70
    32
  1
 <> 
 71
     5
 42
15.0
  3
STANDARD1
100
AcDbAlignedDimension
 13
615.0
 23
-120.0000000000003
 33
0.0
 14
630.0
 24
-137.5000000000003
 34
0.0
100
AcDbRotatedDimension
  0
DIMENSION
  5
13A18
330
1E
100
AcDbEntity
  8
30
  6
Continuous
100
AcDbDimension
  2
*D17
 10
630.0
 20
-350.0
 30
0.0
 11
565.0
 21
-344.0
 31
0.0
 70
    32
  1
 <> 
 71
     5
 42
130.0
  3
STANDARD1
100
AcDbAlignedDimension
 13
500.0
 23
-169.9999999999999
 33
0.0
 14
630.0
 24
-137.5000000000003
 34
0.0
100
AcDbRotatedDimension
  0
DIMENSION
  5
13A19
330
1E
100
AcDbEntity
  8
30
  6
Continuous
100
AcDbDimension
  2
*D27
 10
500.0
 20
-250.0
 30
0.0
 11
430.0
 21
-244.0
 31
0.0
 70
    32
  1
 <> 
 71
     5
 42
140.0
  3
STANDARD1
100
AcDbAlignedDimension
 13
360.0
 23
-145.0000000000003
 33
0.0
 14
500.0
 24
-169.9999999999999
 34
0.0
100
AcDbRotatedDimension
  0
DIMENSION
  5
13A1A
330
1E
100
AcDbEntity
  8
30
  6
Continuous
100
AcDbDimension
  2
*D26
 10
500.0
 20
-300.0
 30
0.0
 11
426.4999999999998
 21
-294.0
 31
0.0
 70
    32
  1
 <> 
 71
     5
 42
147.0
  3
STANDARD1
100
AcDbAlignedDimension
 13
353.0
 23
-52.50000000000046
 33
0.0
 14
500.0
 24
-169.9999999999999
 34
0.0
100
AcDbRotatedDimension
  0
DIMENSION
  5
13A1B
330
1E
100
AcDbEntity
  8
30
  6
Continuous
100
AcDbDimension
  2
*D25
 10
500.0
 20
-350.0
 30
0.0
 11
404.4999999999998
 21
-344.0
 31
0.0
 70
    32
  1
 <> 
 71
     5
 42
191.0
  3
STANDARD1
100
AcDbAlignedDimension
 13
309.0
 23
-7.799999999999727
 33
0.0
 14
500.0
 24
-169.9999999999999
 34
0.0
100
AcDbRotatedDimension
  0
DIMENSION
  5
13A1C
330
1E
100
AcDbEntity
  8
30
  6
Continuous
100
AcDbDimension
  2
*D24
 10
353.0
 20
-300.0
 30
0.0
 11
332.6999999999998
 21
-300.0
 31
0.0
 70
   160
  1
 <> 
 71
     5
 42
10.0
  3
STANDARD1
100
AcDbAlignedDimension
 13
343.0
 23
4.500000000000452
 33
0.0
 14
353.0
 24
-52.50000000000046
 34
0.0
100
AcDbRotatedDimension
  0
DIMENSION
  5
13A1D
330
1E
100
AcDbEntity
  8
30
  6
Continuous
100
AcDbDimension
  2
*D23
 10
309.0
 20
-350.0
 30
0.0
 11
269.0
 21
-344.0
 31
0.0
 70
    32
  1
 <> 
 71
     5
 42
80.0
  3
STANDARD1
100
AcDbAlignedDimension
 13
229.0
 23
-2.799999999999727
 33
0.0
 14
309.0
 24
-2.799999999999727
 34
0.0
100
AcDbRotatedDimension
  0
DIMENSION
  5
13A20
330
1E
100
AcDbEntity
  8
30
  6
Continuous
100
AcDbDimension
  2
*D20
 10
585.0
 20
-210.0
 30
0.0
 11
595.7999999999997
 21
-204.0
 31
0.0
 70
    32
  1
 <> 
 71
     5
 42
15.0
  3
STANDARD1
100
AcDbAlignedDimension
 13
570.0
 23
-120.0000000000003
 33
0.0
 14
585.0
 24
-137.5000000000003
 34
0.0
100
AcDbRotatedDimension
  0
DIMENSION
  5
13A21
330
1E
100
AcDbEntity
  8
30
  6
Continuous
100
AcDbDimension
  2
*D21
 10
570.0
 20
-210.0
 30
0.0
 11
535.0
 21
-204.0
 31
0.0
 70
    32
  1
 <> 
 71
     5
 42
70.0
  3
STANDARD1
100
AcDbAlignedDimension
 13
500.0
 23
-169.9999999999999
 33
0.0
 14
570.0
 24
-120.0000000000003
 34
0.0
100
AcDbRotatedDimension
  0
DIMENSION
  5
13A25
330
1E
100
AcDbEntity
  8
30
  6
Continuous
100
AcDbDimension
  2
*D13
 10
730.0
 20
59.99999999999952
 30
0.0
 11
724.0
 21
29.99999999999962
 31
0.0
 70
    32
  1
 <> 
 71
     0
 72
     0
 41
0.0
 42
60.00000000000003
  3
STANDARD1
100
AcDbAlignedDimension
 13
510.0
 23
-0.0000000000004547
 33
0.0
 14
690.0
 24
59.99999999999953
 34
0.0
 50
90.0
100
AcDbRotatedDimension
  0
LINE
  5
13A26
330
1E
100
AcDbEntity
  8
17
100
AcDbLine
 10
640.0
 20
60.0
 30
0.0
 11
490.0
 21
60.0
 31
0.0
  0
LINE
  5
13A27
330
1E
100
AcDbEntity
  8
17
100
AcDbLine
 10
640.0
 20
-100.0
 30
0.0
 11
490.0
 21
-100.0
 31
0.0
  0
DIMENSION
  5
13A28
330
1E
100
AcDbEntity
  8
30
  6
Continuous
100
AcDbDimension
  2
*D14
 10
730.0
 20
-0.0000000000005171
 30
0.0
 11
724.0
 21
-50.00000000000039
 31
0.0
 70
    32
  1
 <> 
 71
     0
 72
     0
 41
0.0
 42
100.0
  3
STANDARD1
100
AcDbAlignedDimension
 13
640.0
 23
-100.0000000000003
 33
0.0
 14
510.0
 24
-0.0000000000004547
 34
0.0
 50
90.0
100
AcDbRotatedDimension
  0
LINE
  5
13A29
330
1E
100
AcDbEntity
  8
17
100
AcDbLine
 10
570.0
 20
-104.0
 30
0.0
 11
570.0
 21
-126.0000000000004
 31
0.0
  0
CIRCLE
  5
13A2A
330
1E
100
AcDbEntity
  8
1
  6
Continuous
 62
     2
100
AcDbCircle
 10
570.0
 20
-115.0
 30
0.0
 40
6.0
  0
LINE
  5
13A2B
330
1E
100
AcDbEntity
  8
17
100
AcDbLine
 10
559.0
 20
-85.0
 30
0.0
 11
581.0000000000002
 21
-85.0
 31
0.0
  0
LINE
  5
13A2C
330
1E
100
AcDbEntity
  8
17
100
AcDbLine
 10
559.0
 20
-115.0
 30
0.0
 11
581.0000000000002
 21
-115.0
 31
0.0
  0
CIRCLE
  5
13A2D
330
1E
100
AcDbEntity
  8
1
  6
Continuous
 62
     2
100
AcDbCircle
 10
570.0
 20
-85.0
 30
0.0
 40
6.0
  0
LINE
  5
13A2E
330
1E
100
AcDbEntity
  8
17
100
AcDbLine
 10
570.0
 20
-74.0
 30
0.0
 11
570.0
 21
-96.00000000000044
 31
0.0
  0
LINE
  5
13A2F
330
1E
100
AcDbEntity
  8
17
100
AcDbLine
 10
570.0
 20
86.0
 30
0.0
 11
570.0
 21
63.99999999999955
 31
0.0
  0
CIRCLE
  5
13A30
330
1E
100
AcDbEntity
  8
1
  6
Continuous
 62
     2
100
AcDbCircle
 10
570.0
 20
75.0
 30
0.0
 40
6.0
  0
CIRCLE
  5
13A32
330
1E
100
AcDbEntity
  8
1
  6
Continuous
 62
     2
100
AcDbCircle
 10
570.0
 20
45.0
 30
0.0
 40
6.0
  0
LINE
  5
13A33
330
1E
100
AcDbEntity
  8
17
100
AcDbLine
 10
570.0
 20
56.0
 30
0.0
 11
570.0
 21
33.99999999999954
 31
0.0
  0
LINE
  5
13A34
330
1E
100
AcDbEntity
  8
17
100
AcDbLine
 10
559.0
 20
75.0
 30
0.0
 11
581.0000000000002
 21
75.0
 31
0.0
  0
LINE
  5
13A35
330
1E
100
AcDbEntity
  8
17
100
AcDbLine
 10
559.0
 20
45.0
 30
0.0
 11
581.0000000000002
 21
45.0
 31
0.0
  0
LINE
  5
13A38
330
1E
100
AcDbEntity
  8
17
100
AcDbLine
 10
615.0
 20
-104.0
 30
0.0
 11
615.0
 21
-126.0000000000004
 31
0.0
  0
LINE
  5
13A39
330
1E
100
AcDbEntity
  8
17
100
AcDbLine
 10
604.0
 20
-115.0
 30
0.0
 11
626.0000000000002
 21
-115.0
 31
0.0
  0
LINE
  5
13A3A
330
1E
100
AcDbEntity
  8
17
100
AcDbLine
 10
604.0
 20
-85.0
 30
0.0
 11
626.0000000000002
 21
-85.0
 31
0.0
  0
CIRCLE
  5
13A3B
330
1E
100
AcDbEntity
  8
1
  6
Continuous
 62
     2
100
AcDbCircle
 10
615.0
 20
-115.0
 30
0.0
 40
6.0
  0
CIRCLE
  5
13A3C
330
1E
100
AcDbEntity
  8
1
  6
Continuous
 62
     2
100
AcDbCircle
 10
615.0
 20
-85.0
 30
0.0
 40
6.0
  0
LINE
  5
13A3D
330
1E
100
AcDbEntity
  8
17
100
AcDbLine
 10
615.0
 20
-74.0
 30
0.0
 11
615.0
 21
-96.00000000000044
 31
0.0
  0
DIMENSION
  5
13A3F
330
1E
100
AcDbEntity
  8
30
  6
Continuous
100
AcDbDimension
  2
*D15
 10
690.0
 20
92.49999999999952
 30
0.0
 11
684.0
 21
59.99999999999964
 31
0.0
 70
    32
  1
 <> 
 71
     0
 72
     0
 41
0.0
 42
65.0
  3
STANDARD1
100
AcDbAlignedDimension
 13
635.0
 23
27.49999999999953
 33
0.0
 14
635.0
 24
92.49999999999955
 34
0.0
 50
90.0
100
AcDbRotatedDimension
  0
LINE
  5
13A41
330
1E
100
AcDbEntity
  8
17
100
AcDbLine
 10
615.0
 20
86.0
 30
0.0
 11
615.0
 21
63.99999999999955
 31
0.0
  0
CIRCLE
  5
13A42
330
1E
100
AcDbEntity
  8
1
  6
Continuous
 62
     2
100
AcDbCircle
 10
615.0
 20
75.0
 30
0.0
 40
6.0
  0
DIMENSION
  5
13A44
330
1E
100
AcDbEntity
  8
30
  6
Continuous
100
AcDbDimension
  2
*D16
 10
660.0
 20
75.0
 30
0.0
 11
654.0
 21
60.0000000000001
 31
0.0
 70
    32
  1
 <> 
 71
     0
 72
     0
 41
0.0
 42
30.0
  3
STANDARD1
100
AcDbAlignedDimension
 13
626.0000000000002
 23
45.0
 33
0.0
 14
626.0000000000002
 24
75.0
 34
0.0
 50
90.0
100
AcDbRotatedDimension
  0
LINE
  5
13A45
330
1E
100
AcDbEntity
  8
17
100
AcDbLine
 10
604.0
 20
45.0
 30
0.0
 11
626.0000000000002
 21
45.0
 31
0.0
  0
LINE
  5
13A46
330
1E
100
AcDbEntity
  8
17
100
AcDbLine
 10
604.0
 20
75.0
 30
0.0
 11
626.0000000000002
 21
75.0
 31
0.0
  0
CIRCLE
  5
13A47
330
1E
100
AcDbEntity
  8
1
  6
Continuous
 62
     2
100
AcDbCircle
 10
615.0
 20
45.0
 30
0.0
 40
6.0
  0
LINE
  5
13A48
330
1E
100
AcDbEntity
  8
17
100
AcDbLine
 10
615.0
 20
56.0
 30
0.0
 11
615.0
 21
33.99999999999954
 31
0.0
  0
LWPOLYLINE
  5
13C6C
330
1E
100
AcDbEntity
  8
21
  6
Continuous
100
AcDbPolyline
 90
        4
 70
     1
 43
0.0
 10
500.0
 20
-67.5
 10
585.0
 20
-67.5
 10
585.0
 20
-132.4999999999999
 10
500.0
 20
-132.4999999999999
  0
LWPOLYLINE
  5
13C6D
330
1E
100
AcDbEntity
  8
21
  6
Continuous
100
AcDbPolyline
 90
        4
 70
     0
 43
0.0
 10
590.0
 20
-67.5
 10
630.0
 20
-67.5
 10
630.0
 20
-132.4999999999999
 10
590.0
 20
-132.4999999999999
  0
LWPOLYLINE
  5
13C6E
330
1E
100
AcDbEntity
  8
21
  6
Continuous
100
AcDbPolyline
 90
        4
 70
     0
 43
0.0
 10
590.0
 20
92.5
 10
630.0
 20
92.5
 10
630.0
 20
27.5
 10
590.0
 20
27.5
  0
LWPOLYLINE
  5
13C6F
330
1E
100
AcDbEntity
  8
21
  6
Continuous
100
AcDbPolyline
 90
        4
 70
     1
 43
0.0
 10
500.0
 20
92.5
 10
585.0
 20
92.5
 10
585.0
 20
27.5
 10
500.0
 20
27.5
  0
LINE
  5
140E1
330
1E
100
AcDbEntity
  8
160
  6
Continuous
 62
     3
100
AcDbLine
 10
507.5
 20
189.0000000000002
 30
0.0
 11
521.0000000000003
 21
189.0000000000002
 31
0.0
  0
LINE
  5
140E2
330
1E
100
AcDbEntity
  8
160
  6
Continuous
 62
     3
100
AcDbLine
 10
515.5
 20
193.8000500000003
 30
0.0
 11
507.5
 21
193.8000500000003
 31
0.0
  0
LINE
  5
140E3
330
1E
100
AcDbEntity
  8
160
  6
Continuous
 62
     3
100
AcDbLine
 10
507.5
 20
179.0
 30
0.0
 11
521.0000000000003
 21
179.0
 31
0.0
  0
LINE
  5
140E4
330
1E
100
AcDbEntity
  8
160
  6
Continuous
 62
     3
100
AcDbLine
 10
515.5
 20
174.1999500000002
 30
0.0
 11
507.5
 21
174.1999500000002
 31
0.0
  0
LINE
  5
140E5
330
1E
100
AcDbEntity
  8
160
  6
Continuous
 62
     3
100
AcDbLine
 10
507.5
 20
174.1999500000002
 30
0.0
 11
507.5
 21
193.8000500000003
 31
0.0
  0
LINE
  5
140E6
330
1E
100
AcDbEntity
  8
160
  6
Continuous
 62
     3
100
AcDbLine
 10
507.5
 20
174.8000499999998
 30
0.0
 11
505.0
 21
174.8000499999998
 31
0.0
  0
LINE
  5
140E8
330
1E
100
AcDbEntity
  8
160
  6
Continuous
 62
     3
100
AcDbLine
 10
507.5
 20
193.19995
 30
0.0
 11
505.0
 21
193.19995
 31
0.0
  0
LINE
  5
140E9
330
1E
100
AcDbEntity
  8
160
  6
Continuous
 62
     3
100
AcDbLine
 10
515.5
 20
174.1999500000002
 30
0.0
 11
515.5
 21
193.8000500000003
 31
0.0
  0
LINE
  5
140EA
330
1E
100
AcDbEntity
  8
160
  6
Continuous
 62
     3
100
AcDbLine
 10
521.0000000000003
 20
179.0
 30
0.0
 11
521.0000000000003
 21
189.0000000000002
 31
0.0
  0
LINE
  5
140EB
330
1E
100
AcDbEntity
  8
225
  6
Continuous
 62
     3
100
AcDbLine
 10
487.3999050000001
 20
184.0000000000003
 30
0.0
 11
531.0000000000003
 21
184.0000000000003
 31
0.0
  0
LINE
  5
140EC
330
1E
100
AcDbEntity
  8
160
  6
Continuous
 62
     3
100
AcDbLine
 10
515.5
 20
-144.1999500000003
 30
0.0
 11
515.5
 21
-163.8000500000003
 31
0.0
  0
LINE
  5
140ED
330
1E
100
AcDbEntity
  8
160
  6
Continuous
 62
     3
100
AcDbLine
 10
507.5
 20
-144.1999500000003
 30
0.0
 11
507.5
 21
-163.8000500000003
 31
0.0
  0
LINE
  5
140EF
330
1E
100
AcDbEntity
  8
225
  6
Continuous
 62
     3
100
AcDbLine
 10
487.3999050000001
 20
-154.0000000000004
 30
0.0
 11
531.0000000000003
 21
-154.0000000000004
 31
0.0
  0
LINE
  5
140F2
330
1E
100
AcDbEntity
  8
160
  6
Continuous
 62
     3
100
AcDbLine
 10
507.5
 20
-149.0000000000003
 30
0.0
 11
521.0000000000003
 21
-149.0000000000003
 31
0.0
  0
LINE
  5
140F3
330
1E
100
AcDbEntity
  8
160
  6
Continuous
 62
     3
100
AcDbLine
 10
507.5
 20
-159.0000000000004
 30
0.0
 11
521.0000000000003
 21
-159.0000000000004
 31
0.0
  0
LINE
  5
140F4
330
1E
100
AcDbEntity
  8
160
  6
Continuous
 62
     3
100
AcDbLine
 10
515.5
 20
-163.8000500000003
 30
0.0
 11
507.5
 21
-163.8000500000003
 31
0.0
  0
LINE
  5
140F5
330
1E
100
AcDbEntity
  8
160
  6
Continuous
 62
     3
100
AcDbLine
 10
507.5
 20
-163.19995
 30
0.0
 11
505.0
 21
-163.19995
 31
0.0
  0
LINE
  5
140F7
330
1E
100
AcDbEntity
  8
160
  6
Continuous
 62
     3
100
AcDbLine
 10
521.0000000000003
 20
-149.0000000000003
 30
0.0
 11
521.0000000000003
 21
-159.0000000000004
 31
0.0
  0
LINE
  5
140FA
330
1E
100
AcDbEntity
  8
160
  6
Continuous
 62
     3
100
AcDbLine
 10
515.5
 20
-144.1999500000003
 30
0.0
 11
507.5
 21
-144.1999500000003
 31
0.0
  0
LINE
  5
140FB
330
1E
100
AcDbEntity
  8
160
  6
Continuous
 62
     3
100
AcDbLine
 10
507.5
 20
-144.80005
 30
0.0
 11
505.0
 21
-144.80005
 31
0.0
  0
LWPOLYLINE
  5
14110
330
1E
100
AcDbEntity
  8
10
  6
DASHDOT
100
AcDbPolyline
 90
       10
 70
     0
 43
0.0
 10
540.0
 20
-179.0
 10
500.0
 20
-179.0
 10
500.0
 20
-139.0
 10
502.0
 20
-139.0
 42
-0.4142135623730951
 10
505.0
 20
-142.0
 10
505.0
 20
-169.5
 42
0.4142135623730951
 10
509.4999999999997
 20
-174.0
 10
537.0
 20
-174.0
 42
-0.4142135623730951
 10
540.0
 20
-177.0
 10
540.0
 20
-179.0
  0
LWPOLYLINE
  5
14114
330
1E
100
AcDbEntity
  8
10
  6
DASHDOT
100
AcDbPolyline
 90
       10
 70
     0
 43
0.0
 10
540.0
 20
209.0000000000002
 10
500.0
 20
209.0000000000002
 10
500.0
 20
169.0
 10
502.0
 20
169.0
 42
0.4142135623730951
 10
505.0
 20
172.0
 10
505.0
 20
199.5000000000002
 42
-0.4142135623730951
 10
509.4999999999997
 20
204.0
 10
537.0
 20
204.0
 42
0.4142135623730951
 10
540.0
 20
207.0000000000002
 10
540.0
 20
209.0000000000002
  0
DIMENSION
  5
1417D
330
1E
100
AcDbEntity
  8
30
  6
Continuous
100
AcDbDimension
  2
*D30
 10
256.4099999999998
 20
-553.999999999999
 30
0.0
 11
261.9968486915065
 21
-540.9634736719373
 31
0.0
 70
   164
 71
     5
 42
3.0
  3
STANDARD1
100
AcDbRadialDimension
 15
255.8639554236985
 25
-551.0501126596598
 35
0.0
 40
0.0
  0
SPLINE
  5
14204
330
1E
100
AcDbEntity
  8
10
  6
DIVIDE
100
AcDbSpline
210
0.0
220
0.0
230
1.0
 70
     8
 71
     3
 72
    11
 73
     7
 74
     0
 42
0.0000000001
 43
0.0000000001
 40
0.0
 40
0.0
 40
0.0
 40
0.0
 40
0.25
 40
0.5
 40
0.75
 40
1.0
 40
1.0
 40
1.0
 40
1.0
 10
125.3164080385963
 20
-430.9999987028834
 30
0.0
 10
122.8420428042263
 20
-426.7263170622536
 30
0.0
 10
117.8933123354767
 20
-418.1787096403834
 30
0.0
 10
130.9455584292263
 20
-413.1608873747536
 30
0.0
 10
117.3261736635967
 20
-400.2207018278836
 30
0.0
 10
120.4987810854763
 20
-394.0734850310036
 30
0.0
 10
122.0849627260963
 20
-390.9999987028833
 30
0.0
  0
LINE
  5
14205
330
1E
100
AcDbEntity
  8
10
  6
DIVIDE
100
AcDbLine
 10
-127.5610199999997
 20
-398.9999999999998
 30
0.0
 11
119.8854649999997
 21
-398.9999999999998
 31
0.0
  0
SPLINE
  5
14208
330
1E
100
AcDbEntity
  8
10
  6
DIVIDE
100
AcDbSpline
210
0.0
220
0.0
230
1.0
 70
     8
 71
     3
 72
    12
 73
     8
 74
     0
 42
0.0000000001
 43
0.0000000001
 40
0.0
 40
0.0
 40
0.0
 40
0.0
 40
0.2
 40
0.4
 40
0.6000000000000001
 40
0.8
 40
1.0
 40
1.0
 40
1.0
 40
1.0
 10
-131.8608380551532
 20
-390.9999987028833
 30
0.0
 10
-131.2192364926537
 20
-391.7746569060033
 30
0.0
 10
-129.9355450864033
 20
-393.3239733122537
 30
0.0
 10
-121.9086896176531
 20
-411.7043444060036
 30
0.0
 10
-135.5644513364032
 20
-415.9614244841332
 30
0.0
 10
-121.5668927426531
 20
-424.0180651091336
 30
0.0
 10
-124.4345685239035
 20
-428.6726061247533
 30
0.0
 10
-125.8686505551531
 20
-430.9999987028834
 30
0.0
  0
LINE
  5
14209
330
1E
100
AcDbEntity
  8
10
  6
DIVIDE
100
AcDbLine
 10
-125.8686499999996
 20
-430.9999999999998
 30
0.0
 11
125.3164080385963
 21
-430.9999987028834
 31
0.0
  0
LINE
  5
1420A
330
1E
100
AcDbEntity
  8
10
  6
DIVIDE
100
AcDbLine
 10
-131.8608399999999
 20
-390.9999999999998
 30
0.0
 11
122.0849627260963
 21
-390.9999987028833
 31
0.0
  0
SPLINE
  5
1420E
330
1E
100
AcDbEntity
  8
10
  6
DIVIDE
100
AcDbSpline
210
0.0
220
0.0
230
1.0
 70
     8
 71
     3
 72
    11
 73
     7
 74
     0
 42
0.0000000001
 43
0.0000000001
 40
0.0
 40
0.0
 40
0.0
 40
0.0
 40
0.25
 40
0.5
 40
0.75
 40
1.0
 40
1.0
 40
1.0
 40
1.0
 10
125.3164080385963
 20
-738.9999987028826
 30
0.0
 10
122.8420428042263
 20
-743.2736803435127
 30
0.0
 10
117.8933123354767
 20
-751.8212877653826
 30
0.0
 10
130.9455584292263
 20
-756.8391100310127
 30
0.0
 10
117.3261736635967
 20
-769.7792955778826
 30
0.0
 10
120.4987810854763
 20
-775.9265123747627
 30
0.0
 10
122.0849627260963
 20
-778.9999987028826
 30
0.0
  0
LINE
  5
14211
330
1E
100
AcDbEntity
  8
10
  6
DIVIDE
100
AcDbLine
 10
-127.5610199999997
 20
-771.0
 30
0.0
 11
119.8854649999997
 21
-771.0
 31
0.0
  0
SPLINE
  5
14212
330
1E
100
AcDbEntity
  8
10
  6
DIVIDE
100
AcDbSpline
210
0.0
220
0.0
230
1.0
 70
     8
 71
     3
 72
    12
 73
     8
 74
     0
 42
0.0000000001
 43
0.0000000001
 40
0.0
 40
0.0
 40
0.0
 40
0.0
 40
0.2
 40
0.4
 40
0.6000000000000001
 40
0.8
 40
1.0
 40
1.0
 40
1.0
 40
1.0
 10
-131.8608380551532
 20
-778.9999987028826
 30
0.0
 10
-131.2192364926537
 20
-778.2253404997627
 30
0.0
 10
-129.9355450864033
 20
-776.6760240935127
 30
0.0
 10
-121.9086896176531
 20
-758.2956529997627
 30
0.0
 10
-135.5644513364032
 20
-754.0385729216326
 30
0.0
 10
-121.5668927426531
 20
-745.9819322966326
 30
0.0
 10
-124.4345685239035
 20
-741.3273912810127
 30
0.0
 10
-125.8686505551531
 20
-738.9999987028826
 30
0.0
  0
LINE
  5
14213
330
1E
100
AcDbEntity
  8
10
  6
DIVIDE
100
AcDbLine
 10
-125.8686499999996
 20
-739.0
 30
0.0
 11
125.3164080385963
 21
-738.9999987028826
 31
0.0
  0
LINE
  5
14214
330
1E
100
AcDbEntity
  8
10
  6
DIVIDE
100
AcDbLine
 10
-131.8608399999999
 20
-779.0
 30
0.0
 11
122.0849627260963
 21
-778.9999987028826
 31
0.0
  0
VIEWPORT
  5
9AC
102
{ACAD_XDICTIONARY
360
142B7
102
}
330
1A
100
AcDbEntity
 67
     1
  8
0
  6
Continuous
100
AcDbViewport
 10
0.0
 20
0.0
 30
0.0
 40
0.0
 41
0.0
 68
     1
 69
     1
 12
0.0
 22
0.0
 13
0.0
 23
0.0
 14
10.0
 24
10.0
 15
10.0
 25
10.0
 16
0.0
 26
0.0
 36
1.0
 17
0.0
 27
0.0
 37
0.0
 42
50.0
 43
0.0
 44
0.0
 45
0.0
 50
0.0
 51
0.0
 72
   100
 90
    32800
  1

281
     0
 71
     1
 74
     0
110
0.0
120
0.0
130
0.0
111
1.0
121
0.0
131
0.0
112
0.0
122
1.0
132
0.0
 79
     0
146
0.0
  0
VIEWPORT
  5
1213C
102
{ACAD_XDICTIONARY
360
142BD
102
}
330
1A
100
AcDbEntity
 67
     1
  8
30
  6
Continuous
100
AcDbViewport
 10
0.0
 20
0.0
 30
0.0
 40
0.0
 41
0.0
 68
     2
 69
     2
 12
200.7015858897093
 22
-184.5079469532693
 13
0.0
 23
0.0
 14
1.0
 24
1.0
 15
10.0
 25
10.0
 16
0.0
 26
0.0
 36
1.0
 17
0.0
 27
0.0
 37
0.0
 42
50.0
 43
0.0
 44
0.0
 45
1624.666777614301
 50
0.0
 51
0.0
 72
   100
 90
    33568
  1

281
     0
 71
     1
 74
     0
110
0.0
120
0.0
130
0.0
111
1.0
121
0.0
131
0.0
112
0.0
122
1.0
132
0.0
 79
     0
146
0.0
  0
ENDSEC
  0
SECTION
  2
OBJECTS
  0
DICTIONARY
  5
C
330
0
100
AcDbDictionary
281
     1
  3
ACAD_COLOR
350
14261
  3
ACAD_GROUP
350
D
  3
ACAD_LAYOUT
350
19
  3
ACAD_MATERIAL
350
14234
  3
ACAD_MLEADERSTYLE
350
14286
  3
ACAD_MLINESTYLE
350
16
  3
ACAD_PLOTSETTINGS
350
18
  3
ACAD_PLOTSTYLENAME
350
E
  3
ACAD_SCALELIST
350
14264
  3
ACAD_TABLESTYLE
350
14262
  3
ACAD_VISUALSTYLE
350
1424D
  3
ACDB_RECOMPOSE_DATA
350
142B5
  3
ACDBVARIABLEDICTIONARY
350
69C9
  3
ASE_INDEX_DICTIONARY
350
142AB
  3
DWGPROPS
350
142B6
  0
DICTIONARY
  5
1428E
330
10
100
AcDbDictionary
280
     1
281
     1
  3
ADSK_XREC_LAYER_RECONCILED
360
1428F
  0
DICTIONARY
  5
14290
330
2F
100
AcDbDictionary
280
     1
281
     1
  3
ADSK_XREC_LAYER_RECONCILED
360
14291
  0
DICTIONARY
  5
14292
330
31
100
AcDbDictionary
280
     1
281
     1
  3
ADSK_XREC_LAYER_RECONCILED
360
14293
  0
DICTIONARY
  5
14294
330
35
100
AcDbDictionary
280
     1
281
     1
  3
ADSK_XREC_LAYER_RECONCILED
360
14295
  0
DICTIONARY
  5
14296
330
38
100
AcDbDictionary
280
     1
281
     1
  3
ADSK_XREC_LAYER_RECONCILED
360
14297
  0
DICTIONARY
  5
14298
330
3C
100
AcDbDictionary
280
     1
281
     1
  3
ADSK_XREC_LAYER_RECONCILED
360
14299
  0
DICTIONARY
  5
1429A
330
3D
100
AcDbDictionary
280
     1
281
     1
  3
ADSK_XREC_LAYER_RECONCILED
360
1429B
  0
DICTIONARY
  5
1429C
330
3A2
100
AcDbDictionary
280
     1
281
     1
  3
ADSK_XREC_LAYER_RECONCILED
360
1429D
  0
DICTIONARY
  5
1429E
330
3BBA
100
AcDbDictionary
280
     1
281
     1
  3
ADSK_XREC_LAYER_RECONCILED
360
1429F
  0
DICTIONARY
  5
142A0
330
3BBB
100
AcDbDictionary
280
     1
281
     1
  3
ADSK_XREC_LAYER_RECONCILED
360
142A1
  0
DICTIONARY
  5
142A2
330
7355
100
AcDbDictionary
280
     1
281
     1
  3
ADSK_XREC_LAYER_RECONCILED
360
142A3
  0
DICTIONARY
  5
142A4
330
970E
100
AcDbDictionary
280
     1
281
     1
  3
ADSK_XREC_LAYER_RECONCILED
360
142A5
  0
DICTIONARY
  5
142A6
330
9BE8
100
AcDbDictionary
280
     1
281
     1
  3
ADSK_XREC_LAYER_RECONCILED
360
142A7
  0
DICTIONARY
  5
142A8
330
9BEA
100
AcDbDictionary
280
     1
281
     1
  3
ADSK_XREC_LAYER_RECONCILED
360
142A9
  0
DICTIONARY
  5
178
330
1E
100
AcDbDictionary
280
     1
281
     1
  3
ACAD_LAYOUTSELFREF
360
7AD3
  0
DICTIONARY
  5
17A
330
1A
100
AcDbDictionary
280
     1
281
     1
  3
ACAD_LAYOUTSELFREF
360
7AD2
  0
DICTIONARY
  5
142B7
330
9AC
100
AcDbDictionary
280
     1
281
     1
  3
ACAD_XREC_ROUNDTRIP
360
142B8
  0
DICTIONARY
  5
142BD
330
1213C
100
AcDbDictionary
280
     1
281
     1
  3
ACAD_XREC_ROUNDTRIP
360
142BE
  0
DICTIONARY
  5
14261
102
{ACAD_REACTORS
330
C
102
}
330
C
100
AcDbDictionary
281
     1
  0
DICTIONARY
  5
D
102
{ACAD_REACTORS
330
C
102
}
330
C
100
AcDbDictionary
281
     1
  0
DICTIONARY
  5
19
102
{ACAD_REACTORS
330
C
102
}
330
C
100
AcDbDictionary
281
     1
  3
Model
350
7AE4
  3
ﾚｲｱｳﾄ1
350
7AE5
  0
DICTIONARY
  5
14234
102
{ACAD_REACTORS
330
C
102
}
330
C
100
AcDbDictionary
281
     1
  3
ByBlock
350
1423D
  3
ByLayer
350
14235
  3
Global
350
14245
  0
DICTIONARY
  5
14286
102
{ACAD_REACTORS
330
C
102
}
330
C
100
AcDbDictionary
281
     1
  3
Standard
350
14287
  0
DICTIONARY
  5
16
102
{ACAD_REACTORS
330
C
102
}
330
C
100
AcDbDictionary
281
     1
  3
STANDARD
350
17
  0
DICTIONARY
  5
18
102
{ACAD_REACTORS
330
C
102
}
330
C
100
AcDbDictionary
281
     1
  0
ACDBDICTIONARYWDFLT
  5
E
102
{ACAD_REACTORS
330
C
102
}
330
C
100
AcDbDictionary
281
     1
  3
Normal
350
F
100
AcDbDictionaryWithDefault
340
F
  0
DICTIONARY
  5
14264
102
{ACAD_REACTORS
330
C
102
}
330
C
100
AcDbDictionary
281
     1
  3
A0
350
14265
  3
A1
350
14266
  3
A2
350
14267
  3
A3
350
14268
  3
A4
350
14269
  3
A5
350
1426A
  3
A6
350
1426B
  3
A7
350
1426C
  3
A8
350
1426D
  3
A9
350
1426E
  3
B0
350
1426F
  3
B1
350
14270
  3
B2
350
14271
  3
B3
350
14272
  3
B4
350
14273
  3
B5
350
14274
  3
B6
350
14275
  3
B7
350
14276
  3
B8
350
14277
  3
B9
350
14278
  3
C0
350
14279
  3
C1
350
1427A
  3
C2
350
1427B
  3
C3
350
1427C
  3
C4
350
1427D
  3
C5
350
1427E
  3
C6
350
1427F
  3
C7
350
14280
  3
C8
350
14281
  3
C9
350
14282
  3
D0
350
14283
  3
D1
350
14284
  3
D2
350
14285
  0
DICTIONARY
  5
14262
102
{ACAD_REACTORS
330
C
102
}
330
C
100
AcDbDictionary
281
     1
  3
Standard
350
14263
  0
DICTIONARY
  5
1424D
102
{ACAD_REACTORS
330
C
102
}
330
C
100
AcDbDictionary
281
     1
  3
2dWireframe
350
14253
  3
3D Hidden
350
14255
  3
3dWireframe
350
14254
  3
Basic
350
14252
  3
Brighten
350
14259
  3
ColorChange
350
1425D
  3
Conceptual
350
14256
  3
Dim
350
14258
  3
EdgeColorOff
350
14260
  3
Facepattern
350
1425C
  3
Flat
350
1424E
  3
FlatWithEdges
350
1424F
  3
Gouraud
350
14250
  3
GouraudWithEdges
350
14251
  3
JitterOff
350
1425E
  3
Linepattern
350
1425B
  3
OverhangOff
350
1425F
  3
Realistic
350
14257
  3
Thicken
350
1425A
  0
XRECORD
  5
142B5
102
{ACAD_REACTORS
330
C
102
}
330
C
100
AcDbXrecord
280
     1
 90
        1
330
14263
  0
DICTIONARY
  5
69C9
102
{ACAD_REACTORS
330
C
102
}
330
C
100
AcDbDictionary
281
     1
  3
CANNOSCALE
350
142B0
  3
CMLEADERSTYLE
350
142AF
  3
CTABLESTYLE
350
142AE
  3
DIMASSOC
350
69CA
  3
INDEXCTL
350
142B1
  3
SORTENTS
350
F572
  3
XCLIPFRAME
350
142B2
  0
DICTIONARY
  5
142AB
102
{ACAD_REACTORS
330
C
102
}
330
C
100
AcDbDictionary
281
     1
  3
ASEBlockHierarchyIndexRecord
350
142AD
1001
DCO15
1040
1734069886.952999
  0
XRECORD
  5
142B6
102
{ACAD_REACTORS
330
C
102
}
330
C
100
AcDbXrecord
280
     1
  1
DWGPROPS COOKIE
  2

  3

  4

  6

  7

  8
cadm
  9

300
=
301
=
302
=
303
=
304
=
305
=
306
=
307
=
308
=
309
=
 40
2.112245462962961
 41
2452286.555658658
 42
2455873.465173067
  1

 90
        0
  0
XRECORD
  5
1428F
102
{ACAD_REACTORS
330
1428E
102
}
330
1428E
100
AcDbXrecord
280
     1
290
     1
  0
XRECORD
  5
14291
102
{ACAD_REACTORS
330
14290
102
}
330
14290
100
AcDbXrecord
280
     1
290
     1
  0
XRECORD
  5
14293
102
{ACAD_REACTORS
330
14292
102
}
330
14292
100
AcDbXrecord
280
     1
290
     1
  0
XRECORD
  5
14295
102
{ACAD_REACTORS
330
14294
102
}
330
14294
100
AcDbXrecord
280
     1
290
     1
  0
XRECORD
  5
14297
102
{ACAD_REACTORS
330
14296
102
}
330
14296
100
AcDbXrecord
280
     1
290
     1
  0
XRECORD
  5
14299
102
{ACAD_REACTORS
330
14298
102
}
330
14298
100
AcDbXrecord
280
     1
290
     1
  0
XRECORD
  5
1429B
102
{ACAD_REACTORS
330
1429A
102
}
330
1429A
100
AcDbXrecord
280
     1
290
     1
  0
XRECORD
  5
1429D
102
{ACAD_REACTORS
330
1429C
102
}
330
1429C
100
AcDbXrecord
280
     1
290
     1
  0
XRECORD
  5
1429F
102
{ACAD_REACTORS
330
1429E
102
}
330
1429E
100
AcDbXrecord
280
     1
290
     1
  0
XRECORD
  5
142A1
102
{ACAD_REACTORS
330
142A0
102
}
330
142A0
100
AcDbXrecord
280
     1
290
     1
  0
XRECORD
  5
142A3
102
{ACAD_REACTORS
330
142A2
102
}
330
142A2
100
AcDbXrecord
280
     1
290
     1
  0
XRECORD
  5
142A5
102
{ACAD_REACTORS
330
142A4
102
}
330
142A4
100
AcDbXrecord
280
     1
290
     1
  0
XRECORD
  5
142A7
102
{ACAD_REACTORS
330
142A6
102
}
330
142A6
100
AcDbXrecord
280
     1
290
     1
  0
XRECORD
  5
142A9
102
{ACAD_REACTORS
330
142A8
102
}
330
142A8
100
AcDbXrecord
280
     1
290
     1
  0
XRECORD
  5
7AD3
102
{ACAD_REACTORS
330
178
102
}
330
178
100
AcDbXrecord
280
     1
340
1E
  0
XRECORD
  5
7AD2
102
{ACAD_REACTORS
330
17A
102
}
330
17A
100
AcDbXrecord
280
     1
340
1A
  0
XRECORD
  5
142B8
102
{ACAD_REACTORS
330
142B7
102
}
330
142B7
100
AcDbXrecord
280
     1
102
SHADEPLOT
 70
     0
  0
XRECORD
  5
142BE
102
{ACAD_REACTORS
330
142BD
102
}
330
142BD
100
AcDbXrecord
280
     1
102
SHADEPLOT
 70
     0
  0
LAYOUT
  5
7AE4
102
{ACAD_XDICTIONARY
360
142B9
102
}
102
{ACAD_REACTORS
330
19
102
}
330
19
100
AcDbPlotSettings
  1

  2
\\NEW_GMMCAD\Canon LBP3800 LIPSLX
  4
A4
  6
OLE1
 40
5.873749732971191
 41
5.873747825622557
 42
5.873748779296875
 43
5.873748779296875
 44
209.9733276367186
 45
296.9259948730469
 46
40.46999999999999
 47
43.28
 48
0.0
 49
0.0
140
0.0
141
0.0
142
1.0
143
7.5
 70
 11940
 72
     1
 73
     0
 74
     1
  7
monochrome.ctb
 75
     0
147
0.1333333333333333
148
149.08460588181
149
810.5995103782031
100
AcDbLayout
  1
Model
 70
     1
 71
     0
 10
0.0
 20
0.0
 11
12.0
 21
9.0
 12
0.0
 22
0.0
 32
0.0
 14
0.0
 24
0.0
 34
0.0
 15
0.0
 25
0.0
 35
0.0
146
0.0
 13
0.0
 23
0.0
 33
0.0
 16
1.0
 26
0.0
 36
0.0
 17
0.0
 27
1.0
 37
0.0
 76
     0
330
1E
331
1422E
  0
LAYOUT
  5
7AE5
102
{ACAD_XDICTIONARY
360
142BB
102
}
102
{ACAD_REACTORS
330
19
102
}
330
19
100
AcDbPlotSettings
  1

  2
LBP5400
  4

  6

 40
0.0
 41
0.0
 42
0.0
 43
0.0
 44
0.0
 45
0.0
 46
0.0
 47
0.0
 48
0.0
 49
0.0
140
0.0
141
0.0
142
1.0
143
1.0
 70
   688
 72
     0
 73
     1
 74
     1
  7
monochrome.stb
 75
     0
147
1.0
148
0.0
149
0.0
100
AcDbLayout
  1
ﾚｲｱｳﾄ1
 70
     1
 71
     1
 10
0.0
 20
0.0
 11
0.0
 21
0.0
 12
0.0
 22
0.0
 32
0.0
 14
0.0
 24
0.0
 34
0.0
 15
0.0
 25
0.0
 35
0.0
146
0.0
 13
0.0
 23
0.0
 33
0.0
 16
1.0
 26
0.0
 36
0.0
 17
0.0
 27
1.0
 37
0.0
 76
     0
330
1A
331
9AC
  0
MATERIAL
  5
1423D
102
{ACAD_XDICTIONARY
360
1423E
102
}
102
{ACAD_REACTORS
330
14234
102
}
330
14234
100
AcDbMaterial
  1
ByBlock
 72
     0
 43
0.0208333333333333
 43
0.0
 43
0.0
 43
0.0
 43
0.0
 43
0.0208333333333333
 43
0.0
 43
0.0
 43
0.0
 43
0.0
 43
1.0
 43
0.0
 43
0.0
 43
0.0
 43
0.0
 43
1.0
 77
     0
 47
0.0208333333333333
 47
0.0
 47
0.0
 47
0.0
 47
0.0
 47
0.0208333333333333
 47
0.0
 47
0.0
 47
0.0
 47
0.0
 47
1.0
 47
0.0
 47
0.0
 47
0.0
 47
0.0
 47
1.0
171
     0
 49
0.0208333333333333
 49
0.0
 49
0.0
 49
0.0
 49
0.0
 49
0.0208333333333333
 49
0.0
 49
0.0
 49
0.0
 49
0.0
 49
1.0
 49
0.0
 49
0.0
 49
0.0
 49
0.0
 49
1.0
175
     0
142
0.0208333333333333
142
0.0
142
0.0
142
0.0
142
0.0
142
0.0208333333333333
142
0.0
142
0.0
142
0.0
142
0.0
142
1.0
142
0.0
142
0.0
142
0.0
142
0.0
142
1.0
179
     0
144
0.0208333333333333
144
0.0
144
0.0
144
0.0
144
0.0
144
0.0208333333333333
144
0.0
144
0.0
144
0.0
144
0.0
144
1.0
144
0.0
144
0.0
144
0.0
144
0.0
144
1.0
147
0.0208333333333333
147
0.0
147
0.0
147
0.0
147
0.0
147
0.0208333333333333
147
0.0
147
0.0
147
0.0
147
0.0
147
1.0
147
0.0
147
0.0
147
0.0
147
0.0
147
1.0
  0
MATERIAL
  5
14235
102
{ACAD_XDICTIONARY
360
14236
102
}
102
{ACAD_REACTORS
330
14234
102
}
330
14234
100
AcDbMaterial
  1
ByLayer
 72
     0
 43
0.0208333333333333
 43
0.0
 43
0.0
 43
0.0
 43
0.0
 43
0.0208333333333333
 43
0.0
 43
0.0
 43
0.0
 43
0.0
 43
1.0
 43
0.0
 43
0.0
 43
0.0
 43
0.0
 43
1.0
 77
     0
 47
0.0208333333333333
 47
0.0
 47
0.0
 47
0.0
 47
0.0
 47
0.0208333333333333
 47
0.0
 47
0.0
 47
0.0
 47
0.0
 47
1.0
 47
0.0
 47
0.0
 47
0.0
 47
0.0
 47
1.0
171
     0
 49
0.0208333333333333
 49
0.0
 49
0.0
 49
0.0
 49
0.0
 49
0.0208333333333333
 49
0.0
 49
0.0
 49
0.0
 49
0.0
 49
1.0
 49
0.0
 49
0.0
 49
0.0
 49
0.0
 49
1.0
175
     0
142
0.0208333333333333
142
0.0
142
0.0
142
0.0
142
0.0
142
0.0208333333333333
142
0.0
142
0.0
142
0.0
142
0.0
142
1.0
142
0.0
142
0.0
142
0.0
142
0.0
142
1.0
179
     0
144
0.0208333333333333
144
0.0
144
0.0
144
0.0
144
0.0
144
0.0208333333333333
144
0.0
144
0.0
144
0.0
144
0.0
144
1.0
144
0.0
144
0.0
144
0.0
144
0.0
144
1.0
147
0.0208333333333333
147
0.0
147
0.0
147
0.0
147
0.0
147
0.0208333333333333
147
0.0
147
0.0
147
0.0
147
0.0
147
1.0
147
0.0
147
0.0
147
0.0
147
0.0
147
1.0
  0
MATERIAL
  5
14245
102
{ACAD_XDICTIONARY
360
14246
102
}
102
{ACAD_REACTORS
330
14234
102
}
330
14234
100
AcDbMaterial
  1
Global
 72
     0
 43
0.0208333333333333
 43
0.0
 43
0.0
 43
0.0
 43
0.0
 43
0.0208333333333333
 43
0.0
 43
0.0
 43
0.0
 43
0.0
 43
1.0
 43
0.0
 43
0.0
 43
0.0
 43
0.0
 43
1.0
 77
     0
 47
0.0208333333333333
 47
0.0
 47
0.0
 47
0.0
 47
0.0
 47
0.0208333333333333
 47
0.0
 47
0.0
 47
0.0
 47
0.0
 47
1.0
 47
0.0
 47
0.0
 47
0.0
 47
0.0
 47
1.0
171
     0
 49
0.0208333333333333
 49
0.0
 49
0.0
 49
0.0
 49
0.0
 49
0.0208333333333333
 49
0.0
 49
0.0
 49
0.0
 49
0.0
 49
1.0
 49
0.0
 49
0.0
 49
0.0
 49
0.0
 49
1.0
175
     0
142
0.0208333333333333
142
0.0
142
0.0
142
0.0
142
0.0
142
0.0208333333333333
142
0.0
142
0.0
142
0.0
142
0.0
142
1.0
142
0.0
142
0.0
142
0.0
142
0.0
142
1.0
179
     0
144
0.0208333333333333
144
0.0
144
0.0
144
0.0
144
0.0
144
0.0208333333333333
144
0.0
144
0.0
144
0.0
144
0.0
144
1.0
144
0.0
144
0.0
144
0.0
144
0.0
144
1.0
147
0.0208333333333333
147
0.0
147
0.0
147
0.0
147
0.0
147
0.0208333333333333
147
0.0
147
0.0
147
0.0
147
0.0
147
1.0
147
0.0
147
0.0
147
0.0
147
0.0
147
1.0
  0
MLEADERSTYLE
  5
14287
102
{ACAD_REACTORS
330
14286
102
}
330
14286
100
AcDbMLeaderStyle
170
     2
171
     1
172
     0
 90
        2
 40
0.0
 41
0.0
173
     1
 91
-1056964608
340
13
 92
       -2
290
     1
 42
0.09
291
     1
 43
0.36
  3
Standard
 44
0.18
300

342
11
174
     1
178
     6
175
     1
176
     0
 93
-1056964608
 45
0.18
292
     0
297
     0
 46
0.18
 94
-1056964608
 47
1.0
 49
1.0
140
1.0
293
     1
141
0.0
294
     1
177
     0
142
1.0
295
     0
296
     0
143
0.125
1001
ACAD_MLEADERVER
1070
     2
  0
MLINESTYLE
  5
17
102
{ACAD_REACTORS
330
16
102
}
330
16
100
AcDbMlineStyle
  2
STANDARD
 70
     0
  3

 62
   256
 51
90.0
 52
90.0
 71
     2
 49
0.5
 62
   256
  6
BYLAYER
 49
-0.5
 62
   256
  6
BYLAYER
  0
ACDBPLACEHOLDER
  5
F
102
{ACAD_REACTORS
330
E
102
}
330
E
  0
SCALE
  5
14265
102
{ACAD_REACTORS
330
14264
102
}
330
14264
100
AcDbScale
 70
     0
300
1:1
140
1.0
141
1.0
290
     1
  0
SCALE
  5
14266
102
{ACAD_REACTORS
330
14264
102
}
330
14264
100
AcDbScale
 70
     0
300
1:2
140
1.0
141
2.0
290
     0
  0
SCALE
  5
14267
102
{ACAD_REACTORS
330
14264
102
}
330
14264
100
AcDbScale
 70
     0
300
1:4
140
1.0
141
4.0
290
     0
  0
SCALE
  5
14268
102
{ACAD_REACTORS
330
14264
102
}
330
14264
100
AcDbScale
 70
     0
300
1:5
140
1.0
141
5.0
290
     0
  0
SCALE
  5
14269
102
{ACAD_REACTORS
330
14264
102
}
330
14264
100
AcDbScale
 70
     0
300
1:8
140
1.0
141
8.0
290
     0
  0
SCALE
  5
1426A
102
{ACAD_REACTORS
330
14264
102
}
330
14264
100
AcDbScale
 70
     0
300
1:10
140
1.0
141
10.0
290
     0
  0
SCALE
  5
1426B
102
{ACAD_REACTORS
330
14264
102
}
330
14264
100
AcDbScale
 70
     0
300
1:16
140
1.0
141
16.0
290
     0
  0
SCALE
  5
1426C
102
{ACAD_REACTORS
330
14264
102
}
330
14264
100
AcDbScale
 70
     0
300
1:20
140
1.0
141
20.0
290
     0
  0
SCALE
  5
1426D
102
{ACAD_REACTORS
330
14264
102
}
330
14264
100
AcDbScale
 70
     0
300
1:30
140
1.0
141
30.0
290
     0
  0
SCALE
  5
1426E
102
{ACAD_REACTORS
330
14264
102
}
330
14264
100
AcDbScale
 70
     0
300
1:40
140
1.0
141
40.0
290
     0
  0
SCALE
  5
1426F
102
{ACAD_REACTORS
330
14264
102
}
330
14264
100
AcDbScale
 70
     0
300
1:50
140
1.0
141
50.0
290
     0
  0
SCALE
  5
14270
102
{ACAD_REACTORS
330
14264
102
}
330
14264
100
AcDbScale
 70
     0
300
1:100
140
1.0
141
100.0
290
     0
  0
SCALE
  5
14271
102
{ACAD_REACTORS
330
14264
102
}
330
14264
100
AcDbScale
 70
     0
300
2:1
140
2.0
141
1.0
290
     0
  0
SCALE
  5
14272
102
{ACAD_REACTORS
330
14264
102
}
330
14264
100
AcDbScale
 70
     0
300
4:1
140
4.0
141
1.0
290
     0
  0
SCALE
  5
14273
102
{ACAD_REACTORS
330
14264
102
}
330
14264
100
AcDbScale
 70
     0
300
8:1
140
8.0
141
1.0
290
     0
  0
SCALE
  5
14274
102
{ACAD_REACTORS
330
14264
102
}
330
14264
100
AcDbScale
 70
     0
300
10:1
140
10.0
141
1.0
290
     0
  0
SCALE
  5
14275
102
{ACAD_REACTORS
330
14264
102
}
330
14264
100
AcDbScale
 70
     0
300
100:1
140
100.0
141
1.0
290
     0
  0
SCALE
  5
14276
102
{ACAD_REACTORS
330
14264
102
}
330
14264
100
AcDbScale
 70
     0
300
1/128" = 1'-0"
140
0.0078125
141
12.0
290
     0
  0
SCALE
  5
14277
102
{ACAD_REACTORS
330
14264
102
}
330
14264
100
AcDbScale
 70
     0
300
1/64" = 1'-0"
140
0.015625
141
12.0
290
     0
  0
SCALE
  5
14278
102
{ACAD_REACTORS
330
14264
102
}
330
14264
100
AcDbScale
 70
     0
300
1/32" = 1'-0"
140
0.03125
141
12.0
290
     0
  0
SCALE
  5
14279
102
{ACAD_REACTORS
330
14264
102
}
330
14264
100
AcDbScale
 70
     0
300
1/16" = 1'-0"
140
0.0625
141
12.0
290
     0
  0
SCALE
  5
1427A
102
{ACAD_REACTORS
330
14264
102
}
330
14264
100
AcDbScale
 70
     0
300
3/32" = 1'-0"
140
0.09375
141
12.0
290
     0
  0
SCALE
  5
1427B
102
{ACAD_REACTORS
330
14264
102
}
330
14264
100
AcDbScale
 70
     0
300
1/8" = 1'-0"
140
0.125
141
12.0
290
     0
  0
SCALE
  5
1427C
102
{ACAD_REACTORS
330
14264
102
}
330
14264
100
AcDbScale
 70
     0
300
3/16" = 1'-0"
140
0.1875
141
12.0
290
     0
  0
SCALE
  5
1427D
102
{ACAD_REACTORS
330
14264
102
}
330
14264
100
AcDbScale
 70
     0
300
1/4" = 1'-0"
140
0.25
141
12.0
290
     0
  0
SCALE
  5
1427E
102
{ACAD_REACTORS
330
14264
102
}
330
14264
100
AcDbScale
 70
     0
300
3/8" = 1'-0"
140
0.375
141
12.0
290
     0
  0
SCALE
  5
1427F
102
{ACAD_REACTORS
330
14264
102
}
330
14264
100
AcDbScale
 70
     0
300
1/2" = 1'-0"
140
0.5
141
12.0
290
     0
  0
SCALE
  5
14280
102
{ACAD_REACTORS
330
14264
102
}
330
14264
100
AcDbScale
 70
     0
300
3/4" = 1'-0"
140
0.75
141
12.0
290
     0
  0
SCALE
  5
14281
102
{ACAD_REACTORS
330
14264
102
}
330
14264
100
AcDbScale
 70
     0
300
1" = 1'-0"
140
1.0
141
12.0
290
     0
  0
SCALE
  5
14282
102
{ACAD_REACTORS
330
14264
102
}
330
14264
100
AcDbScale
 70
     0
300
1-1/2" = 1'-0"
140
1.5
141
12.0
290
     0
  0
SCALE
  5
14283
102
{ACAD_REACTORS
330
14264
102
}
330
14264
100
AcDbScale
 70
     0
300
3" = 1'-0"
140
3.0
141
12.0
290
     0
  0
SCALE
  5
14284
102
{ACAD_REACTORS
330
14264
102
}
330
14264
100
AcDbScale
 70
     0
300
6" = 1'-0"
140
6.0
141
12.0
290
     0
  0
SCALE
  5
14285
102
{ACAD_REACTORS
330
14264
102
}
330
14264
100
AcDbScale
 70
     0
300
1'-0" = 1'-0"
140
12.0
141
12.0
290
     0
  0
TABLESTYLE
  5
14263
102
{ACAD_XDICTIONARY
360
142B3
102
}
102
{ACAD_REACTORS
330
14262
102
}
330
14262
100
AcDbTableStyle
  3
Standard
 70
     0
 71
     0
 40
0.06
 41
0.06
280
     0
281
     0
  7
STANDARD
140
0.18
170
     2
 62
     0
 63
     7
283
     0
274
    -2
284
     1
 64
     0
275
    -2
285
     1
 65
     0
276
    -2
286
     1
 66
     0
277
    -2
287
     1
 67
     0
278
    -2
288
     1
 68
     0
279
    -2
289
     1
 69
     0
  7
STANDARD
140
0.25
170
     5
 62
     0
 63
     7
283
     0
274
    -2
284
     1
 64
     0
275
    -2
285
     1
 65
     0
276
    -2
286
     1
 66
     0
277
    -2
287
     1
 67
     0
278
    -2
288
     1
 68
     0
279
    -2
289
     1
 69
     0
  7
STANDARD
140
0.18
170
     5
 62
     0
 63
     7
283
     0
274
    -2
284
     1
 64
     0
275
    -2
285
     1
 65
     0
276
    -2
286
     1
 66
     0
277
    -2
287
     1
 67
     0
278
    -2
288
     1
 68
     0
279
    -2
289
     1
 69
     0
  0
VISUALSTYLE
  5
14253
102
{ACAD_XDICTIONARY
360
142CC
102
}
102
{ACAD_REACTORS
330
1424D
102
}
330
1424D
100
AcDbVisualStyle
  2
2dWireframe
 70
     4
 71
     0
 72
     2
 73
     0
 90
        0
 40
-0.6
 41
-30.0
 62
     5
 63
     7
 74
     1
 91
        4
 64
     7
 65
   257
 75
     1
175
     1
 42
1.0
 92
        0
 66
   257
 43
1.0
 76
     1
 77
     6
 78
     2
 67
     7
 79
     5
170
     0
171
     0
290
     0
174
     0
 93
        1
 44
0.0
173
     0
291
     0
 45
0.0
1001
ACAD
1000
AcDbSavedByObjectVersion
1070
     0
  0
VISUALSTYLE
  5
14255
102
{ACAD_XDICTIONARY
360
142D0
102
}
102
{ACAD_REACTORS
330
1424D
102
}
330
1424D
100
AcDbVisualStyle
  2
3D Hidden
 70
     6
 71
     1
 72
     2
 73
     2
 90
        0
 40
-0.6
 41
-30.0
 62
     5
 63
     7
 74
     2
 91
        2
 64
     7
 65
   257
 75
     2
175
     1
 42
179.0
 92
        0
 66
   257
 43
1.0
 76
     1
 77
     6
 78
     2
 67
     7
 79
     3
170
     0
171
     0
290
     0
174
     0
 93
        1
 44
0.0
173
     0
291
     0
 45
0.0
1001
ACAD
1000
AcDbSavedByObjectVersion
1070
     0
  0
VISUALSTYLE
  5
14254
102
{ACAD_XDICTIONARY
360
142CE
102
}
102
{ACAD_REACTORS
330
1424D
102
}
330
1424D
100
AcDbVisualStyle
  2
3dWireframe
 70
     5
 71
     0
 72
     2
 73
     0
 90
        0
 40
-0.6
 41
-30.0
 62
     5
 63
     7
 74
     1
 91
        4
 64
     7
 65
   257
 75
     1
175
     1
 42
1.0
 92
        0
 66
   257
 43
1.0
 76
     1
 77
     6
 78
     2
 67
     7
 79
     5
170
     0
171
     0
290
     0
174
     0
 93
        1
 44
0.0
173
     0
291
     0
 45
0.0
1001
ACAD
1000
AcDbSavedByObjectVersion
1070
     0
  0
VISUALSTYLE
  5
14252
102
{ACAD_XDICTIONARY
360
142CA
102
}
102
{ACAD_REACTORS
330
1424D
102
}
330
1424D
100
AcDbVisualStyle
  2
Basic
 70
     7
 71
     1
 72
     0
 73
     1
 90
        0
 40
-0.6
 41
-30.0
 62
     5
 63
     7
 74
     0
 91
        4
 64
     7
 65
   257
 75
     1
175
     1
 42
1.0
 92
        8
 66
     7
 43
1.0
 76
     1
 77
     6
 78
     2
 67
     7
 79
     5
170
     0
171
     0
290
     0
174
     0
 93
        1
 44
0.0
173
     0
291
     1
 45
0.0
1001
ACAD
1000
AcDbSavedByObjectVersion
1070
     0
  0
VISUALSTYLE
  5
14259
102
{ACAD_XDICTIONARY
360
142D8
102
}
102
{ACAD_REACTORS
330
1424D
102
}
330
1424D
100
AcDbVisualStyle
  2
Brighten
 70
    12
 71
     2
 72
     2
 73
     0
 90
        0
 40
-0.6
 41
-30.0
 62
     5
 63
     7
 74
     1
 91
        4
 64
     7
 65
   257
 75
     1
175
     1
 42
1.0
 92
        8
 66
     7
 43
1.0
 76
     1
 77
     6
 78
     2
 67
     7
 79
     5
170
     0
171
     0
290
     0
174
     0
 93
        1
 44
50.0
173
     0
291
     1
 45
0.0
1001
ACAD
1000
AcDbSavedByObjectVersion
1070
     0
  0
VISUALSTYLE
  5
1425D
102
{ACAD_XDICTIONARY
360
142E0
102
}
102
{ACAD_REACTORS
330
1424D
102
}
330
1424D
100
AcDbVisualStyle
  2
ColorChange
 70
    16
 71
     2
 72
     2
 73
     3
 90
        0
 40
-0.6
 41
-30.0
 62
     5
 63
     8
 74
     1
 91
        4
 64
     7
 65
   257
 75
     1
175
     1
 42
1.0
 92
        8
 66
     8
 43
1.0
 76
     1
 77
     6
 78
     2
 67
     7
 79
     5
170
     0
171
     0
290
     0
174
     0
 93
        1
 44
0.0
173
     0
291
     1
 45
0.0
1001
ACAD
1000
AcDbSavedByObjectVersion
1070
     0
  0
VISUALSTYLE
  5
14256
102
{ACAD_XDICTIONARY
360
142D2
102
}
102
{ACAD_REACTORS
330
1424D
102
}
330
1424D
100
AcDbVisualStyle
  2
Conceptual
 70
     9
 71
     3
 72
     2
 73
     0
 90
        0
 40
-0.6
 41
-30.0
 62
     5
 63
     7
 74
     2
 91
        2
 64
     7
 65
   257
 75
     1
175
     1
 42
179.0
 92
        8
 66
     7
 43
1.0
 76
     1
 77
     6
 78
     2
 67
     7
 79
     3
170
     0
171
     0
290
     0
174
     0
 93
        1
 44
0.0
173
     0
291
     0
 45
0.0
1001
ACAD
1000
AcDbSavedByObjectVersion
1070
     0
  0
VISUALSTYLE
  5
14258
102
{ACAD_XDICTIONARY
360
142D6
102
}
102
{ACAD_REACTORS
330
1424D
102
}
330
1424D
100
AcDbVisualStyle
  2
Dim
 70
    11
 71
     2
 72
     2
 73
     0
 90
        0
 40
-0.6
 41
-30.0
 62
     5
 63
     7
 74
     1
 91
        4
 64
     7
 65
   257
 75
     1
175
     1
 42
1.0
 92
        8
 66
     7
 43
1.0
 76
     1
 77
     6
 78
     2
 67
     7
 79
     5
170
     0
171
     0
290
     0
174
     0
 93
        1
 44
-50.0
173
     0
291
     1
 45
0.0
1001
ACAD
1000
AcDbSavedByObjectVersion
1070
     0
  0
VISUALSTYLE
  5
14260
102
{ACAD_XDICTIONARY
360
142E6
102
}
102
{ACAD_REACTORS
330
1424D
102
}
330
1424D
100
AcDbVisualStyle
  2
EdgeColorOff
 70
    22
 71
     2
 72
     2
 73
     0
 90
        0
 40
-0.6
 41
-30.0
 62
     5
 63
     7
 74
     1
 91
        4
 64
     7
 65
   257
 75
     1
175
     1
 42
1.0
 92
        8
 66
     7
 43
1.0
 76
     1
 77
     6
 78
     2
 67
     7
 79
     5
170
     0
171
     0
290
     0
174
     0
 93
        1
 44
0.0
173
     0
291
     1
 45
0.0
1001
ACAD
1000
AcDbSavedByObjectVersion
1070
     0
  0
VISUALSTYLE
  5
1425C
102
{ACAD_XDICTIONARY
360
142DE
102
}
102
{ACAD_REACTORS
330
1424D
102
}
330
1424D
100
AcDbVisualStyle
  2
Facepattern
 70
    15
 71
     2
 72
     2
 73
     0
 90
        0
 40
-0.6
 41
-30.0
 62
     5
 63
     7
 74
     1
 91
        4
 64
     7
 65
   257
 75
     1
175
     1
 42
1.0
 92
        8
 66
     7
 43
1.0
 76
     1
 77
     6
 78
     2
 67
     7
 79
     5
170
     0
171
     0
290
     0
174
     0
 93
        1
 44
0.0
173
     0
291
     1
 45
0.0
1001
ACAD
1000
AcDbSavedByObjectVersion
1070
     0
  0
VISUALSTYLE
  5
1424E
102
{ACAD_XDICTIONARY
360
142C2
102
}
102
{ACAD_REACTORS
330
1424D
102
}
330
1424D
100
AcDbVisualStyle
  2
Flat
 70
     0
 71
     2
 72
     1
 73
     1
 90
        2
 40
-0.6
 41
30.0
 62
     5
 63
     7
 74
     0
 91
        4
 64
     7
 65
   257
 75
     1
175
     1
 42
1.0
 92
        8
 66
     7
 43
1.0
 76
     1
 77
     6
 78
     2
 67
     7
 79
     5
170
     0
171
     0
290
     0
174
     0
 93
       13
 44
0.0
173
     0
291
     1
 45
0.0
1001
ACAD
1000
AcDbSavedByObjectVersion
1070
     0
  0
VISUALSTYLE
  5
1424F
102
{ACAD_XDICTIONARY
360
142C4
102
}
102
{ACAD_REACTORS
330
1424D
102
}
330
1424D
100
AcDbVisualStyle
  2
FlatWithEdges
 70
     1
 71
     2
 72
     1
 73
     1
 90
        2
 40
-0.6
 41
30.0
 62
     5
 63
     7
 74
     1
 91
        4
 64
     7
 65
   257
 75
     1
175
     1
 42
1.0
 92
        0
 66
   257
 43
1.0
 76
     1
 77
     6
 78
     2
 67
     7
 79
     5
170
     0
171
     0
290
     0
174
     0
 93
       13
 44
0.0
173
     0
291
     1
 45
0.0
1001
ACAD
1000
AcDbSavedByObjectVersion
1070
     0
  0
VISUALSTYLE
  5
14250
102
{ACAD_XDICTIONARY
360
142C6
102
}
102
{ACAD_REACTORS
330
1424D
102
}
330
1424D
100
AcDbVisualStyle
  2
Gouraud
 70
     2
 71
     2
 72
     2
 73
     1
 90
        2
 40
-0.6
 41
30.0
 62
     5
 63
     7
 74
     0
 91
        4
 64
     7
 65
   257
 75
     1
175
     1
 42
1.0
 92
        0
 66
     7
 43
1.0
 76
     1
 77
     6
 78
     2
 67
     7
 79
     5
170
     0
171
     0
290
     0
174
     0
 93
       13
 44
0.0
173
     0
291
     1
 45
0.0
1001
ACAD
1000
AcDbSavedByObjectVersion
1070
     0
  0
VISUALSTYLE
  5
14251
102
{ACAD_XDICTIONARY
360
142C8
102
}
102
{ACAD_REACTORS
330
1424D
102
}
330
1424D
100
AcDbVisualStyle
  2
GouraudWithEdges
 70
     3
 71
     2
 72
     2
 73
     1
 90
        2
 40
-0.6
 41
30.0
 62
     5
 63
     7
 74
     1
 91
        4
 64
     7
 65
   257
 75
     1
175
     1
 42
1.0
 92
        0
 66
   257
 43
1.0
 76
     1
 77
     6
 78
     2
 67
     7
 79
     5
170
     0
171
     0
290
     0
174
     0
 93
       13
 44
0.0
173
     0
291
     1
 45
0.0
1001
ACAD
1000
AcDbSavedByObjectVersion
1070
     0
  0
VISUALSTYLE
  5
1425E
102
{ACAD_XDICTIONARY
360
142E2
102
}
102
{ACAD_REACTORS
330
1424D
102
}
330
1424D
100
AcDbVisualStyle
  2
JitterOff
 70
    20
 71
     2
 72
     2
 73
     0
 90
        0
 40
-0.6
 41
-30.0
 62
     5
 63
     7
 74
     1
 91
        4
 64
     7
 65
   257
 75
     1
175
     1
 42
1.0
 92
       10
 66
     7
 43
1.0
 76
     1
 77
     6
 78
     2
 67
     7
 79
     5
170
     0
171
     0
290
     0
174
     0
 93
        1
 44
0.0
173
     0
291
     1
 45
0.0
1001
ACAD
1000
AcDbSavedByObjectVersion
1070
     0
  0
VISUALSTYLE
  5
1425B
102
{ACAD_XDICTIONARY
360
142DC
102
}
102
{ACAD_REACTORS
330
1424D
102
}
330
1424D
100
AcDbVisualStyle
  2
Linepattern
 70
    14
 71
     2
 72
     2
 73
     0
 90
        0
 40
-0.6
 41
-30.0
 62
     5
 63
     7
 74
     1
 91
        4
 64
     7
 65
   257
 75
     7
175
     7
 42
1.0
 92
        8
 66
     7
 43
1.0
 76
     1
 77
     6
 78
     2
 67
     7
 79
     5
170
     0
171
     0
290
     0
174
     0
 93
        1
 44
0.0
173
     0
291
     1
 45
0.0
1001
ACAD
1000
AcDbSavedByObjectVersion
1070
     0
  0
VISUALSTYLE
  5
1425F
102
{ACAD_XDICTIONARY
360
142E4
102
}
102
{ACAD_REACTORS
330
1424D
102
}
330
1424D
100
AcDbVisualStyle
  2
OverhangOff
 70
    21
 71
     2
 72
     2
 73
     0
 90
        0
 40
-0.6
 41
-30.0
 62
     5
 63
     7
 74
     1
 91
        4
 64
     7
 65
   257
 75
     1
175
     1
 42
1.0
 92
        9
 66
     7
 43
1.0
 76
     1
 77
     6
 78
     2
 67
     7
 79
     5
170
     0
171
     0
290
     0
174
     0
 93
        1
 44
0.0
173
     0
291
     1
 45
0.0
1001
ACAD
1000
AcDbSavedByObjectVersion
1070
     0
  0
VISUALSTYLE
  5
14257
102
{ACAD_XDICTIONARY
360
142D4
102
}
102
{ACAD_REACTORS
330
1424D
102
}
330
1424D
100
AcDbVisualStyle
  2
Realistic
 70
     8
 71
     2
 72
     2
 73
     0
 90
        0
 40
-0.6
 41
-30.0
 62
     5
 63
     7
 74
     1
 91
        0
 64
     7
 65
   257
 75
     1
175
     1
 42
1.0
 92
        8
 66
     8
 43
1.0
 76
     1
 77
     6
 78
     2
 67
     7
 79
     5
170
     0
171
     0
290
     0
174
     0
 93
       13
 44
0.0
173
     0
291
     0
 45
0.0
1001
ACAD
1000
AcDbSavedByObjectVersion
1070
     0
  0
VISUALSTYLE
  5
1425A
102
{ACAD_XDICTIONARY
360
142DA
102
}
102
{ACAD_REACTORS
330
1424D
102
}
330
1424D
100
AcDbVisualStyle
  2
Thicken
 70
    13
 71
     2
 72
     2
 73
     0
 90
        0
 40
-0.6
 41
-30.0
 62
     5
 63
     7
 74
     1
 91
        4
 64
     7
 65
   257
 75
     1
175
     1
 42
1.0
 92
       12
 66
     7
 43
1.0
 76
     1
 77
     6
 78
     2
 67
     7
 79
     5
170
     0
171
     0
290
     0
174
     0
 93
        1
 44
0.0
173
     0
291
     1
 45
0.0
1001
ACAD
1000
AcDbSavedByObjectVersion
1070
     0
  0
DICTIONARYVAR
  5
142B0
102
{ACAD_REACTORS
330
69C9
102
}
330
69C9
100
DictionaryVariables
280
     0
  1
1:1
  0
DICTIONARYVAR
  5
142AF
102
{ACAD_REACTORS
330
69C9
102
}
330
69C9
100
DictionaryVariables
280
     0
  1
STANDARD
  0
DICTIONARYVAR
  5
142AE
102
{ACAD_REACTORS
330
69C9
102
}
330
69C9
100
DictionaryVariables
280
     0
  1
STANDARD
  0
DICTIONARYVAR
  5
69CA
102
{ACAD_REACTORS
330
69C9
102
}
330
69C9
100
DictionaryVariables
280
     0
  1
1
  0
DICTIONARYVAR
  5
142B1
102
{ACAD_REACTORS
330
69C9
102
}
330
69C9
100
DictionaryVariables
280
     0
  1
0
  0
DICTIONARYVAR
  5
F572
102
{ACAD_REACTORS
330
69C9
102
}
330
69C9
100
DictionaryVariables
280
     0
  1
96
  0
DICTIONARYVAR
  5
142B2
102
{ACAD_REACTORS
330
69C9
102
}
330
69C9
100
DictionaryVariables
280
     0
  1
2
  0
XRECORD
  5
142AD
102
{ACAD_REACTORS
330
142AB
102
}
330
142AB
100
AcDbXrecord
280
     1
330
13F78
330
13F79
330
13F81
330
13F82
330
13F5D
330
13F5E
330
13FD4
330
13FD5
330
140AD
330
140AE
330
140A4
330
140A5
330
14047
330
14048
330
1411E
330
1411F
330
14128
330
14127
330
1406C
330
1406D
330
14063
330
14064
330
13F6F
330
13F70
330
13F0C
330
13F0D
330
13F15
330
13F16
330
13FDD
330
13FDE
330
13FE6
330
13FE7
330
13EF9
330
13EFA
330
13FC2
330
13FC3
330
13FCB
330
13FCC
330
13F94
330
13F95
330
13F8A
330
13F8B
330
13F03
330
13F04
330
13F66
330
13F67
330
13F9E
330
13F9F
330
13FA7
330
13FA8
330
13FB0
330
13FB1
330
13FB9
330
13FBA
330
1416F
330
14170
330
14177
330
1418B
  0
DICTIONARY
  5
142B9
330
7AE4
100
AcDbDictionary
280
     1
281
     1
  3
ACAD_XREC_ROUNDTRIP
360
142BA
  0
DICTIONARY
  5
142BB
330
7AE5
100
AcDbDictionary
280
     1
281
     1
  3
ACAD_XREC_ROUNDTRIP
360
142BC
  0
DICTIONARY
  5
1423E
330
1423D
100
AcDbDictionary
280
     1
281
     1
  3
ACAD_XREC_ROUNDTRIP
360
142C0
  3
BUMPTILE
360
14240
  3
DIFFUSETILE
360
1423F
  3
OPACITYTILE
360
14243
  3
REFLECTIONTILE
360
14242
  3
REFRACTIONTILE
360
14244
  3
SPECULARTILE
360
14241
  0
DICTIONARY
  5
14236
330
14235
100
AcDbDictionary
280
     1
281
     1
  3
ACAD_XREC_ROUNDTRIP
360
142BF
  3
BUMPTILE
360
14238
  3
DIFFUSETILE
360
14237
  3
OPACITYTILE
360
1423B
  3
REFLECTIONTILE
360
1423A
  3
REFRACTIONTILE
360
1423C
  3
SPECULARTILE
360
14239
  0
DICTIONARY
  5
14246
330
14245
100
AcDbDictionary
280
     1
281
     1
  3
ACAD_XREC_ROUNDTRIP
360
142C1
  3
BUMPTILE
360
14248
  3
DIFFUSETILE
360
14247
  3
OPACITYTILE
360
1424B
  3
REFLECTIONTILE
360
1424A
  3
REFRACTIONTILE
360
1424C
  3
SPECULARTILE
360
14249
  0
DICTIONARY
  5
142B3
330
14263
100
AcDbDictionary
280
     1
281
     1
  3
ACAD_ROUNDTRIP_2008_TABLESTYLE_CELLSTYLEMAP
360
142B4
  3
ACAD_XREC_ROUNDTRIP
360
142E8
  0
DICTIONARY
  5
142CC
330
14253
100
AcDbDictionary
280
     1
281
     1
  3
ACAD_XREC_ROUNDTRIP
360
142CD
  0
DICTIONARY
  5
142D0
330
14255
100
AcDbDictionary
280
     1
281
     1
  3
ACAD_XREC_ROUNDTRIP
360
142D1
  0
DICTIONARY
  5
142CE
330
14254
100
AcDbDictionary
280
     1
281
     1
  3
ACAD_XREC_ROUNDTRIP
360
142CF
  0
DICTIONARY
  5
142CA
330
14252
100
AcDbDictionary
280
     1
281
     1
  3
ACAD_XREC_ROUNDTRIP
360
142CB
  0
DICTIONARY
  5
142D8
330
14259
100
AcDbDictionary
280
     1
281
     1
  3
ACAD_XREC_ROUNDTRIP
360
142D9
  0
DICTIONARY
  5
142E0
330
1425D
100
AcDbDictionary
280
     1
281
     1
  3
ACAD_XREC_ROUNDTRIP
360
142E1
  0
DICTIONARY
  5
142D2
330
14256
100
AcDbDictionary
280
     1
281
     1
  3
ACAD_XREC_ROUNDTRIP
360
142D3
  0
DICTIONARY
  5
142D6
330
14258
100
AcDbDictionary
280
     1
281
     1
  3
ACAD_XREC_ROUNDTRIP
360
142D7
  0
DICTIONARY
  5
142E6
330
14260
100
AcDbDictionary
280
     1
281
     1
  3
ACAD_XREC_ROUNDTRIP
360
142E7
  0
DICTIONARY
  5
142DE
330
1425C
100
AcDbDictionary
280
     1
281
     1
  3
ACAD_XREC_ROUNDTRIP
360
142DF
  0
DICTIONARY
  5
142C2
330
1424E
100
AcDbDictionary
280
     1
281
     1
  3
ACAD_XREC_ROUNDTRIP
360
142C3
  0
DICTIONARY
  5
142C4
330
1424F
100
AcDbDictionary
280
     1
281
     1
  3
ACAD_XREC_ROUNDTRIP
360
142C5
  0
DICTIONARY
  5
142C6
330
14250
100
AcDbDictionary
280
     1
281
     1
  3
ACAD_XREC_ROUNDTRIP
360
142C7
  0
DICTIONARY
  5
142C8
330
14251
100
AcDbDictionary
280
     1
281
     1
  3
ACAD_XREC_ROUNDTRIP
360
142C9
  0
DICTIONARY
  5
142E2
330
1425E
100
AcDbDictionary
280
     1
281
     1
  3
ACAD_XREC_ROUNDTRIP
360
142E3
  0
DICTIONARY
  5
142DC
330
1425B
100
AcDbDictionary
280
     1
281
     1
  3
ACAD_XREC_ROUNDTRIP
360
142DD
  0
DICTIONARY
  5
142E4
330
1425F
100
AcDbDictionary
280
     1
281
     1
  3
ACAD_XREC_ROUNDTRIP
360
142E5
  0
DICTIONARY
  5
142D4
330
14257
100
AcDbDictionary
280
     1
281
     1
  3
ACAD_XREC_ROUNDTRIP
360
142D5
  0
DICTIONARY
  5
142DA
330
1425A
100
AcDbDictionary
280
     1
281
     1
  3
ACAD_XREC_ROUNDTRIP
360
142DB
  0
XRECORD
  5
142BA
102
{ACAD_REACTORS
330
142B9
102
}
330
142B9
100
AcDbXrecord
280
     1
102
SHADEPLOT
 70
     0
102
SHADEPLOTRESLEVEL
 70
     2
102
SHADEPLOTCUSTOMDPI
 70
   300
  0
XRECORD
  5
142BC
102
{ACAD_REACTORS
330
142BB
102
}
330
142BB
100
AcDbXrecord
280
     1
102
SHADEPLOT
 70
     0
102
SHADEPLOTRESLEVEL
 70
     2
102
SHADEPLOTCUSTOMDPI
 70
   300
  0
XRECORD
  5
142C0
102
{ACAD_REACTORS
330
1423E
102
}
330
1423E
100
AcDbXrecord
280
     1
102
MATERIAL
148
0.0
149
0.0
149
0.0
 93
        0
 94
      127
282
     0
 72
     0
 77
     0
171
     0
175
     0
179
     0
273
     0
  0
XRECORD
  5
14240
102
{ACAD_REACTORS
330
1423E
102
}
330
1423E
100
AcDbXrecord
280
     1
270
     1
271
     1
  0
XRECORD
  5
1423F
102
{ACAD_REACTORS
330
1423E
102
}
330
1423E
100
AcDbXrecord
280
     1
270
     1
271
     1
  0
XRECORD
  5
14243
102
{ACAD_REACTORS
330
1423E
102
}
330
1423E
100
AcDbXrecord
280
     1
270
     1
271
     1
  0
XRECORD
  5
14242
102
{ACAD_REACTORS
330
1423E
102
}
330
1423E
100
AcDbXrecord
280
     1
270
     1
271
     1
  0
XRECORD
  5
14244
102
{ACAD_REACTORS
330
1423E
102
}
330
1423E
100
AcDbXrecord
280
     1
270
     1
271
     1
  0
XRECORD
  5
14241
102
{ACAD_REACTORS
330
1423E
102
}
330
1423E
100
AcDbXrecord
280
     1
270
     1
271
     1
  0
XRECORD
  5
142BF
102
{ACAD_REACTORS
330
14236
102
}
330
14236
100
AcDbXrecord
280
     1
102
MATERIAL
148
0.0
149
0.0
149
0.0
 93
        0
 94
      127
282
     0
 72
     0
 77
     0
171
     0
175
     0
179
     0
273
     0
  0
XRECORD
  5
14238
102
{ACAD_REACTORS
330
14236
102
}
330
14236
100
AcDbXrecord
280
     1
270
     1
271
     1
  0
XRECORD
  5
14237
102
{ACAD_REACTORS
330
14236
102
}
330
14236
100
AcDbXrecord
280
     1
270
     1
271
     1
  0
XRECORD
  5
1423B
102
{ACAD_REACTORS
330
14236
102
}
330
14236
100
AcDbXrecord
280
     1
270
     1
271
     1
  0
XRECORD
  5
1423A
102
{ACAD_REACTORS
330
14236
102
}
330
14236
100
AcDbXrecord
280
     1
270
     1
271
     1
  0
XRECORD
  5
1423C
102
{ACAD_REACTORS
330
14236
102
}
330
14236
100
AcDbXrecord
280
     1
270
     1
271
     1
  0
XRECORD
  5
14239
102
{ACAD_REACTORS
330
14236
102
}
330
14236
100
AcDbXrecord
280
     1
270
     1
271
     1
  0
XRECORD
  5
142C1
102
{ACAD_REACTORS
330
14246
102
}
330
14246
100
AcDbXrecord
280
     1
102
MATERIAL
148
0.0
149
0.0
149
0.0
 93
        0
 94
      127
282
     0
 72
     0
 77
     0
171
     0
175
     0
179
     0
273
     0
  0
XRECORD
  5
14248
102
{ACAD_REACTORS
330
14246
102
}
330
14246
100
AcDbXrecord
280
     1
270
     1
271
     1
  0
XRECORD
  5
14247
102
{ACAD_REACTORS
330
14246
102
}
330
14246
100
AcDbXrecord
280
     1
270
     1
271
     1
  0
XRECORD
  5
1424B
102
{ACAD_REACTORS
330
14246
102
}
330
14246
100
AcDbXrecord
280
     1
270
     1
271
     1
  0
XRECORD
  5
1424A
102
{ACAD_REACTORS
330
14246
102
}
330
14246
100
AcDbXrecord
280
     1
270
     1
271
     1
  0
XRECORD
  5
1424C
102
{ACAD_REACTORS
330
14246
102
}
330
14246
100
AcDbXrecord
280
     1
270
     1
271
     1
  0
XRECORD
  5
14249
102
{ACAD_REACTORS
330
14246
102
}
330
14246
100
AcDbXrecord
280
     1
270
     1
271
     1
  0
CELLSTYLEMAP
  5
142B4
102
{ACAD_REACTORS
330
142B3
102
}
330
142B3
100
AcDbCellStyleMap
 90
        3
300
CELLSTYLE
  1
TABLEFORMAT_BEGIN
 90
        5
170
     1
 91
        0
 92
    32768
 62
   257
 93
        1
300
CONTENTFORMAT
  1
CONTENTFORMAT_BEGIN
 90
        0
 91
        0
 92
      512
 93
        0
300

 40
0.0
140
1.0
 94
        5
 62
     0
340
11
144
0.25
309
CONTENTFORMAT_END
171
     0
 94
        0
309
TABLEFORMAT_END
  1
CELLSTYLE_BEGIN
 90
        1
 91
        1
300
_TITLE
309
CELLSTYLE_END
300
CELLSTYLE
  1
TABLEFORMAT_BEGIN
 90
        5
170
     1
 91
        0
 92
        0
 62
   257
 93
        1
300
CONTENTFORMAT
  1
CONTENTFORMAT_BEGIN
 90
        0
 91
        0
 92
      512
 93
        0
300

 40
0.0
140
1.0
 94
        5
 62
     0
340
11
144
0.18
309
CONTENTFORMAT_END
171
     0
 94
        0
309
TABLEFORMAT_END
  1
CELLSTYLE_BEGIN
 90
        2
 91
        1
300
_HEADER
309
CELLSTYLE_END
300
CELLSTYLE
  1
TABLEFORMAT_BEGIN
 90
        5
170
     1
 91
        0
 92
        0
 62
   257
 93
        1
300
CONTENTFORMAT
  1
CONTENTFORMAT_BEGIN
 90
        0
 91
        0
 92
      512
 93
        0
300

 40
0.0
140
1.0
 94
        2
 62
     0
340
11
144
0.18
309
CONTENTFORMAT_END
171
     0
 94
        0
309
TABLEFORMAT_END
  1
CELLSTYLE_BEGIN
 90
        3
 91
        2
300
_DATA
309
CELLSTYLE_END
  0
XRECORD
  5
142E8
102
{ACAD_REACTORS
330
142B3
102
}
330
142B3
100
AcDbXrecord
280
     1
102
ACAD_ROUNDTRIP_PRE2007_TABLESTYLE
 90
      512
 91
        0
  1

 92
      512
 93
        0
  2

 94
      512
 95
        0
  3

  0
XRECORD
  5
142CD
102
{ACAD_REACTORS
330
142CC
102
}
330
142CC
100
AcDbXrecord
280
     1
102
RTVSPropertyOp0
 70
     1
102
RTVSPropertyOp1
 70
     1
102
RTVSPropertyOp2
 70
     1
102
RTVSPropertyOp3
 70
     1
102
RTVSPropertyOp4
 70
     1
102
RTVSPropertyOp5
 70
     1
102
RTVSPropertyOp6
 70
     1
102
RTVSPropertyOp7
 70
     1
102
RTVSPropertyOp8
 70
     1
102
RTVSPropertyOp9
 70
     1
102
RTVSPropertyOp10
 70
     1
102
RTVSPropertyOp11
 70
     1
102
RTVSPropertyOp12
 70
     1
102
RTVSPropertyOp13
 70
     1
102
RTVSPropertyOp14
 70
     1
102
RTVSPropertyOp15
 70
     1
102
RTVSPropertyOp16
 70
     1
102
RTVSPropertyOp17
 70
     1
102
RTVSPropertyOp18
 70
     1
102
RTVSPropertyOp19
 70
     1
102
RTVSPropertyOp20
 70
     1
102
RTVSPropertyOp21
 70
     1
102
RTVSPropertyOp22
 70
     1
102
RTVSPropertyOp23
 70
     1
102
RTVSPropertyOp24
 70
     1
102
RTVSPropertyOp25
 70
     1
102
RTVSPropertyOp26
 70
     1
102
RTVSPropertyOp27
 70
     1
  0
XRECORD
  5
142D1
102
{ACAD_REACTORS
330
142D0
102
}
330
142D0
100
AcDbXrecord
280
     1
102
RTVSPropertyOp0
 70
     1
102
RTVSPropertyOp1
 70
     1
102
RTVSPropertyOp2
 70
     1
102
RTVSPropertyOp3
 70
     1
102
RTVSPropertyOp4
 70
     1
102
RTVSPropertyOp5
 70
     1
102
RTVSPropertyOp6
 70
     1
102
RTVSPropertyOp7
 70
     1
102
RTVSPropertyOp8
 70
     1
102
RTVSPropertyOp9
 70
     1
102
RTVSPropertyOp10
 70
     1
102
RTVSPropertyOp11
 70
     1
102
RTVSPropertyOp12
 70
     1
102
RTVSPropertyOp13
 70
     1
102
RTVSPropertyOp14
 70
     1
102
RTVSPropertyOp15
 70
     1
102
RTVSPropertyOp16
 70
     1
102
RTVSPropertyOp17
 70
     1
102
RTVSPropertyOp18
 70
     1
102
RTVSPropertyOp19
 70
     1
102
RTVSPropertyOp20
 70
     1
102
RTVSPropertyOp21
 70
     1
102
RTVSPropertyOp22
 70
     1
102
RTVSPropertyOp23
 70
     1
102
RTVSPropertyOp24
 70
     1
102
RTVSPropertyOp25
 70
     1
102
RTVSPropertyOp26
 70
     1
102
RTVSPropertyOp27
 70
     1
  0
XRECORD
  5
142CF
102
{ACAD_REACTORS
330
142CE
102
}
330
142CE
100
AcDbXrecord
280
     1
102
RTVSPropertyOp0
 70
     1
102
RTVSPropertyOp1
 70
     1
102
RTVSPropertyOp2
 70
     1
102
RTVSPropertyOp3
 70
     1
102
RTVSPropertyOp4
 70
     1
102
RTVSPropertyOp5
 70
     1
102
RTVSPropertyOp6
 70
     1
102
RTVSPropertyOp7
 70
     1
102
RTVSPropertyOp8
 70
     1
102
RTVSPropertyOp9
 70
     1
102
RTVSPropertyOp10
 70
     1
102
RTVSPropertyOp11
 70
     1
102
RTVSPropertyOp12
 70
     1
102
RTVSPropertyOp13
 70
     1
102
RTVSPropertyOp14
 70
     1
102
RTVSPropertyOp15
 70
     1
102
RTVSPropertyOp16
 70
     1
102
RTVSPropertyOp17
 70
     1
102
RTVSPropertyOp18
 70
     1
102
RTVSPropertyOp19
 70
     1
102
RTVSPropertyOp20
 70
     1
102
RTVSPropertyOp21
 70
     1
102
RTVSPropertyOp22
 70
     1
102
RTVSPropertyOp23
 70
     1
102
RTVSPropertyOp24
 70
     1
102
RTVSPropertyOp25
 70
     1
102
RTVSPropertyOp26
 70
     1
102
RTVSPropertyOp27
 70
     1
  0
XRECORD
  5
142CB
102
{ACAD_REACTORS
330
142CA
102
}
330
142CA
100
AcDbXrecord
280
     1
102
RTVSPropertyOp0
 70
     1
102
RTVSPropertyOp1
 70
     1
102
RTVSPropertyOp2
 70
     1
102
RTVSPropertyOp3
 70
     1
102
RTVSPropertyOp4
 70
     1
102
RTVSPropertyOp5
 70
     1
102
RTVSPropertyOp6
 70
     1
102
RTVSPropertyOp7
 70
     1
102
RTVSPropertyOp8
 70
     1
102
RTVSPropertyOp9
 70
     1
102
RTVSPropertyOp10
 70
     1
102
RTVSPropertyOp11
 70
     1
102
RTVSPropertyOp12
 70
     1
102
RTVSPropertyOp13
 70
     1
102
RTVSPropertyOp14
 70
     1
102
RTVSPropertyOp15
 70
     1
102
RTVSPropertyOp16
 70
     1
102
RTVSPropertyOp17
 70
     1
102
RTVSPropertyOp18
 70
     1
102
RTVSPropertyOp19
 70
     1
102
RTVSPropertyOp20
 70
     1
102
RTVSPropertyOp21
 70
     1
102
RTVSPropertyOp22
 70
     1
102
RTVSPropertyOp23
 70
     1
102
RTVSPropertyOp24
 70
     1
102
RTVSPropertyOp25
 70
     1
102
RTVSPropertyOp26
 70
     1
102
RTVSPropertyOp27
 70
     1
  0
XRECORD
  5
142D9
102
{ACAD_REACTORS
330
142D8
102
}
330
142D8
100
AcDbXrecord
280
     1
102
RTVSPropertyOp0
 70
     1
102
RTVSPropertyOp1
 70
     1
102
RTVSPropertyOp2
 70
     1
102
RTVSPropertyOp3
 70
     1
102
RTVSPropertyOp4
 70
     1
102
RTVSPropertyOp5
 70
     1
102
RTVSPropertyOp6
 70
     1
102
RTVSPropertyOp7
 70
     1
102
RTVSPropertyOp8
 70
     1
102
RTVSPropertyOp9
 70
     1
102
RTVSPropertyOp10
 70
     1
102
RTVSPropertyOp11
 70
     1
102
RTVSPropertyOp12
 70
     1
102
RTVSPropertyOp13
 70
     1
102
RTVSPropertyOp14
 70
     1
102
RTVSPropertyOp15
 70
     1
102
RTVSPropertyOp16
 70
     1
102
RTVSPropertyOp17
 70
     1
102
RTVSPropertyOp18
 70
     1
102
RTVSPropertyOp19
 70
     1
102
RTVSPropertyOp20
 70
     1
102
RTVSPropertyOp21
 70
     1
102
RTVSPropertyOp22
 70
     1
102
RTVSPropertyOp23
 70
     1
102
RTVSPropertyOp24
 70
     1
102
RTVSPropertyOp25
 70
     1
102
RTVSPropertyOp26
 70
     1
102
RTVSPropertyOp27
 70
     1
  0
XRECORD
  5
142E1
102
{ACAD_REACTORS
330
142E0
102
}
330
142E0
100
AcDbXrecord
280
     1
102
RTVSPropertyOp0
 70
     1
102
RTVSPropertyOp1
 70
     1
102
RTVSPropertyOp2
 70
     1
102
RTVSPropertyOp3
 70
     1
102
RTVSPropertyOp4
 70
     1
102
RTVSPropertyOp5
 70
     1
102
RTVSPropertyOp6
 70
     1
102
RTVSPropertyOp7
 70
     1
102
RTVSPropertyOp8
 70
     1
102
RTVSPropertyOp9
 70
     1
102
RTVSPropertyOp10
 70
     1
102
RTVSPropertyOp11
 70
     1
102
RTVSPropertyOp12
 70
     1
102
RTVSPropertyOp13
 70
     1
102
RTVSPropertyOp14
 70
     1
102
RTVSPropertyOp15
 70
     1
102
RTVSPropertyOp16
 70
     1
102
RTVSPropertyOp17
 70
     1
102
RTVSPropertyOp18
 70
     1
102
RTVSPropertyOp19
 70
     1
102
RTVSPropertyOp20
 70
     1
102
RTVSPropertyOp21
 70
     1
102
RTVSPropertyOp22
 70
     1
102
RTVSPropertyOp23
 70
     1
102
RTVSPropertyOp24
 70
     1
102
RTVSPropertyOp25
 70
     1
102
RTVSPropertyOp26
 70
     1
102
RTVSPropertyOp27
 70
     1
  0
XRECORD
  5
142D3
102
{ACAD_REACTORS
330
142D2
102
}
330
142D2
100
AcDbXrecord
280
     1
102
RTVSPropertyOp0
 70
     1
102
RTVSPropertyOp1
 70
     1
102
RTVSPropertyOp2
 70
     1
102
RTVSPropertyOp3
 70
     1
102
RTVSPropertyOp4
 70
     1
102
RTVSPropertyOp5
 70
     1
102
RTVSPropertyOp6
 70
     1
102
RTVSPropertyOp7
 70
     1
102
RTVSPropertyOp8
 70
     1
102
RTVSPropertyOp9
 70
     1
102
RTVSPropertyOp10
 70
     1
102
RTVSPropertyOp11
 70
     1
102
RTVSPropertyOp12
 70
     1
102
RTVSPropertyOp13
 70
     1
102
RTVSPropertyOp14
 70
     1
102
RTVSPropertyOp15
 70
     1
102
RTVSPropertyOp16
 70
     1
102
RTVSPropertyOp17
 70
     1
102
RTVSPropertyOp18
 70
     1
102
RTVSPropertyOp19
 70
     1
102
RTVSPropertyOp20
 70
     1
102
RTVSPropertyOp21
 70
     1
102
RTVSPropertyOp22
 70
     1
102
RTVSPropertyOp23
 70
     1
102
RTVSPropertyOp24
 70
     1
102
RTVSPropertyOp25
 70
     1
102
RTVSPropertyOp26
 70
     1
102
RTVSPropertyOp27
 70
     1
  0
XRECORD
  5
142D7
102
{ACAD_REACTORS
330
142D6
102
}
330
142D6
100
AcDbXrecord
280
     1
102
RTVSPropertyOp0
 70
     1
102
RTVSPropertyOp1
 70
     1
102
RTVSPropertyOp2
 70
     1
102
RTVSPropertyOp3
 70
     1
102
RTVSPropertyOp4
 70
     1
102
RTVSPropertyOp5
 70
     1
102
RTVSPropertyOp6
 70
     1
102
RTVSPropertyOp7
 70
     1
102
RTVSPropertyOp8
 70
     1
102
RTVSPropertyOp9
 70
     1
102
RTVSPropertyOp10
 70
     1
102
RTVSPropertyOp11
 70
     1
102
RTVSPropertyOp12
 70
     1
102
RTVSPropertyOp13
 70
     1
102
RTVSPropertyOp14
 70
     1
102
RTVSPropertyOp15
 70
     1
102
RTVSPropertyOp16
 70
     1
102
RTVSPropertyOp17
 70
     1
102
RTVSPropertyOp18
 70
     1
102
RTVSPropertyOp19
 70
     1
102
RTVSPropertyOp20
 70
     1
102
RTVSPropertyOp21
 70
     1
102
RTVSPropertyOp22
 70
     1
102
RTVSPropertyOp23
 70
     1
102
RTVSPropertyOp24
 70
     1
102
RTVSPropertyOp25
 70
     1
102
RTVSPropertyOp26
 70
     1
102
RTVSPropertyOp27
 70
     1
  0
XRECORD
  5
142E7
102
{ACAD_REACTORS
330
142E6
102
}
330
142E6
100
AcDbXrecord
280
     1
102
RTVSPropertyOp0
 70
     0
102
RTVSPropertyOp1
 70
     0
102
RTVSPropertyOp2
 70
     0
102
RTVSPropertyOp3
 70
     0
102
RTVSPropertyOp4
 70
     0
102
RTVSPropertyOp5
 70
     0
102
RTVSPropertyOp6
 70
     0
102
RTVSPropertyOp7
 70
     0
102
RTVSPropertyOp8
 70
     0
102
RTVSPropertyOp9
 70
     0
102
RTVSPropertyOp10
 70
     0
102
RTVSPropertyOp11
 70
     0
102
RTVSPropertyOp12
 70
     0
102
RTVSPropertyOp13
 70
     0
102
RTVSPropertyOp14
 70
     2
102
RTVSPropertyOp15
 70
     0
102
RTVSPropertyOp16
 70
     0
102
RTVSPropertyOp17
 70
     0
102
RTVSPropertyOp18
 70
     0
102
RTVSPropertyOp19
 70
     0
102
RTVSPropertyOp20
 70
     0
102
RTVSPropertyOp21
 70
     0
102
RTVSPropertyOp22
 70
     0
102
RTVSPropertyOp23
 70
     0
102
RTVSPropertyOp24
 70
     0
102
RTVSPropertyOp25
 70
     0
102
RTVSPropertyOp26
 70
     0
102
RTVSPropertyOp27
 70
     0
  0
XRECORD
  5
142DF
102
{ACAD_REACTORS
330
142DE
102
}
330
142DE
100
AcDbXrecord
280
     1
102
RTVSPropertyOp0
 70
     1
102
RTVSPropertyOp1
 70
     1
102
RTVSPropertyOp2
 70
     1
102
RTVSPropertyOp3
 70
     1
102
RTVSPropertyOp4
 70
     1
102
RTVSPropertyOp5
 70
     1
102
RTVSPropertyOp6
 70
     1
102
RTVSPropertyOp7
 70
     1
102
RTVSPropertyOp8
 70
     1
102
RTVSPropertyOp9
 70
     1
102
RTVSPropertyOp10
 70
     1
102
RTVSPropertyOp11
 70
     1
102
RTVSPropertyOp12
 70
     1
102
RTVSPropertyOp13
 70
     1
102
RTVSPropertyOp14
 70
     1
102
RTVSPropertyOp15
 70
     1
102
RTVSPropertyOp16
 70
     1
102
RTVSPropertyOp17
 70
     1
102
RTVSPropertyOp18
 70
     1
102
RTVSPropertyOp19
 70
     1
102
RTVSPropertyOp20
 70
     1
102
RTVSPropertyOp21
 70
     1
102
RTVSPropertyOp22
 70
     1
102
RTVSPropertyOp23
 70
     1
102
RTVSPropertyOp24
 70
     1
102
RTVSPropertyOp25
 70
     1
102
RTVSPropertyOp26
 70
     1
102
RTVSPropertyOp27
 70
     1
  0
XRECORD
  5
142C3
102
{ACAD_REACTORS
330
142C2
102
}
330
142C2
100
AcDbXrecord
280
     1
102
RTVSPropertyOp0
 70
     1
102
RTVSPropertyOp1
 70
     1
102
RTVSPropertyOp2
 70
     1
102
RTVSPropertyOp3
 70
     1
102
RTVSPropertyOp4
 70
     1
102
RTVSPropertyOp5
 70
     1
102
RTVSPropertyOp6
 70
     1
102
RTVSPropertyOp7
 70
     1
102
RTVSPropertyOp8
 70
     1
102
RTVSPropertyOp9
 70
     1
102
RTVSPropertyOp10
 70
     1
102
RTVSPropertyOp11
 70
     1
102
RTVSPropertyOp12
 70
     1
102
RTVSPropertyOp13
 70
     1
102
RTVSPropertyOp14
 70
     1
102
RTVSPropertyOp15
 70
     1
102
RTVSPropertyOp16
 70
     1
102
RTVSPropertyOp17
 70
     1
102
RTVSPropertyOp18
 70
     1
102
RTVSPropertyOp19
 70
     1
102
RTVSPropertyOp20
 70
     1
102
RTVSPropertyOp21
 70
     1
102
RTVSPropertyOp22
 70
     1
102
RTVSPropertyOp23
 70
     1
102
RTVSPropertyOp24
 70
     1
102
RTVSPropertyOp25
 70
     1
102
RTVSPropertyOp26
 70
     1
102
RTVSPropertyOp27
 70
     1
  0
XRECORD
  5
142C5
102
{ACAD_REACTORS
330
142C4
102
}
330
142C4
100
AcDbXrecord
280
     1
102
RTVSPropertyOp0
 70
     1
102
RTVSPropertyOp1
 70
     1
102
RTVSPropertyOp2
 70
     1
102
RTVSPropertyOp3
 70
     1
102
RTVSPropertyOp4
 70
     1
102
RTVSPropertyOp5
 70
     1
102
RTVSPropertyOp6
 70
     1
102
RTVSPropertyOp7
 70
     1
102
RTVSPropertyOp8
 70
     1
102
RTVSPropertyOp9
 70
     1
102
RTVSPropertyOp10
 70
     1
102
RTVSPropertyOp11
 70
     1
102
RTVSPropertyOp12
 70
     1
102
RTVSPropertyOp13
 70
     1
102
RTVSPropertyOp14
 70
     1
102
RTVSPropertyOp15
 70
     1
102
RTVSPropertyOp16
 70
     1
102
RTVSPropertyOp17
 70
     1
102
RTVSPropertyOp18
 70
     1
102
RTVSPropertyOp19
 70
     1
102
RTVSPropertyOp20
 70
     1
102
RTVSPropertyOp21
 70
     1
102
RTVSPropertyOp22
 70
     1
102
RTVSPropertyOp23
 70
     1
102
RTVSPropertyOp24
 70
     1
102
RTVSPropertyOp25
 70
     1
102
RTVSPropertyOp26
 70
     1
102
RTVSPropertyOp27
 70
     1
  0
XRECORD
  5
142C7
102
{ACAD_REACTORS
330
142C6
102
}
330
142C6
100
AcDbXrecord
280
     1
102
RTVSPropertyOp0
 70
     1
102
RTVSPropertyOp1
 70
     1
102
RTVSPropertyOp2
 70
     1
102
RTVSPropertyOp3
 70
     1
102
RTVSPropertyOp4
 70
     1
102
RTVSPropertyOp5
 70
     1
102
RTVSPropertyOp6
 70
     1
102
RTVSPropertyOp7
 70
     1
102
RTVSPropertyOp8
 70
     1
102
RTVSPropertyOp9
 70
     1
102
RTVSPropertyOp10
 70
     1
102
RTVSPropertyOp11
 70
     1
102
RTVSPropertyOp12
 70
     1
102
RTVSPropertyOp13
 70
     1
102
RTVSPropertyOp14
 70
     1
102
RTVSPropertyOp15
 70
     1
102
RTVSPropertyOp16
 70
     1
102
RTVSPropertyOp17
 70
     1
102
RTVSPropertyOp18
 70
     1
102
RTVSPropertyOp19
 70
     1
102
RTVSPropertyOp20
 70
     1
102
RTVSPropertyOp21
 70
     1
102
RTVSPropertyOp22
 70
     1
102
RTVSPropertyOp23
 70
     1
102
RTVSPropertyOp24
 70
     1
102
RTVSPropertyOp25
 70
     1
102
RTVSPropertyOp26
 70
     1
102
RTVSPropertyOp27
 70
     1
  0
XRECORD
  5
142C9
102
{ACAD_REACTORS
330
142C8
102
}
330
142C8
100
AcDbXrecord
280
     1
102
RTVSPropertyOp0
 70
     1
102
RTVSPropertyOp1
 70
     1
102
RTVSPropertyOp2
 70
     1
102
RTVSPropertyOp3
 70
     1
102
RTVSPropertyOp4
 70
     1
102
RTVSPropertyOp5
 70
     1
102
RTVSPropertyOp6
 70
     1
102
RTVSPropertyOp7
 70
     1
102
RTVSPropertyOp8
 70
     1
102
RTVSPropertyOp9
 70
     1
102
RTVSPropertyOp10
 70
     1
102
RTVSPropertyOp11
 70
     1
102
RTVSPropertyOp12
 70
     1
102
RTVSPropertyOp13
 70
     1
102
RTVSPropertyOp14
 70
     1
102
RTVSPropertyOp15
 70
     1
102
RTVSPropertyOp16
 70
     1
102
RTVSPropertyOp17
 70
     1
102
RTVSPropertyOp18
 70
     1
102
RTVSPropertyOp19
 70
     1
102
RTVSPropertyOp20
 70
     1
102
RTVSPropertyOp21
 70
     1
102
RTVSPropertyOp22
 70
     1
102
RTVSPropertyOp23
 70
     1
102
RTVSPropertyOp24
 70
     1
102
RTVSPropertyOp25
 70
     1
102
RTVSPropertyOp26
 70
     1
102
RTVSPropertyOp27
 70
     1
  0
XRECORD
  5
142E3
102
{ACAD_REACTORS
330
142E2
102
}
330
142E2
100
AcDbXrecord
280
     1
102
RTVSPropertyOp0
 70
     0
102
RTVSPropertyOp1
 70
     0
102
RTVSPropertyOp2
 70
     0
102
RTVSPropertyOp3
 70
     0
102
RTVSPropertyOp4
 70
     0
102
RTVSPropertyOp5
 70
     0
102
RTVSPropertyOp6
 70
     0
102
RTVSPropertyOp7
 70
     0
102
RTVSPropertyOp8
 70
     0
102
RTVSPropertyOp9
 70
     0
102
RTVSPropertyOp10
 70
     0
102
RTVSPropertyOp11
 70
     0
102
RTVSPropertyOp12
 70
     0
102
RTVSPropertyOp13
 70
     0
102
RTVSPropertyOp14
 70
     2
102
RTVSPropertyOp15
 70
     0
102
RTVSPropertyOp16
 70
     0
102
RTVSPropertyOp17
 70
     0
102
RTVSPropertyOp18
 70
     0
102
RTVSPropertyOp19
 70
     0
102
RTVSPropertyOp20
 70
     0
102
RTVSPropertyOp21
 70
     0
102
RTVSPropertyOp22
 70
     0
102
RTVSPropertyOp23
 70
     0
102
RTVSPropertyOp24
 70
     0
102
RTVSPropertyOp25
 70
     0
102
RTVSPropertyOp26
 70
     0
102
RTVSPropertyOp27
 70
     0
  0
XRECORD
  5
142DD
102
{ACAD_REACTORS
330
142DC
102
}
330
142DC
100
AcDbXrecord
280
     1
102
RTVSPropertyOp0
 70
     1
102
RTVSPropertyOp1
 70
     1
102
RTVSPropertyOp2
 70
     1
102
RTVSPropertyOp3
 70
     1
102
RTVSPropertyOp4
 70
     1
102
RTVSPropertyOp5
 70
     1
102
RTVSPropertyOp6
 70
     1
102
RTVSPropertyOp7
 70
     1
102
RTVSPropertyOp8
 70
     1
102
RTVSPropertyOp9
 70
     1
102
RTVSPropertyOp10
 70
     1
102
RTVSPropertyOp11
 70
     1
102
RTVSPropertyOp12
 70
     1
102
RTVSPropertyOp13
 70
     1
102
RTVSPropertyOp14
 70
     1
102
RTVSPropertyOp15
 70
     1
102
RTVSPropertyOp16
 70
     1
102
RTVSPropertyOp17
 70
     1
102
RTVSPropertyOp18
 70
     1
102
RTVSPropertyOp19
 70
     1
102
RTVSPropertyOp20
 70
     1
102
RTVSPropertyOp21
 70
     1
102
RTVSPropertyOp22
 70
     1
102
RTVSPropertyOp23
 70
     1
102
RTVSPropertyOp24
 70
     1
102
RTVSPropertyOp25
 70
     1
102
RTVSPropertyOp26
 70
     1
102
RTVSPropertyOp27
 70
     1
  0
XRECORD
  5
142E5
102
{ACAD_REACTORS
330
142E4
102
}
330
142E4
100
AcDbXrecord
280
     1
102
RTVSPropertyOp0
 70
     0
102
RTVSPropertyOp1
 70
     0
102
RTVSPropertyOp2
 70
     0
102
RTVSPropertyOp3
 70
     0
102
RTVSPropertyOp4
 70
     0
102
RTVSPropertyOp5
 70
     0
102
RTVSPropertyOp6
 70
     0
102
RTVSPropertyOp7
 70
     0
102
RTVSPropertyOp8
 70
     0
102
RTVSPropertyOp9
 70
     0
102
RTVSPropertyOp10
 70
     0
102
RTVSPropertyOp11
 70
     0
102
RTVSPropertyOp12
 70
     0
102
RTVSPropertyOp13
 70
     0
102
RTVSPropertyOp14
 70
     2
102
RTVSPropertyOp15
 70
     0
102
RTVSPropertyOp16
 70
     0
102
RTVSPropertyOp17
 70
     0
102
RTVSPropertyOp18
 70
     0
102
RTVSPropertyOp19
 70
     0
102
RTVSPropertyOp20
 70
     0
102
RTVSPropertyOp21
 70
     0
102
RTVSPropertyOp22
 70
     0
102
RTVSPropertyOp23
 70
     0
102
RTVSPropertyOp24
 70
     0
102
RTVSPropertyOp25
 70
     0
102
RTVSPropertyOp26
 70
     0
102
RTVSPropertyOp27
 70
     0
  0
XRECORD
  5
142D5
102
{ACAD_REACTORS
330
142D4
102
}
330
142D4
100
AcDbXrecord
280
     1
102
RTVSPropertyOp0
 70
     1
102
RTVSPropertyOp1
 70
     1
102
RTVSPropertyOp2
 70
     1
102
RTVSPropertyOp3
 70
     1
102
RTVSPropertyOp4
 70
     1
102
RTVSPropertyOp5
 70
     1
102
RTVSPropertyOp6
 70
     1
102
RTVSPropertyOp7
 70
     1
102
RTVSPropertyOp8
 70
     1
102
RTVSPropertyOp9
 70
     1
102
RTVSPropertyOp10
 70
     1
102
RTVSPropertyOp11
 70
     1
102
RTVSPropertyOp12
 70
     1
102
RTVSPropertyOp13
 70
     1
102
RTVSPropertyOp14
 70
     1
102
RTVSPropertyOp15
 70
     1
102
RTVSPropertyOp16
 70
     1
102
RTVSPropertyOp17
 70
     1
102
RTVSPropertyOp18
 70
     1
102
RTVSPropertyOp19
 70
     1
102
RTVSPropertyOp20
 70
     1
102
RTVSPropertyOp21
 70
     1
102
RTVSPropertyOp22
 70
     1
102
RTVSPropertyOp23
 70
     1
102
RTVSPropertyOp24
 70
     1
102
RTVSPropertyOp25
 70
     1
102
RTVSPropertyOp26
 70
     1
102
RTVSPropertyOp27
 70
     1
  0
XRECORD
  5
142DB
102
{ACAD_REACTORS
330
142DA
102
}
330
142DA
100
AcDbXrecord
280
     1
102
RTVSPropertyOp0
 70
     1
102
RTVSPropertyOp1
 70
     1
102
RTVSPropertyOp2
 70
     1
102
RTVSPropertyOp3
 70
     1
102
RTVSPropertyOp4
 70
     1
102
RTVSPropertyOp5
 70
     1
102
RTVSPropertyOp6
 70
     1
102
RTVSPropertyOp7
 70
     1
102
RTVSPropertyOp8
 70
     1
102
RTVSPropertyOp9
 70
     1
102
RTVSPropertyOp10
 70
     1
102
RTVSPropertyOp11
 70
     1
102
RTVSPropertyOp12
 70
     1
102
RTVSPropertyOp13
 70
     1
102
RTVSPropertyOp14
 70
     1
102
RTVSPropertyOp15
 70
     1
102
RTVSPropertyOp16
 70
     1
102
RTVSPropertyOp17
 70
     1
102
RTVSPropertyOp18
 70
     1
102
RTVSPropertyOp19
 70
     1
102
RTVSPropertyOp20
 70
     1
102
RTVSPropertyOp21
 70
     1
102
RTVSPropertyOp22
 70
     1
102
RTVSPropertyOp23
 70
     1
102
RTVSPropertyOp24
 70
     1
102
RTVSPropertyOp25
 70
     1
102
RTVSPropertyOp26
 70
     1
102
RTVSPropertyOp27
 70
     1
  0
ENDSEC
  0
EOF
