  0
SECTION
  2
HEADER
  9
$ACADVER
  1
AC1015
  9
$ACADMAINTVER
 70
    10
  9
$DWGCODEPAGE
  3
ANSI_932
  9
$INSBASE
 10
0.0
 20
0.0
 30
0.0
  9
$EXTMIN
 10
-179.0955922448724
 20
-840.6729814825494
 30
-0.0000000349181948
  9
$EXTMAX
 10
637.5783722519154
 20
631.0905512737699
 30
0.0000000814935746
  9
$LIMMIN
 10
-396.0
 20
-1187.0
  9
$LIMMAX
 10
1243.0
 20
1822.0
  9
$ORTHOMODE
 70
     1
  9
$REGENMODE
 70
     1
  9
$FILLMODE
 70
     1
  9
$QTEXTMODE
 70
     0
  9
$MIRRTEXT
 70
     1
  9
$LTSCALE
 40
15.0
  9
$ATTMODE
 70
     1
  9
$TEXTSIZE
 40
5.0
  9
$TRACEWID
 40
0.05
  9
$TEXTSTYLE
  7
STANDARD1
  9
$CLAYER
  8
30
  9
$CELTYPE
  6
CONTINUOUS
  9
$CECOLOR
 62
   256
  9
$CELTSCALE
 40
1.0
  9
$DISPSILH
 70
     0
  9
$DIMSCALE
 40
1.0
  9
$DIMASZ
 40
2.0
  9
$DIMEXO
 40
3.0
  9
$DIMDLI
 40
0.5
  9
$DIMRND
 40
0.0
  9
$DIMDLE
 40
0.0
  9
$DIMEXE
 40
0.5
  9
$DIMTP
 40
0.0
  9
$DIMTM
 40
0.0
  9
$DIMTXT
 40
6.0
  9
$DIMCEN
 40
0.09
  9
$DIMTSZ
 40
0.0
  9
$DIMTOL
 70
     0
  9
$DIMLIM
 70
     0
  9
$DIMTIH
 70
     0
  9
$DIMTOH
 70
     1
  9
$DIMSE1
 70
     0
  9
$DIMSE2
 70
     0
  9
$DIMTAD
 70
     3
  9
$DIMZIN
 70
    12
  9
$DIMBLK
  1
OPEN
  9
$DIMASO
 70
     1
  9
$DIMSHO
 70
     1
  9
$DIMPOST
  1

  9
$DIMAPOST
  1

  9
$DIMALT
 70
     0
  9
$DIMALTD
 70
     2
  9
$DIMALTF
 40
25.4
  9
$DIMLFAC
 40
1.0
  9
$DIMTOFL
 70
     0
  9
$DIMTVP
 40
0.0
  9
$DIMTIX
 70
     0
  9
$DIMSOXD
 70
     0
  9
$DIMSAH
 70
     0
  9
$DIMBLK1
  1

  9
$DIMBLK2
  1

  9
$DIMSTYLE
  2
STANDARD1
  9
$DIMCLRD
 70
     0
  9
$DIMCLRE
 70
     0
  9
$DIMCLRT
 70
     0
  9
$DIMTFAC
 40
1.0
  9
$DIMGAP
 40
3.0
  9
$DIMJUST
 70
     0
  9
$DIMSD1
 70
     0
  9
$DIMSD2
 70
     0
  9
$DIMTOLJ
 70
     1
  9
$DIMTZIN
 70
     0
  9
$DIMALTZ
 70
     0
  9
$DIMALTTZ
 70
     0
  9
$DIMUPT
 70
     0
  9
$DIMDEC
 70
     1
  9
$DIMTDEC
 70
     1
  9
$DIMALTU
 70
     2
  9
$DIMALTTD
 70
     2
  9
$DIMTXSTY
  7
STANDARD
  9
$DIMAUNIT
 70
     0
  9
$DIMADEC
 70
     0
  9
$DIMALTRND
 40
0.0
  9
$DIMAZIN
 70
     0
  9
$DIMDSEP
 70
    46
  9
$DIMATFIT
 70
     2
  9
$DIMFRAC
 70
     0
  9
$DIMLDRBLK
  1
OPEN
  9
$DIMLUNIT
 70
     2
  9
$DIMLWD
 70
    -2
  9
$DIMLWE
 70
    -2
  9
$DIMTMOVE
 70
     0
  9
$LUNITS
 70
     2
  9
$LUPREC
 70
     4
  9
$SKETCHINC
 40
0.1
  9
$FILLETRAD
 40
0.0
  9
$AUNITS
 70
     0
  9
$AUPREC
 70
     0
  9
$MENU
  1
.
  9
$ELEVATION
 40
0.0
  9
$PELEVATION
 40
0.0
  9
$THICKNESS
 40
0.0
  9
$LIMCHECK
 70
     0
  9
$CHAMFERA
 40
0.0
  9
$CHAMFERB
 40
0.0
  9
$CHAMFERC
 40
0.0
  9
$CHAMFERD
 40
0.0
  9
$SKPOLY
 70
     0
  9
$TDCREATE
 40
2452286.555658657
  9
$TDUCREATE
 40
2452286.180658657
  9
$TDUPDATE
 40
2454697.486294479
  9
$TDUUPDATE
 40
2454697.111294479
  9
$TDINDWG
 40
2.1072420370
  9
$TDUSRTIMER
 40
2.1072416782
  9
$USRTIMER
 70
     1
  9
$ANGBASE
 50
0.0
  9
$ANGDIR
 70
     0
  9
$PDMODE
 70
     0
  9
$PDSIZE
 40
0.0
  9
$PLINEWID
 40
0.0
  9
$SPLFRAME
 70
     0
  9
$SPLINETYPE
 70
     6
  9
$SPLINESEGS
 70
     8
  9
$HANDSEED
  5
154AE
  9
$SURFTAB1
 70
     6
  9
$SURFTAB2
 70
     6
  9
$SURFTYPE
 70
     6
  9
$SURFU
 70
     6
  9
$SURFV
 70
     6
  9
$UCSBASE
  2

  9
$UCSNAME
  2

  9
$UCSORG
 10
0.0
 20
0.0
 30
0.0
  9
$UCSXDIR
 10
1.0
 20
0.0
 30
0.0
  9
$UCSYDIR
 10
0.0
 20
1.0
 30
0.0
  9
$UCSORTHOREF
  2

  9
$UCSORTHOVIEW
 70
     0
  9
$UCSORGTOP
 10
0.0
 20
0.0
 30
0.0
  9
$UCSORGBOTTOM
 10
0.0
 20
0.0
 30
0.0
  9
$UCSORGLEFT
 10
0.0
 20
0.0
 30
0.0
  9
$UCSORGRIGHT
 10
0.0
 20
0.0
 30
0.0
  9
$UCSORGFRONT
 10
0.0
 20
0.0
 30
0.0
  9
$UCSORGBACK
 10
0.0
 20
0.0
 30
0.0
  9
$PUCSBASE
  2

  9
$PUCSNAME
  2

  9
$PUCSORG
 10
0.0
 20
0.0
 30
0.0
  9
$PUCSXDIR
 10
1.0
 20
0.0
 30
0.0
  9
$PUCSYDIR
 10
0.0
 20
1.0
 30
0.0
  9
$PUCSORTHOREF
  2

  9
$PUCSORTHOVIEW
 70
     0
  9
$PUCSORGTOP
 10
0.0
 20
0.0
 30
0.0
  9
$PUCSORGBOTTOM
 10
0.0
 20
0.0
 30
0.0
  9
$PUCSORGLEFT
 10
0.0
 20
0.0
 30
0.0
  9
$PUCSORGRIGHT
 10
0.0
 20
0.0
 30
0.0
  9
$PUCSORGFRONT
 10
0.0
 20
0.0
 30
0.0
  9
$PUCSORGBACK
 10
0.0
 20
0.0
 30
0.0
  9
$USERI1
 70
     0
  9
$USERI2
 70
     0
  9
$USERI3
 70
     0
  9
$USERI4
 70
     0
  9
$USERI5
 70
     0
  9
$USERR1
 40
0.0
  9
$USERR2
 40
0.0
  9
$USERR3
 40
0.0
  9
$USERR4
 40
0.0
  9
$USERR5
 40
0.0
  9
$WORLDVIEW
 70
     1
  9
$SHADEDGE
 70
     3
  9
$SHADEDIF
 70
    70
  9
$TILEMODE
 70
     1
  9
$MAXACTVP
 70
    48
  9
$PINSBASE
 10
0.0
 20
0.0
 30
0.0
  9
$PLIMCHECK
 70
     0
  9
$PEXTMIN
 10
0.0
 20
0.0
 30
0.0
  9
$PEXTMAX
 10
0.0
 20
0.0
 30
0.0
  9
$PLIMMIN
 10
0.0
 20
0.0
  9
$PLIMMAX
 10
0.0
 20
0.0
  9
$UNITMODE
 70
     0
  9
$VISRETAIN
 70
     1
  9
$PLINEGEN
 70
     0
  9
$PSLTSCALE
 70
     1
  9
$TREEDEPTH
 70
  3020
  9
$CMLSTYLE
  2
STANDARD
  9
$CMLJUST
 70
     0
  9
$CMLSCALE
 40
1.0
  9
$PROXYGRAPHICS
 70
     1
  9
$MEASUREMENT
 70
     0
  9
$CELWEIGHT
370
    -1
  9
$ENDCAPS
280
     0
  9
$JOINSTYLE
280
     0
  9
$LWDISPLAY
290
     0
  9
$INSUNITS
 70
     0
  9
$HYPERLINKBASE
  1

  9
$STYLESHEET
  1
monochrome.ctb
  9
$XEDIT
290
     1
  9
$CEPSNTYPE
380
     0
  9
$PSTYLEMODE
290
     1
  9
$FINGERPRINTGUID
  2

  9
$VERSIONGUID
  2
{2ADEEDEF-E225-44F9-AE60-41B2946A6DF0}
  9
$EXTNAMES
290
     1
  9
$PSVPSCALE
 40
0.0
  9
$OLESTARTUP
290
     0
  0
ENDSEC
  0
SECTION
  2
CLASSES
  0
CLASS
  1
ACDBDICTIONARYWDFLT
  2
AcDbDictionaryWithDefault
  3
AutoCAD 2000
 90
        0
280
     0
281
     0
  0
CLASS
  1
ACDBPLACEHOLDER
  2
AcDbPlaceHolder
  3
AutoCAD 2000
 90
        0
280
     0
281
     0
  0
CLASS
  1
LAYOUT
  2
AcDbLayout
  3
AutoCAD 2000
 90
        0
280
     0
281
     0
  0
CLASS
  1
LONG_TRANSACTION
  2
AcDbLongTransaction
  3
AutoCAD 2000
 90
    32768
280
     0
281
     0
  0
CLASS
  1
LWPOLYLINE
  2
AcDbPolyline
  3
AutoCAD 2000
 90
    32768
280
     0
281
     1
  0
CLASS
  1
HATCH
  2
AcDbHatch
  3
AutoCAD 2000
 90
    32768
280
     0
281
     1
  0
CLASS
  1
XRECORD
  2
AcDbXrecord
  3
AutoCAD 2000
 90
    32768
280
     0
281
     0
  0
CLASS
  1
LONG_TRANSACTION
  2
AcDbLongTransaction
  3
AutoCAD 2000
 90
    32768
280
     0
281
     0
  0
CLASS
  1
LWPOLYLINE
  2
AcDbPolyline
  3
AutoCAD 2000
 90
    32768
280
     0
281
     1
  0
CLASS
  1
HATCH
  2
AcDbHatch
  3
AutoCAD 2000
 90
    32768
280
     0
281
     1
  0
CLASS
  1
XRECORD
  2
AcDbXrecord
  3
AutoCAD 2000
 90
    32768
280
     0
281
     0
  0
CLASS
  1
LONG_TRANSACTION
  2
AcDbLongTransaction
  3
AutoCAD 2000
 90
    32768
280
     0
281
     0
  0
CLASS
  1
LWPOLYLINE
  2
AcDbPolyline
  3
AutoCAD 2000
 90
    32768
280
     0
281
     1
  0
CLASS
  1
HATCH
  2
AcDbHatch
  3
AutoCAD 2000
 90
    32768
280
     0
281
     1
  0
CLASS
  1
XRECORD
  2
AcDbXrecord
  3
AutoCAD 2000
 90
    32768
280
     0
281
     0
  0
CLASS
  1
LONG_TRANSACTION
  2
AcDbLongTransaction
  3
AutoCAD 2000
 90
    32768
280
     0
281
     0
  0
CLASS
  1
LWPOLYLINE
  2
AcDbPolyline
  3
AutoCAD 2000
 90
    32768
280
     0
281
     1
  0
CLASS
  1
HATCH
  2
AcDbHatch
  3
AutoCAD 2000
 90
    32768
280
     0
281
     1
  0
CLASS
  1
XRECORD
  2
AcDbXrecord
  3
AutoCAD 2000
 90
    32768
280
     0
281
     0
  0
CLASS
  1
LONG_TRANSACTION
  2
AcDbLongTransaction
  3
AutoCAD 2000
 90
    32768
280
     0
281
     0
  0
CLASS
  1
LWPOLYLINE
  2
AcDbPolyline
  3
AutoCAD 2000
 90
    32768
280
     0
281
     1
  0
CLASS
  1
HATCH
  2
AcDbHatch
  3
AutoCAD 2000
 90
    32768
280
     0
281
     1
  0
CLASS
  1
XRECORD
  2
AcDbXrecord
  3
AutoCAD 2000
 90
    32768
280
     0
281
     0
  0
CLASS
  1
LONG_TRANSACTION
  2
AcDbLongTransaction
  3
AutoCAD 2000
 90
    32768
280
     0
281
     0
  0
CLASS
  1
LWPOLYLINE
  2
AcDbPolyline
  3
AutoCAD 2000
 90
    32768
280
     0
281
     1
  0
CLASS
  1
HATCH
  2
AcDbHatch
  3
AutoCAD 2000
 90
    32768
280
     0
281
     1
  0
CLASS
  1
XRECORD
  2
AcDbXrecord
  3
AutoCAD 2000
 90
    32768
280
     0
281
     0
  0
CLASS
  1
LONG_TRANSACTION
  2
AcDbLongTransaction
  3
AutoCAD 2000
 90
    32768
280
     0
281
     0
  0
CLASS
  1
LWPOLYLINE
  2
AcDbPolyline
  3
AutoCAD 2000
 90
    32768
280
     0
281
     1
  0
CLASS
  1
HATCH
  2
AcDbHatch
  3
AutoCAD 2000
 90
    32768
280
     0
281
     1
  0
CLASS
  1
XRECORD
  2
AcDbXrecord
  3
AutoCAD 2000
 90
    32768
280
     0
281
     0
  0
CLASS
  1
LONG_TRANSACTION
  2
AcDbLongTransaction
  3
AutoCAD 2000
 90
    32768
280
     0
281
     0
  0
CLASS
  1
LWPOLYLINE
  2
AcDbPolyline
  3
AutoCAD 2000
 90
    32768
280
     0
281
     1
  0
CLASS
  1
HATCH
  2
AcDbHatch
  3
AutoCAD 2000
 90
    32768
280
     0
281
     1
  0
CLASS
  1
XRECORD
  2
AcDbXrecord
  3
AutoCAD 2000
 90
    32768
280
     0
281
     0
  0
CLASS
  1
LONG_TRANSACTION
  2
AcDbLongTransaction
  3
AutoCAD 2000
 90
    32768
280
     0
281
     0
  0
CLASS
  1
LWPOLYLINE
  2
AcDbPolyline
  3
AutoCAD 2000
 90
    32768
280
     0
281
     1
  0
CLASS
  1
HATCH
  2
AcDbHatch
  3
AutoCAD 2000
 90
    32768
280
     0
281
     1
  0
CLASS
  1
XRECORD
  2
AcDbXrecord
  3
AutoCAD 2000
 90
    32768
280
     0
281
     0
  0
CLASS
  1
LONG_TRANSACTION
  2
AcDbLongTransaction
  3
AutoCAD 2000
 90
    32768
280
     0
281
     0
  0
CLASS
  1
LWPOLYLINE
  2
AcDbPolyline
  3
AutoCAD 2000
 90
    32768
280
     0
281
     1
  0
CLASS
  1
HATCH
  2
AcDbHatch
  3
AutoCAD 2000
 90
    32768
280
     0
281
     1
  0
CLASS
  1
XRECORD
  2
AcDbXrecord
  3
AutoCAD 2000
 90
    32768
280
     0
281
     0
  0
CLASS
  1
LONG_TRANSACTION
  2
AcDbLongTransaction
  3
AutoCAD 2000
 90
    32768
280
     0
281
     0
  0
CLASS
  1
LWPOLYLINE
  2
AcDbPolyline
  3
AutoCAD 2000
 90
    32768
280
     0
281
     1
  0
CLASS
  1
HATCH
  2
AcDbHatch
  3
AutoCAD 2000
 90
    32768
280
     0
281
     1
  0
CLASS
  1
XRECORD
  2
AcDbXrecord
  3
AutoCAD 2000
 90
    32768
280
     0
281
     0
  0
CLASS
  1
LONG_TRANSACTION
  2
AcDbLongTransaction
  3
AutoCAD 2000
 90
    32768
280
     0
281
     0
  0
CLASS
  1
LWPOLYLINE
  2
AcDbPolyline
  3
AutoCAD 2000
 90
    32768
280
     0
281
     1
  0
CLASS
  1
HATCH
  2
AcDbHatch
  3
AutoCAD 2000
 90
    32768
280
     0
281
     1
  0
CLASS
  1
XRECORD
  2
AcDbXrecord
  3
AutoCAD 2000
 90
    32768
280
     0
281
     0
  0
CLASS
  1
LONG_TRANSACTION
  2
AcDbLongTransaction
  3
AutoCAD 2000
 90
    32768
280
     0
281
     0
  0
CLASS
  1
LWPOLYLINE
  2
AcDbPolyline
  3
AutoCAD 2000
 90
    32768
280
     0
281
     1
  0
CLASS
  1
HATCH
  2
AcDbHatch
  3
AutoCAD 2000
 90
    32768
280
     0
281
     1
  0
CLASS
  1
XRECORD
  2
AcDbXrecord
  3
AutoCAD 2000
 90
    32768
280
     0
281
     0
  0
CLASS
  1
LONG_TRANSACTION
  2
AcDbLongTransaction
  3
AutoCAD 2000
 90
    32768
280
     0
281
     0
  0
CLASS
  1
LWPOLYLINE
  2
AcDbPolyline
  3
AutoCAD 2000
 90
    32768
280
     0
281
     1
  0
CLASS
  1
HATCH
  2
AcDbHatch
  3
AutoCAD 2000
 90
    32768
280
     0
281
     1
  0
CLASS
  1
XRECORD
  2
AcDbXrecord
  3
AutoCAD 2000
 90
    32768
280
     0
281
     0
  0
CLASS
  1
LONG_TRANSACTION
  2
AcDbLongTransaction
  3
AutoCAD 2000
 90
    32768
280
     0
281
     0
  0
CLASS
  1
LWPOLYLINE
  2
AcDbPolyline
  3
AutoCAD 2000
 90
    32768
280
     0
281
     1
  0
CLASS
  1
HATCH
  2
AcDbHatch
  3
AutoCAD 2000
 90
    32768
280
     0
281
     1
  0
CLASS
  1
XRECORD
  2
AcDbXrecord
  3
AutoCAD 2000
 90
    32768
280
     0
281
     0
  0
CLASS
  1
LONG_TRANSACTION
  2
AcDbLongTransaction
  3
AutoCAD 2000
 90
    32768
280
     0
281
     0
  0
CLASS
  1
LWPOLYLINE
  2
AcDbPolyline
  3
AutoCAD 2000
 90
    32768
280
     0
281
     1
  0
CLASS
  1
HATCH
  2
AcDbHatch
  3
AutoCAD 2000
 90
    32768
280
     0
281
     1
  0
CLASS
  1
XRECORD
  2
AcDbXrecord
  3
AutoCAD 2000
 90
    32768
280
     0
281
     0
  0
CLASS
  1
LONG_TRANSACTION
  2
AcDbLongTransaction
  3
AutoCAD 2000
 90
    32768
280
     0
281
     0
  0
CLASS
  1
LWPOLYLINE
  2
AcDbPolyline
  3
AutoCAD 2000
 90
    32768
280
     0
281
     1
  0
CLASS
  1
HATCH
  2
AcDbHatch
  3
AutoCAD 2000
 90
    32768
280
     0
281
     1
  0
CLASS
  1
XRECORD
  2
AcDbXrecord
  3
AutoCAD 2000
 90
    32768
280
     0
281
     0
  0
CLASS
  1
LONG_TRANSACTION
  2
AcDbLongTransaction
  3
AutoCAD 2000
 90
    32768
280
     0
281
     0
  0
CLASS
  1
LWPOLYLINE
  2
AcDbPolyline
  3
AutoCAD 2000
 90
    32768
280
     0
281
     1
  0
CLASS
  1
HATCH
  2
AcDbHatch
  3
AutoCAD 2000
 90
    32768
280
     0
281
     1
  0
CLASS
  1
XRECORD
  2
AcDbXrecord
  3
AutoCAD 2000
 90
    32768
280
     0
281
     0
  0
CLASS
  1
LONG_TRANSACTION
  2
AcDbLongTransaction
  3
AutoCAD 2000
 90
    32768
280
     0
281
     0
  0
CLASS
  1
LWPOLYLINE
  2
AcDbPolyline
  3
AutoCAD 2000
 90
    32768
280
     0
281
     1
  0
CLASS
  1
HATCH
  2
AcDbHatch
  3
AutoCAD 2000
 90
    32768
280
     0
281
     1
  0
CLASS
  1
XRECORD
  2
AcDbXrecord
  3
AutoCAD 2000
 90
    32768
280
     0
281
     0
  0
CLASS
  1
LONG_TRANSACTION
  2
AcDbLongTransaction
  3
AutoCAD 2000
 90
    32768
280
     0
281
     0
  0
CLASS
  1
LWPOLYLINE
  2
AcDbPolyline
  3
AutoCAD 2000
 90
    32768
280
     0
281
     1
  0
CLASS
  1
HATCH
  2
AcDbHatch
  3
AutoCAD 2000
 90
    32768
280
     0
281
     1
  0
CLASS
  1
XRECORD
  2
AcDbXrecord
  3
AutoCAD 2000
 90
    32768
280
     0
281
     0
  0
CLASS
  1
LONG_TRANSACTION
  2
AcDbLongTransaction
  3
AutoCAD 2000
 90
    32768
280
     0
281
     0
  0
CLASS
  1
LWPOLYLINE
  2
AcDbPolyline
  3
AutoCAD 2000
 90
    32768
280
     0
281
     1
  0
CLASS
  1
HATCH
  2
AcDbHatch
  3
AutoCAD 2000
 90
    32768
280
     0
281
     1
  0
CLASS
  1
XRECORD
  2
AcDbXrecord
  3
AutoCAD 2000
 90
    32768
280
     0
281
     0
  0
CLASS
  1
LONG_TRANSACTION
  2
AcDbLongTransaction
  3
AutoCAD 2000
 90
    32768
280
     0
281
     0
  0
CLASS
  1
LWPOLYLINE
  2
AcDbPolyline
  3
AutoCAD 2000
 90
    32768
280
     0
281
     1
  0
CLASS
  1
HATCH
  2
AcDbHatch
  3
AutoCAD 2000
 90
    32768
280
     0
281
     1
  0
CLASS
  1
XRECORD
  2
AcDbXrecord
  3
AutoCAD 2000
 90
    32768
280
     0
281
     0
  0
CLASS
  1
LONG_TRANSACTION
  2
AcDbLongTransaction
  3
AutoCAD 2000
 90
    32768
280
     0
281
     0
  0
CLASS
  1
LWPOLYLINE
  2
AcDbPolyline
  3
AutoCAD 2000
 90
    32768
280
     0
281
     1
  0
CLASS
  1
HATCH
  2
AcDbHatch
  3
AutoCAD 2000
 90
    32768
280
     0
281
     1
  0
CLASS
  1
XRECORD
  2
AcDbXrecord
  3
AutoCAD 2000
 90
    32768
280
     0
281
     0
  0
CLASS
  1
LONG_TRANSACTION
  2
AcDbLongTransaction
  3
AutoCAD 2000
 90
    32768
280
     0
281
     0
  0
CLASS
  1
LWPOLYLINE
  2
AcDbPolyline
  3
AutoCAD 2000
 90
    32768
280
     0
281
     1
  0
CLASS
  1
HATCH
  2
AcDbHatch
  3
AutoCAD 2000
 90
    32768
280
     0
281
     1
  0
CLASS
  1
XRECORD
  2
AcDbXrecord
  3
AutoCAD 2000
 90
    32768
280
     0
281
     0
  0
CLASS
  1
LONG_TRANSACTION
  2
AcDbLongTransaction
  3
AutoCAD 2000
 90
    32768
280
     0
281
     0
  0
CLASS
  1
LWPOLYLINE
  2
AcDbPolyline
  3
AutoCAD 2000
 90
    32768
280
     0
281
     1
  0
CLASS
  1
HATCH
  2
AcDbHatch
  3
AutoCAD 2000
 90
    32768
280
     0
281
     1
  0
CLASS
  1
XRECORD
  2
AcDbXrecord
  3
AutoCAD 2000
 90
    32768
280
     0
281
     0
  0
CLASS
  1
LONG_TRANSACTION
  2
AcDbLongTransaction
  3
AutoCAD 2000
 90
    32768
280
     0
281
     0
  0
CLASS
  1
LWPOLYLINE
  2
AcDbPolyline
  3
AutoCAD 2000
 90
    32768
280
     0
281
     1
  0
CLASS
  1
HATCH
  2
AcDbHatch
  3
AutoCAD 2000
 90
    32768
280
     0
281
     1
  0
CLASS
  1
XRECORD
  2
AcDbXrecord
  3
AutoCAD 2000
 90
    32768
280
     0
281
     0
  0
CLASS
  1
LONG_TRANSACTION
  2
AcDbLongTransaction
  3
AutoCAD 2000
 90
    32768
280
     0
281
     0
  0
CLASS
  1
LWPOLYLINE
  2
AcDbPolyline
  3
AutoCAD 2000
 90
    32768
280
     0
281
     1
  0
CLASS
  1
HATCH
  2
AcDbHatch
  3
AutoCAD 2000
 90
    32768
280
     0
281
     1
  0
CLASS
  1
XRECORD
  2
AcDbXrecord
  3
AutoCAD 2000
 90
    32768
280
     0
281
     0
  0
CLASS
  1
LONG_TRANSACTION
  2
AcDbLongTransaction
  3
AutoCAD 2000
 90
    32768
280
     0
281
     0
  0
CLASS
  1
LWPOLYLINE
  2
AcDbPolyline
  3
AutoCAD 2000
 90
    32768
280
     0
281
     1
  0
CLASS
  1
HATCH
  2
AcDbHatch
  3
AutoCAD 2000
 90
    32768
280
     0
281
     1
  0
CLASS
  1
XRECORD
  2
AcDbXrecord
  3
AutoCAD 2000
 90
    32768
280
     0
281
     0
  0
CLASS
  1
LONG_TRANSACTION
  2
AcDbLongTransaction
  3
AutoCAD 2000
 90
    32768
280
     0
281
     0
  0
CLASS
  1
LWPOLYLINE
  2
AcDbPolyline
  3
AutoCAD 2000
 90
    32768
280
     0
281
     1
  0
CLASS
  1
HATCH
  2
AcDbHatch
  3
AutoCAD 2000
 90
    32768
280
     0
281
     1
  0
CLASS
  1
XRECORD
  2
AcDbXrecord
  3
AutoCAD 2000
 90
    32768
280
     0
281
     0
  0
CLASS
  1
LONG_TRANSACTION
  2
AcDbLongTransaction
  3
AutoCAD 2000
 90
    32768
280
     0
281
     0
  0
CLASS
  1
LWPOLYLINE
  2
AcDbPolyline
  3
AutoCAD 2000
 90
    32768
280
     0
281
     1
  0
CLASS
  1
HATCH
  2
AcDbHatch
  3
AutoCAD 2000
 90
    32768
280
     0
281
     1
  0
CLASS
  1
XRECORD
  2
AcDbXrecord
  3
AutoCAD 2000
 90
    32768
280
     0
281
     0
  0
CLASS
  1
LONG_TRANSACTION
  2
AcDbLongTransaction
  3
AutoCAD 2000
 90
    32768
280
     0
281
     0
  0
CLASS
  1
LWPOLYLINE
  2
AcDbPolyline
  3
AutoCAD 2000
 90
    32768
280
     0
281
     1
  0
CLASS
  1
HATCH
  2
AcDbHatch
  3
AutoCAD 2000
 90
    32768
280
     0
281
     1
  0
CLASS
  1
XRECORD
  2
AcDbXrecord
  3
AutoCAD 2000
 90
    32768
280
     0
281
     0
  0
CLASS
  1
LONG_TRANSACTION
  2
AcDbLongTransaction
  3
AutoCAD 2000
 90
    32768
280
     0
281
     0
  0
CLASS
  1
LWPOLYLINE
  2
AcDbPolyline
  3
AutoCAD 2000
 90
    32768
280
     0
281
     1
  0
CLASS
  1
HATCH
  2
AcDbHatch
  3
AutoCAD 2000
 90
    32768
280
     0
281
     1
  0
CLASS
  1
XRECORD
  2
AcDbXrecord
  3
AutoCAD 2000
 90
    32768
280
     0
281
     0
  0
CLASS
  1
LONG_TRANSACTION
  2
AcDbLongTransaction
  3
AutoCAD 2000
 90
    32768
280
     0
281
     0
  0
CLASS
  1
LWPOLYLINE
  2
AcDbPolyline
  3
AutoCAD 2000
 90
    32768
280
     0
281
     1
  0
CLASS
  1
HATCH
  2
AcDbHatch
  3
AutoCAD 2000
 90
    32768
280
     0
281
     1
  0
CLASS
  1
XRECORD
  2
AcDbXrecord
  3
AutoCAD 2000
 90
    32768
280
     0
281
     0
  0
CLASS
  1
DICTIONARYVAR
  2
AcDbDictionaryVar
  3
AutoCAD 2000
 90
        0
280
     0
281
     0
  0
CLASS
  1
LONG_TRANSACTION
  2
AcDbLongTransaction
  3
AutoCAD 2000
 90
    32768
280
     0
281
     0
  0
CLASS
  1
LWPOLYLINE
  2
AcDbPolyline
  3
AutoCAD 2000
 90
    32768
280
     0
281
     1
  0
CLASS
  1
HATCH
  2
AcDbHatch
  3
AutoCAD 2000
 90
    32768
280
     0
281
     1
  0
CLASS
  1
XRECORD
  2
AcDbXrecord
  3
AutoCAD 2000
 90
    32768
280
     0
281
     0
  0
CLASS
  1
LONG_TRANSACTION
  2
AcDbLongTransaction
  3
AutoCAD 2000
 90
    32768
280
     0
281
     0
  0
CLASS
  1
LWPOLYLINE
  2
AcDbPolyline
  3
AutoCAD 2000
 90
    32768
280
     0
281
     1
  0
CLASS
  1
HATCH
  2
AcDbHatch
  3
AutoCAD 2000
 90
    32768
280
     0
281
     1
  0
CLASS
  1
XRECORD
  2
AcDbXrecord
  3
AutoCAD 2000
 90
    32768
280
     0
281
     0
  0
CLASS
  1
LONG_TRANSACTION
  2
AcDbLongTransaction
  3
AutoCAD 2000
 90
    32768
280
     0
281
     0
  0
CLASS
  1
LWPOLYLINE
  2
AcDbPolyline
  3
AutoCAD 2000
 90
    32768
280
     0
281
     1
  0
CLASS
  1
HATCH
  2
AcDbHatch
  3
AutoCAD 2000
 90
    32768
280
     0
281
     1
  0
CLASS
  1
XRECORD
  2
AcDbXrecord
  3
AutoCAD 2000
 90
    32768
280
     0
281
     0
  0
CLASS
  1
LONG_TRANSACTION
  2
AcDbLongTransaction
  3
AutoCAD 2000
 90
    32768
280
     0
281
     0
  0
CLASS
  1
LWPOLYLINE
  2
AcDbPolyline
  3
AutoCAD 2000
 90
    32768
280
     0
281
     1
  0
CLASS
  1
HATCH
  2
AcDbHatch
  3
AutoCAD 2000
 90
    32768
280
     0
281
     1
  0
CLASS
  1
XRECORD
  2
AcDbXrecord
  3
AutoCAD 2000
 90
    32768
280
     0
281
     0
  0
ENDSEC
  0
SECTION
  2
TABLES
  0
TABLE
  2
VPORT
  5
8
330
0
100
AcDbSymbolTable
 70
     4
  0
VPORT
  5
1548C
330
8
100
AcDbSymbolTableRecord
100
AcDbViewportTableRecord
  2
*Active
 70
     0
 10
0.0
 20
0.0
 11
1.0
 21
1.0
 12
320.4055509913414
 22
-81.08112150590136
 13
0.0
 23
0.0
 14
1.0
 24
1.0
 15
10.0
 25
10.0
 16
0.0
 26
0.0
 36
1.0
 17
0.0
 27
0.0
 37
0.0
 40
2208.369773429506
 41
1.566970091027308
 42
50.0
 43
0.0
 44
0.0
 50
0.0
 51
0.0
 71
     0
 72
   100
 73
     1
 74
     1
 75
     1
 76
     0
 77
     0
 78
     0
281
     0
 65
     1
110
0.0
120
0.0
130
0.0
111
1.0
121
0.0
131
0.0
112
0.0
122
1.0
132
0.0
 79
     0
146
0.0
  0
ENDTAB
  0
TABLE
  2
LTYPE
  5
5
330
0
100
AcDbSymbolTable
 70
     7
  0
LTYPE
  5
13
330
5
100
AcDbSymbolTableRecord
100
AcDbLinetypeTableRecord
  2
BYBLOCK
 70
     0
  3

 72
    65
 73
     0
 40
0.0
  0
LTYPE
  5
14
330
5
100
AcDbSymbolTableRecord
100
AcDbLinetypeTableRecord
  2
BYLAYER
 70
     0
  3

 72
    65
 73
     0
 40
0.0
  0
LTYPE
  5
15
330
5
100
AcDbSymbolTableRecord
100
AcDbLinetypeTableRecord
  2
CONTINUOUS
 70
     0
  3
Solid line
 72
    65
 73
     0
 40
0.0
  0
LTYPE
  5
22
330
5
100
AcDbSymbolTableRecord
100
AcDbLinetypeTableRecord
  2
CONTINOUS
 70
     0
  3
Solid line
 72
    65
 73
     0
 40
0.0
  0
LTYPE
  5
24
330
5
100
AcDbSymbolTableRecord
100
AcDbLinetypeTableRecord
  2
DASHDOT
 70
     0
  3
__ . __ . __ . __ . __ . __ . __ . __ . __ . __
 72
    65
 73
     4
 40
1.0
 49
0.5
 74
     0
 49
-0.25
 74
     0
 49
0.0
 74
     0
 49
-0.25
 74
     0
  0
LTYPE
  5
4C47
330
5
100
AcDbSymbolTableRecord
100
AcDbLinetypeTableRecord
  2
DIVIDE
 70
     0
  3
Divide ____ . . ____ . . ____ . . ____ . . ____
 72
    65
 73
     6
 40
1.25
 49
0.5
 74
     0
 49
-0.25
 74
     0
 49
0.0
 74
     0
 49
-0.25
 74
     0
 49
0.0
 74
     0
 49
-0.25
 74
     0
  0
LTYPE
  5
7C4F
330
5
100
AcDbSymbolTableRecord
100
AcDbLinetypeTableRecord
  2
DASHED
 70
     0
  3
__ __ __ __ __ __ __ __ __
 72
    65
 73
     2
 40
0.75
 49
0.5
 74
     0
 49
-0.25
 74
     0
  0
LTYPE
  5
14357
330
5
100
AcDbSymbolTableRecord
100
AcDbLinetypeTableRecord
  2
PHANTOM
 70
     0
  3
____ _ _ ____ _ _ _____ _ _ ____
 72
    65
 73
     6
 40
2.5
 49
1.25
 74
     0
 49
-0.25
 74
     0
 49
0.25
 74
     0
 49
-0.25
 74
     0
 49
0.25
 74
     0
 49
-0.25
 74
     0
  0
LTYPE
  5
14358
330
5
100
AcDbSymbolTableRecord
100
AcDbLinetypeTableRecord
  2
CENTER
 70
     0
  3
____ _ ____ _ ____ _ ____
 72
    65
 73
     4
 40
2.0
 49
1.25
 74
     0
 49
-0.25
 74
     0
 49
0.25
 74
     0
 49
-0.25
 74
     0
  0
ENDTAB
  0
TABLE
  2
LAYER
  5
2
330
0
100
AcDbSymbolTable
 70
    15
  0
LAYER
  5
10
330
2
100
AcDbSymbolTableRecord
100
AcDbLayerTableRecord
  2
0
 70
     0
 62
     7
  6
CONTINOUS
370
    -3
390
F
  0
LAYER
  5
2F
330
2
100
AcDbSymbolTableRecord
100
AcDbLayerTableRecord
  2
10
 70
     0
 62
     4
  6
CONTINOUS
370
    -3
390
F
  0
LAYER
  5
31
330
2
100
AcDbSymbolTableRecord
100
AcDbLayerTableRecord
  2
12
 70
     0
 62
     3
  6
CONTINOUS
370
    -3
390
F
  0
LAYER
  5
35
330
2
100
AcDbSymbolTableRecord
100
AcDbLayerTableRecord
  2
16
 70
     0
 62
     6
  6
DASHDOT
370
    -3
390
F
  0
LAYER
  5
38
330
2
100
AcDbSymbolTableRecord
100
AcDbLayerTableRecord
  2
19
 70
     0
 62
     7
  6
CONTINOUS
370
    -3
390
F
  0
LAYER
  5
3C
330
2
100
AcDbSymbolTableRecord
100
AcDbLayerTableRecord
  2
11
 70
     0
 62
     1
  6
CONTINOUS
370
    -3
390
F
  0
LAYER
  5
3D
330
2
100
AcDbSymbolTableRecord
100
AcDbLayerTableRecord
  2
24
 70
     0
 62
     2
  6
CONTINOUS
370
    -3
390
F
  0
LAYER
  5
3A2
330
2
100
AcDbSymbolTableRecord
100
AcDbLayerTableRecord
  2
30
 70
     0
 62
     9
  6
CONTINUOUS
370
    -3
390
F
  0
LAYER
  5
3A4
330
2
100
AcDbSymbolTableRecord
100
AcDbLayerTableRecord
  2
DEFPOINTS
 70
     0
 62
     7
  6
CONTINUOUS
290
     0
370
    -3
390
F
  0
LAYER
  5
3BBA
330
2
100
AcDbSymbolTableRecord
100
AcDbLayerTableRecord
  2
18
 70
     0
 62
     5
  6
DIVIDE
370
    -3
390
F
  0
LAYER
  5
3BBB
330
2
100
AcDbSymbolTableRecord
100
AcDbLayerTableRecord
  2
21
 70
     0
 62
     7
  6
CONTINUOUS
370
    -3
390
F
  0
LAYER
  5
7355
330
2
100
AcDbSymbolTableRecord
100
AcDbLayerTableRecord
  2
1
 70
     0
 62
     7
  6
CONTINUOUS
370
    -3
390
F
  0
LAYER
  5
970E
330
2
100
AcDbSymbolTableRecord
100
AcDbLayerTableRecord
  2
17
 70
     0
 62
     2
  6
DASHDOT
370
    -3
390
F
  0
LAYER
  5
9BE8
330
2
100
AcDbSymbolTableRecord
100
AcDbLayerTableRecord
  2
225
 70
     0
 62
     7
  6
CONTINUOUS
370
    -3
390
F
  0
LAYER
  5
9BEA
330
2
100
AcDbSymbolTableRecord
100
AcDbLayerTableRecord
  2
160
 70
     0
 62
     7
  6
CONTINUOUS
370
    -3
390
F
  0
ENDTAB
  0
TABLE
  2
STYLE
  5
3
330
0
100
AcDbSymbolTable
 70
     3
  0
STYLE
  5
11
330
3
100
AcDbSymbolTableRecord
100
AcDbTextStyleTableRecord
  2
STANDARD
 70
     0
 40
0.0
 41
1.0
 50
0.0
 71
     0
 42
2.0
  3
txt.shx
  4
bigfont.shx
  0
STYLE
  5
42
330
3
100
AcDbSymbolTableRecord
100
AcDbTextStyleTableRecord
  2
STANDARD1
 70
     0
 40
0.0
 41
1.0
 50
0.0
 71
     0
 42
5.0
  3
MONOTXT
  4
BIGFONT
  0
STYLE
  5
14359
330
3
100
AcDbSymbolTableRecord
100
AcDbTextStyleTableRecord
  2
blockfont
 70
     0
 40
0.0
 41
1.0
 50
0.0
 71
     0
 42
0.2
  3
simplex.shx
  4
bigfont
  0
ENDTAB
  0
TABLE
  2
VIEW
  5
6
330
0
100
AcDbSymbolTable
 70
     3
  0
VIEW
  5
230C
330
6
100
AcDbSymbolTableRecord
100
AcDbViewTableRecord
  2
OLE1
 70
     0
 40
148.9124878027714
 10
429.4976280407222
 20
2.560626997828478
 41
103.1458057716444
 11
0.0
 21
0.0
 31
1.0
 12
0.0
 22
0.0
 32
0.0
 42
50.0
 43
0.0
 44
0.0
 50
0.0
 71
     0
281
     0
 72
     0
  0
VIEW
  5
230E
330
6
100
AcDbSymbolTableRecord
100
AcDbViewTableRecord
  2
OLE2
 70
     0
 40
170.7786920545775
 10
322.664969958371
 20
-5.978304054290276
 41
102.4672152327465
 11
0.0
 21
0.0
 31
1.0
 12
0.0
 22
0.0
 32
0.0
 42
50.0
 43
0.0
 44
0.0
 50
0.0
 71
     0
281
     0
 72
     0
  0
VIEW
  5
23AA
330
6
100
AcDbSymbolTableRecord
100
AcDbViewTableRecord
  2
OLE3
 70
     0
 40
591.7897393182231
 10
84.79698158148218
 20
-46.09336010803995
 41
388.7920961799953
 11
0.0
 21
0.0
 31
1.0
 12
0.0
 22
0.0
 32
0.0
 42
50.0
 43
0.0
 44
0.0
 50
0.0
 71
     0
281
     0
 72
     0
  0
ENDTAB
  0
TABLE
  2
UCS
  5
7
330
0
100
AcDbSymbolTable
 70
     0
  0
ENDTAB
  0
TABLE
  2
APPID
  5
9
330
0
100
AcDbSymbolTable
 70
     2
  0
APPID
  5
12
330
9
100
AcDbSymbolTableRecord
100
AcDbRegAppTableRecord
  2
ACAD
 70
     0
  0
APPID
  5
ECD
330
9
100
AcDbSymbolTableRecord
100
AcDbRegAppTableRecord
  2
CONTENTBLOCKICON
 70
     0
  0
ENDTAB
  0
TABLE
  2
DIMSTYLE
  5
A
330
0
100
AcDbSymbolTable
 70
     2
100
AcDbDimStyleTable
 71
     2
340
9742
340
175
  0
DIMSTYLE
105
175
330
A
100
AcDbSymbolTableRecord
100
AcDbDimStyleTableRecord
  2
STANDARD
 70
     0
 41
2.0
 42
1.0
 43
0.5
 44
0.5
 73
     0
 77
     3
 78
    12
140
5.0
147
1.0
271
     1
272
     1
340
11
341
3B2
342
3B2
  0
DIMSTYLE
105
9742
102
{ACAD_REACTORS
330
120B4
330
120B5
330
139A3
330
1417D
330
1462B
330
1462C
330
1462E
330
144DD
330
14600
330
144DC
330
144DE
330
14569
330
144DF
330
1456A
330
1463E
330
14A7D
330
14A7E
330
14D15
330
14D16
330
14E11
330
14E1E
330
14E2B
330
150EB
330
1504F
330
15050
330
15051
330
1506E
330
1519C
330
15394
330
153EC
330
153ED
330
153EE
330
153EF
330
1544A
102
}
330
A
100
AcDbSymbolTableRecord
100
AcDbDimStyleTableRecord
  2
STANDARD1
 70
     0
 41
2.0
 42
3.0
 43
0.5
 44
0.5
 73
     0
 77
     3
 78
    12
140
6.0
147
3.0
271
     1
272
     1
289
     2
340
11
341
3B2
342
3B2
  0
ENDTAB
  0
TABLE
  2
BLOCK_RECORD
  5
1
330
0
100
AcDbSymbolTable
 70
   166
  0
BLOCK_RECORD
  5
1E
102
{ACAD_XDICTIONARY
360
178
102
}
330
1
100
AcDbSymbolTableRecord
100
AcDbBlockTableRecord
  2
*MODEL_SPACE
340
7AE4
  0
BLOCK_RECORD
  5
1A
102
{ACAD_XDICTIONARY
360
17A
102
}
330
1
100
AcDbSymbolTableRecord
100
AcDbBlockTableRecord
  2
*PAPER_SPACE
340
7AE5
  0
BLOCK_RECORD
  5
3B2
330
1
100
AcDbSymbolTableRecord
100
AcDbBlockTableRecord
  2
_OPEN
340
0
102
{BLKREFS
331
13EF9
331
13EFA
331
13F03
331
13F04
331
13F0C
331
13F0D
331
13F15
331
13F16
331
13F5D
331
13F5E
331
13F66
331
13F67
331
13F8A
331
13F8B
331
13F94
331
13F95
331
13F9E
331
13F9F
331
13FA7
331
13FA8
331
13FB0
331
13FB1
331
13FB9
331
13FBA
331
13FC2
331
13FC3
331
13FCB
331
13FCC
331
13FD4
331
13FD5
331
13FDD
331
13FDE
331
13FE6
331
13FE7
331
1411E
331
1411F
331
14127
331
14128
331
1416F
331
14170
331
14177
331
1418B
331
1487A
331
1487B
331
14884
331
14885
331
1488D
331
1488E
331
14896
331
14897
331
1489F
331
148A0
331
148A8
331
148B0
331
148B1
331
148B9
331
148BA
331
148C3
331
148C4
331
148CD
331
148CE
331
148D7
331
148D8
331
148E5
331
148E6
331
148EE
331
148EF
331
148F8
331
148F9
331
14902
331
14903
331
1490C
331
1490D
331
14915
331
14916
331
1491E
331
1491F
331
14928
331
14929
331
14931
331
14932
331
1493A
331
1493B
331
14944
331
14945
331
149EA
331
149EB
331
149F3
331
149F4
331
14AEC
331
14AED
331
14AF5
331
14AF6
331
14B07
331
14B08
331
14B19
331
14B1A
331
14B22
331
14B23
331
14CB7
331
14CB8
331
14CC0
331
14CC1
331
14CC9
331
14CCA
331
14DAB
331
14DAC
331
14DC6
331
14DC7
331
14DCF
331
14DD0
331
14DDD
331
14DDE
331
14DE6
331
14DE7
331
14DEF
331
14DF0
331
14E0B
331
14E0C
331
14E16
331
14E17
331
14E23
331
14E24
331
14E30
331
14E31
331
14FC1
331
14FC2
331
14FC9
331
14FD0
331
14FD1
331
14FD9
331
14FDA
331
14FE2
331
14FE3
331
14FEB
331
14FEC
331
14FF4
331
14FF5
331
14FFD
331
14FFE
331
15006
331
1500E
331
15017
331
15018
331
150D4
331
150DC
331
150EF
331
1516A
331
1516B
331
1517C
331
1517D
331
151AB
331
151AC
331
152E8
331
152E9
331
152F1
331
152F2
331
152FA
331
152FB
331
15303
331
15304
331
1530D
331
1530E
331
15316
331
15317
331
1531F
331
15320
331
15328
331
15329
331
15331
331
15332
331
1533A
331
1533B
331
15343
331
15344
331
1534C
331
1534D
331
15355
331
15356
331
15360
331
15361
331
15369
331
1536A
331
15372
331
15373
331
15384
331
15385
331
153A5
331
153A6
331
153DC
331
153DD
331
153CE
331
153CF
331
153C2
331
153C3
331
153B5
331
153B6
331
153F6
331
153F7
331
15402
331
15403
331
1540F
331
15410
331
1541B
331
1541C
331
15428
331
15429
331
15431
331
15432
331
1543B
331
1543C
331
15444
331
15445
331
1544F
331
15450
331
1545A
331
1545B
331
15463
331
15464
102
}
  0
BLOCK_RECORD
  5
10ECA
330
1
100
AcDbSymbolTableRecord
100
AcDbBlockTableRecord
  2
*D1
340
0
  0
BLOCK_RECORD
  5
10EFA
330
1
100
AcDbSymbolTableRecord
100
AcDbBlockTableRecord
  2
*D2
340
0
  0
BLOCK_RECORD
  5
120B6
330
1
100
AcDbSymbolTableRecord
100
AcDbBlockTableRecord
  2
*D8
340
0
  0
BLOCK_RECORD
  5
120C2
330
1
100
AcDbSymbolTableRecord
100
AcDbBlockTableRecord
  2
*D9
340
0
  0
BLOCK_RECORD
  5
139A4
330
1
100
AcDbSymbolTableRecord
100
AcDbBlockTableRecord
  2
*D12
340
0
  0
BLOCK_RECORD
  5
14155
330
1
100
AcDbSymbolTableRecord
100
AcDbBlockTableRecord
  2
*D28
340
0
  0
BLOCK_RECORD
  5
14161
330
1
100
AcDbSymbolTableRecord
100
AcDbBlockTableRecord
  2
*D29
340
0
  0
BLOCK_RECORD
  5
1417E
330
1
100
AcDbSymbolTableRecord
100
AcDbBlockTableRecord
  2
*D30
340
0
  0
BLOCK_RECORD
  5
1419E
330
1
100
AcDbSymbolTableRecord
100
AcDbBlockTableRecord
  2
_D1
340
0
  0
BLOCK_RECORD
  5
141AA
330
1
100
AcDbSymbolTableRecord
100
AcDbBlockTableRecord
  2
_D5
340
0
  0
BLOCK_RECORD
  5
141B6
330
1
100
AcDbSymbolTableRecord
100
AcDbBlockTableRecord
  2
_D7
340
0
  0
BLOCK_RECORD
  5
141C2
330
1
100
AcDbSymbolTableRecord
100
AcDbBlockTableRecord
  2
_D10
340
0
  0
BLOCK_RECORD
  5
141CE
330
1
100
AcDbSymbolTableRecord
100
AcDbBlockTableRecord
  2
_D11
340
0
  0
BLOCK_RECORD
  5
141DA
330
1
100
AcDbSymbolTableRecord
100
AcDbBlockTableRecord
  2
_D12
340
0
  0
BLOCK_RECORD
  5
141E6
330
1
100
AcDbSymbolTableRecord
100
AcDbBlockTableRecord
  2
_D13
340
0
  0
BLOCK_RECORD
  5
141F2
330
1
100
AcDbSymbolTableRecord
100
AcDbBlockTableRecord
  2
_D14
340
0
  0
BLOCK_RECORD
  5
141FE
330
1
100
AcDbSymbolTableRecord
100
AcDbBlockTableRecord
  2
_D15
340
0
  0
BLOCK_RECORD
  5
1420A
330
1
100
AcDbSymbolTableRecord
100
AcDbBlockTableRecord
  2
_D18
340
0
  0
BLOCK_RECORD
  5
14216
330
1
100
AcDbSymbolTableRecord
100
AcDbBlockTableRecord
  2
_D19
340
0
  0
BLOCK_RECORD
  5
14222
330
1
100
AcDbSymbolTableRecord
100
AcDbBlockTableRecord
  2
_D20
340
0
  0
BLOCK_RECORD
  5
1422E
330
1
100
AcDbSymbolTableRecord
100
AcDbBlockTableRecord
  2
_D29
340
0
  0
BLOCK_RECORD
  5
1423A
330
1
100
AcDbSymbolTableRecord
100
AcDbBlockTableRecord
  2
_D30
340
0
  0
BLOCK_RECORD
  5
14246
330
1
100
AcDbSymbolTableRecord
100
AcDbBlockTableRecord
  2
_D32
340
0
  0
BLOCK_RECORD
  5
14252
330
1
100
AcDbSymbolTableRecord
100
AcDbBlockTableRecord
  2
_D33
340
0
  0
BLOCK_RECORD
  5
1425E
330
1
100
AcDbSymbolTableRecord
100
AcDbBlockTableRecord
  2
_D34
340
0
  0
BLOCK_RECORD
  5
1426A
330
1
100
AcDbSymbolTableRecord
100
AcDbBlockTableRecord
  2
_D36
340
0
  0
BLOCK_RECORD
  5
14276
330
1
100
AcDbSymbolTableRecord
100
AcDbBlockTableRecord
  2
_D37
340
0
  0
BLOCK_RECORD
  5
14282
330
1
100
AcDbSymbolTableRecord
100
AcDbBlockTableRecord
  2
_D38
340
0
  0
BLOCK_RECORD
  5
1428F
330
1
100
AcDbSymbolTableRecord
100
AcDbBlockTableRecord
  2
_D40
340
0
  0
BLOCK_RECORD
  5
1429C
330
1
100
AcDbSymbolTableRecord
100
AcDbBlockTableRecord
  2
_D43
340
0
  0
BLOCK_RECORD
  5
142A9
330
1
100
AcDbSymbolTableRecord
100
AcDbBlockTableRecord
  2
_D44
340
0
  0
BLOCK_RECORD
  5
142B6
330
1
100
AcDbSymbolTableRecord
100
AcDbBlockTableRecord
  2
_D45
340
0
  0
BLOCK_RECORD
  5
142C3
330
1
100
AcDbSymbolTableRecord
100
AcDbBlockTableRecord
  2
_D46
340
0
  0
BLOCK_RECORD
  5
142D0
330
1
100
AcDbSymbolTableRecord
100
AcDbBlockTableRecord
  2
_D47
340
0
  0
BLOCK_RECORD
  5
142DD
330
1
100
AcDbSymbolTableRecord
100
AcDbBlockTableRecord
  2
_D48
340
0
  0
BLOCK_RECORD
  5
142E4
330
1
100
AcDbSymbolTableRecord
100
AcDbBlockTableRecord
  2
_D49
340
0
  0
BLOCK_RECORD
  5
142F1
330
1
100
AcDbSymbolTableRecord
100
AcDbBlockTableRecord
  2
_D50
340
0
  0
BLOCK_RECORD
  5
142FE
330
1
100
AcDbSymbolTableRecord
100
AcDbBlockTableRecord
  2
_D51
340
0
  0
BLOCK_RECORD
  5
1430B
330
1
100
AcDbSymbolTableRecord
100
AcDbBlockTableRecord
  2
_D52
340
0
  0
BLOCK_RECORD
  5
14318
330
1
100
AcDbSymbolTableRecord
100
AcDbBlockTableRecord
  2
_D53
340
0
  0
BLOCK_RECORD
  5
14325
330
1
100
AcDbSymbolTableRecord
100
AcDbBlockTableRecord
  2
_D54
340
0
  0
BLOCK_RECORD
  5
14332
330
1
100
AcDbSymbolTableRecord
100
AcDbBlockTableRecord
  2
_D61
340
0
  0
BLOCK_RECORD
  5
1433F
330
1
100
AcDbSymbolTableRecord
100
AcDbBlockTableRecord
  2
_D62
340
0
  0
BLOCK_RECORD
  5
1434C
330
1
100
AcDbSymbolTableRecord
100
AcDbBlockTableRecord
  2
_D65
340
0
  0
BLOCK_RECORD
  5
14644
330
1
100
AcDbSymbolTableRecord
100
AcDbBlockTableRecord
  2
*D67
340
0
  0
BLOCK_RECORD
  5
14650
330
1
100
AcDbSymbolTableRecord
100
AcDbBlockTableRecord
  2
*D68
340
0
  0
BLOCK_RECORD
  5
1465C
330
1
100
AcDbSymbolTableRecord
100
AcDbBlockTableRecord
  2
*D69
340
0
  0
BLOCK_RECORD
  5
14674
330
1
100
AcDbSymbolTableRecord
100
AcDbBlockTableRecord
  2
*D71
340
0
  0
BLOCK_RECORD
  5
14681
330
1
100
AcDbSymbolTableRecord
100
AcDbBlockTableRecord
  2
*D72
340
0
  0
BLOCK_RECORD
  5
1469A
330
1
100
AcDbSymbolTableRecord
100
AcDbBlockTableRecord
  2
*D74
340
0
  0
BLOCK_RECORD
  5
146A7
330
1
100
AcDbSymbolTableRecord
100
AcDbBlockTableRecord
  2
*D75
340
0
  0
BLOCK_RECORD
  5
146B4
330
1
100
AcDbSymbolTableRecord
100
AcDbBlockTableRecord
  2
*D76
340
0
  0
BLOCK_RECORD
  5
146C0
330
1
100
AcDbSymbolTableRecord
100
AcDbBlockTableRecord
  2
*D77
340
0
  0
BLOCK_RECORD
  5
146CC
330
1
100
AcDbSymbolTableRecord
100
AcDbBlockTableRecord
  2
*D78
340
0
  0
BLOCK_RECORD
  5
146D8
330
1
100
AcDbSymbolTableRecord
100
AcDbBlockTableRecord
  2
*D79
340
0
  0
BLOCK_RECORD
  5
14A7F
330
1
100
AcDbSymbolTableRecord
100
AcDbBlockTableRecord
  2
*D103
340
0
  0
BLOCK_RECORD
  5
14A8B
330
1
100
AcDbSymbolTableRecord
100
AcDbBlockTableRecord
  2
*D104
340
0
  0
BLOCK_RECORD
  5
14B28
330
1
100
AcDbSymbolTableRecord
100
AcDbBlockTableRecord
  2
ASSORTED_DRAFT1
340
0
  0
BLOCK_RECORD
  5
14B2C
330
1
100
AcDbSymbolTableRecord
100
AcDbBlockTableRecord
  2
ASSORTED_DRAFT2
340
0
  0
BLOCK_RECORD
  5
14B30
330
1
100
AcDbSymbolTableRecord
100
AcDbBlockTableRecord
  2
_D0
340
0
  0
BLOCK_RECORD
  5
14B3C
330
1
100
AcDbSymbolTableRecord
100
AcDbBlockTableRecord
  2
_D6
340
0
  0
BLOCK_RECORD
  5
14B48
330
1
100
AcDbSymbolTableRecord
100
AcDbBlockTableRecord
  2
_D16
340
0
  0
BLOCK_RECORD
  5
14B54
330
1
100
AcDbSymbolTableRecord
100
AcDbBlockTableRecord
  2
_D17
340
0
  0
BLOCK_RECORD
  5
14B60
330
1
100
AcDbSymbolTableRecord
100
AcDbBlockTableRecord
  2
_D31
340
0
  0
BLOCK_RECORD
  5
14B6C
330
1
100
AcDbSymbolTableRecord
100
AcDbBlockTableRecord
  2
_D35
340
0
  0
BLOCK_RECORD
  5
14D48
330
1
100
AcDbSymbolTableRecord
100
AcDbBlockTableRecord
  2
*D119
340
0
  0
BLOCK_RECORD
  5
14D60
330
1
100
AcDbSymbolTableRecord
100
AcDbBlockTableRecord
  2
*D121
340
0
  0
BLOCK_RECORD
  5
14E12
330
1
100
AcDbSymbolTableRecord
100
AcDbBlockTableRecord
  2
*D122
340
0
  0
BLOCK_RECORD
  5
14E1F
330
1
100
AcDbSymbolTableRecord
100
AcDbBlockTableRecord
  2
*D123
340
0
  0
BLOCK_RECORD
  5
14E2C
330
1
100
AcDbSymbolTableRecord
100
AcDbBlockTableRecord
  2
*D124
340
0
  0
BLOCK_RECORD
  5
14E38
330
1
100
AcDbSymbolTableRecord
100
AcDbBlockTableRecord
  2
_D2
340
0
  0
BLOCK_RECORD
  5
14E44
330
1
100
AcDbSymbolTableRecord
100
AcDbBlockTableRecord
  2
_D3
340
0
  0
BLOCK_RECORD
  5
14E50
330
1
100
AcDbSymbolTableRecord
100
AcDbBlockTableRecord
  2
_D4
340
0
  0
BLOCK_RECORD
  5
14E5C
330
1
100
AcDbSymbolTableRecord
100
AcDbBlockTableRecord
  2
_D8
340
0
  0
BLOCK_RECORD
  5
14E68
330
1
100
AcDbSymbolTableRecord
100
AcDbBlockTableRecord
  2
_D21
340
0
  0
BLOCK_RECORD
  5
14E74
330
1
100
AcDbSymbolTableRecord
100
AcDbBlockTableRecord
  2
_D23
340
0
  0
BLOCK_RECORD
  5
14E80
330
1
100
AcDbSymbolTableRecord
100
AcDbBlockTableRecord
  2
_D39
340
0
  0
BLOCK_RECORD
  5
14E8D
330
1
100
AcDbSymbolTableRecord
100
AcDbBlockTableRecord
  2
_D60
340
0
  0
BLOCK_RECORD
  5
14E9A
330
1
100
AcDbSymbolTableRecord
100
AcDbBlockTableRecord
  2
_D63
340
0
  0
BLOCK_RECORD
  5
14EA5
330
1
100
AcDbSymbolTableRecord
100
AcDbBlockTableRecord
  2
_D64
340
0
  0
BLOCK_RECORD
  5
14EB0
330
1
100
AcDbSymbolTableRecord
100
AcDbBlockTableRecord
  2
_D66
340
0
  0
BLOCK_RECORD
  5
1506F
330
1
100
AcDbSymbolTableRecord
100
AcDbBlockTableRecord
  2
*D147
340
0
  0
BLOCK_RECORD
  5
1507B
330
1
100
AcDbSymbolTableRecord
100
AcDbBlockTableRecord
  2
*D148
340
0
  0
BLOCK_RECORD
  5
15087
330
1
100
AcDbSymbolTableRecord
100
AcDbBlockTableRecord
  2
*D149
340
0
  0
BLOCK_RECORD
  5
150A9
330
1
100
AcDbSymbolTableRecord
100
AcDbBlockTableRecord
  2
*D152
340
0
  0
BLOCK_RECORD
  5
150EC
330
1
100
AcDbSymbolTableRecord
100
AcDbBlockTableRecord
  2
*D153
340
0
  0
BLOCK_RECORD
  5
1519D
330
1
100
AcDbSymbolTableRecord
100
AcDbBlockTableRecord
  2
*D154
340
0
  0
BLOCK_RECORD
  5
15396
330
1
100
AcDbSymbolTableRecord
100
AcDbBlockTableRecord
  2
*D155
340
0
  0
BLOCK_RECORD
  5
153B1
330
1
100
AcDbSymbolTableRecord
100
AcDbBlockTableRecord
  2
*D156
340
0
  0
BLOCK_RECORD
  5
153BD
330
1
100
AcDbSymbolTableRecord
100
AcDbBlockTableRecord
  2
*D157
340
0
  0
BLOCK_RECORD
  5
153CA
330
1
100
AcDbSymbolTableRecord
100
AcDbBlockTableRecord
  2
*D158
340
0
  0
BLOCK_RECORD
  5
153D6
330
1
100
AcDbSymbolTableRecord
100
AcDbBlockTableRecord
  2
*D159
340
0
  0
BLOCK_RECORD
  5
153F0
330
1
100
AcDbSymbolTableRecord
100
AcDbBlockTableRecord
  2
*D161
340
0
  0
BLOCK_RECORD
  5
153FE
330
1
100
AcDbSymbolTableRecord
100
AcDbBlockTableRecord
  2
*D162
340
0
  0
BLOCK_RECORD
  5
1540A
330
1
100
AcDbSymbolTableRecord
100
AcDbBlockTableRecord
  2
*D163
340
0
  0
BLOCK_RECORD
  5
15417
330
1
100
AcDbSymbolTableRecord
100
AcDbBlockTableRecord
  2
*D164
340
0
  0
BLOCK_RECORD
  5
1544B
330
1
100
AcDbSymbolTableRecord
100
AcDbBlockTableRecord
  2
*D165
340
0
  0
ENDTAB
  0
ENDSEC
  0
SECTION
  2
BLOCKS
  0
BLOCK
  5
1F
330
1E
100
AcDbEntity
  8
0
100
AcDbBlockBegin
  2
*MODEL_SPACE
 70
     0
 10
0.0
 20
0.0
 30
0.0
  3
*MODEL_SPACE
  1

  0
ENDBLK
  5
20
330
1E
100
AcDbEntity
  8
0
100
AcDbBlockEnd
  0
BLOCK
  5
1B
330
1A
100
AcDbEntity
 67
     1
  8
0
100
AcDbBlockBegin
  2
*PAPER_SPACE
 70
     0
 10
0.0
 20
0.0
 30
0.0
  3
*PAPER_SPACE
  1

  0
ENDBLK
  5
1C
330
1A
100
AcDbEntity
 67
     1
  8
0
100
AcDbBlockEnd
  0
BLOCK
  5
3B6
330
3B2
100
AcDbEntity
  8
0
100
AcDbBlockBegin
  2
_OPEN
 70
     0
 10
0.0
 20
0.0
 30
0.0
  3
_OPEN
  1

  0
LINE
  5
3B3
330
3B2
100
AcDbEntity
  8
30
  6
Continuous
 62
     0
100
AcDbLine
 10
-1.0
 20
0.1666666666666666
 30
0.0
 11
0.0
 21
0.0
 31
0.0
  0
LINE
  5
3B4
330
3B2
100
AcDbEntity
  8
30
  6
Continuous
 62
     0
100
AcDbLine
 10
-1.0
 20
-0.1666666666666666
 30
0.0
 11
0.0
 21
0.0
 31
0.0
  0
LINE
  5
3B5
330
3B2
100
AcDbEntity
  8
30
  6
Continuous
 62
     0
100
AcDbLine
 10
0.0
 20
0.0
 30
0.0
 11
-1.0
 21
0.0
 31
0.0
  0
ENDBLK
  5
3B7
330
3B2
100
AcDbEntity
  8
0
100
AcDbBlockEnd
  0
BLOCK
  5
10ED4
330
10ECA
100
AcDbEntity
  8
0
100
AcDbBlockBegin
  2
*D1
 70
     1
 10
0.0
 20
0.0
 30
0.0
  3
*D1
  1

  0
LINE
  5
14E08
330
10ECA
100
AcDbEntity
  8
30
  6
Continuous
 62
     0
370
    -2
100
AcDbLine
 10
-39.0
 20
-50.5
 30
0.0
 11
-39.0
 21
-100.5
 31
0.0
  0
LINE
  5
14E09
330
10ECA
100
AcDbEntity
  8
30
  6
Continuous
 62
     0
370
    -2
100
AcDbLine
 10
38.99999999999954
 20
-50.5
 30
0.0
 11
38.99999999999954
 21
-100.5
 31
0.0
  0
LINE
  5
14E0A
330
10ECA
100
AcDbEntity
  8
30
  6
Continuous
 62
     0
370
    -2
100
AcDbLine
 10
-37.0
 20
-100.0
 30
0.0
 11
36.99999999999954
 21
-100.0
 31
0.0
  0
INSERT
  5
14E0B
330
10ECA
100
AcDbEntity
  8
30
  6
Continuous
 62
     0
370
    -2
100
AcDbBlockReference
  2
_OPEN
 10
-39.0
 20
-100.0
 30
0.0
 41
2.0
 42
2.0
 43
2.0
 50
180.0
  0
INSERT
  5
14E0C
330
10ECA
100
AcDbEntity
  8
30
  6
Continuous
 62
     0
370
    -2
100
AcDbBlockReference
  2
_OPEN
 10
38.99999999999954
 20
-100.0
 30
0.0
 41
2.0
 42
2.0
 43
2.0
  0
MTEXT
  5
14E0D
330
10ECA
100
AcDbEntity
  8
30
  6
Continuous
 62
     0
100
AcDbMText
 10
-0.000000000000227
 20
-94.0
 30
0.0
 40
6.0
 41
0.0
 71
     5
 72
     1
  1
\A1; 78 
 73
     1
 44
1.0
  0
POINT
  5
14E0E
330
10ECA
100
AcDbEntity
  8
DEFPOINTS
  6
Continuous
 62
     0
100
AcDbPoint
 10
-39.0
 20
-47.5
 30
0.0
  0
POINT
  5
14E0F
330
10ECA
100
AcDbEntity
  8
DEFPOINTS
  6
Continuous
 62
     0
100
AcDbPoint
 10
38.99999999999954
 20
-47.5
 30
0.0
  0
POINT
  5
14E10
330
10ECA
100
AcDbEntity
  8
DEFPOINTS
  6
Continuous
 62
     0
100
AcDbPoint
 10
38.99999999999954
 20
-100.0
 30
0.0
  0
ENDBLK
  5
10ED5
330
10ECA
100
AcDbEntity
  8
0
100
AcDbBlockEnd
  0
BLOCK
  5
10F04
330
10EFA
100
AcDbEntity
  8
0
100
AcDbBlockBegin
  2
*D2
 70
     1
 10
0.0
 20
0.0
 30
0.0
  3
*D2
  1

  0
LINE
  5
15381
330
10EFA
100
AcDbEntity
  8
30
  6
Continuous
 62
     0
370
    -2
100
AcDbLine
 10
-95.0
 20
54.50000000000091
 30
0.0
 11
-95.0
 21
90.5
 31
0.0
  0
LINE
  5
15382
330
10EFA
100
AcDbEntity
  8
30
  6
Continuous
 62
     0
370
    -2
100
AcDbLine
 10
95.0
 20
54.50000000000091
 30
0.0
 11
95.0
 21
90.5
 31
0.0
  0
LINE
  5
15383
330
10EFA
100
AcDbEntity
  8
30
  6
Continuous
 62
     0
370
    -2
100
AcDbLine
 10
-93.0
 20
90.0
 30
0.0
 11
93.0
 21
90.0
 31
0.0
  0
INSERT
  5
15384
330
10EFA
100
AcDbEntity
  8
30
  6
Continuous
 62
     0
370
    -2
100
AcDbBlockReference
  2
_OPEN
 10
-95.0
 20
90.0
 30
0.0
 41
2.0
 42
2.0
 43
2.0
 50
180.0
  0
INSERT
  5
15385
330
10EFA
100
AcDbEntity
  8
30
  6
Continuous
 62
     0
370
    -2
100
AcDbBlockReference
  2
_OPEN
 10
95.0
 20
90.0
 30
0.0
 41
2.0
 42
2.0
 43
2.0
  0
MTEXT
  5
15386
330
10EFA
100
AcDbEntity
  8
30
  6
Continuous
 62
     0
100
AcDbMText
 10
0.0000000000000004
 20
96.0
 30
0.0
 40
6.0
 41
0.0
 71
     5
 72
     1
  1
\A1; 190 
 73
     1
 44
1.0
  0
POINT
  5
15387
330
10EFA
100
AcDbEntity
  8
DEFPOINTS
  6
Continuous
 62
     0
100
AcDbPoint
 10
-95.0
 20
51.5000000000009
 30
0.0
  0
POINT
  5
15388
330
10EFA
100
AcDbEntity
  8
DEFPOINTS
  6
Continuous
 62
     0
100
AcDbPoint
 10
95.0
 20
51.5000000000009
 30
0.0
  0
POINT
  5
15389
330
10EFA
100
AcDbEntity
  8
DEFPOINTS
  6
Continuous
 62
     0
100
AcDbPoint
 10
95.0
 20
90.0
 30
0.0
  0
ENDBLK
  5
10F05
330
10EFA
100
AcDbEntity
  8
0
100
AcDbBlockEnd
  0
BLOCK
  5
120C0
330
120B6
100
AcDbEntity
  8
0
100
AcDbBlockBegin
  2
*D8
 70
     1
 10
0.0
 20
0.0
 30
0.0
  3
*D8
  1

  0
LINE
  5
1411B
330
120B6
100
AcDbEntity
  8
30
  6
Continuous
 62
     0
370
    -2
100
AcDbLine
 10
253.4999999999998
 20
-648.9999999999997
 30
0.0
 11
253.4999999999998
 21
-810.5
 31
0.0
  0
LINE
  5
1411C
330
120B6
100
AcDbEntity
  8
30
  6
Continuous
 62
     0
370
    -2
100
AcDbLine
 10
446.4999999999999
 20
-648.9999999999991
 30
0.0
 11
446.4999999999999
 21
-810.5
 31
0.0
  0
LINE
  5
1411D
330
120B6
100
AcDbEntity
  8
30
  6
Continuous
 62
     0
370
    -2
100
AcDbLine
 10
255.4999999999998
 20
-810.0
 30
0.0
 11
444.5
 21
-810.0
 31
0.0
  0
INSERT
  5
1411E
330
120B6
100
AcDbEntity
  8
30
  6
Continuous
 62
     0
370
    -2
100
AcDbBlockReference
  2
_OPEN
 10
253.4999999999998
 20
-810.0
 30
0.0
 41
2.0
 42
2.0
 43
2.0
 50
180.0
  0
INSERT
  5
1411F
330
120B6
100
AcDbEntity
  8
30
  6
Continuous
 62
     0
370
    -2
100
AcDbBlockReference
  2
_OPEN
 10
446.4999999999999
 20
-810.0
 30
0.0
 41
2.0
 42
2.0
 43
2.0
  0
MTEXT
  5
14120
330
120B6
100
AcDbEntity
  8
30
  6
Continuous
 62
     0
100
AcDbMText
 10
349.9999999999999
 20
-804.0
 30
0.0
 40
6.0
 41
0.0
 71
     5
 72
     1
  1
\A1; 193 
 73
     1
 44
1.0
  0
POINT
  5
14121
330
120B6
100
AcDbEntity
  8
DEFPOINTS
  6
Continuous
 62
     0
100
AcDbPoint
 10
253.4999999999998
 20
-645.9999999999998
 30
0.0
  0
POINT
  5
14122
330
120B6
100
AcDbEntity
  8
DEFPOINTS
  6
Continuous
 62
     0
100
AcDbPoint
 10
446.4999999999999
 20
-645.9999999999991
 30
0.0
  0
POINT
  5
14123
330
120B6
100
AcDbEntity
  8
DEFPOINTS
  6
Continuous
 62
     0
100
AcDbPoint
 10
446.4999999999999
 20
-810.0
 30
0.0
  0
ENDBLK
  5
120C1
330
120B6
100
AcDbEntity
  8
0
100
AcDbBlockEnd
  0
BLOCK
  5
120CC
330
120C2
100
AcDbEntity
  8
0
100
AcDbBlockBegin
  2
*D9
 70
     1
 10
0.0
 20
0.0
 30
0.0
  3
*D9
  1

  0
LINE
  5
14124
330
120C2
100
AcDbEntity
  8
30
  6
Continuous
 62
     0
370
    -2
100
AcDbLine
 10
250.4999999999999
 20
-550.9999999999991
 30
0.0
 11
224.5
 21
-550.9999999999991
 31
0.0
  0
LINE
  5
14125
330
120C2
100
AcDbEntity
  8
30
  6
Continuous
 62
     0
370
    -2
100
AcDbLine
 10
250.4999999999999
 20
-648.9999999999997
 30
0.0
 11
224.5
 21
-648.9999999999997
 31
0.0
  0
LINE
  5
14126
330
120C2
100
AcDbEntity
  8
30
  6
Continuous
 62
     0
370
    -2
100
AcDbLine
 10
225.0
 20
-552.9999999999992
 30
0.0
 11
225.0
 21
-646.9999999999997
 31
0.0
  0
INSERT
  5
14127
330
120C2
100
AcDbEntity
  8
30
  6
Continuous
 62
     0
370
    -2
100
AcDbBlockReference
  2
_OPEN
 10
225.0
 20
-550.9999999999991
 30
0.0
 41
2.0
 42
2.0
 43
2.0
 50
90.0
  0
INSERT
  5
14128
330
120C2
100
AcDbEntity
  8
30
  6
Continuous
 62
     0
370
    -2
100
AcDbBlockReference
  2
_OPEN
 10
225.0
 20
-648.9999999999997
 30
0.0
 41
2.0
 42
2.0
 43
2.0
 50
270.0
  0
MTEXT
  5
14129
330
120C2
100
AcDbEntity
  8
30
  6
Continuous
 62
     0
100
AcDbMText
 10
219.0000000000001
 20
-599.9999999999995
 30
0.0
 40
6.0
 41
0.0
 71
     5
 72
     1
  1
\A1;98
 11
0.0000000000000001
 21
1.0
 31
0.0
 73
     1
 44
1.0
  0
POINT
  5
1412A
330
120C2
100
AcDbEntity
  8
DEFPOINTS
  6
Continuous
 62
     0
100
AcDbPoint
 10
253.4999999999998
 20
-550.9999999999991
 30
0.0
  0
POINT
  5
1412B
330
120C2
100
AcDbEntity
  8
DEFPOINTS
  6
Continuous
 62
     0
100
AcDbPoint
 10
253.4999999999998
 20
-648.9999999999997
 30
0.0
  0
POINT
  5
1412C
330
120C2
100
AcDbEntity
  8
DEFPOINTS
  6
Continuous
 62
     0
100
AcDbPoint
 10
225.0
 20
-648.9999999999997
 30
0.0
  0
ENDBLK
  5
120CD
330
120C2
100
AcDbEntity
  8
0
100
AcDbBlockEnd
  0
BLOCK
  5
139AE
330
139A4
100
AcDbEntity
  8
0
100
AcDbBlockBegin
  2
*D12
 70
     1
 10
0.0
 20
0.0
 30
0.0
  3
*D12
  1

  0
LINE
  5
1536F
330
139A4
100
AcDbEntity
  8
30
  6
Continuous
 62
     0
370
    -2
100
AcDbLine
 10
-104.9999999999997
 20
-178.0000000000004
 30
0.0
 11
-104.9999999999997
 21
-210.4999999999999
 31
0.0
  0
LINE
  5
15370
330
139A4
100
AcDbEntity
  8
30
  6
Continuous
 62
     0
370
    -2
100
AcDbLine
 10
175.0000000000002
 20
-178.0000000000004
 30
0.0
 11
175.0000000000002
 21
-210.4999999999999
 31
0.0
  0
LINE
  5
15371
330
139A4
100
AcDbEntity
  8
30
  6
Continuous
 62
     0
370
    -2
100
AcDbLine
 10
-102.9999999999997
 20
-210.0
 30
0.0
 11
173.0000000000002
 21
-210.0
 31
0.0
  0
INSERT
  5
15372
330
139A4
100
AcDbEntity
  8
30
  6
Continuous
 62
     0
370
    -2
100
AcDbBlockReference
  2
_OPEN
 10
-104.9999999999997
 20
-210.0
 30
0.0
 41
2.0
 42
2.0
 43
2.0
 50
180.0
  0
INSERT
  5
15373
330
139A4
100
AcDbEntity
  8
30
  6
Continuous
 62
     0
370
    -2
100
AcDbBlockReference
  2
_OPEN
 10
175.0000000000002
 20
-210.0
 30
0.0
 41
2.0
 42
2.0
 43
2.0
  0
MTEXT
  5
15374
330
139A4
100
AcDbEntity
  8
30
  6
Continuous
 62
     0
100
AcDbMText
 10
35.00000000000023
 20
-204.0
 30
0.0
 40
6.0
 41
0.0
 71
     5
 72
     1
  1
\A1; 280 
 73
     1
 44
1.0
  0
POINT
  5
15375
330
139A4
100
AcDbEntity
  8
DEFPOINTS
  6
Continuous
 62
     0
100
AcDbPoint
 10
-104.9999999999997
 20
-175.0000000000004
 30
0.0
  0
POINT
  5
15376
330
139A4
100
AcDbEntity
  8
DEFPOINTS
  6
Continuous
 62
     0
100
AcDbPoint
 10
175.0000000000002
 20
-175.0000000000004
 30
0.0
  0
POINT
  5
15377
330
139A4
100
AcDbEntity
  8
DEFPOINTS
  6
Continuous
 62
     0
100
AcDbPoint
 10
175.0000000000002
 20
-210.0
 30
0.0
  0
ENDBLK
  5
139AF
330
139A4
100
AcDbEntity
  8
0
100
AcDbBlockEnd
  0
BLOCK
  5
1415F
330
14155
100
AcDbEntity
  8
0
100
AcDbBlockBegin
  2
*D28
 70
     1
 10
0.0
 20
0.0
 30
0.0
  3
*D28
  1

  0
LINE
  5
1416C
330
14155
100
AcDbEntity
  8
30
  6
Continuous
 62
     0
370
    -2
100
AcDbLine
 10
309.5
 20
-654.0
 30
0.0
 11
309.5
 21
-792.595875
 31
0.0
  0
LINE
  5
1416D
330
14155
100
AcDbEntity
  8
30
  6
Continuous
 62
     0
370
    -2
100
AcDbLine
 10
390.4999999999997
 20
-654.0
 30
0.0
 11
390.4999999999997
 21
-792.595875
 31
0.0
  0
LINE
  5
1416E
330
14155
100
AcDbEntity
  8
30
  6
Continuous
 62
     0
370
    -2
100
AcDbLine
 10
311.5
 20
-792.0958749999999
 30
0.0
 11
388.4999999999998
 21
-792.0958749999999
 31
0.0
  0
INSERT
  5
1416F
330
14155
100
AcDbEntity
  8
30
  6
Continuous
 62
     0
370
    -2
100
AcDbBlockReference
  2
_OPEN
 10
309.5
 20
-792.0958749999999
 30
0.0
 41
2.0
 42
2.0
 43
2.0
 50
180.0
  0
INSERT
  5
14170
330
14155
100
AcDbEntity
  8
30
  6
Continuous
 62
     0
370
    -2
100
AcDbBlockReference
  2
_OPEN
 10
390.4999999999997
 20
-792.0958749999999
 30
0.0
 41
2.0
 42
2.0
 43
2.0
  0
MTEXT
  5
14171
330
14155
100
AcDbEntity
  8
30
  6
Continuous
 62
     0
100
AcDbMText
 10
349.9999999999999
 20
-786.0958749999999
 30
0.0
 40
6.0
 41
0.0
 71
     5
 72
     1
  1
\A1; 81 
 73
     1
 44
1.0
  0
POINT
  5
14172
330
14155
100
AcDbEntity
  8
DEFPOINTS
  6
Continuous
 62
     0
100
AcDbPoint
 10
309.5
 20
-651.0
 30
0.0
  0
POINT
  5
14173
330
14155
100
AcDbEntity
  8
DEFPOINTS
  6
Continuous
 62
     0
100
AcDbPoint
 10
390.4999999999997
 20
-651.0
 30
0.0
  0
POINT
  5
14174
330
14155
100
AcDbEntity
  8
DEFPOINTS
  6
Continuous
 62
     0
100
AcDbPoint
 10
390.4999999999997
 20
-792.0958749999999
 30
0.0
  0
ENDBLK
  5
14160
330
14155
100
AcDbEntity
  8
0
100
AcDbBlockEnd
  0
BLOCK
  5
1416A
330
14161
100
AcDbEntity
  8
0
100
AcDbBlockBegin
  2
*D29
 70
     1
 10
0.0
 20
0.0
 30
0.0
  3
*D29
  1

  0
LINE
  5
14175
330
14161
100
AcDbEntity
  8
30
  6
Continuous
 62
     0
370
    -2
100
AcDbLine
 10
311.5899257061641
 20
-549.0835210994344
 30
0.0
 11
310.0868486915062
 21
-540.9634736719372
 31
0.0
  0
LINE
  5
14176
330
14161
100
AcDbEntity
  8
30
  6
Continuous
 62
     0
370
    -2
100
AcDbLine
 10
310.0868486915062
 20
-540.9634736719372
 30
0.0
 11
323.0868486915062
 21
-540.9634736719373
 31
0.0
  0
INSERT
  5
14177
330
14161
100
AcDbEntity
  8
30
  6
Continuous
 62
     0
370
    -2
100
AcDbBlockReference
  2
_OPEN
 10
311.9539554236983
 20
-551.0501126596603
 30
0.0
 41
2.0
 42
2.0
 43
2.0
 50
280.4871416769974
  0
MTEXT
  5
14178
330
14161
100
AcDbEntity
  8
30
  6
Continuous
 62
     0
100
AcDbMText
 10
318.0868486915063
 20
-534.9634736719373
 30
0.0
 40
6.0
 41
0.0
 71
     5
 72
     1
  1
\A1;R3
 73
     1
 44
1.0
  0
LINE
  5
14179
330
14161
100
AcDbEntity
  8
30
  6
Continuous
 62
     0
370
    -2
100
AcDbLine
 10
312.4099999999996
 20
-553.9999999999991
 30
0.0
 11
312.5899999999997
 21
-553.9999999999991
 31
0.0
  0
LINE
  5
1417A
330
14161
100
AcDbEntity
  8
30
  6
Continuous
 62
     0
370
    -2
100
AcDbLine
 10
312.4999999999996
 20
-554.0899999999991
 30
0.0
 11
312.4999999999997
 21
-553.909999999999
 31
0.0
  0
POINT
  5
1417B
330
14161
100
AcDbEntity
  8
DEFPOINTS
  6
Continuous
 62
     0
100
AcDbPoint
 10
311.9539554236983
 20
-551.0501126596603
 30
0.0
  0
POINT
  5
1417C
330
14161
100
AcDbEntity
  8
DEFPOINTS
  6
Continuous
 62
     0
100
AcDbPoint
 10
312.4999999999996
 20
-553.9999999999991
 30
0.0
  0
ENDBLK
  5
1416B
330
14161
100
AcDbEntity
  8
0
100
AcDbBlockEnd
  0
BLOCK
  5
14187
330
1417E
100
AcDbEntity
  8
0
100
AcDbBlockBegin
  2
*D30
 70
     1
 10
0.0
 20
0.0
 30
0.0
  3
*D30
  1

  0
LINE
  5
14189
330
1417E
100
AcDbEntity
  8
30
  6
Continuous
 62
     0
370
    -2
100
AcDbLine
 10
255.4999257061643
 20
-549.0835210994338
 30
0.0
 11
253.9968486915065
 21
-540.9634736719373
 31
0.0
  0
LINE
  5
1418A
330
1417E
100
AcDbEntity
  8
30
  6
Continuous
 62
     0
370
    -2
100
AcDbLine
 10
253.9968486915065
 20
-540.9634736719373
 30
0.0
 11
266.9968486915065
 21
-540.9634736719372
 31
0.0
  0
INSERT
  5
1418B
330
1417E
100
AcDbEntity
  8
30
  6
Continuous
 62
     0
370
    -2
100
AcDbBlockReference
  2
_OPEN
 10
255.8639554236985
 20
-551.0501126596598
 30
0.0
 41
2.0
 42
2.0
 43
2.0
 50
280.4871416769971
  0
MTEXT
  5
1418C
330
1417E
100
AcDbEntity
  8
30
  6
Continuous
 62
     0
100
AcDbMText
 10
261.9968486915065
 20
-534.9634736719373
 30
0.0
 40
6.0
 41
0.0
 71
     5
 72
     1
  1
\A1;R3
 73
     1
 44
1.0
  0
LINE
  5
1418D
330
1417E
100
AcDbEntity
  8
30
  6
Continuous
 62
     0
370
    -2
100
AcDbLine
 10
256.3199999999997
 20
-553.9999999999991
 30
0.0
 11
256.4999999999997
 21
-553.999999999999
 31
0.0
  0
LINE
  5
1418E
330
1417E
100
AcDbEntity
  8
30
  6
Continuous
 62
     0
370
    -2
100
AcDbLine
 10
256.4099999999997
 20
-554.0899999999989
 30
0.0
 11
256.4099999999997
 21
-553.9099999999988
 31
0.0
  0
POINT
  5
1418F
330
1417E
100
AcDbEntity
  8
DEFPOINTS
  6
Continuous
 62
     0
100
AcDbPoint
 10
255.8639554236985
 20
-551.0501126596598
 30
0.0
  0
POINT
  5
14190
330
1417E
100
AcDbEntity
  8
DEFPOINTS
  6
Continuous
 62
     0
100
AcDbPoint
 10
256.4099999999998
 20
-553.999999999999
 30
0.0
  0
ENDBLK
  5
14188
330
1417E
100
AcDbEntity
  8
0
100
AcDbBlockEnd
  0
BLOCK
  5
141A8
330
1419E
100
AcDbEntity
  8
0
100
AcDbBlockBegin
  2
_D1
 70
     0
 10
0.0
 20
0.0
 30
0.0
  3
_D1
  1

  0
LINE
  5
1419F
330
1419E
100
AcDbEntity
  8
1
  6
Continuous
 62
     4
370
    -2
100
AcDbLine
 10
581.0461
 20
1286.095874999999
 30
0.0
 11
581.0461
 21
1211.5
 31
0.0
  0
LINE
  5
141A0
330
1419E
100
AcDbEntity
  8
1
  6
Continuous
 62
     4
370
    -2
100
AcDbLine
 10
861.0460999999999
 20
1286.095874999999
 30
0.0
 11
861.0460999999999
 21
1211.5
 31
0.0
  0
LINE
  5
141A1
330
1419E
100
AcDbEntity
  8
1
  6
Continuous
 62
     4
370
    -2
100
AcDbLine
 10
583.0461
 20
1212.5
 30
0.0
 11
859.0460999999999
 21
1212.5
 31
0.0
  0
SOLID
  5
141A2
330
1419E
100
AcDbEntity
  8
1
  6
Continuous
 62
     4
370
     0
100
AcDbTrace
 10
583.0461
 20
1212.833333333333
 30
0.0
 11
583.0461
 21
1212.166666666666
 31
0.0
 12
581.0461
 22
1212.5
 32
0.0
 13
581.0461
 23
1212.5
 33
0.0
  0
SOLID
  5
141A3
330
1419E
100
AcDbEntity
  8
1
  6
Continuous
 62
     4
370
     0
100
AcDbTrace
 10
859.0460999999999
 20
1212.833333333333
 30
0.0
 11
859.0460999999999
 21
1212.166666666666
 31
0.0
 12
861.0460999999999
 22
1212.5
 32
0.0
 13
861.0460999999999
 23
1212.5
 33
0.0
  0
MTEXT
  5
141A4
330
1419E
100
AcDbEntity
  8
1
  6
Continuous
 62
     2
100
AcDbMText
 10
721.0461
 20
1213.75
 30
0.0
 40
2.5
 41
0.0
 71
     5
 72
     1
  1
\A1; 280 
 73
     1
 44
1.0
  0
POINT
  5
141A5
330
1419E
100
AcDbEntity
  8
DEFPOINTS
  6
Continuous
 62
     0
370
     0
100
AcDbPoint
 10
581.0461
 20
1287.095875
 30
0.0
  0
POINT
  5
141A6
330
1419E
100
AcDbEntity
  8
DEFPOINTS
  6
Continuous
 62
     0
370
     0
100
AcDbPoint
 10
861.0460999999999
 20
1287.095875
 30
0.0
  0
POINT
  5
141A7
330
1419E
100
AcDbEntity
  8
DEFPOINTS
  6
Continuous
 62
     0
370
     0
100
AcDbPoint
 10
861.0460999999999
 20
1212.5
 30
0.0
  0
ENDBLK
  5
141A9
330
1419E
100
AcDbEntity
  8
0
100
AcDbBlockEnd
  0
BLOCK
  5
141B4
330
141AA
100
AcDbEntity
  8
0
100
AcDbBlockBegin
  2
_D5
 70
     0
 10
0.0
 20
0.0
 30
0.0
  3
_D5
  1

  0
LINE
  5
141AB
330
141AA
100
AcDbEntity
  8
1
  6
Continuous
 62
     4
370
    -2
100
AcDbLine
 10
1323.0461
 20
1316.095875
 30
0.0
 11
1323.0461
 21
1136.5
 31
0.0
  0
LINE
  5
141AC
330
141AA
100
AcDbEntity
  8
1
  6
Continuous
 62
     4
370
    -2
100
AcDbLine
 10
1443.0461
 20
1286.095874999999
 30
0.0
 11
1443.0461
 21
1136.5
 31
0.0
  0
LINE
  5
141AD
330
141AA
100
AcDbEntity
  8
1
  6
Continuous
 62
     4
370
    -2
100
AcDbLine
 10
1325.0461
 20
1137.499999999999
 30
0.0
 11
1441.0461
 21
1137.499999999999
 31
0.0
  0
SOLID
  5
141AE
330
141AA
100
AcDbEntity
  8
1
  6
Continuous
 62
     4
370
     0
100
AcDbTrace
 10
1325.0461
 20
1137.833333333333
 30
0.0
 11
1325.0461
 21
1137.166666666666
 31
0.0
 12
1323.0461
 22
1137.499999999999
 32
0.0
 13
1323.0461
 23
1137.499999999999
 33
0.0
  0
SOLID
  5
141AF
330
141AA
100
AcDbEntity
  8
1
  6
Continuous
 62
     4
370
     0
100
AcDbTrace
 10
1441.0461
 20
1137.833333333333
 30
0.0
 11
1441.0461
 21
1137.166666666666
 31
0.0
 12
1443.0461
 22
1137.499999999999
 32
0.0
 13
1443.0461
 23
1137.499999999999
 33
0.0
  0
MTEXT
  5
141B0
330
141AA
100
AcDbEntity
  8
1
  6
Continuous
 62
     2
100
AcDbMText
 10
1383.0461
 20
1138.75
 30
0.0
 40
2.5
 41
0.0
 71
     5
 72
     1
  1
\A1; 120 
 73
     1
 44
1.0
  0
POINT
  5
141B1
330
141AA
100
AcDbEntity
  8
DEFPOINTS
  6
Continuous
 62
     0
370
     0
100
AcDbPoint
 10
1323.0461
 20
1317.095875
 30
0.0
  0
POINT
  5
141B2
330
141AA
100
AcDbEntity
  8
DEFPOINTS
  6
Continuous
 62
     0
370
     0
100
AcDbPoint
 10
1443.0461
 20
1287.095875
 30
0.0
  0
POINT
  5
141B3
330
141AA
100
AcDbEntity
  8
DEFPOINTS
  6
Continuous
 62
     0
370
     0
100
AcDbPoint
 10
1443.0461
 20
1137.499999999999
 30
0.0
  0
ENDBLK
  5
141B5
330
141AA
100
AcDbEntity
  8
0
100
AcDbBlockEnd
  0
BLOCK
  5
141C0
330
141B6
100
AcDbEntity
  8
0
100
AcDbBlockBegin
  2
_D7
 70
     0
 10
0.0
 20
0.0
 30
0.0
  3
_D7
  1

  0
LINE
  5
141B7
330
141B6
100
AcDbEntity
  8
1
  6
Continuous
 62
     4
370
    -2
100
AcDbLine
 10
647.0461
 20
1408.595875
 30
0.0
 11
647.0461
 21
1374.0
 31
0.0
  0
LINE
  5
141B8
330
141B6
100
AcDbEntity
  8
1
  6
Continuous
 62
     4
370
    -2
100
AcDbLine
 10
725.0461
 20
1408.595875
 30
0.0
 11
725.0461
 21
1374.0
 31
0.0
  0
LINE
  5
141B9
330
141B6
100
AcDbEntity
  8
1
  6
Continuous
 62
     4
370
    -2
100
AcDbLine
 10
649.0461
 20
1375.0
 30
0.0
 11
723.0461
 21
1375.0
 31
0.0
  0
SOLID
  5
141BA
330
141B6
100
AcDbEntity
  8
1
  6
Continuous
 62
     4
370
     0
100
AcDbTrace
 10
649.0461
 20
1375.333333333333
 30
0.0
 11
649.0461
 21
1374.666666666666
 31
0.0
 12
647.0461
 22
1375.0
 32
0.0
 13
647.0461
 23
1375.0
 33
0.0
  0
SOLID
  5
141BB
330
141B6
100
AcDbEntity
  8
1
  6
Continuous
 62
     4
370
     0
100
AcDbTrace
 10
723.0461
 20
1375.333333333333
 30
0.0
 11
723.0461
 21
1374.666666666666
 31
0.0
 12
725.0461
 22
1375.0
 32
0.0
 13
725.0461
 23
1375.0
 33
0.0
  0
MTEXT
  5
141BC
330
141B6
100
AcDbEntity
  8
1
  6
Continuous
 62
     2
100
AcDbMText
 10
686.0461
 20
1376.25
 30
0.0
 40
2.5
 41
0.0
 71
     5
 72
     1
  1
\A1; 78 
 73
     1
 44
1.0
  0
POINT
  5
141BD
330
141B6
100
AcDbEntity
  8
DEFPOINTS
  6
Continuous
 62
     0
370
     0
100
AcDbPoint
 10
647.0461
 20
1409.595874999999
 30
0.0
  0
POINT
  5
141BE
330
141B6
100
AcDbEntity
  8
DEFPOINTS
  6
Continuous
 62
     0
370
     0
100
AcDbPoint
 10
725.0461
 20
1409.595874999999
 30
0.0
  0
POINT
  5
141BF
330
141B6
100
AcDbEntity
  8
DEFPOINTS
  6
Continuous
 62
     0
370
     0
100
AcDbPoint
 10
725.0461
 20
1375.0
 30
0.0
  0
ENDBLK
  5
141C1
330
141B6
100
AcDbEntity
  8
0
100
AcDbBlockEnd
  0
BLOCK
  5
141CC
330
141C2
100
AcDbEntity
  8
0
100
AcDbBlockBegin
  2
_D10
 70
     0
 10
0.0
 20
0.0
 30
0.0
  3
_D10
  1

  0
LINE
  5
141C3
330
141C2
100
AcDbEntity
  8
1
  6
Continuous
 62
     4
370
    -2
100
AcDbLine
 10
1415.0461
 20
1310.595874999999
 30
0.0
 11
1415.0461
 21
1174.0
 31
0.0
  0
LINE
  5
141C4
330
141C2
100
AcDbEntity
  8
1
  6
Continuous
 62
     4
370
    -2
100
AcDbLine
 10
1443.0461
 20
1286.095874999999
 30
0.0
 11
1443.0461
 21
1174.0
 31
0.0
  0
LINE
  5
141C5
330
141C2
100
AcDbEntity
  8
1
  6
Continuous
 62
     4
370
    -2
100
AcDbLine
 10
1417.0461
 20
1175.0
 30
0.0
 11
1441.0461
 21
1175.0
 31
0.0
  0
SOLID
  5
141C6
330
141C2
100
AcDbEntity
  8
1
  6
Continuous
 62
     4
370
     0
100
AcDbTrace
 10
1417.0461
 20
1175.333333333333
 30
0.0
 11
1417.0461
 21
1174.666666666666
 31
0.0
 12
1415.0461
 22
1175.0
 32
0.0
 13
1415.0461
 23
1175.0
 33
0.0
  0
SOLID
  5
141C7
330
141C2
100
AcDbEntity
  8
1
  6
Continuous
 62
     4
370
     0
100
AcDbTrace
 10
1441.0461
 20
1175.333333333333
 30
0.0
 11
1441.0461
 21
1174.666666666666
 31
0.0
 12
1443.0461
 22
1175.0
 32
0.0
 13
1443.0461
 23
1175.0
 33
0.0
  0
MTEXT
  5
141C8
330
141C2
100
AcDbEntity
  8
1
  6
Continuous
 62
     2
100
AcDbMText
 10
1429.0461
 20
1176.25
 30
0.0
 40
2.5
 41
0.0
 71
     5
 72
     1
  1
\A1; 28 
 73
     1
 44
1.0
  0
POINT
  5
141C9
330
141C2
100
AcDbEntity
  8
DEFPOINTS
  6
Continuous
 62
     0
370
     0
100
AcDbPoint
 10
1415.0461
 20
1311.595875
 30
0.0
  0
POINT
  5
141CA
330
141C2
100
AcDbEntity
  8
DEFPOINTS
  6
Continuous
 62
     0
370
     0
100
AcDbPoint
 10
1443.0461
 20
1287.095875
 30
0.0
  0
POINT
  5
141CB
330
141C2
100
AcDbEntity
  8
DEFPOINTS
  6
Continuous
 62
     0
370
     0
100
AcDbPoint
 10
1443.0461
 20
1175.0
 30
0.0
  0
ENDBLK
  5
141CD
330
141C2
100
AcDbEntity
  8
0
100
AcDbBlockEnd
  0
BLOCK
  5
141D8
330
141CE
100
AcDbEntity
  8
0
100
AcDbBlockBegin
  2
_D11
 70
     0
 10
0.0
 20
0.0
 30
0.0
  3
_D11
  1

  0
LINE
  5
141CF
330
141CE
100
AcDbEntity
  8
1
  6
Continuous
 62
     4
370
    -2
100
AcDbLine
 10
1443.0461
 20
1286.095874999999
 30
0.0
 11
1443.0461
 21
1174.0
 31
0.0
  0
LINE
  5
141D0
330
141CE
100
AcDbEntity
  8
1
  6
Continuous
 62
     4
370
    -2
100
AcDbLine
 10
1461.0461
 20
1306.095875
 30
0.0
 11
1461.0461
 21
1174.0
 31
0.0
  0
LINE
  5
141D1
330
141CE
100
AcDbEntity
  8
1
  6
Continuous
 62
     4
370
    -2
100
AcDbLine
 10
1445.0461
 20
1175.0
 30
0.0
 11
1459.0461
 21
1175.0
 31
0.0
  0
SOLID
  5
141D2
330
141CE
100
AcDbEntity
  8
1
  6
Continuous
 62
     4
370
     0
100
AcDbTrace
 10
1445.0461
 20
1175.333333333333
 30
0.0
 11
1445.0461
 21
1174.666666666666
 31
0.0
 12
1443.0461
 22
1175.0
 32
0.0
 13
1443.0461
 23
1175.0
 33
0.0
  0
SOLID
  5
141D3
330
141CE
100
AcDbEntity
  8
1
  6
Continuous
 62
     4
370
     0
100
AcDbTrace
 10
1459.0461
 20
1175.333333333333
 30
0.0
 11
1459.0461
 21
1174.666666666666
 31
0.0
 12
1461.0461
 22
1175.0
 32
0.0
 13
1461.0461
 23
1175.0
 33
0.0
  0
MTEXT
  5
141D4
330
141CE
100
AcDbEntity
  8
1
  6
Continuous
 62
     2
100
AcDbMText
 10
1452.0461
 20
1176.25
 30
0.0
 40
2.5
 41
0.0
 71
     5
 72
     1
  1
\A1; 18 
 73
     1
 44
1.0
  0
POINT
  5
141D5
330
141CE
100
AcDbEntity
  8
DEFPOINTS
  6
Continuous
 62
     0
370
     0
100
AcDbPoint
 10
1443.0461
 20
1287.095875
 30
0.0
  0
POINT
  5
141D6
330
141CE
100
AcDbEntity
  8
DEFPOINTS
  6
Continuous
 62
     0
370
     0
100
AcDbPoint
 10
1461.0461
 20
1307.095875
 30
0.0
  0
POINT
  5
141D7
330
141CE
100
AcDbEntity
  8
DEFPOINTS
  6
Continuous
 62
     0
370
     0
100
AcDbPoint
 10
1461.0461
 20
1175.0
 30
0.0
  0
ENDBLK
  5
141D9
330
141CE
100
AcDbEntity
  8
0
100
AcDbBlockEnd
  0
BLOCK
  5
141E4
330
141DA
100
AcDbEntity
  8
0
100
AcDbBlockBegin
  2
_D12
 70
     0
 10
0.0
 20
0.0
 30
0.0
  3
_D12
  1

  0
LINE
  5
141DB
330
141DA
100
AcDbEntity
  8
1
  6
Continuous
 62
     4
370
    -2
100
AcDbLine
 10
1306.0461
 20
1466.595875
 30
0.0
 11
1306.0461
 21
1086.5
 31
0.0
  0
LINE
  5
141DC
330
141DA
100
AcDbEntity
  8
1
  6
Continuous
 62
     4
370
    -2
100
AcDbLine
 10
1316.0461
 20
1409.595874999999
 30
0.0
 11
1316.0461
 21
1086.5
 31
0.0
  0
LINE
  5
141DD
330
141DA
100
AcDbEntity
  8
1
  6
Continuous
 62
     4
370
    -2
100
AcDbLine
 10
1308.0461
 20
1087.5
 30
0.0
 11
1314.0461
 21
1087.5
 31
0.0
  0
SOLID
  5
141DE
330
141DA
100
AcDbEntity
  8
1
  6
Continuous
 62
     4
370
     0
100
AcDbTrace
 10
1308.0461
 20
1087.833333333333
 30
0.0
 11
1308.0461
 21
1087.166666666666
 31
0.0
 12
1306.0461
 22
1087.5
 32
0.0
 13
1306.0461
 23
1087.5
 33
0.0
  0
SOLID
  5
141DF
330
141DA
100
AcDbEntity
  8
1
  6
Continuous
 62
     4
370
     0
100
AcDbTrace
 10
1314.0461
 20
1087.833333333333
 30
0.0
 11
1314.0461
 21
1087.166666666666
 31
0.0
 12
1316.0461
 22
1087.5
 32
0.0
 13
1316.0461
 23
1087.5
 33
0.0
  0
MTEXT
  5
141E0
330
141DA
100
AcDbEntity
  8
1
  6
Continuous
 62
     2
100
AcDbMText
 10
1311.0461
 20
1088.75
 30
0.0
 40
2.5
 41
0.0
 71
     5
 72
     1
  1
\A1; 10 
 73
     1
 44
1.0
  0
POINT
  5
141E1
330
141DA
100
AcDbEntity
  8
DEFPOINTS
  6
Continuous
 62
     0
370
     0
100
AcDbPoint
 10
1306.0461
 20
1466.595875
 30
0.0
  0
POINT
  5
141E2
330
141DA
100
AcDbEntity
  8
DEFPOINTS
  6
Continuous
 62
     0
370
     0
100
AcDbPoint
 10
1316.0461
 20
1409.595874999999
 30
0.0
  0
POINT
  5
141E3
330
141DA
100
AcDbEntity
  8
DEFPOINTS
  6
Continuous
 62
     0
370
     0
100
AcDbPoint
 10
1316.0461
 20
1087.5
 30
0.0
  0
ENDBLK
  5
141E5
330
141DA
100
AcDbEntity
  8
0
100
AcDbBlockEnd
  0
BLOCK
  5
141F0
330
141E6
100
AcDbEntity
  8
0
100
AcDbBlockBegin
  2
_D13
 70
     0
 10
0.0
 20
0.0
 30
0.0
  3
_D13
  1

  0
LINE
  5
141E7
330
141E6
100
AcDbEntity
  8
1
  6
Continuous
 62
     4
370
    -2
100
AcDbLine
 10
1316.0461
 20
1408.595875
 30
0.0
 11
1316.0461
 21
1086.5
 31
0.0
  0
LINE
  5
141E8
330
141E6
100
AcDbEntity
  8
1
  6
Continuous
 62
     4
370
    -2
100
AcDbLine
 10
1443.0461
 20
1286.095874999999
 30
0.0
 11
1443.0461
 21
1086.5
 31
0.0
  0
LINE
  5
141E9
330
141E6
100
AcDbEntity
  8
1
  6
Continuous
 62
     4
370
    -2
100
AcDbLine
 10
1318.0461
 20
1087.5
 30
0.0
 11
1441.0461
 21
1087.5
 31
0.0
  0
SOLID
  5
141EA
330
141E6
100
AcDbEntity
  8
1
  6
Continuous
 62
     4
370
     0
100
AcDbTrace
 10
1318.0461
 20
1087.833333333333
 30
0.0
 11
1318.0461
 21
1087.166666666666
 31
0.0
 12
1316.0461
 22
1087.5
 32
0.0
 13
1316.0461
 23
1087.5
 33
0.0
  0
SOLID
  5
141EB
330
141E6
100
AcDbEntity
  8
1
  6
Continuous
 62
     4
370
     0
100
AcDbTrace
 10
1441.0461
 20
1087.833333333333
 30
0.0
 11
1441.0461
 21
1087.166666666666
 31
0.0
 12
1443.0461
 22
1087.5
 32
0.0
 13
1443.0461
 23
1087.5
 33
0.0
  0
MTEXT
  5
141EC
330
141E6
100
AcDbEntity
  8
1
  6
Continuous
 62
     2
100
AcDbMText
 10
1379.5461
 20
1088.75
 30
0.0
 40
2.5
 41
0.0
 71
     5
 72
     1
  1
\A1; 127 
 73
     1
 44
1.0
  0
POINT
  5
141ED
330
141E6
100
AcDbEntity
  8
DEFPOINTS
  6
Continuous
 62
     0
370
     0
100
AcDbPoint
 10
1316.0461
 20
1409.595874999999
 30
0.0
  0
POINT
  5
141EE
330
141E6
100
AcDbEntity
  8
DEFPOINTS
  6
Continuous
 62
     0
370
     0
100
AcDbPoint
 10
1443.0461
 20
1287.095875
 30
0.0
  0
POINT
  5
141EF
330
141E6
100
AcDbEntity
  8
DEFPOINTS
  6
Continuous
 62
     0
370
     0
100
AcDbPoint
 10
1443.0461
 20
1087.5
 30
0.0
  0
ENDBLK
  5
141F1
330
141E6
100
AcDbEntity
  8
0
100
AcDbBlockEnd
  0
BLOCK
  5
141FC
330
141F2
100
AcDbEntity
  8
0
100
AcDbBlockBegin
  2
_D14
 70
     0
 10
0.0
 20
0.0
 30
0.0
  3
_D14
  1

  0
LINE
  5
141F3
330
141F2
100
AcDbEntity
  8
1
  6
Continuous
 62
     4
370
    -2
100
AcDbLine
 10
581.0461
 20
1286.095874999999
 30
0.0
 11
581.0461
 21
1249.0
 31
0.0
  0
LINE
  5
141F4
330
141F2
100
AcDbEntity
  8
1
  6
Continuous
 62
     4
370
    -2
100
AcDbLine
 10
686.0460999999999
 20
1433.095875
 30
0.0
 11
686.0460999999999
 21
1249.0
 31
0.0
  0
LINE
  5
141F5
330
141F2
100
AcDbEntity
  8
1
  6
Continuous
 62
     4
370
    -2
100
AcDbLine
 10
583.0461
 20
1250.0
 30
0.0
 11
684.0460999999999
 21
1250.0
 31
0.0
  0
SOLID
  5
141F6
330
141F2
100
AcDbEntity
  8
1
  6
Continuous
 62
     4
370
     0
100
AcDbTrace
 10
583.0461
 20
1250.333333333333
 30
0.0
 11
583.0461
 21
1249.666666666666
 31
0.0
 12
581.0461
 22
1250.0
 32
0.0
 13
581.0461
 23
1250.0
 33
0.0
  0
SOLID
  5
141F7
330
141F2
100
AcDbEntity
  8
1
  6
Continuous
 62
     4
370
     0
100
AcDbTrace
 10
684.0460999999999
 20
1250.333333333333
 30
0.0
 11
684.0460999999999
 21
1249.666666666666
 31
0.0
 12
686.0460999999999
 22
1250.0
 32
0.0
 13
686.0460999999999
 23
1250.0
 33
0.0
  0
MTEXT
  5
141F8
330
141F2
100
AcDbEntity
  8
1
  6
Continuous
 62
     2
100
AcDbMText
 10
633.5461
 20
1251.25
 30
0.0
 40
2.5
 41
0.0
 71
     5
 72
     1
  1
\A1; 105 
 73
     1
 44
1.0
  0
POINT
  5
141F9
330
141F2
100
AcDbEntity
  8
DEFPOINTS
  6
Continuous
 62
     0
370
     0
100
AcDbPoint
 10
581.0461
 20
1287.095875
 30
0.0
  0
POINT
  5
141FA
330
141F2
100
AcDbEntity
  8
DEFPOINTS
  6
Continuous
 62
     0
370
     0
100
AcDbPoint
 10
686.0460999999999
 20
1434.095875
 30
0.0
  0
POINT
  5
141FB
330
141F2
100
AcDbEntity
  8
DEFPOINTS
  6
Continuous
 62
     0
370
     0
100
AcDbPoint
 10
686.0460999999999
 20
1250.0
 30
0.0
  0
ENDBLK
  5
141FD
330
141F2
100
AcDbEntity
  8
0
100
AcDbBlockEnd
  0
BLOCK
  5
14208
330
141FE
100
AcDbEntity
  8
0
100
AcDbBlockBegin
  2
_D15
 70
     0
 10
0.0
 20
0.0
 30
0.0
  3
_D15
  1

  0
LINE
  5
141FF
330
141FE
100
AcDbEntity
  8
1
  6
Continuous
 62
     4
370
    -2
100
AcDbLine
 10
686.0460999999999
 20
1433.095875
 30
0.0
 11
686.0460999999999
 21
1249.0
 31
0.0
  0
LINE
  5
14200
330
141FE
100
AcDbEntity
  8
1
  6
Continuous
 62
     4
370
    -2
100
AcDbLine
 10
861.0460999999999
 20
1286.095874999999
 30
0.0
 11
861.0460999999999
 21
1249.0
 31
0.0
  0
LINE
  5
14201
330
141FE
100
AcDbEntity
  8
1
  6
Continuous
 62
     4
370
    -2
100
AcDbLine
 10
688.0460999999999
 20
1250.0
 30
0.0
 11
859.0460999999999
 21
1250.0
 31
0.0
  0
SOLID
  5
14202
330
141FE
100
AcDbEntity
  8
1
  6
Continuous
 62
     4
370
     0
100
AcDbTrace
 10
688.0460999999999
 20
1250.333333333333
 30
0.0
 11
688.0460999999999
 21
1249.666666666666
 31
0.0
 12
686.0460999999999
 22
1250.0
 32
0.0
 13
686.0460999999999
 23
1250.0
 33
0.0
  0
SOLID
  5
14203
330
141FE
100
AcDbEntity
  8
1
  6
Continuous
 62
     4
370
     0
100
AcDbTrace
 10
859.0460999999999
 20
1250.333333333333
 30
0.0
 11
859.0460999999999
 21
1249.666666666666
 31
0.0
 12
861.0460999999999
 22
1250.0
 32
0.0
 13
861.0460999999999
 23
1250.0
 33
0.0
  0
MTEXT
  5
14204
330
141FE
100
AcDbEntity
  8
1
  6
Continuous
 62
     2
100
AcDbMText
 10
773.5460999999999
 20
1251.25
 30
0.0
 40
2.5
 41
0.0
 71
     5
 72
     1
  1
\A1; 175 
 73
     1
 44
1.0
  0
POINT
  5
14205
330
141FE
100
AcDbEntity
  8
DEFPOINTS
  6
Continuous
 62
     0
370
     0
100
AcDbPoint
 10
686.0460999999999
 20
1434.095875
 30
0.0
  0
POINT
  5
14206
330
141FE
100
AcDbEntity
  8
DEFPOINTS
  6
Continuous
 62
     0
370
     0
100
AcDbPoint
 10
861.0460999999999
 20
1287.095875
 30
0.0
  0
POINT
  5
14207
330
141FE
100
AcDbEntity
  8
DEFPOINTS
  6
Continuous
 62
     0
370
     0
100
AcDbPoint
 10
861.0460999999999
 20
1250.0
 30
0.0
  0
ENDBLK
  5
14209
330
141FE
100
AcDbEntity
  8
0
100
AcDbBlockEnd
  0
BLOCK
  5
14214
330
1420A
100
AcDbEntity
  8
0
100
AcDbBlockBegin
  2
_D18
 70
     0
 10
0.0
 20
0.0
 30
0.0
  3
_D18
  1

  0
LINE
  5
1420B
330
1420A
100
AcDbEntity
  8
1
  6
Continuous
 62
     4
370
    -2
100
AcDbLine
 10
616.0461
 20
760.095875
 30
0.0
 11
616.0461
 21
661.5
 31
0.0
  0
LINE
  5
1420C
330
1420A
100
AcDbEntity
  8
1
  6
Continuous
 62
     4
370
    -2
100
AcDbLine
 10
686.0460999999999
 20
760.095875
 30
0.0
 11
686.0460999999999
 21
661.5
 31
0.0
  0
LINE
  5
1420D
330
1420A
100
AcDbEntity
  8
1
  6
Continuous
 62
     4
370
    -2
100
AcDbLine
 10
618.0461
 20
662.5
 30
0.0
 11
684.0460999999999
 21
662.5
 31
0.0
  0
SOLID
  5
1420E
330
1420A
100
AcDbEntity
  8
1
  6
Continuous
 62
     4
370
     0
100
AcDbTrace
 10
618.0461
 20
662.8333333333333
 30
0.0
 11
618.0461
 21
662.1666666666666
 31
0.0
 12
616.0461
 22
662.5
 32
0.0
 13
616.0461
 23
662.5
 33
0.0
  0
SOLID
  5
1420F
330
1420A
100
AcDbEntity
  8
1
  6
Continuous
 62
     4
370
     0
100
AcDbTrace
 10
684.0460999999999
 20
662.8333333333333
 30
0.0
 11
684.0460999999999
 21
662.1666666666666
 31
0.0
 12
686.0460999999999
 22
662.5
 32
0.0
 13
686.0460999999999
 23
662.5
 33
0.0
  0
MTEXT
  5
14210
330
1420A
100
AcDbEntity
  8
1
  6
Continuous
 62
     2
100
AcDbMText
 10
651.0461
 20
663.75
 30
0.0
 40
2.5
 41
0.0
 71
     5
 72
     1
  1
\A1; 70 
 73
     1
 44
1.0
  0
POINT
  5
14211
330
1420A
100
AcDbEntity
  8
DEFPOINTS
  6
Continuous
 62
     0
370
     0
100
AcDbPoint
 10
616.0461
 20
761.0958749999999
 30
0.0
  0
POINT
  5
14212
330
1420A
100
AcDbEntity
  8
DEFPOINTS
  6
Continuous
 62
     0
370
     0
100
AcDbPoint
 10
686.0460999999999
 20
761.0958749999999
 30
0.0
  0
POINT
  5
14213
330
1420A
100
AcDbEntity
  8
DEFPOINTS
  6
Continuous
 62
     0
370
     0
100
AcDbPoint
 10
686.0460999999999
 20
662.5
 30
0.0
  0
ENDBLK
  5
14215
330
1420A
100
AcDbEntity
  8
0
100
AcDbBlockEnd
  0
BLOCK
  5
14220
330
14216
100
AcDbEntity
  8
0
100
AcDbBlockBegin
  2
_D19
 70
     0
 10
0.0
 20
0.0
 30
0.0
  3
_D19
  1

  0
LINE
  5
14217
330
14216
100
AcDbEntity
  8
1
  6
Continuous
 62
     4
370
    -2
100
AcDbLine
 10
686.0460999999999
 20
760.095875
 30
0.0
 11
686.0460999999999
 21
661.5
 31
0.0
  0
LINE
  5
14218
330
14216
100
AcDbEntity
  8
1
  6
Continuous
 62
     4
370
    -2
100
AcDbLine
 10
756.0460999999999
 20
760.095875
 30
0.0
 11
756.0460999999999
 21
661.5
 31
0.0
  0
LINE
  5
14219
330
14216
100
AcDbEntity
  8
1
  6
Continuous
 62
     4
370
    -2
100
AcDbLine
 10
688.0460999999999
 20
662.5
 30
0.0
 11
754.0460999999999
 21
662.5
 31
0.0
  0
SOLID
  5
1421A
330
14216
100
AcDbEntity
  8
1
  6
Continuous
 62
     4
370
     0
100
AcDbTrace
 10
688.0460999999999
 20
662.8333333333333
 30
0.0
 11
688.0460999999999
 21
662.1666666666666
 31
0.0
 12
686.0460999999999
 22
662.5
 32
0.0
 13
686.0460999999999
 23
662.5
 33
0.0
  0
SOLID
  5
1421B
330
14216
100
AcDbEntity
  8
1
  6
Continuous
 62
     4
370
     0
100
AcDbTrace
 10
754.0460999999999
 20
662.8333333333333
 30
0.0
 11
754.0460999999999
 21
662.1666666666666
 31
0.0
 12
756.0460999999999
 22
662.5
 32
0.0
 13
756.0460999999999
 23
662.5
 33
0.0
  0
MTEXT
  5
1421C
330
14216
100
AcDbEntity
  8
1
  6
Continuous
 62
     2
100
AcDbMText
 10
721.0460999999999
 20
663.75
 30
0.0
 40
2.5
 41
0.0
 71
     5
 72
     1
  1
\A1; 70 
 73
     1
 44
1.0
  0
POINT
  5
1421D
330
14216
100
AcDbEntity
  8
DEFPOINTS
  6
Continuous
 62
     0
370
     0
100
AcDbPoint
 10
686.0460999999999
 20
761.0958749999999
 30
0.0
  0
POINT
  5
1421E
330
14216
100
AcDbEntity
  8
DEFPOINTS
  6
Continuous
 62
     0
370
     0
100
AcDbPoint
 10
756.0460999999999
 20
761.0958749999999
 30
0.0
  0
POINT
  5
1421F
330
14216
100
AcDbEntity
  8
DEFPOINTS
  6
Continuous
 62
     0
370
     0
100
AcDbPoint
 10
756.0460999999999
 20
662.5
 30
0.0
  0
ENDBLK
  5
14221
330
14216
100
AcDbEntity
  8
0
100
AcDbBlockEnd
  0
BLOCK
  5
1422C
330
14222
100
AcDbEntity
  8
0
100
AcDbBlockBegin
  2
_D20
 70
     0
 10
0.0
 20
0.0
 30
0.0
  3
_D20
  1

  0
LINE
  5
14223
330
14222
100
AcDbEntity
  8
1
  6
Continuous
 62
     4
370
    -2
100
AcDbLine
 10
756.0460999999999
 20
760.095875
 30
0.0
 11
756.0460999999999
 21
661.5
 31
0.0
  0
LINE
  5
14224
330
14222
100
AcDbEntity
  8
1
  6
Continuous
 62
     4
370
    -2
100
AcDbLine
 10
826.0460999999999
 20
760.095875
 30
0.0
 11
826.0460999999999
 21
661.5
 31
0.0
  0
LINE
  5
14225
330
14222
100
AcDbEntity
  8
1
  6
Continuous
 62
     4
370
    -2
100
AcDbLine
 10
758.0460999999999
 20
662.5
 30
0.0
 11
824.0460999999999
 21
662.5
 31
0.0
  0
SOLID
  5
14226
330
14222
100
AcDbEntity
  8
1
  6
Continuous
 62
     4
370
     0
100
AcDbTrace
 10
758.0460999999999
 20
662.8333333333333
 30
0.0
 11
758.0460999999999
 21
662.1666666666666
 31
0.0
 12
756.0460999999999
 22
662.5
 32
0.0
 13
756.0460999999999
 23
662.5
 33
0.0
  0
SOLID
  5
14227
330
14222
100
AcDbEntity
  8
1
  6
Continuous
 62
     4
370
     0
100
AcDbTrace
 10
824.0460999999999
 20
662.8333333333333
 30
0.0
 11
824.0460999999999
 21
662.1666666666666
 31
0.0
 12
826.0460999999999
 22
662.5
 32
0.0
 13
826.0460999999999
 23
662.5
 33
0.0
  0
MTEXT
  5
14228
330
14222
100
AcDbEntity
  8
1
  6
Continuous
 62
     2
100
AcDbMText
 10
791.0460999999998
 20
663.75
 30
0.0
 40
2.5
 41
0.0
 71
     5
 72
     1
  1
\A1; 70 
 73
     1
 44
1.0
  0
POINT
  5
14229
330
14222
100
AcDbEntity
  8
DEFPOINTS
  6
Continuous
 62
     0
370
     0
100
AcDbPoint
 10
756.0460999999999
 20
761.0958749999999
 30
0.0
  0
POINT
  5
1422A
330
14222
100
AcDbEntity
  8
DEFPOINTS
  6
Continuous
 62
     0
370
     0
100
AcDbPoint
 10
826.0460999999999
 20
761.0958749999999
 30
0.0
  0
POINT
  5
1422B
330
14222
100
AcDbEntity
  8
DEFPOINTS
  6
Continuous
 62
     0
370
     0
100
AcDbPoint
 10
826.0460999999999
 20
662.5
 30
0.0
  0
ENDBLK
  5
1422D
330
14222
100
AcDbEntity
  8
0
100
AcDbBlockEnd
  0
BLOCK
  5
14238
330
1422E
100
AcDbEntity
  8
0
100
AcDbBlockBegin
  2
_D29
 70
     0
 10
0.0
 20
0.0
 30
0.0
  3
_D29
  1

  0
LINE
  5
1422F
330
1422E
100
AcDbEntity
  8
1
  6
Continuous
 62
     4
370
    -2
100
AcDbLine
 10
1272.0461
 20
1453.295875
 30
0.0
 11
1272.0461
 21
1036.499999999999
 31
0.0
  0
LINE
  5
14230
330
1422E
100
AcDbEntity
  8
1
  6
Continuous
 62
     4
370
    -2
100
AcDbLine
 10
1443.0461
 20
1471.095875
 30
0.0
 11
1443.0461
 21
1036.499999999999
 31
0.0
  0
LINE
  5
14231
330
1422E
100
AcDbEntity
  8
1
  6
Continuous
 62
     4
370
    -2
100
AcDbLine
 10
1274.0461
 20
1037.5
 30
0.0
 11
1441.0461
 21
1037.5
 31
0.0
  0
SOLID
  5
14232
330
1422E
100
AcDbEntity
  8
1
  6
Continuous
 62
     4
370
     0
100
AcDbTrace
 10
1274.0461
 20
1037.833333333333
 30
0.0
 11
1274.0461
 21
1037.166666666666
 31
0.0
 12
1272.0461
 22
1037.5
 32
0.0
 13
1272.0461
 23
1037.5
 33
0.0
  0
SOLID
  5
14233
330
1422E
100
AcDbEntity
  8
1
  6
Continuous
 62
     4
370
     0
100
AcDbTrace
 10
1441.0461
 20
1037.833333333333
 30
0.0
 11
1441.0461
 21
1037.166666666666
 31
0.0
 12
1443.0461
 22
1037.5
 32
0.0
 13
1443.0461
 23
1037.5
 33
0.0
  0
MTEXT
  5
14234
330
1422E
100
AcDbEntity
  8
1
  6
Continuous
 62
     2
100
AcDbMText
 10
1357.5461
 20
1038.75
 30
0.0
 40
2.5
 41
0.0
 71
     5
 72
     1
  1
\A1; 171 
 73
     1
 44
1.0
  0
POINT
  5
14235
330
1422E
100
AcDbEntity
  8
DEFPOINTS
  6
Continuous
 62
     0
370
     0
100
AcDbPoint
 10
1272.0461
 20
1454.295875
 30
0.0
  0
POINT
  5
14236
330
1422E
100
AcDbEntity
  8
DEFPOINTS
  6
Continuous
 62
     0
370
     0
100
AcDbPoint
 10
1443.0461
 20
1472.095874999999
 30
0.0
  0
POINT
  5
14237
330
1422E
100
AcDbEntity
  8
DEFPOINTS
  6
Continuous
 62
     0
370
     0
100
AcDbPoint
 10
1443.0461
 20
1037.5
 30
0.0
  0
ENDBLK
  5
14239
330
1422E
100
AcDbEntity
  8
0
100
AcDbBlockEnd
  0
BLOCK
  5
14244
330
1423A
100
AcDbEntity
  8
0
100
AcDbBlockBegin
  2
_D30
 70
     0
 10
0.0
 20
0.0
 30
0.0
  3
_D30
  1

  0
LINE
  5
1423B
330
1423A
100
AcDbEntity
  8
1
  6
Continuous
 62
     4
370
    -2
100
AcDbLine
 10
1192.0461
 20
1459.295875
 30
0.0
 11
1192.0461
 21
1036.499999999999
 31
0.0
  0
LINE
  5
1423C
330
1423A
100
AcDbEntity
  8
1
  6
Continuous
 62
     4
370
    -2
100
AcDbLine
 10
1272.0461
 20
1459.295875
 30
0.0
 11
1272.0461
 21
1036.499999999999
 31
0.0
  0
LINE
  5
1423D
330
1423A
100
AcDbEntity
  8
1
  6
Continuous
 62
     4
370
    -2
100
AcDbLine
 10
1194.0461
 20
1037.5
 30
0.0
 11
1270.0461
 21
1037.5
 31
0.0
  0
SOLID
  5
1423E
330
1423A
100
AcDbEntity
  8
1
  6
Continuous
 62
     4
370
     0
100
AcDbTrace
 10
1194.0461
 20
1037.833333333333
 30
0.0
 11
1194.0461
 21
1037.166666666666
 31
0.0
 12
1192.0461
 22
1037.5
 32
0.0
 13
1192.0461
 23
1037.5
 33
0.0
  0
SOLID
  5
1423F
330
1423A
100
AcDbEntity
  8
1
  6
Continuous
 62
     4
370
     0
100
AcDbTrace
 10
1270.0461
 20
1037.833333333333
 30
0.0
 11
1270.0461
 21
1037.166666666666
 31
0.0
 12
1272.0461
 22
1037.5
 32
0.0
 13
1272.0461
 23
1037.5
 33
0.0
  0
MTEXT
  5
14240
330
1423A
100
AcDbEntity
  8
1
  6
Continuous
 62
     2
100
AcDbMText
 10
1232.0461
 20
1038.75
 30
0.0
 40
2.5
 41
0.0
 71
     5
 72
     1
  1
\A1; 80 
 73
     1
 44
1.0
  0
POINT
  5
14241
330
1423A
100
AcDbEntity
  8
DEFPOINTS
  6
Continuous
 62
     0
370
     0
100
AcDbPoint
 10
1192.0461
 20
1459.295875
 30
0.0
  0
POINT
  5
14242
330
1423A
100
AcDbEntity
  8
DEFPOINTS
  6
Continuous
 62
     0
370
     0
100
AcDbPoint
 10
1272.0461
 20
1459.295875
 30
0.0
  0
POINT
  5
14243
330
1423A
100
AcDbEntity
  8
DEFPOINTS
  6
Continuous
 62
     0
370
     0
100
AcDbPoint
 10
1272.0461
 20
1037.5
 30
0.0
  0
ENDBLK
  5
14245
330
1423A
100
AcDbEntity
  8
0
100
AcDbBlockEnd
  0
BLOCK
  5
14250
330
14246
100
AcDbEntity
  8
0
100
AcDbBlockBegin
  2
_D32
 70
     0
 10
0.0
 20
0.0
 30
0.0
  3
_D32
  1

  0
LINE
  5
14247
330
14246
100
AcDbEntity
  8
1
  6
Continuous
 62
     4
370
    -2
100
AcDbLine
 10
593.5461
 20
745.0958749999999
 30
0.0
 11
593.5461
 21
699.0
 31
0.0
  0
LINE
  5
14248
330
14246
100
AcDbEntity
  8
1
  6
Continuous
 62
     4
370
    -2
100
AcDbLine
 10
638.5461
 20
745.0958749999999
 30
0.0
 11
638.5461
 21
699.0
 31
0.0
  0
LINE
  5
14249
330
14246
100
AcDbEntity
  8
1
  6
Continuous
 62
     4
370
    -2
100
AcDbLine
 10
595.5461
 20
700.0
 30
0.0
 11
636.5461
 21
700.0
 31
0.0
  0
SOLID
  5
1424A
330
14246
100
AcDbEntity
  8
1
  6
Continuous
 62
     4
370
     0
100
AcDbTrace
 10
595.5461
 20
700.3333333333333
 30
0.0
 11
595.5461
 21
699.6666666666666
 31
0.0
 12
593.5461
 22
700.0
 32
0.0
 13
593.5461
 23
700.0
 33
0.0
  0
SOLID
  5
1424B
330
14246
100
AcDbEntity
  8
1
  6
Continuous
 62
     4
370
     0
100
AcDbTrace
 10
636.5461
 20
700.3333333333333
 30
0.0
 11
636.5461
 21
699.6666666666666
 31
0.0
 12
638.5461
 22
700.0
 32
0.0
 13
638.5461
 23
700.0
 33
0.0
  0
MTEXT
  5
1424C
330
14246
100
AcDbEntity
  8
1
  6
Continuous
 62
     2
100
AcDbMText
 10
616.0461
 20
701.25
 30
0.0
 40
2.5
 41
0.0
 71
     5
 72
     1
  1
\A1; 45 
 73
     1
 44
1.0
  0
POINT
  5
1424D
330
14246
100
AcDbEntity
  8
DEFPOINTS
  6
Continuous
 62
     0
370
     0
100
AcDbPoint
 10
593.5461
 20
746.0958749999999
 30
0.0
  0
POINT
  5
1424E
330
14246
100
AcDbEntity
  8
DEFPOINTS
  6
Continuous
 62
     0
370
     0
100
AcDbPoint
 10
638.5461
 20
746.0958749999999
 30
0.0
  0
POINT
  5
1424F
330
14246
100
AcDbEntity
  8
DEFPOINTS
  6
Continuous
 62
     0
370
     0
100
AcDbPoint
 10
638.5461
 20
700.0
 30
0.0
  0
ENDBLK
  5
14251
330
14246
100
AcDbEntity
  8
0
100
AcDbBlockEnd
  0
BLOCK
  5
1425C
330
14252
100
AcDbEntity
  8
0
100
AcDbBlockBegin
  2
_D33
 70
     0
 10
0.0
 20
0.0
 30
0.0
  3
_D33
  1

  0
LINE
  5
14253
330
14252
100
AcDbEntity
  8
1
  6
Continuous
 62
     4
370
    -2
100
AcDbLine
 10
1464.0461
 20
1379.095874999999
 30
0.0
 11
1464.0461
 21
1413.499999999999
 31
0.0
  0
LINE
  5
14254
330
14252
100
AcDbEntity
  8
1
  6
Continuous
 62
     4
370
    -2
100
AcDbLine
 10
1604.046344999999
 20
1379.095874999999
 30
0.0
 11
1604.046344999999
 21
1413.499999999999
 31
0.0
  0
LINE
  5
14255
330
14252
100
AcDbEntity
  8
1
  6
Continuous
 62
     4
370
    -2
100
AcDbLine
 10
1466.0461
 20
1412.5
 30
0.0
 11
1602.046344999999
 21
1412.5
 31
0.0
  0
SOLID
  5
14256
330
14252
100
AcDbEntity
  8
1
  6
Continuous
 62
     4
370
     0
100
AcDbTrace
 10
1466.0461
 20
1412.833333333333
 30
0.0
 11
1466.0461
 21
1412.166666666666
 31
0.0
 12
1464.0461
 22
1412.5
 32
0.0
 13
1464.0461
 23
1412.5
 33
0.0
  0
SOLID
  5
14257
330
14252
100
AcDbEntity
  8
1
  6
Continuous
 62
     4
370
     0
100
AcDbTrace
 10
1602.046344999999
 20
1412.833333333333
 30
0.0
 11
1602.046344999999
 21
1412.166666666666
 31
0.0
 12
1604.046344999999
 22
1412.5
 32
0.0
 13
1604.046344999999
 23
1412.5
 33
0.0
  0
MTEXT
  5
14258
330
14252
100
AcDbEntity
  8
1
  6
Continuous
 62
     2
100
AcDbMText
 10
1534.0462225
 20
1413.75
 30
0.0
 40
2.5
 41
0.0
 71
     5
 72
     1
  1
\A1; 140 
 73
     1
 44
1.0
  0
POINT
  5
14259
330
14252
100
AcDbEntity
  8
DEFPOINTS
  6
Continuous
 62
     0
370
     0
100
AcDbPoint
 10
1464.0461
 20
1378.095875
 30
0.0
  0
POINT
  5
1425A
330
14252
100
AcDbEntity
  8
DEFPOINTS
  6
Continuous
 62
     0
370
     0
100
AcDbPoint
 10
1604.046344999999
 20
1378.095875
 30
0.0
  0
POINT
  5
1425B
330
14252
100
AcDbEntity
  8
DEFPOINTS
  6
Continuous
 62
     0
370
     0
100
AcDbPoint
 10
1604.046344999999
 20
1412.5
 30
0.0
  0
ENDBLK
  5
1425D
330
14252
100
AcDbEntity
  8
0
100
AcDbBlockEnd
  0
BLOCK
  5
14268
330
1425E
100
AcDbEntity
  8
0
100
AcDbBlockBegin
  2
_D34
 70
     0
 10
0.0
 20
0.0
 30
0.0
  3
_D34
  1

  0
LINE
  5
1425F
330
1425E
100
AcDbEntity
  8
1
  6
Continuous
 62
     4
370
    -2
100
AcDbLine
 10
609.5460999999999
 20
808.100875
 30
0.0
 11
609.5460999999999
 21
884.3126149999999
 31
0.0
  0
LINE
  5
14260
330
1425E
100
AcDbEntity
  8
1
  6
Continuous
 62
     4
370
    -2
100
AcDbLine
 10
622.5461
 20
808.095875
 30
0.0
 11
622.5461
 21
884.3126149999999
 31
0.0
  0
LINE
  5
14261
330
1425E
100
AcDbEntity
  8
1
  6
Continuous
 62
     4
370
    -2
100
AcDbLine
 10
611.5460999999998
 20
883.312615
 30
0.0
 11
620.5461
 21
883.312615
 31
0.0
  0
SOLID
  5
14262
330
1425E
100
AcDbEntity
  8
1
  6
Continuous
 62
     4
370
     0
100
AcDbTrace
 10
611.5460999999998
 20
883.6459483333333
 30
0.0
 11
611.5460999999998
 21
882.9792816666666
 31
0.0
 12
609.5460999999999
 22
883.312615
 32
0.0
 13
609.5460999999999
 23
883.312615
 33
0.0
  0
SOLID
  5
14263
330
1425E
100
AcDbEntity
  8
1
  6
Continuous
 62
     4
370
     0
100
AcDbTrace
 10
620.5461
 20
883.6459483333333
 30
0.0
 11
620.5461
 21
882.9792816666666
 31
0.0
 12
622.5461
 22
883.312615
 32
0.0
 13
622.5461
 23
883.312615
 33
0.0
  0
MTEXT
  5
14264
330
1425E
100
AcDbEntity
  8
1
  6
Continuous
 62
     2
100
AcDbMText
 10
616.0461
 20
884.5626149999999
 30
0.0
 40
2.5
 41
0.0
 71
     5
 72
     1
  1
\A1; 13 
 73
     1
 44
1.0
  0
POINT
  5
14265
330
1425E
100
AcDbEntity
  8
DEFPOINTS
  6
Continuous
 62
     0
370
     0
100
AcDbPoint
 10
609.5460999999999
 20
807.100875
 30
0.0
  0
POINT
  5
14266
330
1425E
100
AcDbEntity
  8
DEFPOINTS
  6
Continuous
 62
     0
370
     0
100
AcDbPoint
 10
622.5461
 20
807.0958749999999
 30
0.0
  0
POINT
  5
14267
330
1425E
100
AcDbEntity
  8
DEFPOINTS
  6
Continuous
 62
     0
370
     0
100
AcDbPoint
 10
622.5461
 20
883.312615
 30
0.0
  0
ENDBLK
  5
14269
330
1425E
100
AcDbEntity
  8
0
100
AcDbBlockEnd
  0
BLOCK
  5
14274
330
1426A
100
AcDbEntity
  8
0
100
AcDbBlockBegin
  2
_D36
 70
     0
 10
0.0
 20
0.0
 30
0.0
  3
_D36
  1

  0
LINE
  5
1426B
330
1426A
100
AcDbEntity
  8
1
  6
Continuous
 62
     4
370
    -2
100
AcDbLine
 10
591.0461
 20
1514.595875
 30
0.0
 11
591.0461
 21
1551.0
 31
0.0
  0
LINE
  5
1426C
330
1426A
100
AcDbEntity
  8
1
  6
Continuous
 62
     4
370
    -2
100
AcDbLine
 10
781.0460999999999
 20
1514.595875
 30
0.0
 11
781.0460999999999
 21
1551.0
 31
0.0
  0
LINE
  5
1426D
330
1426A
100
AcDbEntity
  8
1
  6
Continuous
 62
     4
370
    -2
100
AcDbLine
 10
593.0461
 20
1550.0
 30
0.0
 11
779.0460999999999
 21
1550.0
 31
0.0
  0
SOLID
  5
1426E
330
1426A
100
AcDbEntity
  8
1
  6
Continuous
 62
     4
370
     0
100
AcDbTrace
 10
593.0461
 20
1550.333333333333
 30
0.0
 11
593.0461
 21
1549.666666666666
 31
0.0
 12
591.0461
 22
1550.0
 32
0.0
 13
591.0461
 23
1550.0
 33
0.0
  0
SOLID
  5
1426F
330
1426A
100
AcDbEntity
  8
1
  6
Continuous
 62
     4
370
     0
100
AcDbTrace
 10
779.0460999999999
 20
1550.333333333333
 30
0.0
 11
779.0460999999999
 21
1549.666666666666
 31
0.0
 12
781.0460999999999
 22
1550.0
 32
0.0
 13
781.0460999999999
 23
1550.0
 33
0.0
  0
MTEXT
  5
14270
330
1426A
100
AcDbEntity
  8
1
  6
Continuous
 62
     2
100
AcDbMText
 10
686.0461
 20
1551.25
 30
0.0
 40
2.5
 41
0.0
 71
     5
 72
     1
  1
\A1; 190 
 73
     1
 44
1.0
  0
POINT
  5
14271
330
1426A
100
AcDbEntity
  8
DEFPOINTS
  6
Continuous
 62
     0
370
     0
100
AcDbPoint
 10
591.0461
 20
1513.595875
 30
0.0
  0
POINT
  5
14272
330
1426A
100
AcDbEntity
  8
DEFPOINTS
  6
Continuous
 62
     0
370
     0
100
AcDbPoint
 10
781.0460999999999
 20
1513.595875
 30
0.0
  0
POINT
  5
14273
330
1426A
100
AcDbEntity
  8
DEFPOINTS
  6
Continuous
 62
     0
370
     0
100
AcDbPoint
 10
781.0460999999999
 20
1550.0
 30
0.0
  0
ENDBLK
  5
14275
330
1426A
100
AcDbEntity
  8
0
100
AcDbBlockEnd
  0
BLOCK
  5
14280
330
14276
100
AcDbEntity
  8
0
100
AcDbBlockBegin
  2
_D37
 70
     0
 10
0.0
 20
0.0
 30
0.0
  3
_D37
  1

  0
LINE
  5
14277
330
14276
100
AcDbEntity
  8
1
  6
Continuous
 62
     4
370
    -2
100
AcDbLine
 10
1443.0461
 20
1331.600875
 30
0.0
 11
1443.0461
 21
1413.499999999999
 31
0.0
  0
LINE
  5
14278
330
14276
100
AcDbEntity
  8
1
  6
Continuous
 62
     4
370
    -2
100
AcDbLine
 10
1464.0461
 20
1379.095874999999
 30
0.0
 11
1464.0461
 21
1413.499999999999
 31
0.0
  0
LINE
  5
14279
330
14276
100
AcDbEntity
  8
1
  6
Continuous
 62
     4
370
    -2
100
AcDbLine
 10
1445.0461
 20
1412.5
 30
0.0
 11
1462.0461
 21
1412.5
 31
0.0
  0
SOLID
  5
1427A
330
14276
100
AcDbEntity
  8
1
  6
Continuous
 62
     4
370
     0
100
AcDbTrace
 10
1445.0461
 20
1412.833333333333
 30
0.0
 11
1445.0461
 21
1412.166666666666
 31
0.0
 12
1443.0461
 22
1412.5
 32
0.0
 13
1443.0461
 23
1412.5
 33
0.0
  0
SOLID
  5
1427B
330
14276
100
AcDbEntity
  8
1
  6
Continuous
 62
     4
370
     0
100
AcDbTrace
 10
1462.0461
 20
1412.833333333333
 30
0.0
 11
1462.0461
 21
1412.166666666666
 31
0.0
 12
1464.0461
 22
1412.5
 32
0.0
 13
1464.0461
 23
1412.5
 33
0.0
  0
MTEXT
  5
1427C
330
14276
100
AcDbEntity
  8
1
  6
Continuous
 62
     2
100
AcDbMText
 10
1453.5461
 20
1413.75
 30
0.0
 40
2.5
 41
0.0
 71
     5
 72
     1
  1
\A1; 21 
 73
     1
 44
1.0
  0
POINT
  5
1427D
330
14276
100
AcDbEntity
  8
DEFPOINTS
  6
Continuous
 62
     0
370
     0
100
AcDbPoint
 10
1443.0461
 20
1330.600875
 30
0.0
  0
POINT
  5
1427E
330
14276
100
AcDbEntity
  8
DEFPOINTS
  6
Continuous
 62
     0
370
     0
100
AcDbPoint
 10
1464.0461
 20
1378.095875
 30
0.0
  0
POINT
  5
1427F
330
14276
100
AcDbEntity
  8
DEFPOINTS
  6
Continuous
 62
     0
370
     0
100
AcDbPoint
 10
1464.0461
 20
1412.5
 30
0.0
  0
ENDBLK
  5
14281
330
14276
100
AcDbEntity
  8
0
100
AcDbBlockEnd
  0
BLOCK
  5
1428D
330
14282
100
AcDbEntity
  8
0
100
AcDbBlockBegin
  2
_D38
 70
     0
 10
0.0
 20
0.0
 30
0.0
  3
_D38
  1

  0
LINE
  5
14283
330
14282
100
AcDbEntity
  8
1
  6
Continuous
 62
     4
370
    -2
100
AcDbLine
 10
867.0460999999999
 20
1292.095875
 30
0.0
 11
1026.0
 21
1292.095875
 31
0.0
  0
LINE
  5
14284
330
14282
100
AcDbEntity
  8
1
  6
Continuous
 62
     4
370
    -2
100
AcDbLine
 10
867.0460999999999
 20
1662.095875
 30
0.0
 11
1026.0
 21
1662.095875
 31
0.0
  0
LINE
  5
14285
330
14282
100
AcDbEntity
  8
1
  6
Continuous
 62
     4
370
    -2
100
AcDbLine
 10
1025.0
 20
1294.095875
 30
0.0
 11
1025.0
 21
1472.720875
 31
0.0
  0
LINE
  5
14286
330
14282
100
AcDbEntity
  8
1
  6
Continuous
 62
     4
370
    -2
100
AcDbLine
 10
1025.0
 20
1660.095875
 30
0.0
 11
1025.0
 21
1481.470875
 31
0.0
  0
SOLID
  5
14287
330
14282
100
AcDbEntity
  8
1
  6
Continuous
 62
     4
370
     0
100
AcDbTrace
 10
1024.666666666666
 20
1294.095875
 30
0.0
 11
1025.333333333333
 21
1294.095875
 31
0.0
 12
1025.0
 22
1292.095875
 32
0.0
 13
1025.0
 23
1292.095875
 33
0.0
  0
SOLID
  5
14288
330
14282
100
AcDbEntity
  8
1
  6
Continuous
 62
     4
370
     0
100
AcDbTrace
 10
1024.666666666667
 20
1660.095875
 30
0.0
 11
1025.333333333333
 21
1660.095875
 31
0.0
 12
1025.0
 22
1662.095875
 32
0.0
 13
1025.0
 23
1662.095875
 33
0.0
  0
MTEXT
  5
14289
330
14282
100
AcDbEntity
  8
1
  6
Continuous
 62
     2
100
AcDbMText
 10
1024.999999999999
 20
1477.095875
 30
0.0
 40
2.5
 41
0.0
 71
     5
 72
     1
  1
\A1; 370 
 11
0.0000000000000001
 21
1.0
 31
0.0
 73
     1
 44
1.0
  0
POINT
  5
1428A
330
14282
100
AcDbEntity
  8
DEFPOINTS
  6
Continuous
 62
     0
370
     0
100
AcDbPoint
 10
866.0460999999999
 20
1292.095875
 30
0.0
  0
POINT
  5
1428B
330
14282
100
AcDbEntity
  8
DEFPOINTS
  6
Continuous
 62
     0
370
     0
100
AcDbPoint
 10
866.0460999999999
 20
1662.095875
 30
0.0
  0
POINT
  5
1428C
330
14282
100
AcDbEntity
  8
DEFPOINTS
  6
Continuous
 62
     0
370
     0
100
AcDbPoint
 10
1025.0
 20
1662.095875
 30
0.0
  0
ENDBLK
  5
1428E
330
14282
100
AcDbEntity
  8
0
100
AcDbBlockEnd
  0
BLOCK
  5
1429A
330
1428F
100
AcDbEntity
  8
0
100
AcDbBlockBegin
  2
_D40
 70
     0
 10
0.0
 20
0.0
 30
0.0
  3
_D40
  1

  0
LINE
  5
14290
330
1428F
100
AcDbEntity
  8
1
  6
Continuous
 62
     4
370
    -2
100
AcDbLine
 10
867.0460999999999
 20
1292.095875
 30
0.0
 11
988.4999999999999
 21
1292.095875
 31
0.0
  0
LINE
  5
14291
330
1428F
100
AcDbEntity
  8
1
  6
Continuous
 62
     4
370
    -2
100
AcDbLine
 10
731.0461
 20
1462.095875
 30
0.0
 11
988.4999999999999
 21
1462.095875
 31
0.0
  0
LINE
  5
14292
330
1428F
100
AcDbEntity
  8
1
  6
Continuous
 62
     4
370
    -2
100
AcDbLine
 10
987.5
 20
1294.095875
 30
0.0
 11
987.5
 21
1373.137541666666
 31
0.0
  0
LINE
  5
14293
330
1428F
100
AcDbEntity
  8
1
  6
Continuous
 62
     4
370
    -2
100
AcDbLine
 10
987.5
 20
1460.095875
 30
0.0
 11
987.5
 21
1381.054208333333
 31
0.0
  0
SOLID
  5
14294
330
1428F
100
AcDbEntity
  8
1
  6
Continuous
 62
     4
370
     0
100
AcDbTrace
 10
987.1666666666666
 20
1294.095875
 30
0.0
 11
987.8333333333333
 21
1294.095875
 31
0.0
 12
987.5
 22
1292.095875
 32
0.0
 13
987.5
 23
1292.095875
 33
0.0
  0
SOLID
  5
14295
330
1428F
100
AcDbEntity
  8
1
  6
Continuous
 62
     4
370
     0
100
AcDbTrace
 10
987.1666666666666
 20
1460.095875
 30
0.0
 11
987.8333333333333
 21
1460.095875
 31
0.0
 12
987.5
 22
1462.095875
 32
0.0
 13
987.5
 23
1462.095875
 33
0.0
  0
MTEXT
  5
14296
330
1428F
100
AcDbEntity
  8
1
  6
Continuous
 62
     2
100
AcDbMText
 10
987.4999999999998
 20
1377.095875
 30
0.0
 40
2.5
 41
0.0
 71
     5
 72
     1
  1
\A1; 170 
 11
0.0000000000000001
 21
1.0
 31
0.0
 73
     1
 44
1.0
  0
POINT
  5
14297
330
1428F
100
AcDbEntity
  8
DEFPOINTS
  6
Continuous
 62
     0
370
     0
100
AcDbPoint
 10
866.0460999999999
 20
1292.095875
 30
0.0
  0
POINT
  5
14298
330
1428F
100
AcDbEntity
  8
DEFPOINTS
  6
Continuous
 62
     0
370
     0
100
AcDbPoint
 10
730.0461
 20
1462.095875
 30
0.0
  0
POINT
  5
14299
330
1428F
100
AcDbEntity
  8
DEFPOINTS
  6
Continuous
 62
     0
370
     0
100
AcDbPoint
 10
987.5
 20
1462.095875
 30
0.0
  0
ENDBLK
  5
1429B
330
1428F
100
AcDbEntity
  8
0
100
AcDbBlockEnd
  0
BLOCK
  5
142A7
330
1429C
100
AcDbEntity
  8
0
100
AcDbBlockBegin
  2
_D43
 70
     0
 10
0.0
 20
0.0
 30
0.0
  3
_D43
  1

  0
LINE
  5
1429D
330
1429C
100
AcDbEntity
  8
1
  6
Continuous
 62
     4
370
    -2
100
AcDbLine
 10
731.0461
 20
1462.095875
 30
0.0
 11
913.4999999999999
 21
1462.095875
 31
0.0
  0
LINE
  5
1429E
330
1429C
100
AcDbEntity
  8
1
  6
Continuous
 62
     4
370
    -2
100
AcDbLine
 10
786.0461
 20
1509.595875
 30
0.0
 11
913.4999999999999
 21
1509.595875
 31
0.0
  0
LINE
  5
1429F
330
1429C
100
AcDbEntity
  8
1
  6
Continuous
 62
     4
370
    -2
100
AcDbLine
 10
912.5
 20
1464.095874999999
 30
0.0
 11
912.5
 21
1480.845874999999
 31
0.0
  0
LINE
  5
142A0
330
1429C
100
AcDbEntity
  8
1
  6
Continuous
 62
     4
370
    -2
100
AcDbLine
 10
912.5
 20
1507.595874999999
 30
0.0
 11
912.5
 21
1490.845874999999
 31
0.0
  0
SOLID
  5
142A1
330
1429C
100
AcDbEntity
  8
1
  6
Continuous
 62
     4
370
     0
100
AcDbTrace
 10
912.1666666666666
 20
1464.095874999999
 30
0.0
 11
912.8333333333333
 21
1464.095874999999
 31
0.0
 12
912.5
 22
1462.095875
 32
0.0
 13
912.5
 23
1462.095875
 33
0.0
  0
SOLID
  5
142A2
330
1429C
100
AcDbEntity
  8
1
  6
Continuous
 62
     4
370
     0
100
AcDbTrace
 10
912.1666666666666
 20
1507.595874999999
 30
0.0
 11
912.8333333333333
 21
1507.595874999999
 31
0.0
 12
912.5
 22
1509.595875
 32
0.0
 13
912.5
 23
1509.595875
 33
0.0
  0
MTEXT
  5
142A3
330
1429C
100
AcDbEntity
  8
1
  6
Continuous
 62
     2
100
AcDbMText
 10
912.4999999999998
 20
1485.845875
 30
0.0
 40
2.5
 41
0.0
 71
     5
 72
     1
  1
\A1; 47.5 
 11
0.0000000000000001
 21
1.0
 31
0.0
 73
     1
 44
1.0
  0
POINT
  5
142A4
330
1429C
100
AcDbEntity
  8
DEFPOINTS
  6
Continuous
 62
     0
370
     0
100
AcDbPoint
 10
730.0461
 20
1462.095875
 30
0.0
  0
POINT
  5
142A5
330
1429C
100
AcDbEntity
  8
DEFPOINTS
  6
Continuous
 62
     0
370
     0
100
AcDbPoint
 10
785.0461
 20
1509.595875
 30
0.0
  0
POINT
  5
142A6
330
1429C
100
AcDbEntity
  8
DEFPOINTS
  6
Continuous
 62
     0
370
     0
100
AcDbPoint
 10
912.5
 20
1509.595875
 30
0.0
  0
ENDBLK
  5
142A8
330
1429C
100
AcDbEntity
  8
0
100
AcDbBlockEnd
  0
BLOCK
  5
142B4
330
142A9
100
AcDbEntity
  8
0
100
AcDbBlockBegin
  2
_D44
 70
     0
 10
0.0
 20
0.0
 30
0.0
  3
_D44
  1

  0
LINE
  5
142AA
330
142A9
100
AcDbEntity
  8
1
  6
Continuous
 62
     4
370
    -2
100
AcDbLine
 10
786.0461
 20
1414.595875
 30
0.0
 11
951.0
 21
1414.595875
 31
0.0
  0
LINE
  5
142AB
330
142A9
100
AcDbEntity
  8
1
  6
Continuous
 62
     4
370
    -2
100
AcDbLine
 10
786.0461
 20
1509.595875
 30
0.0
 11
951.0
 21
1509.595875
 31
0.0
  0
LINE
  5
142AC
330
142A9
100
AcDbEntity
  8
1
  6
Continuous
 62
     4
370
    -2
100
AcDbLine
 10
950.0
 20
1416.595875
 30
0.0
 11
950.0
 21
1458.762541666667
 31
0.0
  0
LINE
  5
142AD
330
142A9
100
AcDbEntity
  8
1
  6
Continuous
 62
     4
370
    -2
100
AcDbLine
 10
950.0
 20
1507.595874999999
 30
0.0
 11
950.0
 21
1465.429208333333
 31
0.0
  0
SOLID
  5
142AE
330
142A9
100
AcDbEntity
  8
1
  6
Continuous
 62
     4
370
     0
100
AcDbTrace
 10
949.6666666666666
 20
1416.595875
 30
0.0
 11
950.3333333333333
 21
1416.595875
 31
0.0
 12
950.0
 22
1414.595875
 32
0.0
 13
950.0
 23
1414.595875
 33
0.0
  0
SOLID
  5
142AF
330
142A9
100
AcDbEntity
  8
1
  6
Continuous
 62
     4
370
     0
100
AcDbTrace
 10
949.6666666666666
 20
1507.595874999999
 30
0.0
 11
950.3333333333333
 21
1507.595874999999
 31
0.0
 12
950.0
 22
1509.595875
 32
0.0
 13
950.0
 23
1509.595875
 33
0.0
  0
MTEXT
  5
142B0
330
142A9
100
AcDbEntity
  8
1
  6
Continuous
 62
     2
100
AcDbMText
 10
949.9999999999998
 20
1462.095875
 30
0.0
 40
2.5
 41
0.0
 71
     5
 72
     1
  1
\A1; 95 
 11
0.0000000000000001
 21
1.0
 31
0.0
 73
     1
 44
1.0
  0
POINT
  5
142B1
330
142A9
100
AcDbEntity
  8
DEFPOINTS
  6
Continuous
 62
     0
370
     0
100
AcDbPoint
 10
785.0461
 20
1414.595875
 30
0.0
  0
POINT
  5
142B2
330
142A9
100
AcDbEntity
  8
DEFPOINTS
  6
Continuous
 62
     0
370
     0
100
AcDbPoint
 10
785.0461
 20
1509.595875
 30
0.0
  0
POINT
  5
142B3
330
142A9
100
AcDbEntity
  8
DEFPOINTS
  6
Continuous
 62
     0
370
     0
100
AcDbPoint
 10
950.0
 20
1509.595875
 30
0.0
  0
ENDBLK
  5
142B5
330
142A9
100
AcDbEntity
  8
0
100
AcDbBlockEnd
  0
BLOCK
  5
142C1
330
142B6
100
AcDbEntity
  8
0
100
AcDbBlockBegin
  2
_D45
 70
     0
 10
0.0
 20
0.0
 30
0.0
  3
_D45
  1

  0
LINE
  5
142B7
330
142B6
100
AcDbEntity
  8
1
  6
Continuous
 62
     4
370
    -2
100
AcDbLine
 10
877.0460999999999
 20
1462.095875
 30
0.0
 11
988.4999999999999
 21
1462.095875
 31
0.0
  0
LINE
  5
142B8
330
142B6
100
AcDbEntity
  8
1
  6
Continuous
 62
     4
370
    -2
100
AcDbLine
 10
867.0460999999999
 20
1662.095875
 30
0.0
 11
988.4999999999999
 21
1662.095875
 31
0.0
  0
LINE
  5
142B9
330
142B6
100
AcDbEntity
  8
1
  6
Continuous
 62
     4
370
    -2
100
AcDbLine
 10
987.5
 20
1464.095874999999
 30
0.0
 11
987.5
 21
1557.929208333333
 31
0.0
  0
LINE
  5
142BA
330
142B6
100
AcDbEntity
  8
1
  6
Continuous
 62
     4
370
    -2
100
AcDbLine
 10
987.5
 20
1660.095875
 30
0.0
 11
987.5
 21
1566.262541666666
 31
0.0
  0
SOLID
  5
142BB
330
142B6
100
AcDbEntity
  8
1
  6
Continuous
 62
     4
370
     0
100
AcDbTrace
 10
987.1666666666666
 20
1464.095874999999
 30
0.0
 11
987.8333333333333
 21
1464.095874999999
 31
0.0
 12
987.5
 22
1462.095875
 32
0.0
 13
987.5
 23
1462.095875
 33
0.0
  0
SOLID
  5
142BC
330
142B6
100
AcDbEntity
  8
1
  6
Continuous
 62
     4
370
     0
100
AcDbTrace
 10
987.1666666666666
 20
1660.095875
 30
0.0
 11
987.8333333333333
 21
1660.095875
 31
0.0
 12
987.5
 22
1662.095875
 32
0.0
 13
987.5
 23
1662.095875
 33
0.0
  0
MTEXT
  5
142BD
330
142B6
100
AcDbEntity
  8
1
  6
Continuous
 62
     2
100
AcDbMText
 10
987.4999999999998
 20
1562.095875
 30
0.0
 40
2.5
 41
0.0
 71
     5
 72
     1
  1
\A1; 200 
 11
0.0000000000000001
 21
1.0
 31
0.0
 73
     1
 44
1.0
  0
POINT
  5
142BE
330
142B6
100
AcDbEntity
  8
DEFPOINTS
  6
Continuous
 62
     0
370
     0
100
AcDbPoint
 10
876.0460999999999
 20
1462.095875
 30
0.0
  0
POINT
  5
142BF
330
142B6
100
AcDbEntity
  8
DEFPOINTS
  6
Continuous
 62
     0
370
     0
100
AcDbPoint
 10
866.0460999999999
 20
1662.095875
 30
0.0
  0
POINT
  5
142C0
330
142B6
100
AcDbEntity
  8
DEFPOINTS
  6
Continuous
 62
     0
370
     0
100
AcDbPoint
 10
987.5
 20
1662.095875
 30
0.0
  0
ENDBLK
  5
142C2
330
142B6
100
AcDbEntity
  8
0
100
AcDbBlockEnd
  0
BLOCK
  5
142CE
330
142C3
100
AcDbEntity
  8
0
100
AcDbBlockBegin
  2
_D46
 70
     0
 10
0.0
 20
0.0
 30
0.0
  3
_D46
  1

  0
LINE
  5
142C4
330
142C3
100
AcDbEntity
  8
1
  6
Continuous
 62
     4
370
    -2
100
AcDbLine
 10
854.5460999999999
 20
751.095875
 30
0.0
 11
901.0
 21
751.095875
 31
0.0
  0
LINE
  5
142C5
330
142C3
100
AcDbEntity
  8
1
  6
Continuous
 62
     4
370
    -2
100
AcDbLine
 10
832.0460999999999
 20
766.0958749999999
 30
0.0
 11
901.0
 21
766.0958749999999
 31
0.0
  0
LINE
  5
142C6
330
142C3
100
AcDbEntity
  8
1
  6
Continuous
 62
     4
370
    -2
100
AcDbLine
 10
900.0
 20
753.0958749999999
 30
0.0
 11
900.0
 21
755.6792083333333
 31
0.0
  0
LINE
  5
142C7
330
142C3
100
AcDbEntity
  8
1
  6
Continuous
 62
     4
370
    -2
100
AcDbLine
 10
900.0
 20
764.095875
 30
0.0
 11
900.0
 21
761.5125416666666
 31
0.0
  0
SOLID
  5
142C8
330
142C3
100
AcDbEntity
  8
1
  6
Continuous
 62
     4
370
     0
100
AcDbTrace
 10
899.6666666666666
 20
753.0958749999999
 30
0.0
 11
900.3333333333333
 21
753.0958749999999
 31
0.0
 12
900.0
 22
751.095875
 32
0.0
 13
900.0
 23
751.095875
 33
0.0
  0
SOLID
  5
142C9
330
142C3
100
AcDbEntity
  8
1
  6
Continuous
 62
     4
370
     0
100
AcDbTrace
 10
899.6666666666666
 20
764.095875
 30
0.0
 11
900.3333333333333
 21
764.095875
 31
0.0
 12
900.0
 22
766.0958749999999
 32
0.0
 13
900.0
 23
766.0958749999999
 33
0.0
  0
MTEXT
  5
142CA
330
142C3
100
AcDbEntity
  8
1
  6
Continuous
 62
     2
100
AcDbMText
 10
899.9999999999998
 20
758.5958750000002
 30
0.0
 40
2.5
 41
0.0
 71
     5
 72
     1
  1
\A1; 15 
 11
0.0000000000000001
 21
1.0
 31
0.0
 73
     1
 44
1.0
  0
POINT
  5
142CB
330
142C3
100
AcDbEntity
  8
DEFPOINTS
  6
Continuous
 62
     0
370
     0
100
AcDbPoint
 10
853.5460999999999
 20
751.095875
 30
0.0
  0
POINT
  5
142CC
330
142C3
100
AcDbEntity
  8
DEFPOINTS
  6
Continuous
 62
     0
370
     0
100
AcDbPoint
 10
831.0461
 20
766.0958749999999
 30
0.0
  0
POINT
  5
142CD
330
142C3
100
AcDbEntity
  8
DEFPOINTS
  6
Continuous
 62
     0
370
     0
100
AcDbPoint
 10
900.0
 20
766.0958749999999
 30
0.0
  0
ENDBLK
  5
142CF
330
142C3
100
AcDbEntity
  8
0
100
AcDbBlockEnd
  0
BLOCK
  5
142DB
330
142D0
100
AcDbEntity
  8
0
100
AcDbBlockBegin
  2
_D47
 70
     0
 10
0.0
 20
0.0
 30
0.0
  3
_D47
  1

  0
LINE
  5
142D1
330
142D0
100
AcDbEntity
  8
1
  6
Continuous
 62
     4
370
    -2
100
AcDbLine
 10
832.0460999999999
 20
766.0958749999999
 30
0.0
 11
900.9999999999999
 21
766.0958749999999
 31
0.0
  0
LINE
  5
142D2
330
142D0
100
AcDbEntity
  8
1
  6
Continuous
 62
     4
370
    -2
100
AcDbLine
 10
832.0460999999999
 20
798.095875
 30
0.0
 11
901.0
 21
798.095875
 31
0.0
  0
LINE
  5
142D3
330
142D0
100
AcDbEntity
  8
1
  6
Continuous
 62
     4
370
    -2
100
AcDbLine
 10
900.0
 20
768.095875
 30
0.0
 11
900.0
 21
778.7625416666665
 31
0.0
  0
LINE
  5
142D4
330
142D0
100
AcDbEntity
  8
1
  6
Continuous
 62
     4
370
    -2
100
AcDbLine
 10
900.0
 20
796.0958750000001
 30
0.0
 11
900.0
 21
785.4292083333334
 31
0.0
  0
SOLID
  5
142D5
330
142D0
100
AcDbEntity
  8
1
  6
Continuous
 62
     4
370
     0
100
AcDbTrace
 10
899.6666666666666
 20
768.095875
 30
0.0
 11
900.3333333333333
 21
768.095875
 31
0.0
 12
899.9999999999998
 22
766.0958749999999
 32
0.0
 13
899.9999999999998
 23
766.0958749999999
 33
0.0
  0
SOLID
  5
142D6
330
142D0
100
AcDbEntity
  8
1
  6
Continuous
 62
     4
370
     0
100
AcDbTrace
 10
899.6666666666666
 20
796.0958750000001
 30
0.0
 11
900.3333333333333
 21
796.0958750000001
 31
0.0
 12
900.0
 22
798.095875
 32
0.0
 13
900.0
 23
798.095875
 33
0.0
  0
MTEXT
  5
142D7
330
142D0
100
AcDbEntity
  8
1
  6
Continuous
 62
     2
100
AcDbMText
 10
899.9999999999998
 20
782.0958750000002
 30
0.0
 40
2.5
 41
0.0
 71
     5
 72
     1
  1
\A1; 32 
 11
0.0000000000000001
 21
1.0
 31
0.0
 73
     1
 44
1.0
  0
POINT
  5
142D8
330
142D0
100
AcDbEntity
  8
DEFPOINTS
  6
Continuous
 62
     0
370
     0
100
AcDbPoint
 10
831.0461
 20
766.0958749999999
 30
0.0
  0
POINT
  5
142D9
330
142D0
100
AcDbEntity
  8
DEFPOINTS
  6
Continuous
 62
     0
370
     0
100
AcDbPoint
 10
831.0461
 20
798.095875
 30
0.0
  0
POINT
  5
142DA
330
142D0
100
AcDbEntity
  8
DEFPOINTS
  6
Continuous
 62
     0
370
     0
100
AcDbPoint
 10
900.0
 20
798.095875
 30
0.0
  0
ENDBLK
  5
142DC
330
142D0
100
AcDbEntity
  8
0
100
AcDbBlockEnd
  0
BLOCK
  5
142E2
330
142DD
100
AcDbEntity
  8
0
100
AcDbBlockBegin
  2
_D48
 70
     0
 10
0.0
 20
0.0
 30
0.0
  3
_D48
  1

  0
MTEXT
  5
142DE
330
142DD
100
AcDbEntity
  8
1
  6
Continuous
 62
     2
100
AcDbMText
 10
928.6718949999997
 20
802.0958750000001
 30
0.0
 40
2.5
 41
0.0
 71
     5
 72
     1
  1
\A1; 8 
 11
0.0000000000000001
 21
1.0
 31
0.0
 73
     1
 44
1.0
  0
POINT
  5
142DF
330
142DD
100
AcDbEntity
  8
DEFPOINTS
  6
Continuous
 62
     0
370
     0
100
AcDbPoint
 10
826.0460999999999
 20
798.095875
 30
0.0
  0
POINT
  5
142E0
330
142DD
100
AcDbEntity
  8
DEFPOINTS
  6
Continuous
 62
     0
370
     0
100
AcDbPoint
 10
826.0460999999999
 20
806.0958749999999
 30
0.0
  0
POINT
  5
142E1
330
142DD
100
AcDbEntity
  8
DEFPOINTS
  6
Continuous
 62
     0
370
     0
100
AcDbPoint
 10
928.6718949999999
 20
806.0958749999999
 30
0.0
  0
ENDBLK
  5
142E3
330
142DD
100
AcDbEntity
  8
0
100
AcDbBlockEnd
  0
BLOCK
  5
142EF
330
142E4
100
AcDbEntity
  8
0
100
AcDbBlockBegin
  2
_D49
 70
     0
 10
0.0
 20
0.0
 30
0.0
  3
_D49
  1

  0
LINE
  5
142E5
330
142E4
100
AcDbEntity
  8
1
  6
Continuous
 62
     4
370
    -2
100
AcDbLine
 10
854.5460999999999
 20
751.095875
 30
0.0
 11
950.9999999999999
 21
751.095875
 31
0.0
  0
LINE
  5
142E6
330
142E4
100
AcDbEntity
  8
1
  6
Continuous
 62
     4
370
    -2
100
AcDbLine
 10
917.0460999999999
 20
862.0958749999999
 30
0.0
 11
951.0
 21
862.0958749999999
 31
0.0
  0
LINE
  5
142E7
330
142E4
100
AcDbEntity
  8
1
  6
Continuous
 62
     4
370
    -2
100
AcDbLine
 10
949.9999999999998
 20
753.0958749999999
 30
0.0
 11
950.0
 21
803.2625416666666
 31
0.0
  0
LINE
  5
142E8
330
142E4
100
AcDbEntity
  8
1
  6
Continuous
 62
     4
370
    -2
100
AcDbLine
 10
950.0
 20
860.095875
 30
0.0
 11
950.0
 21
809.9292083333333
 31
0.0
  0
SOLID
  5
142E9
330
142E4
100
AcDbEntity
  8
1
  6
Continuous
 62
     4
370
     0
100
AcDbTrace
 10
949.6666666666666
 20
753.0958749999999
 30
0.0
 11
950.3333333333332
 21
753.0958749999999
 31
0.0
 12
949.9999999999998
 22
751.095875
 32
0.0
 13
949.9999999999998
 23
751.095875
 33
0.0
  0
SOLID
  5
142EA
330
142E4
100
AcDbEntity
  8
1
  6
Continuous
 62
     4
370
     0
100
AcDbTrace
 10
949.6666666666666
 20
860.095875
 30
0.0
 11
950.3333333333333
 21
860.095875
 31
0.0
 12
950.0
 22
862.0958749999999
 32
0.0
 13
950.0
 23
862.0958749999999
 33
0.0
  0
MTEXT
  5
142EB
330
142E4
100
AcDbEntity
  8
1
  6
Continuous
 62
     2
100
AcDbMText
 10
949.9999999999998
 20
806.5958750000001
 30
0.0
 40
2.5
 41
0.0
 71
     5
 72
     1
  1
\A1; 111 
 11
0.0000000000000001
 21
1.0
 31
0.0
 73
     1
 44
1.0
  0
POINT
  5
142EC
330
142E4
100
AcDbEntity
  8
DEFPOINTS
  6
Continuous
 62
     0
370
     0
100
AcDbPoint
 10
853.5460999999999
 20
751.095875
 30
0.0
  0
POINT
  5
142ED
330
142E4
100
AcDbEntity
  8
DEFPOINTS
  6
Continuous
 62
     0
370
     0
100
AcDbPoint
 10
916.0460999999999
 20
862.0958749999999
 30
0.0
  0
POINT
  5
142EE
330
142E4
100
AcDbEntity
  8
DEFPOINTS
  6
Continuous
 62
     0
370
     0
100
AcDbPoint
 10
950.0
 20
862.0958749999999
 30
0.0
  0
ENDBLK
  5
142F0
330
142E4
100
AcDbEntity
  8
0
100
AcDbBlockEnd
  0
BLOCK
  5
142FC
330
142F1
100
AcDbEntity
  8
0
100
AcDbBlockBegin
  2
_D50
 70
     0
 10
0.0
 20
0.0
 30
0.0
  3
_D50
  1

  0
LINE
  5
142F2
330
142F1
100
AcDbEntity
  8
1
  6
Continuous
 62
     4
370
    -2
100
AcDbLine
 10
917.0460999999999
 20
862.0958749999999
 30
0.0
 11
951.0
 21
862.0958749999999
 31
0.0
  0
LINE
  5
142F3
330
142F1
100
AcDbEntity
  8
1
  6
Continuous
 62
     4
370
    -2
100
AcDbLine
 10
867.0460999999999
 20
982.095875
 30
0.0
 11
951.0
 21
982.095875
 31
0.0
  0
LINE
  5
142F4
330
142F1
100
AcDbEntity
  8
1
  6
Continuous
 62
     4
370
    -2
100
AcDbLine
 10
950.0
 20
864.0958749999999
 30
0.0
 11
950.0
 21
918.1375416666666
 31
0.0
  0
LINE
  5
142F5
330
142F1
100
AcDbEntity
  8
1
  6
Continuous
 62
     4
370
    -2
100
AcDbLine
 10
950.0
 20
980.0958749999999
 30
0.0
 11
950.0
 21
926.0542083333334
 31
0.0
  0
SOLID
  5
142F6
330
142F1
100
AcDbEntity
  8
1
  6
Continuous
 62
     4
370
     0
100
AcDbTrace
 10
949.6666666666666
 20
864.0958749999999
 30
0.0
 11
950.3333333333333
 21
864.0958749999999
 31
0.0
 12
950.0
 22
862.0958749999999
 32
0.0
 13
950.0
 23
862.0958749999999
 33
0.0
  0
SOLID
  5
142F7
330
142F1
100
AcDbEntity
  8
1
  6
Continuous
 62
     4
370
     0
100
AcDbTrace
 10
949.6666666666666
 20
980.0958749999999
 30
0.0
 11
950.3333333333333
 21
980.0958749999999
 31
0.0
 12
950.0
 22
982.095875
 32
0.0
 13
950.0
 23
982.095875
 33
0.0
  0
MTEXT
  5
142F8
330
142F1
100
AcDbEntity
  8
1
  6
Continuous
 62
     2
100
AcDbMText
 10
949.9999999999998
 20
922.0958750000001
 30
0.0
 40
2.5
 41
0.0
 71
     5
 72
     1
  1
\A1; 120 
 11
0.0000000000000001
 21
1.0
 31
0.0
 73
     1
 44
1.0
  0
POINT
  5
142F9
330
142F1
100
AcDbEntity
  8
DEFPOINTS
  6
Continuous
 62
     0
370
     0
100
AcDbPoint
 10
916.0460999999999
 20
862.0958749999999
 30
0.0
  0
POINT
  5
142FA
330
142F1
100
AcDbEntity
  8
DEFPOINTS
  6
Continuous
 62
     0
370
     0
100
AcDbPoint
 10
866.0460999999999
 20
982.095875
 30
0.0
  0
POINT
  5
142FB
330
142F1
100
AcDbEntity
  8
DEFPOINTS
  6
Continuous
 62
     0
370
     0
100
AcDbPoint
 10
950.0
 20
982.095875
 30
0.0
  0
ENDBLK
  5
142FD
330
142F1
100
AcDbEntity
  8
0
100
AcDbBlockEnd
  0
BLOCK
  5
14309
330
142FE
100
AcDbEntity
  8
0
100
AcDbBlockBegin
  2
_D51
 70
     0
 10
0.0
 20
0.0
 30
0.0
  3
_D51
  1

  0
LINE
  5
142FF
330
142FE
100
AcDbEntity
  8
1
  6
Continuous
 62
     4
370
    -2
100
AcDbLine
 10
1560.0461
 20
1600.095875
 30
0.0
 11
1601.0
 21
1600.095875
 31
0.0
  0
LINE
  5
14300
330
142FE
100
AcDbEntity
  8
1
  6
Continuous
 62
     4
370
    -2
100
AcDbLine
 10
1560.0461
 20
1612.095875
 30
0.0
 11
1601.0
 21
1612.095875
 31
0.0
  0
LINE
  5
14301
330
142FE
100
AcDbEntity
  8
1
  6
Continuous
 62
     4
370
    -2
100
AcDbLine
 10
1600.0
 20
1602.095874999999
 30
0.0
 11
1600.0
 21
1603.179208333333
 31
0.0
  0
LINE
  5
14302
330
142FE
100
AcDbEntity
  8
1
  6
Continuous
 62
     4
370
    -2
100
AcDbLine
 10
1600.0
 20
1610.095875
 30
0.0
 11
1600.0
 21
1609.012541666666
 31
0.0
  0
SOLID
  5
14303
330
142FE
100
AcDbEntity
  8
1
  6
Continuous
 62
     4
370
     0
100
AcDbTrace
 10
1599.666666666666
 20
1602.095874999999
 30
0.0
 11
1600.333333333333
 21
1602.095874999999
 31
0.0
 12
1600.0
 22
1600.095875
 32
0.0
 13
1600.0
 23
1600.095875
 33
0.0
  0
SOLID
  5
14304
330
142FE
100
AcDbEntity
  8
1
  6
Continuous
 62
     4
370
     0
100
AcDbTrace
 10
1599.666666666666
 20
1610.095875
 30
0.0
 11
1600.333333333333
 21
1610.095875
 31
0.0
 12
1600.0
 22
1612.095875
 32
0.0
 13
1600.0
 23
1612.095875
 33
0.0
  0
MTEXT
  5
14305
330
142FE
100
AcDbEntity
  8
1
  6
Continuous
 62
     2
100
AcDbMText
 10
1599.999999999999
 20
1606.095875
 30
0.0
 40
2.5
 41
0.0
 71
     5
 72
     1
  1
\A1; 12 
 11
0.0000000000000001
 21
1.0
 31
0.0
 73
     1
 44
1.0
  0
POINT
  5
14306
330
142FE
100
AcDbEntity
  8
DEFPOINTS
  6
Continuous
 62
     0
370
     0
100
AcDbPoint
 10
1559.0461
 20
1600.095875
 30
0.0
  0
POINT
  5
14307
330
142FE
100
AcDbEntity
  8
DEFPOINTS
  6
Continuous
 62
     0
370
     0
100
AcDbPoint
 10
1559.0461
 20
1612.095875
 30
0.0
  0
POINT
  5
14308
330
142FE
100
AcDbEntity
  8
DEFPOINTS
  6
Continuous
 62
     0
370
     0
100
AcDbPoint
 10
1600.0
 20
1612.095875
 30
0.0
  0
ENDBLK
  5
1430A
330
142FE
100
AcDbEntity
  8
0
100
AcDbBlockEnd
  0
BLOCK
  5
14316
330
1430B
100
AcDbEntity
  8
0
100
AcDbBlockBegin
  2
_D52
 70
     0
 10
0.0
 20
0.0
 30
0.0
  3
_D52
  1

  0
LINE
  5
1430C
330
1430B
100
AcDbEntity
  8
1
  6
Continuous
 62
     4
370
    -2
100
AcDbLine
 10
1545.0461
 20
1348.095875
 30
0.0
 11
1688.5
 21
1348.095875
 31
0.0
  0
LINE
  5
1430D
330
1430B
100
AcDbEntity
  8
1
  6
Continuous
 62
     4
370
    -2
100
AcDbLine
 10
1555.0461
 20
1606.095875
 30
0.0
 11
1688.5
 21
1606.095875
 31
0.0
  0
LINE
  5
1430E
330
1430B
100
AcDbEntity
  8
1
  6
Continuous
 62
     4
370
    -2
100
AcDbLine
 10
1687.5
 20
1350.095875
 30
0.0
 11
1687.5
 21
1472.512541666666
 31
0.0
  0
LINE
  5
1430F
330
1430B
100
AcDbEntity
  8
1
  6
Continuous
 62
     4
370
    -2
100
AcDbLine
 10
1687.5
 20
1604.095875
 30
0.0
 11
1687.5
 21
1481.679208333333
 31
0.0
  0
SOLID
  5
14310
330
1430B
100
AcDbEntity
  8
1
  6
Continuous
 62
     4
370
     0
100
AcDbTrace
 10
1687.166666666666
 20
1350.095875
 30
0.0
 11
1687.833333333333
 21
1350.095875
 31
0.0
 12
1687.5
 22
1348.095875
 32
0.0
 13
1687.5
 23
1348.095875
 33
0.0
  0
SOLID
  5
14311
330
1430B
100
AcDbEntity
  8
1
  6
Continuous
 62
     4
370
     0
100
AcDbTrace
 10
1687.166666666667
 20
1604.095875
 30
0.0
 11
1687.833333333333
 21
1604.095875
 31
0.0
 12
1687.5
 22
1606.095875
 32
0.0
 13
1687.5
 23
1606.095875
 33
0.0
  0
MTEXT
  5
14312
330
1430B
100
AcDbEntity
  8
1
  6
Continuous
 62
     2
100
AcDbMText
 10
1687.499999999999
 20
1477.095875
 30
0.0
 40
2.5
 41
0.0
 71
     5
 72
     1
  1
\A1; 258 
 11
0.0000000000000001
 21
1.0
 31
0.0
 73
     1
 44
1.0
  0
POINT
  5
14313
330
1430B
100
AcDbEntity
  8
DEFPOINTS
  6
Continuous
 62
     0
370
     0
100
AcDbPoint
 10
1544.0461
 20
1348.095875
 30
0.0
  0
POINT
  5
14314
330
1430B
100
AcDbEntity
  8
DEFPOINTS
  6
Continuous
 62
     0
370
     0
100
AcDbPoint
 10
1554.0461
 20
1606.095875
 30
0.0
  0
POINT
  5
14315
330
1430B
100
AcDbEntity
  8
DEFPOINTS
  6
Continuous
 62
     0
370
     0
100
AcDbPoint
 10
1687.5
 20
1606.095875
 30
0.0
  0
ENDBLK
  5
14317
330
1430B
100
AcDbEntity
  8
0
100
AcDbBlockEnd
  0
BLOCK
  5
14323
330
14318
100
AcDbEntity
  8
0
100
AcDbBlockBegin
  2
_D53
 70
     0
 10
0.0
 20
0.0
 30
0.0
  3
_D53
  1

  0
LINE
  5
14319
330
14318
100
AcDbEntity
  8
1
  6
Continuous
 62
     4
370
    -2
100
AcDbLine
 10
1545.0461
 20
1348.095875
 30
0.0
 11
1638.5
 21
1348.095875
 31
0.0
  0
LINE
  5
1431A
330
14318
100
AcDbEntity
  8
1
  6
Continuous
 62
     4
370
    -2
100
AcDbLine
 10
1454.0461
 20
1462.095875
 30
0.0
 11
1638.5
 21
1462.095874999999
 31
0.0
  0
LINE
  5
1431B
330
14318
100
AcDbEntity
  8
1
  6
Continuous
 62
     4
370
    -2
100
AcDbLine
 10
1637.5
 20
1350.095875
 30
0.0
 11
1637.5
 21
1401.345875
 31
0.0
  0
LINE
  5
1431C
330
14318
100
AcDbEntity
  8
1
  6
Continuous
 62
     4
370
    -2
100
AcDbLine
 10
1637.5
 20
1460.095874999999
 30
0.0
 11
1637.5
 21
1408.845875
 31
0.0
  0
SOLID
  5
1431D
330
14318
100
AcDbEntity
  8
1
  6
Continuous
 62
     4
370
     0
100
AcDbTrace
 10
1637.166666666666
 20
1350.095875
 30
0.0
 11
1637.833333333333
 21
1350.095875
 31
0.0
 12
1637.5
 22
1348.095875
 32
0.0
 13
1637.5
 23
1348.095875
 33
0.0
  0
SOLID
  5
1431E
330
14318
100
AcDbEntity
  8
1
  6
Continuous
 62
     4
370
     0
100
AcDbTrace
 10
1637.166666666666
 20
1460.095874999999
 30
0.0
 11
1637.833333333333
 21
1460.095874999999
 31
0.0
 12
1637.5
 22
1462.095874999999
 32
0.0
 13
1637.5
 23
1462.095874999999
 33
0.0
  0
MTEXT
  5
1431F
330
14318
100
AcDbEntity
  8
1
  6
Continuous
 62
     2
100
AcDbMText
 10
1637.499999999999
 20
1405.095875
 30
0.0
 40
2.5
 41
0.0
 71
     5
 72
     1
  1
\A1; 114 
 11
0.0000000000000001
 21
1.0
 31
0.0
 73
     1
 44
1.0
  0
POINT
  5
14320
330
14318
100
AcDbEntity
  8
DEFPOINTS
  6
Continuous
 62
     0
370
     0
100
AcDbPoint
 10
1544.0461
 20
1348.095875
 30
0.0
  0
POINT
  5
14321
330
14318
100
AcDbEntity
  8
DEFPOINTS
  6
Continuous
 62
     0
370
     0
100
AcDbPoint
 10
1453.0461
 20
1462.095875
 30
0.0
  0
POINT
  5
14322
330
14318
100
AcDbEntity
  8
DEFPOINTS
  6
Continuous
 62
     0
370
     0
100
AcDbPoint
 10
1637.5
 20
1462.095874999999
 30
0.0
  0
ENDBLK
  5
14324
330
14318
100
AcDbEntity
  8
0
100
AcDbBlockEnd
  0
BLOCK
  5
14330
330
14325
100
AcDbEntity
  8
0
100
AcDbBlockBegin
  2
_D54
 70
     0
 10
0.0
 20
0.0
 30
0.0
  3
_D54
  1

  0
LINE
  5
14326
330
14325
100
AcDbEntity
  8
1
  6
Continuous
 62
     4
370
    -2
100
AcDbLine
 10
1459.0461
 20
1462.095875
 30
0.0
 11
1638.5
 21
1462.095874999999
 31
0.0
  0
LINE
  5
14327
330
14325
100
AcDbEntity
  8
1
  6
Continuous
 62
     4
370
    -2
100
AcDbLine
 10
1560.0461
 20
1606.095875
 30
0.0
 11
1638.5
 21
1606.095875
 31
0.0
  0
LINE
  5
14328
330
14325
100
AcDbEntity
  8
1
  6
Continuous
 62
     4
370
    -2
100
AcDbLine
 10
1637.5
 20
1464.095874999999
 30
0.0
 11
1637.5
 21
1529.929208333333
 31
0.0
  0
LINE
  5
14329
330
14325
100
AcDbEntity
  8
1
  6
Continuous
 62
     4
370
    -2
100
AcDbLine
 10
1637.5
 20
1604.095875
 30
0.0
 11
1637.5
 21
1538.262541666666
 31
0.0
  0
SOLID
  5
1432A
330
14325
100
AcDbEntity
  8
1
  6
Continuous
 62
     4
370
     0
100
AcDbTrace
 10
1637.166666666666
 20
1464.095874999999
 30
0.0
 11
1637.833333333333
 21
1464.095874999999
 31
0.0
 12
1637.5
 22
1462.095874999999
 32
0.0
 13
1637.5
 23
1462.095874999999
 33
0.0
  0
SOLID
  5
1432B
330
14325
100
AcDbEntity
  8
1
  6
Continuous
 62
     4
370
     0
100
AcDbTrace
 10
1637.166666666667
 20
1604.095875
 30
0.0
 11
1637.833333333333
 21
1604.095875
 31
0.0
 12
1637.5
 22
1606.095875
 32
0.0
 13
1637.5
 23
1606.095875
 33
0.0
  0
MTEXT
  5
1432C
330
14325
100
AcDbEntity
  8
1
  6
Continuous
 62
     2
100
AcDbMText
 10
1637.499999999999
 20
1534.095875
 30
0.0
 40
2.5
 41
0.0
 71
     5
 72
     1
  1
\A1; 144 
 11
0.0000000000000001
 21
1.0
 31
0.0
 73
     1
 44
1.0
  0
POINT
  5
1432D
330
14325
100
AcDbEntity
  8
DEFPOINTS
  6
Continuous
 62
     0
370
     0
100
AcDbPoint
 10
1458.046099999999
 20
1462.095875
 30
0.0
  0
POINT
  5
1432E
330
14325
100
AcDbEntity
  8
DEFPOINTS
  6
Continuous
 62
     0
370
     0
100
AcDbPoint
 10
1559.0461
 20
1606.095875
 30
0.0
  0
POINT
  5
1432F
330
14325
100
AcDbEntity
  8
DEFPOINTS
  6
Continuous
 62
     0
370
     0
100
AcDbPoint
 10
1637.5
 20
1606.095875
 30
0.0
  0
ENDBLK
  5
14331
330
14325
100
AcDbEntity
  8
0
100
AcDbBlockEnd
  0
BLOCK
  5
1433D
330
14332
100
AcDbEntity
  8
0
100
AcDbBlockBegin
  2
_D61
 70
     0
 10
0.0
 20
0.0
 30
0.0
  3
_D61
  1

  0
LINE
  5
14333
330
14332
100
AcDbEntity
  8
1
  6
Continuous
 62
     4
370
    -2
100
AcDbLine
 10
832.0460999999999
 20
806.0958749999999
 30
0.0
 11
901.0
 21
806.0958749999999
 31
0.0
  0
LINE
  5
14334
330
14332
100
AcDbEntity
  8
1
  6
Continuous
 62
     4
370
    -2
100
AcDbLine
 10
867.0460999999999
 20
826.095875
 30
0.0
 11
901.0
 21
826.095875
 31
0.0
  0
LINE
  5
14335
330
14332
100
AcDbEntity
  8
1
  6
Continuous
 62
     4
370
    -2
100
AcDbLine
 10
900.0
 20
808.095875
 30
0.0
 11
900.0
 21
812.970875
 31
0.0
  0
LINE
  5
14336
330
14332
100
AcDbEntity
  8
1
  6
Continuous
 62
     4
370
    -2
100
AcDbLine
 10
900.0
 20
824.095875
 30
0.0
 11
900.0
 21
819.220875
 31
0.0
  0
SOLID
  5
14337
330
14332
100
AcDbEntity
  8
1
  6
Continuous
 62
     4
370
     0
100
AcDbTrace
 10
899.6666666666666
 20
808.095875
 30
0.0
 11
900.3333333333333
 21
808.095875
 31
0.0
 12
900.0
 22
806.0958749999999
 32
0.0
 13
900.0
 23
806.0958749999999
 33
0.0
  0
SOLID
  5
14338
330
14332
100
AcDbEntity
  8
1
  6
Continuous
 62
     4
370
     0
100
AcDbTrace
 10
899.6666666666666
 20
824.095875
 30
0.0
 11
900.3333333333333
 21
824.095875
 31
0.0
 12
900.0
 22
826.095875
 32
0.0
 13
900.0
 23
826.095875
 33
0.0
  0
MTEXT
  5
14339
330
14332
100
AcDbEntity
  8
1
  6
Continuous
 62
     2
100
AcDbMText
 10
899.9999999999998
 20
816.0958750000002
 30
0.0
 40
2.5
 41
0.0
 71
     5
 72
     1
  1
\A1; 20 
 11
0.0000000000000001
 21
1.0
 31
0.0
 73
     1
 44
1.0
  0
POINT
  5
1433A
330
14332
100
AcDbEntity
  8
DEFPOINTS
  6
Continuous
 62
     0
370
     0
100
AcDbPoint
 10
831.0461
 20
806.0958749999999
 30
0.0
  0
POINT
  5
1433B
330
14332
100
AcDbEntity
  8
DEFPOINTS
  6
Continuous
 62
     0
370
     0
100
AcDbPoint
 10
866.0460999999999
 20
826.095875
 30
0.0
  0
POINT
  5
1433C
330
14332
100
AcDbEntity
  8
DEFPOINTS
  6
Continuous
 62
     0
370
     0
100
AcDbPoint
 10
900.0
 20
826.095875
 30
0.0
  0
ENDBLK
  5
1433E
330
14332
100
AcDbEntity
  8
0
100
AcDbBlockEnd
  0
BLOCK
  5
1434A
330
1433F
100
AcDbEntity
  8
0
100
AcDbBlockBegin
  2
_D62
 70
     0
 10
0.0
 20
0.0
 30
0.0
  3
_D62
  1

  0
LINE
  5
14340
330
1433F
100
AcDbEntity
  8
1
  6
Continuous
 62
     4
370
    -2
100
AcDbLine
 10
917.0460999999999
 20
862.0958749999999
 30
0.0
 11
988.4999999999999
 21
862.0958749999999
 31
0.0
  0
LINE
  5
14341
330
1433F
100
AcDbEntity
  8
1
  6
Continuous
 62
     4
370
    -2
100
AcDbLine
 10
787.0460999999999
 20
989.0958749999999
 30
0.0
 11
988.4999999999999
 21
989.0958749999999
 31
0.0
  0
LINE
  5
14342
330
1433F
100
AcDbEntity
  8
1
  6
Continuous
 62
     4
370
    -2
100
AcDbLine
 10
987.5
 20
864.0958749999999
 30
0.0
 11
987.5
 21
921.4292083333333
 31
0.0
  0
LINE
  5
14343
330
1433F
100
AcDbEntity
  8
1
  6
Continuous
 62
     4
370
    -2
100
AcDbLine
 10
987.5
 20
987.0958749999999
 30
0.0
 11
987.5
 21
929.7625416666665
 31
0.0
  0
SOLID
  5
14344
330
1433F
100
AcDbEntity
  8
1
  6
Continuous
 62
     4
370
     0
100
AcDbTrace
 10
987.1666666666666
 20
864.0958749999999
 30
0.0
 11
987.8333333333333
 21
864.0958749999999
 31
0.0
 12
987.5
 22
862.0958749999999
 32
0.0
 13
987.5
 23
862.0958749999999
 33
0.0
  0
SOLID
  5
14345
330
1433F
100
AcDbEntity
  8
1
  6
Continuous
 62
     4
370
     0
100
AcDbTrace
 10
987.1666666666666
 20
987.0958749999999
 30
0.0
 11
987.8333333333333
 21
987.0958749999999
 31
0.0
 12
987.5
 22
989.0958749999999
 32
0.0
 13
987.5
 23
989.0958749999999
 33
0.0
  0
MTEXT
  5
14346
330
1433F
100
AcDbEntity
  8
1
  6
Continuous
 62
     2
100
AcDbMText
 10
987.4999999999998
 20
925.5958750000001
 30
0.0
 40
2.5
 41
0.0
 71
     5
 72
     1
  1
\A1; 127 
 11
0.0000000000000001
 21
1.0
 31
0.0
 73
     1
 44
1.0
  0
POINT
  5
14347
330
1433F
100
AcDbEntity
  8
DEFPOINTS
  6
Continuous
 62
     0
370
     0
100
AcDbPoint
 10
916.0460999999999
 20
862.0958749999999
 30
0.0
  0
POINT
  5
14348
330
1433F
100
AcDbEntity
  8
DEFPOINTS
  6
Continuous
 62
     0
370
     0
100
AcDbPoint
 10
786.0460999999999
 20
989.0958749999999
 30
0.0
  0
POINT
  5
14349
330
1433F
100
AcDbEntity
  8
DEFPOINTS
  6
Continuous
 62
     0
370
     0
100
AcDbPoint
 10
987.5
 20
989.0958749999999
 30
0.0
  0
ENDBLK
  5
1434B
330
1433F
100
AcDbEntity
  8
0
100
AcDbBlockEnd
  0
BLOCK
  5
14355
330
1434C
100
AcDbEntity
  8
0
100
AcDbBlockBegin
  2
_D65
 70
     0
 10
0.0
 20
0.0
 30
0.0
  3
_D65
  1

  0
LINE
  5
1434D
330
1434C
100
AcDbEntity
  8
1
  6
Continuous
 62
     4
370
    -2
100
AcDbLine
 10
644.2975967014018
 20
770.5648364341981
 30
0.0
 11
625.5475967014017
 21
770.5648364341982
 31
0.0
  0
LINE
  5
1434E
330
1434C
100
AcDbEntity
  8
1
  6
Continuous
 62
     4
370
    -2
100
AcDbLine
 10
625.5475967014017
 20
770.5648364341982
 30
0.0
 11
623.7377883507008
 21
769.713605717099
 31
0.0
  0
MTEXT
  5
1434F
330
1434C
100
AcDbEntity
  8
1
  6
Continuous
 62
     2
100
AcDbMText
 10
634.9225967014017
 20
771.8148364341982
 30
0.0
 40
2.5
 41
0.0
 71
     5
 72
     1
  1
\A1;\U+220513.000001
 73
     1
 44
1.0
  0
SOLID
  5
14350
330
1434C
100
AcDbEntity
  8
1
  6
Continuous
 62
     4
370
     0
100
AcDbTrace
 10
623.5959165645176
 20
770.0152404422158
 30
0.0
 11
623.8796601368839
 21
769.4119709919821
 31
0.0
 12
621.9279799999998
 22
768.8623749999999
 32
0.0
 13
621.9279799999998
 23
768.8623749999999
 33
0.0
  0
LINE
  5
14351
330
1434C
100
AcDbEntity
  8
1
  6
Continuous
 62
     4
370
    -2
100
AcDbLine
 10
615.9561024999999
 20
766.0958749999999
 30
0.0
 11
616.1361024999998
 21
766.0958749999999
 31
0.0
  0
LINE
  5
14352
330
1434C
100
AcDbEntity
  8
1
  6
Continuous
 62
     4
370
    -2
100
AcDbLine
 10
616.0461025
 20
766.0058749999998
 30
0.0
 11
616.0461025
 21
766.1858749999999
 31
0.0
  0
POINT
  5
14353
330
1434C
100
AcDbEntity
  8
DEFPOINTS
  6
Continuous
 62
     0
370
     0
100
AcDbPoint
 10
621.9279799999998
 20
768.8623749999999
 30
0.0
  0
POINT
  5
14354
330
1434C
100
AcDbEntity
  8
DEFPOINTS
  6
Continuous
 62
     0
370
     0
100
AcDbPoint
 10
610.164225
 20
763.3293749999999
 30
0.0
  0
ENDBLK
  5
14356
330
1434C
100
AcDbEntity
  8
0
100
AcDbBlockEnd
  0
BLOCK
  5
1464E
330
14644
100
AcDbEntity
  8
0
100
AcDbBlockBegin
  2
*D67
 70
     1
 10
0.0
 20
0.0
 30
0.0
  3
*D67
  1

  0
LINE
  5
15309
330
14644
100
AcDbEntity
  8
30
  6
Continuous
 62
     0
370
    -2
100
AcDbLine
 10
343.0
 20
1.500000000000056
 30
0.0
 11
343.0
 21
-283.4999999999999
 31
0.0
  0
LINE
  5
1530A
330
14644
100
AcDbEntity
  8
30
  6
Continuous
 62
     0
370
    -2
100
AcDbLine
 10
353.0
 20
-55.49999999999994
 30
0.0
 11
353.0
 21
-283.4999999999999
 31
0.0
  0
LINE
  5
1530B
330
14644
100
AcDbEntity
  8
30
  6
Continuous
 62
     0
370
    -2
100
AcDbLine
 10
351.0
 20
-282.9999999999999
 30
0.0
 11
345.0
 21
-282.9999999999999
 31
0.0
  0
LINE
  5
1530C
330
14644
100
AcDbEntity
  8
30
  6
Continuous
 62
     0
370
    -2
100
AcDbLine
 10
343.0
 20
-282.9999999999999
 30
0.0
 11
324.3999999999999
 21
-282.9999999999999
 31
0.0
  0
INSERT
  5
1530D
330
14644
100
AcDbEntity
  8
30
  6
Continuous
 62
     0
370
    -2
100
AcDbBlockReference
  2
_OPEN
 10
353.0
 20
-282.9999999999999
 30
0.0
 41
2.0
 42
2.0
 43
2.0
  0
INSERT
  5
1530E
330
14644
100
AcDbEntity
  8
30
  6
Continuous
 62
     0
370
    -2
100
AcDbBlockReference
  2
_OPEN
 10
343.0
 20
-282.9999999999999
 30
0.0
 41
2.0
 42
2.0
 43
2.0
 50
180.0
  0
MTEXT
  5
1530F
330
14644
100
AcDbEntity
  8
30
  6
Continuous
 62
     0
100
AcDbMText
 10
332.6999999999999
 20
-276.9999999999999
 30
0.0
 40
6.0
 41
0.0
 71
     5
 72
     1
  1
\A1; 10 
 73
     1
 44
1.0
  0
POINT
  5
15310
330
14644
100
AcDbEntity
  8
DEFPOINTS
  6
Continuous
 62
     0
100
AcDbPoint
 10
343.0
 20
4.500000000000056
 30
0.0
  0
POINT
  5
15311
330
14644
100
AcDbEntity
  8
DEFPOINTS
  6
Continuous
 62
     0
100
AcDbPoint
 10
353.0
 20
-52.49999999999994
 30
0.0
  0
POINT
  5
15312
330
14644
100
AcDbEntity
  8
DEFPOINTS
  6
Continuous
 62
     0
100
AcDbPoint
 10
353.0
 20
-282.9999999999999
 30
0.0
  0
ENDBLK
  5
1464F
330
14644
100
AcDbEntity
  8
0
100
AcDbBlockEnd
  0
BLOCK
  5
1465A
330
14650
100
AcDbEntity
  8
0
100
AcDbBlockBegin
  2
*D68
 70
     1
 10
0.0
 20
0.0
 30
0.0
  3
*D68
  1

  0
LINE
  5
152F7
330
14650
100
AcDbEntity
  8
30
  6
Continuous
 62
     0
370
    -2
100
AcDbLine
 10
229.0
 20
-5.799999999999897
 30
0.0
 11
228.9999999999999
 21
-303.4999999999999
 31
0.0
  0
LINE
  5
152F8
330
14650
100
AcDbEntity
  8
30
  6
Continuous
 62
     0
370
    -2
100
AcDbLine
 10
309.0
 20
-5.799999999999897
 30
0.0
 11
309.0
 21
-303.4999999999999
 31
0.0
  0
LINE
  5
152F9
330
14650
100
AcDbEntity
  8
30
  6
Continuous
 62
     0
370
    -2
100
AcDbLine
 10
230.9999999999999
 20
-302.9999999999999
 30
0.0
 11
307.0
 21
-302.9999999999999
 31
0.0
  0
INSERT
  5
152FA
330
14650
100
AcDbEntity
  8
30
  6
Continuous
 62
     0
370
    -2
100
AcDbBlockReference
  2
_OPEN
 10
228.9999999999999
 20
-302.9999999999999
 30
0.0
 41
2.0
 42
2.0
 43
2.0
 50
180.0
  0
INSERT
  5
152FB
330
14650
100
AcDbEntity
  8
30
  6
Continuous
 62
     0
370
    -2
100
AcDbBlockReference
  2
_OPEN
 10
309.0
 20
-302.9999999999999
 30
0.0
 41
2.0
 42
2.0
 43
2.0
  0
MTEXT
  5
152FC
330
14650
100
AcDbEntity
  8
30
  6
Continuous
 62
     0
100
AcDbMText
 10
269.0
 20
-296.9999999999999
 30
0.0
 40
6.0
 41
0.0
 71
     5
 72
     1
  1
\A1; 80 
 73
     1
 44
1.0
  0
POINT
  5
152FD
330
14650
100
AcDbEntity
  8
DEFPOINTS
  6
Continuous
 62
     0
100
AcDbPoint
 10
229.0
 20
-2.799999999999897
 30
0.0
  0
POINT
  5
152FE
330
14650
100
AcDbEntity
  8
DEFPOINTS
  6
Continuous
 62
     0
100
AcDbPoint
 10
309.0
 20
-2.799999999999897
 30
0.0
  0
POINT
  5
152FF
330
14650
100
AcDbEntity
  8
DEFPOINTS
  6
Continuous
 62
     0
100
AcDbPoint
 10
309.0
 20
-302.9999999999999
 30
0.0
  0
ENDBLK
  5
1465B
330
14650
100
AcDbEntity
  8
0
100
AcDbBlockEnd
  0
BLOCK
  5
14666
330
1465C
100
AcDbEntity
  8
0
100
AcDbBlockBegin
  2
*D69
 70
     1
 10
0.0
 20
0.0
 30
0.0
  3
*D69
  1

  0
LINE
  5
15325
330
1465C
100
AcDbEntity
  8
30
  6
Continuous
 62
     0
370
    -2
100
AcDbLine
 10
480.0
 20
-177.9999999999999
 30
0.0
 11
480.0
 21
-243.4999999999999
 31
0.0
  0
LINE
  5
15326
330
1465C
100
AcDbEntity
  8
30
  6
Continuous
 62
     0
370
    -2
100
AcDbLine
 10
498.0
 20
-157.9999999999999
 30
0.0
 11
498.0
 21
-243.4999999999999
 31
0.0
  0
LINE
  5
15327
330
1465C
100
AcDbEntity
  8
30
  6
Continuous
 62
     0
370
    -2
100
AcDbLine
 10
482.0
 20
-242.9999999999999
 30
0.0
 11
496.0
 21
-242.9999999999999
 31
0.0
  0
INSERT
  5
15328
330
1465C
100
AcDbEntity
  8
30
  6
Continuous
 62
     0
370
    -2
100
AcDbBlockReference
  2
_OPEN
 10
480.0
 20
-242.9999999999999
 30
0.0
 41
2.0
 42
2.0
 43
2.0
 50
180.0
  0
INSERT
  5
15329
330
1465C
100
AcDbEntity
  8
30
  6
Continuous
 62
     0
370
    -2
100
AcDbBlockReference
  2
_OPEN
 10
498.0
 20
-242.9999999999999
 30
0.0
 41
2.0
 42
2.0
 43
2.0
  0
MTEXT
  5
1532A
330
1465C
100
AcDbEntity
  8
30
  6
Continuous
 62
     0
100
AcDbMText
 10
489.0
 20
-236.9999999999999
 30
0.0
 40
6.0
 41
0.0
 71
     5
 72
     1
  1
\A1; 18 
 73
     1
 44
1.0
  0
POINT
  5
1532B
330
1465C
100
AcDbEntity
  8
DEFPOINTS
  6
Continuous
 62
     0
100
AcDbPoint
 10
480.0
 20
-174.9999999999999
 30
0.0
  0
POINT
  5
1532C
330
1465C
100
AcDbEntity
  8
DEFPOINTS
  6
Continuous
 62
     0
100
AcDbPoint
 10
498.0
 20
-154.9999999999999
 30
0.0
  0
POINT
  5
1532D
330
1465C
100
AcDbEntity
  8
DEFPOINTS
  6
Continuous
 62
     0
100
AcDbPoint
 10
498.0
 20
-242.9999999999999
 30
0.0
  0
ENDBLK
  5
14667
330
1465C
100
AcDbEntity
  8
0
100
AcDbBlockEnd
  0
BLOCK
  5
1467F
330
14674
100
AcDbEntity
  8
0
100
AcDbBlockBegin
  2
*D71
 70
     1
 10
0.0
 20
0.0
 30
0.0
  3
*D71
  1

  0
LINE
  5
15349
330
14674
100
AcDbEntity
  8
30
  6
Continuous
 62
     0
370
    -2
100
AcDbLine
 10
584.0000000000004
 20
-113.9999999999999
 30
0.0
 11
637.5
 21
-113.9999999999999
 31
0.0
  0
LINE
  5
1534A
330
14674
100
AcDbEntity
  8
30
  6
Continuous
 62
     0
370
    -2
100
AcDbLine
 10
594.0000000000004
 20
144.0
 30
0.0
 11
637.5
 21
144.0
 31
0.0
  0
LINE
  5
1534B
330
14674
100
AcDbEntity
  8
30
  6
Continuous
 62
     0
370
    -2
100
AcDbLine
 10
637.0
 20
-111.9999999999999
 30
0.0
 11
637.0
 21
142.0
 31
0.0
  0
INSERT
  5
1534C
330
14674
100
AcDbEntity
  8
30
  6
Continuous
 62
     0
370
    -2
100
AcDbBlockReference
  2
_OPEN
 10
637.0
 20
-113.9999999999999
 30
0.0
 41
2.0
 42
2.0
 43
2.0
 50
270.0
  0
INSERT
  5
1534D
330
14674
100
AcDbEntity
  8
30
  6
Continuous
 62
     0
370
    -2
100
AcDbBlockReference
  2
_OPEN
 10
637.0
 20
144.0
 30
0.0
 41
2.0
 42
2.0
 43
2.0
 50
90.0
  0
MTEXT
  5
1534E
330
14674
100
AcDbEntity
  8
30
  6
Continuous
 62
     0
100
AcDbMText
 10
631.0
 20
15.00000000000015
 30
0.0
 40
6.0
 41
0.0
 71
     5
 72
     1
  1
\A1; 258 
 11
0.0000000000000001
 21
1.0
 31
0.0
 73
     1
 44
1.0
  0
POINT
  5
1534F
330
14674
100
AcDbEntity
  8
DEFPOINTS
  6
Continuous
 62
     0
100
AcDbPoint
 10
581.0000000000004
 20
-113.9999999999999
 30
0.0
  0
POINT
  5
15350
330
14674
100
AcDbEntity
  8
DEFPOINTS
  6
Continuous
 62
     0
100
AcDbPoint
 10
591.0000000000004
 20
144.0
 30
0.0
  0
POINT
  5
15351
330
14674
100
AcDbEntity
  8
DEFPOINTS
  6
Continuous
 62
     0
100
AcDbPoint
 10
637.0
 20
144.0
 30
0.0
  0
ENDBLK
  5
14680
330
14674
100
AcDbEntity
  8
0
100
AcDbBlockEnd
  0
BLOCK
  5
1468C
330
14681
100
AcDbEntity
  8
0
100
AcDbBlockBegin
  2
*D72
 70
     1
 10
0.0
 20
0.0
 30
0.0
  3
*D72
  1

  0
LINE
  5
152EE
330
14681
100
AcDbEntity
  8
30
  6
Continuous
 62
     0
370
    -2
100
AcDbLine
 10
498.0
 20
0.000000000000056
 30
0.0
 11
617.5000000000004
 21
0.0000000000000221
 31
0.0
  0
LINE
  5
152EF
330
14681
100
AcDbEntity
  8
30
  6
Continuous
 62
     0
370
    -2
100
AcDbLine
 10
599.0000000000004
 20
144.0
 30
0.0
 11
617.5000000000004
 21
144.0
 31
0.0
  0
LINE
  5
152F0
330
14681
100
AcDbEntity
  8
30
  6
Continuous
 62
     0
370
    -2
100
AcDbLine
 10
617.0000000000004
 20
2.000000000000022
 30
0.0
 11
617.0000000000004
 21
142.0
 31
0.0
  0
INSERT
  5
152F1
330
14681
100
AcDbEntity
  8
30
  6
Continuous
 62
     0
370
    -2
100
AcDbBlockReference
  2
_OPEN
 10
617.0000000000004
 20
0.0000000000000223
 30
0.0
 41
2.0
 42
2.0
 43
2.0
 50
270.0
  0
INSERT
  5
152F2
330
14681
100
AcDbEntity
  8
30
  6
Continuous
 62
     0
370
    -2
100
AcDbBlockReference
  2
_OPEN
 10
617.0000000000004
 20
144.0
 30
0.0
 41
2.0
 42
2.0
 43
2.0
 50
90.0
  0
MTEXT
  5
152F3
330
14681
100
AcDbEntity
  8
30
  6
Continuous
 62
     0
100
AcDbMText
 10
611.0000000000004
 20
72.00000000000014
 30
0.0
 40
6.0
 41
0.0
 71
     5
 72
     1
  1
\A1; 144 
 11
0.0000000000000001
 21
1.0
 31
0.0
 73
     1
 44
1.0
  0
POINT
  5
152F4
330
14681
100
AcDbEntity
  8
DEFPOINTS
  6
Continuous
 62
     0
100
AcDbPoint
 10
495.0
 20
0.0000000000000568
 30
0.0
  0
POINT
  5
152F5
330
14681
100
AcDbEntity
  8
DEFPOINTS
  6
Continuous
 62
     0
100
AcDbPoint
 10
596.0000000000004
 20
144.0
 30
0.0
  0
POINT
  5
152F6
330
14681
100
AcDbEntity
  8
DEFPOINTS
  6
Continuous
 62
     0
100
AcDbPoint
 10
617.0000000000004
 20
144.0
 30
0.0
  0
ENDBLK
  5
1468D
330
14681
100
AcDbEntity
  8
0
100
AcDbBlockEnd
  0
BLOCK
  5
146A5
330
1469A
100
AcDbEntity
  8
0
100
AcDbBlockBegin
  2
*D74
 70
     1
 10
0.0
 20
0.0
 30
0.0
  3
*D74
  1

  0
LINE
  5
152E5
330
1469A
100
AcDbEntity
  8
30
  6
Continuous
 62
     0
370
    -2
100
AcDbLine
 10
584.0000000000004
 20
-113.9999999999999
 30
0.0
 11
617.4999999999999
 21
-113.9999999999999
 31
0.0
  0
LINE
  5
152E6
330
1469A
100
AcDbEntity
  8
30
  6
Continuous
 62
     0
370
    -2
100
AcDbLine
 10
493.0
 20
0.000000000000056
 30
0.0
 11
617.4999999999999
 21
0.0000000000000207
 31
0.0
  0
LINE
  5
152E7
330
1469A
100
AcDbEntity
  8
30
  6
Continuous
 62
     0
370
    -2
100
AcDbLine
 10
617.0
 20
-111.9999999999999
 30
0.0
 11
617.0
 21
-1.999999999999979
 31
0.0
  0
INSERT
  5
152E8
330
1469A
100
AcDbEntity
  8
30
  6
Continuous
 62
     0
370
    -2
100
AcDbBlockReference
  2
_OPEN
 10
617.0
 20
-113.9999999999999
 30
0.0
 41
2.0
 42
2.0
 43
2.0
 50
270.0
  0
INSERT
  5
152E9
330
1469A
100
AcDbEntity
  8
30
  6
Continuous
 62
     0
370
    -2
100
AcDbBlockReference
  2
_OPEN
 10
617.0
 20
0.0000000000000209
 30
0.0
 41
2.0
 42
2.0
 43
2.0
 50
90.0
  0
MTEXT
  5
152EA
330
1469A
100
AcDbEntity
  8
30
  6
Continuous
 62
     0
100
AcDbMText
 10
611.0
 20
-56.99999999999986
 30
0.0
 40
6.0
 41
0.0
 71
     5
 72
     1
  1
\A1; 114 
 11
0.0000000000000001
 21
1.0
 31
0.0
 73
     1
 44
1.0
  0
POINT
  5
152EB
330
1469A
100
AcDbEntity
  8
DEFPOINTS
  6
Continuous
 62
     0
100
AcDbPoint
 10
581.0000000000004
 20
-113.9999999999999
 30
0.0
  0
POINT
  5
152EC
330
1469A
100
AcDbEntity
  8
DEFPOINTS
  6
Continuous
 62
     0
100
AcDbPoint
 10
490.0
 20
0.0000000000000568
 30
0.0
  0
POINT
  5
152ED
330
1469A
100
AcDbEntity
  8
DEFPOINTS
  6
Continuous
 62
     0
100
AcDbPoint
 10
617.0
 20
0.0000000000000209
 30
0.0
  0
ENDBLK
  5
146A6
330
1469A
100
AcDbEntity
  8
0
100
AcDbBlockEnd
  0
BLOCK
  5
146B2
330
146A7
100
AcDbEntity
  8
0
100
AcDbBlockBegin
  2
*D75
 70
     1
 10
0.0
 20
0.0
 30
0.0
  3
*D75
  1

  0
LINE
  5
15352
330
146A7
100
AcDbEntity
  8
30
  6
Continuous
 62
     0
370
    -2
100
AcDbLine
 10
599.0000000000004
 20
138.0
 30
0.0
 11
609.4999999999999
 21
138.0
 31
0.0
  0
LINE
  5
15353
330
146A7
100
AcDbEntity
  8
30
  6
Continuous
 62
     0
370
    -2
100
AcDbLine
 10
599.0000000000004
 20
150.0
 30
0.0
 11
609.4999999999999
 21
150.0
 31
0.0
  0
LINE
  5
15354
330
146A7
100
AcDbEntity
  8
30
  6
Continuous
 62
     0
370
    -2
100
AcDbLine
 10
609.0
 20
140.0
 30
0.0
 11
609.0
 21
148.0
 31
0.0
  0
INSERT
  5
15355
330
146A7
100
AcDbEntity
  8
30
  6
Continuous
 62
     0
370
    -2
100
AcDbBlockReference
  2
_OPEN
 10
609.0
 20
138.0
 30
0.0
 41
2.0
 42
2.0
 43
2.0
 50
270.0
  0
INSERT
  5
15356
330
146A7
100
AcDbEntity
  8
30
  6
Continuous
 62
     0
370
    -2
100
AcDbBlockReference
  2
_OPEN
 10
609.0
 20
150.0
 30
0.0
 41
2.0
 42
2.0
 43
2.0
 50
90.0
  0
MTEXT
  5
15357
330
146A7
100
AcDbEntity
  8
30
  6
Continuous
 62
     0
100
AcDbMText
 10
603.0
 20
144.0000000000001
 30
0.0
 40
6.0
 41
0.0
 71
     5
 72
     1
  1
\A1;12 
 11
0.0000000000000001
 21
1.0
 31
0.0
 73
     1
 44
1.0
  0
POINT
  5
15358
330
146A7
100
AcDbEntity
  8
DEFPOINTS
  6
Continuous
 62
     0
100
AcDbPoint
 10
596.0000000000004
 20
138.0
 30
0.0
  0
POINT
  5
15359
330
146A7
100
AcDbEntity
  8
DEFPOINTS
  6
Continuous
 62
     0
100
AcDbPoint
 10
596.0000000000004
 20
150.0
 30
0.0
  0
POINT
  5
1535A
330
146A7
100
AcDbEntity
  8
DEFPOINTS
  6
Continuous
 62
     0
100
AcDbPoint
 10
609.0
 20
150.0
 30
0.0
  0
ENDBLK
  5
146B3
330
146A7
100
AcDbEntity
  8
0
100
AcDbBlockEnd
  0
BLOCK
  5
146BE
330
146B4
100
AcDbEntity
  8
0
100
AcDbBlockBegin
  2
*D76
 70
     1
 10
0.0
 20
0.0
 30
0.0
  3
*D76
  1

  0
LINE
  5
1531C
330
146B4
100
AcDbEntity
  8
30
  6
Continuous
 62
     0
370
    -2
100
AcDbLine
 10
360.0
 20
-147.9999999999999
 30
0.0
 11
360.0
 21
-263.4999999999999
 31
0.0
  0
LINE
  5
1531D
330
146B4
100
AcDbEntity
  8
30
  6
Continuous
 62
     0
370
    -2
100
AcDbLine
 10
480.0
 20
-177.9999999999999
 30
0.0
 11
480.0
 21
-263.4999999999999
 31
0.0
  0
LINE
  5
1531E
330
146B4
100
AcDbEntity
  8
30
  6
Continuous
 62
     0
370
    -2
100
AcDbLine
 10
362.0
 20
-262.9999999999999
 30
0.0
 11
478.0
 21
-262.9999999999999
 31
0.0
  0
INSERT
  5
1531F
330
146B4
100
AcDbEntity
  8
30
  6
Continuous
 62
     0
370
    -2
100
AcDbBlockReference
  2
_OPEN
 10
360.0
 20
-262.9999999999999
 30
0.0
 41
2.0
 42
2.0
 43
2.0
 50
180.0
  0
INSERT
  5
15320
330
146B4
100
AcDbEntity
  8
30
  6
Continuous
 62
     0
370
    -2
100
AcDbBlockReference
  2
_OPEN
 10
480.0
 20
-262.9999999999999
 30
0.0
 41
2.0
 42
2.0
 43
2.0
  0
MTEXT
  5
15321
330
146B4
100
AcDbEntity
  8
30
  6
Continuous
 62
     0
100
AcDbMText
 10
420.0
 20
-256.9999999999999
 30
0.0
 40
6.0
 41
0.0
 71
     5
 72
     1
  1
\A1; 120 
 73
     1
 44
1.0
  0
POINT
  5
15322
330
146B4
100
AcDbEntity
  8
DEFPOINTS
  6
Continuous
 62
     0
100
AcDbPoint
 10
360.0
 20
-144.9999999999999
 30
0.0
  0
POINT
  5
15323
330
146B4
100
AcDbEntity
  8
DEFPOINTS
  6
Continuous
 62
     0
100
AcDbPoint
 10
480.0
 20
-174.9999999999999
 30
0.0
  0
POINT
  5
15324
330
146B4
100
AcDbEntity
  8
DEFPOINTS
  6
Continuous
 62
     0
100
AcDbPoint
 10
480.0
 20
-262.9999999999999
 30
0.0
  0
ENDBLK
  5
146BF
330
146B4
100
AcDbEntity
  8
0
100
AcDbBlockEnd
  0
BLOCK
  5
146CA
330
146C0
100
AcDbEntity
  8
0
100
AcDbBlockBegin
  2
*D77
 70
     1
 10
0.0
 20
0.0
 30
0.0
  3
*D77
  1

  0
LINE
  5
1532E
330
146C0
100
AcDbEntity
  8
30
  6
Continuous
 62
     0
370
    -2
100
AcDbLine
 10
452.0
 20
-153.4999999999999
 30
0.0
 11
452.0
 21
-243.4999999999999
 31
0.0
  0
LINE
  5
1532F
330
146C0
100
AcDbEntity
  8
30
  6
Continuous
 62
     0
370
    -2
100
AcDbLine
 10
480.0
 20
-177.9999999999999
 30
0.0
 11
480.0
 21
-243.4999999999999
 31
0.0
  0
LINE
  5
15330
330
146C0
100
AcDbEntity
  8
30
  6
Continuous
 62
     0
370
    -2
100
AcDbLine
 10
454.0
 20
-242.9999999999999
 30
0.0
 11
478.0
 21
-242.9999999999999
 31
0.0
  0
INSERT
  5
15331
330
146C0
100
AcDbEntity
  8
30
  6
Continuous
 62
     0
370
    -2
100
AcDbBlockReference
  2
_OPEN
 10
452.0
 20
-242.9999999999999
 30
0.0
 41
2.0
 42
2.0
 43
2.0
 50
180.0
  0
INSERT
  5
15332
330
146C0
100
AcDbEntity
  8
30
  6
Continuous
 62
     0
370
    -2
100
AcDbBlockReference
  2
_OPEN
 10
480.0
 20
-242.9999999999999
 30
0.0
 41
2.0
 42
2.0
 43
2.0
  0
MTEXT
  5
15333
330
146C0
100
AcDbEntity
  8
30
  6
Continuous
 62
     0
100
AcDbMText
 10
466.0
 20
-236.9999999999999
 30
0.0
 40
6.0
 41
0.0
 71
     5
 72
     1
  1
\A1; 28 
 73
     1
 44
1.0
  0
POINT
  5
15334
330
146C0
100
AcDbEntity
  8
DEFPOINTS
  6
Continuous
 62
     0
100
AcDbPoint
 10
452.0
 20
-150.4999999999999
 30
0.0
  0
POINT
  5
15335
330
146C0
100
AcDbEntity
  8
DEFPOINTS
  6
Continuous
 62
     0
100
AcDbPoint
 10
480.0
 20
-174.9999999999999
 30
0.0
  0
POINT
  5
15336
330
146C0
100
AcDbEntity
  8
DEFPOINTS
  6
Continuous
 62
     0
100
AcDbPoint
 10
480.0
 20
-242.9999999999999
 30
0.0
  0
ENDBLK
  5
146CB
330
146C0
100
AcDbEntity
  8
0
100
AcDbBlockEnd
  0
BLOCK
  5
146D6
330
146CC
100
AcDbEntity
  8
0
100
AcDbBlockBegin
  2
*D78
 70
     1
 10
0.0
 20
0.0
 30
0.0
  3
*D78
  1

  0
LINE
  5
15313
330
146CC
100
AcDbEntity
  8
30
  6
Continuous
 62
     0
370
    -2
100
AcDbLine
 10
353.0
 20
-55.49999999999994
 30
0.0
 11
353.0
 21
-283.4999999999999
 31
0.0
  0
LINE
  5
15314
330
146CC
100
AcDbEntity
  8
30
  6
Continuous
 62
     0
370
    -2
100
AcDbLine
 10
480.0
 20
-177.9999999999999
 30
0.0
 11
480.0
 21
-283.4999999999999
 31
0.0
  0
LINE
  5
15315
330
146CC
100
AcDbEntity
  8
30
  6
Continuous
 62
     0
370
    -2
100
AcDbLine
 10
355.0
 20
-282.9999999999999
 30
0.0
 11
478.0
 21
-282.9999999999999
 31
0.0
  0
INSERT
  5
15316
330
146CC
100
AcDbEntity
  8
30
  6
Continuous
 62
     0
370
    -2
100
AcDbBlockReference
  2
_OPEN
 10
353.0
 20
-282.9999999999999
 30
0.0
 41
2.0
 42
2.0
 43
2.0
 50
180.0
  0
INSERT
  5
15317
330
146CC
100
AcDbEntity
  8
30
  6
Continuous
 62
     0
370
    -2
100
AcDbBlockReference
  2
_OPEN
 10
480.0
 20
-282.9999999999999
 30
0.0
 41
2.0
 42
2.0
 43
2.0
  0
MTEXT
  5
15318
330
146CC
100
AcDbEntity
  8
30
  6
Continuous
 62
     0
100
AcDbMText
 10
416.5
 20
-276.9999999999999
 30
0.0
 40
6.0
 41
0.0
 71
     5
 72
     1
  1
\A1; 127 
 73
     1
 44
1.0
  0
POINT
  5
15319
330
146CC
100
AcDbEntity
  8
DEFPOINTS
  6
Continuous
 62
     0
100
AcDbPoint
 10
353.0
 20
-52.49999999999994
 30
0.0
  0
POINT
  5
1531A
330
146CC
100
AcDbEntity
  8
DEFPOINTS
  6
Continuous
 62
     0
100
AcDbPoint
 10
480.0
 20
-174.9999999999999
 30
0.0
  0
POINT
  5
1531B
330
146CC
100
AcDbEntity
  8
DEFPOINTS
  6
Continuous
 62
     0
100
AcDbPoint
 10
480.0
 20
-282.9999999999999
 30
0.0
  0
ENDBLK
  5
146D7
330
146CC
100
AcDbEntity
  8
0
100
AcDbBlockEnd
  0
BLOCK
  5
146E2
330
146D8
100
AcDbEntity
  8
0
100
AcDbBlockBegin
  2
*D79
 70
     1
 10
0.0
 20
0.0
 30
0.0
  3
*D79
  1

  0
LINE
  5
15300
330
146D8
100
AcDbEntity
  8
30
  6
Continuous
 62
     0
370
    -2
100
AcDbLine
 10
309.0
 20
-10.79999999999989
 30
0.0
 11
309.0
 21
-303.4999999999999
 31
0.0
  0
LINE
  5
15301
330
146D8
100
AcDbEntity
  8
30
  6
Continuous
 62
     0
370
    -2
100
AcDbLine
 10
480.0
 20
-172.9999999999999
 30
0.0
 11
480.0
 21
-303.4999999999999
 31
0.0
  0
LINE
  5
15302
330
146D8
100
AcDbEntity
  8
30
  6
Continuous
 62
     0
370
    -2
100
AcDbLine
 10
311.0
 20
-302.9999999999999
 30
0.0
 11
478.0
 21
-302.9999999999999
 31
0.0
  0
INSERT
  5
15303
330
146D8
100
AcDbEntity
  8
30
  6
Continuous
 62
     0
370
    -2
100
AcDbBlockReference
  2
_OPEN
 10
309.0
 20
-302.9999999999999
 30
0.0
 41
2.0
 42
2.0
 43
2.0
 50
180.0
  0
INSERT
  5
15304
330
146D8
100
AcDbEntity
  8
30
  6
Continuous
 62
     0
370
    -2
100
AcDbBlockReference
  2
_OPEN
 10
480.0
 20
-302.9999999999999
 30
0.0
 41
2.0
 42
2.0
 43
2.0
  0
MTEXT
  5
15305
330
146D8
100
AcDbEntity
  8
30
  6
Continuous
 62
     0
100
AcDbMText
 10
394.5
 20
-296.9999999999999
 30
0.0
 40
6.0
 41
0.0
 71
     5
 72
     1
  1
\A1; 171 
 73
     1
 44
1.0
  0
POINT
  5
15306
330
146D8
100
AcDbEntity
  8
DEFPOINTS
  6
Continuous
 62
     0
100
AcDbPoint
 10
309.0
 20
-7.799999999999897
 30
0.0
  0
POINT
  5
15307
330
146D8
100
AcDbEntity
  8
DEFPOINTS
  6
Continuous
 62
     0
100
AcDbPoint
 10
480.0
 20
-169.9999999999999
 30
0.0
  0
POINT
  5
15308
330
146D8
100
AcDbEntity
  8
DEFPOINTS
  6
Continuous
 62
     0
100
AcDbPoint
 10
480.0
 20
-302.9999999999999
 30
0.0
  0
ENDBLK
  5
146E3
330
146D8
100
AcDbEntity
  8
0
100
AcDbBlockEnd
  0
BLOCK
  5
14A89
330
14A7F
100
AcDbEntity
  8
0
100
AcDbBlockBegin
  2
*D103
 70
     1
 10
0.0
 20
0.0
 30
0.0
  3
*D103
  1

  0
LINE
  5
15337
330
14A7F
100
AcDbEntity
  8
30
  6
Continuous
 62
     0
370
    -2
100
AcDbLine
 10
284.1000000000008
 20
-0.0000000000008518
 30
0.0
 11
279.4999999999999
 21
-0.0000000000008505
 31
0.0
  0
LINE
  5
15338
330
14A7F
100
AcDbEntity
  8
30
  6
Continuous
 62
     0
370
    -2
100
AcDbLine
 10
352.0000000000004
 20
169.9999999999991
 30
0.0
 11
279.4999999999999
 21
169.9999999999991
 31
0.0
  0
LINE
  5
15339
330
14A7F
100
AcDbEntity
  8
30
  6
Continuous
 62
     0
370
    -2
100
AcDbLine
 10
279.9999999999999
 20
1.999999999999149
 30
0.0
 11
280.0
 21
167.9999999999991
 31
0.0
  0
INSERT
  5
1533A
330
14A7F
100
AcDbEntity
  8
30
  6
Continuous
 62
     0
370
    -2
100
AcDbBlockReference
  2
_OPEN
 10
279.9999999999999
 20
-0.0000000000008506
 30
0.0
 41
2.0
 42
2.0
 43
2.0
 50
270.0
  0
INSERT
  5
1533B
330
14A7F
100
AcDbEntity
  8
30
  6
Continuous
 62
     0
370
    -2
100
AcDbBlockReference
  2
_OPEN
 10
280.0
 20
169.9999999999991
 30
0.0
 41
2.0
 42
2.0
 43
2.0
 50
90.0
  0
MTEXT
  5
1533C
330
14A7F
100
AcDbEntity
  8
30
  6
Continuous
 62
     0
100
AcDbMText
 10
273.9999999999999
 20
84.9999999999992
 30
0.0
 40
6.0
 41
0.0
 71
     5
 72
     1
  1
\A1; 170 
 11
0.0000000000000001
 21
1.0
 31
0.0
 73
     1
 44
1.0
  0
POINT
  5
1533D
330
14A7F
100
AcDbEntity
  8
DEFPOINTS
  6
Continuous
 62
     0
100
AcDbPoint
 10
287.1000000000008
 20
-0.0000000000008527
 30
0.0
  0
POINT
  5
1533E
330
14A7F
100
AcDbEntity
  8
DEFPOINTS
  6
Continuous
 62
     0
100
AcDbPoint
 10
355.0000000000004
 20
169.9999999999991
 30
0.0
  0
POINT
  5
1533F
330
14A7F
100
AcDbEntity
  8
DEFPOINTS
  6
Continuous
 62
     0
100
AcDbPoint
 10
280.0
 20
169.9999999999991
 30
0.0
  0
ENDBLK
  5
14A8A
330
14A7F
100
AcDbEntity
  8
0
100
AcDbBlockEnd
  0
BLOCK
  5
14A95
330
14A8B
100
AcDbEntity
  8
0
100
AcDbBlockBegin
  2
*D104
 70
     1
 10
0.0
 20
0.0
 30
0.0
  3
*D104
  1

  0
LINE
  5
15340
330
14A8B
100
AcDbEntity
  8
30
  6
Continuous
 62
     0
370
    -2
100
AcDbLine
 10
352.0000000000004
 20
-140.0000000000008
 30
0.0
 11
279.4999999999999
 21
-140.0000000000008
 31
0.0
  0
LINE
  5
15341
330
14A8B
100
AcDbEntity
  8
30
  6
Continuous
 62
     0
370
    -2
100
AcDbLine
 10
289.1000000000008
 20
-0.0000000000008518
 30
0.0
 11
279.4999999999999
 21
-0.0000000000008491
 31
0.0
  0
LINE
  5
15342
330
14A8B
100
AcDbEntity
  8
30
  6
Continuous
 62
     0
370
    -2
100
AcDbLine
 10
279.9999999999999
 20
-138.0000000000008
 30
0.0
 11
280.0
 21
-2.000000000000849
 31
0.0
  0
INSERT
  5
15343
330
14A8B
100
AcDbEntity
  8
30
  6
Continuous
 62
     0
370
    -2
100
AcDbBlockReference
  2
_OPEN
 10
279.9999999999999
 20
-140.0000000000008
 30
0.0
 41
2.0
 42
2.0
 43
2.0
 50
270.0
  0
INSERT
  5
15344
330
14A8B
100
AcDbEntity
  8
30
  6
Continuous
 62
     0
370
    -2
100
AcDbBlockReference
  2
_OPEN
 10
280.0
 20
-0.0000000000008492
 30
0.0
 41
2.0
 42
2.0
 43
2.0
 50
90.0
  0
MTEXT
  5
15345
330
14A8B
100
AcDbEntity
  8
30
  6
Continuous
 62
     0
100
AcDbMText
 10
274.0
 20
-70.00000000000079
 30
0.0
 40
6.0
 41
0.0
 71
     5
 72
     1
  1
\A1; 140 
 11
0.0000000000000001
 21
1.0
 31
0.0
 73
     1
 44
1.0
  0
POINT
  5
15346
330
14A8B
100
AcDbEntity
  8
DEFPOINTS
  6
Continuous
 62
     0
100
AcDbPoint
 10
355.0000000000004
 20
-140.0000000000008
 30
0.0
  0
POINT
  5
15347
330
14A8B
100
AcDbEntity
  8
DEFPOINTS
  6
Continuous
 62
     0
100
AcDbPoint
 10
292.1000000000008
 20
-0.0000000000008527
 30
0.0
  0
POINT
  5
15348
330
14A8B
100
AcDbEntity
  8
DEFPOINTS
  6
Continuous
 62
     0
100
AcDbPoint
 10
280.0
 20
-0.0000000000008492
 30
0.0
  0
ENDBLK
  5
14A96
330
14A8B
100
AcDbEntity
  8
0
100
AcDbBlockEnd
  0
BLOCK
  5
14B2A
330
14B28
100
AcDbEntity
  8
0
100
AcDbBlockBegin
  2
ASSORTED_DRAFT1
 70
     0
 10
0.0
 20
0.0
 30
0.0
  3
ASSORTED_DRAFT1
  1

  0
SOLID
  5
14B29
330
14B28
100
AcDbEntity
  8
0
 62
     4
100
AcDbTrace
 10
63.84921999999999
 20
284.2151749999999
 30
0.0
 11
65.20976999999999
 21
282.711542
 31
0.0
 12
64.646111
 22
282.3505079999999
 32
0.0
 13
63.84921999999999
 23
284.2151749999999
 33
0.0
  0
ENDBLK
  5
14B2B
330
14B28
100
AcDbEntity
  8
0
100
AcDbBlockEnd
  0
BLOCK
  5
14B2E
330
14B2C
100
AcDbEntity
  8
0
100
AcDbBlockBegin
  2
ASSORTED_DRAFT2
 70
     0
 10
0.0
 20
0.0
 30
0.0
  3
ASSORTED_DRAFT2
  1

  0
SOLID
  5
14B2D
330
14B2C
100
AcDbEntity
  8
0
 62
     4
100
AcDbTrace
 10
63.93034
 20
277.867374
 30
0.0
 11
65.421052
 21
276.492679
 31
0.0
 12
64.89228
 22
276.082244
 32
0.0
 13
63.93034
 23
277.867374
 33
0.0
  0
ENDBLK
  5
14B2F
330
14B2C
100
AcDbEntity
  8
0
100
AcDbBlockEnd
  0
BLOCK
  5
14B3A
330
14B30
100
AcDbEntity
  8
0
100
AcDbBlockBegin
  2
_D0
 70
     0
 10
0.0
 20
0.0
 30
0.0
  3
_D0
  1

  0
LINE
  5
14B31
330
14B30
100
AcDbEntity
  8
1
  6
Continuous
 62
     4
370
    -2
100
AcDbLine
 10
181.0461
 20
1286.095874999999
 30
0.0
 11
181.0461
 21
1249.0
 31
0.0
  0
LINE
  5
14B32
330
14B30
100
AcDbEntity
  8
1
  6
Continuous
 62
     4
370
    -2
100
AcDbLine
 10
391.0461
 20
1286.095874999999
 30
0.0
 11
391.0461
 21
1249.0
 31
0.0
  0
LINE
  5
14B33
330
14B30
100
AcDbEntity
  8
1
  6
Continuous
 62
     4
370
    -2
100
AcDbLine
 10
183.0461
 20
1250.0
 30
0.0
 11
389.0461
 21
1250.0
 31
0.0
  0
SOLID
  5
14B34
330
14B30
100
AcDbEntity
  8
1
  6
Continuous
 62
     4
370
     0
100
AcDbTrace
 10
183.0461
 20
1250.333333333333
 30
0.0
 11
183.0461
 21
1249.666666666666
 31
0.0
 12
181.0461
 22
1250.0
 32
0.0
 13
181.0461
 23
1250.0
 33
0.0
  0
SOLID
  5
14B35
330
14B30
100
AcDbEntity
  8
1
  6
Continuous
 62
     4
370
     0
100
AcDbTrace
 10
389.0461
 20
1250.333333333333
 30
0.0
 11
389.0461
 21
1249.666666666666
 31
0.0
 12
391.0461
 22
1250.0
 32
0.0
 13
391.0461
 23
1250.0
 33
0.0
  0
MTEXT
  5
14B36
330
14B30
100
AcDbEntity
  8
1
  6
Continuous
 62
     2
100
AcDbMText
 10
286.0461
 20
1251.25
 30
0.0
 40
2.5
 41
0.0
 71
     5
 72
     1
  1
\A1; 210 
 73
     1
 44
1.0
  0
POINT
  5
14B37
330
14B30
100
AcDbEntity
  8
DEFPOINTS
  6
Continuous
 62
     0
370
     0
100
AcDbPoint
 10
181.0461
 20
1287.095875
 30
0.0
  0
POINT
  5
14B38
330
14B30
100
AcDbEntity
  8
DEFPOINTS
  6
Continuous
 62
     0
370
     0
100
AcDbPoint
 10
391.0461
 20
1287.095875
 30
0.0
  0
POINT
  5
14B39
330
14B30
100
AcDbEntity
  8
DEFPOINTS
  6
Continuous
 62
     0
370
     0
100
AcDbPoint
 10
391.0461
 20
1250.0
 30
0.0
  0
ENDBLK
  5
14B3B
330
14B30
100
AcDbEntity
  8
0
100
AcDbBlockEnd
  0
BLOCK
  5
14B46
330
14B3C
100
AcDbEntity
  8
0
100
AcDbBlockBegin
  2
_D6
 70
     0
 10
0.0
 20
0.0
 30
0.0
  3
_D6
  1

  0
LINE
  5
14B3D
330
14B3C
100
AcDbEntity
  8
1
  6
Continuous
 62
     4
370
    -2
100
AcDbLine
 10
247.0460999999999
 20
1408.595875
 30
0.0
 11
247.0460999999999
 21
1374.0
 31
0.0
  0
LINE
  5
14B3E
330
14B3C
100
AcDbEntity
  8
1
  6
Continuous
 62
     4
370
    -2
100
AcDbLine
 10
325.0461
 20
1408.595875
 30
0.0
 11
325.0461
 21
1374.0
 31
0.0
  0
LINE
  5
14B3F
330
14B3C
100
AcDbEntity
  8
1
  6
Continuous
 62
     4
370
    -2
100
AcDbLine
 10
249.0460999999999
 20
1375.0
 30
0.0
 11
323.0461
 21
1375.0
 31
0.0
  0
SOLID
  5
14B40
330
14B3C
100
AcDbEntity
  8
1
  6
Continuous
 62
     4
370
     0
100
AcDbTrace
 10
249.0460999999999
 20
1375.333333333333
 30
0.0
 11
249.0460999999999
 21
1374.666666666666
 31
0.0
 12
247.0460999999999
 22
1375.0
 32
0.0
 13
247.0460999999999
 23
1375.0
 33
0.0
  0
SOLID
  5
14B41
330
14B3C
100
AcDbEntity
  8
1
  6
Continuous
 62
     4
370
     0
100
AcDbTrace
 10
323.0461
 20
1375.333333333333
 30
0.0
 11
323.0461
 21
1374.666666666666
 31
0.0
 12
325.0461
 22
1375.0
 32
0.0
 13
325.0461
 23
1375.0
 33
0.0
  0
MTEXT
  5
14B42
330
14B3C
100
AcDbEntity
  8
1
  6
Continuous
 62
     2
100
AcDbMText
 10
286.0461
 20
1376.25
 30
0.0
 40
2.5
 41
0.0
 71
     5
 72
     1
  1
\A1; 78 
 73
     1
 44
1.0
  0
POINT
  5
14B43
330
14B3C
100
AcDbEntity
  8
DEFPOINTS
  6
Continuous
 62
     0
370
     0
100
AcDbPoint
 10
247.0460999999999
 20
1409.595874999999
 30
0.0
  0
POINT
  5
14B44
330
14B3C
100
AcDbEntity
  8
DEFPOINTS
  6
Continuous
 62
     0
370
     0
100
AcDbPoint
 10
325.0461
 20
1409.595874999999
 30
0.0
  0
POINT
  5
14B45
330
14B3C
100
AcDbEntity
  8
DEFPOINTS
  6
Continuous
 62
     0
370
     0
100
AcDbPoint
 10
325.0461
 20
1375.0
 30
0.0
  0
ENDBLK
  5
14B47
330
14B3C
100
AcDbEntity
  8
0
100
AcDbBlockEnd
  0
BLOCK
  5
14B52
330
14B48
100
AcDbEntity
  8
0
100
AcDbBlockBegin
  2
_D16
 70
     0
 10
0.0
 20
0.0
 30
0.0
  3
_D16
  1

  0
LINE
  5
14B49
330
14B48
100
AcDbEntity
  8
1
  6
Continuous
 62
     4
370
    -2
100
AcDbLine
 10
216.0461
 20
760.095875
 30
0.0
 11
216.0461
 21
661.5
 31
0.0
  0
LINE
  5
14B4A
330
14B48
100
AcDbEntity
  8
1
  6
Continuous
 62
     4
370
    -2
100
AcDbLine
 10
286.0460999999999
 20
760.095875
 30
0.0
 11
286.0460999999999
 21
661.5
 31
0.0
  0
LINE
  5
14B4B
330
14B48
100
AcDbEntity
  8
1
  6
Continuous
 62
     4
370
    -2
100
AcDbLine
 10
218.0461
 20
662.5
 30
0.0
 11
284.0460999999999
 21
662.5
 31
0.0
  0
SOLID
  5
14B4C
330
14B48
100
AcDbEntity
  8
1
  6
Continuous
 62
     4
370
     0
100
AcDbTrace
 10
218.0461
 20
662.8333333333333
 30
0.0
 11
218.0461
 21
662.1666666666666
 31
0.0
 12
216.0461
 22
662.5
 32
0.0
 13
216.0461
 23
662.5
 33
0.0
  0
SOLID
  5
14B4D
330
14B48
100
AcDbEntity
  8
1
  6
Continuous
 62
     4
370
     0
100
AcDbTrace
 10
284.0460999999999
 20
662.8333333333333
 30
0.0
 11
284.0460999999999
 21
662.1666666666666
 31
0.0
 12
286.0460999999999
 22
662.5
 32
0.0
 13
286.0460999999999
 23
662.5
 33
0.0
  0
MTEXT
  5
14B4E
330
14B48
100
AcDbEntity
  8
1
  6
Continuous
 62
     2
100
AcDbMText
 10
251.0460999999999
 20
663.75
 30
0.0
 40
2.5
 41
0.0
 71
     5
 72
     1
  1
\A1; 70 
 73
     1
 44
1.0
  0
POINT
  5
14B4F
330
14B48
100
AcDbEntity
  8
DEFPOINTS
  6
Continuous
 62
     0
370
     0
100
AcDbPoint
 10
216.0461
 20
761.0958749999999
 30
0.0
  0
POINT
  5
14B50
330
14B48
100
AcDbEntity
  8
DEFPOINTS
  6
Continuous
 62
     0
370
     0
100
AcDbPoint
 10
286.0460999999999
 20
761.0958749999999
 30
0.0
  0
POINT
  5
14B51
330
14B48
100
AcDbEntity
  8
DEFPOINTS
  6
Continuous
 62
     0
370
     0
100
AcDbPoint
 10
286.0460999999999
 20
662.5
 30
0.0
  0
ENDBLK
  5
14B53
330
14B48
100
AcDbEntity
  8
0
100
AcDbBlockEnd
  0
BLOCK
  5
14B5E
330
14B54
100
AcDbEntity
  8
0
100
AcDbBlockBegin
  2
_D17
 70
     0
 10
0.0
 20
0.0
 30
0.0
  3
_D17
  1

  0
LINE
  5
14B55
330
14B54
100
AcDbEntity
  8
1
  6
Continuous
 62
     4
370
    -2
100
AcDbLine
 10
286.0460999999999
 20
760.095875
 30
0.0
 11
286.0460999999999
 21
661.5
 31
0.0
  0
LINE
  5
14B56
330
14B54
100
AcDbEntity
  8
1
  6
Continuous
 62
     4
370
    -2
100
AcDbLine
 10
356.0461
 20
760.095875
 30
0.0
 11
356.0461
 21
661.5
 31
0.0
  0
LINE
  5
14B57
330
14B54
100
AcDbEntity
  8
1
  6
Continuous
 62
     4
370
    -2
100
AcDbLine
 10
288.0461
 20
662.5
 30
0.0
 11
354.0461
 21
662.5
 31
0.0
  0
SOLID
  5
14B58
330
14B54
100
AcDbEntity
  8
1
  6
Continuous
 62
     4
370
     0
100
AcDbTrace
 10
288.0461
 20
662.8333333333333
 30
0.0
 11
288.0461
 21
662.1666666666666
 31
0.0
 12
286.0460999999999
 22
662.5
 32
0.0
 13
286.0460999999999
 23
662.5
 33
0.0
  0
SOLID
  5
14B59
330
14B54
100
AcDbEntity
  8
1
  6
Continuous
 62
     4
370
     0
100
AcDbTrace
 10
354.0461
 20
662.8333333333333
 30
0.0
 11
354.0461
 21
662.1666666666666
 31
0.0
 12
356.0461
 22
662.5
 32
0.0
 13
356.0461
 23
662.5
 33
0.0
  0
MTEXT
  5
14B5A
330
14B54
100
AcDbEntity
  8
1
  6
Continuous
 62
     2
100
AcDbMText
 10
321.0461
 20
663.75
 30
0.0
 40
2.5
 41
0.0
 71
     5
 72
     1
  1
\A1; 70 
 73
     1
 44
1.0
  0
POINT
  5
14B5B
330
14B54
100
AcDbEntity
  8
DEFPOINTS
  6
Continuous
 62
     0
370
     0
100
AcDbPoint
 10
286.0460999999999
 20
761.0958749999999
 30
0.0
  0
POINT
  5
14B5C
330
14B54
100
AcDbEntity
  8
DEFPOINTS
  6
Continuous
 62
     0
370
     0
100
AcDbPoint
 10
356.0461
 20
761.0958749999999
 30
0.0
  0
POINT
  5
14B5D
330
14B54
100
AcDbEntity
  8
DEFPOINTS
  6
Continuous
 62
     0
370
     0
100
AcDbPoint
 10
356.0461
 20
662.5
 30
0.0
  0
ENDBLK
  5
14B5F
330
14B54
100
AcDbEntity
  8
0
100
AcDbBlockEnd
  0
BLOCK
  5
14B6A
330
14B60
100
AcDbEntity
  8
0
100
AcDbBlockBegin
  2
_D31
 70
     0
 10
0.0
 20
0.0
 30
0.0
  3
_D31
  1

  0
LINE
  5
14B61
330
14B60
100
AcDbEntity
  8
1
  6
Continuous
 62
     4
370
    -2
100
AcDbLine
 10
193.5461
 20
745.0958749999999
 30
0.0
 11
193.5461
 21
699.0
 31
0.0
  0
LINE
  5
14B62
330
14B60
100
AcDbEntity
  8
1
  6
Continuous
 62
     4
370
    -2
100
AcDbLine
 10
238.5461
 20
745.0958749999999
 30
0.0
 11
238.5461
 21
699.0
 31
0.0
  0
LINE
  5
14B63
330
14B60
100
AcDbEntity
  8
1
  6
Continuous
 62
     4
370
    -2
100
AcDbLine
 10
195.5461
 20
700.0
 30
0.0
 11
236.5461
 21
700.0
 31
0.0
  0
SOLID
  5
14B64
330
14B60
100
AcDbEntity
  8
1
  6
Continuous
 62
     4
370
     0
100
AcDbTrace
 10
195.5461
 20
700.3333333333333
 30
0.0
 11
195.5461
 21
699.6666666666666
 31
0.0
 12
193.5461
 22
700.0
 32
0.0
 13
193.5461
 23
700.0
 33
0.0
  0
SOLID
  5
14B65
330
14B60
100
AcDbEntity
  8
1
  6
Continuous
 62
     4
370
     0
100
AcDbTrace
 10
236.5461
 20
700.3333333333333
 30
0.0
 11
236.5461
 21
699.6666666666666
 31
0.0
 12
238.5461
 22
700.0
 32
0.0
 13
238.5461
 23
700.0
 33
0.0
  0
MTEXT
  5
14B66
330
14B60
100
AcDbEntity
  8
1
  6
Continuous
 62
     2
100
AcDbMText
 10
216.0461
 20
701.25
 30
0.0
 40
2.5
 41
0.0
 71
     5
 72
     1
  1
\A1; 45 
 73
     1
 44
1.0
  0
POINT
  5
14B67
330
14B60
100
AcDbEntity
  8
DEFPOINTS
  6
Continuous
 62
     0
370
     0
100
AcDbPoint
 10
193.5461
 20
746.0958749999999
 30
0.0
  0
POINT
  5
14B68
330
14B60
100
AcDbEntity
  8
DEFPOINTS
  6
Continuous
 62
     0
370
     0
100
AcDbPoint
 10
238.5461
 20
746.0958749999999
 30
0.0
  0
POINT
  5
14B69
330
14B60
100
AcDbEntity
  8
DEFPOINTS
  6
Continuous
 62
     0
370
     0
100
AcDbPoint
 10
238.5461
 20
700.0
 30
0.0
  0
ENDBLK
  5
14B6B
330
14B60
100
AcDbEntity
  8
0
100
AcDbBlockEnd
  0
BLOCK
  5
14B76
330
14B6C
100
AcDbEntity
  8
0
100
AcDbBlockBegin
  2
_D35
 70
     0
 10
0.0
 20
0.0
 30
0.0
  3
_D35
  1

  0
LINE
  5
14B6D
330
14B6C
100
AcDbEntity
  8
1
  6
Continuous
 62
     4
370
    -2
100
AcDbLine
 10
191.0461
 20
1514.595875
 30
0.0
 11
191.0461
 21
1551.0
 31
0.0
  0
LINE
  5
14B6E
330
14B6C
100
AcDbEntity
  8
1
  6
Continuous
 62
     4
370
    -2
100
AcDbLine
 10
381.0461
 20
1514.595875
 30
0.0
 11
381.0461
 21
1551.0
 31
0.0
  0
LINE
  5
14B6F
330
14B6C
100
AcDbEntity
  8
1
  6
Continuous
 62
     4
370
    -2
100
AcDbLine
 10
193.0461
 20
1550.0
 30
0.0
 11
379.0461
 21
1550.0
 31
0.0
  0
SOLID
  5
14B70
330
14B6C
100
AcDbEntity
  8
1
  6
Continuous
 62
     4
370
     0
100
AcDbTrace
 10
193.0461
 20
1550.333333333333
 30
0.0
 11
193.0461
 21
1549.666666666666
 31
0.0
 12
191.0461
 22
1550.0
 32
0.0
 13
191.0461
 23
1550.0
 33
0.0
  0
SOLID
  5
14B71
330
14B6C
100
AcDbEntity
  8
1
  6
Continuous
 62
     4
370
     0
100
AcDbTrace
 10
379.0461
 20
1550.333333333333
 30
0.0
 11
379.0461
 21
1549.666666666666
 31
0.0
 12
381.0461
 22
1550.0
 32
0.0
 13
381.0461
 23
1550.0
 33
0.0
  0
MTEXT
  5
14B72
330
14B6C
100
AcDbEntity
  8
1
  6
Continuous
 62
     2
100
AcDbMText
 10
286.0461
 20
1551.25
 30
0.0
 40
2.5
 41
0.0
 71
     5
 72
     1
  1
\A1; 190 
 73
     1
 44
1.0
  0
POINT
  5
14B73
330
14B6C
100
AcDbEntity
  8
DEFPOINTS
  6
Continuous
 62
     0
370
     0
100
AcDbPoint
 10
191.0461
 20
1513.595875
 30
0.0
  0
POINT
  5
14B74
330
14B6C
100
AcDbEntity
  8
DEFPOINTS
  6
Continuous
 62
     0
370
     0
100
AcDbPoint
 10
381.0461
 20
1513.595875
 30
0.0
  0
POINT
  5
14B75
330
14B6C
100
AcDbEntity
  8
DEFPOINTS
  6
Continuous
 62
     0
370
     0
100
AcDbPoint
 10
381.0461
 20
1550.0
 30
0.0
  0
ENDBLK
  5
14B77
330
14B6C
100
AcDbEntity
  8
0
100
AcDbBlockEnd
  0
BLOCK
  5
14D52
330
14D48
100
AcDbEntity
  8
0
100
AcDbBlockBegin
  2
*D119
 70
     1
 10
0.0
 20
0.0
 30
0.0
  3
*D119
  1

  0
LINE
  5
14DC3
330
14D48
100
AcDbEntity
  8
30
  6
Continuous
 62
     0
370
    -2
100
AcDbLine
 10
0.0000000000000002
 20
566.0
 30
0.0
 11
0.0000000000000023
 21
601.095875
 31
0.0
  0
LINE
  5
14DC4
330
14D48
100
AcDbEntity
  8
30
  6
Continuous
 62
     0
370
    -2
100
AcDbLine
 10
70.00000000000006
 20
566.0
 30
0.0
 11
70.00000000000006
 21
601.095875
 31
0.0
  0
LINE
  5
14DC5
330
14D48
100
AcDbEntity
  8
30
  6
Continuous
 62
     0
370
    -2
100
AcDbLine
 10
2.000000000000002
 20
600.5958749999999
 30
0.0
 11
68.00000000000006
 21
600.5958749999999
 31
0.0
  0
INSERT
  5
14DC6
330
14D48
100
AcDbEntity
  8
30
  6
Continuous
 62
     0
370
    -2
100
AcDbBlockReference
  2
_OPEN
 10
0.0000000000000023
 20
600.5958749999999
 30
0.0
 41
2.0
 42
2.0
 43
2.0
 50
180.0
  0
INSERT
  5
14DC7
330
14D48
100
AcDbEntity
  8
30
  6
Continuous
 62
     0
370
    -2
100
AcDbBlockReference
  2
_OPEN
 10
70.00000000000006
 20
600.5958749999999
 30
0.0
 41
2.0
 42
2.0
 43
2.0
  0
MTEXT
  5
14DC8
330
14D48
100
AcDbEntity
  8
30
  6
Continuous
 62
     0
100
AcDbMText
 10
35.00000000000003
 20
606.595875
 30
0.0
 40
6.0
 41
0.0
 71
     5
 72
     1
  1
\A1; 70 
 73
     1
 44
1.0
  0
POINT
  5
14DC9
330
14D48
100
AcDbEntity
  8
DEFPOINTS
  6
Continuous
 62
     0
100
AcDbPoint
 10
0.0
 20
563.0
 30
0.0
  0
POINT
  5
14DCA
330
14D48
100
AcDbEntity
  8
DEFPOINTS
  6
Continuous
 62
     0
100
AcDbPoint
 10
70.00000000000006
 20
563.0
 30
0.0
  0
POINT
  5
14DCB
330
14D48
100
AcDbEntity
  8
DEFPOINTS
  6
Continuous
 62
     0
100
AcDbPoint
 10
70.00000000000006
 20
600.5958749999999
 30
0.0
  0
ENDBLK
  5
14D53
330
14D48
100
AcDbEntity
  8
0
100
AcDbBlockEnd
  0
BLOCK
  5
14D6A
330
14D60
100
AcDbEntity
  8
0
100
AcDbBlockBegin
  2
*D121
 70
     1
 10
0.0
 20
0.0
 30
0.0
  3
*D121
  1

  0
LINE
  5
14DCC
330
14D60
100
AcDbEntity
  8
30
  6
Continuous
 62
     0
370
    -2
100
AcDbLine
 10
-69.99999999999994
 20
566.0
 30
0.0
 11
-69.99999999999994
 21
601.095875
 31
0.0
  0
LINE
  5
14DCD
330
14D60
100
AcDbEntity
  8
30
  6
Continuous
 62
     0
370
    -2
100
AcDbLine
 10
0.0000000000000002
 20
566.0
 30
0.0
 11
0.0000000000000023
 21
601.095875
 31
0.0
  0
LINE
  5
14DCE
330
14D60
100
AcDbEntity
  8
30
  6
Continuous
 62
     0
370
    -2
100
AcDbLine
 10
-67.99999999999994
 20
600.5958749999999
 30
0.0
 11
-1.999999999999997
 21
600.5958749999999
 31
0.0
  0
INSERT
  5
14DCF
330
14D60
100
AcDbEntity
  8
30
  6
Continuous
 62
     0
370
    -2
100
AcDbBlockReference
  2
_OPEN
 10
-69.99999999999994
 20
600.5958749999999
 30
0.0
 41
2.0
 42
2.0
 43
2.0
 50
180.0
  0
INSERT
  5
14DD0
330
14D60
100
AcDbEntity
  8
30
  6
Continuous
 62
     0
370
    -2
100
AcDbBlockReference
  2
_OPEN
 10
0.0000000000000023
 20
600.5958749999999
 30
0.0
 41
2.0
 42
2.0
 43
2.0
  0
MTEXT
  5
14DD1
330
14D60
100
AcDbEntity
  8
30
  6
Continuous
 62
     0
100
AcDbMText
 10
-34.99999999999997
 20
606.595875
 30
0.0
 40
6.0
 41
0.0
 71
     5
 72
     1
  1
\A1; 70 
 73
     1
 44
1.0
  0
POINT
  5
14DD2
330
14D60
100
AcDbEntity
  8
DEFPOINTS
  6
Continuous
 62
     0
100
AcDbPoint
 10
-69.99999999999994
 20
563.0
 30
0.0
  0
POINT
  5
14DD3
330
14D60
100
AcDbEntity
  8
DEFPOINTS
  6
Continuous
 62
     0
100
AcDbPoint
 10
0.0
 20
563.0
 30
0.0
  0
POINT
  5
14DD4
330
14D60
100
AcDbEntity
  8
DEFPOINTS
  6
Continuous
 62
     0
100
AcDbPoint
 10
0.0000000000000023
 20
600.5958749999999
 30
0.0
  0
ENDBLK
  5
14D6B
330
14D60
100
AcDbEntity
  8
0
100
AcDbBlockEnd
  0
BLOCK
  5
14E1C
330
14E12
100
AcDbEntity
  8
0
100
AcDbBlockBegin
  2
*D122
 70
     1
 10
0.0
 20
0.0
 30
0.0
  3
*D122
  1

  0
LINE
  5
14E13
330
14E12
100
AcDbEntity
  8
30
  6
Continuous
 62
     0
370
    -2
100
AcDbLine
 10
-95.00000000000023
 20
47.5
 30
0.0
 11
-130.4999999999999
 21
47.5
 31
0.0
  0
LINE
  5
14E14
330
14E12
100
AcDbEntity
  8
30
  6
Continuous
 62
     0
370
    -2
100
AcDbLine
 10
-95.00000000000023
 20
-47.5
 30
0.0
 11
-130.4999999999999
 21
-47.49999999999999
 31
0.0
  0
LINE
  5
14E15
330
14E12
100
AcDbEntity
  8
30
  6
Continuous
 62
     0
370
    -2
100
AcDbLine
 10
-130.0
 20
45.5
 30
0.0
 11
-130.0
 21
-45.49999999999999
 31
0.0
  0
INSERT
  5
14E16
330
14E12
100
AcDbEntity
  8
30
  6
Continuous
 62
     0
370
    -2
100
AcDbBlockReference
  2
_OPEN
 10
-130.0
 20
47.5
 30
0.0
 41
2.0
 42
2.0
 43
2.0
 50
90.0
  0
INSERT
  5
14E17
330
14E12
100
AcDbEntity
  8
30
  6
Continuous
 62
     0
370
    -2
100
AcDbBlockReference
  2
_OPEN
 10
-130.0
 20
-47.49999999999999
 30
0.0
 41
2.0
 42
2.0
 43
2.0
 50
270.0
  0
MTEXT
  5
14E18
330
14E12
100
AcDbEntity
  8
30
  6
Continuous
 62
     0
100
AcDbMText
 10
-136.0
 20
-0.0000000000000126
 30
0.0
 40
6.0
 41
0.0
 71
     5
 72
     1
  1
\A1;95
 11
0.0000000000000001
 21
1.0
 31
0.0
 73
     1
 44
1.0
  0
POINT
  5
14E19
330
14E12
100
AcDbEntity
  8
DEFPOINTS
  6
Continuous
 62
     0
100
AcDbPoint
 10
-92.00000000000022
 20
47.5
 30
0.0
  0
POINT
  5
14E1A
330
14E12
100
AcDbEntity
  8
DEFPOINTS
  6
Continuous
 62
     0
100
AcDbPoint
 10
-92.00000000000022
 20
-47.5
 30
0.0
  0
POINT
  5
14E1B
330
14E12
100
AcDbEntity
  8
DEFPOINTS
  6
Continuous
 62
     0
100
AcDbPoint
 10
-130.0
 20
-47.49999999999999
 30
0.0
  0
ENDBLK
  5
14E1D
330
14E12
100
AcDbEntity
  8
0
100
AcDbBlockEnd
  0
BLOCK
  5
14E29
330
14E1F
100
AcDbEntity
  8
0
100
AcDbBlockBegin
  2
*D123
 70
     1
 10
0.0
 20
0.0
 30
0.0
  3
*D123
  1

  0
LINE
  5
14E20
330
14E1F
100
AcDbEntity
  8
30
  6
Continuous
 62
     0
370
    -2
100
AcDbLine
 10
-108.0
 20
170.0
 30
0.0
 11
-150.4999999999999
 21
170.0
 31
0.0
  0
LINE
  5
14E21
330
14E1F
100
AcDbEntity
  8
30
  6
Continuous
 62
     0
370
    -2
100
AcDbLine
 10
-108.0
 20
-140.0
 30
0.0
 11
-150.5
 21
-140.0
 31
0.0
  0
LINE
  5
14E22
330
14E1F
100
AcDbEntity
  8
30
  6
Continuous
 62
     0
370
    -2
100
AcDbLine
 10
-149.9999999999999
 20
168.0
 30
0.0
 11
-150.0
 21
-138.0
 31
0.0
  0
INSERT
  5
14E23
330
14E1F
100
AcDbEntity
  8
30
  6
Continuous
 62
     0
370
    -2
100
AcDbBlockReference
  2
_OPEN
 10
-149.9999999999999
 20
170.0
 30
0.0
 41
2.0
 42
2.0
 43
2.0
 50
90.0
  0
INSERT
  5
14E24
330
14E1F
100
AcDbEntity
  8
30
  6
Continuous
 62
     0
370
    -2
100
AcDbBlockReference
  2
_OPEN
 10
-150.0
 20
-140.0
 30
0.0
 41
2.0
 42
2.0
 43
2.0
 50
270.0
  0
MTEXT
  5
14E25
330
14E1F
100
AcDbEntity
  8
30
  6
Continuous
 62
     0
100
AcDbMText
 10
-155.9999999999999
 20
14.99999999999998
 30
0.0
 40
6.0
 41
0.0
 71
     5
 72
     1
  1
\A1;310
 11
0.0000000000000001
 21
1.0
 31
0.0
 73
     1
 44
1.0
  0
POINT
  5
14E26
330
14E1F
100
AcDbEntity
  8
DEFPOINTS
  6
Continuous
 62
     0
100
AcDbPoint
 10
-105.0
 20
170.0
 30
0.0
  0
POINT
  5
14E27
330
14E1F
100
AcDbEntity
  8
DEFPOINTS
  6
Continuous
 62
     0
100
AcDbPoint
 10
-105.0
 20
-140.0
 30
0.0
  0
POINT
  5
14E28
330
14E1F
100
AcDbEntity
  8
DEFPOINTS
  6
Continuous
 62
     0
100
AcDbPoint
 10
-150.0
 20
-140.0
 30
0.0
  0
ENDBLK
  5
14E2A
330
14E1F
100
AcDbEntity
  8
0
100
AcDbBlockEnd
  0
BLOCK
  5
14E36
330
14E2C
100
AcDbEntity
  8
0
100
AcDbBlockBegin
  2
*D124
 70
     1
 10
0.0
 20
0.0
 30
0.0
  3
*D124
  1

  0
LINE
  5
14E2D
330
14E2C
100
AcDbEntity
  8
30
  6
Continuous
 62
     0
370
    -2
100
AcDbLine
 10
-108.0
 20
200.0
 30
0.0
 11
-170.4999999999999
 21
200.0
 31
0.0
  0
LINE
  5
14E2E
330
14E2C
100
AcDbEntity
  8
30
  6
Continuous
 62
     0
370
    -2
100
AcDbLine
 10
-108.0
 20
-170.0
 30
0.0
 11
-170.5
 21
-170.0
 31
0.0
  0
LINE
  5
14E2F
330
14E2C
100
AcDbEntity
  8
30
  6
Continuous
 62
     0
370
    -2
100
AcDbLine
 10
-169.9999999999999
 20
198.0
 30
0.0
 11
-170.0
 21
-168.0
 31
0.0
  0
INSERT
  5
14E30
330
14E2C
100
AcDbEntity
  8
30
  6
Continuous
 62
     0
370
    -2
100
AcDbBlockReference
  2
_OPEN
 10
-169.9999999999999
 20
200.0
 30
0.0
 41
2.0
 42
2.0
 43
2.0
 50
90.0
  0
INSERT
  5
14E31
330
14E2C
100
AcDbEntity
  8
30
  6
Continuous
 62
     0
370
    -2
100
AcDbBlockReference
  2
_OPEN
 10
-170.0
 20
-170.0
 30
0.0
 41
2.0
 42
2.0
 43
2.0
 50
270.0
  0
MTEXT
  5
14E32
330
14E2C
100
AcDbEntity
  8
30
  6
Continuous
 62
     0
100
AcDbMText
 10
-175.9999999999999
 20
14.99999999999998
 30
0.0
 40
6.0
 41
0.0
 71
     5
 72
     1
  1
\A1;370
 11
0.0000000000000001
 21
1.0
 31
0.0
 73
     1
 44
1.0
  0
POINT
  5
14E33
330
14E2C
100
AcDbEntity
  8
DEFPOINTS
  6
Continuous
 62
     0
100
AcDbPoint
 10
-105.0
 20
200.0
 30
0.0
  0
POINT
  5
14E34
330
14E2C
100
AcDbEntity
  8
DEFPOINTS
  6
Continuous
 62
     0
100
AcDbPoint
 10
-105.0
 20
-170.0
 30
0.0
  0
POINT
  5
14E35
330
14E2C
100
AcDbEntity
  8
DEFPOINTS
  6
Continuous
 62
     0
100
AcDbPoint
 10
-170.0
 20
-170.0
 30
0.0
  0
ENDBLK
  5
14E37
330
14E2C
100
AcDbEntity
  8
0
100
AcDbBlockEnd
  0
BLOCK
  5
14E42
330
14E38
100
AcDbEntity
  8
0
100
AcDbBlockBegin
  2
_D2
 70
     0
 10
0.0
 20
0.0
 30
0.0
  3
_D2
  1

  0
LINE
  5
14E39
330
14E38
100
AcDbEntity
  8
1
  6
Continuous
 62
     4
370
    -2
100
AcDbLine
 10
1775.8461
 20
1668.095874999999
 30
0.0
 11
1775.8461
 21
1713.5
 31
0.0
  0
LINE
  5
14E3A
330
14E38
100
AcDbEntity
  8
1
  6
Continuous
 62
     4
370
    -2
100
AcDbLine
 10
1985.8461
 20
1668.095874999999
 30
0.0
 11
1985.8461
 21
1713.5
 31
0.0
  0
LINE
  5
14E3B
330
14E38
100
AcDbEntity
  8
1
  6
Continuous
 62
     4
370
    -2
100
AcDbLine
 10
1777.8461
 20
1712.5
 30
0.0
 11
1983.8461
 21
1712.5
 31
0.0
  0
SOLID
  5
14E3C
330
14E38
100
AcDbEntity
  8
1
  6
Continuous
 62
     4
370
     0
100
AcDbTrace
 10
1777.8461
 20
1712.833333333333
 30
0.0
 11
1777.8461
 21
1712.166666666666
 31
0.0
 12
1775.8461
 22
1712.5
 32
0.0
 13
1775.8461
 23
1712.5
 33
0.0
  0
SOLID
  5
14E3D
330
14E38
100
AcDbEntity
  8
1
  6
Continuous
 62
     4
370
     0
100
AcDbTrace
 10
1983.8461
 20
1712.833333333333
 30
0.0
 11
1983.8461
 21
1712.166666666666
 31
0.0
 12
1985.8461
 22
1712.5
 32
0.0
 13
1985.8461
 23
1712.5
 33
0.0
  0
MTEXT
  5
14E3E
330
14E38
100
AcDbEntity
  8
1
  6
Continuous
 62
     2
100
AcDbMText
 10
1880.8461
 20
1713.75
 30
0.0
 40
2.5
 41
0.0
 71
     5
 72
     1
  1
\A1; 210 
 73
     1
 44
1.0
  0
POINT
  5
14E3F
330
14E38
100
AcDbEntity
  8
DEFPOINTS
  6
Continuous
 62
     0
370
     0
100
AcDbPoint
 10
1775.8461
 20
1667.095875
 30
0.0
  0
POINT
  5
14E40
330
14E38
100
AcDbEntity
  8
DEFPOINTS
  6
Continuous
 62
     0
370
     0
100
AcDbPoint
 10
1985.8461
 20
1667.095875
 30
0.0
  0
POINT
  5
14E41
330
14E38
100
AcDbEntity
  8
DEFPOINTS
  6
Continuous
 62
     0
370
     0
100
AcDbPoint
 10
1985.8461
 20
1712.5
 30
0.0
  0
ENDBLK
  5
14E43
330
14E38
100
AcDbEntity
  8
0
100
AcDbBlockEnd
  0
BLOCK
  5
14E4E
330
14E44
100
AcDbEntity
  8
0
100
AcDbBlockBegin
  2
_D3
 70
     0
 10
0.0
 20
0.0
 30
0.0
  3
_D3
  1

  0
LINE
  5
14E45
330
14E44
100
AcDbEntity
  8
1
  6
Continuous
 62
     4
370
    -2
100
AcDbLine
 10
1775.8461
 20
1668.095874999999
 30
0.0
 11
1775.8461
 21
1751.0
 31
0.0
  0
LINE
  5
14E46
330
14E44
100
AcDbEntity
  8
1
  6
Continuous
 62
     4
370
    -2
100
AcDbLine
 10
2055.846099999999
 20
1668.095874999999
 30
0.0
 11
2055.846099999999
 21
1751.0
 31
0.0
  0
LINE
  5
14E47
330
14E44
100
AcDbEntity
  8
1
  6
Continuous
 62
     4
370
    -2
100
AcDbLine
 10
1777.8461
 20
1750.0
 30
0.0
 11
2053.846099999999
 21
1750.0
 31
0.0
  0
SOLID
  5
14E48
330
14E44
100
AcDbEntity
  8
1
  6
Continuous
 62
     4
370
     0
100
AcDbTrace
 10
1777.8461
 20
1750.333333333333
 30
0.0
 11
1777.8461
 21
1749.666666666666
 31
0.0
 12
1775.8461
 22
1750.0
 32
0.0
 13
1775.8461
 23
1750.0
 33
0.0
  0
SOLID
  5
14E49
330
14E44
100
AcDbEntity
  8
1
  6
Continuous
 62
     4
370
     0
100
AcDbTrace
 10
2053.846099999999
 20
1750.333333333333
 30
0.0
 11
2053.846099999999
 21
1749.666666666666
 31
0.0
 12
2055.846099999999
 22
1750.0
 32
0.0
 13
2055.846099999999
 23
1750.0
 33
0.0
  0
MTEXT
  5
14E4A
330
14E44
100
AcDbEntity
  8
1
  6
Continuous
 62
     2
100
AcDbMText
 10
1915.846099999999
 20
1751.249999999999
 30
0.0
 40
2.5
 41
0.0
 71
     5
 72
     1
  1
\A1; 280 
 73
     1
 44
1.0
  0
POINT
  5
14E4B
330
14E44
100
AcDbEntity
  8
DEFPOINTS
  6
Continuous
 62
     0
370
     0
100
AcDbPoint
 10
1775.8461
 20
1667.095875
 30
0.0
  0
POINT
  5
14E4C
330
14E44
100
AcDbEntity
  8
DEFPOINTS
  6
Continuous
 62
     0
370
     0
100
AcDbPoint
 10
2055.846099999999
 20
1667.095875
 30
0.0
  0
POINT
  5
14E4D
330
14E44
100
AcDbEntity
  8
DEFPOINTS
  6
Continuous
 62
     0
370
     0
100
AcDbPoint
 10
2055.846099999999
 20
1750.0
 30
0.0
  0
ENDBLK
  5
14E4F
330
14E44
100
AcDbEntity
  8
0
100
AcDbBlockEnd
  0
BLOCK
  5
14E5A
330
14E50
100
AcDbEntity
  8
0
100
AcDbBlockBegin
  2
_D4
 70
     0
 10
0.0
 20
0.0
 30
0.0
  3
_D4
  1

  0
LINE
  5
14E51
330
14E50
100
AcDbEntity
  8
1
  6
Continuous
 62
     4
370
    -2
100
AcDbLine
 10
1784.3461
 20
1410.095875
 30
0.0
 11
1784.3461
 21
1244.06946
 31
0.0
  0
LINE
  5
14E52
330
14E50
100
AcDbEntity
  8
1
  6
Continuous
 62
     4
370
    -2
100
AcDbLine
 10
1977.3461
 20
1410.095875
 30
0.0
 11
1977.3461
 21
1244.06946
 31
0.0
  0
LINE
  5
14E53
330
14E50
100
AcDbEntity
  8
1
  6
Continuous
 62
     4
370
    -2
100
AcDbLine
 10
1786.3461
 20
1245.06946
 30
0.0
 11
1975.3461
 21
1245.06946
 31
0.0
  0
SOLID
  5
14E54
330
14E50
100
AcDbEntity
  8
1
  6
Continuous
 62
     4
370
     0
100
AcDbTrace
 10
1786.3461
 20
1245.402793333333
 30
0.0
 11
1786.3461
 21
1244.736126666666
 31
0.0
 12
1784.3461
 22
1245.06946
 32
0.0
 13
1784.3461
 23
1245.06946
 33
0.0
  0
SOLID
  5
14E55
330
14E50
100
AcDbEntity
  8
1
  6
Continuous
 62
     4
370
     0
100
AcDbTrace
 10
1975.3461
 20
1245.402793333333
 30
0.0
 11
1975.3461
 21
1244.736126666666
 31
0.0
 12
1977.3461
 22
1245.06946
 32
0.0
 13
1977.3461
 23
1245.06946
 33
0.0
  0
MTEXT
  5
14E56
330
14E50
100
AcDbEntity
  8
1
  6
Continuous
 62
     2
100
AcDbMText
 10
1880.8461
 20
1246.31946
 30
0.0
 40
2.5
 41
0.0
 71
     5
 72
     1
  1
\A1; 193 
 73
     1
 44
1.0
  0
POINT
  5
14E57
330
14E50
100
AcDbEntity
  8
DEFPOINTS
  6
Continuous
 62
     0
370
     0
100
AcDbPoint
 10
1784.3461
 20
1411.095874999999
 30
0.0
  0
POINT
  5
14E58
330
14E50
100
AcDbEntity
  8
DEFPOINTS
  6
Continuous
 62
     0
370
     0
100
AcDbPoint
 10
1977.3461
 20
1411.095874999999
 30
0.0
  0
POINT
  5
14E59
330
14E50
100
AcDbEntity
  8
DEFPOINTS
  6
Continuous
 62
     0
370
     0
100
AcDbPoint
 10
1977.3461
 20
1245.06946
 30
0.0
  0
ENDBLK
  5
14E5B
330
14E50
100
AcDbEntity
  8
0
100
AcDbBlockEnd
  0
BLOCK
  5
14E66
330
14E5C
100
AcDbEntity
  8
0
100
AcDbBlockBegin
  2
_D8
 70
     0
 10
0.0
 20
0.0
 30
0.0
  3
_D8
  1

  0
LINE
  5
14E5D
330
14E5C
100
AcDbEntity
  8
1
  6
Continuous
 62
     4
370
    -2
100
AcDbLine
 10
1845.8461
 20
522.095875
 30
0.0
 11
1845.8461
 21
461.5
 31
0.0
  0
LINE
  5
14E5E
330
14E5C
100
AcDbEntity
  8
1
  6
Continuous
 62
     4
370
    -2
100
AcDbLine
 10
1915.846099999999
 20
522.095875
 30
0.0
 11
1915.846099999999
 21
461.5
 31
0.0
  0
LINE
  5
14E5F
330
14E5C
100
AcDbEntity
  8
1
  6
Continuous
 62
     4
370
    -2
100
AcDbLine
 10
1847.846099999999
 20
462.5
 30
0.0
 11
1913.846099999999
 21
462.5
 31
0.0
  0
SOLID
  5
14E60
330
14E5C
100
AcDbEntity
  8
1
  6
Continuous
 62
     4
370
     0
100
AcDbTrace
 10
1847.846099999999
 20
462.8333333333332
 30
0.0
 11
1847.846099999999
 21
462.1666666666667
 31
0.0
 12
1845.8461
 22
462.5
 32
0.0
 13
1845.8461
 23
462.5
 33
0.0
  0
SOLID
  5
14E61
330
14E5C
100
AcDbEntity
  8
1
  6
Continuous
 62
     4
370
     0
100
AcDbTrace
 10
1913.846099999999
 20
462.8333333333332
 30
0.0
 11
1913.846099999999
 21
462.1666666666667
 31
0.0
 12
1915.846099999999
 22
462.5
 32
0.0
 13
1915.846099999999
 23
462.5
 33
0.0
  0
MTEXT
  5
14E62
330
14E5C
100
AcDbEntity
  8
1
  6
Continuous
 62
     2
100
AcDbMText
 10
1880.8461
 20
463.75
 30
0.0
 40
2.5
 41
0.0
 71
     5
 72
     1
  1
\A1; 70 
 73
     1
 44
1.0
  0
POINT
  5
14E63
330
14E5C
100
AcDbEntity
  8
DEFPOINTS
  6
Continuous
 62
     0
370
     0
100
AcDbPoint
 10
1845.8461
 20
523.095875
 30
0.0
  0
POINT
  5
14E64
330
14E5C
100
AcDbEntity
  8
DEFPOINTS
  6
Continuous
 62
     0
370
     0
100
AcDbPoint
 10
1915.846099999999
 20
523.095875
 30
0.0
  0
POINT
  5
14E65
330
14E5C
100
AcDbEntity
  8
DEFPOINTS
  6
Continuous
 62
     0
370
     0
100
AcDbPoint
 10
1915.846099999999
 20
462.5
 30
0.0
  0
ENDBLK
  5
14E67
330
14E5C
100
AcDbEntity
  8
0
100
AcDbBlockEnd
  0
BLOCK
  5
14E72
330
14E68
100
AcDbEntity
  8
0
100
AcDbBlockBegin
  2
_D21
 70
     0
 10
0.0
 20
0.0
 30
0.0
  3
_D21
  1

  0
LINE
  5
14E69
330
14E68
100
AcDbEntity
  8
1
  6
Continuous
 62
     4
370
    -2
100
AcDbLine
 10
1765.8461
 20
532.0958749999999
 30
0.0
 11
1765.8461
 21
424.0
 31
0.0
  0
LINE
  5
14E6A
330
14E68
100
AcDbEntity
  8
1
  6
Continuous
 62
     4
370
    -2
100
AcDbLine
 10
1995.846099999999
 20
532.0958749999999
 30
0.0
 11
1995.846099999999
 21
424.0
 31
0.0
  0
LINE
  5
14E6B
330
14E68
100
AcDbEntity
  8
1
  6
Continuous
 62
     4
370
    -2
100
AcDbLine
 10
1767.846099999999
 20
425.0
 30
0.0
 11
1993.8461
 21
425.0
 31
0.0
  0
SOLID
  5
14E6C
330
14E68
100
AcDbEntity
  8
1
  6
Continuous
 62
     4
370
     0
100
AcDbTrace
 10
1767.846099999999
 20
425.3333333333332
 30
0.0
 11
1767.846099999999
 21
424.6666666666667
 31
0.0
 12
1765.8461
 22
425.0
 32
0.0
 13
1765.8461
 23
425.0
 33
0.0
  0
SOLID
  5
14E6D
330
14E68
100
AcDbEntity
  8
1
  6
Continuous
 62
     4
370
     0
100
AcDbTrace
 10
1993.8461
 20
425.3333333333332
 30
0.0
 11
1993.8461
 21
424.6666666666667
 31
0.0
 12
1995.846099999999
 22
425.0
 32
0.0
 13
1995.846099999999
 23
425.0
 33
0.0
  0
MTEXT
  5
14E6E
330
14E68
100
AcDbEntity
  8
1
  6
Continuous
 62
     2
100
AcDbMText
 10
1880.8461
 20
426.25
 30
0.0
 40
2.5
 41
0.0
 71
     5
 72
     1
  1
\A1; 230 
 73
     1
 44
1.0
  0
POINT
  5
14E6F
330
14E68
100
AcDbEntity
  8
DEFPOINTS
  6
Continuous
 62
     0
370
     0
100
AcDbPoint
 10
1765.8461
 20
533.0958749999999
 30
0.0
  0
POINT
  5
14E70
330
14E68
100
AcDbEntity
  8
DEFPOINTS
  6
Continuous
 62
     0
370
     0
100
AcDbPoint
 10
1995.846099999999
 20
533.0958749999999
 30
0.0
  0
POINT
  5
14E71
330
14E68
100
AcDbEntity
  8
DEFPOINTS
  6
Continuous
 62
     0
370
     0
100
AcDbPoint
 10
1995.846099999999
 20
425.0
 30
0.0
  0
ENDBLK
  5
14E73
330
14E68
100
AcDbEntity
  8
0
100
AcDbBlockEnd
  0
BLOCK
  5
14E7E
330
14E74
100
AcDbEntity
  8
0
100
AcDbBlockBegin
  2
_D23
 70
     0
 10
0.0
 20
0.0
 30
0.0
  3
_D23
  1

  0
LINE
  5
14E75
330
14E74
100
AcDbEntity
  8
1
  6
Continuous
 62
     4
370
    -2
100
AcDbLine
 10
1767.8461
 20
669.095875
 30
0.0
 11
1767.8461
 21
751.0
 31
0.0
  0
LINE
  5
14E76
330
14E74
100
AcDbEntity
  8
1
  6
Continuous
 62
     4
370
    -2
100
AcDbLine
 10
1993.8461
 20
669.095875
 30
0.0
 11
1993.8461
 21
751.0
 31
0.0
  0
LINE
  5
14E77
330
14E74
100
AcDbEntity
  8
1
  6
Continuous
 62
     4
370
    -2
100
AcDbLine
 10
1769.8461
 20
750.0
 30
0.0
 11
1991.8461
 21
750.0
 31
0.0
  0
SOLID
  5
14E78
330
14E74
100
AcDbEntity
  8
1
  6
Continuous
 62
     4
370
     0
100
AcDbTrace
 10
1769.8461
 20
750.3333333333333
 30
0.0
 11
1769.8461
 21
749.6666666666666
 31
0.0
 12
1767.8461
 22
750.0
 32
0.0
 13
1767.8461
 23
750.0
 33
0.0
  0
SOLID
  5
14E79
330
14E74
100
AcDbEntity
  8
1
  6
Continuous
 62
     4
370
     0
100
AcDbTrace
 10
1991.8461
 20
750.3333333333333
 30
0.0
 11
1991.8461
 21
749.6666666666666
 31
0.0
 12
1993.8461
 22
750.0
 32
0.0
 13
1993.8461
 23
750.0
 33
0.0
  0
MTEXT
  5
14E7A
330
14E74
100
AcDbEntity
  8
1
  6
Continuous
 62
     2
100
AcDbMText
 10
1880.8461
 20
751.25
 30
0.0
 40
2.5
 41
0.0
 71
     5
 72
     1
  1
\A1; 226 
 73
     1
 44
1.0
  0
POINT
  5
14E7B
330
14E74
100
AcDbEntity
  8
DEFPOINTS
  6
Continuous
 62
     0
370
     0
100
AcDbPoint
 10
1767.8461
 20
668.0958750000001
 30
0.0
  0
POINT
  5
14E7C
330
14E74
100
AcDbEntity
  8
DEFPOINTS
  6
Continuous
 62
     0
370
     0
100
AcDbPoint
 10
1993.8461
 20
668.0958750000001
 30
0.0
  0
POINT
  5
14E7D
330
14E74
100
AcDbEntity
  8
DEFPOINTS
  6
Continuous
 62
     0
370
     0
100
AcDbPoint
 10
1993.8461
 20
750.0
 30
0.0
  0
ENDBLK
  5
14E7F
330
14E74
100
AcDbEntity
  8
0
100
AcDbBlockEnd
  0
BLOCK
  5
14E8B
330
14E80
100
AcDbEntity
  8
0
100
AcDbBlockBegin
  2
_D39
 70
     0
 10
0.0
 20
0.0
 30
0.0
  3
_D39
  1

  0
LINE
  5
14E81
330
14E80
100
AcDbEntity
  8
1
  6
Continuous
 62
     4
370
    -2
100
AcDbLine
 10
1980.3461
 20
1413.095874999999
 30
0.0
 11
2101.0
 21
1413.095874999999
 31
0.0
  0
LINE
  5
14E82
330
14E80
100
AcDbEntity
  8
1
  6
Continuous
 62
     4
370
    -2
100
AcDbLine
 10
1980.3461
 20
1511.095875
 30
0.0
 11
2101.0
 21
1511.095875
 31
0.0
  0
LINE
  5
14E83
330
14E80
100
AcDbEntity
  8
1
  6
Continuous
 62
     4
370
    -2
100
AcDbLine
 10
2100.0
 20
1415.095875
 30
0.0
 11
2100.0
 21
1458.762541666667
 31
0.0
  0
LINE
  5
14E84
330
14E80
100
AcDbEntity
  8
1
  6
Continuous
 62
     4
370
    -2
100
AcDbLine
 10
2100.0
 20
1509.095875
 30
0.0
 11
2100.0
 21
1465.429208333333
 31
0.0
  0
SOLID
  5
14E85
330
14E80
100
AcDbEntity
  8
1
  6
Continuous
 62
     4
370
     0
100
AcDbTrace
 10
2099.666666666666
 20
1415.095875
 30
0.0
 11
2100.333333333333
 21
1415.095875
 31
0.0
 12
2100.0
 22
1413.095874999999
 32
0.0
 13
2100.0
 23
1413.095874999999
 33
0.0
  0
SOLID
  5
14E86
330
14E80
100
AcDbEntity
  8
1
  6
Continuous
 62
     4
370
     0
100
AcDbTrace
 10
2099.666666666666
 20
1509.095875
 30
0.0
 11
2100.333333333333
 21
1509.095875
 31
0.0
 12
2100.0
 22
1511.095875
 32
0.0
 13
2100.0
 23
1511.095875
 33
0.0
  0
MTEXT
  5
14E87
330
14E80
100
AcDbEntity
  8
1
  6
Continuous
 62
     2
100
AcDbMText
 10
2099.999999999999
 20
1462.095875
 30
0.0
 40
2.5
 41
0.0
 71
     5
 72
     1
  1
\A1; 98 
 11
0.0000000000000001
 21
1.0
 31
0.0
 73
     1
 44
1.0
  0
POINT
  5
14E88
330
14E80
100
AcDbEntity
  8
DEFPOINTS
  6
Continuous
 62
     0
370
     0
100
AcDbPoint
 10
1979.3461
 20
1413.095874999999
 30
0.0
  0
POINT
  5
14E89
330
14E80
100
AcDbEntity
  8
DEFPOINTS
  6
Continuous
 62
     0
370
     0
100
AcDbPoint
 10
1979.3461
 20
1511.095875
 30
0.0
  0
POINT
  5
14E8A
330
14E80
100
AcDbEntity
  8
DEFPOINTS
  6
Continuous
 62
     0
370
     0
100
AcDbPoint
 10
2100.0
 20
1511.095875
 30
0.0
  0
ENDBLK
  5
14E8C
330
14E80
100
AcDbEntity
  8
0
100
AcDbBlockEnd
  0
BLOCK
  5
14E98
330
14E8D
100
AcDbEntity
  8
0
100
AcDbBlockBegin
  2
_D60
 70
     0
 10
0.0
 20
0.0
 30
0.0
  3
_D60
  1

  0
LINE
  5
14E8E
330
14E8D
100
AcDbEntity
  8
1
  6
Continuous
 62
     4
370
    -2
100
AcDbLine
 10
1761.8461
 20
663.0958750000001
 30
0.0
 11
1687.21531
 21
663.0958750000001
 31
0.0
  0
LINE
  5
14E8F
330
14E8D
100
AcDbEntity
  8
1
  6
Continuous
 62
     4
370
    -2
100
AcDbLine
 10
1734.8461
 20
682.0958749999999
 30
0.0
 11
1687.21531
 21
682.0958749999999
 31
0.0
  0
LINE
  5
14E90
330
14E8D
100
AcDbEntity
  8
1
  6
Continuous
 62
     4
370
    -2
100
AcDbLine
 10
1688.21531
 20
665.095875
 30
0.0
 11
1688.21531
 21
669.6792083333335
 31
0.0
  0
LINE
  5
14E91
330
14E8D
100
AcDbEntity
  8
1
  6
Continuous
 62
     4
370
    -2
100
AcDbLine
 10
1688.21531
 20
680.0958749999999
 30
0.0
 11
1688.21531
 21
675.5125416666666
 31
0.0
  0
SOLID
  5
14E92
330
14E8D
100
AcDbEntity
  8
1
  6
Continuous
 62
     4
370
     0
100
AcDbTrace
 10
1687.881976666667
 20
665.095875
 30
0.0
 11
1688.548643333333
 21
665.095875
 31
0.0
 12
1688.21531
 22
663.0958750000001
 32
0.0
 13
1688.21531
 23
663.0958750000001
 33
0.0
  0
SOLID
  5
14E93
330
14E8D
100
AcDbEntity
  8
1
  6
Continuous
 62
     4
370
     0
100
AcDbTrace
 10
1687.881976666667
 20
680.0958749999999
 30
0.0
 11
1688.548643333333
 21
680.0958749999999
 31
0.0
 12
1688.21531
 22
682.0958749999999
 32
0.0
 13
1688.21531
 23
682.0958749999999
 33
0.0
  0
MTEXT
  5
14E94
330
14E8D
100
AcDbEntity
  8
1
  6
Continuous
 62
     2
100
AcDbMText
 10
1688.21531
 20
672.5958750000003
 30
0.0
 40
2.5
 41
0.0
 71
     5
 72
     1
  1
\A1; 19 
 11
0.0000000000000001
 21
1.0
 31
0.0
 73
     1
 44
1.0
  0
POINT
  5
14E95
330
14E8D
100
AcDbEntity
  8
DEFPOINTS
  6
Continuous
 62
     0
370
     0
100
AcDbPoint
 10
1762.8461
 20
663.0958750000001
 30
0.0
  0
POINT
  5
14E96
330
14E8D
100
AcDbEntity
  8
DEFPOINTS
  6
Continuous
 62
     0
370
     0
100
AcDbPoint
 10
1735.8461
 20
682.0958749999999
 30
0.0
  0
POINT
  5
14E97
330
14E8D
100
AcDbEntity
  8
DEFPOINTS
  6
Continuous
 62
     0
370
     0
100
AcDbPoint
 10
1688.21531
 20
682.0958749999999
 30
0.0
  0
ENDBLK
  5
14E99
330
14E8D
100
AcDbEntity
  8
0
100
AcDbBlockEnd
  0
BLOCK
  5
14EA3
330
14E9A
100
AcDbEntity
  8
0
100
AcDbBlockBegin
  2
_D63
 70
     0
 10
0.0
 20
0.0
 30
0.0
  3
_D63
  1

  0
LINE
  5
14E9B
330
14E9A
100
AcDbEntity
  8
1
  6
Continuous
 62
     4
370
    -2
100
AcDbLine
 10
1910.006477718713
 20
858.5125221055685
 30
0.0
 11
1912.006477718713
 21
858.5125221055685
 31
0.0
  0
LINE
  5
14E9C
330
14E9A
100
AcDbEntity
  8
1
  6
Continuous
 62
     4
370
    -2
100
AcDbLine
 10
1912.006477718713
 20
858.5125221055685
 30
0.0
 11
1912.909918859356
 21
860.2968410527843
 31
0.0
  0
MTEXT
  5
14E9D
330
14E9A
100
AcDbEntity
  8
1
  6
Continuous
 62
     2
100
AcDbMText
 10
1907.92314438538
 20
858.5125221055687
 30
0.0
 40
2.5
 41
0.0
 71
     5
 72
     1
  1
\A1;\U+22059
 73
     1
 44
1.0
  0
SOLID
  5
14E9E
330
14E9A
100
AcDbEntity
  8
1
  6
Continuous
 62
     4
370
     0
100
AcDbTrace
 10
1912.612532368154
 20
860.447414576225
 30
0.0
 11
1913.207305350559
 21
860.1462675293438
 31
0.0
 12
1913.813359999999
 22
862.0811600000001
 32
0.0
 13
1913.813359999999
 23
862.0811600000001
 33
0.0
  0
LINE
  5
14E9F
330
14E9A
100
AcDbEntity
  8
1
  6
Continuous
 62
     4
370
    -2
100
AcDbLine
 10
1915.756102499999
 20
866.0958775
 30
0.0
 11
1915.936102499999
 21
866.0958775
 31
0.0
  0
LINE
  5
14EA0
330
14E9A
100
AcDbEntity
  8
1
  6
Continuous
 62
     4
370
    -2
100
AcDbLine
 10
1915.846102499999
 20
866.0058774999997
 30
0.0
 11
1915.846102499999
 21
866.1858775
 31
0.0
  0
POINT
  5
14EA1
330
14E9A
100
AcDbEntity
  8
DEFPOINTS
  6
Continuous
 62
     0
370
     0
100
AcDbPoint
 10
1913.813359999999
 20
862.0811600000001
 30
0.0
  0
POINT
  5
14EA2
330
14E9A
100
AcDbEntity
  8
DEFPOINTS
  6
Continuous
 62
     0
370
     0
100
AcDbPoint
 10
1917.878844999999
 20
870.110595
 30
0.0
  0
ENDBLK
  5
14EA4
330
14E9A
100
AcDbEntity
  8
0
100
AcDbBlockEnd
  0
BLOCK
  5
14EAE
330
14EA5
100
AcDbEntity
  8
0
100
AcDbBlockBegin
  2
_D64
 70
     0
 10
0.0
 20
0.0
 30
0.0
  3
_D64
  1

  0
LINE
  5
14EA6
330
14EA5
100
AcDbEntity
  8
1
  6
Continuous
 62
     4
370
    -2
100
AcDbLine
 10
1777.587908021811
 20
671.5996640567653
 30
0.0
 11
1775.587908021811
 21
671.5996640567651
 31
0.0
  0
LINE
  5
14EA7
330
14EA5
100
AcDbEntity
  8
1
  6
Continuous
 62
     4
370
    -2
100
AcDbLine
 10
1775.587908021811
 20
671.5996640567651
 30
0.0
 11
1774.241506510905
 21
670.1207445283825
 31
0.0
  0
MTEXT
  5
14EA8
330
14EA5
100
AcDbEntity
  8
1
  6
Continuous
 62
     2
100
AcDbMText
 10
1788.421241355144
 20
671.5996640567651
 30
0.0
 40
2.5
 41
0.0
 71
     5
 72
     1
  1
\A1;\U+220514.999998
 73
     1
 44
1.0
  0
SOLID
  5
14EA9
330
14EA5
100
AcDbEntity
  8
1
  6
Continuous
 62
     4
370
     0
100
AcDbTrace
 10
1773.995019922841
 20
670.3451447802
 30
0.0
 11
1774.487993098969
 21
669.8963442765648
 31
0.0
 12
1772.895105
 22
668.6418249999998
 32
0.0
 13
1772.895105
 23
668.6418249999998
 33
0.0
  0
LINE
  5
14EAA
330
14EA5
100
AcDbEntity
  8
1
  6
Continuous
 62
     4
370
    -2
100
AcDbLine
 10
1767.756099999999
 20
663.0958774999997
 30
0.0
 11
1767.936099999999
 21
663.0958774999998
 31
0.0
  0
LINE
  5
14EAB
330
14EA5
100
AcDbEntity
  8
1
  6
Continuous
 62
     4
370
    -2
100
AcDbLine
 10
1767.846099999999
 20
663.0058774999994
 30
0.0
 11
1767.846099999999
 21
663.1858774999997
 31
0.0
  0
POINT
  5
14EAC
330
14EA5
100
AcDbEntity
  8
DEFPOINTS
  6
Continuous
 62
     0
370
     0
100
AcDbPoint
 10
1772.895105
 20
668.6418249999998
 30
0.0
  0
POINT
  5
14EAD
330
14EA5
100
AcDbEntity
  8
DEFPOINTS
  6
Continuous
 62
     0
370
     0
100
AcDbPoint
 10
1762.797094999999
 20
657.54993
 30
0.0
  0
ENDBLK
  5
14EAF
330
14EA5
100
AcDbEntity
  8
0
100
AcDbBlockEnd
  0
BLOCK
  5
14EB6
330
14EB0
100
AcDbEntity
  8
0
100
AcDbBlockBegin
  2
_D66
 70
     0
 10
0.0
 20
0.0
 30
0.0
  3
_D66
  1

  0
LINE
  5
14EB1
330
14EB0
100
AcDbEntity
  8
1
  6
Continuous
 62
     4
370
    -2
100
AcDbLine
 10
1795.683605
 20
1510.40723
 30
0.0
 11
1787.433605
 21
1510.40723
 31
0.0
  0
MTEXT
  5
14EB2
330
14EB0
100
AcDbEntity
  8
1
  6
Continuous
 62
     2
100
AcDbMText
 10
1792.558605
 20
1511.657229999999
 30
0.0
 40
2.5
 41
0.0
 71
     5
 72
     1
  1
\A1; R0 
 73
     1
 44
1.0
  0
SOLID
  5
14EB3
330
14EB0
100
AcDbEntity
  8
1
  6
Continuous
 62
     4
370
     0
100
AcDbTrace
 10
1783.433605
 20
1510.740563333333
 30
0.0
 11
1783.433605
 21
1510.073896666666
 31
0.0
 12
1785.433605
 22
1510.40723
 32
0.0
 13
1785.433605
 23
1510.40723
 33
0.0
  0
POINT
  5
14EB4
330
14EB0
100
AcDbEntity
  8
DEFPOINTS
  6
Continuous
 62
     0
370
     0
100
AcDbPoint
 10
1785.433605
 20
1510.40723
 30
0.0
  0
POINT
  5
14EB5
330
14EB0
100
AcDbEntity
  8
DEFPOINTS
  6
Continuous
 62
     0
370
     0
100
AcDbPoint
 10
1785.433605
 20
1510.40723
 30
0.0
  0
ENDBLK
  5
14EB7
330
14EB0
100
AcDbEntity
  8
0
100
AcDbBlockEnd
  0
BLOCK
  5
15079
330
1506F
100
AcDbEntity
  8
0
100
AcDbBlockBegin
  2
*D147
 70
     1
 10
0.0
 20
0.0
 30
0.0
  3
*D147
  1

  0
LINE
  5
15167
330
1506F
100
AcDbEntity
  8
30
  6
Continuous
 62
     0
370
    -2
100
AcDbLine
 10
-35.0
 20
-762.0
 30
0.0
 11
-35.0
 21
-800.5
 31
0.0
  0
LINE
  5
15168
330
1506F
100
AcDbEntity
  8
30
  6
Continuous
 62
     0
370
    -2
100
AcDbLine
 10
35.0
 20
-762.0
 30
0.0
 11
35.0
 21
-800.5
 31
0.0
  0
LINE
  5
15169
330
1506F
100
AcDbEntity
  8
30
  6
Continuous
 62
     0
370
    -2
100
AcDbLine
 10
-33.0
 20
-800.0
 30
0.0
 11
33.0
 21
-800.0
 31
0.0
  0
INSERT
  5
1516A
330
1506F
100
AcDbEntity
  8
30
  6
Continuous
 62
     0
370
    -2
100
AcDbBlockReference
  2
_OPEN
 10
-35.0
 20
-800.0
 30
0.0
 41
2.0
 42
2.0
 43
2.0
 50
180.0
  0
INSERT
  5
1516B
330
1506F
100
AcDbEntity
  8
30
  6
Continuous
 62
     0
370
    -2
100
AcDbBlockReference
  2
_OPEN
 10
35.0
 20
-800.0
 30
0.0
 41
2.0
 42
2.0
 43
2.0
  0
MTEXT
  5
1516C
330
1506F
100
AcDbEntity
  8
30
  6
Continuous
 62
     0
100
AcDbMText
 10
0.0000000000000004
 20
-794.0
 30
0.0
 40
6.0
 41
0.0
 71
     5
 72
     1
  1
\A1; 70 
 73
     1
 44
1.0
  0
POINT
  5
1516D
330
1506F
100
AcDbEntity
  8
DEFPOINTS
  6
Continuous
 62
     0
100
AcDbPoint
 10
-35.0
 20
-759.0
 30
0.0
  0
POINT
  5
1516E
330
1506F
100
AcDbEntity
  8
DEFPOINTS
  6
Continuous
 62
     0
100
AcDbPoint
 10
35.0
 20
-759.0
 30
0.0
  0
POINT
  5
1516F
330
1506F
100
AcDbEntity
  8
DEFPOINTS
  6
Continuous
 62
     0
100
AcDbPoint
 10
35.0
 20
-800.0
 30
0.0
  0
ENDBLK
  5
1507A
330
1506F
100
AcDbEntity
  8
0
100
AcDbBlockEnd
  0
BLOCK
  5
15085
330
1507B
100
AcDbEntity
  8
0
100
AcDbBlockBegin
  2
*D148
 70
     1
 10
0.0
 20
0.0
 30
0.0
  3
*D148
  1

  0
LINE
  5
15366
330
1507B
100
AcDbEntity
  8
30
  6
Continuous
 62
     0
370
    -2
100
AcDbLine
 10
-115.0
 20
-752.0
 30
0.0
 11
-115.0
 21
-840.4999999999999
 31
0.0
  0
LINE
  5
15367
330
1507B
100
AcDbEntity
  8
30
  6
Continuous
 62
     0
370
    -2
100
AcDbLine
 10
185.0
 20
-752.0
 30
0.0
 11
185.0
 21
-840.4999999999999
 31
0.0
  0
LINE
  5
15368
330
1507B
100
AcDbEntity
  8
30
  6
Continuous
 62
     0
370
    -2
100
AcDbLine
 10
-113.0
 20
-840.0
 30
0.0
 11
183.0
 21
-840.0
 31
0.0
  0
INSERT
  5
15369
330
1507B
100
AcDbEntity
  8
30
  6
Continuous
 62
     0
370
    -2
100
AcDbBlockReference
  2
_OPEN
 10
-115.0
 20
-840.0
 30
0.0
 41
2.0
 42
2.0
 43
2.0
 50
180.0
  0
INSERT
  5
1536A
330
1507B
100
AcDbEntity
  8
30
  6
Continuous
 62
     0
370
    -2
100
AcDbBlockReference
  2
_OPEN
 10
185.0
 20
-840.0
 30
0.0
 41
2.0
 42
2.0
 43
2.0
  0
MTEXT
  5
1536B
330
1507B
100
AcDbEntity
  8
30
  6
Continuous
 62
     0
100
AcDbMText
 10
35.0
 20
-834.0
 30
0.0
 40
6.0
 41
0.0
 71
     5
 72
     1
  1
\A1; 300 
 73
     1
 44
1.0
  0
POINT
  5
1536C
330
1507B
100
AcDbEntity
  8
DEFPOINTS
  6
Continuous
 62
     0
100
AcDbPoint
 10
-115.0
 20
-749.0
 30
0.0
  0
POINT
  5
1536D
330
1507B
100
AcDbEntity
  8
DEFPOINTS
  6
Continuous
 62
     0
100
AcDbPoint
 10
185.0
 20
-749.0
 30
0.0
  0
POINT
  5
1536E
330
1507B
100
AcDbEntity
  8
DEFPOINTS
  6
Continuous
 62
     0
100
AcDbPoint
 10
185.0
 20
-840.0
 30
0.0
  0
ENDBLK
  5
15086
330
1507B
100
AcDbEntity
  8
0
100
AcDbBlockEnd
  0
BLOCK
  5
15091
330
15087
100
AcDbEntity
  8
0
100
AcDbBlockBegin
  2
*D149
 70
     1
 10
0.0
 20
0.0
 30
0.0
  3
*D149
  1

  0
LINE
  5
1535D
330
15087
100
AcDbEntity
  8
30
  6
Continuous
 62
     0
370
    -2
100
AcDbLine
 10
-112.9999999999997
 20
-634.4999999999998
 30
0.0
 11
-112.9999999999997
 21
-820.5
 31
0.0
  0
LINE
  5
1535E
330
15087
100
AcDbEntity
  8
30
  6
Continuous
 62
     0
370
    -2
100
AcDbLine
 10
183.0000000000002
 20
-634.4999999999998
 30
0.0
 11
183.0000000000002
 21
-820.5
 31
0.0
  0
LINE
  5
1535F
330
15087
100
AcDbEntity
  8
30
  6
Continuous
 62
     0
370
    -2
100
AcDbLine
 10
-110.9999999999997
 20
-820.0
 30
0.0
 11
181.0000000000002
 21
-820.0
 31
0.0
  0
INSERT
  5
15360
330
15087
100
AcDbEntity
  8
30
  6
Continuous
 62
     0
370
    -2
100
AcDbBlockReference
  2
_OPEN
 10
-112.9999999999997
 20
-820.0
 30
0.0
 41
2.0
 42
2.0
 43
2.0
 50
180.0
  0
INSERT
  5
15361
330
15087
100
AcDbEntity
  8
30
  6
Continuous
 62
     0
370
    -2
100
AcDbBlockReference
  2
_OPEN
 10
183.0000000000002
 20
-820.0
 30
0.0
 41
2.0
 42
2.0
 43
2.0
  0
MTEXT
  5
15362
330
15087
100
AcDbEntity
  8
30
  6
Continuous
 62
     0
100
AcDbMText
 10
35.00000000000022
 20
-814.0
 30
0.0
 40
6.0
 41
0.0
 71
     5
 72
     1
  1
\A1; 296 
 73
     1
 44
1.0
  0
POINT
  5
15363
330
15087
100
AcDbEntity
  8
DEFPOINTS
  6
Continuous
 62
     0
100
AcDbPoint
 10
-112.9999999999997
 20
-631.4999999999998
 30
0.0
  0
POINT
  5
15364
330
15087
100
AcDbEntity
  8
DEFPOINTS
  6
Continuous
 62
     0
100
AcDbPoint
 10
183.0000000000002
 20
-631.4999999999998
 30
0.0
  0
POINT
  5
15365
330
15087
100
AcDbEntity
  8
DEFPOINTS
  6
Continuous
 62
     0
100
AcDbPoint
 10
183.0000000000002
 20
-820.0
 30
0.0
  0
ENDBLK
  5
15092
330
15087
100
AcDbEntity
  8
0
100
AcDbBlockEnd
  0
BLOCK
  5
150B4
330
150A9
100
AcDbEntity
  8
0
100
AcDbBlockBegin
  2
*D152
 70
     1
 10
0.0
 20
0.0
 30
0.0
  3
*D152
  1

  0
LINE
  5
15179
330
150A9
100
AcDbEntity
  8
30
  6
Continuous
 62
     0
370
    -2
100
AcDbLine
 10
-120.9999999999997
 20
-618.9999999999998
 30
0.0
 11
-160.4999999999999
 21
-618.9999999999998
 31
0.0
  0
LINE
  5
1517A
330
150A9
100
AcDbEntity
  8
30
  6
Continuous
 62
     0
370
    -2
100
AcDbLine
 10
-148.0
 20
-600.0
 30
0.0
 11
-160.4999999999999
 21
-600.0
 31
0.0
  0
LINE
  5
1517B
330
150A9
100
AcDbEntity
  8
30
  6
Continuous
 62
     0
370
    -2
100
AcDbLine
 10
-160.0
 20
-616.9999999999999
 30
0.0
 11
-160.0
 21
-602.0
 31
0.0
  0
INSERT
  5
1517C
330
150A9
100
AcDbEntity
  8
30
  6
Continuous
 62
     0
370
    -2
100
AcDbBlockReference
  2
_OPEN
 10
-160.0
 20
-618.9999999999998
 30
0.0
 41
2.0
 42
2.0
 43
2.0
 50
270.0
  0
INSERT
  5
1517D
330
150A9
100
AcDbEntity
  8
30
  6
Continuous
 62
     0
370
    -2
100
AcDbBlockReference
  2
_OPEN
 10
-160.0
 20
-600.0
 30
0.0
 41
2.0
 42
2.0
 43
2.0
 50
90.0
  0
MTEXT
  5
1517E
330
150A9
100
AcDbEntity
  8
30
  6
Continuous
 62
     0
100
AcDbMText
 10
-165.9999999999998
 20
-609.4999999999999
 30
0.0
 40
6.0
 41
0.0
 71
     5
 72
     1
  1
\A1; 19 
 11
0.0000000000000001
 21
1.0
 31
0.0
 73
     1
 44
1.0
  0
POINT
  5
1517F
330
150A9
100
AcDbEntity
  8
DEFPOINTS
  6
Continuous
 62
     0
100
AcDbPoint
 10
-117.9999999999997
 20
-618.9999999999998
 30
0.0
  0
POINT
  5
15180
330
150A9
100
AcDbEntity
  8
DEFPOINTS
  6
Continuous
 62
     0
100
AcDbPoint
 10
-145.0
 20
-600.0
 30
0.0
  0
POINT
  5
15181
330
150A9
100
AcDbEntity
  8
DEFPOINTS
  6
Continuous
 62
     0
100
AcDbPoint
 10
-160.0
 20
-600.0
 30
0.0
  0
ENDBLK
  5
150B5
330
150A9
100
AcDbEntity
  8
0
100
AcDbBlockEnd
  0
BLOCK
  5
150F5
330
150EC
100
AcDbEntity
  8
0
100
AcDbBlockBegin
  2
*D153
 70
     1
 10
0.0
 20
0.0
 30
0.0
  3
*D153
  1

  0
LINE
  5
150ED
330
150EC
100
AcDbEntity
  8
30
  6
Continuous
 62
     0
370
    -2
100
AcDbLine
 10
39.34827075554588
 20
-411.1685880493935
 30
0.0
 11
40.68620021879079
 21
-409.6819997568991
 31
0.0
  0
LINE
  5
150EE
330
150EC
100
AcDbEntity
  8
30
  6
Continuous
 62
     0
370
    -2
100
AcDbLine
 10
40.68620021879079
 20
-409.6819997568991
 30
0.0
 11
53.68620021879081
 21
-409.6819997568991
 31
0.0
  0
INSERT
  5
150EF
330
150EC
100
AcDbEntity
  8
30
  6
Continuous
 62
     0
370
    -2
100
AcDbBlockReference
  2
_OPEN
 10
38.01034129230098
 20
-412.6551763418878
 30
0.0
 41
2.0
 42
2.0
 43
2.0
 50
228.0127875041833
  0
MTEXT
  5
150F0
330
150EC
100
AcDbEntity
  8
30
  6
Continuous
 62
     0
100
AcDbMText
 10
48.68620021879076
 20
-403.6819997568991
 30
0.0
 40
6.0
 41
0.0
 71
     5
 72
     1
  1
\A1;\U+22059
 73
     1
 44
1.0
  0
LINE
  5
150F1
330
150EC
100
AcDbEntity
  8
30
  6
Continuous
 62
     0
370
    -2
100
AcDbLine
 10
34.90999999999994
 20
-416.0000000000001
 30
0.0
 11
35.08999999999997
 21
-416.0000000000001
 31
0.0
  0
LINE
  5
150F2
330
150EC
100
AcDbEntity
  8
30
  6
Continuous
 62
     0
370
    -2
100
AcDbLine
 10
34.99999999999994
 20
-416.09
 30
0.0
 11
34.99999999999997
 21
-415.91
 31
0.0
  0
POINT
  5
150F3
330
150EC
100
AcDbEntity
  8
DEFPOINTS
  6
Continuous
 62
     0
100
AcDbPoint
 10
38.01034129230098
 20
-412.6551763418878
 30
0.0
  0
POINT
  5
150F4
330
150EC
100
AcDbEntity
  8
DEFPOINTS
  6
Continuous
 62
     0
100
AcDbPoint
 10
31.98965870769896
 20
-419.3448236581123
 30
0.0
  0
ENDBLK
  5
150F6
330
150EC
100
AcDbEntity
  8
0
100
AcDbBlockEnd
  0
BLOCK
  5
151A6
330
1519D
100
AcDbEntity
  8
0
100
AcDbBlockBegin
  2
*D154
 70
     1
 10
0.0
 20
0.0
 30
0.0
  3
*D154
  1

  0
LINE
  5
151A8
330
1519D
100
AcDbEntity
  8
30
  6
Continuous
 62
     0
370
    -2
100
AcDbLine
 10
-109.6999999999997
 20
-614.6
 30
0.0
 11
-116.2999999999998
 21
-623.3999999999999
 31
0.0
  0
LINE
  5
151A9
330
1519D
100
AcDbEntity
  8
30
  6
Continuous
 62
     0
370
    -2
100
AcDbLine
 10
-117.4999999999998
 20
-624.9999999999999
 30
0.0
 11
-125.0
 21
-635.0
 31
0.0
  0
LINE
  5
151AA
330
1519D
100
AcDbEntity
  8
30
  6
Continuous
 62
     0
370
    -2
100
AcDbLine
 10
-125.0
 20
-635.0
 30
0.0
 11
-142.0
 21
-635.0
 31
0.0
  0
INSERT
  5
151AB
330
1519D
100
AcDbEntity
  8
30
  6
Continuous
 62
     0
370
    -2
100
AcDbBlockReference
  2
_OPEN
 10
-108.4999999999997
 20
-613.0
 30
0.0
 41
2.0
 42
2.0
 43
2.0
 50
53.1301023541555
  0
INSERT
  5
151AC
330
1519D
100
AcDbEntity
  8
30
  6
Continuous
 62
     0
370
    -2
100
AcDbBlockReference
  2
_OPEN
 10
-117.4999999999998
 20
-624.9999999999999
 30
0.0
 41
2.0
 42
2.0
 43
2.0
 50
233.1301023541554
  0
MTEXT
  5
151AD
330
1519D
100
AcDbEntity
  8
30
  6
Continuous
 62
     0
100
AcDbMText
 10
-135.0
 20
-629.0
 30
0.0
 40
6.0
 41
0.0
 71
     5
 72
     1
  1
\A1;\U+220515
 73
     1
 44
1.0
  0
POINT
  5
151AE
330
1519D
100
AcDbEntity
  8
DEFPOINTS
  6
Continuous
 62
     0
100
AcDbPoint
 10
-117.4999999999998
 20
-624.9999999999999
 30
0.0
  0
POINT
  5
151AF
330
1519D
100
AcDbEntity
  8
DEFPOINTS
  6
Continuous
 62
     0
100
AcDbPoint
 10
-108.4999999999997
 20
-613.0
 30
0.0
  0
ENDBLK
  5
151A7
330
1519D
100
AcDbEntity
  8
0
100
AcDbBlockEnd
  0
BLOCK
  5
153A0
330
15396
100
AcDbEntity
  8
0
100
AcDbBlockBegin
  2
*D155
 70
     1
 10
0.0
 20
0.0
 30
0.0
  3
*D155
  1

  0
LINE
  5
153A2
330
15396
100
AcDbEntity
  8
30
  6
Continuous
 62
     0
370
    -2
100
AcDbLine
 10
70.0
 20
566.0
 30
0.0
 11
70.0
 21
601.095875
 31
0.0
  0
LINE
  5
153A3
330
15396
100
AcDbEntity
  8
30
  6
Continuous
 62
     0
370
    -2
100
AcDbLine
 10
140.0
 20
566.0
 30
0.0
 11
140.0
 21
601.095875
 31
0.0
  0
LINE
  5
153A4
330
15396
100
AcDbEntity
  8
30
  6
Continuous
 62
     0
370
    -2
100
AcDbLine
 10
72.0
 20
600.5958749999999
 30
0.0
 11
138.0
 21
600.5958749999999
 31
0.0
  0
INSERT
  5
153A5
330
15396
100
AcDbEntity
  8
30
  6
Continuous
 62
     0
370
    -2
100
AcDbBlockReference
  2
_OPEN
 10
70.0
 20
600.5958749999999
 30
0.0
 41
2.0
 42
2.0
 43
2.0
 50
180.0
  0
INSERT
  5
153A6
330
15396
100
AcDbEntity
  8
30
  6
Continuous
 62
     0
370
    -2
100
AcDbBlockReference
  2
_OPEN
 10
140.0
 20
600.5958749999999
 30
0.0
 41
2.0
 42
2.0
 43
2.0
  0
MTEXT
  5
153A7
330
15396
100
AcDbEntity
  8
30
  6
Continuous
 62
     0
100
AcDbMText
 10
105.0
 20
606.595875
 30
0.0
 40
6.0
 41
0.0
 71
     5
 72
     1
  1
\A1; 70 
 73
     1
 44
1.0
  0
POINT
  5
153A8
330
15396
100
AcDbEntity
  8
DEFPOINTS
  6
Continuous
 62
     0
100
AcDbPoint
 10
70.0
 20
563.0
 30
0.0
  0
POINT
  5
153A9
330
15396
100
AcDbEntity
  8
DEFPOINTS
  6
Continuous
 62
     0
100
AcDbPoint
 10
140.0
 20
563.0
 30
0.0
  0
POINT
  5
153AA
330
15396
100
AcDbEntity
  8
DEFPOINTS
  6
Continuous
 62
     0
100
AcDbPoint
 10
140.0
 20
600.5958749999999
 30
0.0
  0
ENDBLK
  5
153A1
330
15396
100
AcDbEntity
  8
0
100
AcDbBlockEnd
  0
BLOCK
  5
153BB
330
153B1
100
AcDbEntity
  8
0
100
AcDbBlockBegin
  2
*D156
 70
     1
 10
0.0
 20
0.0
 30
0.0
  3
*D156
  1

  0
LINE
  5
153B2
330
153B1
100
AcDbEntity
  8
30
  6
Continuous
 62
     0
370
    -2
100
AcDbLine
 10
539.0000000000009
 20
-164.0
 30
0.0
 11
539.0000000000009
 21
-225.595875
 31
0.0
  0
LINE
  5
153B3
330
153B1
100
AcDbEntity
  8
30
  6
Continuous
 62
     0
370
    -2
100
AcDbLine
 10
559.0000000000009
 20
-137.0
 30
0.0
 11
559.0000000000009
 21
-225.595875
 31
0.0
  0
LINE
  5
153B4
330
153B1
100
AcDbEntity
  8
30
  6
Continuous
 62
     0
370
    -2
100
AcDbLine
 10
541.0000000000009
 20
-225.095875
 30
0.0
 11
557.0000000000009
 21
-225.095875
 31
0.0
  0
INSERT
  5
153B5
330
153B1
100
AcDbEntity
  8
30
  6
Continuous
 62
     0
370
    -2
100
AcDbBlockReference
  2
_OPEN
 10
539.0000000000009
 20
-225.095875
 30
0.0
 41
2.0
 42
2.0
 43
2.0
 50
180.0
  0
INSERT
  5
153B6
330
153B1
100
AcDbEntity
  8
30
  6
Continuous
 62
     0
370
    -2
100
AcDbBlockReference
  2
_OPEN
 10
559.0000000000009
 20
-225.095875
 30
0.0
 41
2.0
 42
2.0
 43
2.0
  0
MTEXT
  5
153B7
330
153B1
100
AcDbEntity
  8
30
  6
Continuous
 62
     0
100
AcDbMText
 10
549.0000000000009
 20
-219.095875
 30
0.0
 40
6.0
 41
0.0
 71
     5
 72
     1
  1
\A1; 20 
 73
     1
 44
1.0
  0
POINT
  5
153B8
330
153B1
100
AcDbEntity
  8
DEFPOINTS
  6
Continuous
 62
     0
100
AcDbPoint
 10
539.0000000000009
 20
-161.0
 30
0.0
  0
POINT
  5
153B9
330
153B1
100
AcDbEntity
  8
DEFPOINTS
  6
Continuous
 62
     0
100
AcDbPoint
 10
559.0000000000009
 20
-134.0
 30
0.0
  0
POINT
  5
153BA
330
153B1
100
AcDbEntity
  8
DEFPOINTS
  6
Continuous
 62
     0
100
AcDbPoint
 10
559.0000000000009
 20
-225.095875
 30
0.0
  0
ENDBLK
  5
153BC
330
153B1
100
AcDbEntity
  8
0
100
AcDbBlockEnd
  0
BLOCK
  5
153C8
330
153BD
100
AcDbEntity
  8
0
100
AcDbBlockBegin
  2
*D157
 70
     1
 10
0.0
 20
0.0
 30
0.0
  3
*D157
  1

  0
LINE
  5
153BE
330
153BD
100
AcDbEntity
  8
30
  6
Continuous
 62
     0
370
    -2
100
AcDbLine
 10
599.0000000000009
 20
-137.0
 30
0.0
 11
599.0000000000009
 21
-225.595875
 31
0.0
  0
LINE
  5
153BF
330
153BD
100
AcDbEntity
  8
30
  6
Continuous
 62
     0
370
    -2
100
AcDbLine
 10
614.0000000000009
 20
-159.5
 30
0.0
 11
614.0000000000009
 21
-225.595875
 31
0.0
  0
LINE
  5
153C0
330
153BD
100
AcDbEntity
  8
30
  6
Continuous
 62
     0
370
    -2
100
AcDbLine
 10
601.0000000000009
 20
-225.095875
 30
0.0
 11
612.0000000000008
 21
-225.095875
 31
0.0
  0
LINE
  5
153C1
330
153BD
100
AcDbEntity
  8
30
  6
Continuous
 62
     0
370
    -2
100
AcDbLine
 10
614.0000000000009
 20
-225.095875
 30
0.0
 11
633.6000000000009
 21
-225.095875
 31
0.0
  0
INSERT
  5
153C2
330
153BD
100
AcDbEntity
  8
30
  6
Continuous
 62
     0
370
    -2
100
AcDbBlockReference
  2
_OPEN
 10
599.0000000000009
 20
-225.095875
 30
0.0
 41
2.0
 42
2.0
 43
2.0
 50
180.0
  0
INSERT
  5
153C3
330
153BD
100
AcDbEntity
  8
30
  6
Continuous
 62
     0
370
    -2
100
AcDbBlockReference
  2
_OPEN
 10
614.0000000000009
 20
-225.095875
 30
0.0
 41
2.0
 42
2.0
 43
2.0
  0
MTEXT
  5
153C4
330
153BD
100
AcDbEntity
  8
30
  6
Continuous
 62
     0
100
AcDbMText
 10
624.8000000000009
 20
-219.095875
 30
0.0
 40
6.0
 41
0.0
 71
     5
 72
     1
  1
\A1; 15 
 73
     1
 44
1.0
  0
POINT
  5
153C5
330
153BD
100
AcDbEntity
  8
DEFPOINTS
  6
Continuous
 62
     0
100
AcDbPoint
 10
599.0000000000009
 20
-134.0
 30
0.0
  0
POINT
  5
153C6
330
153BD
100
AcDbEntity
  8
DEFPOINTS
  6
Continuous
 62
     0
100
AcDbPoint
 10
614.0000000000009
 20
-156.5
 30
0.0
  0
POINT
  5
153C7
330
153BD
100
AcDbEntity
  8
DEFPOINTS
  6
Continuous
 62
     0
100
AcDbPoint
 10
614.0000000000009
 20
-225.095875
 30
0.0
  0
ENDBLK
  5
153C9
330
153BD
100
AcDbEntity
  8
0
100
AcDbBlockEnd
  0
BLOCK
  5
153D4
330
153CA
100
AcDbEntity
  8
0
100
AcDbBlockBegin
  2
*D158
 70
     1
 10
0.0
 20
0.0
 30
0.0
  3
*D158
  1

  0
LINE
  5
153CB
330
153CA
100
AcDbEntity
  8
30
  6
Continuous
 62
     0
370
    -2
100
AcDbLine
 10
567.0000000000008
 20
-137.0
 30
0.0
 11
567.0000000000008
 21
-225.595875
 31
0.0
  0
LINE
  5
153CC
330
153CA
100
AcDbEntity
  8
30
  6
Continuous
 62
     0
370
    -2
100
AcDbLine
 10
599.0000000000009
 20
-137.0
 30
0.0
 11
599.0000000000009
 21
-225.595875
 31
0.0
  0
LINE
  5
153CD
330
153CA
100
AcDbEntity
  8
30
  6
Continuous
 62
     0
370
    -2
100
AcDbLine
 10
569.0000000000009
 20
-225.095875
 30
0.0
 11
597.0000000000009
 21
-225.095875
 31
0.0
  0
INSERT
  5
153CE
330
153CA
100
AcDbEntity
  8
30
  6
Continuous
 62
     0
370
    -2
100
AcDbBlockReference
  2
_OPEN
 10
567.0000000000008
 20
-225.095875
 30
0.0
 41
2.0
 42
2.0
 43
2.0
 50
180.0
  0
INSERT
  5
153CF
330
153CA
100
AcDbEntity
  8
30
  6
Continuous
 62
     0
370
    -2
100
AcDbBlockReference
  2
_OPEN
 10
599.0000000000009
 20
-225.095875
 30
0.0
 41
2.0
 42
2.0
 43
2.0
  0
MTEXT
  5
153D0
330
153CA
100
AcDbEntity
  8
30
  6
Continuous
 62
     0
100
AcDbMText
 10
583.0000000000008
 20
-219.095875
 30
0.0
 40
6.0
 41
0.0
 71
     5
 72
     1
  1
\A1; 32 
 73
     1
 44
1.0
  0
POINT
  5
153D1
330
153CA
100
AcDbEntity
  8
DEFPOINTS
  6
Continuous
 62
     0
100
AcDbPoint
 10
567.0000000000008
 20
-134.0
 30
0.0
  0
POINT
  5
153D2
330
153CA
100
AcDbEntity
  8
DEFPOINTS
  6
Continuous
 62
     0
100
AcDbPoint
 10
599.0000000000009
 20
-134.0
 30
0.0
  0
POINT
  5
153D3
330
153CA
100
AcDbEntity
  8
DEFPOINTS
  6
Continuous
 62
     0
100
AcDbPoint
 10
599.0000000000009
 20
-225.095875
 30
0.0
  0
ENDBLK
  5
153D5
330
153CA
100
AcDbEntity
  8
0
100
AcDbBlockEnd
  0
BLOCK
  5
153E2
330
153D6
100
AcDbEntity
  8
0
100
AcDbBlockBegin
  2
*D159
 70
     1
 10
0.0
 20
0.0
 30
0.0
  3
*D159
  1

  0
LINE
  5
153D7
330
153D6
100
AcDbEntity
  8
30
  6
Continuous
 62
     0
370
    -2
100
AcDbLine
 10
559.0000000000009
 20
-132.0
 30
0.0
 11
559.0000000000009
 21
-225.595875
 31
0.0
  0
LINE
  5
153D8
330
153D6
100
AcDbEntity
  8
30
  6
Continuous
 62
     0
370
    -2
100
AcDbLine
 10
567.0000000000008
 20
-132.0
 30
0.0
 11
567.0000000000008
 21
-225.595875
 31
0.0
  0
LINE
  5
153D9
330
153D6
100
AcDbEntity
  8
30
  6
Continuous
 62
     0
370
    -2
100
AcDbLine
 10
557.0000000000009
 20
-225.095875
 30
0.0
 11
555.0000000000009
 21
-225.095875
 31
0.0
  0
LINE
  5
153DA
330
153D6
100
AcDbEntity
  8
30
  6
Continuous
 62
     0
370
    -2
100
AcDbLine
 10
569.0000000000009
 20
-225.095875
 30
0.0
 11
571.0000000000008
 21
-225.095875
 31
0.0
  0
LINE
  5
153DB
330
153D6
100
AcDbEntity
  8
30
  6
Continuous
 62
     0
370
    -2
100
AcDbLine
 10
559.0000000000009
 20
-225.095875
 30
0.0
 11
567.0000000000008
 21
-225.095875
 31
0.0
  0
INSERT
  5
153DC
330
153D6
100
AcDbEntity
  8
30
  6
Continuous
 62
     0
370
    -2
100
AcDbBlockReference
  2
_OPEN
 10
559.0000000000009
 20
-225.095875
 30
0.0
 41
2.0
 42
2.0
 43
2.0
  0
INSERT
  5
153DD
330
153D6
100
AcDbEntity
  8
30
  6
Continuous
 62
     0
370
    -2
100
AcDbBlockReference
  2
_OPEN
 10
567.0000000000008
 20
-225.095875
 30
0.0
 41
2.0
 42
2.0
 43
2.0
 50
180.0
  0
MTEXT
  5
153DE
330
153D6
100
AcDbEntity
  8
30
  6
Continuous
 62
     0
100
AcDbMText
 10
563.0000000000008
 20
-219.095875
 30
0.0
 40
6.0
 41
0.0
 71
     5
 72
     1
  1
\A1;8 
 73
     1
 44
1.0
  0
POINT
  5
153DF
330
153D6
100
AcDbEntity
  8
DEFPOINTS
  6
Continuous
 62
     0
100
AcDbPoint
 10
559.0000000000009
 20
-129.0
 30
0.0
  0
POINT
  5
153E0
330
153D6
100
AcDbEntity
  8
DEFPOINTS
  6
Continuous
 62
     0
100
AcDbPoint
 10
567.0000000000008
 20
-129.0
 30
0.0
  0
POINT
  5
153E1
330
153D6
100
AcDbEntity
  8
DEFPOINTS
  6
Continuous
 62
     0
100
AcDbPoint
 10
567.0000000000008
 20
-225.095875
 30
0.0
  0
ENDBLK
  5
153E3
330
153D6
100
AcDbEntity
  8
0
100
AcDbBlockEnd
  0
BLOCK
  5
153FC
330
153F0
100
AcDbEntity
  8
0
100
AcDbBlockBegin
  2
*D161
 70
     1
 10
0.0
 20
0.0
 30
0.0
  3
*D161
  1

  0
LINE
  5
15423
330
153F0
100
AcDbEntity
  8
30
  6
Continuous
 62
     0
370
    -2
100
AcDbLine
 10
536.0
 20
-116.9999999999998
 30
0.0
 11
536.0
 21
-210.5958749999998
 31
0.0
  0
LINE
  5
15424
330
153F0
100
AcDbEntity
  8
30
  6
Continuous
 62
     0
370
    -2
100
AcDbLine
 10
544.0
 20
-116.9999999999998
 30
0.0
 11
544.0
 21
-210.5958749999998
 31
0.0
  0
LINE
  5
15425
330
153F0
100
AcDbEntity
  8
30
  6
Continuous
 62
     0
370
    -2
100
AcDbLine
 10
534.0
 20
-210.0958749999998
 30
0.0
 11
532.0
 21
-210.0958749999998
 31
0.0
  0
LINE
  5
15426
330
153F0
100
AcDbEntity
  8
30
  6
Continuous
 62
     0
370
    -2
100
AcDbLine
 10
546.0
 20
-210.0958749999998
 30
0.0
 11
548.0
 21
-210.0958749999998
 31
0.0
  0
LINE
  5
15427
330
153F0
100
AcDbEntity
  8
30
  6
Continuous
 62
     0
370
    -2
100
AcDbLine
 10
536.0
 20
-210.0958749999998
 30
0.0
 11
544.0
 21
-210.0958749999998
 31
0.0
  0
INSERT
  5
15428
330
153F0
100
AcDbEntity
  8
30
  6
Continuous
 62
     0
370
    -2
100
AcDbBlockReference
  2
_OPEN
 10
536.0
 20
-210.0958749999998
 30
0.0
 41
2.0
 42
2.0
 43
2.0
  0
INSERT
  5
15429
330
153F0
100
AcDbEntity
  8
30
  6
Continuous
 62
     0
370
    -2
100
AcDbBlockReference
  2
_OPEN
 10
544.0
 20
-210.0958749999998
 30
0.0
 41
2.0
 42
2.0
 43
2.0
 50
180.0
  0
MTEXT
  5
1542A
330
153F0
100
AcDbEntity
  8
30
  6
Continuous
 62
     0
100
AcDbMText
 10
540.0
 20
-204.0958749999998
 30
0.0
 40
6.0
 41
0.0
 71
     5
 72
     1
  1
\A1;8 
 73
     1
 44
1.0
  0
POINT
  5
1542B
330
153F0
100
AcDbEntity
  8
DEFPOINTS
  6
Continuous
 62
     0
100
AcDbPoint
 10
536.0
 20
-113.9999999999998
 30
0.0
  0
POINT
  5
1542C
330
153F0
100
AcDbEntity
  8
DEFPOINTS
  6
Continuous
 62
     0
100
AcDbPoint
 10
544.0
 20
-113.9999999999998
 30
0.0
  0
POINT
  5
1542D
330
153F0
100
AcDbEntity
  8
DEFPOINTS
  6
Continuous
 62
     0
100
AcDbPoint
 10
544.0
 20
-210.0958749999998
 30
0.0
  0
ENDBLK
  5
153FD
330
153F0
100
AcDbEntity
  8
0
100
AcDbBlockEnd
  0
BLOCK
  5
15408
330
153FE
100
AcDbEntity
  8
0
100
AcDbBlockBegin
  2
*D162
 70
     1
 10
0.0
 20
0.0
 30
0.0
  3
*D162
  1

  0
LINE
  5
1542E
330
153FE
100
AcDbEntity
  8
30
  6
Continuous
 62
     0
370
    -2
100
AcDbLine
 10
544.0
 20
-121.9999999999998
 30
0.0
 11
544.0
 21
-210.5958749999998
 31
0.0
  0
LINE
  5
1542F
330
153FE
100
AcDbEntity
  8
30
  6
Continuous
 62
     0
370
    -2
100
AcDbLine
 10
576.0
 20
-121.9999999999998
 30
0.0
 11
576.0
 21
-210.5958749999998
 31
0.0
  0
LINE
  5
15430
330
153FE
100
AcDbEntity
  8
30
  6
Continuous
 62
     0
370
    -2
100
AcDbLine
 10
546.0
 20
-210.0958749999998
 30
0.0
 11
574.0
 21
-210.0958749999998
 31
0.0
  0
INSERT
  5
15431
330
153FE
100
AcDbEntity
  8
30
  6
Continuous
 62
     0
370
    -2
100
AcDbBlockReference
  2
_OPEN
 10
544.0
 20
-210.0958749999998
 30
0.0
 41
2.0
 42
2.0
 43
2.0
 50
180.0
  0
INSERT
  5
15432
330
153FE
100
AcDbEntity
  8
30
  6
Continuous
 62
     0
370
    -2
100
AcDbBlockReference
  2
_OPEN
 10
576.0
 20
-210.0958749999998
 30
0.0
 41
2.0
 42
2.0
 43
2.0
  0
MTEXT
  5
15433
330
153FE
100
AcDbEntity
  8
30
  6
Continuous
 62
     0
100
AcDbMText
 10
560.0
 20
-204.0958749999998
 30
0.0
 40
6.0
 41
0.0
 71
     5
 72
     1
  1
\A1; 32 
 73
     1
 44
1.0
  0
POINT
  5
15434
330
153FE
100
AcDbEntity
  8
DEFPOINTS
  6
Continuous
 62
     0
100
AcDbPoint
 10
544.0
 20
-118.9999999999998
 30
0.0
  0
POINT
  5
15435
330
153FE
100
AcDbEntity
  8
DEFPOINTS
  6
Continuous
 62
     0
100
AcDbPoint
 10
576.0
 20
-118.9999999999998
 30
0.0
  0
POINT
  5
15436
330
153FE
100
AcDbEntity
  8
DEFPOINTS
  6
Continuous
 62
     0
100
AcDbPoint
 10
576.0
 20
-210.0958749999998
 30
0.0
  0
ENDBLK
  5
15409
330
153FE
100
AcDbEntity
  8
0
100
AcDbBlockEnd
  0
BLOCK
  5
15415
330
1540A
100
AcDbEntity
  8
0
100
AcDbBlockBegin
  2
*D163
 70
     1
 10
0.0
 20
0.0
 30
0.0
  3
*D163
  1

  0
LINE
  5
15460
330
1540A
100
AcDbEntity
  8
30
  6
Continuous
 62
     0
370
    -2
100
AcDbLine
 10
576.0
 20
-121.9999999999998
 30
0.0
 11
576.0
 21
-210.5958749999998
 31
0.0
  0
LINE
  5
15461
330
1540A
100
AcDbEntity
  8
30
  6
Continuous
 62
     0
370
    -2
100
AcDbLine
 10
591.0
 20
-144.4999999999998
 30
0.0
 11
591.0
 21
-210.5958749999998
 31
0.0
  0
LINE
  5
15462
330
1540A
100
AcDbEntity
  8
30
  6
Continuous
 62
     0
370
    -2
100
AcDbLine
 10
578.0
 20
-210.0958749999998
 30
0.0
 11
589.0
 21
-210.0958749999998
 31
0.0
  0
INSERT
  5
15463
330
1540A
100
AcDbEntity
  8
30
  6
Continuous
 62
     0
370
    -2
100
AcDbBlockReference
  2
_OPEN
 10
576.0
 20
-210.0958749999998
 30
0.0
 41
2.0
 42
2.0
 43
2.0
 50
180.0
  0
INSERT
  5
15464
330
1540A
100
AcDbEntity
  8
30
  6
Continuous
 62
     0
370
    -2
100
AcDbBlockReference
  2
_OPEN
 10
591.0
 20
-210.0958749999998
 30
0.0
 41
2.0
 42
2.0
 43
2.0
  0
MTEXT
  5
15465
330
1540A
100
AcDbEntity
  8
30
  6
Continuous
 62
     0
100
AcDbMText
 10
581.0
 20
-204.0958749999998
 30
0.0
 40
6.0
 41
0.0
 71
     5
 72
     1
  1
\A1; 15 
 73
     1
 44
1.0
  0
POINT
  5
15466
330
1540A
100
AcDbEntity
  8
DEFPOINTS
  6
Continuous
 62
     0
100
AcDbPoint
 10
576.0
 20
-118.9999999999998
 30
0.0
  0
POINT
  5
15467
330
1540A
100
AcDbEntity
  8
DEFPOINTS
  6
Continuous
 62
     0
100
AcDbPoint
 10
591.0
 20
-141.4999999999998
 30
0.0
  0
POINT
  5
15468
330
1540A
100
AcDbEntity
  8
DEFPOINTS
  6
Continuous
 62
     0
100
AcDbPoint
 10
591.0
 20
-210.0958749999998
 30
0.0
  0
ENDBLK
  5
15416
330
1540A
100
AcDbEntity
  8
0
100
AcDbBlockEnd
  0
BLOCK
  5
15421
330
15417
100
AcDbEntity
  8
0
100
AcDbBlockBegin
  2
*D164
 70
     1
 10
0.0
 20
0.0
 30
0.0
  3
*D164
  1

  0
LINE
  5
15441
330
15417
100
AcDbEntity
  8
30
  6
Continuous
 62
     0
370
    -2
100
AcDbLine
 10
516.0
 20
-148.9999999999998
 30
0.0
 11
516.0
 21
-210.5958749999998
 31
0.0
  0
LINE
  5
15442
330
15417
100
AcDbEntity
  8
30
  6
Continuous
 62
     0
370
    -2
100
AcDbLine
 10
536.0
 20
-121.9999999999998
 30
0.0
 11
536.0
 21
-210.5958749999998
 31
0.0
  0
LINE
  5
15443
330
15417
100
AcDbEntity
  8
30
  6
Continuous
 62
     0
370
    -2
100
AcDbLine
 10
518.0
 20
-210.0958749999998
 30
0.0
 11
534.0
 21
-210.0958749999998
 31
0.0
  0
INSERT
  5
15444
330
15417
100
AcDbEntity
  8
30
  6
Continuous
 62
     0
370
    -2
100
AcDbBlockReference
  2
_OPEN
 10
516.0
 20
-210.0958749999998
 30
0.0
 41
2.0
 42
2.0
 43
2.0
 50
180.0
  0
INSERT
  5
15445
330
15417
100
AcDbEntity
  8
30
  6
Continuous
 62
     0
370
    -2
100
AcDbBlockReference
  2
_OPEN
 10
536.0
 20
-210.0958749999998
 30
0.0
 41
2.0
 42
2.0
 43
2.0
  0
MTEXT
  5
15446
330
15417
100
AcDbEntity
  8
30
  6
Continuous
 62
     0
100
AcDbMText
 10
526.0
 20
-204.0958749999998
 30
0.0
 40
6.0
 41
0.0
 71
     5
 72
     1
  1
\A1; 20 
 73
     1
 44
1.0
  0
POINT
  5
15447
330
15417
100
AcDbEntity
  8
DEFPOINTS
  6
Continuous
 62
     0
100
AcDbPoint
 10
516.0
 20
-145.9999999999998
 30
0.0
  0
POINT
  5
15448
330
15417
100
AcDbEntity
  8
DEFPOINTS
  6
Continuous
 62
     0
100
AcDbPoint
 10
536.0
 20
-118.9999999999998
 30
0.0
  0
POINT
  5
15449
330
15417
100
AcDbEntity
  8
DEFPOINTS
  6
Continuous
 62
     0
100
AcDbPoint
 10
536.0
 20
-210.0958749999998
 30
0.0
  0
ENDBLK
  5
15422
330
15417
100
AcDbEntity
  8
0
100
AcDbBlockEnd
  0
BLOCK
  5
15455
330
1544B
100
AcDbEntity
  8
0
100
AcDbBlockBegin
  2
*D165
 70
     1
 10
0.0
 20
0.0
 30
0.0
  3
*D165
  1

  0
LINE
  5
1544C
330
1544B
100
AcDbEntity
  8
30
  6
Continuous
 62
     0
370
    -2
100
AcDbLine
 10
480.0
 20
-172.9999999999999
 30
0.0
 11
480.0
 21
-263.9999999999999
 31
0.0
  0
LINE
  5
1544D
330
1544B
100
AcDbEntity
  8
30
  6
Continuous
 62
     0
370
    -2
100
AcDbLine
 10
591.0000000000004
 20
-139.4999999999999
 30
0.0
 11
591.0000000000004
 21
-263.9999999999999
 31
0.0
  0
LINE
  5
1544E
330
1544B
100
AcDbEntity
  8
30
  6
Continuous
 62
     0
370
    -2
100
AcDbLine
 10
482.0
 20
-263.4999999999999
 30
0.0
 11
589.0000000000005
 21
-263.4999999999999
 31
0.0
  0
INSERT
  5
1544F
330
1544B
100
AcDbEntity
  8
30
  6
Continuous
 62
     0
370
    -2
100
AcDbBlockReference
  2
_OPEN
 10
480.0
 20
-263.4999999999999
 30
0.0
 41
2.0
 42
2.0
 43
2.0
 50
180.0
  0
INSERT
  5
15450
330
1544B
100
AcDbEntity
  8
30
  6
Continuous
 62
     0
370
    -2
100
AcDbBlockReference
  2
_OPEN
 10
591.0000000000004
 20
-263.4999999999999
 30
0.0
 41
2.0
 42
2.0
 43
2.0
  0
MTEXT
  5
15451
330
1544B
100
AcDbEntity
  8
30
  6
Continuous
 62
     0
100
AcDbMText
 10
535.5000000000002
 20
-257.4999999999999
 30
0.0
 40
6.0
 41
0.0
 71
     5
 72
     1
  1
\A1;111
 73
     1
 44
1.0
  0
POINT
  5
15452
330
1544B
100
AcDbEntity
  8
DEFPOINTS
  6
Continuous
 62
     0
100
AcDbPoint
 10
480.0
 20
-169.9999999999999
 30
0.0
  0
POINT
  5
15453
330
1544B
100
AcDbEntity
  8
DEFPOINTS
  6
Continuous
 62
     0
100
AcDbPoint
 10
591.0000000000004
 20
-136.4999999999999
 30
0.0
  0
POINT
  5
15454
330
1544B
100
AcDbEntity
  8
DEFPOINTS
  6
Continuous
 62
     0
100
AcDbPoint
 10
591.0000000000004
 20
-263.4999999999999
 30
0.0
  0
ENDBLK
  5
15456
330
1544B
100
AcDbEntity
  8
0
100
AcDbBlockEnd
  0
ENDSEC
  0
SECTION
  2
ENTITIES
  0
MTEXT
  5
BF3
330
1E
100
AcDbEntity
  8
24
  6
Continuous
100
AcDbMText
 10
-860.8818093901257
 20
177.5
 30
0.0
 40
3.0
 41
0.0
 71
     1
 72
     1
  1
\A1;
 73
     1
 44
1.0
  0
CIRCLE
  5
10DE5
330
1E
100
AcDbEntity
  8
12
  6
DASHED
100
AcDbCircle
 10
-34.80000000000018
 20
-155.0
 30
0.0
 40
8.5
  0
LINE
  5
10DE6
330
1E
100
AcDbEntity
  8
12
  6
DASHED
100
AcDbLine
 10
-34.80000000000018
 20
-143.75
 30
0.0
 11
-34.80000000000018
 21
-166.25
 31
0.0
  0
CIRCLE
  5
10DF8
330
1E
100
AcDbEntity
  8
12
  6
DASHED
100
AcDbCircle
 10
35.19999999999981
 20
-155.0
 30
0.0
 40
8.5
  0
LINE
  5
10DF9
330
1E
100
AcDbEntity
  8
12
  6
DASHED
100
AcDbLine
 10
35.19999999999981
 20
-143.75
 30
0.0
 11
35.19999999999981
 21
-166.25
 31
0.0
  0
LINE
  5
10E02
330
1E
100
AcDbEntity
  8
10
  6
Continuous
100
AcDbLine
 10
175.0
 20
170.0
 30
0.0
 11
-105.0
 21
170.0
 31
0.0
  0
LINE
  5
10E04
330
1E
100
AcDbEntity
  8
16
100
AcDbLine
 10
185.0
 20
0.0
 30
0.0
 11
-115.0
 21
0.0
 31
0.0
  0
CIRCLE
  5
10E14
330
1E
100
AcDbEntity
  8
12
  6
DASHED
100
AcDbCircle
 10
-34.80000000000018
 20
185.0
 30
0.0
 40
8.5
  0
LINE
  5
10E15
330
1E
100
AcDbEntity
  8
12
  6
DASHED
100
AcDbLine
 10
-46.05000000000018
 20
185.0
 30
0.0
 11
-23.55000000000018
 21
185.0
 31
0.0
  0
LINE
  5
10E16
330
1E
100
AcDbEntity
  8
12
  6
DASHED
100
AcDbLine
 10
-34.80000000000018
 20
196.25
 30
0.0
 11
-34.80000000000018
 21
173.75
 31
0.0
  0
CIRCLE
  5
10E2D
330
1E
100
AcDbEntity
  8
10
  6
Continuous
100
AcDbCircle
 10
31.19999999999981
 20
-70.49999999999954
 30
0.0
 40
3.3
  0
CIRCLE
  5
10E36
330
1E
100
AcDbEntity
  8
12
  6
DASHED
100
AcDbCircle
 10
35.19999999999981
 20
185.0
 30
0.0
 40
8.5
  0
LINE
  5
10E37
330
1E
100
AcDbEntity
  8
12
  6
DASHED
100
AcDbLine
 10
23.94999999999981
 20
185.0
 30
0.0
 11
46.44999999999981
 21
185.0
 31
0.0
  0
LINE
  5
10E38
330
1E
100
AcDbEntity
  8
12
  6
DASHED
100
AcDbLine
 10
35.19999999999981
 20
196.25
 30
0.0
 11
35.19999999999981
 21
173.75
 31
0.0
  0
LINE
  5
10E4A
330
1E
100
AcDbEntity
  8
16
100
AcDbLine
 10
510.0
 20
0.0000000000000568
 30
0.0
 11
292.1000000000003
 21
0.0000000000000568
 31
0.0
  0
LINE
  5
115E7
330
1E
100
AcDbEntity
  8
16
100
AcDbLine
 10
-0.0020510501931561
 20
500.2979050000003
 30
0.0
 11
-0.0020510501931561
 21
323.8979050000007
 31
0.0
  0
LWPOLYLINE
  5
11F76
330
1E
100
AcDbEntity
  8
10
  6
Continuous
100
AcDbPolyline
 90
        8
 70
     1
 43
0.0
 10
91.99999999999977
 20
47.5
 10
-92.00000000000022
 20
47.5
 42
0.4142135623730951
 10
-95.00000000000023
 20
44.5
 10
-95.00000000000023
 20
-44.5
 42
0.4142135623730951
 10
-92.00000000000022
 20
-47.5
 10
91.99999999999977
 20
-47.5
 42
0.4142135623730951
 10
94.99999999999976
 20
-44.5
 10
94.99999999999976
 20
44.5
 42
0.4142135623730951
  0
LWPOLYLINE
  5
11F77
330
1E
100
AcDbEntity
  8
10
  6
Continuous
100
AcDbPolyline
 90
        4
 70
     1
 43
0.0
 10
-105.0
 20
200.0
 10
175.0
 20
200.0
 10
175.0
 20
-170.0
 10
-105.0
 20
-170.0
  0
LWPOLYLINE
  5
11F78
330
1E
100
AcDbEntity
  8
10
  6
Continuous
100
AcDbPolyline
 90
        4
 70
     1
 43
0.0
 10
-105.0
 20
170.0
 10
175.0
 20
170.0
 10
175.0
 20
-140.0
 10
-105.0
 20
-140.0
  0
LINE
  5
11F79
330
1E
100
AcDbEntity
  8
12
  6
DASHED
100
AcDbLine
 10
23.94999999999981
 20
-155.0
 30
0.0
 11
46.44999999999981
 21
-155.0
 31
0.0
  0
LINE
  5
11F7A
330
1E
100
AcDbEntity
  8
12
  6
DASHED
100
AcDbLine
 10
-46.05000000000018
 20
-155.0
 30
0.0
 11
-23.55000000000018
 21
-155.0
 31
0.0
  0
LWPOLYLINE
  5
11F7E
330
1E
100
AcDbEntity
  8
10
  6
Continuous
100
AcDbPolyline
 90
        4
 70
     1
 43
0.0
 10
-39.0
 20
47.5
 10
38.99999999999954
 20
47.5
 10
38.99999999999954
 20
-47.5
 10
-39.0
 20
-47.5
  0
LWPOLYLINE
  5
11F7F
330
1E
100
AcDbEntity
  8
10
  6
Continuous
100
AcDbPolyline
 90
        4
 70
     1
 43
0.0
 10
-22.5
 20
43.33292999999912
 10
22.5
 20
43.33292999999912
 10
22.5
 20
-22.99999999999954
 10
-22.5
 20
-22.99999999999954
  0
LWPOLYLINE
  5
11F80
330
1E
100
AcDbEntity
  8
10
  6
Continuous
100
AcDbPolyline
 90
        4
 70
     1
 43
0.0
 10
-22.5
 20
43.33292999999912
 10
22.5
 20
43.33292999999912
 10
22.5
 20
31.9322349999993
 10
-22.5
 20
31.9322349999993
  0
LWPOLYLINE
  5
11F81
330
1E
100
AcDbEntity
  8
10
  6
Continuous
100
AcDbPolyline
 90
        4
 70
     1
 43
0.0
 10
27.20000000000027
 20
-33.49999999999909
 10
33.20000000000027
 20
-33.49999999999909
 10
33.20000000000027
 20
-41.5000000000009
 10
27.20000000000027
 20
-41.5000000000009
  0
LINE
  5
11FB2
330
1E
100
AcDbEntity
  8
16
100
AcDbLine
 10
0.0
 20
-780.0
 30
0.0
 11
0.0
 21
-390.0
 31
0.0
  0
LINE
  5
11FCF
330
1E
100
AcDbEntity
  8
16
100
AcDbLine
 10
185.0
 20
-600.0
 30
0.0
 11
-115.0
 21
-600.0
 31
0.0
  0
MTEXT
  5
12075
330
1E
100
AcDbEntity
  8
19
  6
Continuous
100
AcDbMText
 10
391.1041004604667
 20
317.141760114146
 30
0.0
 40
8.0
 41
178.128670620229
 71
     1
 72
     5
  1
S1250-NE 4P RC\PS1250-GE 4P RC\PS1250-NN 4P RC
  7
STANDARD1
 73
     1
 44
1.0
  0
LINE
  5
12093
330
1E
100
AcDbEntity
  8
18
  6
DIVIDE
100
AcDbLine
 10
245.0
 20
-400.0
 30
0.0
 11
245.0
 21
-770.0
 31
0.0
  0
LINE
  5
12095
330
1E
100
AcDbEntity
  8
16
100
AcDbLine
 10
350.0
 20
-780.0
 30
0.0
 11
350.0
 21
-390.0
 31
0.0
  0
LINE
  5
12099
330
1E
100
AcDbEntity
  8
18
  6
DIVIDE
100
AcDbLine
 10
525.0
 20
-400.0
 30
0.0
 11
245.0
 21
-400.0
 31
0.0
  0
LINE
  5
1209B
330
1E
100
AcDbEntity
  8
16
100
AcDbLine
 10
535.0
 20
-600.0
 30
0.0
 11
235.0
 21
-600.0
 31
0.0
  0
LWPOLYLINE
  5
120B0
330
1E
100
AcDbEntity
  8
18
  6
DIVIDE
100
AcDbPolyline
 90
        4
 70
     1
 43
0.0
 10
245.0
 20
-400.0
 10
525.0
 20
-400.0
 10
525.0
 20
-770.0
 10
245.0
 20
-770.0
  0
LWPOLYLINE
  5
120B1
330
1E
100
AcDbEntity
  8
18
  6
DIVIDE
100
AcDbPolyline
 90
        4
 70
     1
 43
0.0
 10
245.0
 20
-400.0
 10
525.0
 20
-400.0
 10
525.0
 20
-770.0
 10
245.0
 20
-770.0
  0
LWPOLYLINE
  5
120B3
330
1E
100
AcDbEntity
  8
11
 48
2.0
100
AcDbPolyline
 90
        8
 70
     1
 43
0.0
 10
256.4999999999999
 20
-550.9999999999991
 10
443.5
 20
-550.999999999999
 42
-0.4142135623730951
 10
446.4999999999999
 20
-553.9999999999991
 10
446.4999999999999
 20
-645.9999999999991
 42
-0.4142135623730951
 10
443.5
 20
-648.9999999999991
 10
256.4999999999999
 20
-648.9999999999991
 42
-0.4142135623730951
 10
253.4999999999998
 20
-645.9999999999991
 10
253.4999999999998
 20
-553.9999999999992
 42
-0.4142135623730948
  0
DIMENSION
  5
120B4
330
1E
100
AcDbEntity
  8
30
  6
Continuous
100
AcDbDimension
  2
*D8
 10
446.4999999999999
 20
-810.0
 30
0.0
 11
349.9999999999999
 21
-804.0
 31
0.0
 70
    32
  1
 <> 
 71
     5
 42
193.0000000000001
  3
STANDARD1
100
AcDbAlignedDimension
 13
253.4999999999998
 23
-645.9999999999998
 33
0.0
 14
446.4999999999999
 24
-645.9999999999991
 34
0.0
100
AcDbRotatedDimension
  0
DIMENSION
  5
120B5
330
1E
100
AcDbEntity
  8
30
  6
Continuous
100
AcDbDimension
  2
*D9
 10
225.0
 20
-648.9999999999997
 30
0.0
 11
219.0000000000001
 21
-599.9999999999995
 31
0.0
 70
    32
 71
     5
 42
98.00000000000057
  3
STANDARD1
100
AcDbAlignedDimension
 13
253.4999999999998
 23
-550.9999999999991
 33
0.0
 14
253.4999999999998
 24
-648.9999999999997
 34
0.0
 50
90.0
100
AcDbRotatedDimension
  0
LINE
  5
13826
330
1E
100
AcDbEntity
  8
16
100
AcDbLine
 10
-0.0000000000000213
 20
256.0000000000005
 30
0.0
 11
0.0000000000000355
 21
631.0000000000002
 31
0.0
  0
LINE
  5
139A2
330
1E
100
AcDbEntity
  8
16
100
AcDbLine
 10
0.0
 20
-190.0
 30
0.0
 11
0.0
 21
240.0
 31
0.0
  0
DIMENSION
  5
139A3
330
1E
100
AcDbEntity
  8
30
  6
Continuous
100
AcDbDimension
  2
*D12
 10
175.0000000000002
 20
-210.0
 30
0.0
 11
35.00000000000023
 21
-204.0
 31
0.0
 70
    32
  1
 <> 
 71
     5
 42
280.0
  3
STANDARD1
100
AcDbAlignedDimension
 13
-104.9999999999997
 23
-175.0000000000004
 33
0.0
 14
175.0000000000002
 24
-175.0000000000004
 34
0.0
100
AcDbRotatedDimension
  0
DIMENSION
  5
1417D
330
1E
100
AcDbEntity
  8
30
  6
Continuous
100
AcDbDimension
  2
*D30
 10
256.4099999999998
 20
-553.999999999999
 30
0.0
 11
261.9968486915065
 21
-540.9634736719373
 31
0.0
 70
   164
 71
     5
 42
3.0
  3
STANDARD1
100
AcDbRadialDimension
 15
255.8639554236985
 25
-551.0501126596598
 35
0.0
 40
0.0
  0
LINE
  5
144D1
330
1E
100
AcDbEntity
  8
12
  6
DASHED
100
AcDbLine
 10
452.0
 20
-157.9999999999999
 30
0.0
 11
480.0
 21
-157.9999999999999
 31
0.0
  0
LINE
  5
144D2
330
1E
100
AcDbEntity
  8
12
  6
DASHED
100
AcDbLine
 10
450.0
 20
-153.9999999999999
 30
0.0
 11
513.0
 21
-153.9999999999999
 31
0.0
  0
LINE
  5
144D4
330
1E
100
AcDbEntity
  8
1
  6
Continuous
 62
     3
100
AcDbLine
 10
450.0
 20
184.0004899999999
 30
0.0
 11
513.0
 21
184.0004899999999
 31
0.0
  0
LINE
  5
144D7
330
1E
100
AcDbEntity
  8
12
  6
DASHED
100
AcDbLine
 10
443.7000000000002
 20
-153.9999999999999
 30
0.0
 11
501.0000000000004
 21
-153.9999999999999
 31
0.0
  0
LINE
  5
144D8
330
1E
100
AcDbEntity
  8
12
  6
DASHED
100
AcDbLine
 10
452.0
 20
-149.9999999999999
 30
0.0
 11
480.0
 21
-149.9999999999999
 31
0.0
  0
DIMENSION
  5
144DC
330
1E
100
AcDbEntity
  8
30
  6
Continuous
100
AcDbDimension
  2
*D76
 10
480.0
 20
-262.9999999999999
 30
0.0
 11
420.0
 21
-256.9999999999999
 31
0.0
 70
    32
  1
 <> 
 71
     5
 42
120.0
  3
STANDARD1
100
AcDbAlignedDimension
 13
360.0
 23
-144.9999999999999
 33
0.0
 14
480.0
 24
-174.9999999999999
 34
0.0
100
AcDbRotatedDimension
  0
DIMENSION
  5
144DD
330
1E
100
AcDbEntity
  8
30
  6
Continuous
100
AcDbDimension
  2
*D77
 10
480.0
 20
-242.9999999999999
 30
0.0
 11
466.0
 21
-236.9999999999999
 31
0.0
 70
    32
  1
 <> 
 71
     5
 42
28.0
  3
STANDARD1
100
AcDbAlignedDimension
 13
452.0
 23
-150.4999999999999
 33
0.0
 14
480.0
 24
-174.9999999999999
 34
0.0
100
AcDbRotatedDimension
  0
DIMENSION
  5
144DE
330
1E
100
AcDbEntity
  8
30
  6
Continuous
100
AcDbDimension
  2
*D78
 10
480.0
 20
-282.9999999999999
 30
0.0
 11
416.5
 21
-276.9999999999999
 31
0.0
 70
    32
  1
 <> 
 71
     5
 42
127.0
  3
STANDARD1
100
AcDbAlignedDimension
 13
353.0
 23
-52.49999999999994
 33
0.0
 14
480.0
 24
-174.9999999999999
 34
0.0
100
AcDbRotatedDimension
  0
DIMENSION
  5
144DF
330
1E
100
AcDbEntity
  8
30
  6
Continuous
100
AcDbDimension
  2
*D79
 10
480.0
 20
-302.9999999999999
 30
0.0
 11
394.5
 21
-296.9999999999999
 31
0.0
 70
    32
  1
 <> 
 71
     5
 42
171.0
  3
STANDARD1
100
AcDbAlignedDimension
 13
309.0
 23
-7.799999999999897
 33
0.0
 14
480.0
 24
-169.9999999999999
 34
0.0
100
AcDbRotatedDimension
  0
DIMENSION
  5
14569
330
1E
100
AcDbEntity
  8
30
  6
Continuous
100
AcDbDimension
  2
*D67
 10
353.0
 20
-282.9999999999999
 30
0.0
 11
332.6999999999999
 21
-282.9999999999999
 31
0.0
 70
   160
  1
 <> 
 71
     5
 42
10.0
  3
STANDARD1
100
AcDbAlignedDimension
 13
343.0
 23
4.500000000000056
 33
0.0
 14
353.0
 24
-52.49999999999994
 34
0.0
100
AcDbRotatedDimension
1001
ACAD
1000
DSTYLE
1002
{
1070
    74
1070
     0
1070
   174
1070
     1
1002
}
  0
DIMENSION
  5
1456A
330
1E
100
AcDbEntity
  8
30
  6
Continuous
100
AcDbDimension
  2
*D68
 10
309.0
 20
-302.9999999999999
 30
0.0
 11
269.0
 21
-296.9999999999999
 31
0.0
 70
    32
  1
 <> 
 71
     5
 42
80.0
  3
STANDARD1
100
AcDbAlignedDimension
 13
229.0
 23
-2.799999999999897
 33
0.0
 14
309.0
 24
-2.799999999999897
 34
0.0
100
AcDbRotatedDimension
  0
ARC
  5
1456C
330
1E
100
AcDbEntity
  8
1
  6
Continuous
 62
     4
100
AcDbCircle
 10
406.5
 20
-2.799999999999897
 30
0.0
 40
177.5
100
AcDbArc
 50
161.7763989999955
 51
180.0
  0
LINE
  5
1456D
330
1E
100
AcDbEntity
  8
12
  6
DASHED
100
AcDbLine
 10
452.0
 20
-162.4999999999999
 30
0.0
 11
452.0
 21
-145.4999999999999
 31
0.0
  0
ARC
  5
1456F
330
1E
100
AcDbEntity
  8
12
  6
DASHED
100
AcDbCircle
 10
451.3299999999999
 20
-151.33
 30
0.0
 40
5.329999999999999
100
AcDbArc
 50
90.0
 51
180.0
  0
LINE
  5
14570
330
1E
100
AcDbEntity
  8
12
  6
DASHED
100
AcDbLine
 10
368.0
 20
-162.4999999999999
 30
0.0
 11
452.0
 21
-162.4999999999999
 31
0.0
  0
LINE
  5
14571
330
1E
100
AcDbEntity
  8
12
  6
DASHED
100
AcDbLine
 10
452.0
 20
-161.9999999999999
 30
0.0
 11
451.3299999999999
 21
-161.9999999999999
 31
0.0
  0
LINE
  5
14572
330
1E
100
AcDbEntity
  8
12
  6
DASHED
100
AcDbLine
 10
446.0000000000004
 20
-151.33
 30
0.0
 11
446.0000000000004
 21
-156.67
 31
0.0
  0
ARC
  5
14573
330
1E
100
AcDbEntity
  8
12
  6
DASHED
100
AcDbCircle
 10
451.3299999999999
 20
-156.67
 30
0.0
 40
5.329999999999999
100
AcDbArc
 50
180.0
 51
270.0
  0
LINE
  5
14574
330
1E
100
AcDbEntity
  8
12
  6
DASHED
100
AcDbLine
 10
368.0
 20
-145.4999999999999
 30
0.0
 11
452.0
 21
-145.4999999999999
 31
0.0
  0
LINE
  5
14576
330
1E
100
AcDbEntity
  8
12
  6
DASHED
100
AcDbLine
 10
452.0
 20
-145.9999999999999
 30
0.0
 11
451.3299999999999
 21
-145.9999999999999
 31
0.0
  0
LINE
  5
14579
330
1E
100
AcDbEntity
  8
10
  6
Continuous
100
AcDbLine
 10
353.0
 20
-47.49999999999994
 30
0.0
 11
353.0
 21
47.50000000000006
 31
0.0
  0
ARC
  5
1457A
330
1E
100
AcDbEntity
  8
1
  6
Continuous
 62
     4
100
AcDbCircle
 10
406.5
 20
-2.799999999999897
 30
0.0
 40
97.5
100
AcDbArc
 50
162.9956369999994
 51
180.0
  0
LINE
  5
145FD
330
1E
100
AcDbEntity
  8
18
  6
DIVIDE
100
AcDbLine
 10
480.0
 20
-219.9999999999999
 30
0.0
 11
480.0
 21
250.0
 31
0.0
  0
LINE
  5
145FF
330
1E
100
AcDbEntity
  8
18
  6
DIVIDE
100
AcDbLine
 10
485.0
 20
-219.9999999999999
 30
0.0
 11
485.0
 21
250.0
 31
0.0
  0
DIMENSION
  5
14600
330
1E
100
AcDbEntity
  8
30
  6
Continuous
100
AcDbDimension
  2
*D69
 10
498.0
 20
-242.9999999999999
 30
0.0
 11
489.0
 21
-236.9999999999999
 31
0.0
 70
    32
  1
 <> 
 71
     5
 42
18.0
  3
STANDARD1
100
AcDbAlignedDimension
 13
480.0
 23
-174.9999999999999
 33
0.0
 14
498.0
 24
-154.9999999999999
 34
0.0
100
AcDbRotatedDimension
  0
LINE
  5
14602
330
1E
100
AcDbEntity
  8
160
  6
Continuous
 62
     3
100
AcDbLine
 10
493.5000000000004
 20
-146.4999999999999
 30
0.0
 11
493.5000000000004
 21
-161.4999999999999
 31
0.0
  0
LINE
  5
14603
330
1E
100
AcDbEntity
  8
1
  6
Continuous
 62
     3
100
AcDbLine
 10
487.0
 20
-142.2998049999998
 30
0.0
 11
487.0
 21
-165.7001949999998
 31
0.0
  0
LINE
  5
14604
330
1E
100
AcDbEntity
  8
18
  6
DIVIDE
100
AcDbLine
 10
485.0
 20
-219.9999999999999
 30
0.0
 11
480.0
 21
-219.9999999999999
 31
0.0
  0
LINE
  5
14605
330
1E
100
AcDbEntity
  8
160
  6
Continuous
 62
     3
100
AcDbLine
 10
480.0
 20
-149.9999999999999
 30
0.0
 11
498.0
 21
-149.9999999999999
 31
0.0
  0
LINE
  5
14606
330
1E
100
AcDbEntity
  8
160
  6
Continuous
 62
     3
100
AcDbLine
 10
498.0
 20
-149.9999999999999
 30
0.0
 11
498.0
 21
-157.9999999999999
 31
0.0
  0
LINE
  5
14607
330
1E
100
AcDbEntity
  8
160
  6
Continuous
 62
     3
100
AcDbLine
 10
493.5000000000004
 20
-161.4999999999999
 30
0.0
 11
487.0
 21
-161.4999999999999
 31
0.0
  0
LINE
  5
14608
330
1E
100
AcDbEntity
  8
160
  6
Continuous
 62
     3
100
AcDbLine
 10
480.0
 20
-157.9999999999999
 30
0.0
 11
498.0
 21
-157.9999999999999
 31
0.0
  0
LINE
  5
14609
330
1E
100
AcDbEntity
  8
160
  6
Continuous
 62
     3
100
AcDbLine
 10
485.0
 20
-165.7001949999998
 30
0.0
 11
487.0
 21
-165.7001949999998
 31
0.0
  0
LINE
  5
1460D
330
1E
100
AcDbEntity
  8
160
  6
Continuous
 62
     3
100
AcDbLine
 10
493.5000000000004
 20
-146.4999999999999
 30
0.0
 11
487.0
 21
-146.4999999999999
 31
0.0
  0
LINE
  5
1460E
330
1E
100
AcDbEntity
  8
1
  6
Continuous
 62
     3
100
AcDbLine
 10
485.0
 20
-142.2998049999998
 30
0.0
 11
487.0
 21
-142.2998049999998
 31
0.0
  0
LINE
  5
14610
330
1E
100
AcDbEntity
  8
17
100
AcDbLine
 10
544.0
 20
-125.4999999999999
 30
0.0
 11
544.0
 21
-102.4999999999999
 31
0.0
  0
LINE
  5
14611
330
1E
100
AcDbEntity
  8
17
100
AcDbLine
 10
536.0000000000004
 20
-125.4999999999999
 30
0.0
 11
536.0000000000004
 21
-102.4999999999999
 31
0.0
  0
ARC
  5
14612
330
1E
100
AcDbEntity
  8
17
100
AcDbCircle
 10
544.0
 20
-113.9999999999999
 30
0.0
 40
6.5
100
AcDbArc
 50
270.0
 51
90.0
  0
ARC
  5
14613
330
1E
100
AcDbEntity
  8
17
100
AcDbCircle
 10
536.0000000000004
 20
-113.9999999999999
 30
0.0
 40
6.5
100
AcDbArc
 50
90.0
 51
270.0
  0
LINE
  5
14614
330
1E
100
AcDbEntity
  8
17
100
AcDbLine
 10
536.0000000000004
 20
-120.4999999999999
 30
0.0
 11
544.0
 21
-120.4999999999999
 31
0.0
  0
LINE
  5
14615
330
1E
100
AcDbEntity
  8
17
100
AcDbLine
 10
536.0000000000004
 20
-107.4999999999999
 30
0.0
 11
544.0
 21
-107.4999999999999
 31
0.0
  0
LINE
  5
14619
330
1E
100
AcDbEntity
  8
17
100
AcDbLine
 10
536.0000000000004
 20
132.5
 30
0.0
 11
536.0000000000004
 21
155.5
 31
0.0
  0
LINE
  5
1461A
330
1E
100
AcDbEntity
  8
17
100
AcDbLine
 10
544.0
 20
132.5
 30
0.0
 11
544.0
 21
155.5
 31
0.0
  0
LINE
  5
1461B
330
1E
100
AcDbEntity
  8
1
  6
Continuous
 62
     3
100
AcDbLine
 10
493.5000000000004
 20
191.5004899999999
 30
0.0
 11
493.5000000000004
 21
176.5004899999999
 31
0.0
  0
LINE
  5
1461C
330
1E
100
AcDbEntity
  8
1
  6
Continuous
 62
     3
100
AcDbLine
 10
487.0
 20
195.7006850000002
 30
0.0
 11
487.0
 21
172.3000500000001
 31
0.0
  0
LINE
  5
1461D
330
1E
100
AcDbEntity
  8
1
  6
Continuous
 62
     3
100
AcDbLine
 10
498.0
 20
180.0004899999999
 30
0.0
 11
498.0
 21
188.0004899999999
 31
0.0
  0
LINE
  5
14620
330
1E
100
AcDbEntity
  8
1
  6
Continuous
 62
     3
100
AcDbLine
 10
485.0
 20
172.3000500000001
 30
0.0
 11
487.0
 21
172.3000500000001
 31
0.0
  0
LINE
  5
14621
330
1E
100
AcDbEntity
  8
1
  6
Continuous
 62
     3
100
AcDbLine
 10
487.0
 20
180.0004899999999
 30
0.0
 11
498.0
 21
180.0004899999999
 31
0.0
  0
LINE
  5
14622
330
1E
100
AcDbEntity
  8
1
  6
Continuous
 62
     3
100
AcDbLine
 10
493.5000000000004
 20
176.5004899999999
 30
0.0
 11
487.0
 21
176.5004899999999
 31
0.0
  0
LINE
  5
14626
330
1E
100
AcDbEntity
  8
1
  6
Continuous
 62
     3
100
AcDbLine
 10
485.0
 20
195.7006850000002
 30
0.0
 11
487.0
 21
195.7006850000002
 31
0.0
  0
LINE
  5
14627
330
1E
100
AcDbEntity
  8
1
  6
Continuous
 62
     3
100
AcDbLine
 10
487.0
 20
188.0004899999999
 30
0.0
 11
498.0
 21
188.0004899999999
 31
0.0
  0
LINE
  5
14628
330
1E
100
AcDbEntity
  8
1
  6
Continuous
 62
     3
100
AcDbLine
 10
493.5000000000004
 20
191.5004899999999
 30
0.0
 11
487.0
 21
191.5004899999999
 31
0.0
  0
LINE
  5
14629
330
1E
100
AcDbEntity
  8
18
  6
DIVIDE
100
AcDbLine
 10
480.0
 20
250.0
 30
0.0
 11
485.0
 21
250.0
 31
0.0
  0
DIMENSION
  5
1462B
330
1E
100
AcDbEntity
  8
30
  6
Continuous
100
AcDbDimension
  2
*D71
 10
637.0
 20
144.0
 30
0.0
 11
631.0
 21
15.00000000000015
 31
0.0
 70
    32
  1
 <> 
 71
     0
 72
     0
 41
0.0
 42
258.0
  3
STANDARD1
100
AcDbAlignedDimension
 13
581.0000000000004
 23
-113.9999999999999
 33
0.0
 14
591.0000000000004
 24
144.0
 34
0.0
 50
90.0
100
AcDbRotatedDimension
  0
DIMENSION
  5
1462C
330
1E
100
AcDbEntity
  8
30
  6
Continuous
100
AcDbDimension
  2
*D72
 10
617.0000000000004
 20
144.0
 30
0.0
 11
611.0000000000004
 21
72.00000000000014
 31
0.0
 70
    32
  1
 <> 
 71
     0
 72
     0
 41
0.0
 42
144.0
  3
STANDARD1
100
AcDbAlignedDimension
 13
495.0
 23
0.0000000000000568
 33
0.0
 14
596.0000000000004
 24
144.0
 34
0.0
 50
90.0
100
AcDbRotatedDimension
  0
DIMENSION
  5
1462E
330
1E
100
AcDbEntity
  8
30
  6
Continuous
100
AcDbDimension
  2
*D74
 10
617.0
 20
0.0000000000000209
 30
0.0
 11
611.0
 21
-56.99999999999986
 31
0.0
 70
    32
  1
 <> 
 71
     0
 72
     0
 41
0.0
 42
113.9999999999999
  3
STANDARD1
100
AcDbAlignedDimension
 13
581.0000000000004
 23
-113.9999999999999
 33
0.0
 14
490.0
 24
0.0000000000000568
 34
0.0
 50
90.0
100
AcDbRotatedDimension
  0
LINE
  5
14631
330
1E
100
AcDbEntity
  8
17
100
AcDbLine
 10
480.0
 20
-113.9999999999999
 30
0.0
 11
591.0000000000004
 21
-113.9999999999999
 31
0.0
  0
LINE
  5
14634
330
1E
100
AcDbEntity
  8
17
100
AcDbLine
 10
576.0000000000004
 20
-125.4999999999999
 30
0.0
 11
576.0000000000004
 21
-102.4999999999999
 31
0.0
  0
CIRCLE
  5
14635
330
1E
100
AcDbEntity
  8
17
100
AcDbCircle
 10
576.0000000000004
 20
-113.9999999999999
 30
0.0
 40
6.5
  0
LINE
  5
14639
330
1E
100
AcDbEntity
  8
17
100
AcDbLine
 10
480.0
 20
144.0
 30
0.0
 11
591.0000000000004
 21
144.0
 31
0.0
  0
LINE
  5
1463C
330
1E
100
AcDbEntity
  8
17
100
AcDbLine
 10
576.0000000000004
 20
132.5
 30
0.0
 11
576.0000000000004
 21
155.5
 31
0.0
  0
DIMENSION
  5
1463E
330
1E
100
AcDbEntity
  8
30
  6
Continuous
100
AcDbDimension
  2
*D75
 10
609.0
 20
150.0
 30
0.0
 11
609.0
 21
144.0000000000001
 31
0.0
 70
   160
  1
<> 
 71
     5
 42
12.0
  3
STANDARD1
100
AcDbAlignedDimension
 13
596.0000000000004
 23
138.0
 33
0.0
 14
596.0000000000004
 24
150.0
 34
0.0
 50
90.0
100
AcDbRotatedDimension
  0
LWPOLYLINE
  5
14A42
330
1E
100
AcDbEntity
  8
10
  6
Continuous
100
AcDbPolyline
 90
        9
 70
     0
 43
0.0
 10
480.0
 20
200.0
 10
480.0
 20
-169.9999999999999
 10
368.0
 20
-169.9999999999999
 10
368.0
 20
-139.9999999999999
 10
360.0
 20
-139.9999999999999
 10
360.0
 20
170.0
 10
368.0
 20
170.0
 10
368.0
 20
200.0
 10
480.0
 20
200.0
  0
LWPOLYLINE
  5
14A43
330
1E
100
AcDbEntity
  8
10
  6
Continuous
100
AcDbPolyline
 90
        4
 70
     0
 43
0.0
 10
360.0
 20
47.50000000000006
 10
344.0
 20
47.50000000000006
 10
344.0
 20
-47.49999999999994
 10
360.0
 20
-47.49999999999994
  0
LWPOLYLINE
  5
14A4F
330
1E
100
AcDbEntity
  8
21
  6
Continuous
100
AcDbPolyline
 90
        4
 70
     0
 43
0.0
 10
480.0
 20
150.0
 10
591.0000000000004
 20
150.0
 10
591.0000000000004
 20
138.0
 10
480.0
 20
138.0
  0
LWPOLYLINE
  5
14A52
330
1E
100
AcDbEntity
  8
21
  6
Continuous
100
AcDbPolyline
 90
        4
 70
     0
 43
0.0
 10
480.0
 20
-91.49999999999995
 10
591.0000000000004
 20
-91.49999999999995
 10
591.0000000000004
 20
-136.4999999999999
 10
480.0
 20
-136.4999999999999
  0
LWPOLYLINE
  5
14A7B
330
1E
100
AcDbEntity
  8
10
  6
Continuous
100
AcDbPolyline
 90
       11
 70
     0
 43
0.0
 10
264.0054738200769
 20
44.04586291069775
 42
-0.2280087862796968
 10
270.8556642969133
 20
43.98718605965934
 10
306.0927200000028
 20
23.81821500000008
 10
330.1994992049403
 20
14.07844532122665
 42
0.4142135425216231
 10
335.4066607896565
 20
16.28875436337132
 10
342.2245000502935
 20
33.16349771556572
 42
0.4142135822245512
 10
340.01419085834
 20
38.37065965320819
 10
315.9074100000011
 20
48.11043000000002
 10
276.5493803316003
 20
58.07982118250454
 42
-0.261369876899627
 10
271.5810735103687
 20
62.7961311752202
 42
2.80870652995242
 10
264.0054738200769
 20
44.04586291069775
 42
-2.80870652995242
  0
LWPOLYLINE
  5
14A7C
330
1E
100
AcDbEntity
  8
10
  6
Continuous
100
AcDbPolyline
 90
        4
 70
     0
 43
0.0
 10
343.1299900000003
 20
16.08036999999973
 10
313.7020954115546
 20
27.97001101863235
 10
318.4970600000001
 20
39.83796499999931
 10
343.6256700000003
 20
29.68534500000038
  0
DIMENSION
  5
14A7D
330
1E
100
AcDbEntity
  8
30
  6
Continuous
100
AcDbDimension
  2
*D103
 10
280.0
 20
169.9999999999991
 30
0.0
 11
273.9999999999999
 21
84.9999999999992
 31
0.0
 70
    32
  1
 <> 
 71
     0
 72
     0
 41
0.0
 42
170.0
  3
STANDARD1
100
AcDbAlignedDimension
 13
287.1000000000008
 23
-0.0000000000008527
 33
0.0
 14
355.0000000000004
 24
169.9999999999991
 34
0.0
 50
90.0
100
AcDbRotatedDimension
  0
DIMENSION
  5
14A7E
330
1E
100
AcDbEntity
  8
30
  6
Continuous
100
AcDbDimension
  2
*D104
 10
280.0
 20
-0.0000000000008492
 30
0.0
 11
274.0
 21
-70.00000000000079
 31
0.0
 70
    32
  1
 <> 
 71
     0
 72
     0
 41
0.0
 42
139.9999999999999
  3
STANDARD1
100
AcDbAlignedDimension
 13
355.0000000000004
 23
-140.0000000000008
 33
0.0
 14
292.1000000000008
 24
-0.0000000000008527
 34
0.0
 50
90.0
100
AcDbRotatedDimension
  0
LINE
  5
14D05
330
1E
100
AcDbEntity
  8
18
  6
DIVIDE
100
AcDbLine
 10
225.0
 20
467.0
 30
0.0
 11
-154.9999999999999
 21
467.0
 31
0.0
  0
LINE
  5
14D06
330
1E
100
AcDbEntity
  8
18
  6
DIVIDE
100
AcDbLine
 10
225.0
 20
462.0
 30
0.0
 11
-154.9999999999999
 21
462.0
 31
0.0
  0
LINE
  5
14D08
330
1E
100
AcDbEntity
  8
10
  6
Continuous
100
AcDbLine
 10
-104.9999999999999
 20
350.0
 30
0.0
 11
175.0
 21
350.0
 31
0.0
  0
LINE
  5
14D10
330
1E
100
AcDbEntity
  8
18
  6
DIVIDE
100
AcDbLine
 10
-154.9999999999999
 20
467.0
 30
0.0
 11
-154.9999999999999
 21
462.0
 31
0.0
  0
DIMENSION
  5
14D15
330
1E
100
AcDbEntity
  8
30
  6
Continuous
100
AcDbDimension
  2
*D119
 10
70.00000000000006
 20
600.5958749999999
 30
0.0
 11
35.00000000000003
 21
606.595875
 31
0.0
 70
    32
  1
 <> 
 71
     5
 42
70.00000000000006
  3
STANDARD1
100
AcDbAlignedDimension
 13
0.0
 23
563.0
 33
0.0
 14
70.00000000000006
 24
563.0
 34
0.0
100
AcDbRotatedDimension
  0
DIMENSION
  5
14D16
330
1E
100
AcDbEntity
  8
30
  6
Continuous
100
AcDbDimension
  2
*D121
 10
0.0000000000000023
 20
600.5958749999999
 30
0.0
 11
-34.99999999999997
 21
606.595875
 31
0.0
 70
    32
  1
 <> 
 71
     5
 42
69.99999999999994
  3
STANDARD1
100
AcDbAlignedDimension
 13
-69.99999999999994
 23
563.0
 33
0.0
 14
0.0
 24
563.0
 34
0.0
100
AcDbRotatedDimension
  0
LINE
  5
14D17
330
1E
100
AcDbEntity
  8
17
  6
DASHDOT
100
AcDbLine
 10
-81.49999999999996
 20
558.0
 30
0.0
 11
-58.49999999999997
 21
558.0
 31
0.0
  0
CIRCLE
  5
14D18
330
1E
100
AcDbEntity
  8
1
  6
Continuous
 62
     2
100
AcDbCircle
 10
-69.99999999999994
 20
558.0
 30
0.0
 40
6.5
  0
LINE
  5
14D19
330
1E
100
AcDbEntity
  8
17
  6
DASHDOT
100
AcDbLine
 10
-69.99999999999994
 20
569.5
 30
0.0
 11
-69.99999999999994
 21
546.4999999999999
 31
0.0
  0
LINE
  5
14D1A
330
1E
100
AcDbEntity
  8
17
  6
DASHDOT
100
AcDbLine
 10
-81.49999999999996
 20
525.9999999999998
 30
0.0
 11
-58.49999999999997
 21
525.9999999999998
 31
0.0
  0
LINE
  5
14D1B
330
1E
100
AcDbEntity
  8
17
  6
DASHDOT
100
AcDbLine
 10
-81.49999999999996
 20
518.0
 30
0.0
 11
-58.49999999999997
 21
518.0
 31
0.0
  0
ARC
  5
14D1C
330
1E
100
AcDbEntity
  8
1
  6
Continuous
 62
     2
100
AcDbCircle
 10
-69.99999999999994
 20
518.0
 30
0.0
 40
6.5
100
AcDbArc
 50
180.0
 51
0.0
  0
ARC
  5
14D1D
330
1E
100
AcDbEntity
  8
1
  6
Continuous
 62
     2
100
AcDbCircle
 10
-69.99999999999994
 20
525.9999999999998
 30
0.0
 40
6.5
100
AcDbArc
 50
0.0
 51
180.0
  0
LINE
  5
14D1E
330
1E
100
AcDbEntity
  8
1
  6
Continuous
 62
     2
100
AcDbLine
 10
-76.49999999999997
 20
525.9999999999998
 30
0.0
 11
-76.49999999999997
 21
518.0
 31
0.0
  0
LINE
  5
14D1F
330
1E
100
AcDbEntity
  8
1
  6
Continuous
 62
     2
100
AcDbLine
 10
-63.49999999999997
 20
518.0
 30
0.0
 11
-63.49999999999997
 21
525.9999999999998
 31
0.0
  0
LINE
  5
14D20
330
1E
100
AcDbEntity
  8
17
  6
DASHDOT
100
AcDbLine
 10
-69.99999999999994
 20
537.5
 30
0.0
 11
-69.99999999999994
 21
506.5
 31
0.0
  0
LINE
  5
14D22
330
1E
100
AcDbEntity
  8
17
  6
DASHDOT
100
AcDbLine
 10
-11.5
 20
525.9999999999998
 30
0.0
 11
11.5
 21
525.9999999999998
 31
0.0
  0
LINE
  5
14D23
330
1E
100
AcDbEntity
  8
17
  6
DASHDOT
100
AcDbLine
 10
-11.5
 20
518.0
 30
0.0
 11
11.5
 21
518.0
 31
0.0
  0
LINE
  5
14D24
330
1E
100
AcDbEntity
  8
17
  6
DASHDOT
100
AcDbLine
 10
-11.5
 20
558.0
 30
0.0
 11
11.5
 21
558.0
 31
0.0
  0
CIRCLE
  5
14D28
330
1E
100
AcDbEntity
  8
1
  6
Continuous
 62
     2
100
AcDbCircle
 10
0.0
 20
558.0
 30
0.0
 40
6.5
  0
LINE
  5
14D29
330
1E
100
AcDbEntity
  8
1
  6
Continuous
 62
     2
100
AcDbLine
 10
6.5
 20
518.0
 30
0.0
 11
6.5
 21
525.9999999999998
 31
0.0
  0
LINE
  5
14D2A
330
1E
100
AcDbEntity
  8
1
  6
Continuous
 62
     2
100
AcDbLine
 10
-6.5
 20
525.9999999999998
 30
0.0
 11
-6.5
 21
518.0
 31
0.0
  0
ARC
  5
14D2B
330
1E
100
AcDbEntity
  8
1
  6
Continuous
 62
     2
100
AcDbCircle
 10
0.0
 20
518.0
 30
0.0
 40
6.5
100
AcDbArc
 50
180.0
 51
0.0
  0
ARC
  5
14D2D
330
1E
100
AcDbEntity
  8
1
  6
Continuous
 62
     2
100
AcDbCircle
 10
0.0
 20
525.9999999999998
 30
0.0
 40
6.5
100
AcDbArc
 50
0.0
 51
180.0
  0
LINE
  5
14D2F
330
1E
100
AcDbEntity
  8
17
  6
DASHDOT
100
AcDbLine
 10
58.5
 20
525.9999999999998
 30
0.0
 11
81.50000000000005
 21
525.9999999999998
 31
0.0
  0
LINE
  5
14D30
330
1E
100
AcDbEntity
  8
17
  6
DASHDOT
100
AcDbLine
 10
58.5
 20
518.0
 30
0.0
 11
81.50000000000005
 21
518.0
 31
0.0
  0
ARC
  5
14D31
330
1E
100
AcDbEntity
  8
1
  6
Continuous
 62
     2
100
AcDbCircle
 10
70.00000000000006
 20
518.0
 30
0.0
 40
6.5
100
AcDbArc
 50
180.0
 51
0.0
  0
LINE
  5
14D32
330
1E
100
AcDbEntity
  8
17
  6
DASHDOT
100
AcDbLine
 10
58.5
 20
558.0
 30
0.0
 11
81.50000000000005
 21
558.0
 31
0.0
  0
CIRCLE
  5
14D33
330
1E
100
AcDbEntity
  8
1
  6
Continuous
 62
     2
100
AcDbCircle
 10
70.00000000000006
 20
558.0
 30
0.0
 40
6.5
  0
ARC
  5
14D35
330
1E
100
AcDbEntity
  8
1
  6
Continuous
 62
     2
100
AcDbCircle
 10
70.00000000000006
 20
525.9999999999998
 30
0.0
 40
6.5
100
AcDbArc
 50
0.0
 51
180.0
  0
LINE
  5
14D37
330
1E
100
AcDbEntity
  8
17
  6
DASHDOT
100
AcDbLine
 10
70.00000000000006
 20
569.5
 30
0.0
 11
70.00000000000006
 21
546.4999999999999
 31
0.0
  0
LINE
  5
14D38
330
1E
100
AcDbEntity
  8
1
  6
Continuous
 62
     2
100
AcDbLine
 10
63.5
 20
525.9999999999998
 30
0.0
 11
63.5
 21
518.0
 31
0.0
  0
LINE
  5
14D39
330
1E
100
AcDbEntity
  8
17
  6
DASHDOT
100
AcDbLine
 10
70.00000000000006
 20
537.5
 30
0.0
 11
70.00000000000006
 21
506.5
 31
0.0
  0
LINE
  5
14D3B
330
1E
100
AcDbEntity
  8
1
  6
Continuous
 62
     2
100
AcDbLine
 10
76.50000000000005
 20
518.0
 30
0.0
 11
76.50000000000005
 21
525.9999999999998
 31
0.0
  0
LINE
  5
14D47
330
1E
100
AcDbEntity
  8
18
  6
DIVIDE
100
AcDbLine
 10
225.0
 20
467.0
 30
0.0
 11
225.0
 21
462.0
 31
0.0
  0
LWPOLYLINE
  5
14D88
330
1E
100
AcDbEntity
  8
10
  6
Continuous
100
AcDbPolyline
 90
        5
 70
     0
 43
0.0
 10
-104.9999999999999
 20
498.0
 10
-104.9999999999999
 20
342.0
 10
175.0
 20
342.0
 10
175.0
 20
498.0
 10
-104.9999999999999
 20
498.0
  0
LWPOLYLINE
  5
14D89
330
1E
100
AcDbEntity
  8
10
  6
Continuous
100
AcDbPolyline
 90
        4
 70
     0
 43
0.0
 10
-94.99999999999994
 20
342.0
 10
-94.99999999999994
 20
335.0
 10
165.0
 20
335.0
 10
165.0
 20
342.0
  0
LWPOLYLINE
  5
14D8A
330
1E
100
AcDbEntity
  8
10
  6
Continuous
100
AcDbPolyline
 90
        4
 70
     0
 43
0.0
 10
-38.99999999999997
 20
335.0
 10
-38.99999999999997
 20
325.0
 10
39.00000000000005
 20
325.0
 10
39.00000000000005
 20
335.0
  0
LWPOLYLINE
  5
14D8B
330
1E
100
AcDbEntity
  8
10
  6
Continuous
100
AcDbPolyline
 90
        4
 70
     0
 43
0.0
 10
-22.5
 20
325.0
 10
-22.5
 20
291.0
 10
22.5
 20
291.0
 10
22.5
 20
325.0
  0
LWPOLYLINE
  5
14DD5
330
1E
100
AcDbEntity
  8
21
  6
Continuous
100
AcDbPolyline
 90
        4
 70
     0
 43
0.0
 10
-92.49999999999994
 20
498.0
 10
-92.49999999999994
 20
573.0
 10
-47.49999999999994
 20
573.0
 10
-47.49999999999994
 20
498.0
  0
LWPOLYLINE
  5
14DD8
330
1E
100
AcDbEntity
  8
21
  6
Continuous
100
AcDbPolyline
 90
        4
 70
     0
 43
0.0
 10
-22.49999999999994
 20
498.0
 10
-22.49999999999994
 20
573.0
 10
22.50000000000005
 20
573.0
 10
22.50000000000005
 20
498.0
  0
LWPOLYLINE
  5
14DD9
330
1E
100
AcDbEntity
  8
21
  6
Continuous
100
AcDbPolyline
 90
        4
 70
     0
 43
0.0
 10
47.50000000000006
 20
498.0
 10
47.50000000000006
 20
573.0
 10
92.50000000000005
 20
573.0
 10
92.50000000000005
 20
498.0
  0
DIMENSION
  5
14E11
330
1E
100
AcDbEntity
  8
30
  6
Continuous
100
AcDbDimension
  2
*D122
 10
-130.0
 20
-47.49999999999999
 30
0.0
 11
-136.0
 21
-0.0000000000000126
 31
0.0
 70
    32
 71
     5
 42
95.0
  3
STANDARD1
100
AcDbAlignedDimension
 13
-92.00000000000022
 23
47.5
 33
0.0
 14
-92.00000000000022
 24
-47.5
 34
0.0
 50
90.0
100
AcDbRotatedDimension
  0
DIMENSION
  5
14E1E
330
1E
100
AcDbEntity
  8
30
  6
Continuous
100
AcDbDimension
  2
*D123
 10
-150.0
 20
-140.0
 30
0.0
 11
-155.9999999999999
 21
14.99999999999998
 31
0.0
 70
    32
 71
     5
 42
310.0
  3
STANDARD1
100
AcDbAlignedDimension
 13
-105.0
 23
170.0
 33
0.0
 14
-105.0
 24
-140.0
 34
0.0
 50
90.0
100
AcDbRotatedDimension
  0
DIMENSION
  5
14E2B
330
1E
100
AcDbEntity
  8
30
  6
Continuous
100
AcDbDimension
  2
*D124
 10
-170.0
 20
-170.0
 30
0.0
 11
-175.9999999999999
 21
14.99999999999998
 31
0.0
 70
    32
 71
     5
 42
370.0
  3
STANDARD1
100
AcDbAlignedDimension
 13
-105.0
 23
200.0
 33
0.0
 14
-105.0
 24
-170.0
 34
0.0
 50
90.0
100
AcDbRotatedDimension
  0
LINE
  5
15049
330
1E
100
AcDbEntity
  8
16
100
AcDbLine
 10
-145.0
 20
-600.0
 30
0.0
 11
185.0
 21
-600.0
 31
0.0
  0
DIMENSION
  5
1504F
330
1E
100
AcDbEntity
  8
30
  6
Continuous
100
AcDbDimension
  2
*D147
 10
35.0
 20
-800.0
 30
0.0
 11
0.0000000000000004
 21
-794.0
 31
0.0
 70
    32
  1
 <> 
 71
     5
 42
70.0
  3
STANDARD1
100
AcDbAlignedDimension
 13
-35.0
 23
-759.0
 33
0.0
 14
35.0
 24
-759.0
 34
0.0
100
AcDbRotatedDimension
  0
DIMENSION
  5
15050
330
1E
100
AcDbEntity
  8
30
  6
Continuous
100
AcDbDimension
  2
*D148
 10
185.0
 20
-840.0
 30
0.0
 11
35.0
 21
-834.0
 31
0.0
 70
    32
  1
 <> 
 71
     5
 42
300.0
  3
STANDARD1
100
AcDbAlignedDimension
 13
-115.0
 23
-749.0
 33
0.0
 14
185.0
 24
-749.0
 34
0.0
100
AcDbRotatedDimension
  0
DIMENSION
  5
15051
330
1E
100
AcDbEntity
  8
30
  6
Continuous
100
AcDbDimension
  2
*D149
 10
183.0000000000002
 20
-820.0
 30
0.0
 11
35.00000000000022
 21
-814.0
 31
0.0
 70
    32
  1
 <> 
 71
     5
 42
296.0
  3
STANDARD1
100
AcDbAlignedDimension
 13
-112.9999999999997
 23
-631.4999999999998
 33
0.0
 14
183.0000000000002
 24
-631.4999999999998
 34
0.0
100
AcDbRotatedDimension
  0
LINE
  5
15053
330
1E
100
AcDbEntity
  8
16
100
AcDbLine
 10
0.0
 20
-780.0
 30
0.0
 11
0.0
 21
-390.0
 31
0.0
  0
LINE
  5
15055
330
1E
100
AcDbEntity
  8
225
  6
Continuous
 62
     3
100
AcDbLine
 10
-41.74999999999977
 20
-754.0
 30
0.0
 11
-28.24999999999977
 21
-754.0
 31
0.0
  0
LINE
  5
15056
330
1E
100
AcDbEntity
  8
225
  6
Continuous
 62
     3
100
AcDbLine
 10
-35.0
 20
-747.25
 30
0.0
 11
-35.0
 21
-760.7499999999999
 31
0.0
  0
CIRCLE
  5
15057
330
1E
100
AcDbEntity
  8
160
  6
Continuous
 62
     3
100
AcDbCircle
 10
-35.0
 20
-754.0
 30
0.0
 40
4.5
  0
CIRCLE
  5
15059
330
1E
100
AcDbEntity
  8
160
  6
Continuous
 62
     3
100
AcDbCircle
 10
-112.9999999999997
 20
-618.9999999999998
 30
0.0
 40
7.5
  0
LINE
  5
1505A
330
1E
100
AcDbEntity
  8
225
  6
Continuous
 62
     3
100
AcDbLine
 10
-125.4999999999997
 20
-618.9999999999998
 30
0.0
 11
-100.4999999999997
 21
-618.9999999999998
 31
0.0
  0
LINE
  5
1505D
330
1E
100
AcDbEntity
  8
225
  6
Continuous
 62
     3
100
AcDbLine
 10
-112.9999999999997
 20
-631.4999999999998
 30
0.0
 11
-112.9999999999997
 21
-606.4999999999998
 31
0.0
  0
LINE
  5
1505E
330
1E
100
AcDbEntity
  8
225
  6
Continuous
 62
     3
100
AcDbLine
 10
-35.0
 20
-409.25
 30
0.0
 11
-35.0
 21
-422.7499999999999
 31
0.0
  0
LINE
  5
1505F
330
1E
100
AcDbEntity
  8
225
  6
Continuous
 62
     3
100
AcDbLine
 10
-41.74999999999977
 20
-416.0
 30
0.0
 11
-28.24999999999977
 21
-416.0
 31
0.0
  0
CIRCLE
  5
15060
330
1E
100
AcDbEntity
  8
160
  6
Continuous
 62
     3
100
AcDbCircle
 10
-35.0
 20
-416.0
 30
0.0
 40
4.5
  0
LINE
  5
15062
330
1E
100
AcDbEntity
  8
225
  6
Continuous
 62
     3
100
AcDbLine
 10
28.25000000000022
 20
-754.0
 30
0.0
 11
41.75000000000022
 21
-754.0
 31
0.0
  0
LINE
  5
15063
330
1E
100
AcDbEntity
  8
1
  6
Continuous
 62
     3
100
AcDbLine
 10
35.0
 20
-747.25
 30
0.0
 11
35.0
 21
-760.7499999999999
 31
0.0
  0
CIRCLE
  5
15064
330
1E
100
AcDbEntity
  8
225
  6
Continuous
 62
     3
100
AcDbCircle
 10
35.0
 20
-754.0
 30
0.0
 40
4.5
  0
CIRCLE
  5
15067
330
1E
100
AcDbEntity
  8
160
  6
Continuous
 62
     3
100
AcDbCircle
 10
183.0000000000002
 20
-618.9999999999998
 30
0.0
 40
7.5
  0
LINE
  5
15068
330
1E
100
AcDbEntity
  8
225
  6
Continuous
 62
     3
100
AcDbLine
 10
170.5000000000002
 20
-618.9999999999998
 30
0.0
 11
195.5000000000002
 21
-618.9999999999998
 31
0.0
  0
LINE
  5
15069
330
1E
100
AcDbEntity
  8
225
  6
Continuous
 62
     3
100
AcDbLine
 10
183.0000000000002
 20
-631.4999999999998
 30
0.0
 11
183.0000000000002
 21
-606.4999999999998
 31
0.0
  0
LINE
  5
1506A
330
1E
100
AcDbEntity
  8
225
  6
Continuous
 62
     3
100
AcDbLine
 10
35.0
 20
-409.25
 30
0.0
 11
35.0
 21
-422.7499999999999
 31
0.0
  0
LINE
  5
1506B
330
1E
100
AcDbEntity
  8
225
  6
Continuous
 62
     3
100
AcDbLine
 10
28.25000000000022
 20
-416.0
 30
0.0
 11
41.75000000000022
 21
-416.0
 31
0.0
  0
CIRCLE
  5
1506D
330
1E
100
AcDbEntity
  8
160
  6
Continuous
 62
     3
100
AcDbCircle
 10
35.0
 20
-416.0
 30
0.0
 40
4.5
  0
DIMENSION
  5
1506E
330
1E
100
AcDbEntity
  8
30
  6
Continuous
100
AcDbDimension
  2
*D152
 10
-160.0
 20
-600.0
 30
0.0
 11
-165.9999999999998
 21
-609.4999999999999
 31
0.0
 70
    32
  1
 <> 
 71
     0
 72
     0
 41
0.0
 42
18.99999999999988
  3
STANDARD1
100
AcDbAlignedDimension
 13
-117.9999999999997
 23
-618.9999999999998
 33
0.0
 14
-145.0
 24
-600.0
 34
0.0
 50
90.0
100
AcDbRotatedDimension
  0
DIMENSION
  5
150EB
330
1E
100
AcDbEntity
  8
30
  6
Continuous
100
AcDbDimension
  2
*D153
 10
31.98965870769896
 20
-419.3448236581123
 30
0.0
 11
48.68620021879076
 21
-403.6819997568991
 31
0.0
 70
    35
 71
     5
 42
9.0
  3
STANDARD1
100
AcDbDiametricDimension
 15
38.01034129230098
 25
-412.6551763418878
 35
0.0
 40
0.0
  0
LWPOLYLINE
  5
150F7
330
1E
100
AcDbEntity
  8
18
  6
DIVIDE
100
AcDbPolyline
 90
        4
 70
     1
 43
0.0
 10
175.0
 20
-400.0
 10
-105.0
 20
-400.0
 10
-105.0
 20
-770.0
 10
175.0
 20
-770.0
  0
LWPOLYLINE
  5
15194
330
1E
100
AcDbEntity
  8
11
 48
2.0
100
AcDbPolyline
 90
        2
 70
     0
 43
0.0
 10
185.0
 20
-426.0
 10
-115.0
 20
-426.0
  0
LWPOLYLINE
  5
15195
330
1E
100
AcDbEntity
  8
11
 48
2.0
100
AcDbPolyline
 90
        2
 70
     0
 43
0.0
 10
-115.0
 20
-426.0
 10
-115.0
 20
-498.9999999999999
  0
LWPOLYLINE
  5
15196
330
1E
100
AcDbEntity
  8
11
 48
2.0
100
AcDbPolyline
 90
        2
 70
     0
 43
0.0
 10
185.0
 20
-498.9999999999999
 10
-115.0
 20
-498.9999999999999
  0
LWPOLYLINE
  5
15197
330
1E
100
AcDbEntity
  8
11
 48
2.0
100
AcDbPolyline
 90
        2
 70
     0
 43
0.0
 10
185.0
 20
-498.9999999999999
 10
185.0
 20
-426.0
  0
LWPOLYLINE
  5
15198
330
1E
100
AcDbEntity
  8
11
 48
2.0
100
AcDbPolyline
 90
        4
 70
     1
 43
0.0
 10
-115.0
 20
-744.0
 10
185.0
 20
-744.0
 10
185.0
 20
-671.0
 10
-115.0
 20
-671.0
  0
DIMENSION
  5
1519C
330
1E
100
AcDbEntity
  8
30
  6
Continuous
100
AcDbDimension
  2
*D154
 10
-108.4999999999997
 20
-613.0
 30
0.0
 11
-135.0
 21
-635.0
 31
0.0
 70
   163
 71
     5
 42
15.00000000000005
  3
STANDARD1
100
AcDbDiametricDimension
 15
-117.4999999999998
 25
-624.9999999999999
 35
0.0
 40
0.0
  0
LWPOLYLINE
  5
1538A
330
1E
100
AcDbEntity
  8
21
  6
Continuous
100
AcDbPolyline
 90
        4
 70
     0
 43
0.0
 10
117.5
 20
498.0
 10
117.5
 20
573.0
 10
162.5
 20
573.0
 10
162.5
 20
498.0
  0
LINE
  5
1538B
330
1E
100
AcDbEntity
  8
17
  6
DASHDOT
100
AcDbLine
 10
140.0
 20
569.5
 30
0.0
 11
140.0
 21
546.4999999999999
 31
0.0
  0
CIRCLE
  5
1538C
330
1E
100
AcDbEntity
  8
1
  6
Continuous
 62
     2
100
AcDbCircle
 10
140.0
 20
558.0
 30
0.0
 40
6.5
  0
LINE
  5
1538D
330
1E
100
AcDbEntity
  8
1
  6
Continuous
 62
     2
100
AcDbLine
 10
146.5
 20
518.0
 30
0.0
 11
146.5
 21
525.9999999999998
 31
0.0
  0
LINE
  5
1538E
330
1E
100
AcDbEntity
  8
17
  6
DASHDOT
100
AcDbLine
 10
140.0
 20
537.5
 30
0.0
 11
140.0
 21
506.5
 31
0.0
  0
LINE
  5
1538F
330
1E
100
AcDbEntity
  8
1
  6
Continuous
 62
     2
100
AcDbLine
 10
133.4999999999999
 20
525.9999999999998
 30
0.0
 11
133.4999999999999
 21
518.0
 31
0.0
  0
LINE
  5
15390
330
1E
100
AcDbEntity
  8
17
  6
DASHDOT
100
AcDbLine
 10
128.4999999999999
 20
518.0
 30
0.0
 11
151.5
 21
518.0
 31
0.0
  0
LINE
  5
15391
330
1E
100
AcDbEntity
  8
17
  6
DASHDOT
100
AcDbLine
 10
128.4999999999999
 20
525.9999999999998
 30
0.0
 11
151.5
 21
525.9999999999998
 31
0.0
  0
ARC
  5
15392
330
1E
100
AcDbEntity
  8
1
  6
Continuous
 62
     2
100
AcDbCircle
 10
140.0
 20
518.0
 30
0.0
 40
6.5
100
AcDbArc
 50
180.0
 51
0.0
  0
ARC
  5
15393
330
1E
100
AcDbEntity
  8
1
  6
Continuous
 62
     2
100
AcDbCircle
 10
140.0
 20
525.9999999999998
 30
0.0
 40
6.5
100
AcDbArc
 50
0.0
 51
180.0
  0
DIMENSION
  5
15394
330
1E
100
AcDbEntity
  8
30
  6
Continuous
100
AcDbDimension
  2
*D155
 10
140.0
 20
600.5958749999999
 30
0.0
 11
105.0
 21
606.595875
 31
0.0
 70
    32
  1
 <> 
 71
     5
 42
70.00000000000006
  3
STANDARD1
100
AcDbAlignedDimension
 13
70.0
 23
563.0
 33
0.0
 14
140.0
 24
563.0
 34
0.0
100
AcDbRotatedDimension
  0
LINE
  5
15395
330
1E
100
AcDbEntity
  8
17
  6
DASHDOT
100
AcDbLine
 10
128.4999999999999
 20
558.0
 30
0.0
 11
151.5
 21
558.0
 31
0.0
  0
DIMENSION
  5
153EC
330
1E
100
AcDbEntity
  8
30
  6
Continuous
100
AcDbDimension
  2
*D161
 10
544.0
 20
-210.0958749999998
 30
0.0
 11
540.0
 21
-210.0958749999998
 31
0.0
 70
   160
  1
<> 
 71
     5
 42
8.0
  3
STANDARD1
100
AcDbAlignedDimension
 13
536.0
 23
-113.9999999999998
 33
0.0
 14
544.0
 24
-113.9999999999998
 34
0.0
100
AcDbRotatedDimension
1001
ACAD
1000
DSTYLE
1002
{
1070
   172
1070
     1
1002
}
  0
DIMENSION
  5
153ED
330
1E
100
AcDbEntity
  8
30
  6
Continuous
100
AcDbDimension
  2
*D162
 10
576.0
 20
-210.0958749999998
 30
0.0
 11
560.0
 21
-204.0958749999998
 31
0.0
 70
    32
  1
 <> 
 71
     5
 42
32.0
  3
STANDARD1
100
AcDbAlignedDimension
 13
544.0
 23
-118.9999999999998
 33
0.0
 14
576.0
 24
-118.9999999999998
 34
0.0
100
AcDbRotatedDimension
  0
DIMENSION
  5
153EE
330
1E
100
AcDbEntity
  8
30
  6
Continuous
100
AcDbDimension
  2
*D163
 10
591.0
 20
-210.0958749999998
 30
0.0
 11
581.0
 21
-210.0958749999998
 31
0.0
 70
   160
  1
 <> 
 71
     5
 42
15.0
  3
STANDARD1
100
AcDbAlignedDimension
 13
576.0
 23
-118.9999999999998
 33
0.0
 14
591.0
 24
-141.4999999999998
 34
0.0
100
AcDbRotatedDimension
  0
DIMENSION
  5
153EF
330
1E
100
AcDbEntity
  8
30
  6
Continuous
100
AcDbDimension
  2
*D164
 10
536.0
 20
-210.0958749999998
 30
0.0
 11
526.0
 21
-204.0958749999998
 31
0.0
 70
    32
  1
 <> 
 71
     5
 42
20.0
  3
STANDARD1
100
AcDbAlignedDimension
 13
516.0
 23
-145.9999999999998
 33
0.0
 14
536.0
 24
-118.9999999999998
 34
0.0
100
AcDbRotatedDimension
  0
DIMENSION
  5
1544A
330
1E
100
AcDbEntity
  8
30
  6
Continuous
100
AcDbDimension
  2
*D165
 10
591.0000000000004
 20
-263.4999999999999
 30
0.0
 11
535.5000000000002
 21
-257.4999999999999
 31
0.0
 70
    32
 71
     5
 42
111.0000000000004
  3
STANDARD1
100
AcDbAlignedDimension
 13
480.0
 23
-169.9999999999999
 33
0.0
 14
591.0000000000004
 24
-136.4999999999999
 34
0.0
100
AcDbRotatedDimension
  0
VIEWPORT
  5
9AC
330
1A
100
AcDbEntity
 67
     1
  8
0
  6
Continuous
100
AcDbViewport
 10
0.0
 20
0.0
 30
0.0
 40
0.0
 41
0.0
 68
     1
 69
     1
 12
0.0
 22
0.0
 13
0.0
 23
0.0
 14
10.0
 24
10.0
 15
10.0
 25
10.0
 16
0.0
 26
0.0
 36
1.0
 17
0.0
 27
0.0
 37
0.0
 42
50.0
 43
0.0
 44
0.0
 45
0.0
 50
0.0
 51
0.0
 72
   100
 90
    32800
  1

281
     0
 71
     1
 74
     0
110
0.0
120
0.0
130
0.0
111
1.0
121
0.0
131
0.0
112
0.0
122
1.0
132
0.0
 79
     0
146
0.0
  0
VIEWPORT
  5
1213C
330
1A
100
AcDbEntity
 67
     1
  8
30
  6
Continuous
100
AcDbViewport
 10
0.0
 20
0.0
 30
0.0
 40
0.0
 41
0.0
 68
    -1
 69
     2
 12
200.7015858897093
 22
-184.5079469532693
 13
0.0
 23
0.0
 14
1.0
 24
1.0
 15
10.0
 25
10.0
 16
0.0
 26
0.0
 36
1.0
 17
0.0
 27
0.0
 37
0.0
 42
50.0
 43
0.0
 44
0.0
 45
1624.666777614301
 50
0.0
 51
0.0
 72
   100
 90
    33568
  1

281
     0
 71
     1
 74
     0
110
0.0
120
0.0
130
0.0
111
1.0
121
0.0
131
0.0
112
0.0
122
1.0
132
0.0
 79
     0
146
0.0
  0
ENDSEC
  0
SECTION
  2
OBJECTS
  0
DICTIONARY
  5
C
330
0
100
AcDbDictionary
281
     1
  3
ACAD_GROUP
350
D
  3
ACAD_LAYOUT
350
19
  3
ACAD_MLINESTYLE
350
16
  3
ACAD_PLOTSETTINGS
350
18
  3
ACAD_PLOTSTYLENAME
350
E
  3
ACDBHEADERROUNDTRIPXREC
350
1548D
  3
ACDBVARIABLEDICTIONARY
350
69C9
  0
DICTIONARY
  5
178
330
1E
100
AcDbDictionary
280
     1
281
     1
  3
ACAD_LAYOUTSELFREF
360
7AD3
  0
DICTIONARY
  5
17A
330
1A
100
AcDbDictionary
280
     1
281
     1
  3
ACAD_LAYOUTSELFREF
360
7AD2
  0
DICTIONARY
  5
D
102
{ACAD_REACTORS
330
C
102
}
330
C
100
AcDbDictionary
281
     1
  0
DICTIONARY
  5
19
102
{ACAD_REACTORS
330
C
102
}
330
C
100
AcDbDictionary
281
     1
  3
Model
350
7AE4
  3
ﾚｲｱｳﾄ1
350
7AE5
  0
DICTIONARY
  5
16
102
{ACAD_REACTORS
330
C
102
}
330
C
100
AcDbDictionary
281
     1
  3
STANDARD
350
17
  0
DICTIONARY
  5
18
102
{ACAD_REACTORS
330
C
102
}
330
C
100
AcDbDictionary
281
     1
  0
ACDBDICTIONARYWDFLT
  5
E
102
{ACAD_REACTORS
330
C
102
}
330
C
100
AcDbDictionary
281
     1
  3
Normal
350
F
100
AcDbDictionaryWithDefault
340
F
  0
DICTIONARY
  5
1548D
102
{ACAD_REACTORS
330
C
102
}
330
C
100
AcDbDictionary
281
     1
  3
CEPSNTYPE
350
15497
  3
DIMSTYLEDATA
350
1549B
  3
FINGERPRINTGUID
350
15498
  3
HYPERLINKBASE
350
15490
  3
INSUNITS
350
15496
  3
LAYOUTDICT
350
15492
  3
LWETCUNION
350
15495
  3
PLOTSETDICT
350
15493
  3
PLOTSTYLNAMDICT
350
15494
  3
PSVPSCALE
350
1549A
  3
PUCSBASE
350
1549E
  3
PUCSORGBACK
350
154A4
  3
PUCSORGBOTTOM
350
154A0
  3
PUCSORGFRONT
350
154A3
  3
PUCSORGLEFT
350
154A1
  3
PUCSORGRIGHT
350
154A2
  3
PUCSORGTOP
350
1549F
  3
PUCSORTHOREF
350
1549C
  3
PUCSORTHOVIEW
350
1549D
  3
STYLESHEET
350
15491
  3
TSTACKALIGN
350
1548E
  3
TSTACKSIZE
350
1548F
  3
UCSBASE
350
154A7
  3
UCSORGBACK
350
154AD
  3
UCSORGBOTTOM
350
154A9
  3
UCSORGFRONT
350
154AC
  3
UCSORGLEFT
350
154AA
  3
UCSORGRIGHT
350
154AB
  3
UCSORGTOP
350
154A8
  3
UCSORTHOREF
350
154A5
  3
UCSORTHOVIEW
350
154A6
  3
VERSIONGUID
350
15499
  0
DICTIONARY
  5
69C9
102
{ACAD_REACTORS
330
C
102
}
330
C
100
AcDbDictionary
281
     1
  3
DIMASSOC
350
69CA
  3
SORTENTS
350
F572
  0
XRECORD
  5
7AD3
102
{ACAD_REACTORS
330
178
102
}
330
178
100
AcDbXrecord
280
     1
340
1E
  0
XRECORD
  5
7AD2
102
{ACAD_REACTORS
330
17A
102
}
330
17A
100
AcDbXrecord
280
     1
340
1A
  0
LAYOUT
  5
7AE4
102
{ACAD_REACTORS
330
19
102
}
330
19
100
AcDbPlotSettings
  1

  2
DocuWorks Printer
  4
A4
  6
OLE1
 40
5.408083438873291
 41
5.408078670501708
 42
5.408096313476562
 43
5.4080810546875
 44
210.0156707763671
 45
297.0106506347656
 46
17.93
 47
-4.08
 48
0.0
 49
0.0
140
0.0
141
0.0
142
1.0
143
5.0
 70
 11940
 72
     1
 73
     0
 74
     1
  7
monochrome.ctb
 75
     0
147
0.2
148
179.0955922448724
149
840.6729814825494
100
AcDbLayout
  1
Model
 70
     1
 71
     0
 10
0.0
 20
0.0
 11
12.0
 21
9.0
 12
0.0
 22
0.0
 32
0.0
 14
0.0
 24
0.0
 34
0.0
 15
0.0
 25
0.0
 35
0.0
146
0.0
 13
0.0
 23
0.0
 33
0.0
 16
1.0
 26
0.0
 36
0.0
 17
0.0
 27
1.0
 37
0.0
 76
     0
330
1E
  0
LAYOUT
  5
7AE5
102
{ACAD_REACTORS
330
19
102
}
330
19
100
AcDbPlotSettings
  1

  2
LBP5400
  4

  6

 40
0.0
 41
0.0
 42
0.0
 43
0.0
 44
0.0
 45
0.0
 46
0.0
 47
0.0
 48
0.0
 49
0.0
140
0.0
141
0.0
142
1.0
143
1.0
 70
   688
 72
     0
 73
     1
 74
     1
  7
monochrome.stb
 75
     0
147
1.0
148
0.0
149
0.0
100
AcDbLayout
  1
ﾚｲｱｳﾄ1
 70
     1
 71
     1
 10
0.0
 20
0.0
 11
0.0
 21
0.0
 12
0.0
 22
0.0
 32
0.0
 14
0.0
 24
0.0
 34
0.0
 15
0.0
 25
0.0
 35
0.0
146
0.0
 13
0.0
 23
0.0
 33
0.0
 16
1.0
 26
0.0
 36
0.0
 17
0.0
 27
1.0
 37
0.0
 76
     0
330
1A
331
9AC
  0
MLINESTYLE
  5
17
102
{ACAD_REACTORS
330
16
102
}
330
16
100
AcDbMlineStyle
  2
STANDARD
 70
     0
  3

 62
   256
 51
90.0
 52
90.0
 71
     2
 49
0.5
 62
   256
  6
BYLAYER
 49
-0.5
 62
   256
  6
BYLAYER
  0
ACDBPLACEHOLDER
  5
F
102
{ACAD_REACTORS
330
E
102
}
330
E
  0
XRECORD
  5
15497
102
{ACAD_REACTORS
330
1548D
102
}
330
1548D
100
AcDbXrecord
280
     1
 90
        0
  0
XRECORD
  5
1549B
102
{ACAD_REACTORS
330
1548D
102
}
330
1548D
100
AcDbXrecord
280
     1
1000
DSTYLE
1002
{
1070
   289
 70
     2
1070
   341
340
3B2
1070
   342
340
3B2
1002
}
  0
XRECORD
  5
15498
102
{ACAD_REACTORS
330
1548D
102
}
330
1548D
100
AcDbXrecord
280
     1
  1

  0
XRECORD
  5
15490
102
{ACAD_REACTORS
330
1548D
102
}
330
1548D
100
AcDbXrecord
280
     1
  1

  0
XRECORD
  5
15496
102
{ACAD_REACTORS
330
1548D
102
}
330
1548D
100
AcDbXrecord
280
     1
 90
        0
  0
XRECORD
  5
15492
102
{ACAD_REACTORS
330
1548D
102
}
330
1548D
100
AcDbXrecord
280
     1
340
19
  0
XRECORD
  5
15495
102
{ACAD_REACTORS
330
1548D
102
}
330
1548D
100
AcDbXrecord
280
     1
 90
    10781
  0
XRECORD
  5
15493
102
{ACAD_REACTORS
330
1548D
102
}
330
1548D
100
AcDbXrecord
280
     1
340
18
  0
XRECORD
  5
15494
102
{ACAD_REACTORS
330
1548D
102
}
330
1548D
100
AcDbXrecord
280
     1
340
E
  0
XRECORD
  5
1549A
102
{ACAD_REACTORS
330
1548D
102
}
330
1548D
100
AcDbXrecord
280
     1
 40
0.0
  0
XRECORD
  5
1549E
102
{ACAD_REACTORS
330
1548D
102
}
330
1548D
100
AcDbXrecord
280
     1
340
0
  0
XRECORD
  5
154A4
102
{ACAD_REACTORS
330
1548D
102
}
330
1548D
100
AcDbXrecord
280
     1
 10
0.0
 20
0.0
 30
0.0
  0
XRECORD
  5
154A0
102
{ACAD_REACTORS
330
1548D
102
}
330
1548D
100
AcDbXrecord
280
     1
 10
0.0
 20
0.0
 30
0.0
  0
XRECORD
  5
154A3
102
{ACAD_REACTORS
330
1548D
102
}
330
1548D
100
AcDbXrecord
280
     1
 10
0.0
 20
0.0
 30
0.0
  0
XRECORD
  5
154A1
102
{ACAD_REACTORS
330
1548D
102
}
330
1548D
100
AcDbXrecord
280
     1
 10
0.0
 20
0.0
 30
0.0
  0
XRECORD
  5
154A2
102
{ACAD_REACTORS
330
1548D
102
}
330
1548D
100
AcDbXrecord
280
     1
 10
0.0
 20
0.0
 30
0.0
  0
XRECORD
  5
1549F
102
{ACAD_REACTORS
330
1548D
102
}
330
1548D
100
AcDbXrecord
280
     1
 10
0.0
 20
0.0
 30
0.0
  0
XRECORD
  5
1549C
102
{ACAD_REACTORS
330
1548D
102
}
330
1548D
100
AcDbXrecord
280
     1
340
0
  0
XRECORD
  5
1549D
102
{ACAD_REACTORS
330
1548D
102
}
330
1548D
100
AcDbXrecord
280
     1
 70
     0
  0
XRECORD
  5
15491
102
{ACAD_REACTORS
330
1548D
102
}
330
1548D
100
AcDbXrecord
280
     1
  1
monochrome.ctb
  0
XRECORD
  5
1548E
102
{ACAD_REACTORS
330
1548D
102
}
330
1548D
100
AcDbXrecord
280
     1
 90
        1
  0
XRECORD
  5
1548F
102
{ACAD_REACTORS
330
1548D
102
}
330
1548D
100
AcDbXrecord
280
     1
 90
       70
  0
XRECORD
  5
154A7
102
{ACAD_REACTORS
330
1548D
102
}
330
1548D
100
AcDbXrecord
280
     1
340
0
  0
XRECORD
  5
154AD
102
{ACAD_REACTORS
330
1548D
102
}
330
1548D
100
AcDbXrecord
280
     1
 10
0.0
 20
0.0
 30
0.0
  0
XRECORD
  5
154A9
102
{ACAD_REACTORS
330
1548D
102
}
330
1548D
100
AcDbXrecord
280
     1
 10
0.0
 20
0.0
 30
0.0
  0
XRECORD
  5
154AC
102
{ACAD_REACTORS
330
1548D
102
}
330
1548D
100
AcDbXrecord
280
     1
 10
0.0
 20
0.0
 30
0.0
  0
XRECORD
  5
154AA
102
{ACAD_REACTORS
330
1548D
102
}
330
1548D
100
AcDbXrecord
280
     1
 10
0.0
 20
0.0
 30
0.0
  0
XRECORD
  5
154AB
102
{ACAD_REACTORS
330
1548D
102
}
330
1548D
100
AcDbXrecord
280
     1
 10
0.0
 20
0.0
 30
0.0
  0
XRECORD
  5
154A8
102
{ACAD_REACTORS
330
1548D
102
}
330
1548D
100
AcDbXrecord
280
     1
 10
0.0
 20
0.0
 30
0.0
  0
XRECORD
  5
154A5
102
{ACAD_REACTORS
330
1548D
102
}
330
1548D
100
AcDbXrecord
280
     1
340
0
  0
XRECORD
  5
154A6
102
{ACAD_REACTORS
330
1548D
102
}
330
1548D
100
AcDbXrecord
280
     1
 70
     0
  0
XRECORD
  5
15499
102
{ACAD_REACTORS
330
1548D
102
}
330
1548D
100
AcDbXrecord
280
     1
  1
{2ADEEDEF-E225-44F9-AE60-41B2946A6DF0}
  0
DICTIONARYVAR
  5
69CA
102
{ACAD_REACTORS
330
69C9
102
}
330
69C9
100
DictionaryVariables
280
     0
  1
1
  0
DICTIONARYVAR
  5
F572
102
{ACAD_REACTORS
330
69C9
102
}
330
69C9
100
DictionaryVariables
280
     0
  1
96
  0
ENDSEC
  0
EOF
