  0
SECTION
  2
HEADER
  9
$ACADVER
  1
AC1015
  9
$ACADMAINTVER
 70
    10
  9
$DWGCODEPAGE
  3
ANSI_932
  9
$INSBASE
 10
0.0
 20
0.0
 30
0.0
  9
$EXTMIN
 10
-157.1425448171126
 20
-556.3389252521319
 30
-0.0015258207003583
  9
$EXTMAX
 10
620.0900445555921
 20
547.2388028535511
 30
0.0000000349246037
  9
$LIMMIN
 10
-400.0
 20
-616.0
  9
$LIMMAX
 10
677.0
 20
630.0
  9
$ORTHOMODE
 70
     1
  9
$REGENMODE
 70
     1
  9
$FILLMODE
 70
     1
  9
$QTEXTMODE
 70
     0
  9
$MIRRTEXT
 70
     1
  9
$LTSCALE
 40
10.0
  9
$ATTMODE
 70
     1
  9
$TEXTSIZE
 40
5.0
  9
$TRACEWID
 40
0.05
  9
$TEXTSTYLE
  7
STANDARD1
  9
$CLAYER
  8
30
  9
$CELTYPE
  6
CONTINUOUS
  9
$CECOLOR
 62
   256
  9
$CELTSCALE
 40
1.0
  9
$DISPSILH
 70
     0
  9
$DIMSCALE
 40
1.0
  9
$DIMASZ
 40
2.0
  9
$DIMEXO
 40
1.0
  9
$DIMDLI
 40
0.5
  9
$DIMRND
 40
0.0
  9
$DIMDLE
 40
0.0
  9
$DIMEXE
 40
0.5
  9
$DIMTP
 40
0.0
  9
$DIMTM
 40
0.0
  9
$DIMTXT
 40
6.0
  9
$DIMCEN
 40
0.09
  9
$DIMTSZ
 40
0.0
  9
$DIMTOL
 70
     0
  9
$DIMLIM
 70
     0
  9
$DIMTIH
 70
     0
  9
$DIMTOH
 70
     1
  9
$DIMSE1
 70
     0
  9
$DIMSE2
 70
     0
  9
$DIMTAD
 70
     3
  9
$DIMZIN
 70
    12
  9
$DIMBLK
  1
OPEN
  9
$DIMASO
 70
     1
  9
$DIMSHO
 70
     1
  9
$DIMPOST
  1

  9
$DIMAPOST
  1

  9
$DIMALT
 70
     0
  9
$DIMALTD
 70
     2
  9
$DIMALTF
 40
25.4
  9
$DIMLFAC
 40
1.0
  9
$DIMTOFL
 70
     0
  9
$DIMTVP
 40
0.0
  9
$DIMTIX
 70
     0
  9
$DIMSOXD
 70
     0
  9
$DIMSAH
 70
     0
  9
$DIMBLK1
  1

  9
$DIMBLK2
  1

  9
$DIMSTYLE
  2
STANDARD
  9
$DIMCLRD
 70
     0
  9
$DIMCLRE
 70
     0
  9
$DIMCLRT
 70
     0
  9
$DIMTFAC
 40
1.0
  9
$DIMGAP
 40
1.0
  9
$DIMJUST
 70
     0
  9
$DIMSD1
 70
     0
  9
$DIMSD2
 70
     0
  9
$DIMTOLJ
 70
     1
  9
$DIMTZIN
 70
     0
  9
$DIMALTZ
 70
     0
  9
$DIMALTTZ
 70
     0
  9
$DIMUPT
 70
     0
  9
$DIMDEC
 70
     1
  9
$DIMTDEC
 70
     1
  9
$DIMALTU
 70
     2
  9
$DIMALTTD
 70
     2
  9
$DIMTXSTY
  7
STANDARD
  9
$DIMAUNIT
 70
     0
  9
$DIMADEC
 70
     0
  9
$DIMALTRND
 40
0.0
  9
$DIMAZIN
 70
     3
  9
$DIMDSEP
 70
    46
  9
$DIMATFIT
 70
     3
  9
$DIMFRAC
 70
     0
  9
$DIMLDRBLK
  1
OPEN
  9
$DIMLUNIT
 70
     2
  9
$DIMLWD
 70
    -2
  9
$DIMLWE
 70
    -2
  9
$DIMTMOVE
 70
     0
  9
$LUNITS
 70
     2
  9
$LUPREC
 70
     3
  9
$SKETCHINC
 40
0.1
  9
$FILLETRAD
 40
0.0
  9
$AUNITS
 70
     0
  9
$AUPREC
 70
     0
  9
$MENU
  1
.
  9
$ELEVATION
 40
0.0
  9
$PELEVATION
 40
0.0
  9
$THICKNESS
 40
0.0
  9
$LIMCHECK
 70
     0
  9
$CHAMFERA
 40
0.0
  9
$CHAMFERB
 40
0.0
  9
$CHAMFERC
 40
0.0
  9
$CHAMFERD
 40
0.0
  9
$SKPOLY
 70
     0
  9
$TDCREATE
 40
2452286.555658657
  9
$TDUCREATE
 40
2452286.180658657
  9
$TDUPDATE
 40
2454700.840511782
  9
$TDUUPDATE
 40
2454700.465511782
  9
$TDINDWG
 40
1.6093638194
  9
$TDUSRTIMER
 40
1.6093589815
  9
$USRTIMER
 70
     1
  9
$ANGBASE
 50
0.0
  9
$ANGDIR
 70
     0
  9
$PDMODE
 70
     0
  9
$PDSIZE
 40
0.0
  9
$PLINEWID
 40
0.0
  9
$SPLFRAME
 70
     0
  9
$SPLINETYPE
 70
     6
  9
$SPLINESEGS
 70
     8
  9
$HANDSEED
  5
E580
  9
$SURFTAB1
 70
     6
  9
$SURFTAB2
 70
     6
  9
$SURFTYPE
 70
     6
  9
$SURFU
 70
     6
  9
$SURFV
 70
     6
  9
$UCSBASE
  2

  9
$UCSNAME
  2

  9
$UCSORG
 10
0.0
 20
0.0
 30
0.0
  9
$UCSXDIR
 10
1.0
 20
0.0
 30
0.0
  9
$UCSYDIR
 10
0.0
 20
1.0
 30
0.0
  9
$UCSORTHOREF
  2

  9
$UCSORTHOVIEW
 70
     0
  9
$UCSORGTOP
 10
0.0
 20
0.0
 30
0.0
  9
$UCSORGBOTTOM
 10
0.0
 20
0.0
 30
0.0
  9
$UCSORGLEFT
 10
0.0
 20
0.0
 30
0.0
  9
$UCSORGRIGHT
 10
0.0
 20
0.0
 30
0.0
  9
$UCSORGFRONT
 10
0.0
 20
0.0
 30
0.0
  9
$UCSORGBACK
 10
0.0
 20
0.0
 30
0.0
  9
$PUCSBASE
  2

  9
$PUCSNAME
  2

  9
$PUCSORG
 10
0.0
 20
0.0
 30
0.0
  9
$PUCSXDIR
 10
1.0
 20
0.0
 30
0.0
  9
$PUCSYDIR
 10
0.0
 20
1.0
 30
0.0
  9
$PUCSORTHOREF
  2

  9
$PUCSORTHOVIEW
 70
     0
  9
$PUCSORGTOP
 10
0.0
 20
0.0
 30
0.0
  9
$PUCSORGBOTTOM
 10
0.0
 20
0.0
 30
0.0
  9
$PUCSORGLEFT
 10
0.0
 20
0.0
 30
0.0
  9
$PUCSORGRIGHT
 10
0.0
 20
0.0
 30
0.0
  9
$PUCSORGFRONT
 10
0.0
 20
0.0
 30
0.0
  9
$PUCSORGBACK
 10
0.0
 20
0.0
 30
0.0
  9
$USERI1
 70
     0
  9
$USERI2
 70
     0
  9
$USERI3
 70
     0
  9
$USERI4
 70
     0
  9
$USERI5
 70
     0
  9
$USERR1
 40
0.0
  9
$USERR2
 40
0.0
  9
$USERR3
 40
0.0
  9
$USERR4
 40
0.0
  9
$USERR5
 40
0.0
  9
$WORLDVIEW
 70
     1
  9
$SHADEDGE
 70
     3
  9
$SHADEDIF
 70
    70
  9
$TILEMODE
 70
     1
  9
$MAXACTVP
 70
    48
  9
$PINSBASE
 10
0.0
 20
0.0
 30
0.0
  9
$PLIMCHECK
 70
     0
  9
$PEXTMIN
 10
4.273573
 20
5.205245999999998
 30
0.0
  9
$PEXTMAX
 10
194.610095
 20
283.0697009999996
 30
0.0
  9
$PLIMMIN
 10
-5.873749
 20
-5.87375
  9
$PLIMMAX
 10
204.099579
 20
291.1369009999999
  9
$UNITMODE
 70
     0
  9
$VISRETAIN
 70
     1
  9
$PLINEGEN
 70
     0
  9
$PSLTSCALE
 70
     1
  9
$TREEDEPTH
 70
  3020
  9
$CMLSTYLE
  2
STANDARD
  9
$CMLJUST
 70
     0
  9
$CMLSCALE
 40
1.0
  9
$PROXYGRAPHICS
 70
     1
  9
$MEASUREMENT
 70
     0
  9
$CELWEIGHT
370
    -1
  9
$ENDCAPS
280
     0
  9
$JOINSTYLE
280
     0
  9
$LWDISPLAY
290
     0
  9
$INSUNITS
 70
     0
  9
$HYPERLINKBASE
  1

  9
$STYLESHEET
  1
KIKI.CTB
  9
$XEDIT
290
     1
  9
$CEPSNTYPE
380
     0
  9
$PSTYLEMODE
290
     1
  9
$FINGERPRINTGUID
  2

  9
$VERSIONGUID
  2
{03EAA297-96F2-4EC0-8A76-954825AC919A}
  9
$EXTNAMES
290
     1
  9
$PSVPSCALE
 40
0.0
  9
$OLESTARTUP
290
     0
  0
ENDSEC
  0
SECTION
  2
CLASSES
  0
CLASS
  1
ACDBDICTIONARYWDFLT
  2
AcDbDictionaryWithDefault
  3
AutoCAD 2000
 90
        0
280
     0
281
     0
  0
CLASS
  1
ACDBPLACEHOLDER
  2
AcDbPlaceHolder
  3
AutoCAD 2000
 90
        0
280
     0
281
     0
  0
CLASS
  1
LAYOUT
  2
AcDbLayout
  3
AutoCAD 2000
 90
        0
280
     0
281
     0
  0
CLASS
  1
LONG_TRANSACTION
  2
AcDbLongTransaction
  3
AutoCAD 2000
 90
    32768
280
     0
281
     0
  0
CLASS
  1
LWPOLYLINE
  2
AcDbPolyline
  3
AutoCAD 2000
 90
    32768
280
     0
281
     1
  0
CLASS
  1
HATCH
  2
AcDbHatch
  3
AutoCAD 2000
 90
    32768
280
     0
281
     1
  0
CLASS
  1
XRECORD
  2
AcDbXrecord
  3
AutoCAD 2000
 90
    32768
280
     0
281
     0
  0
CLASS
  1
LONG_TRANSACTION
  2
AcDbLongTransaction
  3
AutoCAD 2000
 90
    32768
280
     0
281
     0
  0
CLASS
  1
LWPOLYLINE
  2
AcDbPolyline
  3
AutoCAD 2000
 90
    32768
280
     0
281
     1
  0
CLASS
  1
HATCH
  2
AcDbHatch
  3
AutoCAD 2000
 90
    32768
280
     0
281
     1
  0
CLASS
  1
XRECORD
  2
AcDbXrecord
  3
AutoCAD 2000
 90
    32768
280
     0
281
     0
  0
CLASS
  1
LONG_TRANSACTION
  2
AcDbLongTransaction
  3
AutoCAD 2000
 90
    32768
280
     0
281
     0
  0
CLASS
  1
LWPOLYLINE
  2
AcDbPolyline
  3
AutoCAD 2000
 90
    32768
280
     0
281
     1
  0
CLASS
  1
HATCH
  2
AcDbHatch
  3
AutoCAD 2000
 90
    32768
280
     0
281
     1
  0
CLASS
  1
XRECORD
  2
AcDbXrecord
  3
AutoCAD 2000
 90
    32768
280
     0
281
     0
  0
CLASS
  1
LONG_TRANSACTION
  2
AcDbLongTransaction
  3
AutoCAD 2000
 90
    32768
280
     0
281
     0
  0
CLASS
  1
LWPOLYLINE
  2
AcDbPolyline
  3
AutoCAD 2000
 90
    32768
280
     0
281
     1
  0
CLASS
  1
HATCH
  2
AcDbHatch
  3
AutoCAD 2000
 90
    32768
280
     0
281
     1
  0
CLASS
  1
XRECORD
  2
AcDbXrecord
  3
AutoCAD 2000
 90
    32768
280
     0
281
     0
  0
CLASS
  1
LONG_TRANSACTION
  2
AcDbLongTransaction
  3
AutoCAD 2000
 90
    32768
280
     0
281
     0
  0
CLASS
  1
LWPOLYLINE
  2
AcDbPolyline
  3
AutoCAD 2000
 90
    32768
280
     0
281
     1
  0
CLASS
  1
HATCH
  2
AcDbHatch
  3
AutoCAD 2000
 90
    32768
280
     0
281
     1
  0
CLASS
  1
XRECORD
  2
AcDbXrecord
  3
AutoCAD 2000
 90
    32768
280
     0
281
     0
  0
CLASS
  1
LONG_TRANSACTION
  2
AcDbLongTransaction
  3
AutoCAD 2000
 90
    32768
280
     0
281
     0
  0
CLASS
  1
LWPOLYLINE
  2
AcDbPolyline
  3
AutoCAD 2000
 90
    32768
280
     0
281
     1
  0
CLASS
  1
HATCH
  2
AcDbHatch
  3
AutoCAD 2000
 90
    32768
280
     0
281
     1
  0
CLASS
  1
XRECORD
  2
AcDbXrecord
  3
AutoCAD 2000
 90
    32768
280
     0
281
     0
  0
CLASS
  1
LONG_TRANSACTION
  2
AcDbLongTransaction
  3
AutoCAD 2000
 90
    32768
280
     0
281
     0
  0
CLASS
  1
LWPOLYLINE
  2
AcDbPolyline
  3
AutoCAD 2000
 90
    32768
280
     0
281
     1
  0
CLASS
  1
HATCH
  2
AcDbHatch
  3
AutoCAD 2000
 90
    32768
280
     0
281
     1
  0
CLASS
  1
XRECORD
  2
AcDbXrecord
  3
AutoCAD 2000
 90
    32768
280
     0
281
     0
  0
CLASS
  1
LONG_TRANSACTION
  2
AcDbLongTransaction
  3
AutoCAD 2000
 90
    32768
280
     0
281
     0
  0
CLASS
  1
LWPOLYLINE
  2
AcDbPolyline
  3
AutoCAD 2000
 90
    32768
280
     0
281
     1
  0
CLASS
  1
HATCH
  2
AcDbHatch
  3
AutoCAD 2000
 90
    32768
280
     0
281
     1
  0
CLASS
  1
XRECORD
  2
AcDbXrecord
  3
AutoCAD 2000
 90
    32768
280
     0
281
     0
  0
CLASS
  1
LONG_TRANSACTION
  2
AcDbLongTransaction
  3
AutoCAD 2000
 90
    32768
280
     0
281
     0
  0
CLASS
  1
LWPOLYLINE
  2
AcDbPolyline
  3
AutoCAD 2000
 90
    32768
280
     0
281
     1
  0
CLASS
  1
HATCH
  2
AcDbHatch
  3
AutoCAD 2000
 90
    32768
280
     0
281
     1
  0
CLASS
  1
XRECORD
  2
AcDbXrecord
  3
AutoCAD 2000
 90
    32768
280
     0
281
     0
  0
CLASS
  1
LONG_TRANSACTION
  2
AcDbLongTransaction
  3
AutoCAD 2000
 90
    32768
280
     0
281
     0
  0
CLASS
  1
LWPOLYLINE
  2
AcDbPolyline
  3
AutoCAD 2000
 90
    32768
280
     0
281
     1
  0
CLASS
  1
HATCH
  2
AcDbHatch
  3
AutoCAD 2000
 90
    32768
280
     0
281
     1
  0
CLASS
  1
XRECORD
  2
AcDbXrecord
  3
AutoCAD 2000
 90
    32768
280
     0
281
     0
  0
CLASS
  1
LONG_TRANSACTION
  2
AcDbLongTransaction
  3
AutoCAD 2000
 90
    32768
280
     0
281
     0
  0
CLASS
  1
LWPOLYLINE
  2
AcDbPolyline
  3
AutoCAD 2000
 90
    32768
280
     0
281
     1
  0
CLASS
  1
HATCH
  2
AcDbHatch
  3
AutoCAD 2000
 90
    32768
280
     0
281
     1
  0
CLASS
  1
XRECORD
  2
AcDbXrecord
  3
AutoCAD 2000
 90
    32768
280
     0
281
     0
  0
CLASS
  1
LONG_TRANSACTION
  2
AcDbLongTransaction
  3
AutoCAD 2000
 90
    32768
280
     0
281
     0
  0
CLASS
  1
LWPOLYLINE
  2
AcDbPolyline
  3
AutoCAD 2000
 90
    32768
280
     0
281
     1
  0
CLASS
  1
HATCH
  2
AcDbHatch
  3
AutoCAD 2000
 90
    32768
280
     0
281
     1
  0
CLASS
  1
XRECORD
  2
AcDbXrecord
  3
AutoCAD 2000
 90
    32768
280
     0
281
     0
  0
CLASS
  1
LONG_TRANSACTION
  2
AcDbLongTransaction
  3
AutoCAD 2000
 90
    32768
280
     0
281
     0
  0
CLASS
  1
LWPOLYLINE
  2
AcDbPolyline
  3
AutoCAD 2000
 90
    32768
280
     0
281
     1
  0
CLASS
  1
HATCH
  2
AcDbHatch
  3
AutoCAD 2000
 90
    32768
280
     0
281
     1
  0
CLASS
  1
XRECORD
  2
AcDbXrecord
  3
AutoCAD 2000
 90
    32768
280
     0
281
     0
  0
CLASS
  1
LONG_TRANSACTION
  2
AcDbLongTransaction
  3
AutoCAD 2000
 90
    32768
280
     0
281
     0
  0
CLASS
  1
LWPOLYLINE
  2
AcDbPolyline
  3
AutoCAD 2000
 90
    32768
280
     0
281
     1
  0
CLASS
  1
HATCH
  2
AcDbHatch
  3
AutoCAD 2000
 90
    32768
280
     0
281
     1
  0
CLASS
  1
XRECORD
  2
AcDbXrecord
  3
AutoCAD 2000
 90
    32768
280
     0
281
     0
  0
CLASS
  1
LONG_TRANSACTION
  2
AcDbLongTransaction
  3
AutoCAD 2000
 90
    32768
280
     0
281
     0
  0
CLASS
  1
LWPOLYLINE
  2
AcDbPolyline
  3
AutoCAD 2000
 90
    32768
280
     0
281
     1
  0
CLASS
  1
HATCH
  2
AcDbHatch
  3
AutoCAD 2000
 90
    32768
280
     0
281
     1
  0
CLASS
  1
XRECORD
  2
AcDbXrecord
  3
AutoCAD 2000
 90
    32768
280
     0
281
     0
  0
CLASS
  1
LONG_TRANSACTION
  2
AcDbLongTransaction
  3
AutoCAD 2000
 90
    32768
280
     0
281
     0
  0
CLASS
  1
LWPOLYLINE
  2
AcDbPolyline
  3
AutoCAD 2000
 90
    32768
280
     0
281
     1
  0
CLASS
  1
HATCH
  2
AcDbHatch
  3
AutoCAD 2000
 90
    32768
280
     0
281
     1
  0
CLASS
  1
XRECORD
  2
AcDbXrecord
  3
AutoCAD 2000
 90
    32768
280
     0
281
     0
  0
CLASS
  1
LONG_TRANSACTION
  2
AcDbLongTransaction
  3
AutoCAD 2000
 90
    32768
280
     0
281
     0
  0
CLASS
  1
LWPOLYLINE
  2
AcDbPolyline
  3
AutoCAD 2000
 90
    32768
280
     0
281
     1
  0
CLASS
  1
HATCH
  2
AcDbHatch
  3
AutoCAD 2000
 90
    32768
280
     0
281
     1
  0
CLASS
  1
XRECORD
  2
AcDbXrecord
  3
AutoCAD 2000
 90
    32768
280
     0
281
     0
  0
CLASS
  1
LONG_TRANSACTION
  2
AcDbLongTransaction
  3
AutoCAD 2000
 90
    32768
280
     0
281
     0
  0
CLASS
  1
LWPOLYLINE
  2
AcDbPolyline
  3
AutoCAD 2000
 90
    32768
280
     0
281
     1
  0
CLASS
  1
HATCH
  2
AcDbHatch
  3
AutoCAD 2000
 90
    32768
280
     0
281
     1
  0
CLASS
  1
XRECORD
  2
AcDbXrecord
  3
AutoCAD 2000
 90
    32768
280
     0
281
     0
  0
CLASS
  1
LONG_TRANSACTION
  2
AcDbLongTransaction
  3
AutoCAD 2000
 90
    32768
280
     0
281
     0
  0
CLASS
  1
LWPOLYLINE
  2
AcDbPolyline
  3
AutoCAD 2000
 90
    32768
280
     0
281
     1
  0
CLASS
  1
HATCH
  2
AcDbHatch
  3
AutoCAD 2000
 90
    32768
280
     0
281
     1
  0
CLASS
  1
XRECORD
  2
AcDbXrecord
  3
AutoCAD 2000
 90
    32768
280
     0
281
     0
  0
CLASS
  1
LONG_TRANSACTION
  2
AcDbLongTransaction
  3
AutoCAD 2000
 90
    32768
280
     0
281
     0
  0
CLASS
  1
LWPOLYLINE
  2
AcDbPolyline
  3
AutoCAD 2000
 90
    32768
280
     0
281
     1
  0
CLASS
  1
HATCH
  2
AcDbHatch
  3
AutoCAD 2000
 90
    32768
280
     0
281
     1
  0
CLASS
  1
XRECORD
  2
AcDbXrecord
  3
AutoCAD 2000
 90
    32768
280
     0
281
     0
  0
CLASS
  1
LONG_TRANSACTION
  2
AcDbLongTransaction
  3
AutoCAD 2000
 90
    32768
280
     0
281
     0
  0
CLASS
  1
LWPOLYLINE
  2
AcDbPolyline
  3
AutoCAD 2000
 90
    32768
280
     0
281
     1
  0
CLASS
  1
HATCH
  2
AcDbHatch
  3
AutoCAD 2000
 90
    32768
280
     0
281
     1
  0
CLASS
  1
XRECORD
  2
AcDbXrecord
  3
AutoCAD 2000
 90
    32768
280
     0
281
     0
  0
CLASS
  1
LONG_TRANSACTION
  2
AcDbLongTransaction
  3
AutoCAD 2000
 90
    32768
280
     0
281
     0
  0
CLASS
  1
LWPOLYLINE
  2
AcDbPolyline
  3
AutoCAD 2000
 90
    32768
280
     0
281
     1
  0
CLASS
  1
HATCH
  2
AcDbHatch
  3
AutoCAD 2000
 90
    32768
280
     0
281
     1
  0
CLASS
  1
XRECORD
  2
AcDbXrecord
  3
AutoCAD 2000
 90
    32768
280
     0
281
     0
  0
CLASS
  1
LONG_TRANSACTION
  2
AcDbLongTransaction
  3
AutoCAD 2000
 90
    32768
280
     0
281
     0
  0
CLASS
  1
LWPOLYLINE
  2
AcDbPolyline
  3
AutoCAD 2000
 90
    32768
280
     0
281
     1
  0
CLASS
  1
HATCH
  2
AcDbHatch
  3
AutoCAD 2000
 90
    32768
280
     0
281
     1
  0
CLASS
  1
XRECORD
  2
AcDbXrecord
  3
AutoCAD 2000
 90
    32768
280
     0
281
     0
  0
CLASS
  1
LONG_TRANSACTION
  2
AcDbLongTransaction
  3
AutoCAD 2000
 90
    32768
280
     0
281
     0
  0
CLASS
  1
LWPOLYLINE
  2
AcDbPolyline
  3
AutoCAD 2000
 90
    32768
280
     0
281
     1
  0
CLASS
  1
HATCH
  2
AcDbHatch
  3
AutoCAD 2000
 90
    32768
280
     0
281
     1
  0
CLASS
  1
XRECORD
  2
AcDbXrecord
  3
AutoCAD 2000
 90
    32768
280
     0
281
     0
  0
CLASS
  1
LONG_TRANSACTION
  2
AcDbLongTransaction
  3
AutoCAD 2000
 90
    32768
280
     0
281
     0
  0
CLASS
  1
LWPOLYLINE
  2
AcDbPolyline
  3
AutoCAD 2000
 90
    32768
280
     0
281
     1
  0
CLASS
  1
HATCH
  2
AcDbHatch
  3
AutoCAD 2000
 90
    32768
280
     0
281
     1
  0
CLASS
  1
XRECORD
  2
AcDbXrecord
  3
AutoCAD 2000
 90
    32768
280
     0
281
     0
  0
CLASS
  1
LONG_TRANSACTION
  2
AcDbLongTransaction
  3
AutoCAD 2000
 90
    32768
280
     0
281
     0
  0
CLASS
  1
LWPOLYLINE
  2
AcDbPolyline
  3
AutoCAD 2000
 90
    32768
280
     0
281
     1
  0
CLASS
  1
HATCH
  2
AcDbHatch
  3
AutoCAD 2000
 90
    32768
280
     0
281
     1
  0
CLASS
  1
XRECORD
  2
AcDbXrecord
  3
AutoCAD 2000
 90
    32768
280
     0
281
     0
  0
CLASS
  1
LONG_TRANSACTION
  2
AcDbLongTransaction
  3
AutoCAD 2000
 90
    32768
280
     0
281
     0
  0
CLASS
  1
LWPOLYLINE
  2
AcDbPolyline
  3
AutoCAD 2000
 90
    32768
280
     0
281
     1
  0
CLASS
  1
HATCH
  2
AcDbHatch
  3
AutoCAD 2000
 90
    32768
280
     0
281
     1
  0
CLASS
  1
XRECORD
  2
AcDbXrecord
  3
AutoCAD 2000
 90
    32768
280
     0
281
     0
  0
CLASS
  1
LONG_TRANSACTION
  2
AcDbLongTransaction
  3
AutoCAD 2000
 90
    32768
280
     0
281
     0
  0
CLASS
  1
LWPOLYLINE
  2
AcDbPolyline
  3
AutoCAD 2000
 90
    32768
280
     0
281
     1
  0
CLASS
  1
HATCH
  2
AcDbHatch
  3
AutoCAD 2000
 90
    32768
280
     0
281
     1
  0
CLASS
  1
XRECORD
  2
AcDbXrecord
  3
AutoCAD 2000
 90
    32768
280
     0
281
     0
  0
CLASS
  1
LONG_TRANSACTION
  2
AcDbLongTransaction
  3
AutoCAD 2000
 90
    32768
280
     0
281
     0
  0
CLASS
  1
LWPOLYLINE
  2
AcDbPolyline
  3
AutoCAD 2000
 90
    32768
280
     0
281
     1
  0
CLASS
  1
HATCH
  2
AcDbHatch
  3
AutoCAD 2000
 90
    32768
280
     0
281
     1
  0
CLASS
  1
XRECORD
  2
AcDbXrecord
  3
AutoCAD 2000
 90
    32768
280
     0
281
     0
  0
CLASS
  1
LONG_TRANSACTION
  2
AcDbLongTransaction
  3
AutoCAD 2000
 90
    32768
280
     0
281
     0
  0
CLASS
  1
LWPOLYLINE
  2
AcDbPolyline
  3
AutoCAD 2000
 90
    32768
280
     0
281
     1
  0
CLASS
  1
HATCH
  2
AcDbHatch
  3
AutoCAD 2000
 90
    32768
280
     0
281
     1
  0
CLASS
  1
XRECORD
  2
AcDbXrecord
  3
AutoCAD 2000
 90
    32768
280
     0
281
     0
  0
CLASS
  1
LONG_TRANSACTION
  2
AcDbLongTransaction
  3
AutoCAD 2000
 90
    32768
280
     0
281
     0
  0
CLASS
  1
LWPOLYLINE
  2
AcDbPolyline
  3
AutoCAD 2000
 90
    32768
280
     0
281
     1
  0
CLASS
  1
HATCH
  2
AcDbHatch
  3
AutoCAD 2000
 90
    32768
280
     0
281
     1
  0
CLASS
  1
XRECORD
  2
AcDbXrecord
  3
AutoCAD 2000
 90
    32768
280
     0
281
     0
  0
CLASS
  1
LONG_TRANSACTION
  2
AcDbLongTransaction
  3
AutoCAD 2000
 90
    32768
280
     0
281
     0
  0
CLASS
  1
LWPOLYLINE
  2
AcDbPolyline
  3
AutoCAD 2000
 90
    32768
280
     0
281
     1
  0
CLASS
  1
HATCH
  2
AcDbHatch
  3
AutoCAD 2000
 90
    32768
280
     0
281
     1
  0
CLASS
  1
XRECORD
  2
AcDbXrecord
  3
AutoCAD 2000
 90
    32768
280
     0
281
     0
  0
CLASS
  1
LONG_TRANSACTION
  2
AcDbLongTransaction
  3
AutoCAD 2000
 90
    32768
280
     0
281
     0
  0
CLASS
  1
LWPOLYLINE
  2
AcDbPolyline
  3
AutoCAD 2000
 90
    32768
280
     0
281
     1
  0
CLASS
  1
HATCH
  2
AcDbHatch
  3
AutoCAD 2000
 90
    32768
280
     0
281
     1
  0
CLASS
  1
XRECORD
  2
AcDbXrecord
  3
AutoCAD 2000
 90
    32768
280
     0
281
     0
  0
CLASS
  1
DICTIONARYVAR
  2
AcDbDictionaryVar
  3
AutoCAD 2000
 90
        0
280
     0
281
     0
  0
CLASS
  1
LONG_TRANSACTION
  2
AcDbLongTransaction
  3
AutoCAD 2000
 90
    32768
280
     0
281
     0
  0
CLASS
  1
LWPOLYLINE
  2
AcDbPolyline
  3
AutoCAD 2000
 90
    32768
280
     0
281
     1
  0
CLASS
  1
HATCH
  2
AcDbHatch
  3
AutoCAD 2000
 90
    32768
280
     0
281
     1
  0
CLASS
  1
XRECORD
  2
AcDbXrecord
  3
AutoCAD 2000
 90
    32768
280
     0
281
     0
  0
CLASS
  1
LONG_TRANSACTION
  2
AcDbLongTransaction
  3
AutoCAD 2000
 90
    32768
280
     0
281
     0
  0
CLASS
  1
LWPOLYLINE
  2
AcDbPolyline
  3
AutoCAD 2000
 90
    32768
280
     0
281
     1
  0
CLASS
  1
HATCH
  2
AcDbHatch
  3
AutoCAD 2000
 90
    32768
280
     0
281
     1
  0
CLASS
  1
XRECORD
  2
AcDbXrecord
  3
AutoCAD 2000
 90
    32768
280
     0
281
     0
  0
CLASS
  1
LONG_TRANSACTION
  2
AcDbLongTransaction
  3
AutoCAD 2000
 90
    32768
280
     0
281
     0
  0
CLASS
  1
LWPOLYLINE
  2
AcDbPolyline
  3
AutoCAD 2000
 90
    32768
280
     0
281
     1
  0
CLASS
  1
HATCH
  2
AcDbHatch
  3
AutoCAD 2000
 90
    32768
280
     0
281
     1
  0
CLASS
  1
XRECORD
  2
AcDbXrecord
  3
AutoCAD 2000
 90
    32768
280
     0
281
     0
  0
CLASS
  1
LONG_TRANSACTION
  2
AcDbLongTransaction
  3
AutoCAD 2000
 90
    32768
280
     0
281
     0
  0
CLASS
  1
LWPOLYLINE
  2
AcDbPolyline
  3
AutoCAD 2000
 90
    32768
280
     0
281
     1
  0
CLASS
  1
HATCH
  2
AcDbHatch
  3
AutoCAD 2000
 90
    32768
280
     0
281
     1
  0
CLASS
  1
XRECORD
  2
AcDbXrecord
  3
AutoCAD 2000
 90
    32768
280
     0
281
     0
  0
CLASS
  1
LONG_TRANSACTION
  2
AcDbLongTransaction
  3
AutoCAD 2000
 90
    32768
280
     0
281
     0
  0
CLASS
  1
LWPOLYLINE
  2
AcDbPolyline
  3
AutoCAD 2000
 90
    32768
280
     0
281
     1
  0
CLASS
  1
HATCH
  2
AcDbHatch
  3
AutoCAD 2000
 90
    32768
280
     0
281
     1
  0
CLASS
  1
XRECORD
  2
AcDbXrecord
  3
AutoCAD 2000
 90
    32768
280
     0
281
     0
  0
CLASS
  1
LONG_TRANSACTION
  2
AcDbLongTransaction
  3
AutoCAD 2000
 90
    32768
280
     0
281
     0
  0
CLASS
  1
LWPOLYLINE
  2
AcDbPolyline
  3
AutoCAD 2000
 90
    32768
280
     0
281
     1
  0
CLASS
  1
HATCH
  2
AcDbHatch
  3
AutoCAD 2000
 90
    32768
280
     0
281
     1
  0
CLASS
  1
XRECORD
  2
AcDbXrecord
  3
AutoCAD 2000
 90
    32768
280
     0
281
     0
  0
CLASS
  1
LONG_TRANSACTION
  2
AcDbLongTransaction
  3
AutoCAD 2000
 90
    32768
280
     0
281
     0
  0
CLASS
  1
LWPOLYLINE
  2
AcDbPolyline
  3
AutoCAD 2000
 90
    32768
280
     0
281
     1
  0
CLASS
  1
HATCH
  2
AcDbHatch
  3
AutoCAD 2000
 90
    32768
280
     0
281
     1
  0
CLASS
  1
XRECORD
  2
AcDbXrecord
  3
AutoCAD 2000
 90
    32768
280
     0
281
     0
  0
CLASS
  1
LONG_TRANSACTION
  2
AcDbLongTransaction
  3
AutoCAD 2000
 90
    32768
280
     0
281
     0
  0
CLASS
  1
LWPOLYLINE
  2
AcDbPolyline
  3
AutoCAD 2000
 90
    32768
280
     0
281
     1
  0
CLASS
  1
HATCH
  2
AcDbHatch
  3
AutoCAD 2000
 90
    32768
280
     0
281
     1
  0
CLASS
  1
XRECORD
  2
AcDbXrecord
  3
AutoCAD 2000
 90
    32768
280
     0
281
     0
  0
CLASS
  1
LONG_TRANSACTION
  2
AcDbLongTransaction
  3
AutoCAD 2000
 90
    32768
280
     0
281
     0
  0
CLASS
  1
LWPOLYLINE
  2
AcDbPolyline
  3
AutoCAD 2000
 90
    32768
280
     0
281
     1
  0
CLASS
  1
HATCH
  2
AcDbHatch
  3
AutoCAD 2000
 90
    32768
280
     0
281
     1
  0
CLASS
  1
XRECORD
  2
AcDbXrecord
  3
AutoCAD 2000
 90
    32768
280
     0
281
     0
  0
CLASS
  1
LONG_TRANSACTION
  2
AcDbLongTransaction
  3
AutoCAD 2000
 90
    32768
280
     0
281
     0
  0
CLASS
  1
LWPOLYLINE
  2
AcDbPolyline
  3
AutoCAD 2000
 90
    32768
280
     0
281
     1
  0
CLASS
  1
HATCH
  2
AcDbHatch
  3
AutoCAD 2000
 90
    32768
280
     0
281
     1
  0
CLASS
  1
XRECORD
  2
AcDbXrecord
  3
AutoCAD 2000
 90
    32768
280
     0
281
     0
  0
CLASS
  1
LONG_TRANSACTION
  2
AcDbLongTransaction
  3
AutoCAD 2000
 90
    32768
280
     0
281
     0
  0
CLASS
  1
LWPOLYLINE
  2
AcDbPolyline
  3
AutoCAD 2000
 90
    32768
280
     0
281
     1
  0
CLASS
  1
HATCH
  2
AcDbHatch
  3
AutoCAD 2000
 90
    32768
280
     0
281
     1
  0
CLASS
  1
XRECORD
  2
AcDbXrecord
  3
AutoCAD 2000
 90
    32768
280
     0
281
     0
  0
CLASS
  1
LONG_TRANSACTION
  2
AcDbLongTransaction
  3
AutoCAD 2000
 90
    32768
280
     0
281
     0
  0
CLASS
  1
LWPOLYLINE
  2
AcDbPolyline
  3
AutoCAD 2000
 90
    32768
280
     0
281
     1
  0
CLASS
  1
HATCH
  2
AcDbHatch
  3
AutoCAD 2000
 90
    32768
280
     0
281
     1
  0
CLASS
  1
XRECORD
  2
AcDbXrecord
  3
AutoCAD 2000
 90
    32768
280
     0
281
     0
  0
CLASS
  1
LONG_TRANSACTION
  2
AcDbLongTransaction
  3
AutoCAD 2000
 90
    32768
280
     0
281
     0
  0
CLASS
  1
LWPOLYLINE
  2
AcDbPolyline
  3
AutoCAD 2000
 90
    32768
280
     0
281
     1
  0
CLASS
  1
HATCH
  2
AcDbHatch
  3
AutoCAD 2000
 90
    32768
280
     0
281
     1
  0
CLASS
  1
XRECORD
  2
AcDbXrecord
  3
AutoCAD 2000
 90
    32768
280
     0
281
     0
  0
CLASS
  1
LONG_TRANSACTION
  2
AcDbLongTransaction
  3
AutoCAD 2000
 90
    32768
280
     0
281
     0
  0
CLASS
  1
LWPOLYLINE
  2
AcDbPolyline
  3
AutoCAD 2000
 90
    32768
280
     0
281
     1
  0
CLASS
  1
HATCH
  2
AcDbHatch
  3
AutoCAD 2000
 90
    32768
280
     0
281
     1
  0
CLASS
  1
XRECORD
  2
AcDbXrecord
  3
AutoCAD 2000
 90
    32768
280
     0
281
     0
  0
CLASS
  1
LONG_TRANSACTION
  2
AcDbLongTransaction
  3
AutoCAD 2000
 90
    32768
280
     0
281
     0
  0
CLASS
  1
LWPOLYLINE
  2
AcDbPolyline
  3
AutoCAD 2000
 90
    32768
280
     0
281
     1
  0
CLASS
  1
HATCH
  2
AcDbHatch
  3
AutoCAD 2000
 90
    32768
280
     0
281
     1
  0
CLASS
  1
XRECORD
  2
AcDbXrecord
  3
AutoCAD 2000
 90
    32768
280
     0
281
     0
  0
CLASS
  1
LONG_TRANSACTION
  2
AcDbLongTransaction
  3
AutoCAD 2000
 90
    32768
280
     0
281
     0
  0
CLASS
  1
LWPOLYLINE
  2
AcDbPolyline
  3
AutoCAD 2000
 90
    32768
280
     0
281
     1
  0
CLASS
  1
HATCH
  2
AcDbHatch
  3
AutoCAD 2000
 90
    32768
280
     0
281
     1
  0
CLASS
  1
XRECORD
  2
AcDbXrecord
  3
AutoCAD 2000
 90
    32768
280
     0
281
     0
  0
CLASS
  1
LONG_TRANSACTION
  2
AcDbLongTransaction
  3
AutoCAD 2000
 90
    32768
280
     0
281
     0
  0
CLASS
  1
LWPOLYLINE
  2
AcDbPolyline
  3
AutoCAD 2000
 90
    32768
280
     0
281
     1
  0
CLASS
  1
HATCH
  2
AcDbHatch
  3
AutoCAD 2000
 90
    32768
280
     0
281
     1
  0
CLASS
  1
XRECORD
  2
AcDbXrecord
  3
AutoCAD 2000
 90
    32768
280
     0
281
     0
  0
ENDSEC
  0
SECTION
  2
TABLES
  0
TABLE
  2
VPORT
  5
8
330
0
100
AcDbSymbolTable
 70
     2
  0
VPORT
  5
E55E
330
8
100
AcDbSymbolTableRecord
100
AcDbViewportTableRecord
  2
*Active
 70
     0
 10
0.0
 20
0.0
 11
1.0
 21
1.0
 12
231.4737498692397
 22
-4.550061199290439
 13
0.0
 23
0.0
 14
1.0
 24
1.0
 15
10.0
 25
10.0
 16
0.0
 26
0.0
 36
1.0
 17
0.0
 27
0.0
 37
0.0
 40
1114.486239421389
 41
1.264026402640264
 42
50.0
 43
0.0
 44
0.0
 50
0.0
 51
0.0
 71
     0
 72
   100
 73
     1
 74
     1
 75
     1
 76
     0
 77
     0
 78
     0
281
     0
 65
     1
110
0.0
120
0.0
130
0.0
111
1.0
121
0.0
131
0.0
112
0.0
122
1.0
132
0.0
 79
     0
146
0.0
  0
ENDTAB
  0
TABLE
  2
LTYPE
  5
5
330
0
100
AcDbSymbolTable
 70
     6
  0
LTYPE
  5
13
330
5
100
AcDbSymbolTableRecord
100
AcDbLinetypeTableRecord
  2
BYBLOCK
 70
     0
  3

 72
    65
 73
     0
 40
0.0
  0
LTYPE
  5
14
330
5
100
AcDbSymbolTableRecord
100
AcDbLinetypeTableRecord
  2
BYLAYER
 70
     0
  3

 72
    65
 73
     0
 40
0.0
  0
LTYPE
  5
15
330
5
100
AcDbSymbolTableRecord
100
AcDbLinetypeTableRecord
  2
CONTINUOUS
 70
     0
  3
Solid line
 72
    65
 73
     0
 40
0.0
  0
LTYPE
  5
22
330
5
100
AcDbSymbolTableRecord
100
AcDbLinetypeTableRecord
  2
CONTINOUS
 70
     0
  3
Solid line
 72
    65
 73
     0
 40
0.0
  0
LTYPE
  5
23
330
5
100
AcDbSymbolTableRecord
100
AcDbLinetypeTableRecord
  2
DASHED
 70
     0
  3
__ __ __ __ __ __ __ __ __ __ __ __ __ __ __
 72
    65
 73
     2
 40
0.75
 49
0.5
 74
     0
 49
-0.25
 74
     0
  0
LTYPE
  5
24
330
5
100
AcDbSymbolTableRecord
100
AcDbLinetypeTableRecord
  2
DASHDOT
 70
     0
  3
__ . __ . __ . __ . __ . __ . __ . __ . __ . __
 72
    65
 73
     4
 40
1.0
 49
0.5
 74
     0
 49
-0.25
 74
     0
 49
0.0
 74
     0
 49
-0.25
 74
     0
  0
LTYPE
  5
4C47
330
5
100
AcDbSymbolTableRecord
100
AcDbLinetypeTableRecord
  2
DIVIDE
 70
     0
  3
Divide ____ . . ____ . . ____ . . ____ . . ____
 72
    65
 73
     6
 40
1.25
 49
0.5
 74
     0
 49
-0.25
 74
     0
 49
0.0
 74
     0
 49
-0.25
 74
     0
 49
0.0
 74
     0
 49
-0.25
 74
     0
  0
LTYPE
  5
6265
330
5
100
AcDbSymbolTableRecord
100
AcDbLinetypeTableRecord
  2
CENTER
 70
     0
  3
Center ____ _ ____ _ ____ _ ____ _ ____ _ ____
 72
    65
 73
     4
 40
50.8
 49
31.75
 74
     0
 49
-6.349999999999997
 74
     0
 49
6.349999999999997
 74
     0
 49
-6.349999999999997
 74
     0
  0
ENDTAB
  0
TABLE
  2
LAYER
  5
2
330
0
100
AcDbSymbolTable
 70
    12
  0
LAYER
  5
10
330
2
100
AcDbSymbolTableRecord
100
AcDbLayerTableRecord
  2
0
 70
     0
 62
     7
  6
CONTINOUS
370
    -3
390
F
  0
LAYER
  5
2F
330
2
100
AcDbSymbolTableRecord
100
AcDbLayerTableRecord
  2
10
 70
     0
 62
     4
  6
CONTINOUS
370
    -3
390
F
  0
LAYER
  5
31
330
2
100
AcDbSymbolTableRecord
100
AcDbLayerTableRecord
  2
12
 70
     0
 62
     3
  6
CONTINOUS
370
    -3
390
F
  0
LAYER
  5
35
330
2
100
AcDbSymbolTableRecord
100
AcDbLayerTableRecord
  2
16
 70
     0
 62
     6
  6
DASHDOT
370
    -3
390
F
  0
LAYER
  5
38
330
2
100
AcDbSymbolTableRecord
100
AcDbLayerTableRecord
  2
19
 70
     0
 62
     7
  6
CONTINOUS
370
    -3
390
F
  0
LAYER
  5
3D
330
2
100
AcDbSymbolTableRecord
100
AcDbLayerTableRecord
  2
24
 70
     0
 62
     2
  6
CONTINOUS
370
    -3
390
F
  0
LAYER
  5
3A2
330
2
100
AcDbSymbolTableRecord
100
AcDbLayerTableRecord
  2
30
 70
     0
 62
     9
  6
CONTINUOUS
370
    -3
390
F
  0
LAYER
  5
3A4
330
2
100
AcDbSymbolTableRecord
100
AcDbLayerTableRecord
  2
DEFPOINTS
 70
     0
 62
     7
  6
CONTINUOUS
290
     0
370
    -3
390
F
  0
LAYER
  5
3BBA
330
2
100
AcDbSymbolTableRecord
100
AcDbLayerTableRecord
  2
18
 70
     0
 62
     5
  6
DIVIDE
370
    -3
390
F
  0
LAYER
  5
7837
330
2
100
AcDbSymbolTableRecord
100
AcDbLayerTableRecord
  2
17
 70
     0
 62
     2
  6
DASHDOT
370
    -3
390
F
  0
LAYER
  5
7BC8
330
2
100
AcDbSymbolTableRecord
100
AcDbLayerTableRecord
  2
1
 70
     0
 62
     7
  6
CONTINUOUS
370
    -3
390
F
  0
LAYER
  5
8A0F
330
2
100
AcDbSymbolTableRecord
100
AcDbLayerTableRecord
  2
21
 70
     0
 62
     7
  6
CONTINUOUS
370
    -3
390
F
  0
ENDTAB
  0
TABLE
  2
STYLE
  5
3
330
0
100
AcDbSymbolTable
 70
     2
  0
STYLE
  5
11
330
3
100
AcDbSymbolTableRecord
100
AcDbTextStyleTableRecord
  2
STANDARD
 70
     0
 40
0.0
 41
1.0
 50
0.0
 71
     0
 42
2.0
  3
txt.shx
  4
bigfont.shx
  0
STYLE
  5
42
330
3
100
AcDbSymbolTableRecord
100
AcDbTextStyleTableRecord
  2
STANDARD1
 70
     0
 40
0.0
 41
1.0
 50
0.0
 71
     0
 42
5.0
  3
MONOTXT
  4
BIGFONT
  0
ENDTAB
  0
TABLE
  2
VIEW
  5
6
330
0
100
AcDbSymbolTable
 70
     3
  0
VIEW
  5
230C
330
6
100
AcDbSymbolTableRecord
100
AcDbViewTableRecord
  2
OLE1
 70
     0
 40
148.912488
 10
429.497628
 20
2.560627
 41
103.145806
 11
0.0
 21
0.0
 31
1.0
 12
0.0
 22
0.0
 32
0.0
 42
50.0
 43
0.0
 44
0.0
 50
0.0
 71
     0
281
     0
 72
     0
  0
VIEW
  5
230E
330
6
100
AcDbSymbolTableRecord
100
AcDbViewTableRecord
  2
OLE2
 70
     0
 40
170.778692
 10
322.66497
 20
-5.978304
 41
102.467215
 11
0.0
 21
0.0
 31
1.0
 12
0.0
 22
0.0
 32
0.0
 42
50.0
 43
0.0
 44
0.0
 50
0.0
 71
     0
281
     0
 72
     0
  0
VIEW
  5
23AA
330
6
100
AcDbSymbolTableRecord
100
AcDbViewTableRecord
  2
OLE3
 70
     0
 40
591.7897389999998
 10
84.79698199999999
 20
-46.09335999999998
 41
388.792096
 11
0.0
 21
0.0
 31
1.0
 12
0.0
 22
0.0
 32
0.0
 42
50.0
 43
0.0
 44
0.0
 50
0.0
 71
     0
281
     0
 72
     0
  0
ENDTAB
  0
TABLE
  2
UCS
  5
7
330
0
100
AcDbSymbolTable
 70
     0
  0
ENDTAB
  0
TABLE
  2
APPID
  5
9
330
0
100
AcDbSymbolTable
 70
     2
  0
APPID
  5
12
330
9
100
AcDbSymbolTableRecord
100
AcDbRegAppTableRecord
  2
ACAD
 70
     0
  0
APPID
  5
ECD
330
9
100
AcDbSymbolTableRecord
100
AcDbRegAppTableRecord
  2
CONTENTBLOCKICON
 70
     0
  0
ENDTAB
  0
TABLE
  2
DIMSTYLE
  5
A
330
0
100
AcDbSymbolTable
 70
     1
100
AcDbDimStyleTable
 71
     1
340
175
  0
DIMSTYLE
105
175
102
{ACAD_REACTORS
330
D810
330
D80F
330
D80E
330
D80D
330
D80C
330
C8FB
330
C8FA
330
C8F9
330
C3FF
330
BB43
330
BAE5
330
BAE4
330
BAE1
330
BABF
330
BABE
330
B8AB
330
B8AA
330
B8A9
330
B8A7
330
DC08
330
DC0A
330
DC0F
330
DC14
330
DC15
330
DCB7
330
DCDE
330
DCEA
330
DD03
330
DD2A
330
DD2B
330
DD2C
330
DDB3
330
DF24
330
E1FD
330
E1FF
330
E3BB
330
E3C8
330
E470
330
E471
330
E472
330
E509
330
E51D
102
}
330
A
100
AcDbSymbolTableRecord
100
AcDbDimStyleTableRecord
  2
STANDARD
 70
     0
 41
2.0
 42
1.0
 43
0.5
 44
0.5
 73
     0
 77
     3
 78
    12
140
6.0
147
1.0
271
     1
272
     1
340
11
341
3B2
342
3B2
  0
ENDTAB
  0
TABLE
  2
BLOCK_RECORD
  5
1
330
0
100
AcDbSymbolTable
 70
    43
  0
BLOCK_RECORD
  5
1E
102
{ACAD_XDICTIONARY
360
178
102
}
330
1
100
AcDbSymbolTableRecord
100
AcDbBlockTableRecord
  2
*MODEL_SPACE
340
9913
  0
BLOCK_RECORD
  5
1A
102
{ACAD_XDICTIONARY
360
17A
102
}
330
1
100
AcDbSymbolTableRecord
100
AcDbBlockTableRecord
  2
*PAPER_SPACE
340
9914
  0
BLOCK_RECORD
  5
3B2
330
1
100
AcDbSymbolTableRecord
100
AcDbBlockTableRecord
  2
_OPEN
340
0
102
{BLKREFS
331
D973
331
D974
331
D97C
331
D97D
331
D985
331
D986
331
D98E
331
D98F
331
D997
331
D998
331
DA5C
331
DA5D
331
DA65
331
DA6D
331
DA6E
331
DA77
331
DA78
331
DA80
331
DA81
331
DA89
331
DA8A
331
DA92
331
DA93
331
DA9B
331
DA9C
331
DAA4
331
DAA5
331
DAAE
331
DAAF
331
DAC0
331
DAC1
331
DAD3
331
DAD4
331
DAE5
331
DAE6
331
DAF0
331
DAF1
331
DC8D
331
DC8E
331
DC96
331
DC97
331
DCD9
331
DCE3
331
DCEF
331
DE8D
331
DE8E
331
DEF4
331
DEF5
331
DF05
331
DF06
331
E061
331
E062
331
E06A
331
E06B
331
E073
331
E074
331
E08E
331
E08F
331
E097
331
E098
331
E0A0
331
E0A1
331
E32C
331
E32D
331
E335
331
E336
331
E386
331
E387
331
E398
331
E399
331
E3A1
331
E3A2
331
E3EA
331
E3EB
331
E3F3
331
E3F4
331
E419
331
E41A
331
E425
331
E426
331
E431
331
E432
331
E401
331
E402
331
E40D
331
E40E
331
E4DF
331
E4E0
331
E4E8
331
E4E9
331
E4F1
331
E4F2
331
E4FA
331
E4FB
331
E503
331
E504
331
E50E
331
E50F
331
E522
331
E523
331
E559
102
}
  0
BLOCK_RECORD
  5
BB5B
330
1
100
AcDbSymbolTableRecord
100
AcDbBlockTableRecord
  2
*D1
340
0
  0
BLOCK_RECORD
  5
BB72
330
1
100
AcDbSymbolTableRecord
100
AcDbBlockTableRecord
  2
*D2
340
0
  0
BLOCK_RECORD
  5
BB7F
330
1
100
AcDbSymbolTableRecord
100
AcDbBlockTableRecord
  2
*D3
340
0
  0
BLOCK_RECORD
  5
BB8B
330
1
100
AcDbSymbolTableRecord
100
AcDbBlockTableRecord
  2
*D4
340
0
  0
BLOCK_RECORD
  5
BCA2
330
1
100
AcDbSymbolTableRecord
100
AcDbBlockTableRecord
  2
*D5
340
0
  0
BLOCK_RECORD
  5
BDB5
330
1
100
AcDbSymbolTableRecord
100
AcDbBlockTableRecord
  2
*D6
340
0
  0
BLOCK_RECORD
  5
BDC0
330
1
100
AcDbSymbolTableRecord
100
AcDbBlockTableRecord
  2
*D7
340
0
  0
BLOCK_RECORD
  5
BDE5
330
1
100
AcDbSymbolTableRecord
100
AcDbBlockTableRecord
  2
*D8
340
0
  0
BLOCK_RECORD
  5
BDF1
330
1
100
AcDbSymbolTableRecord
100
AcDbBlockTableRecord
  2
*D9
340
0
  0
BLOCK_RECORD
  5
BDFD
330
1
100
AcDbSymbolTableRecord
100
AcDbBlockTableRecord
  2
*D10
340
0
  0
BLOCK_RECORD
  5
C400
330
1
100
AcDbSymbolTableRecord
100
AcDbBlockTableRecord
  2
*D11
340
0
  0
BLOCK_RECORD
  5
C99A
330
1
100
AcDbSymbolTableRecord
100
AcDbBlockTableRecord
  2
*D12
340
0
  0
BLOCK_RECORD
  5
C9A6
330
1
100
AcDbSymbolTableRecord
100
AcDbBlockTableRecord
  2
*D13
340
0
  0
BLOCK_RECORD
  5
C9B2
330
1
100
AcDbSymbolTableRecord
100
AcDbBlockTableRecord
  2
*D14
340
0
  0
BLOCK_RECORD
  5
D811
330
1
100
AcDbSymbolTableRecord
100
AcDbBlockTableRecord
  2
*D15
340
0
  0
BLOCK_RECORD
  5
D81D
330
1
100
AcDbSymbolTableRecord
100
AcDbBlockTableRecord
  2
*D16
340
0
  0
BLOCK_RECORD
  5
D829
330
1
100
AcDbSymbolTableRecord
100
AcDbBlockTableRecord
  2
*D17
340
0
  0
BLOCK_RECORD
  5
D836
330
1
100
AcDbSymbolTableRecord
100
AcDbBlockTableRecord
  2
*D18
340
0
  0
BLOCK_RECORD
  5
D842
330
1
100
AcDbSymbolTableRecord
100
AcDbBlockTableRecord
  2
*D19
340
0
  0
BLOCK_RECORD
  5
DC3A
330
1
100
AcDbSymbolTableRecord
100
AcDbBlockTableRecord
  2
*D20
340
0
  0
BLOCK_RECORD
  5
DC46
330
1
100
AcDbSymbolTableRecord
100
AcDbBlockTableRecord
  2
*D21
340
0
  0
BLOCK_RECORD
  5
DC52
330
1
100
AcDbSymbolTableRecord
100
AcDbBlockTableRecord
  2
*D22
340
0
  0
BLOCK_RECORD
  5
DC5E
330
1
100
AcDbSymbolTableRecord
100
AcDbBlockTableRecord
  2
*D23
340
0
  0
BLOCK_RECORD
  5
DC6A
330
1
100
AcDbSymbolTableRecord
100
AcDbBlockTableRecord
  2
*D24
340
0
  0
BLOCK_RECORD
  5
DCC3
330
1
100
AcDbSymbolTableRecord
100
AcDbBlockTableRecord
  2
*D25
340
0
  0
BLOCK_RECORD
  5
DCDF
330
1
100
AcDbSymbolTableRecord
100
AcDbBlockTableRecord
  2
*D26
340
0
  0
BLOCK_RECORD
  5
DCEB
330
1
100
AcDbSymbolTableRecord
100
AcDbBlockTableRecord
  2
*D27
340
0
  0
BLOCK_RECORD
  5
DD04
330
1
100
AcDbSymbolTableRecord
100
AcDbBlockTableRecord
  2
*D28
340
0
  0
BLOCK_RECORD
  5
DD3B
330
1
100
AcDbSymbolTableRecord
100
AcDbBlockTableRecord
  2
*D29
340
0
  0
BLOCK_RECORD
  5
DD48
330
1
100
AcDbSymbolTableRecord
100
AcDbBlockTableRecord
  2
*D30
340
0
  0
BLOCK_RECORD
  5
DD54
330
1
100
AcDbSymbolTableRecord
100
AcDbBlockTableRecord
  2
*D31
340
0
  0
BLOCK_RECORD
  5
DDB4
330
1
100
AcDbSymbolTableRecord
100
AcDbBlockTableRecord
  2
*D32
340
0
  0
BLOCK_RECORD
  5
DF25
330
1
100
AcDbSymbolTableRecord
100
AcDbBlockTableRecord
  2
*D33
340
0
  0
BLOCK_RECORD
  5
E2C9
330
1
100
AcDbSymbolTableRecord
100
AcDbBlockTableRecord
  2
*D34
340
0
  0
BLOCK_RECORD
  5
E2D5
330
1
100
AcDbSymbolTableRecord
100
AcDbBlockTableRecord
  2
*D35
340
0
  0
BLOCK_RECORD
  5
E3BC
330
1
100
AcDbSymbolTableRecord
100
AcDbBlockTableRecord
  2
*D36
340
0
  0
BLOCK_RECORD
  5
E3C9
330
1
100
AcDbSymbolTableRecord
100
AcDbBlockTableRecord
  2
*D37
340
0
  0
BLOCK_RECORD
  5
E48B
330
1
100
AcDbSymbolTableRecord
100
AcDbBlockTableRecord
  2
*D38
340
0
  0
BLOCK_RECORD
  5
E497
330
1
100
AcDbSymbolTableRecord
100
AcDbBlockTableRecord
  2
*D39
340
0
  0
BLOCK_RECORD
  5
E4A3
330
1
100
AcDbSymbolTableRecord
100
AcDbBlockTableRecord
  2
*D40
340
0
  0
BLOCK_RECORD
  5
E50A
330
1
100
AcDbSymbolTableRecord
100
AcDbBlockTableRecord
  2
*D41
340
0
  0
BLOCK_RECORD
  5
E51E
330
1
100
AcDbSymbolTableRecord
100
AcDbBlockTableRecord
  2
*D42
340
0
  0
ENDTAB
  0
ENDSEC
  0
SECTION
  2
BLOCKS
  0
BLOCK
  5
1F
330
1E
100
AcDbEntity
  8
0
100
AcDbBlockBegin
  2
*MODEL_SPACE
 70
     0
 10
0.0
 20
0.0
 30
0.0
  3
*MODEL_SPACE
  1

  0
ENDBLK
  5
20
330
1E
100
AcDbEntity
  8
0
100
AcDbBlockEnd
  0
BLOCK
  5
1B
330
1A
100
AcDbEntity
 67
     1
  8
0
100
AcDbBlockBegin
  2
*PAPER_SPACE
 70
     0
 10
0.0
 20
0.0
 30
0.0
  3
*PAPER_SPACE
  1

  0
ENDBLK
  5
1C
330
1A
100
AcDbEntity
 67
     1
  8
0
100
AcDbBlockEnd
  0
BLOCK
  5
3B6
330
3B2
100
AcDbEntity
  8
0
100
AcDbBlockBegin
  2
_OPEN
 70
     0
 10
0.0
 20
0.0
 30
0.0
  3
_OPEN
  1

  0
LINE
  5
3B3
330
3B2
100
AcDbEntity
  8
30
  6
Continuous
 62
     0
100
AcDbLine
 10
-1.0
 20
0.166667
 30
0.0
 11
0.0
 21
0.0
 31
0.0
  0
LINE
  5
3B4
330
3B2
100
AcDbEntity
  8
30
  6
Continuous
 62
     0
100
AcDbLine
 10
-1.0
 20
-0.166667
 30
0.0
 11
0.0
 21
0.0
 31
0.0
  0
LINE
  5
3B5
330
3B2
100
AcDbEntity
  8
30
  6
Continuous
 62
     0
100
AcDbLine
 10
0.0
 20
0.0
 30
0.0
 11
-1.0
 21
0.0
 31
0.0
  0
ENDBLK
  5
3B7
330
3B2
100
AcDbEntity
  8
0
100
AcDbBlockEnd
  0
BLOCK
  5
BB64
330
BB5B
100
AcDbEntity
  8
0
100
AcDbBlockBegin
  2
*D1
 70
     1
 10
0.0
 20
0.0
 30
0.0
  3
*D1
  1

  0
LINE
  5
DAD0
330
BB5B
100
AcDbEntity
  8
30
  6
Continuous
 62
     0
370
    -2
100
AcDbLine
 10
356.0
 20
-45.99999999999993
 30
0.0
 11
356.0
 21
-209.5
 31
0.0
  0
LINE
  5
DAD1
330
BB5B
100
AcDbEntity
  8
30
  6
Continuous
 62
     0
370
    -2
100
AcDbLine
 10
463.0
 20
140.0
 30
0.0
 11
463.0
 21
-209.5
 31
0.0
  0
LINE
  5
DAD2
330
BB5B
100
AcDbEntity
  8
30
  6
Continuous
 62
     0
370
    -2
100
AcDbLine
 10
358.0
 20
-209.0
 30
0.0
 11
461.0
 21
-209.0
 31
0.0
  0
INSERT
  5
DAD3
330
BB5B
100
AcDbEntity
  8
30
  6
Continuous
 62
     0
370
    -2
100
AcDbBlockReference
  2
_OPEN
 10
356.0
 20
-209.0
 30
0.0
 41
2.0
 42
2.0
 43
2.0
 50
180.0
  0
INSERT
  5
DAD4
330
BB5B
100
AcDbEntity
  8
30
  6
Continuous
 62
     0
370
    -2
100
AcDbBlockReference
  2
_OPEN
 10
463.0
 20
-209.0
 30
0.0
 41
2.0
 42
2.0
 43
2.0
  0
MTEXT
  5
DAD5
330
BB5B
100
AcDbEntity
  8
30
  6
Continuous
 62
     0
100
AcDbMText
 10
409.4999999999997
 20
-205.0
 30
0.0
 40
6.0
 41
0.0
 71
     5
 72
     1
  1
\A1; 107 
 73
     1
 44
1.0
  0
POINT
  5
DAD6
330
BB5B
100
AcDbEntity
  8
DEFPOINTS
  6
Continuous
 62
     0
100
AcDbPoint
 10
356.0
 20
-44.99999999999993
 30
0.0
  0
POINT
  5
DAD7
330
BB5B
100
AcDbEntity
  8
DEFPOINTS
  6
Continuous
 62
     0
100
AcDbPoint
 10
463.0
 20
141.0
 30
0.0
  0
POINT
  5
DAD8
330
BB5B
100
AcDbEntity
  8
DEFPOINTS
  6
Continuous
 62
     0
100
AcDbPoint
 10
463.0
 20
-209.0
 30
0.0
  0
ENDBLK
  5
BB65
330
BB5B
100
AcDbEntity
  8
0
100
AcDbBlockEnd
  0
BLOCK
  5
BB7D
330
BB72
100
AcDbEntity
  8
0
100
AcDbBlockBegin
  2
*D2
 70
     1
 10
0.0
 20
0.0
 30
0.0
  3
*D2
  1

  0
LINE
  5
DAEB
330
BB72
100
AcDbEntity
  8
30
  6
Continuous
 62
     0
370
    -2
100
AcDbLine
 10
352.0
 20
-1.499999999999943
 30
0.0
 11
352.0
 21
-209.5
 31
0.0
  0
LINE
  5
DAEC
330
BB72
100
AcDbEntity
  8
30
  6
Continuous
 62
     0
370
    -2
100
AcDbLine
 10
356.0
 20
-50.99999999999994
 30
0.0
 11
356.0
 21
-209.5
 31
0.0
  0
LINE
  5
DAED
330
BB72
100
AcDbEntity
  8
30
  6
Continuous
 62
     0
370
    -2
100
AcDbLine
 10
358.0
 20
-209.0
 30
0.0
 11
360.0
 21
-209.0
 31
0.0
  0
LINE
  5
DAEE
330
BB72
100
AcDbEntity
  8
30
  6
Continuous
 62
     0
370
    -2
100
AcDbLine
 10
350.0
 20
-209.0
 30
0.0
 11
338.3999999999998
 21
-209.0
 31
0.0
  0
LINE
  5
DAEF
330
BB72
100
AcDbEntity
  8
30
  6
Continuous
 62
     0
370
    -2
100
AcDbLine
 10
356.0
 20
-209.0
 30
0.0
 11
352.0
 21
-209.0
 31
0.0
  0
INSERT
  5
DAF0
330
BB72
100
AcDbEntity
  8
30
  6
Continuous
 62
     0
370
    -2
100
AcDbBlockReference
  2
_OPEN
 10
356.0
 20
-209.0
 30
0.0
 41
2.0
 42
2.0
 43
2.0
 50
180.0
  0
INSERT
  5
DAF1
330
BB72
100
AcDbEntity
  8
30
  6
Continuous
 62
     0
370
    -2
100
AcDbBlockReference
  2
_OPEN
 10
352.0
 20
-209.0
 30
0.0
 41
2.0
 42
2.0
 43
2.0
  0
MTEXT
  5
DAF2
330
BB72
100
AcDbEntity
  8
30
  6
Continuous
 62
     0
100
AcDbMText
 10
343.1999999999998
 20
-205.0
 30
0.0
 40
6.0
 41
0.0
 71
     5
 72
     1
  1
\A1; 4 
 73
     1
 44
1.0
  0
POINT
  5
DAF3
330
BB72
100
AcDbEntity
  8
DEFPOINTS
  6
Continuous
 62
     0
100
AcDbPoint
 10
352.0
 20
-0.4999999999999433
 30
0.0
  0
POINT
  5
DAF4
330
BB72
100
AcDbEntity
  8
DEFPOINTS
  6
Continuous
 62
     0
100
AcDbPoint
 10
356.0
 20
-49.99999999999993
 30
0.0
  0
POINT
  5
DAF5
330
BB72
100
AcDbEntity
  8
DEFPOINTS
  6
Continuous
 62
     0
100
AcDbPoint
 10
356.0
 20
-209.0
 30
0.0
  0
ENDBLK
  5
BB7E
330
BB72
100
AcDbEntity
  8
0
100
AcDbBlockEnd
  0
BLOCK
  5
BB89
330
BB7F
100
AcDbEntity
  8
0
100
AcDbBlockBegin
  2
*D3
 70
     1
 10
0.0
 20
0.0
 30
0.0
  3
*D3
  1

  0
LINE
  5
DABD
330
BB7F
100
AcDbEntity
  8
30
  6
Continuous
 62
     0
370
    -2
100
AcDbLine
 10
318.0
 20
-0.9999999999999431
 30
0.0
 11
318.0
 21
-231.5958749999998
 31
0.0
  0
LINE
  5
DABE
330
BB7F
100
AcDbEntity
  8
30
  6
Continuous
 62
     0
370
    -2
100
AcDbLine
 10
463.0
 20
-187.9999999999999
 30
0.0
 11
463.0
 21
-231.5958749999998
 31
0.0
  0
LINE
  5
DABF
330
BB7F
100
AcDbEntity
  8
30
  6
Continuous
 62
     0
370
    -2
100
AcDbLine
 10
320.0
 20
-231.0958749999997
 30
0.0
 11
461.0
 21
-231.0958749999997
 31
0.0
  0
INSERT
  5
DAC0
330
BB7F
100
AcDbEntity
  8
30
  6
Continuous
 62
     0
370
    -2
100
AcDbBlockReference
  2
_OPEN
 10
318.0
 20
-231.0958749999997
 30
0.0
 41
2.0
 42
2.0
 43
2.0
 50
180.0
  0
INSERT
  5
DAC1
330
BB7F
100
AcDbEntity
  8
30
  6
Continuous
 62
     0
370
    -2
100
AcDbBlockReference
  2
_OPEN
 10
463.0
 20
-231.0958749999997
 30
0.0
 41
2.0
 42
2.0
 43
2.0
  0
MTEXT
  5
DAC2
330
BB7F
100
AcDbEntity
  8
30
  6
Continuous
 62
     0
100
AcDbMText
 10
390.5
 20
-227.0958749999997
 30
0.0
 40
6.0
 41
0.0
 71
     5
 72
     1
  1
\A1; 145 
 73
     1
 44
1.0
  0
POINT
  5
DAC3
330
BB7F
100
AcDbEntity
  8
DEFPOINTS
  6
Continuous
 62
     0
100
AcDbPoint
 10
318.0
 20
0.0000000000000568
 30
0.0
  0
POINT
  5
DAC4
330
BB7F
100
AcDbEntity
  8
DEFPOINTS
  6
Continuous
 62
     0
100
AcDbPoint
 10
463.0
 20
-186.9999999999999
 30
0.0
  0
POINT
  5
DAC5
330
BB7F
100
AcDbEntity
  8
DEFPOINTS
  6
Continuous
 62
     0
100
AcDbPoint
 10
463.0
 20
-231.0958749999997
 30
0.0
  0
ENDBLK
  5
BB8A
330
BB7F
100
AcDbEntity
  8
0
100
AcDbBlockEnd
  0
BLOCK
  5
BB95
330
BB8B
100
AcDbEntity
  8
0
100
AcDbBlockBegin
  2
*D4
 70
     1
 10
0.0
 20
0.0
 30
0.0
  3
*D4
  1

  0
LINE
  5
DAE2
330
BB8B
100
AcDbEntity
  8
30
  6
Continuous
 62
     0
370
    -2
100
AcDbLine
 10
318.0
 20
3.999999999999943
 30
0.0
 11
318.0
 21
-232.0958749999998
 31
0.0
  0
LINE
  5
DAE3
330
BB8B
100
AcDbEntity
  8
30
  6
Continuous
 62
     0
370
    -2
100
AcDbLine
 10
237.4989299999999
 20
3.999999999999943
 30
0.0
 11
237.4989299999997
 21
-232.0958749999998
 31
0.0
  0
LINE
  5
DAE4
330
BB8B
100
AcDbEntity
  8
30
  6
Continuous
 62
     0
370
    -2
100
AcDbLine
 10
316.0
 20
-231.5958749999998
 30
0.0
 11
239.4989299999997
 21
-231.5958749999998
 31
0.0
  0
INSERT
  5
DAE5
330
BB8B
100
AcDbEntity
  8
30
  6
Continuous
 62
     0
370
    -2
100
AcDbBlockReference
  2
_OPEN
 10
318.0
 20
-231.5958749999998
 30
0.0
 41
2.0
 42
2.0
 43
2.0
  0
INSERT
  5
DAE6
330
BB8B
100
AcDbEntity
  8
30
  6
Continuous
 62
     0
370
    -2
100
AcDbBlockReference
  2
_OPEN
 10
237.4989299999997
 20
-231.5958749999998
 30
0.0
 41
2.0
 42
2.0
 43
2.0
 50
180.0
  0
MTEXT
  5
DAE7
330
BB8B
100
AcDbEntity
  8
30
  6
Continuous
 62
     0
100
AcDbMText
 10
277.7494649999999
 20
-227.5958749999998
 30
0.0
 40
6.0
 41
0.0
 71
     5
 72
     1
  1
\A1; 80.5 
 73
     1
 44
1.0
  0
POINT
  5
DAE8
330
BB8B
100
AcDbEntity
  8
DEFPOINTS
  6
Continuous
 62
     0
100
AcDbPoint
 10
318.0
 20
4.999999999999943
 30
0.0
  0
POINT
  5
DAE9
330
BB8B
100
AcDbEntity
  8
DEFPOINTS
  6
Continuous
 62
     0
100
AcDbPoint
 10
237.4989299999999
 20
4.999999999999943
 30
0.0
  0
POINT
  5
DAEA
330
BB8B
100
AcDbEntity
  8
DEFPOINTS
  6
Continuous
 62
     0
100
AcDbPoint
 10
237.4989299999997
 20
-231.5958749999998
 30
0.0
  0
ENDBLK
  5
BB96
330
BB8B
100
AcDbEntity
  8
0
100
AcDbBlockEnd
  0
BLOCK
  5
BCAB
330
BCA2
100
AcDbEntity
  8
0
100
AcDbBlockBegin
  2
*D5
 70
     1
 10
0.0
 20
0.0
 30
0.0
  3
*D5
  1

  0
LINE
  5
DA62
330
BCA2
100
AcDbEntity
  8
30
  6
Continuous
 62
     0
370
    -2
100
AcDbLine
 10
534.0
 20
-68.9999999999999
 30
0.0
 11
549.0
 21
-68.99999999999995
 31
0.0
  0
LINE
  5
DA63
330
BCA2
100
AcDbEntity
  8
30
  6
Continuous
 62
     0
370
    -2
100
AcDbLine
 10
549.0
 20
-68.99999999999995
 30
0.0
 11
562.3165925160573
 21
-109.0246833810742
 31
0.0
  0
MTEXT
  5
DA64
330
BCA2
100
AcDbEntity
  8
30
  6
Continuous
 62
     0
100
AcDbMText
 10
541.0
 20
-64.99999999999992
 30
0.0
 40
6.0
 41
0.0
 71
     5
 72
     1
  1
\A1;\U+220513
 73
     1
 44
1.0
  0
INSERT
  5
DA65
330
BCA2
100
AcDbEntity
  8
30
  6
Continuous
 62
     0
370
    -2
100
AcDbBlockReference
  2
_OPEN
 10
562.947982477811
 20
-110.9224048348701
 30
0.0
 41
2.0
 42
2.0
 43
2.0
 50
288.4027742449341
  0
LINE
  5
DA66
330
BCA2
100
AcDbEntity
  8
30
  6
Continuous
 62
     0
370
    -2
100
AcDbLine
 10
564.9100000000002
 20
-117.09
 30
0.0
 11
565.0900000000002
 21
-117.0899999999999
 31
0.0
  0
LINE
  5
DA67
330
BCA2
100
AcDbEntity
  8
30
  6
Continuous
 62
     0
370
    -2
100
AcDbLine
 10
565.0000000000002
 20
-117.1799999999999
 30
0.0
 11
565.0000000000002
 21
-116.9999999999999
 31
0.0
  0
POINT
  5
DA68
330
BCA2
100
AcDbEntity
  8
DEFPOINTS
  6
Continuous
 62
     0
100
AcDbPoint
 10
562.947982477811
 20
-110.9224048348701
 30
0.0
  0
POINT
  5
DA69
330
BCA2
100
AcDbEntity
  8
DEFPOINTS
  6
Continuous
 62
     0
100
AcDbPoint
 10
567.0520175221894
 20
-123.2575951651297
 30
0.0
  0
ENDBLK
  5
BCAC
330
BCA2
100
AcDbEntity
  8
0
100
AcDbBlockEnd
  0
BLOCK
  5
BDBE
330
BDB5
100
AcDbEntity
  8
0
100
AcDbBlockBegin
  2
*D6
 70
     1
 10
0.0
 20
0.0
 30
0.0
  3
*D6
  1

  0
LINE
  5
DA8F
330
BDB5
100
AcDbEntity
  8
30
  6
Continuous
 62
     0
370
    -2
100
AcDbLine
 10
360.0
 20
-45.99999999999993
 30
0.0
 11
360.0
 21
-190.5
 31
0.0
  0
LINE
  5
DA90
330
BDB5
100
AcDbEntity
  8
30
  6
Continuous
 62
     0
370
    -2
100
AcDbLine
 10
463.0
 20
140.0
 30
0.0
 11
463.0
 21
-190.5
 31
0.0
  0
LINE
  5
DA91
330
BDB5
100
AcDbEntity
  8
30
  6
Continuous
 62
     0
370
    -2
100
AcDbLine
 10
362.0
 20
-190.0
 30
0.0
 11
461.0
 21
-190.0
 31
0.0
  0
INSERT
  5
DA92
330
BDB5
100
AcDbEntity
  8
30
  6
Continuous
 62
     0
370
    -2
100
AcDbBlockReference
  2
_OPEN
 10
360.0
 20
-190.0
 30
0.0
 41
2.0
 42
2.0
 43
2.0
 50
180.0
  0
INSERT
  5
DA93
330
BDB5
100
AcDbEntity
  8
30
  6
Continuous
 62
     0
370
    -2
100
AcDbBlockReference
  2
_OPEN
 10
463.0
 20
-190.0
 30
0.0
 41
2.0
 42
2.0
 43
2.0
  0
MTEXT
  5
DA94
330
BDB5
100
AcDbEntity
  8
30
  6
Continuous
 62
     0
100
AcDbMText
 10
411.5
 20
-186.0
 30
0.0
 40
6.0
 41
0.0
 71
     5
 72
     1
  1
\A1; 103 
 73
     1
 44
1.0
  0
POINT
  5
DA95
330
BDB5
100
AcDbEntity
  8
DEFPOINTS
  6
Continuous
 62
     0
100
AcDbPoint
 10
360.0
 20
-44.99999999999993
 30
0.0
  0
POINT
  5
DA96
330
BDB5
100
AcDbEntity
  8
DEFPOINTS
  6
Continuous
 62
     0
100
AcDbPoint
 10
463.0
 20
141.0
 30
0.0
  0
POINT
  5
DA97
330
BDB5
100
AcDbEntity
  8
DEFPOINTS
  6
Continuous
 62
     0
100
AcDbPoint
 10
463.0
 20
-190.0
 30
0.0
  0
ENDBLK
  5
BDBF
330
BDB5
100
AcDbEntity
  8
0
100
AcDbBlockEnd
  0
BLOCK
  5
BDCB
330
BDC0
100
AcDbEntity
  8
0
100
AcDbBlockBegin
  2
*D7
 70
     1
 10
0.0
 20
0.0
 30
0.0
  3
*D7
  1

  0
LINE
  5
DA86
330
BDC0
100
AcDbEntity
  8
30
  6
Continuous
 62
     0
370
    -2
100
AcDbLine
 10
571.0
 20
126.0000000000001
 30
0.0
 11
620.0538999999999
 21
126.0000000000001
 31
0.0
  0
LINE
  5
DA87
330
BDC0
100
AcDbEntity
  8
30
  6
Continuous
 62
     0
370
    -2
100
AcDbLine
 10
483.0
 20
0.0000000000000566
 30
0.0
 11
620.0538999999999
 21
0.0000000000000177
 31
0.0
  0
LINE
  5
DA88
330
BDC0
100
AcDbEntity
  8
30
  6
Continuous
 62
     0
370
    -2
100
AcDbLine
 10
619.5538999999999
 20
124.0000000000001
 30
0.0
 11
619.5538999999999
 21
2.000000000000016
 31
0.0
  0
INSERT
  5
DA89
330
BDC0
100
AcDbEntity
  8
30
  6
Continuous
 62
     0
370
    -2
100
AcDbBlockReference
  2
_OPEN
 10
619.5538999999999
 20
126.0000000000001
 30
0.0
 41
2.0
 42
2.0
 43
2.0
 50
90.0
  0
INSERT
  5
DA8A
330
BDC0
100
AcDbEntity
  8
30
  6
Continuous
 62
     0
370
    -2
100
AcDbBlockReference
  2
_OPEN
 10
619.5538999999999
 20
0.0000000000000179
 30
0.0
 41
2.0
 42
2.0
 43
2.0
 50
270.0
  0
MTEXT
  5
DA8B
330
BDC0
100
AcDbEntity
  8
30
  6
Continuous
 62
     0
100
AcDbMText
 10
615.5538999999999
 20
63.00000000000019
 30
0.0
 40
6.0
 41
0.0
 71
     5
 72
     1
  1
\A1; 126 
 11
0.0000000000000001
 21
1.0
 31
0.0
 73
     1
 44
1.0
  0
POINT
  5
DA8C
330
BDC0
100
AcDbEntity
  8
DEFPOINTS
  6
Continuous
 62
     0
100
AcDbPoint
 10
570.0
 20
126.0000000000001
 30
0.0
  0
POINT
  5
DA8D
330
BDC0
100
AcDbEntity
  8
DEFPOINTS
  6
Continuous
 62
     0
100
AcDbPoint
 10
482.0
 20
0.0000000000000568
 30
0.0
  0
POINT
  5
DA8E
330
BDC0
100
AcDbEntity
  8
DEFPOINTS
  6
Continuous
 62
     0
100
AcDbPoint
 10
619.5538999999999
 20
0.0000000000000179
 30
0.0
  0
ENDBLK
  5
BDCC
330
BDC0
100
AcDbEntity
  8
0
100
AcDbBlockEnd
  0
BLOCK
  5
BDEF
330
BDE5
100
AcDbEntity
  8
0
100
AcDbBlockBegin
  2
*D8
 70
     1
 10
0.0
 20
0.0
 30
0.0
  3
*D8
  1

  0
LINE
  5
DA7D
330
BDE5
100
AcDbEntity
  8
30
  6
Continuous
 62
     0
370
    -2
100
AcDbLine
 10
435.0
 20
-102.7499999999998
 30
0.0
 11
435.0
 21
-71.59587499999992
 31
0.0
  0
LINE
  5
DA7E
330
BDE5
100
AcDbEntity
  8
30
  6
Continuous
 62
     0
370
    -2
100
AcDbLine
 10
463.0
 20
-77.34587499999989
 30
0.0
 11
463.0
 21
-71.59587499999992
 31
0.0
  0
LINE
  5
DA7F
330
BDE5
100
AcDbEntity
  8
30
  6
Continuous
 62
     0
370
    -2
100
AcDbLine
 10
437.0
 20
-72.09587499999992
 30
0.0
 11
461.0
 21
-72.09587499999992
 31
0.0
  0
INSERT
  5
DA80
330
BDE5
100
AcDbEntity
  8
30
  6
Continuous
 62
     0
370
    -2
100
AcDbBlockReference
  2
_OPEN
 10
435.0
 20
-72.09587499999992
 30
0.0
 41
2.0
 42
2.0
 43
2.0
 50
180.0
  0
INSERT
  5
DA81
330
BDE5
100
AcDbEntity
  8
30
  6
Continuous
 62
     0
370
    -2
100
AcDbBlockReference
  2
_OPEN
 10
463.0
 20
-72.09587499999992
 30
0.0
 41
2.0
 42
2.0
 43
2.0
  0
MTEXT
  5
DA82
330
BDE5
100
AcDbEntity
  8
30
  6
Continuous
 62
     0
100
AcDbMText
 10
449.0
 20
-68.09587499999992
 30
0.0
 40
6.0
 41
0.0
 71
     5
 72
     1
  1
\A1; 28 
 73
     1
 44
1.0
  0
POINT
  5
DA83
330
BDE5
100
AcDbEntity
  8
DEFPOINTS
  6
Continuous
 62
     0
100
AcDbPoint
 10
435.0
 20
-103.7499999999998
 30
0.0
  0
POINT
  5
DA84
330
BDE5
100
AcDbEntity
  8
DEFPOINTS
  6
Continuous
 62
     0
100
AcDbPoint
 10
463.0
 20
-78.34587499999989
 30
0.0
  0
POINT
  5
DA85
330
BDE5
100
AcDbEntity
  8
DEFPOINTS
  6
Continuous
 62
     0
100
AcDbPoint
 10
463.0
 20
-72.09587499999992
 30
0.0
  0
ENDBLK
  5
BDF0
330
BDE5
100
AcDbEntity
  8
0
100
AcDbBlockEnd
  0
BLOCK
  5
BDFB
330
BDF1
100
AcDbEntity
  8
0
100
AcDbBlockBegin
  2
*D9
 70
     1
 10
0.0
 20
0.0
 30
0.0
  3
*D9
  1

  0
LINE
  5
DA73
330
BDF1
100
AcDbEntity
  8
30
  6
Continuous
 62
     0
370
    -2
100
AcDbLine
 10
476.0
 20
-106.9999999999998
 30
0.0
 11
476.0
 21
-71.59587499999992
 31
0.0
  0
LINE
  5
DA74
330
BDF1
100
AcDbEntity
  8
30
  6
Continuous
 62
     0
370
    -2
100
AcDbLine
 10
463.0
 20
-77.34587499999989
 30
0.0
 11
463.0
 21
-71.59587499999992
 31
0.0
  0
LINE
  5
DA75
330
BDF1
100
AcDbEntity
  8
30
  6
Continuous
 62
     0
370
    -2
100
AcDbLine
 10
465.0
 20
-72.09587499999992
 30
0.0
 11
474.0
 21
-72.09587499999992
 31
0.0
  0
LINE
  5
DA76
330
BDF1
100
AcDbEntity
  8
30
  6
Continuous
 62
     0
370
    -2
100
AcDbLine
 10
476.0
 20
-72.09587499999992
 30
0.0
 11
491.6676179071153
 21
-72.09587499999992
 31
0.0
  0
INSERT
  5
DA77
330
BDF1
100
AcDbEntity
  8
30
  6
Continuous
 62
     0
370
    -2
100
AcDbBlockReference
  2
_OPEN
 10
463.0
 20
-72.09587499999992
 30
0.0
 41
2.0
 42
2.0
 43
2.0
 50
180.0
  0
INSERT
  5
DA78
330
BDF1
100
AcDbEntity
  8
30
  6
Continuous
 62
     0
370
    -2
100
AcDbBlockReference
  2
_OPEN
 10
476.0
 20
-72.09587499999992
 30
0.0
 41
2.0
 42
2.0
 43
2.0
  0
MTEXT
  5
DA79
330
BDF1
100
AcDbEntity
  8
30
  6
Continuous
 62
     0
100
AcDbMText
 10
484.8676179071153
 20
-68.09587499999992
 30
0.0
 40
6.0
 41
0.0
 71
     5
 72
     1
  1
\A1; 13 
 73
     1
 44
1.0
  0
POINT
  5
DA7A
330
BDF1
100
AcDbEntity
  8
DEFPOINTS
  6
Continuous
 62
     0
100
AcDbPoint
 10
476.0
 20
-107.9999999999998
 30
0.0
  0
POINT
  5
DA7B
330
BDF1
100
AcDbEntity
  8
DEFPOINTS
  6
Continuous
 62
     0
100
AcDbPoint
 10
463.0
 20
-78.34587499999989
 30
0.0
  0
POINT
  5
DA7C
330
BDF1
100
AcDbEntity
  8
DEFPOINTS
  6
Continuous
 62
     0
100
AcDbPoint
 10
463.0
 20
-72.09587499999992
 30
0.0
  0
ENDBLK
  5
BDFC
330
BDF1
100
AcDbEntity
  8
0
100
AcDbBlockEnd
  0
BLOCK
  5
BE08
330
BDFD
100
AcDbEntity
  8
0
100
AcDbBlockBegin
  2
*D10
 70
     1
 10
0.0
 20
0.0
 30
0.0
  3
*D10
  1

  0
LINE
  5
DA6A
330
BDFD
100
AcDbEntity
  8
30
  6
Continuous
 62
     0
370
    -2
100
AcDbLine
 10
590.0
 20
-94.49999999999993
 30
0.0
 11
610.0538999999997
 21
-94.49999999999995
 31
0.0
  0
LINE
  5
DA6B
330
BDFD
100
AcDbEntity
  8
30
  6
Continuous
 62
     0
370
    -2
100
AcDbLine
 10
590.0
 20
-139.4999999999999
 30
0.0
 11
610.0538999999997
 21
-139.4999999999999
 31
0.0
  0
LINE
  5
DA6C
330
BDFD
100
AcDbEntity
  8
30
  6
Continuous
 62
     0
370
    -2
100
AcDbLine
 10
609.5538999999997
 20
-96.49999999999996
 30
0.0
 11
609.5538999999997
 21
-137.4999999999999
 31
0.0
  0
INSERT
  5
DA6D
330
BDFD
100
AcDbEntity
  8
30
  6
Continuous
 62
     0
370
    -2
100
AcDbBlockReference
  2
_OPEN
 10
609.5538999999997
 20
-94.49999999999995
 30
0.0
 41
2.0
 42
2.0
 43
2.0
 50
90.0
  0
INSERT
  5
DA6E
330
BDFD
100
AcDbEntity
  8
30
  6
Continuous
 62
     0
370
    -2
100
AcDbBlockReference
  2
_OPEN
 10
609.5538999999997
 20
-139.4999999999999
 30
0.0
 41
2.0
 42
2.0
 43
2.0
 50
270.0
  0
MTEXT
  5
DA6F
330
BDFD
100
AcDbEntity
  8
30
  6
Continuous
 62
     0
100
AcDbMText
 10
605.5538999999997
 20
-116.9999999999997
 30
0.0
 40
6.0
 41
0.0
 71
     5
 72
     1
  1
\A1; 45 
 11
0.0000000000000001
 21
1.0
 31
0.0
 73
     1
 44
1.0
  0
POINT
  5
DA70
330
BDFD
100
AcDbEntity
  8
DEFPOINTS
  6
Continuous
 62
     0
100
AcDbPoint
 10
589.0
 20
-94.49999999999993
 30
0.0
  0
POINT
  5
DA71
330
BDFD
100
AcDbEntity
  8
DEFPOINTS
  6
Continuous
 62
     0
100
AcDbPoint
 10
589.0
 20
-139.4999999999999
 30
0.0
  0
POINT
  5
DA72
330
BDFD
100
AcDbEntity
  8
DEFPOINTS
  6
Continuous
 62
     0
100
AcDbPoint
 10
609.5538999999997
 20
-139.4999999999999
 30
0.0
  0
ENDBLK
  5
BE09
330
BDFD
100
AcDbEntity
  8
0
100
AcDbBlockEnd
  0
BLOCK
  5
C40A
330
C400
100
AcDbEntity
  8
0
100
AcDbBlockBegin
  2
*D11
 70
     1
 10
0.0
 20
0.0
 30
0.0
  3
*D11
  1

  0
LINE
  5
DA59
330
C400
100
AcDbEntity
  8
30
  6
Continuous
 62
     0
370
    -2
100
AcDbLine
 10
483.0
 20
0.0000000000000566
 30
0.0
 11
620.0538999999999
 21
0.0000000000000177
 31
0.0
  0
LINE
  5
DA5A
330
C400
100
AcDbEntity
  8
30
  6
Continuous
 62
     0
370
    -2
100
AcDbLine
 10
610.5538999999999
 20
-116.9999999999999
 30
0.0
 11
620.0538999999999
 21
-116.9999999999999
 31
0.0
  0
LINE
  5
DA5B
330
C400
100
AcDbEntity
  8
30
  6
Continuous
 62
     0
370
    -2
100
AcDbLine
 10
619.5538999999999
 20
-1.999999999999981
 30
0.0
 11
619.5538999999999
 21
-114.9999999999999
 31
0.0
  0
INSERT
  5
DA5C
330
C400
100
AcDbEntity
  8
30
  6
Continuous
 62
     0
370
    -2
100
AcDbBlockReference
  2
_OPEN
 10
619.5538999999999
 20
0.0000000000000179
 30
0.0
 41
2.0
 42
2.0
 43
2.0
 50
90.0
  0
INSERT
  5
DA5D
330
C400
100
AcDbEntity
  8
30
  6
Continuous
 62
     0
370
    -2
100
AcDbBlockReference
  2
_OPEN
 10
619.5538999999999
 20
-116.9999999999999
 30
0.0
 41
2.0
 42
2.0
 43
2.0
 50
270.0
  0
MTEXT
  5
DA5E
330
C400
100
AcDbEntity
  8
30
  6
Continuous
 62
     0
100
AcDbMText
 10
615.5538999999999
 20
-58.49999999999988
 30
0.0
 40
6.0
 41
0.0
 71
     5
 72
     1
  1
\A1;117
 11
0.0000000000000001
 21
1.0
 31
0.0
 73
     1
 44
1.0
  0
POINT
  5
DA5F
330
C400
100
AcDbEntity
  8
DEFPOINTS
  6
Continuous
 62
     0
100
AcDbPoint
 10
482.0
 20
0.0000000000000568
 30
0.0
  0
POINT
  5
DA60
330
C400
100
AcDbEntity
  8
DEFPOINTS
  6
Continuous
 62
     0
100
AcDbPoint
 10
609.5538999999997
 20
-116.9999999999999
 30
0.0
  0
POINT
  5
DA61
330
C400
100
AcDbEntity
  8
DEFPOINTS
  6
Continuous
 62
     0
100
AcDbPoint
 10
619.5538999999999
 20
-116.9999999999999
 30
0.0
  0
ENDBLK
  5
C40B
330
C400
100
AcDbEntity
  8
0
100
AcDbBlockEnd
  0
BLOCK
  5
C9A4
330
C99A
100
AcDbEntity
  8
0
100
AcDbBlockBegin
  2
*D12
 70
     1
 10
0.0
 20
0.0
 30
0.0
  3
*D12
  1

  0
LINE
  5
E395
330
C99A
100
AcDbEntity
  8
30
  6
Continuous
 62
     0
370
    -2
100
AcDbLine
 10
-105.6
 20
44.99999999999997
 30
0.0
 11
-118.6986045047434
 21
44.99999999999998
 31
0.0
  0
LINE
  5
E396
330
C99A
100
AcDbEntity
  8
30
  6
Continuous
 62
     0
370
    -2
100
AcDbLine
 10
-105.6
 20
-45.00000000000013
 30
0.0
 11
-118.6986045047434
 21
-45.00000000000011
 31
0.0
  0
LINE
  5
E397
330
C99A
100
AcDbEntity
  8
30
  6
Continuous
 62
     0
370
    -2
100
AcDbLine
 10
-118.1986045047435
 20
42.99999999999998
 30
0.0
 11
-118.1986045047435
 21
-43.00000000000011
 31
0.0
  0
INSERT
  5
E398
330
C99A
100
AcDbEntity
  8
30
  6
Continuous
 62
     0
370
    -2
100
AcDbBlockReference
  2
_OPEN
 10
-118.1986045047435
 20
44.99999999999998
 30
0.0
 41
2.0
 42
2.0
 43
2.0
 50
90.0
  0
INSERT
  5
E399
330
C99A
100
AcDbEntity
  8
30
  6
Continuous
 62
     0
370
    -2
100
AcDbBlockReference
  2
_OPEN
 10
-118.1986045047435
 20
-45.00000000000011
 30
0.0
 41
2.0
 42
2.0
 43
2.0
 50
270.0
  0
MTEXT
  5
E39A
330
C99A
100
AcDbEntity
  8
30
  6
Continuous
 62
     0
100
AcDbMText
 10
-122.1986045047435
 20
-0.0000000000000917
 30
0.0
 40
6.0
 41
0.0
 71
     5
 72
     1
  1
\A1;90
 11
0.0000000000000001
 21
1.0
 31
0.0
 73
     1
 44
1.0
  0
POINT
  5
E39B
330
C99A
100
AcDbEntity
  8
DEFPOINTS
  6
Continuous
 62
     0
100
AcDbPoint
 10
-104.6
 20
44.99999999999997
 30
0.0
  0
POINT
  5
E39C
330
C99A
100
AcDbEntity
  8
DEFPOINTS
  6
Continuous
 62
     0
100
AcDbPoint
 10
-104.6
 20
-45.00000000000013
 30
0.0
  0
POINT
  5
E39D
330
C99A
100
AcDbEntity
  8
DEFPOINTS
  6
Continuous
 62
     0
100
AcDbPoint
 10
-118.1986045047435
 20
-45.00000000000011
 30
0.0
  0
ENDBLK
  5
C9A5
330
C99A
100
AcDbEntity
  8
0
100
AcDbBlockEnd
  0
BLOCK
  5
C9B0
330
C9A6
100
AcDbEntity
  8
0
100
AcDbBlockBegin
  2
*D13
 70
     1
 10
0.0
 20
0.0
 30
0.0
  3
*D13
  1

  0
LINE
  5
E383
330
C9A6
100
AcDbEntity
  8
30
  6
Continuous
 62
     0
370
    -2
100
AcDbLine
 10
-105.6
 20
55.49999999999993
 30
0.0
 11
-137.9479123954375
 21
55.49999999999995
 31
0.0
  0
LINE
  5
E384
330
C9A6
100
AcDbEntity
  8
30
  6
Continuous
 62
     0
370
    -2
100
AcDbLine
 10
-105.6
 20
-46.4999999999999
 30
0.0
 11
-137.9479123954375
 21
-46.49999999999989
 31
0.0
  0
LINE
  5
E385
330
C9A6
100
AcDbEntity
  8
30
  6
Continuous
 62
     0
370
    -2
100
AcDbLine
 10
-137.4479123954374
 20
53.49999999999995
 30
0.0
 11
-137.4479123954374
 21
-44.49999999999991
 31
0.0
  0
INSERT
  5
E386
330
C9A6
100
AcDbEntity
  8
30
  6
Continuous
 62
     0
370
    -2
100
AcDbBlockReference
  2
_OPEN
 10
-137.4479123954374
 20
55.49999999999995
 30
0.0
 41
2.0
 42
2.0
 43
2.0
 50
90.0
  0
INSERT
  5
E387
330
C9A6
100
AcDbEntity
  8
30
  6
Continuous
 62
     0
370
    -2
100
AcDbBlockReference
  2
_OPEN
 10
-137.4479123954374
 20
-46.49999999999989
 30
0.0
 41
2.0
 42
2.0
 43
2.0
 50
270.0
  0
MTEXT
  5
E388
330
C9A6
100
AcDbEntity
  8
30
  6
Continuous
 62
     0
100
AcDbMText
 10
-141.4479123954374
 20
4.5
 30
0.0
 40
6.0
 41
0.0
 71
     5
 72
     1
  1
\A1;102
 11
0.0000000000000001
 21
1.0
 31
0.0
 73
     1
 44
1.0
  0
POINT
  5
E389
330
C9A6
100
AcDbEntity
  8
DEFPOINTS
  6
Continuous
 62
     0
100
AcDbPoint
 10
-104.6
 20
55.49999999999993
 30
0.0
  0
POINT
  5
E38A
330
C9A6
100
AcDbEntity
  8
DEFPOINTS
  6
Continuous
 62
     0
100
AcDbPoint
 10
-104.6
 20
-46.4999999999999
 30
0.0
  0
POINT
  5
E38B
330
C9A6
100
AcDbEntity
  8
DEFPOINTS
  6
Continuous
 62
     0
100
AcDbPoint
 10
-137.4479123954374
 20
-46.49999999999989
 30
0.0
  0
ENDBLK
  5
C9B1
330
C9A6
100
AcDbEntity
  8
0
100
AcDbBlockEnd
  0
BLOCK
  5
C9BC
330
C9B2
100
AcDbEntity
  8
0
100
AcDbBlockBegin
  2
*D14
 70
     1
 10
0.0
 20
0.0
 30
0.0
  3
*D14
  1

  0
LINE
  5
E39E
330
C9B2
100
AcDbEntity
  8
30
  6
Continuous
 62
     0
370
    -2
100
AcDbLine
 10
-105.6000000000002
 20
141.0
 30
0.0
 11
-150.6191388944172
 21
141.0
 31
0.0
  0
LINE
  5
E39F
330
C9B2
100
AcDbEntity
  8
30
  6
Continuous
 62
     0
370
    -2
100
AcDbLine
 10
-105.6
 20
-131.9999999999999
 30
0.0
 11
-150.6191388944173
 21
-131.9999999999999
 31
0.0
  0
LINE
  5
E3A0
330
C9B2
100
AcDbEntity
  8
30
  6
Continuous
 62
     0
370
    -2
100
AcDbLine
 10
-150.1191388944173
 20
139.0
 30
0.0
 11
-150.1191388944173
 21
-129.9999999999999
 31
0.0
  0
INSERT
  5
E3A1
330
C9B2
100
AcDbEntity
  8
30
  6
Continuous
 62
     0
370
    -2
100
AcDbBlockReference
  2
_OPEN
 10
-150.1191388944173
 20
141.0
 30
0.0
 41
2.0
 42
2.0
 43
2.0
 50
90.0
  0
INSERT
  5
E3A2
330
C9B2
100
AcDbEntity
  8
30
  6
Continuous
 62
     0
370
    -2
100
AcDbBlockReference
  2
_OPEN
 10
-150.1191388944173
 20
-131.9999999999999
 30
0.0
 41
2.0
 42
2.0
 43
2.0
 50
270.0
  0
MTEXT
  5
E3A3
330
C9B2
100
AcDbEntity
  8
30
  6
Continuous
 62
     0
100
AcDbMText
 10
-154.1191388944173
 20
4.500000000000008
 30
0.0
 40
6.0
 41
0.0
 71
     5
 72
     1
  1
\A1;273
 11
0.0000000000000001
 21
1.0
 31
0.0
 73
     1
 44
1.0
  0
POINT
  5
E3A4
330
C9B2
100
AcDbEntity
  8
DEFPOINTS
  6
Continuous
 62
     0
100
AcDbPoint
 10
-104.6000000000002
 20
141.0
 30
0.0
  0
POINT
  5
E3A5
330
C9B2
100
AcDbEntity
  8
DEFPOINTS
  6
Continuous
 62
     0
100
AcDbPoint
 10
-104.6
 20
-131.9999999999999
 30
0.0
  0
POINT
  5
E3A6
330
C9B2
100
AcDbEntity
  8
DEFPOINTS
  6
Continuous
 62
     0
100
AcDbPoint
 10
-150.1191388944173
 20
-131.9999999999999
 30
0.0
  0
ENDBLK
  5
C9BD
330
C9B2
100
AcDbEntity
  8
0
100
AcDbBlockEnd
  0
BLOCK
  5
D81B
330
D811
100
AcDbEntity
  8
0
100
AcDbBlockBegin
  2
*D15
 70
     1
 10
0.0
 20
0.0
 30
0.0
  3
*D15
  1

  0
LINE
  5
D994
330
D811
100
AcDbEntity
  8
30
  6
Continuous
 62
     0
370
    -2
100
AcDbLine
 10
463.0
 20
-207.5670221558808
 30
0.0
 11
463.0
 21
-208.0670221558808
 31
0.0
  0
LINE
  5
D995
330
D811
100
AcDbEntity
  8
30
  6
Continuous
 62
     0
370
    -2
100
AcDbLine
 10
585.0
 20
-139.4999999999998
 30
0.0
 11
585.0
 21
-209.0670221558807
 31
0.0
  0
LINE
  5
D996
330
D811
100
AcDbEntity
  8
30
  6
Continuous
 62
     0
370
    -2
100
AcDbLine
 10
465.0
 20
-208.5670221558808
 30
0.0
 11
583.0
 21
-208.5670221558808
 31
0.0
  0
INSERT
  5
D997
330
D811
100
AcDbEntity
  8
30
  6
Continuous
 62
     0
370
    -2
100
AcDbBlockReference
  2
_OPEN
 10
463.0
 20
-208.5670221558808
 30
0.0
 41
2.0
 42
2.0
 43
2.0
 50
180.0
  0
INSERT
  5
D998
330
D811
100
AcDbEntity
  8
30
  6
Continuous
 62
     0
370
    -2
100
AcDbBlockReference
  2
_OPEN
 10
585.0
 20
-208.5670221558808
 30
0.0
 41
2.0
 42
2.0
 43
2.0
  0
MTEXT
  5
D999
330
D811
100
AcDbEntity
  8
30
  6
Continuous
 62
     0
100
AcDbMText
 10
524.0
 20
-204.5670221558808
 30
0.0
 40
6.0
 41
0.0
 71
     5
 72
     1
  1
\A1;122
 73
     1
 44
1.0
  0
POINT
  5
D99A
330
D811
100
AcDbEntity
  8
DEFPOINTS
  6
Continuous
 62
     0
100
AcDbPoint
 10
463.0
 20
-208.5670221558808
 30
0.0
  0
POINT
  5
D99B
330
D811
100
AcDbEntity
  8
DEFPOINTS
  6
Continuous
 62
     0
100
AcDbPoint
 10
585.0
 20
-138.4999999999998
 30
0.0
  0
POINT
  5
D99C
330
D811
100
AcDbEntity
  8
DEFPOINTS
  6
Continuous
 62
     0
100
AcDbPoint
 10
585.0
 20
-208.5670221558808
 30
0.0
  0
ENDBLK
  5
D81C
330
D811
100
AcDbEntity
  8
0
100
AcDbBlockEnd
  0
BLOCK
  5
D827
330
D81D
100
AcDbEntity
  8
0
100
AcDbBlockBegin
  2
*D16
 70
     1
 10
0.0
 20
0.0
 30
0.0
  3
*D16
  1

  0
LINE
  5
D98B
330
D81D
100
AcDbEntity
  8
30
  6
Continuous
 62
     0
370
    -2
100
AcDbLine
 10
463.0
 20
-189.4999999999999
 30
0.0
 11
463.0
 21
-190.0
 31
0.0
  0
LINE
  5
D98C
330
D81D
100
AcDbEntity
  8
30
  6
Continuous
 62
     0
370
    -2
100
AcDbLine
 10
525.0
 20
-149.4999999999999
 30
0.0
 11
525.0
 21
-191.0
 31
0.0
  0
LINE
  5
D98D
330
D81D
100
AcDbEntity
  8
30
  6
Continuous
 62
     0
370
    -2
100
AcDbLine
 10
465.0
 20
-190.5
 30
0.0
 11
523.0
 21
-190.5
 31
0.0
  0
INSERT
  5
D98E
330
D81D
100
AcDbEntity
  8
30
  6
Continuous
 62
     0
370
    -2
100
AcDbBlockReference
  2
_OPEN
 10
463.0
 20
-190.5
 30
0.0
 41
2.0
 42
2.0
 43
2.0
 50
180.0
  0
INSERT
  5
D98F
330
D81D
100
AcDbEntity
  8
30
  6
Continuous
 62
     0
370
    -2
100
AcDbBlockReference
  2
_OPEN
 10
525.0
 20
-190.5
 30
0.0
 41
2.0
 42
2.0
 43
2.0
  0
MTEXT
  5
D990
330
D81D
100
AcDbEntity
  8
30
  6
Continuous
 62
     0
100
AcDbMText
 10
494.0
 20
-186.5
 30
0.0
 40
6.0
 41
0.0
 71
     5
 72
     1
  1
\A1;62
 73
     1
 44
1.0
  0
POINT
  5
D991
330
D81D
100
AcDbEntity
  8
DEFPOINTS
  6
Continuous
 62
     0
100
AcDbPoint
 10
463.0
 20
-190.5
 30
0.0
  0
POINT
  5
D992
330
D81D
100
AcDbEntity
  8
DEFPOINTS
  6
Continuous
 62
     0
100
AcDbPoint
 10
525.0
 20
-148.4999999999999
 30
0.0
  0
POINT
  5
D993
330
D81D
100
AcDbEntity
  8
DEFPOINTS
  6
Continuous
 62
     0
100
AcDbPoint
 10
525.0
 20
-190.5
 30
0.0
  0
ENDBLK
  5
D828
330
D81D
100
AcDbEntity
  8
0
100
AcDbBlockEnd
  0
BLOCK
  5
D834
330
D829
100
AcDbEntity
  8
0
100
AcDbBlockBegin
  2
*D17
 70
     1
 10
0.0
 20
0.0
 30
0.0
  3
*D17
  1

  0
LINE
  5
D982
330
D829
100
AcDbEntity
  8
30
  6
Continuous
 62
     0
370
    -2
100
AcDbLine
 10
533.0
 20
-149.4999999999999
 30
0.0
 11
533.0
 21
-191.0
 31
0.0
  0
LINE
  5
D983
330
D829
100
AcDbEntity
  8
30
  6
Continuous
 62
     0
370
    -2
100
AcDbLine
 10
565.0
 20
-124.4999999999998
 30
0.0
 11
565.0
 21
-191.0
 31
0.0
  0
LINE
  5
D984
330
D829
100
AcDbEntity
  8
30
  6
Continuous
 62
     0
370
    -2
100
AcDbLine
 10
535.0
 20
-190.5
 30
0.0
 11
563.0
 21
-190.5
 31
0.0
  0
INSERT
  5
D985
330
D829
100
AcDbEntity
  8
30
  6
Continuous
 62
     0
370
    -2
100
AcDbBlockReference
  2
_OPEN
 10
533.0
 20
-190.5
 30
0.0
 41
2.0
 42
2.0
 43
2.0
 50
180.0
  0
INSERT
  5
D986
330
D829
100
AcDbEntity
  8
30
  6
Continuous
 62
     0
370
    -2
100
AcDbBlockReference
  2
_OPEN
 10
565.0
 20
-190.5
 30
0.0
 41
2.0
 42
2.0
 43
2.0
  0
MTEXT
  5
D987
330
D829
100
AcDbEntity
  8
30
  6
Continuous
 62
     0
100
AcDbMText
 10
553.0
 20
-186.5
 30
0.0
 40
6.0
 41
0.0
 71
     5
 72
     1
  1
\A1;32
 73
     1
 44
1.0
  0
POINT
  5
D988
330
D829
100
AcDbEntity
  8
DEFPOINTS
  6
Continuous
 62
     0
100
AcDbPoint
 10
533.0
 20
-148.4999999999999
 30
0.0
  0
POINT
  5
D989
330
D829
100
AcDbEntity
  8
DEFPOINTS
  6
Continuous
 62
     0
100
AcDbPoint
 10
565.0
 20
-123.4999999999998
 30
0.0
  0
POINT
  5
D98A
330
D829
100
AcDbEntity
  8
DEFPOINTS
  6
Continuous
 62
     0
100
AcDbPoint
 10
565.0
 20
-190.5
 30
0.0
  0
ENDBLK
  5
D835
330
D829
100
AcDbEntity
  8
0
100
AcDbBlockEnd
  0
BLOCK
  5
D840
330
D836
100
AcDbEntity
  8
0
100
AcDbBlockBegin
  2
*D18
 70
     1
 10
0.0
 20
0.0
 30
0.0
  3
*D18
  1

  0
LINE
  5
D979
330
D836
100
AcDbEntity
  8
30
  6
Continuous
 62
     0
370
    -2
100
AcDbLine
 10
525.0
 20
-152.4999999999999
 30
0.0
 11
525.0
 21
-191.0
 31
0.0
  0
LINE
  5
D97A
330
D836
100
AcDbEntity
  8
30
  6
Continuous
 62
     0
370
    -2
100
AcDbLine
 10
533.0
 20
-172.0
 30
0.0
 11
533.0
 21
-191.0
 31
0.0
  0
LINE
  5
D97B
330
D836
100
AcDbEntity
  8
30
  6
Continuous
 62
     0
370
    -2
100
AcDbLine
 10
527.0
 20
-190.5
 30
0.0
 11
531.0
 21
-190.5
 31
0.0
  0
INSERT
  5
D97C
330
D836
100
AcDbEntity
  8
30
  6
Continuous
 62
     0
370
    -2
100
AcDbBlockReference
  2
_OPEN
 10
525.0
 20
-190.5
 30
0.0
 41
2.0
 42
2.0
 43
2.0
 50
180.0
  0
INSERT
  5
D97D
330
D836
100
AcDbEntity
  8
30
  6
Continuous
 62
     0
370
    -2
100
AcDbBlockReference
  2
_OPEN
 10
533.0
 20
-190.5
 30
0.0
 41
2.0
 42
2.0
 43
2.0
  0
MTEXT
  5
D97E
330
D836
100
AcDbEntity
  8
30
  6
Continuous
 62
     0
100
AcDbMText
 10
529.0
 20
-186.5
 30
0.0
 40
6.0
 41
0.0
 71
     5
 72
     1
  1
\A1;8
 73
     1
 44
1.0
  0
POINT
  5
D97F
330
D836
100
AcDbEntity
  8
DEFPOINTS
  6
Continuous
 62
     0
100
AcDbPoint
 10
525.0
 20
-151.4999999999999
 30
0.0
  0
POINT
  5
D980
330
D836
100
AcDbEntity
  8
DEFPOINTS
  6
Continuous
 62
     0
100
AcDbPoint
 10
533.0
 20
-171.0
 30
0.0
  0
POINT
  5
D981
330
D836
100
AcDbEntity
  8
DEFPOINTS
  6
Continuous
 62
     0
100
AcDbPoint
 10
533.0
 20
-190.5
 30
0.0
  0
ENDBLK
  5
D841
330
D836
100
AcDbEntity
  8
0
100
AcDbBlockEnd
  0
BLOCK
  5
D84C
330
D842
100
AcDbEntity
  8
0
100
AcDbBlockBegin
  2
*D19
 70
     1
 10
0.0
 20
0.0
 30
0.0
  3
*D19
  1

  0
LINE
  5
D970
330
D842
100
AcDbEntity
  8
30
  6
Continuous
 62
     0
370
    -2
100
AcDbLine
 10
565.0
 20
-149.4999999999999
 30
0.0
 11
565.0
 21
-190.5
 31
0.0
  0
LINE
  5
D971
330
D842
100
AcDbEntity
  8
30
  6
Continuous
 62
     0
370
    -2
100
AcDbLine
 10
585.0
 20
-158.4467112499683
 30
0.0
 11
585.0
 21
-190.5
 31
0.0
  0
LINE
  5
D972
330
D842
100
AcDbEntity
  8
30
  6
Continuous
 62
     0
370
    -2
100
AcDbLine
 10
567.0
 20
-190.0
 30
0.0
 11
583.0
 21
-190.0
 31
0.0
  0
INSERT
  5
D973
330
D842
100
AcDbEntity
  8
30
  6
Continuous
 62
     0
370
    -2
100
AcDbBlockReference
  2
_OPEN
 10
565.0
 20
-190.0
 30
0.0
 41
2.0
 42
2.0
 43
2.0
 50
180.0
  0
INSERT
  5
D974
330
D842
100
AcDbEntity
  8
30
  6
Continuous
 62
     0
370
    -2
100
AcDbBlockReference
  2
_OPEN
 10
585.0
 20
-190.0
 30
0.0
 41
2.0
 42
2.0
 43
2.0
  0
MTEXT
  5
D975
330
D842
100
AcDbEntity
  8
30
  6
Continuous
 62
     0
100
AcDbMText
 10
575.0
 20
-186.0
 30
0.0
 40
6.0
 41
0.0
 71
     5
 72
     1
  1
\A1;20
 73
     1
 44
1.0
  0
POINT
  5
D976
330
D842
100
AcDbEntity
  8
DEFPOINTS
  6
Continuous
 62
     0
100
AcDbPoint
 10
565.0
 20
-148.4999999999999
 30
0.0
  0
POINT
  5
D977
330
D842
100
AcDbEntity
  8
DEFPOINTS
  6
Continuous
 62
     0
100
AcDbPoint
 10
585.0
 20
-157.4467112499683
 30
0.0
  0
POINT
  5
D978
330
D842
100
AcDbEntity
  8
DEFPOINTS
  6
Continuous
 62
     0
100
AcDbPoint
 10
585.0
 20
-190.0
 30
0.0
  0
ENDBLK
  5
D84D
330
D842
100
AcDbEntity
  8
0
100
AcDbBlockEnd
  0
BLOCK
  5
DC44
330
DC3A
100
AcDbEntity
  8
0
100
AcDbBlockBegin
  2
*D20
 70
     1
 10
0.0
 20
0.0
 30
0.0
  3
*D20
  1

  0
LINE
  5
DF03
330
DC3A
100
AcDbEntity
  8
30
  6
Continuous
 62
     0
370
    -2
100
AcDbLine
 10
-0.0000000000004549
 20
-522.8194299737853
 30
0.0
 11
-0.0000000000004569
 21
-556.3194299737853
 31
0.0
  0
LINE
  5
DF04
330
DC3A
100
AcDbEntity
  8
30
  6
Continuous
 62
     0
370
    -2
100
AcDbLine
 10
-68.00000000000046
 20
-555.8194299737853
 30
0.0
 11
-2.000000000000456
 21
-555.8194299737853
 31
0.0
  0
INSERT
  5
DF05
330
DC3A
100
AcDbEntity
  8
30
  6
Continuous
 62
     0
370
    -2
100
AcDbBlockReference
  2
_OPEN
 10
-70.00000000000046
 20
-555.8194299737853
 30
0.0
 41
2.0
 42
2.0
 43
2.0
 50
180.0
  0
INSERT
  5
DF06
330
DC3A
100
AcDbEntity
  8
30
  6
Continuous
 62
     0
370
    -2
100
AcDbBlockReference
  2
_OPEN
 10
-0.0000000000004569
 20
-555.8194299737853
 30
0.0
 41
2.0
 42
2.0
 43
2.0
  0
MTEXT
  5
DF07
330
DC3A
100
AcDbEntity
  8
30
  6
Continuous
 62
     0
100
AcDbMText
 10
-35.00000000000044
 20
-551.8194299737853
 30
0.0
 40
6.0
 41
0.0
 71
     5
 72
     1
  1
\A1; 70 
 73
     1
 44
1.0
  0
POINT
  5
DF08
330
DC3A
100
AcDbEntity
  8
DEFPOINTS
  6
Continuous
 62
     0
100
AcDbPoint
 10
-70.00000000000046
 20
-556.3194299737853
 30
0.0
  0
POINT
  5
DF09
330
DC3A
100
AcDbEntity
  8
DEFPOINTS
  6
Continuous
 62
     0
100
AcDbPoint
 10
-0.0000000000004548
 20
-521.8194299737851
 30
0.0
  0
POINT
  5
DF0A
330
DC3A
100
AcDbEntity
  8
DEFPOINTS
  6
Continuous
 62
     0
100
AcDbPoint
 10
-0.0000000000004569
 20
-555.8194299737853
 30
0.0
  0
ENDBLK
  5
DC45
330
DC3A
100
AcDbEntity
  8
0
100
AcDbBlockEnd
  0
BLOCK
  5
DC50
330
DC46
100
AcDbEntity
  8
0
100
AcDbBlockBegin
  2
*D21
 70
     1
 10
0.0
 20
0.0
 30
0.0
  3
*D21
  1

  0
LINE
  5
DC8A
330
DC46
100
AcDbEntity
  8
30
  6
Continuous
 62
     0
370
    -2
100
AcDbLine
 10
-70.00000000000046
 20
-476.7235549737853
 30
0.0
 11
-70.00000000000046
 21
-556.3194299737853
 31
0.0
  0
LINE
  5
DC8B
330
DC46
100
AcDbEntity
  8
30
  6
Continuous
 62
     0
370
    -2
100
AcDbLine
 10
-113.0000000000004
 20
-328.2235549737851
 30
0.0
 11
-113.0000000000004
 21
-556.3194299737853
 31
0.0
  0
LINE
  5
DC8C
330
DC46
100
AcDbEntity
  8
30
  6
Continuous
 62
     0
370
    -2
100
AcDbLine
 10
-72.00000000000045
 20
-555.8194299737853
 30
0.0
 11
-111.0000000000004
 21
-555.8194299737853
 31
0.0
  0
INSERT
  5
DC8D
330
DC46
100
AcDbEntity
  8
30
  6
Continuous
 62
     0
370
    -2
100
AcDbBlockReference
  2
_OPEN
 10
-70.00000000000046
 20
-555.8194299737853
 30
0.0
 41
2.0
 42
2.0
 43
2.0
  0
INSERT
  5
DC8E
330
DC46
100
AcDbEntity
  8
30
  6
Continuous
 62
     0
370
    -2
100
AcDbBlockReference
  2
_OPEN
 10
-113.0000000000004
 20
-555.8194299737853
 30
0.0
 41
2.0
 42
2.0
 43
2.0
 50
180.0
  0
MTEXT
  5
DC8F
330
DC46
100
AcDbEntity
  8
30
  6
Continuous
 62
     0
100
AcDbMText
 10
-91.50000000000046
 20
-551.8194299737853
 30
0.0
 40
6.0
 41
0.0
 71
     5
 72
     1
  1
\A1; 43 
 73
     1
 44
1.0
  0
POINT
  5
DC90
330
DC46
100
AcDbEntity
  8
DEFPOINTS
  6
Continuous
 62
     0
100
AcDbPoint
 10
-70.00000000000046
 20
-475.7235549737853
 30
0.0
  0
POINT
  5
DC91
330
DC46
100
AcDbEntity
  8
DEFPOINTS
  6
Continuous
 62
     0
100
AcDbPoint
 10
-113.0000000000004
 20
-327.2235549737851
 30
0.0
  0
POINT
  5
DC92
330
DC46
100
AcDbEntity
  8
DEFPOINTS
  6
Continuous
 62
     0
100
AcDbPoint
 10
-113.0000000000004
 20
-555.8194299737853
 30
0.0
  0
ENDBLK
  5
DC51
330
DC46
100
AcDbEntity
  8
0
100
AcDbBlockEnd
  0
BLOCK
  5
DC5C
330
DC52
100
AcDbEntity
  8
0
100
AcDbBlockBegin
  2
*D22
 70
     1
 10
0.0
 20
0.0
 30
0.0
  3
*D22
  1

  0
LINE
  5
DC93
330
DC52
100
AcDbEntity
  8
30
  6
Continuous
 62
     0
370
    -2
100
AcDbLine
 10
-35.00000000000044
 20
-476.7235549737853
 30
0.0
 11
-35.00000000000044
 21
-521.3194299737851
 31
0.0
  0
LINE
  5
DC94
330
DC52
100
AcDbEntity
  8
30
  6
Continuous
 62
     0
370
    -2
100
AcDbLine
 10
34.99999999999953
 20
-476.7235549737853
 30
0.0
 11
34.99999999999953
 21
-521.3194299737851
 31
0.0
  0
LINE
  5
DC95
330
DC52
100
AcDbEntity
  8
30
  6
Continuous
 62
     0
370
    -2
100
AcDbLine
 10
-33.00000000000045
 20
-520.8194299737852
 30
0.0
 11
32.99999999999954
 21
-520.8194299737852
 31
0.0
  0
INSERT
  5
DC96
330
DC52
100
AcDbEntity
  8
30
  6
Continuous
 62
     0
370
    -2
100
AcDbBlockReference
  2
_OPEN
 10
-35.00000000000044
 20
-520.8194299737852
 30
0.0
 41
2.0
 42
2.0
 43
2.0
 50
180.0
  0
INSERT
  5
DC97
330
DC52
100
AcDbEntity
  8
30
  6
Continuous
 62
     0
370
    -2
100
AcDbBlockReference
  2
_OPEN
 10
34.99999999999953
 20
-520.8194299737852
 30
0.0
 41
2.0
 42
2.0
 43
2.0
  0
MTEXT
  5
DC98
330
DC52
100
AcDbEntity
  8
30
  6
Continuous
 62
     0
100
AcDbMText
 10
-0.0000000000004545
 20
-516.8194299737852
 30
0.0
 40
6.0
 41
0.0
 71
     5
 72
     1
  1
\A1; 70 
 73
     1
 44
1.0
  0
POINT
  5
DC99
330
DC52
100
AcDbEntity
  8
DEFPOINTS
  6
Continuous
 62
     0
100
AcDbPoint
 10
-35.00000000000044
 20
-475.7235549737853
 30
0.0
  0
POINT
  5
DC9A
330
DC52
100
AcDbEntity
  8
DEFPOINTS
  6
Continuous
 62
     0
100
AcDbPoint
 10
34.99999999999953
 20
-475.7235549737853
 30
0.0
  0
POINT
  5
DC9B
330
DC52
100
AcDbEntity
  8
DEFPOINTS
  6
Continuous
 62
     0
100
AcDbPoint
 10
34.99999999999953
 20
-520.8194299737852
 30
0.0
  0
ENDBLK
  5
DC5D
330
DC52
100
AcDbEntity
  8
0
100
AcDbBlockEnd
  0
BLOCK
  5
DC68
330
DC5E
100
AcDbEntity
  8
0
100
AcDbBlockBegin
  2
*D23
 70
     1
 10
0.0
 20
0.0
 30
0.0
  3
*D23
  1

  0
LINE
  5
DEF1
330
DC5E
100
AcDbEntity
  8
30
  6
Continuous
 62
     0
370
    -2
100
AcDbLine
 10
-0.0000000000004548
 20
-521.8194299737851
 30
0.0
 11
-0.0000000000004569
 21
-556.3194299737853
 31
0.0
  0
LINE
  5
DEF2
330
DC5E
100
AcDbEntity
  8
30
  6
Continuous
 62
     0
370
    -2
100
AcDbLine
 10
69.99999999999954
 20
-476.7235549737853
 30
0.0
 11
69.99999999999954
 21
-556.3194299737853
 31
0.0
  0
LINE
  5
DEF3
330
DC5E
100
AcDbEntity
  8
30
  6
Continuous
 62
     0
370
    -2
100
AcDbLine
 10
1.999999999999543
 20
-555.8194299737853
 30
0.0
 11
67.99999999999954
 21
-555.8194299737853
 31
0.0
  0
INSERT
  5
DEF4
330
DC5E
100
AcDbEntity
  8
30
  6
Continuous
 62
     0
370
    -2
100
AcDbBlockReference
  2
_OPEN
 10
-0.0000000000004569
 20
-555.8194299737853
 30
0.0
 41
2.0
 42
2.0
 43
2.0
 50
180.0
  0
INSERT
  5
DEF5
330
DC5E
100
AcDbEntity
  8
30
  6
Continuous
 62
     0
370
    -2
100
AcDbBlockReference
  2
_OPEN
 10
69.99999999999954
 20
-555.8194299737853
 30
0.0
 41
2.0
 42
2.0
 43
2.0
  0
MTEXT
  5
DEF6
330
DC5E
100
AcDbEntity
  8
30
  6
Continuous
 62
     0
100
AcDbMText
 10
34.99999999999953
 20
-551.8194299737853
 30
0.0
 40
6.0
 41
0.0
 71
     5
 72
     1
  1
\A1; 70 
 73
     1
 44
1.0
  0
POINT
  5
DEF7
330
DC5E
100
AcDbEntity
  8
DEFPOINTS
  6
Continuous
 62
     0
100
AcDbPoint
 10
-0.0000000000004547
 20
-520.8194299737852
 30
0.0
  0
POINT
  5
DEF8
330
DC5E
100
AcDbEntity
  8
DEFPOINTS
  6
Continuous
 62
     0
100
AcDbPoint
 10
69.99999999999954
 20
-475.7235549737853
 30
0.0
  0
POINT
  5
DEF9
330
DC5E
100
AcDbEntity
  8
DEFPOINTS
  6
Continuous
 62
     0
100
AcDbPoint
 10
69.99999999999954
 20
-555.8194299737853
 30
0.0
  0
ENDBLK
  5
DC69
330
DC5E
100
AcDbEntity
  8
0
100
AcDbBlockEnd
  0
BLOCK
  5
DC74
330
DC6A
100
AcDbEntity
  8
0
100
AcDbBlockBegin
  2
*D24
 70
     1
 10
0.0
 20
0.0
 30
0.0
  3
*D24
  1

  0
LINE
  5
DE8A
330
DC6A
100
AcDbEntity
  8
30
  6
Continuous
 62
     0
370
    -2
100
AcDbLine
 10
69.99999999999954
 20
-476.7235549737853
 30
0.0
 11
69.99999999999954
 21
-556.3194299737853
 31
0.0
  0
LINE
  5
DE8B
330
DC6A
100
AcDbEntity
  8
30
  6
Continuous
 62
     0
370
    -2
100
AcDbLine
 10
182.9999999999995
 20
-328.2235549737851
 30
0.0
 11
182.9999999999995
 21
-556.3194299737853
 31
0.0
  0
LINE
  5
DE8C
330
DC6A
100
AcDbEntity
  8
30
  6
Continuous
 62
     0
370
    -2
100
AcDbLine
 10
71.99999999999954
 20
-555.8194299737853
 30
0.0
 11
180.9999999999995
 21
-555.8194299737853
 31
0.0
  0
INSERT
  5
DE8D
330
DC6A
100
AcDbEntity
  8
30
  6
Continuous
 62
     0
370
    -2
100
AcDbBlockReference
  2
_OPEN
 10
69.99999999999954
 20
-555.8194299737853
 30
0.0
 41
2.0
 42
2.0
 43
2.0
 50
180.0
  0
INSERT
  5
DE8E
330
DC6A
100
AcDbEntity
  8
30
  6
Continuous
 62
     0
370
    -2
100
AcDbBlockReference
  2
_OPEN
 10
182.9999999999995
 20
-555.8194299737853
 30
0.0
 41
2.0
 42
2.0
 43
2.0
  0
MTEXT
  5
DE8F
330
DC6A
100
AcDbEntity
  8
30
  6
Continuous
 62
     0
100
AcDbMText
 10
126.4999999999995
 20
-551.8194299737853
 30
0.0
 40
6.0
 41
0.0
 71
     5
 72
     1
  1
\A1; 113 
 73
     1
 44
1.0
  0
POINT
  5
DE90
330
DC6A
100
AcDbEntity
  8
DEFPOINTS
  6
Continuous
 62
     0
100
AcDbPoint
 10
69.99999999999954
 20
-475.7235549737853
 30
0.0
  0
POINT
  5
DE91
330
DC6A
100
AcDbEntity
  8
DEFPOINTS
  6
Continuous
 62
     0
100
AcDbPoint
 10
182.9999999999995
 20
-327.2235549737851
 30
0.0
  0
POINT
  5
DE92
330
DC6A
100
AcDbEntity
  8
DEFPOINTS
  6
Continuous
 62
     0
100
AcDbPoint
 10
182.9999999999995
 20
-555.8194299737853
 30
0.0
  0
ENDBLK
  5
DC75
330
DC6A
100
AcDbEntity
  8
0
100
AcDbBlockEnd
  0
BLOCK
  5
DCCC
330
DCC3
100
AcDbEntity
  8
0
100
AcDbBlockBegin
  2
*D25
 70
     1
 10
0.0
 20
0.0
 30
0.0
  3
*D25
  1

  0
LINE
  5
E556
330
DCC3
100
AcDbEntity
  8
30
  6
Continuous
 62
     0
370
    -2
100
AcDbLine
 10
-58.24744083389107
 20
-188.635944064033
 30
0.0
 11
-45.24744083389184
 21
-188.635944064033
 31
0.0
  0
LINE
  5
E557
330
DCC3
100
AcDbEntity
  8
30
  6
Continuous
 62
     0
370
    -2
100
AcDbLine
 10
-45.24744083389184
 20
-188.635944064033
 30
0.0
 11
-36.27071658649898
 21
-222.7977221234069
 31
0.0
  0
MTEXT
  5
E558
330
DCC3
100
AcDbEntity
  8
30
  6
Continuous
 62
     0
100
AcDbMText
 10
-53.24744083389109
 20
-184.635944064033
 30
0.0
 40
6.0
 41
0.0
 71
     5
 72
     1
  1
\A1;M8
 73
     1
 44
1.0
  0
INSERT
  5
E559
330
DCC3
100
AcDbEntity
  8
30
  6
Continuous
 62
     0
370
    -2
100
AcDbBlockReference
  2
_OPEN
 10
-35.76242995189955
 20
-224.7320552635582
 30
0.0
 41
2.0
 42
2.0
 43
2.0
 50
284.7228286166666
  0
LINE
  5
E55A
330
DCC3
100
AcDbEntity
  8
30
  6
Continuous
 62
     0
370
    -2
100
AcDbLine
 10
-35.09000000000039
 20
-227.6335549737852
 30
0.0
 11
-34.91000000000038
 21
-227.6335549737852
 31
0.0
  0
LINE
  5
E55B
330
DCC3
100
AcDbEntity
  8
30
  6
Continuous
 62
     0
370
    -2
100
AcDbLine
 10
-35.00000000000039
 20
-227.7235549737852
 30
0.0
 11
-35.00000000000038
 21
-227.5435549737852
 31
0.0
  0
POINT
  5
E55C
330
DCC3
100
AcDbEntity
  8
DEFPOINTS
  6
Continuous
 62
     0
100
AcDbPoint
 10
-35.76242995189955
 20
-224.7320552635582
 30
0.0
  0
POINT
  5
E55D
330
DCC3
100
AcDbEntity
  8
DEFPOINTS
  6
Continuous
 62
     0
100
AcDbPoint
 10
-34.23757004810124
 20
-230.5350546840122
 30
0.0
  0
ENDBLK
  5
DCCD
330
DCC3
100
AcDbEntity
  8
0
100
AcDbBlockEnd
  0
BLOCK
  5
DCE8
330
DCDF
100
AcDbEntity
  8
0
100
AcDbBlockBegin
  2
*D26
 70
     1
 10
0.0
 20
0.0
 30
0.0
  3
*D26
  1

  0
LINE
  5
DCE0
330
DCDF
100
AcDbEntity
  8
30
  6
Continuous
 62
     0
370
    -2
100
AcDbLine
 10
-34.99999999999996
 20
-433.0
 30
0.0
 11
-50.0
 21
-433.0
 31
0.0
  0
LINE
  5
DCE1
330
DCDF
100
AcDbEntity
  8
30
  6
Continuous
 62
     0
370
    -2
100
AcDbLine
 10
-50.0
 20
-433.0
 30
0.0
 11
-57.11864876574217
 21
-446.4270369026771
 31
0.0
  0
MTEXT
  5
DCE2
330
DCDF
100
AcDbEntity
  8
30
  6
Continuous
 62
     0
100
AcDbMText
 10
-42.00000000000001
 20
-429.0
 30
0.0
 40
6.0
 41
0.0
 71
     5
 72
     1
  1
\A1;\U+220551
 73
     1
 44
1.0
  0
INSERT
  5
DCE3
330
DCDF
100
AcDbEntity
  8
30
  6
Continuous
 62
     0
370
    -2
100
AcDbBlockReference
  2
_OPEN
 10
-58.05547431005184
 20
-448.1940563987577
 30
0.0
 41
2.0
 42
2.0
 43
2.0
 50
242.068684621902
  0
LINE
  5
DCE4
330
DCDF
100
AcDbEntity
  8
30
  6
Continuous
 62
     0
370
    -2
100
AcDbLine
 10
-70.08999999999997
 20
-470.7235549737851
 30
0.0
 11
-69.90999999999996
 21
-470.7235549737853
 31
0.0
  0
LINE
  5
DCE5
330
DCDF
100
AcDbEntity
  8
30
  6
Continuous
 62
     0
370
    -2
100
AcDbLine
 10
-70.00000000000003
 20
-470.8135549737852
 30
0.0
 11
-70.00000000000003
 21
-470.6335549737854
 31
0.0
  0
POINT
  5
DCE6
330
DCDF
100
AcDbEntity
  8
DEFPOINTS
  6
Continuous
 62
     0
100
AcDbPoint
 10
-58.05547431005184
 20
-448.1940563987577
 30
0.0
  0
POINT
  5
DCE7
330
DCDF
100
AcDbEntity
  8
DEFPOINTS
  6
Continuous
 62
     0
100
AcDbPoint
 10
-81.94452568994819
 20
-493.2530535488129
 30
0.0
  0
ENDBLK
  5
DCE9
330
DCDF
100
AcDbEntity
  8
0
100
AcDbBlockEnd
  0
BLOCK
  5
DCF4
330
DCEB
100
AcDbEntity
  8
0
100
AcDbBlockBegin
  2
*D27
 70
     1
 10
0.0
 20
0.0
 30
0.0
  3
*D27
  1

  0
LINE
  5
DCEC
330
DCEB
100
AcDbEntity
  8
30
  6
Continuous
 62
     0
370
    -2
100
AcDbLine
 10
-145.0
 20
-342.0
 30
0.0
 11
-130.0
 21
-342.0
 31
0.0
  0
LINE
  5
DCED
330
DCEB
100
AcDbEntity
  8
30
  6
Continuous
 62
     0
370
    -2
100
AcDbLine
 10
-130.0
 20
-342.0
 30
0.0
 11
-119.1927515385047
 21
-329.4277085245052
 31
0.0
  0
MTEXT
  5
DCEE
330
DCEB
100
AcDbEntity
  8
30
  6
Continuous
 62
     0
100
AcDbMText
 10
-138.0
 20
-338.0
 30
0.0
 40
6.0
 41
0.0
 71
     5
 72
     1
  1
\A1;\U+220515
 73
     1
 44
1.0
  0
INSERT
  5
DCEF
330
DCEB
100
AcDbEntity
  8
30
  6
Continuous
 62
     0
370
    -2
100
AcDbBlockReference
  2
_OPEN
 10
-117.8890143725037
 20
-327.9110446190906
 30
0.0
 41
2.0
 42
2.0
 43
2.0
 50
49.31736637813189
  0
LINE
  5
DCF0
330
DCEB
100
AcDbEntity
  8
30
  6
Continuous
 62
     0
370
    -2
100
AcDbLine
 10
-113.0900000000004
 20
-322.2235549737853
 30
0.0
 11
-112.9100000000003
 21
-322.2235549737853
 31
0.0
  0
LINE
  5
DCF1
330
DCEB
100
AcDbEntity
  8
30
  6
Continuous
 62
     0
370
    -2
100
AcDbLine
 10
-113.0000000000004
 20
-322.3135549737853
 30
0.0
 11
-113.0000000000004
 21
-322.1335549737851
 31
0.0
  0
POINT
  5
DCF2
330
DCEB
100
AcDbEntity
  8
DEFPOINTS
  6
Continuous
 62
     0
100
AcDbPoint
 10
-117.8890143725037
 20
-327.9110446190906
 30
0.0
  0
POINT
  5
DCF3
330
DCEB
100
AcDbEntity
  8
DEFPOINTS
  6
Continuous
 62
     0
100
AcDbPoint
 10
-108.110985627497
 20
-316.53606532848
 30
0.0
  0
ENDBLK
  5
DCF5
330
DCEB
100
AcDbEntity
  8
0
100
AcDbBlockEnd
  0
BLOCK
  5
DD0E
330
DD04
100
AcDbEntity
  8
0
100
AcDbBlockBegin
  2
*D28
 70
     1
 10
0.0
 20
0.0
 30
0.0
  3
*D28
  1

  0
LINE
  5
E067
330
DD04
100
AcDbEntity
  8
30
  6
Continuous
 62
     0
370
    -2
100
AcDbLine
 10
171.4999999999995
 20
-227.7235549737854
 30
0.0
 11
204.5072871923638
 21
-227.7235549737854
 31
0.0
  0
LINE
  5
E068
330
DD04
100
AcDbEntity
  8
30
  6
Continuous
 62
     0
370
    -2
100
AcDbLine
 10
175.9999999999995
 20
-353.7235549737853
 30
0.0
 11
204.5072871923637
 21
-353.7235549737853
 31
0.0
  0
LINE
  5
E069
330
DD04
100
AcDbEntity
  8
30
  6
Continuous
 62
     0
370
    -2
100
AcDbLine
 10
204.0072871923638
 20
-229.7235549737854
 30
0.0
 11
204.0072871923638
 21
-351.7235549737853
 31
0.0
  0
INSERT
  5
E06A
330
DD04
100
AcDbEntity
  8
30
  6
Continuous
 62
     0
370
    -2
100
AcDbBlockReference
  2
_OPEN
 10
204.0072871923638
 20
-227.7235549737854
 30
0.0
 41
2.0
 42
2.0
 43
2.0
 50
90.0
  0
INSERT
  5
E06B
330
DD04
100
AcDbEntity
  8
30
  6
Continuous
 62
     0
370
    -2
100
AcDbBlockReference
  2
_OPEN
 10
204.0072871923638
 20
-353.7235549737853
 30
0.0
 41
2.0
 42
2.0
 43
2.0
 50
270.0
  0
MTEXT
  5
E06C
330
DD04
100
AcDbEntity
  8
30
  6
Continuous
 62
     0
100
AcDbMText
 10
200.0072871923638
 20
-290.7235549737853
 30
0.0
 40
6.0
 41
0.0
 71
     5
 72
     1
  1
\A1;126
 11
0.0000000000000001
 21
1.0
 31
0.0
 73
     1
 44
1.0
  0
POINT
  5
E06D
330
DD04
100
AcDbEntity
  8
DEFPOINTS
  6
Continuous
 62
     0
100
AcDbPoint
 10
170.4999999999995
 20
-227.7235549737854
 30
0.0
  0
POINT
  5
E06E
330
DD04
100
AcDbEntity
  8
DEFPOINTS
  6
Continuous
 62
     0
100
AcDbPoint
 10
174.9999999999995
 20
-353.7235549737853
 30
0.0
  0
POINT
  5
E06F
330
DD04
100
AcDbEntity
  8
DEFPOINTS
  6
Continuous
 62
     0
100
AcDbPoint
 10
204.0072871923638
 20
-353.7235549737853
 30
0.0
  0
ENDBLK
  5
DD0F
330
DD04
100
AcDbEntity
  8
0
100
AcDbBlockEnd
  0
BLOCK
  5
DD46
330
DD3B
100
AcDbEntity
  8
0
100
AcDbBlockBegin
  2
*D29
 70
     1
 10
0.0
 20
0.0
 30
0.0
  3
*D29
  1

  0
LINE
  5
E094
330
DD3B
100
AcDbEntity
  8
30
  6
Continuous
 62
     0
370
    -2
100
AcDbLine
 10
183.9999999999995
 20
-480.7235549737852
 30
0.0
 11
219.5609914004442
 21
-480.7235549737852
 31
0.0
  0
LINE
  5
E095
330
DD3B
100
AcDbEntity
  8
30
  6
Continuous
 62
     0
370
    -2
100
AcDbLine
 10
183.9999999999995
 20
-485.7235549737853
 30
0.0
 11
219.5609914004442
 21
-485.7235549737853
 31
0.0
  0
LINE
  5
E096
330
DD3B
100
AcDbEntity
  8
30
  6
Continuous
 62
     0
370
    -2
100
AcDbLine
 10
219.0609914004443
 20
-481.7235549737853
 30
0.0
 11
219.0609914004443
 21
-484.7235549737852
 31
0.0
  0
INSERT
  5
E097
330
DD3B
100
AcDbEntity
  8
30
  6
Continuous
 62
     0
370
    -2
100
AcDbBlockReference
  2
_OPEN
 10
219.0609914004443
 20
-480.7235549737852
 30
0.0
 50
90.0
  0
INSERT
  5
E098
330
DD3B
100
AcDbEntity
  8
30
  6
Continuous
 62
     0
370
    -2
100
AcDbBlockReference
  2
_OPEN
 10
219.0609914004443
 20
-485.7235549737853
 30
0.0
 50
270.0
  0
MTEXT
  5
E099
330
DD3B
100
AcDbEntity
  8
30
  6
Continuous
 62
     0
100
AcDbMText
 10
215.5609914004444
 20
-483.2235549737853
 30
0.0
 40
5.0
 41
0.0
 71
     5
 72
     1
  1
\A1;5 
 11
0.0000000000000001
 21
1.0
 31
0.0
 73
     1
 44
1.0
  0
POINT
  5
E09A
330
DD3B
100
AcDbEntity
  8
DEFPOINTS
  6
Continuous
 62
     0
100
AcDbPoint
 10
182.9999999999995
 20
-480.7235549737852
 30
0.0
  0
POINT
  5
E09B
330
DD3B
100
AcDbEntity
  8
DEFPOINTS
  6
Continuous
 62
     0
100
AcDbPoint
 10
182.9999999999995
 20
-485.7235549737853
 30
0.0
  0
POINT
  5
E09C
330
DD3B
100
AcDbEntity
  8
DEFPOINTS
  6
Continuous
 62
     0
100
AcDbPoint
 10
219.0609914004443
 20
-485.7235549737853
 30
0.0
  0
ENDBLK
  5
DD47
330
DD3B
100
AcDbEntity
  8
0
100
AcDbBlockEnd
  0
BLOCK
  5
DD52
330
DD48
100
AcDbEntity
  8
0
100
AcDbBlockBegin
  2
*D30
 70
     1
 10
0.0
 20
0.0
 30
0.0
  3
*D30
  1

  0
LINE
  5
E08B
330
DD48
100
AcDbEntity
  8
30
  6
Continuous
 62
     0
370
    -2
100
AcDbLine
 10
175.9999999999995
 20
-353.7235549737853
 30
0.0
 11
219.5609914004444
 21
-353.7235549737853
 31
0.0
  0
LINE
  5
E08C
330
DD48
100
AcDbEntity
  8
30
  6
Continuous
 62
     0
370
    -2
100
AcDbLine
 10
184.9999999999995
 20
-480.7235549737852
 30
0.0
 11
219.5609914004442
 21
-480.7235549737852
 31
0.0
  0
LINE
  5
E08D
330
DD48
100
AcDbEntity
  8
30
  6
Continuous
 62
     0
370
    -2
100
AcDbLine
 10
219.0609914004443
 20
-355.7235549737853
 30
0.0
 11
219.0609914004443
 21
-478.7235549737853
 31
0.0
  0
INSERT
  5
E08E
330
DD48
100
AcDbEntity
  8
30
  6
Continuous
 62
     0
370
    -2
100
AcDbBlockReference
  2
_OPEN
 10
219.0609914004443
 20
-353.7235549737853
 30
0.0
 41
2.0
 42
2.0
 43
2.0
 50
90.0
  0
INSERT
  5
E08F
330
DD48
100
AcDbEntity
  8
30
  6
Continuous
 62
     0
370
    -2
100
AcDbBlockReference
  2
_OPEN
 10
219.0609914004443
 20
-480.7235549737852
 30
0.0
 41
2.0
 42
2.0
 43
2.0
 50
270.0
  0
MTEXT
  5
E090
330
DD48
100
AcDbEntity
  8
30
  6
Continuous
 62
     0
100
AcDbMText
 10
215.0609914004444
 20
-417.2235549737853
 30
0.0
 40
6.0
 41
0.0
 71
     5
 72
     1
  1
\A1; 127 
 11
0.0000000000000001
 21
1.0
 31
0.0
 73
     1
 44
1.0
  0
POINT
  5
E091
330
DD48
100
AcDbEntity
  8
DEFPOINTS
  6
Continuous
 62
     0
100
AcDbPoint
 10
174.9999999999995
 20
-353.7235549737853
 30
0.0
  0
POINT
  5
E092
330
DD48
100
AcDbEntity
  8
DEFPOINTS
  6
Continuous
 62
     0
100
AcDbPoint
 10
183.9999999999995
 20
-480.7235549737852
 30
0.0
  0
POINT
  5
E093
330
DD48
100
AcDbEntity
  8
DEFPOINTS
  6
Continuous
 62
     0
100
AcDbPoint
 10
219.0609914004443
 20
-480.7235549737852
 30
0.0
  0
ENDBLK
  5
DD53
330
DD48
100
AcDbEntity
  8
0
100
AcDbBlockEnd
  0
BLOCK
  5
DD5E
330
DD54
100
AcDbEntity
  8
0
100
AcDbBlockBegin
  2
*D31
 70
     1
 10
0.0
 20
0.0
 30
0.0
  3
*D31
  1

  0
LINE
  5
E070
330
DD54
100
AcDbEntity
  8
30
  6
Continuous
 62
     0
370
    -2
100
AcDbLine
 10
175.9999999999995
 20
-217.7235549737854
 30
0.0
 11
219.5609914004444
 21
-217.7235549737854
 31
0.0
  0
LINE
  5
E071
330
DD54
100
AcDbEntity
  8
30
  6
Continuous
 62
     0
370
    -2
100
AcDbLine
 10
175.9999999999995
 20
-353.7235549737853
 30
0.0
 11
219.5609914004442
 21
-353.7235549737853
 31
0.0
  0
LINE
  5
E072
330
DD54
100
AcDbEntity
  8
30
  6
Continuous
 62
     0
370
    -2
100
AcDbLine
 10
219.0609914004443
 20
-219.7235549737853
 30
0.0
 11
219.0609914004443
 21
-351.7235549737853
 31
0.0
  0
INSERT
  5
E073
330
DD54
100
AcDbEntity
  8
30
  6
Continuous
 62
     0
370
    -2
100
AcDbBlockReference
  2
_OPEN
 10
219.0609914004443
 20
-217.7235549737854
 30
0.0
 41
2.0
 42
2.0
 43
2.0
 50
90.0
  0
INSERT
  5
E074
330
DD54
100
AcDbEntity
  8
30
  6
Continuous
 62
     0
370
    -2
100
AcDbBlockReference
  2
_OPEN
 10
219.0609914004443
 20
-353.7235549737853
 30
0.0
 41
2.0
 42
2.0
 43
2.0
 50
270.0
  0
MTEXT
  5
E075
330
DD54
100
AcDbEntity
  8
30
  6
Continuous
 62
     0
100
AcDbMText
 10
215.0609914004444
 20
-285.7235549737853
 30
0.0
 40
6.0
 41
0.0
 71
     5
 72
     1
  1
\A1; 136 
 11
0.0000000000000001
 21
1.0
 31
0.0
 73
     1
 44
1.0
  0
POINT
  5
E076
330
DD54
100
AcDbEntity
  8
DEFPOINTS
  6
Continuous
 62
     0
100
AcDbPoint
 10
174.9999999999995
 20
-217.7235549737854
 30
0.0
  0
POINT
  5
E077
330
DD54
100
AcDbEntity
  8
DEFPOINTS
  6
Continuous
 62
     0
100
AcDbPoint
 10
174.9999999999995
 20
-353.7235549737853
 30
0.0
  0
POINT
  5
E078
330
DD54
100
AcDbEntity
  8
DEFPOINTS
  6
Continuous
 62
     0
100
AcDbPoint
 10
219.0609914004443
 20
-353.7235549737853
 30
0.0
  0
ENDBLK
  5
DD5F
330
DD54
100
AcDbEntity
  8
0
100
AcDbBlockEnd
  0
BLOCK
  5
DDBE
330
DDB4
100
AcDbEntity
  8
0
100
AcDbBlockBegin
  2
*D32
 70
     1
 10
0.0
 20
0.0
 30
0.0
  3
*D32
  1

  0
LINE
  5
E09D
330
DDB4
100
AcDbEntity
  8
30
  6
Continuous
 62
     0
370
    -2
100
AcDbLine
 10
175.9999999999995
 20
-212.7235549737851
 30
0.0
 11
219.5609914004444
 21
-212.7235549737853
 31
0.0
  0
LINE
  5
E09E
330
DDB4
100
AcDbEntity
  8
30
  6
Continuous
 62
     0
370
    -2
100
AcDbLine
 10
214.5148894587419
 20
-217.7235549737854
 30
0.0
 11
219.5609914004444
 21
-217.7235549737854
 31
0.0
  0
LINE
  5
E09F
330
DDB4
100
AcDbEntity
  8
30
  6
Continuous
 62
     0
370
    -2
100
AcDbLine
 10
219.0609914004443
 20
-213.7235549737853
 30
0.0
 11
219.0609914004443
 21
-216.7235549737854
 31
0.0
  0
INSERT
  5
E0A0
330
DDB4
100
AcDbEntity
  8
30
  6
Continuous
 62
     0
370
    -2
100
AcDbBlockReference
  2
_OPEN
 10
219.0609914004443
 20
-212.7235549737853
 30
0.0
 50
90.0
  0
INSERT
  5
E0A1
330
DDB4
100
AcDbEntity
  8
30
  6
Continuous
 62
     0
370
    -2
100
AcDbBlockReference
  2
_OPEN
 10
219.0609914004443
 20
-217.7235549737854
 30
0.0
 50
270.0
  0
MTEXT
  5
E0A2
330
DDB4
100
AcDbEntity
  8
30
  6
Continuous
 62
     0
100
AcDbMText
 10
215.5609914004444
 20
-215.2235549737853
 30
0.0
 40
5.0
 41
0.0
 71
     5
 72
     1
  1
\A1;5 
 11
0.0000000000000001
 21
1.0
 31
0.0
 73
     1
 44
1.0
  0
POINT
  5
E0A3
330
DDB4
100
AcDbEntity
  8
DEFPOINTS
  6
Continuous
 62
     0
100
AcDbPoint
 10
174.9999999999995
 20
-212.7235549737851
 30
0.0
  0
POINT
  5
E0A4
330
DDB4
100
AcDbEntity
  8
DEFPOINTS
  6
Continuous
 62
     0
100
AcDbPoint
 10
213.5148894587417
 20
-217.7235549737854
 30
0.0
  0
POINT
  5
E0A5
330
DDB4
100
AcDbEntity
  8
DEFPOINTS
  6
Continuous
 62
     0
100
AcDbPoint
 10
219.0609914004443
 20
-217.7235549737854
 30
0.0
  0
ENDBLK
  5
DDBF
330
DDB4
100
AcDbEntity
  8
0
100
AcDbBlockEnd
  0
BLOCK
  5
DF2F
330
DF25
100
AcDbEntity
  8
0
100
AcDbBlockBegin
  2
*D33
 70
     1
 10
0.0
 20
0.0
 30
0.0
  3
*D33
  1

  0
LINE
  5
E05E
330
DF25
100
AcDbEntity
  8
30
  6
Continuous
 62
     0
370
    -2
100
AcDbLine
 10
176.9999999999995
 20
-353.7235549737853
 30
0.0
 11
196.9804425241026
 21
-353.7235549737853
 31
0.0
  0
LINE
  5
E05F
330
DF25
100
AcDbEntity
  8
30
  6
Continuous
 62
     0
370
    -2
100
AcDbLine
 10
183.9999999999995
 20
-323.2235549737853
 30
0.0
 11
196.9804425241026
 21
-323.2235549737853
 31
0.0
  0
LINE
  5
E060
330
DF25
100
AcDbEntity
  8
30
  6
Continuous
 62
     0
370
    -2
100
AcDbLine
 10
196.4804425241026
 20
-351.7235549737853
 30
0.0
 11
196.4804425241026
 21
-325.2235549737853
 31
0.0
  0
INSERT
  5
E061
330
DF25
100
AcDbEntity
  8
30
  6
Continuous
 62
     0
370
    -2
100
AcDbBlockReference
  2
_OPEN
 10
196.4804425241026
 20
-353.7235549737853
 30
0.0
 41
2.0
 42
2.0
 43
2.0
 50
270.0
  0
INSERT
  5
E062
330
DF25
100
AcDbEntity
  8
30
  6
Continuous
 62
     0
370
    -2
100
AcDbBlockReference
  2
_OPEN
 10
196.4804425241026
 20
-323.2235549737853
 30
0.0
 41
2.0
 42
2.0
 43
2.0
 50
90.0
  0
MTEXT
  5
E063
330
DF25
100
AcDbEntity
  8
30
  6
Continuous
 62
     0
100
AcDbMText
 10
192.4804425241026
 20
-338.4735549737851
 30
0.0
 40
6.0
 41
0.0
 71
     5
 72
     1
  1
\A1; 30.5 
 11
0.0000000000000001
 21
1.0
 31
0.0
 73
     1
 44
1.0
  0
POINT
  5
E064
330
DF25
100
AcDbEntity
  8
DEFPOINTS
  6
Continuous
 62
     0
100
AcDbPoint
 10
175.9999999999995
 20
-353.7235549737853
 30
0.0
  0
POINT
  5
E065
330
DF25
100
AcDbEntity
  8
DEFPOINTS
  6
Continuous
 62
     0
100
AcDbPoint
 10
182.9999999999995
 20
-323.2235549737853
 30
0.0
  0
POINT
  5
E066
330
DF25
100
AcDbEntity
  8
DEFPOINTS
  6
Continuous
 62
     0
100
AcDbPoint
 10
196.4804425241026
 20
-323.2235549737853
 30
0.0
  0
ENDBLK
  5
DF30
330
DF25
100
AcDbEntity
  8
0
100
AcDbBlockEnd
  0
BLOCK
  5
E2D3
330
E2C9
100
AcDbEntity
  8
0
100
AcDbBlockBegin
  2
*D34
 70
     1
 10
0.0
 20
0.0
 30
0.0
  3
*D34
  1

  0
LINE
  5
E329
330
E2C9
100
AcDbEntity
  8
30
  6
Continuous
 62
     0
370
    -2
100
AcDbLine
 10
-25.29999999999994
 20
-50.99999999999994
 30
0.0
 11
-25.29999999999994
 21
-72.59587499999992
 31
0.0
  0
LINE
  5
E32A
330
E2C9
100
AcDbEntity
  8
30
  6
Continuous
 62
     0
370
    -2
100
AcDbLine
 10
25.69999999999982
 20
-50.99999999999994
 30
0.0
 11
25.69999999999982
 21
-72.59587499999992
 31
0.0
  0
LINE
  5
E32B
330
E2C9
100
AcDbEntity
  8
30
  6
Continuous
 62
     0
370
    -2
100
AcDbLine
 10
-23.29999999999994
 20
-72.09587499999992
 30
0.0
 11
23.69999999999981
 21
-72.09587499999992
 31
0.0
  0
INSERT
  5
E32C
330
E2C9
100
AcDbEntity
  8
30
  6
Continuous
 62
     0
370
    -2
100
AcDbBlockReference
  2
_OPEN
 10
-25.29999999999994
 20
-72.09587499999992
 30
0.0
 41
2.0
 42
2.0
 43
2.0
 50
180.0
  0
INSERT
  5
E32D
330
E2C9
100
AcDbEntity
  8
30
  6
Continuous
 62
     0
370
    -2
100
AcDbBlockReference
  2
_OPEN
 10
25.69999999999982
 20
-72.09587499999992
 30
0.0
 41
2.0
 42
2.0
 43
2.0
  0
MTEXT
  5
E32E
330
E2C9
100
AcDbEntity
  8
30
  6
Continuous
 62
     0
100
AcDbMText
 10
0.199999999999932
 20
-68.09587499999992
 30
0.0
 40
6.0
 41
0.0
 71
     5
 72
     1
  1
\A1; 51 
 73
     1
 44
1.0
  0
POINT
  5
E32F
330
E2C9
100
AcDbEntity
  8
DEFPOINTS
  6
Continuous
 62
     0
100
AcDbPoint
 10
-25.29999999999994
 20
-49.99999999999993
 30
0.0
  0
POINT
  5
E330
330
E2C9
100
AcDbEntity
  8
DEFPOINTS
  6
Continuous
 62
     0
100
AcDbPoint
 10
25.69999999999982
 20
-49.99999999999993
 30
0.0
  0
POINT
  5
E331
330
E2C9
100
AcDbEntity
  8
DEFPOINTS
  6
Continuous
 62
     0
100
AcDbPoint
 10
25.69999999999982
 20
-72.09587499999992
 30
0.0
  0
ENDBLK
  5
E2D4
330
E2C9
100
AcDbEntity
  8
0
100
AcDbBlockEnd
  0
BLOCK
  5
E2DF
330
E2D5
100
AcDbEntity
  8
0
100
AcDbBlockBegin
  2
*D35
 70
     1
 10
0.0
 20
0.0
 30
0.0
  3
*D35
  1

  0
LINE
  5
E332
330
E2D5
100
AcDbEntity
  8
30
  6
Continuous
 62
     0
370
    -2
100
AcDbLine
 10
-84.80000000000019
 20
45.99999999999993
 30
0.0
 11
-84.80000000000019
 21
78.40412499999995
 31
0.0
  0
LINE
  5
E333
330
E2D5
100
AcDbEntity
  8
30
  6
Continuous
 62
     0
370
    -2
100
AcDbLine
 10
85.20000000000004
 20
45.99999999999993
 30
0.0
 11
85.20000000000004
 21
78.40412499999995
 31
0.0
  0
LINE
  5
E334
330
E2D5
100
AcDbEntity
  8
30
  6
Continuous
 62
     0
370
    -2
100
AcDbLine
 10
-82.8000000000002
 20
77.90412499999995
 30
0.0
 11
83.20000000000005
 21
77.90412499999995
 31
0.0
  0
INSERT
  5
E335
330
E2D5
100
AcDbEntity
  8
30
  6
Continuous
 62
     0
370
    -2
100
AcDbBlockReference
  2
_OPEN
 10
-84.80000000000019
 20
77.90412499999995
 30
0.0
 41
2.0
 42
2.0
 43
2.0
 50
180.0
  0
INSERT
  5
E336
330
E2D5
100
AcDbEntity
  8
30
  6
Continuous
 62
     0
370
    -2
100
AcDbBlockReference
  2
_OPEN
 10
85.20000000000004
 20
77.90412499999995
 30
0.0
 41
2.0
 42
2.0
 43
2.0
  0
MTEXT
  5
E337
330
E2D5
100
AcDbEntity
  8
30
  6
Continuous
 62
     0
100
AcDbMText
 10
0.199999999999932
 20
81.90412499999997
 30
0.0
 40
6.0
 41
0.0
 71
     5
 72
     1
  1
\A1; 170 
 73
     1
 44
1.0
  0
POINT
  5
E338
330
E2D5
100
AcDbEntity
  8
DEFPOINTS
  6
Continuous
 62
     0
100
AcDbPoint
 10
-84.80000000000019
 20
44.99999999999993
 30
0.0
  0
POINT
  5
E339
330
E2D5
100
AcDbEntity
  8
DEFPOINTS
  6
Continuous
 62
     0
100
AcDbPoint
 10
85.20000000000004
 20
44.99999999999993
 30
0.0
  0
POINT
  5
E33A
330
E2D5
100
AcDbEntity
  8
DEFPOINTS
  6
Continuous
 62
     0
100
AcDbPoint
 10
85.20000000000004
 20
77.90412499999995
 30
0.0
  0
ENDBLK
  5
E2E0
330
E2D5
100
AcDbEntity
  8
0
100
AcDbBlockEnd
  0
BLOCK
  5
E3C6
330
E3BC
100
AcDbEntity
  8
0
100
AcDbBlockBegin
  2
*D36
 70
     1
 10
0.0
 20
0.0
 30
0.0
  3
*D36
  1

  0
LINE
  5
E3F0
330
E3BC
100
AcDbEntity
  8
30
  6
Continuous
 62
     0
370
    -2
100
AcDbLine
 10
-0.0000000000000001
 20
-143.9999999999999
 30
0.0
 11
-0.0000000000000019
 21
-173.0958749999999
 31
0.0
  0
LINE
  5
E3F1
330
E3BC
100
AcDbEntity
  8
30
  6
Continuous
 62
     0
370
    -2
100
AcDbLine
 10
-105.0
 20
-133.0
 30
0.0
 11
-105.0
 21
-173.0958749999999
 31
0.0
  0
LINE
  5
E3F2
330
E3BC
100
AcDbEntity
  8
30
  6
Continuous
 62
     0
370
    -2
100
AcDbLine
 10
-2.0
 20
-172.5958749999999
 30
0.0
 11
-103.0
 21
-172.5958749999999
 31
0.0
  0
INSERT
  5
E3F3
330
E3BC
100
AcDbEntity
  8
30
  6
Continuous
 62
     0
370
    -2
100
AcDbBlockReference
  2
_OPEN
 10
-0.0000000000000019
 20
-172.5958749999999
 30
0.0
 41
2.0
 42
2.0
 43
2.0
  0
INSERT
  5
E3F4
330
E3BC
100
AcDbEntity
  8
30
  6
Continuous
 62
     0
370
    -2
100
AcDbBlockReference
  2
_OPEN
 10
-105.0
 20
-172.5958749999999
 30
0.0
 41
2.0
 42
2.0
 43
2.0
 50
180.0
  0
MTEXT
  5
E3F5
330
E3BC
100
AcDbEntity
  8
30
  6
Continuous
 62
     0
100
AcDbMText
 10
-52.50000000000007
 20
-168.5958749999999
 30
0.0
 40
6.0
 41
0.0
 71
     5
 72
     1
  1
\A1;105
 73
     1
 44
1.0
  0
POINT
  5
E3F6
330
E3BC
100
AcDbEntity
  8
DEFPOINTS
  6
Continuous
 62
     0
100
AcDbPoint
 10
-0.0000000000000001
 20
-142.9999999999999
 30
0.0
  0
POINT
  5
E3F7
330
E3BC
100
AcDbEntity
  8
DEFPOINTS
  6
Continuous
 62
     0
100
AcDbPoint
 10
-105.0
 20
-132.0
 30
0.0
  0
POINT
  5
E3F8
330
E3BC
100
AcDbEntity
  8
DEFPOINTS
  6
Continuous
 62
     0
100
AcDbPoint
 10
-105.0
 20
-172.5958749999999
 30
0.0
  0
ENDBLK
  5
E3C7
330
E3BC
100
AcDbEntity
  8
0
100
AcDbBlockEnd
  0
BLOCK
  5
E3D3
330
E3C9
100
AcDbEntity
  8
0
100
AcDbBlockBegin
  2
*D37
 70
     1
 10
0.0
 20
0.0
 30
0.0
  3
*D37
  1

  0
LINE
  5
E3E7
330
E3C9
100
AcDbEntity
  8
30
  6
Continuous
 62
     0
370
    -2
100
AcDbLine
 10
-0.0000000000000001
 20
-142.9999999999999
 30
0.0
 11
-0.0000000000000019
 21
-173.0958749999999
 31
0.0
  0
LINE
  5
E3E8
330
E3C9
100
AcDbEntity
  8
30
  6
Continuous
 62
     0
370
    -2
100
AcDbLine
 10
174.9999999999998
 20
-133.0
 30
0.0
 11
174.9999999999998
 21
-173.0958749999999
 31
0.0
  0
LINE
  5
E3E9
330
E3C9
100
AcDbEntity
  8
30
  6
Continuous
 62
     0
370
    -2
100
AcDbLine
 10
1.999999999999998
 20
-172.5958749999999
 30
0.0
 11
172.9999999999997
 21
-172.5958749999999
 31
0.0
  0
INSERT
  5
E3EA
330
E3C9
100
AcDbEntity
  8
30
  6
Continuous
 62
     0
370
    -2
100
AcDbBlockReference
  2
_OPEN
 10
-0.0000000000000019
 20
-172.5958749999999
 30
0.0
 41
2.0
 42
2.0
 43
2.0
 50
180.0
  0
INSERT
  5
E3EB
330
E3C9
100
AcDbEntity
  8
30
  6
Continuous
 62
     0
370
    -2
100
AcDbBlockReference
  2
_OPEN
 10
174.9999999999998
 20
-172.5958749999999
 30
0.0
 41
2.0
 42
2.0
 43
2.0
  0
MTEXT
  5
E3EC
330
E3C9
100
AcDbEntity
  8
30
  6
Continuous
 62
     0
100
AcDbMText
 10
87.49999999999992
 20
-168.5958749999999
 30
0.0
 40
6.0
 41
0.0
 71
     5
 72
     1
  1
\A1;175
 73
     1
 44
1.0
  0
POINT
  5
E3ED
330
E3C9
100
AcDbEntity
  8
DEFPOINTS
  6
Continuous
 62
     0
100
AcDbPoint
 10
0.0
 20
-141.9999999999999
 30
0.0
  0
POINT
  5
E3EE
330
E3C9
100
AcDbEntity
  8
DEFPOINTS
  6
Continuous
 62
     0
100
AcDbPoint
 10
174.9999999999998
 20
-132.0
 30
0.0
  0
POINT
  5
E3EF
330
E3C9
100
AcDbEntity
  8
DEFPOINTS
  6
Continuous
 62
     0
100
AcDbPoint
 10
174.9999999999998
 20
-172.5958749999999
 30
0.0
  0
ENDBLK
  5
E3D4
330
E3C9
100
AcDbEntity
  8
0
100
AcDbBlockEnd
  0
BLOCK
  5
E495
330
E48B
100
AcDbEntity
  8
0
100
AcDbBlockBegin
  2
*D38
 70
     1
 10
0.0
 20
0.0
 30
0.0
  3
*D38
  1

  0
LINE
  5
E4EE
330
E48B
100
AcDbEntity
  8
30
  6
Continuous
 62
     0
370
    -2
100
AcDbLine
 10
-0.0000000000002273
 20
516.1271619249113
 30
0.0
 11
-0.0000000000002258
 21
540.7230369249113
 31
0.0
  0
LINE
  5
E4EF
330
E48B
100
AcDbEntity
  8
30
  6
Continuous
 62
     0
370
    -2
100
AcDbLine
 10
70.0
 20
516.1271619249113
 30
0.0
 11
70.0
 21
540.7230369249113
 31
0.0
  0
LINE
  5
E4F0
330
E48B
100
AcDbEntity
  8
30
  6
Continuous
 62
     0
370
    -2
100
AcDbLine
 10
1.999999999999774
 20
540.2230369249113
 30
0.0
 11
68.0
 21
540.2230369249113
 31
0.0
  0
INSERT
  5
E4F1
330
E48B
100
AcDbEntity
  8
30
  6
Continuous
 62
     0
370
    -2
100
AcDbBlockReference
  2
_OPEN
 10
-0.0000000000002258
 20
540.2230369249113
 30
0.0
 41
2.0
 42
2.0
 43
2.0
 50
180.0
  0
INSERT
  5
E4F2
330
E48B
100
AcDbEntity
  8
30
  6
Continuous
 62
     0
370
    -2
100
AcDbBlockReference
  2
_OPEN
 10
70.0
 20
540.2230369249113
 30
0.0
 41
2.0
 42
2.0
 43
2.0
  0
MTEXT
  5
E4F3
330
E48B
100
AcDbEntity
  8
30
  6
Continuous
 62
     0
100
AcDbMText
 10
34.99999999999988
 20
544.2230369249113
 30
0.0
 40
6.0
 41
0.0
 71
     5
 72
     1
  1
\A1; 70 
 73
     1
 44
1.0
  0
POINT
  5
E4F4
330
E48B
100
AcDbEntity
  8
DEFPOINTS
  6
Continuous
 62
     0
100
AcDbPoint
 10
-0.0000000000002274
 20
515.1271619249113
 30
0.0
  0
POINT
  5
E4F5
330
E48B
100
AcDbEntity
  8
DEFPOINTS
  6
Continuous
 62
     0
100
AcDbPoint
 10
70.0
 20
515.1271619249113
 30
0.0
  0
POINT
  5
E4F6
330
E48B
100
AcDbEntity
  8
DEFPOINTS
  6
Continuous
 62
     0
100
AcDbPoint
 10
70.0
 20
540.2230369249113
 30
0.0
  0
ENDBLK
  5
E496
330
E48B
100
AcDbEntity
  8
0
100
AcDbBlockEnd
  0
BLOCK
  5
E4A1
330
E497
100
AcDbEntity
  8
0
100
AcDbBlockBegin
  2
*D39
 70
     1
 10
0.0
 20
0.0
 30
0.0
  3
*D39
  1

  0
LINE
  5
E4F7
330
E497
100
AcDbEntity
  8
30
  6
Continuous
 62
     0
370
    -2
100
AcDbLine
 10
-70.00000000000023
 20
516.1271619249113
 30
0.0
 11
-70.00000000000023
 21
540.7230369249113
 31
0.0
  0
LINE
  5
E4F8
330
E497
100
AcDbEntity
  8
30
  6
Continuous
 62
     0
370
    -2
100
AcDbLine
 10
-0.0000000000002273
 20
516.1271619249113
 30
0.0
 11
-0.0000000000002258
 21
540.7230369249113
 31
0.0
  0
LINE
  5
E4F9
330
E497
100
AcDbEntity
  8
30
  6
Continuous
 62
     0
370
    -2
100
AcDbLine
 10
-68.00000000000022
 20
540.2230369249113
 30
0.0
 11
-2.000000000000226
 21
540.2230369249113
 31
0.0
  0
INSERT
  5
E4FA
330
E497
100
AcDbEntity
  8
30
  6
Continuous
 62
     0
370
    -2
100
AcDbBlockReference
  2
_OPEN
 10
-70.00000000000023
 20
540.2230369249113
 30
0.0
 41
2.0
 42
2.0
 43
2.0
 50
180.0
  0
INSERT
  5
E4FB
330
E497
100
AcDbEntity
  8
30
  6
Continuous
 62
     0
370
    -2
100
AcDbBlockReference
  2
_OPEN
 10
-0.0000000000002258
 20
540.2230369249113
 30
0.0
 41
2.0
 42
2.0
 43
2.0
  0
MTEXT
  5
E4FC
330
E497
100
AcDbEntity
  8
30
  6
Continuous
 62
     0
100
AcDbMText
 10
-35.00000000000023
 20
544.2230369249113
 30
0.0
 40
6.0
 41
0.0
 71
     5
 72
     1
  1
\A1; 70 
 73
     1
 44
1.0
  0
POINT
  5
E4FD
330
E497
100
AcDbEntity
  8
DEFPOINTS
  6
Continuous
 62
     0
100
AcDbPoint
 10
-70.00000000000023
 20
515.1271619249113
 30
0.0
  0
POINT
  5
E4FE
330
E497
100
AcDbEntity
  8
DEFPOINTS
  6
Continuous
 62
     0
100
AcDbPoint
 10
-0.0000000000002274
 20
515.1271619249113
 30
0.0
  0
POINT
  5
E4FF
330
E497
100
AcDbEntity
  8
DEFPOINTS
  6
Continuous
 62
     0
100
AcDbPoint
 10
-0.0000000000002258
 20
540.2230369249113
 30
0.0
  0
ENDBLK
  5
E4A2
330
E497
100
AcDbEntity
  8
0
100
AcDbBlockEnd
  0
BLOCK
  5
E4AD
330
E4A3
100
AcDbEntity
  8
0
100
AcDbBlockBegin
  2
*D40
 70
     1
 10
0.0
 20
0.0
 30
0.0
  3
*D40
  1

  0
LINE
  5
E500
330
E4A3
100
AcDbEntity
  8
30
  6
Continuous
 62
     0
370
    -2
100
AcDbLine
 10
70.0
 20
516.1271619249113
 30
0.0
 11
70.0
 21
540.7230369249113
 31
0.0
  0
LINE
  5
E501
330
E4A3
100
AcDbEntity
  8
30
  6
Continuous
 62
     0
370
    -2
100
AcDbLine
 10
139.9999999999996
 20
516.1271619249113
 30
0.0
 11
139.9999999999996
 21
540.7230369249113
 31
0.0
  0
LINE
  5
E502
330
E4A3
100
AcDbEntity
  8
30
  6
Continuous
 62
     0
370
    -2
100
AcDbLine
 10
72.0
 20
540.2230369249113
 30
0.0
 11
137.9999999999997
 21
540.2230369249113
 31
0.0
  0
INSERT
  5
E503
330
E4A3
100
AcDbEntity
  8
30
  6
Continuous
 62
     0
370
    -2
100
AcDbBlockReference
  2
_OPEN
 10
70.0
 20
540.2230369249113
 30
0.0
 41
2.0
 42
2.0
 43
2.0
 50
180.0
  0
INSERT
  5
E504
330
E4A3
100
AcDbEntity
  8
30
  6
Continuous
 62
     0
370
    -2
100
AcDbBlockReference
  2
_OPEN
 10
139.9999999999996
 20
540.2230369249113
 30
0.0
 41
2.0
 42
2.0
 43
2.0
  0
MTEXT
  5
E505
330
E4A3
100
AcDbEntity
  8
30
  6
Continuous
 62
     0
100
AcDbMText
 10
104.9999999999997
 20
544.2230369249113
 30
0.0
 40
6.0
 41
0.0
 71
     5
 72
     1
  1
\A1; 70 
 73
     1
 44
1.0
  0
POINT
  5
E506
330
E4A3
100
AcDbEntity
  8
DEFPOINTS
  6
Continuous
 62
     0
100
AcDbPoint
 10
70.0
 20
515.1271619249113
 30
0.0
  0
POINT
  5
E507
330
E4A3
100
AcDbEntity
  8
DEFPOINTS
  6
Continuous
 62
     0
100
AcDbPoint
 10
139.9999999999996
 20
515.1271619249113
 30
0.0
  0
POINT
  5
E508
330
E4A3
100
AcDbEntity
  8
DEFPOINTS
  6
Continuous
 62
     0
100
AcDbPoint
 10
139.9999999999996
 20
540.2230369249113
 30
0.0
  0
ENDBLK
  5
E4AE
330
E4A3
100
AcDbEntity
  8
0
100
AcDbBlockEnd
  0
BLOCK
  5
E514
330
E50A
100
AcDbEntity
  8
0
100
AcDbBlockBegin
  2
*D41
 70
     1
 10
0.0
 20
0.0
 30
0.0
  3
*D41
  1

  0
LINE
  5
E50B
330
E50A
100
AcDbEntity
  8
30
  6
Continuous
 62
     0
370
    -2
100
AcDbLine
 10
-76.0
 20
506.1271619249112
 30
0.0
 11
-76.0
 21
517.4999999999998
 31
0.0
  0
LINE
  5
E50C
330
E50A
100
AcDbEntity
  8
30
  6
Continuous
 62
     0
370
    -2
100
AcDbLine
 10
-64.0
 20
506.1271619249112
 30
0.0
 11
-64.0
 21
517.4999999999998
 31
0.0
  0
LINE
  5
E50D
330
E50A
100
AcDbEntity
  8
30
  6
Continuous
 62
     0
370
    -2
100
AcDbLine
 10
-74.0
 20
517.0
 30
0.0
 11
-66.0
 21
517.0
 31
0.0
  0
INSERT
  5
E50E
330
E50A
100
AcDbEntity
  8
30
  6
Continuous
 62
     0
370
    -2
100
AcDbBlockReference
  2
_OPEN
 10
-76.0
 20
517.0
 30
0.0
 41
2.0
 42
2.0
 43
2.0
 50
180.0
  0
INSERT
  5
E50F
330
E50A
100
AcDbEntity
  8
30
  6
Continuous
 62
     0
370
    -2
100
AcDbBlockReference
  2
_OPEN
 10
-64.0
 20
517.0
 30
0.0
 41
2.0
 42
2.0
 43
2.0
  0
MTEXT
  5
E510
330
E50A
100
AcDbEntity
  8
30
  6
Continuous
 62
     0
100
AcDbMText
 10
-70.0
 20
521.0
 30
0.0
 40
6.0
 41
0.0
 71
     5
 72
     1
  1
\A1;12
 73
     1
 44
1.0
  0
POINT
  5
E511
330
E50A
100
AcDbEntity
  8
DEFPOINTS
  6
Continuous
 62
     0
100
AcDbPoint
 10
-76.0
 20
505.1271619249113
 30
0.0
  0
POINT
  5
E512
330
E50A
100
AcDbEntity
  8
DEFPOINTS
  6
Continuous
 62
     0
100
AcDbPoint
 10
-64.0
 20
505.1271619249113
 30
0.0
  0
POINT
  5
E513
330
E50A
100
AcDbEntity
  8
DEFPOINTS
  6
Continuous
 62
     0
100
AcDbPoint
 10
-64.0
 20
517.0
 30
0.0
  0
ENDBLK
  5
E515
330
E50A
100
AcDbEntity
  8
0
100
AcDbBlockEnd
  0
BLOCK
  5
E528
330
E51E
100
AcDbEntity
  8
0
100
AcDbBlockBegin
  2
*D42
 70
     1
 10
0.0
 20
0.0
 30
0.0
  3
*D42
  1

  0
LINE
  5
E51F
330
E51E
100
AcDbEntity
  8
30
  6
Continuous
 62
     0
370
    -2
100
AcDbLine
 10
530.0
 20
-110.4999999999997
 30
0.0
 11
551.4999999999998
 21
-110.4999999999997
 31
0.0
  0
LINE
  5
E520
330
E51E
100
AcDbEntity
  8
30
  6
Continuous
 62
     0
370
    -2
100
AcDbLine
 10
529.9999999999998
 20
-123.4999999999997
 30
0.0
 11
551.4999999999998
 21
-123.4999999999997
 31
0.0
  0
LINE
  5
E521
330
E51E
100
AcDbEntity
  8
30
  6
Continuous
 62
     0
370
    -2
100
AcDbLine
 10
551.0
 20
-112.4999999999998
 30
0.0
 11
551.0
 21
-121.4999999999997
 31
0.0
  0
INSERT
  5
E522
330
E51E
100
AcDbEntity
  8
30
  6
Continuous
 62
     0
370
    -2
100
AcDbBlockReference
  2
_OPEN
 10
551.0
 20
-110.4999999999997
 30
0.0
 41
2.0
 42
2.0
 43
2.0
 50
90.0
  0
INSERT
  5
E523
330
E51E
100
AcDbEntity
  8
30
  6
Continuous
 62
     0
370
    -2
100
AcDbBlockReference
  2
_OPEN
 10
551.0
 20
-123.4999999999997
 30
0.0
 41
2.0
 42
2.0
 43
2.0
 50
270.0
  0
MTEXT
  5
E524
330
E51E
100
AcDbEntity
  8
30
  6
Continuous
 62
     0
100
AcDbMText
 10
547.0
 20
-116.9999999999997
 30
0.0
 40
6.0
 41
0.0
 71
     5
 72
     1
  1
\A1;13
 11
0.0000000000000001
 21
1.0
 31
0.0
 73
     1
 44
1.0
  0
POINT
  5
E525
330
E51E
100
AcDbEntity
  8
DEFPOINTS
  6
Continuous
 62
     0
100
AcDbPoint
 10
529.0
 20
-110.4999999999997
 30
0.0
  0
POINT
  5
E526
330
E51E
100
AcDbEntity
  8
DEFPOINTS
  6
Continuous
 62
     0
100
AcDbPoint
 10
528.9999999999999
 20
-123.4999999999997
 30
0.0
  0
POINT
  5
E527
330
E51E
100
AcDbEntity
  8
DEFPOINTS
  6
Continuous
 62
     0
100
AcDbPoint
 10
551.0
 20
-123.4999999999997
 30
0.0
  0
ENDBLK
  5
E529
330
E51E
100
AcDbEntity
  8
0
100
AcDbBlockEnd
  0
ENDSEC
  0
SECTION
  2
ENTITIES
  0
MTEXT
  5
BF3
330
1E
100
AcDbEntity
  8
24
  6
Continuous
100
AcDbMText
 10
-959.1964146395261
 20
176.6241271810525
 30
0.0
 40
3.0
 41
0.0
 71
     1
 72
     1
  1
\A1;
 73
     1
 44
1.0
  0
MTEXT
  5
5C78
330
1E
100
AcDbEntity
  8
30
  6
Continuous
100
AcDbMText
 10
-937.8487462462183
 20
89.27438432631687
 30
0.0
 40
4.0
 41
0.0
 71
     9
 72
     1
  1

 73
     1
 44
1.0
  0
MTEXT
  5
6200
330
1E
100
AcDbEntity
  8
30
  6
Continuous
100
AcDbMText
 10
-939.5495044815866
 20
91.5141847924192
 30
0.0
 40
4.0
 41
0.0
 71
     9
 72
     1
  1

 73
     1
 44
1.0
  0
MTEXT
  5
7CA7
330
1E
100
AcDbEntity
  8
30
  6
Continuous
100
AcDbMText
 10
-889.3098634446728
 20
139.7980610970651
 30
0.0
 40
4.0
 41
0.0
 71
     9
 72
     1
  1
\A1;
 73
     1
 44
1.0
  0
MTEXT
  5
7CA9
330
1E
100
AcDbEntity
  8
30
  6
Continuous
100
AcDbMText
 10
-882.5696240950307
 20
137.0851630158117
 30
0.0
 40
4.0
 41
0.0
 71
     9
 72
     1
  1
\A1;
 73
     1
 44
1.0
  0
MTEXT
  5
7E8C
330
1E
100
AcDbEntity
  8
19
  6
Continuous
100
AcDbMText
 10
467.0271133366655
 20
258.0232394114066
 30
0.0
 40
5.0
 41
75.9755525904107
 71
     1
 72
     5
  1
S1000-CE 4P RC\PS1000-NN 4P RC
  7
STANDARD1
 73
     1
 44
1.0
  0
LINE
  5
9F3A
330
1E
100
AcDbEntity
  8
16
100
AcDbLine
 10
0.0
 20
-141.9999999999999
 30
0.0
 11
0.0
 21
151.0
 31
0.0
  0
LINE
  5
9FA8
330
1E
100
AcDbEntity
  8
16
100
AcDbLine
 10
184.9999999999996
 20
0.0
 30
0.0
 11
-114.5999999999999
 21
0.0
 31
0.0
  0
DIMENSION
  5
B8A7
330
1E
100
AcDbEntity
  8
30
  6
Continuous
100
AcDbDimension
  2
*D1
 10
463.0
 20
-209.0
 30
0.0
 11
409.4999999999997
 21
-205.0
 31
0.0
 70
    32
  1
 <> 
 71
     5
 42
107.0
  3
STANDARD
100
AcDbAlignedDimension
 13
356.0
 23
-44.99999999999993
 33
0.0
 14
463.0
 24
141.0
 34
0.0
100
AcDbRotatedDimension
1001
ACAD
1000
DSTYLE
1002
{
1070
    79
1070
     3
1002
}
  0
DIMENSION
  5
B8A9
330
1E
100
AcDbEntity
  8
30
  6
Continuous
100
AcDbDimension
  2
*D2
 10
356.0
 20
-209.0
 30
0.0
 11
343.1999999999998
 21
-209.0
 31
0.0
 70
   160
  1
 <> 
 71
     5
 42
4.0
  3
STANDARD
100
AcDbAlignedDimension
 13
352.0
 23
-0.4999999999999433
 33
0.0
 14
356.0
 24
-49.99999999999993
 34
0.0
100
AcDbRotatedDimension
1001
ACAD
1000
DSTYLE
1002
{
1070
   172
1070
     1
1070
    79
1070
     3
1002
}
  0
DIMENSION
  5
B8AA
330
1E
100
AcDbEntity
  8
30
  6
Continuous
100
AcDbDimension
  2
*D3
 10
463.0
 20
-231.0958749999997
 30
0.0
 11
390.5
 21
-227.0958749999997
 31
0.0
 70
    32
  1
 <> 
 71
     5
 42
145.0
  3
STANDARD
100
AcDbAlignedDimension
 13
318.0
 23
0.0000000000000568
 33
0.0
 14
463.0
 24
-186.9999999999999
 34
0.0
100
AcDbRotatedDimension
1001
ACAD
1000
DSTYLE
1002
{
1070
    79
1070
     3
1002
}
  0
DIMENSION
  5
B8AB
330
1E
100
AcDbEntity
  8
30
  6
Continuous
100
AcDbDimension
  2
*D4
 10
237.4989299999997
 20
-231.5958749999998
 30
0.0
 11
277.7494649999999
 21
-227.5958749999998
 31
0.0
 70
    33
  1
 <> 
 71
     5
 42
80.50107000000009
  3
STANDARD
100
AcDbAlignedDimension
 13
318.0
 23
4.999999999999943
 33
0.0
 14
237.4989299999999
 24
4.999999999999943
 34
0.0
1001
ACAD
1000
DSTYLE
1002
{
1070
    79
1070
     3
1002
}
  0
DIMENSION
  5
BABE
330
1E
100
AcDbEntity
  8
30
  6
Continuous
100
AcDbDimension
  2
*D6
 10
463.0
 20
-190.0
 30
0.0
 11
411.5
 21
-186.0
 31
0.0
 70
    32
  1
 <> 
 71
     5
 42
103.0
  3
STANDARD
100
AcDbAlignedDimension
 13
360.0
 23
-44.99999999999993
 33
0.0
 14
463.0
 24
141.0
 34
0.0
100
AcDbRotatedDimension
1001
ACAD
1000
DSTYLE
1002
{
1070
    79
1070
     3
1002
}
  0
DIMENSION
  5
BABF
330
1E
100
AcDbEntity
  8
30
  6
Continuous
100
AcDbDimension
  2
*D7
 10
619.5538999999999
 20
0.0000000000000179
 30
0.0
 11
615.5538999999999
 21
63.00000000000019
 31
0.0
 70
    32
  1
 <> 
 71
     0
 72
     0
 41
0.0
 42
126.0000000000001
  3
STANDARD
100
AcDbAlignedDimension
 13
570.0
 23
126.0000000000001
 33
0.0
 14
482.0
 24
0.0000000000000568
 34
0.0
 50
90.0
100
AcDbRotatedDimension
1001
ACAD
1000
DSTYLE
1002
{
1070
    79
1070
     3
1002
}
  0
LINE
  5
BAC8
330
1E
100
AcDbEntity
  8
17
100
AcDbLine
 10
533.0
 20
-85.49999999999995
 30
0.0
 11
533.0
 21
-148.4999999999999
 31
0.0
  0
LINE
  5
BAC9
330
1E
100
AcDbEntity
  8
17
100
AcDbLine
 10
565.0
 20
-85.49999999999995
 30
0.0
 11
565.0
 21
-148.4999999999999
 31
0.0
  0
LINE
  5
BACA
330
1E
100
AcDbEntity
  8
17
100
AcDbLine
 10
525.0
 20
-85.49999999999995
 30
0.0
 11
525.0
 21
-148.4999999999999
 31
0.0
  0
LINE
  5
BAD3
330
1E
100
AcDbEntity
  8
12
  6
DASHED
100
AcDbLine
 10
426.6999999999998
 20
-116.9999999999999
 30
0.0
 11
479.0
 21
-116.9999999999999
 31
0.0
  0
DIMENSION
  5
BAE1
330
1E
100
AcDbEntity
  8
30
  6
Continuous
100
AcDbDimension
  2
*D8
 10
463.0
 20
-72.09587499999992
 30
0.0
 11
449.0
 21
-68.09587499999992
 31
0.0
 70
    32
  1
 <> 
 71
     5
 42
28.0
  3
STANDARD
100
AcDbAlignedDimension
 13
435.0
 23
-103.7499999999998
 33
0.0
 14
463.0
 24
-78.34587499999989
 34
0.0
100
AcDbRotatedDimension
1001
ACAD
1000
DSTYLE
1002
{
1070
    79
1070
     3
1002
}
  0
DIMENSION
  5
BAE4
330
1E
100
AcDbEntity
  8
30
  6
Continuous
100
AcDbDimension
  2
*D9
 10
463.0
 20
-72.09587499999992
 30
0.0
 11
484.8676179071153
 21
-72.09587499999992
 31
0.0
 70
   160
  1
 <> 
 71
     5
 42
13.0
  3
STANDARD
100
AcDbAlignedDimension
 13
476.0
 23
-107.9999999999998
 33
0.0
 14
463.0
 24
-78.34587499999989
 34
0.0
100
AcDbRotatedDimension
1001
ACAD
1000
DSTYLE
1002
{
1070
    79
1070
     3
1002
}
  0
DIMENSION
  5
BAE5
330
1E
100
AcDbEntity
  8
30
  6
Continuous
100
AcDbDimension
  2
*D10
 10
609.5538999999997
 20
-139.4999999999999
 30
0.0
 11
605.5538999999997
 21
-116.9999999999997
 31
0.0
 70
    32
  1
 <> 
 71
     0
 72
     0
 41
0.0
 42
44.99999999999999
  3
STANDARD
100
AcDbAlignedDimension
 13
589.0
 23
-94.49999999999993
 33
0.0
 14
589.0
 24
-139.4999999999999
 34
0.0
 50
90.0
100
AcDbRotatedDimension
1001
ACAD
1000
DSTYLE
1002
{
1070
    79
1070
     3
1002
}
  0
LINE
  5
BAE6
330
1E
100
AcDbEntity
  8
17
100
AcDbLine
 10
587.0
 20
-116.9999999999999
 30
0.0
 11
463.0
 21
-116.9999999999999
 31
0.0
  0
CIRCLE
  5
BAE8
330
1E
100
AcDbEntity
  8
17
  6
CONTINOUS
100
AcDbCircle
 10
565.0
 20
-116.9999999999999
 30
0.0
 40
6.499999999999997
  0
LINE
  5
BAFD
330
1E
100
AcDbEntity
  8
10
  6
CONTINOUS
100
AcDbLine
 10
356.0
 20
-45.0
 30
0.0
 11
356.0
 21
44.99999999999997
 31
0.0
  0
ARC
  5
BAFE
330
1E
100
AcDbEntity
  8
30
  6
Continuous
100
AcDbCircle
 10
463.0
 20
5.0
 30
0.0
 40
127.4999999999999
100
AcDbArc
 50
169.3042220000006
 51
180.0
  0
ARC
  5
BB00
330
1E
100
AcDbEntity
  8
30
  6
Continuous
100
AcDbCircle
 10
463.0
 20
5.0
 30
0.0
 40
144.9999999999999
100
AcDbArc
 50
169.3042220000006
 51
180.0
  0
ARC
  5
BB01
330
1E
100
AcDbEntity
  8
30
  6
Continuous
100
AcDbCircle
 10
463.0018205528718
 20
3.806184726795841
 30
0.0
 40
225.506055567552
100
AcDbArc
 50
165.1394483099086
 51
179.6966782288776
  0
LINE
  5
BB02
330
1E
100
AcDbEntity
  8
16
100
AcDbLine
 10
477.0
 20
0.0
 30
0.0
 11
300.5999999999999
 21
0.0
 31
0.0
  0
LINE
  5
BB09
330
1E
100
AcDbEntity
  8
10
  6
CONTINOUS
100
AcDbLine
 10
345.8159049999999
 20
44.57905000000007
 30
0.0
 11
321.3530049999998
 21
53.38623500000007
 31
0.0
  0
ARC
  5
BB0A
330
1E
100
AcDbEntity
  8
10
  6
CONTINOUS
100
AcDbCircle
 10
261.4035699999999
 20
61.04623500000013
 30
0.0
 40
15.99999999999999
100
AcDbArc
 50
19.39509599999932
 51
301.0049040000016
  0
LINE
  5
BB0B
330
1E
100
AcDbEntity
  8
10
  6
CONTINOUS
100
AcDbLine
 10
324.258305
 20
45.21927999999999
 30
0.0
 11
319.9224599999997
 21
33.17600499999996
 31
0.0
  0
LINE
  5
BB0C
330
1E
100
AcDbEntity
  8
10
  6
CONTINOUS
100
AcDbLine
 10
336.9409699999995
 20
19.92797499999993
 30
0.0
 11
312.4780699999998
 21
28.73515999999993
 31
0.0
  0
LINE
  5
BB0D
330
1E
100
AcDbEntity
  8
10
  6
CONTINOUS
100
AcDbLine
 10
352.2898699999998
 20
21.52302000000003
 30
0.0
 11
319.9224599999997
 21
33.17600499999996
 31
0.0
  0
LINE
  5
BB0E
330
1E
100
AcDbEntity
  8
10
  6
CONTINOUS
100
AcDbLine
 10
276.4926849999999
 20
47.536625
 30
0.0
 11
312.4780699999998
 21
28.73515999999993
 31
0.0
  0
ARC
  5
BB0F
330
1E
100
AcDbEntity
  8
10
  6
CONTINOUS
100
AcDbCircle
 10
-273.2511349999999
 20
41.33240499999995
 30
0.0
 40
6.999999999999997
210
0.0
220
0.0
230
-1.0
100
AcDbArc
 50
58.99509599999825
 51
117.5859390000052
  0
LINE
  5
BB10
330
1E
100
AcDbEntity
  8
10
  6
CONTINOUS
100
AcDbLine
 10
348.2244749999998
 20
39.46057499999993
 30
0.0
 11
342.0594449999998
 21
22.33654499999997
 31
0.0
  0
LINE
  5
BB11
330
1E
100
AcDbEntity
  8
10
  6
CONTINOUS
100
AcDbLine
 10
339.5343949999996
 20
37.16874500000017
 30
0.0
 11
336.8244899999999
 21
29.64169999999994
 31
0.0
  0
LINE
  5
BB12
330
1E
100
AcDbEntity
  8
10
  6
CONTINOUS
100
AcDbLine
 10
352.3819849999998
 20
24.04065499999999
 30
0.0
 11
336.8244899999999
 21
29.64169999999994
 31
0.0
  0
ARC
  5
BB13
330
1E
100
AcDbEntity
  8
10
  6
CONTINOUS
100
AcDbCircle
 10
338.29592
 20
23.69150000000003
 30
0.0
 40
3.999999999999998
100
AcDbArc
 50
250.2000000000051
 51
340.2
  0
LINE
  5
BB15
330
1E
100
AcDbEntity
  8
10
  6
CONTINOUS
100
AcDbLine
 10
352.7790399999998
 20
32.40037999999982
 30
0.0
 11
339.5343949999996
 21
37.16874500000017
 31
0.0
  0
LINE
  5
BB17
330
1E
100
AcDbEntity
  8
10
  6
CONTINOUS
100
AcDbLine
 10
352.924935
 20
34.89865500000005
 30
0.0
 11
324.258305
 21
45.21927999999999
 31
0.0
  0
ARC
  5
BB18
330
1E
100
AcDbEntity
  8
10
  6
CONTINOUS
100
AcDbCircle
 10
344.4609499999998
 20
40.81552999999995
 30
0.0
 40
3.999999999999998
100
AcDbArc
 50
340.2
 51
70.20000000000518
  0
LINE
  5
BB19
330
1E
100
AcDbEntity
  8
10
  6
CONTINOUS
100
AcDbLine
 10
281.6412849999998
 20
61.83740999999995
 30
0.0
 11
321.3530049999998
 21
53.38623500000007
 31
0.0
  0
ARC
  5
BB1A
330
1E
100
AcDbEntity
  8
10
  6
CONTINOUS
100
AcDbCircle
 10
283.0983449999998
 20
68.68408499999998
 30
0.0
 40
6.999999999999997
100
AcDbArc
 50
199.3950959999986
 51
257.9859389999948
  0
LINE
  5
BB3B
330
1E
100
AcDbEntity
  8
17
100
AcDbLine
 10
565.0
 20
157.4999999999999
 30
0.0
 11
565.0
 21
94.50000000000001
 31
0.0
  0
LINE
  5
BB3D
330
1E
100
AcDbEntity
  8
17
100
AcDbLine
 10
533.0
 20
157.4999999999999
 30
0.0
 11
533.0
 21
94.50000000000001
 31
0.0
  0
LINE
  5
BB3E
330
1E
100
AcDbEntity
  8
17
100
AcDbLine
 10
525.0
 20
157.4999999999999
 30
0.0
 11
525.0
 21
94.50000000000001
 31
0.0
  0
CIRCLE
  5
BB42
330
1E
100
AcDbEntity
  8
17
  6
CONTINOUS
100
AcDbCircle
 10
565.0
 20
126.0
 30
0.0
 40
6.499999999999997
  0
DIMENSION
  5
BB43
330
1E
100
AcDbEntity
  8
30
  6
Continuous
100
AcDbDimension
  2
*D5
 10
567.0520175221894
 20
-123.2575951651297
 30
0.0
 11
541.0
 21
-68.99999999999995
 31
0.0
 70
   163
 71
     5
 42
13.00000092804684
  3
STANDARD
100
AcDbDiametricDimension
 15
562.947982477811
 25
-110.9224048348701
 35
0.0
 40
0.0
1001
ACAD
1000
DSTYLE
1002
{
1070
    79
1070
     3
1002
}
  0
LINE
  5
BB45
330
1E
100
AcDbEntity
  8
17
100
AcDbLine
 10
595.0
 20
126.0
 30
0.0
 11
463.0
 21
126.0
 31
0.0
  0
LWPOLYLINE
  5
C3A4
330
1E
100
AcDbEntity
  8
10
  6
CONTINOUS
100
AcDbPolyline
 90
        4
 70
     0
 43
0.0
 10
360.0
 20
44.99999999999997
 10
353.0
 20
44.99999999999997
 10
353.0
 20
-45.0
 10
360.0
 20
-45.0
  0
LWPOLYLINE
  5
C3A5
330
1E
100
AcDbEntity
  8
10
  6
CONTINOUS
100
AcDbPolyline
 90
       13
 70
     0
 43
0.0
 10
463.0
 20
141.0
 10
366.0
 20
141.0
 10
366.0
 20
116.0
 10
363.5
 20
116.0
 10
363.5
 20
55.49999999999993
 10
360.0
 20
55.49999999999993
 10
360.0
 20
-46.4999999999999
 10
363.5
 20
-46.4999999999999
 10
363.5
 20
-107.0
 10
366.0
 20
-107.0
 10
366.0
 20
-131.9999999999999
 10
463.0
 20
-131.9999999999999
 10
463.0
 20
141.0
  0
LWPOLYLINE
  5
C3A8
330
1E
100
AcDbEntity
  8
18
100
AcDbPolyline
 90
        6
 70
     0
 43
0.0
 10
463.0
 20
146.0
 10
463.0
 20
191.0
 10
468.0000017885786
 20
191.0000012971246
 10
468.0000017885786
 20
-181.9999987028754
 10
463.0000017885781
 20
-181.9999987028754
 10
463.0
 20
-136.9999999999999
  0
LWPOLYLINE
  5
C3EC
330
1E
100
AcDbEntity
  8
12
  6
DASHED
100
AcDbPolyline
 90
        4
 70
     0
 43
0.0
 10
366.0
 20
-108.7499999999999
 10
435.0
 20
-108.7499999999999
 10
435.0
 20
-125.2499999999997
 10
366.0
 20
-125.2499999999997
  0
LWPOLYLINE
  5
C3ED
330
1E
100
AcDbEntity
  8
12
  6
DASHED
100
AcDbPolyline
 90
        6
 70
     0
 43
0.0
 10
435.0
 20
-108.9999999999997
 10
434.3299999999998
 20
-108.9999999999997
 42
0.4142135623730862
 10
429.0
 20
-114.3299999999999
 10
429.0
 20
-119.6699999999998
 42
0.4142135623730919
 10
434.3299999999998
 20
-124.9999999999999
 10
435.0
 20
-124.9999999999999
  0
LWPOLYLINE
  5
C3EF
330
1E
100
AcDbEntity
  8
12
  6
DASHED
100
AcDbPolyline
 90
        4
 70
     0
 43
0.0
 10
435.0
 20
-112.9999999999999
 10
476.0
 20
-112.9999999999999
 10
476.0000000000001
 20
-120.9999999999999
 10
435.0
 20
-120.9999999999999
  0
LWPOLYLINE
  5
C3FA
330
1E
100
AcDbEntity
  8
21
  6
Continuous
100
AcDbPolyline
 90
        4
 70
     0
 43
0.0
 10
463.0
 20
137.7999999999999
 10
500.0
 20
137.7999999999999
 10
500.0
 20
114.1999999999999
 10
463.0
 20
114.1999999999999
  0
LWPOLYLINE
  5
C3FB
330
1E
100
AcDbEntity
  8
17
  6
CONTINOUS
100
AcDbPolyline
 90
        5
 70
     1
 43
0.0
 10
533.0
 20
132.4999999999999
 10
525.0
 20
132.4999999999999
 42
0.9999999999999998
 10
525.0
 20
119.5
 10
533.0
 20
119.4999999999998
 42
1.000000000000005
 10
533.0
 20
132.4999999999999
  0
LWPOLYLINE
  5
C3FD
330
1E
100
AcDbEntity
  8
21
  6
Continuous
100
AcDbPolyline
 90
       10
 70
     0
 43
0.0
 10
495.0
 20
114.1999999999999
 10
495.0
 20
104.4999999999999
 42
0.414213562373095
 10
496.0
 20
103.4999999999999
 10
584.0
 20
103.4999999999999
 42
0.4142135623730951
 10
585.0
 20
104.4999999999999
 10
585.0
 20
147.4999999999999
 42
0.4142135623730702
 10
584.0
 20
148.5
 10
496.0
 20
148.5
 42
0.41421356237312
 10
495.0
 20
147.4999999999999
 10
495.0
 20
137.7999999999999
  0
DIMENSION
  5
C3FF
330
1E
100
AcDbEntity
  8
30
  6
Continuous
100
AcDbDimension
  2
*D11
 10
619.5538999999999
 20
-116.9999999999999
 30
0.0
 11
615.5538999999999
 21
-58.49999999999988
 31
0.0
 70
    32
 71
     5
 42
117.0
  3
STANDARD
100
AcDbAlignedDimension
 13
482.0
 23
0.0000000000000568
 33
0.0
 14
609.5538999999997
 24
-116.9999999999999
 34
0.0
 50
90.0
100
AcDbRotatedDimension
1001
ACAD
1000
DSTYLE
1002
{
1070
    79
1070
     3
1002
}
  0
LWPOLYLINE
  5
C40C
330
1E
100
AcDbEntity
  8
21
  6
Continuous
100
AcDbPolyline
 90
        4
 70
     0
 43
0.0
 10
463.0
 20
-105.1999999999999
 10
500.0
 20
-105.1999999999999
 10
500.0
 20
-128.7999999999998
 10
463.0
 20
-128.7999999999998
  0
LWPOLYLINE
  5
C40D
330
1E
100
AcDbEntity
  8
21
  6
Continuous
100
AcDbPolyline
 90
       10
 70
     0
 43
0.0
 10
495.0
 20
-128.7999999999998
 10
495.0
 20
-138.4999999999998
 42
0.414213562373095
 10
496.0
 20
-139.4999999999998
 10
584.0
 20
-139.4999999999998
 42
0.4142135623730951
 10
585.0
 20
-138.4999999999998
 10
585.0
 20
-95.49999999999995
 42
0.4142135623730702
 10
584.0
 20
-94.49999999999986
 10
496.0
 20
-94.49999999999986
 42
0.41421356237312
 10
495.0
 20
-95.49999999999995
 10
495.0
 20
-105.1999999999999
  0
LWPOLYLINE
  5
C40E
330
1E
100
AcDbEntity
  8
17
  6
CONTINOUS
100
AcDbPolyline
 90
        5
 70
     1
 43
0.0
 10
533.0
 20
-110.4999999999997
 10
525.0
 20
-110.4999999999997
 42
0.9999999999999998
 10
525.0
 20
-123.4999999999997
 10
533.0
 20
-123.4999999999998
 42
1.000000000000005
 10
533.0
 20
-110.4999999999997
  0
DIMENSION
  5
C8F9
330
1E
100
AcDbEntity
  8
30
  6
Continuous
100
AcDbDimension
  2
*D12
 10
-118.1986045047435
 20
-45.00000000000011
 30
0.0
 11
-122.1986045047435
 21
-0.0000000000000917
 31
0.0
 70
    32
 71
     5
 42
90.0000000000001
  3
STANDARD
100
AcDbAlignedDimension
 13
-104.6
 23
44.99999999999997
 33
0.0
 14
-104.6
 24
-45.00000000000013
 34
0.0
 50
90.0
100
AcDbRotatedDimension
1001
ACAD
1000
DSTYLE
1002
{
1070
    79
1070
     3
1002
}
  0
DIMENSION
  5
C8FA
330
1E
100
AcDbEntity
  8
30
  6
Continuous
100
AcDbDimension
  2
*D13
 10
-137.4479123954374
 20
-46.49999999999989
 30
0.0
 11
-141.4479123954374
 21
4.5
 31
0.0
 70
    32
 71
     5
 42
101.9999999999997
  3
STANDARD
100
AcDbAlignedDimension
 13
-104.6
 23
55.49999999999993
 33
0.0
 14
-104.6
 24
-46.4999999999999
 34
0.0
 50
90.0
100
AcDbRotatedDimension
1001
ACAD
1000
DSTYLE
1002
{
1070
    79
1070
     3
1002
}
  0
DIMENSION
  5
C8FB
330
1E
100
AcDbEntity
  8
30
  6
Continuous
100
AcDbDimension
  2
*D14
 10
-150.1191388944173
 20
-131.9999999999999
 30
0.0
 11
-154.1191388944173
 21
4.500000000000008
 31
0.0
 70
    32
 71
     5
 42
273.0
  3
STANDARD
100
AcDbAlignedDimension
 13
-104.6000000000002
 23
141.0
 33
0.0
 14
-104.6
 24
-131.9999999999999
 34
0.0
 50
90.0
100
AcDbRotatedDimension
1001
ACAD
1000
DSTYLE
1002
{
1070
    79
1070
     3
1002
}
  0
DIMENSION
  5
D80C
330
1E
100
AcDbEntity
  8
30
  6
Continuous
100
AcDbDimension
  2
*D15
 10
585.0
 20
-208.5670221558808
 30
0.0
 11
524.0
 21
-204.5670221558808
 31
0.0
 70
    32
 71
     5
 42
122.0
  3
STANDARD
100
AcDbAlignedDimension
 13
463.0
 23
-208.5670221558808
 33
0.0
 14
585.0
 24
-138.4999999999998
 34
0.0
100
AcDbRotatedDimension
1001
ACAD
1000
DSTYLE
1002
{
1070
    79
1070
     3
1002
}
  0
DIMENSION
  5
D80D
330
1E
100
AcDbEntity
  8
30
  6
Continuous
100
AcDbDimension
  2
*D16
 10
525.0
 20
-190.5
 30
0.0
 11
494.0
 21
-186.5
 31
0.0
 70
    32
 71
     5
 42
62.0
  3
STANDARD
100
AcDbAlignedDimension
 13
463.0
 23
-190.5
 33
0.0
 14
525.0
 24
-148.4999999999999
 34
0.0
100
AcDbRotatedDimension
1001
ACAD
1000
DSTYLE
1002
{
1070
    79
1070
     3
1002
}
  0
DIMENSION
  5
D80E
330
1E
100
AcDbEntity
  8
30
  6
Continuous
100
AcDbDimension
  2
*D17
 10
565.0
 20
-190.5
 30
0.0
 11
553.0
 21
-190.5
 31
0.0
 70
   160
 71
     5
 42
32.0
  3
STANDARD
100
AcDbAlignedDimension
 13
533.0
 23
-148.4999999999999
 33
0.0
 14
565.0
 24
-123.4999999999998
 34
0.0
100
AcDbRotatedDimension
1001
ACAD
1000
DSTYLE
1002
{
1070
    79
1070
     3
1002
}
  0
DIMENSION
  5
D80F
330
1E
100
AcDbEntity
  8
30
  6
Continuous
100
AcDbDimension
  2
*D18
 10
533.0
 20
-190.5
 30
0.0
 11
529.0
 21
-190.5
 31
0.0
 70
   160
 71
     5
 42
8.0
  3
STANDARD
100
AcDbAlignedDimension
 13
525.0
 23
-151.4999999999999
 33
0.0
 14
533.0
 24
-171.0
 34
0.0
100
AcDbRotatedDimension
1001
ACAD
1000
DSTYLE
1002
{
1070
    79
1070
     3
1002
}
  0
DIMENSION
  5
D810
330
1E
100
AcDbEntity
  8
30
  6
Continuous
100
AcDbDimension
  2
*D19
 10
585.0
 20
-190.0
 30
0.0
 11
575.0
 21
-186.0
 31
0.0
 70
    32
 71
     5
 42
20.0
  3
STANDARD
100
AcDbAlignedDimension
 13
565.0
 23
-148.4999999999999
 33
0.0
 14
585.0
 24
-157.4467112499683
 34
0.0
100
AcDbRotatedDimension
1001
ACAD
1000
DSTYLE
1002
{
1070
    79
1070
     3
1002
}
  0
LINE
  5
DC03
330
1E
100
AcDbEntity
  8
12
  6
DASHED
100
AcDbLine
 10
-100.5000000000003
 20
-227.7235549737854
 30
0.0
 11
-39.50000000000045
 21
-227.7235549737854
 31
0.0
  0
LINE
  5
DC04
330
1E
100
AcDbEntity
  8
16
100
AcDbLine
 10
184.9999999999995
 20
-353.7235549737853
 30
0.0
 11
-114.6000000000003
 21
-353.7235549737853
 31
0.0
  0
ARC
  5
DC05
330
1E
100
AcDbEntity
  8
12
  6
DASHED
100
AcDbCircle
 10
-70.0
 20
-227.7235549737854
 30
0.0
 40
25.49999999999998
100
AcDbArc
 50
36.03187900000065
 51
23.08877199999646
  0
LINE
  5
DC06
330
1E
100
AcDbEntity
  8
12
  6
DASHED
100
AcDbLine
 10
-100.5000000000003
 20
-470.7235549737853
 30
0.0
 11
-39.50000000000045
 21
-470.7235549737853
 31
0.0
  0
ARC
  5
DC07
330
1E
100
AcDbEntity
  8
12
  6
DASHED
100
AcDbCircle
 10
70.0
 20
-470.7235549737853
 30
0.0
 40
25.49999999999998
210
0.0
220
0.0
230
-1.0
100
AcDbArc
 50
216.0318790000006
 51
203.0887719999964
  0
DIMENSION
  5
DC08
330
1E
100
AcDbEntity
  8
30
  6
Continuous
100
AcDbDimension
  2
*D20
 10
-0.0000000000004569
 20
-555.8194299737853
 30
0.0
 11
-35.00000000000044
 21
-551.8194299737853
 31
0.0
 70
    32
  1
 <> 
 71
     5
 42
70.0
  3
STANDARD
100
AcDbAlignedDimension
 13
-70.00000000000046
 23
-556.3194299737853
 33
0.0
 14
-0.0000000000004548
 24
-521.8194299737851
 34
0.0
100
AcDbRotatedDimension
1001
ACAD
1000
DSTYLE
1002
{
1070
    79
1070
     3
1002
}
  0
LINE
  5
DC09
330
1E
100
AcDbEntity
  8
12
  6
DASHED
100
AcDbLine
 10
-70.0
 20
-501.2235549737853
 30
0.0
 11
-70.0
 21
-440.2235549737853
 31
0.0
  0
DIMENSION
  5
DC0A
330
1E
100
AcDbEntity
  8
30
  6
Continuous
100
AcDbDimension
  2
*D21
 10
-113.0000000000004
 20
-555.8194299737853
 30
0.0
 11
-91.50000000000046
 21
-551.8194299737853
 31
0.0
 70
    32
  1
 <> 
 71
     5
 42
43.0
  3
STANDARD
100
AcDbAlignedDimension
 13
-70.00000000000046
 23
-475.7235549737853
 33
0.0
 14
-113.0000000000004
 24
-327.2235549737851
 34
0.0
100
AcDbRotatedDimension
1001
ACAD
1000
DSTYLE
1002
{
1070
    79
1070
     3
1002
}
  0
CIRCLE
  5
DC0B
330
1E
100
AcDbEntity
  8
12
  6
DASHED
100
AcDbCircle
 10
113.0000000000004
 20
-322.2235549737851
 30
0.0
 40
7.499999999999997
210
0.0
220
0.0
230
-1.0
  0
LINE
  5
DC0C
330
1E
100
AcDbEntity
  8
1
  6
CENTER
 62
     3
 48
1.666666999999999
100
AcDbLine
 10
-113.0000000000004
 20
-334.7235549737851
 30
0.0
 11
-113.0000000000004
 21
-309.7235549737851
 31
0.0
  0
LINE
  5
DC0D
330
1E
100
AcDbEntity
  8
12
  6
DASHED
100
AcDbLine
 10
-125.5000000000004
 20
-322.2235549737851
 30
0.0
 11
-100.5000000000003
 21
-322.2235549737851
 31
0.0
  0
LINE
  5
DC0E
330
1E
100
AcDbEntity
  8
12
  6
DASHED
100
AcDbLine
 10
-70.0
 20
-258.2235549737853
 30
0.0
 11
-70.0
 21
-197.2235549737853
 31
0.0
  0
DIMENSION
  5
DC0F
330
1E
100
AcDbEntity
  8
30
  6
Continuous
100
AcDbDimension
  2
*D22
 10
34.99999999999953
 20
-520.8194299737852
 30
0.0
 11
-0.0000000000004545
 21
-516.8194299737852
 31
0.0
 70
    32
  1
 <> 
 71
     5
 42
70.0
  3
STANDARD
100
AcDbAlignedDimension
 13
-35.00000000000044
 23
-475.7235549737853
 33
0.0
 14
34.99999999999953
 24
-475.7235549737853
 34
0.0
100
AcDbRotatedDimension
1001
ACAD
1000
DSTYLE
1002
{
1070
    79
1070
     3
1002
}
  0
LINE
  5
DC10
330
1E
100
AcDbEntity
  8
12
  6
DASHED
100
AcDbLine
 10
69.99999999999954
 20
-501.2235549737853
 30
0.0
 11
69.99999999999954
 21
-440.2235549737853
 31
0.0
  0
LINE
  5
DC11
330
1E
100
AcDbEntity
  8
12
  6
DASHED
100
AcDbLine
 10
0.0
 20
-501.2235549737853
 30
0.0
 11
0.0
 21
-440.2235549737853
 31
0.0
  0
ARC
  5
DC13
330
1E
100
AcDbEntity
  8
12
  6
DASHED
100
AcDbCircle
 10
0.0
 20
-470.7235549737853
 30
0.0
 40
25.49999999999998
210
0.0
220
0.0
230
-1.0
100
AcDbArc
 50
336.9112280000035
 51
203.0887719999964
  0
DIMENSION
  5
DC14
330
1E
100
AcDbEntity
  8
30
  6
Continuous
100
AcDbDimension
  2
*D23
 10
69.99999999999954
 20
-555.8194299737853
 30
0.0
 11
34.99999999999953
 21
-551.8194299737853
 31
0.0
 70
    32
  1
 <> 
 71
     5
 42
70.0
  3
STANDARD
100
AcDbAlignedDimension
 13
-0.0000000000004547
 23
-520.8194299737852
 33
0.0
 14
69.99999999999954
 24
-475.7235549737853
 34
0.0
100
AcDbRotatedDimension
1001
ACAD
1000
DSTYLE
1002
{
1070
    79
1070
     3
1002
}
  0
DIMENSION
  5
DC15
330
1E
100
AcDbEntity
  8
30
  6
Continuous
100
AcDbDimension
  2
*D24
 10
182.9999999999995
 20
-555.8194299737853
 30
0.0
 11
126.4999999999995
 21
-551.8194299737853
 31
0.0
 70
    32
  1
 <> 
 71
     5
 42
113.0
  3
STANDARD
100
AcDbAlignedDimension
 13
69.99999999999954
 23
-475.7235549737853
 33
0.0
 14
182.9999999999995
 24
-327.2235549737851
 34
0.0
100
AcDbRotatedDimension
1001
ACAD
1000
DSTYLE
1002
{
1070
    79
1070
     3
1002
}
  0
LINE
  5
DC16
330
1E
100
AcDbEntity
  8
16
100
AcDbLine
 10
0.0
 20
-495.7235549737853
 30
0.0
 11
0.0
 21
-202.7235549737854
 31
0.0
  0
ARC
  5
DC17
330
1E
100
AcDbEntity
  8
12
  6
DASHED
100
AcDbCircle
 10
0.0
 20
-470.7235549737853
 30
0.0
 40
25.49999999999998
210
0.0
220
0.0
230
-1.0
100
AcDbArc
 50
216.0318790000006
 51
323.9681209999993
  0
LINE
  5
DC18
330
1E
100
AcDbEntity
  8
12
  6
DASHED
100
AcDbLine
 10
-23.45740500000009
 20
-480.7235549737852
 30
0.0
 11
-46.54259000000046
 21
-480.7235549737852
 31
0.0
  0
LINE
  5
DC19
330
1E
100
AcDbEntity
  8
12
  6
DASHED
100
AcDbLine
 10
-20.62159000000018
 20
-485.7235549737853
 30
0.0
 11
-49.37841000000026
 21
-485.7235549737853
 31
0.0
  0
LINE
  5
DC1A
330
1E
100
AcDbEntity
  8
12
  6
DASHED
100
AcDbLine
 10
46.54259499999989
 20
-480.7235549737852
 30
0.0
 11
23.45740999999951
 21
-480.7235549737852
 31
0.0
  0
LINE
  5
DC1B
330
1E
100
AcDbEntity
  8
12
  6
DASHED
100
AcDbLine
 10
20.62158999999974
 20
-485.7235549737853
 30
0.0
 11
49.37840999999934
 21
-485.7235549737853
 31
0.0
  0
LINE
  5
DC1C
330
1E
100
AcDbEntity
  8
12
  6
DASHED
100
AcDbLine
 10
39.49999999999953
 20
-470.7235549737853
 30
0.0
 11
170.4999999999995
 21
-470.7235549737853
 31
0.0
  0
LINE
  5
DC1D
330
1E
100
AcDbEntity
  8
12
  6
DASHED
100
AcDbLine
 10
-30.50000000000045
 20
-470.7235549737853
 30
0.0
 11
30.49999999999954
 21
-470.7235549737853
 31
0.0
  0
LINE
  5
DC1E
330
1E
100
AcDbEntity
  8
12
  6
DASHED
100
AcDbLine
 10
-41.00000000000045
 20
-470.7235549737853
 30
0.0
 11
-29.00000000000044
 21
-470.7235549737853
 31
0.0
  0
CIRCLE
  5
DC1F
330
1E
100
AcDbEntity
  8
12
  6
DASHED
100
AcDbCircle
 10
-35.0
 20
-470.7235549737853
 30
0.0
 40
3.999999999999998
  0
LINE
  5
DC20
330
1E
100
AcDbEntity
  8
12
  6
DASHED
100
AcDbLine
 10
-35.0
 20
-464.7235549737853
 30
0.0
 11
-35.0
 21
-476.7235549737853
 31
0.0
  0
LINE
  5
DC21
330
1E
100
AcDbEntity
  8
12
  6
DASHED
100
AcDbLine
 10
28.99999999999954
 20
-470.7235549737853
 30
0.0
 11
40.99999999999954
 21
-470.7235549737853
 31
0.0
  0
CIRCLE
  5
DC22
330
1E
100
AcDbEntity
  8
12
  6
DASHED
100
AcDbCircle
 10
34.99999999999953
 20
-470.7235549737853
 30
0.0
 40
3.999999999999998
  0
LINE
  5
DC23
330
1E
100
AcDbEntity
  8
12
  6
DASHED
100
AcDbLine
 10
34.99999999999953
 20
-464.7235549737853
 30
0.0
 11
34.99999999999953
 21
-476.7235549737853
 31
0.0
  0
LINE
  5
DC24
330
1E
100
AcDbEntity
  8
12
  6
DASHED
100
AcDbLine
 10
34.99999999999953
 20
-476.7235549737853
 30
0.0
 11
34.99999999999953
 21
-464.7235549737853
 31
0.0
  0
CIRCLE
  5
DC25
330
1E
100
AcDbEntity
  8
12
  6
DASHED
100
AcDbCircle
 10
182.9999999999995
 20
-323.2235549737853
 30
0.0
 40
7.499999999999997
  0
LINE
  5
DC26
330
1E
100
AcDbEntity
  8
12
  6
DASHED
100
AcDbLine
 10
182.9999999999995
 20
-334.7235549737851
 30
0.0
 11
182.9999999999995
 21
-309.7235549737851
 31
0.0
  0
LINE
  5
DC27
330
1E
100
AcDbEntity
  8
12
  6
DASHED
100
AcDbLine
 10
170.4999999999995
 20
-323.2235549737853
 30
0.0
 11
195.4999999999995
 21
-323.2235549737853
 31
0.0
  0
LINE
  5
DC29
330
1E
100
AcDbEntity
  8
12
  6
DASHED
100
AcDbLine
 10
39.49999999999953
 20
-227.7235549737854
 30
0.0
 11
170.4999999999995
 21
-227.7235549737854
 31
0.0
  0
CIRCLE
  5
DC2B
330
1E
100
AcDbEntity
  8
12
  6
DASHED
100
AcDbCircle
 10
34.99999999999953
 20
-227.7235549737854
 30
0.0
 40
3.999999999999998
  0
LINE
  5
DC2C
330
1E
100
AcDbEntity
  8
1
  6
Continuous
 62
     3
100
AcDbLine
 10
34.99999999999953
 20
-221.7235549737853
 30
0.0
 11
34.99999999999953
 21
-233.7235549737854
 31
0.0
  0
CIRCLE
  5
DC2D
330
1E
100
AcDbEntity
  8
12
  6
DASHED
100
AcDbCircle
 10
-35.0
 20
-227.7235549737854
 30
0.0
 40
3.999999999999998
  0
LINE
  5
DC2E
330
1E
100
AcDbEntity
  8
12
  6
DASHED
100
AcDbLine
 10
-35.0
 20
-221.7235549737853
 30
0.0
 11
-35.0
 21
-233.7235549737854
 31
0.0
  0
LINE
  5
DC2F
330
1E
100
AcDbEntity
  8
12
  6
DASHED
100
AcDbLine
 10
69.99999999999954
 20
-258.2235549737853
 30
0.0
 11
69.99999999999954
 21
-197.2235549737853
 31
0.0
  0
LINE
  5
DC30
330
1E
100
AcDbEntity
  8
12
  6
DASHED
100
AcDbLine
 10
0.0
 20
-258.2235549737853
 30
0.0
 11
0.0
 21
-197.2235549737853
 31
0.0
  0
ARC
  5
DC31
330
1E
100
AcDbEntity
  8
12
  6
DASHED
100
AcDbCircle
 10
0.0
 20
-227.7235549737854
 30
0.0
 40
25.49999999999998
100
AcDbArc
 50
156.9112280000035
 51
23.08877199999646
  0
ARC
  5
DC32
330
1E
100
AcDbEntity
  8
12
  6
DASHED
100
AcDbCircle
 10
0.0
 20
-227.7235549737854
 30
0.0
 40
25.49999999999998
100
AcDbArc
 50
36.03187900000065
 51
143.9681209999993
  0
LINE
  5
DC33
330
1E
100
AcDbEntity
  8
12
  6
DASHED
100
AcDbLine
 10
-30.50000000000045
 20
-227.7235549737854
 30
0.0
 11
30.49999999999954
 21
-227.7235549737854
 31
0.0
  0
LINE
  5
DC34
330
1E
100
AcDbEntity
  8
12
  6
DASHED
100
AcDbLine
 10
-20.62159000000018
 20
-212.7235549737851
 30
0.0
 11
-49.37841000000026
 21
-212.7235549737851
 31
0.0
  0
LINE
  5
DC35
330
1E
100
AcDbEntity
  8
12
  6
DASHED
100
AcDbLine
 10
-41.00000000000045
 20
-227.7235549737854
 30
0.0
 11
-29.00000000000044
 21
-227.7235549737854
 31
0.0
  0
LINE
  5
DC36
330
1E
100
AcDbEntity
  8
12
  6
DASHED
100
AcDbLine
 10
-23.45740500000009
 20
-217.7235549737853
 30
0.0
 11
-46.54259000000046
 21
-217.7235549737853
 31
0.0
  0
LINE
  5
DC37
330
1E
100
AcDbEntity
  8
12
  6
DASHED
100
AcDbLine
 10
20.62159064627393
 20
-212.7235549998682
 30
0.0
 11
49.37840937269811
 21
-212.7235549737853
 31
0.0
  0
LINE
  5
DC38
330
1E
100
AcDbEntity
  8
1
  6
Continuous
 62
     3
100
AcDbLine
 10
28.99999999999954
 20
-227.7235549737854
 30
0.0
 11
40.99999999999954
 21
-227.7235549737854
 31
0.0
  0
LINE
  5
DC39
330
1E
100
AcDbEntity
  8
12
  6
DASHED
100
AcDbLine
 10
46.54259499999989
 20
-217.7235549737853
 30
0.0
 11
23.45740999999951
 21
-217.7235549737853
 31
0.0
  0
DIMENSION
  5
DCB7
330
1E
100
AcDbEntity
  8
30
  6
Continuous
100
AcDbDimension
  2
*D25
 10
-34.23757004810124
 20
-230.5350546840122
 30
0.0
 11
-53.24744083389109
 21
-188.635944064033
 31
0.0
 70
   163
  1
M8
 71
     5
 42
6.000000000000085
  3
STANDARD
100
AcDbDiametricDimension
 15
-35.76242995189955
 25
-224.7320552635582
 35
0.0
 40
0.0
1001
ACAD
1000
DSTYLE
1002
{
1070
    79
1070
     3
1002
}
  0
DIMENSION
  5
DCDE
330
1E
100
AcDbEntity
  8
30
  6
Continuous
100
AcDbDimension
  2
*D26
 10
-81.94452568994819
 20
-493.2530535488129
 30
0.0
 11
-50.00000000000003
 21
-433.0
 31
0.0
 70
   163
 71
     5
 42
51.00000000000004
  3
STANDARD
100
AcDbDiametricDimension
 15
-58.05547431005184
 25
-448.1940563987577
 35
0.0
 40
0.0
1001
ACAD
1000
DSTYLE
1002
{
1070
    79
1070
     3
1070
   279
1070
     1
1070
   288
1070
     1
1002
}
  0
DIMENSION
  5
DCEA
330
1E
100
AcDbEntity
  8
30
  6
Continuous
100
AcDbDimension
  2
*D27
 10
-108.110985627497
 20
-316.53606532848
 30
0.0
 11
-138.0
 21
-342.0
 31
0.0
 70
   163
 71
     5
 42
15.0
  3
STANDARD
100
AcDbDiametricDimension
 15
-117.8890143725037
 25
-327.9110446190906
 35
0.0
 40
0.0
1001
ACAD
1000
DSTYLE
1002
{
1070
    79
1070
     3
1070
   288
1070
     1
1002
}
  0
DIMENSION
  5
DD03
330
1E
100
AcDbEntity
  8
30
  6
Continuous
100
AcDbDimension
  2
*D28
 10
204.0072871923638
 20
-353.7235549737853
 30
0.0
 11
204.0072871923638
 21
-290.7235549737853
 31
0.0
 70
   160
 71
     5
 42
125.9999999999999
  3
STANDARD
100
AcDbAlignedDimension
 13
170.4999999999995
 23
-227.7235549737854
 33
0.0
 14
174.9999999999995
 24
-353.7235549737853
 34
0.0
 50
90.0
100
AcDbRotatedDimension
1001
ACAD
1000
DSTYLE
1002
{
1070
    79
1070
     3
1002
}
  0
DIMENSION
  5
DD2A
330
1E
100
AcDbEntity
  8
30
  6
Continuous
100
AcDbDimension
  2
*D29
 10
219.0609914004443
 20
-485.7235549737853
 30
0.0
 11
219.0609914004443
 21
-483.2235549737853
 31
0.0
 70
   160
  1
<> 
 71
     5
 42
5.000000000000056
  3
STANDARD
100
AcDbAlignedDimension
 13
182.9999999999995
 23
-480.7235549737852
 33
0.0
 14
182.9999999999995
 24
-485.7235549737853
 34
0.0
 50
90.0
100
AcDbRotatedDimension
1001
ACAD
1000
DSTYLE
1002
{
1070
   140
1040
5.0
1070
   172
1070
     1
1070
    41
1040
1.0
1070
    79
1070
     3
1002
}
  0
DIMENSION
  5
DD2B
330
1E
100
AcDbEntity
  8
30
  6
Continuous
100
AcDbDimension
  2
*D30
 10
219.0609914004443
 20
-480.7235549737852
 30
0.0
 11
215.0609914004444
 21
-417.2235549737853
 31
0.0
 70
    32
  1
 <> 
 71
     0
 72
     0
 41
0.0
 42
127.0
  3
STANDARD
100
AcDbAlignedDimension
 13
174.9999999999995
 23
-353.7235549737853
 33
0.0
 14
183.9999999999995
 24
-480.7235549737852
 34
0.0
 50
90.0
100
AcDbRotatedDimension
1001
ACAD
1000
DSTYLE
1002
{
1070
    79
1070
     3
1002
}
  0
DIMENSION
  5
DD2C
330
1E
100
AcDbEntity
  8
30
  6
Continuous
100
AcDbDimension
  2
*D31
 10
219.0609914004443
 20
-353.7235549737853
 30
0.0
 11
219.0609914004443
 21
-285.7235549737853
 31
0.0
 70
   160
  1
 <> 
 71
     0
 72
     0
 41
0.0
 42
135.9999999999998
  3
STANDARD
100
AcDbAlignedDimension
 13
174.9999999999995
 23
-217.7235549737854
 33
0.0
 14
174.9999999999995
 24
-353.7235549737853
 34
0.0
 50
90.0
100
AcDbRotatedDimension
1001
ACAD
1000
DSTYLE
1002
{
1070
    79
1070
     3
1002
}
  0
DIMENSION
  5
DDB3
330
1E
100
AcDbEntity
  8
30
  6
Continuous
100
AcDbDimension
  2
*D32
 10
219.0609914004443
 20
-217.7235549737854
 30
0.0
 11
219.0609914004443
 21
-215.2235549737853
 31
0.0
 70
   160
  1
<> 
 71
     5
 42
5.000000000000142
  3
STANDARD
100
AcDbAlignedDimension
 13
174.9999999999995
 23
-212.7235549737851
 33
0.0
 14
213.5148894587417
 24
-217.7235549737854
 34
0.0
 50
90.0
100
AcDbRotatedDimension
1001
ACAD
1000
DSTYLE
1002
{
1070
   140
1040
5.0
1070
   172
1070
     1
1070
    41
1040
1.0
1070
    79
1070
     3
1002
}
  0
LINE
  5
DEC1
330
1E
100
AcDbEntity
  8
12
  6
DASHED
100
AcDbLine
 10
139.9999999999995
 20
-501.2235549737853
 30
0.0
 11
139.9999999999995
 21
-440.2235549737853
 31
0.0
  0
LINE
  5
DEC2
330
1E
100
AcDbEntity
  8
12
  6
DASHED
100
AcDbLine
 10
139.9999999999995
 20
-258.2235549737853
 30
0.0
 11
139.9999999999995
 21
-197.2235549737853
 31
0.0
  0
ARC
  5
DECC
330
1E
100
AcDbEntity
  8
12
  6
DASHED
100
AcDbCircle
 10
70.0
 20
-227.7235549737854
 30
0.0
 40
25.49999999999998
100
AcDbArc
 50
156.9112280000036
 51
23.08877199999623
  0
ARC
  5
DECD
330
1E
100
AcDbEntity
  8
12
  6
DASHED
100
AcDbCircle
 10
140.0
 20
-227.7235549737854
 30
0.0
 40
25.49999999999998
100
AcDbArc
 50
156.9112280000036
 51
143.9681209999993
  0
ARC
  5
DECE
330
1E
100
AcDbEntity
  8
12
  6
DASHED
100
AcDbCircle
 10
-70.0
 20
-470.7235549737853
 30
0.0
 40
25.49999999999998
210
0.0
220
0.0
230
-1.0
100
AcDbArc
 50
336.9112280000036
 51
203.0887719999962
  0
ARC
  5
DECF
330
1E
100
AcDbEntity
  8
12
  6
DASHED
100
AcDbCircle
 10
-140.0
 20
-470.7235549737853
 30
0.0
 40
25.49999999999998
210
0.0
220
0.0
230
-1.0
100
AcDbArc
 50
336.9112280000036
 51
323.9681209999993
  0
ARC
  5
DED0
330
1E
100
AcDbEntity
  8
12
  6
DASHED
100
AcDbCircle
 10
69.99999999999954
 20
-227.7235549737854
 30
0.0
 40
25.49999999999998
100
AcDbArc
 50
36.03187900000065
 51
143.9681209999993
  0
LINE
  5
DED1
330
1E
100
AcDbEntity
  8
12
  6
DASHED
100
AcDbLine
 10
116.5425949999994
 20
-217.7235549737853
 30
0.0
 11
93.45740999999909
 21
-217.7235549737853
 31
0.0
  0
LINE
  5
DED2
330
1E
100
AcDbEntity
  8
12
  6
DASHED
100
AcDbLine
 10
90.62159064627348
 20
-212.7235549998682
 30
0.0
 11
119.3784093726976
 21
-212.7235549737853
 31
0.0
  0
ARC
  5
DED3
330
1E
100
AcDbEntity
  8
12
  6
DASHED
100
AcDbCircle
 10
-70.0
 20
-470.7235549737853
 30
0.0
 40
25.49999999999998
210
0.0
220
0.0
230
-1.0
100
AcDbArc
 50
216.0318790000006
 51
323.9681209999993
  0
LINE
  5
DED4
330
1E
100
AcDbEntity
  8
12
  6
DASHED
100
AcDbLine
 10
90.62158999999972
 20
-485.7235549737853
 30
0.0
 11
119.3784099999992
 21
-485.7235549737853
 31
0.0
  0
LINE
  5
DED5
330
1E
100
AcDbEntity
  8
12
  6
DASHED
100
AcDbLine
 10
116.5425949999999
 20
-480.7235549737852
 30
0.0
 11
93.45740999999952
 21
-480.7235549737852
 31
0.0
  0
DIMENSION
  5
DF24
330
1E
100
AcDbEntity
  8
30
  6
Continuous
100
AcDbDimension
  2
*D33
 10
196.4804425241026
 20
-323.2235549737853
 30
0.0
 11
192.4804425241026
 21
-338.4735549737851
 31
0.0
 70
    32
  1
 <> 
 71
     0
 72
     0
 41
0.0
 42
30.5
  3
STANDARD
100
AcDbAlignedDimension
 13
175.9999999999995
 23
-353.7235549737853
 33
0.0
 14
182.9999999999995
 24
-323.2235549737853
 34
0.0
 50
90.0
100
AcDbRotatedDimension
1001
ACAD
1000
DSTYLE
1002
{
1070
    79
1070
     3
1002
}
  0
LINE
  5
E1E4
330
1E
100
AcDbEntity
  8
16
100
AcDbLine
 10
0.0
 20
-141.9999999999999
 30
0.0
 11
0.0
 21
151.0
 31
0.0
  0
LINE
  5
E1E5
330
1E
100
AcDbEntity
  8
10
  6
CONTINOUS
100
AcDbLine
 10
-104.6
 20
-107.0
 30
0.0
 11
174.9999999999996
 21
-107.0
 31
0.0
  0
LWPOLYLINE
  5
E1E7
330
1E
100
AcDbEntity
  8
10
  6
Continuous
100
AcDbPolyline
 90
        5
 70
     0
 43
0.0
 10
59.19999999999982
 20
-107.0
 42
1.0
 10
59.19999999999982
 20
-126.9999999999999
 10
81.19999999999981
 20
-126.9999999999999
 42
1.0
 10
81.19999999999981
 20
-107.0
 10
81.19999999999981
 20
-107.0
  0
LWPOLYLINE
  5
E1E9
330
1E
100
AcDbEntity
  8
10
  6
Continuous
100
AcDbPolyline
 90
        5
 70
     0
 43
0.0
 10
-10.79999999999994
 20
-107.0
 42
1.0
 10
-10.79999999999994
 20
-126.9999999999999
 10
11.20000000000003
 20
-126.9999999999999
 42
1.0
 10
11.20000000000003
 20
-107.0
 10
11.20000000000003
 20
-107.0
  0
LWPOLYLINE
  5
E1EA
330
1E
100
AcDbEntity
  8
10
  6
Continuous
100
AcDbPolyline
 90
        5
 70
     0
 43
0.0
 10
-80.79999999999996
 20
-107.0
 42
1.0
 10
-80.79999999999996
 20
-126.9999999999999
 10
-58.79999999999995
 20
-126.9999999999999
 42
1.0
 10
-58.79999999999995
 20
-107.0
 10
-58.79999999999995
 20
-107.0
  0
CIRCLE
  5
E1EB
330
1E
100
AcDbEntity
  8
12
  6
DASHED
100
AcDbCircle
 10
-34.79999999999995
 20
-116.9999999999999
 30
0.0
 40
8.249999999999996
  0
LINE
  5
E1EC
330
1E
100
AcDbEntity
  8
12
  6
DASHED
100
AcDbLine
 10
-34.79999999999995
 20
-105.75
 30
0.0
 11
-34.79999999999995
 21
-128.2499999999999
 31
0.0
  0
LINE
  5
E1ED
330
1E
100
AcDbEntity
  8
12
  6
DASHED
100
AcDbLine
 10
-46.04999999999995
 20
-116.9999999999999
 30
0.0
 11
-23.54999999999994
 21
-116.9999999999999
 31
0.0
  0
CIRCLE
  5
E1EE
330
1E
100
AcDbEntity
  8
12
  6
DASHED
100
AcDbCircle
 10
35.19999999999981
 20
-116.9999999999999
 30
0.0
 40
8.249999999999996
  0
LINE
  5
E1EF
330
1E
100
AcDbEntity
  8
12
  6
DASHED
100
AcDbLine
 10
35.19999999999981
 20
-105.75
 30
0.0
 11
35.19999999999981
 21
-128.2499999999999
 31
0.0
  0
LINE
  5
E1F0
330
1E
100
AcDbEntity
  8
12
  6
DASHED
100
AcDbLine
 10
23.94999999999981
 20
-116.9999999999999
 30
0.0
 11
46.45000000000004
 21
-116.9999999999999
 31
0.0
  0
LWPOLYLINE
  5
E1F1
330
1E
100
AcDbEntity
  8
10
  6
Continuous
100
AcDbPolyline
 90
        5
 70
     0
 43
0.0
 10
129.1999999999997
 20
-107.0
 42
1.0
 10
129.1999999999997
 20
-126.9999999999999
 10
151.1999999999998
 20
-126.9999999999999
 42
1.0
 10
151.1999999999998
 20
-107.0
 10
151.1999999999998
 20
-107.0
  0
LINE
  5
E1F6
330
1E
100
AcDbEntity
  8
10
  6
CONTINOUS
100
AcDbLine
 10
174.9999999999996
 20
55.49999999999993
 30
0.0
 11
-104.6
 21
55.49999999999993
 31
0.0
  0
LINE
  5
E1F7
330
1E
100
AcDbEntity
  8
16
100
AcDbLine
 10
184.9999999999996
 20
0.0
 30
0.0
 11
-114.6000000000001
 21
0.0
 31
0.0
  0
LINE
  5
E1F8
330
1E
100
AcDbEntity
  8
10
  6
CONTINOUS
100
AcDbLine
 10
174.9999999999996
 20
-46.4999999999999
 30
0.0
 11
-104.6
 21
-46.4999999999999
 31
0.0
  0
LWPOLYLINE
  5
E1F9
330
1E
100
AcDbEntity
  8
10
  6
CONTINOUS
100
AcDbPolyline
 90
        9
 70
     1
 43
0.0
 10
80.20000000000004
 20
44.99999999999997
 10
-79.79999999999995
 20
44.99999999999997
 42
0.4142135623730935
 10
-84.79999999999995
 20
40.0
 10
-84.79999999999995
 20
-40.0
 42
0.414213562373095
 10
-79.79999999999995
 20
-45.0
 10
80.20000000000004
 20
-45.0
 42
0.4142135623730951
 10
85.20000000000004
 20
-40.0
 10
85.20000000000004
 20
40.0
 42
0.4142135623730966
 10
80.20000000000004
 20
44.99999999999997
  0
LWPOLYLINE
  5
E1FA
330
1E
100
AcDbEntity
  8
10
  6
CONTINOUS
100
AcDbPolyline
 90
        4
 70
     0
 43
0.0
 10
-18.0
 20
29.64169999999994
 10
-18.0
 20
-25.49999999999997
 10
18.0
 20
-25.49999999999997
 10
18.0
 20
29.64169999999994
  0
LINE
  5
E1FB
330
1E
100
AcDbEntity
  8
10
  6
CONTINOUS
100
AcDbLine
 10
25.69999999999982
 20
44.99999999999997
 30
0.0
 11
25.69999999999982
 21
-45.0
 31
0.0
  0
LINE
  5
E1FC
330
1E
100
AcDbEntity
  8
10
  6
CONTINOUS
100
AcDbLine
 10
-25.29999999999994
 20
44.99999999999997
 30
0.0
 11
-25.29999999999994
 21
-45.0
 31
0.0
  0
DIMENSION
  5
E1FD
330
1E
100
AcDbEntity
  8
30
  6
Continuous
100
AcDbDimension
  2
*D34
 10
25.69999999999982
 20
-72.09587499999992
 30
0.0
 11
0.199999999999932
 21
-68.09587499999992
 31
0.0
 70
    32
  1
 <> 
 71
     5
 42
50.99999999999977
  3
STANDARD
100
AcDbAlignedDimension
 13
-25.29999999999994
 23
-49.99999999999993
 33
0.0
 14
25.69999999999982
 24
-49.99999999999993
 34
0.0
100
AcDbRotatedDimension
1001
ACAD
1000
DSTYLE
1002
{
1070
    79
1070
     3
1002
}
  0
LWPOLYLINE
  5
E1FE
330
1E
100
AcDbEntity
  8
10
  6
CONTINOUS
100
AcDbPolyline
 90
        4
 70
     1
 43
0.0
 10
19.0
 20
-29.69999999999998
 10
24.5
 20
-29.69999999999998
 10
24.5
 20
-36.59999999999996
 10
19.0
 20
-36.59999999999996
  0
DIMENSION
  5
E1FF
330
1E
100
AcDbEntity
  8
30
  6
Continuous
100
AcDbDimension
  2
*D35
 10
85.20000000000004
 20
77.90412499999995
 30
0.0
 11
0.199999999999932
 21
81.90412499999997
 31
0.0
 70
    32
  1
 <> 
 71
     5
 42
170.0000000000001
  3
STANDARD
100
AcDbAlignedDimension
 13
-84.80000000000019
 23
44.99999999999993
 33
0.0
 14
85.20000000000004
 24
44.99999999999993
 34
0.0
100
AcDbRotatedDimension
1001
ACAD
1000
DSTYLE
1002
{
1070
    79
1070
     3
1002
}
  0
LWPOLYLINE
  5
E200
330
1E
100
AcDbEntity
  8
10
  6
CONTINOUS
100
AcDbPolyline
 90
        4
 70
     1
 43
0.0
 10
-20.79999999999995
 20
37.16874500000017
 10
20.79999999999995
 20
37.16874500000017
 10
20.79999999999995
 20
29.64169999999994
 10
-20.79999999999995
 20
29.64169999999994
  0
LINE
  5
E201
330
1E
100
AcDbEntity
  8
10
  6
CONTINOUS
100
AcDbLine
 10
25.69999999999982
 20
44.54681499999989
 30
0.0
 11
-25.29999999999994
 21
44.54681499999989
 31
0.0
  0
LINE
  5
E202
330
1E
100
AcDbEntity
  8
10
  6
CONTINOUS
100
AcDbLine
 10
138.9241099999997
 20
86.50161499999994
 30
0.0
 11
139.7767699999996
 21
87.35427999999997
 31
0.0
  0
LINE
  5
E203
330
1E
100
AcDbEntity
  8
10
  6
CONTINOUS
100
AcDbLine
 10
138.5783549999997
 20
86.99555000000001
 30
0.0
 11
139.4310149999998
 21
87.84821500000004
 31
0.0
  0
LINE
  5
E204
330
1E
100
AcDbEntity
  8
10
  6
CONTINOUS
100
AcDbLine
 10
138.7512299999998
 20
86.74858000000012
 30
0.0
 11
139.6038949999999
 21
87.60124500000015
 31
0.0
  0
LINE
  5
E205
330
1E
100
AcDbEntity
  8
10
  6
CONTINOUS
100
AcDbLine
 10
142.9687499999996
 20
86.767655
 30
0.0
 11
144.1562499999997
 21
87.95515500000004
 31
0.0
  0
LINE
  5
E206
330
1E
100
AcDbEntity
  8
10
  6
CONTINOUS
100
AcDbLine
 10
135.8437499999996
 20
86.78001499999991
 30
0.0
 11
137.0312499999996
 21
87.96751499999983
 31
0.0
  0
LINE
  5
E207
330
1E
100
AcDbEntity
  8
10
  6
CONTINOUS
100
AcDbLine
 10
142.9687499999996
 20
86.34781000000002
 30
0.0
 11
144.1562499999997
 21
87.53531000000005
 31
0.0
  0
LINE
  5
E208
330
1E
100
AcDbEntity
  8
10
  6
CONTINOUS
100
AcDbLine
 10
135.8437499999996
 20
86.36016999999993
 30
0.0
 11
137.0312499999996
 21
87.54766999999999
 31
0.0
  0
CIRCLE
  5
E209
330
1E
100
AcDbEntity
  8
10
  6
CONTINOUS
100
AcDbCircle
 10
139.9999999999996
 20
86.00000000000006
 30
0.0
 40
9.499999999999996
  0
LINE
  5
E20A
330
1E
100
AcDbEntity
  8
10
  6
CONTINOUS
100
AcDbLine
 10
142.9687499999996
 20
87.18749999999998
 30
0.0
 11
144.1562499999997
 21
88.37500000000003
 31
0.0
  0
LINE
  5
E20B
330
1E
100
AcDbEntity
  8
10
  6
CONTINOUS
100
AcDbLine
 10
135.8437499999996
 20
83.00141500000007
 30
0.0
 11
137.0312499999996
 21
84.18891499999999
 31
0.0
  0
LINE
  5
E20C
330
1E
100
AcDbEntity
  8
10
  6
CONTINOUS
100
AcDbLine
 10
140.9986349999996
 20
83.53800499999989
 30
0.0
 11
141.8513
 21
84.39066999999992
 31
0.0
  0
LINE
  5
E20D
330
1E
100
AcDbEntity
  8
10
  6
CONTINOUS
100
AcDbLine
 10
139.2698649999996
 20
86.00768
 30
0.0
 11
140.1225249999996
 21
86.86034500000003
 31
0.0
  0
LINE
  5
E20E
330
1E
100
AcDbEntity
  8
10
  6
CONTINOUS
100
AcDbLine
 10
135.8437499999996
 20
83.42126000000005
 30
0.0
 11
137.0312499999996
 21
84.60875999999997
 31
0.0
  0
LINE
  5
E20F
330
1E
100
AcDbEntity
  8
10
  6
CONTINOUS
100
AcDbLine
 10
142.9687499999996
 20
84.66843500000008
 30
0.0
 11
144.1562499999997
 21
85.85593499999998
 31
0.0
  0
LINE
  5
E210
330
1E
100
AcDbEntity
  8
10
  6
CONTINOUS
100
AcDbLine
 10
140.3071249999998
 20
84.52587500000005
 30
0.0
 11
141.1597899999998
 21
85.37854000000008
 31
0.0
  0
LINE
  5
E211
330
1E
100
AcDbEntity
  8
10
  6
CONTINOUS
100
AcDbLine
 10
135.8437499999996
 20
80.4823449999999
 30
0.0
 11
137.0312499999996
 21
81.66984499999996
 31
0.0
  0
LINE
  5
E212
330
1E
100
AcDbEntity
  8
10
  6
CONTINOUS
100
AcDbLine
 10
140.6528799999997
 20
84.03193999999997
 30
0.0
 11
141.5055449999998
 21
84.884605
 31
0.0
  0
LINE
  5
E213
330
1E
100
AcDbEntity
  8
10
  6
CONTINOUS
100
AcDbLine
 10
142.0358999999997
 20
82.05619999999994
 30
0.0
 11
142.8885599999998
 21
82.90886499999997
 31
0.0
  0
LINE
  5
E214
330
1E
100
AcDbEntity
  8
10
  6
CONTINOUS
100
AcDbLine
 10
142.7274049999998
 20
81.06833000000007
 30
0.0
 11
144.1562499999997
 21
82.497175
 31
0.0
  0
LINE
  5
E215
330
1E
100
AcDbEntity
  8
10
  6
CONTINOUS
100
AcDbLine
 10
142.9687499999996
 20
85.50812500000004
 30
0.0
 11
144.1562499999997
 21
86.69562499999996
 31
0.0
  0
LINE
  5
E216
330
1E
100
AcDbEntity
  8
10
  6
CONTINOUS
100
AcDbLine
 10
135.8437499999996
 20
85.94032499999995
 30
0.0
 11
137.0312499999996
 21
87.12782500000001
 31
0.0
  0
LINE
  5
E217
330
1E
100
AcDbEntity
  8
10
  6
CONTINOUS
100
AcDbLine
 10
143.8207999999996
 20
80.06250000000006
 30
0.0
 11
144.1562499999997
 21
80.39795500000009
 31
0.0
  0
LINE
  5
E218
330
1E
100
AcDbEntity
  8
10
  6
CONTINOUS
100
AcDbLine
 10
135.8437499999996
 20
81.74187999999984
 30
0.0
 11
137.0312499999996
 21
82.9293799999999
 31
0.0
  0
LINE
  5
E219
330
1E
100
AcDbEntity
  8
10
  6
CONTINOUS
100
AcDbLine
 10
141.1715099999999
 20
83.29103999999999
 30
0.0
 11
142.0241749999997
 21
84.14369999999989
 31
0.0
  0
LINE
  5
E21A
330
1E
100
AcDbEntity
  8
10
  6
CONTINOUS
100
AcDbLine
 10
135.8437499999996
 20
83.84110500000003
 30
0.0
 11
137.0312499999996
 21
85.02860499999995
 31
0.0
  0
LINE
  5
E21B
330
1E
100
AcDbEntity
  8
10
  6
CONTINOUS
100
AcDbLine
 10
139.0969849999999
 20
86.25464500000004
 30
0.0
 11
139.9496499999997
 21
87.10731000000006
 31
0.0
  0
LINE
  5
E21C
330
1E
100
AcDbEntity
  8
10
  6
CONTINOUS
100
AcDbLine
 10
135.8437499999996
 20
85.10063499999999
 30
0.0
 11
137.0312499999996
 21
86.28813500000005
 31
0.0
  0
LINE
  5
E21D
330
1E
100
AcDbEntity
  8
10
  6
CONTINOUS
100
AcDbLine
 10
140.1342499999997
 20
84.77284499999994
 30
0.0
 11
140.9869099999997
 21
85.62550499999984
 31
0.0
  0
LINE
  5
E21E
330
1E
100
AcDbEntity
  8
10
  6
CONTINOUS
100
AcDbLine
 10
142.2087749999997
 20
81.80923500000004
 30
0.0
 11
144.1562499999997
 21
83.75670999999995
 31
0.0
  0
LINE
  5
E21F
330
1E
100
AcDbEntity
  8
10
  6
CONTINOUS
100
AcDbLine
 10
135.8437499999996
 20
84.26095000000001
 30
0.0
 11
137.0312499999996
 21
85.44844999999993
 31
0.0
  0
LINE
  5
E220
330
1E
100
AcDbEntity
  8
10
  6
CONTINOUS
100
AcDbLine
 10
141.6901449999998
 20
82.55013500000002
 30
0.0
 11
142.5428049999998
 21
83.40280000000005
 31
0.0
  0
LINE
  5
E221
330
1E
100
AcDbEntity
  8
10
  6
CONTINOUS
100
AcDbLine
 10
140.4800049999997
 20
84.27890999999986
 30
0.0
 11
141.3326649999999
 21
85.13157000000004
 31
0.0
  0
LINE
  5
E222
330
1E
100
AcDbEntity
  8
10
  6
CONTINOUS
100
AcDbLine
 10
142.9687499999996
 20
83.40889999999985
 30
0.0
 11
144.1562499999997
 21
84.59639999999991
 31
0.0
  0
LINE
  5
E223
330
1E
100
AcDbEntity
  8
10
  6
CONTINOUS
100
AcDbLine
 10
142.5545299999997
 20
81.3153000000001
 30
0.0
 11
144.1562499999997
 21
82.91701999999999
 31
0.0
  0
LINE
  5
E224
330
1E
100
AcDbEntity
  8
10
  6
CONTINOUS
100
AcDbLine
 10
139.4427399999998
 20
85.76070999999997
 30
0.0
 11
140.2954049999997
 21
86.613375
 31
0.0
  0
LINE
  5
E225
330
1E
100
AcDbEntity
  8
10
  6
CONTINOUS
100
AcDbLine
 10
141.3443899999997
 20
83.0440700000001
 30
0.0
 11
142.1970549999998
 21
83.89673500000013
 31
0.0
  0
LINE
  5
E226
330
1E
100
AcDbEntity
  8
10
  6
CONTINOUS
100
AcDbLine
 10
135.8437499999996
 20
80.90218999999988
 30
0.0
 11
137.0312499999996
 21
82.08968999999994
 31
0.0
  0
LINE
  5
E227
330
1E
100
AcDbEntity
  8
10
  6
CONTINOUS
100
AcDbLine
 10
143.0731599999996
 20
80.57439499999999
 30
0.0
 11
144.1562499999997
 21
81.65748500000004
 31
0.0
  0
LINE
  5
E228
330
1E
100
AcDbEntity
  8
10
  6
CONTINOUS
100
AcDbLine
 10
139.6156149999999
 20
85.51374500000006
 30
0.0
 11
140.4682799999998
 21
86.36640999999995
 31
0.0
  0
LINE
  5
E229
330
1E
100
AcDbEntity
  8
10
  6
CONTINOUS
100
AcDbLine
 10
135.8437499999996
 20
81.32203499999986
 30
0.0
 11
137.0312499999996
 21
82.50953499999992
 31
0.0
  0
LINE
  5
E22A
330
1E
100
AcDbEntity
  8
10
  6
CONTINOUS
100
AcDbLine
 10
143.2460399999996
 20
80.32742999999994
 30
0.0
 11
144.1562499999997
 21
81.23763999999992
 31
0.0
  0
LINE
  5
E22B
330
1E
100
AcDbEntity
  8
10
  6
CONTINOUS
100
AcDbLine
 10
142.9002849999999
 20
80.82136500000002
 30
0.0
 11
144.1562499999997
 21
82.07733000000002
 31
0.0
  0
LINE
  5
E22C
330
1E
100
AcDbEntity
  8
10
  6
CONTINOUS
100
AcDbLine
 10
136.2635949999997
 20
80.06250000000006
 30
0.0
 11
137.0312499999996
 21
80.830155
 31
0.0
  0
LINE
  5
E22D
330
1E
100
AcDbEntity
  8
10
  6
CONTINOUS
100
AcDbLine
 10
142.9687499999996
 20
84.2485900000001
 30
0.0
 11
144.1562499999997
 21
85.43609000000001
 31
0.0
  0
LINE
  5
E22E
330
1E
100
AcDbEntity
  8
10
  6
CONTINOUS
100
AcDbLine
 10
143.400955
 20
80.06250000000006
 30
0.0
 11
144.1562499999997
 21
80.81780000000007
 31
0.0
  0
LINE
  5
E22F
330
1E
100
AcDbEntity
  8
10
  6
CONTINOUS
100
AcDbLine
 10
142.9687499999996
 20
82.98905499999987
 30
0.0
 11
144.1562499999997
 21
84.17655499999993
 31
0.0
  0
LINE
  5
E230
330
1E
100
AcDbEntity
  8
10
  6
CONTINOUS
100
AcDbLine
 10
135.8437499999996
 20
82.16172500000011
 30
0.0
 11
137.0312499999996
 21
83.34922500000002
 31
0.0
  0
LINE
  5
E231
330
1E
100
AcDbEntity
  8
10
  6
CONTINOUS
100
AcDbLine
 10
136.6834399999997
 20
80.06250000000006
 30
0.0
 11
137.0312499999996
 21
80.41031000000002
 31
0.0
  0
LINE
  5
E232
330
1E
100
AcDbEntity
  8
10
  6
CONTINOUS
100
AcDbLine
 10
141.86302
 20
82.30316999999997
 30
0.0
 11
142.7156849999998
 21
83.15583000000001
 31
0.0
  0
LINE
  5
E233
330
1E
100
AcDbEntity
  8
10
  6
CONTINOUS
100
AcDbLine
 10
135.8437499999996
 20
84.68079000000001
 30
0.0
 11
137.0312499999996
 21
85.86829000000006
 31
0.0
  0
LINE
  5
E234
330
1E
100
AcDbEntity
  8
10
  6
CONTINOUS
100
AcDbLine
 10
139.7884949999999
 20
85.26678000000002
 30
0.0
 11
140.6411599999999
 21
86.11943999999992
 31
0.0
  0
LINE
  5
E235
330
1E
100
AcDbEntity
  8
10
  6
CONTINOUS
100
AcDbLine
 10
142.38165
 20
81.56226499999986
 30
0.0
 11
144.1562499999997
 21
83.33686499999997
 31
0.0
  0
LINE
  5
E236
330
1E
100
AcDbEntity
  8
10
  6
CONTINOUS
100
AcDbLine
 10
142.9687499999996
 20
83.82874500000012
 30
0.0
 11
144.1562499999997
 21
85.01624500000017
 31
0.0
  0
LINE
  5
E237
330
1E
100
AcDbEntity
  8
10
  6
CONTINOUS
100
AcDbLine
 10
135.8437499999996
 20
85.52047999999997
 30
0.0
 11
137.0312499999996
 21
86.70798000000003
 31
0.0
  0
LINE
  5
E238
330
1E
100
AcDbEntity
  8
10
  6
CONTINOUS
100
AcDbLine
 10
141.5172649999998
 20
82.79710500000005
 30
0.0
 11
142.36993
 21
83.64976499999995
 31
0.0
  0
LINE
  5
E239
330
1E
100
AcDbEntity
  8
10
  6
CONTINOUS
100
AcDbLine
 10
142.9687499999996
 20
85.92796500000003
 30
0.0
 11
144.1562499999997
 21
87.11546500000009
 31
0.0
  0
LINE
  5
E23A
330
1E
100
AcDbEntity
  8
10
  6
CONTINOUS
100
AcDbLine
 10
135.8437499999996
 20
82.58157000000009
 30
0.0
 11
137.0312499999996
 21
83.76907
 31
0.0
  0
LINE
  5
E23B
330
1E
100
AcDbEntity
  8
10
  6
CONTINOUS
100
AcDbLine
 10
135.8437499999996
 20
80.06250000000006
 30
0.0
 11
137.0312499999996
 21
81.24999999999998
 31
0.0
  0
LINE
  5
E23C
330
1E
100
AcDbEntity
  8
10
  6
CONTINOUS
100
AcDbLine
 10
142.9687499999996
 20
85.08828000000006
 30
0.0
 11
144.1562499999997
 21
86.27577999999996
 31
0.0
  0
LINE
  5
E23D
330
1E
100
AcDbEntity
  8
10
  6
CONTINOUS
100
AcDbLine
 10
140.8257549999998
 20
83.78497500000007
 30
0.0
 11
141.6784199999999
 21
84.63763499999997
 31
0.0
  0
LINE
  5
E23E
330
1E
100
AcDbEntity
  8
10
  6
CONTINOUS
100
AcDbLine
 10
139.9613699999997
 20
85.01980999999998
 30
0.0
 11
140.8140349999998
 21
85.87247500000016
 31
0.0
  0
LINE
  5
E23F
330
1E
100
AcDbEntity
  8
10
  6
CONTINOUS
100
AcDbLine
 10
142.9687499999996
 20
89.28672500000002
 30
0.0
 11
144.1562499999997
 21
90.47422500000008
 31
0.0
  0
LINE
  5
E240
330
1E
100
AcDbEntity
  8
10
  6
CONTINOUS
100
AcDbLine
 10
142.9687499999996
 20
91.38594999999993
 30
0.0
 11
143.520305
 21
91.93750000000006
 31
0.0
  0
LINE
  5
E241
330
1E
100
AcDbEntity
  8
10
  6
CONTINOUS
100
AcDbLine
 10
135.8437499999996
 20
88.87923999999996
 30
0.0
 11
137.5293699999999
 21
90.56485499999991
 31
0.0
  0
LINE
  5
E242
330
1E
100
AcDbEntity
  8
10
  6
CONTINOUS
100
AcDbLine
 10
135.8437499999996
 20
89.71892999999992
 30
0.0
 11
137.1836149999996
 21
91.05878999999999
 31
0.0
  0
LINE
  5
E243
330
1E
100
AcDbEntity
  8
10
  6
CONTINOUS
100
AcDbLine
 10
142.9687499999996
 20
88.44703499999992
 30
0.0
 11
144.1562499999997
 21
89.63453499999998
 31
0.0
  0
LINE
  5
E244
330
1E
100
AcDbEntity
  8
10
  6
CONTINOUS
100
AcDbLine
 10
135.8437499999996
 20
90.55862000000015
 30
0.0
 11
136.8378599999997
 21
91.55272500000007
 31
0.0
  0
LINE
  5
E245
330
1E
100
AcDbEntity
  8
10
  6
CONTINOUS
100
AcDbLine
 10
142.9687499999996
 20
90.96610499999995
 30
0.0
 11
143.9401499999999
 21
91.93750000000006
 31
0.0
  0
LINE
  5
E246
330
1E
100
AcDbEntity
  8
10
  6
CONTINOUS
100
AcDbLine
 10
137.3682149999997
 20
88.72432000000001
 30
0.0
 11
138.2208749999998
 21
89.57698500000004
 31
0.0
  0
LINE
  5
E247
330
1E
100
AcDbEntity
  8
10
  6
CONTINOUS
100
AcDbLine
 10
135.8437499999996
 20
91.81814999999984
 30
0.0
 11
135.9630999999996
 21
91.93750000000006
 31
0.0
  0
LINE
  5
E248
330
1E
100
AcDbEntity
  8
10
  6
CONTINOUS
100
AcDbLine
 10
142.9687499999996
 20
90.12641499999999
 30
0.0
 11
144.1562499999997
 21
91.31391499999999
 31
0.0
  0
LINE
  5
E249
330
1E
100
AcDbEntity
  8
10
  6
CONTINOUS
100
AcDbLine
 10
135.8437499999996
 20
89.29908499999994
 30
0.0
 11
137.3564899999997
 21
90.81182499999995
 31
0.0
  0
LINE
  5
E24A
330
1E
100
AcDbEntity
  8
10
  6
CONTINOUS
100
AcDbLine
 10
135.8437499999996
 20
90.1387749999999
 30
0.0
 11
137.0107349999997
 21
91.30576000000003
 31
0.0
  0
LINE
  5
E24B
330
1E
100
AcDbEntity
  8
10
  6
CONTINOUS
100
AcDbLine
 10
135.8437499999996
 20
88.45939499999998
 30
0.0
 11
137.7022449999997
 21
90.31788999999987
 31
0.0
  0
LINE
  5
E24C
330
1E
100
AcDbEntity
  8
10
  6
CONTINOUS
100
AcDbLine
 10
142.9687499999996
 20
90.54625999999997
 30
0.0
 11
144.1562499999997
 21
91.73376000000002
 31
0.0
  0
LINE
  5
E24D
330
1E
100
AcDbEntity
  8
10
  6
CONTINOUS
100
AcDbLine
 10
135.8437499999996
 20
91.398305
 30
0.0
 11
136.382945
 21
91.93750000000006
 31
0.0
  0
LINE
  5
E24E
330
1E
100
AcDbEntity
  8
10
  6
CONTINOUS
100
AcDbLine
 10
142.9687499999996
 20
91.80579000000006
 30
0.0
 11
143.1004599999998
 21
91.93750000000006
 31
0.0
  0
LINE
  5
E24F
330
1E
100
AcDbEntity
  8
10
  6
CONTINOUS
100
AcDbLine
 10
137.1953349999998
 20
88.97129000000004
 30
0.0
 11
138.0479999999996
 21
89.82395500000006
 31
0.0
  0
LINE
  5
E250
330
1E
100
AcDbEntity
  8
10
  6
CONTINOUS
100
AcDbLine
 10
142.9687499999996
 20
89.70657
 30
0.0
 11
144.1562499999997
 21
90.89407000000006
 31
0.0
  0
LINE
  5
E251
330
1E
100
AcDbEntity
  8
10
  6
CONTINOUS
100
AcDbLine
 10
137.5410899999999
 20
88.47735499999997
 30
0.0
 11
138.3937549999997
 21
89.33002
 31
0.0
  0
LINE
  5
E252
330
1E
100
AcDbEntity
  8
10
  6
CONTINOUS
100
AcDbLine
 10
142.9687499999996
 20
88.8668799999999
 30
0.0
 11
144.1562499999997
 21
90.05437999999996
 31
0.0
  0
LINE
  5
E253
330
1E
100
AcDbEntity
  8
10
  6
CONTINOUS
100
AcDbLine
 10
135.8437499999996
 20
90.97846000000002
 30
0.0
 11
136.6649799999997
 21
91.7996950000001
 31
0.0
  0
LINE
  5
E254
330
1E
100
AcDbEntity
  8
10
  6
CONTINOUS
100
AcDbLine
 10
138.4054749999998
 20
87.24251499999992
 30
0.0
 11
139.2581399999999
 21
88.09517999999995
 31
0.0
  0
LINE
  5
E255
330
1E
100
AcDbEntity
  8
10
  6
CONTINOUS
100
AcDbLine
 10
135.8437499999996
 20
87.19986000000004
 30
0.0
 11
137.0312499999996
 21
88.38736000000009
 31
0.0
  0
LINE
  5
E256
330
1E
100
AcDbEntity
  8
10
  6
CONTINOUS
100
AcDbLine
 10
135.8437499999996
 20
87.61970500000002
 30
0.0
 11
137.0312499999996
 21
88.80720500000006
 31
0.0
  0
LINE
  5
E257
330
1E
100
AcDbEntity
  8
10
  6
CONTINOUS
100
AcDbLine
 10
135.8437499999996
 20
88.03955
 30
0.0
 11
137.8751249999998
 21
90.07091999999998
 31
0.0
  0
LINE
  5
E258
330
1E
100
AcDbEntity
  8
10
  6
CONTINOUS
100
AcDbLine
 10
142.9687499999996
 20
88.02718999999994
 30
0.0
 11
144.1562499999997
 21
89.21469
 31
0.0
  0
LINE
  5
E259
330
1E
100
AcDbEntity
  8
10
  6
CONTINOUS
100
AcDbLine
 10
137.7139699999999
 20
88.23038500000006
 30
0.0
 11
138.5666299999997
 21
89.08305000000011
 31
0.0
  0
LINE
  5
E25A
330
1E
100
AcDbEntity
  8
10
  6
CONTINOUS
100
AcDbLine
 10
142.9687499999996
 20
87.60734499999996
 30
0.0
 11
144.1562499999997
 21
88.79484500000002
 31
0.0
  0
LINE
  5
E25B
330
1E
100
AcDbEntity
  8
10
  6
CONTINOUS
100
AcDbLine
 10
138.0597199999996
 20
87.73645
 30
0.0
 11
138.9123849999998
 21
88.58911500000003
 31
0.0
  0
LINE
  5
E25C
330
1E
100
AcDbEntity
  8
10
  6
CONTINOUS
100
AcDbLine
 10
137.8868449999996
 20
87.98341999999989
 30
0.0
 11
138.7395099999998
 21
88.83608499999992
 31
0.0
  0
LINE
  5
E25D
330
1E
100
AcDbEntity
  8
10
  6
CONTINOUS
100
AcDbLine
 10
138.2325999999997
 20
87.48948500000009
 30
0.0
 11
139.0852649999999
 21
88.34214999999984
 31
0.0
  0
LINE
  5
E25E
330
1E
100
AcDbEntity
  8
10
  6
CONTINOUS
100
AcDbLine
 10
174.9999999999996
 20
116.0
 30
0.0
 11
-105.0
 21
116.0
 31
0.0
  0
LWPOLYLINE
  5
E25F
330
1E
100
AcDbEntity
  8
10
  6
Continuous
100
AcDbPolyline
 90
        5
 70
     0
 43
0.0
 10
81.19999999999981
 20
116.0
 42
1.0
 10
81.19999999999981
 20
136.0
 10
59.19999999999982
 20
136.0
 42
1.0
 10
59.19999999999982
 20
116.0
 10
59.19999999999982
 20
116.0
  0
LWPOLYLINE
  5
E260
330
1E
100
AcDbEntity
  8
10
  6
Continuous
100
AcDbPolyline
 90
        5
 70
     0
 43
0.0
 10
11.20000000000003
 20
116.0
 42
1.0
 10
11.20000000000003
 20
136.0
 10
-10.79999999999994
 20
136.0
 42
1.0
 10
-10.79999999999994
 20
116.0
 10
-10.79999999999994
 20
116.0
  0
LINE
  5
E261
330
1E
100
AcDbEntity
  8
12
  6
DASHED
100
AcDbLine
 10
-34.79999999999995
 20
137.25
 30
0.0
 11
-34.79999999999995
 21
114.7499999999999
 31
0.0
  0
LWPOLYLINE
  5
E262
330
1E
100
AcDbEntity
  8
10
  6
Continuous
100
AcDbPolyline
 90
        5
 70
     0
 43
0.0
 10
-58.79999999999995
 20
116.0
 42
1.0
 10
-58.79999999999995
 20
136.0
 10
-80.79999999999996
 20
136.0
 42
1.0
 10
-80.79999999999996
 20
116.0
 10
-80.79999999999996
 20
116.0
  0
LINE
  5
E263
330
1E
100
AcDbEntity
  8
12
  6
DASHED
100
AcDbLine
 10
-46.04999999999995
 20
126.0
 30
0.0
 11
-23.54999999999994
 21
126.0
 31
0.0
  0
CIRCLE
  5
E264
330
1E
100
AcDbEntity
  8
12
  6
DASHED
100
AcDbCircle
 10
-34.79999999999995
 20
126.0
 30
0.0
 40
8.249999999999996
  0
LINE
  5
E265
330
1E
100
AcDbEntity
  8
12
  6
DASHED
100
AcDbLine
 10
35.19999999999981
 20
137.25
 30
0.0
 11
35.19999999999981
 21
114.7499999999999
 31
0.0
  0
LINE
  5
E266
330
1E
100
AcDbEntity
  8
12
  6
DASHED
100
AcDbLine
 10
23.94999999999981
 20
126.0
 30
0.0
 11
46.45000000000004
 21
126.0
 31
0.0
  0
CIRCLE
  5
E267
330
1E
100
AcDbEntity
  8
12
  6
DASHED
100
AcDbCircle
 10
35.19999999999981
 20
126.0
 30
0.0
 40
8.249999999999996
  0
LWPOLYLINE
  5
E268
330
1E
100
AcDbEntity
  8
10
  6
Continuous
100
AcDbPolyline
 90
        5
 70
     0
 43
0.0
 10
151.1999999999998
 20
116.0
 42
1.0
 10
151.1999999999998
 20
136.0
 10
129.1999999999997
 20
136.0
 42
1.0
 10
129.1999999999997
 20
116.0
 10
129.1999999999997
 20
116.0
  0
LWPOLYLINE
  5
E3BA
330
1E
100
AcDbEntity
  8
10
  6
CONTINOUS
100
AcDbPolyline
 90
        4
 70
     1
 43
0.0
 10
-105.0
 20
-132.0
 10
174.9999999999998
 20
-132.0
 10
174.9999999999998
 20
141.0
 10
-105.0
 20
141.0
  0
DIMENSION
  5
E3BB
330
1E
100
AcDbEntity
  8
30
  6
Continuous
100
AcDbDimension
  2
*D36
 10
-105.0
 20
-172.5958749999999
 30
0.0
 11
-52.50000000000007
 21
-168.5958749999999
 31
0.0
 70
    32
 71
     5
 42
105.0
  3
STANDARD
100
AcDbAlignedDimension
 13
-0.0000000000000001
 23
-142.9999999999999
 33
0.0
 14
-105.0
 24
-132.0
 34
0.0
100
AcDbRotatedDimension
1001
ACAD
1000
DSTYLE
1002
{
1070
    79
1070
     3
1002
}
  0
DIMENSION
  5
E3C8
330
1E
100
AcDbEntity
  8
30
  6
Continuous
100
AcDbDimension
  2
*D37
 10
174.9999999999998
 20
-172.5958749999999
 30
0.0
 11
87.49999999999992
 21
-168.5958749999999
 31
0.0
 70
    32
 71
     5
 42
174.9999999999998
  3
STANDARD
100
AcDbAlignedDimension
 13
0.0
 23
-141.9999999999999
 33
0.0
 14
174.9999999999998
 24
-132.0
 34
0.0
100
AcDbRotatedDimension
1001
ACAD
1000
DSTYLE
1002
{
1070
    79
1070
     3
1002
}
  0
LWPOLYLINE
  5
E3F9
330
1E
100
AcDbEntity
  8
18
100
AcDbPolyline
 90
        4
 70
     1
 43
0.0
 10
-105.0
 20
-485.7235549737853
 10
174.9999999999998
 20
-485.7235549737853
 10
174.9999999999998
 20
-212.7235549737853
 10
-105.0
 20
-212.7235549737853
  0
LWPOLYLINE
  5
E458
330
1E
100
AcDbEntity
  8
10
  6
CONTINOUS
100
AcDbPolyline
 90
        4
 70
     1
 43
0.0
 10
-104.8
 20
383.1271619249115
 10
174.7999999999997
 20
383.1271619249115
 10
174.7999999999997
 20
280.1271619249114
 10
-104.8
 20
280.1271619249114
  0
LINE
  5
E45A
330
1E
100
AcDbEntity
  8
16
100
AcDbLine
 10
0.0
 20
515.1271619249113
 30
0.0
 11
0.0
 21
230.1271619249114
 31
0.0
  0
LWPOLYLINE
  5
E45B
330
1E
100
AcDbEntity
  8
10
  6
CONTINOUS
100
AcDbPolyline
 90
        4
 70
     0
 43
0.0
 10
-85.00000000000024
 20
280.1271619249114
 10
-85.00000000000024
 20
276.1271619249114
 10
85.0
 20
276.1271619249114
 10
85.0
 20
280.1271619249114
  0
LWPOLYLINE
  5
E45C
330
1E
100
AcDbEntity
  8
10
  6
CONTINOUS
100
AcDbPolyline
 90
        4
 70
     0
 43
0.0
 10
-14.0
 20
272.1271619249113
 10
-14.0
 20
258.1271619249114
 10
13.99999999999977
 20
258.1271619249114
 10
13.99999999999977
 20
272.1271619249113
  0
LWPOLYLINE
  5
E45D
330
1E
100
AcDbEntity
  8
10
  6
CONTINOUS
100
AcDbPolyline
 90
        4
 70
     0
 43
0.0
 10
-21.00000000000022
 20
272.1271619249113
 10
-21.00000000000022
 20
240.1271619249115
 10
20.59999999999991
 20
240.1271619249115
 10
20.59999999999991
 20
272.1271619249113
  0
LWPOLYLINE
  5
E45E
330
1E
100
AcDbEntity
  8
10
  6
CONTINOUS
100
AcDbPolyline
 90
        4
 70
     0
 43
0.0
 10
-25.5
 20
276.1271619249114
 10
-25.5
 20
272.1271619249113
 10
25.49999999999977
 20
272.1271619249113
 10
25.49999999999977
 20
276.1271619249114
  0
LWPOLYLINE
  5
E45F
330
1E
100
AcDbEntity
  8
18
100
AcDbPolyline
 90
        6
 70
     0
 43
0.0
 10
-109.8
 20
383.1271619249115
 10
-144.7999982114213
 20
383.1271606277819
 10
-144.7999982114213
 20
388.1271619249115
 10
214.7999999999997
 20
388.1271619249115
 10
214.8000017885784
 20
383.1271606277855
 10
179.7999999999996
 20
383.1271619249115
  0
LINE
  5
E461
330
1E
100
AcDbEntity
  8
17
100
AcDbLine
 10
70.0
 20
515.1271619249113
 30
0.0
 11
70.0
 21
373.1271619249115
 31
0.0
  0
LINE
  5
E462
330
1E
100
AcDbEntity
  8
17
100
AcDbLine
 10
140.0
 20
515.1271619249113
 30
0.0
 11
140.0
 21
373.1271619249115
 31
0.0
  0
LINE
  5
E463
330
1E
100
AcDbEntity
  8
17
100
AcDbLine
 10
-70.0
 20
515.1271619249113
 30
0.0
 11
-70.0
 21
373.1271619249115
 31
0.0
  0
LWPOLYLINE
  5
E464
330
1E
100
AcDbEntity
  8
21
  6
Continuous
100
AcDbPolyline
 90
        3
 70
     0
 43
0.0
 10
134.0
 20
420.1271619249113
 10
128.1999999999998
 20
420.1271619249113
 10
128.1999999999998
 20
383.1271619249115
  0
LWPOLYLINE
  5
E465
330
1E
100
AcDbEntity
  8
21
  6
Continuous
100
AcDbPolyline
 90
        3
 70
     0
 43
0.0
 10
146.0
 20
420.1271619249113
 10
151.7999999999997
 20
420.1271619249113
 10
151.7999999999997
 20
383.1271619249115
  0
LWPOLYLINE
  5
E466
330
1E
100
AcDbEntity
  8
21
  6
Continuous
100
AcDbPolyline
 90
        3
 70
     0
 43
0.0
 10
64.0
 20
420.1271619249113
 10
58.19999999999982
 20
420.1271619249113
 10
58.19999999999982
 20
383.1271619249115
  0
LWPOLYLINE
  5
E467
330
1E
100
AcDbEntity
  8
21
  6
Continuous
100
AcDbPolyline
 90
        3
 70
     0
 43
0.0
 10
76.0
 20
420.1271619249113
 10
81.79999999999973
 20
420.1271619249113
 10
81.79999999999973
 20
383.1271619249115
  0
LWPOLYLINE
  5
E468
330
1E
100
AcDbEntity
  8
21
  6
Continuous
100
AcDbPolyline
 90
        3
 70
     0
 43
0.0
 10
-6.0
 20
420.1271619249113
 10
-11.80000000000017
 20
420.1271619249113
 10
-11.80000000000017
 20
383.1271619249115
  0
LWPOLYLINE
  5
E469
330
1E
100
AcDbEntity
  8
21
  6
Continuous
100
AcDbPolyline
 90
        3
 70
     0
 43
0.0
 10
6.0
 20
420.1271619249113
 10
11.79999999999972
 20
420.1271619249113
 10
11.79999999999972
 20
383.1271619249115
  0
LWPOLYLINE
  5
E46A
330
1E
100
AcDbEntity
  8
21
  6
Continuous
100
AcDbPolyline
 90
        3
 70
     0
 43
0.0
 10
-64.0
 20
420.1271619249113
 10
-58.20000000000028
 20
420.1271619249113
 10
-58.20000000000028
 20
383.1271619249115
  0
LWPOLYLINE
  5
E46B
330
1E
100
AcDbEntity
  8
21
  6
Continuous
100
AcDbPolyline
 90
        3
 70
     0
 43
0.0
 10
-76.0
 20
420.1271619249113
 10
-81.80000000000019
 20
420.1271619249113
 10
-81.80000000000019
 20
383.1271619249115
  0
LWPOLYLINE
  5
E46C
330
1E
100
AcDbEntity
  8
21
  6
Continuous
100
AcDbPolyline
 90
        4
 70
     1
 43
0.0
 10
6.0
 20
505.1271619249113
 10
-6.0
 20
505.1271619249113
 10
-6.0
 20
415.1271619249113
 10
6.0
 20
415.1271619249113
  0
LWPOLYLINE
  5
E46D
330
1E
100
AcDbEntity
  8
21
  6
Continuous
100
AcDbPolyline
 90
        4
 70
     1
 43
0.0
 10
-64.0
 20
505.1271619249113
 10
-76.0
 20
505.1271619249113
 10
-76.0
 20
415.1271619249113
 10
-64.0
 20
415.1271619249113
  0
LWPOLYLINE
  5
E46E
330
1E
100
AcDbEntity
  8
21
  6
Continuous
100
AcDbPolyline
 90
        4
 70
     1
 43
0.0
 10
146.0
 20
505.1271619249113
 10
134.0
 20
505.1271619249113
 10
134.0
 20
415.1271619249113
 10
146.0
 20
415.1271619249113
  0
LWPOLYLINE
  5
E46F
330
1E
100
AcDbEntity
  8
21
  6
Continuous
100
AcDbPolyline
 90
        4
 70
     1
 43
0.0
 10
76.0
 20
505.1271619249113
 10
64.0
 20
505.1271619249113
 10
64.0
 20
415.1271619249113
 10
76.0
 20
415.1271619249113
  0
DIMENSION
  5
E470
330
1E
100
AcDbEntity
  8
30
  6
Continuous
100
AcDbDimension
  2
*D38
 10
70.0
 20
540.2230369249113
 30
0.0
 11
34.99999999999988
 21
544.2230369249113
 31
0.0
 70
    32
  1
 <> 
 71
     5
 42
70.00000000000023
  3
STANDARD
100
AcDbAlignedDimension
 13
-0.0000000000002274
 23
515.1271619249113
 33
0.0
 14
70.0
 24
515.1271619249113
 34
0.0
100
AcDbRotatedDimension
1001
ACAD
1000
DSTYLE
1002
{
1070
    79
1070
     3
1002
}
  0
DIMENSION
  5
E471
330
1E
100
AcDbEntity
  8
30
  6
Continuous
100
AcDbDimension
  2
*D39
 10
-0.0000000000002258
 20
540.2230369249113
 30
0.0
 11
-35.00000000000023
 21
544.2230369249113
 31
0.0
 70
    32
  1
 <> 
 71
     5
 42
70.0
  3
STANDARD
100
AcDbAlignedDimension
 13
-70.00000000000023
 23
515.1271619249113
 33
0.0
 14
-0.0000000000002274
 24
515.1271619249113
 34
0.0
100
AcDbRotatedDimension
1001
ACAD
1000
DSTYLE
1002
{
1070
    79
1070
     3
1002
}
  0
DIMENSION
  5
E472
330
1E
100
AcDbEntity
  8
30
  6
Continuous
100
AcDbDimension
  2
*D40
 10
139.9999999999996
 20
540.2230369249113
 30
0.0
 11
104.9999999999997
 21
544.2230369249113
 31
0.0
 70
    32
  1
 <> 
 71
     5
 42
69.99999999999977
  3
STANDARD
100
AcDbAlignedDimension
 13
70.0
 23
515.1271619249113
 33
0.0
 14
139.9999999999996
 24
515.1271619249113
 34
0.0
100
AcDbRotatedDimension
1001
ACAD
1000
DSTYLE
1002
{
1070
    79
1070
     3
1002
}
  0
DIMENSION
  5
E509
330
1E
100
AcDbEntity
  8
30
  6
Continuous
100
AcDbDimension
  2
*D41
 10
-64.0
 20
517.0
 30
0.0
 11
-70.0
 21
521.0
 31
0.0
 70
    32
 71
     5
 42
12.0
  3
STANDARD
100
AcDbAlignedDimension
 13
-76.0
 23
505.1271619249113
 33
0.0
 14
-64.0
 24
505.1271619249113
 34
0.0
100
AcDbRotatedDimension
1001
ACAD
1000
DSTYLE
1002
{
1070
    79
1070
     3
1002
}
  0
DIMENSION
  5
E51D
330
1E
100
AcDbEntity
  8
30
  6
Continuous
100
AcDbDimension
  2
*D42
 10
551.0
 20
-123.4999999999997
 30
0.0
 11
547.0
 21
-116.9999999999997
 31
0.0
 70
    32
 71
     5
 42
13.00000000000002
  3
STANDARD
100
AcDbAlignedDimension
 13
529.0
 23
-110.4999999999997
 33
0.0
 14
528.9999999999999
 24
-123.4999999999997
 34
0.0
 50
90.0
100
AcDbRotatedDimension
1001
ACAD
1000
DSTYLE
1002
{
1070
    79
1070
     3
1002
}
  0
VIEWPORT
  5
9AC
330
1A
100
AcDbEntity
 67
     1
  8
0
  6
Continuous
100
AcDbViewport
 10
171.999535
 20
144.1384739999999
 30
0.0
 40
488.867686
 41
292.351491
 68
    -1
 69
     1
 12
171.999535
 22
144.1384739999999
 13
0.0
 23
0.0
 14
10.0
 24
10.0
 15
10.0
 25
10.0
 16
0.0
 26
0.0
 36
1.0
 17
0.0
 27
0.0
 37
0.0
 42
50.0
 43
0.0
 44
0.0
 45
292.351491
 50
0.0
 51
0.0
 72
   100
 90
    32800
  1

281
     0
 71
     1
 74
     0
110
0.0
120
0.0
130
0.0
111
1.0
121
0.0
131
0.0
112
0.0
122
1.0
132
0.0
 79
     0
146
0.0
  0
ENDSEC
  0
SECTION
  2
OBJECTS
  0
DICTIONARY
  5
C
330
0
100
AcDbDictionary
281
     1
  3
ACAD_GROUP
350
D
  3
ACAD_LAYOUT
350
19
  3
ACAD_MLINESTYLE
350
16
  3
ACAD_PLOTSETTINGS
350
18
  3
ACAD_PLOTSTYLENAME
350
E
  3
ACADDIM
350
6D5E
  3
ACDBHEADERROUNDTRIPXREC
350
E55F
  3
ACDBVARIABLEDICTIONARY
350
5697
  0
DICTIONARY
  5
178
330
1E
100
AcDbDictionary
280
     1
281
     1
  3
ACAD_LAYOUTSELFREF
360
98E8
  0
DICTIONARY
  5
17A
330
1A
100
AcDbDictionary
280
     1
281
     1
  3
ACAD_LAYOUTSELFREF
360
98E7
  0
DICTIONARY
  5
D
102
{ACAD_REACTORS
330
C
102
}
330
C
100
AcDbDictionary
281
     1
  0
DICTIONARY
  5
19
102
{ACAD_REACTORS
330
C
102
}
330
C
100
AcDbDictionary
281
     1
  3
Model
350
9913
  3
ﾚｲｱｳﾄ1
350
9914
  0
DICTIONARY
  5
16
102
{ACAD_REACTORS
330
C
102
}
330
C
100
AcDbDictionary
281
     1
  3
STANDARD
350
17
  0
DICTIONARY
  5
18
102
{ACAD_REACTORS
330
C
102
}
330
C
100
AcDbDictionary
281
     1
  0
ACDBDICTIONARYWDFLT
  5
E
102
{ACAD_REACTORS
330
C
102
}
330
C
100
AcDbDictionary
281
     1
  3
Normal
350
F
100
AcDbDictionaryWithDefault
340
F
  0
XRECORD
  5
6D5E
102
{ACAD_REACTORS
330
C
102
}
330
C
100
AcDbXrecord
280
     1
 90
   990106
  3

 60
     0
 61
     0
 62
     1
 63
     3
 64
     0
 65
     0
 66
     0
 67
     3
 68
     1
 69
     0
 70
     0
 71
     0
 72
     0
 40
0.0
170
     0
340
7CA9
  0
DICTIONARY
  5
E55F
102
{ACAD_REACTORS
330
C
102
}
330
C
100
AcDbDictionary
281
     1
  3
CEPSNTYPE
350
E569
  3
DIMSTYLEDATA
350
E56D
  3
FINGERPRINTGUID
350
E56A
  3
HYPERLINKBASE
350
E562
  3
INSUNITS
350
E568
  3
LAYOUTDICT
350
E564
  3
LWETCUNION
350
E567
  3
PLOTSETDICT
350
E565
  3
PLOTSTYLNAMDICT
350
E566
  3
PSVPSCALE
350
E56C
  3
PUCSBASE
350
E570
  3
PUCSORGBACK
350
E576
  3
PUCSORGBOTTOM
350
E572
  3
PUCSORGFRONT
350
E575
  3
PUCSORGLEFT
350
E573
  3
PUCSORGRIGHT
350
E574
  3
PUCSORGTOP
350
E571
  3
PUCSORTHOREF
350
E56E
  3
PUCSORTHOVIEW
350
E56F
  3
STYLESHEET
350
E563
  3
TSTACKALIGN
350
E560
  3
TSTACKSIZE
350
E561
  3
UCSBASE
350
E579
  3
UCSORGBACK
350
E57F
  3
UCSORGBOTTOM
350
E57B
  3
UCSORGFRONT
350
E57E
  3
UCSORGLEFT
350
E57C
  3
UCSORGRIGHT
350
E57D
  3
UCSORGTOP
350
E57A
  3
UCSORTHOREF
350
E577
  3
UCSORTHOVIEW
350
E578
  3
VERSIONGUID
350
E56B
  0
DICTIONARY
  5
5697
102
{ACAD_REACTORS
330
C
102
}
330
C
100
AcDbDictionary
281
     1
  3
DIMASSOC
350
5698
  0
XRECORD
  5
98E8
102
{ACAD_REACTORS
330
178
102
}
330
178
100
AcDbXrecord
280
     1
340
1E
  0
XRECORD
  5
98E7
102
{ACAD_REACTORS
330
17A
102
}
330
17A
100
AcDbXrecord
280
     1
340
1A
  0
LAYOUT
  5
9913
102
{ACAD_REACTORS
330
19
102
}
330
19
100
AcDbPlotSettings
  1

  2
LBP5400
  4

  6

 40
0.0
 41
0.0
 42
0.0
 43
0.0
 44
0.0
 45
0.0
 46
0.0
 47
0.0
 48
0.0
 49
0.0
140
0.0
141
0.0
142
1.0
143
1.0
 70
  1712
 72
     0
 73
     0
 74
     0
  7
monochrome.stb
 75
     0
147
1.0
148
0.0
149
0.0
100
AcDbLayout
  1
Model
 70
     1
 71
     0
 10
0.0
 20
0.0
 11
12.0
 21
9.0
 12
0.0
 22
0.0
 32
0.0
 14
0.0
 24
0.0
 34
0.0
 15
0.0
 25
0.0
 35
0.0
146
0.0
 13
0.0
 23
0.0
 33
0.0
 16
1.0
 26
0.0
 36
0.0
 17
0.0
 27
1.0
 37
0.0
 76
     0
330
1E
  0
LAYOUT
  5
9914
102
{ACAD_REACTORS
330
19
102
}
330
19
100
AcDbPlotSettings
  1

  2
LBP5400
  4

  6

 40
0.0
 41
0.0
 42
0.0
 43
0.0
 44
0.0
 45
0.0
 46
0.0
 47
0.0
 48
0.0
 49
0.0
140
0.0
141
0.0
142
1.0
143
1.0
 70
   688
 72
     0
 73
     0
 74
     5
  7
monochrome.stb
 75
    16
147
1.0
148
0.0
149
0.0
100
AcDbLayout
  1
ﾚｲｱｳﾄ1
 70
     1
 71
     1
 10
-5.873749
 20
-5.87375
 11
204.099579
 21
291.1369009999999
 12
0.0
 22
0.0
 32
0.0
 14
4.273573
 24
5.205245999999998
 34
0.0
 15
194.610095
 25
283.0697009999996
 35
0.0
146
0.0
 13
0.0
 23
0.0
 33
0.0
 16
1.0
 26
0.0
 36
0.0
 17
0.0
 27
1.0
 37
0.0
 76
     0
330
1A
  0
MLINESTYLE
  5
17
102
{ACAD_REACTORS
330
16
102
}
330
16
100
AcDbMlineStyle
  2
STANDARD
 70
     0
  3

 62
   256
 51
90.0
 52
90.0
 71
     2
 49
0.5
 62
   256
  6
BYLAYER
 49
-0.5
 62
   256
  6
BYLAYER
  0
ACDBPLACEHOLDER
  5
F
102
{ACAD_REACTORS
330
E
102
}
330
E
  0
XRECORD
  5
E569
102
{ACAD_REACTORS
330
E55F
102
}
330
E55F
100
AcDbXrecord
280
     1
 90
        0
  0
XRECORD
  5
E56D
102
{ACAD_REACTORS
330
E55F
102
}
330
E55F
100
AcDbXrecord
280
     1
1000
DSTYLE
1002
{
1070
    79
 70
     3
1070
   341
340
3B2
1070
   342
340
3B2
1002
}
  0
XRECORD
  5
E56A
102
{ACAD_REACTORS
330
E55F
102
}
330
E55F
100
AcDbXrecord
280
     1
  1

  0
XRECORD
  5
E562
102
{ACAD_REACTORS
330
E55F
102
}
330
E55F
100
AcDbXrecord
280
     1
  1

  0
XRECORD
  5
E568
102
{ACAD_REACTORS
330
E55F
102
}
330
E55F
100
AcDbXrecord
280
     1
 90
        0
  0
XRECORD
  5
E564
102
{ACAD_REACTORS
330
E55F
102
}
330
E55F
100
AcDbXrecord
280
     1
340
19
  0
XRECORD
  5
E567
102
{ACAD_REACTORS
330
E55F
102
}
330
E55F
100
AcDbXrecord
280
     1
 90
    10781
  0
XRECORD
  5
E565
102
{ACAD_REACTORS
330
E55F
102
}
330
E55F
100
AcDbXrecord
280
     1
340
18
  0
XRECORD
  5
E566
102
{ACAD_REACTORS
330
E55F
102
}
330
E55F
100
AcDbXrecord
280
     1
340
E
  0
XRECORD
  5
E56C
102
{ACAD_REACTORS
330
E55F
102
}
330
E55F
100
AcDbXrecord
280
     1
 40
0.0
  0
XRECORD
  5
E570
102
{ACAD_REACTORS
330
E55F
102
}
330
E55F
100
AcDbXrecord
280
     1
340
0
  0
XRECORD
  5
E576
102
{ACAD_REACTORS
330
E55F
102
}
330
E55F
100
AcDbXrecord
280
     1
 10
0.0
 20
0.0
 30
0.0
  0
XRECORD
  5
E572
102
{ACAD_REACTORS
330
E55F
102
}
330
E55F
100
AcDbXrecord
280
     1
 10
0.0
 20
0.0
 30
0.0
  0
XRECORD
  5
E575
102
{ACAD_REACTORS
330
E55F
102
}
330
E55F
100
AcDbXrecord
280
     1
 10
0.0
 20
0.0
 30
0.0
  0
XRECORD
  5
E573
102
{ACAD_REACTORS
330
E55F
102
}
330
E55F
100
AcDbXrecord
280
     1
 10
0.0
 20
0.0
 30
0.0
  0
XRECORD
  5
E574
102
{ACAD_REACTORS
330
E55F
102
}
330
E55F
100
AcDbXrecord
280
     1
 10
0.0
 20
0.0
 30
0.0
  0
XRECORD
  5
E571
102
{ACAD_REACTORS
330
E55F
102
}
330
E55F
100
AcDbXrecord
280
     1
 10
0.0
 20
0.0
 30
0.0
  0
XRECORD
  5
E56E
102
{ACAD_REACTORS
330
E55F
102
}
330
E55F
100
AcDbXrecord
280
     1
340
0
  0
XRECORD
  5
E56F
102
{ACAD_REACTORS
330
E55F
102
}
330
E55F
100
AcDbXrecord
280
     1
 70
     0
  0
XRECORD
  5
E563
102
{ACAD_REACTORS
330
E55F
102
}
330
E55F
100
AcDbXrecord
280
     1
  1
KIKI.CTB
  0
XRECORD
  5
E560
102
{ACAD_REACTORS
330
E55F
102
}
330
E55F
100
AcDbXrecord
280
     1
 90
        1
  0
XRECORD
  5
E561
102
{ACAD_REACTORS
330
E55F
102
}
330
E55F
100
AcDbXrecord
280
     1
 90
       70
  0
XRECORD
  5
E579
102
{ACAD_REACTORS
330
E55F
102
}
330
E55F
100
AcDbXrecord
280
     1
340
0
  0
XRECORD
  5
E57F
102
{ACAD_REACTORS
330
E55F
102
}
330
E55F
100
AcDbXrecord
280
     1
 10
0.0
 20
0.0
 30
0.0
  0
XRECORD
  5
E57B
102
{ACAD_REACTORS
330
E55F
102
}
330
E55F
100
AcDbXrecord
280
     1
 10
0.0
 20
0.0
 30
0.0
  0
XRECORD
  5
E57E
102
{ACAD_REACTORS
330
E55F
102
}
330
E55F
100
AcDbXrecord
280
     1
 10
0.0
 20
0.0
 30
0.0
  0
XRECORD
  5
E57C
102
{ACAD_REACTORS
330
E55F
102
}
330
E55F
100
AcDbXrecord
280
     1
 10
0.0
 20
0.0
 30
0.0
  0
XRECORD
  5
E57D
102
{ACAD_REACTORS
330
E55F
102
}
330
E55F
100
AcDbXrecord
280
     1
 10
0.0
 20
0.0
 30
0.0
  0
XRECORD
  5
E57A
102
{ACAD_REACTORS
330
E55F
102
}
330
E55F
100
AcDbXrecord
280
     1
 10
0.0
 20
0.0
 30
0.0
  0
XRECORD
  5
E577
102
{ACAD_REACTORS
330
E55F
102
}
330
E55F
100
AcDbXrecord
280
     1
340
0
  0
XRECORD
  5
E578
102
{ACAD_REACTORS
330
E55F
102
}
330
E55F
100
AcDbXrecord
280
     1
 70
     0
  0
XRECORD
  5
E56B
102
{ACAD_REACTORS
330
E55F
102
}
330
E55F
100
AcDbXrecord
280
     1
  1
{03EAA297-96F2-4EC0-8A76-954825AC919A}
  0
DICTIONARYVAR
  5
5698
102
{ACAD_REACTORS
330
5697
102
}
330
5697
100
DictionaryVariables
280
     0
  1
1
  0
ENDSEC
  0
EOF
