  0
SECTION
  2
HEADER
  9
$ACADVER
  1
AC1014
  9
$ACADMAINTVER
 70
     9
  9
$DWGCODEPAGE
  3
ANSI_932
  9
$INSBASE
 10
0.0
 20
0.0
 30
0.0
  9
$EXTMIN
 10
-210.8818704252259
 20
-659.4999999999997
 30
0.0
  9
$EXTMAX
 10
514.5
 20
556.0
 30
0.0
  9
$LIMMIN
 10
-302.0
 20
-689.0
  9
$LIMMAX
 10
615.0
 20
462.0
  9
$ORTHOMODE
 70
     1
  9
$REGENMODE
 70
     1
  9
$FILLMODE
 70
     1
  9
$QTEXTMODE
 70
     0
  9
$MIRRTEXT
 70
     1
  9
$DRAGMODE
 70
     2
  9
$LTSCALE
 40
30.0
  9
$OSMODE
 70
    37
  9
$ATTMODE
 70
     1
  9
$TEXTSIZE
 40
5.0
  9
$TRACEWID
 40
0.05
  9
$TEXTSTYLE
  7
STANDARD1
  9
$CLAYER
  8
30
  9
$CELTYPE
  6
CONTINUOUS
  9
$CECOLOR
 62
   256
  9
$CELTSCALE
 40
1.0
  9
$DELOBJ
 70
     1
  9
$DISPSILH
 70
     0
  9
$DIMSCALE
 40
1.0
  9
$DIMASZ
 40
2.0
  9
$DIMEXO
 40
1.0
  9
$DIMDLI
 40
0.5
  9
$DIMRND
 40
0.0
  9
$DIMDLE
 40
0.0
  9
$DIMEXE
 40
0.5
  9
$DIMTP
 40
0.0
  9
$DIMTM
 40
0.0
  9
$DIMTXT
 40
5.0
  9
$DIMCEN
 40
0.09
  9
$DIMTSZ
 40
0.0
  9
$DIMTOL
 70
     0
  9
$DIMLIM
 70
     0
  9
$DIMTIH
 70
     0
  9
$DIMTOH
 70
     1
  9
$DIMSE1
 70
     0
  9
$DIMSE2
 70
     0
  9
$DIMTAD
 70
     3
  9
$DIMZIN
 70
    12
  9
$DIMBLK
  1
OPEN
  9
$DIMASO
 70
     1
  9
$DIMSHO
 70
     1
  9
$DIMPOST
  1

  9
$DIMAPOST
  1

  9
$DIMALT
 70
     0
  9
$DIMALTD
 70
     2
  9
$DIMALTF
 40
25.4
  9
$DIMLFAC
 40
1.0
  9
$DIMTOFL
 70
     0
  9
$DIMTVP
 40
0.0
  9
$DIMTIX
 70
     0
  9
$DIMSOXD
 70
     0
  9
$DIMSAH
 70
     0
  9
$DIMBLK1
  1

  9
$DIMBLK2
  1

  9
$DIMSTYLE
  2
STANDARD
  9
$DIMCLRD
 70
     0
  9
$DIMCLRE
 70
     0
  9
$DIMCLRT
 70
     0
  9
$DIMTFAC
 40
1.0
  9
$DIMGAP
 40
1.0
  9
$DIMJUST
 70
     0
  9
$DIMSD1
 70
     0
  9
$DIMSD2
 70
     0
  9
$DIMTOLJ
 70
     1
  9
$DIMTZIN
 70
     0
  9
$DIMALTZ
 70
     0
  9
$DIMALTTZ
 70
     0
  9
$DIMFIT
 70
     3
  9
$DIMUPT
 70
     0
  9
$DIMUNIT
 70
     2
  9
$DIMDEC
 70
     1
  9
$DIMTDEC
 70
     1
  9
$DIMALTU
 70
     2
  9
$DIMALTTD
 70
     2
  9
$DIMTXSTY
  7
STANDARD
  9
$DIMAUNIT
 70
     0
  9
$LUNITS
 70
     2
  9
$LUPREC
 70
     4
  9
$SKETCHINC
 40
0.1
  9
$FILLETRAD
 40
0.0
  9
$AUNITS
 70
     0
  9
$AUPREC
 70
     0
  9
$MENU
  1
.
  9
$ELEVATION
 40
0.0
  9
$PELEVATION
 40
0.0
  9
$THICKNESS
 40
0.0
  9
$LIMCHECK
 70
     0
  9
$BLIPMODE
 70
     0
  9
$CHAMFERA
 40
0.0
  9
$CHAMFERB
 40
0.0
  9
$CHAMFERC
 40
0.0
  9
$CHAMFERD
 40
0.0
  9
$SKPOLY
 70
     0
  9
$TDCREATE
 40
2452286.555658657
  9
$TDUPDATE
 40
2453186.468269132
  9
$TDINDWG
 40
1.3404869792
  9
$TDUSRTIMER
 40
1.3404869792
  9
$USRTIMER
 70
     1
  9
$ANGBASE
 50
0.0
  9
$ANGDIR
 70
     0
  9
$PDMODE
 70
     0
  9
$PDSIZE
 40
0.0
  9
$PLINEWID
 40
0.0
  9
$COORDS
 70
     0
  9
$SPLFRAME
 70
     0
  9
$SPLINETYPE
 70
     6
  9
$SPLINESEGS
 70
     8
  9
$ATTDIA
 70
     0
  9
$ATTREQ
 70
     1
  9
$HANDLING
 70
 22529
  9
$HANDSEED
  5
7519
  9
$SURFTAB1
 70
     6
  9
$SURFTAB2
 70
     6
  9
$SURFTYPE
 70
     6
  9
$SURFU
 70
     6
  9
$SURFV
 70
     6
  9
$UCSNAME
  2

  9
$UCSORG
 10
0.0
 20
0.0
 30
0.0
  9
$UCSXDIR
 10
1.0
 20
0.0
 30
0.0
  9
$UCSYDIR
 10
0.0
 20
1.0
 30
0.0
  9
$PUCSNAME
  2

  9
$PUCSORG
 10
0.0
 20
0.0
 30
0.0
  9
$PUCSXDIR
 10
1.0
 20
0.0
 30
0.0
  9
$PUCSYDIR
 10
0.0
 20
1.0
 30
0.0
  9
$USERI1
 70
     0
  9
$USERI2
 70
     0
  9
$USERI3
 70
     0
  9
$USERI4
 70
     0
  9
$USERI5
 70
     0
  9
$USERR1
 40
0.0
  9
$USERR2
 40
0.0
  9
$USERR3
 40
0.0
  9
$USERR4
 40
0.0
  9
$USERR5
 40
0.0
  9
$WORLDVIEW
 70
     1
  9
$SHADEDGE
 70
     3
  9
$SHADEDIF
 70
    70
  9
$TILEMODE
 70
     1
  9
$MAXACTVP
 70
    48
  9
$PINSBASE
 10
0.0
 20
0.0
 30
0.0
  9
$PLIMCHECK
 70
     0
  9
$PEXTMIN
 10
4.273573370203961
 20
5.205246163471485
 30
0.0
  9
$PEXTMAX
 10
194.6100952986349
 20
283.0697008572913
 30
0.0
  9
$PLIMMIN
 10
-5.873748779296875
 20
-5.873749732971191
  9
$PLIMMAX
 10
204.0995788574218
 20
291.1369009017943
  9
$UNITMODE
 70
     0
  9
$VISRETAIN
 70
     1
  9
$PLINEGEN
 70
     0
  9
$PSLTSCALE
 70
     1
  9
$TREEDEPTH
 70
  3020
  9
$PICKSTYLE
 70
     1
  9
$CMLSTYLE
  2
STANDARD
  9
$CMLJUST
 70
     0
  9
$CMLSCALE
 40
1.0
  9
$PROXYGRAPHICS
 70
     1
  9
$MEASUREMENT
 70
     0
  0
ENDSEC
  0
SECTION
  2
CLASSES
  0
CLASS
  1
ACDBDICTIONARYWDFLT
  2
AcDbDictionaryWithDefault
  3
AutoCAD 2000
 90
        0
280
     0
281
     0
  0
CLASS
  1
ACDBPLACEHOLDER
  2
AcDbPlaceHolder
  3
AutoCAD 2000
 90
        0
280
     0
281
     0
  0
CLASS
  1
LAYOUT
  2
AcDbLayout
  3
AutoCAD 2000
 90
        0
280
     0
281
     0
  0
CLASS
  1
LONG_TRANSACTION
  2
AcDbLongTransaction
  3
AutoCAD 2000
 90
        0
280
     0
281
     0
  0
CLASS
  1
LWPOLYLINE
  2
AcDbPolyline
  3
AutoCAD 2000
 90
        0
280
     0
281
     1
  0
CLASS
  1
HATCH
  2
AcDbHatch
  3
AutoCAD 2000
 90
        0
280
     0
281
     1
  0
CLASS
  1
XRECORD
  2
AcDbXrecord
  3
AutoCAD 2000
 90
        0
280
     0
281
     0
  0
CLASS
  1
LONG_TRANSACTION
  2
AcDbLongTransaction
  3
AutoCAD 2000
 90
        0
280
     0
281
     0
  0
CLASS
  1
LWPOLYLINE
  2
AcDbPolyline
  3
AutoCAD 2000
 90
        0
280
     0
281
     1
  0
CLASS
  1
HATCH
  2
AcDbHatch
  3
AutoCAD 2000
 90
        0
280
     0
281
     1
  0
CLASS
  1
XRECORD
  2
AcDbXrecord
  3
AutoCAD 2000
 90
        0
280
     0
281
     0
  0
CLASS
  1
LONG_TRANSACTION
  2
AcDbLongTransaction
  3
AutoCAD 2000
 90
        0
280
     0
281
     0
  0
CLASS
  1
LWPOLYLINE
  2
AcDbPolyline
  3
AutoCAD 2000
 90
        0
280
     0
281
     1
  0
CLASS
  1
HATCH
  2
AcDbHatch
  3
AutoCAD 2000
 90
        0
280
     0
281
     1
  0
CLASS
  1
XRECORD
  2
AcDbXrecord
  3
AutoCAD 2000
 90
        0
280
     0
281
     0
  0
CLASS
  1
LONG_TRANSACTION
  2
AcDbLongTransaction
  3
AutoCAD 2000
 90
        0
280
     0
281
     0
  0
CLASS
  1
LWPOLYLINE
  2
AcDbPolyline
  3
AutoCAD 2000
 90
        0
280
     0
281
     1
  0
CLASS
  1
HATCH
  2
AcDbHatch
  3
AutoCAD 2000
 90
        0
280
     0
281
     1
  0
CLASS
  1
XRECORD
  2
AcDbXrecord
  3
AutoCAD 2000
 90
        0
280
     0
281
     0
  0
CLASS
  1
LONG_TRANSACTION
  2
AcDbLongTransaction
  3
AutoCAD 2000
 90
        0
280
     0
281
     0
  0
CLASS
  1
LWPOLYLINE
  2
AcDbPolyline
  3
AutoCAD 2000
 90
        0
280
     0
281
     1
  0
CLASS
  1
HATCH
  2
AcDbHatch
  3
AutoCAD 2000
 90
        0
280
     0
281
     1
  0
CLASS
  1
XRECORD
  2
AcDbXrecord
  3
AutoCAD 2000
 90
        0
280
     0
281
     0
  0
CLASS
  1
LONG_TRANSACTION
  2
AcDbLongTransaction
  3
AutoCAD 2000
 90
        0
280
     0
281
     0
  0
CLASS
  1
LWPOLYLINE
  2
AcDbPolyline
  3
AutoCAD 2000
 90
        0
280
     0
281
     1
  0
CLASS
  1
HATCH
  2
AcDbHatch
  3
AutoCAD 2000
 90
        0
280
     0
281
     1
  0
CLASS
  1
XRECORD
  2
AcDbXrecord
  3
AutoCAD 2000
 90
        0
280
     0
281
     0
  0
CLASS
  1
LONG_TRANSACTION
  2
AcDbLongTransaction
  3
AutoCAD 2000
 90
        0
280
     0
281
     0
  0
CLASS
  1
LWPOLYLINE
  2
AcDbPolyline
  3
AutoCAD 2000
 90
        0
280
     0
281
     1
  0
CLASS
  1
HATCH
  2
AcDbHatch
  3
AutoCAD 2000
 90
        0
280
     0
281
     1
  0
CLASS
  1
XRECORD
  2
AcDbXrecord
  3
AutoCAD 2000
 90
        0
280
     0
281
     0
  0
CLASS
  1
LONG_TRANSACTION
  2
AcDbLongTransaction
  3
AutoCAD 2000
 90
        0
280
     0
281
     0
  0
CLASS
  1
LWPOLYLINE
  2
AcDbPolyline
  3
AutoCAD 2000
 90
        0
280
     0
281
     1
  0
CLASS
  1
HATCH
  2
AcDbHatch
  3
AutoCAD 2000
 90
        0
280
     0
281
     1
  0
CLASS
  1
XRECORD
  2
AcDbXrecord
  3
AutoCAD 2000
 90
        0
280
     0
281
     0
  0
CLASS
  1
LONG_TRANSACTION
  2
AcDbLongTransaction
  3
AutoCAD 2000
 90
        0
280
     0
281
     0
  0
CLASS
  1
LWPOLYLINE
  2
AcDbPolyline
  3
AutoCAD 2000
 90
        0
280
     0
281
     1
  0
CLASS
  1
HATCH
  2
AcDbHatch
  3
AutoCAD 2000
 90
        0
280
     0
281
     1
  0
CLASS
  1
XRECORD
  2
AcDbXrecord
  3
AutoCAD 2000
 90
        0
280
     0
281
     0
  0
CLASS
  1
LONG_TRANSACTION
  2
AcDbLongTransaction
  3
AutoCAD 2000
 90
        0
280
     0
281
     0
  0
CLASS
  1
LWPOLYLINE
  2
AcDbPolyline
  3
AutoCAD 2000
 90
        0
280
     0
281
     1
  0
CLASS
  1
HATCH
  2
AcDbHatch
  3
AutoCAD 2000
 90
        0
280
     0
281
     1
  0
CLASS
  1
XRECORD
  2
AcDbXrecord
  3
AutoCAD 2000
 90
        0
280
     0
281
     0
  0
CLASS
  1
LONG_TRANSACTION
  2
AcDbLongTransaction
  3
AutoCAD 2000
 90
        0
280
     0
281
     0
  0
CLASS
  1
LWPOLYLINE
  2
AcDbPolyline
  3
AutoCAD 2000
 90
        0
280
     0
281
     1
  0
CLASS
  1
HATCH
  2
AcDbHatch
  3
AutoCAD 2000
 90
        0
280
     0
281
     1
  0
CLASS
  1
XRECORD
  2
AcDbXrecord
  3
AutoCAD 2000
 90
        0
280
     0
281
     0
  0
CLASS
  1
LONG_TRANSACTION
  2
AcDbLongTransaction
  3
AutoCAD 2000
 90
        0
280
     0
281
     0
  0
CLASS
  1
LWPOLYLINE
  2
AcDbPolyline
  3
AutoCAD 2000
 90
        0
280
     0
281
     1
  0
CLASS
  1
HATCH
  2
AcDbHatch
  3
AutoCAD 2000
 90
        0
280
     0
281
     1
  0
CLASS
  1
XRECORD
  2
AcDbXrecord
  3
AutoCAD 2000
 90
        0
280
     0
281
     0
  0
CLASS
  1
LONG_TRANSACTION
  2
AcDbLongTransaction
  3
AutoCAD 2000
 90
        0
280
     0
281
     0
  0
CLASS
  1
LWPOLYLINE
  2
AcDbPolyline
  3
AutoCAD 2000
 90
        0
280
     0
281
     1
  0
CLASS
  1
HATCH
  2
AcDbHatch
  3
AutoCAD 2000
 90
        0
280
     0
281
     1
  0
CLASS
  1
XRECORD
  2
AcDbXrecord
  3
AutoCAD 2000
 90
        0
280
     0
281
     0
  0
CLASS
  1
LONG_TRANSACTION
  2
AcDbLongTransaction
  3
AutoCAD 2000
 90
        0
280
     0
281
     0
  0
CLASS
  1
LWPOLYLINE
  2
AcDbPolyline
  3
AutoCAD 2000
 90
        0
280
     0
281
     1
  0
CLASS
  1
HATCH
  2
AcDbHatch
  3
AutoCAD 2000
 90
        0
280
     0
281
     1
  0
CLASS
  1
XRECORD
  2
AcDbXrecord
  3
AutoCAD 2000
 90
        0
280
     0
281
     0
  0
CLASS
  1
LONG_TRANSACTION
  2
AcDbLongTransaction
  3
AutoCAD 2000
 90
        0
280
     0
281
     0
  0
CLASS
  1
LWPOLYLINE
  2
AcDbPolyline
  3
AutoCAD 2000
 90
        0
280
     0
281
     1
  0
CLASS
  1
HATCH
  2
AcDbHatch
  3
AutoCAD 2000
 90
        0
280
     0
281
     1
  0
CLASS
  1
XRECORD
  2
AcDbXrecord
  3
AutoCAD 2000
 90
        0
280
     0
281
     0
  0
CLASS
  1
LONG_TRANSACTION
  2
AcDbLongTransaction
  3
AutoCAD 2000
 90
        0
280
     0
281
     0
  0
CLASS
  1
LWPOLYLINE
  2
AcDbPolyline
  3
AutoCAD 2000
 90
        0
280
     0
281
     1
  0
CLASS
  1
HATCH
  2
AcDbHatch
  3
AutoCAD 2000
 90
        0
280
     0
281
     1
  0
CLASS
  1
XRECORD
  2
AcDbXrecord
  3
AutoCAD 2000
 90
        0
280
     0
281
     0
  0
CLASS
  1
LONG_TRANSACTION
  2
AcDbLongTransaction
  3
AutoCAD 2000
 90
        0
280
     0
281
     0
  0
CLASS
  1
LWPOLYLINE
  2
AcDbPolyline
  3
AutoCAD 2000
 90
        0
280
     0
281
     1
  0
CLASS
  1
HATCH
  2
AcDbHatch
  3
AutoCAD 2000
 90
        0
280
     0
281
     1
  0
CLASS
  1
XRECORD
  2
AcDbXrecord
  3
AutoCAD 2000
 90
        0
280
     0
281
     0
  0
CLASS
  1
LONG_TRANSACTION
  2
AcDbLongTransaction
  3
AutoCAD 2000
 90
        0
280
     0
281
     0
  0
CLASS
  1
LWPOLYLINE
  2
AcDbPolyline
  3
AutoCAD 2000
 90
        0
280
     0
281
     1
  0
CLASS
  1
HATCH
  2
AcDbHatch
  3
AutoCAD 2000
 90
        0
280
     0
281
     1
  0
CLASS
  1
XRECORD
  2
AcDbXrecord
  3
AutoCAD 2000
 90
        0
280
     0
281
     0
  0
CLASS
  1
LONG_TRANSACTION
  2
AcDbLongTransaction
  3
AutoCAD 2000
 90
        0
280
     0
281
     0
  0
CLASS
  1
LWPOLYLINE
  2
AcDbPolyline
  3
AutoCAD 2000
 90
        0
280
     0
281
     1
  0
CLASS
  1
HATCH
  2
AcDbHatch
  3
AutoCAD 2000
 90
        0
280
     0
281
     1
  0
CLASS
  1
XRECORD
  2
AcDbXrecord
  3
AutoCAD 2000
 90
        0
280
     0
281
     0
  0
CLASS
  1
LONG_TRANSACTION
  2
AcDbLongTransaction
  3
AutoCAD 2000
 90
        0
280
     0
281
     0
  0
CLASS
  1
LWPOLYLINE
  2
AcDbPolyline
  3
AutoCAD 2000
 90
        0
280
     0
281
     1
  0
CLASS
  1
HATCH
  2
AcDbHatch
  3
AutoCAD 2000
 90
        0
280
     0
281
     1
  0
CLASS
  1
XRECORD
  2
AcDbXrecord
  3
AutoCAD 2000
 90
        0
280
     0
281
     0
  0
CLASS
  1
LONG_TRANSACTION
  2
AcDbLongTransaction
  3
AutoCAD 2000
 90
        0
280
     0
281
     0
  0
CLASS
  1
LWPOLYLINE
  2
AcDbPolyline
  3
AutoCAD 2000
 90
        0
280
     0
281
     1
  0
CLASS
  1
HATCH
  2
AcDbHatch
  3
AutoCAD 2000
 90
        0
280
     0
281
     1
  0
CLASS
  1
XRECORD
  2
AcDbXrecord
  3
AutoCAD 2000
 90
        0
280
     0
281
     0
  0
CLASS
  1
LONG_TRANSACTION
  2
AcDbLongTransaction
  3
AutoCAD 2000
 90
        0
280
     0
281
     0
  0
CLASS
  1
LWPOLYLINE
  2
AcDbPolyline
  3
AutoCAD 2000
 90
        0
280
     0
281
     1
  0
CLASS
  1
HATCH
  2
AcDbHatch
  3
AutoCAD 2000
 90
        0
280
     0
281
     1
  0
CLASS
  1
XRECORD
  2
AcDbXrecord
  3
AutoCAD 2000
 90
        0
280
     0
281
     0
  0
CLASS
  1
LONG_TRANSACTION
  2
AcDbLongTransaction
  3
AutoCAD 2000
 90
        0
280
     0
281
     0
  0
CLASS
  1
LWPOLYLINE
  2
AcDbPolyline
  3
AutoCAD 2000
 90
        0
280
     0
281
     1
  0
CLASS
  1
HATCH
  2
AcDbHatch
  3
AutoCAD 2000
 90
        0
280
     0
281
     1
  0
CLASS
  1
XRECORD
  2
AcDbXrecord
  3
AutoCAD 2000
 90
        0
280
     0
281
     0
  0
CLASS
  1
LONG_TRANSACTION
  2
AcDbLongTransaction
  3
AutoCAD 2000
 90
        0
280
     0
281
     0
  0
CLASS
  1
LWPOLYLINE
  2
AcDbPolyline
  3
AutoCAD 2000
 90
        0
280
     0
281
     1
  0
CLASS
  1
HATCH
  2
AcDbHatch
  3
AutoCAD 2000
 90
        0
280
     0
281
     1
  0
CLASS
  1
XRECORD
  2
AcDbXrecord
  3
AutoCAD 2000
 90
        0
280
     0
281
     0
  0
CLASS
  1
LONG_TRANSACTION
  2
AcDbLongTransaction
  3
AutoCAD 2000
 90
        0
280
     0
281
     0
  0
CLASS
  1
LWPOLYLINE
  2
AcDbPolyline
  3
AutoCAD 2000
 90
        0
280
     0
281
     1
  0
CLASS
  1
HATCH
  2
AcDbHatch
  3
AutoCAD 2000
 90
        0
280
     0
281
     1
  0
CLASS
  1
XRECORD
  2
AcDbXrecord
  3
AutoCAD 2000
 90
        0
280
     0
281
     0
  0
CLASS
  1
LONG_TRANSACTION
  2
AcDbLongTransaction
  3
AutoCAD 2000
 90
        0
280
     0
281
     0
  0
CLASS
  1
LWPOLYLINE
  2
AcDbPolyline
  3
AutoCAD 2000
 90
        0
280
     0
281
     1
  0
CLASS
  1
HATCH
  2
AcDbHatch
  3
AutoCAD 2000
 90
        0
280
     0
281
     1
  0
CLASS
  1
XRECORD
  2
AcDbXrecord
  3
AutoCAD 2000
 90
        0
280
     0
281
     0
  0
CLASS
  1
LONG_TRANSACTION
  2
AcDbLongTransaction
  3
AutoCAD 2000
 90
        0
280
     0
281
     0
  0
CLASS
  1
LWPOLYLINE
  2
AcDbPolyline
  3
AutoCAD 2000
 90
        0
280
     0
281
     1
  0
CLASS
  1
HATCH
  2
AcDbHatch
  3
AutoCAD 2000
 90
        0
280
     0
281
     1
  0
CLASS
  1
XRECORD
  2
AcDbXrecord
  3
AutoCAD 2000
 90
        0
280
     0
281
     0
  0
CLASS
  1
LONG_TRANSACTION
  2
AcDbLongTransaction
  3
AutoCAD 2000
 90
        0
280
     0
281
     0
  0
CLASS
  1
LWPOLYLINE
  2
AcDbPolyline
  3
AutoCAD 2000
 90
        0
280
     0
281
     1
  0
CLASS
  1
HATCH
  2
AcDbHatch
  3
AutoCAD 2000
 90
        0
280
     0
281
     1
  0
CLASS
  1
XRECORD
  2
AcDbXrecord
  3
AutoCAD 2000
 90
        0
280
     0
281
     0
  0
CLASS
  1
LONG_TRANSACTION
  2
AcDbLongTransaction
  3
AutoCAD 2000
 90
        0
280
     0
281
     0
  0
CLASS
  1
LWPOLYLINE
  2
AcDbPolyline
  3
AutoCAD 2000
 90
        0
280
     0
281
     1
  0
CLASS
  1
HATCH
  2
AcDbHatch
  3
AutoCAD 2000
 90
        0
280
     0
281
     1
  0
CLASS
  1
XRECORD
  2
AcDbXrecord
  3
AutoCAD 2000
 90
        0
280
     0
281
     0
  0
CLASS
  1
LONG_TRANSACTION
  2
AcDbLongTransaction
  3
AutoCAD 2000
 90
        0
280
     0
281
     0
  0
CLASS
  1
LWPOLYLINE
  2
AcDbPolyline
  3
AutoCAD 2000
 90
        0
280
     0
281
     1
  0
CLASS
  1
HATCH
  2
AcDbHatch
  3
AutoCAD 2000
 90
        0
280
     0
281
     1
  0
CLASS
  1
XRECORD
  2
AcDbXrecord
  3
AutoCAD 2000
 90
        0
280
     0
281
     0
  0
CLASS
  1
LONG_TRANSACTION
  2
AcDbLongTransaction
  3
AutoCAD 2000
 90
        0
280
     0
281
     0
  0
CLASS
  1
LWPOLYLINE
  2
AcDbPolyline
  3
AutoCAD 2000
 90
        0
280
     0
281
     1
  0
CLASS
  1
HATCH
  2
AcDbHatch
  3
AutoCAD 2000
 90
        0
280
     0
281
     1
  0
CLASS
  1
XRECORD
  2
AcDbXrecord
  3
AutoCAD 2000
 90
        0
280
     0
281
     0
  0
CLASS
  1
LONG_TRANSACTION
  2
AcDbLongTransaction
  3
AutoCAD 2000
 90
        0
280
     0
281
     0
  0
CLASS
  1
LWPOLYLINE
  2
AcDbPolyline
  3
AutoCAD 2000
 90
        0
280
     0
281
     1
  0
CLASS
  1
HATCH
  2
AcDbHatch
  3
AutoCAD 2000
 90
        0
280
     0
281
     1
  0
CLASS
  1
XRECORD
  2
AcDbXrecord
  3
AutoCAD 2000
 90
        0
280
     0
281
     0
  0
CLASS
  1
LONG_TRANSACTION
  2
AcDbLongTransaction
  3
AutoCAD 2000
 90
        0
280
     0
281
     0
  0
CLASS
  1
LWPOLYLINE
  2
AcDbPolyline
  3
AutoCAD 2000
 90
        0
280
     0
281
     1
  0
CLASS
  1
HATCH
  2
AcDbHatch
  3
AutoCAD 2000
 90
        0
280
     0
281
     1
  0
CLASS
  1
XRECORD
  2
AcDbXrecord
  3
AutoCAD 2000
 90
        0
280
     0
281
     0
  0
CLASS
  1
DICTIONARYVAR
  2
AcDbDictionaryVar
  3
AutoCAD 2000
 90
        0
280
     0
281
     0
  0
CLASS
  1
LONG_TRANSACTION
  2
AcDbLongTransaction
  3
AutoCAD 2000
 90
        0
280
     0
281
     0
  0
CLASS
  1
LWPOLYLINE
  2
AcDbPolyline
  3
AutoCAD 2000
 90
        0
280
     0
281
     1
  0
CLASS
  1
HATCH
  2
AcDbHatch
  3
AutoCAD 2000
 90
        0
280
     0
281
     1
  0
CLASS
  1
XRECORD
  2
AcDbXrecord
  3
AutoCAD 2000
 90
        0
280
     0
281
     0
  0
CLASS
  1
LONG_TRANSACTION
  2
AcDbLongTransaction
  3
AutoCAD 2000
 90
        0
280
     0
281
     0
  0
CLASS
  1
LWPOLYLINE
  2
AcDbPolyline
  3
AutoCAD 2000
 90
        0
280
     0
281
     1
  0
CLASS
  1
HATCH
  2
AcDbHatch
  3
AutoCAD 2000
 90
        0
280
     0
281
     1
  0
CLASS
  1
XRECORD
  2
AcDbXrecord
  3
AutoCAD 2000
 90
        0
280
     0
281
     0
  0
CLASS
  1
LONG_TRANSACTION
  2
AcDbLongTransaction
  3
AutoCAD 2000
 90
        0
280
     0
281
     0
  0
CLASS
  1
LWPOLYLINE
  2
AcDbPolyline
  3
AutoCAD 2000
 90
        0
280
     0
281
     1
  0
CLASS
  1
HATCH
  2
AcDbHatch
  3
AutoCAD 2000
 90
        0
280
     0
281
     1
  0
CLASS
  1
XRECORD
  2
AcDbXrecord
  3
AutoCAD 2000
 90
        0
280
     0
281
     0
  0
CLASS
  1
LONG_TRANSACTION
  2
AcDbLongTransaction
  3
AutoCAD 2000
 90
        0
280
     0
281
     0
  0
CLASS
  1
LWPOLYLINE
  2
AcDbPolyline
  3
AutoCAD 2000
 90
        0
280
     0
281
     1
  0
CLASS
  1
HATCH
  2
AcDbHatch
  3
AutoCAD 2000
 90
        0
280
     0
281
     1
  0
CLASS
  1
XRECORD
  2
AcDbXrecord
  3
AutoCAD 2000
 90
        0
280
     0
281
     0
  0
ENDSEC
  0
SECTION
  2
TABLES
  0
TABLE
  2
VPORT
  5
8
330
0
100
AcDbSymbolTable
 70
     2
  0
VPORT
  5
74EC
330
8
100
AcDbSymbolTableRecord
100
AcDbViewportTableRecord
  2
*ACTIVE
 70
     0
 10
0.0
 20
0.0
 11
1.0
 21
1.0
 12
151.8125784235455
 22
-51.77717298743914
 13
0.0
 23
0.0
 14
1.0
 24
1.0
 15
10.0
 25
10.0
 16
0.0
 26
0.0
 36
1.0
 17
0.0
 27
0.0
 37
0.0
 40
1231.442935927313
 41
2.152360515021459
 42
50.0
 43
0.0
 44
0.0
 50
0.0
 51
0.0
 71
     0
 72
   100
 73
     1
 74
     1
 75
     1
 76
     0
 77
     0
 78
     0
  0
ENDTAB
  0
TABLE
  2
LTYPE
  5
5
330
0
100
AcDbSymbolTable
 70
     6
  0
LTYPE
  5
13
330
5
100
AcDbSymbolTableRecord
100
AcDbLinetypeTableRecord
  2
BYBLOCK
 70
     0
  3

 72
    65
 73
     0
 40
0.0
  0
LTYPE
  5
14
330
5
100
AcDbSymbolTableRecord
100
AcDbLinetypeTableRecord
  2
BYLAYER
 70
     0
  3

 72
    65
 73
     0
 40
0.0
  0
LTYPE
  5
15
330
5
100
AcDbSymbolTableRecord
100
AcDbLinetypeTableRecord
  2
CONTINUOUS
 70
     0
  3
Solid line
 72
    65
 73
     0
 40
0.0
  0
LTYPE
  5
22
330
5
100
AcDbSymbolTableRecord
100
AcDbLinetypeTableRecord
  2
CONTINOUS
 70
     0
  3
Solid line
 72
    65
 73
     0
 40
0.0
  0
LTYPE
  5
24
330
5
100
AcDbSymbolTableRecord
100
AcDbLinetypeTableRecord
  2
DASHDOT
 70
     0
  3
__ . __ . __ . __ . __ . __ . __ . __ . __ . __
 72
    65
 73
     4
 40
1.0
 49
0.5
 74
     0
 49
-0.25
 74
     0
 49
0.0
 74
     0
 49
-0.25
 74
     0
  0
LTYPE
  5
4C47
330
5
100
AcDbSymbolTableRecord
100
AcDbLinetypeTableRecord
  2
DIVIDE
 70
     0
  3
Divide ____ . . ____ . . ____ . . ____ . . ____
 72
    65
 73
     6
 40
1.25
 49
0.5
 74
     0
 49
-0.25
 74
     0
 49
0.0
 74
     0
 49
-0.25
 74
     0
 49
0.0
 74
     0
 49
-0.25
 74
     0
  0
LTYPE
  5
4F58
330
5
100
AcDbSymbolTableRecord
100
AcDbLinetypeTableRecord
  2
D329
 70
     0
  3
IGESIN-LineFont-D329
 72
    65
 73
     2
 40
1.35
 49
0.75
 74
     0
 49
-0.6
 74
     0
  0
LTYPE
  5
5061
330
5
100
AcDbSymbolTableRecord
100
AcDbLinetypeTableRecord
  2
D341
 70
     0
  3
IGESIN-LineFont-D341
 72
    65
 73
     4
 40
9.449999999999999
 49
7.5
 74
     0
 49
-0.6
 74
     0
 49
0.75
 74
     0
 49
-0.6
 74
     0
  0
ENDTAB
  0
TABLE
  2
LAYER
  5
2
330
0
100
AcDbSymbolTable
 70
    15
  0
LAYER
  5
10
330
2
100
AcDbSymbolTableRecord
100
AcDbLayerTableRecord
  2
0
 70
     0
 62
     7
  6
CONTINOUS
  0
LAYER
  5
2F
330
2
100
AcDbSymbolTableRecord
100
AcDbLayerTableRecord
  2
10
 70
     0
 62
     4
  6
CONTINOUS
  0
LAYER
  5
31
330
2
100
AcDbSymbolTableRecord
100
AcDbLayerTableRecord
  2
12
 70
     0
 62
     3
  6
CONTINOUS
  0
LAYER
  5
35
330
2
100
AcDbSymbolTableRecord
100
AcDbLayerTableRecord
  2
16
 70
     0
 62
     6
  6
DASHDOT
  0
LAYER
  5
38
330
2
100
AcDbSymbolTableRecord
100
AcDbLayerTableRecord
  2
19
 70
     0
 62
     7
  6
CONTINOUS
  0
LAYER
  5
3C
330
2
100
AcDbSymbolTableRecord
100
AcDbLayerTableRecord
  2
11
 70
     0
 62
     1
  6
CONTINOUS
  0
LAYER
  5
3D
330
2
100
AcDbSymbolTableRecord
100
AcDbLayerTableRecord
  2
24
 70
     0
 62
     2
  6
CONTINOUS
  0
LAYER
  5
3A2
330
2
100
AcDbSymbolTableRecord
100
AcDbLayerTableRecord
  2
30
 70
     0
 62
     9
  6
CONTINUOUS
  0
LAYER
  5
3A4
330
2
100
AcDbSymbolTableRecord
100
AcDbLayerTableRecord
  2
DEFPOINTS
 70
     0
 62
     7
  6
CONTINUOUS
  0
LAYER
  5
3BBA
330
2
100
AcDbSymbolTableRecord
100
AcDbLayerTableRecord
  2
18
 70
     0
 62
     5
  6
DIVIDE
  0
LAYER
  5
3BBB
330
2
100
AcDbSymbolTableRecord
100
AcDbLayerTableRecord
  2
21
 70
     0
 62
     7
  6
CONTINUOUS
  0
LAYER
  5
5797
330
2
100
AcDbSymbolTableRecord
100
AcDbLayerTableRecord
  2
L210_
 70
     0
 62
     7
  6
CONTINUOUS
  0
LAYER
  5
5D4D
330
2
100
AcDbSymbolTableRecord
100
AcDbLayerTableRecord
  2
17
 70
     0
 62
     2
  6
DASHDOT
  0
LAYER
  5
6100
330
2
100
AcDbSymbolTableRecord
100
AcDbLayerTableRecord
  2
L10_
 70
     0
 62
     7
  6
CONTINUOUS
  0
LAYER
  5
7355
330
2
100
AcDbSymbolTableRecord
100
AcDbLayerTableRecord
  2
1
 70
     0
 62
     7
  6
CONTINUOUS
  0
ENDTAB
  0
TABLE
  2
STYLE
  5
3
330
0
100
AcDbSymbolTable
 70
     4
  0
STYLE
  5
11
330
3
100
AcDbSymbolTableRecord
100
AcDbTextStyleTableRecord
  2
STANDARD
 70
     0
 40
0.0
 41
1.0
 50
0.0
 71
     0
 42
2.0
  3
txt.shx
  4
bigfont.shx
  0
STYLE
  5
42
330
3
100
AcDbSymbolTableRecord
100
AcDbTextStyleTableRecord
  2
STANDARD1
 70
     0
 40
0.0
 41
1.0
 50
0.0
 71
     0
 42
5.0
  3
MONOTXT
  4
BIGFONT
  0
STYLE
  5
4F59
330
3
100
AcDbSymbolTableRecord
100
AcDbTextStyleTableRecord
  2
SYMBOL3
 70
     0
 40
0.0
 41
1.0
 50
0.0
 71
     0
 42
0.2
  3
iges1003
  4

  0
STYLE
  5
7356
330
3
100
AcDbSymbolTableRecord
100
AcDbTextStyleTableRecord
  2
UGMTXT
 70
     0
 40
0.0
 41
1.0
 50
0.0
 71
     0
 42
0.2
  3
ugmtxt
  4
bigfont
  0
ENDTAB
  0
TABLE
  2
VIEW
  5
6
330
0
100
AcDbSymbolTable
 70
     3
  0
VIEW
  5
230C
330
6
100
AcDbSymbolTableRecord
100
AcDbViewTableRecord
  2
OLE1
 70
     0
 40
148.9124878027714
 10
429.4976280407222
 20
2.560626997828478
 41
103.1458057716444
 11
0.0
 21
0.0
 31
1.0
 12
0.0
 22
0.0
 32
0.0
 42
50.0
 43
0.0
 44
0.0
 50
0.0
 71
     0
  0
VIEW
  5
230E
330
6
100
AcDbSymbolTableRecord
100
AcDbViewTableRecord
  2
OLE2
 70
     0
 40
170.7786920545775
 10
322.664969958371
 20
-5.978304054290276
 41
102.4672152327465
 11
0.0
 21
0.0
 31
1.0
 12
0.0
 22
0.0
 32
0.0
 42
50.0
 43
0.0
 44
0.0
 50
0.0
 71
     0
  0
VIEW
  5
23AA
330
6
100
AcDbSymbolTableRecord
100
AcDbViewTableRecord
  2
OLE3
 70
     0
 40
591.7897393182231
 10
84.79698158148218
 20
-46.09336010803995
 41
388.7920961799953
 11
0.0
 21
0.0
 31
1.0
 12
0.0
 22
0.0
 32
0.0
 42
50.0
 43
0.0
 44
0.0
 50
0.0
 71
     0
  0
ENDTAB
  0
TABLE
  2
UCS
  5
7
330
0
100
AcDbSymbolTable
 70
     0
  0
ENDTAB
  0
TABLE
  2
APPID
  5
9
330
0
100
AcDbSymbolTable
 70
     2
  0
APPID
  5
12
330
9
100
AcDbSymbolTableRecord
100
AcDbRegAppTableRecord
  2
ACAD
 70
     0
  0
APPID
  5
ECD
330
9
100
AcDbSymbolTableRecord
100
AcDbRegAppTableRecord
  2
CONTENTBLOCKICON
 70
     0
  0
ENDTAB
  0
TABLE
  2
DIMSTYLE
  5
A
330
0
100
AcDbSymbolTable
 70
     1
  0
DIMSTYLE
105
175
102
{ACAD_REACTORS
330
70BD
330
70CA
330
712D
330
713A
330
7147
330
7168
330
717E
330
719D
330
71AA
330
71B7
330
71CD
330
71DA
330
71E7
330
71FD
330
7209
330
723A
330
7247
330
7254
330
7261
330
726E
330
727B
330
72FB
330
7311
330
73F5
102
}
330
A
100
AcDbSymbolTableRecord
100
AcDbDimStyleTableRecord
  2
STANDARD
 70
     0
  3

  4

  5
OPEN
  6

  7

 40
1.0
 41
2.0
 42
1.0
 43
0.5
 44
0.5
 45
0.0
 46
0.0
 47
0.0
 48
0.0
140
5.0
141
0.09
142
0.0
143
25.4
144
1.0
145
0.0
146
1.0
147
1.0
 71
     0
 72
     0
 73
     0
 74
     1
 75
     0
 76
     0
 77
     3
 78
    12
170
     0
171
     2
172
     0
173
     0
174
     0
175
     0
176
     0
177
     0
178
     0
270
     2
271
     1
272
     1
273
     2
274
     2
340
11
275
     0
280
     0
281
     0
282
     0
283
     1
284
     0
285
     0
286
     0
287
     3
288
     0
  0
ENDTAB
  0
TABLE
  2
BLOCK_RECORD
  5
1
330
0
100
AcDbSymbolTable
 70
    28
  0
BLOCK_RECORD
  5
1E
102
{ACAD_XDICTIONARY
360
178
102
}
330
1
100
AcDbSymbolTableRecord
100
AcDbBlockTableRecord
  2
*MODEL_SPACE
  0
BLOCK_RECORD
  5
1A
102
{ACAD_XDICTIONARY
360
17A
102
}
330
1
100
AcDbSymbolTableRecord
100
AcDbBlockTableRecord
  2
*PAPER_SPACE
  0
BLOCK_RECORD
  5
3B2
330
1
100
AcDbSymbolTableRecord
100
AcDbBlockTableRecord
  2
_OPEN
  0
BLOCK_RECORD
  5
572B
330
1
100
AcDbSymbolTableRecord
100
AcDbBlockTableRecord
  2
B2383
  0
BLOCK_RECORD
  5
70BE
330
1
100
AcDbSymbolTableRecord
100
AcDbBlockTableRecord
  2
*D2
  0
BLOCK_RECORD
  5
70CB
330
1
100
AcDbSymbolTableRecord
100
AcDbBlockTableRecord
  2
*D3
  0
BLOCK_RECORD
  5
712E
330
1
100
AcDbSymbolTableRecord
100
AcDbBlockTableRecord
  2
*D6
  0
BLOCK_RECORD
  5
713B
330
1
100
AcDbSymbolTableRecord
100
AcDbBlockTableRecord
  2
*D7
  0
BLOCK_RECORD
  5
7148
330
1
100
AcDbSymbolTableRecord
100
AcDbBlockTableRecord
  2
*D8
  0
BLOCK_RECORD
  5
7169
330
1
100
AcDbSymbolTableRecord
100
AcDbBlockTableRecord
  2
*D9
  0
BLOCK_RECORD
  5
717F
330
1
100
AcDbSymbolTableRecord
100
AcDbBlockTableRecord
  2
*D10
  0
BLOCK_RECORD
  5
719E
330
1
100
AcDbSymbolTableRecord
100
AcDbBlockTableRecord
  2
*D11
  0
BLOCK_RECORD
  5
71AB
330
1
100
AcDbSymbolTableRecord
100
AcDbBlockTableRecord
  2
*D12
  0
BLOCK_RECORD
  5
71B8
330
1
100
AcDbSymbolTableRecord
100
AcDbBlockTableRecord
  2
*D13
  0
BLOCK_RECORD
  5
71CE
330
1
100
AcDbSymbolTableRecord
100
AcDbBlockTableRecord
  2
*D14
  0
BLOCK_RECORD
  5
71DB
330
1
100
AcDbSymbolTableRecord
100
AcDbBlockTableRecord
  2
*D15
  0
BLOCK_RECORD
  5
71E8
330
1
100
AcDbSymbolTableRecord
100
AcDbBlockTableRecord
  2
*D16
  0
BLOCK_RECORD
  5
71FE
330
1
100
AcDbSymbolTableRecord
100
AcDbBlockTableRecord
  2
*D17
  0
BLOCK_RECORD
  5
720A
330
1
100
AcDbSymbolTableRecord
100
AcDbBlockTableRecord
  2
*D18
  0
BLOCK_RECORD
  5
723B
330
1
100
AcDbSymbolTableRecord
100
AcDbBlockTableRecord
  2
*D19
  0
BLOCK_RECORD
  5
7248
330
1
100
AcDbSymbolTableRecord
100
AcDbBlockTableRecord
  2
*D20
  0
BLOCK_RECORD
  5
7255
330
1
100
AcDbSymbolTableRecord
100
AcDbBlockTableRecord
  2
*D21
  0
BLOCK_RECORD
  5
7262
330
1
100
AcDbSymbolTableRecord
100
AcDbBlockTableRecord
  2
*D22
  0
BLOCK_RECORD
  5
726F
330
1
100
AcDbSymbolTableRecord
100
AcDbBlockTableRecord
  2
*D23
  0
BLOCK_RECORD
  5
727C
330
1
100
AcDbSymbolTableRecord
100
AcDbBlockTableRecord
  2
*D24
  0
BLOCK_RECORD
  5
72FC
330
1
100
AcDbSymbolTableRecord
100
AcDbBlockTableRecord
  2
*D25
  0
BLOCK_RECORD
  5
7312
330
1
100
AcDbSymbolTableRecord
100
AcDbBlockTableRecord
  2
*D26
  0
BLOCK_RECORD
  5
73F6
330
1
100
AcDbSymbolTableRecord
100
AcDbBlockTableRecord
  2
*D27
  0
ENDTAB
  0
ENDSEC
  0
SECTION
  2
BLOCKS
  0
BLOCK
  5
1F
330
1E
100
AcDbEntity
  8
0
100
AcDbBlockBegin
  2
*MODEL_SPACE
 70
     0
 10
0.0
 20
0.0
 30
0.0
  3
*MODEL_SPACE
  1

  0
ENDBLK
  5
20
330
1E
100
AcDbEntity
  8
0
100
AcDbBlockEnd
  0
BLOCK
  5
1B
330
1A
100
AcDbEntity
 67
     1
  8
0
100
AcDbBlockBegin
  2
*PAPER_SPACE
 70
     0
 10
0.0
 20
0.0
 30
0.0
  3
*PAPER_SPACE
  1

  0
ENDBLK
  5
1C
330
1A
100
AcDbEntity
 67
     1
  8
0
100
AcDbBlockEnd
  0
BLOCK
  5
3B6
330
3B2
100
AcDbEntity
  8
0
100
AcDbBlockBegin
  2
_OPEN
 70
     0
 10
0.0
 20
0.0
 30
0.0
  3
_OPEN
  1

  0
LINE
  5
3B3
330
3B2
100
AcDbEntity
  8
30
  6
CONTINUOUS
 62
     0
100
AcDbLine
 10
-1.0
 20
0.1666666666666666
 30
0.0
 11
0.0
 21
0.0
 31
0.0
  0
LINE
  5
3B4
330
3B2
100
AcDbEntity
  8
30
  6
CONTINUOUS
 62
     0
100
AcDbLine
 10
-1.0
 20
-0.1666666666666666
 30
0.0
 11
0.0
 21
0.0
 31
0.0
  0
LINE
  5
3B5
330
3B2
100
AcDbEntity
  8
30
  6
CONTINUOUS
 62
     0
100
AcDbLine
 10
0.0
 20
0.0
 30
0.0
 11
-1.0
 21
0.0
 31
0.0
  0
ENDBLK
  5
3B7
330
3B2
100
AcDbEntity
  8
0
100
AcDbBlockEnd
  0
BLOCK
  5
572E
330
572B
100
AcDbEntity
  8
L210_
  6
CONTINUOUS
 62
     4
100
AcDbBlockBegin
  2
B2383
 70
     0
 10
0.0
 20
0.0
 30
0.0
  3
B2383
  1

  0
TEXT
  5
572C
330
572B
100
AcDbEntity
  8
L210_
  6
CONTINUOUS
 62
     4
100
AcDbText
 10
1634.50866699219
 20
455.024810791016
 30
0.0
 40
12.0
  1
n
 41
1.909090909090909
  7
SYMBOL3
 72
     5
 11
1646.50866699219
 21
455.024810791016
 31
0.0
100
AcDbText
 73
     2
  0
TEXT
  5
572D
330
572B
100
AcDbEntity
  8
L210_
  6
CONTINUOUS
 62
     4
100
AcDbText
 10
1652.50866699219
 20
455.024810791016
 30
0.0
 40
12.0
  1
9
 41
1.049999999999982
 72
     5
 11
1660.90866699219
 21
455.024810791016
 31
0.0
100
AcDbText
 73
     2
  0
ENDBLK
  5
572F
330
572B
100
AcDbEntity
  8
L210_
  6
CONTINUOUS
 62
     4
100
AcDbBlockEnd
  0
BLOCK
  5
70C8
330
70BE
100
AcDbEntity
  8
0
100
AcDbBlockBegin
  2
*D2
 70
     1
 10
0.0
 20
0.0
 30
0.0
  3
*D2
  1

  0
LINE
  5
70BF
330
70BE
100
AcDbEntity
  8
30
  6
CONTINUOUS
 62
     0
100
AcDbLine
 10
-45.0
 20
481.9727197007551
 30
0.0
 11
-44.99999999999999
 21
550.4999999999999
 31
0.0
  0
LINE
  5
70C0
330
70BE
100
AcDbEntity
  8
30
  6
CONTINUOUS
 62
     0
100
AcDbLine
 10
0.0000000000000001
 20
521.9727197007553
 30
0.0
 11
0.0000000000000018
 21
550.4999999999999
 31
0.0
  0
LINE
  5
70C1
330
70BE
100
AcDbEntity
  8
30
  6
CONTINUOUS
 62
     0
100
AcDbLine
 10
-42.99999999999999
 20
550.0
 30
0.0
 11
-1.999999999999998
 21
550.0
 31
0.0
  0
INSERT
  5
70C2
330
70BE
100
AcDbEntity
  8
30
  6
CONTINUOUS
 62
     0
100
AcDbBlockReference
  2
_OPEN
 10
-44.99999999999999
 20
550.0
 30
0.0
 41
2.0
 42
2.0
 43
2.0
 50
180.0
  0
INSERT
  5
70C3
330
70BE
100
AcDbEntity
  8
30
  6
CONTINUOUS
 62
     0
100
AcDbBlockReference
  2
_OPEN
 10
0.0000000000000018
 20
550.0
 30
0.0
 41
2.0
 42
2.0
 43
2.0
  0
MTEXT
  5
70C4
330
70BE
100
AcDbEntity
  8
30
  6
CONTINUOUS
 62
     0
100
AcDbMText
 10
-22.49999999999999
 20
553.5
 30
0.0
 40
5.0
 41
0.0
 71
     5
 72
     1
  1
\A1;45
1001
ACAD
1000
MTEXTBEGIN
1070
    73
1070
     1
1070
    44
1040
1.0
1070
    74
1070
     0
1000
MTEXTEND
  0
POINT
  5
70C5
330
70BE
100
AcDbEntity
  8
DEFPOINTS
  6
CONTINUOUS
 62
     0
100
AcDbPoint
 10
-45.0
 20
480.9727197007553
 30
0.0
  0
POINT
  5
70C6
330
70BE
100
AcDbEntity
  8
DEFPOINTS
  6
CONTINUOUS
 62
     0
100
AcDbPoint
 10
0.0
 20
520.9727197007553
 30
0.0
  0
POINT
  5
70C7
330
70BE
100
AcDbEntity
  8
DEFPOINTS
  6
CONTINUOUS
 62
     0
100
AcDbPoint
 10
0.0000000000000018
 20
550.0
 30
0.0
  0
ENDBLK
  5
70C9
330
70BE
100
AcDbEntity
  8
0
100
AcDbBlockEnd
  0
BLOCK
  5
70D5
330
70CB
100
AcDbEntity
  8
0
100
AcDbBlockBegin
  2
*D3
 70
     1
 10
0.0
 20
0.0
 30
0.0
  3
*D3
  1

  0
LINE
  5
7510
330
70CB
100
AcDbEntity
  8
30
  6
CONTINUOUS
 62
     0
100
AcDbLine
 10
0.0000000000000001
 20
521.9727197007553
 30
0.0
 11
0.0000000000000018
 21
550.4999999999999
 31
0.0
  0
LINE
  5
7511
330
70CB
100
AcDbEntity
  8
30
  6
CONTINUOUS
 62
     0
100
AcDbLine
 10
45.0
 20
481.9727197007552
 30
0.0
 11
45.0
 21
550.4999999999999
 31
0.0
  0
LINE
  5
7512
330
70CB
100
AcDbEntity
  8
30
  6
CONTINUOUS
 62
     0
100
AcDbLine
 10
2.000000000000001
 20
550.0
 30
0.0
 11
43.0
 21
550.0
 31
0.0
  0
INSERT
  5
7513
330
70CB
100
AcDbEntity
  8
30
  6
CONTINUOUS
 62
     0
100
AcDbBlockReference
  2
_OPEN
 10
0.0000000000000018
 20
550.0
 30
0.0
 41
2.0
 42
2.0
 43
2.0
 50
180.0
  0
INSERT
  5
7514
330
70CB
100
AcDbEntity
  8
30
  6
CONTINUOUS
 62
     0
100
AcDbBlockReference
  2
_OPEN
 10
45.0
 20
550.0
 30
0.0
 41
2.0
 42
2.0
 43
2.0
  0
MTEXT
  5
7515
330
70CB
100
AcDbEntity
  8
30
  6
CONTINUOUS
 62
     0
100
AcDbMText
 10
22.5
 20
553.5
 30
0.0
 40
5.0
 41
0.0
 71
     5
 72
     1
  1
\A1;45
  0
POINT
  5
7516
330
70CB
100
AcDbEntity
  8
DEFPOINTS
  6
CONTINUOUS
 62
     0
100
AcDbPoint
 10
0.0
 20
520.9727197007553
 30
0.0
  0
POINT
  5
7517
330
70CB
100
AcDbEntity
  8
DEFPOINTS
  6
CONTINUOUS
 62
     0
100
AcDbPoint
 10
45.0
 20
480.9727197007553
 30
0.0
  0
POINT
  5
7518
330
70CB
100
AcDbEntity
  8
DEFPOINTS
  6
CONTINUOUS
 62
     0
100
AcDbPoint
 10
45.0
 20
550.0
 30
0.0
  0
ENDBLK
  5
70D6
330
70CB
100
AcDbEntity
  8
0
100
AcDbBlockEnd
  0
BLOCK
  5
7138
330
712E
100
AcDbEntity
  8
0
100
AcDbBlockBegin
  2
*D6
 70
     1
 10
0.0
 20
0.0
 30
0.0
  3
*D6
  1

  0
LINE
  5
712F
330
712E
100
AcDbEntity
  8
30
  6
CONTINUOUS
 62
     0
100
AcDbLine
 10
-110.4999999999999
 20
63.5
 30
0.0
 11
-154.4999999999999
 21
63.50000000000001
 31
0.0
  0
LINE
  5
7130
330
712E
100
AcDbEntity
  8
30
  6
CONTINUOUS
 62
     0
100
AcDbLine
 10
-110.4999999999999
 20
-63.5
 30
0.0
 11
-154.4999999999999
 21
-63.49999999999997
 31
0.0
  0
LINE
  5
7131
330
712E
100
AcDbEntity
  8
30
  6
CONTINUOUS
 62
     0
100
AcDbLine
 10
-154.0
 20
61.50000000000002
 30
0.0
 11
-154.0
 21
-61.49999999999998
 31
0.0
  0
INSERT
  5
7132
330
712E
100
AcDbEntity
  8
30
  6
CONTINUOUS
 62
     0
100
AcDbBlockReference
  2
_OPEN
 10
-154.0
 20
63.50000000000001
 30
0.0
 41
2.0
 42
2.0
 43
2.0
 50
90.0
  0
INSERT
  5
7133
330
712E
100
AcDbEntity
  8
30
  6
CONTINUOUS
 62
     0
100
AcDbBlockReference
  2
_OPEN
 10
-154.0
 20
-63.49999999999997
 30
0.0
 41
2.0
 42
2.0
 43
2.0
 50
270.0
  0
MTEXT
  5
7134
330
712E
100
AcDbEntity
  8
30
  6
CONTINUOUS
 62
     0
100
AcDbMText
 10
-157.5
 20
-0.0000000000000115
 30
0.0
 40
5.0
 41
0.0
 71
     5
 72
     1
  1
\A1;127
 11
0.0000000000000001
 21
1.0
 31
0.0
1001
ACAD
1000
MTEXTBEGIN
1070
    73
1070
     1
1070
    44
1040
1.0
1070
    74
1070
     0
1000
MTEXTEND
  0
POINT
  5
7135
330
712E
100
AcDbEntity
  8
DEFPOINTS
  6
CONTINUOUS
 62
     0
100
AcDbPoint
 10
-109.4999999999999
 20
63.5
 30
0.0
  0
POINT
  5
7136
330
712E
100
AcDbEntity
  8
DEFPOINTS
  6
CONTINUOUS
 62
     0
100
AcDbPoint
 10
-109.4999999999999
 20
-63.5
 30
0.0
  0
POINT
  5
7137
330
712E
100
AcDbEntity
  8
DEFPOINTS
  6
CONTINUOUS
 62
     0
100
AcDbPoint
 10
-154.0
 20
-63.49999999999997
 30
0.0
  0
ENDBLK
  5
7139
330
712E
100
AcDbEntity
  8
0
100
AcDbBlockEnd
  0
BLOCK
  5
7145
330
713B
100
AcDbEntity
  8
0
100
AcDbBlockBegin
  2
*D7
 70
     1
 10
0.0
 20
0.0
 30
0.0
  3
*D7
  1

  0
LINE
  5
713C
330
713B
100
AcDbEntity
  8
30
  6
CONTINUOUS
 62
     0
100
AcDbLine
 10
-104.4999999999999
 20
171.5
 30
0.0
 11
-177.4999999999999
 21
171.5
 31
0.0
  0
LINE
  5
713D
330
713B
100
AcDbEntity
  8
30
  6
CONTINUOUS
 62
     0
100
AcDbLine
 10
-104.4999999999999
 20
-171.4999999999998
 30
0.0
 11
-177.5
 21
-171.4999999999998
 31
0.0
  0
LINE
  5
713E
330
713B
100
AcDbEntity
  8
30
  6
CONTINUOUS
 62
     0
100
AcDbLine
 10
-176.9999999999999
 20
169.5
 30
0.0
 11
-177.0
 21
-169.4999999999998
 31
0.0
  0
INSERT
  5
713F
330
713B
100
AcDbEntity
  8
30
  6
CONTINUOUS
 62
     0
100
AcDbBlockReference
  2
_OPEN
 10
-176.9999999999999
 20
171.5
 30
0.0
 41
2.0
 42
2.0
 43
2.0
 50
90.0
  0
INSERT
  5
7140
330
713B
100
AcDbEntity
  8
30
  6
CONTINUOUS
 62
     0
100
AcDbBlockReference
  2
_OPEN
 10
-177.0
 20
-171.4999999999998
 30
0.0
 41
2.0
 42
2.0
 43
2.0
 50
270.0
  0
MTEXT
  5
7141
330
713B
100
AcDbEntity
  8
30
  6
CONTINUOUS
 62
     0
100
AcDbMText
 10
-180.4999999999999
 20
0.0000000000000397
 30
0.0
 40
5.0
 41
0.0
 71
     5
 72
     1
  1
\A1;343
 11
0.0000000000000001
 21
1.0
 31
0.0
1001
ACAD
1000
MTEXTBEGIN
1070
    73
1070
     1
1070
    44
1040
1.0
1070
    74
1070
     0
1000
MTEXTEND
  0
POINT
  5
7142
330
713B
100
AcDbEntity
  8
DEFPOINTS
  6
CONTINUOUS
 62
     0
100
AcDbPoint
 10
-103.4999999999999
 20
171.5
 30
0.0
  0
POINT
  5
7143
330
713B
100
AcDbEntity
  8
DEFPOINTS
  6
CONTINUOUS
 62
     0
100
AcDbPoint
 10
-103.4999999999999
 20
-171.4999999999998
 30
0.0
  0
POINT
  5
7144
330
713B
100
AcDbEntity
  8
DEFPOINTS
  6
CONTINUOUS
 62
     0
100
AcDbPoint
 10
-177.0
 20
-171.4999999999998
 30
0.0
  0
ENDBLK
  5
7146
330
713B
100
AcDbEntity
  8
0
100
AcDbBlockEnd
  0
BLOCK
  5
7151
330
7148
100
AcDbEntity
  8
0
100
AcDbBlockBegin
  2
*D8
 70
     1
 10
0.0
 20
0.0
 30
0.0
  3
*D8
  1

  0
LINE
  5
72F3
330
7148
100
AcDbEntity
  8
30
  6
CONTINUOUS
 62
     0
100
AcDbLine
 10
127.3333333333334
 20
77.00000000000001
 30
0.0
 11
118.0
 21
77.00000000000001
 31
0.0
  0
LINE
  5
72F4
330
7148
100
AcDbEntity
  8
30
  6
CONTINUOUS
 62
     0
100
AcDbLine
 10
118.0
 20
77.00000000000001
 30
0.0
 11
104.4
 21
66.80000000000001
 31
0.0
  0
MTEXT
  5
72F5
330
7148
100
AcDbEntity
  8
30
  6
CONTINUOUS
 62
     0
100
AcDbMText
 10
123.1666666666667
 20
80.50000000000002
 30
0.0
 40
5.0
 41
0.0
 71
     5
 72
     1
  1
\A1;M6
1001
ACAD
1000
MTEXTBEGIN
1070
    73
1070
     1
1070
    44
1040
1.0
1070
    74
1070
     0
1000
MTEXTEND
  0
INSERT
  5
72F6
330
7148
100
AcDbEntity
  8
30
  6
CONTINUOUS
 62
     0
100
AcDbBlockReference
  2
_OPEN
 10
102.8
 20
65.60000000000001
 30
0.0
 41
2.0
 42
2.0
 43
2.0
 50
216.8698976458439
  0
LINE
  5
72F7
330
7148
100
AcDbEntity
  8
30
  6
CONTINUOUS
 62
     0
100
AcDbLine
 10
99.91000000000013
 20
63.5
 30
0.0
 11
100.0900000000001
 21
63.49999999999999
 31
0.0
  0
LINE
  5
72F8
330
7148
100
AcDbEntity
  8
30
  6
CONTINUOUS
 62
     0
100
AcDbLine
 10
100.0000000000001
 20
63.41
 30
0.0
 11
100.0000000000001
 21
63.59
 31
0.0
  0
POINT
  5
72F9
330
7148
100
AcDbEntity
  8
DEFPOINTS
  6
CONTINUOUS
 62
     0
100
AcDbPoint
 10
102.8
 20
65.60000000000001
 30
0.0
  0
POINT
  5
72FA
330
7148
100
AcDbEntity
  8
DEFPOINTS
  6
CONTINUOUS
 62
     0
100
AcDbPoint
 10
97.20000000000013
 20
61.4
 30
0.0
  0
ENDBLK
  5
7152
330
7148
100
AcDbEntity
  8
0
100
AcDbBlockEnd
  0
BLOCK
  5
7173
330
7169
100
AcDbEntity
  8
0
100
AcDbBlockBegin
  2
*D9
 70
     1
 10
0.0
 20
0.0
 30
0.0
  3
*D9
  1

  0
LINE
  5
7175
330
7169
100
AcDbEntity
  8
30
  6
CONTINUOUS
 62
     0
100
AcDbLine
 10
229.8497158299924
 20
1.800000000000181
 30
0.0
 11
229.8497158299924
 21
-217.5
 31
0.0
  0
LINE
  5
7176
330
7169
100
AcDbEntity
  8
30
  6
CONTINUOUS
 62
     0
100
AcDbLine
 10
286.8497158299923
 20
-201.0
 30
0.0
 11
286.8497158299923
 21
-217.5
 31
0.0
  0
LINE
  5
7177
330
7169
100
AcDbEntity
  8
30
  6
CONTINUOUS
 62
     0
100
AcDbLine
 10
231.8497158299924
 20
-217.0
 30
0.0
 11
284.8497158299922
 21
-217.0
 31
0.0
  0
INSERT
  5
7178
330
7169
100
AcDbEntity
  8
30
  6
CONTINUOUS
 62
     0
100
AcDbBlockReference
  2
_OPEN
 10
229.8497158299924
 20
-217.0
 30
0.0
 41
2.0
 42
2.0
 43
2.0
 50
180.0
  0
INSERT
  5
7179
330
7169
100
AcDbEntity
  8
30
  6
CONTINUOUS
 62
     0
100
AcDbBlockReference
  2
_OPEN
 10
286.8497158299923
 20
-217.0
 30
0.0
 41
2.0
 42
2.0
 43
2.0
  0
MTEXT
  5
717A
330
7169
100
AcDbEntity
  8
30
  6
CONTINUOUS
 62
     0
100
AcDbMText
 10
258.3497158299924
 20
-213.5
 30
0.0
 40
5.0
 41
0.0
 71
     5
 72
     1
  1
\A1;57
1001
ACAD
1000
MTEXTBEGIN
1070
    73
1070
     1
1070
    44
1040
1.0
1070
    74
1070
     0
1000
MTEXTEND
  0
POINT
  5
717B
330
7169
100
AcDbEntity
  8
DEFPOINTS
  6
CONTINUOUS
 62
     0
100
AcDbPoint
 10
229.8497158299924
 20
2.800000000000181
 30
0.0
  0
POINT
  5
717C
330
7169
100
AcDbEntity
  8
DEFPOINTS
  6
CONTINUOUS
 62
     0
100
AcDbPoint
 10
286.8497158299923
 20
-200.0
 30
0.0
  0
POINT
  5
717D
330
7169
100
AcDbEntity
  8
DEFPOINTS
  6
CONTINUOUS
 62
     0
100
AcDbPoint
 10
286.8497158299923
 20
-217.0
 30
0.0
  0
ENDBLK
  5
7174
330
7169
100
AcDbEntity
  8
0
100
AcDbBlockEnd
  0
BLOCK
  5
7189
330
717F
100
AcDbEntity
  8
0
100
AcDbBlockBegin
  2
*D10
 70
     1
 10
0.0
 20
0.0
 30
0.0
  3
*D10
  1

  0
LINE
  5
7194
330
717F
100
AcDbEntity
  8
30
  6
CONTINUOUS
 62
     0
100
AcDbLine
 10
286.8497158299926
 20
-131.0
 30
0.0
 11
286.8497158299926
 21
-200.4999999999999
 31
0.0
  0
LINE
  5
7195
330
717F
100
AcDbEntity
  8
30
  6
CONTINUOUS
 62
     0
100
AcDbLine
 10
444.8497158299922
 20
-129.9999999999992
 30
0.0
 11
444.8497158299922
 21
-200.4999999999999
 31
0.0
  0
LINE
  5
7196
330
717F
100
AcDbEntity
  8
30
  6
CONTINUOUS
 62
     0
100
AcDbLine
 10
288.8497158299926
 20
-200.0
 30
0.0
 11
442.8497158299921
 21
-200.0
 31
0.0
  0
INSERT
  5
7197
330
717F
100
AcDbEntity
  8
30
  6
CONTINUOUS
 62
     0
100
AcDbBlockReference
  2
_OPEN
 10
286.8497158299926
 20
-200.0
 30
0.0
 41
2.0
 42
2.0
 43
2.0
 50
180.0
  0
INSERT
  5
7198
330
717F
100
AcDbEntity
  8
30
  6
CONTINUOUS
 62
     0
100
AcDbBlockReference
  2
_OPEN
 10
444.8497158299922
 20
-200.0
 30
0.0
 41
2.0
 42
2.0
 43
2.0
  0
MTEXT
  5
7199
330
717F
100
AcDbEntity
  8
30
  6
CONTINUOUS
 62
     0
100
AcDbMText
 10
365.8497158299923
 20
-196.5
 30
0.0
 40
5.0
 41
0.0
 71
     5
 72
     1
  1
\A1;158
1001
ACAD
1000
MTEXTBEGIN
1070
    73
1070
     1
1070
    44
1040
1.0
1070
    74
1070
     0
1000
MTEXTEND
  0
POINT
  5
719A
330
717F
100
AcDbEntity
  8
DEFPOINTS
  6
CONTINUOUS
 62
     0
100
AcDbPoint
 10
286.8497158299926
 20
-130.0
 30
0.0
  0
POINT
  5
719B
330
717F
100
AcDbEntity
  8
DEFPOINTS
  6
CONTINUOUS
 62
     0
100
AcDbPoint
 10
444.8497158299922
 20
-128.9999999999992
 30
0.0
  0
POINT
  5
719C
330
717F
100
AcDbEntity
  8
DEFPOINTS
  6
CONTINUOUS
 62
     0
100
AcDbPoint
 10
444.8497158299922
 20
-200.0
 30
0.0
  0
ENDBLK
  5
718A
330
717F
100
AcDbEntity
  8
0
100
AcDbBlockEnd
  0
BLOCK
  5
71A8
330
719E
100
AcDbEntity
  8
0
100
AcDbBlockBegin
  2
*D11
 70
     1
 10
0.0
 20
0.0
 30
0.0
  3
*D11
  1

  0
LINE
  5
719F
330
719E
100
AcDbEntity
  8
30
  6
CONTINUOUS
 62
     0
100
AcDbLine
 10
429.8497158299921
 20
-125.4999999999992
 30
0.0
 11
429.8497158299921
 21
-151.5
 31
0.0
  0
LINE
  5
71A0
330
719E
100
AcDbEntity
  8
30
  6
CONTINUOUS
 62
     0
100
AcDbLine
 10
444.8497158299922
 20
-130.9999999999992
 30
0.0
 11
444.8497158299922
 21
-151.5
 31
0.0
  0
LINE
  5
71A1
330
719E
100
AcDbEntity
  8
30
  6
CONTINUOUS
 62
     0
100
AcDbLine
 10
431.8497158299922
 20
-151.0
 30
0.0
 11
442.8497158299921
 21
-151.0
 31
0.0
  0
INSERT
  5
71A2
330
719E
100
AcDbEntity
  8
30
  6
CONTINUOUS
 62
     0
100
AcDbBlockReference
  2
_OPEN
 10
429.8497158299921
 20
-151.0
 30
0.0
 41
2.0
 42
2.0
 43
2.0
 50
180.0
  0
INSERT
  5
71A3
330
719E
100
AcDbEntity
  8
30
  6
CONTINUOUS
 62
     0
100
AcDbBlockReference
  2
_OPEN
 10
444.8497158299922
 20
-151.0
 30
0.0
 41
2.0
 42
2.0
 43
2.0
  0
MTEXT
  5
71A4
330
719E
100
AcDbEntity
  8
30
  6
CONTINUOUS
 62
     0
100
AcDbMText
 10
437.3497158299922
 20
-147.5
 30
0.0
 40
5.0
 41
0.0
 71
     5
 72
     1
  1
\A1;15
1001
ACAD
1000
MTEXTBEGIN
1070
    73
1070
     1
1070
    44
1040
1.0
1070
    74
1070
     0
1000
MTEXTEND
  0
POINT
  5
71A5
330
719E
100
AcDbEntity
  8
DEFPOINTS
  6
CONTINUOUS
 62
     0
100
AcDbPoint
 10
429.8497158299921
 20
-124.4999999999992
 30
0.0
  0
POINT
  5
71A6
330
719E
100
AcDbEntity
  8
DEFPOINTS
  6
CONTINUOUS
 62
     0
100
AcDbPoint
 10
444.8497158299922
 20
-129.9999999999992
 30
0.0
  0
POINT
  5
71A7
330
719E
100
AcDbEntity
  8
DEFPOINTS
  6
CONTINUOUS
 62
     0
100
AcDbPoint
 10
444.8497158299922
 20
-151.0
 30
0.0
  0
ENDBLK
  5
71A9
330
719E
100
AcDbEntity
  8
0
100
AcDbBlockEnd
  0
BLOCK
  5
71B5
330
71AB
100
AcDbEntity
  8
0
100
AcDbBlockBegin
  2
*D12
 70
     1
 10
0.0
 20
0.0
 30
0.0
  3
*D12
  1

  0
LINE
  5
71AC
330
71AB
100
AcDbEntity
  8
30
  6
CONTINUOUS
 62
     0
100
AcDbLine
 10
469.8497158299918
 20
-125.5000000000007
 30
0.0
 11
469.8497158299918
 21
-152.0
 31
0.0
  0
LINE
  5
71AD
330
71AB
100
AcDbEntity
  8
30
  6
CONTINUOUS
 62
     0
100
AcDbLine
 10
484.8497158299919
 20
-130.0000000000008
 30
0.0
 11
484.8497158299919
 21
-152.0
 31
0.0
  0
LINE
  5
71AE
330
71AB
100
AcDbEntity
  8
30
  6
CONTINUOUS
 62
     0
100
AcDbLine
 10
471.8497158299918
 20
-151.5
 30
0.0
 11
482.8497158299918
 21
-151.5
 31
0.0
  0
INSERT
  5
71AF
330
71AB
100
AcDbEntity
  8
30
  6
CONTINUOUS
 62
     0
100
AcDbBlockReference
  2
_OPEN
 10
469.8497158299918
 20
-151.5
 30
0.0
 41
2.0
 42
2.0
 43
2.0
 50
180.0
  0
INSERT
  5
71B0
330
71AB
100
AcDbEntity
  8
30
  6
CONTINUOUS
 62
     0
100
AcDbBlockReference
  2
_OPEN
 10
484.8497158299919
 20
-151.5
 30
0.0
 41
2.0
 42
2.0
 43
2.0
  0
MTEXT
  5
71B1
330
71AB
100
AcDbEntity
  8
30
  6
CONTINUOUS
 62
     0
100
AcDbMText
 10
477.3497158299918
 20
-148.0
 30
0.0
 40
5.0
 41
0.0
 71
     5
 72
     1
  1
\A1;15
1001
ACAD
1000
MTEXTBEGIN
1070
    73
1070
     1
1070
    44
1040
1.0
1070
    74
1070
     0
1000
MTEXTEND
  0
POINT
  5
71B2
330
71AB
100
AcDbEntity
  8
DEFPOINTS
  6
CONTINUOUS
 62
     0
100
AcDbPoint
 10
469.8497158299918
 20
-124.5000000000007
 30
0.0
  0
POINT
  5
71B3
330
71AB
100
AcDbEntity
  8
DEFPOINTS
  6
CONTINUOUS
 62
     0
100
AcDbPoint
 10
484.8497158299919
 20
-129.0000000000008
 30
0.0
  0
POINT
  5
71B4
330
71AB
100
AcDbEntity
  8
DEFPOINTS
  6
CONTINUOUS
 62
     0
100
AcDbPoint
 10
484.8497158299919
 20
-151.5
 30
0.0
  0
ENDBLK
  5
71B6
330
71AB
100
AcDbEntity
  8
0
100
AcDbBlockEnd
  0
BLOCK
  5
71C2
330
71B8
100
AcDbEntity
  8
0
100
AcDbBlockBegin
  2
*D13
 70
     1
 10
0.0
 20
0.0
 30
0.0
  3
*D13
  1

  0
LINE
  5
71C4
330
71B8
100
AcDbEntity
  8
30
  6
CONTINUOUS
 62
     0
100
AcDbLine
 10
286.8497158299923
 20
-202.0
 30
0.0
 11
286.8497158299923
 21
-217.5
 31
0.0
  0
LINE
  5
71C5
330
71B8
100
AcDbEntity
  8
30
  6
CONTINUOUS
 62
     0
100
AcDbLine
 10
484.8497158299919
 20
-152.5
 30
0.0
 11
484.8497158299919
 21
-217.5
 31
0.0
  0
LINE
  5
71C6
330
71B8
100
AcDbEntity
  8
30
  6
CONTINUOUS
 62
     0
100
AcDbLine
 10
288.8497158299923
 20
-217.0
 30
0.0
 11
482.8497158299918
 21
-217.0
 31
0.0
  0
INSERT
  5
71C7
330
71B8
100
AcDbEntity
  8
30
  6
CONTINUOUS
 62
     0
100
AcDbBlockReference
  2
_OPEN
 10
286.8497158299923
 20
-217.0
 30
0.0
 41
2.0
 42
2.0
 43
2.0
 50
180.0
  0
INSERT
  5
71C8
330
71B8
100
AcDbEntity
  8
30
  6
CONTINUOUS
 62
     0
100
AcDbBlockReference
  2
_OPEN
 10
484.8497158299919
 20
-217.0
 30
0.0
 41
2.0
 42
2.0
 43
2.0
  0
MTEXT
  5
71C9
330
71B8
100
AcDbEntity
  8
30
  6
CONTINUOUS
 62
     0
100
AcDbMText
 10
385.8497158299921
 20
-213.5
 30
0.0
 40
5.0
 41
0.0
 71
     5
 72
     1
  1
\A1;198
1001
ACAD
1000
MTEXTBEGIN
1070
    73
1070
     1
1070
    44
1040
1.0
1070
    74
1070
     0
1000
MTEXTEND
  0
POINT
  5
71CA
330
71B8
100
AcDbEntity
  8
DEFPOINTS
  6
CONTINUOUS
 62
     0
100
AcDbPoint
 10
286.8497158299923
 20
-201.0
 30
0.0
  0
POINT
  5
71CB
330
71B8
100
AcDbEntity
  8
DEFPOINTS
  6
CONTINUOUS
 62
     0
100
AcDbPoint
 10
484.8497158299919
 20
-151.5
 30
0.0
  0
POINT
  5
71CC
330
71B8
100
AcDbEntity
  8
DEFPOINTS
  6
CONTINUOUS
 62
     0
100
AcDbPoint
 10
484.8497158299919
 20
-217.0
 30
0.0
  0
ENDBLK
  5
71C3
330
71B8
100
AcDbEntity
  8
0
100
AcDbBlockEnd
  0
BLOCK
  5
71D8
330
71CE
100
AcDbEntity
  8
0
100
AcDbBlockBegin
  2
*D14
 70
     1
 10
0.0
 20
0.0
 30
0.0
  3
*D14
  1

  0
LINE
  5
71CF
330
71CE
100
AcDbEntity
  8
30
  6
CONTINUOUS
 62
     0
100
AcDbLine
 10
485.8497158299918
 20
118.0
 30
0.0
 11
502.5
 21
118.0
 31
0.0
  0
LINE
  5
71D0
330
71CE
100
AcDbEntity
  8
30
  6
CONTINUOUS
 62
     0
100
AcDbLine
 10
485.8497158299918
 20
110.0
 30
0.0
 11
502.5
 21
110.0
 31
0.0
  0
LINE
  5
71D1
330
71CE
100
AcDbEntity
  8
30
  6
CONTINUOUS
 62
     0
100
AcDbLine
 10
502.0
 20
116.0
 30
0.0
 11
502.0
 21
112.0
 31
0.0
  0
INSERT
  5
71D2
330
71CE
100
AcDbEntity
  8
30
  6
CONTINUOUS
 62
     0
100
AcDbBlockReference
  2
_OPEN
 10
502.0
 20
118.0
 30
0.0
 41
2.0
 42
2.0
 43
2.0
 50
90.0
  0
INSERT
  5
71D3
330
71CE
100
AcDbEntity
  8
30
  6
CONTINUOUS
 62
     0
100
AcDbBlockReference
  2
_OPEN
 10
502.0
 20
110.0
 30
0.0
 41
2.0
 42
2.0
 43
2.0
 50
270.0
  0
MTEXT
  5
71D4
330
71CE
100
AcDbEntity
  8
30
  6
CONTINUOUS
 62
     0
100
AcDbMText
 10
498.5
 20
114.0
 30
0.0
 40
5.0
 41
0.0
 71
     5
 72
     1
  1
\A1;8
 11
0.0000000000000001
 21
1.0
 31
0.0
1001
ACAD
1000
MTEXTBEGIN
1070
    73
1070
     1
1070
    44
1040
1.0
1070
    74
1070
     0
1000
MTEXTEND
  0
POINT
  5
71D5
330
71CE
100
AcDbEntity
  8
DEFPOINTS
  6
CONTINUOUS
 62
     0
100
AcDbPoint
 10
484.8497158299919
 20
118.0
 30
0.0
  0
POINT
  5
71D6
330
71CE
100
AcDbEntity
  8
DEFPOINTS
  6
CONTINUOUS
 62
     0
100
AcDbPoint
 10
484.8497158299919
 20
110.0
 30
0.0
  0
POINT
  5
71D7
330
71CE
100
AcDbEntity
  8
DEFPOINTS
  6
CONTINUOUS
 62
     0
100
AcDbPoint
 10
502.0
 20
110.0
 30
0.0
  0
ENDBLK
  5
71D9
330
71CE
100
AcDbEntity
  8
0
100
AcDbBlockEnd
  0
BLOCK
  5
71E5
330
71DB
100
AcDbEntity
  8
0
100
AcDbBlockBegin
  2
*D15
 70
     1
 10
0.0
 20
0.0
 30
0.0
  3
*D15
  1

  0
LINE
  5
71DC
330
71DB
100
AcDbEntity
  8
30
  6
CONTINUOUS
 62
     0
100
AcDbLine
 10
503.0
 20
114.0
 30
0.0
 11
514.5
 21
114.0
 31
0.0
  0
LINE
  5
71DD
330
71DB
100
AcDbEntity
  8
30
  6
CONTINUOUS
 62
     0
100
AcDbLine
 10
481.3497158299918
 20
-114.0000000000007
 30
0.0
 11
514.5
 21
-114.0000000000007
 31
0.0
  0
LINE
  5
71DE
330
71DB
100
AcDbEntity
  8
30
  6
CONTINUOUS
 62
     0
100
AcDbLine
 10
514.0
 20
112.0
 30
0.0
 11
514.0
 21
-112.0000000000007
 31
0.0
  0
INSERT
  5
71DF
330
71DB
100
AcDbEntity
  8
30
  6
CONTINUOUS
 62
     0
100
AcDbBlockReference
  2
_OPEN
 10
514.0
 20
114.0
 30
0.0
 41
2.0
 42
2.0
 43
2.0
 50
90.0
  0
INSERT
  5
71E0
330
71DB
100
AcDbEntity
  8
30
  6
CONTINUOUS
 62
     0
100
AcDbBlockReference
  2
_OPEN
 10
514.0
 20
-114.0000000000007
 30
0.0
 41
2.0
 42
2.0
 43
2.0
 50
270.0
  0
MTEXT
  5
71E1
330
71DB
100
AcDbEntity
  8
30
  6
CONTINUOUS
 62
     0
100
AcDbMText
 10
510.5
 20
-0.0000000000003153
 30
0.0
 40
5.0
 41
0.0
 71
     5
 72
     1
  1
\A1;228
 11
0.0000000000000001
 21
1.0
 31
0.0
1001
ACAD
1000
MTEXTBEGIN
1070
    73
1070
     1
1070
    44
1040
1.0
1070
    74
1070
     0
1000
MTEXTEND
  0
POINT
  5
71E2
330
71DB
100
AcDbEntity
  8
DEFPOINTS
  6
CONTINUOUS
 62
     0
100
AcDbPoint
 10
502.0
 20
114.0
 30
0.0
  0
POINT
  5
71E3
330
71DB
100
AcDbEntity
  8
DEFPOINTS
  6
CONTINUOUS
 62
     0
100
AcDbPoint
 10
480.3497158299918
 20
-114.0000000000007
 30
0.0
  0
POINT
  5
71E4
330
71DB
100
AcDbEntity
  8
DEFPOINTS
  6
CONTINUOUS
 62
     0
100
AcDbPoint
 10
514.0
 20
-114.0000000000007
 30
0.0
  0
ENDBLK
  5
71E6
330
71DB
100
AcDbEntity
  8
0
100
AcDbBlockEnd
  0
BLOCK
  5
71F2
330
71E8
100
AcDbEntity
  8
0
100
AcDbBlockBegin
  2
*D16
 70
     1
 10
0.0
 20
0.0
 30
0.0
  3
*D16
  1

  0
LINE
  5
71F4
330
71E8
100
AcDbEntity
  8
30
  6
CONTINUOUS
 62
     0
100
AcDbLine
 10
485.8497158299918
 20
-99.0000000000008
 30
0.0
 11
501.4999999999998
 21
-99.0000000000008
 31
0.0
  0
LINE
  5
71F5
330
71E8
100
AcDbEntity
  8
30
  6
CONTINUOUS
 62
     0
100
AcDbLine
 10
485.8497158299918
 20
-129.0000000000008
 30
0.0
 11
501.4999999999998
 21
-129.0000000000008
 31
0.0
  0
LINE
  5
71F6
330
71E8
100
AcDbEntity
  8
30
  6
CONTINUOUS
 62
     0
100
AcDbLine
 10
501.0
 20
-101.0000000000008
 30
0.0
 11
501.0
 21
-127.0000000000008
 31
0.0
  0
INSERT
  5
71F7
330
71E8
100
AcDbEntity
  8
30
  6
CONTINUOUS
 62
     0
100
AcDbBlockReference
  2
_OPEN
 10
501.0
 20
-99.0000000000008
 30
0.0
 41
2.0
 42
2.0
 43
2.0
 50
90.0
  0
INSERT
  5
71F8
330
71E8
100
AcDbEntity
  8
30
  6
CONTINUOUS
 62
     0
100
AcDbBlockReference
  2
_OPEN
 10
501.0
 20
-129.0000000000008
 30
0.0
 41
2.0
 42
2.0
 43
2.0
 50
270.0
  0
MTEXT
  5
71F9
330
71E8
100
AcDbEntity
  8
30
  6
CONTINUOUS
 62
     0
100
AcDbMText
 10
497.5
 20
-114.0000000000007
 30
0.0
 40
5.0
 41
0.0
 71
     5
 72
     1
  1
\A1;30
 11
0.0000000000000001
 21
1.0
 31
0.0
1001
ACAD
1000
MTEXTBEGIN
1070
    73
1070
     1
1070
    44
1040
1.0
1070
    74
1070
     0
1000
MTEXTEND
  0
POINT
  5
71FA
330
71E8
100
AcDbEntity
  8
DEFPOINTS
  6
CONTINUOUS
 62
     0
100
AcDbPoint
 10
484.8497158299919
 20
-99.0000000000008
 30
0.0
  0
POINT
  5
71FB
330
71E8
100
AcDbEntity
  8
DEFPOINTS
  6
CONTINUOUS
 62
     0
100
AcDbPoint
 10
484.8497158299919
 20
-129.0000000000008
 30
0.0
  0
POINT
  5
71FC
330
71E8
100
AcDbEntity
  8
DEFPOINTS
  6
CONTINUOUS
 62
     0
100
AcDbPoint
 10
501.0
 20
-129.0000000000008
 30
0.0
  0
ENDBLK
  5
71F3
330
71E8
100
AcDbEntity
  8
0
100
AcDbBlockEnd
  0
BLOCK
  5
7207
330
71FE
100
AcDbEntity
  8
0
100
AcDbBlockBegin
  2
*D17
 70
     1
 10
0.0
 20
0.0
 30
0.0
  3
*D17
  1

  0
LINE
  5
71FF
330
71FE
100
AcDbEntity
  8
30
  6
CONTINUOUS
 62
     0
100
AcDbLine
 10
459.6666666666666
 20
-89.99999999999994
 30
0.0
 11
447.0
 21
-89.99999999999994
 31
0.0
  0
LINE
  5
7200
330
71FE
100
AcDbEntity
  8
30
  6
CONTINUOUS
 62
     0
100
AcDbLine
 10
447.0
 20
-89.99999999999994
 30
0.0
 11
434.7916574897728
 21
-107.0842778662432
 31
0.0
  0
MTEXT
  5
7201
330
71FE
100
AcDbEntity
  8
30
  6
CONTINUOUS
 62
     0
100
AcDbMText
 10
453.8333333333333
 20
-86.49999999999996
 30
0.0
 40
5.0
 41
0.0
 71
     5
 72
     1
  1
\A1;\U+220513
1001
ACAD
1000
MTEXTBEGIN
1070
    73
1070
     1
1070
    44
1040
1.0
1070
    74
1070
     0
1000
MTEXTEND
  0
INSERT
  5
7202
330
71FE
100
AcDbEntity
  8
30
  6
CONTINUOUS
 62
     0
100
AcDbBlockReference
  2
_OPEN
 10
433.6288476874711
 20
-108.7115066035976
 30
0.0
 41
2.0
 42
2.0
 43
2.0
 50
234.4505833136425
  0
LINE
  5
7203
330
71FE
100
AcDbEntity
  8
30
  6
CONTINUOUS
 62
     0
100
AcDbLine
 10
429.7597158299923
 20
-113.9999999999994
 30
0.0
 11
429.9397158299921
 21
-113.9999999999994
 31
0.0
  0
LINE
  5
7204
330
71FE
100
AcDbEntity
  8
30
  6
CONTINUOUS
 62
     0
100
AcDbLine
 10
429.8497158299921
 20
-114.0899999999994
 30
0.0
 11
429.8497158299921
 21
-113.9099999999993
 31
0.0
  0
POINT
  5
7205
330
71FE
100
AcDbEntity
  8
DEFPOINTS
  6
CONTINUOUS
 62
     0
100
AcDbPoint
 10
433.6288476874711
 20
-108.7115066035976
 30
0.0
  0
POINT
  5
7206
330
71FE
100
AcDbEntity
  8
DEFPOINTS
  6
CONTINUOUS
 62
     0
100
AcDbPoint
 10
426.0705839725129
 20
-119.2884933964011
 30
0.0
  0
ENDBLK
  5
7208
330
71FE
100
AcDbEntity
  8
0
100
AcDbBlockEnd
  0
BLOCK
  5
7214
330
720A
100
AcDbEntity
  8
0
100
AcDbBlockBegin
  2
*D18
 70
     1
 10
0.0
 20
0.0
 30
0.0
  3
*D18
  1

  0
LINE
  5
7228
330
720A
100
AcDbEntity
  8
30
  6
CONTINUOUS
 62
     0
100
AcDbLine
 10
246.8497158299924
 20
-1.0
 30
0.0
 11
246.8497158299924
 21
-200.4999999999999
 31
0.0
  0
LINE
  5
7229
330
720A
100
AcDbEntity
  8
30
  6
CONTINUOUS
 62
     0
100
AcDbLine
 10
286.8497158299926
 20
-172.4999999999998
 30
0.0
 11
286.8497158299926
 21
-200.4999999999999
 31
0.0
  0
LINE
  5
722A
330
720A
100
AcDbEntity
  8
30
  6
CONTINUOUS
 62
     0
100
AcDbLine
 10
248.8497158299924
 20
-200.0
 30
0.0
 11
284.8497158299926
 21
-200.0
 31
0.0
  0
INSERT
  5
722B
330
720A
100
AcDbEntity
  8
30
  6
CONTINUOUS
 62
     0
100
AcDbBlockReference
  2
_OPEN
 10
246.8497158299924
 20
-200.0
 30
0.0
 41
2.0
 42
2.0
 43
2.0
 50
180.0
  0
INSERT
  5
722C
330
720A
100
AcDbEntity
  8
30
  6
CONTINUOUS
 62
     0
100
AcDbBlockReference
  2
_OPEN
 10
286.8497158299926
 20
-200.0
 30
0.0
 41
2.0
 42
2.0
 43
2.0
  0
MTEXT
  5
722D
330
720A
100
AcDbEntity
  8
30
  6
CONTINUOUS
 62
     0
100
AcDbMText
 10
266.8497158299924
 20
-196.5
 30
0.0
 40
5.0
 41
0.0
 71
     5
 72
     1
  1
\A1;40
1001
ACAD
1000
MTEXTBEGIN
1070
    73
1070
     1
1070
    44
1040
1.0
1070
    74
1070
     0
1000
MTEXTEND
  0
POINT
  5
722E
330
720A
100
AcDbEntity
  8
DEFPOINTS
  6
CONTINUOUS
 62
     0
100
AcDbPoint
 10
246.8497158299924
 20
0.0
 30
0.0
  0
POINT
  5
722F
330
720A
100
AcDbEntity
  8
DEFPOINTS
  6
CONTINUOUS
 62
     0
100
AcDbPoint
 10
286.8497158299926
 20
-171.4999999999998
 30
0.0
  0
POINT
  5
7230
330
720A
100
AcDbEntity
  8
DEFPOINTS
  6
CONTINUOUS
 62
     0
100
AcDbPoint
 10
286.8497158299926
 20
-200.0
 30
0.0
  0
ENDBLK
  5
7215
330
720A
100
AcDbEntity
  8
0
100
AcDbBlockEnd
  0
BLOCK
  5
7245
330
723B
100
AcDbEntity
  8
0
100
AcDbBlockBegin
  2
*D19
 70
     1
 10
0.0
 20
0.0
 30
0.0
  3
*D19
  1

  0
LINE
  5
7342
330
723B
100
AcDbEntity
  8
30
  6
CONTINUOUS
 62
     0
100
AcDbLine
 10
-110.5000000000002
 20
-386.5
 30
0.0
 11
-129.4999999999999
 21
-386.4999999999998
 31
0.0
  0
LINE
  5
7343
330
723B
100
AcDbEntity
  8
30
  6
CONTINUOUS
 62
     0
100
AcDbLine
 10
-110.5000000000002
 20
-513.4999999999998
 30
0.0
 11
-129.4999999999999
 21
-513.4999999999998
 31
0.0
  0
LINE
  5
7344
330
723B
100
AcDbEntity
  8
30
  6
CONTINUOUS
 62
     0
100
AcDbLine
 10
-128.9999999999999
 20
-388.4999999999998
 30
0.0
 11
-129.0
 21
-511.4999999999998
 31
0.0
  0
INSERT
  5
7345
330
723B
100
AcDbEntity
  8
30
  6
CONTINUOUS
 62
     0
100
AcDbBlockReference
  2
_OPEN
 10
-128.9999999999999
 20
-386.4999999999998
 30
0.0
 41
2.0
 42
2.0
 43
2.0
 50
90.0
  0
INSERT
  5
7346
330
723B
100
AcDbEntity
  8
30
  6
CONTINUOUS
 62
     0
100
AcDbBlockReference
  2
_OPEN
 10
-129.0
 20
-513.4999999999998
 30
0.0
 41
2.0
 42
2.0
 43
2.0
 50
270.0
  0
MTEXT
  5
7347
330
723B
100
AcDbEntity
  8
30
  6
CONTINUOUS
 62
     0
100
AcDbMText
 10
-132.4999999999999
 20
-450.0
 30
0.0
 40
5.0
 41
0.0
 71
     5
 72
     1
  1
\A1;127
 11
0.0000000000000001
 21
1.0
 31
0.0
1001
ACAD
1000
MTEXTBEGIN
1070
    73
1070
     1
1070
    44
1040
1.0
1070
    74
1070
     0
1000
MTEXTEND
  0
POINT
  5
7348
330
723B
100
AcDbEntity
  8
DEFPOINTS
  6
CONTINUOUS
 62
     0
100
AcDbPoint
 10
-109.5000000000002
 20
-386.5
 30
0.0
  0
POINT
  5
7349
330
723B
100
AcDbEntity
  8
DEFPOINTS
  6
CONTINUOUS
 62
     0
100
AcDbPoint
 10
-109.5000000000002
 20
-513.4999999999998
 30
0.0
  0
POINT
  5
734A
330
723B
100
AcDbEntity
  8
DEFPOINTS
  6
CONTINUOUS
 62
     0
100
AcDbPoint
 10
-129.0
 20
-513.4999999999998
 30
0.0
  0
ENDBLK
  5
7246
330
723B
100
AcDbEntity
  8
0
100
AcDbBlockEnd
  0
BLOCK
  5
7252
330
7248
100
AcDbEntity
  8
0
100
AcDbBlockBegin
  2
*D20
 70
     1
 10
0.0
 20
0.0
 30
0.0
  3
*D20
  1

  0
LINE
  5
7339
330
7248
100
AcDbEntity
  8
30
  6
CONTINUOUS
 62
     0
100
AcDbLine
 10
-91.5
 20
-283.4999999999999
 30
0.0
 11
-147.4999999999999
 21
-283.4999999999999
 31
0.0
  0
LINE
  5
733A
330
7248
100
AcDbEntity
  8
30
  6
CONTINUOUS
 62
     0
100
AcDbLine
 10
-91.5
 20
-616.5
 30
0.0
 11
-147.5
 21
-616.5
 31
0.0
  0
LINE
  5
733B
330
7248
100
AcDbEntity
  8
30
  6
CONTINUOUS
 62
     0
100
AcDbLine
 10
-146.9999999999999
 20
-285.4999999999999
 30
0.0
 11
-147.0
 21
-614.5
 31
0.0
  0
INSERT
  5
733C
330
7248
100
AcDbEntity
  8
30
  6
CONTINUOUS
 62
     0
100
AcDbBlockReference
  2
_OPEN
 10
-146.9999999999999
 20
-283.4999999999999
 30
0.0
 41
2.0
 42
2.0
 43
2.0
 50
90.0
  0
INSERT
  5
733D
330
7248
100
AcDbEntity
  8
30
  6
CONTINUOUS
 62
     0
100
AcDbBlockReference
  2
_OPEN
 10
-147.0
 20
-616.5
 30
0.0
 41
2.0
 42
2.0
 43
2.0
 50
270.0
  0
MTEXT
  5
733E
330
7248
100
AcDbEntity
  8
30
  6
CONTINUOUS
 62
     0
100
AcDbMText
 10
-150.4999999999999
 20
-450.0
 30
0.0
 40
5.0
 41
0.0
 71
     5
 72
     1
  1
\A1;333
 11
0.0000000000000001
 21
1.0
 31
0.0
1001
ACAD
1000
MTEXTBEGIN
1070
    73
1070
     1
1070
    44
1040
1.0
1070
    74
1070
     0
1000
MTEXTEND
  0
POINT
  5
733F
330
7248
100
AcDbEntity
  8
DEFPOINTS
  6
CONTINUOUS
 62
     0
100
AcDbPoint
 10
-90.5
 20
-283.4999999999999
 30
0.0
  0
POINT
  5
7340
330
7248
100
AcDbEntity
  8
DEFPOINTS
  6
CONTINUOUS
 62
     0
100
AcDbPoint
 10
-90.5
 20
-616.5
 30
0.0
  0
POINT
  5
7341
330
7248
100
AcDbEntity
  8
DEFPOINTS
  6
CONTINUOUS
 62
     0
100
AcDbPoint
 10
-147.0
 20
-616.5
 30
0.0
  0
ENDBLK
  5
7253
330
7248
100
AcDbEntity
  8
0
100
AcDbBlockEnd
  0
BLOCK
  5
725F
330
7255
100
AcDbEntity
  8
0
100
AcDbBlockBegin
  2
*D21
 70
     1
 10
0.0
 20
0.0
 30
0.0
  3
*D21
  1

  0
LINE
  5
7330
330
7255
100
AcDbEntity
  8
30
  6
CONTINUOUS
 62
     0
100
AcDbLine
 10
-104.5000000000002
 20
-278.5
 30
0.0
 11
-163.4999999999999
 21
-278.4999999999999
 31
0.0
  0
LINE
  5
7331
330
7255
100
AcDbEntity
  8
30
  6
CONTINUOUS
 62
     0
100
AcDbLine
 10
-104.5000000000002
 20
-621.4999999999998
 30
0.0
 11
-163.4999999999999
 21
-621.4999999999998
 31
0.0
  0
LINE
  5
7332
330
7255
100
AcDbEntity
  8
30
  6
CONTINUOUS
 62
     0
100
AcDbLine
 10
-162.9999999999999
 20
-280.4999999999999
 30
0.0
 11
-163.0
 21
-619.4999999999999
 31
0.0
  0
INSERT
  5
7333
330
7255
100
AcDbEntity
  8
30
  6
CONTINUOUS
 62
     0
100
AcDbBlockReference
  2
_OPEN
 10
-162.9999999999999
 20
-278.4999999999999
 30
0.0
 41
2.0
 42
2.0
 43
2.0
 50
90.0
  0
INSERT
  5
7334
330
7255
100
AcDbEntity
  8
30
  6
CONTINUOUS
 62
     0
100
AcDbBlockReference
  2
_OPEN
 10
-163.0
 20
-621.4999999999998
 30
0.0
 41
2.0
 42
2.0
 43
2.0
 50
270.0
  0
MTEXT
  5
7335
330
7255
100
AcDbEntity
  8
30
  6
CONTINUOUS
 62
     0
100
AcDbMText
 10
-166.4999999999998
 20
-449.9999999999998
 30
0.0
 40
5.0
 41
0.0
 71
     5
 72
     1
  1
\A1;343
 11
0.0000000000000001
 21
1.0
 31
0.0
1001
ACAD
1000
MTEXTBEGIN
1070
    73
1070
     1
1070
    44
1040
1.0
1070
    74
1070
     0
1000
MTEXTEND
  0
POINT
  5
7336
330
7255
100
AcDbEntity
  8
DEFPOINTS
  6
CONTINUOUS
 62
     0
100
AcDbPoint
 10
-103.5000000000002
 20
-278.5
 30
0.0
  0
POINT
  5
7337
330
7255
100
AcDbEntity
  8
DEFPOINTS
  6
CONTINUOUS
 62
     0
100
AcDbPoint
 10
-103.5000000000002
 20
-621.4999999999998
 30
0.0
  0
POINT
  5
7338
330
7255
100
AcDbEntity
  8
DEFPOINTS
  6
CONTINUOUS
 62
     0
100
AcDbPoint
 10
-163.0
 20
-621.4999999999998
 30
0.0
  0
ENDBLK
  5
7260
330
7255
100
AcDbEntity
  8
0
100
AcDbBlockEnd
  0
BLOCK
  5
726C
330
7262
100
AcDbEntity
  8
0
100
AcDbBlockBegin
  2
*D22
 70
     1
 10
0.0
 20
0.0
 30
0.0
  3
*D22
  1

  0
LINE
  5
73EC
330
7262
100
AcDbEntity
  8
30
  6
CONTINUOUS
 62
     0
100
AcDbLine
 10
-90.5
 20
-617.4999999999998
 30
0.0
 11
-90.5
 21
-641.5
 31
0.0
  0
LINE
  5
73ED
330
7262
100
AcDbEntity
  8
30
  6
CONTINUOUS
 62
     0
100
AcDbLine
 10
90.49999999999979
 20
-617.4999999999998
 30
0.0
 11
90.49999999999979
 21
-641.5
 31
0.0
  0
LINE
  5
73EE
330
7262
100
AcDbEntity
  8
30
  6
CONTINUOUS
 62
     0
100
AcDbLine
 10
-88.49999999999999
 20
-641.0
 30
0.0
 11
88.49999999999978
 21
-641.0
 31
0.0
  0
INSERT
  5
73EF
330
7262
100
AcDbEntity
  8
30
  6
CONTINUOUS
 62
     0
100
AcDbBlockReference
  2
_OPEN
 10
-90.5
 20
-641.0
 30
0.0
 41
2.0
 42
2.0
 43
2.0
 50
180.0
  0
INSERT
  5
73F0
330
7262
100
AcDbEntity
  8
30
  6
CONTINUOUS
 62
     0
100
AcDbBlockReference
  2
_OPEN
 10
90.49999999999979
 20
-641.0
 30
0.0
 41
2.0
 42
2.0
 43
2.0
  0
MTEXT
  5
73F1
330
7262
100
AcDbEntity
  8
30
  6
CONTINUOUS
 62
     0
100
AcDbMText
 10
-0.0000000000001064
 20
-637.5
 30
0.0
 40
5.0
 41
0.0
 71
     5
 72
     1
  1
\A1;181
1001
ACAD
1000
MTEXTBEGIN
1070
    73
1070
     1
1070
    44
1040
1.0
1070
    74
1070
     0
1000
MTEXTEND
  0
POINT
  5
73F2
330
7262
100
AcDbEntity
  8
DEFPOINTS
  6
CONTINUOUS
 62
     0
100
AcDbPoint
 10
-90.5
 20
-616.5
 30
0.0
  0
POINT
  5
73F3
330
7262
100
AcDbEntity
  8
DEFPOINTS
  6
CONTINUOUS
 62
     0
100
AcDbPoint
 10
90.49999999999979
 20
-616.5
 30
0.0
  0
POINT
  5
73F4
330
7262
100
AcDbEntity
  8
DEFPOINTS
  6
CONTINUOUS
 62
     0
100
AcDbPoint
 10
90.49999999999979
 20
-641.0
 30
0.0
  0
ENDBLK
  5
726D
330
7262
100
AcDbEntity
  8
0
100
AcDbBlockEnd
  0
BLOCK
  5
7279
330
726F
100
AcDbEntity
  8
0
100
AcDbBlockBegin
  2
*D23
 70
     1
 10
0.0
 20
0.0
 30
0.0
  3
*D23
  1

  0
LINE
  5
73E3
330
726F
100
AcDbEntity
  8
30
  6
CONTINUOUS
 62
     0
100
AcDbLine
 10
-100.0000000000002
 20
-524.0
 30
0.0
 11
-100.0000000000002
 21
-659.4999999999997
 31
0.0
  0
LINE
  5
73E4
330
726F
100
AcDbEntity
  8
30
  6
CONTINUOUS
 62
     0
100
AcDbLine
 10
99.99999999999978
 20
-524.0
 30
0.0
 11
99.99999999999978
 21
-659.4999999999997
 31
0.0
  0
LINE
  5
73E5
330
726F
100
AcDbEntity
  8
30
  6
CONTINUOUS
 62
     0
100
AcDbLine
 10
-98.00000000000023
 20
-659.0
 30
0.0
 11
97.99999999999977
 21
-659.0
 31
0.0
  0
INSERT
  5
73E6
330
726F
100
AcDbEntity
  8
30
  6
CONTINUOUS
 62
     0
100
AcDbBlockReference
  2
_OPEN
 10
-100.0000000000002
 20
-659.0
 30
0.0
 41
2.0
 42
2.0
 43
2.0
 50
180.0
  0
INSERT
  5
73E7
330
726F
100
AcDbEntity
  8
30
  6
CONTINUOUS
 62
     0
100
AcDbBlockReference
  2
_OPEN
 10
99.99999999999978
 20
-659.0
 30
0.0
 41
2.0
 42
2.0
 43
2.0
  0
MTEXT
  5
73E8
330
726F
100
AcDbEntity
  8
30
  6
CONTINUOUS
 62
     0
100
AcDbMText
 10
-0.0000000000002272
 20
-655.4999999999997
 30
0.0
 40
5.0
 41
0.0
 71
     5
 72
     1
  1
\A1;200
1001
ACAD
1000
MTEXTBEGIN
1070
    73
1070
     1
1070
    44
1040
1.0
1070
    74
1070
     0
1000
MTEXTEND
  0
POINT
  5
73E9
330
726F
100
AcDbEntity
  8
DEFPOINTS
  6
CONTINUOUS
 62
     0
100
AcDbPoint
 10
-100.0000000000002
 20
-523.0
 30
0.0
  0
POINT
  5
73EA
330
726F
100
AcDbEntity
  8
DEFPOINTS
  6
CONTINUOUS
 62
     0
100
AcDbPoint
 10
99.99999999999978
 20
-523.0
 30
0.0
  0
POINT
  5
73EB
330
726F
100
AcDbEntity
  8
DEFPOINTS
  6
CONTINUOUS
 62
     0
100
AcDbPoint
 10
99.99999999999978
 20
-659.0
 30
0.0
  0
ENDBLK
  5
727A
330
726F
100
AcDbEntity
  8
0
100
AcDbBlockEnd
  0
BLOCK
  5
7285
330
727C
100
AcDbEntity
  8
0
100
AcDbBlockBegin
  2
*D24
 70
     1
 10
0.0
 20
0.0
 30
0.0
  3
*D24
  1

  0
LINE
  5
73DB
330
727C
100
AcDbEntity
  8
30
  6
CONTINUOUS
 62
     0
100
AcDbLine
 10
141.0618512824183
 20
-371.1537990836635
 30
0.0
 11
126.7285179490863
 21
-371.1537990836635
 31
0.0
  0
LINE
  5
73DC
330
727C
100
AcDbEntity
  8
30
  6
CONTINUOUS
 62
     0
100
AcDbLine
 10
126.7285179490863
 20
-371.1537990836635
 30
0.0
 11
104.1215770472132
 21
-382.2326859021501
 31
0.0
  0
MTEXT
  5
73DD
330
727C
100
AcDbEntity
  8
30
  6
CONTINUOUS
 62
     0
100
AcDbMText
 10
136.8951846157515
 20
-367.6537990836635
 30
0.0
 40
5.0
 41
0.0
 71
     5
 72
     1
  1
\A1;%%c7
1001
ACAD
1000
MTEXTBEGIN
1070
    73
1070
     1
1070
    44
1040
1.0
1070
    74
1070
     0
1000
MTEXTEND
  0
INSERT
  5
73DE
330
727C
100
AcDbEntity
  8
30
  6
CONTINUOUS
 62
     0
100
AcDbBlockReference
  2
_OPEN
 10
102.325643084744
 20
-383.112811576386
 30
0.0
 41
2.0
 42
2.0
 43
2.0
 50
206.1078904606269
  0
LINE
  5
73DF
330
727C
100
AcDbEntity
  8
30
  6
CONTINUOUS
 62
     0
100
AcDbLine
 10
99.54174214104007
 20
-384.43300008774
 30
0.0
 11
99.72174214104006
 21
-384.4330000877397
 31
0.0
  0
LINE
  5
73E0
330
727C
100
AcDbEntity
  8
30
  6
CONTINUOUS
 62
     0
100
AcDbLine
 10
99.63174214104007
 20
-384.52300008774
 30
0.0
 11
99.63174214104007
 21
-384.34300008774
 31
0.0
  0
POINT
  5
73E1
330
727C
100
AcDbEntity
  8
DEFPOINTS
  6
CONTINUOUS
 62
     0
100
AcDbPoint
 10
102.325643084744
 20
-383.112811576386
 30
0.0
  0
POINT
  5
73E2
330
727C
100
AcDbEntity
  8
DEFPOINTS
  6
CONTINUOUS
 62
     0
100
AcDbPoint
 10
96.93784119733601
 20
-385.753188599094
 30
0.0
  0
ENDBLK
  5
7286
330
727C
100
AcDbEntity
  8
0
100
AcDbBlockEnd
  0
BLOCK
  5
7306
330
72FC
100
AcDbEntity
  8
0
100
AcDbBlockBegin
  2
*D25
 70
     1
 10
0.0
 20
0.0
 30
0.0
  3
*D25
  1

  0
LINE
  5
7308
330
72FC
100
AcDbEntity
  8
30
  6
CONTINUOUS
 62
     0
100
AcDbLine
 10
-111.4999999999999
 20
-164.4999999999996
 30
0.0
 11
-111.4999999999999
 21
-200.4999999999999
 31
0.0
  0
LINE
  5
7309
330
72FC
100
AcDbEntity
  8
30
  6
CONTINUOUS
 62
     0
100
AcDbLine
 10
111.4999999999997
 20
-164.4999999999996
 30
0.0
 11
111.4999999999997
 21
-200.4999999999999
 31
0.0
  0
LINE
  5
730A
330
72FC
100
AcDbEntity
  8
30
  6
CONTINUOUS
 62
     0
100
AcDbLine
 10
-109.4999999999999
 20
-200.0
 30
0.0
 11
109.4999999999997
 21
-200.0
 31
0.0
  0
INSERT
  5
730B
330
72FC
100
AcDbEntity
  8
30
  6
CONTINUOUS
 62
     0
100
AcDbBlockReference
  2
_OPEN
 10
-111.4999999999999
 20
-200.0
 30
0.0
 41
2.0
 42
2.0
 43
2.0
 50
180.0
  0
INSERT
  5
730C
330
72FC
100
AcDbEntity
  8
30
  6
CONTINUOUS
 62
     0
100
AcDbBlockReference
  2
_OPEN
 10
111.4999999999997
 20
-200.0
 30
0.0
 41
2.0
 42
2.0
 43
2.0
  0
MTEXT
  5
730D
330
72FC
100
AcDbEntity
  8
30
  6
CONTINUOUS
 62
     0
100
AcDbMText
 10
-0.0000000000000566
 20
-196.5
 30
0.0
 40
5.0
 41
0.0
 71
     5
 72
     1
  1
\A1;223
1001
ACAD
1000
MTEXTBEGIN
1070
    73
1070
     1
1070
    44
1040
1.0
1070
    74
1070
     0
1000
MTEXTEND
  0
POINT
  5
730E
330
72FC
100
AcDbEntity
  8
DEFPOINTS
  6
CONTINUOUS
 62
     0
100
AcDbPoint
 10
-111.4999999999999
 20
-163.4999999999998
 30
0.0
  0
POINT
  5
730F
330
72FC
100
AcDbEntity
  8
DEFPOINTS
  6
CONTINUOUS
 62
     0
100
AcDbPoint
 10
111.4999999999997
 20
-163.4999999999998
 30
0.0
  0
POINT
  5
7310
330
72FC
100
AcDbEntity
  8
DEFPOINTS
  6
CONTINUOUS
 62
     0
100
AcDbPoint
 10
111.4999999999997
 20
-200.0
 30
0.0
  0
ENDBLK
  5
7307
330
72FC
100
AcDbEntity
  8
0
100
AcDbBlockEnd
  0
BLOCK
  5
731C
330
7312
100
AcDbEntity
  8
0
100
AcDbBlockBegin
  2
*D26
 70
     1
 10
0.0
 20
0.0
 30
0.0
  3
*D26
  1

  0
LINE
  5
7313
330
7312
100
AcDbEntity
  8
30
  6
CONTINUOUS
 62
     0
100
AcDbLine
 10
-70.0
 20
-131.0
 30
0.0
 11
-70.0
 21
-186.5
 31
0.0
  0
LINE
  5
7314
330
7312
100
AcDbEntity
  8
30
  6
CONTINUOUS
 62
     0
100
AcDbLine
 10
69.9999999999999
 20
-131.0
 30
0.0
 11
69.9999999999999
 21
-186.5
 31
0.0
  0
LINE
  5
7315
330
7312
100
AcDbEntity
  8
30
  6
CONTINUOUS
 62
     0
100
AcDbLine
 10
-68.0
 20
-186.0
 30
0.0
 11
67.9999999999999
 21
-186.0
 31
0.0
  0
INSERT
  5
7316
330
7312
100
AcDbEntity
  8
30
  6
CONTINUOUS
 62
     0
100
AcDbBlockReference
  2
_OPEN
 10
-70.0
 20
-186.0
 30
0.0
 41
2.0
 42
2.0
 43
2.0
 50
180.0
  0
INSERT
  5
7317
330
7312
100
AcDbEntity
  8
30
  6
CONTINUOUS
 62
     0
100
AcDbBlockReference
  2
_OPEN
 10
69.9999999999999
 20
-186.0
 30
0.0
 41
2.0
 42
2.0
 43
2.0
  0
MTEXT
  5
7318
330
7312
100
AcDbEntity
  8
30
  6
CONTINUOUS
 62
     0
100
AcDbMText
 10
-0.0000000000000566
 20
-182.5
 30
0.0
 40
5.0
 41
0.0
 71
     5
 72
     1
  1
\A1;140
1001
ACAD
1000
MTEXTBEGIN
1070
    73
1070
     1
1070
    44
1040
1.0
1070
    74
1070
     0
1000
MTEXTEND
  0
POINT
  5
7319
330
7312
100
AcDbEntity
  8
DEFPOINTS
  6
CONTINUOUS
 62
     0
100
AcDbPoint
 10
-70.0
 20
-130.0
 30
0.0
  0
POINT
  5
731A
330
7312
100
AcDbEntity
  8
DEFPOINTS
  6
CONTINUOUS
 62
     0
100
AcDbPoint
 10
69.9999999999999
 20
-130.0
 30
0.0
  0
POINT
  5
731B
330
7312
100
AcDbEntity
  8
DEFPOINTS
  6
CONTINUOUS
 62
     0
100
AcDbPoint
 10
69.9999999999999
 20
-186.0
 30
0.0
  0
ENDBLK
  5
731D
330
7312
100
AcDbEntity
  8
0
100
AcDbBlockEnd
  0
BLOCK
  5
7400
330
73F6
100
AcDbEntity
  8
0
100
AcDbBlockBegin
  2
*D27
 70
     1
 10
0.0
 20
0.0
 30
0.0
  3
*D27
  1

  0
LINE
  5
73F7
330
73F6
100
AcDbEntity
  8
30
  6
CONTINUOUS
 62
     0
100
AcDbLine
 10
268.8497158299924
 20
-172.4999999999998
 30
0.0
 11
268.8497158299924
 21
-186.5
 31
0.0
  0
LINE
  5
73F8
330
73F6
100
AcDbEntity
  8
30
  6
CONTINUOUS
 62
     0
100
AcDbLine
 10
286.8497158299923
 20
-172.4999999999998
 30
0.0
 11
286.8497158299923
 21
-186.5
 31
0.0
  0
LINE
  5
73F9
330
73F6
100
AcDbEntity
  8
30
  6
CONTINUOUS
 62
     0
100
AcDbLine
 10
270.8497158299924
 20
-186.0
 30
0.0
 11
284.8497158299922
 21
-186.0
 31
0.0
  0
INSERT
  5
73FA
330
73F6
100
AcDbEntity
  8
30
  6
CONTINUOUS
 62
     0
100
AcDbBlockReference
  2
_OPEN
 10
268.8497158299924
 20
-186.0
 30
0.0
 41
2.0
 42
2.0
 43
2.0
 50
180.0
  0
INSERT
  5
73FB
330
73F6
100
AcDbEntity
  8
30
  6
CONTINUOUS
 62
     0
100
AcDbBlockReference
  2
_OPEN
 10
286.8497158299923
 20
-186.0
 30
0.0
 41
2.0
 42
2.0
 43
2.0
  0
MTEXT
  5
73FC
330
73F6
100
AcDbEntity
  8
30
  6
CONTINUOUS
 62
     0
100
AcDbMText
 10
277.8497158299924
 20
-182.5
 30
0.0
 40
5.0
 41
0.0
 71
     5
 72
     1
  1
\A1;18
1001
ACAD
1000
MTEXTBEGIN
1070
    73
1070
     1
1070
    44
1040
1.0
1070
    74
1070
     0
1000
MTEXTEND
  0
POINT
  5
73FD
330
73F6
100
AcDbEntity
  8
DEFPOINTS
  6
CONTINUOUS
 62
     0
100
AcDbPoint
 10
268.8497158299924
 20
-171.4999999999998
 30
0.0
  0
POINT
  5
73FE
330
73F6
100
AcDbEntity
  8
DEFPOINTS
  6
CONTINUOUS
 62
     0
100
AcDbPoint
 10
286.8497158299923
 20
-171.4999999999998
 30
0.0
  0
POINT
  5
73FF
330
73F6
100
AcDbEntity
  8
DEFPOINTS
  6
CONTINUOUS
 62
     0
100
AcDbPoint
 10
286.8497158299923
 20
-186.0
 30
0.0
  0
ENDBLK
  5
7401
330
73F6
100
AcDbEntity
  8
0
100
AcDbBlockEnd
  0
ENDSEC
  0
SECTION
  2
ENTITIES
  0
LINE
  5
B4
330
1E
100
AcDbEntity
  8
16
100
AcDbLine
 10
0.0
 20
-170.0272802992444
 30
0.0
 11
0.0
 21
186.4499999999999
 31
0.0
  0
MTEXT
  5
BF3
330
1E
100
AcDbEntity
  8
24
  6
CONTINUOUS
100
AcDbMText
 10
142.1181906098743
 20
177.5
 30
0.0
 40
3.0
 41
0.0
 71
     1
 72
     1
  1
\A1;
1001
ACAD
1000
MTEXTBEGIN
1070
    73
1070
     1
1070
    44
1040
1.0
1070
    74
1070
     0
1000
MTEXTEND
  0
LINE
  5
1C9B
330
1E
100
AcDbEntity
  8
16
100
AcDbLine
 10
450.1890316890182
 20
0.0
 30
0.0
 11
211.3937097878773
 21
0.0
 31
0.0
  0
LINE
  5
2260
330
1E
100
AcDbEntity
  8
16
100
AcDbLine
 10
142.349715829992
 20
-450.0
 30
0.0
 11
-140.1065049170443
 21
-450.0
 31
0.0
  0
LINE
  5
4C5A
330
1E
100
AcDbEntity
  8
16
100
AcDbLine
 10
164.8497158299924
 20
0.0
 30
0.0
 11
-140.1065049170443
 21
0.0
 31
0.0
  0
LWPOLYLINE
  5
62AB
330
1E
100
AcDbEntity
  8
16
100
AcDbPolyline
 90
        2
 70
     0
 43
0.0
 10
0.0
 20
-620.0272802992445
 10
0.0
 20
-273.65625
  0
MTEXT
  5
6813
330
1E
100
AcDbEntity
  8
19
  6
CONTINUOUS
100
AcDbMText
 10
332.0
 20
432.0
 30
0.0
 40
7.0
 41
94.0
 71
     1
 72
     5
  1
ZE400-NF 3P FP\PZS400-NF 3P FP\PZS400-GF 3P FP
  7
STANDARD1
1001
ACAD
1000
MTEXTBEGIN
1070
    73
1070
     1
1070
    44
1040
1.0
1070
    74
1070
     0
1000
MTEXTEND
  0
LINE
  5
69CB
330
1E
100
AcDbEntity
  8
16
100
AcDbLine
 10
0.0
 20
227.972719700755
 30
0.0
 11
0.0
 21
472.4499999999999
 31
0.0
  0
LINE
  5
6ADF
330
1E
100
AcDbEntity
  8
10
  6
CONTINUOUS
100
AcDbLine
 10
263.8497158299924
 20
19.15870375340692
 30
0.0
 11
250.3451414305334
 21
24.00734139942028
 31
0.0
  0
LINE
  5
6AE0
330
1E
100
AcDbEntity
  8
10
  6
CONTINUOUS
100
AcDbLine
 10
263.8497158299926
 20
17.03370272535244
 30
0.0
 11
233.1987277275401
 21
28.03853193396594
 31
0.0
  0
LINE
  5
6AE1
330
1E
100
AcDbEntity
  8
10
  6
CONTINUOUS
100
AcDbLine
 10
263.8497158299924
 20
29.78370889367953
 30
0.0
 11
237.25372834358
 21
39.33264411704225
 31
0.0
  0
LINE
  5
6AE2
330
1E
100
AcDbEntity
  8
10
  6
CONTINUOUS
100
AcDbLine
 10
253.04847517456
 20
31.53674952147127
 30
0.0
 11
250.3451414305334
 21
24.00734139942028
 31
0.0
  0
LINE
  5
6AE3
330
1E
100
AcDbEntity
  8
0
100
AcDbLine
 10
247.3497158299924
 20
2.799999999999962
 30
0.0
 11
246.8497158299924
 21
-1.0
 31
0.0
  0
LINE
  5
6AE4
330
1E
100
AcDbEntity
  8
0
100
AcDbLine
 10
229.8497158299924
 20
2.800000000000181
 30
0.0
 11
229.8497158299924
 21
0.0
 31
0.0
  0
ARC
  5
6AE5
330
1E
100
AcDbEntity
  8
30
  6
CONTINUOUS
100
AcDbCircle
 10
321.2497158299925
 20
2.799999999999954
 30
0.0
 40
91.4
100
AcDbArc
 50
164.0139175463419
 51
180.0
  0
ARC
  5
6AE6
330
1E
100
AcDbEntity
  8
30
  6
CONTINUOUS
100
AcDbCircle
 10
321.2497158299925
 20
2.799999999999954
 30
0.0
 40
73.89999999999995
100
AcDbArc
 50
163.352776376125
 51
180.0
  0
LINE
  5
6AE7
330
1E
100
AcDbEntity
  8
10
  6
CONTINUOUS
100
AcDbLine
 10
237.25372834358
 20
39.33264411704225
 30
0.0
 11
233.1987277275401
 21
28.03853193396594
 31
0.0
  0
LINE
  5
6AE9
330
1E
100
AcDbEntity
  8
18
100
AcDbLine
 10
290.8497158299923
 20
191.5
 30
0.0
 11
290.8497158299923
 21
-191.4999999999998
 31
0.0
  0
LINE
  5
6AEA
330
1E
100
AcDbEntity
  8
10
  6
CONTINUOUS
100
AcDbLine
 10
268.8497158299924
 20
171.5
 30
0.0
 11
268.8497158299924
 21
-171.4999999999998
 31
0.0
  0
LINE
  5
6AEB
330
1E
100
AcDbEntity
  8
10
  6
CONTINUOUS
100
AcDbLine
 10
286.8497158299923
 20
171.5
 30
0.0
 11
286.8497158299923
 21
-171.4999999999998
 31
0.0
  0
LINE
  5
6AEC
330
1E
100
AcDbEntity
  8
10
  6
CONTINUOUS
100
AcDbLine
 10
380.0497158299922
 20
96.0
 30
0.0
 11
380.0497158299922
 21
-96.0
 31
0.0
  0
LINE
  5
6AED
330
1E
100
AcDbEntity
  8
10
  6
CONTINUOUS
100
AcDbLine
 10
267.8497158299924
 20
45.0
 30
0.0
 11
267.8497158299924
 21
-45.0
 31
0.0
  0
LINE
  5
6AEE
330
1E
100
AcDbEntity
  8
10
  6
CONTINUOUS
100
AcDbLine
 10
263.8497158299924
 20
45.0
 30
0.0
 11
263.8497158299924
 21
-45.0
 31
0.0
  0
LINE
  5
6AEF
330
1E
100
AcDbEntity
  8
18
100
AcDbLine
 10
286.8497158299923
 20
-171.4999999999998
 30
0.0
 11
286.8497158299923
 21
-191.4999999999998
 31
0.0
  0
LINE
  5
6AF0
330
1E
100
AcDbEntity
  8
18
100
AcDbLine
 10
286.8497158299923
 20
-191.4999999999998
 30
0.0
 11
290.8497158299923
 21
-191.4999999999998
 31
0.0
  0
LINE
  5
6AF9
330
1E
100
AcDbEntity
  8
L10_
  6
CONTINUOUS
 62
     3
100
AcDbLine
 10
380.0497158299918
 20
-74.00000000000045
 30
0.0
 11
386.6497158299918
 21
-74.00000000000045
 31
0.0
  0
LINE
  5
6AFA
330
1E
100
AcDbEntity
  8
L10_
  6
CONTINUOUS
 62
     3
100
AcDbLine
 10
380.0497158299918
 20
-86.00000000000045
 30
0.0
 11
386.6497158299918
 21
-86.00000000000045
 31
0.0
  0
LINE
  5
6AFC
330
1E
100
AcDbEntity
  8
21
  6
CONTINUOUS
100
AcDbLine
 10
374.8497158299919
 20
-101.9999999999994
 30
0.0
 11
404.849715829992
 21
-101.9999999999994
 31
0.0
  0
LINE
  5
6AFD
330
1E
100
AcDbEntity
  8
21
  6
CONTINUOUS
100
AcDbLine
 10
374.8497158299919
 20
-125.9999999999992
 30
0.0
 11
404.849715829992
 21
-125.9999999999992
 31
0.0
  0
LINE
  5
6AFE
330
1E
100
AcDbEntity
  8
10
  6
CONTINUOUS
100
AcDbLine
 10
286.8497158299926
 20
-96.0
 30
0.0
 11
380.0497158299922
 21
-96.0
 31
0.0
  0
LINE
  5
6AFF
330
1E
100
AcDbEntity
  8
10
  6
CONTINUOUS
100
AcDbLine
 10
286.8497158299926
 20
-130.0
 30
0.0
 11
374.8497158299922
 21
-130.0
 31
0.0
  0
LINE
  5
6B00
330
1E
100
AcDbEntity
  8
10
  6
CONTINUOUS
100
AcDbLine
 10
268.8497158299924
 20
-171.4999999999998
 30
0.0
 11
286.8497158299923
 21
-171.4999999999998
 31
0.0
  0
LINE
  5
6B02
330
1E
100
AcDbEntity
  8
10
  6
CONTINUOUS
100
AcDbLine
 10
374.8497158299922
 20
-96.0
 30
0.0
 11
374.8497158299922
 21
-130.0
 31
0.0
  0
LINE
  5
6B03
330
1E
100
AcDbEntity
  8
10
  6
CONTINUOUS
100
AcDbLine
 10
374.8497158299919
 20
-125.9999999999992
 30
0.0
 11
374.8497158299919
 21
-101.9999999999994
 31
0.0
  0
LINE
  5
6B04
330
1E
100
AcDbEntity
  8
10
  6
CONTINUOUS
100
AcDbLine
 10
378.0497158299922
 20
-96.0
 30
0.0
 11
378.0497158299922
 21
-101.9999999999994
 31
0.0
  0
LINE
  5
6B05
330
1E
100
AcDbEntity
  8
10
  6
CONTINUOUS
100
AcDbLine
 10
263.8497158299924
 20
-45.0
 30
0.0
 11
268.8497158299924
 21
-45.0
 31
0.0
  0
LINE
  5
6B06
330
1E
100
AcDbEntity
  8
L10_
  6
CONTINUOUS
 62
     3
100
AcDbLine
 10
380.0497158299918
 20
-86.00000000000045
 30
0.0
 11
380.0497158299918
 21
-74.00000000000045
 31
0.0
  0
LINE
  5
6B07
330
1E
100
AcDbEntity
  8
21
  6
CONTINUOUS
100
AcDbLine
 10
448.8497158299918
 20
-99.0000000000008
 30
0.0
 11
484.8497158299919
 21
-99.0000000000008
 31
0.0
  0
LINE
  5
6B08
330
1E
100
AcDbEntity
  8
21
  6
CONTINUOUS
100
AcDbLine
 10
448.8497158299918
 20
-129.0000000000008
 30
0.0
 11
484.8497158299919
 21
-129.0000000000008
 31
0.0
  0
LINE
  5
6B09
330
1E
100
AcDbEntity
  8
21
  6
CONTINUOUS
100
AcDbLine
 10
412.3497158299919
 20
-98.99999999999945
 30
0.0
 11
444.8497158299922
 21
-98.99999999999945
 31
0.0
  0
LINE
  5
6B0A
330
1E
100
AcDbEntity
  8
21
  6
CONTINUOUS
100
AcDbLine
 10
412.3497158299919
 20
-128.9999999999992
 30
0.0
 11
444.8497158299922
 21
-128.9999999999992
 31
0.0
  0
LINE
  5
6B0B
330
1E
100
AcDbEntity
  8
21
  6
CONTINUOUS
100
AcDbLine
 10
412.3497158299919
 20
-98.99999999999945
 30
0.0
 11
444.8497158299922
 21
-98.99999999999945
 31
0.0
  0
LINE
  5
6B0C
330
1E
100
AcDbEntity
  8
21
  6
CONTINUOUS
100
AcDbLine
 10
412.3497158299919
 20
-128.9999999999992
 30
0.0
 11
444.8497158299922
 21
-128.9999999999992
 31
0.0
  0
LINE
  5
6B0D
330
1E
100
AcDbEntity
  8
21
  6
CONTINUOUS
100
AcDbLine
 10
404.849715829992
 20
-125.9999999999992
 30
0.0
 11
404.849715829992
 21
-101.9999999999994
 31
0.0
  0
ARC
  5
6B0E
330
1E
100
AcDbEntity
  8
21
  6
CONTINUOUS
100
AcDbCircle
 10
412.3497158299919
 20
-122.4999999999992
 30
0.0
 40
6.5
100
AcDbArc
 50
180.0
 51
270.0
  0
LINE
  5
6B0F
330
1E
100
AcDbEntity
  8
21
  6
CONTINUOUS
100
AcDbLine
 10
404.849715829992
 20
-122.4999999999992
 30
0.0
 11
405.8497158299918
 21
-122.4999999999992
 31
0.0
  0
ARC
  5
6B10
330
1E
100
AcDbEntity
  8
21
  6
CONTINUOUS
100
AcDbCircle
 10
412.3497158299919
 20
-105.4999999999992
 30
0.0
 40
6.5
100
AcDbArc
 50
90.0
 51
180.0
  0
LINE
  5
6B11
330
1E
100
AcDbEntity
  8
21
  6
CONTINUOUS
100
AcDbLine
 10
404.849715829992
 20
-105.4999999999992
 30
0.0
 11
405.8497158299918
 21
-105.4999999999992
 31
0.0
  0
CIRCLE
  5
6B12
330
1E
100
AcDbEntity
  8
24
  6
CONTINOUS
100
AcDbCircle
 10
429.8497158299921
 20
-113.9999999999994
 30
0.0
 40
6.5
  0
LINE
  5
6B13
330
1E
100
AcDbEntity
  8
24
  6
CONTINOUS
100
AcDbLine
 10
429.8497158299921
 20
-103.4999999999994
 30
0.0
 11
429.8497158299921
 21
-124.4999999999992
 31
0.0
  0
LINE
  5
6B14
330
1E
100
AcDbEntity
  8
21
  6
CONTINUOUS
100
AcDbLine
 10
444.8497158299922
 20
-128.9999999999992
 30
0.0
 11
444.8497158299922
 21
-98.99999999999945
 31
0.0
  0
LINE
  5
6B15
330
1E
100
AcDbEntity
  8
24
  6
CONTINOUS
100
AcDbLine
 10
419.3497158299918
 20
-113.9999999999994
 30
0.0
 11
440.3497158299922
 21
-113.9999999999994
 31
0.0
  0
CIRCLE
  5
6B16
330
1E
100
AcDbEntity
  8
24
  6
CONTINOUS
100
AcDbCircle
 10
469.8497158299918
 20
-114.0000000000007
 30
0.0
 40
6.5
  0
LINE
  5
6B17
330
1E
100
AcDbEntity
  8
24
  6
CONTINOUS
100
AcDbLine
 10
469.8497158299918
 20
-103.5000000000007
 30
0.0
 11
469.8497158299918
 21
-124.5000000000007
 31
0.0
  0
LINE
  5
6B18
330
1E
100
AcDbEntity
  8
21
  6
CONTINUOUS
100
AcDbLine
 10
484.8497158299919
 20
-129.0000000000008
 30
0.0
 11
484.8497158299919
 21
-99.0000000000008
 31
0.0
  0
LINE
  5
6B19
330
1E
100
AcDbEntity
  8
24
  6
CONTINOUS
100
AcDbLine
 10
459.3497158299918
 20
-114.0000000000007
 30
0.0
 11
480.3497158299918
 21
-114.0000000000007
 31
0.0
  0
LINE
  5
6B1D
330
1E
100
AcDbEntity
  8
L10_
  6
CONTINUOUS
 62
     3
100
AcDbLine
 10
389.6497158299918
 20
-83.00000000000045
 30
0.0
 11
389.6497158299918
 21
-77.00000000000045
 31
0.0
  0
LINE
  5
6B1E
330
1E
100
AcDbEntity
  8
L10_
  6
CONTINUOUS
 62
     3
100
AcDbLine
 10
386.6497158299918
 20
-86.00000000000045
 30
0.0
 11
386.6497158299918
 21
-74.00000000000045
 31
0.0
  0
LINE
  5
6B1F
330
1E
100
AcDbEntity
  8
L10_
  6
CONTINUOUS
 62
     3
100
AcDbLine
 10
386.6497158299918
 20
-77.00000000000045
 30
0.0
 11
389.6497158299918
 21
-77.00000000000045
 31
0.0
  0
LINE
  5
6B20
330
1E
100
AcDbEntity
  8
L10_
  6
CONTINUOUS
 62
     3
100
AcDbLine
 10
386.6497158299918
 20
-83.00000000000045
 30
0.0
 11
389.6497158299918
 21
-83.00000000000045
 31
0.0
  0
LINE
  5
6B43
330
1E
100
AcDbEntity
  8
18
100
AcDbLine
 10
286.8497158299923
 20
171.5
 30
0.0
 11
286.8497158299923
 21
191.5
 31
0.0
  0
LINE
  5
6B4B
330
1E
100
AcDbEntity
  8
L10_
  6
CONTINUOUS
 62
     3
100
AcDbLine
 10
380.0497158299918
 20
85.99999999999942
 30
0.0
 11
386.6497158299918
 21
85.99999999999942
 31
0.0
  0
LINE
  5
6B4C
330
1E
100
AcDbEntity
  8
L10_
  6
CONTINUOUS
 62
     3
100
AcDbLine
 10
380.0497158299918
 20
73.99999999999943
 30
0.0
 11
386.6497158299918
 21
73.99999999999943
 31
0.0
  0
LINE
  5
6B4E
330
1E
100
AcDbEntity
  8
21
  6
CONTINUOUS
100
AcDbLine
 10
374.8497158299919
 20
126.0000000000008
 30
0.0
 11
404.849715829992
 21
126.0000000000008
 31
0.0
  0
LINE
  5
6B4F
330
1E
100
AcDbEntity
  8
21
  6
CONTINUOUS
100
AcDbLine
 10
374.8497158299919
 20
102.0000000000008
 30
0.0
 11
404.849715829992
 21
102.0000000000008
 31
0.0
  0
LINE
  5
6B50
330
1E
100
AcDbEntity
  8
10
  6
CONTINUOUS
100
AcDbLine
 10
263.8497158299924
 20
45.0
 30
0.0
 11
268.8497158299924
 21
45.0
 31
0.0
  0
LINE
  5
6B51
330
1E
100
AcDbEntity
  8
10
  6
CONTINUOUS
100
AcDbLine
 10
263.8497158299924
 20
27.65870786562469
 30
0.0
 11
253.04847517456
 21
31.53674952147127
 31
0.0
  0
LINE
  5
6B52
330
1E
100
AcDbEntity
  8
L10_
  6
CONTINUOUS
 62
     3
100
AcDbLine
 10
380.0497158299918
 20
73.99999999999943
 30
0.0
 11
380.0497158299918
 21
85.99999999999942
 31
0.0
  0
LINE
  5
6B53
330
1E
100
AcDbEntity
  8
10
  6
CONTINUOUS
100
AcDbLine
 10
286.8497158299926
 20
96.0
 30
0.0
 11
380.0497158299922
 21
96.0
 31
0.0
  0
LINE
  5
6B54
330
1E
100
AcDbEntity
  8
10
  6
CONTINUOUS
100
AcDbLine
 10
374.8497158299922
 20
130.0
 30
0.0
 11
286.8497158299926
 21
130.0
 31
0.0
  0
LINE
  5
6B55
330
1E
100
AcDbEntity
  8
10
  6
CONTINUOUS
100
AcDbLine
 10
268.8497158299924
 20
171.5
 30
0.0
 11
286.8497158299923
 21
171.5
 31
0.0
  0
LINE
  5
6B57
330
1E
100
AcDbEntity
  8
10
  6
CONTINUOUS
100
AcDbLine
 10
374.8497158299922
 20
130.0
 30
0.0
 11
374.8497158299922
 21
96.0
 31
0.0
  0
LINE
  5
6B58
330
1E
100
AcDbEntity
  8
10
  6
CONTINUOUS
100
AcDbLine
 10
374.8497158299919
 20
102.0000000000008
 30
0.0
 11
374.8497158299919
 21
126.0000000000008
 31
0.0
  0
LINE
  5
6B59
330
1E
100
AcDbEntity
  8
10
  6
CONTINUOUS
100
AcDbLine
 10
378.0497158299922
 20
102.0000000000009
 30
0.0
 11
378.0497158299922
 21
96.0
 31
0.0
  0
LINE
  5
6B7E
330
1E
100
AcDbEntity
  8
L10_
  6
CONTINUOUS
 62
     3
100
AcDbLine
 10
389.6497158299918
 20
76.99999999999943
 30
0.0
 11
389.6497158299918
 21
82.99999999999943
 31
0.0
  0
LINE
  5
6B7F
330
1E
100
AcDbEntity
  8
L10_
  6
CONTINUOUS
 62
     3
100
AcDbLine
 10
386.6497158299918
 20
73.99999999999943
 30
0.0
 11
386.6497158299918
 21
85.99999999999942
 31
0.0
  0
LINE
  5
6B80
330
1E
100
AcDbEntity
  8
L10_
  6
CONTINUOUS
 62
     3
100
AcDbLine
 10
386.6497158299918
 20
82.99999999999943
 30
0.0
 11
389.6497158299918
 21
82.99999999999943
 31
0.0
  0
LINE
  5
6B81
330
1E
100
AcDbEntity
  8
L10_
  6
CONTINUOUS
 62
     3
100
AcDbLine
 10
386.6497158299918
 20
76.99999999999943
 30
0.0
 11
389.6497158299918
 21
76.99999999999943
 31
0.0
  0
LINE
  5
6B82
330
1E
100
AcDbEntity
  8
21
  6
CONTINUOUS
100
AcDbLine
 10
448.8497158299918
 20
118.0
 30
0.0
 11
484.8497158299919
 21
118.0
 31
0.0
  0
LINE
  5
6B83
330
1E
100
AcDbEntity
  8
21
  6
CONTINUOUS
100
AcDbLine
 10
448.8497158299918
 20
110.0
 30
0.0
 11
484.8497158299919
 21
110.0
 31
0.0
  0
LINE
  5
6B84
330
1E
100
AcDbEntity
  8
21
  6
CONTINUOUS
100
AcDbLine
 10
405.8497158299918
 20
110.0
 30
0.0
 11
444.8497158299922
 21
110.0
 31
0.0
  0
LINE
  5
6B85
330
1E
100
AcDbEntity
  8
21
  6
CONTINUOUS
100
AcDbLine
 10
405.8497158299918
 20
118.0
 30
0.0
 11
444.8497158299922
 21
118.0
 31
0.0
  0
LINE
  5
6B86
330
1E
100
AcDbEntity
  8
21
  6
CONTINUOUS
100
AcDbLine
 10
404.849715829992
 20
102.0000000000008
 30
0.0
 11
404.849715829992
 21
126.0000000000008
 31
0.0
  0
LINE
  5
6B87
330
1E
100
AcDbEntity
  8
21
  6
CONTINUOUS
100
AcDbLine
 10
405.8497158299918
 20
105.5000000000007
 30
0.0
 11
405.8497158299918
 21
110.0
 31
0.0
  0
LINE
  5
6B88
330
1E
100
AcDbEntity
  8
21
  6
CONTINUOUS
100
AcDbLine
 10
404.849715829992
 20
105.5000000000007
 30
0.0
 11
405.8497158299918
 21
105.5000000000007
 31
0.0
  0
LINE
  5
6B89
330
1E
100
AcDbEntity
  8
21
  6
CONTINUOUS
100
AcDbLine
 10
405.8497158299918
 20
122.5000000000008
 30
0.0
 11
405.8497158299918
 21
118.0
 31
0.0
  0
LINE
  5
6B8A
330
1E
100
AcDbEntity
  8
21
  6
CONTINUOUS
100
AcDbLine
 10
404.849715829992
 20
122.5000000000008
 30
0.0
 11
405.8497158299918
 21
122.5000000000008
 31
0.0
  0
LINE
  5
6B8B
330
1E
100
AcDbEntity
  8
24
  6
CONTINOUS
100
AcDbLine
 10
429.8497158299921
 20
126.0
 30
0.0
 11
429.8497158299921
 21
102.0
 31
0.0
  0
LINE
  5
6B8C
330
1E
100
AcDbEntity
  8
21
  6
CONTINUOUS
100
AcDbLine
 10
444.8497158299922
 20
110.0
 30
0.0
 11
444.8497158299922
 21
118.0
 31
0.0
  0
LINE
  5
6B8D
330
1E
100
AcDbEntity
  8
24
  6
CONTINOUS
100
AcDbLine
 10
469.8497158299918
 20
126.0
 30
0.0
 11
469.8497158299918
 21
102.0
 31
0.0
  0
LINE
  5
6B8E
330
1E
100
AcDbEntity
  8
21
  6
CONTINUOUS
100
AcDbLine
 10
484.8497158299919
 20
110.0
 30
0.0
 11
484.8497158299919
 21
118.0
 31
0.0
  0
LINE
  5
6B8F
330
1E
100
AcDbEntity
  8
18
100
AcDbLine
 10
286.8497158299923
 20
191.5
 30
0.0
 11
290.8497158299923
 21
191.5
 31
0.0
  0
LINE
  5
6CC6
330
1E
100
AcDbEntity
  8
18
100
AcDbLine
 10
111.4999999999997
 20
-286.5
 30
0.0
 11
111.4999999999997
 21
-613.4999999999998
 31
0.0
  0
LINE
  5
6CC7
330
1E
100
AcDbEntity
  8
18
100
AcDbLine
 10
-111.5000000000002
 20
-286.5
 30
0.0
 11
-111.5000000000002
 21
-613.4999999999998
 31
0.0
  0
LINE
  5
6CCA
330
1E
100
AcDbEntity
  8
18
100
AcDbLine
 10
-103.5000000000002
 20
-621.4999999999998
 30
0.0
 11
103.4999999999997
 21
-621.4999999999998
 31
0.0
  0
ARC
  5
6CCC
330
1E
100
AcDbEntity
  8
18
100
AcDbCircle
 10
-103.5000000000002
 20
-613.4999999999998
 30
0.0
 40
8.0
100
AcDbArc
 50
180.0
 51
270.0
  0
LINE
  5
6CD4
330
1E
100
AcDbEntity
  8
12
  6
DASHDOT
 62
     3
100
AcDbLine
 10
-100.0000000000002
 20
-523.0
 30
0.0
 11
-100.0000000000002
 21
-504.0
 31
0.0
  0
LINE
  5
6CD5
330
1E
100
AcDbEntity
  8
12
  6
DASHDOT
 62
     3
100
AcDbLine
 10
-109.5000000000002
 20
-513.4999999999998
 30
0.0
 11
-90.50000000000023
 21
-513.4999999999998
 31
0.0
  0
CIRCLE
  5
6CD6
330
1E
100
AcDbEntity
  8
12
  6
DASHDOT
 62
     3
100
AcDbCircle
 10
100.0000000000002
 20
-513.4999999999998
 30
0.0
 40
3.5
210
0.0
220
0.0
230
-1.0
  0
ARC
  5
6D26
330
1E
100
AcDbEntity
  8
18
100
AcDbCircle
 10
103.4999999999997
 20
-613.4999999999998
 30
0.0
 40
8.0
100
AcDbArc
 50
270.0
 51
0.0
  0
CIRCLE
  5
6D2A
330
1E
100
AcDbEntity
  8
12
  6
DASHDOT
 62
     3
100
AcDbCircle
 10
99.99999999999978
 20
-513.4999999999998
 30
0.0
 40
3.5
  0
LINE
  5
6D2B
330
1E
100
AcDbEntity
  8
12
  6
DASHDOT
 62
     3
100
AcDbLine
 10
90.49999999999979
 20
-513.4999999999998
 30
0.0
 11
109.4999999999997
 21
-513.4999999999998
 31
0.0
  0
LINE
  5
6D2C
330
1E
100
AcDbEntity
  8
12
  6
DASHDOT
 62
     3
100
AcDbLine
 10
99.99999999999978
 20
-523.0
 30
0.0
 11
99.99999999999978
 21
-504.0
 31
0.0
  0
LINE
  5
6D37
330
1E
100
AcDbEntity
  8
18
100
AcDbLine
 10
-103.5000000000002
 20
-278.5
 30
0.0
 11
103.4999999999997
 21
-278.5
 31
0.0
  0
LINE
  5
6D38
330
1E
100
AcDbEntity
  8
12
  6
DASHDOT
 62
     3
100
AcDbLine
 10
-100.0000000000002
 20
-396.0
 30
0.0
 11
-100.0000000000002
 21
-377.0
 31
0.0
  0
LINE
  5
6D39
330
1E
100
AcDbEntity
  8
12
  6
DASHDOT
 62
     3
100
AcDbLine
 10
-109.5000000000002
 20
-386.5
 30
0.0
 11
-90.50000000000023
 21
-386.5
 31
0.0
  0
CIRCLE
  5
6D3A
330
1E
100
AcDbEntity
  8
12
  6
DASHDOT
 62
     3
100
AcDbCircle
 10
-100.0000000000002
 20
-386.5
 30
0.0
 40
3.5
  0
ARC
  5
6D45
330
1E
100
AcDbEntity
  8
18
100
AcDbCircle
 10
-103.5000000000002
 20
-286.5
 30
0.0
 40
8.0
100
AcDbArc
 50
90.0
 51
180.0
  0
CIRCLE
  5
6D80
330
1E
100
AcDbEntity
  8
12
  6
DASHDOT
 62
     3
100
AcDbCircle
 10
-99.99999999999978
 20
-386.5
 30
0.0
 40
3.5
210
0.0
220
0.0
230
-1.0
  0
LINE
  5
6D81
330
1E
100
AcDbEntity
  8
12
  6
DASHDOT
 62
     3
100
AcDbLine
 10
90.49999999999979
 20
-386.5
 30
0.0
 11
109.4999999999997
 21
-386.5
 31
0.0
  0
LINE
  5
6D82
330
1E
100
AcDbEntity
  8
12
  6
DASHDOT
 62
     3
100
AcDbLine
 10
99.99999999999978
 20
-396.0
 30
0.0
 11
99.99999999999978
 21
-377.0
 31
0.0
  0
ARC
  5
6D8D
330
1E
100
AcDbEntity
  8
18
100
AcDbCircle
 10
103.4999999999997
 20
-286.5
 30
0.0
 40
8.0
100
AcDbArc
 50
0.0
 51
90.0
  0
LINE
  5
6DD3
330
1E
100
AcDbEntity
  8
10
  6
CONTINUOUS
100
AcDbLine
 10
58.0
 20
40.0
 30
0.0
 11
58.0
 21
-40.0
 31
0.0
  0
LINE
  5
6DD4
330
1E
100
AcDbEntity
  8
10
  6
CONTINUOUS
100
AcDbLine
 10
-58.0
 20
40.0
 30
0.0
 11
-58.0
 21
-40.0
 31
0.0
  0
LINE
  5
6DD5
330
1E
100
AcDbEntity
  8
10
  6
CONTINUOUS
100
AcDbLine
 10
25.49999999999977
 20
-45.0
 30
0.0
 11
25.49999999999988
 21
45.0
 31
0.0
  0
LINE
  5
6DD6
330
1E
100
AcDbEntity
  8
10
  6
CONTINUOUS
100
AcDbLine
 10
-25.49999999999977
 20
-45.0
 30
0.0
 11
-25.49999999999994
 21
45.0
 31
0.0
  0
LINE
  5
6DD7
330
1E
100
AcDbEntity
  8
10
  6
CONTINUOUS
100
AcDbLine
 10
-18.0
 20
-34.0
 30
0.0
 11
-18.00000000000005
 21
34.0
 31
0.0
  0
LINE
  5
6DD8
330
1E
100
AcDbEntity
  8
10
  6
CONTINUOUS
100
AcDbLine
 10
18.0
 20
-34.0
 30
0.0
 11
18.00000000000011
 21
34.0
 31
0.0
  0
LINE
  5
6DD9
330
1E
100
AcDbEntity
  8
10
  6
CONTINUOUS
100
AcDbLine
 10
69.9999999999999
 20
130.0
 30
0.0
 11
69.9999999999999
 21
-130.0
 31
0.0
  0
LINE
  5
6DDA
330
1E
100
AcDbEntity
  8
10
  6
CONTINUOUS
100
AcDbLine
 10
-70.0
 20
130.0
 30
0.0
 11
-70.0
 21
-130.0
 31
0.0
  0
LINE
  5
6DDC
330
1E
100
AcDbEntity
  8
10
  6
CONTINUOUS
100
AcDbLine
 10
-53.0
 20
-45.0
 30
0.0
 11
53.0
 21
-45.0
 31
0.0
  0
LINE
  5
6DDD
330
1E
100
AcDbEntity
  8
10
  6
CONTINUOUS
100
AcDbLine
 10
-70.0
 20
-130.0
 30
0.0
 11
69.9999999999999
 21
-130.0
 31
0.0
  0
LINE
  5
6DDF
330
1E
100
AcDbEntity
  8
L10_
  6
CONTINUOUS
 62
     3
100
AcDbLine
 10
-109.4999999999999
 20
-63.5
 30
0.0
 11
-90.5
 21
-63.5
 31
0.0
  0
ARC
  5
6DE0
330
1E
100
AcDbEntity
  8
10
  6
CONTINUOUS
100
AcDbCircle
 10
-53.0
 20
-40.0
 30
0.0
 40
5.0
100
AcDbArc
 50
180.0
 51
270.0
  0
LINE
  5
6DE1
330
1E
100
AcDbEntity
  8
L10_
  6
CONTINUOUS
 62
     3
100
AcDbLine
 10
-100.0
 20
-73.0
 30
0.0
 11
-100.0
 21
-54.0
 31
0.0
  0
CIRCLE
  5
6DE2
330
1E
100
AcDbEntity
  8
L10_
  6
CONTINUOUS
 62
     3
100
AcDbCircle
 10
100.0
 20
-63.5
 30
0.0
 40
3.5
210
0.0
220
0.0
230
-1.0
  0
LINE
  5
6DE3
330
1E
100
AcDbEntity
  8
10
  6
CONTINUOUS
100
AcDbLine
 10
18.0
 20
-34.0
 30
0.0
 11
-18.0
 21
-34.0
 31
0.0
  0
LINE
  5
6DE4
330
1E
100
AcDbEntity
  8
10
  6
CONTINUOUS
100
AcDbLine
 10
19.0
 20
-33.85000000000001
 30
0.0
 11
19.0
 21
-40.45000000000004
 31
0.0
  0
LINE
  5
6DE5
330
1E
100
AcDbEntity
  8
10
  6
CONTINUOUS
100
AcDbLine
 10
24.30000000000005
 20
-33.85000000000001
 30
0.0
 11
24.30000000000005
 21
-40.45000000000004
 31
0.0
  0
LINE
  5
6DE6
330
1E
100
AcDbEntity
  8
10
  6
CONTINUOUS
100
AcDbLine
 10
19.0
 20
-40.45000000000004
 30
0.0
 11
24.30000000000005
 21
-40.45000000000004
 31
0.0
  0
LINE
  5
6DE7
330
1E
100
AcDbEntity
  8
10
  6
CONTINUOUS
100
AcDbLine
 10
19.0
 20
-33.85000000000001
 30
0.0
 11
24.30000000000005
 21
-33.85000000000001
 31
0.0
  0
ARC
  5
6DE8
330
1E
100
AcDbEntity
  8
10
  6
CONTINUOUS
100
AcDbCircle
 10
53.0
 20
-40.0
 30
0.0
 40
5.0
100
AcDbArc
 50
270.0
 51
0.0
  0
LINE
  5
6DF3
330
1E
100
AcDbEntity
  8
L10_
  6
CONTINUOUS
 62
     3
100
AcDbLine
 10
100.0000000000001
 20
-73.0
 30
0.0
 11
100.0000000000001
 21
-54.0
 31
0.0
  0
CIRCLE
  5
6DF4
330
1E
100
AcDbEntity
  8
L10_
  6
CONTINUOUS
 62
     3
100
AcDbCircle
 10
100.0000000000001
 20
-63.5
 30
0.0
 40
3.5
  0
LINE
  5
6DF5
330
1E
100
AcDbEntity
  8
L10_
  6
CONTINUOUS
 62
     3
100
AcDbLine
 10
90.50000000000013
 20
-63.5
 30
0.0
 11
109.5000000000001
 21
-63.5
 31
0.0
  0
LINE
  5
6DF7
330
1E
100
AcDbEntity
  8
10
  6
CONTINUOUS
100
AcDbLine
 10
-53.0
 20
45.0
 30
0.0
 11
53.0
 21
45.0
 31
0.0
  0
LINE
  5
6DF8
330
1E
100
AcDbEntity
  8
10
  6
CONTINUOUS
100
AcDbLine
 10
69.9999999999999
 20
130.0
 30
0.0
 11
-70.0
 21
130.0
 31
0.0
  0
LINE
  5
6DF9
330
1E
100
AcDbEntity
  8
L10_
  6
CONTINUOUS
 62
     3
100
AcDbLine
 10
-109.4999999999999
 20
63.5
 30
0.0
 11
-90.5
 21
63.5
 31
0.0
  0
ARC
  5
6DFA
330
1E
100
AcDbEntity
  8
10
  6
CONTINUOUS
100
AcDbCircle
 10
-53.0
 20
40.0
 30
0.0
 40
5.0
100
AcDbArc
 50
90.0
 51
180.0
  0
LINE
  5
6DFB
330
1E
100
AcDbEntity
  8
L10_
  6
CONTINUOUS
 62
     3
100
AcDbLine
 10
-100.0
 20
54.0
 30
0.0
 11
-100.0
 21
73.0
 31
0.0
  0
CIRCLE
  5
6DFC
330
1E
100
AcDbEntity
  8
L10_
  6
CONTINUOUS
 62
     3
100
AcDbCircle
 10
-100.0
 20
63.5
 30
0.0
 40
3.5
  0
LINE
  5
6DFE
330
1E
100
AcDbEntity
  8
10
  6
CONTINUOUS
100
AcDbLine
 10
18.0
 20
34.0
 30
0.0
 11
-18.00000000000005
 21
34.0
 31
0.0
  0
LINE
  5
6DFF
330
1E
100
AcDbEntity
  8
10
  6
CONTINUOUS
100
AcDbLine
 10
16.99999999999993
 20
32.80866032004553
 30
0.0
 11
-17.00000000000005
 21
32.80866032004553
 31
0.0
  0
LINE
  5
6E00
330
1E
100
AcDbEntity
  8
10
  6
CONTINUOUS
100
AcDbLine
 10
17.00000000000022
 20
22.97883578857738
 30
0.0
 11
-17.0
 21
22.97883578857738
 31
0.0
  0
LINE
  5
6E01
330
1E
100
AcDbEntity
  8
10
  6
CONTINUOUS
100
AcDbLine
 10
-17.00000000000005
 20
22.97883578857738
 30
0.0
 11
-17.00000000000005
 21
32.80866032004553
 31
0.0
  0
LINE
  5
6E02
330
1E
100
AcDbEntity
  8
10
  6
CONTINUOUS
100
AcDbLine
 10
17.00000000000005
 20
22.97883578857738
 30
0.0
 11
17.00000000000005
 21
32.80866032004553
 31
0.0
  0
ARC
  5
6E06
330
1E
100
AcDbEntity
  8
10
  6
CONTINUOUS
100
AcDbCircle
 10
53.0
 20
40.0
 30
0.0
 40
5.0
100
AcDbArc
 50
0.0
 51
90.0
  0
LINE
  5
6E07
330
1E
100
AcDbEntity
  8
L10_
  6
CONTINUOUS
 62
     3
100
AcDbLine
 10
100.0000000000001
 20
54.0
 30
0.0
 11
100.0000000000001
 21
73.0
 31
0.0
  0
CIRCLE
  5
6E08
330
1E
100
AcDbEntity
  8
L10_
  6
CONTINUOUS
 62
     3
100
AcDbCircle
 10
-100.0000000000001
 20
63.5
 30
0.0
 40
3.5
210
0.0
220
0.0
230
-1.0
  0
LINE
  5
6E09
330
1E
100
AcDbEntity
  8
L10_
  6
CONTINUOUS
 62
     3
100
AcDbLine
 10
90.50000000000013
 20
63.5
 30
0.0
 11
109.5000000000001
 21
63.5
 31
0.0
  0
LINE
  5
6E78
330
1E
100
AcDbEntity
  8
10
  6
CONTINUOUS
100
AcDbLine
 10
-17.0
 20
273.822719700755
 30
0.0
 11
-17.0
 21
304.4727197007552
 31
0.0
  0
LINE
  5
6E79
330
1E
100
AcDbEntity
  8
10
  6
CONTINUOUS
100
AcDbLine
 10
17.00000000000005
 20
273.822719700755
 30
0.0
 11
17.00000000000005
 21
304.4727197007552
 31
0.0
  0
LINE
  5
6E7B
330
1E
100
AcDbEntity
  8
10
  6
CONTINUOUS
100
AcDbLine
 10
-17.0
 20
273.822719700755
 30
0.0
 11
17.00000000000005
 21
273.822719700755
 31
0.0
  0
LINE
  5
6E7C
330
1E
100
AcDbEntity
  8
10
  6
CONTINUOUS
100
AcDbLine
 10
-70.0
 20
415.472719700755
 30
0.0
 11
69.9999999999999
 21
415.472719700755
 31
0.0
  0
LINE
  5
6E7D
330
1E
100
AcDbEntity
  8
10
  6
CONTINUOUS
100
AcDbLine
 10
-57.99999999999993
 20
308.4727197007552
 30
0.0
 11
58.0
 21
308.4727197007552
 31
0.0
  0
LINE
  5
6E7E
330
1E
100
AcDbEntity
  8
21
  6
CONTINUOUS
100
AcDbLine
 10
-60.0
 20
485.4727197007551
 30
0.0
 11
-30.0
 21
485.4727197007551
 31
0.0
  0
LINE
  5
6E7F
330
1E
100
AcDbEntity
  8
21
  6
CONTINUOUS
100
AcDbLine
 10
-57.0
 20
445.4727197007553
 30
0.0
 11
-33.0
 21
445.4727197007553
 31
0.0
  0
LINE
  5
6E80
330
1E
100
AcDbEntity
  8
24
  6
CONTINOUS
100
AcDbLine
 10
-55.5
 20
470.4727197007553
 30
0.0
 11
-34.5
 21
470.4727197007553
 31
0.0
  0
LINE
  5
6E81
330
1E
100
AcDbEntity
  8
10
  6
CONTINUOUS
100
AcDbLine
 10
-109.4999999999999
 20
309.4727197007551
 30
0.0
 11
109.4999999999997
 21
309.4727197007551
 31
0.0
  0
LINE
  5
6E82
330
1E
100
AcDbEntity
  8
10
  6
CONTINUOUS
100
AcDbLine
 10
-111.4999999999999
 20
327.4727197007551
 30
0.0
 11
111.4999999999997
 21
327.4727197007551
 31
0.0
  0
LINE
  5
6E83
330
1E
100
AcDbEntity
  8
21
  6
CONTINUOUS
100
AcDbLine
 10
-60.0
 20
452.9727197007551
 30
0.0
 11
-60.0
 21
485.4727197007551
 31
0.0
  0
LINE
  5
6E84
330
1E
100
AcDbEntity
  8
21
  6
CONTINUOUS
100
AcDbLine
 10
-60.0
 20
452.972719700755
 30
0.0
 11
-60.0
 21
485.4727197007551
 31
0.0
  0
LINE
  5
6E85
330
1E
100
AcDbEntity
  8
10
  6
CONTINUOUS
100
AcDbLine
 10
-70.0
 20
327.4727197007551
 30
0.0
 11
-70.0
 21
415.472719700755
 31
0.0
  0
LINE
  5
6E86
330
1E
100
AcDbEntity
  8
10
  6
CONTINUOUS
100
AcDbLine
 10
-87.5
 20
327.4727197007551
 30
0.0
 11
-87.5
 21
420.6727197007553
 31
0.0
  0
LINE
  5
6E87
330
1E
100
AcDbEntity
  8
10
  6
CONTINUOUS
100
AcDbLine
 10
-111.4999999999999
 20
311.4727197007551
 30
0.0
 11
-111.4999999999999
 21
327.4727197007551
 31
0.0
  0
ARC
  5
6E88
330
1E
100
AcDbEntity
  8
10
  6
CONTINUOUS
100
AcDbCircle
 10
-109.4999999999999
 20
311.4727197007551
 30
0.0
 40
2.0
100
AcDbArc
 50
180.0
 51
270.0
  0
LINE
  5
6E89
330
1E
100
AcDbEntity
  8
10
  6
CONTINUOUS
100
AcDbLine
 10
-57.99999999999993
 20
308.4727197007552
 30
0.0
 11
-57.99999999999993
 21
309.4727197007551
 31
0.0
  0
LINE
  5
6E8A
330
1E
100
AcDbEntity
  8
10
  6
CONTINUOUS
100
AcDbLine
 10
-87.5
 20
420.6727197007553
 30
0.0
 11
-70.0
 21
420.6727197007553
 31
0.0
  0
LINE
  5
6E8B
330
1E
100
AcDbEntity
  8
10
  6
CONTINUOUS
100
AcDbLine
 10
-83.0
 20
427.2727197007553
 30
0.0
 11
-71.0
 21
427.2727197007553
 31
0.0
  0
LINE
  5
6E8C
330
1E
100
AcDbEntity
  8
10
  6
CONTINUOUS
100
AcDbLine
 10
-83.0
 20
420.6727197007553
 30
0.0
 11
-71.0
 21
420.6727197007553
 31
0.0
  0
LINE
  5
6E8D
330
1E
100
AcDbEntity
  8
10
  6
CONTINUOUS
100
AcDbLine
 10
-83.0
 20
420.6727197007553
 30
0.0
 11
-83.0
 21
427.2727197007553
 31
0.0
  0
LINE
  5
6E8E
330
1E
100
AcDbEntity
  8
10
  6
CONTINUOUS
100
AcDbLine
 10
-80.0
 20
427.2727197007553
 30
0.0
 11
-80.0
 21
430.2727197007551
 31
0.0
  0
LINE
  5
6E8F
330
1E
100
AcDbEntity
  8
10
  6
CONTINUOUS
100
AcDbLine
 10
-74.0
 20
427.2727197007553
 30
0.0
 11
-74.0
 21
430.2727197007551
 31
0.0
  0
LINE
  5
6E90
330
1E
100
AcDbEntity
  8
10
  6
CONTINUOUS
100
AcDbLine
 10
-80.0
 20
430.2727197007551
 30
0.0
 11
-74.0
 21
430.2727197007551
 31
0.0
  0
LINE
  5
6E91
330
1E
100
AcDbEntity
  8
21
  6
CONTINUOUS
100
AcDbLine
 10
-57.0
 20
415.472719700755
 30
0.0
 11
-57.0
 21
445.4727197007553
 31
0.0
  0
LINE
  5
6E92
330
1E
100
AcDbEntity
  8
10
  6
CONTINUOUS
100
AcDbLine
 10
-71.0
 20
420.6727197007553
 30
0.0
 11
-71.0
 21
427.2727197007553
 31
0.0
  0
LINE
  5
6E93
330
1E
100
AcDbEntity
  8
21
  6
CONTINUOUS
100
AcDbLine
 10
-70.0
 20
420.6727197007553
 30
0.0
 11
-70.0
 21
418.6727197007551
 31
0.0
  0
LINE
  5
6E94
330
1E
100
AcDbEntity
  8
21
  6
CONTINUOUS
100
AcDbLine
 10
-70.0
 20
418.6727197007551
 30
0.0
 11
-57.00000000000006
 21
418.6727197007551
 31
0.0
  0
ARC
  5
6E95
330
1E
100
AcDbEntity
  8
21
  6
CONTINUOUS
100
AcDbCircle
 10
-53.5
 20
452.9727197007551
 30
0.0
 40
6.5
100
AcDbArc
 50
180.0
 51
270.0
  0
LINE
  5
6E96
330
1E
100
AcDbEntity
  8
21
  6
CONTINUOUS
100
AcDbLine
 10
-53.5
 20
445.4727197007553
 30
0.0
 11
-53.5
 21
446.4727197007553
 31
0.0
  0
LINE
  5
6E97
330
1E
100
AcDbEntity
  8
24
  6
CONTINOUS
100
AcDbLine
 10
-45.0
 20
459.9727197007553
 30
0.0
 11
-45.0
 21
480.9727197007553
 31
0.0
  0
CIRCLE
  5
6E98
330
1E
100
AcDbEntity
  8
24
  6
CONTINOUS
100
AcDbCircle
 10
-45.0
 20
470.4727197007553
 30
0.0
 40
6.5
  0
LINE
  5
6E99
330
1E
100
AcDbEntity
  8
21
  6
CONTINUOUS
100
AcDbLine
 10
-30.0
 20
452.9727197007551
 30
0.0
 11
-30.0
 21
485.4727197007551
 31
0.0
  0
LINE
  5
6E9A
330
1E
100
AcDbEntity
  8
21
  6
CONTINUOUS
100
AcDbLine
 10
-30.0
 20
452.972719700755
 30
0.0
 11
-30.0
 21
485.4727197007551
 31
0.0
  0
LINE
  5
6E9B
330
1E
100
AcDbEntity
  8
21
  6
CONTINUOUS
100
AcDbLine
 10
30.0
 20
452.9727197007551
 30
0.0
 11
30.0
 21
485.4727197007551
 31
0.0
  0
LINE
  5
6E9C
330
1E
100
AcDbEntity
  8
21
  6
CONTINUOUS
100
AcDbLine
 10
60.0
 20
452.9727197007551
 30
0.0
 11
60.0
 21
485.4727197007551
 31
0.0
  0
LINE
  5
6E9D
330
1E
100
AcDbEntity
  8
21
  6
CONTINUOUS
100
AcDbLine
 10
30.0
 20
452.972719700755
 30
0.0
 11
30.0
 21
485.4727197007551
 31
0.0
  0
LINE
  5
6E9E
330
1E
100
AcDbEntity
  8
21
  6
CONTINUOUS
100
AcDbLine
 10
60.0
 20
452.972719700755
 30
0.0
 11
60.0
 21
485.4727197007551
 31
0.0
  0
LINE
  5
6E9F
330
1E
100
AcDbEntity
  8
21
  6
CONTINUOUS
100
AcDbLine
 10
-15.0
 20
452.9727197007551
 30
0.0
 11
-15.0
 21
525.4727197007553
 31
0.0
  0
LINE
  5
6EA0
330
1E
100
AcDbEntity
  8
21
  6
CONTINUOUS
100
AcDbLine
 10
15.0
 20
452.9727197007551
 30
0.0
 11
15.0
 21
525.4727197007553
 31
0.0
  0
LINE
  5
6EA1
330
1E
100
AcDbEntity
  8
21
  6
CONTINUOUS
100
AcDbLine
 10
-15.0
 20
452.972719700755
 30
0.0
 11
-15.0
 21
525.4727197007553
 31
0.0
  0
LINE
  5
6EA2
330
1E
100
AcDbEntity
  8
21
  6
CONTINUOUS
100
AcDbLine
 10
15.0
 20
452.972719700755
 30
0.0
 11
15.0
 21
525.4727197007553
 31
0.0
  0
LINE
  5
6EA7
330
1E
100
AcDbEntity
  8
10
  6
CONTINUOUS
100
AcDbLine
 10
-17.99999999999994
 20
304.4727197007552
 30
0.0
 11
18.0
 21
304.4727197007552
 31
0.0
  0
LINE
  5
6EA8
330
1E
100
AcDbEntity
  8
10
  6
CONTINUOUS
100
AcDbLine
 10
-14.0
 20
290.9727197007551
 30
0.0
 11
14.00000000000003
 21
290.9727197007551
 31
0.0
  0
LINE
  5
6EA9
330
1E
100
AcDbEntity
  8
10
  6
CONTINUOUS
100
AcDbLine
 10
-14.0
 20
290.9727197007551
 30
0.0
 11
-14.0
 21
304.4727197007552
 31
0.0
  0
LINE
  5
6EAA
330
1E
100
AcDbEntity
  8
10
  6
CONTINUOUS
100
AcDbLine
 10
-17.99999999999994
 20
304.4727197007552
 30
0.0
 11
-17.99999999999994
 21
308.4727197007552
 31
0.0
  0
LINE
  5
6EAB
330
1E
100
AcDbEntity
  8
10
  6
CONTINUOUS
100
AcDbLine
 10
14.00000000000003
 20
290.9727197007551
 30
0.0
 11
14.00000000000003
 21
304.4727197007552
 31
0.0
  0
LINE
  5
6EAC
330
1E
100
AcDbEntity
  8
10
  6
CONTINUOUS
100
AcDbLine
 10
18.0
 20
304.4727197007552
 30
0.0
 11
18.0
 21
308.4727197007552
 31
0.0
  0
LINE
  5
6EAD
330
1E
100
AcDbEntity
  8
10
  6
CONTINUOUS
100
AcDbLine
 10
58.0
 20
308.4727197007552
 30
0.0
 11
58.0
 21
309.4727197007551
 31
0.0
  0
LINE
  5
6EAE
330
1E
100
AcDbEntity
  8
21
  6
CONTINUOUS
100
AcDbLine
 10
13.0
 20
418.6727197007551
 30
0.0
 11
33.0
 21
418.6727197007551
 31
0.0
  0
LINE
  5
6EAF
330
1E
100
AcDbEntity
  8
21
  6
CONTINUOUS
100
AcDbLine
 10
-33.0
 20
415.472719700755
 30
0.0
 11
-33.0
 21
445.4727197007553
 31
0.0
  0
LINE
  5
6EB0
330
1E
100
AcDbEntity
  8
21
  6
CONTINUOUS
100
AcDbLine
 10
-13.0
 20
415.472719700755
 30
0.0
 11
-13.0
 21
448.2823039409318
 31
0.0
  0
LINE
  5
6EB1
330
1E
100
AcDbEntity
  8
21
  6
CONTINUOUS
100
AcDbLine
 10
-33.0
 20
418.6727197007551
 30
0.0
 11
-13.0
 21
418.6727197007551
 31
0.0
  0
LINE
  5
6EB2
330
1E
100
AcDbEntity
  8
21
  6
CONTINUOUS
100
AcDbLine
 10
-36.5
 20
445.4727197007553
 30
0.0
 11
-36.5
 21
446.4727197007553
 31
0.0
  0
ARC
  5
6EB3
330
1E
100
AcDbEntity
  8
21
  6
CONTINUOUS
100
AcDbCircle
 10
-36.5
 20
452.9727197007551
 30
0.0
 40
6.5
100
AcDbArc
 50
270.0
 51
0.0
  0
ARC
  5
6EB4
330
1E
100
AcDbEntity
  8
21
  6
CONTINUOUS
100
AcDbCircle
 10
-8.5
 20
452.9727197007551
 30
0.0
 40
6.5
100
AcDbArc
 50
180.0
 51
226.1869385395903
  0
LINE
  5
6EB5
330
1E
100
AcDbEntity
  8
21
  6
CONTINUOUS
100
AcDbLine
 10
13.0
 20
415.472719700755
 30
0.0
 11
13.0
 21
448.2823039409318
 31
0.0
  0
ARC
  5
6EB6
330
1E
100
AcDbEntity
  8
21
  6
CONTINUOUS
100
AcDbCircle
 10
8.5
 20
452.9727197007551
 30
0.0
 40
6.5
100
AcDbArc
 50
313.8130614604097
 51
0.0
  0
LINE
  5
6EB7
330
1E
100
AcDbEntity
  8
21
  6
CONTINUOUS
100
AcDbLine
 10
57.0
 20
418.6727197007551
 30
0.0
 11
64.49999999999988
 21
418.6727197007551
 31
0.0
  0
LINE
  5
6EB8
330
1E
100
AcDbEntity
  8
21
  6
CONTINUOUS
100
AcDbLine
 10
33.0
 20
415.472719700755
 30
0.0
 11
33.0
 21
445.4727197007553
 31
0.0
  0
LINE
  5
6EB9
330
1E
100
AcDbEntity
  8
21
  6
CONTINUOUS
100
AcDbLine
 10
57.0
 20
415.472719700755
 30
0.0
 11
57.0
 21
445.4727197007553
 31
0.0
  0
LINE
  5
6EBA
330
1E
100
AcDbEntity
  8
21
  6
CONTINUOUS
100
AcDbLine
 10
33.0
 20
445.4727197007553
 30
0.0
 11
57.0
 21
445.4727197007553
 31
0.0
  0
LINE
  5
6EBB
330
1E
100
AcDbEntity
  8
21
  6
CONTINUOUS
100
AcDbLine
 10
36.5
 20
445.4727197007553
 30
0.0
 11
36.5
 21
446.4727197007553
 31
0.0
  0
ARC
  5
6EBC
330
1E
100
AcDbEntity
  8
21
  6
CONTINUOUS
100
AcDbCircle
 10
36.5
 20
452.9727197007551
 30
0.0
 40
6.5
100
AcDbArc
 50
180.0
 51
270.0
  0
LINE
  5
6EBD
330
1E
100
AcDbEntity
  8
21
  6
CONTINUOUS
100
AcDbLine
 10
53.5
 20
445.4727197007553
 30
0.0
 11
53.5
 21
446.4727197007553
 31
0.0
  0
ARC
  5
6EBE
330
1E
100
AcDbEntity
  8
21
  6
CONTINUOUS
100
AcDbCircle
 10
53.5
 20
452.9727197007551
 30
0.0
 40
6.5
100
AcDbArc
 50
270.0
 51
0.0
  0
LINE
  5
6EC1
330
1E
100
AcDbEntity
  8
10
  6
CONTINUOUS
100
AcDbLine
 10
69.9999999999999
 20
327.4727197007551
 30
0.0
 11
69.9999999999999
 21
415.472719700755
 31
0.0
  0
LINE
  5
6EC2
330
1E
100
AcDbEntity
  8
10
  6
CONTINUOUS
100
AcDbLine
 10
87.49999999999989
 20
327.4727197007551
 30
0.0
 11
87.49999999999989
 21
420.6727197007553
 31
0.0
  0
LINE
  5
6EC3
330
1E
100
AcDbEntity
  8
10
  6
CONTINUOUS
100
AcDbLine
 10
111.4999999999997
 20
311.4727197007551
 30
0.0
 11
111.4999999999997
 21
327.4727197007551
 31
0.0
  0
ARC
  5
6EC4
330
1E
100
AcDbEntity
  8
10
  6
CONTINUOUS
100
AcDbCircle
 10
109.4999999999997
 20
311.4727197007551
 30
0.0
 40
2.0
100
AcDbArc
 50
270.0
 51
0.0
  0
LINE
  5
6EC5
330
1E
100
AcDbEntity
  8
10
  6
CONTINUOUS
100
AcDbLine
 10
69.9999999999999
 20
420.6727197007553
 30
0.0
 11
87.49999999999989
 21
420.6727197007553
 31
0.0
  0
LINE
  5
6EC7
330
1E
100
AcDbEntity
  8
10
  6
CONTINUOUS
100
AcDbLine
 10
67.9999999999999
 20
418.6727197007551
 30
0.0
 11
69.9999999999999
 21
418.6727197007551
 31
0.0
  0
LINE
  5
6EC8
330
1E
100
AcDbEntity
  8
10
  6
CONTINUOUS
100
AcDbLine
 10
70.99999999999987
 20
420.6727197007553
 30
0.0
 11
70.99999999999987
 21
427.2727197007553
 31
0.0
  0
LINE
  5
6EC9
330
1E
100
AcDbEntity
  8
10
  6
CONTINUOUS
100
AcDbLine
 10
82.99999999999988
 20
420.6727197007553
 30
0.0
 11
82.99999999999988
 21
427.2727197007553
 31
0.0
  0
LINE
  5
6ECA
330
1E
100
AcDbEntity
  8
10
  6
CONTINUOUS
100
AcDbLine
 10
73.99999999999987
 20
427.2727197007553
 30
0.0
 11
73.99999999999987
 21
430.2727197007551
 31
0.0
  0
LINE
  5
6ECB
330
1E
100
AcDbEntity
  8
10
  6
CONTINUOUS
100
AcDbLine
 10
79.9999999999999
 20
427.2727197007553
 30
0.0
 11
79.9999999999999
 21
430.2727197007551
 31
0.0
  0
LINE
  5
6ECC
330
1E
100
AcDbEntity
  8
10
  6
CONTINUOUS
100
AcDbLine
 10
70.99999999999987
 20
427.2727197007553
 30
0.0
 11
82.99999999999988
 21
427.2727197007553
 31
0.0
  0
LINE
  5
6ECD
330
1E
100
AcDbEntity
  8
10
  6
CONTINUOUS
100
AcDbLine
 10
70.99999999999987
 20
420.6727197007553
 30
0.0
 11
82.99999999999988
 21
420.6727197007553
 31
0.0
  0
LINE
  5
6ECE
330
1E
100
AcDbEntity
  8
10
  6
CONTINUOUS
100
AcDbLine
 10
73.99999999999987
 20
430.2727197007551
 30
0.0
 11
79.9999999999999
 21
430.2727197007551
 31
0.0
  0
LINE
  5
6ECF
330
1E
100
AcDbEntity
  8
10
  6
CONTINUOUS
100
AcDbLine
 10
69.9999999999999
 20
420.6727197007553
 30
0.0
 11
69.9999999999999
 21
418.6727197007551
 31
0.0
  0
LINE
  5
6ED5
330
1E
100
AcDbEntity
  8
24
  6
CONTINOUS
100
AcDbLine
 10
0.0
 20
499.9727197007553
 30
0.0
 11
0.0
 21
520.9727197007553
 31
0.0
  0
CIRCLE
  5
6ED6
330
1E
100
AcDbEntity
  8
24
  6
CONTINOUS
100
AcDbCircle
 10
0.0
 20
510.4727197007551
 30
0.0
 40
6.5
  0
LINE
  5
6ED7
330
1E
100
AcDbEntity
  8
21
  6
CONTINUOUS
100
AcDbLine
 10
-15.0
 20
486.4727197007551
 30
0.0
 11
15.0
 21
486.4727197007551
 31
0.0
  0
LINE
  5
6ED8
330
1E
100
AcDbEntity
  8
21
  6
CONTINUOUS
100
AcDbLine
 10
-15.0
 20
525.4727197007553
 30
0.0
 11
15.0
 21
525.4727197007553
 31
0.0
  0
LINE
  5
6ED9
330
1E
100
AcDbEntity
  8
24
  6
CONTINOUS
100
AcDbLine
 10
-10.5
 20
510.4727197007551
 30
0.0
 11
10.5
 21
510.4727197007551
 31
0.0
  0
LINE
  5
6EDB
330
1E
100
AcDbEntity
  8
24
  6
CONTINOUS
100
AcDbLine
 10
34.5
 20
470.4727197007553
 30
0.0
 11
55.5
 21
470.4727197007553
 31
0.0
  0
CIRCLE
  5
6EDC
330
1E
100
AcDbEntity
  8
24
  6
CONTINOUS
100
AcDbCircle
 10
45.0
 20
470.4727197007553
 30
0.0
 40
6.5
  0
LINE
  5
6EDD
330
1E
100
AcDbEntity
  8
24
  6
CONTINOUS
100
AcDbLine
 10
45.0
 20
459.9727197007553
 30
0.0
 11
45.0
 21
480.9727197007553
 31
0.0
  0
LINE
  5
6EDE
330
1E
100
AcDbEntity
  8
21
  6
CONTINUOUS
100
AcDbLine
 10
30.0
 20
485.4727197007551
 30
0.0
 11
60.0
 21
485.4727197007551
 31
0.0
  0
DIMENSION
  5
70BD
330
1E
100
AcDbEntity
  8
30
  6
CONTINUOUS
100
AcDbDimension
  2
*D2
 10
0.0000000000000018
 20
550.0
 30
0.0
 11
-22.49999999999999
 21
553.5
 31
0.0
 70
    32
  3
STANDARD
100
AcDbAlignedDimension
 13
-45.0
 23
480.9727197007553
 33
0.0
 14
0.0
 24
520.9727197007553
 34
0.0
100
AcDbRotatedDimension
  0
DIMENSION
  5
70CA
330
1E
100
AcDbEntity
  8
30
  6
CONTINUOUS
100
AcDbDimension
  2
*D3
 10
45.0
 20
550.0
 30
0.0
 11
22.5
 21
553.5
 31
0.0
 70
    32
  3
STANDARD
100
AcDbAlignedDimension
 13
0.0
 23
520.9727197007553
 33
0.0
 14
45.0
 24
480.9727197007553
 34
0.0
100
AcDbRotatedDimension
1001
ACAD
1000
DSTYLE
1002
{
1070
   287
1070
     4
1070
   287
1070
     4
1070
   287
1070
     4
1070
   287
1070
     4
1070
   279
1070
     1
1002
}
  0
LINE
  5
70E4
330
1E
100
AcDbEntity
  8
18
100
AcDbLine
 10
-210.8818704252259
 20
331.4727197007552
 30
0.0
 11
190.4999999999999
 21
331.4727197007552
 31
0.0
  0
LINE
  5
70E6
330
1E
100
AcDbEntity
  8
18
100
AcDbLine
 10
190.4999999999999
 20
331.4727197007552
 30
0.0
 11
190.4999999999999
 21
327.4727197007551
 31
0.0
  0
LINE
  5
70E7
330
1E
100
AcDbEntity
  8
18
100
AcDbLine
 10
190.4999999999999
 20
327.4727197007551
 30
0.0
 11
110.4999999999997
 21
327.4727197007551
 31
0.0
  0
LINE
  5
70E9
330
1E
100
AcDbEntity
  8
18
100
AcDbLine
 10
-210.8818704252259
 20
327.4727197007551
 30
0.0
 11
-112.5000610351402
 21
327.4727197007551
 31
0.0
  0
LWPOLYLINE
  5
711D
330
1E
100
AcDbEntity
  8
10
  6
CONTINUOUS
100
AcDbPolyline
 90
        8
 70
     0
 43
0.0
 10
-103.4999999999999
 20
-171.4999999999998
 10
103.4999999999997
 20
-171.4999999999998
 42
0.4142135623730951
 10
111.4999999999997
 20
-163.4999999999998
 10
111.4999999999997
 20
163.4999999999999
 42
0.4142135623730951
 10
103.4999999999997
 20
171.5
 10
-103.4999999999999
 20
171.5
 42
0.4142135623730951
 10
-111.4999999999999
 20
163.4999999999999
 10
-111.4999999999999
 20
-163.4999999999998
  0
LWPOLYLINE
  5
7124
330
1E
100
AcDbEntity
  8
10
  6
CONTINUOUS
100
AcDbPolyline
 90
        2
 70
     0
 43
0.0
 10
-111.4999999999999
 20
-163.4999999999998
 42
0.4142135623730951
 10
-103.4999999999999
 20
-171.4999999999998
  0
DIMENSION
  5
712D
330
1E
100
AcDbEntity
  8
30
  6
CONTINUOUS
100
AcDbDimension
  2
*D6
 10
-154.0
 20
-63.49999999999997
 30
0.0
 11
-157.5
 21
-0.0000000000000115
 31
0.0
 70
    32
  3
STANDARD
100
AcDbAlignedDimension
 13
-109.4999999999999
 23
63.5
 33
0.0
 14
-109.4999999999999
 24
-63.5
 34
0.0
 50
90.0
100
AcDbRotatedDimension
  0
DIMENSION
  5
713A
330
1E
100
AcDbEntity
  8
30
  6
CONTINUOUS
100
AcDbDimension
  2
*D7
 10
-177.0
 20
-171.4999999999998
 30
0.0
 11
-180.4999999999999
 21
0.0000000000000397
 31
0.0
 70
    32
  3
STANDARD
100
AcDbAlignedDimension
 13
-103.4999999999999
 23
171.5
 33
0.0
 14
-103.4999999999999
 24
-171.4999999999998
 34
0.0
 50
90.0
100
AcDbRotatedDimension
  0
DIMENSION
  5
7147
330
1E
100
AcDbEntity
  8
30
  6
CONTINUOUS
100
AcDbDimension
  2
*D8
 10
97.20000000000013
 20
61.4
 30
0.0
 11
123.1666666666667
 21
77.00000000000001
 31
0.0
 70
   163
  1
M6
  3
STANDARD
100
AcDbDiametricDimension
 15
102.8
 25
65.60000000000001
 35
0.0
 40
0.0
1001
ACAD
1000
DSTYLE
1002
{
1070
   288
1070
     1
1002
}
  0
DIMENSION
  5
7168
330
1E
100
AcDbEntity
  8
30
  6
CONTINUOUS
100
AcDbDimension
  2
*D9
 10
286.8497158299923
 20
-217.0
 30
0.0
 11
258.3497158299924
 21
-213.5
 31
0.0
 70
    32
  3
STANDARD
100
AcDbAlignedDimension
 13
229.8497158299924
 23
2.800000000000181
 33
0.0
 14
286.8497158299923
 24
-200.0
 34
0.0
100
AcDbRotatedDimension
  0
DIMENSION
  5
717E
330
1E
100
AcDbEntity
  8
30
  6
CONTINUOUS
100
AcDbDimension
  2
*D10
 10
444.8497158299922
 20
-200.0
 30
0.0
 11
365.8497158299923
 21
-196.5
 31
0.0
 70
    32
  3
STANDARD
100
AcDbAlignedDimension
 13
286.8497158299926
 23
-130.0
 33
0.0
 14
444.8497158299922
 24
-128.9999999999992
 34
0.0
100
AcDbRotatedDimension
  0
DIMENSION
  5
719D
330
1E
100
AcDbEntity
  8
30
  6
CONTINUOUS
100
AcDbDimension
  2
*D11
 10
444.8497158299922
 20
-151.0
 30
0.0
 11
437.3497158299922
 21
-147.5
 31
0.0
 70
    32
  3
STANDARD
100
AcDbAlignedDimension
 13
429.8497158299921
 23
-124.4999999999992
 33
0.0
 14
444.8497158299922
 24
-129.9999999999992
 34
0.0
100
AcDbRotatedDimension
  0
DIMENSION
  5
71AA
330
1E
100
AcDbEntity
  8
30
  6
CONTINUOUS
100
AcDbDimension
  2
*D12
 10
484.8497158299919
 20
-151.5
 30
0.0
 11
477.3497158299918
 21
-148.0
 31
0.0
 70
    32
  3
STANDARD
100
AcDbAlignedDimension
 13
469.8497158299918
 23
-124.5000000000007
 33
0.0
 14
484.8497158299919
 24
-129.0000000000008
 34
0.0
100
AcDbRotatedDimension
  0
DIMENSION
  5
71B7
330
1E
100
AcDbEntity
  8
30
  6
CONTINUOUS
100
AcDbDimension
  2
*D13
 10
484.8497158299919
 20
-217.0
 30
0.0
 11
385.8497158299921
 21
-213.5
 31
0.0
 70
    32
  3
STANDARD
100
AcDbAlignedDimension
 13
286.8497158299923
 23
-201.0
 33
0.0
 14
484.8497158299919
 24
-151.5
 34
0.0
100
AcDbRotatedDimension
  0
DIMENSION
  5
71CD
330
1E
100
AcDbEntity
  8
30
  6
CONTINUOUS
100
AcDbDimension
  2
*D14
 10
502.0
 20
110.0
 30
0.0
 11
498.5
 21
114.0
 31
0.0
 70
    32
  3
STANDARD
100
AcDbAlignedDimension
 13
484.8497158299919
 23
118.0
 33
0.0
 14
484.8497158299919
 24
110.0
 34
0.0
 50
90.0
100
AcDbRotatedDimension
  0
DIMENSION
  5
71DA
330
1E
100
AcDbEntity
  8
30
  6
CONTINUOUS
100
AcDbDimension
  2
*D15
 10
514.0
 20
-114.0000000000007
 30
0.0
 11
510.5
 21
-0.0000000000003153
 31
0.0
 70
    32
  3
STANDARD
100
AcDbAlignedDimension
 13
502.0
 23
114.0
 33
0.0
 14
480.3497158299918
 24
-114.0000000000007
 34
0.0
 50
90.0
100
AcDbRotatedDimension
  0
DIMENSION
  5
71E7
330
1E
100
AcDbEntity
  8
30
  6
CONTINUOUS
100
AcDbDimension
  2
*D16
 10
501.0
 20
-129.0000000000008
 30
0.0
 11
497.5
 21
-114.0000000000007
 31
0.0
 70
    32
  3
STANDARD
100
AcDbAlignedDimension
 13
484.8497158299919
 23
-99.0000000000008
 33
0.0
 14
484.8497158299919
 24
-129.0000000000008
 34
0.0
 50
90.0
100
AcDbRotatedDimension
  0
DIMENSION
  5
71FD
330
1E
100
AcDbEntity
  8
30
  6
CONTINUOUS
100
AcDbDimension
  2
*D17
 10
426.0705839725129
 20
-119.2884933964011
 30
0.0
 11
453.8333333333333
 21
-89.99999999999998
 31
0.0
 70
   163
  3
STANDARD
100
AcDbDiametricDimension
 15
433.6288476874711
 25
-108.7115066035976
 35
0.0
 40
0.0
1001
ACAD
1000
DSTYLE
1002
{
1070
   288
1070
     1
1002
}
  0
DIMENSION
  5
7209
330
1E
100
AcDbEntity
  8
30
  6
CONTINUOUS
100
AcDbDimension
  2
*D18
 10
286.8497158299926
 20
-200.0
 30
0.0
 11
266.8497158299924
 21
-196.5
 31
0.0
 70
    32
  3
STANDARD
100
AcDbAlignedDimension
 13
246.8497158299924
 23
0.0
 33
0.0
 14
286.8497158299926
 24
-171.4999999999998
 34
0.0
100
AcDbRotatedDimension
  0
LWPOLYLINE
  5
7239
330
1E
100
AcDbEntity
  8
11
  6
CONTINUOUS
100
AcDbPolyline
 90
        4
 70
     1
 43
0.0
 10
-90.5
 20
-616.5
 10
90.49999999999979
 20
-616.5
 10
90.49999999999979
 20
-283.4999999999999
 10
-90.5
 20
-283.4999999999999
  0
DIMENSION
  5
723A
330
1E
100
AcDbEntity
  8
30
  6
CONTINUOUS
100
AcDbDimension
  2
*D19
 10
-129.0
 20
-513.4999999999998
 30
0.0
 11
-132.4999999999999
 21
-450.0
 31
0.0
 70
    32
  3
STANDARD
100
AcDbAlignedDimension
 13
-109.5000000000002
 23
-386.5
 33
0.0
 14
-109.5000000000002
 24
-513.4999999999998
 34
0.0
 50
90.0
100
AcDbRotatedDimension
  0
DIMENSION
  5
7247
330
1E
100
AcDbEntity
  8
30
  6
CONTINUOUS
100
AcDbDimension
  2
*D20
 10
-147.0
 20
-616.5
 30
0.0
 11
-150.4999999999999
 21
-450.0
 31
0.0
 70
    32
  3
STANDARD
100
AcDbAlignedDimension
 13
-90.5
 23
-283.4999999999999
 33
0.0
 14
-90.5
 24
-616.5
 34
0.0
 50
90.0
100
AcDbRotatedDimension
  0
DIMENSION
  5
7254
330
1E
100
AcDbEntity
  8
30
  6
CONTINUOUS
100
AcDbDimension
  2
*D21
 10
-163.0
 20
-621.4999999999998
 30
0.0
 11
-166.4999999999998
 21
-449.9999999999998
 31
0.0
 70
    32
  3
STANDARD
100
AcDbAlignedDimension
 13
-103.5000000000002
 23
-278.5
 33
0.0
 14
-103.5000000000002
 24
-621.4999999999998
 34
0.0
 50
90.0
100
AcDbRotatedDimension
  0
DIMENSION
  5
7261
330
1E
100
AcDbEntity
  8
30
  6
CONTINUOUS
100
AcDbDimension
  2
*D22
 10
90.49999999999979
 20
-641.0
 30
0.0
 11
-0.0000000000001064
 21
-637.5
 31
0.0
 70
    32
  3
STANDARD
100
AcDbAlignedDimension
 13
-90.5
 23
-616.5
 33
0.0
 14
90.49999999999979
 24
-616.5
 34
0.0
100
AcDbRotatedDimension
  0
DIMENSION
  5
726E
330
1E
100
AcDbEntity
  8
30
  6
CONTINUOUS
100
AcDbDimension
  2
*D23
 10
99.99999999999978
 20
-659.0
 30
0.0
 11
-0.0000000000002272
 21
-655.4999999999997
 31
0.0
 70
    32
  3
STANDARD
100
AcDbAlignedDimension
 13
-100.0000000000002
 23
-523.0
 33
0.0
 14
99.99999999999978
 24
-523.0
 34
0.0
100
AcDbRotatedDimension
  0
DIMENSION
  5
727B
330
1E
100
AcDbEntity
  8
30
  6
CONTINUOUS
100
AcDbDimension
  2
*D24
 10
96.93784119733601
 20
-385.753188599094
 30
0.0
 11
136.8951846157515
 21
-371.1537990836635
 31
0.0
 70
   163
  1
%%c7
  3
STANDARD
100
AcDbDiametricDimension
 15
102.325643084744
 25
-383.112811576386
 35
0.0
 40
0.0
1001
ACAD
1000
DSTYLE
1002
{
1070
   288
1070
     1
1002
}
  0
DIMENSION
  5
72FB
330
1E
100
AcDbEntity
  8
30
  6
CONTINUOUS
100
AcDbDimension
  2
*D25
 10
111.4999999999997
 20
-200.0
 30
0.0
 11
-0.0000000000000566
 21
-196.5
 31
0.0
 70
    32
  3
STANDARD
100
AcDbAlignedDimension
 13
-111.4999999999999
 23
-163.4999999999998
 33
0.0
 14
111.4999999999997
 24
-163.4999999999998
 34
0.0
100
AcDbRotatedDimension
  0
DIMENSION
  5
7311
330
1E
100
AcDbEntity
  8
30
  6
CONTINUOUS
100
AcDbDimension
  2
*D26
 10
69.9999999999999
 20
-186.0
 30
0.0
 11
-0.0000000000000566
 21
-182.5
 31
0.0
 70
    32
  3
STANDARD
100
AcDbAlignedDimension
 13
-70.0
 23
-130.0
 33
0.0
 14
69.9999999999999
 24
-130.0
 34
0.0
100
AcDbRotatedDimension
  0
DIMENSION
  5
73F5
330
1E
100
AcDbEntity
  8
30
  6
CONTINUOUS
100
AcDbDimension
  2
*D27
 10
286.8497158299923
 20
-186.0
 30
0.0
 11
277.8497158299924
 21
-182.5
 31
0.0
 70
    32
  3
STANDARD
100
AcDbAlignedDimension
 13
268.8497158299924
 23
-171.4999999999998
 33
0.0
 14
286.8497158299923
 24
-171.4999999999998
 34
0.0
100
AcDbRotatedDimension
1001
ACAD
1000
DSTYLE
1002
{
1070
    79
1070
     3
1002
}
  0
CIRCLE
  5
74DA
330
1E
100
AcDbEntity
  8
10
  6
CONTINUOUS
100
AcDbCircle
 10
40.50000000000006
 20
-7.0
 30
0.0
 40
3.5
  0
LINE
  5
74DB
330
1E
100
AcDbEntity
  8
10
  6
CONTINUOUS
100
AcDbLine
 10
36.50000000000005
 20
-26.0
 30
0.0
 11
36.50000000000005
 21
-29.0
 31
0.0
  0
LINE
  5
74DC
330
1E
100
AcDbEntity
  8
10
  6
CONTINUOUS
100
AcDbLine
 10
44.50000000000005
 20
-26.0
 30
0.0
 11
44.50000000000005
 21
-29.0
 31
0.0
  0
LINE
  5
74DD
330
1E
100
AcDbEntity
  8
10
  6
CONTINUOUS
100
AcDbLine
 10
36.50000000000005
 20
-26.0
 30
0.0
 11
44.50000000000005
 21
-26.0
 31
0.0
  0
LINE
  5
74DE
330
1E
100
AcDbEntity
  8
10
  6
CONTINUOUS
100
AcDbLine
 10
36.50000000000005
 20
-29.0
 30
0.0
 11
44.50000000000005
 21
-29.0
 31
0.0
  0
LINE
  5
74DF
330
1E
100
AcDbEntity
  8
10
  6
CONTINUOUS
100
AcDbLine
 10
44.50000000000005
 20
-21.0
 30
0.0
 11
44.50000000000005
 21
-24.0
 31
0.0
  0
LINE
  5
74E0
330
1E
100
AcDbEntity
  8
10
  6
CONTINUOUS
100
AcDbLine
 10
36.50000000000005
 20
-21.0
 30
0.0
 11
44.50000000000005
 21
-21.0
 31
0.0
  0
LINE
  5
74E1
330
1E
100
AcDbEntity
  8
10
  6
CONTINUOUS
100
AcDbLine
 10
36.50000000000005
 20
-21.0
 30
0.0
 11
36.50000000000005
 21
-24.0
 31
0.0
  0
LINE
  5
74E2
330
1E
100
AcDbEntity
  8
10
  6
CONTINUOUS
100
AcDbLine
 10
36.50000000000005
 20
-24.0
 30
0.0
 11
44.50000000000005
 21
-24.0
 31
0.0
  0
CIRCLE
  5
74E3
330
1E
100
AcDbEntity
  8
10
  6
CONTINUOUS
100
AcDbCircle
 10
40.50000000000006
 20
8.0
 30
0.0
 40
3.5
  0
CIRCLE
  5
74E4
330
1E
100
AcDbEntity
  8
10
  6
CONTINUOUS
100
AcDbCircle
 10
40.50000000000006
 20
8.0
 30
0.0
 40
5.0
  0
VIEWPORT
  5
9AC
330
1A
100
AcDbEntity
 67
     1
  8
0
  6
CONTINUOUS
100
AcDbViewport
 10
171.9995348790992
 20
144.1384735538403
 30
0.0
 40
488.8676857773511
 41
292.3514905034161
 68
     1
 69
     1
1001
ACAD
1000
MVIEW
1002
{
1070
    16
1010
0.0
1020
0.0
1030
0.0
1010
0.0
1020
0.0
1030
1.0
1040
0.0
1040
292.3514905034161
1040
171.9995348790992
1040
144.1384735538403
1040
50.0
1040
0.0
1040
0.0
1070
     0
1070
   100
1070
     1
1070
     1
1070
     0
1070
     0
1070
     0
1070
     0
1040
0.0
1040
0.0
1040
0.0
1040
10.0
1040
10.0
1040
10.0
1040
10.0
1070
     0
1002
{
1002
}
1002
}
  0
ENDSEC
  0
SECTION
  2
OBJECTS
  0
DICTIONARY
  5
C
330
0
100
AcDbDictionary
  3
ACAD_GROUP
350
D
  3
ACAD_LAYOUT
350
19
  3
ACAD_MLINESTYLE
350
16
  3
ACAD_PLOTSETTINGS
350
18
  3
ACAD_PLOTSTYLENAME
350
E
  3
ACDBHEADERROUNDTRIPXREC
350
74ED
  3
ACDBVARIABLEDICTIONARY
350
69C9
  0
DICTIONARY
  5
178
330
1E
100
AcDbDictionary
280
     1
  3
ACAD_LAYOUTSELFREF
360
750F
  0
DICTIONARY
  5
17A
330
1A
100
AcDbDictionary
280
     1
  3
ACAD_LAYOUTSELFREF
360
750E
  0
DICTIONARY
  5
D
102
{ACAD_REACTORS
330
C
102
}
330
C
100
AcDbDictionary
  0
DICTIONARY
  5
19
102
{ACAD_REACTORS
330
C
102
}
330
C
100
AcDbDictionary
  0
DICTIONARY
  5
16
102
{ACAD_REACTORS
330
C
102
}
330
C
100
AcDbDictionary
  3
STANDARD
350
17
  0
DICTIONARY
  5
18
102
{ACAD_REACTORS
330
C
102
}
330
C
100
AcDbDictionary
  0
ACDBDICTIONARYWDFLT
  5
E
102
{ACAD_REACTORS
330
C
102
}
330
C
100
AcDbDictionary
281
     1
  3
Normal
350
F
100
AcDbDictionaryWithDefault
340
F
  0
DICTIONARY
  5
74ED
102
{ACAD_REACTORS
330
C
102
}
330
C
100
AcDbDictionary
  3
CEPSNTYPE
350
74F7
  3
DIMSTYLEDATA
350
74FB
  3
FINGERPRINTGUID
350
74F8
  3
HYPERLINKBASE
350
74F0
  3
INSUNITS
350
74F6
  3
LAYOUTDICT
350
74F2
  3
LWETCUNION
350
74F5
  3
PLOTSETDICT
350
74F3
  3
PLOTSTYLNAMDICT
350
74F4
  3
PSVPSCALE
350
74FA
  3
PUCSBASE
350
74FE
  3
PUCSORGBACK
350
7504
  3
PUCSORGBOTTOM
350
7500
  3
PUCSORGFRONT
350
7503
  3
PUCSORGLEFT
350
7501
  3
PUCSORGRIGHT
350
7502
  3
PUCSORGTOP
350
74FF
  3
PUCSORTHOREF
350
74FC
  3
PUCSORTHOVIEW
350
74FD
  3
STYLESHEET
350
74F1
  3
TSTACKALIGN
350
74EE
  3
TSTACKSIZE
350
74EF
  3
UCSBASE
350
7507
  3
UCSORGBACK
350
750D
  3
UCSORGBOTTOM
350
7509
  3
UCSORGFRONT
350
750C
  3
UCSORGLEFT
350
750A
  3
UCSORGRIGHT
350
750B
  3
UCSORGTOP
350
7508
  3
UCSORTHOREF
350
7505
  3
UCSORTHOVIEW
350
7506
  3
VERSIONGUID
350
74F9
  0
DICTIONARY
  5
69C9
102
{ACAD_REACTORS
330
C
102
}
330
C
100
AcDbDictionary
  3
DIMASSOC
350
69CA
  0
XRECORD
  5
750F
102
{ACAD_REACTORS
330
178
102
}
330
178
100
AcDbXrecord
340
1E
  0
XRECORD
  5
750E
102
{ACAD_REACTORS
330
17A
102
}
330
17A
100
AcDbXrecord
340
1A
  0
MLINESTYLE
  5
17
102
{ACAD_REACTORS
330
16
102
}
330
16
100
AcDbMlineStyle
  2
STANDARD
 70
     0
  3

 62
   256
 51
90.0
 52
90.0
 71
     2
 49
0.5
 62
   256
  6
BYLAYER
 49
-0.5
 62
   256
  6
BYLAYER
  0
ACDBPLACEHOLDER
  5
F
102
{ACAD_REACTORS
330
E
102
}
330
E
100
AcDbPlaceHolder
280
     0
  0
XRECORD
  5
74F7
102
{ACAD_REACTORS
330
74ED
102
}
330
74ED
100
AcDbXrecord
 90
        0
  0
XRECORD
  5
74FB
102
{ACAD_REACTORS
330
74ED
102
}
330
74ED
100
AcDbXrecord
1000
DSTYLE
1002
{
1070
    79
 70
     3
1070
   341
340
3B2
1070
   342
340
3B2
1002
}
  0
XRECORD
  5
74F8
102
{ACAD_REACTORS
330
74ED
102
}
330
74ED
100
AcDbXrecord
  1

  0
XRECORD
  5
74F0
102
{ACAD_REACTORS
330
74ED
102
}
330
74ED
100
AcDbXrecord
  1

  0
XRECORD
  5
74F6
102
{ACAD_REACTORS
330
74ED
102
}
330
74ED
100
AcDbXrecord
 90
        0
  0
XRECORD
  5
74F2
102
{ACAD_REACTORS
330
74ED
102
}
330
74ED
100
AcDbXrecord
340
19
  0
XRECORD
  5
74F5
102
{ACAD_REACTORS
330
74ED
102
}
330
74ED
100
AcDbXrecord
 90
    10781
  0
XRECORD
  5
74F3
102
{ACAD_REACTORS
330
74ED
102
}
330
74ED
100
AcDbXrecord
340
18
  0
XRECORD
  5
74F4
102
{ACAD_REACTORS
330
74ED
102
}
330
74ED
100
AcDbXrecord
340
E
  0
XRECORD
  5
74FA
102
{ACAD_REACTORS
330
74ED
102
}
330
74ED
100
AcDbXrecord
 40
0.0
  0
XRECORD
  5
74FE
102
{ACAD_REACTORS
330
74ED
102
}
330
74ED
100
AcDbXrecord
340
0
  0
XRECORD
  5
7504
102
{ACAD_REACTORS
330
74ED
102
}
330
74ED
100
AcDbXrecord
 10
0.0
 20
0.0
 30
0.0
  0
XRECORD
  5
7500
102
{ACAD_REACTORS
330
74ED
102
}
330
74ED
100
AcDbXrecord
 10
0.0
 20
0.0
 30
0.0
  0
XRECORD
  5
7503
102
{ACAD_REACTORS
330
74ED
102
}
330
74ED
100
AcDbXrecord
 10
0.0
 20
0.0
 30
0.0
  0
XRECORD
  5
7501
102
{ACAD_REACTORS
330
74ED
102
}
330
74ED
100
AcDbXrecord
 10
0.0
 20
0.0
 30
0.0
  0
XRECORD
  5
7502
102
{ACAD_REACTORS
330
74ED
102
}
330
74ED
100
AcDbXrecord
 10
0.0
 20
0.0
 30
0.0
  0
XRECORD
  5
74FF
102
{ACAD_REACTORS
330
74ED
102
}
330
74ED
100
AcDbXrecord
 10
0.0
 20
0.0
 30
0.0
  0
XRECORD
  5
74FC
102
{ACAD_REACTORS
330
74ED
102
}
330
74ED
100
AcDbXrecord
340
0
  0
XRECORD
  5
74FD
102
{ACAD_REACTORS
330
74ED
102
}
330
74ED
100
AcDbXrecord
 70
     0
  0
XRECORD
  5
74F1
102
{ACAD_REACTORS
330
74ED
102
}
330
74ED
100
AcDbXrecord
  1
monochrome.ctb
  0
XRECORD
  5
74EE
102
{ACAD_REACTORS
330
74ED
102
}
330
74ED
100
AcDbXrecord
 90
        1
  0
XRECORD
  5
74EF
102
{ACAD_REACTORS
330
74ED
102
}
330
74ED
100
AcDbXrecord
 90
       70
  0
XRECORD
  5
7507
102
{ACAD_REACTORS
330
74ED
102
}
330
74ED
100
AcDbXrecord
340
0
  0
XRECORD
  5
750D
102
{ACAD_REACTORS
330
74ED
102
}
330
74ED
100
AcDbXrecord
 10
0.0
 20
0.0
 30
0.0
  0
XRECORD
  5
7509
102
{ACAD_REACTORS
330
74ED
102
}
330
74ED
100
AcDbXrecord
 10
0.0
 20
0.0
 30
0.0
  0
XRECORD
  5
750C
102
{ACAD_REACTORS
330
74ED
102
}
330
74ED
100
AcDbXrecord
 10
0.0
 20
0.0
 30
0.0
  0
XRECORD
  5
750A
102
{ACAD_REACTORS
330
74ED
102
}
330
74ED
100
AcDbXrecord
 10
0.0
 20
0.0
 30
0.0
  0
XRECORD
  5
750B
102
{ACAD_REACTORS
330
74ED
102
}
330
74ED
100
AcDbXrecord
 10
0.0
 20
0.0
 30
0.0
  0
XRECORD
  5
7508
102
{ACAD_REACTORS
330
74ED
102
}
330
74ED
100
AcDbXrecord
 10
0.0
 20
0.0
 30
0.0
  0
XRECORD
  5
7505
102
{ACAD_REACTORS
330
74ED
102
}
330
74ED
100
AcDbXrecord
340
0
  0
XRECORD
  5
7506
102
{ACAD_REACTORS
330
74ED
102
}
330
74ED
100
AcDbXrecord
 70
     0
  0
XRECORD
  5
74F9
102
{ACAD_REACTORS
330
74ED
102
}
330
74ED
100
AcDbXrecord
  1
{112BD806-10CE-4AE8-830D-C7B1CA58BAA9}
  0
DICTIONARYVAR
  5
69CA
102
{ACAD_REACTORS
330
69C9
102
}
330
69C9
100
DictionaryVariables
280
     0
  1
1
  0
ENDSEC
  0
EOF
