  0
SECTION
  2
HEADER
  9
$ACADVER
  1
AC1014
  9
$ACADMAINTVER
 70
     9
  9
$DWGCODEPAGE
  3
ANSI_932
  9
$INSBASE
 10
0.0
 20
0.0
 30
0.0
  9
$EXTMIN
 10
-122.5533200387683
 20
-513.1171234436151
 30
-0.0000000349181948
  9
$EXTMAX
 10
499.3643222537944
 20
496.1251345315822
 30
0.0000000814935747
  9
$LIMMIN
 10
-296.316999476111
 20
-370.7034300441653
  9
$LIMMAX
 10
623.3128432133979
 20
328.6261559379898
  9
$ORTHOMODE
 70
     1
  9
$REGENMODE
 70
     1
  9
$FILLMODE
 70
     1
  9
$QTEXTMODE
 70
     0
  9
$MIRRTEXT
 70
     1
  9
$DRAGMODE
 70
     2
  9
$LTSCALE
 40
10.0
  9
$OSMODE
 70
    37
  9
$ATTMODE
 70
     1
  9
$TEXTSIZE
 40
5.0
  9
$TRACEWID
 40
0.05
  9
$TEXTSTYLE
  7
STANDARD1
  9
$CLAYER
  8
30
  9
$CELTYPE
  6
CONTINUOUS
  9
$CECOLOR
 62
   256
  9
$CELTSCALE
 40
1.0
  9
$DELOBJ
 70
     1
  9
$DISPSILH
 70
     0
  9
$DIMSCALE
 40
1.0
  9
$DIMASZ
 40
2.0
  9
$DIMEXO
 40
1.0
  9
$DIMDLI
 40
0.5
  9
$DIMRND
 40
0.0
  9
$DIMDLE
 40
0.0
  9
$DIMEXE
 40
0.5
  9
$DIMTP
 40
0.0
  9
$DIMTM
 40
0.0
  9
$DIMTXT
 40
6.0
  9
$DIMCEN
 40
0.09
  9
$DIMTSZ
 40
0.0
  9
$DIMTOL
 70
     0
  9
$DIMLIM
 70
     0
  9
$DIMTIH
 70
     0
  9
$DIMTOH
 70
     1
  9
$DIMSE1
 70
     0
  9
$DIMSE2
 70
     0
  9
$DIMTAD
 70
     3
  9
$DIMZIN
 70
    12
  9
$DIMBLK
  1
OPEN
  9
$DIMASO
 70
     1
  9
$DIMSHO
 70
     1
  9
$DIMPOST
  1

  9
$DIMAPOST
  1

  9
$DIMALT
 70
     0
  9
$DIMALTD
 70
     2
  9
$DIMALTF
 40
25.4
  9
$DIMLFAC
 40
1.0
  9
$DIMTOFL
 70
     0
  9
$DIMTVP
 40
0.0
  9
$DIMTIX
 70
     0
  9
$DIMSOXD
 70
     0
  9
$DIMSAH
 70
     0
  9
$DIMBLK1
  1

  9
$DIMBLK2
  1

  9
$DIMSTYLE
  2
STANDARD
  9
$DIMCLRD
 70
     0
  9
$DIMCLRE
 70
     0
  9
$DIMCLRT
 70
     0
  9
$DIMTFAC
 40
1.0
  9
$DIMGAP
 40
1.0
  9
$DIMJUST
 70
     0
  9
$DIMSD1
 70
     0
  9
$DIMSD2
 70
     0
  9
$DIMTOLJ
 70
     1
  9
$DIMTZIN
 70
     0
  9
$DIMALTZ
 70
     0
  9
$DIMALTTZ
 70
     0
  9
$DIMFIT
 70
     3
  9
$DIMUPT
 70
     0
  9
$DIMUNIT
 70
     2
  9
$DIMDEC
 70
     1
  9
$DIMTDEC
 70
     1
  9
$DIMALTU
 70
     2
  9
$DIMALTTD
 70
     2
  9
$DIMTXSTY
  7
STANDARD
  9
$DIMAUNIT
 70
     0
  9
$LUNITS
 70
     2
  9
$LUPREC
 70
     4
  9
$SKETCHINC
 40
0.1
  9
$FILLETRAD
 40
0.0
  9
$AUNITS
 70
     0
  9
$AUPREC
 70
     0
  9
$MENU
  1
.
  9
$ELEVATION
 40
0.0
  9
$PELEVATION
 40
0.0
  9
$THICKNESS
 40
0.0
  9
$LIMCHECK
 70
     0
  9
$BLIPMODE
 70
     0
  9
$CHAMFERA
 40
0.0
  9
$CHAMFERB
 40
0.0
  9
$CHAMFERC
 40
0.0
  9
$CHAMFERD
 40
0.0
  9
$SKPOLY
 70
     0
  9
$TDCREATE
 40
2452286.555658657
  9
$TDUPDATE
 40
2453226.926882592
  9
$TDINDWG
 40
1.3857582755
  9
$TDUSRTIMER
 40
1.3857560880
  9
$USRTIMER
 70
     1
  9
$ANGBASE
 50
0.0
  9
$ANGDIR
 70
     0
  9
$PDMODE
 70
     0
  9
$PDSIZE
 40
0.0
  9
$PLINEWID
 40
0.0
  9
$COORDS
 70
     0
  9
$SPLFRAME
 70
     0
  9
$SPLINETYPE
 70
     6
  9
$SPLINESEGS
 70
     8
  9
$ATTDIA
 70
     0
  9
$ATTREQ
 70
     1
  9
$HANDLING
 70
 22529
  9
$HANDSEED
  5
9565
  9
$SURFTAB1
 70
     6
  9
$SURFTAB2
 70
     6
  9
$SURFTYPE
 70
     6
  9
$SURFU
 70
     6
  9
$SURFV
 70
     6
  9
$UCSNAME
  2

  9
$UCSORG
 10
0.0
 20
0.0
 30
0.0
  9
$UCSXDIR
 10
1.0
 20
0.0
 30
0.0
  9
$UCSYDIR
 10
0.0
 20
1.0
 30
0.0
  9
$PUCSNAME
  2

  9
$PUCSORG
 10
0.0
 20
0.0
 30
0.0
  9
$PUCSXDIR
 10
1.0
 20
0.0
 30
0.0
  9
$PUCSYDIR
 10
0.0
 20
1.0
 30
0.0
  9
$USERI1
 70
     0
  9
$USERI2
 70
     0
  9
$USERI3
 70
     0
  9
$USERI4
 70
     0
  9
$USERI5
 70
     0
  9
$USERR1
 40
0.0
  9
$USERR2
 40
0.0
  9
$USERR3
 40
0.0
  9
$USERR4
 40
0.0
  9
$USERR5
 40
0.0
  9
$WORLDVIEW
 70
     1
  9
$SHADEDGE
 70
     3
  9
$SHADEDIF
 70
    70
  9
$TILEMODE
 70
     1
  9
$MAXACTVP
 70
    48
  9
$PINSBASE
 10
0.0
 20
0.0
 30
0.0
  9
$PLIMCHECK
 70
     0
  9
$PEXTMIN
 10
4.273573
 20
5.205245999999998
 30
0.0
  9
$PEXTMAX
 10
194.610095
 20
283.0697009999996
 30
0.0
  9
$PLIMMIN
 10
-5.873749
 20
-5.87375
  9
$PLIMMAX
 10
204.099579
 20
291.1369009999999
  9
$UNITMODE
 70
     0
  9
$VISRETAIN
 70
     1
  9
$PLINEGEN
 70
     0
  9
$PSLTSCALE
 70
     1
  9
$TREEDEPTH
 70
  3020
  9
$PICKSTYLE
 70
     1
  9
$CMLSTYLE
  2
STANDARD
  9
$CMLJUST
 70
     0
  9
$CMLSCALE
 40
1.0
  9
$PROXYGRAPHICS
 70
     1
  9
$MEASUREMENT
 70
     0
  0
ENDSEC
  0
SECTION
  2
CLASSES
  0
CLASS
  1
ACDBDICTIONARYWDFLT
  2
AcDbDictionaryWithDefault
  3
AutoCAD 2000
 90
        0
280
     0
281
     0
  0
CLASS
  1
ACDBPLACEHOLDER
  2
AcDbPlaceHolder
  3
AutoCAD 2000
 90
        0
280
     0
281
     0
  0
CLASS
  1
LAYOUT
  2
AcDbLayout
  3
AutoCAD 2000
 90
        0
280
     0
281
     0
  0
CLASS
  1
LONG_TRANSACTION
  2
AcDbLongTransaction
  3
AutoCAD 2000
 90
        0
280
     0
281
     0
  0
CLASS
  1
LWPOLYLINE
  2
AcDbPolyline
  3
AutoCAD 2000
 90
        0
280
     0
281
     1
  0
CLASS
  1
HATCH
  2
AcDbHatch
  3
AutoCAD 2000
 90
        0
280
     0
281
     1
  0
CLASS
  1
XRECORD
  2
AcDbXrecord
  3
AutoCAD 2000
 90
        0
280
     0
281
     0
  0
CLASS
  1
LONG_TRANSACTION
  2
AcDbLongTransaction
  3
AutoCAD 2000
 90
        0
280
     0
281
     0
  0
CLASS
  1
LWPOLYLINE
  2
AcDbPolyline
  3
AutoCAD 2000
 90
        0
280
     0
281
     1
  0
CLASS
  1
HATCH
  2
AcDbHatch
  3
AutoCAD 2000
 90
        0
280
     0
281
     1
  0
CLASS
  1
XRECORD
  2
AcDbXrecord
  3
AutoCAD 2000
 90
        0
280
     0
281
     0
  0
CLASS
  1
LONG_TRANSACTION
  2
AcDbLongTransaction
  3
AutoCAD 2000
 90
        0
280
     0
281
     0
  0
CLASS
  1
LWPOLYLINE
  2
AcDbPolyline
  3
AutoCAD 2000
 90
        0
280
     0
281
     1
  0
CLASS
  1
HATCH
  2
AcDbHatch
  3
AutoCAD 2000
 90
        0
280
     0
281
     1
  0
CLASS
  1
XRECORD
  2
AcDbXrecord
  3
AutoCAD 2000
 90
        0
280
     0
281
     0
  0
CLASS
  1
LONG_TRANSACTION
  2
AcDbLongTransaction
  3
AutoCAD 2000
 90
        0
280
     0
281
     0
  0
CLASS
  1
LWPOLYLINE
  2
AcDbPolyline
  3
AutoCAD 2000
 90
        0
280
     0
281
     1
  0
CLASS
  1
HATCH
  2
AcDbHatch
  3
AutoCAD 2000
 90
        0
280
     0
281
     1
  0
CLASS
  1
XRECORD
  2
AcDbXrecord
  3
AutoCAD 2000
 90
        0
280
     0
281
     0
  0
CLASS
  1
LONG_TRANSACTION
  2
AcDbLongTransaction
  3
AutoCAD 2000
 90
        0
280
     0
281
     0
  0
CLASS
  1
LWPOLYLINE
  2
AcDbPolyline
  3
AutoCAD 2000
 90
        0
280
     0
281
     1
  0
CLASS
  1
HATCH
  2
AcDbHatch
  3
AutoCAD 2000
 90
        0
280
     0
281
     1
  0
CLASS
  1
XRECORD
  2
AcDbXrecord
  3
AutoCAD 2000
 90
        0
280
     0
281
     0
  0
CLASS
  1
LONG_TRANSACTION
  2
AcDbLongTransaction
  3
AutoCAD 2000
 90
        0
280
     0
281
     0
  0
CLASS
  1
LWPOLYLINE
  2
AcDbPolyline
  3
AutoCAD 2000
 90
        0
280
     0
281
     1
  0
CLASS
  1
HATCH
  2
AcDbHatch
  3
AutoCAD 2000
 90
        0
280
     0
281
     1
  0
CLASS
  1
XRECORD
  2
AcDbXrecord
  3
AutoCAD 2000
 90
        0
280
     0
281
     0
  0
CLASS
  1
LONG_TRANSACTION
  2
AcDbLongTransaction
  3
AutoCAD 2000
 90
        0
280
     0
281
     0
  0
CLASS
  1
LWPOLYLINE
  2
AcDbPolyline
  3
AutoCAD 2000
 90
        0
280
     0
281
     1
  0
CLASS
  1
HATCH
  2
AcDbHatch
  3
AutoCAD 2000
 90
        0
280
     0
281
     1
  0
CLASS
  1
XRECORD
  2
AcDbXrecord
  3
AutoCAD 2000
 90
        0
280
     0
281
     0
  0
CLASS
  1
LONG_TRANSACTION
  2
AcDbLongTransaction
  3
AutoCAD 2000
 90
        0
280
     0
281
     0
  0
CLASS
  1
LWPOLYLINE
  2
AcDbPolyline
  3
AutoCAD 2000
 90
        0
280
     0
281
     1
  0
CLASS
  1
HATCH
  2
AcDbHatch
  3
AutoCAD 2000
 90
        0
280
     0
281
     1
  0
CLASS
  1
XRECORD
  2
AcDbXrecord
  3
AutoCAD 2000
 90
        0
280
     0
281
     0
  0
CLASS
  1
LONG_TRANSACTION
  2
AcDbLongTransaction
  3
AutoCAD 2000
 90
        0
280
     0
281
     0
  0
CLASS
  1
LWPOLYLINE
  2
AcDbPolyline
  3
AutoCAD 2000
 90
        0
280
     0
281
     1
  0
CLASS
  1
HATCH
  2
AcDbHatch
  3
AutoCAD 2000
 90
        0
280
     0
281
     1
  0
CLASS
  1
XRECORD
  2
AcDbXrecord
  3
AutoCAD 2000
 90
        0
280
     0
281
     0
  0
CLASS
  1
LONG_TRANSACTION
  2
AcDbLongTransaction
  3
AutoCAD 2000
 90
        0
280
     0
281
     0
  0
CLASS
  1
LWPOLYLINE
  2
AcDbPolyline
  3
AutoCAD 2000
 90
        0
280
     0
281
     1
  0
CLASS
  1
HATCH
  2
AcDbHatch
  3
AutoCAD 2000
 90
        0
280
     0
281
     1
  0
CLASS
  1
XRECORD
  2
AcDbXrecord
  3
AutoCAD 2000
 90
        0
280
     0
281
     0
  0
CLASS
  1
LONG_TRANSACTION
  2
AcDbLongTransaction
  3
AutoCAD 2000
 90
        0
280
     0
281
     0
  0
CLASS
  1
LWPOLYLINE
  2
AcDbPolyline
  3
AutoCAD 2000
 90
        0
280
     0
281
     1
  0
CLASS
  1
HATCH
  2
AcDbHatch
  3
AutoCAD 2000
 90
        0
280
     0
281
     1
  0
CLASS
  1
XRECORD
  2
AcDbXrecord
  3
AutoCAD 2000
 90
        0
280
     0
281
     0
  0
CLASS
  1
LONG_TRANSACTION
  2
AcDbLongTransaction
  3
AutoCAD 2000
 90
        0
280
     0
281
     0
  0
CLASS
  1
LWPOLYLINE
  2
AcDbPolyline
  3
AutoCAD 2000
 90
        0
280
     0
281
     1
  0
CLASS
  1
HATCH
  2
AcDbHatch
  3
AutoCAD 2000
 90
        0
280
     0
281
     1
  0
CLASS
  1
XRECORD
  2
AcDbXrecord
  3
AutoCAD 2000
 90
        0
280
     0
281
     0
  0
CLASS
  1
LONG_TRANSACTION
  2
AcDbLongTransaction
  3
AutoCAD 2000
 90
        0
280
     0
281
     0
  0
CLASS
  1
LWPOLYLINE
  2
AcDbPolyline
  3
AutoCAD 2000
 90
        0
280
     0
281
     1
  0
CLASS
  1
HATCH
  2
AcDbHatch
  3
AutoCAD 2000
 90
        0
280
     0
281
     1
  0
CLASS
  1
XRECORD
  2
AcDbXrecord
  3
AutoCAD 2000
 90
        0
280
     0
281
     0
  0
CLASS
  1
LONG_TRANSACTION
  2
AcDbLongTransaction
  3
AutoCAD 2000
 90
        0
280
     0
281
     0
  0
CLASS
  1
LWPOLYLINE
  2
AcDbPolyline
  3
AutoCAD 2000
 90
        0
280
     0
281
     1
  0
CLASS
  1
HATCH
  2
AcDbHatch
  3
AutoCAD 2000
 90
        0
280
     0
281
     1
  0
CLASS
  1
XRECORD
  2
AcDbXrecord
  3
AutoCAD 2000
 90
        0
280
     0
281
     0
  0
CLASS
  1
LONG_TRANSACTION
  2
AcDbLongTransaction
  3
AutoCAD 2000
 90
        0
280
     0
281
     0
  0
CLASS
  1
LWPOLYLINE
  2
AcDbPolyline
  3
AutoCAD 2000
 90
        0
280
     0
281
     1
  0
CLASS
  1
HATCH
  2
AcDbHatch
  3
AutoCAD 2000
 90
        0
280
     0
281
     1
  0
CLASS
  1
XRECORD
  2
AcDbXrecord
  3
AutoCAD 2000
 90
        0
280
     0
281
     0
  0
CLASS
  1
LONG_TRANSACTION
  2
AcDbLongTransaction
  3
AutoCAD 2000
 90
        0
280
     0
281
     0
  0
CLASS
  1
LWPOLYLINE
  2
AcDbPolyline
  3
AutoCAD 2000
 90
        0
280
     0
281
     1
  0
CLASS
  1
HATCH
  2
AcDbHatch
  3
AutoCAD 2000
 90
        0
280
     0
281
     1
  0
CLASS
  1
XRECORD
  2
AcDbXrecord
  3
AutoCAD 2000
 90
        0
280
     0
281
     0
  0
CLASS
  1
LONG_TRANSACTION
  2
AcDbLongTransaction
  3
AutoCAD 2000
 90
        0
280
     0
281
     0
  0
CLASS
  1
LWPOLYLINE
  2
AcDbPolyline
  3
AutoCAD 2000
 90
        0
280
     0
281
     1
  0
CLASS
  1
HATCH
  2
AcDbHatch
  3
AutoCAD 2000
 90
        0
280
     0
281
     1
  0
CLASS
  1
XRECORD
  2
AcDbXrecord
  3
AutoCAD 2000
 90
        0
280
     0
281
     0
  0
CLASS
  1
LONG_TRANSACTION
  2
AcDbLongTransaction
  3
AutoCAD 2000
 90
        0
280
     0
281
     0
  0
CLASS
  1
LWPOLYLINE
  2
AcDbPolyline
  3
AutoCAD 2000
 90
        0
280
     0
281
     1
  0
CLASS
  1
HATCH
  2
AcDbHatch
  3
AutoCAD 2000
 90
        0
280
     0
281
     1
  0
CLASS
  1
XRECORD
  2
AcDbXrecord
  3
AutoCAD 2000
 90
        0
280
     0
281
     0
  0
CLASS
  1
LONG_TRANSACTION
  2
AcDbLongTransaction
  3
AutoCAD 2000
 90
        0
280
     0
281
     0
  0
CLASS
  1
LWPOLYLINE
  2
AcDbPolyline
  3
AutoCAD 2000
 90
        0
280
     0
281
     1
  0
CLASS
  1
HATCH
  2
AcDbHatch
  3
AutoCAD 2000
 90
        0
280
     0
281
     1
  0
CLASS
  1
XRECORD
  2
AcDbXrecord
  3
AutoCAD 2000
 90
        0
280
     0
281
     0
  0
CLASS
  1
LONG_TRANSACTION
  2
AcDbLongTransaction
  3
AutoCAD 2000
 90
        0
280
     0
281
     0
  0
CLASS
  1
LWPOLYLINE
  2
AcDbPolyline
  3
AutoCAD 2000
 90
        0
280
     0
281
     1
  0
CLASS
  1
HATCH
  2
AcDbHatch
  3
AutoCAD 2000
 90
        0
280
     0
281
     1
  0
CLASS
  1
XRECORD
  2
AcDbXrecord
  3
AutoCAD 2000
 90
        0
280
     0
281
     0
  0
CLASS
  1
LONG_TRANSACTION
  2
AcDbLongTransaction
  3
AutoCAD 2000
 90
        0
280
     0
281
     0
  0
CLASS
  1
LWPOLYLINE
  2
AcDbPolyline
  3
AutoCAD 2000
 90
        0
280
     0
281
     1
  0
CLASS
  1
HATCH
  2
AcDbHatch
  3
AutoCAD 2000
 90
        0
280
     0
281
     1
  0
CLASS
  1
XRECORD
  2
AcDbXrecord
  3
AutoCAD 2000
 90
        0
280
     0
281
     0
  0
CLASS
  1
LONG_TRANSACTION
  2
AcDbLongTransaction
  3
AutoCAD 2000
 90
        0
280
     0
281
     0
  0
CLASS
  1
LWPOLYLINE
  2
AcDbPolyline
  3
AutoCAD 2000
 90
        0
280
     0
281
     1
  0
CLASS
  1
HATCH
  2
AcDbHatch
  3
AutoCAD 2000
 90
        0
280
     0
281
     1
  0
CLASS
  1
XRECORD
  2
AcDbXrecord
  3
AutoCAD 2000
 90
        0
280
     0
281
     0
  0
CLASS
  1
LONG_TRANSACTION
  2
AcDbLongTransaction
  3
AutoCAD 2000
 90
        0
280
     0
281
     0
  0
CLASS
  1
LWPOLYLINE
  2
AcDbPolyline
  3
AutoCAD 2000
 90
        0
280
     0
281
     1
  0
CLASS
  1
HATCH
  2
AcDbHatch
  3
AutoCAD 2000
 90
        0
280
     0
281
     1
  0
CLASS
  1
XRECORD
  2
AcDbXrecord
  3
AutoCAD 2000
 90
        0
280
     0
281
     0
  0
CLASS
  1
LONG_TRANSACTION
  2
AcDbLongTransaction
  3
AutoCAD 2000
 90
        0
280
     0
281
     0
  0
CLASS
  1
LWPOLYLINE
  2
AcDbPolyline
  3
AutoCAD 2000
 90
        0
280
     0
281
     1
  0
CLASS
  1
HATCH
  2
AcDbHatch
  3
AutoCAD 2000
 90
        0
280
     0
281
     1
  0
CLASS
  1
XRECORD
  2
AcDbXrecord
  3
AutoCAD 2000
 90
        0
280
     0
281
     0
  0
CLASS
  1
LONG_TRANSACTION
  2
AcDbLongTransaction
  3
AutoCAD 2000
 90
        0
280
     0
281
     0
  0
CLASS
  1
LWPOLYLINE
  2
AcDbPolyline
  3
AutoCAD 2000
 90
        0
280
     0
281
     1
  0
CLASS
  1
HATCH
  2
AcDbHatch
  3
AutoCAD 2000
 90
        0
280
     0
281
     1
  0
CLASS
  1
XRECORD
  2
AcDbXrecord
  3
AutoCAD 2000
 90
        0
280
     0
281
     0
  0
CLASS
  1
LONG_TRANSACTION
  2
AcDbLongTransaction
  3
AutoCAD 2000
 90
        0
280
     0
281
     0
  0
CLASS
  1
LWPOLYLINE
  2
AcDbPolyline
  3
AutoCAD 2000
 90
        0
280
     0
281
     1
  0
CLASS
  1
HATCH
  2
AcDbHatch
  3
AutoCAD 2000
 90
        0
280
     0
281
     1
  0
CLASS
  1
XRECORD
  2
AcDbXrecord
  3
AutoCAD 2000
 90
        0
280
     0
281
     0
  0
CLASS
  1
LONG_TRANSACTION
  2
AcDbLongTransaction
  3
AutoCAD 2000
 90
        0
280
     0
281
     0
  0
CLASS
  1
LWPOLYLINE
  2
AcDbPolyline
  3
AutoCAD 2000
 90
        0
280
     0
281
     1
  0
CLASS
  1
HATCH
  2
AcDbHatch
  3
AutoCAD 2000
 90
        0
280
     0
281
     1
  0
CLASS
  1
XRECORD
  2
AcDbXrecord
  3
AutoCAD 2000
 90
        0
280
     0
281
     0
  0
CLASS
  1
LONG_TRANSACTION
  2
AcDbLongTransaction
  3
AutoCAD 2000
 90
        0
280
     0
281
     0
  0
CLASS
  1
LWPOLYLINE
  2
AcDbPolyline
  3
AutoCAD 2000
 90
        0
280
     0
281
     1
  0
CLASS
  1
HATCH
  2
AcDbHatch
  3
AutoCAD 2000
 90
        0
280
     0
281
     1
  0
CLASS
  1
XRECORD
  2
AcDbXrecord
  3
AutoCAD 2000
 90
        0
280
     0
281
     0
  0
CLASS
  1
LONG_TRANSACTION
  2
AcDbLongTransaction
  3
AutoCAD 2000
 90
        0
280
     0
281
     0
  0
CLASS
  1
LWPOLYLINE
  2
AcDbPolyline
  3
AutoCAD 2000
 90
        0
280
     0
281
     1
  0
CLASS
  1
HATCH
  2
AcDbHatch
  3
AutoCAD 2000
 90
        0
280
     0
281
     1
  0
CLASS
  1
XRECORD
  2
AcDbXrecord
  3
AutoCAD 2000
 90
        0
280
     0
281
     0
  0
CLASS
  1
LONG_TRANSACTION
  2
AcDbLongTransaction
  3
AutoCAD 2000
 90
        0
280
     0
281
     0
  0
CLASS
  1
LWPOLYLINE
  2
AcDbPolyline
  3
AutoCAD 2000
 90
        0
280
     0
281
     1
  0
CLASS
  1
HATCH
  2
AcDbHatch
  3
AutoCAD 2000
 90
        0
280
     0
281
     1
  0
CLASS
  1
XRECORD
  2
AcDbXrecord
  3
AutoCAD 2000
 90
        0
280
     0
281
     0
  0
CLASS
  1
LONG_TRANSACTION
  2
AcDbLongTransaction
  3
AutoCAD 2000
 90
        0
280
     0
281
     0
  0
CLASS
  1
LWPOLYLINE
  2
AcDbPolyline
  3
AutoCAD 2000
 90
        0
280
     0
281
     1
  0
CLASS
  1
HATCH
  2
AcDbHatch
  3
AutoCAD 2000
 90
        0
280
     0
281
     1
  0
CLASS
  1
XRECORD
  2
AcDbXrecord
  3
AutoCAD 2000
 90
        0
280
     0
281
     0
  0
CLASS
  1
LONG_TRANSACTION
  2
AcDbLongTransaction
  3
AutoCAD 2000
 90
        0
280
     0
281
     0
  0
CLASS
  1
LWPOLYLINE
  2
AcDbPolyline
  3
AutoCAD 2000
 90
        0
280
     0
281
     1
  0
CLASS
  1
HATCH
  2
AcDbHatch
  3
AutoCAD 2000
 90
        0
280
     0
281
     1
  0
CLASS
  1
XRECORD
  2
AcDbXrecord
  3
AutoCAD 2000
 90
        0
280
     0
281
     0
  0
CLASS
  1
LONG_TRANSACTION
  2
AcDbLongTransaction
  3
AutoCAD 2000
 90
        0
280
     0
281
     0
  0
CLASS
  1
LWPOLYLINE
  2
AcDbPolyline
  3
AutoCAD 2000
 90
        0
280
     0
281
     1
  0
CLASS
  1
HATCH
  2
AcDbHatch
  3
AutoCAD 2000
 90
        0
280
     0
281
     1
  0
CLASS
  1
XRECORD
  2
AcDbXrecord
  3
AutoCAD 2000
 90
        0
280
     0
281
     0
  0
CLASS
  1
DICTIONARYVAR
  2
AcDbDictionaryVar
  3
AutoCAD 2000
 90
        0
280
     0
281
     0
  0
CLASS
  1
LONG_TRANSACTION
  2
AcDbLongTransaction
  3
AutoCAD 2000
 90
        0
280
     0
281
     0
  0
CLASS
  1
LWPOLYLINE
  2
AcDbPolyline
  3
AutoCAD 2000
 90
        0
280
     0
281
     1
  0
CLASS
  1
HATCH
  2
AcDbHatch
  3
AutoCAD 2000
 90
        0
280
     0
281
     1
  0
CLASS
  1
XRECORD
  2
AcDbXrecord
  3
AutoCAD 2000
 90
        0
280
     0
281
     0
  0
CLASS
  1
LONG_TRANSACTION
  2
AcDbLongTransaction
  3
AutoCAD 2000
 90
        0
280
     0
281
     0
  0
CLASS
  1
LWPOLYLINE
  2
AcDbPolyline
  3
AutoCAD 2000
 90
        0
280
     0
281
     1
  0
CLASS
  1
HATCH
  2
AcDbHatch
  3
AutoCAD 2000
 90
        0
280
     0
281
     1
  0
CLASS
  1
XRECORD
  2
AcDbXrecord
  3
AutoCAD 2000
 90
        0
280
     0
281
     0
  0
CLASS
  1
LONG_TRANSACTION
  2
AcDbLongTransaction
  3
AutoCAD 2000
 90
        0
280
     0
281
     0
  0
CLASS
  1
LWPOLYLINE
  2
AcDbPolyline
  3
AutoCAD 2000
 90
        0
280
     0
281
     1
  0
CLASS
  1
HATCH
  2
AcDbHatch
  3
AutoCAD 2000
 90
        0
280
     0
281
     1
  0
CLASS
  1
XRECORD
  2
AcDbXrecord
  3
AutoCAD 2000
 90
        0
280
     0
281
     0
  0
CLASS
  1
LONG_TRANSACTION
  2
AcDbLongTransaction
  3
AutoCAD 2000
 90
        0
280
     0
281
     0
  0
CLASS
  1
LWPOLYLINE
  2
AcDbPolyline
  3
AutoCAD 2000
 90
        0
280
     0
281
     1
  0
CLASS
  1
HATCH
  2
AcDbHatch
  3
AutoCAD 2000
 90
        0
280
     0
281
     1
  0
CLASS
  1
XRECORD
  2
AcDbXrecord
  3
AutoCAD 2000
 90
        0
280
     0
281
     0
  0
CLASS
  1
LONG_TRANSACTION
  2
AcDbLongTransaction
  3
AutoCAD 2000
 90
        0
280
     0
281
     0
  0
CLASS
  1
LWPOLYLINE
  2
AcDbPolyline
  3
AutoCAD 2000
 90
        0
280
     0
281
     1
  0
CLASS
  1
HATCH
  2
AcDbHatch
  3
AutoCAD 2000
 90
        0
280
     0
281
     1
  0
CLASS
  1
XRECORD
  2
AcDbXrecord
  3
AutoCAD 2000
 90
        0
280
     0
281
     0
  0
CLASS
  1
LONG_TRANSACTION
  2
AcDbLongTransaction
  3
AutoCAD 2000
 90
        0
280
     0
281
     0
  0
CLASS
  1
LWPOLYLINE
  2
AcDbPolyline
  3
AutoCAD 2000
 90
        0
280
     0
281
     1
  0
CLASS
  1
HATCH
  2
AcDbHatch
  3
AutoCAD 2000
 90
        0
280
     0
281
     1
  0
CLASS
  1
XRECORD
  2
AcDbXrecord
  3
AutoCAD 2000
 90
        0
280
     0
281
     0
  0
CLASS
  1
LONG_TRANSACTION
  2
AcDbLongTransaction
  3
AutoCAD 2000
 90
        0
280
     0
281
     0
  0
CLASS
  1
LWPOLYLINE
  2
AcDbPolyline
  3
AutoCAD 2000
 90
        0
280
     0
281
     1
  0
CLASS
  1
HATCH
  2
AcDbHatch
  3
AutoCAD 2000
 90
        0
280
     0
281
     1
  0
CLASS
  1
XRECORD
  2
AcDbXrecord
  3
AutoCAD 2000
 90
        0
280
     0
281
     0
  0
CLASS
  1
LONG_TRANSACTION
  2
AcDbLongTransaction
  3
AutoCAD 2000
 90
        0
280
     0
281
     0
  0
CLASS
  1
LWPOLYLINE
  2
AcDbPolyline
  3
AutoCAD 2000
 90
        0
280
     0
281
     1
  0
CLASS
  1
HATCH
  2
AcDbHatch
  3
AutoCAD 2000
 90
        0
280
     0
281
     1
  0
CLASS
  1
XRECORD
  2
AcDbXrecord
  3
AutoCAD 2000
 90
        0
280
     0
281
     0
  0
CLASS
  1
LONG_TRANSACTION
  2
AcDbLongTransaction
  3
AutoCAD 2000
 90
        0
280
     0
281
     0
  0
CLASS
  1
LWPOLYLINE
  2
AcDbPolyline
  3
AutoCAD 2000
 90
        0
280
     0
281
     1
  0
CLASS
  1
HATCH
  2
AcDbHatch
  3
AutoCAD 2000
 90
        0
280
     0
281
     1
  0
CLASS
  1
XRECORD
  2
AcDbXrecord
  3
AutoCAD 2000
 90
        0
280
     0
281
     0
  0
CLASS
  1
LONG_TRANSACTION
  2
AcDbLongTransaction
  3
AutoCAD 2000
 90
        0
280
     0
281
     0
  0
CLASS
  1
LWPOLYLINE
  2
AcDbPolyline
  3
AutoCAD 2000
 90
        0
280
     0
281
     1
  0
CLASS
  1
HATCH
  2
AcDbHatch
  3
AutoCAD 2000
 90
        0
280
     0
281
     1
  0
CLASS
  1
XRECORD
  2
AcDbXrecord
  3
AutoCAD 2000
 90
        0
280
     0
281
     0
  0
CLASS
  1
LONG_TRANSACTION
  2
AcDbLongTransaction
  3
AutoCAD 2000
 90
        0
280
     0
281
     0
  0
CLASS
  1
LWPOLYLINE
  2
AcDbPolyline
  3
AutoCAD 2000
 90
        0
280
     0
281
     1
  0
CLASS
  1
HATCH
  2
AcDbHatch
  3
AutoCAD 2000
 90
        0
280
     0
281
     1
  0
CLASS
  1
XRECORD
  2
AcDbXrecord
  3
AutoCAD 2000
 90
        0
280
     0
281
     0
  0
CLASS
  1
LONG_TRANSACTION
  2
AcDbLongTransaction
  3
AutoCAD 2000
 90
        0
280
     0
281
     0
  0
CLASS
  1
LWPOLYLINE
  2
AcDbPolyline
  3
AutoCAD 2000
 90
        0
280
     0
281
     1
  0
CLASS
  1
HATCH
  2
AcDbHatch
  3
AutoCAD 2000
 90
        0
280
     0
281
     1
  0
CLASS
  1
XRECORD
  2
AcDbXrecord
  3
AutoCAD 2000
 90
        0
280
     0
281
     0
  0
CLASS
  1
LONG_TRANSACTION
  2
AcDbLongTransaction
  3
AutoCAD 2000
 90
        0
280
     0
281
     0
  0
CLASS
  1
LWPOLYLINE
  2
AcDbPolyline
  3
AutoCAD 2000
 90
        0
280
     0
281
     1
  0
CLASS
  1
HATCH
  2
AcDbHatch
  3
AutoCAD 2000
 90
        0
280
     0
281
     1
  0
CLASS
  1
XRECORD
  2
AcDbXrecord
  3
AutoCAD 2000
 90
        0
280
     0
281
     0
  0
CLASS
  1
LONG_TRANSACTION
  2
AcDbLongTransaction
  3
AutoCAD 2000
 90
        0
280
     0
281
     0
  0
CLASS
  1
LWPOLYLINE
  2
AcDbPolyline
  3
AutoCAD 2000
 90
        0
280
     0
281
     1
  0
CLASS
  1
HATCH
  2
AcDbHatch
  3
AutoCAD 2000
 90
        0
280
     0
281
     1
  0
CLASS
  1
XRECORD
  2
AcDbXrecord
  3
AutoCAD 2000
 90
        0
280
     0
281
     0
  0
CLASS
  1
LONG_TRANSACTION
  2
AcDbLongTransaction
  3
AutoCAD 2000
 90
        0
280
     0
281
     0
  0
CLASS
  1
LWPOLYLINE
  2
AcDbPolyline
  3
AutoCAD 2000
 90
        0
280
     0
281
     1
  0
CLASS
  1
HATCH
  2
AcDbHatch
  3
AutoCAD 2000
 90
        0
280
     0
281
     1
  0
CLASS
  1
XRECORD
  2
AcDbXrecord
  3
AutoCAD 2000
 90
        0
280
     0
281
     0
  0
CLASS
  1
LONG_TRANSACTION
  2
AcDbLongTransaction
  3
AutoCAD 2000
 90
        0
280
     0
281
     0
  0
CLASS
  1
LWPOLYLINE
  2
AcDbPolyline
  3
AutoCAD 2000
 90
        0
280
     0
281
     1
  0
CLASS
  1
HATCH
  2
AcDbHatch
  3
AutoCAD 2000
 90
        0
280
     0
281
     1
  0
CLASS
  1
XRECORD
  2
AcDbXrecord
  3
AutoCAD 2000
 90
        0
280
     0
281
     0
  0
CLASS
  1
LONG_TRANSACTION
  2
AcDbLongTransaction
  3
AutoCAD 2000
 90
        0
280
     0
281
     0
  0
CLASS
  1
LWPOLYLINE
  2
AcDbPolyline
  3
AutoCAD 2000
 90
        0
280
     0
281
     1
  0
CLASS
  1
HATCH
  2
AcDbHatch
  3
AutoCAD 2000
 90
        0
280
     0
281
     1
  0
CLASS
  1
XRECORD
  2
AcDbXrecord
  3
AutoCAD 2000
 90
        0
280
     0
281
     0
  0
ENDSEC
  0
SECTION
  2
TABLES
  0
TABLE
  2
VPORT
  5
8
330
0
100
AcDbSymbolTable
 70
     2
  0
VPORT
  5
9525
330
8
100
AcDbSymbolTableRecord
100
AcDbViewportTableRecord
  2
*ACTIVE
 70
     0
 10
0.0
 20
0.0
 11
1.0
 21
1.0
 12
188.4055011075132
 22
-8.495994456016433
 13
0.0
 23
0.0
 14
1.0
 24
1.0
 15
10.0
 25
10.0
 16
0.0
 26
0.0
 36
1.0
 17
0.0
 27
0.0
 37
0.0
 40
1022.264738723264
 41
2.161637931034482
 42
50.0
 43
0.0
 44
0.0
 50
0.0
 51
0.0
 71
     0
 72
   100
 73
     1
 74
     1
 75
     0
 76
     0
 77
     0
 78
     0
  0
ENDTAB
  0
TABLE
  2
LTYPE
  5
5
330
0
100
AcDbSymbolTable
 70
     8
  0
LTYPE
  5
13
330
5
100
AcDbSymbolTableRecord
100
AcDbLinetypeTableRecord
  2
BYBLOCK
 70
     0
  3

 72
    65
 73
     0
 40
0.0
  0
LTYPE
  5
14
330
5
100
AcDbSymbolTableRecord
100
AcDbLinetypeTableRecord
  2
BYLAYER
 70
     0
  3

 72
    65
 73
     0
 40
0.0
  0
LTYPE
  5
15
330
5
100
AcDbSymbolTableRecord
100
AcDbLinetypeTableRecord
  2
CONTINUOUS
 70
     0
  3
Solid line
 72
    65
 73
     0
 40
0.0
  0
LTYPE
  5
22
330
5
100
AcDbSymbolTableRecord
100
AcDbLinetypeTableRecord
  2
CONTINOUS
 70
     0
  3
Solid line
 72
    65
 73
     0
 40
0.0
  0
LTYPE
  5
23
330
5
100
AcDbSymbolTableRecord
100
AcDbLinetypeTableRecord
  2
DASHED
 70
     0
  3
__ __ __ __ __ __ __ __ __ __ __ __ __ __ __
 72
    65
 73
     2
 40
0.75
 49
0.5
 74
     0
 49
-0.25
 74
     0
  0
LTYPE
  5
24
330
5
100
AcDbSymbolTableRecord
100
AcDbLinetypeTableRecord
  2
DASHDOT
 70
     0
  3
__ . __ . __ . __ . __ . __ . __ . __ . __ . __
 72
    65
 73
     4
 40
1.0
 49
0.5
 74
     0
 49
-0.25
 74
     0
 49
0.0
 74
     0
 49
-0.25
 74
     0
  0
LTYPE
  5
4C47
330
5
100
AcDbSymbolTableRecord
100
AcDbLinetypeTableRecord
  2
DIVIDE
 70
     0
  3
Divide ____ . . ____ . . ____ . . ____ . . ____
 72
    65
 73
     6
 40
1.25
 49
0.5
 74
     0
 49
-0.25
 74
     0
 49
0.0
 74
     0
 49
-0.25
 74
     0
 49
0.0
 74
     0
 49
-0.25
 74
     0
  0
LTYPE
  5
6265
330
5
100
AcDbSymbolTableRecord
100
AcDbLinetypeTableRecord
  2
CENTER
 70
     0
  3
Center ____ _ ____ _ ____ _ ____ _ ____ _ ____
 72
    65
 73
     4
 40
50.8
 49
31.75
 74
     0
 49
-6.349999999999997
 74
     0
 49
6.349999999999997
 74
     0
 49
-6.349999999999997
 74
     0
  0
LTYPE
  5
685F
330
5
100
AcDbSymbolTableRecord
100
AcDbLinetypeTableRecord
  2
PHANTOM
 70
     0
  3
Phantom ______  __  __  ______  __  __  ______
 72
    65
 73
     6
 40
63.5
 49
31.75
 74
     0
 49
-6.349999999999997
 74
     0
 49
6.349999999999997
 74
     0
 49
-6.349999999999997
 74
     0
 49
6.349999999999997
 74
     0
 49
-6.349999999999997
 74
     0
  0
LTYPE
  5
6FA1
330
5
100
AcDbSymbolTableRecord
100
AcDbLinetypeTableRecord
  2
HIDDEN
 70
     0
  3
_ _ _ _ _ _ _ _ _ _ _ _ _ _ _ _ _ _ _ _ _ _ _
 72
    65
 73
     2
 40
0.5
 49
0.25
 74
     0
 49
-0.25
 74
     0
  0
ENDTAB
  0
TABLE
  2
LAYER
  5
2
330
0
100
AcDbSymbolTable
 70
    16
  0
LAYER
  5
10
330
2
100
AcDbSymbolTableRecord
100
AcDbLayerTableRecord
  2
0
 70
     0
 62
     7
  6
CONTINOUS
  0
LAYER
  5
2F
330
2
100
AcDbSymbolTableRecord
100
AcDbLayerTableRecord
  2
10
 70
     0
 62
     4
  6
CONTINOUS
  0
LAYER
  5
31
330
2
100
AcDbSymbolTableRecord
100
AcDbLayerTableRecord
  2
12
 70
     0
 62
     3
  6
CONTINOUS
  0
LAYER
  5
35
330
2
100
AcDbSymbolTableRecord
100
AcDbLayerTableRecord
  2
16
 70
     0
 62
     6
  6
DASHDOT
  0
LAYER
  5
38
330
2
100
AcDbSymbolTableRecord
100
AcDbLayerTableRecord
  2
19
 70
     0
 62
     7
  6
CONTINOUS
  0
LAYER
  5
3D
330
2
100
AcDbSymbolTableRecord
100
AcDbLayerTableRecord
  2
24
 70
     0
 62
     2
  6
CONTINOUS
  0
LAYER
  5
3A2
330
2
100
AcDbSymbolTableRecord
100
AcDbLayerTableRecord
  2
30
 70
     0
 62
     9
  6
CONTINUOUS
  0
LAYER
  5
3A4
330
2
100
AcDbSymbolTableRecord
100
AcDbLayerTableRecord
  2
DEFPOINTS
 70
     0
 62
     7
  6
CONTINUOUS
  0
LAYER
  5
3BBA
330
2
100
AcDbSymbolTableRecord
100
AcDbLayerTableRecord
  2
18
 70
     0
 62
     5
  6
DIVIDE
  0
LAYER
  5
67A8
330
2
100
AcDbSymbolTableRecord
100
AcDbLayerTableRecord
  2
11
 70
     0
 62
     1
  6
CONTINOUS
  0
LAYER
  5
7837
330
2
100
AcDbSymbolTableRecord
100
AcDbLayerTableRecord
  2
17
 70
     0
 62
     2
  6
DASHDOT
  0
LAYER
  5
7BC8
330
2
100
AcDbSymbolTableRecord
100
AcDbLayerTableRecord
  2
1
 70
     0
 62
     7
  6
CONTINUOUS
  0
LAYER
  5
7BC9
330
2
100
AcDbSymbolTableRecord
100
AcDbLayerTableRecord
  2
2
 70
     0
 62
     7
  6
CONTINUOUS
  0
LAYER
  5
8037
330
2
100
AcDbSymbolTableRecord
100
AcDbLayerTableRecord
  2
TOP
 70
     0
 62
     7
  6
CONTINUOUS
  0
LAYER
  5
8A0F
330
2
100
AcDbSymbolTableRecord
100
AcDbLayerTableRecord
  2
21
 70
     0
 62
     7
  6
CONTINUOUS
  0
LAYER
  5
8CDE
330
2
100
AcDbSymbolTableRecord
100
AcDbLayerTableRecord
  2
22
 70
     0
 62
     3
  6
CONTINUOUS
  0
ENDTAB
  0
TABLE
  2
STYLE
  5
3
330
0
100
AcDbSymbolTable
 70
     4
  0
STYLE
  5
11
330
3
100
AcDbSymbolTableRecord
100
AcDbTextStyleTableRecord
  2
STANDARD
 70
     0
 40
0.0
 41
1.0
 50
0.0
 71
     0
 42
2.0
  3
txt.shx
  4
bigfont.shx
  0
STYLE
  5
42
330
3
100
AcDbSymbolTableRecord
100
AcDbTextStyleTableRecord
  2
STANDARD1
 70
     0
 40
0.0
 41
1.0
 50
0.0
 71
     0
 42
5.0
  3
MONOTXT
  4
BIGFONT
  0
STYLE
  5
6861
330
3
100
AcDbSymbolTableRecord
100
AcDbTextStyleTableRecord
  2
MX_NOTE_STANDARD
 70
     0
 40
0.0
 41
1.0
 50
0.0
 71
     0
 42
5.891046
  3
txt.shx
  4
extfont.shx
  0
STYLE
  5
6D9B
330
3
100
AcDbSymbolTableRecord
100
AcDbTextStyleTableRecord
  2
UGMTXT
 70
     0
 40
0.0
 41
1.0
 50
0.0
 71
     0
 42
0.2
  3
ugmtxt
  4
bigfont
  0
ENDTAB
  0
TABLE
  2
VIEW
  5
6
330
0
100
AcDbSymbolTable
 70
     3
  0
VIEW
  5
230C
330
6
100
AcDbSymbolTableRecord
100
AcDbViewTableRecord
  2
OLE1
 70
     0
 40
148.912488
 10
429.497628
 20
2.560627
 41
103.145806
 11
0.0
 21
0.0
 31
1.0
 12
0.0
 22
0.0
 32
0.0
 42
50.0
 43
0.0
 44
0.0
 50
0.0
 71
     0
  0
VIEW
  5
230E
330
6
100
AcDbSymbolTableRecord
100
AcDbViewTableRecord
  2
OLE2
 70
     0
 40
170.778692
 10
322.66497
 20
-5.978304
 41
102.467215
 11
0.0
 21
0.0
 31
1.0
 12
0.0
 22
0.0
 32
0.0
 42
50.0
 43
0.0
 44
0.0
 50
0.0
 71
     0
  0
VIEW
  5
23AA
330
6
100
AcDbSymbolTableRecord
100
AcDbViewTableRecord
  2
OLE3
 70
     0
 40
591.7897389999998
 10
84.79698199999999
 20
-46.09335999999998
 41
388.792096
 11
0.0
 21
0.0
 31
1.0
 12
0.0
 22
0.0
 32
0.0
 42
50.0
 43
0.0
 44
0.0
 50
0.0
 71
     0
  0
ENDTAB
  0
TABLE
  2
UCS
  5
7
330
0
100
AcDbSymbolTable
 70
     0
  0
ENDTAB
  0
TABLE
  2
APPID
  5
9
330
0
100
AcDbSymbolTable
 70
     2
  0
APPID
  5
12
330
9
100
AcDbSymbolTableRecord
100
AcDbRegAppTableRecord
  2
ACAD
 70
     0
  0
APPID
  5
ECD
330
9
100
AcDbSymbolTableRecord
100
AcDbRegAppTableRecord
  2
CONTENTBLOCKICON
 70
     0
  0
ENDTAB
  0
TABLE
  2
DIMSTYLE
  5
A
330
0
100
AcDbSymbolTable
 70
     1
  0
DIMSTYLE
105
175
102
{ACAD_REACTORS
330
8764
330
886F
330
887C
330
8889
330
8896
330
88B5
330
88DD
330
88EA
330
88F7
330
8904
330
8911
330
891E
330
894F
330
8C0C
330
8C0D
330
8C0E
330
8E22
330
8E42
330
8E4F
330
9178
330
9198
330
91E9
330
9230
330
9231
330
925C
330
82C9
330
82CA
330
82CB
330
82CC
330
82D0
330
82D2
330
82D7
330
82E5
330
82EB
330
82F0
330
82FE
330
82FF
330
831D
330
914F
102
}
330
A
100
AcDbSymbolTableRecord
100
AcDbDimStyleTableRecord
  2
STANDARD
 70
     0
  3

  4

  5
OPEN
  6

  7

 40
1.0
 41
2.0
 42
1.0
 43
0.5
 44
0.5
 45
0.0
 46
0.0
 47
0.0
 48
0.0
140
6.0
141
0.09
142
0.0
143
25.4
144
1.0
145
0.0
146
1.0
147
1.0
 71
     0
 72
     0
 73
     0
 74
     1
 75
     0
 76
     0
 77
     3
 78
    12
170
     0
171
     2
172
     0
173
     0
174
     0
175
     0
176
     0
177
     0
178
     0
270
     2
271
     1
272
     1
273
     2
274
     2
340
11
275
     0
280
     0
281
     0
282
     0
283
     1
284
     0
285
     0
286
     0
287
     3
288
     0
  0
ENDTAB
  0
TABLE
  2
BLOCK_RECORD
  5
1
330
0
100
AcDbSymbolTable
 70
    53
  0
BLOCK_RECORD
  5
1E
102
{ACAD_XDICTIONARY
360
178
102
}
330
1
100
AcDbSymbolTableRecord
100
AcDbBlockTableRecord
  2
*MODEL_SPACE
  0
BLOCK_RECORD
  5
1A
102
{ACAD_XDICTIONARY
360
17A
102
}
330
1
100
AcDbSymbolTableRecord
100
AcDbBlockTableRecord
  2
*PAPER_SPACE
  0
BLOCK_RECORD
  5
3B2
330
1
100
AcDbSymbolTableRecord
100
AcDbBlockTableRecord
  2
_OPEN
  0
BLOCK_RECORD
  5
676A
330
1
100
AcDbSymbolTableRecord
100
AcDbBlockTableRecord
  2
_OPEN30
  0
BLOCK_RECORD
  5
6D9C
330
1
100
AcDbSymbolTableRecord
100
AcDbBlockTableRecord
  2
A$C21544DCF
  0
BLOCK_RECORD
  5
725D
330
1
100
AcDbSymbolTableRecord
100
AcDbBlockTableRecord
  2
A$C15744025
  0
BLOCK_RECORD
  5
81E7
330
1
100
AcDbSymbolTableRecord
100
AcDbBlockTableRecord
  2
*U4
  0
BLOCK_RECORD
  5
81EB
330
1
100
AcDbSymbolTableRecord
100
AcDbBlockTableRecord
  2
*U5
  0
BLOCK_RECORD
  5
81F4
330
1
100
AcDbSymbolTableRecord
100
AcDbBlockTableRecord
  2
*U6
  0
BLOCK_RECORD
  5
81FA
330
1
100
AcDbSymbolTableRecord
100
AcDbBlockTableRecord
  2
*U7
  0
BLOCK_RECORD
  5
8203
330
1
100
AcDbSymbolTableRecord
100
AcDbBlockTableRecord
  2
*U8
  0
BLOCK_RECORD
  5
8208
330
1
100
AcDbSymbolTableRecord
100
AcDbBlockTableRecord
  2
*U9
  0
BLOCK_RECORD
  5
8210
330
1
100
AcDbSymbolTableRecord
100
AcDbBlockTableRecord
  2
*U10
  0
BLOCK_RECORD
  5
8217
330
1
100
AcDbSymbolTableRecord
100
AcDbBlockTableRecord
  2
*U11
  0
BLOCK_RECORD
  5
821E
330
1
100
AcDbSymbolTableRecord
100
AcDbBlockTableRecord
  2
*D12
  0
BLOCK_RECORD
  5
822B
330
1
100
AcDbSymbolTableRecord
100
AcDbBlockTableRecord
  2
*D13
  0
BLOCK_RECORD
  5
8238
330
1
100
AcDbSymbolTableRecord
100
AcDbBlockTableRecord
  2
*D14
  0
BLOCK_RECORD
  5
8245
330
1
100
AcDbSymbolTableRecord
100
AcDbBlockTableRecord
  2
*D15
  0
BLOCK_RECORD
  5
8252
330
1
100
AcDbSymbolTableRecord
100
AcDbBlockTableRecord
  2
*D16
  0
BLOCK_RECORD
  5
825F
330
1
100
AcDbSymbolTableRecord
100
AcDbBlockTableRecord
  2
*D17
  0
BLOCK_RECORD
  5
826C
330
1
100
AcDbSymbolTableRecord
100
AcDbBlockTableRecord
  2
*D18
  0
BLOCK_RECORD
  5
8279
330
1
100
AcDbSymbolTableRecord
100
AcDbBlockTableRecord
  2
*D19
  0
BLOCK_RECORD
  5
8286
330
1
100
AcDbSymbolTableRecord
100
AcDbBlockTableRecord
  2
*D20
  0
BLOCK_RECORD
  5
8293
330
1
100
AcDbSymbolTableRecord
100
AcDbBlockTableRecord
  2
*D21
  0
BLOCK_RECORD
  5
82A0
330
1
100
AcDbSymbolTableRecord
100
AcDbBlockTableRecord
  2
*D22
  0
BLOCK_RECORD
  5
82AD
330
1
100
AcDbSymbolTableRecord
100
AcDbBlockTableRecord
  2
*D23
  0
BLOCK_RECORD
  5
82BA
330
1
100
AcDbSymbolTableRecord
100
AcDbBlockTableRecord
  2
*D24
  0
BLOCK_RECORD
  5
82C7
330
1
100
AcDbSymbolTableRecord
100
AcDbBlockTableRecord
  2
A$C430B49B3
  0
BLOCK_RECORD
  5
8765
330
1
100
AcDbSymbolTableRecord
100
AcDbBlockTableRecord
  2
*D26
  0
BLOCK_RECORD
  5
8870
330
1
100
AcDbSymbolTableRecord
100
AcDbBlockTableRecord
  2
*D27
  0
BLOCK_RECORD
  5
887D
330
1
100
AcDbSymbolTableRecord
100
AcDbBlockTableRecord
  2
*D28
  0
BLOCK_RECORD
  5
888A
330
1
100
AcDbSymbolTableRecord
100
AcDbBlockTableRecord
  2
*D29
  0
BLOCK_RECORD
  5
8897
330
1
100
AcDbSymbolTableRecord
100
AcDbBlockTableRecord
  2
*D30
  0
BLOCK_RECORD
  5
88B6
330
1
100
AcDbSymbolTableRecord
100
AcDbBlockTableRecord
  2
*D31
  0
BLOCK_RECORD
  5
88DE
330
1
100
AcDbSymbolTableRecord
100
AcDbBlockTableRecord
  2
*D32
  0
BLOCK_RECORD
  5
88EB
330
1
100
AcDbSymbolTableRecord
100
AcDbBlockTableRecord
  2
*D33
  0
BLOCK_RECORD
  5
88F8
330
1
100
AcDbSymbolTableRecord
100
AcDbBlockTableRecord
  2
*D34
  0
BLOCK_RECORD
  5
8905
330
1
100
AcDbSymbolTableRecord
100
AcDbBlockTableRecord
  2
*D35
  0
BLOCK_RECORD
  5
8912
330
1
100
AcDbSymbolTableRecord
100
AcDbBlockTableRecord
  2
*D36
  0
BLOCK_RECORD
  5
891F
330
1
100
AcDbSymbolTableRecord
100
AcDbBlockTableRecord
  2
*D37
  0
BLOCK_RECORD
  5
8950
330
1
100
AcDbSymbolTableRecord
100
AcDbBlockTableRecord
  2
*D38
  0
BLOCK_RECORD
  5
8C10
330
1
100
AcDbSymbolTableRecord
100
AcDbBlockTableRecord
  2
*D39
  0
BLOCK_RECORD
  5
8C1C
330
1
100
AcDbSymbolTableRecord
100
AcDbBlockTableRecord
  2
*D40
  0
BLOCK_RECORD
  5
8C28
330
1
100
AcDbSymbolTableRecord
100
AcDbBlockTableRecord
  2
*D41
  0
BLOCK_RECORD
  5
8E23
330
1
100
AcDbSymbolTableRecord
100
AcDbBlockTableRecord
  2
*D42
  0
BLOCK_RECORD
  5
8E43
330
1
100
AcDbSymbolTableRecord
100
AcDbBlockTableRecord
  2
*D43
  0
BLOCK_RECORD
  5
8E50
330
1
100
AcDbSymbolTableRecord
100
AcDbBlockTableRecord
  2
*D44
  0
BLOCK_RECORD
  5
9142
330
1
100
AcDbSymbolTableRecord
100
AcDbBlockTableRecord
  2
*D45
  0
BLOCK_RECORD
  5
914E
330
1
100
AcDbSymbolTableRecord
100
AcDbBlockTableRecord
  2
A$C32E15A74
  0
BLOCK_RECORD
  5
9183
330
1
100
AcDbSymbolTableRecord
100
AcDbBlockTableRecord
  2
*D47
  0
BLOCK_RECORD
  5
9199
330
1
100
AcDbSymbolTableRecord
100
AcDbBlockTableRecord
  2
*D48
  0
BLOCK_RECORD
  5
91EA
330
1
100
AcDbSymbolTableRecord
100
AcDbBlockTableRecord
  2
*D49
  0
BLOCK_RECORD
  5
9232
330
1
100
AcDbSymbolTableRecord
100
AcDbBlockTableRecord
  2
*D50
  0
BLOCK_RECORD
  5
923E
330
1
100
AcDbSymbolTableRecord
100
AcDbBlockTableRecord
  2
*D51
  0
BLOCK_RECORD
  5
925D
330
1
100
AcDbSymbolTableRecord
100
AcDbBlockTableRecord
  2
*D52
  0
ENDTAB
  0
ENDSEC
  0
SECTION
  2
BLOCKS
  0
BLOCK
  5
1F
330
1E
100
AcDbEntity
  8
0
100
AcDbBlockBegin
  2
*MODEL_SPACE
 70
     0
 10
0.0
 20
0.0
 30
0.0
  3
*MODEL_SPACE
  1

  0
ENDBLK
  5
20
330
1E
100
AcDbEntity
  8
0
100
AcDbBlockEnd
  0
BLOCK
  5
1B
330
1A
100
AcDbEntity
 67
     1
  8
0
100
AcDbBlockBegin
  2
*PAPER_SPACE
 70
     0
 10
0.0
 20
0.0
 30
0.0
  3
*PAPER_SPACE
  1

  0
ENDBLK
  5
1C
330
1A
100
AcDbEntity
 67
     1
  8
0
100
AcDbBlockEnd
  0
BLOCK
  5
3B6
330
3B2
100
AcDbEntity
  8
0
100
AcDbBlockBegin
  2
_OPEN
 70
     0
 10
0.0
 20
0.0
 30
0.0
  3
_OPEN
  1

  0
LINE
  5
3B3
330
3B2
100
AcDbEntity
  8
30
  6
CONTINUOUS
 62
     0
100
AcDbLine
 10
-1.0
 20
0.166667
 30
0.0
 11
0.0
 21
0.0
 31
0.0
  0
LINE
  5
3B4
330
3B2
100
AcDbEntity
  8
30
  6
CONTINUOUS
 62
     0
100
AcDbLine
 10
-1.0
 20
-0.166667
 30
0.0
 11
0.0
 21
0.0
 31
0.0
  0
LINE
  5
3B5
330
3B2
100
AcDbEntity
  8
30
  6
CONTINUOUS
 62
     0
100
AcDbLine
 10
0.0
 20
0.0
 30
0.0
 11
-1.0
 21
0.0
 31
0.0
  0
ENDBLK
  5
3B7
330
3B2
100
AcDbEntity
  8
0
100
AcDbBlockEnd
  0
BLOCK
  5
676E
330
676A
100
AcDbEntity
  8
0
100
AcDbBlockBegin
  2
_OPEN30
 70
     0
 10
0.0
 20
0.0
 30
0.0
  3
_OPEN30
  1

  0
LINE
  5
676B
330
676A
100
AcDbEntity
  8
0
  6
BYBLOCK
 62
     0
100
AcDbLine
 10
-1.0
 20
0.26794919
 30
0.0
 11
0.0
 21
0.0
 31
0.0
  0
LINE
  5
676C
330
676A
100
AcDbEntity
  8
0
  6
BYBLOCK
 62
     0
100
AcDbLine
 10
0.0
 20
0.0
 30
0.0
 11
-1.0
 21
-0.26794919
 31
0.0
  0
LINE
  5
676D
330
676A
100
AcDbEntity
  8
0
  6
BYBLOCK
 62
     0
100
AcDbLine
 10
0.0
 20
0.0
 30
0.0
 11
-1.0
 21
0.0
 31
0.0
  0
ENDBLK
  5
676F
330
676A
100
AcDbEntity
  8
0
100
AcDbBlockEnd
  0
BLOCK
  5
6E0C
330
6D9C
100
AcDbEntity
  8
0
100
AcDbBlockBegin
  2
A$C21544DCF
 70
     0
 10
0.0
 20
0.0
 30
0.0
  3
A$C21544DCF
  1

  0
LINE
  5
6D9D
330
6D9C
100
AcDbEntity
  8
0
  6
CONTINUOUS
100
AcDbLine
 10
0.0
 20
92.5
 30
0.0
 11
0.0
 21
-92.5
 31
0.0
  0
LINE
  5
6D9E
330
6D9C
100
AcDbEntity
  8
0
  6
CONTINUOUS
100
AcDbLine
 10
-52.5
 20
82.5
 30
0.0
 11
-52.5
 21
-82.5
 31
0.0
  0
LINE
  5
6D9F
330
6D9C
100
AcDbEntity
  8
0
  6
CONTINUOUS
100
AcDbLine
 10
52.5
 20
-82.5
 30
0.0
 11
52.5
 21
82.5
 31
0.0
  0
ARC
  5
6DA0
330
6D9C
100
AcDbEntity
  8
0
  6
CONTINUOUS
100
AcDbCircle
 10
28.0
 20
-65.0
 30
0.0
 40
5.0
210
0.0
220
0.0
230
-1.0
100
AcDbArc
 50
90.0
 51
180.0
  0
LINE
  5
6DA1
330
6D9C
100
AcDbEntity
  8
0
  6
CONTINUOUS
100
AcDbLine
 10
-49.0
 20
-25.0
 30
0.0
 11
49.0
 21
-25.0
 31
0.0
  0
LINE
  5
6DA2
330
6D9C
100
AcDbEntity
  8
0
  6
CONTINUOUS
100
AcDbLine
 10
-49.0
 20
25.0
 30
0.0
 11
49.0
 21
25.0
 31
0.0
  0
LINE
  5
6DA3
330
6D9C
100
AcDbEntity
  8
0
  6
CONTINUOUS
100
AcDbLine
 10
-52.5
 20
-51.0
 30
0.0
 11
47.0
 21
-51.0
 31
0.0
  0
LINE
  5
6DA4
330
6D9C
100
AcDbEntity
  8
0
  6
CONTINUOUS
100
AcDbLine
 10
-52.5
 20
-82.5
 30
0.0
 11
47.0
 21
-82.5
 31
0.0
  0
LINE
  5
6DA5
330
6D9C
100
AcDbEntity
  8
0
  6
CONTINUOUS
100
AcDbLine
 10
-57.5
 20
0.0
 30
0.0
 11
58.2251927359449
 21
0.0
 31
0.0
  0
LINE
  5
6DA6
330
6D9C
100
AcDbEntity
  8
0
  6
CONTINUOUS
100
AcDbLine
 10
-49.0
 20
-25.0
 30
0.0
 11
49.0
 21
-25.0
 31
0.0
  0
CIRCLE
  5
6DA7
330
6D9C
100
AcDbEntity
  8
0
  6
CONTINUOUS
100
AcDbCircle
 10
-35.0
 20
-72.0
 30
0.0
 40
5.0
  0
LINE
  5
6DA8
330
6D9C
100
AcDbEntity
  8
0
  6
CONTINUOUS
100
AcDbLine
 10
-47.0
 20
-82.5
 30
0.0
 11
-47.0
 21
-65.0
 31
0.0
  0
LINE
  5
6DA9
330
6D9C
100
AcDbEntity
  8
0
  6
CONTINUOUS
100
AcDbLine
 10
-35.0
 20
-65.0
 30
0.0
 11
-35.0
 21
-79.0
 31
0.0
  0
LINE
  5
6DAA
330
6D9C
100
AcDbEntity
  8
0
  6
CONTINUOUS
100
AcDbLine
 10
-49.0
 20
25.0
 30
0.0
 11
-49.0
 21
-25.0
 31
0.0
  0
ARC
  5
6DAB
330
6D9C
100
AcDbEntity
  8
0
  6
CONTINUOUS
100
AcDbCircle
 10
42.0
 20
-65.0
 30
0.0
 40
5.0
210
0.0
220
0.0
230
-1.0
100
AcDbArc
 50
0.0
 51
90.0
  0
LINE
  5
6DAC
330
6D9C
100
AcDbEntity
  8
0
  6
CONTINUOUS
100
AcDbLine
 10
-42.0
 20
-72.0
 30
0.0
 11
-28.0
 21
-72.0
 31
0.0
  0
LINE
  5
6DAD
330
6D9C
100
AcDbEntity
  8
0
  6
CONTINUOUS
100
AcDbLine
 10
-28.0
 20
-60.0
 30
0.0
 11
-42.0
 21
-60.0
 31
0.0
  0
CIRCLE
  5
6DAE
330
6D9C
100
AcDbEntity
  8
0
  6
CONTINUOUS
100
AcDbCircle
 10
35.0
 20
-72.0
 30
0.0
 40
5.0
  0
CIRCLE
  5
6DAF
330
6D9C
100
AcDbEntity
  8
0
  6
CONTINUOUS
100
AcDbCircle
 10
0.0
 20
-72.0
 30
0.0
 40
5.0
  0
LINE
  5
6DB0
330
6D9C
100
AcDbEntity
  8
0
  6
CONTINUOUS
100
AcDbLine
 10
-23.0
 20
-82.5
 30
0.0
 11
-23.0
 21
-65.0
 31
0.0
  0
LINE
  5
6DB1
330
6D9C
100
AcDbEntity
  8
0
  6
CONTINUOUS
100
AcDbLine
 10
12.0
 20
-82.5
 30
0.0
 11
12.0
 21
-65.0
 31
0.0
  0
LINE
  5
6DB2
330
6D9C
100
AcDbEntity
  8
0
  6
CONTINUOUS
100
AcDbLine
 10
-12.0
 20
-82.5
 30
0.0
 11
-12.0
 21
-65.0
 31
0.0
  0
LINE
  5
6DB3
330
6D9C
100
AcDbEntity
  8
0
  6
CONTINUOUS
100
AcDbLine
 10
47.0
 20
-82.5
 30
0.0
 11
47.0
 21
-65.0
 31
0.0
  0
LINE
  5
6DB4
330
6D9C
100
AcDbEntity
  8
0
  6
CONTINUOUS
100
AcDbLine
 10
23.0
 20
-82.5
 30
0.0
 11
23.0
 21
-65.0
 31
0.0
  0
LINE
  5
6DB5
330
6D9C
100
AcDbEntity
  8
0
  6
CONTINUOUS
100
AcDbLine
 10
35.0
 20
-65.0
 30
0.0
 11
35.0
 21
-79.0
 31
0.0
  0
LINE
  5
6DB6
330
6D9C
100
AcDbEntity
  8
0
  6
CONTINUOUS
100
AcDbLine
 10
49.0
 20
-25.0
 30
0.0
 11
49.0
 21
-131.5101879612343
 31
0.0
  0
LINE
  5
6DB7
330
6D9C
100
AcDbEntity
  8
0
  6
CONTINUOUS
100
AcDbLine
 10
47.0
 20
-25.0
 30
0.0
 11
47.0
 21
-131.5214696541707
 31
0.0
  0
LINE
  5
6DB8
330
6D9C
100
AcDbEntity
  8
0
  6
CONTINUOUS
100
AcDbLine
 10
48.0
 20
-149.845960942616
 30
0.0
 11
48.0
 21
-153.845960942616
 31
0.0
  0
LINE
  5
6DB9
330
6D9C
100
AcDbEntity
  8
0
  6
CONTINUOUS
100
AcDbLine
 10
47.0
 20
-134.5214696541707
 30
0.0
 11
47.0
 21
-153.845960942616
 31
0.0
  0
LINE
  5
6DBA
330
6D9C
100
AcDbEntity
  8
0
  6
CONTINUOUS
100
AcDbLine
 10
49.0
 20
-134.5101879612343
 30
0.0
 11
49.0
 21
-153.845960942616
 31
0.0
  0
SPLINE
  5
6DBB
330
6D9C
100
AcDbEntity
  8
0
  6
CONTINUOUS
100
AcDbSpline
210
0.0
220
0.0
230
1.0
 70
     8
 71
     3
 72
    12
 73
     8
 74
     0
 42
0.0000000001
 43
0.0000000001
 40
0.0
 40
0.0
 40
0.0
 40
0.0
 40
0.25
 40
0.5
 40
0.75
 40
0.9027560157721172
 40
1.0
 40
1.0
 40
1.0
 40
1.0
 10
49.0
 20
-153.845960942616
 30
0.0
 10
49.15692719906866
 20
-155.0345150325693
 30
0.0
 10
49.37589598553778
 20
-155.9207784093739
 30
0.0
 10
49.76687264274589
 20
-157.0318195661038
 30
0.0
 10
50.35438487459838
 20
-158.4317914732045
 30
0.0
 10
50.65699082607824
 20
-159.2027110017873
 30
0.0
 10
50.9174311296145
 20
-159.8815494359974
 30
0.0
 10
51.10274862781523
 20
-160.4220588057494
 30
0.0
  0
SPLINE
  5
6DBC
330
6D9C
100
AcDbEntity
  8
0
  6
CONTINUOUS
100
AcDbSpline
210
0.0
220
0.0
230
1.0
 70
     8
 71
     3
 72
    12
 73
     8
 74
     0
 42
0.0000000001
 43
0.0000000001
 40
0.0
 40
0.0
 40
0.0
 40
0.0
 40
0.25
 40
0.5
 40
0.75
 40
0.9027560157721172
 40
1.0
 40
1.0
 40
1.0
 40
1.0
 10
47.0
 20
-153.845960942616
 30
0.0
 10
46.84307280093134
 20
-155.0345150325693
 30
0.0
 10
46.6241040144622
 20
-155.9207784093739
 30
0.0
 10
46.23312735725408
 20
-157.0318195661038
 30
0.0
 10
45.64561512540166
 20
-158.4317914732045
 30
0.0
 10
45.34300917392175
 20
-159.2027110017873
 30
0.0
 10
45.0825688703855
 20
-159.8815494359974
 30
0.0
 10
44.8972513721848
 20
-160.4220588057494
 30
0.0
  0
ARC
  5
6DBD
330
6D9C
100
AcDbEntity
  8
0
  6
CONTINUOUS
100
AcDbCircle
 10
48.0
 20
-161.545960942616
 30
0.0
 40
3.299999999999998
100
AcDbArc
 50
160.0881997351804
 51
19.91180026481925
  0
CIRCLE
  5
6DBE
330
6D9C
100
AcDbEntity
  8
0
  6
CONTINUOUS
100
AcDbCircle
 10
48.0
 20
-161.545960942616
 30
0.0
 40
2.149999999999999
  0
LINE
  5
6DBF
330
6D9C
100
AcDbEntity
  8
0
  6
CONTINUOUS
100
AcDbLine
 10
47.0
 20
-153.845960942616
 30
0.0
 11
49.0
 21
-153.845960942616
 31
0.0
  0
LINE
  5
6DC0
330
6D9C
100
AcDbEntity
  8
0
  6
CONTINUOUS
100
AcDbLine
 10
47.0
 20
-149.845960942616
 30
0.0
 11
49.0
 21
-149.845960942616
 31
0.0
  0
SPLINE
  5
6DC1
330
6D9C
100
AcDbEntity
  8
0
  6
CONTINUOUS
100
AcDbSpline
210
0.0
220
0.0
230
1.0
 70
     8
 71
     3
 72
     8
 73
     4
 74
     0
 42
0.0000000001
 43
0.0000000001
 40
0.0
 40
0.0
 40
0.0
 40
0.0
 40
1.0
 40
1.0
 40
1.0
 40
1.0
 10
47.00000000073258
 20
-134.5214696541707
 30
0.0
 10
47.5463266700256
 20
-133.5619339293595
 30
0.0
 10
48.48752698565374
 20
-135.8187863795232
 30
0.0
 10
49.00000000116675
 20
-134.5101879612343
 30
0.0
  0
SPLINE
  5
6DC2
330
6D9C
100
AcDbEntity
  8
0
  6
CONTINUOUS
100
AcDbSpline
210
0.0
220
0.0
230
1.0
 70
     8
 71
     3
 72
     8
 73
     4
 74
     0
 42
0.0000000001
 43
0.0000000001
 40
0.0
 40
0.0
 40
0.0
 40
0.0
 40
1.0
 40
1.0
 40
1.0
 40
1.0
 10
47.00000000073258
 20
-131.5214696541707
 30
0.0
 10
47.5463266700256
 20
-130.5619339293595
 30
0.0
 10
48.48752698565374
 20
-132.8187863795232
 30
0.0
 10
49.00000000116675
 20
-131.5101879612343
 30
0.0
  0
LINE
  5
6DC3
330
6D9C
100
AcDbEntity
  8
0
  6
CONTINUOUS
100
AcDbLine
 10
49.0
 20
-82.5
 30
0.0
 11
52.5
 21
-82.5
 31
0.0
  0
LINE
  5
6DC4
330
6D9C
100
AcDbEntity
  8
0
  6
CONTINUOUS
100
AcDbLine
 10
-11.0
 20
25.0
 30
0.0
 11
-11.0
 21
-25.0
 31
0.0
  0
LINE
  5
6DC5
330
6D9C
100
AcDbEntity
  8
0
  6
CONTINUOUS
100
AcDbLine
 10
11.0
 20
25.0
 30
0.0
 11
11.0
 21
-25.0
 31
0.0
  0
LINE
  5
6DC6
330
6D9C
100
AcDbEntity
  8
0
  6
CONTINUOUS
100
AcDbLine
 10
49.0
 20
25.0
 30
0.0
 11
49.0
 21
-25.0
 31
0.0
  0
CIRCLE
  5
6DC7
330
6D9C
100
AcDbEntity
  8
0
  6
CONTINUOUS
100
AcDbCircle
 10
17.5
 20
-63.0
 30
0.0
 40
4.0
  0
LINE
  5
6DC8
330
6D9C
100
AcDbEntity
  8
0
  6
CONTINUOUS
100
AcDbLine
 10
12.0
 20
-63.0
 30
0.0
 11
23.0
 21
-63.0
 31
0.0
  0
LINE
  5
6DC9
330
6D9C
100
AcDbEntity
  8
0
  6
CONTINUOUS
100
AcDbLine
 10
7.0
 20
-60.0
 30
0.0
 11
-7.0
 21
-60.0
 31
0.0
  0
LINE
  5
6DCA
330
6D9C
100
AcDbEntity
  8
0
  6
CONTINUOUS
100
AcDbLine
 10
-7.0
 20
-72.0
 30
0.0
 11
7.0
 21
-72.0
 31
0.0
  0
ARC
  5
6DCB
330
6D9C
100
AcDbEntity
  8
0
  6
CONTINUOUS
100
AcDbCircle
 10
7.0
 20
-65.0
 30
0.0
 40
5.0
210
0.0
220
0.0
230
-1.0
100
AcDbArc
 50
0.0
 51
90.0
  0
ARC
  5
6DCC
330
6D9C
100
AcDbEntity
  8
0
  6
CONTINUOUS
100
AcDbCircle
 10
-7.0
 20
-65.0
 30
0.0
 40
5.0
210
0.0
220
0.0
230
-1.0
100
AcDbArc
 50
90.0
 51
180.0
  0
LINE
  5
6DCD
330
6D9C
100
AcDbEntity
  8
0
  6
CONTINUOUS
100
AcDbLine
 10
17.5
 20
-57.5
 30
0.0
 11
17.5
 21
-68.5
 31
0.0
  0
LINE
  5
6DCE
330
6D9C
100
AcDbEntity
  8
0
  6
CONTINUOUS
100
AcDbLine
 10
42.0
 20
-60.0
 30
0.0
 11
28.0
 21
-60.0
 31
0.0
  0
LINE
  5
6DCF
330
6D9C
100
AcDbEntity
  8
0
  6
CONTINUOUS
100
AcDbLine
 10
28.0
 20
-72.0
 30
0.0
 11
42.0
 21
-72.0
 31
0.0
  0
ARC
  5
6DD0
330
6D9C
100
AcDbEntity
  8
0
  6
CONTINUOUS
100
AcDbCircle
 10
-28.0
 20
-65.0
 30
0.0
 40
5.0
210
0.0
220
0.0
230
-1.0
100
AcDbArc
 50
0.0
 51
90.0
  0
ARC
  5
6DD1
330
6D9C
100
AcDbEntity
  8
0
  6
CONTINUOUS
100
AcDbCircle
 10
-42.0
 20
-65.0
 30
0.0
 40
5.0
210
0.0
220
0.0
230
-1.0
100
AcDbArc
 50
90.0
 51
180.0
  0
LINE
  5
6DD2
330
6D9C
100
AcDbEntity
  8
0
  6
CONTINUOUS
100
AcDbLine
 10
49.0
 20
-51.0
 30
0.0
 11
52.5
 21
-51.0
 31
0.0
  0
LINE
  5
6DD3
330
6D9C
100
AcDbEntity
  8
0
  6
CONTINUOUS
100
AcDbLine
 10
-7.0
 20
-18.5
 30
0.0
 11
-6.999999999999943
 21
20.15486870581022
 31
0.0
  0
LINE
  5
6DD4
330
6D9C
100
AcDbEntity
  8
0
  6
CONTINUOUS
100
AcDbLine
 10
7.0
 20
-18.5
 30
0.0
 11
7.000000000000056
 21
20.15486870581028
 31
0.0
  0
LINE
  5
6DD5
330
6D9C
100
AcDbEntity
  8
0
  6
CONTINUOUS
100
AcDbLine
 10
-7.0
 20
-18.5
 30
0.0
 11
7.0
 21
-18.5
 31
0.0
  0
LINE
  5
6DD6
330
6D9C
100
AcDbEntity
  8
0
  6
CONTINUOUS
100
AcDbLine
 10
7.0
 20
6.840789306861521
 30
0.0
 11
-6.999999999999147
 21
6.84078930686158
 31
0.0
  0
LINE
  5
6DD7
330
6D9C
100
AcDbEntity
  8
0
  6
CONTINUOUS
100
AcDbLine
 10
7.0
 20
20.15486870581028
 30
0.0
 11
-7.000000000000909
 21
20.15486870581022
 31
0.0
  0
LINE
  5
6DD8
330
6D9C
100
AcDbEntity
  8
0
  6
CONTINUOUS
100
AcDbLine
 10
7.0
 20
15.23995644007664
 30
0.0
 11
-7.0
 21
15.23995644007664
 31
0.0
  0
LINE
  5
6DD9
330
6D9C
100
AcDbEntity
  8
0
  6
CONTINUOUS
100
AcDbLine
 10
31.10000000000002
 20
10.0495722744776
 30
0.0
 11
31.10000000000002
 21
-6.431389353983262
 31
0.0
  0
LINE
  5
6DDA
330
6D9C
100
AcDbEntity
  8
0
  6
CONTINUOUS
100
AcDbLine
 10
31.60000000000001
 20
-6.33774752654889
 30
0.0
 11
31.60000000000001
 21
-16.98662646131889
 31
0.0
  0
LINE
  5
6DDB
330
6D9C
100
AcDbEntity
  8
0
  6
CONTINUOUS
100
AcDbLine
 10
27.0
 20
-7.000000000000027
 30
0.0
 11
27.0
 21
-11.00000000000002
 31
0.0
  0
LINE
  5
6DDC
330
6D9C
100
AcDbEntity
  8
0
  6
CONTINUOUS
100
AcDbLine
 10
36.19999999999999
 20
-7.000000000000027
 30
0.0
 11
36.19999999999999
 21
-11.00000000000002
 31
0.0
  0
LINE
  5
6DDD
330
6D9C
100
AcDbEntity
  8
0
  6
CONTINUOUS
100
AcDbLine
 10
27.0
 20
-12.0
 30
0.0
 11
36.2000000000001
 21
-12.0
 31
0.0
  0
LINE
  5
6DDE
330
6D9C
100
AcDbEntity
  8
0
  6
CONTINUOUS
100
AcDbLine
 10
27.0
 20
-16.0
 30
0.0
 11
36.2000000000001
 21
-16.0
 31
0.0
  0
LINE
  5
6DDF
330
6D9C
100
AcDbEntity
  8
0
  6
CONTINUOUS
100
AcDbLine
 10
25.36102323011846
 20
-14.0
 30
0.0
 11
37.44706175765649
 21
-14.0
 31
0.0
  0
LINE
  5
6DE0
330
6D9C
100
AcDbEntity
  8
0
  6
CONTINUOUS
100
AcDbLine
 10
27.0
 20
-11.0
 30
0.0
 11
36.2000000000001
 21
-11.0
 31
0.0
  0
LINE
  5
6DE1
330
6D9C
100
AcDbEntity
  8
0
  6
CONTINUOUS
100
AcDbLine
 10
27.0
 20
-12.00000000000001
 30
0.0
 11
27.0
 21
-16.00000000000003
 31
0.0
  0
LINE
  5
6DE2
330
6D9C
100
AcDbEntity
  8
0
  6
CONTINUOUS
100
AcDbLine
 10
36.19999999999999
 20
-12.00000000000001
 30
0.0
 11
36.19999999999999
 21
-16.00000000000003
 31
0.0
  0
CIRCLE
  5
6DE3
330
6D9C
100
AcDbEntity
  8
0
  6
CONTINUOUS
100
AcDbCircle
 10
31.10000000000002
 20
-1.900000000000004
 30
0.0
 40
2.5
  0
CIRCLE
  5
6DE4
330
6D9C
100
AcDbEntity
  8
0
  6
CONTINUOUS
100
AcDbCircle
 10
31.10000000000002
 20
-1.900000000000004
 30
0.0
 40
3.6
  0
LINE
  5
6DE5
330
6D9C
100
AcDbEntity
  8
0
  6
CONTINUOUS
100
AcDbLine
 10
25.4609078460486
 20
-1.900000000000004
 30
0.0
 11
36.34833098242575
 21
-1.900000000000004
 31
0.0
  0
LINE
  5
6DE6
330
6D9C
100
AcDbEntity
  8
0
  6
CONTINUOUS
100
AcDbLine
 10
27.0
 20
-7.0
 30
0.0
 11
36.2000000000001
 21
-7.0
 31
0.0
  0
LINE
  5
6DE7
330
6D9C
100
AcDbEntity
  8
0
  6
CONTINUOUS
100
AcDbLine
 10
25.36102323011846
 20
-9.0
 30
0.0
 11
37.44706175765649
 21
-9.0
 31
0.0
  0
CIRCLE
  5
6DE8
330
6D9C
100
AcDbEntity
  8
0
  6
CONTINUOUS
100
AcDbCircle
 10
31.10000000000002
 20
5.799999999999952
 30
0.0
 40
2.75
  0
LINE
  5
6DE9
330
6D9C
100
AcDbEntity
  8
0
  6
CONTINUOUS
100
AcDbLine
 10
25.4609078460486
 20
5.800000000000013
 30
0.0
 11
36.34833098242575
 21
5.800000000000013
 31
0.0
  0
ARC
  5
6DEA
330
6D9C
100
AcDbEntity
  8
0
  6
CONTINUOUS
100
AcDbCircle
 10
-28.0
 20
65.0
 30
0.0
 40
5.0
100
AcDbArc
 50
270.0
 51
0.0
  0
LINE
  5
6DEB
330
6D9C
100
AcDbEntity
  8
0
  6
CONTINUOUS
100
AcDbLine
 10
-52.5
 20
51.0
 30
0.0
 11
52.5
 21
51.0
 31
0.0
  0
LINE
  5
6DEC
330
6D9C
100
AcDbEntity
  8
0
  6
CONTINUOUS
100
AcDbLine
 10
52.5
 20
82.5
 30
0.0
 11
-52.5
 21
82.5
 31
0.0
  0
LINE
  5
6DED
330
6D9C
100
AcDbEntity
  8
0
  6
CONTINUOUS
100
AcDbLine
 10
-47.0
 20
82.5
 30
0.0
 11
-47.0
 21
65.0
 31
0.0
  0
ARC
  5
6DEE
330
6D9C
100
AcDbEntity
  8
0
  6
CONTINUOUS
100
AcDbCircle
 10
-42.0
 20
65.0
 30
0.0
 40
5.0
100
AcDbArc
 50
180.0
 51
270.0
  0
CIRCLE
  5
6DEF
330
6D9C
100
AcDbEntity
  8
0
  6
CONTINUOUS
100
AcDbCircle
 10
-35.0
 20
72.0
 30
0.0
 40
5.0
  0
LINE
  5
6DF0
330
6D9C
100
AcDbEntity
  8
0
  6
CONTINUOUS
100
AcDbLine
 10
-35.0
 20
79.0
 30
0.0
 11
-35.0
 21
65.0
 31
0.0
  0
LINE
  5
6DF1
330
6D9C
100
AcDbEntity
  8
0
  6
CONTINUOUS
100
AcDbLine
 10
-28.0
 20
60.0
 30
0.0
 11
-42.0
 21
60.0
 31
0.0
  0
LINE
  5
6DF2
330
6D9C
100
AcDbEntity
  8
0
  6
CONTINUOUS
100
AcDbLine
 10
-42.0
 20
72.0
 30
0.0
 11
-28.0
 21
72.0
 31
0.0
  0
LINE
  5
6DF3
330
6D9C
100
AcDbEntity
  8
0
  6
CONTINUOUS
100
AcDbLine
 10
-23.0
 20
82.5
 30
0.0
 11
-23.0
 21
65.0
 31
0.0
  0
LINE
  5
6DF4
330
6D9C
100
AcDbEntity
  8
0
  6
CONTINUOUS
100
AcDbLine
 10
12.0
 20
82.5
 30
0.0
 11
12.0
 21
65.0
 31
0.0
  0
LINE
  5
6DF5
330
6D9C
100
AcDbEntity
  8
0
  6
CONTINUOUS
100
AcDbLine
 10
-12.0
 20
82.5
 30
0.0
 11
-12.0
 21
65.0
 31
0.0
  0
LINE
  5
6DF6
330
6D9C
100
AcDbEntity
  8
0
  6
CONTINUOUS
100
AcDbLine
 10
23.0
 20
82.5
 30
0.0
 11
23.0
 21
65.0
 31
0.0
  0
LINE
  5
6DF7
330
6D9C
100
AcDbEntity
  8
0
  6
CONTINUOUS
100
AcDbLine
 10
47.0
 20
82.5
 30
0.0
 11
47.0
 21
65.0
 31
0.0
  0
CIRCLE
  5
6DF8
330
6D9C
100
AcDbEntity
  8
0
  6
CONTINUOUS
100
AcDbCircle
 10
0.0
 20
72.0
 30
0.0
 40
5.0
  0
LINE
  5
6DF9
330
6D9C
100
AcDbEntity
  8
0
  6
CONTINUOUS
100
AcDbLine
 10
7.0
 20
60.0
 30
0.0
 11
-7.0
 21
60.0
 31
0.0
  0
LINE
  5
6DFA
330
6D9C
100
AcDbEntity
  8
0
  6
CONTINUOUS
100
AcDbLine
 10
-7.0
 20
72.0
 30
0.0
 11
7.0
 21
72.0
 31
0.0
  0
LINE
  5
6DFB
330
6D9C
100
AcDbEntity
  8
0
  6
CONTINUOUS
100
AcDbLine
 10
-17.5
 20
68.5
 30
0.0
 11
-17.5
 21
57.5
 31
0.0
  0
ARC
  5
6DFC
330
6D9C
100
AcDbEntity
  8
0
  6
CONTINUOUS
100
AcDbCircle
 10
-7.0
 20
65.0
 30
0.0
 40
5.0
100
AcDbArc
 50
180.0
 51
270.0
  0
LINE
  5
6DFD
330
6D9C
100
AcDbEntity
  8
0
  6
CONTINUOUS
100
AcDbLine
 10
-23.0
 20
63.0
 30
0.0
 11
-12.0
 21
63.0
 31
0.0
  0
CIRCLE
  5
6DFE
330
6D9C
100
AcDbEntity
  8
0
  6
CONTINUOUS
100
AcDbCircle
 10
-17.5
 20
63.0
 30
0.0
 40
4.0
  0
ARC
  5
6DFF
330
6D9C
100
AcDbEntity
  8
0
  6
CONTINUOUS
100
AcDbCircle
 10
7.0
 20
65.0
 30
0.0
 40
5.0
100
AcDbArc
 50
270.0
 51
0.0
  0
LINE
  5
6E00
330
6D9C
100
AcDbEntity
  8
0
  6
CONTINUOUS
100
AcDbLine
 10
42.0
 20
60.0
 30
0.0
 11
28.0
 21
60.0
 31
0.0
  0
LINE
  5
6E01
330
6D9C
100
AcDbEntity
  8
0
  6
CONTINUOUS
100
AcDbLine
 10
28.0
 20
72.0
 30
0.0
 11
42.0
 21
72.0
 31
0.0
  0
CIRCLE
  5
6E02
330
6D9C
100
AcDbEntity
  8
0
  6
CONTINUOUS
100
AcDbCircle
 10
35.0
 20
72.0
 30
0.0
 40
5.0
  0
LINE
  5
6E03
330
6D9C
100
AcDbEntity
  8
0
  6
CONTINUOUS
100
AcDbLine
 10
35.0
 20
79.0
 30
0.0
 11
35.0
 21
65.0
 31
0.0
  0
ARC
  5
6E04
330
6D9C
100
AcDbEntity
  8
0
  6
CONTINUOUS
100
AcDbCircle
 10
28.0
 20
65.0
 30
0.0
 40
5.0
100
AcDbArc
 50
180.0
 51
270.0
  0
ARC
  5
6E05
330
6D9C
100
AcDbEntity
  8
0
  6
CONTINUOUS
100
AcDbCircle
 10
42.0
 20
65.0
 30
0.0
 40
5.0
100
AcDbArc
 50
270.0
 51
0.0
  0
LINE
  5
6E06
330
6D9C
100
AcDbEntity
  8
0
  6
PHANTOM
100
AcDbLine
 10
19.0
 20
129.4999999999999
 30
0.0
 11
19.0
 21
82.49999999999992
 31
0.0
  0
LINE
  5
6E07
330
6D9C
100
AcDbEntity
  8
0
  6
PHANTOM
100
AcDbLine
 10
16.0
 20
129.4999999999999
 30
0.0
 11
16.0
 21
82.49999999999992
 31
0.0
  0
LINE
  5
6E08
330
6D9C
100
AcDbEntity
  8
0
  6
PHANTOM
100
AcDbLine
 10
-16.0
 20
129.4999999999999
 30
0.0
 11
-16.0
 21
82.49999999999992
 31
0.0
  0
LINE
  5
6E09
330
6D9C
100
AcDbEntity
  8
0
  6
PHANTOM
100
AcDbLine
 10
-19.0
 20
129.4999999999999
 30
0.0
 11
-19.0
 21
82.49999999999992
 31
0.0
  0
LINE
  5
6E0A
330
6D9C
100
AcDbEntity
  8
0
  6
PHANTOM
100
AcDbLine
 10
-16.0
 20
129.4999999999999
 30
0.0
 11
-19.0
 21
129.4999999999999
 31
0.0
  0
LINE
  5
6E0B
330
6D9C
100
AcDbEntity
  8
0
  6
PHANTOM
100
AcDbLine
 10
16.0
 20
129.4999999999999
 30
0.0
 11
19.0
 21
129.4999999999999
 31
0.0
  0
ENDBLK
  5
6E0D
330
6D9C
100
AcDbEntity
  8
0
100
AcDbBlockEnd
  0
BLOCK
  5
731F
330
725D
100
AcDbEntity
  8
0
100
AcDbBlockBegin
  2
A$C15744025
 70
     0
 10
0.0
 20
0.0
 30
0.0
  3
A$C15744025
  1

  0
LINE
  5
725E
330
725D
100
AcDbEntity
  8
0
100
AcDbLine
 10
46.0
 20
-174.5
 30
0.0
 11
74.0
 21
-174.5
 31
0.0
  0
LINE
  5
725F
330
725D
100
AcDbEntity
  8
0
100
AcDbLine
 10
49.0
 20
-160.0
 30
0.0
 11
71.0
 21
-160.0
 31
0.0
  0
LINE
  5
7260
330
725D
100
AcDbEntity
  8
0
100
AcDbLine
 10
49.0
 20
160.0000000000002
 30
0.0
 11
71.0
 21
160.0000000000002
 31
0.0
  0
LINE
  5
7261
330
725D
100
AcDbEntity
  8
0
100
AcDbLine
 10
46.0
 20
174.5000000000002
 30
0.0
 11
74.0
 21
174.5000000000002
 31
0.0
  0
LINE
  5
7262
330
725D
100
AcDbEntity
  8
0
100
AcDbLine
 10
-70.00000000000007
 20
50.99999999999909
 30
0.0
 11
70.0
 21
50.99999999999909
 31
0.0
  0
LINE
  5
7263
330
725D
100
AcDbEntity
  8
0
100
AcDbLine
 10
-53.0
 20
45.0000000000001
 30
0.0
 11
53.0
 21
45.0000000000001
 31
0.0
  0
LINE
  5
7264
330
725D
100
AcDbEntity
  8
0
100
AcDbLine
 10
70.0
 20
130.0
 30
0.0
 11
-70.00000000000007
 21
130.0
 31
0.0
  0
LINE
  5
7265
330
725D
100
AcDbEntity
  8
0
100
AcDbLine
 10
-53.0
 20
-45.0
 30
0.0
 11
53.0
 21
-45.0
 31
0.0
  0
LINE
  5
7266
330
725D
100
AcDbEntity
  8
0
100
AcDbLine
 10
-75.00000000000007
 20
0.0
 30
0.0
 11
75.0
 21
0.0
 31
0.0
  0
LINE
  5
7267
330
725D
100
AcDbEntity
  8
0
100
AcDbLine
 10
36.0
 20
-114.0
 30
0.0
 11
54.0
 21
-114.0
 31
0.0
  0
LINE
  5
7268
330
725D
100
AcDbEntity
  8
0
100
AcDbLine
 10
36.0
 20
114.0000000000001
 30
0.0
 11
54.0
 21
114.0000000000001
 31
0.0
  0
LINE
  5
7269
330
725D
100
AcDbEntity
  8
0
100
AcDbLine
 10
-70.00000000000007
 20
-130.0
 30
0.0
 11
70.0
 21
-130.0
 31
0.0
  0
LINE
  5
726A
330
725D
100
AcDbEntity
  8
0
100
AcDbLine
 10
-70.00000000000007
 20
-51.0
 30
0.0
 11
70.0
 21
-51.0
 31
0.0
  0
LINE
  5
726B
330
725D
100
AcDbEntity
  8
0
100
AcDbLine
 10
0.0
 20
178.5
 30
0.0
 11
0.0
 21
-178.5
 31
0.0
  0
LINE
  5
726C
330
725D
100
AcDbEntity
  8
0
100
AcDbLine
 10
-25.49999999999977
 20
-45.0
 30
0.0
 11
-25.5
 21
45.0000000000001
 31
0.0
  0
LINE
  5
726D
330
725D
100
AcDbEntity
  8
0
100
AcDbLine
 10
25.49999999999977
 20
-45.0
 30
0.0
 11
25.49999999999977
 21
45.0000000000001
 31
0.0
  0
LINE
  5
726E
330
725D
100
AcDbEntity
  8
0
100
AcDbLine
 10
-70.00000000000007
 20
130.0
 30
0.0
 11
-70.00000000000007
 21
-130.0
 31
0.0
  0
ARC
  5
726F
330
725D
100
AcDbEntity
  8
0
100
AcDbCircle
 10
-53.0
 20
-40.0
 30
0.0
 40
5.0
100
AcDbArc
 50
180.0
 51
270.0
  0
LINE
  5
7270
330
725D
100
AcDbEntity
  8
0
100
AcDbLine
 10
-71.00000000000004
 20
-160.0
 30
0.0
 11
-49.0
 21
-160.0
 31
0.0
  0
LINE
  5
7271
330
725D
100
AcDbEntity
  8
0
100
AcDbLine
 10
-74.00000000000004
 20
-150.0000000000003
 30
0.0
 11
-59.0
 21
-130.0000000000003
 31
0.0
  0
LINE
  5
7272
330
725D
100
AcDbEntity
  8
0
100
AcDbLine
 10
-74.00000000000004
 20
-174.5
 30
0.0
 11
-46.0
 21
-174.5
 31
0.0
  0
CIRCLE
  5
7273
330
725D
100
AcDbEntity
  8
0
100
AcDbCircle
 10
60.0
 20
-160.0
 30
0.0
 40
7.0
210
0.0
220
0.0
230
-1.0
  0
LINE
  5
7274
330
725D
100
AcDbEntity
  8
0
100
AcDbLine
 10
-74.00000000000004
 20
-174.5
 30
0.0
 11
-74.00000000000004
 21
-150.0000000000003
 31
0.0
  0
LINE
  5
7275
330
725D
100
AcDbEntity
  8
0
100
AcDbLine
 10
14.0
 20
-174.5
 30
0.0
 11
14.0
 21
-130.0
 31
0.0
  0
LINE
  5
7276
330
725D
100
AcDbEntity
  8
0
100
AcDbLine
 10
31.0
 20
-130.0000000000003
 30
0.0
 11
46.0
 21
-150.0000000000003
 31
0.0
  0
LINE
  5
7277
330
725D
100
AcDbEntity
  8
0
100
AcDbLine
 10
-46.0
 20
-150.0000000000003
 30
0.0
 11
-31.0
 21
-130.0000000000003
 31
0.0
  0
LINE
  5
7278
330
725D
100
AcDbEntity
  8
0
100
AcDbLine
 10
-14.0
 20
-174.5
 30
0.0
 11
-14.0
 21
-130.0
 31
0.0
  0
LINE
  5
7279
330
725D
100
AcDbEntity
  8
0
100
AcDbLine
 10
-11.0
 20
-160.0
 30
0.0
 11
11.0
 21
-160.0
 31
0.0
  0
LINE
  5
727A
330
725D
100
AcDbEntity
  8
0
100
AcDbLine
 10
-14.0
 20
-174.5
 30
0.0
 11
14.0
 21
-174.5
 31
0.0
  0
CIRCLE
  5
727B
330
725D
100
AcDbEntity
  8
0
100
AcDbCircle
 10
0.0
 20
-160.0
 30
0.0
 40
7.0
210
0.0
220
0.0
230
-1.0
  0
LINE
  5
727C
330
725D
100
AcDbEntity
  8
0
100
AcDbLine
 10
-60.0
 20
-149.0
 30
0.0
 11
-60.0
 21
-171.0
 31
0.0
  0
LINE
  5
727D
330
725D
100
AcDbEntity
  8
0
100
AcDbLine
 10
-46.0
 20
-174.5
 30
0.0
 11
-46.0
 21
-150.0000000000003
 31
0.0
  0
LINE
  5
727E
330
725D
100
AcDbEntity
  8
0
100
AcDbLine
 10
46.0
 20
-174.5
 30
0.0
 11
46.0
 21
-150.0000000000003
 31
0.0
  0
LINE
  5
727F
330
725D
100
AcDbEntity
  8
0
100
AcDbLine
 10
-9.0
 20
-114.0
 30
0.0
 11
9.0
 21
-114.0
 31
0.0
  0
LINE
  5
7280
330
725D
100
AcDbEntity
  8
0
100
AcDbLine
 10
-45.0000000000001
 20
-109.3811978464831
 30
0.0
 11
-41.0
 21
-111.6905989232416
 31
0.0
  0
LINE
  5
7281
330
725D
100
AcDbEntity
  8
0
100
AcDbLine
 10
-49.0
 20
-111.6905989232416
 30
0.0
 11
-45.0000000000001
 21
-109.3811978464831
 31
0.0
  0
LINE
  5
7282
330
725D
100
AcDbEntity
  8
0
100
AcDbLine
 10
-45.0
 20
-123.0
 30
0.0
 11
-45.0
 21
-105.0
 31
0.0
  0
ARC
  5
7283
330
725D
100
AcDbEntity
  8
0
100
AcDbCircle
 10
45.0
 20
-114.0
 30
0.0
 40
5.5
210
0.0
220
0.0
230
-1.0
100
AcDbArc
 50
0.0
 51
180.0
  0
LINE
  5
7284
330
725D
100
AcDbEntity
  8
0
100
AcDbLine
 10
-54.0
 20
-114.0
 30
0.0
 11
-36.0
 21
-114.0
 31
0.0
  0
LINE
  5
7285
330
725D
100
AcDbEntity
  8
0
100
AcDbLine
 10
-41.0
 20
-111.6905989232416
 30
0.0
 11
-41.0
 21
-116.3094010767586
 31
0.0
  0
LINE
  5
7286
330
725D
100
AcDbEntity
  8
0
100
AcDbLine
 10
-49.0
 20
-116.3094010767586
 30
0.0
 11
-49.0
 21
-111.6905989232416
 31
0.0
  0
LINE
  5
7287
330
725D
100
AcDbEntity
  8
0
100
AcDbLine
 10
-45.0
 20
-118.6188021535169
 30
0.0
 11
-49.0
 21
-116.3094010767586
 31
0.0
  0
LINE
  5
7288
330
725D
100
AcDbEntity
  8
0
100
AcDbLine
 10
-41.0
 20
-116.3094010767586
 30
0.0
 11
-45.0
 21
-118.6188021535169
 31
0.0
  0
LINE
  5
7289
330
725D
100
AcDbEntity
  8
0
100
AcDbLine
 10
-50.5
 20
-114.0
 30
0.0
 11
-50.5
 21
-130.0
 31
0.0
  0
LINE
  5
728A
330
725D
100
AcDbEntity
  8
0
100
AcDbLine
 10
-39.5
 20
-114.0
 30
0.0
 11
-39.5
 21
-130.0
 31
0.0
  0
ARC
  5
728B
330
725D
100
AcDbEntity
  8
0
100
AcDbCircle
 10
45.0
 20
-114.0
 30
0.0
 40
8.0
210
0.0
220
0.0
230
-1.0
100
AcDbArc
 50
226.5674634422111
 51
313.4325365577887
  0
LINE
  5
728C
330
725D
100
AcDbEntity
  8
0
100
AcDbLine
 10
-22.5
 20
-99.0
 30
0.0
 11
-22.5
 21
-115.0
 31
0.0
  0
CIRCLE
  5
728D
330
725D
100
AcDbEntity
  8
0
100
AcDbCircle
 10
-22.5
 20
-107.0
 30
0.0
 40
4.0
  0
LINE
  5
728E
330
725D
100
AcDbEntity
  8
0
100
AcDbLine
 10
-14.5
 20
-107.0
 30
0.0
 11
-30.5
 21
-107.0
 31
0.0
  0
LINE
  5
728F
330
725D
100
AcDbEntity
  8
0
100
AcDbLine
 10
30.5
 20
-107.0
 30
0.0
 11
14.5
 21
-107.0
 31
0.0
  0
CIRCLE
  5
7290
330
725D
100
AcDbEntity
  8
0
100
AcDbCircle
 10
22.5
 20
-107.0
 30
0.0
 40
4.0
  0
LINE
  5
7291
330
725D
100
AcDbEntity
  8
0
100
AcDbLine
 10
-0.0000000000001137
 20
-109.3811978464831
 30
0.0
 11
4.0
 21
-111.6905989232416
 31
0.0
  0
LINE
  5
7292
330
725D
100
AcDbEntity
  8
0
100
AcDbLine
 10
-4.0
 20
-111.6905989232416
 30
0.0
 11
-0.0000000000001137
 21
-109.3811978464831
 31
0.0
  0
LINE
  5
7293
330
725D
100
AcDbEntity
  8
0
100
AcDbLine
 10
22.5
 20
-99.0
 30
0.0
 11
22.5
 21
-115.0
 31
0.0
  0
LINE
  5
7294
330
725D
100
AcDbEntity
  8
0
100
AcDbLine
 10
0.0
 20
-123.0
 30
0.0
 11
0.0
 21
-105.0
 31
0.0
  0
ARC
  5
7295
330
725D
100
AcDbEntity
  8
0
100
AcDbCircle
 10
0.0
 20
-114.0
 30
0.0
 40
5.5
210
0.0
220
0.0
230
-1.0
100
AcDbArc
 50
0.0
 51
180.0
  0
LINE
  5
7296
330
725D
100
AcDbEntity
  8
0
100
AcDbLine
 10
4.0
 20
-111.6905989232416
 30
0.0
 11
4.0
 21
-116.3094010767586
 31
0.0
  0
LINE
  5
7297
330
725D
100
AcDbEntity
  8
0
100
AcDbLine
 10
-4.0
 20
-116.3094010767586
 30
0.0
 11
-4.0
 21
-111.6905989232416
 31
0.0
  0
LINE
  5
7298
330
725D
100
AcDbEntity
  8
0
100
AcDbLine
 10
0.0
 20
-118.6188021535169
 30
0.0
 11
-4.0
 21
-116.3094010767586
 31
0.0
  0
LINE
  5
7299
330
725D
100
AcDbEntity
  8
0
100
AcDbLine
 10
4.0
 20
-116.3094010767586
 30
0.0
 11
0.0
 21
-118.6188021535169
 31
0.0
  0
LINE
  5
729A
330
725D
100
AcDbEntity
  8
0
100
AcDbLine
 10
-5.5
 20
-114.0
 30
0.0
 11
-5.5
 21
-130.0
 31
0.0
  0
LINE
  5
729B
330
725D
100
AcDbEntity
  8
0
100
AcDbLine
 10
5.5
 20
-114.0
 30
0.0
 11
5.5
 21
-130.0
 31
0.0
  0
ARC
  5
729C
330
725D
100
AcDbEntity
  8
0
100
AcDbCircle
 10
0.0
 20
-114.0
 30
0.0
 40
8.0
210
0.0
220
0.0
230
-1.0
100
AcDbArc
 50
226.5674634422111
 51
313.4325365577887
  0
LINE
  5
729D
330
725D
100
AcDbEntity
  8
0
100
AcDbLine
 10
44.99999999999988
 20
-109.3811978464831
 30
0.0
 11
49.0
 21
-111.6905989232416
 31
0.0
  0
LINE
  5
729E
330
725D
100
AcDbEntity
  8
0
100
AcDbLine
 10
41.0
 20
-111.6905989232416
 30
0.0
 11
44.99999999999988
 21
-109.3811978464831
 31
0.0
  0
LINE
  5
729F
330
725D
100
AcDbEntity
  8
0
100
AcDbLine
 10
45.0
 20
-123.0
 30
0.0
 11
45.0
 21
-105.0
 31
0.0
  0
ARC
  5
72A0
330
725D
100
AcDbEntity
  8
0
100
AcDbCircle
 10
-45.0
 20
-114.0
 30
0.0
 40
5.5
210
0.0
220
0.0
230
-1.0
100
AcDbArc
 50
0.0
 51
180.0
  0
LINE
  5
72A1
330
725D
100
AcDbEntity
  8
0
100
AcDbLine
 10
49.0
 20
-111.6905989232416
 30
0.0
 11
49.0
 21
-116.3094010767586
 31
0.0
  0
LINE
  5
72A2
330
725D
100
AcDbEntity
  8
0
100
AcDbLine
 10
41.0
 20
-116.3094010767586
 30
0.0
 11
41.0
 21
-111.6905989232416
 31
0.0
  0
LINE
  5
72A3
330
725D
100
AcDbEntity
  8
0
100
AcDbLine
 10
45.0
 20
-118.6188021535169
 30
0.0
 11
41.0
 21
-116.3094010767586
 31
0.0
  0
LINE
  5
72A4
330
725D
100
AcDbEntity
  8
0
100
AcDbLine
 10
49.0
 20
-116.3094010767586
 30
0.0
 11
45.0
 21
-118.6188021535169
 31
0.0
  0
LINE
  5
72A5
330
725D
100
AcDbEntity
  8
0
100
AcDbLine
 10
39.5
 20
-114.0
 30
0.0
 11
39.5
 21
-130.0
 31
0.0
  0
LINE
  5
72A6
330
725D
100
AcDbEntity
  8
0
100
AcDbLine
 10
50.5
 20
-114.0
 30
0.0
 11
50.5
 21
-130.0
 31
0.0
  0
ARC
  5
72A7
330
725D
100
AcDbEntity
  8
0
100
AcDbCircle
 10
-45.0
 20
-114.0
 30
0.0
 40
8.0
210
0.0
220
0.0
230
-1.0
100
AcDbArc
 50
226.5674634422111
 51
313.4325365577887
  0
LINE
  5
72A8
330
725D
100
AcDbEntity
  8
0
100
AcDbLine
 10
14.0
 20
174.5000000000002
 30
0.0
 11
14.0
 21
130.0
 31
0.0
  0
LINE
  5
72A9
330
725D
100
AcDbEntity
  8
0
100
AcDbLine
 10
31.0
 20
130.0
 30
0.0
 11
46.0
 21
150.0
 31
0.0
  0
LINE
  5
72AA
330
725D
100
AcDbEntity
  8
0
100
AcDbLine
 10
-46.0
 20
150.0
 30
0.0
 11
-31.0
 21
130.0
 31
0.0
  0
LINE
  5
72AB
330
725D
100
AcDbEntity
  8
0
100
AcDbLine
 10
-74.00000000000004
 20
150.0
 30
0.0
 11
-59.0
 21
130.0
 31
0.0
  0
LINE
  5
72AC
330
725D
100
AcDbEntity
  8
0
100
AcDbLine
 10
-14.0
 20
174.5000000000002
 30
0.0
 11
-14.0
 21
130.0
 31
0.0
  0
LINE
  5
72AD
330
725D
100
AcDbEntity
  8
0
100
AcDbLine
 10
17.99999999999988
 20
-31.0
 30
0.0
 11
-18.0
 21
-31.0
 31
0.0
  0
LINE
  5
72AE
330
725D
100
AcDbEntity
  8
0
100
AcDbLine
 10
17.0
 20
17.0337027253521
 30
0.0
 11
-17.0
 21
17.0337027253521
 31
0.0
  0
LINE
  5
72AF
330
725D
100
AcDbEntity
  8
0
100
AcDbLine
 10
17.0
 20
28.03853193396571
 30
0.0
 11
-17.00000000000011
 21
28.03853193396571
 31
0.0
  0
LINE
  5
72B0
330
725D
100
AcDbEntity
  8
0
100
AcDbLine
 10
17.0
 20
39.33264411704204
 30
0.0
 11
-17.00000000000011
 21
39.33264411704204
 31
0.0
  0
LINE
  5
72B1
330
725D
100
AcDbEntity
  8
0
100
AcDbLine
 10
-18.0
 20
-31.0
 30
0.0
 11
-18.00000000000011
 21
31.00000000000011
 31
0.0
  0
LINE
  5
72B2
330
725D
100
AcDbEntity
  8
0
100
AcDbLine
 10
-58.0
 20
40.00000000000009
 30
0.0
 11
-58.0
 21
-40.0
 31
0.0
  0
ARC
  5
72B3
330
725D
100
AcDbEntity
  8
0
100
AcDbCircle
 10
-53.0
 20
40.00000000000009
 30
0.0
 40
5.0
100
AcDbArc
 50
90.0
 51
180.0
  0
LINE
  5
72B4
330
725D
100
AcDbEntity
  8
0
100
AcDbLine
 10
-17.00000000000011
 20
17.0337027253521
 30
0.0
 11
-17.00000000000011
 21
39.33264411704204
 31
0.0
  0
LINE
  5
72B5
330
725D
100
AcDbEntity
  8
0
100
AcDbLine
 10
-17.00000000000011
 20
31.00000000000011
 30
0.0
 11
-18.00000000000011
 21
31.00000000000011
 31
0.0
  0
LINE
  5
72B6
330
725D
100
AcDbEntity
  8
0
100
AcDbLine
 10
17.99999999999988
 20
-31.0
 30
0.0
 11
18.0
 21
31.00000000000011
 31
0.0
  0
CIRCLE
  5
72B7
330
725D
100
AcDbEntity
  8
0
100
AcDbCircle
 10
40.94999999999993
 20
5.0
 30
0.0
 40
5.5
  0
CIRCLE
  5
72B8
330
725D
100
AcDbEntity
  8
0
100
AcDbCircle
 10
40.94999999999993
 20
5.0
 30
0.0
 40
3.5
  0
LINE
  5
72B9
330
725D
100
AcDbEntity
  8
0
100
AcDbLine
 10
19.0
 20
-40.45000000000015
 30
0.0
 11
24.29999999999994
 21
-40.45000000000015
 31
0.0
  0
LINE
  5
72BA
330
725D
100
AcDbEntity
  8
0
100
AcDbLine
 10
19.0
 20
-33.85000000000013
 30
0.0
 11
24.29999999999994
 21
-33.85000000000013
 31
0.0
  0
LINE
  5
72BB
330
725D
100
AcDbEntity
  8
0
100
AcDbLine
 10
19.0
 20
-33.85000000000013
 30
0.0
 11
19.0
 21
-40.45000000000015
 31
0.0
  0
LINE
  5
72BC
330
725D
100
AcDbEntity
  8
0
100
AcDbLine
 10
36.94999999999993
 20
-28.5
 30
0.0
 11
44.94999999999993
 21
-28.5
 31
0.0
  0
LINE
  5
72BD
330
725D
100
AcDbEntity
  8
0
100
AcDbLine
 10
36.94999999999993
 20
-23.5
 30
0.0
 11
44.94999999999993
 21
-23.5
 31
0.0
  0
LINE
  5
72BE
330
725D
100
AcDbEntity
  8
0
100
AcDbLine
 10
36.94999999999993
 20
-25.5
 30
0.0
 11
44.94999999999993
 21
-25.5
 31
0.0
  0
LINE
  5
72BF
330
725D
100
AcDbEntity
  8
0
100
AcDbLine
 10
36.94999999999993
 20
-20.5
 30
0.0
 11
44.94999999999993
 21
-20.5
 31
0.0
  0
LINE
  5
72C0
330
725D
100
AcDbEntity
  8
0
100
AcDbLine
 10
36.94999999999993
 20
-25.5
 30
0.0
 11
36.94999999999993
 21
-28.5
 31
0.0
  0
LINE
  5
72C1
330
725D
100
AcDbEntity
  8
0
100
AcDbLine
 10
36.94999999999993
 20
-20.5
 30
0.0
 11
36.94999999999993
 21
-23.5
 31
0.0
  0
LINE
  5
72C2
330
725D
100
AcDbEntity
  8
0
100
AcDbLine
 10
24.29999999999994
 20
-33.85000000000013
 30
0.0
 11
24.29999999999994
 21
-40.45000000000015
 31
0.0
  0
LINE
  5
72C3
330
725D
100
AcDbEntity
  8
0
100
AcDbLine
 10
44.94999999999993
 20
-25.5
 30
0.0
 11
44.94999999999993
 21
-28.5
 31
0.0
  0
LINE
  5
72C4
330
725D
100
AcDbEntity
  8
0
100
AcDbLine
 10
44.94999999999993
 20
-20.5
 30
0.0
 11
44.94999999999993
 21
-23.5
 31
0.0
  0
CIRCLE
  5
72C5
330
725D
100
AcDbEntity
  8
0
100
AcDbCircle
 10
40.94999999999993
 20
-10.0
 30
0.0
 40
3.5
  0
LINE
  5
72C6
330
725D
100
AcDbEntity
  8
0
100
AcDbLine
 10
17.0
 20
17.0337027253521
 30
0.0
 11
17.0
 21
39.33264411704204
 31
0.0
  0
LINE
  5
72C7
330
725D
100
AcDbEntity
  8
0
100
AcDbLine
 10
18.0
 20
31.00000000000011
 30
0.0
 11
17.0
 21
31.00000000000011
 31
0.0
  0
LINE
  5
72C8
330
725D
100
AcDbEntity
  8
0
100
AcDbLine
 10
-9.0
 20
114.0000000000001
 30
0.0
 11
9.0
 21
114.0000000000001
 31
0.0
  0
LINE
  5
72C9
330
725D
100
AcDbEntity
  8
0
100
AcDbLine
 10
-50.5
 20
114.0000000000001
 30
0.0
 11
-50.5
 21
130.0
 31
0.0
  0
LINE
  5
72CA
330
725D
100
AcDbEntity
  8
0
100
AcDbLine
 10
-39.5
 20
114.0000000000001
 30
0.0
 11
-39.5
 21
130.0
 31
0.0
  0
LINE
  5
72CB
330
725D
100
AcDbEntity
  8
0
100
AcDbLine
 10
-45.0
 20
105.0
 30
0.0
 11
-45.0
 21
123.0000000000001
 31
0.0
  0
ARC
  5
72CC
330
725D
100
AcDbEntity
  8
0
100
AcDbCircle
 10
-45.0
 20
114.0000000000001
 30
0.0
 40
5.5
100
AcDbArc
 50
180.0
 51
0.0
  0
LINE
  5
72CD
330
725D
100
AcDbEntity
  8
0
100
AcDbLine
 10
-54.0
 20
114.0000000000001
 30
0.0
 11
-36.0
 21
114.0000000000001
 31
0.0
  0
LINE
  5
72CE
330
725D
100
AcDbEntity
  8
0
100
AcDbLine
 10
-41.0
 20
111.6905989232412
 30
0.0
 11
-41.0
 21
116.3094010767582
 31
0.0
  0
LINE
  5
72CF
330
725D
100
AcDbEntity
  8
0
100
AcDbLine
 10
-45.0000000000001
 20
109.3811978464827
 30
0.0
 11
-41.0
 21
111.6905989232412
 31
0.0
  0
LINE
  5
72D0
330
725D
100
AcDbEntity
  8
0
100
AcDbLine
 10
-49.0
 20
111.6905989232412
 30
0.0
 11
-45.0000000000001
 21
109.3811978464827
 31
0.0
  0
LINE
  5
72D1
330
725D
100
AcDbEntity
  8
0
100
AcDbLine
 10
-49.0
 20
116.3094010767582
 30
0.0
 11
-49.0
 21
111.6905989232412
 31
0.0
  0
LINE
  5
72D2
330
725D
100
AcDbEntity
  8
0
100
AcDbLine
 10
-45.0
 20
118.6188021535167
 30
0.0
 11
-49.0
 21
116.3094010767582
 31
0.0
  0
LINE
  5
72D3
330
725D
100
AcDbEntity
  8
0
100
AcDbLine
 10
-41.0
 20
116.3094010767582
 30
0.0
 11
-45.0
 21
118.6188021535167
 31
0.0
  0
ARC
  5
72D4
330
725D
100
AcDbEntity
  8
0
100
AcDbCircle
 10
-45.0
 20
114.0000000000001
 30
0.0
 40
8.0
100
AcDbArc
 50
46.5674634422112
 51
133.4325365577887
  0
CIRCLE
  5
72D5
330
725D
100
AcDbEntity
  8
0
100
AcDbCircle
 10
22.50000000000011
 20
107.0
 30
0.0
 40
4.0
210
0.0
220
0.0
230
-1.0
  0
LINE
  5
72D6
330
725D
100
AcDbEntity
  8
0
100
AcDbLine
 10
-14.5
 20
107.0
 30
0.0
 11
-30.5
 21
107.0
 31
0.0
  0
LINE
  5
72D7
330
725D
100
AcDbEntity
  8
0
100
AcDbLine
 10
-22.5
 20
115.0000000000001
 30
0.0
 11
-22.5
 21
99.00000000000012
 31
0.0
  0
LINE
  5
72D8
330
725D
100
AcDbEntity
  8
0
100
AcDbLine
 10
30.5
 20
107.0
 30
0.0
 11
14.5
 21
107.0
 31
0.0
  0
CIRCLE
  5
72D9
330
725D
100
AcDbEntity
  8
0
100
AcDbCircle
 10
-22.49999999999988
 20
107.0
 30
0.0
 40
4.0
210
0.0
220
0.0
230
-1.0
  0
LINE
  5
72DA
330
725D
100
AcDbEntity
  8
0
100
AcDbLine
 10
-5.5
 20
114.0000000000001
 30
0.0
 11
-5.5
 21
130.0
 31
0.0
  0
LINE
  5
72DB
330
725D
100
AcDbEntity
  8
0
100
AcDbLine
 10
5.5
 20
114.0000000000001
 30
0.0
 11
5.5
 21
130.0
 31
0.0
  0
LINE
  5
72DC
330
725D
100
AcDbEntity
  8
0
100
AcDbLine
 10
0.0
 20
105.0
 30
0.0
 11
0.0
 21
123.0000000000001
 31
0.0
  0
ARC
  5
72DD
330
725D
100
AcDbEntity
  8
0
100
AcDbCircle
 10
0.0
 20
114.0000000000001
 30
0.0
 40
5.5
100
AcDbArc
 50
180.0
 51
0.0
  0
LINE
  5
72DE
330
725D
100
AcDbEntity
  8
0
100
AcDbLine
 10
4.0
 20
111.6905989232412
 30
0.0
 11
4.0
 21
116.3094010767582
 31
0.0
  0
LINE
  5
72DF
330
725D
100
AcDbEntity
  8
0
100
AcDbLine
 10
-0.0000000000001137
 20
109.3811978464827
 30
0.0
 11
4.0
 21
111.6905989232412
 31
0.0
  0
LINE
  5
72E0
330
725D
100
AcDbEntity
  8
0
100
AcDbLine
 10
-4.0
 20
111.6905989232412
 30
0.0
 11
-0.0000000000001137
 21
109.3811978464827
 31
0.0
  0
LINE
  5
72E1
330
725D
100
AcDbEntity
  8
0
100
AcDbLine
 10
-4.0
 20
116.3094010767582
 30
0.0
 11
-4.0
 21
111.6905989232412
 31
0.0
  0
LINE
  5
72E2
330
725D
100
AcDbEntity
  8
0
100
AcDbLine
 10
0.0
 20
118.6188021535167
 30
0.0
 11
-4.0
 21
116.3094010767582
 31
0.0
  0
LINE
  5
72E3
330
725D
100
AcDbEntity
  8
0
100
AcDbLine
 10
4.0
 20
116.3094010767582
 30
0.0
 11
0.0
 21
118.6188021535167
 31
0.0
  0
LINE
  5
72E4
330
725D
100
AcDbEntity
  8
0
100
AcDbLine
 10
22.5
 20
115.0000000000001
 30
0.0
 11
22.5
 21
99.00000000000012
 31
0.0
  0
ARC
  5
72E5
330
725D
100
AcDbEntity
  8
0
100
AcDbCircle
 10
0.0
 20
114.0000000000001
 30
0.0
 40
8.0
100
AcDbArc
 50
46.5674634422112
 51
133.4325365577887
  0
LINE
  5
72E6
330
725D
100
AcDbEntity
  8
0
100
AcDbLine
 10
39.5
 20
114.0000000000001
 30
0.0
 11
39.5
 21
130.0
 31
0.0
  0
LINE
  5
72E7
330
725D
100
AcDbEntity
  8
0
100
AcDbLine
 10
50.5
 20
114.0000000000001
 30
0.0
 11
50.5
 21
130.0
 31
0.0
  0
LINE
  5
72E8
330
725D
100
AcDbEntity
  8
0
100
AcDbLine
 10
45.0
 20
105.0
 30
0.0
 11
45.0
 21
123.0000000000001
 31
0.0
  0
ARC
  5
72E9
330
725D
100
AcDbEntity
  8
0
100
AcDbCircle
 10
45.0
 20
114.0000000000001
 30
0.0
 40
5.5
100
AcDbArc
 50
180.0
 51
0.0
  0
LINE
  5
72EA
330
725D
100
AcDbEntity
  8
0
100
AcDbLine
 10
49.0
 20
111.6905989232412
 30
0.0
 11
49.0
 21
116.3094010767582
 31
0.0
  0
LINE
  5
72EB
330
725D
100
AcDbEntity
  8
0
100
AcDbLine
 10
44.99999999999988
 20
109.3811978464827
 30
0.0
 11
49.0
 21
111.6905989232412
 31
0.0
  0
LINE
  5
72EC
330
725D
100
AcDbEntity
  8
0
100
AcDbLine
 10
41.0
 20
111.6905989232412
 30
0.0
 11
44.99999999999988
 21
109.3811978464827
 31
0.0
  0
LINE
  5
72ED
330
725D
100
AcDbEntity
  8
0
100
AcDbLine
 10
41.0
 20
116.3094010767582
 30
0.0
 11
41.0
 21
111.6905989232412
 31
0.0
  0
LINE
  5
72EE
330
725D
100
AcDbEntity
  8
0
100
AcDbLine
 10
45.0
 20
118.6188021535167
 30
0.0
 11
41.0
 21
116.3094010767582
 31
0.0
  0
LINE
  5
72EF
330
725D
100
AcDbEntity
  8
0
100
AcDbLine
 10
49.0
 20
116.3094010767582
 30
0.0
 11
45.0
 21
118.6188021535167
 31
0.0
  0
ARC
  5
72F0
330
725D
100
AcDbEntity
  8
0
100
AcDbCircle
 10
45.0
 20
114.0000000000001
 30
0.0
 40
8.0
100
AcDbArc
 50
46.5674634422112
 51
133.4325365577887
  0
LINE
  5
72F1
330
725D
100
AcDbEntity
  8
0
100
AcDbLine
 10
-74.00000000000004
 20
174.5000000000002
 30
0.0
 11
-46.0
 21
174.5000000000002
 31
0.0
  0
LINE
  5
72F2
330
725D
100
AcDbEntity
  8
0
100
AcDbLine
 10
-71.00000000000004
 20
160.0000000000002
 30
0.0
 11
-49.0
 21
160.0000000000002
 31
0.0
  0
CIRCLE
  5
72F3
330
725D
100
AcDbEntity
  8
0
100
AcDbCircle
 10
-60.0
 20
160.0000000000002
 30
0.0
 40
7.0
  0
LINE
  5
72F4
330
725D
100
AcDbEntity
  8
0
100
AcDbLine
 10
-74.00000000000004
 20
174.5000000000002
 30
0.0
 11
-74.00000000000004
 21
150.0
 31
0.0
  0
LINE
  5
72F5
330
725D
100
AcDbEntity
  8
0
100
AcDbLine
 10
-11.0
 20
160.0000000000002
 30
0.0
 11
11.0
 21
160.0000000000002
 31
0.0
  0
LINE
  5
72F6
330
725D
100
AcDbEntity
  8
0
100
AcDbLine
 10
-14.0
 20
174.5000000000002
 30
0.0
 11
14.0
 21
174.5000000000002
 31
0.0
  0
CIRCLE
  5
72F7
330
725D
100
AcDbEntity
  8
0
100
AcDbCircle
 10
0.0
 20
160.0000000000002
 30
0.0
 40
7.0
  0
LINE
  5
72F8
330
725D
100
AcDbEntity
  8
0
100
AcDbLine
 10
-60.0
 20
171.0
 30
0.0
 11
-60.0
 21
149.0
 31
0.0
  0
LINE
  5
72F9
330
725D
100
AcDbEntity
  8
0
100
AcDbLine
 10
-46.0
 20
174.5000000000002
 30
0.0
 11
-46.0
 21
150.0
 31
0.0
  0
LINE
  5
72FA
330
725D
100
AcDbEntity
  8
0
100
AcDbLine
 10
46.0
 20
174.5000000000002
 30
0.0
 11
46.0
 21
150.0
 31
0.0
  0
ARC
  5
72FB
330
725D
100
AcDbEntity
  8
0
100
AcDbCircle
 10
53.0
 20
-40.0
 30
0.0
 40
5.0
100
AcDbArc
 50
270.0
 51
0.0
  0
LINE
  5
72FC
330
725D
100
AcDbEntity
  8
0
100
AcDbLine
 10
70.0
 20
130.0
 30
0.0
 11
70.0
 21
-130.0
 31
0.0
  0
LINE
  5
72FD
330
725D
100
AcDbEntity
  8
0
100
AcDbLine
 10
101.2499999999999
 20
-220.0727983283795
 30
0.0
 11
101.2499999999999
 21
-245.0
 31
0.0
  0
LINE
  5
72FE
330
725D
100
AcDbEntity
  8
0
100
AcDbLine
 10
99.25
 20
-218.6397501985154
 30
0.0
 11
99.25
 21
-245.0
 31
0.0
  0
LINE
  5
72FF
330
725D
100
AcDbEntity
  8
0
100
AcDbLine
 10
98.54999999999996
 20
-245.0
 30
0.0
 11
98.54999999999996
 21
-249.946911919693
 31
0.0
  0
LINE
  5
7300
330
725D
100
AcDbEntity
  8
0
100
AcDbLine
 10
101.9499999999996
 20
-245.0
 30
0.0
 11
101.9499999999996
 21
-249.946911919693
 31
0.0
  0
LINE
  5
7301
330
725D
100
AcDbEntity
  8
0
100
AcDbLine
 10
98.20195134105155
 20
-251.578859039728
 30
0.0
 11
96.59804865894841
 21
-255.1680528799646
 31
0.0
  0
ARC
  5
7302
330
725D
100
AcDbEntity
  8
0
100
AcDbCircle
 10
100.2499999999999
 20
-256.8
 30
0.0
 40
4.0
100
AcDbArc
 50
155.9215699388889
 51
24.07843006111111
  0
LINE
  5
7303
330
725D
100
AcDbEntity
  8
0
100
AcDbLine
 10
98.54999999999996
 20
-249.8
 30
0.0
 11
101.9499999999996
 21
-249.8
 31
0.0
  0
LINE
  5
7304
330
725D
100
AcDbEntity
  8
0
100
AcDbLine
 10
102.2980486589484
 20
-251.578859039728
 30
0.0
 11
103.9019513410514
 21
-255.1680528799646
 31
0.0
  0
ARC
  5
7305
330
725D
100
AcDbEntity
  8
0
100
AcDbCircle
 10
94.54999999999996
 20
-249.946911919693
 30
0.0
 40
4.0
100
AcDbArc
 50
335.9215699388887
 51
0.0
  0
CIRCLE
  5
7306
330
725D
100
AcDbEntity
  8
0
100
AcDbCircle
 10
100.2499999999999
 20
-256.8
 30
0.0
 40
2.149999999999999
  0
ARC
  5
7307
330
725D
100
AcDbEntity
  8
0
100
AcDbCircle
 10
105.9499999999996
 20
-249.946911919693
 30
0.0
 40
4.0
100
AcDbArc
 50
180.0
 51
204.0784300611111
  0
LINE
  5
7308
330
725D
100
AcDbEntity
  8
0
100
AcDbLine
 10
98.54999999999996
 20
-245.0
 30
0.0
 11
101.9499999999996
 21
-245.0
 31
0.0
  0
LINE
  5
7309
330
725D
100
AcDbEntity
  8
0
100
AcDbLine
 10
59.25
 20
-130.0
 30
0.0
 11
59.25
 21
-175.0
 31
0.0
  0
LINE
  5
730A
330
725D
100
AcDbEntity
  8
0
100
AcDbLine
 10
61.25
 20
-130.0
 30
0.0
 11
61.25
 21
-175.0
 31
0.0
  0
LINE
  5
730B
330
725D
100
AcDbEntity
  8
0
100
AcDbLine
 10
74.0
 20
-150.0000000000003
 30
0.0
 11
59.0
 21
-130.0000000000003
 31
0.0
  0
ARC
  5
730C
330
725D
100
AcDbEntity
  8
0
100
AcDbCircle
 10
71.25
 20
-175.0
 30
0.0
 40
10.0
100
AcDbArc
 50
180.0
 51
270.0
  0
ARC
  5
730D
330
725D
100
AcDbEntity
  8
0
100
AcDbCircle
 10
71.25
 20
-175.0
 30
0.0
 40
12.0
100
AcDbArc
 50
180.0
 51
270.0
  0
LINE
  5
730E
330
725D
100
AcDbEntity
  8
0
100
AcDbLine
 10
71.25
 20
-185.0
 30
0.0
 11
89.25
 21
-185.0
 31
0.0
  0
LINE
  5
730F
330
725D
100
AcDbEntity
  8
0
100
AcDbLine
 10
71.25
 20
-187.0
 30
0.0
 11
89.25
 21
-187.0
 31
0.0
  0
LINE
  5
7310
330
725D
100
AcDbEntity
  8
0
100
AcDbLine
 10
101.2499999999999
 20
-197.0
 30
0.0
 11
101.2499999999999
 21
-218.0727983283795
 31
0.0
  0
LINE
  5
7311
330
725D
100
AcDbEntity
  8
0
100
AcDbLine
 10
99.25
 20
-197.0
 30
0.0
 11
99.25
 21
-216.6397501985156
 31
0.0
  0
SPLINE
  5
7312
330
725D
100
AcDbEntity
  8
0
100
AcDbSpline
210
0.0
220
0.0
230
1.0
 70
     8
 71
     3
 72
     8
 73
     4
 74
     0
 42
0.0000000001
 43
0.0000000001
 40
0.0
 40
0.0
 40
0.0
 40
0.0
 40
1.0
 40
1.0
 40
1.0
 40
1.0
 10
96.25
 20
-219.0
 30
0.0
 10
98.25000000000001
 20
-215.0
 30
0.0
 10
102.2499999999999
 20
-224.0
 30
0.0
 10
104.2499999999999
 20
-219.0
 30
0.0
  0
SPLINE
  5
7313
330
725D
100
AcDbEntity
  8
0
100
AcDbSpline
210
0.0
220
0.0
230
1.0
 70
     8
 71
     3
 72
     8
 73
     4
 74
     0
 42
0.0000000001
 43
0.0000000001
 40
0.0
 40
0.0
 40
0.0
 40
0.0
 40
1.0
 40
1.0
 40
1.0
 40
1.0
 10
96.25
 20
-217.0
 30
0.0
 10
98.25000000000001
 20
-213.0
 30
0.0
 10
102.2499999999999
 20
-222.0
 30
0.0
 10
104.2499999999999
 20
-217.0
 30
0.0
  0
ARC
  5
7314
330
725D
100
AcDbEntity
  8
0
100
AcDbCircle
 10
89.25
 20
-197.0
 30
0.0
 40
12.0
100
AcDbArc
 50
0.0
 51
90.0
  0
ARC
  5
7315
330
725D
100
AcDbEntity
  8
0
100
AcDbCircle
 10
89.25
 20
-197.0
 30
0.0
 40
10.0
100
AcDbArc
 50
0.0
 51
90.0
  0
LINE
  5
7316
330
725D
100
AcDbEntity
  8
0
100
AcDbLine
 10
60.0
 20
-149.0
 30
0.0
 11
60.0
 21
-171.0
 31
0.0
  0
LINE
  5
7317
330
725D
100
AcDbEntity
  8
0
100
AcDbLine
 10
74.0
 20
-174.5
 30
0.0
 11
74.0
 21
-150.0000000000003
 31
0.0
  0
CIRCLE
  5
7318
330
725D
100
AcDbEntity
  8
0
100
AcDbCircle
 10
-60.0
 20
-160.0
 30
0.0
 40
7.0
210
0.0
220
0.0
230
-1.0
  0
LINE
  5
7319
330
725D
100
AcDbEntity
  8
0
100
AcDbLine
 10
74.0
 20
150.0
 30
0.0
 11
59.0
 21
130.0
 31
0.0
  0
LINE
  5
731A
330
725D
100
AcDbEntity
  8
0
100
AcDbLine
 10
58.0
 20
40.00000000000009
 30
0.0
 11
58.0
 21
-40.0
 31
0.0
  0
ARC
  5
731B
330
725D
100
AcDbEntity
  8
0
100
AcDbCircle
 10
53.0
 20
40.00000000000009
 30
0.0
 40
5.0
100
AcDbArc
 50
0.0
 51
90.0
  0
LINE
  5
731C
330
725D
100
AcDbEntity
  8
0
100
AcDbLine
 10
60.0
 20
171.0
 30
0.0
 11
60.0
 21
149.0
 31
0.0
  0
LINE
  5
731D
330
725D
100
AcDbEntity
  8
0
100
AcDbLine
 10
74.0
 20
174.5000000000002
 30
0.0
 11
74.0
 21
150.0
 31
0.0
  0
CIRCLE
  5
731E
330
725D
100
AcDbEntity
  8
0
100
AcDbCircle
 10
60.0
 20
160.0000000000002
 30
0.0
 40
7.0
  0
ENDBLK
  5
7320
330
725D
100
AcDbEntity
  8
0
100
AcDbBlockEnd
  0
BLOCK
  5
81E9
330
81E7
100
AcDbEntity
  8
TOP
  6
CONTINUOUS
 62
     4
100
AcDbBlockBegin
  2
*U4
 70
     1
 10
0.0
 20
0.0
 30
0.0
  3
*U4
  1

  0
TEXT
  5
81E8
330
81E7
100
AcDbEntity
  8
TOP
  6
BYBLOCK
 62
     0
100
AcDbText
 10
286.5
 20
136.5988377856377
 30
0.0
 40
2.500000003799998
  1
6
 50
90.00000000000005
 41
1.189062499999995
  7
UGMTXT
100
AcDbText
  0
ENDBLK
  5
81EA
330
81E7
100
AcDbEntity
  8
0
100
AcDbBlockEnd
  0
BLOCK
  5
81F2
330
81EB
100
AcDbEntity
  8
TOP
  6
CONTINUOUS
 62
     4
100
AcDbBlockBegin
  2
*U5
 70
     1
 10
0.0
 20
0.0
 30
0.0
  3
*U5
  1

  0
LINE
  5
81EC
330
81EB
100
AcDbEntity
  8
1
  6
BYBLOCK
 62
     0
100
AcDbLine
 10
288.8511961722489
 20
79.86472320362056
 30
0.0
 11
298.7500000084996
 21
79.86472320362056
 31
0.0
  0
LINE
  5
81ED
330
81EB
100
AcDbEntity
  8
1
  6
BYBLOCK
 62
     0
100
AcDbLine
 10
288.6511961722486
 20
137.4647232036204
 30
0.0
 11
298.7500000084996
 21
137.4647232036204
 31
0.0
  0
LINE
  5
81EE
330
81EB
100
AcDbEntity
  8
1
  6
BYBLOCK
 62
     0
100
AcDbLine
 10
297.7500000018998
 20
79.86472320362056
 30
0.0
 11
297.7500000018998
 21
137.4647232036204
 31
0.0
  0
SOLID
  5
81EF
330
81EB
100
AcDbEntity
  8
1
  6
BYBLOCK
 62
     0
100
AcDbTrace
 10
297.7500000018998
 20
79.86472320362056
 30
0.0
 11
297.4166666663666
 21
81.86472321682058
 31
0.0
 12
298.0833333374332
 22
81.86472321682058
 32
0.0
 13
298.0833333374332
 23
81.86472321682058
 33
0.0
  0
SOLID
  5
81F0
330
81EB
100
AcDbEntity
  8
1
  6
BYBLOCK
 62
     0
100
AcDbTrace
 10
297.7500000018998
 20
137.4647232036204
 30
0.0
 11
298.0833333374332
 21
135.4647231904205
 31
0.0
 12
297.4166666663666
 22
135.4647231904205
 32
0.0
 13
297.4166666663666
 23
135.4647231904205
 33
0.0
  0
TEXT
  5
81F1
330
81EB
100
AcDbEntity
  8
TOP
  6
BYBLOCK
 62
     0
100
AcDbText
 10
296.4999999999998
 20
105.817066949292
 30
0.0
 40
2.500000003799998
  1
144
 50
89.99999999999404
 41
0.8542968749999968
  7
UGMTXT
100
AcDbText
  0
ENDBLK
  5
81F3
330
81EB
100
AcDbEntity
  8
0
100
AcDbBlockEnd
  0
BLOCK
  5
81F8
330
81F4
100
AcDbEntity
  8
TOP
  6
CONTINUOUS
 62
     4
100
AcDbBlockBegin
  2
*U6
 70
     1
 10
0.0
 20
0.0
 30
0.0
  3
*U6
  1

  0
LINE
  5
81F5
330
81F4
100
AcDbEntity
  8
1
  6
BYBLOCK
 62
     0
100
AcDbLine
 10
277.8511961722488
 20
79.86472320362056
 30
0.0
 11
283.0330054314933
 21
79.86472320362056
 31
0.0
  0
LINE
  5
81F6
330
81F4
100
AcDbEntity
  8
1
  6
BYBLOCK
 62
     0
100
AcDbLine
 10
275.6511961722486
 20
137.4647232036204
 30
0.0
 11
283.0330054314933
 21
137.4647232036204
 31
0.0
  0
TEXT
  5
81F7
330
81F4
100
AcDbEntity
  8
TOP
  6
BYBLOCK
 62
     0
100
AcDbText
 10
280.7830054229933
 20
107.7988377856377
 30
0.0
 40
2.500000003799998
  1
 
 50
89.99999999999404
 41
1.189062499999995
  7
UGMTXT
100
AcDbText
  0
ENDBLK
  5
81F9
330
81F4
100
AcDbEntity
  8
0
100
AcDbBlockEnd
  0
BLOCK
  5
8201
330
81FA
100
AcDbEntity
  8
TOP
  6
CONTINUOUS
 62
     4
100
AcDbBlockBegin
  2
*U7
 70
     1
 10
0.0
 20
0.0
 30
0.0
  3
*U7
  1

  0
LINE
  5
81FB
330
81FA
100
AcDbEntity
  8
1
  6
BYBLOCK
 62
     0
100
AcDbLine
 10
244.8511961722486
 20
82.86472321022058
 30
0.0
 11
244.8511961722486
 21
94.7500000047
 31
0.0
  0
LINE
  5
81FC
330
81FA
100
AcDbEntity
  8
1
  6
BYBLOCK
 62
     0
100
AcDbLine
 10
253.6511961722488
 20
80.86472321022059
 30
0.0
 11
253.6511961722488
 21
94.7500000047
 31
0.0
  0
LINE
  5
81FD
330
81FA
100
AcDbEntity
  8
1
  6
BYBLOCK
 62
     0
100
AcDbLine
 10
244.8511961722486
 20
93.74999999809999
 30
0.0
 11
253.6511961722488
 21
93.74999999809999
 31
0.0
  0
SOLID
  5
81FE
330
81FA
100
AcDbEntity
  8
1
  6
BYBLOCK
 62
     0
100
AcDbTrace
 10
244.8511961722486
 20
93.74999999809999
 30
0.0
 11
246.8511961854487
 21
94.08333333363335
 31
0.0
 12
246.8511961854487
 22
93.41666666256669
 32
0.0
 13
246.8511961854487
 23
93.41666666256669
 33
0.0
  0
SOLID
  5
81FF
330
81FA
100
AcDbEntity
  8
1
  6
BYBLOCK
 62
     0
100
AcDbTrace
 10
253.6511961722488
 20
93.74999999809999
 30
0.0
 11
251.6511961590488
 21
93.41666666256669
 31
0.0
 12
251.6511961590488
 22
94.08333333363335
 32
0.0
 13
251.6511961590488
 23
94.08333333363335
 33
0.0
  0
TEXT
  5
8200
330
81FA
100
AcDbEntity
  8
TOP
  6
BYBLOCK
 62
     0
100
AcDbText
 10
247.3944253360929
 20
95.0
 30
0.0
 40
2.500000003799998
  1
22
 41
0.8912499999999965
  7
UGMTXT
100
AcDbText
  0
ENDBLK
  5
8202
330
81FA
100
AcDbEntity
  8
0
100
AcDbBlockEnd
  0
BLOCK
  5
8206
330
8203
100
AcDbEntity
  8
TOP
  6
CONTINUOUS
 62
     4
100
AcDbBlockBegin
  2
*U8
 70
     1
 10
0.0
 20
0.0
 30
0.0
  3
*U8
  1

  0
TEXT
  5
8204
330
8203
100
AcDbEntity
  8
TOP
  6
BYBLOCK
 62
     0
100
AcDbText
 10
242.2747888281548
 20
66.49794109708203
 30
0.0
 40
2.500000003799998
  1
9
 41
1.189062499999995
  7
UGMTXT
100
AcDbText
  0
TEXT
  5
8205
330
8203
100
AcDbEntity
  8
TOP
  6
BYBLOCK
 62
     0
100
AcDbText
 10
238.5815829186545
 20
65.24794109518203
 30
0.0
 40
2.500000003799998
  1
%%c
 41
1.519902056402508
  7
UGMTXT
100
AcDbText
  0
ENDBLK
  5
8207
330
8203
100
AcDbEntity
  8
0
100
AcDbBlockEnd
  0
BLOCK
  5
820E
330
8208
100
AcDbEntity
  8
TOP
  6
CONTINUOUS
 62
     4
100
AcDbBlockBegin
  2
*U9
 70
     1
 10
0.0
 20
0.0
 30
0.0
  3
*U9
  1

  0
LINE
  5
8209
330
8208
100
AcDbEntity
  8
1
  6
BYBLOCK
 62
     0
100
AcDbLine
 10
244.5229385704191
 20
65.56346219772153
 30
0.0
 11
237.5229385704189
 21
65.56346219772153
 31
0.0
  0
LINE
  5
820A
330
8208
100
AcDbEntity
  8
1
  6
BYBLOCK
 62
     0
100
AcDbLine
 10
252.6827479511676
 20
78.34745327276291
 30
0.0
 11
244.5229385704191
 21
65.56346219772153
 31
0.0
  0
SOLID
  5
820B
330
8208
100
AcDbEntity
  8
1
  6
BYBLOCK
 62
     0
100
AcDbTrace
 10
252.6827479511676
 20
78.34745327276291
 30
0.0
 11
251.887670280063
 21
76.48225551855867
 31
0.0
 12
251.3257184501105
 22
76.84094004725229
 32
0.0
 13
251.3257184501105
 23
76.84094004725229
 33
0.0
  0
TEXT
  5
820C
330
8208
100
AcDbEntity
  8
TOP
  6
BYBLOCK
 62
     0
100
AcDbText
 10
235.7911677344535
 20
64.31346219582156
 30
0.0
 40
2.500000003799998
  1
 
 41
1.189062499999995
  7
UGMTXT
100
AcDbText
  0
TEXT
  5
820D
330
8208
100
AcDbEntity
  8
TOP
  6
BYBLOCK
 62
     0
100
AcDbText
 10
234.0593968984879
 20
64.31346219582156
 30
0.0
 40
2.500000003799998
  1
 
 41
1.189062499999995
  7
UGMTXT
100
AcDbText
  0
ENDBLK
  5
820F
330
8208
100
AcDbEntity
  8
0
100
AcDbBlockEnd
  0
BLOCK
  5
8215
330
8210
100
AcDbEntity
  8
TOP
  6
CONTINUOUS
 62
     3
100
AcDbBlockBegin
  2
*U10
 70
     1
 10
0.0
 20
0.0
 30
0.0
  3
*U10
  1

  0
LINE
  5
8211
330
8210
100
AcDbEntity
  8
1
  6
BYBLOCK
 62
     0
100
AcDbLine
 10
269.7924859750975
 20
155.7087578669337
 30
0.0
 11
239.7924859750975
 21
155.7087578669337
 31
0.0
  0
LINE
  5
8212
330
8210
100
AcDbEntity
  8
1
  6
BYBLOCK
 62
     0
100
AcDbLine
 10
232.5311961722487
 20
145.5647232036205
 30
0.0
 11
239.7924859750975
 21
155.7087578669337
 31
0.0
  0
SOLID
  5
8213
330
8210
100
AcDbEntity
  8
1
  6
BYBLOCK
 62
     0
100
AcDbTrace
 10
232.5311961722487
 20
145.5647232036205
 30
0.0
 11
233.4242749741016
 21
147.3850312597085
 31
0.0
 12
233.9663706246246
 22
146.9969890506703
 32
0.0
 13
233.9663706246246
 23
146.9969890506703
 33
0.0
  0
TEXT
  5
8214
330
8210
100
AcDbEntity
  8
TOP
  6
BYBLOCK
 62
     0
100
AcDbText
 10
269.7924859750975
 20
154.2087578570335
 30
0.0
 40
3.000000019799997
  1
 
 41
1.189062499999995
  7
UGMTXT
100
AcDbText
  0
ENDBLK
  5
8216
330
8210
100
AcDbEntity
  8
0
100
AcDbBlockEnd
  0
BLOCK
  5
821C
330
8217
100
AcDbEntity
  8
TOP
  6
CONTINUOUS
 62
     4
100
AcDbBlockBegin
  2
*U11
 70
     1
 10
0.0
 20
0.0
 30
0.0
  3
*U11
  1

  0
LINE
  5
8218
330
8217
100
AcDbEntity
  8
1
  6
BYBLOCK
 62
     0
100
AcDbLine
 10
306.2784190863161
 20
59.91889685550898
 30
0.0
 11
280.2784190863159
 21
59.91889685550898
 31
0.0
  0
LINE
  5
8219
330
8217
100
AcDbEntity
  8
1
  6
BYBLOCK
 62
     0
100
AcDbLine
 10
270.2555202442598
 20
75.86472320362054
 30
0.0
 11
280.2784190863159
 21
59.91889685550898
 31
0.0
  0
SOLID
  5
821A
330
8217
100
AcDbEntity
  8
1
  6
BYBLOCK
 62
     0
100
AcDbTrace
 10
270.2555202442598
 20
75.86472320362054
 30
0.0
 11
271.6020624429755
 21
74.3488289881638
 31
0.0
 12
271.0376350110049
 22
73.99405282725358
 32
0.0
 13
271.0376350110049
 23
73.99405282725358
 33
0.0
  0
TEXT
  5
821B
330
8217
100
AcDbEntity
  8
TOP
  6
BYBLOCK
 62
     0
100
AcDbText
 10
306.2784190863161
 20
58.66889685550898
 30
0.0
 40
2.5
  1
 
 41
1.054062500000009
  7
UGMTXT
100
AcDbText
  0
ENDBLK
  5
821D
330
8217
100
AcDbEntity
  8
0
100
AcDbBlockEnd
  0
BLOCK
  5
8229
330
821E
100
AcDbEntity
  8
0
100
AcDbBlockBegin
  2
*D12
 70
     1
 10
0.0
 20
0.0
 30
0.0
  3
*D12
  1

  0
LINE
  5
821F
330
821E
100
AcDbEntity
  8
0
 62
     0
100
AcDbLine
 10
194.4511961722488
 20
107.6022231970203
 30
0.0
 11
194.4511961722488
 21
24.30294463882411
 31
0.0
  0
LINE
  5
8220
330
821E
100
AcDbEntity
  8
0
 62
     0
100
AcDbLine
 10
231.2511961722488
 20
75.60222320362058
 30
0.0
 11
231.2511961722488
 21
24.30294463882411
 31
0.0
  0
LINE
  5
8221
330
821E
100
AcDbEntity
  8
0
 62
     0
100
AcDbLine
 10
194.6311961722486
 20
24.48294463882412
 30
0.0
 11
212.2297676008201
 21
24.48294463882412
 31
0.0
  0
LINE
  5
8222
330
821E
100
AcDbEntity
  8
0
 62
     0
100
AcDbLine
 10
231.0711961722486
 20
24.48294463882412
 30
0.0
 11
213.4726247436773
 21
24.48294463882412
 31
0.0
  0
SOLID
  5
8223
330
821E
100
AcDbEntity
  8
0
 62
     0
100
AcDbTrace
 10
194.6311961722486
 20
24.51294463882412
 30
0.0
 11
194.6311961722486
 21
24.45294463882412
 31
0.0
 12
194.4511961722488
 22
24.48294463882412
 32
0.0
 13
194.4511961722488
 23
24.48294463882412
 33
0.0
  0
SOLID
  5
8224
330
821E
100
AcDbEntity
  8
0
 62
     0
100
AcDbTrace
 10
231.0711961722486
 20
24.51294463882412
 30
0.0
 11
231.0711961722486
 21
24.45294463882412
 31
0.0
 12
231.2511961722488
 22
24.48294463882412
 32
0.0
 13
231.2511961722488
 23
24.48294463882412
 33
0.0
  0
MTEXT
  5
8225
330
821E
100
AcDbEntity
  8
0
 62
     0
100
AcDbMText
 10
212.8511961722487
 20
24.48294463882412
 30
0.0
 40
0.18
 41
0.0
 71
     5
 72
     1
  1
\A1;36.8000
1001
ACAD
1000
MTEXTBEGIN
1070
    73
1070
     1
1070
    44
1040
1.0
1070
    74
1070
     0
1000
MTEXTEND
1000
MTEXTBEGIN
1070
    73
1070
     1
1070
    44
1040
1.0
1070
    74
1070
     0
1000
MTEXTEND
1000
MTEXTBEGIN
1070
    73
1070
     1
1070
    44
1040
1.0
1070
    74
1070
     0
1000
MTEXTEND
  0
POINT
  5
8226
330
821E
100
AcDbEntity
  8
DEFPOINTS
 62
     0
100
AcDbPoint
 10
194.4511961722488
 20
107.6647231970204
 30
0.0
  0
POINT
  5
8227
330
821E
100
AcDbEntity
  8
DEFPOINTS
 62
     0
100
AcDbPoint
 10
231.2511961722488
 20
75.66472320362058
 30
0.0
  0
POINT
  5
8228
330
821E
100
AcDbEntity
  8
DEFPOINTS
 62
     0
100
AcDbPoint
 10
231.2511961722488
 20
24.48294463882412
 30
0.0
  0
ENDBLK
  5
822A
330
821E
100
AcDbEntity
  8
0
100
AcDbBlockEnd
  0
BLOCK
  5
8236
330
822B
100
AcDbEntity
  8
0
100
AcDbBlockBegin
  2
*D13
 70
     1
 10
0.0
 20
0.0
 30
0.0
  3
*D13
  1

  0
LINE
  5
822C
330
822B
100
AcDbEntity
  8
0
 62
     0
100
AcDbLine
 10
202.4511961722488
 20
98.60222320362058
 30
0.0
 11
202.4511961722488
 21
34.3029446388241
 31
0.0
  0
LINE
  5
822D
330
822B
100
AcDbEntity
  8
0
 62
     0
100
AcDbLine
 10
231.2511961722488
 20
75.60222320362058
 30
0.0
 11
231.2511961722488
 21
34.30294463882411
 31
0.0
  0
LINE
  5
822E
330
822B
100
AcDbEntity
  8
0
 62
     0
100
AcDbLine
 10
202.6311961722488
 20
34.4829446388241
 30
0.0
 11
216.22976760082
 21
34.4829446388241
 31
0.0
  0
LINE
  5
822F
330
822B
100
AcDbEntity
  8
0
 62
     0
100
AcDbLine
 10
231.0711961722486
 20
34.4829446388241
 30
0.0
 11
217.4726247436774
 21
34.4829446388241
 31
0.0
  0
SOLID
  5
8230
330
822B
100
AcDbEntity
  8
0
 62
     0
100
AcDbTrace
 10
202.6311961722488
 20
34.51294463882411
 30
0.0
 11
202.6311961722488
 21
34.4529446388241
 31
0.0
 12
202.4511961722488
 22
34.4829446388241
 32
0.0
 13
202.4511961722488
 23
34.4829446388241
 33
0.0
  0
SOLID
  5
8231
330
822B
100
AcDbEntity
  8
0
 62
     0
100
AcDbTrace
 10
231.0711961722486
 20
34.51294463882411
 30
0.0
 11
231.0711961722486
 21
34.4529446388241
 31
0.0
 12
231.2511961722488
 22
34.4829446388241
 32
0.0
 13
231.2511961722488
 23
34.4829446388241
 33
0.0
  0
MTEXT
  5
8232
330
822B
100
AcDbEntity
  8
0
 62
     0
100
AcDbMText
 10
216.8511961722486
 20
34.4829446388241
 30
0.0
 40
0.18
 41
0.0
 71
     5
 72
     1
  1
\A1;28.8000
1001
ACAD
1000
MTEXTBEGIN
1070
    73
1070
     1
1070
    44
1040
1.0
1070
    74
1070
     0
1000
MTEXTEND
1000
MTEXTBEGIN
1070
    73
1070
     1
1070
    44
1040
1.0
1070
    74
1070
     0
1000
MTEXTEND
1000
MTEXTBEGIN
1070
    73
1070
     1
1070
    44
1040
1.0
1070
    74
1070
     0
1000
MTEXTEND
  0
POINT
  5
8233
330
822B
100
AcDbEntity
  8
DEFPOINTS
 62
     0
100
AcDbPoint
 10
202.4511961722488
 20
98.66472320362058
 30
0.0
  0
POINT
  5
8234
330
822B
100
AcDbEntity
  8
DEFPOINTS
 62
     0
100
AcDbPoint
 10
231.2511961722488
 20
75.66472320362058
 30
0.0
  0
POINT
  5
8235
330
822B
100
AcDbEntity
  8
DEFPOINTS
 62
     0
100
AcDbPoint
 10
231.2511961722488
 20
34.4829446388241
 30
0.0
  0
ENDBLK
  5
8237
330
822B
100
AcDbEntity
  8
0
100
AcDbBlockEnd
  0
BLOCK
  5
8243
330
8238
100
AcDbEntity
  8
0
100
AcDbBlockBegin
  2
*D14
 70
     1
 10
0.0
 20
0.0
 30
0.0
  3
*D14
  1

  0
LINE
  5
8239
330
8238
100
AcDbEntity
  8
0
 62
     0
100
AcDbLine
 10
206.8511961722486
 20
75.60222320362058
 30
0.0
 11
206.8511961722486
 21
54.30294463882412
 31
0.0
  0
LINE
  5
823A
330
8238
100
AcDbEntity
  8
0
 62
     0
100
AcDbLine
 10
231.2511961722488
 20
75.60222320362058
 30
0.0
 11
231.2511961722488
 21
54.30294463882412
 31
0.0
  0
LINE
  5
823B
330
8238
100
AcDbEntity
  8
0
 62
     0
100
AcDbLine
 10
207.0311961722488
 20
54.48294463882412
 30
0.0
 11
218.42976760082
 21
54.48294463882412
 31
0.0
  0
LINE
  5
823C
330
8238
100
AcDbEntity
  8
0
 62
     0
100
AcDbLine
 10
231.0711961722486
 20
54.48294463882412
 30
0.0
 11
219.6726247436773
 21
54.48294463882412
 31
0.0
  0
SOLID
  5
823D
330
8238
100
AcDbEntity
  8
0
 62
     0
100
AcDbTrace
 10
207.0311961722488
 20
54.51294463882412
 30
0.0
 11
207.0311961722488
 21
54.45294463882412
 31
0.0
 12
206.8511961722486
 22
54.48294463882412
 32
0.0
 13
206.8511961722486
 23
54.48294463882412
 33
0.0
  0
SOLID
  5
823E
330
8238
100
AcDbEntity
  8
0
 62
     0
100
AcDbTrace
 10
231.0711961722486
 20
54.51294463882412
 30
0.0
 11
231.0711961722486
 21
54.45294463882412
 31
0.0
 12
231.2511961722488
 22
54.48294463882412
 32
0.0
 13
231.2511961722488
 23
54.48294463882412
 33
0.0
  0
MTEXT
  5
823F
330
8238
100
AcDbEntity
  8
0
 62
     0
100
AcDbMText
 10
219.0511961722488
 20
54.48294463882412
 30
0.0
 40
0.18
 41
0.0
 71
     5
 72
     1
  1
\A1;24.4000
1001
ACAD
1000
MTEXTBEGIN
1070
    73
1070
     1
1070
    44
1040
1.0
1070
    74
1070
     0
1000
MTEXTEND
1000
MTEXTBEGIN
1070
    73
1070
     1
1070
    44
1040
1.0
1070
    74
1070
     0
1000
MTEXTEND
1000
MTEXTBEGIN
1070
    73
1070
     1
1070
    44
1040
1.0
1070
    74
1070
     0
1000
MTEXTEND
  0
POINT
  5
8240
330
8238
100
AcDbEntity
  8
DEFPOINTS
 62
     0
100
AcDbPoint
 10
206.8511961722486
 20
75.66472320362058
 30
0.0
  0
POINT
  5
8241
330
8238
100
AcDbEntity
  8
DEFPOINTS
 62
     0
100
AcDbPoint
 10
231.2511961722488
 20
75.66472320362058
 30
0.0
  0
POINT
  5
8242
330
8238
100
AcDbEntity
  8
DEFPOINTS
 62
     0
100
AcDbPoint
 10
231.2511961722488
 20
54.48294463882412
 30
0.0
  0
ENDBLK
  5
8244
330
8238
100
AcDbEntity
  8
0
100
AcDbBlockEnd
  0
BLOCK
  5
8250
330
8245
100
AcDbEntity
  8
0
100
AcDbBlockBegin
  2
*D15
 70
     1
 10
0.0
 20
0.0
 30
0.0
  3
*D15
  1

  0
LINE
  5
8246
330
8245
100
AcDbEntity
  8
0
 62
     0
100
AcDbLine
 10
204.0511961722488
 20
88.20222320362059
 30
0.0
 11
204.0511961722488
 21
44.30294463882412
 31
0.0
  0
LINE
  5
8247
330
8245
100
AcDbEntity
  8
0
 62
     0
100
AcDbLine
 10
231.2511961722488
 20
75.60222320362058
 30
0.0
 11
231.2511961722488
 21
44.30294463882412
 31
0.0
  0
LINE
  5
8248
330
8245
100
AcDbEntity
  8
0
 62
     0
100
AcDbLine
 10
204.2311961722488
 20
44.48294463882412
 30
0.0
 11
217.0297676008202
 21
44.48294463882412
 31
0.0
  0
LINE
  5
8249
330
8245
100
AcDbEntity
  8
0
 62
     0
100
AcDbLine
 10
231.0711961722486
 20
44.48294463882412
 30
0.0
 11
218.2726247436773
 21
44.48294463882412
 31
0.0
  0
SOLID
  5
824A
330
8245
100
AcDbEntity
  8
0
 62
     0
100
AcDbTrace
 10
204.2311961722488
 20
44.51294463882411
 30
0.0
 11
204.2311961722488
 21
44.45294463882412
 31
0.0
 12
204.0511961722488
 22
44.48294463882412
 32
0.0
 13
204.0511961722488
 23
44.48294463882412
 33
0.0
  0
SOLID
  5
824B
330
8245
100
AcDbEntity
  8
0
 62
     0
100
AcDbTrace
 10
231.0711961722486
 20
44.51294463882411
 30
0.0
 11
231.0711961722486
 21
44.45294463882412
 31
0.0
 12
231.2511961722488
 22
44.48294463882412
 32
0.0
 13
231.2511961722488
 23
44.48294463882412
 33
0.0
  0
MTEXT
  5
824C
330
8245
100
AcDbEntity
  8
0
 62
     0
100
AcDbMText
 10
217.6511961722487
 20
44.48294463882412
 30
0.0
 40
0.18
 41
0.0
 71
     5
 72
     1
  1
\A1;27.2000
1001
ACAD
1000
MTEXTBEGIN
1070
    73
1070
     1
1070
    44
1040
1.0
1070
    74
1070
     0
1000
MTEXTEND
1000
MTEXTBEGIN
1070
    73
1070
     1
1070
    44
1040
1.0
1070
    74
1070
     0
1000
MTEXTEND
1000
MTEXTBEGIN
1070
    73
1070
     1
1070
    44
1040
1.0
1070
    74
1070
     0
1000
MTEXTEND
  0
POINT
  5
824D
330
8245
100
AcDbEntity
  8
DEFPOINTS
 62
     0
100
AcDbPoint
 10
204.0511961722488
 20
88.26472320362059
 30
0.0
  0
POINT
  5
824E
330
8245
100
AcDbEntity
  8
DEFPOINTS
 62
     0
100
AcDbPoint
 10
231.2511961722488
 20
75.66472320362058
 30
0.0
  0
POINT
  5
824F
330
8245
100
AcDbEntity
  8
DEFPOINTS
 62
     0
100
AcDbPoint
 10
231.2511961722488
 20
44.48294463882412
 30
0.0
  0
ENDBLK
  5
8251
330
8245
100
AcDbEntity
  8
0
100
AcDbBlockEnd
  0
BLOCK
  5
825D
330
8252
100
AcDbEntity
  8
0
100
AcDbBlockBegin
  2
*D16
 70
     1
 10
0.0
 20
0.0
 30
0.0
  3
*D16
  1

  0
LINE
  5
8253
330
8252
100
AcDbEntity
  8
0
 62
     0
100
AcDbLine
 10
200.8511961722486
 20
98.60222320362058
 30
0.0
 11
200.8511961722486
 21
34.30294463882411
 31
0.0
  0
LINE
  5
8254
330
8252
100
AcDbEntity
  8
0
 62
     0
100
AcDbLine
 10
202.4511961722488
 20
98.60222320362058
 30
0.0
 11
202.4511961722488
 21
34.30294463882411
 31
0.0
  0
LINE
  5
8255
330
8252
100
AcDbEntity
  8
0
 62
     0
100
AcDbLine
 10
201.0311961722488
 20
34.48294463882412
 30
0.0
 11
201.1326247436774
 21
34.48294463882412
 31
0.0
  0
LINE
  5
8256
330
8252
100
AcDbEntity
  8
0
 62
     0
100
AcDbLine
 10
202.2711961722488
 20
34.48294463882412
 30
0.0
 11
202.1697676008201
 21
34.48294463882412
 31
0.0
  0
SOLID
  5
8257
330
8252
100
AcDbEntity
  8
0
 62
     0
100
AcDbTrace
 10
201.0311961722488
 20
34.51294463882411
 30
0.0
 11
201.0311961722488
 21
34.45294463882412
 31
0.0
 12
200.8511961722486
 22
34.48294463882412
 32
0.0
 13
200.8511961722486
 23
34.48294463882412
 33
0.0
  0
SOLID
  5
8258
330
8252
100
AcDbEntity
  8
0
 62
     0
100
AcDbTrace
 10
202.2711961722488
 20
34.51294463882411
 30
0.0
 11
202.2711961722488
 21
34.45294463882412
 31
0.0
 12
202.4511961722488
 22
34.48294463882412
 32
0.0
 13
202.4511961722488
 23
34.48294463882412
 33
0.0
  0
MTEXT
  5
8259
330
8252
100
AcDbEntity
  8
0
 62
     0
100
AcDbMText
 10
201.6511961722488
 20
34.48294463882412
 30
0.0
 40
0.18
 41
0.0
 71
     5
 72
     1
  1
\A1;1.6000
1001
ACAD
1000
MTEXTBEGIN
1070
    73
1070
     1
1070
    44
1040
1.0
1070
    74
1070
     0
1000
MTEXTEND
1000
MTEXTBEGIN
1070
    73
1070
     1
1070
    44
1040
1.0
1070
    74
1070
     0
1000
MTEXTEND
1000
MTEXTBEGIN
1070
    73
1070
     1
1070
    44
1040
1.0
1070
    74
1070
     0
1000
MTEXTEND
  0
POINT
  5
825A
330
8252
100
AcDbEntity
  8
DEFPOINTS
 62
     0
100
AcDbPoint
 10
200.8511961722486
 20
98.66472320362058
 30
0.0
  0
POINT
  5
825B
330
8252
100
AcDbEntity
  8
DEFPOINTS
 62
     0
100
AcDbPoint
 10
202.4511961722488
 20
98.66472320362058
 30
0.0
  0
POINT
  5
825C
330
8252
100
AcDbEntity
  8
DEFPOINTS
 62
     0
100
AcDbPoint
 10
202.4511961722488
 20
34.48294463882412
 30
0.0
  0
ENDBLK
  5
825E
330
8252
100
AcDbEntity
  8
0
100
AcDbBlockEnd
  0
BLOCK
  5
826A
330
825F
100
AcDbEntity
  8
0
100
AcDbBlockBegin
  2
*D17
 70
     1
 10
0.0
 20
0.0
 30
0.0
  3
*D17
  1

  0
LINE
  5
8260
330
825F
100
AcDbEntity
  8
0
 62
     0
100
AcDbLine
 10
203.9886961722487
 20
129.0647232036205
 30
0.0
 11
178.5700000019
 21
129.0647232036205
 31
0.0
  0
LINE
  5
8261
330
825F
100
AcDbEntity
  8
0
 62
     0
100
AcDbLine
 10
203.9886961722487
 20
88.26472320362059
 30
0.0
 11
178.5700000019
 21
88.26472320362059
 31
0.0
  0
LINE
  5
8262
330
825F
100
AcDbEntity
  8
0
 62
     0
100
AcDbLine
 10
178.7500000019
 20
128.8847232036204
 30
0.0
 11
178.7500000019
 21
108.8447232036204
 31
0.0
  0
LINE
  5
8263
330
825F
100
AcDbEntity
  8
0
 62
     0
100
AcDbLine
 10
178.7500000019
 20
88.44472320362058
 30
0.0
 11
178.7500000019
 21
108.4847232036205
 31
0.0
  0
SOLID
  5
8264
330
825F
100
AcDbEntity
  8
0
 62
     0
100
AcDbTrace
 10
178.7200000019
 20
128.8847232036204
 30
0.0
 11
178.7800000018999
 21
128.8847232036204
 31
0.0
 12
178.7500000019
 22
129.0647232036205
 32
0.0
 13
178.7500000019
 23
129.0647232036205
 33
0.0
  0
SOLID
  5
8265
330
825F
100
AcDbEntity
  8
0
 62
     0
100
AcDbTrace
 10
178.7200000019
 20
88.44472320362058
 30
0.0
 11
178.7800000018999
 21
88.44472320362058
 31
0.0
 12
178.7500000019
 22
88.26472320362059
 32
0.0
 13
178.7500000019
 23
88.26472320362059
 33
0.0
  0
MTEXT
  5
8266
330
825F
100
AcDbEntity
  8
0
 62
     0
100
AcDbMText
 10
178.7500000019
 20
108.6647232036205
 30
0.0
 40
0.18
 41
0.0
 71
     5
 72
     1
  1
\A1;40.8000
1001
ACAD
1000
MTEXTBEGIN
1070
    73
1070
     1
1070
    44
1040
1.0
1070
    74
1070
     0
1000
MTEXTEND
1000
MTEXTBEGIN
1070
    73
1070
     1
1070
    44
1040
1.0
1070
    74
1070
     0
1000
MTEXTEND
1000
MTEXTBEGIN
1070
    73
1070
     1
1070
    44
1040
1.0
1070
    74
1070
     0
1000
MTEXTEND
  0
POINT
  5
8267
330
825F
100
AcDbEntity
  8
DEFPOINTS
 62
     0
100
AcDbPoint
 10
204.0511961722488
 20
129.0647232036205
 30
0.0
  0
POINT
  5
8268
330
825F
100
AcDbEntity
  8
DEFPOINTS
 62
     0
100
AcDbPoint
 10
204.0511961722488
 20
88.26472320362059
 30
0.0
  0
POINT
  5
8269
330
825F
100
AcDbEntity
  8
DEFPOINTS
 62
     0
100
AcDbPoint
 10
178.7500000019
 20
88.26472320362059
 30
0.0
  0
ENDBLK
  5
826B
330
825F
100
AcDbEntity
  8
0
100
AcDbBlockEnd
  0
BLOCK
  5
8277
330
826C
100
AcDbEntity
  8
0
100
AcDbBlockBegin
  2
*D18
 70
     1
 10
0.0
 20
0.0
 30
0.0
  3
*D18
  1

  0
LINE
  5
826D
330
826C
100
AcDbEntity
  8
0
 62
     0
100
AcDbLine
 10
200.7886961722486
 20
98.66472320362058
 30
0.0
 11
186.0700000018999
 21
98.66472320362058
 31
0.0
  0
LINE
  5
826E
330
826C
100
AcDbEntity
  8
0
 62
     0
100
AcDbLine
 10
200.7886961722486
 20
118.6647232036204
 30
0.0
 11
186.0700000018999
 21
118.6647232036204
 31
0.0
  0
LINE
  5
826F
330
826C
100
AcDbEntity
  8
0
 62
     0
100
AcDbLine
 10
186.2500000018999
 20
98.84472320362059
 30
0.0
 11
186.2500000018999
 21
108.4847232036205
 31
0.0
  0
LINE
  5
8270
330
826C
100
AcDbEntity
  8
0
 62
     0
100
AcDbLine
 10
186.2500000018999
 20
118.4847232036204
 30
0.0
 11
186.2500000018999
 21
108.8447232036204
 31
0.0
  0
SOLID
  5
8271
330
826C
100
AcDbEntity
  8
0
 62
     0
100
AcDbTrace
 10
186.2200000018999
 20
98.84472320362059
 30
0.0
 11
186.2800000018999
 21
98.84472320362059
 31
0.0
 12
186.2500000018999
 22
98.66472320362058
 32
0.0
 13
186.2500000018999
 23
98.66472320362058
 33
0.0
  0
SOLID
  5
8272
330
826C
100
AcDbEntity
  8
0
 62
     0
100
AcDbTrace
 10
186.2200000018999
 20
118.4847232036204
 30
0.0
 11
186.2800000018999
 21
118.4847232036204
 31
0.0
 12
186.2500000018999
 22
118.6647232036204
 32
0.0
 13
186.2500000018999
 23
118.6647232036204
 33
0.0
  0
MTEXT
  5
8273
330
826C
100
AcDbEntity
  8
0
 62
     0
100
AcDbMText
 10
186.2500000018999
 20
108.6647232036205
 30
0.0
 40
0.18
 41
0.0
 71
     5
 72
     1
  1
\A1;20.0000
1001
ACAD
1000
MTEXTBEGIN
1070
    73
1070
     1
1070
    44
1040
1.0
1070
    74
1070
     0
1000
MTEXTEND
1000
MTEXTBEGIN
1070
    73
1070
     1
1070
    44
1040
1.0
1070
    74
1070
     0
1000
MTEXTEND
1000
MTEXTBEGIN
1070
    73
1070
     1
1070
    44
1040
1.0
1070
    74
1070
     0
1000
MTEXTEND
  0
POINT
  5
8274
330
826C
100
AcDbEntity
  8
DEFPOINTS
 62
     0
100
AcDbPoint
 10
200.8511961722486
 20
98.66472320362058
 30
0.0
  0
POINT
  5
8275
330
826C
100
AcDbEntity
  8
DEFPOINTS
 62
     0
100
AcDbPoint
 10
200.8511961722486
 20
118.6647232036204
 30
0.0
  0
POINT
  5
8276
330
826C
100
AcDbEntity
  8
DEFPOINTS
 62
     0
100
AcDbPoint
 10
186.2500000018999
 20
118.6647232036204
 30
0.0
  0
ENDBLK
  5
8278
330
826C
100
AcDbEntity
  8
0
100
AcDbBlockEnd
  0
BLOCK
  5
8284
330
8279
100
AcDbEntity
  8
0
100
AcDbBlockBegin
  2
*D19
 70
     1
 10
0.0
 20
0.0
 30
0.0
  3
*D19
  1

  0
LINE
  5
827A
330
8279
100
AcDbEntity
  8
0
 62
     0
100
AcDbLine
 10
231.2511961722488
 20
75.60222320362058
 30
0.0
 11
231.2511961722488
 21
44.30294463882412
 31
0.0
  0
LINE
  5
827B
330
8279
100
AcDbEntity
  8
0
 62
     0
100
AcDbLine
 10
273.6511961722488
 20
79.80222320362056
 30
0.0
 11
273.6511961722488
 21
44.30294463882412
 31
0.0
  0
LINE
  5
827C
330
8279
100
AcDbEntity
  8
0
 62
     0
100
AcDbLine
 10
231.4311961722486
 20
44.48294463882412
 30
0.0
 11
251.82976760082
 21
44.48294463882412
 31
0.0
  0
LINE
  5
827D
330
8279
100
AcDbEntity
  8
0
 62
     0
100
AcDbLine
 10
273.4711961722488
 20
44.48294463882412
 30
0.0
 11
253.0726247436774
 21
44.48294463882412
 31
0.0
  0
SOLID
  5
827E
330
8279
100
AcDbEntity
  8
0
 62
     0
100
AcDbTrace
 10
231.4311961722486
 20
44.51294463882411
 30
0.0
 11
231.4311961722486
 21
44.45294463882412
 31
0.0
 12
231.2511961722488
 22
44.48294463882412
 32
0.0
 13
231.2511961722488
 23
44.48294463882412
 33
0.0
  0
SOLID
  5
827F
330
8279
100
AcDbEntity
  8
0
 62
     0
100
AcDbTrace
 10
273.4711961722488
 20
44.51294463882411
 30
0.0
 11
273.4711961722488
 21
44.45294463882412
 31
0.0
 12
273.6511961722488
 22
44.48294463882412
 32
0.0
 13
273.6511961722488
 23
44.48294463882412
 33
0.0
  0
MTEXT
  5
8280
330
8279
100
AcDbEntity
  8
0
 62
     0
100
AcDbMText
 10
252.4511961722488
 20
44.48294463882412
 30
0.0
 40
0.18
 41
0.0
 71
     5
 72
     1
  1
\A1;42.4000
1001
ACAD
1000
MTEXTBEGIN
1070
    73
1070
     1
1070
    44
1040
1.0
1070
    74
1070
     0
1000
MTEXTEND
1000
MTEXTBEGIN
1070
    73
1070
     1
1070
    44
1040
1.0
1070
    74
1070
     0
1000
MTEXTEND
1000
MTEXTBEGIN
1070
    73
1070
     1
1070
    44
1040
1.0
1070
    74
1070
     0
1000
MTEXTEND
  0
POINT
  5
8281
330
8279
100
AcDbEntity
  8
DEFPOINTS
 62
     0
100
AcDbPoint
 10
231.2511961722488
 20
75.66472320362058
 30
0.0
  0
POINT
  5
8282
330
8279
100
AcDbEntity
  8
DEFPOINTS
 62
     0
100
AcDbPoint
 10
273.6511961722488
 20
79.86472320362056
 30
0.0
  0
POINT
  5
8283
330
8279
100
AcDbEntity
  8
DEFPOINTS
 62
     0
100
AcDbPoint
 10
273.6511961722488
 20
44.48294463882412
 30
0.0
  0
ENDBLK
  5
8285
330
8279
100
AcDbEntity
  8
0
100
AcDbBlockEnd
  0
BLOCK
  5
8291
330
8286
100
AcDbEntity
  8
0
100
AcDbBlockBegin
  2
*D20
 70
     1
 10
0.0
 20
0.0
 30
0.0
  3
*D20
  1

  0
LINE
  5
8287
330
8286
100
AcDbEntity
  8
0
 62
     0
100
AcDbLine
 10
231.2511961722488
 20
75.60222320362058
 30
0.0
 11
231.2511961722488
 21
54.30294463882412
 31
0.0
  0
LINE
  5
8288
330
8286
100
AcDbEntity
  8
0
 62
     0
100
AcDbLine
 10
259.6511961722486
 20
79.80222320362056
 30
0.0
 11
259.6511961722486
 21
54.30294463882412
 31
0.0
  0
LINE
  5
8289
330
8286
100
AcDbEntity
  8
0
 62
     0
100
AcDbLine
 10
231.4311961722486
 20
54.48294463882412
 30
0.0
 11
244.8297676008202
 21
54.48294463882412
 31
0.0
  0
LINE
  5
828A
330
8286
100
AcDbEntity
  8
0
 62
     0
100
AcDbLine
 10
259.4711961722488
 20
54.48294463882412
 30
0.0
 11
246.0726247436773
 21
54.48294463882412
 31
0.0
  0
SOLID
  5
828B
330
8286
100
AcDbEntity
  8
0
 62
     0
100
AcDbTrace
 10
231.4311961722486
 20
54.51294463882412
 30
0.0
 11
231.4311961722486
 21
54.45294463882412
 31
0.0
 12
231.2511961722488
 22
54.48294463882412
 32
0.0
 13
231.2511961722488
 23
54.48294463882412
 33
0.0
  0
SOLID
  5
828C
330
8286
100
AcDbEntity
  8
0
 62
     0
100
AcDbTrace
 10
259.4711961722488
 20
54.51294463882412
 30
0.0
 11
259.4711961722488
 21
54.45294463882412
 31
0.0
 12
259.6511961722486
 22
54.48294463882412
 32
0.0
 13
259.6511961722486
 23
54.48294463882412
 33
0.0
  0
MTEXT
  5
828D
330
8286
100
AcDbEntity
  8
0
 62
     0
100
AcDbMText
 10
245.4511961722487
 20
54.48294463882412
 30
0.0
 40
0.18
 41
0.0
 71
     5
 72
     1
  1
\A1;28.4000
1001
ACAD
1000
MTEXTBEGIN
1070
    73
1070
     1
1070
    44
1040
1.0
1070
    74
1070
     0
1000
MTEXTEND
1000
MTEXTBEGIN
1070
    73
1070
     1
1070
    44
1040
1.0
1070
    74
1070
     0
1000
MTEXTEND
1000
MTEXTBEGIN
1070
    73
1070
     1
1070
    44
1040
1.0
1070
    74
1070
     0
1000
MTEXTEND
  0
POINT
  5
828E
330
8286
100
AcDbEntity
  8
DEFPOINTS
 62
     0
100
AcDbPoint
 10
231.2511961722488
 20
75.66472320362058
 30
0.0
  0
POINT
  5
828F
330
8286
100
AcDbEntity
  8
DEFPOINTS
 62
     0
100
AcDbPoint
 10
259.6511961722486
 20
79.86472320362056
 30
0.0
  0
POINT
  5
8290
330
8286
100
AcDbEntity
  8
DEFPOINTS
 62
     0
100
AcDbPoint
 10
259.6511961722486
 20
54.48294463882412
 30
0.0
  0
ENDBLK
  5
8292
330
8286
100
AcDbEntity
  8
0
100
AcDbBlockEnd
  0
BLOCK
  5
829E
330
8293
100
AcDbEntity
  8
0
100
AcDbBlockBegin
  2
*D21
 70
     1
 10
0.0
 20
0.0
 30
0.0
  3
*D21
  1

  0
LINE
  5
8294
330
8293
100
AcDbEntity
  8
0
 62
     0
100
AcDbLine
 10
253.6511961722488
 20
78.80222319702058
 30
0.0
 11
253.6511961722488
 21
64.3029446388241
 31
0.0
  0
LINE
  5
8295
330
8293
100
AcDbEntity
  8
0
 62
     0
100
AcDbLine
 10
259.6511961722486
 20
75.67911756359629
 30
0.0
 11
259.6511961722486
 21
64.3029446388241
 31
0.0
  0
LINE
  5
8296
330
8293
100
AcDbEntity
  8
0
 62
     0
100
AcDbLine
 10
253.8311961722488
 20
64.48294463882409
 30
0.0
 11
256.1154818865345
 21
64.48294463882409
 31
0.0
  0
LINE
  5
8297
330
8293
100
AcDbEntity
  8
0
 62
     0
100
AcDbLine
 10
259.4711961722488
 20
64.48294463882409
 30
0.0
 11
257.1869104579631
 21
64.48294463882409
 31
0.0
  0
SOLID
  5
8298
330
8293
100
AcDbEntity
  8
0
 62
     0
100
AcDbTrace
 10
253.8311961722488
 20
64.51294463882409
 30
0.0
 11
253.8311961722488
 21
64.45294463882409
 31
0.0
 12
253.6511961722488
 22
64.48294463882409
 32
0.0
 13
253.6511961722488
 23
64.48294463882409
 33
0.0
  0
SOLID
  5
8299
330
8293
100
AcDbEntity
  8
0
 62
     0
100
AcDbTrace
 10
259.4711961722488
 20
64.51294463882409
 30
0.0
 11
259.4711961722488
 21
64.45294463882409
 31
0.0
 12
259.6511961722486
 22
64.48294463882409
 32
0.0
 13
259.6511961722486
 23
64.48294463882409
 33
0.0
  0
MTEXT
  5
829A
330
8293
100
AcDbEntity
  8
0
 62
     0
100
AcDbMText
 10
256.6511961722486
 20
64.48294463882409
 30
0.0
 40
0.18
 41
0.0
 71
     5
 72
     1
  1
\A1;6.0000
1001
ACAD
1000
MTEXTBEGIN
1070
    73
1070
     1
1070
    44
1040
1.0
1070
    74
1070
     0
1000
MTEXTEND
1000
MTEXTBEGIN
1070
    73
1070
     1
1070
    44
1040
1.0
1070
    74
1070
     0
1000
MTEXTEND
1000
MTEXTBEGIN
1070
    73
1070
     1
1070
    44
1040
1.0
1070
    74
1070
     0
1000
MTEXTEND
  0
POINT
  5
829B
330
8293
100
AcDbEntity
  8
DEFPOINTS
 62
     0
100
AcDbPoint
 10
253.6511961722488
 20
78.86472319702058
 30
0.0
  0
POINT
  5
829C
330
8293
100
AcDbEntity
  8
DEFPOINTS
 62
     0
100
AcDbPoint
 10
259.6511961722486
 20
75.74161756359629
 30
0.0
  0
POINT
  5
829D
330
8293
100
AcDbEntity
  8
DEFPOINTS
 62
     0
100
AcDbPoint
 10
259.6511961722486
 20
64.48294463882409
 30
0.0
  0
ENDBLK
  5
829F
330
8293
100
AcDbEntity
  8
0
100
AcDbBlockEnd
  0
BLOCK
  5
82AB
330
82A0
100
AcDbEntity
  8
0
100
AcDbBlockBegin
  2
*D22
 70
     1
 10
0.0
 20
0.0
 30
0.0
  3
*D22
  1

  0
LINE
  5
82A1
330
82A0
100
AcDbEntity
  8
0
 62
     0
100
AcDbLine
 10
267.6511961722486
 20
78.80222319702058
 30
0.0
 11
267.6511961722486
 21
64.3029446388241
 31
0.0
  0
LINE
  5
82A2
330
82A0
100
AcDbEntity
  8
0
 62
     0
100
AcDbLine
 10
273.6511961722488
 20
75.67911756359629
 30
0.0
 11
273.6511961722488
 21
64.3029446388241
 31
0.0
  0
LINE
  5
82A3
330
82A0
100
AcDbEntity
  8
0
 62
     0
100
AcDbLine
 10
267.8311961722485
 20
64.48294463882409
 30
0.0
 11
270.1154818865345
 21
64.48294463882409
 31
0.0
  0
LINE
  5
82A4
330
82A0
100
AcDbEntity
  8
0
 62
     0
100
AcDbLine
 10
273.4711961722488
 20
64.48294463882409
 30
0.0
 11
271.1869104579631
 21
64.48294463882409
 31
0.0
  0
SOLID
  5
82A5
330
82A0
100
AcDbEntity
  8
0
 62
     0
100
AcDbTrace
 10
267.8311961722485
 20
64.51294463882409
 30
0.0
 11
267.8311961722485
 21
64.45294463882409
 31
0.0
 12
267.6511961722486
 22
64.48294463882409
 32
0.0
 13
267.6511961722486
 23
64.48294463882409
 33
0.0
  0
SOLID
  5
82A6
330
82A0
100
AcDbEntity
  8
0
 62
     0
100
AcDbTrace
 10
273.4711961722488
 20
64.51294463882409
 30
0.0
 11
273.4711961722488
 21
64.45294463882409
 31
0.0
 12
273.6511961722488
 22
64.48294463882409
 32
0.0
 13
273.6511961722488
 23
64.48294463882409
 33
0.0
  0
MTEXT
  5
82A7
330
82A0
100
AcDbEntity
  8
0
 62
     0
100
AcDbMText
 10
270.6511961722485
 20
64.48294463882409
 30
0.0
 40
0.18
 41
0.0
 71
     5
 72
     1
  1
\A1;6.0000
1001
ACAD
1000
MTEXTBEGIN
1070
    73
1070
     1
1070
    44
1040
1.0
1070
    74
1070
     0
1000
MTEXTEND
1000
MTEXTBEGIN
1070
    73
1070
     1
1070
    44
1040
1.0
1070
    74
1070
     0
1000
MTEXTEND
1000
MTEXTBEGIN
1070
    73
1070
     1
1070
    44
1040
1.0
1070
    74
1070
     0
1000
MTEXTEND
  0
POINT
  5
82A8
330
82A0
100
AcDbEntity
  8
DEFPOINTS
 62
     0
100
AcDbPoint
 10
267.6511961722486
 20
78.86472319702058
 30
0.0
  0
POINT
  5
82A9
330
82A0
100
AcDbEntity
  8
DEFPOINTS
 62
     0
100
AcDbPoint
 10
273.6511961722488
 20
75.74161756359629
 30
0.0
  0
POINT
  5
82AA
330
82A0
100
AcDbEntity
  8
DEFPOINTS
 62
     0
100
AcDbPoint
 10
273.6511961722488
 20
64.48294463882409
 30
0.0
  0
ENDBLK
  5
82AC
330
82A0
100
AcDbEntity
  8
0
100
AcDbBlockEnd
  0
BLOCK
  5
82B8
330
82AD
100
AcDbEntity
  8
0
100
AcDbBlockBegin
  2
*D23
 70
     1
 10
0.0
 20
0.0
 30
0.0
  3
*D23
  1

  0
LINE
  5
82AE
330
82AD
100
AcDbEntity
  8
0
 62
     0
100
AcDbLine
 10
272.6418994025243
 20
75.86472320362054
 30
0.0
 11
287.9300000019
 21
75.86472320362054
 31
0.0
  0
LINE
  5
82AF
330
82AD
100
AcDbEntity
  8
0
 62
     0
100
AcDbLine
 10
272.6418994025243
 20
83.86472320362058
 30
0.0
 11
287.9300000019
 21
83.86472320362058
 31
0.0
  0
LINE
  5
82B0
330
82AD
100
AcDbEntity
  8
0
 62
     0
100
AcDbLine
 10
287.7500000018999
 20
76.04472320362058
 30
0.0
 11
287.7500000018999
 21
79.68472320362057
 31
0.0
  0
LINE
  5
82B1
330
82AD
100
AcDbEntity
  8
0
 62
     0
100
AcDbLine
 10
287.7500000018999
 20
83.68472320362057
 30
0.0
 11
287.7500000018999
 21
80.04472320362058
 31
0.0
  0
SOLID
  5
82B2
330
82AD
100
AcDbEntity
  8
0
 62
     0
100
AcDbTrace
 10
287.7200000018996
 20
76.04472320362058
 30
0.0
 11
287.7800000018996
 21
76.04472320362058
 31
0.0
 12
287.7500000018999
 22
75.86472320362054
 32
0.0
 13
287.7500000018999
 23
75.86472320362054
 33
0.0
  0
SOLID
  5
82B3
330
82AD
100
AcDbEntity
  8
0
 62
     0
100
AcDbTrace
 10
287.7200000018996
 20
83.68472320362057
 30
0.0
 11
287.7800000018996
 21
83.68472320362057
 31
0.0
 12
287.7500000018999
 22
83.86472320362058
 32
0.0
 13
287.7500000018999
 23
83.86472320362058
 33
0.0
  0
MTEXT
  5
82B4
330
82AD
100
AcDbEntity
  8
0
 62
     0
100
AcDbMText
 10
287.7500000018999
 20
79.8647232036206
 30
0.0
 40
0.18
 41
0.0
 71
     5
 72
     1
  1
\A1;8.0000
1001
ACAD
1000
MTEXTBEGIN
1070
    73
1070
     1
1070
    44
1040
1.0
1070
    74
1070
     0
1000
MTEXTEND
1000
MTEXTBEGIN
1070
    73
1070
     1
1070
    44
1040
1.0
1070
    74
1070
     0
1000
MTEXTEND
1000
MTEXTBEGIN
1070
    73
1070
     1
1070
    44
1040
1.0
1070
    74
1070
     0
1000
MTEXTEND
  0
POINT
  5
82B5
330
82AD
100
AcDbEntity
  8
DEFPOINTS
 62
     0
100
AcDbPoint
 10
272.5793994025242
 20
75.86472320362054
 30
0.0
  0
POINT
  5
82B6
330
82AD
100
AcDbEntity
  8
DEFPOINTS
 62
     0
100
AcDbPoint
 10
272.5793994025242
 20
83.86472320362058
 30
0.0
  0
POINT
  5
82B7
330
82AD
100
AcDbEntity
  8
DEFPOINTS
 62
     0
100
AcDbPoint
 10
287.7500000018999
 20
83.86472320362058
 30
0.0
  0
ENDBLK
  5
82B9
330
82AD
100
AcDbEntity
  8
0
100
AcDbBlockEnd
  0
BLOCK
  5
82C5
330
82BA
100
AcDbEntity
  8
0
100
AcDbBlockBegin
  2
*D24
 70
     1
 10
0.0
 20
0.0
 30
0.0
  3
*D24
  1

  0
LINE
  5
82BB
330
82BA
100
AcDbEntity
  8
0
 62
     0
100
AcDbLine
 10
273.7136961722486
 20
136.2647232036204
 30
0.0
 11
287.9300000019
 21
136.2647232036204
 31
0.0
  0
LINE
  5
82BC
330
82BA
100
AcDbEntity
  8
0
 62
     0
100
AcDbLine
 10
273.7136961722486
 20
138.6647232036205
 30
0.0
 11
287.9300000019
 21
138.6647232036205
 31
0.0
  0
LINE
  5
82BD
330
82BA
100
AcDbEntity
  8
0
 62
     0
100
AcDbLine
 10
287.7500000018999
 20
136.4447232036205
 30
0.0
 11
287.7500000018999
 21
137.2847232036205
 31
0.0
  0
LINE
  5
82BE
330
82BA
100
AcDbEntity
  8
0
 62
     0
100
AcDbLine
 10
287.7500000018999
 20
138.4847232036202
 30
0.0
 11
287.7500000018999
 21
137.6447232036204
 31
0.0
  0
SOLID
  5
82BF
330
82BA
100
AcDbEntity
  8
0
 62
     0
100
AcDbTrace
 10
287.7200000018996
 20
136.4447232036205
 30
0.0
 11
287.7800000018996
 21
136.4447232036205
 31
0.0
 12
287.7500000018999
 22
136.2647232036204
 32
0.0
 13
287.7500000018999
 23
136.2647232036204
 33
0.0
  0
SOLID
  5
82C0
330
82BA
100
AcDbEntity
  8
0
 62
     0
100
AcDbTrace
 10
287.7200000018996
 20
138.4847232036202
 30
0.0
 11
287.7800000018996
 21
138.4847232036202
 31
0.0
 12
287.7500000018999
 22
138.6647232036205
 32
0.0
 13
287.7500000018999
 23
138.6647232036205
 33
0.0
  0
MTEXT
  5
82C1
330
82BA
100
AcDbEntity
  8
0
 62
     0
100
AcDbMText
 10
287.7500000018999
 20
137.4647232036204
 30
0.0
 40
0.18
 41
0.0
 71
     5
 72
     1
  1
\A1;2.4000
1001
ACAD
1000
MTEXTBEGIN
1070
    73
1070
     1
1070
    44
1040
1.0
1070
    74
1070
     0
1000
MTEXTEND
1000
MTEXTBEGIN
1070
    73
1070
     1
1070
    44
1040
1.0
1070
    74
1070
     0
1000
MTEXTEND
1000
MTEXTBEGIN
1070
    73
1070
     1
1070
    44
1040
1.0
1070
    74
1070
     0
1000
MTEXTEND
  0
POINT
  5
82C2
330
82BA
100
AcDbEntity
  8
DEFPOINTS
 62
     0
100
AcDbPoint
 10
273.6511961722488
 20
136.2647232036204
 30
0.0
  0
POINT
  5
82C3
330
82BA
100
AcDbEntity
  8
DEFPOINTS
 62
     0
100
AcDbPoint
 10
273.6511961722488
 20
138.6647232036205
 30
0.0
  0
POINT
  5
82C4
330
82BA
100
AcDbEntity
  8
DEFPOINTS
 62
     0
100
AcDbPoint
 10
287.7500000018999
 20
138.6647232036205
 30
0.0
  0
ENDBLK
  5
82C6
330
82BA
100
AcDbEntity
  8
0
100
AcDbBlockEnd
  0
BLOCK
  5
8324
330
82C7
100
AcDbEntity
  8
0
100
AcDbBlockBegin
  2
A$C430B49B3
 70
     0
 10
0.0
 20
0.0
 30
0.0
  3
A$C430B49B3
  1

  0
LINE
  5
82C8
330
82C7
100
AcDbEntity
  8
0
100
AcDbLine
 10
-27.68000000000003
 20
-33.0
 30
0.0
 11
-3.279999999999971
 21
-33.0
 31
0.0
  0
DIMENSION
  5
82C9
330
82C7
100
AcDbEntity
  8
0
100
AcDbDimension
  2
*D12
 10
-3.279999999999971
 20
-84.18177856479646
 30
0.0
 11
-21.68
 21
-84.18177856479646
 31
0.0
 12
-234.5311961722488
 22
-108.6647232036205
 32
0.0
  3
STANDARD
100
AcDbAlignedDimension
 13
-40.08000000000001
 23
-1.000000006600018
 33
0.0
 14
-3.279999999999971
 24
-33.0
 34
0.0
 50
180.0
100
AcDbRotatedDimension
1001
ACAD
1000
DSTYLE
1002
{
1070
   340
1005
11
1002
}
  0
DIMENSION
  5
82CA
330
82C7
100
AcDbEntity
  8
0
100
AcDbDimension
  2
*D13
 10
-3.279999999999971
 20
-74.18177856479649
 30
0.0
 11
-17.67999999999998
 21
-74.18177856479649
 31
0.0
 12
-234.5311961722488
 22
-108.6647232036205
 32
0.0
  3
STANDARD
100
AcDbAlignedDimension
 13
-32.07999999999998
 23
-10.0
 33
0.0
 14
-3.279999999999971
 24
-33.0
 34
0.0
 50
180.0
100
AcDbRotatedDimension
1001
ACAD
1000
DSTYLE
1002
{
1070
   340
1005
11
1002
}
  0
DIMENSION
  5
82CB
330
82C7
100
AcDbEntity
  8
0
100
AcDbDimension
  2
*D14
 10
-3.279999999999971
 20
-54.18177856479646
 30
0.0
 11
-15.48
 21
-54.18177856479646
 31
0.0
 12
-234.5311961722488
 22
-108.6647232036205
 32
0.0
  3
STANDARD
100
AcDbAlignedDimension
 13
-27.68000000000003
 23
-33.0
 33
0.0
 14
-3.279999999999971
 24
-33.0
 34
0.0
 50
180.0
100
AcDbRotatedDimension
1001
ACAD
1000
DSTYLE
1002
{
1070
   340
1005
11
1002
}
  0
DIMENSION
  5
82CC
330
82C7
100
AcDbEntity
  8
0
100
AcDbDimension
  2
*D15
 10
-3.279999999999971
 20
-64.18177856479646
 30
0.0
 11
-16.87999999999999
 21
-64.18177856479646
 31
0.0
 12
-234.5311961722488
 22
-108.6647232036205
 32
0.0
  3
STANDARD
100
AcDbAlignedDimension
 13
-30.47999999999999
 23
-20.39999999999998
 33
0.0
 14
-3.279999999999971
 24
-33.0
 34
0.0
 50
180.0
100
AcDbRotatedDimension
1001
ACAD
1000
DSTYLE
1002
{
1070
   340
1005
11
1002
}
  0
LINE
  5
82CD
330
82C7
100
AcDbEntity
  8
0
100
AcDbLine
 10
-42.07999999999997
 20
0.0
 30
0.0
 11
0.0
 21
0.0
 31
0.0
  0
LINE
  5
82CE
330
82C7
100
AcDbEntity
  8
0
100
AcDbLine
 10
-3.279999999999971
 20
33.0
 30
0.0
 11
-27.68000000000003
 21
33.0
 31
0.0
  0
LINE
  5
82CF
330
82C7
100
AcDbEntity
  8
0
100
AcDbLine
 10
-27.68000000000003
 20
33.0
 30
0.0
 11
-27.68000000000003
 21
20.4
 31
0.0
  0
DIMENSION
  5
82D0
330
82C7
100
AcDbEntity
  8
0
100
AcDbDimension
  2
*D16
 10
-32.07999999999998
 20
-74.18177856479646
 30
0.0
 11
-32.87999999999998
 21
-74.18177856479646
 31
0.0
 12
-234.5311961722488
 22
-108.6647232036205
 32
0.0
  3
STANDARD
100
AcDbAlignedDimension
 13
-33.68000000000003
 23
-10.0
 33
0.0
 14
-32.07999999999998
 24
-10.0
 34
0.0
 50
180.0
100
AcDbRotatedDimension
1001
ACAD
1000
DSTYLE
1002
{
1070
   340
1005
11
1002
}
  0
LINE
  5
82D1
330
82C7
100
AcDbEntity
  8
0
100
AcDbLine
 10
-30.47999999999999
 20
20.4
 30
0.0
 11
-30.47999999999999
 21
-20.39999999999998
 31
0.0
  0
DIMENSION
  5
82D2
330
82C7
100
AcDbEntity
  8
0
100
AcDbDimension
  2
*D17
 10
-55.78119617034881
 20
-20.39999999999998
 30
0.0
 11
-55.78119617034881
 21
0.0000000000000426
 31
0.0
 12
-234.5311961722488
 22
-108.6647232036205
 32
0.0
  3
STANDARD
100
AcDbAlignedDimension
 13
-30.47999999999999
 23
20.4
 33
0.0
 14
-30.47999999999999
 24
-20.39999999999998
 34
0.0
 50
90.0
100
AcDbRotatedDimension
1001
ACAD
1000
DSTYLE
1002
{
1070
   340
1005
11
1002
}
  0
LINE
  5
82D3
330
82C7
100
AcDbEntity
  8
0
100
AcDbLine
 10
-27.68000000000003
 20
-20.39999999999998
 30
0.0
 11
-27.68000000000003
 21
-33.0
 31
0.0
  0
LINE
  5
82D4
330
82C7
100
AcDbEntity
  8
0
100
AcDbLine
 10
-30.47999999999999
 20
-20.39999999999998
 30
0.0
 11
-27.68000000000003
 21
-20.39999999999998
 31
0.0
  0
LINE
  5
82D5
330
82C7
100
AcDbEntity
  8
0
100
AcDbLine
 10
-32.07999999999998
 20
10.0
 30
0.0
 11
-32.07999999999998
 21
-10.0
 31
0.0
  0
LINE
  5
82D6
330
82C7
100
AcDbEntity
  8
0
100
AcDbLine
 10
-33.68000000000003
 20
10.0
 30
0.0
 11
-33.68000000000003
 21
-10.0
 31
0.0
  0
DIMENSION
  5
82D7
330
82C7
100
AcDbEntity
  8
0
100
AcDbDimension
  2
*D18
 10
-48.28119617034881
 20
10.0
 30
0.0
 11
-48.28119617034886
 21
0.0000000000000284
 31
0.0
 12
-234.5311961722488
 22
-108.6647232036205
 32
0.0
  3
STANDARD
100
AcDbAlignedDimension
 13
-33.68000000000003
 23
-10.0
 33
0.0
 14
-33.68000000000003
 24
10.0
 34
0.0
 50
90.0
100
AcDbRotatedDimension
1001
ACAD
1000
DSTYLE
1002
{
1070
   340
1005
11
1002
}
  0
ARC
  5
82D8
330
82C7
100
AcDbEntity
  8
0
100
AcDbCircle
 10
-27.68000000000003
 20
0.0
 30
0.0
 40
12.4
100
AcDbArc
 50
150.5534441956585
 51
180.0
  0
TEXT
  5
82D9
330
82C7
100
AcDbEntity
  8
0
100
AcDbText
 10
-44.37157603634952
 20
-2.968220372277641
 30
0.0
 40
3.000000019799997
  1
L
 41
1.189062499999995
  7
UGMTXT
100
AcDbText
  0
TEXT
  5
82DA
330
82C7
100
AcDbEntity
  8
0
100
AcDbText
 10
-45.19869650616015
 20
-1.470672531620991
 30
0.0
 40
3.000000019799997
  1
C
 41
1.189062499999995
  7
UGMTXT
100
AcDbText
  0
LINE
  5
82DB
330
82C7
100
AcDbEntity
  8
0
100
AcDbLine
 10
-33.68000000000003
 20
-10.0
 30
0.0
 11
-30.47999999999999
 21
-10.0
 31
0.0
  0
LINE
  5
82DC
330
82C7
100
AcDbEntity
  8
0
100
AcDbLine
 10
-33.68000000000003
 20
5.666174735772003
 30
0.0
 11
-37.10151807259561
 21
8.061947482324226
 31
0.0
  0
LINE
  5
82DD
330
82C7
100
AcDbEntity
  8
0
100
AcDbLine
 10
-33.68000000000003
 20
2.736315722744503
 30
0.0
 11
-38.47810151983807
 21
6.095982576030664
 31
0.0
  0
LINE
  5
82DE
330
82C7
100
AcDbEntity
  8
0
100
AcDbLine
 10
-38.47810151983807
 20
6.095982576030664
 30
0.0
 11
-37.10151807259561
 21
8.061947482324226
 31
0.0
  0
LINE
  5
82DF
330
82C7
100
AcDbEntity
  8
0
100
AcDbLine
 10
-33.68000000000003
 20
10.0
 30
0.0
 11
-30.47999999999999
 21
10.0
 31
0.0
  0
LINE
  5
82E0
330
82C7
100
AcDbEntity
  8
0
100
AcDbLine
 10
-30.47999999999999
 20
20.4
 30
0.0
 11
-27.68000000000003
 21
20.4
 31
0.0
  0
LINE
  5
82E1
330
82C7
100
AcDbEntity
  8
0
100
AcDbLine
 10
-2.0
 20
44.99999999999997
 30
0.0
 11
-2.0
 21
-45.0
 31
0.0
  0
LINE
  5
82E2
330
82C7
100
AcDbEntity
  8
0
100
AcDbLine
 10
-3.279999999999971
 20
33.0
 30
0.0
 11
-3.279999999999971
 21
-33.0
 31
0.0
  0
INSERT
  5
82E3
330
82C7
100
AcDbEntity
  8
0
100
AcDbBlockReference
  2
*U6
 10
-234.5311961722488
 20
-108.6647232036205
 30
0.0
  0
INSERT
  5
82E4
330
82C7
100
AcDbEntity
  8
0
100
AcDbBlockReference
  2
*U5
 10
-234.5311961722488
 20
-108.6647232036205
 30
0.0
  0
DIMENSION
  5
82E5
330
82C7
100
AcDbEntity
  8
0
100
AcDbDimension
  2
*D19
 10
39.11999999999999
 20
-64.18177856479646
 30
0.0
 11
17.92000000000001
 21
-64.18177856479646
 31
0.0
 12
-234.5311961722488
 22
-108.6647232036205
 32
0.0
  3
STANDARD
100
AcDbAlignedDimension
 13
-3.279999999999971
 23
-33.0
 33
0.0
 14
39.11999999999999
 24
-28.8
 34
0.0
 50
180.0
100
AcDbRotatedDimension
1001
ACAD
1000
DSTYLE
1002
{
1070
   340
1005
11
1002
}
  0
LINE
  5
82E6
330
82C7
100
AcDbEntity
  8
0
100
AcDbLine
 10
-5.280000000000056
 20
-28.8
 30
0.0
 11
43.32000000000005
 21
-28.8
 31
0.0
  0
LINE
  5
82E7
330
82C7
100
AcDbEntity
  8
0
100
AcDbLine
 10
25.13776346213933
 20
-24.8
 30
0.0
 11
38.04820323027547
 21
-24.8
 31
0.0
  0
LINE
  5
82E8
330
82C7
100
AcDbEntity
  8
0
100
AcDbLine
 10
25.13776346213933
 20
-32.80000000000001
 30
0.0
 11
38.04820323027547
 21
-32.80000000000001
 31
0.0
  0
TEXT
  5
82E9
330
82C7
100
AcDbEntity
  8
0
100
AcDbText
 10
9.258752767119915
 20
-8.888304652245892
 30
0.0
 40
2.500000003799998
  1
Conductor overlap max.
 41
0.8002884615384591
  7
UGMTXT
100
AcDbText
  0
INSERT
  5
82EA
330
82C7
100
AcDbEntity
  8
0
100
AcDbBlockReference
  2
*U7
 10
-234.5311961722488
 20
-108.6647232036205
 30
0.0
  0
DIMENSION
  5
82EB
330
82C7
100
AcDbEntity
  8
0
100
AcDbDimension
  2
*D20
 10
25.12
 20
-54.18177856479646
 30
0.0
 11
10.92
 21
-54.18177856479646
 31
0.0
 12
-234.5311961722488
 22
-108.6647232036205
 32
0.0
  3
STANDARD
100
AcDbAlignedDimension
 13
-3.279999999999971
 23
-33.0
 33
0.0
 14
25.12
 24
-28.8
 34
0.0
 50
180.0
100
AcDbRotatedDimension
1001
ACAD
1000
DSTYLE
1002
{
1070
   340
1005
11
1002
}
  0
INSERT
  5
82EC
330
82C7
100
AcDbEntity
  8
0
100
AcDbBlockReference
  2
*U9
 10
-234.5311961722488
 20
-108.6647232036205
 30
0.0
  0
LINE
  5
82ED
330
82C7
100
AcDbEntity
  8
0
100
AcDbLine
 10
-3.279999999999943
 20
-32.80000000000001
 30
0.0
 11
24.04820323027546
 21
-32.80000000000001
 31
0.0
  0
LINE
  5
82EE
330
82C7
100
AcDbEntity
  8
0
100
AcDbLine
 10
-3.279999999999943
 20
-24.8
 30
0.0
 11
24.04820323027546
 21
-24.8
 31
0.0
  0
LINE
  5
82EF
330
82C7
100
AcDbEntity
  8
0
100
AcDbLine
 10
-3.279999999999971
 20
-33.0
 30
0.0
 11
-3.279999999999971
 21
-45.0
 31
0.0
  0
DIMENSION
  5
82F0
330
82C7
100
AcDbEntity
  8
0
100
AcDbDimension
  2
*D21
 10
25.12
 20
-44.18177856479649
 30
0.0
 11
22.12
 21
-44.18177856479649
 31
0.0
 12
-234.5311961722488
 22
-108.6647232036205
 32
0.0
  3
STANDARD
100
AcDbAlignedDimension
 13
19.12
 23
-29.8000000066
 33
0.0
 14
25.12
 24
-32.92310564002429
 34
0.0
 50
180.0
100
AcDbRotatedDimension
1001
ACAD
1000
DSTYLE
1002
{
1070
   340
1005
11
1002
}
  0
INSERT
  5
82F1
330
82C7
100
AcDbEntity
  8
0
100
AcDbBlockReference
  2
*U8
 10
-234.5311961722488
 20
-108.6647232036205
 30
0.0
  0
LINE
  5
82F2
330
82C7
100
AcDbEntity
  8
0
100
AcDbLine
 10
7.720000000000027
 20
-24.8
 30
0.0
 11
7.720000000000027
 21
-32.80000000000001
 31
0.0
  0
ARC
  5
82F3
330
82C7
100
AcDbEntity
  8
0
100
AcDbCircle
 10
-18.0659666924148
 20
-28.8
 30
0.0
 40
8.0
210
0.0
220
0.0
230
-1.0
100
AcDbArc
 50
330.0000000000001
 51
345.5224878140701
  0
LINE
  5
82F4
330
82C7
100
AcDbEntity
  8
0
100
AcDbLine
 10
7.720000000000027
 20
-30.8
 30
0.0
 11
10.31999999999996
 21
-30.8
 31
0.0
  0
ARC
  5
82F5
330
82C7
100
AcDbEntity
  8
0
100
AcDbCircle
 10
-18.0659666924148
 20
-28.8
 30
0.0
 40
8.0
210
0.0
220
0.0
230
-1.0
100
AcDbArc
 50
14.47751218592986
 51
29.99999999999971
  0
LINE
  5
82F6
330
82C7
100
AcDbEntity
  8
0
100
AcDbLine
 10
7.720000000000027
 20
-26.80000000000001
 30
0.0
 11
10.31999999999996
 21
-26.80000000000001
 31
0.0
  0
ARC
  5
82F7
330
82C7
100
AcDbEntity
  8
0
100
AcDbCircle
 10
17.12
 20
-28.8
 30
0.0
 40
8.0
100
AcDbArc
 50
330.0000000000001
 51
29.99999999999971
  0
CIRCLE
  5
82F8
330
82C7
100
AcDbEntity
  8
0
100
AcDbCircle
 10
19.12
 20
-28.8
 30
0.0
 40
1.8
  0
LINE
  5
82F9
330
82C7
100
AcDbEntity
  8
0
100
AcDbLine
 10
19.12
 20
-23.6
 30
0.0
 11
19.12
 21
-34.0
 31
0.0
  0
ARC
  5
82FA
330
82C7
100
AcDbEntity
  8
0
100
AcDbCircle
 10
-32.06596669241479
 20
-28.8
 30
0.0
 40
8.0
210
0.0
220
0.0
230
-1.0
100
AcDbArc
 50
330.0000000000001
 51
339.0869051817058
  0
ARC
  5
82FB
330
82C7
100
AcDbEntity
  8
0
100
AcDbCircle
 10
-32.06596669241479
 20
-28.8
 30
0.0
 40
8.0
210
0.0
220
0.0
230
-1.0
100
AcDbArc
 50
20.91309481829421
 51
29.99999999999971
  0
TEXT
  5
82FC
330
82C7
100
AcDbEntity
  8
0
100
AcDbText
 10
46.12168764323729
 20
-47.66992576698525
 30
0.0
 40
2.5
  1
turned 45
 41
0.8116586538461458
  7
UGMTXT
100
AcDbText
  0
TEXT
  5
82FD
330
82C7
100
AcDbEntity
  8
0
100
AcDbText
 10
46.12168764323729
 20
-43.91992576698524
 30
0.0
 40
2.5
  1
Stud can be
 41
0.8081054687499921
  7
UGMTXT
100
AcDbText
  0
DIMENSION
  5
82FE
330
82C7
100
AcDbEntity
  8
0
100
AcDbDimension
  2
*D22
 10
39.11999999999999
 20
-44.18177856479649
 30
0.0
 11
36.12
 21
-44.18177856479649
 31
0.0
 12
-234.5311961722488
 22
-108.6647232036205
 32
0.0
  3
STANDARD
100
AcDbAlignedDimension
 13
33.11999999999999
 23
-29.8000000066
 33
0.0
 14
39.11999999999999
 24
-32.92310564002429
 34
0.0
 50
180.0
100
AcDbRotatedDimension
1001
ACAD
1000
DSTYLE
1002
{
1070
   340
1005
11
1002
}
  0
DIMENSION
  5
82FF
330
82C7
100
AcDbEntity
  8
0
100
AcDbDimension
  2
*D23
 10
53.21880382965114
 20
-24.8
 30
0.0
 11
53.21880382965114
 21
-28.79999999999996
 31
0.0
 12
-234.5311961722488
 22
-108.6647232036205
 32
0.0
  3
STANDARD
100
AcDbAlignedDimension
 13
38.04820323027547
 23
-32.80000000000001
 33
0.0
 14
38.04820323027547
 24
-24.8
 34
0.0
 50
270.0
100
AcDbRotatedDimension
1001
ACAD
1000
DSTYLE
1002
{
1070
   340
1005
11
1002
}
  0
CIRCLE
  5
8300
330
82C7
100
AcDbEntity
  8
0
100
AcDbCircle
 10
33.11999999999999
 20
-28.8
 30
0.0
 40
1.8
  0
ARC
  5
8301
330
82C7
100
AcDbEntity
  8
0
100
AcDbCircle
 10
31.12
 20
-28.8
 30
0.0
 40
8.0
100
AcDbArc
 50
330.0000000000001
 51
29.99999999999971
  0
LINE
  5
8302
330
82C7
100
AcDbEntity
  8
0
100
AcDbLine
 10
33.11999999999999
 20
-23.6
 30
0.0
 11
33.11999999999999
 21
-34.0
 31
0.0
  0
TEXT
  5
8303
330
82C7
100
AcDbEntity
  8
0
100
AcDbText
 10
64.49151233339147
 20
-47.64279706231334
 30
0.0
 40
2.5
  1
,
 41
1.189062499999988
  7
UGMTXT
100
AcDbText
  0
TEXT
  5
8304
330
82C7
100
AcDbEntity
  8
0
100
AcDbText
 10
63.95762514323706
 20
-47.66992576698525
 30
0.0
 40
2.5
  1
%%d
 41
1.484374999999988
  7
UGMTXT
100
AcDbText
  0
LINE
  5
8305
330
82C7
100
AcDbEntity
  8
0
100
AcDbLine
 10
-5.279999999999971
 20
28.8
 30
0.0
 11
41.11999999999992
 21
28.8
 31
0.0
  0
LINE
  5
8306
330
82C7
100
AcDbEntity
  8
0
100
AcDbLine
 10
26.51999999999992
 20
30.0
 30
0.0
 11
39.11999999999999
 21
30.0
 31
0.0
  0
LINE
  5
8307
330
82C7
100
AcDbEntity
  8
0
100
AcDbLine
 10
26.51999999999992
 20
27.59999999999999
 30
0.0
 11
39.11999999999999
 21
27.59999999999999
 31
0.0
  0
INSERT
  5
8308
330
82C7
100
AcDbEntity
  8
0
100
AcDbBlockReference
  2
*U10
 10
-234.5311961722488
 20
-108.6647232036205
 30
0.0
  0
LINE
  5
8309
330
82C7
100
AcDbEntity
  8
0
100
AcDbLine
 10
-3.279999999999971
 20
24.8
 30
0.0
 11
23.92
 21
24.8
 31
0.0
  0
LINE
  5
830A
330
82C7
100
AcDbEntity
  8
0
100
AcDbLine
 10
-3.279999999999971
 20
32.80000000000001
 30
0.0
 11
23.92
 21
32.80000000000001
 31
0.0
  0
LINE
  5
830B
330
82C7
100
AcDbEntity
  8
0
100
AcDbLine
 10
-3.279999999999971
 20
33.0
 30
0.0
 11
-3.279999999999971
 21
45.0
 31
0.0
  0
LINE
  5
830C
330
82C7
100
AcDbEntity
  8
0
100
AcDbLine
 10
10.31999999999996
 20
27.59999999999999
 30
0.0
 11
25.12
 21
27.59999999999999
 31
0.0
  0
LINE
  5
830D
330
82C7
100
AcDbEntity
  8
0
100
AcDbLine
 10
10.31999999999996
 20
30.0
 30
0.0
 11
25.12
 21
30.0
 31
0.0
  0
LINE
  5
830E
330
82C7
100
AcDbEntity
  8
0
100
AcDbLine
 10
10.31999999999996
 20
30.8
 30
0.0
 11
10.31999999999996
 21
30.0
 31
0.0
  0
LINE
  5
830F
330
82C7
100
AcDbEntity
  8
0
100
AcDbLine
 10
7.720000000000027
 20
32.80000000000001
 30
0.0
 11
7.720000000000027
 21
24.8
 31
0.0
  0
LINE
  5
8310
330
82C7
100
AcDbEntity
  8
0
100
AcDbLine
 10
10.31999999999996
 20
27.59999999999999
 30
0.0
 11
10.31999999999996
 21
26.80000000000001
 31
0.0
  0
LINE
  5
8311
330
82C7
100
AcDbEntity
  8
0
100
AcDbLine
 10
7.720000000000027
 20
26.80000000000001
 30
0.0
 11
10.31999999999996
 21
26.80000000000001
 31
0.0
  0
LINE
  5
8312
330
82C7
100
AcDbEntity
  8
0
100
AcDbLine
 10
7.720000000000027
 20
30.8
 30
0.0
 11
10.31999999999996
 21
30.8
 31
0.0
  0
LINE
  5
8313
330
82C7
100
AcDbEntity
  8
0
100
AcDbLine
 10
23.92
 20
32.80000000000001
 30
0.0
 11
23.92
 21
30.0
 31
0.0
  0
LINE
  5
8314
330
82C7
100
AcDbEntity
  8
0
100
AcDbLine
 10
26.51999999999998
 20
30.8
 30
0.0
 11
26.51999999999998
 21
30.0
 31
0.0
  0
LINE
  5
8315
330
82C7
100
AcDbEntity
  8
0
100
AcDbLine
 10
19.12
 20
34.0
 30
0.0
 11
19.12
 21
23.59999999999998
 31
0.0
  0
LINE
  5
8316
330
82C7
100
AcDbEntity
  8
0
100
AcDbLine
 10
23.92
 20
27.59999999999999
 30
0.0
 11
23.92
 21
24.8
 31
0.0
  0
LINE
  5
8317
330
82C7
100
AcDbEntity
  8
0
100
AcDbLine
 10
23.92
 20
26.80000000000001
 30
0.0
 11
26.51999999999998
 21
26.80000000000001
 31
0.0
  0
LINE
  5
8318
330
82C7
100
AcDbEntity
  8
0
100
AcDbLine
 10
25.12
 20
27.59999999999999
 30
0.0
 11
25.12
 21
30.0
 31
0.0
  0
LINE
  5
8319
330
82C7
100
AcDbEntity
  8
0
100
AcDbLine
 10
26.51999999999998
 20
27.59999999999999
 30
0.0
 11
26.51999999999998
 21
26.80000000000001
 31
0.0
  0
LINE
  5
831A
330
82C7
100
AcDbEntity
  8
0
100
AcDbLine
 10
23.92
 20
30.8
 30
0.0
 11
26.51999999999998
 21
30.8
 31
0.0
  0
TEXT
  5
831B
330
82C7
100
AcDbEntity
  8
0
100
AcDbText
 10
6.721407994417856
 20
43.68527679637938
 30
0.0
 40
2.5
  1
(max. t3.2)
 41
0.8081054687500007
  7
UGMTXT
100
AcDbText
  0
TEXT
  5
831C
330
82C7
100
AcDbEntity
  8
0
100
AcDbText
 10
6.721407994417856
 20
48.68527679637939
 30
0.0
 40
2.5
  1
Mounting plate
 41
0.8047256097560964
  7
UGMTXT
100
AcDbText
  0
DIMENSION
  5
831D
330
82C7
100
AcDbEntity
  8
0
100
AcDbDimension
  2
*D24
 10
53.21880382965114
 20
30.0
 30
0.0
 11
53.21880382965111
 21
28.8
 31
0.0
 12
-234.5311961722488
 22
-108.6647232036205
 32
0.0
  3
STANDARD
100
AcDbAlignedDimension
 13
39.11999999999999
 23
27.59999999999999
 33
0.0
 14
39.11999999999999
 24
30.0
 34
0.0
 50
270.0
100
AcDbRotatedDimension
1001
ACAD
1000
DSTYLE
1002
{
1070
   340
1005
11
1002
}
  0
LINE
  5
831E
330
82C7
100
AcDbEntity
  8
0
100
AcDbLine
 10
33.11999999999999
 20
34.0
 30
0.0
 11
33.11999999999999
 21
23.59999999999998
 31
0.0
  0
LINE
  5
831F
330
82C7
100
AcDbEntity
  8
0
100
AcDbLine
 10
39.11999999999999
 20
27.59999999999999
 30
0.0
 11
39.11999999999999
 21
30.0
 31
0.0
  0
INSERT
  5
8320
330
82C7
100
AcDbEntity
  8
0
100
AcDbBlockReference
  2
*U4
 10
-234.5311961722488
 20
-108.6647232036205
 30
0.0
  0
INSERT
  5
8321
330
82C7
100
AcDbEntity
  8
0
100
AcDbBlockReference
  2
*U11
 10
-234.5311961722488
 20
-108.6647232036205
 30
0.0
  0
TEXT
  5
8322
330
82C7
100
AcDbEntity
  8
0
100
AcDbText
 10
70.64512514323695
 20
-47.66992576698525
 30
0.0
 40
2.5
  1
%%d
 41
1.484374999999988
  7
UGMTXT
100
AcDbText
  0
TEXT
  5
8323
330
82C7
100
AcDbEntity
  8
0
100
AcDbText
 10
66.68158347657038
 20
-47.66992576698525
 30
0.0
 40
2.5
  1
90
 41
0.8912499999999909
  7
UGMTXT
100
AcDbText
  0
ENDBLK
  5
8325
330
82C7
100
AcDbEntity
  8
0
100
AcDbBlockEnd
  0
BLOCK
  5
876F
330
8765
100
AcDbEntity
  8
0
100
AcDbBlockBegin
  2
*D26
 70
     1
 10
0.0
 20
0.0
 30
0.0
  3
*D26
  1

  0
LINE
  5
8866
330
8765
100
AcDbEntity
  8
30
 62
     0
100
AcDbLine
 10
451.3776491012275
 20
-102.5000000000005
 30
0.0
 11
451.3776491012275
 21
-76.46948209542689
 31
0.0
  0
LINE
  5
8867
330
8765
100
AcDbEntity
  8
30
 62
     0
100
AcDbLine
 10
411.3776491012273
 20
-102.4999999999991
 30
0.0
 11
411.3776491012273
 21
-76.46948209542689
 31
0.0
  0
LINE
  5
8868
330
8765
100
AcDbEntity
  8
30
 62
     0
100
AcDbLine
 10
449.3776491012275
 20
-76.96948209542687
 30
0.0
 11
413.3776491012275
 21
-76.96948209542687
 31
0.0
  0
INSERT
  5
8869
330
8765
100
AcDbEntity
  8
30
 62
     0
100
AcDbBlockReference
  2
_OPEN
 10
451.3776491012275
 20
-76.96948209542687
 30
0.0
 41
2.0
 42
2.0
 43
2.0
  0
INSERT
  5
886A
330
8765
100
AcDbEntity
  8
30
 62
     0
100
AcDbBlockReference
  2
_OPEN
 10
411.3776491012273
 20
-76.96948209542687
 30
0.0
 41
2.0
 42
2.0
 43
2.0
 50
180.0
  0
MTEXT
  5
886B
330
8765
100
AcDbEntity
  8
30
 62
     0
100
AcDbMText
 10
431.3776491012275
 20
-72.96948209542687
 30
0.0
 40
6.0
 41
0.0
 71
     5
 72
     1
  1
\A1;40
1001
ACAD
1000
MTEXTBEGIN
1070
    73
1070
     1
1070
    44
1040
1.0
1070
    74
1070
     0
1000
MTEXTEND
1000
MTEXTBEGIN
1070
    73
1070
     1
1070
    44
1040
1.0
1070
    74
1070
     0
1000
MTEXTEND
1000
MTEXTBEGIN
1070
    73
1070
     1
1070
    44
1040
1.0
1070
    74
1070
     0
1000
MTEXTEND
  0
POINT
  5
886C
330
8765
100
AcDbEntity
  8
DEFPOINTS
 62
     0
100
AcDbPoint
 10
451.3776491012275
 20
-103.5000000000005
 30
0.0
  0
POINT
  5
886D
330
8765
100
AcDbEntity
  8
DEFPOINTS
 62
     0
100
AcDbPoint
 10
411.3776491012273
 20
-103.499999999999
 30
0.0
  0
POINT
  5
886E
330
8765
100
AcDbEntity
  8
DEFPOINTS
 62
     0
100
AcDbPoint
 10
411.3776491012273
 20
-76.96948209542687
 30
0.0
  0
ENDBLK
  5
8770
330
8765
100
AcDbEntity
  8
0
100
AcDbBlockEnd
  0
BLOCK
  5
887A
330
8870
100
AcDbEntity
  8
0
100
AcDbBlockBegin
  2
*D27
 70
     1
 10
0.0
 20
0.0
 30
0.0
  3
*D27
  1

  0
LINE
  5
8871
330
8870
100
AcDbEntity
  8
30
  6
CONTINUOUS
 62
     0
100
AcDbLine
 10
467.3776491012273
 20
-99.00000000000069
 30
0.0
 11
487.1218772238089
 21
-99.00000000000069
 31
0.0
  0
LINE
  5
8872
330
8870
100
AcDbEntity
  8
30
  6
CONTINUOUS
 62
     0
100
AcDbLine
 10
467.3776491012273
 20
-129.0000000000006
 30
0.0
 11
487.1218772238089
 21
-129.0000000000006
 31
0.0
  0
LINE
  5
8873
330
8870
100
AcDbEntity
  8
30
  6
CONTINUOUS
 62
     0
100
AcDbLine
 10
486.6218772238089
 20
-101.0000000000006
 30
0.0
 11
486.6218772238089
 21
-127.0000000000006
 31
0.0
  0
INSERT
  5
8874
330
8870
100
AcDbEntity
  8
30
  6
CONTINUOUS
 62
     0
100
AcDbBlockReference
  2
_OPEN
 10
486.6218772238089
 20
-99.00000000000069
 30
0.0
 41
2.0
 42
2.0
 43
2.0
 50
90.0
  0
INSERT
  5
8875
330
8870
100
AcDbEntity
  8
30
  6
CONTINUOUS
 62
     0
100
AcDbBlockReference
  2
_OPEN
 10
486.6218772238089
 20
-129.0000000000006
 30
0.0
 41
2.0
 42
2.0
 43
2.0
 50
270.0
  0
MTEXT
  5
8876
330
8870
100
AcDbEntity
  8
30
  6
CONTINUOUS
 62
     0
100
AcDbMText
 10
482.6218772238089
 20
-114.0000000000005
 30
0.0
 40
6.0
 41
0.0
 71
     5
 72
     1
  1
\A1;30
 11
0.0000000000000001
 21
1.0
 31
0.0
1001
ACAD
1000
MTEXTBEGIN
1070
    73
1070
     1
1070
    44
1040
1.0
1070
    74
1070
     0
1000
MTEXTEND
1000
MTEXTBEGIN
1070
    73
1070
     1
1070
    44
1040
1.0
1070
    74
1070
     0
1000
MTEXTEND
1000
MTEXTBEGIN
1070
    73
1070
     1
1070
    44
1040
1.0
1070
    74
1070
     0
1000
MTEXTEND
  0
POINT
  5
8877
330
8870
100
AcDbEntity
  8
DEFPOINTS
  6
CONTINUOUS
 62
     0
100
AcDbPoint
 10
466.3776491012273
 20
-99.00000000000069
 30
0.0
  0
POINT
  5
8878
330
8870
100
AcDbEntity
  8
DEFPOINTS
  6
CONTINUOUS
 62
     0
100
AcDbPoint
 10
466.3776491012273
 20
-129.0000000000006
 30
0.0
  0
POINT
  5
8879
330
8870
100
AcDbEntity
  8
DEFPOINTS
  6
CONTINUOUS
 62
     0
100
AcDbPoint
 10
486.6218772238089
 20
-129.0000000000006
 30
0.0
  0
ENDBLK
  5
887B
330
8870
100
AcDbEntity
  8
0
100
AcDbBlockEnd
  0
BLOCK
  5
8887
330
887D
100
AcDbEntity
  8
0
100
AcDbBlockBegin
  2
*D28
 70
     1
 10
0.0
 20
0.0
 30
0.0
  3
*D28
  1

  0
LINE
  5
887E
330
887D
100
AcDbEntity
  8
30
  6
CONTINUOUS
 62
     0
100
AcDbLine
 10
475.3776491012273
 20
114.0000000000001
 30
0.0
 11
499.3510709019318
 21
114.0000000000001
 31
0.0
  0
LINE
  5
887F
330
887D
100
AcDbEntity
  8
30
  6
CONTINUOUS
 62
     0
100
AcDbLine
 10
475.3776491012273
 20
-114.0000000000007
 30
0.0
 11
499.3510709019318
 21
-114.0000000000007
 31
0.0
  0
LINE
  5
8880
330
887D
100
AcDbEntity
  8
30
  6
CONTINUOUS
 62
     0
100
AcDbLine
 10
498.8510709019318
 20
112.0
 30
0.0
 11
498.8510709019318
 21
-112.0000000000007
 31
0.0
  0
INSERT
  5
8881
330
887D
100
AcDbEntity
  8
30
  6
CONTINUOUS
 62
     0
100
AcDbBlockReference
  2
_OPEN
 10
498.8510709019318
 20
114.0000000000001
 30
0.0
 41
2.0
 42
2.0
 43
2.0
 50
90.0
  0
INSERT
  5
8882
330
887D
100
AcDbEntity
  8
30
  6
CONTINUOUS
 62
     0
100
AcDbBlockReference
  2
_OPEN
 10
498.8510709019318
 20
-114.0000000000007
 30
0.0
 41
2.0
 42
2.0
 43
2.0
 50
270.0
  0
MTEXT
  5
8883
330
887D
100
AcDbEntity
  8
30
  6
CONTINUOUS
 62
     0
100
AcDbMText
 10
494.8510709019318
 20
-0.0000000000002716
 30
0.0
 40
6.0
 41
0.0
 71
     5
 72
     1
  1
\A1;228
 11
0.0000000000000001
 21
1.0
 31
0.0
1001
ACAD
1000
MTEXTBEGIN
1070
    73
1070
     1
1070
    44
1040
1.0
1070
    74
1070
     0
1000
MTEXTEND
1000
MTEXTBEGIN
1070
    73
1070
     1
1070
    44
1040
1.0
1070
    74
1070
     0
1000
MTEXTEND
1000
MTEXTBEGIN
1070
    73
1070
     1
1070
    44
1040
1.0
1070
    74
1070
     0
1000
MTEXTEND
  0
POINT
  5
8884
330
887D
100
AcDbEntity
  8
DEFPOINTS
  6
CONTINUOUS
 62
     0
100
AcDbPoint
 10
474.3776491012273
 20
114.0000000000001
 30
0.0
  0
POINT
  5
8885
330
887D
100
AcDbEntity
  8
DEFPOINTS
  6
CONTINUOUS
 62
     0
100
AcDbPoint
 10
474.3776491012273
 20
-114.0000000000007
 30
0.0
  0
POINT
  5
8886
330
887D
100
AcDbEntity
  8
DEFPOINTS
  6
CONTINUOUS
 62
     0
100
AcDbPoint
 10
498.8510709019318
 20
-114.0000000000007
 30
0.0
  0
ENDBLK
  5
8888
330
887D
100
AcDbEntity
  8
0
100
AcDbBlockEnd
  0
BLOCK
  5
8894
330
888A
100
AcDbEntity
  8
0
100
AcDbBlockBegin
  2
*D29
 70
     1
 10
0.0
 20
0.0
 30
0.0
  3
*D29
  1

  0
LINE
  5
88C1
330
888A
100
AcDbEntity
  8
30
  6
CONTINUOUS
 62
     0
100
AcDbLine
 10
211.3776491012281
 20
-0.9999999999998802
 30
0.0
 11
211.3776491012281
 21
-193.9509781491146
 31
0.0
  0
LINE
  5
88C2
330
888A
100
AcDbEntity
  8
30
  6
CONTINUOUS
 62
     0
100
AcDbLine
 10
356.3776491012282
 20
-131.0
 30
0.0
 11
356.3776491012282
 21
-193.9509781491146
 31
0.0
  0
LINE
  5
88C3
330
888A
100
AcDbEntity
  8
30
  6
CONTINUOUS
 62
     0
100
AcDbLine
 10
213.3776491012281
 20
-193.4509781491146
 30
0.0
 11
354.3776491012282
 21
-193.4509781491146
 31
0.0
  0
INSERT
  5
88C4
330
888A
100
AcDbEntity
  8
30
  6
CONTINUOUS
 62
     0
100
AcDbBlockReference
  2
_OPEN
 10
211.3776491012281
 20
-193.4509781491146
 30
0.0
 41
2.0
 42
2.0
 43
2.0
 50
180.0
  0
INSERT
  5
88C5
330
888A
100
AcDbEntity
  8
30
  6
CONTINUOUS
 62
     0
100
AcDbBlockReference
  2
_OPEN
 10
356.3776491012282
 20
-193.4509781491146
 30
0.0
 41
2.0
 42
2.0
 43
2.0
  0
MTEXT
  5
88C6
330
888A
100
AcDbEntity
  8
30
  6
CONTINUOUS
 62
     0
100
AcDbMText
 10
283.8776491012282
 20
-189.4509781491144
 30
0.0
 40
6.0
 41
0.0
 71
     5
 72
     1
  1
\A1;145
1001
ACAD
1000
MTEXTBEGIN
1070
    73
1070
     1
1070
    44
1040
1.0
1070
    74
1070
     0
1000
MTEXTEND
1000
MTEXTBEGIN
1070
    73
1070
     1
1070
    44
1040
1.0
1070
    74
1070
     0
1000
MTEXTEND
1000
MTEXTBEGIN
1070
    73
1070
     1
1070
    44
1040
1.0
1070
    74
1070
     0
1000
MTEXTEND
  0
POINT
  5
88C7
330
888A
100
AcDbEntity
  8
DEFPOINTS
  6
CONTINUOUS
 62
     0
100
AcDbPoint
 10
211.3776491012281
 20
0.0000000000001197
 30
0.0
  0
POINT
  5
88C8
330
888A
100
AcDbEntity
  8
DEFPOINTS
  6
CONTINUOUS
 62
     0
100
AcDbPoint
 10
356.3776491012282
 20
-130.0
 30
0.0
  0
POINT
  5
88C9
330
888A
100
AcDbEntity
  8
DEFPOINTS
  6
CONTINUOUS
 62
     0
100
AcDbPoint
 10
356.3776491012282
 20
-193.4509781491146
 30
0.0
  0
ENDBLK
  5
8895
330
888A
100
AcDbEntity
  8
0
100
AcDbBlockEnd
  0
BLOCK
  5
88A2
330
8897
100
AcDbEntity
  8
0
100
AcDbBlockBegin
  2
*D30
 70
     1
 10
0.0
 20
0.0
 30
0.0
  3
*D30
  1

  0
LINE
  5
88CA
330
8897
100
AcDbEntity
  8
30
  6
CONTINUOUS
 62
     0
100
AcDbLine
 10
245.3776491012281
 20
-45.99999999999988
 30
0.0
 11
245.3776491012281
 21
-175.3067634479553
 31
0.0
  0
LINE
  5
88CB
330
8897
100
AcDbEntity
  8
30
  6
CONTINUOUS
 62
     0
100
AcDbLine
 10
249.3776491012281
 20
-45.99999999999988
 30
0.0
 11
249.3776491012281
 21
-175.3067634479553
 31
0.0
  0
LINE
  5
88CC
330
8897
100
AcDbEntity
  8
30
  6
CONTINUOUS
 62
     0
100
AcDbLine
 10
243.377649101228
 20
-174.806763447955
 30
0.0
 11
241.3776491012281
 21
-174.806763447955
 31
0.0
  0
LINE
  5
88CD
330
8897
100
AcDbEntity
  8
30
  6
CONTINUOUS
 62
     0
100
AcDbLine
 10
251.3776491012281
 20
-174.806763447955
 30
0.0
 11
259.3776491012282
 21
-174.806763447955
 31
0.0
  0
INSERT
  5
88CE
330
8897
100
AcDbEntity
  8
30
  6
CONTINUOUS
 62
     0
100
AcDbBlockReference
  2
_OPEN
 10
245.3776491012281
 20
-174.806763447955
 30
0.0
 41
2.0
 42
2.0
 43
2.0
  0
INSERT
  5
88CF
330
8897
100
AcDbEntity
  8
30
  6
CONTINUOUS
 62
     0
100
AcDbBlockReference
  2
_OPEN
 10
249.3776491012281
 20
-174.806763447955
 30
0.0
 41
2.0
 42
2.0
 43
2.0
 50
180.0
  0
MTEXT
  5
88D0
330
8897
100
AcDbEntity
  8
30
  6
CONTINUOUS
 62
     0
100
AcDbMText
 10
256.3776491012282
 20
-170.806763447955
 30
0.0
 40
6.0
 41
0.0
 71
     5
 72
     1
  1
\A1;4
1001
ACAD
1000
MTEXTBEGIN
1070
    73
1070
     1
1070
    44
1040
1.0
1070
    74
1070
     0
1000
MTEXTEND
1000
MTEXTBEGIN
1070
    73
1070
     1
1070
    44
1040
1.0
1070
    74
1070
     0
1000
MTEXTEND
1000
MTEXTBEGIN
1070
    73
1070
     1
1070
    44
1040
1.0
1070
    74
1070
     0
1000
MTEXTEND
  0
POINT
  5
88D1
330
8897
100
AcDbEntity
  8
DEFPOINTS
  6
CONTINUOUS
 62
     0
100
AcDbPoint
 10
245.3776491012281
 20
-44.99999999999988
 30
0.0
  0
POINT
  5
88D2
330
8897
100
AcDbEntity
  8
DEFPOINTS
  6
CONTINUOUS
 62
     0
100
AcDbPoint
 10
249.3776491012281
 20
-44.99999999999988
 30
0.0
  0
POINT
  5
88D3
330
8897
100
AcDbEntity
  8
DEFPOINTS
  6
CONTINUOUS
 62
     0
100
AcDbPoint
 10
249.3776491012281
 20
-174.806763447955
 30
0.0
  0
ENDBLK
  5
88A3
330
8897
100
AcDbEntity
  8
0
100
AcDbBlockEnd
  0
BLOCK
  5
88BF
330
88B6
100
AcDbEntity
  8
0
100
AcDbBlockBegin
  2
*D31
 70
     1
 10
0.0
 20
0.0
 30
0.0
  3
*D31
  1

  0
LINE
  5
88D4
330
88B6
100
AcDbEntity
  8
30
  6
CONTINUOUS
 62
     0
100
AcDbLine
 10
249.3776491012281
 20
-155.7338396098456
 30
0.0
 11
249.3776491012281
 21
-175.3067634479553
 31
0.0
  0
LINE
  5
88D5
330
88B6
100
AcDbEntity
  8
30
  6
CONTINUOUS
 62
     0
100
AcDbLine
 10
356.3776491012282
 20
-132.0
 30
0.0
 11
356.3776491012282
 21
-175.3067634479553
 31
0.0
  0
LINE
  5
88D6
330
88B6
100
AcDbEntity
  8
30
  6
CONTINUOUS
 62
     0
100
AcDbLine
 10
251.3776491012281
 20
-174.806763447955
 30
0.0
 11
354.3776491012282
 21
-174.806763447955
 31
0.0
  0
INSERT
  5
88D7
330
88B6
100
AcDbEntity
  8
30
  6
CONTINUOUS
 62
     0
100
AcDbBlockReference
  2
_OPEN
 10
249.3776491012281
 20
-174.806763447955
 30
0.0
 41
2.0
 42
2.0
 43
2.0
 50
180.0
  0
INSERT
  5
88D8
330
88B6
100
AcDbEntity
  8
30
  6
CONTINUOUS
 62
     0
100
AcDbBlockReference
  2
_OPEN
 10
356.3776491012282
 20
-174.806763447955
 30
0.0
 41
2.0
 42
2.0
 43
2.0
  0
MTEXT
  5
88D9
330
88B6
100
AcDbEntity
  8
30
  6
CONTINUOUS
 62
     0
100
AcDbMText
 10
302.8776491012282
 20
-170.806763447955
 30
0.0
 40
6.0
 41
0.0
 71
     5
 72
     1
  1
\A1;107
1001
ACAD
1000
MTEXTBEGIN
1070
    73
1070
     1
1070
    44
1040
1.0
1070
    74
1070
     0
1000
MTEXTEND
1000
MTEXTBEGIN
1070
    73
1070
     1
1070
    44
1040
1.0
1070
    74
1070
     0
1000
MTEXTEND
1000
MTEXTBEGIN
1070
    73
1070
     1
1070
    44
1040
1.0
1070
    74
1070
     0
1000
MTEXTEND
  0
POINT
  5
88DA
330
88B6
100
AcDbEntity
  8
DEFPOINTS
  6
CONTINUOUS
 62
     0
100
AcDbPoint
 10
249.3776491012281
 20
-154.7338396098457
 30
0.0
  0
POINT
  5
88DB
330
88B6
100
AcDbEntity
  8
DEFPOINTS
  6
CONTINUOUS
 62
     0
100
AcDbPoint
 10
356.3776491012282
 20
-131.0
 30
0.0
  0
POINT
  5
88DC
330
88B6
100
AcDbEntity
  8
DEFPOINTS
  6
CONTINUOUS
 62
     0
100
AcDbPoint
 10
356.3776491012282
 20
-174.806763447955
 30
0.0
  0
ENDBLK
  5
88C0
330
88B6
100
AcDbEntity
  8
0
100
AcDbBlockEnd
  0
BLOCK
  5
88E8
330
88DE
100
AcDbEntity
  8
0
100
AcDbBlockBegin
  2
*D32
 70
     1
 10
0.0
 20
0.0
 30
0.0
  3
*D32
  1

  0
LINE
  5
88DF
330
88DE
100
AcDbEntity
  8
30
  6
CONTINUOUS
 62
     0
100
AcDbLine
 10
253.3776491012281
 20
-51.99999999999988
 30
0.0
 11
253.3776491012281
 21
-161.1628788587822
 31
0.0
  0
LINE
  5
88E0
330
88DE
100
AcDbEntity
  8
30
  6
CONTINUOUS
 62
     0
100
AcDbLine
 10
356.3776491012282
 20
-131.0
 30
0.0
 11
356.3776491012282
 21
-161.1628788587822
 31
0.0
  0
LINE
  5
88E1
330
88DE
100
AcDbEntity
  8
30
  6
CONTINUOUS
 62
     0
100
AcDbLine
 10
255.3776491012281
 20
-160.6628788587821
 30
0.0
 11
354.3776491012282
 21
-160.6628788587821
 31
0.0
  0
INSERT
  5
88E2
330
88DE
100
AcDbEntity
  8
30
  6
CONTINUOUS
 62
     0
100
AcDbBlockReference
  2
_OPEN
 10
253.3776491012281
 20
-160.6628788587821
 30
0.0
 41
2.0
 42
2.0
 43
2.0
 50
180.0
  0
INSERT
  5
88E3
330
88DE
100
AcDbEntity
  8
30
  6
CONTINUOUS
 62
     0
100
AcDbBlockReference
  2
_OPEN
 10
356.3776491012282
 20
-160.6628788587821
 30
0.0
 41
2.0
 42
2.0
 43
2.0
  0
MTEXT
  5
88E4
330
88DE
100
AcDbEntity
  8
30
  6
CONTINUOUS
 62
     0
100
AcDbMText
 10
304.8776491012282
 20
-156.6628788587822
 30
0.0
 40
6.0
 41
0.0
 71
     5
 72
     1
  1
\A1;103
1001
ACAD
1000
MTEXTBEGIN
1070
    73
1070
     1
1070
    44
1040
1.0
1070
    74
1070
     0
1000
MTEXTEND
1000
MTEXTBEGIN
1070
    73
1070
     1
1070
    44
1040
1.0
1070
    74
1070
     0
1000
MTEXTEND
1000
MTEXTBEGIN
1070
    73
1070
     1
1070
    44
1040
1.0
1070
    74
1070
     0
1000
MTEXTEND
  0
POINT
  5
88E5
330
88DE
100
AcDbEntity
  8
DEFPOINTS
  6
CONTINUOUS
 62
     0
100
AcDbPoint
 10
253.3776491012281
 20
-50.99999999999988
 30
0.0
  0
POINT
  5
88E6
330
88DE
100
AcDbEntity
  8
DEFPOINTS
  6
CONTINUOUS
 62
     0
100
AcDbPoint
 10
356.3776491012282
 20
-130.0
 30
0.0
  0
POINT
  5
88E7
330
88DE
100
AcDbEntity
  8
DEFPOINTS
  6
CONTINUOUS
 62
     0
100
AcDbPoint
 10
356.3776491012282
 20
-160.6628788587821
 30
0.0
  0
ENDBLK
  5
88E9
330
88DE
100
AcDbEntity
  8
0
100
AcDbBlockEnd
  0
BLOCK
  5
88F5
330
88EB
100
AcDbEntity
  8
0
100
AcDbBlockBegin
  2
*D33
 70
     1
 10
0.0
 20
0.0
 30
0.0
  3
*D33
  1

  0
LINE
  5
88EC
330
88EB
100
AcDbEntity
  8
30
  6
CONTINUOUS
 62
     0
100
AcDbLine
 10
259.3776491012282
 20
-131.0
 30
0.0
 11
259.3776491012282
 21
-147.6618973152594
 31
0.0
  0
LINE
  5
88ED
330
88EB
100
AcDbEntity
  8
30
  6
CONTINUOUS
 62
     0
100
AcDbLine
 10
356.3776491012282
 20
-132.0
 30
0.0
 11
356.3776491012282
 21
-147.6618973152594
 31
0.0
  0
LINE
  5
88EE
330
88EB
100
AcDbEntity
  8
30
  6
CONTINUOUS
 62
     0
100
AcDbLine
 10
261.3776491012282
 20
-147.1618973152594
 30
0.0
 11
354.3776491012282
 21
-147.1618973152594
 31
0.0
  0
INSERT
  5
88EF
330
88EB
100
AcDbEntity
  8
30
  6
CONTINUOUS
 62
     0
100
AcDbBlockReference
  2
_OPEN
 10
259.3776491012282
 20
-147.1618973152594
 30
0.0
 41
2.0
 42
2.0
 43
2.0
 50
180.0
  0
INSERT
  5
88F0
330
88EB
100
AcDbEntity
  8
30
  6
CONTINUOUS
 62
     0
100
AcDbBlockReference
  2
_OPEN
 10
356.3776491012282
 20
-147.1618973152594
 30
0.0
 41
2.0
 42
2.0
 43
2.0
  0
MTEXT
  5
88F1
330
88EB
100
AcDbEntity
  8
30
  6
CONTINUOUS
 62
     0
100
AcDbMText
 10
307.8776491012281
 20
-143.1618973152594
 30
0.0
 40
6.0
 41
0.0
 71
     5
 72
     1
  1
\A1;97
1001
ACAD
1000
MTEXTBEGIN
1070
    73
1070
     1
1070
    44
1040
1.0
1070
    74
1070
     0
1000
MTEXTEND
1000
MTEXTBEGIN
1070
    73
1070
     1
1070
    44
1040
1.0
1070
    74
1070
     0
1000
MTEXTEND
1000
MTEXTBEGIN
1070
    73
1070
     1
1070
    44
1040
1.0
1070
    74
1070
     0
1000
MTEXTEND
  0
POINT
  5
88F2
330
88EB
100
AcDbEntity
  8
DEFPOINTS
  6
CONTINUOUS
 62
     0
100
AcDbPoint
 10
259.3776491012282
 20
-130.0
 30
0.0
  0
POINT
  5
88F3
330
88EB
100
AcDbEntity
  8
DEFPOINTS
  6
CONTINUOUS
 62
     0
100
AcDbPoint
 10
356.3776491012282
 20
-131.0
 30
0.0
  0
POINT
  5
88F4
330
88EB
100
AcDbEntity
  8
DEFPOINTS
  6
CONTINUOUS
 62
     0
100
AcDbPoint
 10
356.3776491012282
 20
-147.1618973152594
 30
0.0
  0
ENDBLK
  5
88F6
330
88EB
100
AcDbEntity
  8
0
100
AcDbBlockEnd
  0
BLOCK
  5
8902
330
88F8
100
AcDbEntity
  8
0
100
AcDbBlockBegin
  2
*D34
 70
     1
 10
0.0
 20
0.0
 30
0.0
  3
*D34
  1

  0
LINE
  5
932C
330
88F8
100
AcDbEntity
  8
30
  6
CONTINUOUS
 62
     0
100
AcDbLine
 10
356.3776491012282
 20
-146.4952313152591
 30
0.0
 11
356.3776491012282
 21
-146.6618973152594
 31
0.0
  0
LINE
  5
932D
330
88F8
100
AcDbEntity
  8
30
  6
CONTINUOUS
 62
     0
100
AcDbLine
 10
426.3776491012275
 20
-129.9999999999992
 30
0.0
 11
426.3776491012275
 21
-147.6618973152594
 31
0.0
  0
LINE
  5
932E
330
88F8
100
AcDbEntity
  8
30
  6
CONTINUOUS
 62
     0
100
AcDbLine
 10
358.3776491012282
 20
-147.1618973152594
 30
0.0
 11
424.3776491012273
 21
-147.1618973152594
 31
0.0
  0
INSERT
  5
932F
330
88F8
100
AcDbEntity
  8
30
  6
CONTINUOUS
 62
     0
100
AcDbBlockReference
  2
_OPEN
 10
356.3776491012282
 20
-147.1618973152594
 30
0.0
 41
2.0
 42
2.0
 43
2.0
 50
180.0
  0
INSERT
  5
9330
330
88F8
100
AcDbEntity
  8
30
  6
CONTINUOUS
 62
     0
100
AcDbBlockReference
  2
_OPEN
 10
426.3776491012275
 20
-147.1618973152594
 30
0.0
 41
2.0
 42
2.0
 43
2.0
  0
MTEXT
  5
9331
330
88F8
100
AcDbEntity
  8
30
  6
CONTINUOUS
 62
     0
100
AcDbMText
 10
391.3776491012278
 20
-143.1618973152594
 30
0.0
 40
6.0
 41
0.0
 71
     5
 72
     1
  1
\A1;70
1001
ACAD
1000
MTEXTBEGIN
1070
    73
1070
     1
1070
    44
1040
1.0
1070
    74
1070
     0
1000
MTEXTEND
1000
MTEXTBEGIN
1070
    73
1070
     1
1070
    44
1040
1.0
1070
    74
1070
     0
1000
MTEXTEND
1000
MTEXTBEGIN
1070
    73
1070
     1
1070
    44
1040
1.0
1070
    74
1070
     0
1000
MTEXTEND
  0
POINT
  5
9332
330
88F8
100
AcDbEntity
  8
DEFPOINTS
  6
CONTINUOUS
 62
     0
100
AcDbPoint
 10
356.3776491012282
 20
-147.4952313152591
 30
0.0
  0
POINT
  5
9333
330
88F8
100
AcDbEntity
  8
DEFPOINTS
  6
CONTINUOUS
 62
     0
100
AcDbPoint
 10
426.3776491012275
 20
-128.9999999999992
 30
0.0
  0
POINT
  5
9334
330
88F8
100
AcDbEntity
  8
DEFPOINTS
  6
CONTINUOUS
 62
     0
100
AcDbPoint
 10
426.3776491012275
 20
-147.1618973152594
 30
0.0
  0
ENDBLK
  5
8903
330
88F8
100
AcDbEntity
  8
0
100
AcDbBlockEnd
  0
BLOCK
  5
890F
330
8905
100
AcDbEntity
  8
0
100
AcDbBlockBegin
  2
*D35
 70
     1
 10
0.0
 20
0.0
 30
0.0
  3
*D35
  1

  0
LINE
  5
8906
330
8905
100
AcDbEntity
  8
30
  6
CONTINUOUS
 62
     0
100
AcDbLine
 10
411.3776491012273
 20
-125.4999999999992
 30
0.0
 11
411.3776491012273
 21
-139.4476261261002
 31
0.0
  0
LINE
  5
8907
330
8905
100
AcDbEntity
  8
30
  6
CONTINUOUS
 62
     0
100
AcDbLine
 10
426.3776491012275
 20
-129.9999999999992
 30
0.0
 11
426.3776491012275
 21
-139.4476261261002
 31
0.0
  0
LINE
  5
8908
330
8905
100
AcDbEntity
  8
30
  6
CONTINUOUS
 62
     0
100
AcDbLine
 10
413.3776491012275
 20
-138.9476261261002
 30
0.0
 11
424.3776491012273
 21
-138.9476261261002
 31
0.0
  0
INSERT
  5
8909
330
8905
100
AcDbEntity
  8
30
  6
CONTINUOUS
 62
     0
100
AcDbBlockReference
  2
_OPEN
 10
411.3776491012273
 20
-138.9476261261002
 30
0.0
 41
2.0
 42
2.0
 43
2.0
 50
180.0
  0
INSERT
  5
890A
330
8905
100
AcDbEntity
  8
30
  6
CONTINUOUS
 62
     0
100
AcDbBlockReference
  2
_OPEN
 10
426.3776491012275
 20
-138.9476261261002
 30
0.0
 41
2.0
 42
2.0
 43
2.0
  0
MTEXT
  5
890B
330
8905
100
AcDbEntity
  8
30
  6
CONTINUOUS
 62
     0
100
AcDbMText
 10
418.8776491012275
 20
-134.9476261261002
 30
0.0
 40
6.0
 41
0.0
 71
     5
 72
     1
  1
\A1;15
1001
ACAD
1000
MTEXTBEGIN
1070
    73
1070
     1
1070
    44
1040
1.0
1070
    74
1070
     0
1000
MTEXTEND
1000
MTEXTBEGIN
1070
    73
1070
     1
1070
    44
1040
1.0
1070
    74
1070
     0
1000
MTEXTEND
1000
MTEXTBEGIN
1070
    73
1070
     1
1070
    44
1040
1.0
1070
    74
1070
     0
1000
MTEXTEND
  0
POINT
  5
890C
330
8905
100
AcDbEntity
  8
DEFPOINTS
  6
CONTINUOUS
 62
     0
100
AcDbPoint
 10
411.3776491012273
 20
-124.4999999999992
 30
0.0
  0
POINT
  5
890D
330
8905
100
AcDbEntity
  8
DEFPOINTS
  6
CONTINUOUS
 62
     0
100
AcDbPoint
 10
426.3776491012275
 20
-128.9999999999992
 30
0.0
  0
POINT
  5
890E
330
8905
100
AcDbEntity
  8
DEFPOINTS
  6
CONTINUOUS
 62
     0
100
AcDbPoint
 10
426.3776491012275
 20
-138.9476261261002
 30
0.0
  0
ENDBLK
  5
8910
330
8905
100
AcDbEntity
  8
0
100
AcDbBlockEnd
  0
BLOCK
  5
891C
330
8912
100
AcDbEntity
  8
0
100
AcDbBlockBegin
  2
*D36
 70
     1
 10
0.0
 20
0.0
 30
0.0
  3
*D36
  1

  0
LINE
  5
8913
330
8912
100
AcDbEntity
  8
30
  6
CONTINUOUS
 62
     0
100
AcDbLine
 10
451.3776491012275
 20
-125.5000000000005
 30
0.0
 11
451.3776491012275
 21
-139.4476261261002
 31
0.0
  0
LINE
  5
8914
330
8912
100
AcDbEntity
  8
30
  6
CONTINUOUS
 62
     0
100
AcDbLine
 10
466.3776491012273
 20
-130.0000000000006
 30
0.0
 11
466.3776491012273
 21
-139.4476261261002
 31
0.0
  0
LINE
  5
8915
330
8912
100
AcDbEntity
  8
30
  6
CONTINUOUS
 62
     0
100
AcDbLine
 10
453.3776491012273
 20
-138.9476261261002
 30
0.0
 11
464.3776491012273
 21
-138.9476261261002
 31
0.0
  0
INSERT
  5
8916
330
8912
100
AcDbEntity
  8
30
  6
CONTINUOUS
 62
     0
100
AcDbBlockReference
  2
_OPEN
 10
451.3776491012275
 20
-138.9476261261002
 30
0.0
 41
2.0
 42
2.0
 43
2.0
 50
180.0
  0
INSERT
  5
8917
330
8912
100
AcDbEntity
  8
30
  6
CONTINUOUS
 62
     0
100
AcDbBlockReference
  2
_OPEN
 10
466.3776491012273
 20
-138.9476261261002
 30
0.0
 41
2.0
 42
2.0
 43
2.0
  0
MTEXT
  5
8918
330
8912
100
AcDbEntity
  8
30
  6
CONTINUOUS
 62
     0
100
AcDbMText
 10
458.8776491012273
 20
-134.9476261261002
 30
0.0
 40
6.0
 41
0.0
 71
     5
 72
     1
  1
\A1;15
1001
ACAD
1000
MTEXTBEGIN
1070
    73
1070
     1
1070
    44
1040
1.0
1070
    74
1070
     0
1000
MTEXTEND
1000
MTEXTBEGIN
1070
    73
1070
     1
1070
    44
1040
1.0
1070
    74
1070
     0
1000
MTEXTEND
1000
MTEXTBEGIN
1070
    73
1070
     1
1070
    44
1040
1.0
1070
    74
1070
     0
1000
MTEXTEND
  0
POINT
  5
8919
330
8912
100
AcDbEntity
  8
DEFPOINTS
  6
CONTINUOUS
 62
     0
100
AcDbPoint
 10
451.3776491012275
 20
-124.5000000000006
 30
0.0
  0
POINT
  5
891A
330
8912
100
AcDbEntity
  8
DEFPOINTS
  6
CONTINUOUS
 62
     0
100
AcDbPoint
 10
466.3776491012273
 20
-129.0000000000006
 30
0.0
  0
POINT
  5
891B
330
8912
100
AcDbEntity
  8
DEFPOINTS
  6
CONTINUOUS
 62
     0
100
AcDbPoint
 10
466.3776491012273
 20
-138.9476261261002
 30
0.0
  0
ENDBLK
  5
891D
330
8912
100
AcDbEntity
  8
0
100
AcDbBlockEnd
  0
BLOCK
  5
8929
330
891F
100
AcDbEntity
  8
0
100
AcDbBlockBegin
  2
*D37
 70
     1
 10
0.0
 20
0.0
 30
0.0
  3
*D37
  1

  0
LINE
  5
8946
330
891F
100
AcDbEntity
  8
30
  6
CONTINUOUS
 62
     0
100
AcDbLine
 10
356.3776491012282
 20
-159.3295448587821
 30
0.0
 11
356.3776491012282
 21
-159.8295448587821
 31
0.0
  0
LINE
  5
8947
330
891F
100
AcDbEntity
  8
30
  6
CONTINUOUS
 62
     0
100
AcDbLine
 10
466.3776491012273
 20
-130.0000000000006
 30
0.0
 11
466.3776491012273
 21
-160.8295448587821
 31
0.0
  0
LINE
  5
8948
330
891F
100
AcDbEntity
  8
30
  6
CONTINUOUS
 62
     0
100
AcDbLine
 10
358.3776491012282
 20
-160.3295448587821
 30
0.0
 11
464.3776491012273
 21
-160.3295448587821
 31
0.0
  0
INSERT
  5
8949
330
891F
100
AcDbEntity
  8
30
  6
CONTINUOUS
 62
     0
100
AcDbBlockReference
  2
_OPEN
 10
356.3776491012282
 20
-160.3295448587821
 30
0.0
 41
2.0
 42
2.0
 43
2.0
 50
180.0
  0
INSERT
  5
894A
330
891F
100
AcDbEntity
  8
30
  6
CONTINUOUS
 62
     0
100
AcDbBlockReference
  2
_OPEN
 10
466.3776491012273
 20
-160.3295448587821
 30
0.0
 41
2.0
 42
2.0
 43
2.0
  0
MTEXT
  5
894B
330
891F
100
AcDbEntity
  8
30
  6
CONTINUOUS
 62
     0
100
AcDbMText
 10
411.3776491012278
 20
-156.3295448587821
 30
0.0
 40
6.0
 41
0.0
 71
     5
 72
     1
  1
\A1;110
1001
ACAD
1000
MTEXTBEGIN
1070
    73
1070
     1
1070
    44
1040
1.0
1070
    74
1070
     0
1000
MTEXTEND
1000
MTEXTBEGIN
1070
    73
1070
     1
1070
    44
1040
1.0
1070
    74
1070
     0
1000
MTEXTEND
1000
MTEXTBEGIN
1070
    73
1070
     1
1070
    44
1040
1.0
1070
    74
1070
     0
1000
MTEXTEND
  0
POINT
  5
894C
330
891F
100
AcDbEntity
  8
DEFPOINTS
  6
CONTINUOUS
 62
     0
100
AcDbPoint
 10
356.3776491012282
 20
-160.3295448587821
 30
0.0
  0
POINT
  5
894D
330
891F
100
AcDbEntity
  8
DEFPOINTS
  6
CONTINUOUS
 62
     0
100
AcDbPoint
 10
466.3776491012273
 20
-129.0000000000006
 30
0.0
  0
POINT
  5
894E
330
891F
100
AcDbEntity
  8
DEFPOINTS
  6
CONTINUOUS
 62
     0
100
AcDbPoint
 10
466.3776491012273
 20
-160.3295448587821
 30
0.0
  0
ENDBLK
  5
892A
330
891F
100
AcDbEntity
  8
0
100
AcDbBlockEnd
  0
BLOCK
  5
8959
330
8950
100
AcDbEntity
  8
0
100
AcDbBlockBegin
  2
*D38
 70
     1
 10
0.0
 20
0.0
 30
0.0
  3
*D38
  1

  0
LINE
  5
8951
330
8950
100
AcDbEntity
  8
30
  6
CONTINUOUS
 62
     0
100
AcDbLine
 10
483.3906850908733
 20
-75.3983811832914
 30
0.0
 11
468.3906850908734
 21
-75.39838118329139
 31
0.0
  0
LINE
  5
8952
330
8950
100
AcDbEntity
  8
30
  6
CONTINUOUS
 62
     0
100
AcDbLine
 10
468.3906850908734
 20
-75.39838118329139
 30
0.0
 11
454.805708106009
 21
-106.2219275228545
 31
0.0
  0
MTEXT
  5
8953
330
8950
100
AcDbEntity
  8
30
  6
CONTINUOUS
 62
     0
100
AcDbMText
 10
476.3906850908733
 20
-71.39838118329134
 30
0.0
 40
6.0
 41
0.0
 71
     5
 72
     1
  1
\A1;\U+220513
1001
ACAD
1000
MTEXTBEGIN
1070
    73
1070
     1
1070
    44
1040
1.0
1070
    74
1070
     0
1000
MTEXTEND
1000
MTEXTBEGIN
1070
    73
1070
     1
1070
    44
1040
1.0
1070
    74
1070
     0
1000
MTEXTEND
1000
MTEXTBEGIN
1070
    73
1070
     1
1070
    44
1040
1.0
1070
    74
1070
     0
1000
MTEXTEND
  0
INSERT
  5
8954
330
8950
100
AcDbEntity
  8
30
  6
CONTINUOUS
 62
     0
100
AcDbBlockReference
  2
_OPEN
 10
453.9991059872368
 20
-108.0520622233595
 30
0.0
 41
2.0
 42
2.0
 43
2.0
 50
246.2152934870918
  0
LINE
  5
8955
330
8950
100
AcDbEntity
  8
30
  6
CONTINUOUS
 62
     0
100
AcDbLine
 10
451.2876491012276
 20
-114.0000000000007
 30
0.0
 11
451.4676491012273
 21
-114.0000000000005
 31
0.0
  0
LINE
  5
8956
330
8950
100
AcDbEntity
  8
30
  6
CONTINUOUS
 62
     0
100
AcDbLine
 10
451.3776491012276
 20
-114.0900000000005
 30
0.0
 11
451.3776491012276
 21
-113.9100000000003
 31
0.0
  0
POINT
  5
8957
330
8950
100
AcDbEntity
  8
DEFPOINTS
  6
CONTINUOUS
 62
     0
100
AcDbPoint
 10
453.9991059872368
 20
-108.0520622233595
 30
0.0
  0
POINT
  5
8958
330
8950
100
AcDbEntity
  8
DEFPOINTS
  6
CONTINUOUS
 62
     0
100
AcDbPoint
 10
448.7561922152182
 20
-119.9479377766417
 30
0.0
  0
ENDBLK
  5
895A
330
8950
100
AcDbEntity
  8
0
100
AcDbBlockEnd
  0
BLOCK
  5
8C1A
330
8C10
100
AcDbEntity
  8
0
100
AcDbBlockBegin
  2
*D39
 70
     1
 10
0.0
 20
0.0
 30
0.0
  3
*D39
  1

  0
LINE
  5
91CE
330
8C10
100
AcDbEntity
  8
30
  6
CONTINUOUS
 62
     0
100
AcDbLine
 10
-71.00000000000004
 20
130.0
 30
0.0
 11
-116.0191388944171
 21
130.0
 31
0.0
  0
LINE
  5
91CF
330
8C10
100
AcDbEntity
  8
30
  6
CONTINUOUS
 62
     0
100
AcDbLine
 10
-71.00000000000004
 20
-130.0
 30
0.0
 11
-116.0191388944172
 21
-130.0
 31
0.0
  0
LINE
  5
91D0
330
8C10
100
AcDbEntity
  8
30
  6
CONTINUOUS
 62
     0
100
AcDbLine
 10
-115.519138894417
 20
128.0
 30
0.0
 11
-115.5191388944172
 21
-128.0
 31
0.0
  0
INSERT
  5
91D1
330
8C10
100
AcDbEntity
  8
30
  6
CONTINUOUS
 62
     0
100
AcDbBlockReference
  2
_OPEN
 10
-115.519138894417
 20
130.0
 30
0.0
 41
2.0
 42
2.0
 43
2.0
 50
90.0
  0
INSERT
  5
91D2
330
8C10
100
AcDbEntity
  8
30
  6
CONTINUOUS
 62
     0
100
AcDbBlockReference
  2
_OPEN
 10
-115.5191388944172
 20
-130.0
 30
0.0
 41
2.0
 42
2.0
 43
2.0
 50
270.0
  0
MTEXT
  5
91D3
330
8C10
100
AcDbEntity
  8
30
  6
CONTINUOUS
 62
     0
100
AcDbMText
 10
-119.519138894417
 20
-0.0000000000000209
 30
0.0
 40
6.0
 41
0.0
 71
     5
 72
     1
  1
\A1;260
 11
0.0000000000000001
 21
1.0
 31
0.0
1001
ACAD
1000
MTEXTBEGIN
1070
    73
1070
     1
1070
    44
1040
1.0
1070
    74
1070
     0
1000
MTEXTEND
1000
MTEXTBEGIN
1070
    73
1070
     1
1070
    44
1040
1.0
1070
    74
1070
     0
1000
MTEXTEND
1000
MTEXTBEGIN
1070
    73
1070
     1
1070
    44
1040
1.0
1070
    74
1070
     0
1000
MTEXTEND
  0
POINT
  5
91D4
330
8C10
100
AcDbEntity
  8
DEFPOINTS
  6
CONTINUOUS
 62
     0
100
AcDbPoint
 10
-70.00000000000007
 20
130.0
 30
0.0
  0
POINT
  5
91D5
330
8C10
100
AcDbEntity
  8
DEFPOINTS
  6
CONTINUOUS
 62
     0
100
AcDbPoint
 10
-70.00000000000007
 20
-130.0
 30
0.0
  0
POINT
  5
91D6
330
8C10
100
AcDbEntity
  8
DEFPOINTS
  6
CONTINUOUS
 62
     0
100
AcDbPoint
 10
-115.5191388944172
 20
-130.0
 30
0.0
  0
ENDBLK
  5
8C1B
330
8C10
100
AcDbEntity
  8
0
100
AcDbBlockEnd
  0
BLOCK
  5
8C26
330
8C1C
100
AcDbEntity
  8
0
100
AcDbBlockBegin
  2
*D40
 70
     1
 10
0.0
 20
0.0
 30
0.0
  3
*D40
  1

  0
LINE
  5
91D7
330
8C1C
100
AcDbEntity
  8
30
  6
CONTINUOUS
 62
     0
100
AcDbLine
 10
-54.0
 20
45.0000000000001
 30
0.0
 11
-91.89860450474336
 21
45.0000000000001
 31
0.0
  0
LINE
  5
91D8
330
8C1C
100
AcDbEntity
  8
30
  6
CONTINUOUS
 62
     0
100
AcDbLine
 10
-54.0
 20
-45.0
 30
0.0
 11
-91.89860450474339
 21
-44.99999999999999
 31
0.0
  0
LINE
  5
91D9
330
8C1C
100
AcDbEntity
  8
30
  6
CONTINUOUS
 62
     0
100
AcDbLine
 10
-91.39860450474335
 20
43.0000000000001
 30
0.0
 11
-91.39860450474341
 21
-42.99999999999999
 31
0.0
  0
INSERT
  5
91DA
330
8C1C
100
AcDbEntity
  8
30
  6
CONTINUOUS
 62
     0
100
AcDbBlockReference
  2
_OPEN
 10
-91.39860450474335
 20
45.0000000000001
 30
0.0
 41
2.0
 42
2.0
 43
2.0
 50
90.0
  0
INSERT
  5
91DB
330
8C1C
100
AcDbEntity
  8
30
  6
CONTINUOUS
 62
     0
100
AcDbBlockReference
  2
_OPEN
 10
-91.39860450474341
 20
-44.99999999999999
 30
0.0
 41
2.0
 42
2.0
 43
2.0
 50
270.0
  0
MTEXT
  5
91DC
330
8C1C
100
AcDbEntity
  8
30
  6
CONTINUOUS
 62
     0
100
AcDbMText
 10
-95.39860450474336
 20
0.0000000000000487
 30
0.0
 40
6.0
 41
0.0
 71
     5
 72
     1
  1
\A1;90
 11
0.0000000000000001
 21
1.0
 31
0.0
1001
ACAD
1000
MTEXTBEGIN
1070
    73
1070
     1
1070
    44
1040
1.0
1070
    74
1070
     0
1000
MTEXTEND
1000
MTEXTBEGIN
1070
    73
1070
     1
1070
    44
1040
1.0
1070
    74
1070
     0
1000
MTEXTEND
1000
MTEXTBEGIN
1070
    73
1070
     1
1070
    44
1040
1.0
1070
    74
1070
     0
1000
MTEXTEND
  0
POINT
  5
91DD
330
8C1C
100
AcDbEntity
  8
DEFPOINTS
  6
CONTINUOUS
 62
     0
100
AcDbPoint
 10
-53.0
 20
45.0000000000001
 30
0.0
  0
POINT
  5
91DE
330
8C1C
100
AcDbEntity
  8
DEFPOINTS
  6
CONTINUOUS
 62
     0
100
AcDbPoint
 10
-53.0
 20
-45.0
 30
0.0
  0
POINT
  5
91DF
330
8C1C
100
AcDbEntity
  8
DEFPOINTS
  6
CONTINUOUS
 62
     0
100
AcDbPoint
 10
-91.39860450474341
 20
-44.99999999999999
 30
0.0
  0
ENDBLK
  5
8C27
330
8C1C
100
AcDbEntity
  8
0
100
AcDbBlockEnd
  0
BLOCK
  5
8C32
330
8C28
100
AcDbEntity
  8
0
100
AcDbBlockBegin
  2
*D41
 70
     1
 10
0.0
 20
0.0
 30
0.0
  3
*D41
  1

  0
LINE
  5
91E0
330
8C28
100
AcDbEntity
  8
30
  6
CONTINUOUS
 62
     0
100
AcDbLine
 10
-71.00000000000004
 20
50.99999999999909
 30
0.0
 11
-104.3479123954376
 21
50.99999999999909
 31
0.0
  0
LINE
  5
91E1
330
8C28
100
AcDbEntity
  8
30
  6
CONTINUOUS
 62
     0
100
AcDbLine
 10
-71.00000000000004
 20
-51.0
 30
0.0
 11
-104.3479123954376
 21
-50.99999999999999
 31
0.0
  0
LINE
  5
91E2
330
8C28
100
AcDbEntity
  8
30
  6
CONTINUOUS
 62
     0
100
AcDbLine
 10
-103.8479123954376
 20
48.99999999999909
 30
0.0
 11
-103.8479123954376
 21
-48.99999999999999
 31
0.0
  0
INSERT
  5
91E3
330
8C28
100
AcDbEntity
  8
30
  6
CONTINUOUS
 62
     0
100
AcDbBlockReference
  2
_OPEN
 10
-103.8479123954376
 20
50.99999999999909
 30
0.0
 41
2.0
 42
2.0
 43
2.0
 50
90.0
  0
INSERT
  5
91E4
330
8C28
100
AcDbEntity
  8
30
  6
CONTINUOUS
 62
     0
100
AcDbBlockReference
  2
_OPEN
 10
-103.8479123954376
 20
-50.99999999999999
 30
0.0
 41
2.0
 42
2.0
 43
2.0
 50
270.0
  0
MTEXT
  5
91E5
330
8C28
100
AcDbEntity
  8
30
  6
CONTINUOUS
 62
     0
100
AcDbMText
 10
-107.8479123954376
 20
-0.0000000000004621
 30
0.0
 40
6.0
 41
0.0
 71
     5
 72
     1
  1
\A1;102
 11
0.0000000000000001
 21
1.0
 31
0.0
1001
ACAD
1000
MTEXTBEGIN
1070
    73
1070
     1
1070
    44
1040
1.0
1070
    74
1070
     0
1000
MTEXTEND
1000
MTEXTBEGIN
1070
    73
1070
     1
1070
    44
1040
1.0
1070
    74
1070
     0
1000
MTEXTEND
1000
MTEXTBEGIN
1070
    73
1070
     1
1070
    44
1040
1.0
1070
    74
1070
     0
1000
MTEXTEND
  0
POINT
  5
91E6
330
8C28
100
AcDbEntity
  8
DEFPOINTS
  6
CONTINUOUS
 62
     0
100
AcDbPoint
 10
-70.00000000000007
 20
50.99999999999909
 30
0.0
  0
POINT
  5
91E7
330
8C28
100
AcDbEntity
  8
DEFPOINTS
  6
CONTINUOUS
 62
     0
100
AcDbPoint
 10
-70.00000000000007
 20
-51.0
 30
0.0
  0
POINT
  5
91E8
330
8C28
100
AcDbEntity
  8
DEFPOINTS
  6
CONTINUOUS
 62
     0
100
AcDbPoint
 10
-103.8479123954376
 20
-50.99999999999999
 30
0.0
  0
ENDBLK
  5
8C33
330
8C28
100
AcDbEntity
  8
0
100
AcDbBlockEnd
  0
BLOCK
  5
8E2C
330
8E23
100
AcDbEntity
  8
0
100
AcDbBlockBegin
  2
*D42
 70
     1
 10
0.0
 20
0.0
 30
0.0
  3
*D42
  1

  0
LINE
  5
9549
330
8E23
100
AcDbEntity
  8
30
  6
CONTINUOUS
 62
     0
100
AcDbLine
 10
-107.7206689410606
 20
-513.0555345229753
 30
0.0
 11
-90.7206689410607
 21
-513.0555345229753
 31
0.0
  0
LINE
  5
954A
330
8E23
100
AcDbEntity
  8
30
  6
CONTINUOUS
 62
     0
100
AcDbLine
 10
-90.7206689410607
 20
-513.0555345229753
 30
0.0
 11
-60.19229002851068
 21
-486.9174718408159
 31
0.0
  0
MTEXT
  5
954B
330
8E23
100
AcDbEntity
  8
30
  6
CONTINUOUS
 62
     0
100
AcDbMText
 10
-99.72066894106067
 20
-509.0555345229753
 30
0.0
 40
6.0
 41
0.0
 71
     5
 72
     1
  1
\A1;\U+220536
  0
INSERT
  5
954C
330
8E23
100
AcDbEntity
  8
30
  6
CONTINUOUS
 62
     0
100
AcDbBlockReference
  2
_OPEN
 10
-58.67306102565965
 20
-485.6167246567344
 30
0.0
 41
2.0
 42
2.0
 43
2.0
 50
40.5697750365466
  0
LINE
  5
954D
330
8E23
100
AcDbEntity
  8
30
  6
CONTINUOUS
 62
     0
100
AcDbLine
 10
-45.09000000000006
 20
-473.9099999999999
 30
0.0
 11
-44.91000000000005
 21
-473.9099999999999
 31
0.0
  0
LINE
  5
954E
330
8E23
100
AcDbEntity
  8
30
  6
CONTINUOUS
 62
     0
100
AcDbLine
 10
-45.00000000000006
 20
-473.9999999999999
 30
0.0
 11
-45.00000000000006
 21
-473.82
 31
0.0
  0
POINT
  5
954F
330
8E23
100
AcDbEntity
  8
DEFPOINTS
  6
CONTINUOUS
 62
     0
100
AcDbPoint
 10
-58.67306102565965
 20
-485.6167246567344
 30
0.0
  0
POINT
  5
9550
330
8E23
100
AcDbEntity
  8
DEFPOINTS
  6
CONTINUOUS
 62
     0
100
AcDbPoint
 10
-31.32693897434049
 20
-462.2032753432655
 30
0.0
  0
ENDBLK
  5
8E2D
330
8E23
100
AcDbEntity
  8
0
100
AcDbBlockEnd
  0
BLOCK
  5
8E4D
330
8E43
100
AcDbEntity
  8
0
100
AcDbBlockBegin
  2
*D43
 70
     1
 10
0.0
 20
0.0
 30
0.0
  3
*D43
  1

  0
LINE
  5
91C5
330
8E43
100
AcDbEntity
  8
30
  6
CONTINUOUS
 62
     0
100
AcDbLine
 10
108.9999999999996
 20
-246.0
 30
0.0
 11
165.573910113659
 21
-246.0
 31
0.0
  0
LINE
  5
91C6
330
8E43
100
AcDbEntity
  8
30
  6
CONTINUOUS
 62
     0
100
AcDbLine
 10
108.9999999999996
 20
-474.0
 30
0.0
 11
165.573910113659
 21
-474.0000000000001
 31
0.0
  0
LINE
  5
91C7
330
8E43
100
AcDbEntity
  8
30
  6
CONTINUOUS
 62
     0
100
AcDbLine
 10
165.0739101136589
 20
-248.0
 30
0.0
 11
165.0739101136589
 21
-472.0
 31
0.0
  0
INSERT
  5
91C8
330
8E43
100
AcDbEntity
  8
30
  6
CONTINUOUS
 62
     0
100
AcDbBlockReference
  2
_OPEN
 10
165.0739101136589
 20
-246.0
 30
0.0
 41
2.0
 42
2.0
 43
2.0
 50
90.0
  0
INSERT
  5
91C9
330
8E43
100
AcDbEntity
  8
30
  6
CONTINUOUS
 62
     0
100
AcDbBlockReference
  2
_OPEN
 10
165.0739101136589
 20
-474.0000000000001
 30
0.0
 41
2.0
 42
2.0
 43
2.0
 50
270.0
  0
MTEXT
  5
91CA
330
8E43
100
AcDbEntity
  8
30
  6
CONTINUOUS
 62
     0
100
AcDbMText
 10
161.0739101136589
 20
-360.0
 30
0.0
 40
6.0
 41
0.0
 71
     5
 72
     1
  1
\A1;228
 11
0.0000000000000001
 21
1.0
 31
0.0
1001
ACAD
1000
MTEXTBEGIN
1070
    73
1070
     1
1070
    44
1040
1.0
1070
    74
1070
     0
1000
MTEXTEND
1000
MTEXTBEGIN
1070
    73
1070
     1
1070
    44
1040
1.0
1070
    74
1070
     0
1000
MTEXTEND
1000
MTEXTBEGIN
1070
    73
1070
     1
1070
    44
1040
1.0
1070
    74
1070
     0
1000
MTEXTEND
  0
POINT
  5
91CB
330
8E43
100
AcDbEntity
  8
DEFPOINTS
  6
CONTINUOUS
 62
     0
100
AcDbPoint
 10
107.9999999999996
 20
-246.0
 30
0.0
  0
POINT
  5
91CC
330
8E43
100
AcDbEntity
  8
DEFPOINTS
  6
CONTINUOUS
 62
     0
100
AcDbPoint
 10
107.9999999999996
 20
-474.0
 30
0.0
  0
POINT
  5
91CD
330
8E43
100
AcDbEntity
  8
DEFPOINTS
  6
CONTINUOUS
 62
     0
100
AcDbPoint
 10
165.0739101136589
 20
-474.0000000000001
 30
0.0
  0
ENDBLK
  5
8E4E
330
8E43
100
AcDbEntity
  8
0
100
AcDbBlockEnd
  0
BLOCK
  5
8E5A
330
8E50
100
AcDbEntity
  8
0
100
AcDbBlockBegin
  2
*D44
 70
     1
 10
0.0
 20
0.0
 30
0.0
  3
*D44
  1

  0
LINE
  5
91BC
330
8E50
100
AcDbEntity
  8
30
  6
CONTINUOUS
 62
     0
100
AcDbLine
 10
75.49999999999932
 20
-253.0
 30
0.0
 11
144.8211471979405
 21
-253.0
 31
0.0
  0
LINE
  5
91BD
330
8E50
100
AcDbEntity
  8
30
  6
CONTINUOUS
 62
     0
100
AcDbLine
 10
75.49999999999932
 20
-467.0
 30
0.0
 11
144.8211471979405
 21
-467.0
 31
0.0
  0
LINE
  5
91BE
330
8E50
100
AcDbEntity
  8
30
  6
CONTINUOUS
 62
     0
100
AcDbLine
 10
144.3211471979403
 20
-255.0
 30
0.0
 11
144.3211471979403
 21
-465.0
 31
0.0
  0
INSERT
  5
91BF
330
8E50
100
AcDbEntity
  8
30
  6
CONTINUOUS
 62
     0
100
AcDbBlockReference
  2
_OPEN
 10
144.3211471979403
 20
-253.0
 30
0.0
 41
2.0
 42
2.0
 43
2.0
 50
90.0
  0
INSERT
  5
91C0
330
8E50
100
AcDbEntity
  8
30
  6
CONTINUOUS
 62
     0
100
AcDbBlockReference
  2
_OPEN
 10
144.3211471979403
 20
-467.0
 30
0.0
 41
2.0
 42
2.0
 43
2.0
 50
270.0
  0
MTEXT
  5
91C1
330
8E50
100
AcDbEntity
  8
30
  6
CONTINUOUS
 62
     0
100
AcDbMText
 10
140.32114719794
 20
-360.0
 30
0.0
 40
6.0
 41
0.0
 71
     5
 72
     1
  1
\A1;214
 11
0.0000000000000001
 21
1.0
 31
0.0
1001
ACAD
1000
MTEXTBEGIN
1070
    73
1070
     1
1070
    44
1040
1.0
1070
    74
1070
     0
1000
MTEXTEND
1000
MTEXTBEGIN
1070
    73
1070
     1
1070
    44
1040
1.0
1070
    74
1070
     0
1000
MTEXTEND
1000
MTEXTBEGIN
1070
    73
1070
     1
1070
    44
1040
1.0
1070
    74
1070
     0
1000
MTEXTEND
  0
POINT
  5
91C2
330
8E50
100
AcDbEntity
  8
DEFPOINTS
  6
CONTINUOUS
 62
     0
100
AcDbPoint
 10
74.49999999999931
 20
-253.0
 30
0.0
  0
POINT
  5
91C3
330
8E50
100
AcDbEntity
  8
DEFPOINTS
  6
CONTINUOUS
 62
     0
100
AcDbPoint
 10
74.49999999999931
 20
-467.0
 30
0.0
  0
POINT
  5
91C4
330
8E50
100
AcDbEntity
  8
DEFPOINTS
  6
CONTINUOUS
 62
     0
100
AcDbPoint
 10
144.3211471979403
 20
-467.0
 30
0.0
  0
ENDBLK
  5
8E5B
330
8E50
100
AcDbEntity
  8
0
100
AcDbBlockEnd
  0
BLOCK
  5
914C
330
9142
100
AcDbEntity
  8
0
100
AcDbBlockBegin
  2
*D45
 70
     1
 10
0.0
 20
0.0
 30
0.0
  3
*D45
  1

  0
LINE
  5
9143
330
9142
100
AcDbEntity
  8
30
 62
     0
100
AcDbLine
 10
-287.7307689007849
 20
433.708552018579
 30
0.0
 11
-208.234324486636
 21
433.708552018579
 31
0.0
  0
LINE
  5
9144
330
9142
100
AcDbEntity
  8
30
 62
     0
100
AcDbLine
 10
-225.2312436751267
 20
425.7085933447893
 30
0.0
 11
-208.234324486636
 21
425.7085933447893
 31
0.0
  0
LINE
  5
9145
330
9142
100
AcDbEntity
  8
30
 62
     0
100
AcDbLine
 10
-208.734324486636
 20
431.708552018579
 30
0.0
 11
-208.734324486636
 21
427.7085933447891
 31
0.0
  0
INSERT
  5
9146
330
9142
100
AcDbEntity
  8
30
 62
     0
100
AcDbBlockReference
  2
_OPEN
 10
-208.734324486636
 20
433.708552018579
 30
0.0
 41
2.0
 42
2.0
 43
2.0
 50
90.0
  0
INSERT
  5
9147
330
9142
100
AcDbEntity
  8
30
 62
     0
100
AcDbBlockReference
  2
_OPEN
 10
-208.734324486636
 20
425.7085933447893
 30
0.0
 41
2.0
 42
2.0
 43
2.0
 50
270.0
  0
MTEXT
  5
9148
330
9142
100
AcDbEntity
  8
30
 62
     0
100
AcDbMText
 10
-212.7343244866361
 20
429.7085726816842
 30
0.0
 40
6.0
 41
0.0
 71
     5
 72
     1
  1
\A1;8
 11
0.0000000000000001
 21
1.0
 31
0.0
1001
ACAD
1000
MTEXTBEGIN
1070
    73
1070
     1
1070
    44
1040
1.0
1070
    74
1070
     0
1000
MTEXTEND
1000
MTEXTBEGIN
1070
    73
1070
     1
1070
    44
1040
1.0
1070
    74
1070
     0
1000
MTEXTEND
1000
MTEXTBEGIN
1070
    73
1070
     1
1070
    44
1040
1.0
1070
    74
1070
     0
1000
MTEXTEND
  0
POINT
  5
9149
330
9142
100
AcDbEntity
  8
DEFPOINTS
 62
     0
100
AcDbPoint
 10
-288.7307689007848
 20
433.708552018579
 30
0.0
  0
POINT
  5
914A
330
9142
100
AcDbEntity
  8
DEFPOINTS
 62
     0
100
AcDbPoint
 10
-226.2312436751266
 20
425.7085933447893
 30
0.0
  0
POINT
  5
914B
330
9142
100
AcDbEntity
  8
DEFPOINTS
 62
     0
100
AcDbPoint
 10
-208.734324486636
 20
425.7085933447893
 30
0.0
  0
ENDBLK
  5
914D
330
9142
100
AcDbEntity
  8
0
100
AcDbBlockEnd
  0
BLOCK
  5
915A
330
914E
100
AcDbEntity
  8
0
100
AcDbBlockBegin
  2
A$C32E15A74
 70
     0
 10
0.0
 20
0.0
 30
0.0
  3
A$C32E15A74
  1

  0
DIMENSION
  5
914F
330
914E
100
AcDbEntity
  8
30
100
AcDbDimension
  2
*D45
 10
35.49646460017639
 20
102.9999999999997
 30
0.0
 11
31.49646460017635
 21
106.9999793368944
 31
0.0
 12
244.2307890868125
 22
-322.7085933447895
 32
0.0
  3
STANDARD
100
AcDbAlignedDimension
 13
-44.49997981397245
 23
110.9999586737895
 33
0.0
 14
17.99954541168573
 24
102.9999999999997
 34
0.0
 50
90.0
100
AcDbRotatedDimension
1001
ACAD
1000
DSTYLE
1002
{
1070
   287
1070
     4
1070
   287
1070
     4
1070
   287
1070
     4
1070
   287
1070
     4
1070
   287
1070
     4
1070
   287
1070
     4
1070
    79
1070
     3
1070
   279
1070
     1
1002
}
  0
LINE
  5
9150
330
914E
100
AcDbEntity
  8
0
100
AcDbLine
 10
-140.0
 20
103.0
 30
0.0
 11
0.0
 21
103.0
 31
0.0
  0
LINE
  5
9151
330
914E
100
AcDbEntity
  8
18
100
AcDbLine
 10
17.99954541168573
 20
106.1999834695159
 30
0.0
 11
-161.9995247485803
 21
106.1999834695159
 31
0.0
  0
LINE
  5
9152
330
914E
100
AcDbEntity
  8
18
100
AcDbLine
 10
-141.9996280641066
 20
103.0
 30
0.0
 11
-161.9995247485803
 21
103.0
 31
0.0
  0
LINE
  5
9153
330
914E
100
AcDbEntity
  8
12
100
AcDbLine
 10
-90.49997981397243
 20
110.9999586737894
 30
0.0
 11
-94.49995915086743
 21
110.9999586737894
 31
0.0
  0
LINE
  5
9154
330
914E
100
AcDbEntity
  8
12
100
AcDbLine
 10
-90.49997981397243
 20
103.0
 30
0.0
 11
-90.49997981397243
 21
110.9999586737894
 31
0.0
  0
LINE
  5
9155
330
914E
100
AcDbEntity
  8
12
100
AcDbLine
 10
-94.49995915086743
 20
103.0
 30
0.0
 11
-94.49995915086743
 21
110.9999586737894
 31
0.0
  0
LINE
  5
9156
330
914E
100
AcDbEntity
  8
12
100
AcDbLine
 10
-48.49995915086743
 20
103.0
 30
0.0
 11
-48.49995915086743
 21
110.9999586737894
 31
0.0
  0
LINE
  5
9157
330
914E
100
AcDbEntity
  8
12
100
AcDbLine
 10
-44.49997981397245
 20
103.0
 30
0.0
 11
-44.49997981397245
 21
110.9999586737894
 31
0.0
  0
LINE
  5
9158
330
914E
100
AcDbEntity
  8
12
100
AcDbLine
 10
-44.49997981397245
 20
110.9999586737894
 30
0.0
 11
-48.49995915086743
 21
110.9999586737894
 31
0.0
  0
LINE
  5
9159
330
914E
100
AcDbEntity
  8
18
100
AcDbLine
 10
17.99954541168573
 20
103.0
 30
0.0
 11
-2.000351272788293
 21
103.0
 31
0.0
  0
ENDBLK
  5
915B
330
914E
100
AcDbEntity
  8
0
100
AcDbBlockEnd
  0
BLOCK
  5
918D
330
9183
100
AcDbEntity
  8
0
100
AcDbBlockBegin
  2
*D47
 70
     1
 10
0.0
 20
0.0
 30
0.0
  3
*D47
  1

  0
LINE
  5
9551
330
9183
100
AcDbEntity
  8
30
 62
     0
100
AcDbLine
 10
26.49995956682768
 20
362.6999586737895
 30
0.0
 11
138.11259592051
 21
362.6999586737894
 31
0.0
  0
LINE
  5
9552
330
9183
100
AcDbEntity
  8
30
 62
     0
100
AcDbLine
 10
113.5566438232602
 20
348.0
 30
0.0
 11
138.11259592051
 21
347.9999999999999
 31
0.0
  0
LINE
  5
9553
330
9183
100
AcDbEntity
  8
30
 62
     0
100
AcDbLine
 10
137.61259592051
 20
360.6999586737894
 30
0.0
 11
137.61259592051
 21
349.9999999999999
 31
0.0
  0
LINE
  5
9554
330
9183
100
AcDbEntity
  8
30
 62
     0
100
AcDbLine
 10
137.61259592051
 20
355.3499793368946
 30
0.0
 11
150.61259592051
 21
355.3499793368946
 31
0.0
  0
LINE
  5
9555
330
9183
100
AcDbEntity
  8
30
 62
     0
100
AcDbLine
 10
150.61259592051
 20
355.3499793368946
 30
0.0
 11
168.61259592051
 21
355.3499793368946
 31
0.0
  0
MTEXT
  5
9556
330
9183
100
AcDbEntity
  8
30
 62
     0
100
AcDbMText
 10
159.6125959205099
 20
359.3499793368947
 30
0.0
 40
6.0
 41
0.0
 71
     5
 72
     1
  1
\A1;14.7
  0
INSERT
  5
9557
330
9183
100
AcDbEntity
  8
30
 62
     0
100
AcDbBlockReference
  2
_OPEN
 10
137.61259592051
 20
362.6999586737894
 30
0.0
 41
2.0
 42
2.0
 43
2.0
 50
90.0
  0
INSERT
  5
9558
330
9183
100
AcDbEntity
  8
30
 62
     0
100
AcDbBlockReference
  2
_OPEN
 10
137.61259592051
 20
347.9999999999999
 30
0.0
 41
2.0
 42
2.0
 43
2.0
 50
270.0
  0
POINT
  5
9559
330
9183
100
AcDbEntity
  8
DEFPOINTS
 62
     0
100
AcDbPoint
 10
25.49995956682768
 20
362.6999586737895
 30
0.0
  0
POINT
  5
955A
330
9183
100
AcDbEntity
  8
DEFPOINTS
 62
     0
100
AcDbPoint
 10
112.5566438232602
 20
348.0
 30
0.0
  0
POINT
  5
955B
330
9183
100
AcDbEntity
  8
DEFPOINTS
 62
     0
100
AcDbPoint
 10
137.61259592051
 20
347.9999999999999
 30
0.0
  0
ENDBLK
  5
918E
330
9183
100
AcDbEntity
  8
0
100
AcDbBlockEnd
  0
BLOCK
  5
91A2
330
9199
100
AcDbEntity
  8
0
100
AcDbBlockBegin
  2
*D48
 70
     1
 10
0.0
 20
0.0
 30
0.0
  3
*D48
  1

  0
LINE
  5
91AC
330
9199
100
AcDbEntity
  8
30
  6
DASHED
 62
     0
100
AcDbLine
 10
-42.74744083389182
 20
-214.0023890902476
 30
0.0
 11
-31.74744083389152
 21
-214.0023890902476
 31
0.0
  0
LINE
  5
91AD
330
9199
100
AcDbEntity
  8
30
  6
DASHED
 62
     0
100
AcDbLine
 10
-31.74744083389152
 20
-214.0023890902476
 30
0.0
 11
-23.65365071662179
 21
-248.1349110980331
 31
0.0
  0
MTEXT
  5
91AE
330
9199
100
AcDbEntity
  8
30
  6
DASHED
 62
     0
100
AcDbMText
 10
-37.74744083389178
 20
-210.0023890902475
 30
0.0
 40
6.0
 41
0.0
 71
     5
 72
     1
  1
\A1;\U+22056
1001
ACAD
1000
MTEXTBEGIN
1070
    73
1070
     1
1070
    44
1040
1.0
1070
    74
1070
     0
1000
MTEXTEND
1000
MTEXTBEGIN
1070
    73
1070
     1
1070
    44
1040
1.0
1070
    74
1070
     0
1000
MTEXTEND
1000
MTEXTBEGIN
1070
    73
1070
     1
1070
    44
1040
1.0
1070
    74
1070
     0
1000
MTEXTEND
  0
INSERT
  5
91AF
330
9199
100
AcDbEntity
  8
30
  6
DASHED
 62
     0
100
AcDbBlockReference
  2
_OPEN
 10
-23.19219042997324
 20
-250.0809466588199
 30
0.0
 41
2.0
 42
2.0
 43
2.0
 50
283.3400621368918
  0
LINE
  5
91B0
330
9199
100
AcDbEntity
  8
30
  6
DASHED
 62
     0
100
AcDbLine
 10
-22.59000000000046
 20
-252.9999999999998
 30
0.0
 11
-22.41000000000046
 21
-252.9999999999998
 31
0.0
  0
LINE
  5
91B1
330
9199
100
AcDbEntity
  8
30
  6
DASHED
 62
     0
100
AcDbLine
 10
-22.50000000000044
 20
-253.0899999999999
 30
0.0
 11
-22.50000000000047
 21
-252.9099999999997
 31
0.0
  0
POINT
  5
91B2
330
9199
100
AcDbEntity
  8
DEFPOINTS
  6
DASHED
 62
     0
100
AcDbPoint
 10
-23.19219042997324
 20
-250.0809466588199
 30
0.0
  0
POINT
  5
91B3
330
9199
100
AcDbEntity
  8
DEFPOINTS
  6
DASHED
 62
     0
100
AcDbPoint
 10
-21.80780957002764
 20
-255.9190533411798
 30
0.0
  0
ENDBLK
  5
91A3
330
9199
100
AcDbEntity
  8
0
100
AcDbBlockEnd
  0
BLOCK
  5
91F4
330
91EA
100
AcDbEntity
  8
0
100
AcDbBlockBegin
  2
*D49
 70
     1
 10
0.0
 20
0.0
 30
0.0
  3
*D49
  1

  0
LINE
  5
9208
330
91EA
100
AcDbEntity
  8
30
  6
CONTINUOUS
 62
     0
100
AcDbLine
 10
-70.0
 20
-131.0
 30
0.0
 11
-70.0
 21
-154.4615092384197
 31
0.0
  0
LINE
  5
9209
330
91EA
100
AcDbEntity
  8
30
  6
CONTINUOUS
 62
     0
100
AcDbLine
 10
115.0
 20
-131.0
 30
0.0
 11
115.0
 21
-154.4615092384197
 31
0.0
  0
LINE
  5
920A
330
91EA
100
AcDbEntity
  8
30
  6
CONTINUOUS
 62
     0
100
AcDbLine
 10
-68.0
 20
-153.9615092384194
 30
0.0
 11
113.0
 21
-153.9615092384194
 31
0.0
  0
INSERT
  5
920B
330
91EA
100
AcDbEntity
  8
30
  6
CONTINUOUS
 62
     0
100
AcDbBlockReference
  2
_OPEN
 10
-70.0
 20
-153.9615092384194
 30
0.0
 41
2.0
 42
2.0
 43
2.0
 50
180.0
  0
INSERT
  5
920C
330
91EA
100
AcDbEntity
  8
30
  6
CONTINUOUS
 62
     0
100
AcDbBlockReference
  2
_OPEN
 10
115.0
 20
-153.9615092384194
 30
0.0
 41
2.0
 42
2.0
 43
2.0
  0
MTEXT
  5
920D
330
91EA
100
AcDbEntity
  8
30
  6
CONTINUOUS
 62
     0
100
AcDbMText
 10
22.5
 20
-149.9615092384194
 30
0.0
 40
6.0
 41
0.0
 71
     5
 72
     1
  1
\A1;185
1001
ACAD
1000
MTEXTBEGIN
1070
    73
1070
     1
1070
    44
1040
1.0
1070
    74
1070
     0
1000
MTEXTEND
1000
MTEXTBEGIN
1070
    73
1070
     1
1070
    44
1040
1.0
1070
    74
1070
     0
1000
MTEXTEND
1000
MTEXTBEGIN
1070
    73
1070
     1
1070
    44
1040
1.0
1070
    74
1070
     0
1000
MTEXTEND
  0
POINT
  5
920E
330
91EA
100
AcDbEntity
  8
DEFPOINTS
  6
CONTINUOUS
 62
     0
100
AcDbPoint
 10
-70.0
 20
-130.0
 30
0.0
  0
POINT
  5
920F
330
91EA
100
AcDbEntity
  8
DEFPOINTS
  6
CONTINUOUS
 62
     0
100
AcDbPoint
 10
115.0
 20
-130.0
 30
0.0
  0
POINT
  5
9210
330
91EA
100
AcDbEntity
  8
DEFPOINTS
  6
CONTINUOUS
 62
     0
100
AcDbPoint
 10
115.0
 20
-153.9615092384194
 30
0.0
  0
ENDBLK
  5
91F5
330
91EA
100
AcDbEntity
  8
0
100
AcDbBlockEnd
  0
BLOCK
  5
923C
330
9232
100
AcDbEntity
  8
0
100
AcDbBlockBegin
  2
*D50
 70
     1
 10
0.0
 20
0.0
 30
0.0
  3
*D50
  1

  0
LINE
  5
9286
330
9232
100
AcDbEntity
  8
30
  6
CONTINUOUS
 62
     0
100
AcDbLine
 10
-45.00006103516011
 20
414.4999999999998
 30
0.0
 11
-45.00006103516009
 21
489.0635362125029
 31
0.0
  0
LINE
  5
9287
330
9232
100
AcDbEntity
  8
30
  6
CONTINUOUS
 62
     0
100
AcDbLine
 10
-0.0000610351601153
 20
454.4999999999998
 30
0.0
 11
-0.0000610351601132
 21
489.0635362125029
 31
0.0
  0
LINE
  5
9288
330
9232
100
AcDbEntity
  8
30
  6
CONTINUOUS
 62
     0
100
AcDbLine
 10
-43.0000610351601
 20
488.5635362125028
 30
0.0
 11
-2.000061035160113
 21
488.5635362125028
 31
0.0
  0
INSERT
  5
9289
330
9232
100
AcDbEntity
  8
30
  6
CONTINUOUS
 62
     0
100
AcDbBlockReference
  2
_OPEN
 10
-45.00006103516009
 20
488.5635362125028
 30
0.0
 41
2.0
 42
2.0
 43
2.0
 50
180.0
  0
INSERT
  5
928A
330
9232
100
AcDbEntity
  8
30
  6
CONTINUOUS
 62
     0
100
AcDbBlockReference
  2
_OPEN
 10
-0.0000610351601132
 20
488.5635362125028
 30
0.0
 41
2.0
 42
2.0
 43
2.0
  0
MTEXT
  5
928B
330
9232
100
AcDbEntity
  8
30
  6
CONTINUOUS
 62
     0
100
AcDbMText
 10
-22.5000610351601
 20
492.5635362125028
 30
0.0
 40
6.0
 41
0.0
 71
     5
 72
     1
  1
\A1;45
1001
ACAD
1000
MTEXTBEGIN
1070
    73
1070
     1
1070
    44
1040
1.0
1070
    74
1070
     0
1000
MTEXTEND
1000
MTEXTBEGIN
1070
    73
1070
     1
1070
    44
1040
1.0
1070
    74
1070
     0
1000
MTEXTEND
1000
MTEXTBEGIN
1070
    73
1070
     1
1070
    44
1040
1.0
1070
    74
1070
     0
1000
MTEXTEND
  0
POINT
  5
928C
330
9232
100
AcDbEntity
  8
DEFPOINTS
  6
CONTINUOUS
 62
     0
100
AcDbPoint
 10
-45.00006103516011
 20
413.4999999999998
 30
0.0
  0
POINT
  5
928D
330
9232
100
AcDbEntity
  8
DEFPOINTS
  6
CONTINUOUS
 62
     0
100
AcDbPoint
 10
-0.0000610351601154
 20
453.5
 30
0.0
  0
POINT
  5
928E
330
9232
100
AcDbEntity
  8
DEFPOINTS
  6
CONTINUOUS
 62
     0
100
AcDbPoint
 10
-0.0000610351601132
 20
488.5635362125028
 30
0.0
  0
ENDBLK
  5
923D
330
9232
100
AcDbEntity
  8
0
100
AcDbBlockEnd
  0
BLOCK
  5
9248
330
923E
100
AcDbEntity
  8
0
100
AcDbBlockBegin
  2
*D51
 70
     1
 10
0.0
 20
0.0
 30
0.0
  3
*D51
  1

  0
LINE
  5
955C
330
923E
100
AcDbEntity
  8
30
  6
CONTINUOUS
 62
     0
100
AcDbLine
 10
-0.0000610351601153
 20
454.4999999999999
 30
0.0
 11
-0.0000610351601132
 21
489.0635362125028
 31
0.0
  0
LINE
  5
955D
330
923E
100
AcDbEntity
  8
30
  6
CONTINUOUS
 62
     0
100
AcDbLine
 10
44.99993896483988
 20
414.4999999999998
 30
0.0
 11
44.99993896483988
 21
489.0635362125028
 31
0.0
  0
LINE
  5
955E
330
923E
100
AcDbEntity
  8
30
  6
CONTINUOUS
 62
     0
100
AcDbLine
 10
1.999938964839886
 20
488.5635362125028
 30
0.0
 11
42.99993896483988
 21
488.5635362125028
 31
0.0
  0
INSERT
  5
955F
330
923E
100
AcDbEntity
  8
30
  6
CONTINUOUS
 62
     0
100
AcDbBlockReference
  2
_OPEN
 10
-0.0000610351601133
 20
488.5635362125028
 30
0.0
 41
2.0
 42
2.0
 43
2.0
 50
180.0
  0
INSERT
  5
9560
330
923E
100
AcDbEntity
  8
30
  6
CONTINUOUS
 62
     0
100
AcDbBlockReference
  2
_OPEN
 10
44.99993896483988
 20
488.5635362125028
 30
0.0
 41
2.0
 42
2.0
 43
2.0
  0
MTEXT
  5
9561
330
923E
100
AcDbEntity
  8
30
  6
CONTINUOUS
 62
     0
100
AcDbMText
 10
22.49993896483988
 20
492.5635362125028
 30
0.0
 40
6.0
 41
0.0
 71
     5
 72
     1
  1
\A1;45
  0
POINT
  5
9562
330
923E
100
AcDbEntity
  8
DEFPOINTS
  6
CONTINUOUS
 62
     0
100
AcDbPoint
 10
-0.0000610351601154
 20
453.5
 30
0.0
  0
POINT
  5
9563
330
923E
100
AcDbEntity
  8
DEFPOINTS
  6
CONTINUOUS
 62
     0
100
AcDbPoint
 10
44.99993896483988
 20
413.4999999999998
 30
0.0
  0
POINT
  5
9564
330
923E
100
AcDbEntity
  8
DEFPOINTS
  6
CONTINUOUS
 62
     0
100
AcDbPoint
 10
44.99993896483988
 20
488.5635362125028
 30
0.0
  0
ENDBLK
  5
9249
330
923E
100
AcDbEntity
  8
0
100
AcDbBlockEnd
  0
BLOCK
  5
9267
330
925D
100
AcDbEntity
  8
0
100
AcDbBlockBegin
  2
*D52
 70
     1
 10
0.0
 20
0.0
 30
0.0
  3
*D52
  1

  0
LINE
  5
928F
330
925D
100
AcDbEntity
  8
30
  6
CONTINUOUS
 62
     0
100
AcDbLine
 10
44.99993896483988
 20
419.0
 30
0.0
 11
44.99993896483988
 21
489.5635362125029
 31
0.0
  0
LINE
  5
9290
330
925D
100
AcDbEntity
  8
30
  6
CONTINUOUS
 62
     0
100
AcDbLine
 10
89.9999389648399
 20
454.4999999999998
 30
0.0
 11
89.9999389648399
 21
489.5635362125029
 31
0.0
  0
LINE
  5
9291
330
925D
100
AcDbEntity
  8
30
  6
CONTINUOUS
 62
     0
100
AcDbLine
 10
46.99993896483987
 20
489.0635362125029
 30
0.0
 11
87.99993896483988
 21
489.0635362125029
 31
0.0
  0
INSERT
  5
9292
330
925D
100
AcDbEntity
  8
30
  6
CONTINUOUS
 62
     0
100
AcDbBlockReference
  2
_OPEN
 10
44.99993896483988
 20
489.0635362125029
 30
0.0
 41
2.0
 42
2.0
 43
2.0
 50
180.0
  0
INSERT
  5
9293
330
925D
100
AcDbEntity
  8
30
  6
CONTINUOUS
 62
     0
100
AcDbBlockReference
  2
_OPEN
 10
89.9999389648399
 20
489.0635362125029
 30
0.0
 41
2.0
 42
2.0
 43
2.0
  0
MTEXT
  5
9294
330
925D
100
AcDbEntity
  8
30
  6
CONTINUOUS
 62
     0
100
AcDbMText
 10
67.49993896483989
 20
493.0635362125029
 30
0.0
 40
6.0
 41
0.0
 71
     5
 72
     1
  1
\A1;45
1001
ACAD
1000
MTEXTBEGIN
1070
    73
1070
     1
1070
    44
1040
1.0
1070
    74
1070
     0
1000
MTEXTEND
1000
MTEXTBEGIN
1070
    73
1070
     1
1070
    44
1040
1.0
1070
    74
1070
     0
1000
MTEXTEND
1000
MTEXTBEGIN
1070
    73
1070
     1
1070
    44
1040
1.0
1070
    74
1070
     0
1000
MTEXTEND
  0
POINT
  5
9295
330
925D
100
AcDbEntity
  8
DEFPOINTS
  6
CONTINUOUS
 62
     0
100
AcDbPoint
 10
44.99993896483988
 20
418.0
 30
0.0
  0
POINT
  5
9296
330
925D
100
AcDbEntity
  8
DEFPOINTS
  6
CONTINUOUS
 62
     0
100
AcDbPoint
 10
89.9999389648399
 20
453.5
 30
0.0
  0
POINT
  5
9297
330
925D
100
AcDbEntity
  8
DEFPOINTS
  6
CONTINUOUS
 62
     0
100
AcDbPoint
 10
89.9999389648399
 20
489.0635362125029
 30
0.0
  0
ENDBLK
  5
9268
330
925D
100
AcDbEntity
  8
0
100
AcDbBlockEnd
  0
ENDSEC
  0
SECTION
  2
ENTITIES
  0
LINE
  5
B4
330
1E
100
AcDbEntity
  8
16
100
AcDbLine
 10
0.0
 20
-101.8246001220914
 30
0.0
 11
0.0
 21
105.6073578546832
 31
0.0
  0
LINE
  5
B5
330
1E
100
AcDbEntity
  8
16
100
AcDbLine
 10
139.0167105986537
 20
-0.0000000000000027
 30
0.0
 11
-83.90588178115756
 21
-0.0000000000000027
 31
0.0
  0
MTEXT
  5
BF3
330
1E
100
AcDbEntity
  8
24
  6
CONTINUOUS
100
AcDbMText
 10
140.9820964648283
 20
176.3476821548369
 30
0.0
 40
3.0
 41
0.0
 71
     1
 72
     1
  1
\A1;
1001
ACAD
1000
MTEXTBEGIN
1070
    73
1070
     1
1070
    44
1040
1.0
1070
    74
1070
     0
1000
MTEXTEND
1000
MTEXTBEGIN
1070
    73
1070
     1
1070
    44
1040
1.0
1070
    74
1070
     0
1000
MTEXTEND
1000
MTEXTBEGIN
1070
    73
1070
     1
1070
    44
1040
1.0
1070
    74
1070
     0
1000
MTEXTEND
  0
LINE
  5
1C9B
330
1E
100
AcDbEntity
  8
16
100
AcDbLine
 10
402.2681462467813
 20
0.0000000000001137
 30
0.0
 11
218.4871519556748
 21
0.0000000000001137
 31
0.0
  0
MTEXT
  5
5C78
330
1E
100
AcDbEntity
  8
30
  6
CONTINUOUS
100
AcDbMText
 10
162.3297648581359
 20
88.99793930010117
 30
0.0
 40
4.0
 41
0.0
 71
     9
 72
     1
  1

1001
ACAD
1000
MTEXTBEGIN
1070
    73
1070
     1
1070
    44
1040
1.0
1070
    74
1070
     0
1000
MTEXTEND
1000
MTEXTBEGIN
1070
    73
1070
     1
1070
    44
1040
1.0
1070
    74
1070
     0
1000
MTEXTEND
1000
MTEXTBEGIN
1070
    73
1070
     1
1070
    44
1040
1.0
1070
    74
1070
     0
1000
MTEXTEND
  0
MTEXT
  5
6200
330
1E
100
AcDbEntity
  8
30
  6
CONTINUOUS
100
AcDbMText
 10
160.6290066227675
 20
91.2377397662035
 30
0.0
 40
4.0
 41
0.0
 71
     9
 72
     1
  1

1001
ACAD
1000
MTEXTBEGIN
1070
    73
1070
     1
1070
    44
1040
1.0
1070
    74
1070
     0
1000
MTEXTEND
1000
MTEXTBEGIN
1070
    73
1070
     1
1070
    44
1040
1.0
1070
    74
1070
     0
1000
MTEXTEND
1000
MTEXTBEGIN
1070
    73
1070
     1
1070
    44
1040
1.0
1070
    74
1070
     0
1000
MTEXTEND
  0
LINE
  5
67E2
330
1E
100
AcDbEntity
  8
16
100
AcDbLine
 10
0.0
 20
-506.6279096442683
 30
0.0
 11
0.0
 21
-207.9249011857708
 31
0.0
  0
LINE
  5
67E5
330
1E
100
AcDbEntity
  8
16
100
AcDbLine
 10
127.8901897532374
 20
-360.0
 30
0.0
 11
-77.28333250662981
 21
-360.0
 31
0.0
  0
LINE
  5
7868
330
1E
100
AcDbEntity
  8
16
100
AcDbLine
 10
-0.0000610351601154
 20
188.3471683605039
 30
0.0
 11
0.0
 21
407.913551891159
 31
0.0
  0
MTEXT
  5
7CA7
330
1E
100
AcDbEntity
  8
30
  6
CONTINUOUS
100
AcDbMText
 10
210.8686476596813
 20
139.5216160708496
 30
0.0
 40
4.0
 41
0.0
 71
     9
 72
     1
  1
\A1;
1001
ACAD
1000
MTEXTBEGIN
1070
    73
1070
     1
1070
    44
1040
1.0
1070
    74
1070
     0
1000
MTEXTEND
1000
MTEXTBEGIN
1070
    73
1070
     1
1070
    44
1040
1.0
1070
    74
1070
     0
1000
MTEXTEND
1000
MTEXTBEGIN
1070
    73
1070
     1
1070
    44
1040
1.0
1070
    74
1070
     0
1000
MTEXTEND
  0
MTEXT
  5
7CA9
330
1E
100
AcDbEntity
  8
30
  6
CONTINUOUS
100
AcDbMText
 10
217.6088870093234
 20
136.808717989596
 30
0.0
 40
4.0
 41
0.0
 71
     9
 72
     1
  1
\A1;
1001
ACAD
1000
MTEXTBEGIN
1070
    73
1070
     1
1070
    44
1040
1.0
1070
    74
1070
     0
1000
MTEXTEND
1000
MTEXTBEGIN
1070
    73
1070
     1
1070
    44
1040
1.0
1070
    74
1070
     0
1000
MTEXTEND
1000
MTEXTBEGIN
1070
    73
1070
     1
1070
    44
1040
1.0
1070
    74
1070
     0
1000
MTEXTEND
  0
MTEXT
  5
7E8C
330
1E
100
AcDbEntity
  8
19
  6
CONTINUOUS
100
AcDbMText
 10
276.1498039519947
 20
343.2119150700267
 30
0.0
 40
5.0
 41
94.44410000000001
 71
     1
 72
     5
  1
ZAS400-NF 4P RC\PZAS400-GF 4P RC
  7
STANDARD1
1001
ACAD
1000
MTEXTBEGIN
1070
    73
1070
     1
1070
    44
1040
1.0
1070
    74
1070
     0
1000
MTEXTEND
1000
MTEXTBEGIN
1070
    73
1070
     1
1070
    44
1040
1.0
1070
    74
1070
     0
1000
MTEXTEND
1000
MTEXTBEGIN
1070
    73
1070
     1
1070
    44
1040
1.0
1070
    74
1070
     0
1000
MTEXTEND
  0
LINE
  5
8726
330
1E
100
AcDbEntity
  8
18
100
AcDbLine
 10
360.3776491012282
 20
150.0
 30
0.0
 11
360.3776491012282
 21
-150.0
 31
0.0
  0
LINE
  5
8728
330
1E
100
AcDbEntity
  8
10
100
AcDbLine
 10
356.3776491012282
 20
130.0
 30
0.0
 11
356.3776491012282
 21
-130.0
 31
0.0
  0
LINE
  5
8729
330
1E
100
AcDbEntity
  8
10
100
AcDbLine
 10
259.3776491012282
 20
-50.99999999999988
 30
0.0
 11
259.3776491012282
 21
-130.0
 31
0.0
  0
LINE
  5
872A
330
1E
100
AcDbEntity
  8
21
  6
CENTER
100
AcDbLine
 10
348.3776491012283
 20
-113.9999999999991
 30
0.0
 11
474.3776491012273
 21
-114.0000000000007
 31
0.0
  0
LINE
  5
872B
330
1E
100
AcDbEntity
  8
0
100
AcDbLine
 10
440.8776491012273
 20
-114.0000000000005
 30
0.0
 11
461.8776491012275
 21
-114.0000000000005
 31
0.0
  0
LINE
  5
872C
330
1E
100
AcDbEntity
  8
21
100
AcDbLine
 10
430.3776491012275
 20
-99.00000000000069
 30
0.0
 11
466.3776491012273
 21
-99.00000000000069
 31
0.0
  0
LINE
  5
872D
330
1E
100
AcDbEntity
  8
21
100
AcDbLine
 10
430.3776491012275
 20
-129.0000000000006
 30
0.0
 11
466.3776491012273
 21
-129.0000000000006
 31
0.0
  0
LINE
  5
872E
330
1E
100
AcDbEntity
  8
10
100
AcDbLine
 10
259.3776491012282
 20
-130.0
 30
0.0
 11
356.3776491012282
 21
-130.0
 31
0.0
  0
LINE
  5
872F
330
1E
100
AcDbEntity
  8
18
100
AcDbLine
 10
356.3776491012282
 20
-150.0
 30
0.0
 11
360.3776491012282
 21
-150.0
 31
0.0
  0
LINE
  5
8730
330
1E
100
AcDbEntity
  8
21
100
AcDbLine
 10
356.3776491012277
 20
-101.999999999999
 30
0.0
 11
386.3776491012277
 21
-101.999999999999
 31
0.0
  0
LINE
  5
8731
330
1E
100
AcDbEntity
  8
21
100
AcDbLine
 10
356.3776491012277
 20
-125.9999999999992
 30
0.0
 11
386.3776491012277
 21
-125.9999999999992
 31
0.0
  0
LINE
  5
8732
330
1E
100
AcDbEntity
  8
21
100
AcDbLine
 10
356.3776491012277
 20
-125.9999999999992
 30
0.0
 11
356.3776491012277
 21
-101.999999999999
 31
0.0
  0
LINE
  5
8733
330
1E
100
AcDbEntity
  8
0
100
AcDbLine
 10
400.8776491012277
 20
-113.9999999999991
 30
0.0
 11
421.8776491012275
 21
-113.9999999999991
 31
0.0
  0
LINE
  5
8734
330
1E
100
AcDbEntity
  8
0
100
AcDbLine
 10
393.8776491012275
 20
-98.99999999999909
 30
0.0
 11
426.3776491012275
 21
-98.99999999999909
 31
0.0
  0
LINE
  5
8735
330
1E
100
AcDbEntity
  8
0
100
AcDbLine
 10
393.8776491012275
 20
-128.9999999999992
 30
0.0
 11
426.3776491012275
 21
-128.9999999999992
 31
0.0
  0
LINE
  5
8736
330
1E
100
AcDbEntity
  8
21
100
AcDbLine
 10
393.8776491012277
 20
-98.99999999999909
 30
0.0
 11
426.3776491012275
 21
-98.99999999999909
 31
0.0
  0
LINE
  5
8737
330
1E
100
AcDbEntity
  8
21
100
AcDbLine
 10
393.8776491012277
 20
-128.9999999999992
 30
0.0
 11
426.3776491012275
 21
-128.9999999999992
 31
0.0
  0
CIRCLE
  5
8738
330
1E
100
AcDbEntity
  8
17
100
AcDbCircle
 10
411.3776491012273
 20
-113.9999999999991
 30
0.0
 40
6.5
  0
LINE
  5
8739
330
1E
100
AcDbEntity
  8
21
100
AcDbLine
 10
386.3776491012277
 20
-125.9999999999992
 30
0.0
 11
386.3776491012277
 21
-101.999999999999
 31
0.0
  0
LINE
  5
873A
330
1E
100
AcDbEntity
  8
21
100
AcDbLine
 10
386.3776491012277
 20
-122.499999999999
 30
0.0
 11
387.3776491012277
 21
-122.499999999999
 31
0.0
  0
ARC
  5
873B
330
1E
100
AcDbEntity
  8
0
100
AcDbCircle
 10
393.8776491012277
 20
-122.499999999999
 30
0.0
 40
6.5
100
AcDbArc
 50
180.0
 51
270.0
  0
LINE
  5
873C
330
1E
100
AcDbEntity
  8
21
100
AcDbLine
 10
386.3776491012277
 20
-105.499999999999
 30
0.0
 11
387.3776491012277
 21
-105.499999999999
 31
0.0
  0
ARC
  5
873D
330
1E
100
AcDbEntity
  8
21
100
AcDbCircle
 10
393.8776491012277
 20
-105.499999999999
 30
0.0
 40
6.5
100
AcDbArc
 50
90.0
 51
180.0
  0
LINE
  5
873E
330
1E
100
AcDbEntity
  8
17
100
AcDbLine
 10
411.3776491012273
 20
-103.499999999999
 30
0.0
 11
411.3776491012273
 21
-124.4999999999992
 31
0.0
  0
LINE
  5
873F
330
1E
100
AcDbEntity
  8
21
100
AcDbLine
 10
426.3776491012275
 20
-128.9999999999992
 30
0.0
 11
426.3776491012275
 21
-98.99999999999909
 31
0.0
  0
LINE
  5
8740
330
1E
100
AcDbEntity
  8
17
100
AcDbLine
 10
451.3776491012275
 20
-103.5000000000005
 30
0.0
 11
451.3776491012275
 21
-124.5000000000006
 31
0.0
  0
LINE
  5
8741
330
1E
100
AcDbEntity
  8
21
100
AcDbLine
 10
466.3776491012273
 20
-129.0000000000006
 30
0.0
 11
466.3776491012273
 21
-99.00000000000069
 31
0.0
  0
CIRCLE
  5
8742
330
1E
100
AcDbEntity
  8
17
100
AcDbCircle
 10
451.3776491012275
 20
-114.0000000000005
 30
0.0
 40
6.5
  0
LINE
  5
8743
330
1E
100
AcDbEntity
  8
21
  6
CENTER
100
AcDbLine
 10
348.3776491012294
 20
114.0000000000009
 30
0.0
 11
474.3776491012273
 21
114.0000000000001
 31
0.0
  0
LINE
  5
8744
330
1E
100
AcDbEntity
  8
21
100
AcDbLine
 10
430.3776491012275
 20
118.0000000000001
 30
0.0
 11
466.3776491012273
 21
118.0000000000001
 31
0.0
  0
LINE
  5
8745
330
1E
100
AcDbEntity
  8
21
100
AcDbLine
 10
430.3776491012275
 20
110.0
 30
0.0
 11
466.3776491012273
 21
110.0
 31
0.0
  0
LINE
  5
8746
330
1E
100
AcDbEntity
  8
17
100
AcDbLine
 10
411.3776491012273
 20
126.0000000000001
 30
0.0
 11
411.3776491012273
 21
102.0
 31
0.0
  0
LINE
  5
8747
330
1E
100
AcDbEntity
  8
21
100
AcDbLine
 10
426.3776491012275
 20
110.0
 30
0.0
 11
426.3776491012275
 21
118.0000000000001
 31
0.0
  0
LINE
  5
8748
330
1E
100
AcDbEntity
  8
21
100
AcDbLine
 10
386.3776491012277
 20
102.0000000000009
 30
0.0
 11
386.3776491012277
 21
126.0000000000009
 31
0.0
  0
LINE
  5
8749
330
1E
100
AcDbEntity
  8
21
100
AcDbLine
 10
356.3776491012277
 20
102.0000000000009
 30
0.0
 11
356.3776491012277
 21
126.0000000000009
 31
0.0
  0
LINE
  5
874A
330
1E
100
AcDbEntity
  8
10
100
AcDbLine
 10
259.3776491012282
 20
130.0
 30
0.0
 11
259.3776491012282
 21
51.00000000000012
 31
0.0
  0
LINE
  5
874C
330
1E
100
AcDbEntity
  8
10
100
AcDbLine
 10
249.3776491012281
 20
45.0000000000001
 30
0.0
 11
249.3776491012281
 21
-44.99999999999988
 31
0.0
  0
LINE
  5
874D
330
1E
100
AcDbEntity
  8
10
100
AcDbLine
 10
245.3776491012281
 20
45.0000000000001
 30
0.0
 11
245.3776491012281
 21
-44.99999999999988
 31
0.0
  0
LINE
  5
874E
330
1E
100
AcDbEntity
  8
10
100
AcDbLine
 10
245.3776491012281
 20
17.82776060571437
 30
0.0
 11
223.9827070350031
 21
32.8086603200453
 31
0.0
  0
LINE
  5
874F
330
1E
100
AcDbEntity
  8
10
100
AcDbLine
 10
217.0997897987906
 20
22.97883578857738
 30
0.0
 11
223.9827070350031
 21
32.8086603200453
 31
0.0
  0
LINE
  5
8750
330
1E
100
AcDbEntity
  8
10
100
AcDbLine
 10
253.3776491012281
 20
51.00000000000012
 30
0.0
 11
253.3776491012281
 21
-50.99999999999988
 31
0.0
  0
LINE
  5
8751
330
1E
100
AcDbEntity
  8
10
100
AcDbLine
 10
245.3776491012281
 20
-44.99999999999988
 30
0.0
 11
253.3776491012281
 21
-44.99999999999988
 31
0.0
  0
LINE
  5
8752
330
1E
100
AcDbEntity
  8
10
100
AcDbLine
 10
245.3776491012281
 20
3.178465540576893
 30
0.0
 11
217.0997897987906
 21
22.97883578857738
 31
0.0
  0
ARC
  5
8753
330
1E
100
AcDbEntity
  8
30
100
AcDbCircle
 10
260.3776491012282
 20
0.0000000000001137
 30
0.0
 40
49.0
100
AcDbArc
 50
152.0334613153785
 51
180.0
  0
LINE
  5
8754
330
1E
100
AcDbEntity
  8
10
100
AcDbLine
 10
253.3776491012281
 20
-50.99999999999988
 30
0.0
 11
259.3776491012282
 21
-50.99999999999988
 31
0.0
  0
LINE
  5
8755
330
1E
100
AcDbEntity
  8
10
100
AcDbLine
 10
245.3776491012281
 20
45.0000000000001
 30
0.0
 11
253.3776491012281
 21
45.0000000000001
 31
0.0
  0
LINE
  5
8756
330
1E
100
AcDbEntity
  8
10
100
AcDbLine
 10
253.3776491012281
 20
51.00000000000012
 30
0.0
 11
259.3776491012282
 21
51.00000000000012
 31
0.0
  0
LINE
  5
8757
330
1E
100
AcDbEntity
  8
21
100
AcDbLine
 10
356.3776491012277
 20
102.0000000000009
 30
0.0
 11
386.3776491012277
 21
102.0000000000009
 31
0.0
  0
LINE
  5
8758
330
1E
100
AcDbEntity
  8
21
100
AcDbLine
 10
387.3776491012277
 20
110.0
 30
0.0
 11
426.3776491012275
 21
110.0
 31
0.0
  0
LINE
  5
8759
330
1E
100
AcDbEntity
  8
21
100
AcDbLine
 10
387.3776491012277
 20
105.5000000000009
 30
0.0
 11
387.3776491012277
 21
110.0
 31
0.0
  0
LINE
  5
875A
330
1E
100
AcDbEntity
  8
21
100
AcDbLine
 10
386.3776491012277
 20
105.5000000000009
 30
0.0
 11
387.3776491012277
 21
105.5000000000009
 31
0.0
  0
LINE
  5
875B
330
1E
100
AcDbEntity
  8
10
100
AcDbLine
 10
356.3776491012282
 20
130.0
 30
0.0
 11
259.3776491012282
 21
130.0
 31
0.0
  0
LINE
  5
875C
330
1E
100
AcDbEntity
  8
21
100
AcDbLine
 10
356.3776491012277
 20
126.0000000000009
 30
0.0
 11
386.3776491012277
 21
126.0000000000009
 31
0.0
  0
LINE
  5
875D
330
1E
100
AcDbEntity
  8
18
100
AcDbLine
 10
356.3776491012282
 20
150.0
 30
0.0
 11
360.3776491012282
 21
150.0
 31
0.0
  0
LINE
  5
875E
330
1E
100
AcDbEntity
  8
21
100
AcDbLine
 10
387.3776491012277
 20
118.0000000000001
 30
0.0
 11
426.3776491012275
 21
118.0000000000001
 31
0.0
  0
LINE
  5
875F
330
1E
100
AcDbEntity
  8
21
100
AcDbLine
 10
387.3776491012277
 20
122.5000000000009
 30
0.0
 11
387.3776491012277
 21
118.0000000000001
 31
0.0
  0
LINE
  5
8760
330
1E
100
AcDbEntity
  8
21
100
AcDbLine
 10
386.3776491012277
 20
122.5000000000009
 30
0.0
 11
387.3776491012277
 21
122.5000000000009
 31
0.0
  0
LINE
  5
8761
330
1E
100
AcDbEntity
  8
17
100
AcDbLine
 10
451.3776491012275
 20
126.0000000000001
 30
0.0
 11
451.3776491012275
 21
102.0
 31
0.0
  0
LINE
  5
8762
330
1E
100
AcDbEntity
  8
21
100
AcDbLine
 10
466.3776491012273
 20
110.0
 30
0.0
 11
466.3776491012273
 21
118.0000000000001
 31
0.0
  0
LINE
  5
8763
330
1E
100
AcDbEntity
  8
18
100
AcDbLine
 10
356.3776491012282
 20
150.0
 30
0.0
 11
356.3776491012282
 21
-150.0
 31
0.0
  0
DIMENSION
  5
8764
330
1E
100
AcDbEntity
  8
30
100
AcDbDimension
  2
*D26
 10
411.3776491012273
 20
-76.96948209542687
 30
0.0
 11
431.3776491012275
 21
-72.96948209542687
 31
0.0
 70
    32
  3
STANDARD
100
AcDbAlignedDimension
 13
451.3776491012275
 23
-103.5000000000005
 33
0.0
 14
411.3776491012273
 24
-103.499999999999
 34
0.0
100
AcDbRotatedDimension
  0
DIMENSION
  5
886F
330
1E
100
AcDbEntity
  8
30
  6
CONTINUOUS
100
AcDbDimension
  2
*D27
 10
486.6218772238089
 20
-129.0000000000006
 30
0.0
 11
482.6218772238089
 21
-114.0000000000005
 31
0.0
 70
    32
  3
STANDARD
100
AcDbAlignedDimension
 13
466.3776491012273
 23
-99.00000000000069
 33
0.0
 14
466.3776491012273
 24
-129.0000000000006
 34
0.0
 50
90.0
100
AcDbRotatedDimension
1001
ACAD
1000
DSTYLE
1002
{
1070
    79
1070
     3
1002
}
  0
DIMENSION
  5
887C
330
1E
100
AcDbEntity
  8
30
  6
CONTINUOUS
100
AcDbDimension
  2
*D28
 10
498.8510709019318
 20
-114.0000000000007
 30
0.0
 11
494.8510709019318
 21
-0.0000000000002716
 31
0.0
 70
    32
  3
STANDARD
100
AcDbAlignedDimension
 13
474.3776491012273
 23
114.0000000000001
 33
0.0
 14
474.3776491012273
 24
-114.0000000000007
 34
0.0
 50
90.0
100
AcDbRotatedDimension
1001
ACAD
1000
DSTYLE
1002
{
1070
    79
1070
     3
1002
}
  0
DIMENSION
  5
8889
330
1E
100
AcDbEntity
  8
30
  6
CONTINUOUS
100
AcDbDimension
  2
*D29
 10
356.3776491012282
 20
-193.4509781491146
 30
0.0
 11
283.8776491012282
 21
-189.4509781491144
 31
0.0
 70
    32
  3
STANDARD
100
AcDbAlignedDimension
 13
211.3776491012281
 23
0.0000000000001197
 33
0.0
 14
356.3776491012282
 24
-130.0
 34
0.0
100
AcDbRotatedDimension
1001
ACAD
1000
DSTYLE
1002
{
1070
    79
1070
     3
1002
}
  0
DIMENSION
  5
8896
330
1E
100
AcDbEntity
  8
30
  6
CONTINUOUS
100
AcDbDimension
  2
*D30
 10
249.3776491012281
 20
-174.806763447955
 30
0.0
 11
256.3776491012282
 21
-170.806763447955
 31
0.0
 70
    32
  3
STANDARD
100
AcDbAlignedDimension
 13
245.3776491012281
 23
-44.99999999999988
 33
0.0
 14
249.3776491012281
 24
-44.99999999999988
 34
0.0
100
AcDbRotatedDimension
1001
ACAD
1000
DSTYLE
1002
{
1070
    79
1070
     3
1002
}
  0
DIMENSION
  5
88B5
330
1E
100
AcDbEntity
  8
30
  6
CONTINUOUS
100
AcDbDimension
  2
*D31
 10
356.3776491012282
 20
-174.806763447955
 30
0.0
 11
302.8776491012282
 21
-170.806763447955
 31
0.0
 70
    32
  3
STANDARD
100
AcDbAlignedDimension
 13
249.3776491012281
 23
-154.7338396098457
 33
0.0
 14
356.3776491012282
 24
-131.0
 34
0.0
100
AcDbRotatedDimension
1001
ACAD
1000
DSTYLE
1002
{
1070
    79
1070
     3
1002
}
  0
DIMENSION
  5
88DD
330
1E
100
AcDbEntity
  8
30
  6
CONTINUOUS
100
AcDbDimension
  2
*D32
 10
356.3776491012282
 20
-160.6628788587821
 30
0.0
 11
304.8776491012282
 21
-156.6628788587822
 31
0.0
 70
    32
  3
STANDARD
100
AcDbAlignedDimension
 13
253.3776491012281
 23
-50.99999999999988
 33
0.0
 14
356.3776491012282
 24
-130.0
 34
0.0
100
AcDbRotatedDimension
1001
ACAD
1000
DSTYLE
1002
{
1070
    79
1070
     3
1002
}
  0
DIMENSION
  5
88EA
330
1E
100
AcDbEntity
  8
30
  6
CONTINUOUS
100
AcDbDimension
  2
*D33
 10
356.3776491012282
 20
-147.1618973152594
 30
0.0
 11
307.8776491012281
 21
-143.1618973152594
 31
0.0
 70
    32
  3
STANDARD
100
AcDbAlignedDimension
 13
259.3776491012282
 23
-130.0
 33
0.0
 14
356.3776491012282
 24
-131.0
 34
0.0
100
AcDbRotatedDimension
1001
ACAD
1000
DSTYLE
1002
{
1070
    79
1070
     3
1002
}
  0
DIMENSION
  5
88F7
330
1E
100
AcDbEntity
  8
30
  6
CONTINUOUS
100
AcDbDimension
  2
*D34
 10
426.3776491012275
 20
-147.1618973152594
 30
0.0
 11
391.3776491012278
 21
-143.1618973152594
 31
0.0
 70
    32
  3
STANDARD
100
AcDbAlignedDimension
 13
356.3776491012282
 23
-147.4952313152591
 33
0.0
 14
426.3776491012275
 24
-128.9999999999992
 34
0.0
100
AcDbRotatedDimension
1001
ACAD
1000
DSTYLE
1002
{
1070
    79
1070
     3
1002
}
  0
DIMENSION
  5
8904
330
1E
100
AcDbEntity
  8
30
  6
CONTINUOUS
100
AcDbDimension
  2
*D35
 10
426.3776491012275
 20
-138.9476261261002
 30
0.0
 11
418.8776491012275
 21
-134.9476261261002
 31
0.0
 70
    32
  3
STANDARD
100
AcDbAlignedDimension
 13
411.3776491012273
 23
-124.4999999999992
 33
0.0
 14
426.3776491012275
 24
-128.9999999999992
 34
0.0
100
AcDbRotatedDimension
1001
ACAD
1000
DSTYLE
1002
{
1070
    79
1070
     3
1002
}
  0
DIMENSION
  5
8911
330
1E
100
AcDbEntity
  8
30
  6
CONTINUOUS
100
AcDbDimension
  2
*D36
 10
466.3776491012273
 20
-138.9476261261002
 30
0.0
 11
458.8776491012273
 21
-134.9476261261002
 31
0.0
 70
    32
  3
STANDARD
100
AcDbAlignedDimension
 13
451.3776491012275
 23
-124.5000000000006
 33
0.0
 14
466.3776491012273
 24
-129.0000000000006
 34
0.0
100
AcDbRotatedDimension
1001
ACAD
1000
DSTYLE
1002
{
1070
    79
1070
     3
1002
}
  0
DIMENSION
  5
891E
330
1E
100
AcDbEntity
  8
30
  6
CONTINUOUS
100
AcDbDimension
  2
*D37
 10
466.3776491012273
 20
-160.3295448587821
 30
0.0
 11
411.3776491012278
 21
-156.3295448587821
 31
0.0
 70
    32
  3
STANDARD
100
AcDbAlignedDimension
 13
356.3776491012282
 23
-160.3295448587821
 33
0.0
 14
466.3776491012273
 24
-129.0000000000006
 34
0.0
100
AcDbRotatedDimension
1001
ACAD
1000
DSTYLE
1002
{
1070
    79
1070
     3
1002
}
  0
DIMENSION
  5
894F
330
1E
100
AcDbEntity
  8
30
  6
CONTINUOUS
100
AcDbDimension
  2
*D38
 10
448.7561922152182
 20
-119.9479377766417
 30
0.0
 11
476.3906850908733
 21
-75.39838118329133
 31
0.0
 70
   163
  3
STANDARD
100
AcDbDiametricDimension
 15
453.9991059872368
 25
-108.0520622233595
 35
0.0
 40
0.0
1001
ACAD
1000
DSTYLE
1002
{
1070
    79
1070
     3
1070
   288
1070
     1
1002
}
  0
DIMENSION
  5
8C0C
330
1E
100
AcDbEntity
  8
30
  6
CONTINUOUS
100
AcDbDimension
  2
*D39
 10
-115.5191388944172
 20
-130.0
 30
0.0
 11
-119.519138894417
 21
-0.0000000000000209
 31
0.0
 70
    32
  3
STANDARD
100
AcDbAlignedDimension
 13
-70.00000000000007
 23
130.0
 33
0.0
 14
-70.00000000000007
 24
-130.0
 34
0.0
 50
90.0
100
AcDbRotatedDimension
1001
ACAD
1000
DSTYLE
1002
{
1070
    79
1070
     3
1002
}
  0
DIMENSION
  5
8C0D
330
1E
100
AcDbEntity
  8
30
  6
CONTINUOUS
100
AcDbDimension
  2
*D40
 10
-91.39860450474341
 20
-44.99999999999999
 30
0.0
 11
-95.39860450474336
 21
0.0000000000000487
 31
0.0
 70
    32
  3
STANDARD
100
AcDbAlignedDimension
 13
-53.0
 23
45.0000000000001
 33
0.0
 14
-53.0
 24
-45.0
 34
0.0
 50
90.0
100
AcDbRotatedDimension
1001
ACAD
1000
DSTYLE
1002
{
1070
    79
1070
     3
1002
}
  0
DIMENSION
  5
8C0E
330
1E
100
AcDbEntity
  8
30
  6
CONTINUOUS
100
AcDbDimension
  2
*D41
 10
-103.8479123954376
 20
-50.99999999999999
 30
0.0
 11
-107.8479123954376
 21
-0.0000000000004621
 31
0.0
 70
    32
  3
STANDARD
100
AcDbAlignedDimension
 13
-70.00000000000007
 23
50.99999999999909
 33
0.0
 14
-70.00000000000007
 24
-51.0
 34
0.0
 50
90.0
100
AcDbRotatedDimension
1001
ACAD
1000
DSTYLE
1002
{
1070
    79
1070
     3
1002
}
  0
DIMENSION
  5
8E22
330
1E
100
AcDbEntity
  8
30
  6
CONTINUOUS
100
AcDbDimension
  2
*D42
 10
-31.32693897434049
 20
-462.2032753432655
 30
0.0
 11
-90.7206689410607
 21
-513.0555345229753
 31
0.0
 70
   163
  3
STANDARD
100
AcDbDiametricDimension
 15
-58.67306102565965
 25
-485.6167246567344
 35
0.0
 40
0.0
1001
ACAD
1000
DSTYLE
1002
{
1070
   287
1070
     4
1070
   287
1070
     4
1070
   287
1070
     4
1070
   287
1070
     4
1070
   287
1070
     4
1070
   287
1070
     4
1070
    79
1070
     3
1070
   279
1070
     1
1070
   288
1070
     1
1002
}
  0
DIMENSION
  5
8E42
330
1E
100
AcDbEntity
  8
30
  6
CONTINUOUS
100
AcDbDimension
  2
*D43
 10
165.0739101136589
 20
-474.0000000000001
 30
0.0
 11
161.0739101136589
 21
-360.0
 31
0.0
 70
    32
  3
STANDARD
100
AcDbAlignedDimension
 13
107.9999999999996
 23
-246.0
 33
0.0
 14
107.9999999999996
 24
-474.0
 34
0.0
 50
90.0
100
AcDbRotatedDimension
1001
ACAD
1000
DSTYLE
1002
{
1070
    79
1070
     3
1002
}
  0
DIMENSION
  5
8E4F
330
1E
100
AcDbEntity
  8
30
  6
CONTINUOUS
100
AcDbDimension
  2
*D44
 10
144.3211471979403
 20
-467.0
 30
0.0
 11
140.32114719794
 21
-360.0
 31
0.0
 70
    32
  3
STANDARD
100
AcDbAlignedDimension
 13
74.49999999999931
 23
-253.0
 33
0.0
 14
74.49999999999931
 24
-467.0
 34
0.0
 50
90.0
100
AcDbRotatedDimension
1001
ACAD
1000
DSTYLE
1002
{
1070
    79
1070
     3
1002
}
  0
LINE
  5
8F9E
330
1E
100
AcDbEntity
  8
10
  6
CONTINOUS
100
AcDbLine
 10
115.0
 20
130.0
 30
0.0
 11
115.0
 21
-130.0
 31
0.0
  0
LINE
  5
8F9F
330
1E
100
AcDbEntity
  8
10
  6
CONTINOUS
100
AcDbLine
 10
-70.0
 20
130.0
 30
0.0
 11
-70.0
 21
-130.0
 31
0.0
  0
LINE
  5
8FA0
330
1E
100
AcDbEntity
  8
10
  6
CONTINOUS
100
AcDbLine
 10
-70.0
 20
-130.0
 30
0.0
 11
115.0
 21
-130.0
 31
0.0
  0
LINE
  5
8FA1
330
1E
100
AcDbEntity
  8
10
  6
CONTINOUS
100
AcDbLine
 10
-9.0
 20
-114.0
 30
0.0
 11
9.0
 21
-114.0
 31
0.0
  0
LINE
  5
8FA2
330
1E
100
AcDbEntity
  8
12
  6
DASHED
100
AcDbLine
 10
-14.5
 20
-107.0
 30
0.0
 11
-30.5
 21
-107.0
 31
0.0
  0
CIRCLE
  5
8FA3
330
1E
100
AcDbEntity
  8
12
  6
DASHED
100
AcDbCircle
 10
-22.5
 20
-107.0
 30
0.0
 40
4.0
  0
LINE
  5
8FA4
330
1E
100
AcDbEntity
  8
10
  6
CONTINOUS
100
AcDbLine
 10
-45.0
 20
-123.0
 30
0.0
 11
-45.0
 21
-105.0
 31
0.0
  0
CIRCLE
  5
8FA5
330
1E
100
AcDbEntity
  8
10
  6
CONTINOUS
100
AcDbCircle
 10
-45.0
 20
-114.0
 30
0.0
 40
5.0
  0
LINE
  5
8FA6
330
1E
100
AcDbEntity
  8
10
  6
CONTINOUS
100
AcDbLine
 10
-54.0
 20
-114.0
 30
0.0
 11
-36.0
 21
-114.0
 31
0.0
  0
LINE
  5
8FA7
330
1E
100
AcDbEntity
  8
10
  6
CONTINOUS
100
AcDbLine
 10
0.0
 20
-123.0
 30
0.0
 11
0.0
 21
-105.0
 31
0.0
  0
CIRCLE
  5
8FA8
330
1E
100
AcDbEntity
  8
10
  6
CONTINOUS
100
AcDbCircle
 10
0.0
 20
-114.0
 30
0.0
 40
5.0
  0
LINE
  5
8FA9
330
1E
100
AcDbEntity
  8
12
  6
DASHED
100
AcDbLine
 10
-22.5
 20
-99.0
 30
0.0
 11
-22.5
 21
-115.0
 31
0.0
  0
LINE
  5
8FAA
330
1E
100
AcDbEntity
  8
10
  6
CONTINOUS
100
AcDbLine
 10
36.0
 20
-114.0
 30
0.0
 11
54.0
 21
-114.0
 31
0.0
  0
LINE
  5
8FAB
330
1E
100
AcDbEntity
  8
12
  6
DASHED
100
AcDbLine
 10
30.5
 20
-107.0
 30
0.0
 11
14.5
 21
-107.0
 31
0.0
  0
CIRCLE
  5
8FAC
330
1E
100
AcDbEntity
  8
12
  6
DASHED
100
AcDbCircle
 10
22.5
 20
-107.0
 30
0.0
 40
4.0
  0
LINE
  5
8FAD
330
1E
100
AcDbEntity
  8
12
  6
DASHED
100
AcDbLine
 10
22.5
 20
-99.0
 30
0.0
 11
22.5
 21
-115.0
 31
0.0
  0
LINE
  5
8FAE
330
1E
100
AcDbEntity
  8
10
  6
CONTINOUS
100
AcDbLine
 10
45.0
 20
-123.0
 30
0.0
 11
45.0
 21
-105.0
 31
0.0
  0
CIRCLE
  5
8FAF
330
1E
100
AcDbEntity
  8
10
  6
CONTINOUS
100
AcDbCircle
 10
45.0
 20
-114.0
 30
0.0
 40
5.0
  0
LINE
  5
8FB0
330
1E
100
AcDbEntity
  8
10
  6
CONTINOUS
100
AcDbLine
 10
90.0
 20
-123.0
 30
0.0
 11
90.0
 21
-105.0
 31
0.0
  0
CIRCLE
  5
8FB1
330
1E
100
AcDbEntity
  8
10
  6
CONTINOUS
100
AcDbCircle
 10
-90.0
 20
-114.0
 30
0.0
 40
5.0
210
0.0
220
0.0
230
-1.0
  0
LINE
  5
8FB2
330
1E
100
AcDbEntity
  8
10
  6
CONTINOUS
100
AcDbLine
 10
81.0
 20
-114.0
 30
0.0
 11
99.0
 21
-114.0
 31
0.0
  0
LINE
  5
8FB4
330
1E
100
AcDbEntity
  8
10
  6
CONTINOUS
100
AcDbLine
 10
115.0
 20
130.0
 30
0.0
 11
-70.0
 21
130.0
 31
0.0
  0
LINE
  5
8FB5
330
1E
100
AcDbEntity
  8
10
  6
CONTINOUS
100
AcDbLine
 10
-70.0
 20
-51.0
 30
0.0
 11
115.0
 21
-51.0
 31
0.0
  0
LINE
  5
8FB6
330
1E
100
AcDbEntity
  8
10
  6
CONTINOUS
100
AcDbLine
 10
-70.0
 20
50.99999999999909
 30
0.0
 11
115.0
 21
50.99999999999909
 31
0.0
  0
ARC
  5
8FB7
330
1E
100
AcDbEntity
  8
10
  6
CONTINOUS
100
AcDbCircle
 10
-53.0
 20
-40.0
 30
0.0
 40
5.0
100
AcDbArc
 50
180.0
 51
270.0
  0
ARC
  5
8FB8
330
1E
100
AcDbEntity
  8
10
  6
CONTINOUS
100
AcDbCircle
 10
-53.0
 20
40.0
 30
0.0
 40
5.0
100
AcDbArc
 50
90.0
 51
180.0
  0
LINE
  5
8FB9
330
1E
100
AcDbEntity
  8
10
  6
CONTINOUS
100
AcDbLine
 10
-58.0
 20
40.0
 30
0.0
 11
-58.0
 21
-40.0
 31
0.0
  0
LINE
  5
8FBA
330
1E
100
AcDbEntity
  8
10
  6
CONTINOUS
100
AcDbLine
 10
90.0
 20
105.0
 30
0.0
 11
90.0
 21
123.0
 31
0.0
  0
LINE
  5
8FBB
330
1E
100
AcDbEntity
  8
10
  6
CONTINOUS
100
AcDbLine
 10
45.0
 20
105.0
 30
0.0
 11
45.0
 21
123.0
 31
0.0
  0
LINE
  5
8FBC
330
1E
100
AcDbEntity
  8
10
  6
CONTINOUS
100
AcDbLine
 10
0.0
 20
105.0
 30
0.0
 11
0.0
 21
123.0
 31
0.0
  0
LINE
  5
8FBD
330
1E
100
AcDbEntity
  8
10
  6
CONTINOUS
100
AcDbLine
 10
-45.0
 20
105.0
 30
0.0
 11
-45.0
 21
123.0
 31
0.0
  0
CIRCLE
  5
8FBE
330
1E
100
AcDbEntity
  8
10
  6
CONTINOUS
100
AcDbCircle
 10
90.0
 20
114.0
 30
0.0
 40
5.0
  0
CIRCLE
  5
8FBF
330
1E
100
AcDbEntity
  8
10
  6
CONTINOUS
100
AcDbCircle
 10
-45.0
 20
114.0
 30
0.0
 40
5.0
210
0.0
220
0.0
230
-1.0
  0
CIRCLE
  5
8FC0
330
1E
100
AcDbEntity
  8
10
  6
CONTINOUS
100
AcDbCircle
 10
0.0
 20
114.0
 30
0.0
 40
5.0
210
0.0
220
0.0
230
-1.0
  0
CIRCLE
  5
8FC1
330
1E
100
AcDbEntity
  8
10
  6
CONTINOUS
100
AcDbCircle
 10
45.0
 20
114.0
 30
0.0
 40
5.0
210
0.0
220
0.0
230
-1.0
  0
LINE
  5
8FC2
330
1E
100
AcDbEntity
  8
10
  6
CONTINOUS
100
AcDbLine
 10
58.0
 20
40.0
 30
0.0
 11
58.0
 21
-40.0
 31
0.0
  0
LINE
  5
8FC3
330
1E
100
AcDbEntity
  8
10
  6
CONTINOUS
100
AcDbLine
 10
25.49999999999977
 20
-45.0
 30
0.0
 11
25.49999999999982
 21
45.0
 31
0.0
  0
LINE
  5
8FC4
330
1E
100
AcDbEntity
  8
10
  6
CONTINOUS
100
AcDbLine
 10
-25.4999999999997
 20
-45.0
 30
0.0
 11
-25.49999999999994
 21
45.0
 31
0.0
  0
LINE
  5
8FC5
330
1E
100
AcDbEntity
  8
10
  6
CONTINOUS
100
AcDbLine
 10
-18.0
 20
-34.0
 30
0.0
 11
-18.0
 21
34.0
 31
0.0
  0
LINE
  5
8FC6
330
1E
100
AcDbEntity
  8
10
  6
CONTINOUS
100
AcDbLine
 10
18.0
 20
-34.0
 30
0.0
 11
18.0
 21
34.0
 31
0.0
  0
LINE
  5
8FC7
330
1E
100
AcDbEntity
  8
10
  6
CONTINOUS
100
AcDbLine
 10
-17.0
 20
22.97883578857727
 30
0.0
 11
-17.0
 21
32.80866032004519
 31
0.0
  0
LINE
  5
8FC8
330
1E
100
AcDbEntity
  8
10
  6
CONTINOUS
100
AcDbLine
 10
17.0
 20
22.97883578857727
 30
0.0
 11
17.0
 21
32.80866032004519
 31
0.0
  0
LINE
  5
8FC9
330
1E
100
AcDbEntity
  8
10
  6
CONTINOUS
100
AcDbLine
 10
-53.0
 20
-45.0
 30
0.0
 11
53.0
 21
-45.0
 31
0.0
  0
LINE
  5
8FCA
330
1E
100
AcDbEntity
  8
10
  6
CONTINOUS
100
AcDbLine
 10
17.00000000000028
 20
22.97883578857727
 30
0.0
 11
-17.0
 21
22.97883578857727
 31
0.0
  0
LINE
  5
8FCB
330
1E
100
AcDbEntity
  8
10
  6
CONTINOUS
100
AcDbLine
 10
18.0
 20
-34.0
 30
0.0
 11
-18.0
 21
-34.0
 31
0.0
  0
ARC
  5
8FCC
330
1E
100
AcDbEntity
  8
10
  6
CONTINOUS
100
AcDbCircle
 10
53.0
 20
-40.0
 30
0.0
 40
5.0
100
AcDbArc
 50
270.0
 51
0.0
  0
LINE
  5
8FCD
330
1E
100
AcDbEntity
  8
10
  6
CONTINOUS
100
AcDbLine
 10
-9.0
 20
114.0
 30
0.0
 11
9.0
 21
114.0
 31
0.0
  0
LINE
  5
8FCE
330
1E
100
AcDbEntity
  8
10
  6
CONTINOUS
100
AcDbLine
 10
-53.0
 20
45.0
 30
0.0
 11
53.0
 21
45.0
 31
0.0
  0
LINE
  5
8FCF
330
1E
100
AcDbEntity
  8
10
  6
CONTINOUS
100
AcDbLine
 10
18.0
 20
34.0
 30
0.0
 11
-18.0
 21
34.0
 31
0.0
  0
LINE
  5
8FD0
330
1E
100
AcDbEntity
  8
10
  6
CONTINOUS
100
AcDbLine
 10
17.0
 20
32.80866032004519
 30
0.0
 11
-17.0
 21
32.80866032004519
 31
0.0
  0
LINE
  5
8FD1
330
1E
100
AcDbEntity
  8
12
  6
DASHED
100
AcDbLine
 10
-14.5
 20
107.0
 30
0.0
 11
-30.5
 21
107.0
 31
0.0
  0
CIRCLE
  5
8FD2
330
1E
100
AcDbEntity
  8
12
  6
DASHED
100
AcDbCircle
 10
22.5
 20
107.0
 30
0.0
 40
4.0
210
0.0
220
0.0
230
-1.0
  0
LINE
  5
8FD3
330
1E
100
AcDbEntity
  8
10
  6
CONTINOUS
100
AcDbLine
 10
-54.0
 20
114.0
 30
0.0
 11
-36.0
 21
114.0
 31
0.0
  0
LINE
  5
8FD4
330
1E
100
AcDbEntity
  8
12
  6
DASHED
100
AcDbLine
 10
-22.5
 20
115.0
 30
0.0
 11
-22.5
 21
99.0
 31
0.0
  0
ARC
  5
8FD5
330
1E
100
AcDbEntity
  8
10
  6
CONTINOUS
100
AcDbCircle
 10
53.0
 20
40.0
 30
0.0
 40
5.0
100
AcDbArc
 50
0.0
 51
90.0
  0
LINE
  5
8FD6
330
1E
100
AcDbEntity
  8
10
  6
CONTINOUS
100
AcDbLine
 10
36.0
 20
114.0
 30
0.0
 11
54.0
 21
114.0
 31
0.0
  0
LINE
  5
8FD7
330
1E
100
AcDbEntity
  8
12
  6
DASHED
100
AcDbLine
 10
30.5
 20
107.0
 30
0.0
 11
14.5
 21
107.0
 31
0.0
  0
CIRCLE
  5
8FD8
330
1E
100
AcDbEntity
  8
12
  6
DASHED
100
AcDbCircle
 10
-22.5
 20
107.0
 30
0.0
 40
4.0
210
0.0
220
0.0
230
-1.0
  0
LINE
  5
8FD9
330
1E
100
AcDbEntity
  8
12
  6
DASHED
100
AcDbLine
 10
22.5
 20
115.0
 30
0.0
 11
22.5
 21
99.0
 31
0.0
  0
CIRCLE
  5
8FDA
330
1E
100
AcDbEntity
  8
10
  6
CONTINOUS
100
AcDbCircle
 10
90.0
 20
86.75
 30
0.0
 40
8.0
  0
LINE
  5
8FDB
330
1E
100
AcDbEntity
  8
10
  6
CONTINOUS
100
AcDbLine
 10
86.5
 20
84.93198051533909
 30
0.0
 11
87.5
 21
85.93198051533907
 31
0.0
  0
LINE
  5
8FDC
330
1E
100
AcDbEntity
  8
10
  6
CONTINOUS
100
AcDbLine
 10
92.5
 20
87.39644660940689
 30
0.0
 11
93.49999999999999
 21
88.3964466094069
 31
0.0
  0
LINE
  5
8FDD
330
1E
100
AcDbEntity
  8
10
  6
CONTINOUS
100
AcDbLine
 10
90.11304990929309
 20
85.71660329988617
 30
0.0
 11
90.83108259257143
 21
86.43463598316452
 31
0.0
  0
LINE
  5
8FDE
330
1E
100
AcDbEntity
  8
10
  6
CONTINOUS
100
AcDbLine
 10
92.2967620276629
 20
82.59701455935759
 30
0.0
 11
93.49999999999999
 21
83.80025253169447
 31
0.0
  0
LINE
  5
8FDF
330
1E
100
AcDbEntity
  8
10
  6
CONTINOUS
100
AcDbLine
 10
86.5
 20
88.82106781186505
 30
0.0
 11
88.06504724263595
 21
90.38611505450091
 31
0.0
  0
LINE
  5
8FE0
330
1E
100
AcDbEntity
  8
10
  6
CONTINOUS
100
AcDbLine
 10
86.5
 20
82.45710678118632
 30
0.0
 11
87.5
 21
83.45710678118633
 31
0.0
  0
LINE
  5
8FE1
330
1E
100
AcDbEntity
  8
10
  6
CONTINOUS
100
AcDbLine
 10
92.5
 20
87.75
 30
0.0
 11
93.49999999999999
 21
88.75
 31
0.0
  0
LINE
  5
8FE2
330
1E
100
AcDbEntity
  8
10
  6
CONTINOUS
100
AcDbLine
 10
88.07491859881418
 20
88.62821945771282
 30
0.0
 11
88.79295128209276
 21
89.34625214099151
 31
0.0
  0
LINE
  5
8FE3
330
1E
100
AcDbEntity
  8
10
  6
CONTINOUS
100
AcDbLine
 10
89.09398425405354
 20
87.17241137879943
 30
0.0
 11
89.81201693733202
 21
87.89044406207779
 31
0.0
  0
LINE
  5
8FE4
330
1E
100
AcDbEntity
  8
10
  6
CONTINOUS
100
AcDbLine
 10
86.5
 20
86.34619407771221
 30
0.0
 11
87.5
 21
87.34619407771219
 31
0.0
  0
LINE
  5
8FE5
330
1E
100
AcDbEntity
  8
10
  6
CONTINOUS
100
AcDbLine
 10
92.5
 20
86.33578643762701
 30
0.0
 11
93.49999999999999
 21
87.33578643762701
 31
0.0
  0
LINE
  5
8FE6
330
1E
100
AcDbEntity
  8
10
  6
CONTINOUS
100
AcDbLine
 10
90.69537314085836
 20
84.88471296907858
 30
0.0
 11
91.4134058241367
 21
85.60274565235692
 31
0.0
  0
LINE
  5
8FE7
330
1E
100
AcDbEntity
  8
10
  6
CONTINOUS
100
AcDbLine
 10
86.5
 20
90.23528137423785
 30
0.0
 11
87.48272401107067
 21
91.21800538530852
 31
0.0
  0
LINE
  5
8FE8
330
1E
100
AcDbEntity
  8
10
  6
CONTINOUS
100
AcDbLine
 10
92.5
 20
88.81066017177976
 30
0.0
 11
93.49999999999999
 21
89.81066017177964
 31
0.0
  0
LINE
  5
8FE9
330
1E
100
AcDbEntity
  8
10
  6
CONTINOUS
100
AcDbLine
 10
92.5
 20
84.21446609406755
 30
0.0
 11
93.49999999999999
 21
85.21446609406757
 31
0.0
  0
LINE
  5
8FEA
330
1E
100
AcDbEntity
  8
10
  6
CONTINOUS
100
AcDbLine
 10
89.67630748561893
 20
86.34052104799208
 30
0.0
 11
90.39434016889741
 21
87.05855373127031
 31
0.0
  0
LINE
  5
8FEB
330
1E
100
AcDbEntity
  8
10
  6
CONTINOUS
100
AcDbLine
 10
91.86001960398916
 20
83.22093230746338
 30
0.0
 11
93.49999999999999
 21
84.86091270347413
 31
0.0
  0
LINE
  5
8FEC
330
1E
100
AcDbEntity
  8
10
  6
CONTINOUS
100
AcDbLine
 10
87.92933779092299
 20
88.83619204041485
 30
0.0
 11
88.64737047420133
 21
89.55422472369319
 31
0.0
  0
LINE
  5
8FED
330
1E
100
AcDbEntity
  8
10
  6
CONTINOUS
100
AcDbLine
 10
86.5
 20
87.76040764008518
 30
0.0
 11
87.5
 21
88.7604076400852
 31
0.0
  0
LINE
  5
8FEE
330
1E
100
AcDbEntity
  8
10
  6
CONTINOUS
100
AcDbLine
 10
92.5
 20
91.63908729652588
 30
0.0
 11
92.61091270347412
 21
91.75
 31
0.0
  0
LINE
  5
8FEF
330
1E
100
AcDbEntity
  8
10
  6
CONTINOUS
100
AcDbLine
 10
92.5
 20
85.275126265847
 30
0.0
 11
93.49999999999999
 21
86.27512626584701
 31
0.0
  0
LINE
  5
8FF0
330
1E
100
AcDbEntity
  8
10
  6
CONTINOUS
100
AcDbLine
 10
88.65724183037968
 20
87.79632912690535
 30
0.0
 11
89.37527451365804
 21
88.51436181018369
 31
0.0
  0
LINE
  5
8FF1
330
1E
100
AcDbEntity
  8
10
  6
CONTINOUS
100
AcDbLine
 10
92.86396103067842
 20
81.75
 30
0.0
 11
93.49999999999999
 21
82.38603896932147
 31
0.0
  0
LINE
  5
8FF2
330
1E
100
AcDbEntity
  8
10
  6
CONTINOUS
100
AcDbLine
 10
86.5
 20
91.64949493661085
 30
0.0
 11
86.60050506338917
 21
91.75
 31
0.0
  0
LINE
  5
8FF3
330
1E
100
AcDbEntity
  8
10
  6
CONTINOUS
100
AcDbLine
 10
86.5
 20
85.28553390593243
 30
0.0
 11
87.5
 21
86.28553390593244
 31
0.0
  0
LINE
  5
8FF4
330
1E
100
AcDbEntity
  8
10
  6
CONTINOUS
100
AcDbLine
 10
86.5
 20
84.22487373415266
 30
0.0
 11
87.5
 21
85.22487373415264
 31
0.0
  0
LINE
  5
8FF5
330
1E
100
AcDbEntity
  8
10
  6
CONTINOUS
100
AcDbLine
 10
87.63817617514019
 20
89.2521372058186
 30
0.0
 11
88.35620885841876
 21
89.97016988909729
 31
0.0
  0
LINE
  5
8FF6
330
1E
100
AcDbEntity
  8
10
  6
CONTINOUS
100
AcDbLine
 10
89.82188829351015
 20
86.13254846528992
 30
0.0
 11
90.5399209767887
 21
86.85058114856838
 31
0.0
  0
LINE
  5
8FF7
330
1E
100
AcDbEntity
  8
10
  6
CONTINOUS
100
AcDbLine
 10
92.00560041188021
 20
83.01295972476145
 30
0.0
 11
93.49999999999999
 21
84.507359312881
 31
0.0
  0
LINE
  5
8FF8
330
1E
100
AcDbEntity
  8
10
  6
CONTINOUS
100
AcDbLine
 10
91.42327718031493
 20
83.8448500555688
 30
0.0
 11
92.14130986359341
 21
84.56288273884752
 31
0.0
  0
LINE
  5
8FF9
330
1E
100
AcDbEntity
  8
10
  6
CONTINOUS
100
AcDbLine
 10
87.78375698303159
 20
89.04416462311678
 30
0.0
 11
88.50178966631006
 21
89.76219730639526
 31
0.0
  0
LINE
  5
8FFA
330
1E
100
AcDbEntity
  8
10
  6
CONTINOUS
100
AcDbLine
 10
93.21751442127185
 20
81.75
 30
0.0
 11
93.49999999999999
 21
82.03248557872848
 31
0.0
  0
LINE
  5
8FFB
330
1E
100
AcDbEntity
  8
10
  6
CONTINOUS
100
AcDbLine
 10
92.5
 20
85.9822330470339
 30
0.0
 11
93.49999999999999
 21
86.9822330470339
 31
0.0
  0
LINE
  5
8FFC
330
1E
100
AcDbEntity
  8
10
  6
CONTINOUS
100
AcDbLine
 10
90.84095394874987
 20
84.67674038637666
 30
0.0
 11
91.5589866320281
 21
85.39477306965498
 31
0.0
  0
LINE
  5
8FFD
330
1E
100
AcDbEntity
  8
10
  6
CONTINOUS
100
AcDbLine
 10
88.80282263827098
 20
87.5883565442035
 30
0.0
 11
89.52085532154931
 21
88.30638922748191
 31
0.0
  0
LINE
  5
8FFE
330
1E
100
AcDbEntity
  8
10
  6
CONTINOUS
100
AcDbLine
 10
86.85355339059332
 20
81.75
 30
0.0
 11
87.5
 21
82.39644660940689
 31
0.0
  0
LINE
  5
8FFF
330
1E
100
AcDbEntity
  8
10
  6
CONTINOUS
100
AcDbLine
 10
86.5
 20
85.63908729652586
 30
0.0
 11
87.5
 21
86.63908729652588
 31
0.0
  0
LINE
  5
9000
330
1E
100
AcDbEntity
  8
10
  6
CONTINOUS
100
AcDbLine
 10
92.5
 20
87.04289321881331
 30
0.0
 11
93.49999999999999
 21
88.04289321881331
 31
0.0
  0
LINE
  5
9001
330
1E
100
AcDbEntity
  8
10
  6
CONTINOUS
100
AcDbLine
 10
90.40421152507565
 20
85.30065813448231
 30
0.0
 11
91.12224420835413
 21
86.01869081776078
 31
0.0
  0
LINE
  5
9002
330
1E
100
AcDbEntity
  8
10
  6
CONTINOUS
100
AcDbLine
 10
92.58792364344571
 20
82.18106939395374
 30
0.0
 11
93.49999999999999
 21
83.09314575050789
 31
0.0
  0
LINE
  5
9003
330
1E
100
AcDbEntity
  8
10
  6
CONTINOUS
100
AcDbLine
 10
86.5
 20
83.16421356237288
 30
0.0
 11
87.5
 21
84.16421356237288
 31
0.0
  0
LINE
  5
9004
330
1E
100
AcDbEntity
  8
10
  6
CONTINOUS
100
AcDbLine
 10
86.5
 20
81.75
 30
0.0
 11
87.5
 21
82.75
 31
0.0
  0
LINE
  5
9005
330
1E
100
AcDbEntity
  8
10
  6
CONTINOUS
100
AcDbLine
 10
89.38514586983616
 20
86.75646621339556
 30
0.0
 11
90.10317855311472
 21
87.47449889667416
 31
0.0
  0
LINE
  5
9006
330
1E
100
AcDbEntity
  8
10
  6
CONTINOUS
100
AcDbLine
 10
91.5688579882063
 20
83.63687747286713
 30
0.0
 11
92.28689067148479
 21
84.35491015614559
 31
0.0
  0
LINE
  5
9007
330
1E
100
AcDbEntity
  8
10
  6
CONTINOUS
100
AcDbLine
 10
92.5
 20
84.5680194846607
 30
0.0
 11
93.49999999999999
 21
85.5680194846607
 31
0.0
  0
LINE
  5
9008
330
1E
100
AcDbEntity
  8
10
  6
CONTINOUS
100
AcDbLine
 10
92.5
 20
90.93198051533931
 30
0.0
 11
93.31801948466068
 21
91.75
 31
0.0
  0
LINE
  5
9009
330
1E
100
AcDbEntity
  8
10
  6
CONTINOUS
100
AcDbLine
 10
90.98653475664105
 20
84.46876780367459
 30
0.0
 11
91.70456743991929
 21
85.18680048695307
 31
0.0
  0
LINE
  5
900A
330
1E
100
AcDbEntity
  8
10
  6
CONTINOUS
100
AcDbLine
 10
88.51166102248829
 20
88.00430170960737
 30
0.0
 11
89.22969370576675
 21
88.72233439288562
 31
0.0
  0
LINE
  5
900B
330
1E
100
AcDbEntity
  8
10
  6
CONTINOUS
100
AcDbLine
 10
86.5
 20
84.57842712474599
 30
0.0
 11
87.5
 21
85.57842712474599
 31
0.0
  0
LINE
  5
900C
330
1E
100
AcDbEntity
  8
10
  6
CONTINOUS
100
AcDbLine
 10
92.5
 20
88.10355339059311
 30
0.0
 11
93.49999999999999
 21
89.10355339059311
 31
0.0
  0
LINE
  5
900D
330
1E
100
AcDbEntity
  8
10
  6
CONTINOUS
100
AcDbLine
 10
89.96746910140153
 20
85.9245758825881
 30
0.0
 11
90.6855017846802
 21
86.64260856586656
 31
0.0
  0
LINE
  5
900E
330
1E
100
AcDbEntity
  8
10
  6
CONTINOUS
100
AcDbLine
 10
92.15118121977184
 20
82.80498714205952
 30
0.0
 11
93.49999999999999
 21
84.1538059222878
 31
0.0
  0
LINE
  5
900F
330
1E
100
AcDbEntity
  8
10
  6
CONTINOUS
100
AcDbLine
 10
86.5
 20
88.46751442127162
 30
0.0
 11
88.21062805052736
 21
90.17814247179888
 31
0.0
  0
LINE
  5
9010
330
1E
100
AcDbEntity
  8
10
  6
CONTINOUS
100
AcDbLine
 10
92.5
 20
88.45710678118633
 30
0.0
 11
93.49999999999999
 21
89.45710678118633
 31
0.0
  0
LINE
  5
9011
330
1E
100
AcDbEntity
  8
10
  6
CONTINOUS
100
AcDbLine
 10
92.5
 20
89.5177669529662
 30
0.0
 11
93.49999999999999
 21
90.51776695296622
 31
0.0
  0
LINE
  5
9012
330
1E
100
AcDbEntity
  8
10
  6
CONTINOUS
100
AcDbLine
 10
86.5
 20
90.94238815542452
 30
0.0
 11
87.19156239528798
 21
91.63395055071248
 31
0.0
  0
LINE
  5
9013
330
1E
100
AcDbEntity
  8
10
  6
CONTINOUS
100
AcDbLine
 10
92.5
 20
85.62867965644045
 30
0.0
 11
93.49999999999999
 21
86.62867965644045
 31
0.0
  0
LINE
  5
9014
330
1E
100
AcDbEntity
  8
10
  6
CONTINOUS
100
AcDbLine
 10
86.5
 20
91.29594154601774
 30
0.0
 11
86.95405845398225
 21
91.75
 31
0.0
  0
LINE
  5
9015
330
1E
100
AcDbEntity
  8
10
  6
CONTINOUS
100
AcDbLine
 10
86.5
 20
88.1139610306783
 30
0.0
 11
87.5
 21
89.11396103067829
 31
0.0
  0
LINE
  5
9016
330
1E
100
AcDbEntity
  8
10
  6
CONTINOUS
100
AcDbLine
 10
92.5
 20
89.87132034355942
 30
0.0
 11
93.49999999999999
 21
90.8713203435593
 31
0.0
  0
LINE
  5
9017
330
1E
100
AcDbEntity
  8
10
  6
CONTINOUS
100
AcDbLine
 10
86.5
 20
90.5888347648314
 30
0.0
 11
87.33714320317927
 21
91.42597796801045
 31
0.0
  0
LINE
  5
9018
330
1E
100
AcDbEntity
  8
10
  6
CONTINOUS
100
AcDbLine
 10
86.5
 20
83.87132034355943
 30
0.0
 11
87.5
 21
84.87132034355942
 31
0.0
  0
LINE
  5
9019
330
1E
100
AcDbEntity
  8
10
  6
CONTINOUS
100
AcDbLine
 10
91.27769637242383
 20
84.05282263827087
 30
0.0
 11
91.9957290557021
 21
84.77085532154921
 31
0.0
  0
LINE
  5
901A
330
1E
100
AcDbEntity
  8
10
  6
CONTINOUS
100
AcDbLine
 10
90.25863071718434
 20
85.50863071718447
 30
0.0
 11
90.97666340046272
 21
86.22666340046249
 31
0.0
  0
LINE
  5
901B
330
1E
100
AcDbEntity
  8
10
  6
CONTINOUS
100
AcDbLine
 10
92.44234283555455
 20
82.38904197665556
 30
0.0
 11
93.49999999999999
 21
83.44669914110125
 31
0.0
  0
LINE
  5
901C
330
1E
100
AcDbEntity
  8
10
  6
CONTINOUS
100
AcDbLine
 10
86.5
 20
89.1746212024582
 30
0.0
 11
87.91946643474465
 21
90.59408763720295
 31
0.0
  0
LINE
  5
901D
330
1E
100
AcDbEntity
  8
10
  6
CONTINOUS
100
AcDbLine
 10
86.5
 20
87.05330085889864
 30
0.0
 11
87.5
 21
88.0533008588986
 31
0.0
  0
LINE
  5
901E
330
1E
100
AcDbEntity
  8
10
  6
CONTINOUS
100
AcDbLine
 10
86.5
 20
82.81066017177977
 30
0.0
 11
87.5
 21
83.81066017177976
 31
0.0
  0
LINE
  5
901F
330
1E
100
AcDbEntity
  8
10
  6
CONTINOUS
100
AcDbLine
 10
89.23956506194498
 20
86.96443879609773
 30
0.0
 11
89.95759774522346
 21
87.68247147937609
 31
0.0
  0
LINE
  5
9020
330
1E
100
AcDbEntity
  8
10
  6
CONTINOUS
100
AcDbLine
 10
86.5
 20
86.69974746830542
 30
0.0
 11
87.5
 21
87.6997474683054
 31
0.0
  0
LINE
  5
9021
330
1E
100
AcDbEntity
  8
10
  6
CONTINOUS
100
AcDbLine
 10
88.22049940670558
 20
88.42024687501112
 30
0.0
 11
88.93853208998393
 21
89.13827955828947
 31
0.0
  0
LINE
  5
9022
330
1E
100
AcDbEntity
  8
10
  6
CONTINOUS
100
AcDbLine
 10
86.5
 20
82.10355339059322
 30
0.0
 11
87.5
 21
83.10355339059322
 31
0.0
  0
LINE
  5
9023
330
1E
100
AcDbEntity
  8
10
  6
CONTINOUS
100
AcDbLine
 10
92.5
 20
90.57842712474601
 30
0.0
 11
93.49999999999999
 21
91.57842712474598
 31
0.0
  0
LINE
  5
9024
330
1E
100
AcDbEntity
  8
10
  6
CONTINOUS
100
AcDbLine
 10
88.94840344616214
 20
87.38038396150159
 30
0.0
 11
89.66643612944062
 21
88.09841664477993
 31
0.0
  0
LINE
  5
9025
330
1E
100
AcDbEntity
  8
10
  6
CONTINOUS
100
AcDbLine
 10
87.20710678118654
 20
81.75
 30
0.0
 11
87.5
 21
82.04289321881331
 31
0.0
  0
LINE
  5
9026
330
1E
100
AcDbEntity
  8
10
  6
CONTINOUS
100
AcDbLine
 10
86.5
 20
89.52817459305142
 30
0.0
 11
87.77388562685336
 21
90.80206021990475
 31
0.0
  0
LINE
  5
9027
330
1E
100
AcDbEntity
  8
10
  6
CONTINOUS
100
AcDbLine
 10
86.5
 20
85.99264068711899
 30
0.0
 11
87.5
 21
86.99264068711896
 31
0.0
  0
LINE
  5
9028
330
1E
100
AcDbEntity
  8
10
  6
CONTINOUS
100
AcDbLine
 10
92.5
 20
86.68933982822023
 30
0.0
 11
93.49999999999999
 21
87.68933982822023
 31
0.0
  0
LINE
  5
9029
330
1E
100
AcDbEntity
  8
10
  6
CONTINOUS
100
AcDbLine
 10
90.54979233296696
 20
85.09268555178039
 30
0.0
 11
91.26782501624528
 21
85.81071823505885
 31
0.0
  0
LINE
  5
902A
330
1E
100
AcDbEntity
  8
10
  6
CONTINOUS
100
AcDbLine
 10
92.73350445133699
 20
81.97309681125171
 30
0.0
 11
93.49999999999999
 21
82.73959235991458
 31
0.0
  0
LINE
  5
902B
330
1E
100
AcDbEntity
  8
10
  6
CONTINOUS
100
AcDbLine
 10
86.5
 20
89.8817279836445
 30
0.0
 11
87.62830481896195
 21
91.01003280260648
 31
0.0
  0
LINE
  5
902C
330
1E
100
AcDbEntity
  8
10
  6
CONTINOUS
100
AcDbLine
 10
86.5
 20
83.51776695296619
 30
0.0
 11
87.5
 21
84.5177669529662
 31
0.0
  0
LINE
  5
902D
330
1E
100
AcDbEntity
  8
10
  6
CONTINOUS
100
AcDbLine
 10
92.5
 20
90.22487373415243
 30
0.0
 11
93.49999999999999
 21
91.22487373415287
 31
0.0
  0
LINE
  5
902E
330
1E
100
AcDbEntity
  8
10
  6
CONTINOUS
100
AcDbLine
 10
92.5
 20
91.28553390593266
 30
0.0
 11
92.96446609406755
 21
91.75
 31
0.0
  0
LINE
  5
902F
330
1E
100
AcDbEntity
  8
10
  6
CONTINOUS
100
AcDbLine
 10
92.5
 20
89.16421356237311
 30
0.0
 11
93.49999999999999
 21
90.16421356237287
 31
0.0
  0
LINE
  5
9030
330
1E
100
AcDbEntity
  8
10
  6
CONTINOUS
100
AcDbLine
 10
89.53072667772769
 20
86.54849363069374
 30
0.0
 11
90.24875936100604
 21
87.26652631397213
 31
0.0
  0
LINE
  5
9031
330
1E
100
AcDbEntity
  8
10
  6
CONTINOUS
100
AcDbLine
 10
92.5
 20
84.9215728752539
 30
0.0
 11
93.49999999999999
 21
85.9215728752539
 31
0.0
  0
LINE
  5
9032
330
1E
100
AcDbEntity
  8
10
  6
CONTINOUS
100
AcDbLine
 10
91.71443879609785
 20
83.4289048901652
 30
0.0
 11
92.43247147937609
 21
84.14693757344355
 31
0.0
  0
LINE
  5
9033
330
1E
100
AcDbEntity
  8
10
  6
CONTINOUS
100
AcDbLine
 10
86.5
 20
87.40685424949186
 30
0.0
 11
87.5
 21
88.40685424949183
 31
0.0
  0
LINE
  5
9034
330
1E
100
AcDbEntity
  8
10
  6
CONTINOUS
100
AcDbLine
 10
91.13211556453235
 20
84.2607952209728
 30
0.0
 11
91.85014824781069
 21
84.97882790425128
 31
0.0
  0
LINE
  5
9035
330
1E
100
AcDbEntity
  8
10
  6
CONTINOUS
100
AcDbLine
 10
88.36608021459687
 20
88.21227429230907
 30
0.0
 11
89.08411289787535
 21
88.93030697558742
 31
0.0
  0
LINE
  5
9036
330
1E
100
AcDbEntity
  8
10
  6
CONTINOUS
100
AcDbLine
 10
81.0
 20
114.0
 30
0.0
 11
99.0
 21
114.0
 31
0.0
  0
LINE
  5
9075
330
1E
100
AcDbEntity
  8
18
  6
DIVIDE
100
AcDbLine
 10
114.9999999999997
 20
-230.0
 30
0.0
 11
114.9999999999997
 21
-490.0000000000002
 31
0.0
  0
LINE
  5
9076
330
1E
100
AcDbEntity
  8
18
  6
DIVIDE
100
AcDbLine
 10
-70.00000000000046
 20
-230.0
 30
0.0
 11
-70.00000000000046
 21
-490.0000000000002
 31
0.0
  0
LINE
  5
9078
330
1E
100
AcDbEntity
  8
22
100
AcDbLine
 10
61.12451549659681
 20
-482.0
 30
0.0
 11
73.87548450340275
 21
-482.0
 31
0.0
  0
LINE
  5
9079
330
1E
100
AcDbEntity
  8
22
100
AcDbLine
 10
62.99999999999977
 20
-474.0
 30
0.0
 11
71.99999999999976
 21
-474.0
 31
0.0
  0
LINE
  5
907A
330
1E
100
AcDbEntity
  8
18
  6
DIVIDE
100
AcDbLine
 10
-70.00000000000046
 20
-490.0000000000002
 30
0.0
 11
114.9999999999997
 21
-490.0000000000002
 31
0.0
  0
LINE
  5
907B
330
1E
100
AcDbEntity
  8
22
100
AcDbLine
 10
67.99999999999977
 20
-474.0
 30
0.0
 11
111.9999999999996
 21
-474.0
 31
0.0
  0
LINE
  5
907C
330
1E
100
AcDbEntity
  8
22
100
AcDbLine
 10
-67.0
 20
-474.0
 30
0.0
 11
-23.0
 21
-474.0
 31
0.0
  0
ARC
  5
907D
330
1E
100
AcDbEntity
  8
22
100
AcDbCircle
 10
45.0
 20
-474.0
 30
0.0
 40
18.0
210
0.0
220
0.0
230
-1.0
100
AcDbArc
 50
206.3877999612476
 51
180.0
  0
LINE
  5
907E
330
1E
100
AcDbEntity
  8
22
100
AcDbLine
 10
-22.0
 20
-474.0
 30
0.0
 11
21.99999999999977
 21
-474.0
 31
0.0
  0
ARC
  5
907F
330
1E
100
AcDbEntity
  8
22
100
AcDbCircle
 10
0.0
 20
-474.0
 30
0.0
 40
18.0
210
0.0
220
0.0
230
-1.0
100
AcDbArc
 50
0.0
 51
180.0
  0
ARC
  5
9080
330
1E
100
AcDbEntity
  8
22
100
AcDbCircle
 10
0.0
 20
-474.0
 30
0.0
 40
18.0
210
0.0
220
0.0
230
-1.0
100
AcDbArc
 50
206.3877999612476
 51
333.6122000387561
  0
LINE
  5
9081
330
1E
100
AcDbEntity
  8
22
100
AcDbLine
 10
0.0
 20
-452.0
 30
0.0
 11
0.0
 21
-496.0
 31
0.0
  0
LINE
  5
9082
330
1E
100
AcDbEntity
  8
22
100
AcDbLine
 10
-45.0
 20
-452.0
 30
0.0
 11
-45.0
 21
-496.0
 31
0.0
  0
LINE
  5
9083
330
1E
100
AcDbEntity
  8
22
100
AcDbLine
 10
-28.87548450340318
 20
-482.0
 30
0.0
 11
-16.12451549659704
 21
-482.0
 31
0.0
  0
LINE
  5
9084
330
1E
100
AcDbEntity
  8
22
100
AcDbLine
 10
-27.00000000000045
 20
-474.0
 30
0.0
 11
-18.0
 21
-474.0
 31
0.0
  0
LINE
  5
9085
330
1E
100
AcDbEntity
  8
22
100
AcDbLine
 10
-29.50000000000045
 20
-467.0
 30
0.0
 11
-15.50000000000044
 21
-467.0
 31
0.0
  0
LINE
  5
9086
330
1E
100
AcDbEntity
  8
22
100
AcDbLine
 10
-22.50000000000044
 20
-460.0
 30
0.0
 11
-22.50000000000044
 21
-474.0
 31
0.0
  0
CIRCLE
  5
9087
330
1E
100
AcDbEntity
  8
22
100
AcDbCircle
 10
22.50000000000044
 20
-467.0
 30
0.0
 40
3.0
210
0.0
220
0.0
230
-1.0
  0
LINE
  5
9088
330
1E
100
AcDbEntity
  8
22
100
AcDbLine
 10
44.99999999999977
 20
-452.0
 30
0.0
 11
44.99999999999977
 21
-496.0
 31
0.0
  0
ARC
  5
9089
330
1E
100
AcDbEntity
  8
22
100
AcDbCircle
 10
-44.99999999999977
 20
-474.0
 30
0.0
 40
18.0
210
0.0
220
0.0
230
-1.0
100
AcDbArc
 50
0.0
 51
180.0
  0
ARC
  5
908A
330
1E
100
AcDbEntity
  8
22
100
AcDbCircle
 10
-44.99999999999977
 20
-474.0
 30
0.0
 40
18.0
210
0.0
220
0.0
230
-1.0
100
AcDbArc
 50
206.3877999612476
 51
333.6122000387561
  0
LINE
  5
908B
330
1E
100
AcDbEntity
  8
22
100
AcDbLine
 10
22.99999999999977
 20
-474.0
 30
0.0
 11
66.99999999999977
 21
-474.0
 31
0.0
  0
LINE
  5
908C
330
1E
100
AcDbEntity
  8
22
100
AcDbLine
 10
16.12451549659681
 20
-482.0
 30
0.0
 11
28.87548450340272
 21
-482.0
 31
0.0
  0
LINE
  5
908D
330
1E
100
AcDbEntity
  8
22
100
AcDbLine
 10
17.99999999999976
 20
-474.0
 30
0.0
 11
26.99999999999977
 21
-474.0
 31
0.0
  0
LINE
  5
908E
330
1E
100
AcDbEntity
  8
22
100
AcDbLine
 10
15.49999999999974
 20
-467.0
 30
0.0
 11
29.49999999999977
 21
-467.0
 31
0.0
  0
CIRCLE
  5
908F
330
1E
100
AcDbEntity
  8
22
100
AcDbCircle
 10
22.49999999999977
 20
-467.0
 30
0.0
 40
3.0
  0
LINE
  5
9090
330
1E
100
AcDbEntity
  8
22
100
AcDbLine
 10
22.49999999999977
 20
-460.0
 30
0.0
 11
22.49999999999977
 21
-474.0
 31
0.0
  0
LINE
  5
9091
330
1E
100
AcDbEntity
  8
22
100
AcDbLine
 10
89.99999999999976
 20
-452.0
 30
0.0
 11
89.99999999999976
 21
-496.0
 31
0.0
  0
ARC
  5
9092
330
1E
100
AcDbEntity
  8
22
100
AcDbCircle
 10
-89.99999999999976
 20
-474.0
 30
0.0
 40
18.0
210
0.0
220
0.0
230
-1.0
100
AcDbArc
 50
0.0
 51
333.6122000387561
  0
LINE
  5
9093
330
1E
100
AcDbEntity
  8
22
100
AcDbLine
 10
61.12451549659681
 20
-238.0
 30
0.0
 11
73.87548450340275
 21
-238.0
 31
0.0
  0
LINE
  5
9094
330
1E
100
AcDbEntity
  8
22
100
AcDbLine
 10
62.99999999999977
 20
-246.0
 30
0.0
 11
71.99999999999976
 21
-246.0
 31
0.0
  0
LINE
  5
9096
330
1E
100
AcDbEntity
  8
18
  6
DIVIDE
100
AcDbLine
 10
114.9999999999997
 20
-230.0
 30
0.0
 11
-70.00000000000046
 21
-230.0
 31
0.0
  0
LINE
  5
9097
330
1E
100
AcDbEntity
  8
22
100
AcDbLine
 10
67.99999999999977
 20
-246.0
 30
0.0
 11
111.9999999999996
 21
-246.0
 31
0.0
  0
LINE
  5
9098
330
1E
100
AcDbEntity
  8
22
100
AcDbLine
 10
0.0
 20
-224.0
 30
0.0
 11
0.0
 21
-268.0
 31
0.0
  0
LINE
  5
9099
330
1E
100
AcDbEntity
  8
22
100
AcDbLine
 10
-45.0
 20
-224.0
 30
0.0
 11
-45.0
 21
-268.0
 31
0.0
  0
ARC
  5
909A
330
1E
100
AcDbEntity
  8
22
100
AcDbCircle
 10
-45.0
 20
-246.0
 30
0.0
 40
18.0
100
AcDbArc
 50
26.38779996124778
 51
0.0
  0
LINE
  5
909B
330
1E
100
AcDbEntity
  8
22
100
AcDbLine
 10
44.99999999999977
 20
-224.0
 30
0.0
 11
44.99999999999977
 21
-268.0
 31
0.0
  0
LINE
  5
909C
330
1E
100
AcDbEntity
  8
22
100
AcDbLine
 10
-67.0
 20
-246.0
 30
0.0
 11
-23.0
 21
-246.0
 31
0.0
  0
LINE
  5
909D
330
1E
100
AcDbEntity
  8
22
100
AcDbLine
 10
-22.0
 20
-246.0
 30
0.0
 11
21.99999999999977
 21
-246.0
 31
0.0
  0
ARC
  5
909E
330
1E
100
AcDbEntity
  8
22
100
AcDbCircle
 10
0.0
 20
-246.0
 30
0.0
 40
18.0
100
AcDbArc
 50
180.0
 51
0.0
  0
LINE
  5
909F
330
1E
100
AcDbEntity
  8
22
100
AcDbLine
 10
-27.00000000000045
 20
-246.0
 30
0.0
 11
-18.0
 21
-246.0
 31
0.0
  0
LINE
  5
90A0
330
1E
100
AcDbEntity
  8
22
100
AcDbLine
 10
-29.50000000000045
 20
-253.0
 30
0.0
 11
-15.50000000000044
 21
-253.0
 31
0.0
  0
LINE
  5
90A1
330
1E
100
AcDbEntity
  8
22
100
AcDbLine
 10
-22.50000000000044
 20
-246.0
 30
0.0
 11
-22.50000000000044
 21
-260.0
 31
0.0
  0
CIRCLE
  5
90A2
330
1E
100
AcDbEntity
  8
22
100
AcDbCircle
 10
-22.50000000000044
 20
-253.0
 30
0.0
 40
3.0
  0
ARC
  5
90A3
330
1E
100
AcDbEntity
  8
22
100
AcDbCircle
 10
44.99999999999977
 20
-246.0
 30
0.0
 40
18.0
100
AcDbArc
 50
180.0
 51
0.0
  0
LINE
  5
90A4
330
1E
100
AcDbEntity
  8
22
100
AcDbLine
 10
22.99999999999977
 20
-246.0
 30
0.0
 11
66.99999999999977
 21
-246.0
 31
0.0
  0
LINE
  5
90A5
330
1E
100
AcDbEntity
  8
22
100
AcDbLine
 10
17.99999999999976
 20
-246.0
 30
0.0
 11
26.99999999999977
 21
-246.0
 31
0.0
  0
LINE
  5
90A6
330
1E
100
AcDbEntity
  8
22
100
AcDbLine
 10
15.49999999999974
 20
-253.0
 30
0.0
 11
29.49999999999977
 21
-253.0
 31
0.0
  0
CIRCLE
  5
90A7
330
1E
100
AcDbEntity
  8
22
100
AcDbCircle
 10
-22.49999999999977
 20
-253.0
 30
0.0
 40
3.0
210
0.0
220
0.0
230
-1.0
  0
LINE
  5
90A8
330
1E
100
AcDbEntity
  8
22
100
AcDbLine
 10
22.49999999999977
 20
-246.0
 30
0.0
 11
22.49999999999977
 21
-260.0
 31
0.0
  0
ARC
  5
90A9
330
1E
100
AcDbEntity
  8
22
100
AcDbCircle
 10
0.0
 20
-246.0
 30
0.0
 40
18.0
100
AcDbArc
 50
26.38779996124778
 51
153.612200038756
  0
LINE
  5
90AA
330
1E
100
AcDbEntity
  8
22
100
AcDbLine
 10
-28.87548450340318
 20
-238.0
 30
0.0
 11
-16.12451549659704
 21
-238.0
 31
0.0
  0
ARC
  5
90AB
330
1E
100
AcDbEntity
  8
22
100
AcDbCircle
 10
44.99999999999977
 20
-246.0
 30
0.0
 40
18.0
100
AcDbArc
 50
26.38779996124778
 51
153.612200038756
  0
LINE
  5
90AC
330
1E
100
AcDbEntity
  8
22
100
AcDbLine
 10
16.12451549659681
 20
-238.0
 30
0.0
 11
28.87548450340272
 21
-238.0
 31
0.0
  0
ARC
  5
90AD
330
1E
100
AcDbEntity
  8
22
100
AcDbCircle
 10
89.99999999999976
 20
-246.0
 30
0.0
 40
18.0
100
AcDbArc
 50
180.0
 51
153.612200038756
  0
LINE
  5
90AE
330
1E
100
AcDbEntity
  8
22
100
AcDbLine
 10
89.99999999999976
 20
-224.0
 30
0.0
 11
89.99999999999976
 21
-268.0
 31
0.0
  0
LINE
  5
90FA
330
1E
100
AcDbEntity
  8
21
100
AcDbLine
 10
76.99993896483988
 20
348.0
 30
0.0
 11
76.99993896483988
 21
380.8095842401765
 31
0.0
  0
LINE
  5
90FB
330
1E
100
AcDbEntity
  8
21
100
AcDbLine
 10
102.9999389648398
 20
348.0
 30
0.0
 11
102.9999389648398
 21
380.8095842401765
 31
0.0
  0
LINE
  5
90FC
330
1E
100
AcDbEntity
  8
21
100
AcDbLine
 10
32.99993896483988
 20
348.0
 30
0.0
 11
32.99993896483988
 21
378.0
 31
0.0
  0
LINE
  5
90FD
330
1E
100
AcDbEntity
  8
21
100
AcDbLine
 10
56.99993896483988
 20
348.0
 30
0.0
 11
56.99993896483988
 21
378.0
 31
0.0
  0
LINE
  5
90FE
330
1E
100
AcDbEntity
  8
21
100
AcDbLine
 10
12.99993896483988
 20
348.0
 30
0.0
 11
12.99993896483988
 21
380.8095842401767
 31
0.0
  0
LINE
  5
90FF
330
1E
100
AcDbEntity
  8
21
100
AcDbLine
 10
-57.00006103516011
 20
348.0
 30
0.0
 11
-57.00006103516011
 21
378.0
 31
0.0
  0
LINE
  5
9100
330
1E
100
AcDbEntity
  8
21
100
AcDbLine
 10
-33.00006103516011
 20
348.0
 30
0.0
 11
-33.00006103516011
 21
378.0
 31
0.0
  0
LINE
  5
9101
330
1E
100
AcDbEntity
  8
21
100
AcDbLine
 10
-13.00006103516011
 20
348.0
 30
0.0
 11
-13.00006103516011
 21
380.8095842401767
 31
0.0
  0
LINE
  5
9103
330
1E
100
AcDbEntity
  8
10
  6
CONTINOUS
100
AcDbLine
 10
-70.00006103516011
 20
251.0
 30
0.0
 11
114.9999389648397
 21
251.0
 31
0.0
  0
LINE
  5
9104
330
1E
100
AcDbEntity
  8
10
  6
CONTINOUS
100
AcDbLine
 10
-70.00006103516011
 20
245.0
 30
0.0
 11
114.9999389648397
 21
245.0
 31
0.0
  0
LINE
  5
9105
330
1E
100
AcDbEntity
  8
10
  6
CONTINOUS
100
AcDbLine
 10
-58.00006103516011
 20
241.0
 30
0.0
 11
57.99993896483988
 21
241.0
 31
0.0
  0
LINE
  5
9106
330
1E
100
AcDbEntity
  8
10
  6
CONTINOUS
100
AcDbLine
 10
-70.00006103516013
 20
348.0
 30
0.0
 11
114.9999389648397
 21
348.0
 31
0.0
  0
LINE
  5
9107
330
1E
100
AcDbEntity
  8
10
  6
CONTINOUS
100
AcDbLine
 10
-70.00006103516011
 20
245.0
 30
0.0
 11
-70.00006103516011
 21
348.0
 31
0.0
  0
LINE
  5
9108
330
1E
100
AcDbEntity
  8
10
  6
CONTINOUS
100
AcDbLine
 10
-58.00006103516011
 20
241.0
 30
0.0
 11
-58.00006103516011
 21
245.0
 31
0.0
  0
LINE
  5
9109
330
1E
100
AcDbEntity
  8
10
  6
CONTINOUS
100
AcDbLine
 10
-17.00006103516011
 20
208.4999999999999
 30
0.0
 11
16.99993896483994
 21
208.4999999999999
 31
0.0
  0
LINE
  5
910A
330
1E
100
AcDbEntity
  8
10
  6
CONTINOUS
100
AcDbLine
 10
-18.0000610351601
 20
237.0
 30
0.0
 11
17.99993896483987
 21
237.0
 31
0.0
  0
LINE
  5
910B
330
1E
100
AcDbEntity
  8
10
  6
CONTINOUS
100
AcDbLine
 10
-17.00006103516011
 20
208.4999999999999
 30
0.0
 11
-17.00006103516011
 21
237.0
 31
0.0
  0
LINE
  5
910C
330
1E
100
AcDbEntity
  8
10
  6
CONTINOUS
100
AcDbLine
 10
-18.0000610351601
 20
237.0
 30
0.0
 11
-18.0000610351601
 21
241.0
 31
0.0
  0
LINE
  5
910D
330
1E
100
AcDbEntity
  8
10
  6
CONTINOUS
100
AcDbLine
 10
16.99993896483994
 20
208.4999999999999
 30
0.0
 11
16.99993896483994
 21
237.0
 31
0.0
  0
LINE
  5
910E
330
1E
100
AcDbEntity
  8
10
  6
CONTINOUS
100
AcDbLine
 10
17.99993896483987
 20
237.0
 30
0.0
 11
17.99993896483987
 21
241.0
 31
0.0
  0
LINE
  5
910F
330
1E
100
AcDbEntity
  8
10
  6
CONTINOUS
100
AcDbLine
 10
57.99993896483988
 20
241.0
 30
0.0
 11
57.99993896483988
 21
245.0
 31
0.0
  0
LINE
  5
9110
330
1E
100
AcDbEntity
  8
10
  6
CONTINOUS
100
AcDbLine
 10
114.9999389648397
 20
245.0
 30
0.0
 11
114.9999389648397
 21
348.0
 31
0.0
  0
ARC
  5
9111
330
1E
100
AcDbEntity
  8
21
100
AcDbCircle
 10
-53.50006103516012
 20
385.5
 30
0.0
 40
6.5
100
AcDbArc
 50
180.0
 51
270.0
  0
LINE
  5
9112
330
1E
100
AcDbEntity
  8
21
100
AcDbLine
 10
-60.00006103516011
 20
418.0
 30
0.0
 11
-30.0000610351601
 21
418.0
 31
0.0
  0
LINE
  5
9113
330
1E
100
AcDbEntity
  8
21
100
AcDbLine
 10
-60.00006103516011
 20
385.5
 30
0.0
 11
-60.00006103516011
 21
418.0
 31
0.0
  0
LINE
  5
9114
330
1E
100
AcDbEntity
  8
21
100
AcDbLine
 10
-60.00006103516011
 20
385.4999999999998
 30
0.0
 11
-60.00006103516011
 21
418.0
 31
0.0
  0
CIRCLE
  5
9115
330
1E
100
AcDbEntity
  8
17
100
AcDbCircle
 10
-0.0000610351601154
 20
443.0
 30
0.0
 40
6.5
  0
LINE
  5
9116
330
1E
100
AcDbEntity
  8
21
100
AcDbLine
 10
-15.00006103516011
 20
458.0
 30
0.0
 11
14.99993896483988
 21
458.0
 31
0.0
  0
LINE
  5
9117
330
1E
100
AcDbEntity
  8
21
100
AcDbLine
 10
-15.00006103516011
 20
419.0
 30
0.0
 11
14.99993896483988
 21
419.0
 31
0.0
  0
LINE
  5
9118
330
1E
100
AcDbEntity
  8
17
100
AcDbLine
 10
-10.50006103516009
 20
443.0
 30
0.0
 11
10.49993896483988
 21
443.0
 31
0.0
  0
LINE
  5
9119
330
1E
100
AcDbEntity
  8
21
100
AcDbLine
 10
-30.0000610351601
 20
385.5
 30
0.0
 11
-30.0000610351601
 21
418.0
 31
0.0
  0
LINE
  5
911A
330
1E
100
AcDbEntity
  8
21
100
AcDbLine
 10
-30.0000610351601
 20
385.4999999999998
 30
0.0
 11
-30.0000610351601
 21
418.0
 31
0.0
  0
LINE
  5
911B
330
1E
100
AcDbEntity
  8
21
100
AcDbLine
 10
-15.00006103516011
 20
385.5
 30
0.0
 11
-15.00006103516011
 21
458.0
 31
0.0
  0
LINE
  5
911C
330
1E
100
AcDbEntity
  8
21
100
AcDbLine
 10
-15.00006103516011
 20
385.4999999999998
 30
0.0
 11
-15.00006103516011
 21
458.0
 31
0.0
  0
LINE
  5
911D
330
1E
100
AcDbEntity
  8
17
100
AcDbLine
 10
-45.00006103516011
 20
392.5
 30
0.0
 11
-45.00006103516011
 21
413.4999999999998
 31
0.0
  0
LINE
  5
911E
330
1E
100
AcDbEntity
  8
21
100
AcDbLine
 10
-57.00006103516011
 20
378.0
 30
0.0
 11
-33.00006103516011
 21
378.0
 31
0.0
  0
LINE
  5
911F
330
1E
100
AcDbEntity
  8
21
100
AcDbLine
 10
-53.50006103516012
 20
378.0
 30
0.0
 11
-53.50006103516012
 21
379.0
 31
0.0
  0
LINE
  5
9120
330
1E
100
AcDbEntity
  8
21
100
AcDbLine
 10
-36.50006103516011
 20
378.0
 30
0.0
 11
-36.50006103516011
 21
379.0
 31
0.0
  0
ARC
  5
9121
330
1E
100
AcDbEntity
  8
21
100
AcDbCircle
 10
-36.50006103516011
 20
385.5
 30
0.0
 40
6.5
100
AcDbArc
 50
270.0
 51
0.0
  0
LINE
  5
9122
330
1E
100
AcDbEntity
  8
17
100
AcDbLine
 10
-55.50006103516011
 20
403.0
 30
0.0
 11
-34.50006103516011
 21
403.0
 31
0.0
  0
CIRCLE
  5
9123
330
1E
100
AcDbEntity
  8
17
100
AcDbCircle
 10
-45.00006103516011
 20
403.0
 30
0.0
 40
6.5
  0
ARC
  5
9124
330
1E
100
AcDbEntity
  8
21
100
AcDbCircle
 10
-8.500061035160115
 20
385.5
 30
0.0
 40
6.5
100
AcDbArc
 50
180.0
 51
226.1869385395983
  0
LINE
  5
9125
330
1E
100
AcDbEntity
  8
17
100
AcDbLine
 10
-0.0000610351601154
 20
432.5
 30
0.0
 11
-0.0000610351601154
 21
453.5
 31
0.0
  0
LINE
  5
9126
330
1E
100
AcDbEntity
  8
21
100
AcDbLine
 10
29.99993896483987
 20
385.5
 30
0.0
 11
29.99993896483987
 21
418.0
 31
0.0
  0
LINE
  5
9127
330
1E
100
AcDbEntity
  8
21
100
AcDbLine
 10
59.99993896483989
 20
385.5
 30
0.0
 11
59.99993896483989
 21
418.0
 31
0.0
  0
LINE
  5
9128
330
1E
100
AcDbEntity
  8
21
100
AcDbLine
 10
29.99993896483987
 20
385.4999999999998
 30
0.0
 11
29.99993896483987
 21
418.0
 31
0.0
  0
LINE
  5
9129
330
1E
100
AcDbEntity
  8
21
100
AcDbLine
 10
59.99993896483989
 20
385.4999999999998
 30
0.0
 11
59.99993896483989
 21
418.0
 31
0.0
  0
LINE
  5
912A
330
1E
100
AcDbEntity
  8
21
100
AcDbLine
 10
14.99993896483988
 20
385.5
 30
0.0
 11
14.99993896483988
 21
458.0
 31
0.0
  0
LINE
  5
912B
330
1E
100
AcDbEntity
  8
21
100
AcDbLine
 10
14.99993896483988
 20
385.4999999999998
 30
0.0
 11
14.99993896483988
 21
458.0
 31
0.0
  0
LINE
  5
912C
330
1E
100
AcDbEntity
  8
21
100
AcDbLine
 10
32.99993896483988
 20
378.0
 30
0.0
 11
56.99993896483988
 21
378.0
 31
0.0
  0
LINE
  5
912D
330
1E
100
AcDbEntity
  8
17
100
AcDbLine
 10
34.49993896483988
 20
403.0
 30
0.0
 11
55.49993896483988
 21
403.0
 31
0.0
  0
ARC
  5
912E
330
1E
100
AcDbEntity
  8
21
100
AcDbCircle
 10
8.499938964839884
 20
385.5
 30
0.0
 40
6.5
100
AcDbArc
 50
313.8130614604015
 51
0.0
  0
LINE
  5
912F
330
1E
100
AcDbEntity
  8
21
100
AcDbLine
 10
36.49993896483988
 20
378.0
 30
0.0
 11
36.49993896483988
 21
379.0
 31
0.0
  0
ARC
  5
9130
330
1E
100
AcDbEntity
  8
21
100
AcDbCircle
 10
36.49993896483988
 20
385.5
 30
0.0
 40
6.5
100
AcDbArc
 50
180.0
 51
270.0
  0
LINE
  5
9131
330
1E
100
AcDbEntity
  8
17
100
AcDbLine
 10
44.99993896483988
 20
392.5
 30
0.0
 11
44.99993896483988
 21
413.4999999999998
 31
0.0
  0
ARC
  5
9132
330
1E
100
AcDbEntity
  8
21
100
AcDbCircle
 10
53.49993896483987
 20
385.5
 30
0.0
 40
6.5
100
AcDbArc
 50
270.0
 51
0.0
  0
LINE
  5
9133
330
1E
100
AcDbEntity
  8
21
100
AcDbLine
 10
53.49993896483987
 20
378.0
 30
0.0
 11
53.49993896483987
 21
379.0
 31
0.0
  0
CIRCLE
  5
9134
330
1E
100
AcDbEntity
  8
17
100
AcDbCircle
 10
44.99993896483988
 20
403.0
 30
0.0
 40
6.5
  0
LINE
  5
9135
330
1E
100
AcDbEntity
  8
21
100
AcDbLine
 10
29.99993896483987
 20
418.0
 30
0.0
 11
59.99993896483989
 21
418.0
 31
0.0
  0
LINE
  5
9136
330
1E
100
AcDbEntity
  8
21
100
AcDbLine
 10
74.99993896483989
 20
385.5
 30
0.0
 11
74.99993896483989
 21
458.0
 31
0.0
  0
LINE
  5
9137
330
1E
100
AcDbEntity
  8
21
100
AcDbLine
 10
104.9999389648398
 20
385.5
 30
0.0
 11
104.9999389648398
 21
458.0
 31
0.0
  0
LINE
  5
9138
330
1E
100
AcDbEntity
  8
21
100
AcDbLine
 10
74.99993896483989
 20
385.4999999999998
 30
0.0
 11
74.99993896483989
 21
458.0
 31
0.0
  0
LINE
  5
9139
330
1E
100
AcDbEntity
  8
21
100
AcDbLine
 10
104.9999389648398
 20
385.4999999999998
 30
0.0
 11
104.9999389648398
 21
458.0
 31
0.0
  0
ARC
  5
913A
330
1E
100
AcDbEntity
  8
21
100
AcDbCircle
 10
81.49993896483989
 20
385.5
 30
0.0
 40
6.5
100
AcDbArc
 50
180.0
 51
226.1869385395983
  0
ARC
  5
913B
330
1E
100
AcDbEntity
  8
21
100
AcDbCircle
 10
98.49993896483988
 20
385.5
 30
0.0
 40
6.5
100
AcDbArc
 50
313.8130614604015
 51
0.0
  0
LINE
  5
913C
330
1E
100
AcDbEntity
  8
21
100
AcDbLine
 10
74.99993896483989
 20
419.0
 30
0.0
 11
104.9999389648398
 21
419.0
 31
0.0
  0
LINE
  5
913D
330
1E
100
AcDbEntity
  8
21
100
AcDbLine
 10
74.99993896483989
 20
458.0
 30
0.0
 11
104.9999389648398
 21
458.0
 31
0.0
  0
CIRCLE
  5
913E
330
1E
100
AcDbEntity
  8
17
100
AcDbCircle
 10
89.9999389648399
 20
443.0
 30
0.0
 40
6.5
  0
LINE
  5
913F
330
1E
100
AcDbEntity
  8
17
100
AcDbLine
 10
89.9999389648399
 20
432.5
 30
0.0
 11
89.9999389648399
 21
453.5
 31
0.0
  0
LINE
  5
9140
330
1E
100
AcDbEntity
  8
17
100
AcDbLine
 10
79.49993896483988
 20
443.0
 30
0.0
 11
100.4999389648397
 21
443.0
 31
0.0
  0
DIMENSION
  5
9178
330
1E
100
AcDbEntity
  8
30
100
AcDbDimension
  2
*D47
 10
137.61259592051
 20
347.9999999999999
 30
0.0
 11
151.6125959205099
 21
359.3499793368947
 31
0.0
 70
    32
  3
STANDARD
100
AcDbAlignedDimension
 13
25.49995956682768
 23
362.6999586737895
 33
0.0
 14
112.5566438232602
 24
348.0
 34
0.0
 50
90.0
100
AcDbRotatedDimension
1001
ACAD
1000
DSTYLE
1002
{
1070
   287
1070
     4
1070
   287
1070
     4
1070
   287
1070
     4
1070
   287
1070
     4
1070
   287
1070
     4
1070
   287
1070
     4
1070
    79
1070
     3
1070
   279
1070
     1
1002
}
  0
LINE
  5
917A
330
1E
100
AcDbEntity
  8
18
100
AcDbLine
 10
126.1342768605009
 20
351.1999834695158
 30
0.0
 11
-80.40551157431854
 21
351.1999834695158
 31
0.0
  0
LINE
  5
917C
330
1E
100
AcDbEntity
  8
12
100
AcDbLine
 10
-20.50004043317231
 20
362.6999586737895
 30
0.0
 11
-24.50001977006728
 21
362.6999586737895
 31
0.0
  0
LINE
  5
917D
330
1E
100
AcDbEntity
  8
12
100
AcDbLine
 10
-20.50004043317231
 20
348.0
 30
0.0
 11
-20.50004043317231
 21
362.6999586737895
 31
0.0
  0
LINE
  5
917E
330
1E
100
AcDbEntity
  8
12
100
AcDbLine
 10
-24.50001977006728
 20
348.0
 30
0.0
 11
-24.50001977006728
 21
362.6999586737895
 31
0.0
  0
LINE
  5
917F
330
1E
100
AcDbEntity
  8
12
100
AcDbLine
 10
21.4999802299327
 20
348.0
 30
0.0
 11
21.4999802299327
 21
362.6999586737895
 31
0.0
  0
LINE
  5
9180
330
1E
100
AcDbEntity
  8
12
100
AcDbLine
 10
25.49995956682769
 20
348.0
 30
0.0
 11
25.49995956682769
 21
362.6999586737895
 31
0.0
  0
LINE
  5
9181
330
1E
100
AcDbEntity
  8
12
100
AcDbLine
 10
25.49995956682769
 20
362.6999586737895
 30
0.0
 11
21.4999802299327
 21
362.6999586737895
 31
0.0
  0
LINE
  5
9182
330
1E
100
AcDbEntity
  8
18
100
AcDbLine
 10
127.0327078347654
 20
348.0
 30
0.0
 11
-81.68796791302066
 21
348.0
 31
0.0
  0
DIMENSION
  5
9198
330
1E
100
AcDbEntity
  8
30
  6
DASHED
100
AcDbDimension
  2
*D48
 10
-21.80780957002764
 20
-255.9190533411798
 30
0.0
 11
-37.74744083389178
 21
-214.0023890902476
 31
0.0
 70
   163
  3
STANDARD
100
AcDbDiametricDimension
 15
-23.19219042997324
 25
-250.0809466588199
 35
0.0
 40
0.0
1001
ACAD
1000
DSTYLE
1002
{
1070
    79
1070
     3
1070
   288
1070
     1
1002
}
  0
DIMENSION
  5
91E9
330
1E
100
AcDbEntity
  8
30
  6
CONTINUOUS
100
AcDbDimension
  2
*D49
 10
115.0
 20
-153.9615092384194
 30
0.0
 11
22.5
 21
-149.9615092384194
 31
0.0
 70
    32
  3
STANDARD
100
AcDbAlignedDimension
 13
-70.0
 23
-130.0
 33
0.0
 14
115.0
 24
-130.0
 34
0.0
100
AcDbRotatedDimension
1001
ACAD
1000
DSTYLE
1002
{
1070
    79
1070
     3
1002
}
  0
DIMENSION
  5
9230
330
1E
100
AcDbEntity
  8
30
  6
CONTINUOUS
100
AcDbDimension
  2
*D50
 10
-0.0000610351601132
 20
488.5635362125028
 30
0.0
 11
-22.5000610351601
 21
492.5635362125028
 31
0.0
 70
    32
  3
STANDARD
100
AcDbAlignedDimension
 13
-45.00006103516011
 23
413.4999999999998
 33
0.0
 14
-0.0000610351601154
 24
453.5
 34
0.0
100
AcDbRotatedDimension
1001
ACAD
1000
DSTYLE
1002
{
1070
    79
1070
     3
1002
}
  0
DIMENSION
  5
9231
330
1E
100
AcDbEntity
  8
30
  6
CONTINUOUS
100
AcDbDimension
  2
*D51
 10
44.99993896483988
 20
488.5635362125028
 30
0.0
 11
22.49993896483988
 21
492.5635362125028
 31
0.0
 70
    32
  3
STANDARD
100
AcDbAlignedDimension
 13
-0.0000610351601154
 23
453.5
 33
0.0
 14
44.99993896483988
 24
413.4999999999998
 34
0.0
100
AcDbRotatedDimension
1001
ACAD
1000
DSTYLE
1002
{
1070
   287
1070
     4
1070
   287
1070
     4
1070
   287
1070
     4
1070
   287
1070
     4
1070
   287
1070
     4
1070
   287
1070
     4
1070
   279
1070
     1
1070
    79
1070
     3
1002
}
  0
DIMENSION
  5
925C
330
1E
100
AcDbEntity
  8
30
  6
CONTINUOUS
100
AcDbDimension
  2
*D52
 10
89.9999389648399
 20
489.0635362125029
 30
0.0
 11
67.49993896483989
 21
493.0635362125029
 31
0.0
 70
    32
  3
STANDARD
100
AcDbAlignedDimension
 13
44.99993896483988
 23
418.0
 33
0.0
 14
89.9999389648399
 24
453.5
 34
0.0
100
AcDbRotatedDimension
1001
ACAD
1000
DSTYLE
1002
{
1070
    79
1070
     3
1002
}
  0
LINE
  5
9456
330
1E
100
AcDbEntity
  8
10
  6
CONTINUOUS
100
AcDbLine
 10
36.5
 20
-21.0
 30
0.0
 11
44.5
 21
-21.0
 31
0.0
  0
LINE
  5
9457
330
1E
100
AcDbEntity
  8
10
  6
CONTINUOUS
100
AcDbLine
 10
36.5
 20
-26.0
 30
0.0
 11
44.5
 21
-26.0
 31
0.0
  0
LINE
  5
9458
330
1E
100
AcDbEntity
  8
10
  6
CONTINUOUS
100
AcDbLine
 10
36.5
 20
-29.0
 30
0.0
 11
44.5
 21
-29.0
 31
0.0
  0
LINE
  5
9459
330
1E
100
AcDbEntity
  8
10
  6
CONTINUOUS
100
AcDbLine
 10
36.5
 20
-24.0
 30
0.0
 11
44.5
 21
-24.0
 31
0.0
  0
LINE
  5
945A
330
1E
100
AcDbEntity
  8
10
  6
CONTINUOUS
100
AcDbLine
 10
36.5
 20
-26.0
 30
0.0
 11
36.5
 21
-29.0
 31
0.0
  0
LINE
  5
945B
330
1E
100
AcDbEntity
  8
10
  6
CONTINUOUS
100
AcDbLine
 10
36.5
 20
-21.0
 30
0.0
 11
36.5
 21
-24.0
 31
0.0
  0
LINE
  5
945C
330
1E
100
AcDbEntity
  8
10
  6
CONTINUOUS
100
AcDbLine
 10
44.5
 20
-26.0
 30
0.0
 11
44.5
 21
-29.0
 31
0.0
  0
LINE
  5
945D
330
1E
100
AcDbEntity
  8
10
  6
CONTINUOUS
100
AcDbLine
 10
44.5
 20
-21.0
 30
0.0
 11
44.5
 21
-24.0
 31
0.0
  0
CIRCLE
  5
945E
330
1E
100
AcDbEntity
  8
10
  6
CONTINUOUS
100
AcDbCircle
 10
40.49999999999999
 20
8.0
 30
0.0
 40
3.5
  0
CIRCLE
  5
945F
330
1E
100
AcDbEntity
  8
10
  6
CONTINUOUS
100
AcDbCircle
 10
40.49999999999999
 20
8.0
 30
0.0
 40
5.0
  0
CIRCLE
  5
9460
330
1E
100
AcDbEntity
  8
10
  6
CONTINUOUS
100
AcDbCircle
 10
40.49999999999999
 20
-7.0
 30
0.0
 40
3.5
  0
CIRCLE
  5
9461
330
1E
100
AcDbEntity
  8
10
  6
CONTINUOUS
100
AcDbCircle
 10
40.94999999999993
 20
20.0
 30
0.0
 40
1.5
  0
LINE
  5
9462
330
1E
100
AcDbEntity
  8
18
100
AcDbLine
 10
72.0
 20
-51.0
 30
0.0
 11
72.0
 21
-141.0
 31
0.0
  0
LINE
  5
9463
330
1E
100
AcDbEntity
  8
18
100
AcDbLine
 10
69.0
 20
-51.0
 30
0.0
 11
69.0
 21
-141.0
 31
0.0
  0
LINE
  5
9464
330
1E
100
AcDbEntity
  8
18
100
AcDbLine
 10
77.0
 20
-51.0
 30
0.0
 11
77.0
 21
-141.0
 31
0.0
  0
LINE
  5
9465
330
1E
100
AcDbEntity
  8
18
100
AcDbLine
 10
61.0
 20
-51.0
 30
0.0
 11
61.0
 21
-141.0
 31
0.0
  0
LINE
  5
9466
330
1E
100
AcDbEntity
  8
18
100
AcDbLine
 10
56.0
 20
-51.0
 30
0.0
 11
56.0
 21
-141.0
 31
0.0
  0
LINE
  5
9467
330
1E
100
AcDbEntity
  8
18
100
AcDbLine
 10
64.0
 20
-51.0
 30
0.0
 11
64.0
 21
-141.0
 31
0.0
  0
LINE
  5
9468
330
1E
100
AcDbEntity
  8
18
100
AcDbLine
 10
56.0
 20
-161.0000000000001
 30
0.0
 11
56.0
 21
-171.0
 31
0.0
  0
LINE
  5
9469
330
1E
100
AcDbEntity
  8
18
100
AcDbLine
 10
69.0
 20
-161.0000000000001
 30
0.0
 11
69.0
 21
-171.0
 31
0.0
  0
LINE
  5
946A
330
1E
100
AcDbEntity
  8
18
100
AcDbLine
 10
72.0
 20
-161.0000000000001
 30
0.0
 11
72.0
 21
-171.0
 31
0.0
  0
LINE
  5
946B
330
1E
100
AcDbEntity
  8
18
100
AcDbLine
 10
64.0
 20
-161.0000000000001
 30
0.0
 11
64.0
 21
-171.0
 31
0.0
  0
LINE
  5
946C
330
1E
100
AcDbEntity
  8
18
100
AcDbLine
 10
61.0
 20
-161.0000000000001
 30
0.0
 11
61.0
 21
-171.0
 31
0.0
  0
LINE
  5
946D
330
1E
100
AcDbEntity
  8
18
100
AcDbLine
 10
77.0
 20
-161.0000000000001
 30
0.0
 11
77.0
 21
-171.0
 31
0.0
  0
LINE
  5
946E
330
1E
100
AcDbEntity
  8
18
100
AcDbLine
 10
64.0
 20
-171.0
 30
0.0
 11
69.0
 21
-171.0
 31
0.0
  0
LINE
  5
946F
330
1E
100
AcDbEntity
  8
18
100
AcDbLine
 10
65.0
 20
-181.0
 30
0.0
 11
68.0
 21
-181.0
 31
0.0
  0
LINE
  5
9470
330
1E
100
AcDbEntity
  8
18
100
AcDbLine
 10
56.0
 20
-171.0
 30
0.0
 11
61.0
 21
-171.0
 31
0.0
  0
LINE
  5
9471
330
1E
100
AcDbEntity
  8
18
100
AcDbLine
 10
57.0
 20
-181.0
 30
0.0
 11
60.0
 21
-181.0
 31
0.0
  0
LINE
  5
9472
330
1E
100
AcDbEntity
  8
18
100
AcDbLine
 10
57.0
 20
-171.0
 30
0.0
 11
57.0
 21
-181.0
 31
0.0
  0
LINE
  5
9473
330
1E
100
AcDbEntity
  8
18
100
AcDbLine
 10
60.0
 20
-171.0
 30
0.0
 11
60.0
 21
-181.0
 31
0.0
  0
LINE
  5
9474
330
1E
100
AcDbEntity
  8
18
100
AcDbLine
 10
65.0
 20
-171.0
 30
0.0
 11
65.0
 21
-181.0
 31
0.0
  0
LINE
  5
9475
330
1E
100
AcDbEntity
  8
18
100
AcDbLine
 10
73.0
 20
-181.0
 30
0.0
 11
76.0
 21
-181.0
 31
0.0
  0
LINE
  5
9476
330
1E
100
AcDbEntity
  8
18
100
AcDbLine
 10
72.0
 20
-171.0
 30
0.0
 11
77.0
 21
-171.0
 31
0.0
  0
LINE
  5
9477
330
1E
100
AcDbEntity
  8
18
100
AcDbLine
 10
73.0
 20
-171.0
 30
0.0
 11
73.0
 21
-181.0
 31
0.0
  0
LINE
  5
9478
330
1E
100
AcDbEntity
  8
18
100
AcDbLine
 10
68.0
 20
-171.0
 30
0.0
 11
68.0
 21
-181.0
 31
0.0
  0
LINE
  5
9479
330
1E
100
AcDbEntity
  8
18
100
AcDbLine
 10
76.0
 20
-171.0
 30
0.0
 11
76.0
 21
-181.0
 31
0.0
  0
LINE
  5
947A
330
1E
100
AcDbEntity
  8
18
100
AcDbLine
 10
54.5000000000001
 20
-141.0
 30
0.0
 11
78.5000000000002
 21
-141.0
 31
0.0
  0
LINE
  5
947B
330
1E
100
AcDbEntity
  8
18
100
AcDbLine
 10
54.5000000000001
 20
-161.0000000000001
 30
0.0
 11
78.5000000000002
 21
-161.0000000000001
 31
0.0
  0
LINE
  5
947C
330
1E
100
AcDbEntity
  8
18
100
AcDbLine
 10
54.5
 20
-141.0
 30
0.0
 11
54.5
 21
-161.0000000000001
 31
0.0
  0
LINE
  5
947D
330
1E
100
AcDbEntity
  8
18
100
AcDbLine
 10
62.5
 20
-141.0
 30
0.0
 11
62.5
 21
-161.0000000000001
 31
0.0
  0
LINE
  5
947E
330
1E
100
AcDbEntity
  8
18
100
AcDbLine
 10
70.5
 20
-141.0
 30
0.0
 11
70.5
 21
-161.0000000000001
 31
0.0
  0
LINE
  5
947F
330
1E
100
AcDbEntity
  8
18
100
AcDbLine
 10
78.5
 20
-141.0
 30
0.0
 11
78.5
 21
-161.0000000000001
 31
0.0
  0
VIEWPORT
  5
9AC
330
1A
100
AcDbEntity
 67
     1
  8
0
  6
CONTINUOUS
100
AcDbViewport
 10
171.999535
 20
144.1384739999999
 30
0.0
 40
488.867686
 41
292.351491
 68
    -1
 69
     1
1001
ACAD
1000
MVIEW
1002
{
1070
    16
1010
0.0
1020
0.0
1030
0.0
1010
0.0
1020
0.0
1030
1.0
1040
0.0
1040
292.351491
1040
171.999535
1040
144.1384739999999
1040
50.0
1040
0.0
1040
0.0
1070
     0
1070
   100
1070
     1
1070
     1
1070
     0
1070
     0
1070
     0
1070
     0
1040
0.0
1040
0.0
1040
0.0
1040
10.0
1040
10.0
1040
10.0
1040
10.0
1070
     0
1002
{
1002
}
1002
}
  0
ENDSEC
  0
SECTION
  2
OBJECTS
  0
DICTIONARY
  5
C
330
0
100
AcDbDictionary
  3
ACAD_GROUP
350
D
  3
ACAD_LAYOUT
350
19
  3
ACAD_MLINESTYLE
350
16
  3
ACAD_PLOTSETTINGS
350
18
  3
ACAD_PLOTSTYLENAME
350
E
  3
ACADDIM
350
6D5E
  3
ACDBHEADERROUNDTRIPXREC
350
9526
  3
ACDBVARIABLEDICTIONARY
350
5697
  0
DICTIONARY
  5
178
330
1E
100
AcDbDictionary
280
     1
  3
ACAD_LAYOUTSELFREF
360
9548
  0
DICTIONARY
  5
17A
330
1A
100
AcDbDictionary
280
     1
  3
ACAD_LAYOUTSELFREF
360
9547
  0
DICTIONARY
  5
D
102
{ACAD_REACTORS
330
C
102
}
330
C
100
AcDbDictionary
  0
DICTIONARY
  5
19
102
{ACAD_REACTORS
330
C
102
}
330
C
100
AcDbDictionary
  0
DICTIONARY
  5
16
102
{ACAD_REACTORS
330
C
102
}
330
C
100
AcDbDictionary
  3
STANDARD
350
17
  0
DICTIONARY
  5
18
102
{ACAD_REACTORS
330
C
102
}
330
C
100
AcDbDictionary
  0
ACDBDICTIONARYWDFLT
  5
E
102
{ACAD_REACTORS
330
C
102
}
330
C
100
AcDbDictionary
281
     1
  3
Normal
350
F
100
AcDbDictionaryWithDefault
340
F
  0
XRECORD
  5
6D5E
102
{ACAD_REACTORS
330
C
102
}
330
C
100
AcDbXrecord
 90
   990106
  3

 60
     0
 61
     0
 62
     1
 63
     3
 64
     0
 65
     0
 66
     0
 67
     3
 68
     1
 69
     0
 70
     0
 71
     0
 72
     0
 40
0.0
170
     0
340
7CA9
  0
DICTIONARY
  5
9526
102
{ACAD_REACTORS
330
C
102
}
330
C
100
AcDbDictionary
  3
CEPSNTYPE
350
9530
  3
DIMSTYLEDATA
350
9534
  3
FINGERPRINTGUID
350
9531
  3
HYPERLINKBASE
350
9529
  3
INSUNITS
350
952F
  3
LAYOUTDICT
350
952B
  3
LWETCUNION
350
952E
  3
PLOTSETDICT
350
952C
  3
PLOTSTYLNAMDICT
350
952D
  3
PSVPSCALE
350
9533
  3
PUCSBASE
350
9537
  3
PUCSORGBACK
350
953D
  3
PUCSORGBOTTOM
350
9539
  3
PUCSORGFRONT
350
953C
  3
PUCSORGLEFT
350
953A
  3
PUCSORGRIGHT
350
953B
  3
PUCSORGTOP
350
9538
  3
PUCSORTHOREF
350
9535
  3
PUCSORTHOVIEW
350
9536
  3
STYLESHEET
350
952A
  3
TSTACKALIGN
350
9527
  3
TSTACKSIZE
350
9528
  3
UCSBASE
350
9540
  3
UCSORGBACK
350
9546
  3
UCSORGBOTTOM
350
9542
  3
UCSORGFRONT
350
9545
  3
UCSORGLEFT
350
9543
  3
UCSORGRIGHT
350
9544
  3
UCSORGTOP
350
9541
  3
UCSORTHOREF
350
953E
  3
UCSORTHOVIEW
350
953F
  3
VERSIONGUID
350
9532
  0
DICTIONARY
  5
5697
102
{ACAD_REACTORS
330
C
102
}
330
C
100
AcDbDictionary
  3
DIMASSOC
350
5698
  0
XRECORD
  5
9548
102
{ACAD_REACTORS
330
178
102
}
330
178
100
AcDbXrecord
340
1E
  0
XRECORD
  5
9547
102
{ACAD_REACTORS
330
17A
102
}
330
17A
100
AcDbXrecord
340
1A
  0
MLINESTYLE
  5
17
102
{ACAD_REACTORS
330
16
102
}
330
16
100
AcDbMlineStyle
  2
STANDARD
 70
     0
  3

 62
   256
 51
90.0
 52
90.0
 71
     2
 49
0.5
 62
   256
  6
BYLAYER
 49
-0.5
 62
   256
  6
BYLAYER
  0
ACDBPLACEHOLDER
  5
F
102
{ACAD_REACTORS
330
E
102
}
330
E
100
AcDbPlaceHolder
280
     0
  0
XRECORD
  5
9530
102
{ACAD_REACTORS
330
9526
102
}
330
9526
100
AcDbXrecord
 90
        0
  0
XRECORD
  5
9534
102
{ACAD_REACTORS
330
9526
102
}
330
9526
100
AcDbXrecord
1000
DSTYLE
1002
{
1070
    79
 70
     3
1070
   341
340
3B2
1070
   342
340
3B2
1002
}
  0
XRECORD
  5
9531
102
{ACAD_REACTORS
330
9526
102
}
330
9526
100
AcDbXrecord
  1

  0
XRECORD
  5
9529
102
{ACAD_REACTORS
330
9526
102
}
330
9526
100
AcDbXrecord
  1

  0
XRECORD
  5
952F
102
{ACAD_REACTORS
330
9526
102
}
330
9526
100
AcDbXrecord
 90
        0
  0
XRECORD
  5
952B
102
{ACAD_REACTORS
330
9526
102
}
330
9526
100
AcDbXrecord
340
19
  0
XRECORD
  5
952E
102
{ACAD_REACTORS
330
9526
102
}
330
9526
100
AcDbXrecord
 90
    10781
  0
XRECORD
  5
952C
102
{ACAD_REACTORS
330
9526
102
}
330
9526
100
AcDbXrecord
340
18
  0
XRECORD
  5
952D
102
{ACAD_REACTORS
330
9526
102
}
330
9526
100
AcDbXrecord
340
E
  0
XRECORD
  5
9533
102
{ACAD_REACTORS
330
9526
102
}
330
9526
100
AcDbXrecord
 40
0.0
  0
XRECORD
  5
9537
102
{ACAD_REACTORS
330
9526
102
}
330
9526
100
AcDbXrecord
340
0
  0
XRECORD
  5
953D
102
{ACAD_REACTORS
330
9526
102
}
330
9526
100
AcDbXrecord
 10
0.0
 20
0.0
 30
0.0
  0
XRECORD
  5
9539
102
{ACAD_REACTORS
330
9526
102
}
330
9526
100
AcDbXrecord
 10
0.0
 20
0.0
 30
0.0
  0
XRECORD
  5
953C
102
{ACAD_REACTORS
330
9526
102
}
330
9526
100
AcDbXrecord
 10
0.0
 20
0.0
 30
0.0
  0
XRECORD
  5
953A
102
{ACAD_REACTORS
330
9526
102
}
330
9526
100
AcDbXrecord
 10
0.0
 20
0.0
 30
0.0
  0
XRECORD
  5
953B
102
{ACAD_REACTORS
330
9526
102
}
330
9526
100
AcDbXrecord
 10
0.0
 20
0.0
 30
0.0
  0
XRECORD
  5
9538
102
{ACAD_REACTORS
330
9526
102
}
330
9526
100
AcDbXrecord
 10
0.0
 20
0.0
 30
0.0
  0
XRECORD
  5
9535
102
{ACAD_REACTORS
330
9526
102
}
330
9526
100
AcDbXrecord
340
0
  0
XRECORD
  5
9536
102
{ACAD_REACTORS
330
9526
102
}
330
9526
100
AcDbXrecord
 70
     0
  0
XRECORD
  5
952A
102
{ACAD_REACTORS
330
9526
102
}
330
9526
100
AcDbXrecord
  1
monochrome.ctb
  0
XRECORD
  5
9527
102
{ACAD_REACTORS
330
9526
102
}
330
9526
100
AcDbXrecord
 90
        1
  0
XRECORD
  5
9528
102
{ACAD_REACTORS
330
9526
102
}
330
9526
100
AcDbXrecord
 90
       70
  0
XRECORD
  5
9540
102
{ACAD_REACTORS
330
9526
102
}
330
9526
100
AcDbXrecord
340
0
  0
XRECORD
  5
9546
102
{ACAD_REACTORS
330
9526
102
}
330
9526
100
AcDbXrecord
 10
0.0
 20
0.0
 30
0.0
  0
XRECORD
  5
9542
102
{ACAD_REACTORS
330
9526
102
}
330
9526
100
AcDbXrecord
 10
0.0
 20
0.0
 30
0.0
  0
XRECORD
  5
9545
102
{ACAD_REACTORS
330
9526
102
}
330
9526
100
AcDbXrecord
 10
0.0
 20
0.0
 30
0.0
  0
XRECORD
  5
9543
102
{ACAD_REACTORS
330
9526
102
}
330
9526
100
AcDbXrecord
 10
0.0
 20
0.0
 30
0.0
  0
XRECORD
  5
9544
102
{ACAD_REACTORS
330
9526
102
}
330
9526
100
AcDbXrecord
 10
0.0
 20
0.0
 30
0.0
  0
XRECORD
  5
9541
102
{ACAD_REACTORS
330
9526
102
}
330
9526
100
AcDbXrecord
 10
0.0
 20
0.0
 30
0.0
  0
XRECORD
  5
953E
102
{ACAD_REACTORS
330
9526
102
}
330
9526
100
AcDbXrecord
340
0
  0
XRECORD
  5
953F
102
{ACAD_REACTORS
330
9526
102
}
330
9526
100
AcDbXrecord
 70
     0
  0
XRECORD
  5
9532
102
{ACAD_REACTORS
330
9526
102
}
330
9526
100
AcDbXrecord
  1
{08C61A44-7DDE-43C7-B6BF-0CB9EF5908C8}
  0
DICTIONARYVAR
  5
5698
102
{ACAD_REACTORS
330
5697
102
}
330
5697
100
DictionaryVariables
280
     0
  1
1
  0
ENDSEC
  0
EOF
