  0
SECTION
  2
HEADER
  9
$ACADVER
  1
AC1015
  9
$ACADMAINTVER
 70
    20
  9
$DWGCODEPAGE
  3
ANSI_932
  9
$INSBASE
 10
0.0
 20
0.0
 30
0.0
  9
$EXTMIN
 10
-172.5179035351714
 20
-377.5163681745015
 30
0.0
  9
$EXTMAX
 10
442.2518178735189
 20
348.0
 30
0.0
  9
$LIMMIN
 10
-296.316999476111
 20
-370.7034300441653
  9
$LIMMAX
 10
623.3128432133979
 20
328.6261559379898
  9
$ORTHOMODE
 70
     1
  9
$REGENMODE
 70
     1
  9
$FILLMODE
 70
     1
  9
$QTEXTMODE
 70
     0
  9
$MIRRTEXT
 70
     1
  9
$LTSCALE
 40
10.0
  9
$ATTMODE
 70
     1
  9
$TEXTSIZE
 40
5.0
  9
$TRACEWID
 40
0.05
  9
$TEXTSTYLE
  7
STANDARD1
  9
$CLAYER
  8
30
  9
$CELTYPE
  6
CONTINUOUS
  9
$CECOLOR
 62
   256
  9
$CELTSCALE
 40
1.0
  9
$DISPSILH
 70
     0
  9
$DIMSCALE
 40
1.0
  9
$DIMASZ
 40
2.0
  9
$DIMEXO
 40
1.0
  9
$DIMDLI
 40
0.5
  9
$DIMRND
 40
0.0
  9
$DIMDLE
 40
0.0
  9
$DIMEXE
 40
0.5
  9
$DIMTP
 40
0.0
  9
$DIMTM
 40
0.0
  9
$DIMTXT
 40
4.0
  9
$DIMCEN
 40
0.09
  9
$DIMTSZ
 40
0.0
  9
$DIMTOL
 70
     0
  9
$DIMLIM
 70
     0
  9
$DIMTIH
 70
     0
  9
$DIMTOH
 70
     1
  9
$DIMSE1
 70
     0
  9
$DIMSE2
 70
     0
  9
$DIMTAD
 70
     3
  9
$DIMZIN
 70
    12
  9
$DIMBLK
  1
OPEN
  9
$DIMASO
 70
     1
  9
$DIMSHO
 70
     1
  9
$DIMPOST
  1

  9
$DIMAPOST
  1

  9
$DIMALT
 70
     0
  9
$DIMALTD
 70
     2
  9
$DIMALTF
 40
25.4
  9
$DIMLFAC
 40
1.0
  9
$DIMTOFL
 70
     0
  9
$DIMTVP
 40
0.0
  9
$DIMTIX
 70
     0
  9
$DIMSOXD
 70
     0
  9
$DIMSAH
 70
     0
  9
$DIMBLK1
  1

  9
$DIMBLK2
  1

  9
$DIMSTYLE
  2
STANDARD
  9
$DIMCLRD
 70
     0
  9
$DIMCLRE
 70
     0
  9
$DIMCLRT
 70
     0
  9
$DIMTFAC
 40
1.0
  9
$DIMGAP
 40
1.0
  9
$DIMJUST
 70
     0
  9
$DIMSD1
 70
     0
  9
$DIMSD2
 70
     0
  9
$DIMTOLJ
 70
     1
  9
$DIMTZIN
 70
     0
  9
$DIMALTZ
 70
     0
  9
$DIMALTTZ
 70
     0
  9
$DIMUPT
 70
     0
  9
$DIMDEC
 70
     1
  9
$DIMTDEC
 70
     1
  9
$DIMALTU
 70
     2
  9
$DIMALTTD
 70
     2
  9
$DIMTXSTY
  7
STANDARD
  9
$DIMAUNIT
 70
     0
  9
$DIMADEC
 70
     0
  9
$DIMALTRND
 40
0.0
  9
$DIMAZIN
 70
     3
  9
$DIMDSEP
 70
    46
  9
$DIMATFIT
 70
     3
  9
$DIMFRAC
 70
     0
  9
$DIMLDRBLK
  1
OPEN
  9
$DIMLUNIT
 70
     2
  9
$DIMLWD
 70
    -2
  9
$DIMLWE
 70
    -2
  9
$DIMTMOVE
 70
     0
  9
$LUNITS
 70
     2
  9
$LUPREC
 70
     4
  9
$SKETCHINC
 40
0.1
  9
$FILLETRAD
 40
0.0
  9
$AUNITS
 70
     0
  9
$AUPREC
 70
     0
  9
$MENU
  1
.
  9
$ELEVATION
 40
0.0
  9
$PELEVATION
 40
0.0
  9
$THICKNESS
 40
0.0
  9
$LIMCHECK
 70
     0
  9
$CHAMFERA
 40
0.0
  9
$CHAMFERB
 40
0.0
  9
$CHAMFERC
 40
0.0
  9
$CHAMFERD
 40
0.0
  9
$SKPOLY
 70
     0
  9
$TDCREATE
 40
2452286.555658658
  9
$TDUCREATE
 40
2452286.180658658
  9
$TDUPDATE
 40
2457450.503441528
  9
$TDUUPDATE
 40
2457450.128441528
  9
$TDINDWG
 40
1.2166125926
  9
$TDUSRTIMER
 40
1.2166115972
  9
$USRTIMER
 70
     1
  9
$ANGBASE
 50
0.0
  9
$ANGDIR
 70
     0
  9
$PDMODE
 70
     0
  9
$PDSIZE
 40
0.0
  9
$PLINEWID
 40
0.0
  9
$SPLFRAME
 70
     0
  9
$SPLINETYPE
 70
     6
  9
$SPLINESEGS
 70
     8
  9
$HANDSEED
  5
68A9
  9
$SURFTAB1
 70
     6
  9
$SURFTAB2
 70
     6
  9
$SURFTYPE
 70
     6
  9
$SURFU
 70
     6
  9
$SURFV
 70
     6
  9
$UCSBASE
  2

  9
$UCSNAME
  2

  9
$UCSORG
 10
0.0
 20
0.0
 30
0.0
  9
$UCSXDIR
 10
1.0
 20
0.0
 30
0.0
  9
$UCSYDIR
 10
0.0
 20
1.0
 30
0.0
  9
$UCSORTHOREF
  2

  9
$UCSORTHOVIEW
 70
     0
  9
$UCSORGTOP
 10
0.0
 20
0.0
 30
0.0
  9
$UCSORGBOTTOM
 10
0.0
 20
0.0
 30
0.0
  9
$UCSORGLEFT
 10
0.0
 20
0.0
 30
0.0
  9
$UCSORGRIGHT
 10
0.0
 20
0.0
 30
0.0
  9
$UCSORGFRONT
 10
0.0
 20
0.0
 30
0.0
  9
$UCSORGBACK
 10
0.0
 20
0.0
 30
0.0
  9
$PUCSBASE
  2

  9
$PUCSNAME
  2

  9
$PUCSORG
 10
0.0
 20
0.0
 30
0.0
  9
$PUCSXDIR
 10
1.0
 20
0.0
 30
0.0
  9
$PUCSYDIR
 10
0.0
 20
1.0
 30
0.0
  9
$PUCSORTHOREF
  2

  9
$PUCSORTHOVIEW
 70
     0
  9
$PUCSORGTOP
 10
0.0
 20
0.0
 30
0.0
  9
$PUCSORGBOTTOM
 10
0.0
 20
0.0
 30
0.0
  9
$PUCSORGLEFT
 10
0.0
 20
0.0
 30
0.0
  9
$PUCSORGRIGHT
 10
0.0
 20
0.0
 30
0.0
  9
$PUCSORGFRONT
 10
0.0
 20
0.0
 30
0.0
  9
$PUCSORGBACK
 10
0.0
 20
0.0
 30
0.0
  9
$USERI1
 70
     0
  9
$USERI2
 70
     0
  9
$USERI3
 70
     0
  9
$USERI4
 70
     0
  9
$USERI5
 70
     0
  9
$USERR1
 40
0.0
  9
$USERR2
 40
0.0
  9
$USERR3
 40
0.0
  9
$USERR4
 40
0.0
  9
$USERR5
 40
0.0
  9
$WORLDVIEW
 70
     1
  9
$SHADEDGE
 70
     3
  9
$SHADEDIF
 70
    70
  9
$TILEMODE
 70
     1
  9
$MAXACTVP
 70
    48
  9
$PINSBASE
 10
0.0
 20
0.0
 30
0.0
  9
$PLIMCHECK
 70
     0
  9
$PEXTMIN
 10
4.273573
 20
5.205245999999998
 30
0.0
  9
$PEXTMAX
 10
194.610095
 20
283.0697009999996
 30
0.0
  9
$PLIMMIN
 10
-5.873749
 20
-5.87375
  9
$PLIMMAX
 10
204.099579
 20
291.1369009999999
  9
$UNITMODE
 70
     0
  9
$VISRETAIN
 70
     1
  9
$PLINEGEN
 70
     0
  9
$PSLTSCALE
 70
     1
  9
$TREEDEPTH
 70
  3020
  9
$CMLSTYLE
  2
STANDARD
  9
$CMLJUST
 70
     0
  9
$CMLSCALE
 40
1.0
  9
$PROXYGRAPHICS
 70
     1
  9
$MEASUREMENT
 70
     0
  9
$CELWEIGHT
370
    -1
  9
$ENDCAPS
280
     0
  9
$JOINSTYLE
280
     0
  9
$LWDISPLAY
290
     0
  9
$INSUNITS
 70
     0
  9
$HYPERLINKBASE
  1

  9
$STYLESHEET
  1
KIKI.CTB
  9
$XEDIT
290
     1
  9
$CEPSNTYPE
380
     0
  9
$PSTYLEMODE
290
     1
  9
$FINGERPRINTGUID
  2

  9
$VERSIONGUID
  2
{616B038C-40BD-4B3A-AEB6-1142C2161D07}
  9
$EXTNAMES
290
     1
  9
$PSVPSCALE
 40
0.0
  9
$OLESTARTUP
290
     0
  0
ENDSEC
  0
SECTION
  2
CLASSES
  0
CLASS
  1
ACDBDICTIONARYWDFLT
  2
AcDbDictionaryWithDefault
  3
ObjectDBX Classes
 90
        0
280
     0
281
     0
  0
CLASS
  1
DICTIONARYVAR
  2
AcDbDictionaryVar
  3
ObjectDBX Classes
 90
        0
280
     0
281
     0
  0
CLASS
  1
MATERIAL
  2
AcDbMaterial
  3
ObjectDBX Classes
 90
     1153
280
     0
281
     0
  0
CLASS
  1
VISUALSTYLE
  2
AcDbVisualStyle
  3
ObjectDBX Classes
 90
     4095
280
     0
281
     0
  0
CLASS
  1
TABLESTYLE
  2
AcDbTableStyle
  3
ObjectDBX Classes
 90
     4095
280
     0
281
     0
  0
CLASS
  1
SCALE
  2
AcDbScale
  3
ObjectDBX Classes
 90
     1153
280
     0
281
     0
  0
CLASS
  1
MLEADERSTYLE
  2
AcDbMLeaderStyle
  3
ACDB_MLEADERSTYLE_CLASS
 90
     4095
280
     0
281
     0
  0
CLASS
  1
CELLSTYLEMAP
  2
AcDbCellStyleMap
  3
ObjectDBX Classes
 90
     1152
280
     0
281
     0
  0
CLASS
  1
ACDBSECTIONVIEWSTYLE
  2
AcDbSectionViewStyle
  3
ObjectDBX Classes
 90
     1025
280
     0
281
     0
  0
CLASS
  1
ACDBDETAILVIEWSTYLE
  2
AcDbDetailViewStyle
  3
ObjectDBX Classes
 90
     1025
280
     0
281
     0
  0
CLASS
  1
ACDBPLACEHOLDER
  2
AcDbPlaceHolder
  3
ObjectDBX Classes
 90
        0
280
     0
281
     0
  0
CLASS
  1
LAYOUT
  2
AcDbLayout
  3
ObjectDBX Classes
 90
        0
280
     0
281
     0
  0
ENDSEC
  0
SECTION
  2
TABLES
  0
TABLE
  2
VPORT
  5
8
330
0
100
AcDbSymbolTable
 70
     1
  0
VPORT
  5
63DF
330
8
100
AcDbSymbolTableRecord
100
AcDbViewportTableRecord
  2
*Active
 70
     0
 10
0.0
 20
0.0
 11
1.0
 21
1.0
 12
94.91065243364664
 22
112.6235790299923
 13
0.0
 23
0.0
 14
1.0
 24
1.0
 15
10.0
 25
10.0
 16
0.0
 26
0.0
 36
1.0
 17
0.0
 27
0.0
 37
0.0
 40
731.0378056303295
 41
1.091040462427745
 42
50.0
 43
0.0
 44
0.0
 50
0.0
 51
0.0
 71
     0
 72
   100
 73
     1
 74
     1
 75
     1
 76
     0
 77
     0
 78
     0
281
     0
 65
     1
110
0.0
120
0.0
130
0.0
111
1.0
121
0.0
131
0.0
112
0.0
122
1.0
132
0.0
 79
     0
146
0.0
1001
ACAD_NAV_VCDISPLAY
1070
     3
  0
ENDTAB
  0
TABLE
  2
LTYPE
  5
5
330
0
100
AcDbSymbolTable
 70
     7
  0
LTYPE
  5
13
330
5
100
AcDbSymbolTableRecord
100
AcDbLinetypeTableRecord
  2
BYBLOCK
 70
     0
  3

 72
    65
 73
     0
 40
0.0
  0
LTYPE
  5
14
330
5
100
AcDbSymbolTableRecord
100
AcDbLinetypeTableRecord
  2
BYLAYER
 70
     0
  3

 72
    65
 73
     0
 40
0.0
  0
LTYPE
  5
15
330
5
100
AcDbSymbolTableRecord
100
AcDbLinetypeTableRecord
  2
CONTINUOUS
 70
     0
  3
Solid line
 72
    65
 73
     0
 40
0.0
  0
LTYPE
  5
22
330
5
100
AcDbSymbolTableRecord
100
AcDbLinetypeTableRecord
  2
CONTINOUS
 70
     0
  3
Solid line
 72
    65
 73
     0
 40
0.0
  0
LTYPE
  5
23
330
5
100
AcDbSymbolTableRecord
100
AcDbLinetypeTableRecord
  2
DASHED
 70
     0
  3
__ __ __ __ __ __ __ __ __ __ __ __ __ __ __
 72
    65
 73
     2
 40
0.75
 49
0.5
 74
     0
 49
-0.25
 74
     0
  0
LTYPE
  5
24
330
5
100
AcDbSymbolTableRecord
100
AcDbLinetypeTableRecord
  2
DASHDOT
 70
     0
  3
__ . __ . __ . __ . __ . __ . __ . __ . __ . __
 72
    65
 73
     4
 40
1.0
 49
0.5
 74
     0
 49
-0.25
 74
     0
 49
0.0
 74
     0
 49
-0.25
 74
     0
  0
LTYPE
  5
4C47
330
5
100
AcDbSymbolTableRecord
100
AcDbLinetypeTableRecord
  2
DIVIDE
 70
     0
  3
Divide ____ . . ____ . . ____ . . ____ . . ____
 72
    65
 73
     6
 40
1.25
 49
0.5
 74
     0
 49
-0.25
 74
     0
 49
0.0
 74
     0
 49
-0.25
 74
     0
 49
0.0
 74
     0
 49
-0.25
 74
     0
  0
LTYPE
  5
5115
330
5
100
AcDbSymbolTableRecord
100
AcDbLinetypeTableRecord
  2
PHANTOM
 70
     0
  3
_____ _ _ _____ _ _ _____ _ _ _____ _ _ ____
 72
    65
 73
     6
 40
2.5
 49
1.25
 74
     0
 49
-0.25
 74
     0
 49
0.25
 74
     0
 49
-0.25
 74
     0
 49
0.25
 74
     0
 49
-0.25
 74
     0
  0
ENDTAB
  0
TABLE
  2
LAYER
  5
2
330
0
100
AcDbSymbolTable
 70
    13
  0
LAYER
  5
10
102
{ACAD_XDICTIONARY
360
6443
102
}
330
2
100
AcDbSymbolTableRecord
100
AcDbLayerTableRecord
  2
0
 70
     0
 62
     7
  6
CONTINOUS
370
    -3
390
F
  0
LAYER
  5
2F
102
{ACAD_XDICTIONARY
360
6445
102
}
330
2
100
AcDbSymbolTableRecord
100
AcDbLayerTableRecord
  2
10
 70
     0
 62
     4
  6
CONTINOUS
370
    -3
390
F
  0
LAYER
  5
31
102
{ACAD_XDICTIONARY
360
6447
102
}
330
2
100
AcDbSymbolTableRecord
100
AcDbLayerTableRecord
  2
12
 70
     0
 62
     3
  6
CONTINOUS
370
    -3
390
F
  0
LAYER
  5
35
102
{ACAD_XDICTIONARY
360
6449
102
}
330
2
100
AcDbSymbolTableRecord
100
AcDbLayerTableRecord
  2
16
 70
     0
 62
     6
  6
DASHDOT
370
    -3
390
F
  0
LAYER
  5
38
102
{ACAD_XDICTIONARY
360
644B
102
}
330
2
100
AcDbSymbolTableRecord
100
AcDbLayerTableRecord
  2
19
 70
     0
 62
     7
  6
CONTINOUS
370
    -3
390
F
  0
LAYER
  5
3C
102
{ACAD_XDICTIONARY
360
644D
102
}
330
2
100
AcDbSymbolTableRecord
100
AcDbLayerTableRecord
  2
11
 70
     0
 62
     1
  6
CONTINOUS
370
    -3
390
F
  0
LAYER
  5
3D
102
{ACAD_XDICTIONARY
360
644F
102
}
330
2
100
AcDbSymbolTableRecord
100
AcDbLayerTableRecord
  2
24
 70
     0
 62
     2
  6
CONTINOUS
370
    -3
390
F
  0
LAYER
  5
3A2
102
{ACAD_XDICTIONARY
360
6451
102
}
330
2
100
AcDbSymbolTableRecord
100
AcDbLayerTableRecord
  2
30
 70
     0
 62
     9
  6
CONTINUOUS
370
    -3
390
F
  0
LAYER
  5
3A4
330
2
100
AcDbSymbolTableRecord
100
AcDbLayerTableRecord
  2
DEFPOINTS
 70
     0
 62
     7
  6
CONTINUOUS
290
     0
370
    -3
390
F
  0
LAYER
  5
3BBA
102
{ACAD_XDICTIONARY
360
6453
102
}
330
2
100
AcDbSymbolTableRecord
100
AcDbLayerTableRecord
  2
18
 70
     0
 62
     5
  6
DIVIDE
370
    -3
390
F
  0
LAYER
  5
3BBB
102
{ACAD_XDICTIONARY
360
6455
102
}
330
2
100
AcDbSymbolTableRecord
100
AcDbLayerTableRecord
  2
21
 70
     0
 62
     7
  6
CONTINUOUS
370
    -3
390
F
  0
LAYER
  5
5116
102
{ACAD_XDICTIONARY
360
6457
102
}
330
2
100
AcDbSymbolTableRecord
100
AcDbLayerTableRecord
  2
1
 70
     0
 62
     7
  6
CONTINUOUS
370
    -3
390
F
  0
LAYER
  5
5117
102
{ACAD_XDICTIONARY
360
6459
102
}
330
2
100
AcDbSymbolTableRecord
100
AcDbLayerTableRecord
  2
TOP
 70
     0
 62
     7
  6
CONTINUOUS
370
    -3
390
F
  0
ENDTAB
  0
TABLE
  2
STYLE
  5
3
330
0
100
AcDbSymbolTable
 70
     3
  0
STYLE
  5
11
330
3
100
AcDbSymbolTableRecord
100
AcDbTextStyleTableRecord
  2
STANDARD
 70
     0
 40
0.0
 41
1.0
 50
0.0
 71
     0
 42
2.0
  3
txt.shx
  4
bigfont.shx
  0
STYLE
  5
42
330
3
100
AcDbSymbolTableRecord
100
AcDbTextStyleTableRecord
  2
STANDARD1
 70
     0
 40
0.0
 41
1.0
 50
0.0
 71
     0
 42
5.0
  3
MONOTXT
  4
BIGFONT
  0
STYLE
  5
5016
330
3
100
AcDbSymbolTableRecord
100
AcDbTextStyleTableRecord
  2
UGMTXT
 70
     0
 40
0.0
 41
1.0
 50
0.0
 71
     0
 42
0.2
  3
ugmtxt
  4
bigfont
  0
ENDTAB
  0
TABLE
  2
VIEW
  5
6
330
0
100
AcDbSymbolTable
 70
     3
  0
VIEW
  5
230C
330
6
100
AcDbSymbolTableRecord
100
AcDbViewTableRecord
  2
OLE1
 70
     0
 40
148.912488
 10
429.497628
 20
2.560627
 41
103.145806
 11
0.0
 21
0.0
 31
1.0
 12
0.0
 22
0.0
 32
0.0
 42
50.0
 43
0.0
 44
0.0
 50
0.0
 71
     0
281
     0
 72
     0
  0
VIEW
  5
230E
330
6
100
AcDbSymbolTableRecord
100
AcDbViewTableRecord
  2
OLE2
 70
     0
 40
170.778692
 10
322.66497
 20
-5.978304
 41
102.467215
 11
0.0
 21
0.0
 31
1.0
 12
0.0
 22
0.0
 32
0.0
 42
50.0
 43
0.0
 44
0.0
 50
0.0
 71
     0
281
     0
 72
     0
  0
VIEW
  5
23AA
330
6
100
AcDbSymbolTableRecord
100
AcDbViewTableRecord
  2
OLE3
 70
     0
 40
591.7897389999998
 10
84.79698199999999
 20
-46.09335999999998
 41
388.792096
 11
0.0
 21
0.0
 31
1.0
 12
0.0
 22
0.0
 32
0.0
 42
50.0
 43
0.0
 44
0.0
 50
0.0
 71
     0
281
     0
 72
     0
  0
ENDTAB
  0
TABLE
  2
UCS
  5
7
330
0
100
AcDbSymbolTable
 70
     0
  0
ENDTAB
  0
TABLE
  2
APPID
  5
9
330
0
100
AcDbSymbolTable
 70
     6
  0
APPID
  5
12
330
9
100
AcDbSymbolTableRecord
100
AcDbRegAppTableRecord
  2
ACAD
 70
     0
  0
APPID
  5
ECD
330
9
100
AcDbSymbolTableRecord
100
AcDbRegAppTableRecord
  2
CONTENTBLOCKICON
 70
     0
  0
APPID
  5
643C
330
9
100
AcDbSymbolTableRecord
100
AcDbRegAppTableRecord
  2
ACAD_EXEMPT_FROM_CAD_STANDARDS
 70
     0
  0
APPID
  5
645D
330
9
100
AcDbSymbolTableRecord
100
AcDbRegAppTableRecord
  2
DCO15
 70
     0
  0
APPID
  5
649B
330
9
100
AcDbSymbolTableRecord
100
AcDbRegAppTableRecord
  2
ACAD_MLEADERVER
 70
     0
  0
APPID
  5
64BC
330
9
100
AcDbSymbolTableRecord
100
AcDbRegAppTableRecord
  2
ACAD_NAV_VCDISPLAY
 70
     0
  0
ENDTAB
  0
TABLE
  2
DIMSTYLE
  5
A
330
0
100
AcDbSymbolTable
 70
     2
100
AcDbDimStyleTable
 71
     1
340
175
  0
DIMSTYLE
105
175
102
{ACAD_REACTORS
330
57FE
330
5BDE
330
5C0F
330
5C1C
330
5C29
330
6226
330
6228
330
6661
330
661E
330
661F
330
6620
330
6621
330
6623
330
6625
330
663A
330
6644
102
}
330
A
100
AcDbSymbolTableRecord
100
AcDbDimStyleTableRecord
  2
STANDARD
 70
     0
 41
2.0
 42
1.0
 43
0.5
 44
0.5
 73
     0
 77
     3
 78
    12
140
4.0
147
1.0
271
     1
272
     1
340
11
341
3B2
342
3B2
  0
ENDTAB
  0
TABLE
  2
BLOCK_RECORD
  5
1
330
0
100
AcDbSymbolTable
 70
    45
  0
BLOCK_RECORD
  5
1E
102
{ACAD_XDICTIONARY
360
178
102
}
330
1
100
AcDbSymbolTableRecord
100
AcDbBlockTableRecord
  2
*MODEL_SPACE
340
63DA
  0
BLOCK_RECORD
  5
1A
102
{ACAD_XDICTIONARY
360
17A
102
}
330
1
100
AcDbSymbolTableRecord
100
AcDbBlockTableRecord
  2
*PAPER_SPACE
340
63DB
  0
BLOCK_RECORD
  5
3B2
330
1
100
AcDbSymbolTableRecord
100
AcDbBlockTableRecord
  2
_OPEN
340
0
102
{BLKREFS
331
6108
331
6109
331
60FF
331
6100
331
62C5
331
62C6
331
62E0
331
62E1
331
62D7
331
62D8
331
62E9
331
6076
331
6077
331
60D2
331
60D3
331
6149
331
614A
331
63CD
331
63CE
331
6271
331
6272
331
627A
331
627B
331
62CE
331
62CF
331
613E
331
613F
331
611A
331
611B
331
612C
331
612D
331
6135
331
6136
331
60B6
331
60B7
331
60AC
331
60AD
331
651B
331
651C
331
6527
331
6528
331
6533
331
6534
331
653F
331
6540
331
654C
331
654D
331
6721
331
6722
331
672A
331
672B
331
6733
331
6734
331
673C
331
673D
331
6745
331
6746
331
674F
331
6750
331
6758
331
6759
331
6761
331
6762
331
676A
331
676B
331
6558
331
6559
331
6564
331
6565
331
6570
331
6571
331
657C
331
657D
102
}
  0
BLOCK_RECORD
  5
5829
330
1
100
AcDbSymbolTableRecord
100
AcDbBlockTableRecord
  2
*D1
340
0
  0
BLOCK_RECORD
  5
584B
330
1
100
AcDbSymbolTableRecord
100
AcDbBlockTableRecord
  2
*U2
340
0
  0
BLOCK_RECORD
  5
59FC
330
1
100
AcDbSymbolTableRecord
100
AcDbBlockTableRecord
  2
*D3
340
0
  0
BLOCK_RECORD
  5
5A08
330
1
100
AcDbSymbolTableRecord
100
AcDbBlockTableRecord
  2
*D4
340
0
  0
BLOCK_RECORD
  5
5A14
330
1
100
AcDbSymbolTableRecord
100
AcDbBlockTableRecord
  2
*D5
340
0
  0
BLOCK_RECORD
  5
5A20
330
1
100
AcDbSymbolTableRecord
100
AcDbBlockTableRecord
  2
*D6
340
0
  0
BLOCK_RECORD
  5
5A38
330
1
100
AcDbSymbolTableRecord
100
AcDbBlockTableRecord
  2
*D7
340
0
  0
BLOCK_RECORD
  5
5A45
330
1
100
AcDbSymbolTableRecord
100
AcDbBlockTableRecord
  2
*D8
340
0
  0
BLOCK_RECORD
  5
5A51
330
1
100
AcDbSymbolTableRecord
100
AcDbBlockTableRecord
  2
*D9
340
0
  0
BLOCK_RECORD
  5
5A5D
330
1
100
AcDbSymbolTableRecord
100
AcDbBlockTableRecord
  2
*D10
340
0
  0
BLOCK_RECORD
  5
5BDF
330
1
100
AcDbSymbolTableRecord
100
AcDbBlockTableRecord
  2
*D11
340
0
  0
BLOCK_RECORD
  5
5C10
330
1
100
AcDbSymbolTableRecord
100
AcDbBlockTableRecord
  2
*D12
340
0
  0
BLOCK_RECORD
  5
5C1D
330
1
100
AcDbSymbolTableRecord
100
AcDbBlockTableRecord
  2
*D13
340
0
  0
BLOCK_RECORD
  5
5C2A
330
1
100
AcDbSymbolTableRecord
100
AcDbBlockTableRecord
  2
*D14
340
0
  0
BLOCK_RECORD
  5
5C87
330
1
100
AcDbSymbolTableRecord
100
AcDbBlockTableRecord
  2
*D15
340
0
  0
BLOCK_RECORD
  5
60C3
330
1
100
AcDbSymbolTableRecord
100
AcDbBlockTableRecord
  2
*D16
340
0
  0
BLOCK_RECORD
  5
6145
330
1
100
AcDbSymbolTableRecord
100
AcDbBlockTableRecord
  2
*D17
340
0
  0
BLOCK_RECORD
  5
6152
330
1
100
AcDbSymbolTableRecord
100
AcDbBlockTableRecord
  2
*D18
340
0
  0
BLOCK_RECORD
  5
619A
330
1
100
AcDbSymbolTableRecord
100
AcDbBlockTableRecord
  2
A$C7EBF77F6
340
0
  0
BLOCK_RECORD
  5
6256
330
1
100
AcDbSymbolTableRecord
100
AcDbBlockTableRecord
  2
*D20
340
0
  0
BLOCK_RECORD
  5
6262
330
1
100
AcDbSymbolTableRecord
100
AcDbBlockTableRecord
  2
*D21
340
0
  0
BLOCK_RECORD
  5
6507
330
1
100
AcDbSymbolTableRecord
100
AcDbBlockTableRecord
  2
*U23
340
0
102
{BLKREFS
331
6624
102
}
  0
BLOCK_RECORD
  5
650D
330
1
100
AcDbSymbolTableRecord
100
AcDbBlockTableRecord
  2
*U24
340
0
102
{BLKREFS
331
6635
102
}
  0
BLOCK_RECORD
  5
6516
330
1
100
AcDbSymbolTableRecord
100
AcDbBlockTableRecord
  2
*D25
340
0
  0
BLOCK_RECORD
  5
6522
330
1
100
AcDbSymbolTableRecord
100
AcDbBlockTableRecord
  2
*D26
340
0
  0
BLOCK_RECORD
  5
652E
330
1
100
AcDbSymbolTableRecord
100
AcDbBlockTableRecord
  2
*D27
340
0
  0
BLOCK_RECORD
  5
653A
330
1
100
AcDbSymbolTableRecord
100
AcDbBlockTableRecord
  2
*D28
340
0
  0
BLOCK_RECORD
  5
6546
330
1
100
AcDbSymbolTableRecord
100
AcDbBlockTableRecord
  2
*D29
340
0
  0
BLOCK_RECORD
  5
6553
330
1
100
AcDbSymbolTableRecord
100
AcDbBlockTableRecord
  2
*D30
340
0
  0
BLOCK_RECORD
  5
655F
330
1
100
AcDbSymbolTableRecord
100
AcDbBlockTableRecord
  2
*D31
340
0
  0
BLOCK_RECORD
  5
656B
330
1
100
AcDbSymbolTableRecord
100
AcDbBlockTableRecord
  2
*D32
340
0
  0
BLOCK_RECORD
  5
6577
330
1
100
AcDbSymbolTableRecord
100
AcDbBlockTableRecord
  2
*D33
340
0
  0
BLOCK_RECORD
  5
66B1
330
1
100
AcDbSymbolTableRecord
100
AcDbBlockTableRecord
  2
*D35
340
0
  0
BLOCK_RECORD
  5
66BD
330
1
100
AcDbSymbolTableRecord
100
AcDbBlockTableRecord
  2
*D36
340
0
  0
BLOCK_RECORD
  5
66C9
330
1
100
AcDbSymbolTableRecord
100
AcDbBlockTableRecord
  2
*D37
340
0
  0
BLOCK_RECORD
  5
66D5
330
1
100
AcDbSymbolTableRecord
100
AcDbBlockTableRecord
  2
*D38
340
0
  0
BLOCK_RECORD
  5
66E1
330
1
100
AcDbSymbolTableRecord
100
AcDbBlockTableRecord
  2
*D39
340
0
  0
BLOCK_RECORD
  5
66ED
330
1
100
AcDbSymbolTableRecord
100
AcDbBlockTableRecord
  2
*D40
340
0
  0
BLOCK_RECORD
  5
66FA
330
1
100
AcDbSymbolTableRecord
100
AcDbBlockTableRecord
  2
*D41
340
0
  0
BLOCK_RECORD
  5
6706
330
1
100
AcDbSymbolTableRecord
100
AcDbBlockTableRecord
  2
*D42
340
0
  0
BLOCK_RECORD
  5
6712
330
1
100
AcDbSymbolTableRecord
100
AcDbBlockTableRecord
  2
*D43
340
0
  0
ENDTAB
  0
ENDSEC
  0
SECTION
  2
BLOCKS
  0
BLOCK
  5
1F
330
1E
100
AcDbEntity
  8
0
100
AcDbBlockBegin
  2
*MODEL_SPACE
 70
     0
 10
0.0
 20
0.0
 30
0.0
  3
*MODEL_SPACE
  1

  0
ENDBLK
  5
20
330
1E
100
AcDbEntity
  8
0
100
AcDbBlockEnd
  0
BLOCK
  5
1B
330
1A
100
AcDbEntity
 67
     1
  8
0
100
AcDbBlockBegin
  2
*PAPER_SPACE
 70
     0
 10
0.0
 20
0.0
 30
0.0
  3
*PAPER_SPACE
  1

  0
ENDBLK
  5
1C
330
1A
100
AcDbEntity
 67
     1
  8
0
100
AcDbBlockEnd
  0
BLOCK
  5
3B6
330
3B2
100
AcDbEntity
  8
0
100
AcDbBlockBegin
  2
_OPEN
 70
     0
 10
0.0
 20
0.0
 30
0.0
  3
_OPEN
  1

  0
LINE
  5
3B3
330
3B2
100
AcDbEntity
  8
30
  6
Continuous
 62
     0
100
AcDbLine
 10
-1.0
 20
0.166667
 30
0.0
 11
0.0
 21
0.0
 31
0.0
  0
LINE
  5
3B4
330
3B2
100
AcDbEntity
  8
30
  6
Continuous
 62
     0
100
AcDbLine
 10
-1.0
 20
-0.166667
 30
0.0
 11
0.0
 21
0.0
 31
0.0
  0
LINE
  5
3B5
330
3B2
100
AcDbEntity
  8
30
  6
Continuous
 62
     0
100
AcDbLine
 10
0.0
 20
0.0
 30
0.0
 11
-1.0
 21
0.0
 31
0.0
  0
ENDBLK
  5
3B7
330
3B2
100
AcDbEntity
  8
0
100
AcDbBlockEnd
  0
BLOCK
  5
5833
330
5829
100
AcDbEntity
  8
0
100
AcDbBlockBegin
  2
*D1
 70
     1
 10
0.0
 20
0.0
 30
0.0
  3
*D1
  1

  0
LINE
  5
62CB
330
5829
100
AcDbEntity
  8
30
  6
Continuous
 62
     0
100
AcDbLine
 10
-78.5
 20
-96.04528757673485
 30
0.0
 11
-78.5
 21
-118.1551789019862
 31
0.0
  0
LINE
  5
62CC
330
5829
100
AcDbEntity
  8
30
  6
Continuous
 62
     0
100
AcDbLine
 10
78.5
 20
-96.04528757673485
 30
0.0
 11
78.5
 21
-118.1551789019862
 31
0.0
  0
LINE
  5
62CD
330
5829
100
AcDbEntity
  8
30
  6
Continuous
 62
     0
100
AcDbLine
 10
-76.5
 20
-117.6551789019862
 30
0.0
 11
76.5
 21
-117.6551789019862
 31
0.0
  0
INSERT
  5
62CE
330
5829
100
AcDbEntity
  8
30
  6
Continuous
 62
     0
100
AcDbBlockReference
  2
_OPEN
 10
-78.5
 20
-117.6551789019862
 30
0.0
 41
2.0
 42
2.0
 43
2.0
 50
180.0
  0
INSERT
  5
62CF
330
5829
100
AcDbEntity
  8
30
  6
Continuous
 62
     0
100
AcDbBlockReference
  2
_OPEN
 10
78.5
 20
-117.6551789019862
 30
0.0
 41
2.0
 42
2.0
 43
2.0
  0
MTEXT
  5
62D0
330
5829
100
AcDbEntity
  8
30
  6
Continuous
 62
     0
100
AcDbMText
 10
0.0000000000000002
 20
-114.6551789019861
 30
0.0
 40
4.0
 41
0.0
 71
     5
 72
     1
  1
\A1;157
 73
     1
 44
1.0
1001
ACAD
1000
MTEXTBEGIN
1070
    73
1070
     1
1070
    44
1040
1.0
1070
    74
1070
     0
1000
MTEXTEND
  0
POINT
  5
62D1
330
5829
100
AcDbEntity
  8
DEFPOINTS
  6
Continuous
 62
     0
100
AcDbPoint
 10
-78.5
 20
-95.04528757673485
 30
0.0
  0
POINT
  5
62D2
330
5829
100
AcDbEntity
  8
DEFPOINTS
  6
Continuous
 62
     0
100
AcDbPoint
 10
78.5
 20
-95.04528757673485
 30
0.0
  0
POINT
  5
62D3
330
5829
100
AcDbEntity
  8
DEFPOINTS
  6
Continuous
 62
     0
100
AcDbPoint
 10
78.5
 20
-117.6551789019862
 30
0.0
  0
ENDBLK
  5
5834
330
5829
100
AcDbEntity
  8
0
100
AcDbBlockEnd
  0
BLOCK
  5
584F
330
584B
100
AcDbEntity
  8
TOP
  6
Continuous
 62
     4
100
AcDbBlockBegin
  2
*U2
 70
     1
 10
0.0
 20
0.0
 30
0.0
  3
*U2
  1

  0
LINE
  5
584C
330
584B
100
AcDbEntity
  8
1
  6
ByBlock
 62
     0
100
AcDbLine
 10
327.8511961722488
 20
79.86472320362056
 30
0.0
 11
333.0330054314933
 21
79.86472320362056
 31
0.0
  0
LINE
  5
584D
330
584B
100
AcDbEntity
  8
1
  6
ByBlock
 62
     0
100
AcDbLine
 10
325.6511961722488
 20
137.4647232036204
 30
0.0
 11
333.0330054314933
 21
137.4647232036204
 31
0.0
  0
TEXT
  5
584E
330
584B
100
AcDbEntity
  8
TOP
  6
ByBlock
 62
     0
100
AcDbText
 10
330.7830054229933
 20
107.7988377856377
 30
0.0
 40
2.500000003799998
  1
 
 50
89.99999999999404
 41
1.189062499999995
  7
UGMTXT
100
AcDbText
  0
ENDBLK
  5
5850
330
584B
100
AcDbEntity
  8
0
100
AcDbBlockEnd
  0
BLOCK
  5
5A06
330
59FC
100
AcDbEntity
  8
0
100
AcDbBlockBegin
  2
*D3
 70
     1
 10
0.0
 20
0.0
 30
0.0
  3
*D3
  1

  0
LINE
  5
613B
330
59FC
100
AcDbEntity
  8
30
  6
Continuous
 62
     0
100
AcDbLine
 10
233.4095201416833
 20
-106.9999999999997
 30
0.0
 11
233.4095201416833
 21
-160.954446411991
 31
0.0
  0
LINE
  5
613C
330
59FC
100
AcDbEntity
  8
30
  6
Continuous
 62
     0
100
AcDbLine
 10
394.4095201416831
 20
-73.00000000000007
 30
0.0
 11
394.4095201416831
 21
-160.954446411991
 31
0.0
  0
LINE
  5
613D
330
59FC
100
AcDbEntity
  8
30
  6
Continuous
 62
     0
100
AcDbLine
 10
235.4095201416833
 20
-160.454446411991
 30
0.0
 11
392.4095201416831
 21
-160.454446411991
 31
0.0
  0
INSERT
  5
613E
330
59FC
100
AcDbEntity
  8
30
  6
Continuous
 62
     0
100
AcDbBlockReference
  2
_OPEN
 10
233.4095201416833
 20
-160.454446411991
 30
0.0
 41
2.0
 42
2.0
 43
2.0
 50
180.0
  0
INSERT
  5
613F
330
59FC
100
AcDbEntity
  8
30
  6
Continuous
 62
     0
100
AcDbBlockReference
  2
_OPEN
 10
394.4095201416831
 20
-160.454446411991
 30
0.0
 41
2.0
 42
2.0
 43
2.0
  0
MTEXT
  5
6140
330
59FC
100
AcDbEntity
  8
30
  6
Continuous
 62
     0
100
AcDbMText
 10
313.9095201416831
 20
-157.454446411991
 30
0.0
 40
4.0
 41
0.0
 71
     5
 72
     1
  1
\A1;161
 73
     1
 44
1.0
1001
ACAD
1000
MTEXTBEGIN
1070
    73
1070
     1
1070
    44
1040
1.0
1070
    74
1070
     0
1000
MTEXTEND
  0
POINT
  5
6141
330
59FC
100
AcDbEntity
  8
DEFPOINTS
  6
Continuous
 62
     0
100
AcDbPoint
 10
233.4095201416833
 20
-105.9999999999997
 30
0.0
  0
POINT
  5
6142
330
59FC
100
AcDbEntity
  8
DEFPOINTS
  6
Continuous
 62
     0
100
AcDbPoint
 10
394.4095201416831
 20
-72.00000000000007
 30
0.0
  0
POINT
  5
6143
330
59FC
100
AcDbEntity
  8
DEFPOINTS
  6
Continuous
 62
     0
100
AcDbPoint
 10
394.4095201416831
 20
-160.454446411991
 30
0.0
  0
ENDBLK
  5
5A07
330
59FC
100
AcDbEntity
  8
0
100
AcDbBlockEnd
  0
BLOCK
  5
5A12
330
5A08
100
AcDbEntity
  8
0
100
AcDbBlockBegin
  2
*D4
 70
     1
 10
0.0
 20
0.0
 30
0.0
  3
*D4
  1

  0
LINE
  5
6117
330
5A08
100
AcDbEntity
  8
30
  6
Continuous
 62
     0
100
AcDbLine
 10
233.4095201416833
 20
-106.9999999999997
 30
0.0
 11
233.4095201416833
 21
-140.9544464119911
 31
0.0
  0
LINE
  5
6118
330
5A08
100
AcDbEntity
  8
30
  6
Continuous
 62
     0
100
AcDbLine
 10
359.4095201416831
 20
-73.00000000000007
 30
0.0
 11
359.4095201416831
 21
-140.9544464119911
 31
0.0
  0
LINE
  5
6119
330
5A08
100
AcDbEntity
  8
30
  6
Continuous
 62
     0
100
AcDbLine
 10
235.4095201416833
 20
-140.4544464119911
 30
0.0
 11
357.4095201416831
 21
-140.4544464119911
 31
0.0
  0
INSERT
  5
611A
330
5A08
100
AcDbEntity
  8
30
  6
Continuous
 62
     0
100
AcDbBlockReference
  2
_OPEN
 10
233.4095201416833
 20
-140.4544464119911
 30
0.0
 41
2.0
 42
2.0
 43
2.0
 50
180.0
  0
INSERT
  5
611B
330
5A08
100
AcDbEntity
  8
30
  6
Continuous
 62
     0
100
AcDbBlockReference
  2
_OPEN
 10
359.4095201416831
 20
-140.4544464119911
 30
0.0
 41
2.0
 42
2.0
 43
2.0
  0
MTEXT
  5
611C
330
5A08
100
AcDbEntity
  8
30
  6
Continuous
 62
     0
100
AcDbMText
 10
296.4095201416832
 20
-137.4544464119911
 30
0.0
 40
4.0
 41
0.0
 71
     5
 72
     1
  1
\A1;126
 73
     1
 44
1.0
1001
ACAD
1000
MTEXTBEGIN
1070
    73
1070
     1
1070
    44
1040
1.0
1070
    74
1070
     0
1000
MTEXTEND
  0
POINT
  5
611D
330
5A08
100
AcDbEntity
  8
DEFPOINTS
  6
Continuous
 62
     0
100
AcDbPoint
 10
233.4095201416833
 20
-105.9999999999997
 30
0.0
  0
POINT
  5
611E
330
5A08
100
AcDbEntity
  8
DEFPOINTS
  6
Continuous
 62
     0
100
AcDbPoint
 10
359.4095201416831
 20
-72.00000000000007
 30
0.0
  0
POINT
  5
611F
330
5A08
100
AcDbEntity
  8
DEFPOINTS
  6
Continuous
 62
     0
100
AcDbPoint
 10
359.4095201416831
 20
-140.4544464119911
 30
0.0
  0
ENDBLK
  5
5A13
330
5A08
100
AcDbEntity
  8
0
100
AcDbBlockEnd
  0
BLOCK
  5
5A1E
330
5A14
100
AcDbEntity
  8
0
100
AcDbBlockBegin
  2
*D5
 70
     1
 10
0.0
 20
0.0
 30
0.0
  3
*D5
  1

  0
LINE
  5
6129
330
5A14
100
AcDbEntity
  8
30
  6
Continuous
 62
     0
100
AcDbLine
 10
218.4095201416833
 20
-97.00000000000006
 30
0.0
 11
218.4095201416833
 21
-140.9544464119911
 31
0.0
  0
LINE
  5
612A
330
5A14
100
AcDbEntity
  8
30
  6
Continuous
 62
     0
100
AcDbLine
 10
233.4095201416833
 20
-106.9999999999997
 30
0.0
 11
233.4095201416833
 21
-140.9544464119911
 31
0.0
  0
LINE
  5
612B
330
5A14
100
AcDbEntity
  8
30
  6
Continuous
 62
     0
100
AcDbLine
 10
220.4095201416834
 20
-140.4544464119911
 30
0.0
 11
231.4095201416833
 21
-140.4544464119911
 31
0.0
  0
INSERT
  5
612C
330
5A14
100
AcDbEntity
  8
30
  6
Continuous
 62
     0
100
AcDbBlockReference
  2
_OPEN
 10
218.4095201416833
 20
-140.4544464119911
 30
0.0
 41
2.0
 42
2.0
 43
2.0
 50
180.0
  0
INSERT
  5
612D
330
5A14
100
AcDbEntity
  8
30
  6
Continuous
 62
     0
100
AcDbBlockReference
  2
_OPEN
 10
233.4095201416833
 20
-140.4544464119911
 30
0.0
 41
2.0
 42
2.0
 43
2.0
  0
MTEXT
  5
612E
330
5A14
100
AcDbEntity
  8
30
  6
Continuous
 62
     0
100
AcDbMText
 10
225.9095201416834
 20
-137.4544464119911
 30
0.0
 40
4.0
 41
0.0
 71
     5
 72
     1
  1
\A1;15
 73
     1
 44
1.0
1001
ACAD
1000
MTEXTBEGIN
1070
    73
1070
     1
1070
    44
1040
1.0
1070
    74
1070
     0
1000
MTEXTEND
  0
POINT
  5
612F
330
5A14
100
AcDbEntity
  8
DEFPOINTS
  6
Continuous
 62
     0
100
AcDbPoint
 10
218.4095201416833
 20
-96.00000000000006
 30
0.0
  0
POINT
  5
6130
330
5A14
100
AcDbEntity
  8
DEFPOINTS
  6
Continuous
 62
     0
100
AcDbPoint
 10
233.4095201416833
 20
-105.9999999999997
 30
0.0
  0
POINT
  5
6131
330
5A14
100
AcDbEntity
  8
DEFPOINTS
  6
Continuous
 62
     0
100
AcDbPoint
 10
233.4095201416833
 20
-140.4544464119911
 30
0.0
  0
ENDBLK
  5
5A1F
330
5A14
100
AcDbEntity
  8
0
100
AcDbBlockEnd
  0
BLOCK
  5
5A2A
330
5A20
100
AcDbEntity
  8
0
100
AcDbBlockBegin
  2
*D6
 70
     1
 10
0.0
 20
0.0
 30
0.0
  3
*D6
  1

  0
LINE
  5
6132
330
5A20
100
AcDbEntity
  8
30
  6
Continuous
 62
     0
100
AcDbLine
 10
196.4095201416833
 20
-3.500000016500051
 30
0.0
 11
196.4095201416833
 21
-160.954446411991
 31
0.0
  0
LINE
  5
6133
330
5A20
100
AcDbEntity
  8
30
  6
Continuous
 62
     0
100
AcDbLine
 10
233.4095201416833
 20
-106.9999999999997
 30
0.0
 11
233.4095201416833
 21
-160.954446411991
 31
0.0
  0
LINE
  5
6134
330
5A20
100
AcDbEntity
  8
30
  6
Continuous
 62
     0
100
AcDbLine
 10
198.4095201416833
 20
-160.454446411991
 30
0.0
 11
231.4095201416833
 21
-160.454446411991
 31
0.0
  0
INSERT
  5
6135
330
5A20
100
AcDbEntity
  8
30
  6
Continuous
 62
     0
100
AcDbBlockReference
  2
_OPEN
 10
196.4095201416833
 20
-160.454446411991
 30
0.0
 41
2.0
 42
2.0
 43
2.0
 50
180.0
  0
INSERT
  5
6136
330
5A20
100
AcDbEntity
  8
30
  6
Continuous
 62
     0
100
AcDbBlockReference
  2
_OPEN
 10
233.4095201416833
 20
-160.454446411991
 30
0.0
 41
2.0
 42
2.0
 43
2.0
  0
MTEXT
  5
6137
330
5A20
100
AcDbEntity
  8
30
  6
Continuous
 62
     0
100
AcDbMText
 10
214.9095201416833
 20
-157.454446411991
 30
0.0
 40
4.0
 41
0.0
 71
     5
 72
     1
  1
\A1;37
 73
     1
 44
1.0
1001
ACAD
1000
MTEXTBEGIN
1070
    73
1070
     1
1070
    44
1040
1.0
1070
    74
1070
     0
1000
MTEXTEND
  0
POINT
  5
6138
330
5A20
100
AcDbEntity
  8
DEFPOINTS
  6
Continuous
 62
     0
100
AcDbPoint
 10
196.4095201416833
 20
-2.500000016500048
 30
0.0
  0
POINT
  5
6139
330
5A20
100
AcDbEntity
  8
DEFPOINTS
  6
Continuous
 62
     0
100
AcDbPoint
 10
233.4095201416833
 20
-105.9999999999997
 30
0.0
  0
POINT
  5
613A
330
5A20
100
AcDbEntity
  8
DEFPOINTS
  6
Continuous
 62
     0
100
AcDbPoint
 10
233.4095201416833
 20
-160.454446411991
 30
0.0
  0
ENDBLK
  5
5A2B
330
5A20
100
AcDbEntity
  8
0
100
AcDbBlockEnd
  0
BLOCK
  5
5A43
330
5A38
100
AcDbEntity
  8
0
100
AcDbBlockBegin
  2
*D7
 70
     1
 10
0.0
 20
0.0
 30
0.0
  3
*D7
  1

  0
LINE
  5
60B2
330
5A38
100
AcDbEntity
  8
30
  6
Continuous
 62
     0
100
AcDbLine
 10
395.4095201416831
 20
69.0
 30
0.0
 11
430.1565297158111
 21
68.99999999999998
 31
0.0
  0
LINE
  5
60B3
330
5A38
100
AcDbEntity
  8
30
  6
Continuous
 62
     0
100
AcDbLine
 10
395.4095201416831
 20
75.0
 30
0.0
 11
430.1565297158111
 21
74.99999999999999
 31
0.0
  0
LINE
  5
60B4
330
5A38
100
AcDbEntity
  8
30
  6
Continuous
 62
     0
100
AcDbLine
 10
429.6565297158111
 20
66.99999999999999
 30
0.0
 11
429.6565297158111
 21
64.99999999999999
 31
0.0
  0
LINE
  5
60B5
330
5A38
100
AcDbEntity
  8
30
  6
Continuous
 62
     0
100
AcDbLine
 10
429.6565297158111
 20
76.99999999999999
 30
0.0
 11
429.6565297158111
 21
78.99999999999998
 31
0.0
  0
INSERT
  5
60B6
330
5A38
100
AcDbEntity
  8
30
  6
Continuous
 62
     0
100
AcDbBlockReference
  2
_OPEN
 10
429.6565297158111
 20
68.99999999999998
 30
0.0
 41
2.0
 42
2.0
 43
2.0
 50
90.0
  0
INSERT
  5
60B7
330
5A38
100
AcDbEntity
  8
30
  6
Continuous
 62
     0
100
AcDbBlockReference
  2
_OPEN
 10
429.6565297158111
 20
74.99999999999999
 30
0.0
 41
2.0
 42
2.0
 43
2.0
 50
270.0
  0
MTEXT
  5
60B8
330
5A38
100
AcDbEntity
  8
30
  6
Continuous
 62
     0
100
AcDbMText
 10
426.6565297158111
 20
72.00000000000007
 30
0.0
 40
4.0
 41
0.0
 71
     5
 72
     1
  1
\A1;6
 11
0.0000000000000001
 21
1.0
 31
0.0
 73
     1
 44
1.0
1001
ACAD
1000
MTEXTBEGIN
1070
    73
1070
     1
1070
    44
1040
1.0
1070
    74
1070
     0
1000
MTEXTEND
  0
POINT
  5
60B9
330
5A38
100
AcDbEntity
  8
DEFPOINTS
  6
Continuous
 62
     0
100
AcDbPoint
 10
394.4095201416831
 20
69.0
 30
0.0
  0
POINT
  5
60BA
330
5A38
100
AcDbEntity
  8
DEFPOINTS
  6
Continuous
 62
     0
100
AcDbPoint
 10
394.4095201416831
 20
75.0
 30
0.0
  0
POINT
  5
60BB
330
5A38
100
AcDbEntity
  8
DEFPOINTS
  6
Continuous
 62
     0
100
AcDbPoint
 10
429.6565297158111
 20
74.99999999999999
 30
0.0
  0
ENDBLK
  5
5A44
330
5A38
100
AcDbEntity
  8
0
100
AcDbBlockEnd
  0
BLOCK
  5
5A4F
330
5A45
100
AcDbEntity
  8
0
100
AcDbBlockBegin
  2
*D8
 70
     1
 10
0.0
 20
0.0
 30
0.0
  3
*D8
  1

  0
LINE
  5
60A9
330
5A45
100
AcDbEntity
  8
30
  6
Continuous
 62
     0
100
AcDbLine
 10
392.7300282173721
 20
-82.00000000000008
 30
0.0
 11
430.1565297158111
 21
-82.00000000000008
 31
0.0
  0
LINE
  5
60AA
330
5A45
100
AcDbEntity
  8
30
  6
Continuous
 62
     0
100
AcDbLine
 10
392.7300282173721
 20
-62.00000000000006
 30
0.0
 11
430.1565297158111
 21
-62.00000000000006
 31
0.0
  0
LINE
  5
60AB
330
5A45
100
AcDbEntity
  8
30
  6
Continuous
 62
     0
100
AcDbLine
 10
429.6565297158111
 20
-80.00000000000007
 30
0.0
 11
429.6565297158111
 21
-64.00000000000007
 31
0.0
  0
INSERT
  5
60AC
330
5A45
100
AcDbEntity
  8
30
  6
Continuous
 62
     0
100
AcDbBlockReference
  2
_OPEN
 10
429.6565297158111
 20
-82.00000000000008
 30
0.0
 41
2.0
 42
2.0
 43
2.0
 50
270.0
  0
INSERT
  5
60AD
330
5A45
100
AcDbEntity
  8
30
  6
Continuous
 62
     0
100
AcDbBlockReference
  2
_OPEN
 10
429.6565297158111
 20
-62.00000000000006
 30
0.0
 41
2.0
 42
2.0
 43
2.0
 50
90.0
  0
MTEXT
  5
60AE
330
5A45
100
AcDbEntity
  8
30
  6
Continuous
 62
     0
100
AcDbMText
 10
426.6565297158111
 20
-72.00000000000001
 30
0.0
 40
4.0
 41
0.0
 71
     5
 72
     1
  1
\A1;20
 11
0.0000000000000001
 21
1.0
 31
0.0
 73
     1
 44
1.0
1001
ACAD
1000
MTEXTBEGIN
1070
    73
1070
     1
1070
    44
1040
1.0
1070
    74
1070
     0
1000
MTEXTEND
  0
POINT
  5
60AF
330
5A45
100
AcDbEntity
  8
DEFPOINTS
  6
Continuous
 62
     0
100
AcDbPoint
 10
391.7300282173721
 20
-82.00000000000008
 30
0.0
  0
POINT
  5
60B0
330
5A45
100
AcDbEntity
  8
DEFPOINTS
  6
Continuous
 62
     0
100
AcDbPoint
 10
391.7300282173721
 20
-62.00000000000006
 30
0.0
  0
POINT
  5
60B1
330
5A45
100
AcDbEntity
  8
DEFPOINTS
  6
Continuous
 62
     0
100
AcDbPoint
 10
429.6565297158111
 20
-62.00000000000006
 30
0.0
  0
ENDBLK
  5
5A50
330
5A45
100
AcDbEntity
  8
0
100
AcDbBlockEnd
  0
BLOCK
  5
5A5B
330
5A51
100
AcDbEntity
  8
0
100
AcDbBlockBegin
  2
*D9
 70
     1
 10
0.0
 20
0.0
 30
0.0
  3
*D9
  1

  0
LINE
  5
6105
330
5A51
100
AcDbEntity
  8
30
  6
Continuous
 62
     0
100
AcDbLine
 10
344.4095201416831
 20
-75.50000001650001
 30
0.0
 11
344.4095201416831
 21
-119.9544464119911
 31
0.0
  0
LINE
  5
6106
330
5A51
100
AcDbEntity
  8
30
  6
Continuous
 62
     0
100
AcDbLine
 10
359.4095201416831
 20
-83.3077641000607
 30
0.0
 11
359.4095201416831
 21
-119.9544464119911
 31
0.0
  0
LINE
  5
6107
330
5A51
100
AcDbEntity
  8
30
  6
Continuous
 62
     0
100
AcDbLine
 10
346.4095201416831
 20
-119.454446411991
 30
0.0
 11
357.4095201416831
 21
-119.454446411991
 31
0.0
  0
INSERT
  5
6108
330
5A51
100
AcDbEntity
  8
30
  6
Continuous
 62
     0
100
AcDbBlockReference
  2
_OPEN
 10
344.4095201416831
 20
-119.454446411991
 30
0.0
 41
2.0
 42
2.0
 43
2.0
 50
180.0
  0
INSERT
  5
6109
330
5A51
100
AcDbEntity
  8
30
  6
Continuous
 62
     0
100
AcDbBlockReference
  2
_OPEN
 10
359.4095201416831
 20
-119.454446411991
 30
0.0
 41
2.0
 42
2.0
 43
2.0
  0
MTEXT
  5
610A
330
5A51
100
AcDbEntity
  8
30
  6
Continuous
 62
     0
100
AcDbMText
 10
351.9095201416831
 20
-116.454446411991
 30
0.0
 40
4.0
 41
0.0
 71
     5
 72
     1
  1
\A1;15
 73
     1
 44
1.0
1001
ACAD
1000
MTEXTBEGIN
1070
    73
1070
     1
1070
    44
1040
1.0
1070
    74
1070
     0
1000
MTEXTEND
  0
POINT
  5
610B
330
5A51
100
AcDbEntity
  8
DEFPOINTS
  6
Continuous
 62
     0
100
AcDbPoint
 10
344.4095201416831
 20
-74.50000001650001
 30
0.0
  0
POINT
  5
610C
330
5A51
100
AcDbEntity
  8
DEFPOINTS
  6
Continuous
 62
     0
100
AcDbPoint
 10
359.4095201416831
 20
-82.30776410006072
 30
0.0
  0
POINT
  5
610D
330
5A51
100
AcDbEntity
  8
DEFPOINTS
  6
Continuous
 62
     0
100
AcDbPoint
 10
359.4095201416831
 20
-119.454446411991
 30
0.0
  0
ENDBLK
  5
5A5C
330
5A51
100
AcDbEntity
  8
0
100
AcDbBlockEnd
  0
BLOCK
  5
5A67
330
5A5D
100
AcDbEntity
  8
0
100
AcDbBlockBegin
  2
*D10
 70
     1
 10
0.0
 20
0.0
 30
0.0
  3
*D10
  1

  0
LINE
  5
60FC
330
5A5D
100
AcDbEntity
  8
30
  6
Continuous
 62
     0
100
AcDbLine
 10
379.4095201416831
 20
-75.50000001650001
 30
0.0
 11
379.4095201416831
 21
-119.9544464119911
 31
0.0
  0
LINE
  5
60FD
330
5A5D
100
AcDbEntity
  8
30
  6
Continuous
 62
     0
100
AcDbLine
 10
394.4095201416831
 20
-83.3077641000607
 30
0.0
 11
394.4095201416831
 21
-119.9544464119911
 31
0.0
  0
LINE
  5
60FE
330
5A5D
100
AcDbEntity
  8
30
  6
Continuous
 62
     0
100
AcDbLine
 10
381.4095201416831
 20
-119.454446411991
 30
0.0
 11
392.4095201416831
 21
-119.454446411991
 31
0.0
  0
INSERT
  5
60FF
330
5A5D
100
AcDbEntity
  8
30
  6
Continuous
 62
     0
100
AcDbBlockReference
  2
_OPEN
 10
379.4095201416831
 20
-119.454446411991
 30
0.0
 41
2.0
 42
2.0
 43
2.0
 50
180.0
  0
INSERT
  5
6100
330
5A5D
100
AcDbEntity
  8
30
  6
Continuous
 62
     0
100
AcDbBlockReference
  2
_OPEN
 10
394.4095201416831
 20
-119.454446411991
 30
0.0
 41
2.0
 42
2.0
 43
2.0
  0
MTEXT
  5
6101
330
5A5D
100
AcDbEntity
  8
30
  6
Continuous
 62
     0
100
AcDbMText
 10
386.9095201416831
 20
-116.454446411991
 30
0.0
 40
4.0
 41
0.0
 71
     5
 72
     1
  1
\A1;15
 73
     1
 44
1.0
1001
ACAD
1000
MTEXTBEGIN
1070
    73
1070
     1
1070
    44
1040
1.0
1070
    74
1070
     0
1000
MTEXTEND
  0
POINT
  5
6102
330
5A5D
100
AcDbEntity
  8
DEFPOINTS
  6
Continuous
 62
     0
100
AcDbPoint
 10
379.4095201416831
 20
-74.50000001650001
 30
0.0
  0
POINT
  5
6103
330
5A5D
100
AcDbEntity
  8
DEFPOINTS
  6
Continuous
 62
     0
100
AcDbPoint
 10
394.4095201416831
 20
-82.30776410006072
 30
0.0
  0
POINT
  5
6104
330
5A5D
100
AcDbEntity
  8
DEFPOINTS
  6
Continuous
 62
     0
100
AcDbPoint
 10
394.4095201416831
 20
-119.454446411991
 30
0.0
  0
ENDBLK
  5
5A68
330
5A5D
100
AcDbEntity
  8
0
100
AcDbBlockEnd
  0
BLOCK
  5
5BE9
330
5BDF
100
AcDbEntity
  8
0
100
AcDbBlockBegin
  2
*D11
 70
     1
 10
0.0
 20
0.0
 30
0.0
  3
*D11
  1

  0
LINE
  5
62C2
330
5BDF
100
AcDbEntity
  8
30
  6
Continuous
 62
     0
100
AcDbLine
 10
77.73785085275267
 20
96.0
 30
0.0
 11
106.336328788839
 21
96.0
 31
0.0
  0
LINE
  5
62C3
330
5BDF
100
AcDbEntity
  8
30
  6
Continuous
 62
     0
100
AcDbLine
 10
77.73785085275267
 20
-96.00000000000004
 30
0.0
 11
106.336328788839
 21
-96.00000000000006
 31
0.0
  0
LINE
  5
62C4
330
5BDF
100
AcDbEntity
  8
30
  6
Continuous
 62
     0
100
AcDbLine
 10
105.8363287888389
 20
93.99999999999998
 30
0.0
 11
105.8363287888389
 21
-94.00000000000003
 31
0.0
  0
INSERT
  5
62C5
330
5BDF
100
AcDbEntity
  8
30
  6
Continuous
 62
     0
100
AcDbBlockReference
  2
_OPEN
 10
105.8363287888389
 20
96.0
 30
0.0
 41
2.0
 42
2.0
 43
2.0
 50
90.0
  0
INSERT
  5
62C6
330
5BDF
100
AcDbEntity
  8
30
  6
Continuous
 62
     0
100
AcDbBlockReference
  2
_OPEN
 10
105.8363287888389
 20
-96.00000000000006
 30
0.0
 41
2.0
 42
2.0
 43
2.0
 50
270.0
  0
MTEXT
  5
62C7
330
5BDF
100
AcDbEntity
  8
30
  6
Continuous
 62
     0
100
AcDbMText
 10
102.8363287888389
 20
-0.0000000000000132
 30
0.0
 40
4.0
 41
0.0
 71
     5
 72
     1
  1
\A1;192
 11
0.0000000000000001
 21
1.0
 31
0.0
 73
     1
 44
1.0
1001
ACAD
1000
MTEXTBEGIN
1070
    73
1070
     1
1070
    44
1040
1.0
1070
    74
1070
     0
1000
MTEXTEND
  0
POINT
  5
62C8
330
5BDF
100
AcDbEntity
  8
DEFPOINTS
  6
Continuous
 62
     0
100
AcDbPoint
 10
76.73785085275267
 20
96.0
 30
0.0
  0
POINT
  5
62C9
330
5BDF
100
AcDbEntity
  8
DEFPOINTS
  6
Continuous
 62
     0
100
AcDbPoint
 10
76.73785085275267
 20
-96.00000000000004
 30
0.0
  0
POINT
  5
62CA
330
5BDF
100
AcDbEntity
  8
DEFPOINTS
  6
Continuous
 62
     0
100
AcDbPoint
 10
105.8363287888389
 20
-96.00000000000006
 30
0.0
  0
ENDBLK
  5
5BEA
330
5BDF
100
AcDbEntity
  8
0
100
AcDbBlockEnd
  0
BLOCK
  5
5C1A
330
5C10
100
AcDbEntity
  8
0
100
AcDbBlockBegin
  2
*D12
 70
     1
 10
0.0
 20
0.0
 30
0.0
  3
*D12
  1

  0
LINE
  5
62DD
330
5C10
100
AcDbEntity
  8
30
  6
Continuous
 62
     0
100
AcDbLine
 10
-63.38009453517108
 20
-344.163123744355
 30
0.0
 11
-63.38009453517108
 21
-366.1895617182886
 31
0.0
  0
LINE
  5
62DE
330
5C10
100
AcDbEntity
  8
30
  6
Continuous
 62
     0
100
AcDbLine
 10
62.61990546482891
 20
-344.163123744355
 30
0.0
 11
62.61990546482891
 21
-366.1895617182886
 31
0.0
  0
LINE
  5
62DF
330
5C10
100
AcDbEntity
  8
30
  6
Continuous
 62
     0
100
AcDbLine
 10
-61.38009453517108
 20
-365.6895617182887
 30
0.0
 11
60.61990546482892
 21
-365.6895617182887
 31
0.0
  0
INSERT
  5
62E0
330
5C10
100
AcDbEntity
  8
30
  6
Continuous
 62
     0
100
AcDbBlockReference
  2
_OPEN
 10
-63.38009453517108
 20
-365.6895617182887
 30
0.0
 41
2.0
 42
2.0
 43
2.0
 50
180.0
  0
INSERT
  5
62E1
330
5C10
100
AcDbEntity
  8
30
  6
Continuous
 62
     0
100
AcDbBlockReference
  2
_OPEN
 10
62.61990546482891
 20
-365.6895617182887
 30
0.0
 41
2.0
 42
2.0
 43
2.0
  0
MTEXT
  5
62E2
330
5C10
100
AcDbEntity
  8
30
  6
Continuous
 62
     0
100
AcDbMText
 10
-0.3800945351710821
 20
-362.6895617182886
 30
0.0
 40
4.0
 41
0.0
 71
     5
 72
     1
  1
\A1;126
 73
     1
 44
1.0
1001
ACAD
1000
MTEXTBEGIN
1070
    73
1070
     1
1070
    44
1040
1.0
1070
    74
1070
     0
1000
MTEXTEND
  0
POINT
  5
62E3
330
5C10
100
AcDbEntity
  8
DEFPOINTS
  6
Continuous
 62
     0
100
AcDbPoint
 10
-63.38009453517108
 20
-343.163123744355
 30
0.0
  0
POINT
  5
62E4
330
5C10
100
AcDbEntity
  8
DEFPOINTS
  6
Continuous
 62
     0
100
AcDbPoint
 10
62.61990546482891
 20
-343.163123744355
 30
0.0
  0
POINT
  5
62E5
330
5C10
100
AcDbEntity
  8
DEFPOINTS
  6
Continuous
 62
     0
100
AcDbPoint
 10
62.61990546482891
 20
-365.6895617182887
 30
0.0
  0
ENDBLK
  5
5C1B
330
5C10
100
AcDbEntity
  8
0
100
AcDbBlockEnd
  0
BLOCK
  5
5C27
330
5C1D
100
AcDbEntity
  8
0
100
AcDbBlockBegin
  2
*D13
 70
     1
 10
0.0
 20
0.0
 30
0.0
  3
*D13
  1

  0
LINE
  5
62D4
330
5C1D
100
AcDbEntity
  8
30
  6
Continuous
 62
     0
100
AcDbLine
 10
-68.38009453517121
 20
-291.6631237443557
 30
0.0
 11
-68.38009453517121
 21
-377.5163681745015
 31
0.0
  0
LINE
  5
62D5
330
5C1D
100
AcDbEntity
  8
30
  6
Continuous
 62
     0
100
AcDbLine
 10
67.61990546482874
 20
-291.6631237443557
 30
0.0
 11
67.61990546482874
 21
-377.5163681745015
 31
0.0
  0
LINE
  5
62D6
330
5C1D
100
AcDbEntity
  8
30
  6
Continuous
 62
     0
100
AcDbLine
 10
-66.38009453517121
 20
-377.0163681745015
 30
0.0
 11
65.61990546482873
 21
-377.0163681745015
 31
0.0
  0
INSERT
  5
62D7
330
5C1D
100
AcDbEntity
  8
30
  6
Continuous
 62
     0
100
AcDbBlockReference
  2
_OPEN
 10
-68.38009453517121
 20
-377.0163681745015
 30
0.0
 41
2.0
 42
2.0
 43
2.0
 50
180.0
  0
INSERT
  5
62D8
330
5C1D
100
AcDbEntity
  8
30
  6
Continuous
 62
     0
100
AcDbBlockReference
  2
_OPEN
 10
67.61990546482874
 20
-377.0163681745015
 30
0.0
 41
2.0
 42
2.0
 43
2.0
  0
MTEXT
  5
62D9
330
5C1D
100
AcDbEntity
  8
30
  6
Continuous
 62
     0
100
AcDbMText
 10
-0.3800945351712384
 20
-374.0163681745015
 30
0.0
 40
4.0
 41
0.0
 71
     5
 72
     1
  1
\A1;136
 73
     1
 44
1.0
1001
ACAD
1000
MTEXTBEGIN
1070
    73
1070
     1
1070
    44
1040
1.0
1070
    74
1070
     0
1000
MTEXTEND
  0
POINT
  5
62DA
330
5C1D
100
AcDbEntity
  8
DEFPOINTS
  6
Continuous
 62
     0
100
AcDbPoint
 10
-68.38009453517121
 20
-290.6631237443558
 30
0.0
  0
POINT
  5
62DB
330
5C1D
100
AcDbEntity
  8
DEFPOINTS
  6
Continuous
 62
     0
100
AcDbPoint
 10
67.61990546482874
 20
-290.6631237443558
 30
0.0
  0
POINT
  5
62DC
330
5C1D
100
AcDbEntity
  8
DEFPOINTS
  6
Continuous
 62
     0
100
AcDbPoint
 10
67.61990546482874
 20
-377.0163681745015
 30
0.0
  0
ENDBLK
  5
5C28
330
5C1D
100
AcDbEntity
  8
0
100
AcDbBlockEnd
  0
BLOCK
  5
5C33
330
5C2A
100
AcDbEntity
  8
0
100
AcDbBlockBegin
  2
*D14
 70
     1
 10
0.0
 20
0.0
 30
0.0
  3
*D14
  1

  0
LINE
  5
62E6
330
5C2A
100
AcDbEntity
  8
30
  6
Continuous
 62
     0
100
AcDbLine
 10
102.383347798162
 20
-203.2939227443548
 30
0.0
 11
94.71667180139341
 21
-203.2939227443548
 31
0.0
  0
LINE
  5
62E7
330
5C2A
100
AcDbEntity
  8
30
  6
Continuous
 62
     0
100
AcDbLine
 10
94.71667180139341
 20
-203.2939227443548
 30
0.0
 11
72.10974030583662
 21
-214.3728088222715
 31
0.0
  0
MTEXT
  5
62E8
102
{ACAD_XDICTIONARY
360
646B
102
}
330
5C2A
100
AcDbEntity
  8
30
  6
Continuous
 62
     0
100
AcDbMText
 10
99.05001446482874
 20
-200.2939227443548
 30
0.0
 40
4.0
 41
0.0
 71
     5
 72
     1
  1
\A1;\U+22056
 73
     1
 44
1.0
1001
ACAD
1000
MTEXTBEGIN
1070
    73
1070
     1
1070
    44
1040
1.0
1070
    74
1070
     0
1000
MTEXTEND
  0
INSERT
  5
62E9
330
5C2A
100
AcDbEntity
  8
30
  6
Continuous
 62
     0
100
AcDbBlockReference
  2
_OPEN
 10
70.31380646482881
 20
-215.252934744355
 30
0.0
 41
2.0
 42
2.0
 43
2.0
 50
206.1078983677143
  0
LINE
  5
62EA
330
5C2A
100
AcDbEntity
  8
30
  6
Continuous
 62
     0
100
AcDbLine
 10
67.52990546482877
 20
-216.5731237443548
 30
0.0
 11
67.70990546482882
 21
-216.5731237443548
 31
0.0
  0
LINE
  5
62EB
330
5C2A
100
AcDbEntity
  8
30
  6
Continuous
 62
     0
100
AcDbLine
 10
67.61990546482879
 20
-216.6631237443549
 30
0.0
 11
67.61990546482879
 21
-216.4831237443548
 31
0.0
  0
POINT
  5
62EC
330
5C2A
100
AcDbEntity
  8
DEFPOINTS
  6
Continuous
 62
     0
100
AcDbPoint
 10
70.31380646482881
 20
-215.252934744355
 30
0.0
  0
POINT
  5
62ED
330
5C2A
100
AcDbEntity
  8
DEFPOINTS
  6
Continuous
 62
     0
100
AcDbPoint
 10
64.92600446482876
 20
-217.8933127443548
 30
0.0
  0
ENDBLK
  5
5C34
330
5C2A
100
AcDbEntity
  8
0
100
AcDbBlockEnd
  0
BLOCK
  5
5C91
330
5C87
100
AcDbEntity
  8
0
100
AcDbBlockBegin
  2
*D15
 70
     1
 10
0.0
 20
0.0
 30
0.0
  3
*D15
  1

  0
LINE
  5
6073
330
5C87
100
AcDbEntity
  8
30
  6
Continuous
 62
     0
100
AcDbLine
 10
434.8671757186888
 20
72.0
 30
0.0
 11
442.2518178735189
 21
72.0
 31
0.0
  0
LINE
  5
6074
330
5C87
100
AcDbEntity
  8
30
  6
Continuous
 62
     0
100
AcDbLine
 10
430.6565297158111
 20
-72.00000000000007
 30
0.0
 11
442.2518178735189
 21
-72.00000000000007
 31
0.0
  0
LINE
  5
6075
330
5C87
100
AcDbEntity
  8
30
  6
Continuous
 62
     0
100
AcDbLine
 10
441.7518178735189
 20
70.0
 30
0.0
 11
441.7518178735189
 21
-70.00000000000007
 31
0.0
  0
INSERT
  5
6076
330
5C87
100
AcDbEntity
  8
30
  6
Continuous
 62
     0
100
AcDbBlockReference
  2
_OPEN
 10
441.7518178735189
 20
72.0
 30
0.0
 41
2.0
 42
2.0
 43
2.0
 50
90.0
  0
INSERT
  5
6077
330
5C87
100
AcDbEntity
  8
30
  6
Continuous
 62
     0
100
AcDbBlockReference
  2
_OPEN
 10
441.7518178735189
 20
-72.00000000000007
 30
0.0
 41
2.0
 42
2.0
 43
2.0
 50
270.0
  0
MTEXT
  5
6078
330
5C87
100
AcDbEntity
  8
30
  6
Continuous
 62
     0
100
AcDbMText
 10
438.7518178735189
 20
0.0000000000000373
 30
0.0
 40
4.0
 41
0.0
 71
     5
 72
     1
  1
\A1;144
 11
0.0000000000000001
 21
1.0
 31
0.0
 73
     1
 44
1.0
1001
ACAD
1000
MTEXTBEGIN
1070
    73
1070
     1
1070
    44
1040
1.0
1070
    74
1070
     0
1000
MTEXTEND
  0
POINT
  5
6079
330
5C87
100
AcDbEntity
  8
DEFPOINTS
  6
Continuous
 62
     0
100
AcDbPoint
 10
433.8671757186888
 20
72.0
 30
0.0
  0
POINT
  5
607A
330
5C87
100
AcDbEntity
  8
DEFPOINTS
  6
Continuous
 62
     0
100
AcDbPoint
 10
429.6565297158111
 20
-72.00000000000007
 30
0.0
  0
POINT
  5
607B
330
5C87
100
AcDbEntity
  8
DEFPOINTS
  6
Continuous
 62
     0
100
AcDbPoint
 10
441.7518178735189
 20
-72.00000000000007
 30
0.0
  0
ENDBLK
  5
5C92
330
5C87
100
AcDbEntity
  8
0
100
AcDbBlockEnd
  0
BLOCK
  5
60CD
330
60C3
100
AcDbEntity
  8
0
100
AcDbBlockBegin
  2
*D16
 70
     1
 10
0.0
 20
0.0
 30
0.0
  3
*D16
  1

  0
LINE
  5
60CF
330
60C3
100
AcDbEntity
  8
30
  6
Continuous
 62
     0
100
AcDbLine
 10
344.4095201416831
 20
-61.00000000000006
 30
0.0
 11
344.4095201416831
 21
-36.5
 31
0.0
  0
LINE
  5
60D0
330
60C3
100
AcDbEntity
  8
30
  6
Continuous
 62
     0
100
AcDbLine
 10
322.4539287970315
 20
-61.00000000000021
 30
0.0
 11
322.4539287970315
 21
-36.5
 31
0.0
  0
LINE
  5
60D1
330
60C3
100
AcDbEntity
  8
30
  6
Continuous
 62
     0
100
AcDbLine
 10
342.4095201416831
 20
-37.0
 30
0.0
 11
324.4539287970315
 21
-37.0
 31
0.0
  0
INSERT
  5
60D2
330
60C3
100
AcDbEntity
  8
30
  6
Continuous
 62
     0
100
AcDbBlockReference
  2
_OPEN
 10
344.4095201416831
 20
-37.0
 30
0.0
 41
2.0
 42
2.0
 43
2.0
  0
INSERT
  5
60D3
330
60C3
100
AcDbEntity
  8
30
  6
Continuous
 62
     0
100
AcDbBlockReference
  2
_OPEN
 10
322.4539287970315
 20
-37.0
 30
0.0
 41
2.0
 42
2.0
 43
2.0
 50
180.0
  0
MTEXT
  5
60D4
330
60C3
100
AcDbEntity
  8
30
  6
Continuous
 62
     0
100
AcDbMText
 10
333.4317244693572
 20
-34.0
 30
0.0
 40
4.0
 41
0.0
 71
     5
 72
     1
  1
\A1;22
 73
     1
 44
1.0
1001
ACAD
1000
MTEXTBEGIN
1070
    73
1070
     1
1070
    44
1040
1.0
1070
    74
1070
     0
1000
MTEXTEND
  0
POINT
  5
60D5
330
60C3
100
AcDbEntity
  8
DEFPOINTS
  6
Continuous
 62
     0
100
AcDbPoint
 10
344.4095201416831
 20
-62.00000000000006
 30
0.0
  0
POINT
  5
60D6
330
60C3
100
AcDbEntity
  8
DEFPOINTS
  6
Continuous
 62
     0
100
AcDbPoint
 10
322.4539287970315
 20
-62.00000000000021
 30
0.0
  0
POINT
  5
60D7
330
60C3
100
AcDbEntity
  8
DEFPOINTS
  6
Continuous
 62
     0
100
AcDbPoint
 10
322.4539287970315
 20
-37.0
 30
0.0
  0
ENDBLK
  5
60CE
330
60C3
100
AcDbEntity
  8
0
100
AcDbBlockEnd
  0
BLOCK
  5
614F
330
6145
100
AcDbEntity
  8
0
100
AcDbBlockBegin
  2
*D17
 70
     1
 10
0.0
 20
0.0
 30
0.0
  3
*D17
  1

  0
LINE
  5
6146
330
6145
100
AcDbEntity
  8
30
  6
Continuous
 62
     0
100
AcDbLine
 10
-36.01790353517128
 20
300.0106271080801
 30
0.0
 11
-36.01790353517128
 21
343.5
 31
0.0
  0
LINE
  5
6147
330
6145
100
AcDbEntity
  8
30
  6
Continuous
 62
     0
100
AcDbLine
 10
-1.017903535171285
 20
335.0106271080802
 30
0.0
 11
-1.017903535171284
 21
343.5
 31
0.0
  0
LINE
  5
6148
330
6145
100
AcDbEntity
  8
30
  6
Continuous
 62
     0
100
AcDbLine
 10
-34.01790353517127
 20
343.0
 30
0.0
 11
-3.017903535171283
 21
343.0
 31
0.0
  0
INSERT
  5
6149
330
6145
100
AcDbEntity
  8
30
  6
Continuous
 62
     0
100
AcDbBlockReference
  2
_OPEN
 10
-36.01790353517128
 20
343.0
 30
0.0
 41
2.0
 42
2.0
 43
2.0
 50
180.0
  0
INSERT
  5
614A
330
6145
100
AcDbEntity
  8
30
  6
Continuous
 62
     0
100
AcDbBlockReference
  2
_OPEN
 10
-1.017903535171284
 20
343.0
 30
0.0
 41
2.0
 42
2.0
 43
2.0
  0
MTEXT
  5
614B
330
6145
100
AcDbEntity
  8
30
  6
Continuous
 62
     0
100
AcDbMText
 10
-18.51790353517127
 20
346.0
 30
0.0
 40
4.0
 41
0.0
 71
     5
 72
     1
  1
\A1;35
 73
     1
 44
1.0
1001
ACAD
1000
MTEXTBEGIN
1070
    73
1070
     1
1070
    44
1040
1.0
1070
    74
1070
     0
1000
MTEXTEND
  0
POINT
  5
614C
330
6145
100
AcDbEntity
  8
DEFPOINTS
  6
Continuous
 62
     0
100
AcDbPoint
 10
-36.01790353517128
 20
299.0106271080802
 30
0.0
  0
POINT
  5
614D
330
6145
100
AcDbEntity
  8
DEFPOINTS
  6
Continuous
 62
     0
100
AcDbPoint
 10
-1.017903535171285
 20
334.0106271080802
 30
0.0
  0
POINT
  5
614E
330
6145
100
AcDbEntity
  8
DEFPOINTS
  6
Continuous
 62
     0
100
AcDbPoint
 10
-1.017903535171284
 20
343.0
 30
0.0
  0
ENDBLK
  5
6150
330
6145
100
AcDbEntity
  8
0
100
AcDbBlockEnd
  0
BLOCK
  5
615C
330
6152
100
AcDbEntity
  8
0
100
AcDbBlockBegin
  2
*D18
 70
     1
 10
0.0
 20
0.0
 30
0.0
  3
*D18
  1

  0
LINE
  5
63CA
330
6152
100
AcDbEntity
  8
30
  6
Continuous
 62
     0
100
AcDbLine
 10
-1.017903535171285
 20
335.0106271080802
 30
0.0
 11
-1.017903535171284
 21
343.5
 31
0.0
  0
LINE
  5
63CB
330
6152
100
AcDbEntity
  8
30
  6
Continuous
 62
     0
100
AcDbLine
 10
33.9820964648287
 20
300.0106271080801
 30
0.0
 11
33.9820964648287
 21
343.5
 31
0.0
  0
LINE
  5
63CC
330
6152
100
AcDbEntity
  8
30
  6
Continuous
 62
     0
100
AcDbLine
 10
0.9820964648287151
 20
343.0
 30
0.0
 11
31.9820964648287
 21
343.0
 31
0.0
  0
INSERT
  5
63CD
330
6152
100
AcDbEntity
  8
30
  6
Continuous
 62
     0
100
AcDbBlockReference
  2
_OPEN
 10
-1.017903535171284
 20
343.0
 30
0.0
 41
2.0
 42
2.0
 43
2.0
 50
180.0
  0
INSERT
  5
63CE
330
6152
100
AcDbEntity
  8
30
  6
Continuous
 62
     0
100
AcDbBlockReference
  2
_OPEN
 10
33.9820964648287
 20
343.0
 30
0.0
 41
2.0
 42
2.0
 43
2.0
  0
MTEXT
  5
63CF
330
6152
100
AcDbEntity
  8
30
  6
Continuous
 62
     0
100
AcDbMText
 10
16.4820964648287
 20
346.0
 30
0.0
 40
4.0
 41
0.0
 71
     5
 72
     1
  1
\A1;35
 73
     1
 44
1.0
1001
ACAD
1000
MTEXTBEGIN
1070
    73
1070
     1
1070
    44
1040
1.0
1070
    74
1070
     0
1000
MTEXTEND
  0
POINT
  5
63D0
330
6152
100
AcDbEntity
  8
DEFPOINTS
  6
Continuous
 62
     0
100
AcDbPoint
 10
-1.017903535171285
 20
334.0106271080802
 30
0.0
  0
POINT
  5
63D1
330
6152
100
AcDbEntity
  8
DEFPOINTS
  6
Continuous
 62
     0
100
AcDbPoint
 10
33.9820964648287
 20
299.0106271080802
 30
0.0
  0
POINT
  5
63D2
330
6152
100
AcDbEntity
  8
DEFPOINTS
  6
Continuous
 62
     0
100
AcDbPoint
 10
33.9820964648287
 20
343.0
 30
0.0
  0
ENDBLK
  5
615D
330
6152
100
AcDbEntity
  8
0
100
AcDbBlockEnd
  0
BLOCK
  5
61C6
330
619A
100
AcDbEntity
  8
0
100
AcDbBlockBegin
  2
A$C7EBF77F6
 70
     0
 10
0.0
 20
0.0
 30
0.0
  3
A$C7EBF77F6
  1

  0
CIRCLE
  5
619B
330
619A
100
AcDbEntity
  8
10
  6
CONTINOUS
100
AcDbCircle
 10
31.10000000000005
 20
5.800000000000013
 30
0.0
 40
3.6
  0
CIRCLE
  5
619C
330
619A
100
AcDbEntity
  8
10
  6
CONTINOUS
100
AcDbCircle
 10
31.10000000000005
 20
5.800000000000013
 30
0.0
 40
2.6
  0
CIRCLE
  5
619D
330
619A
100
AcDbEntity
  8
10
  6
CONTINOUS
100
AcDbCircle
 10
31.10000000000005
 20
-1.900000000000004
 30
0.0
 40
3.6
  0
LINE
  5
619E
330
619A
100
AcDbEntity
  8
10
  6
CONTINOUS
100
AcDbLine
 10
27.00000000000001
 20
-6.999999999999971
 30
0.0
 11
36.20000000000013
 21
-6.999999999999971
 31
0.0
  0
LINE
  5
619F
330
619A
100
AcDbEntity
  8
10
  6
CONTINOUS
100
AcDbLine
 10
27.00000000000001
 20
-10.99999999999997
 30
0.0
 11
36.20000000000013
 21
-10.99999999999997
 31
0.0
  0
LINE
  5
61A0
330
619A
100
AcDbEntity
  8
10
  6
CONTINOUS
100
AcDbLine
 10
27.00000000000001
 20
-15.99999999999997
 30
0.0
 11
36.20000000000013
 21
-15.99999999999997
 31
0.0
  0
LINE
  5
61A1
330
619A
100
AcDbEntity
  8
10
  6
CONTINOUS
100
AcDbLine
 10
27.00000000000001
 20
-11.99999999999997
 30
0.0
 11
36.20000000000013
 21
-11.99999999999997
 31
0.0
  0
LINE
  5
61A2
330
619A
100
AcDbEntity
  8
10
  6
CONTINOUS
100
AcDbLine
 10
27.00000000000001
 20
-7.0
 30
0.0
 11
27.00000000000001
 21
-11.0
 31
0.0
  0
LINE
  5
61A3
330
619A
100
AcDbEntity
  8
10
  6
CONTINOUS
100
AcDbLine
 10
27.00000000000001
 20
-12.0
 30
0.0
 11
27.00000000000001
 21
-16.0
 31
0.0
  0
LINE
  5
61A4
330
619A
100
AcDbEntity
  8
10
  6
CONTINOUS
100
AcDbLine
 10
36.2
 20
-7.0
 30
0.0
 11
36.2
 21
-11.0
 31
0.0
  0
LINE
  5
61A5
330
619A
100
AcDbEntity
  8
10
  6
CONTINOUS
100
AcDbLine
 10
36.2
 20
-12.0
 30
0.0
 11
36.2
 21
-16.0
 31
0.0
  0
CIRCLE
  5
61A6
330
619A
100
AcDbEntity
  8
10
  6
CONTINOUS
100
AcDbCircle
 10
31.10000000000005
 20
-1.900000000000004
 30
0.0
 40
2.6
  0
CIRCLE
  5
61A7
330
619A
100
AcDbEntity
  8
10
  6
CONTINOUS
100
AcDbCircle
 10
31.10000000000005
 20
12.30000000000001
 30
0.0
 40
1.5
  0
LINE
  5
61A8
330
619A
100
AcDbEntity
  8
18
100
AcDbLine
 10
49.00000000000003
 20
0.0
 30
0.0
 11
49.00000000000003
 21
-34.02456426108177
 31
0.0
  0
LINE
  5
61A9
330
619A
100
AcDbEntity
  8
18
100
AcDbLine
 10
53.00000000000003
 20
0.0
 30
0.0
 11
53.00000000000003
 21
-34.47735581906582
 31
0.0
  0
LINE
  5
61AA
330
619A
100
AcDbEntity
  8
18
100
AcDbLine
 10
55.00000000000003
 20
0.0
 30
0.0
 11
55.00000000000003
 21
-33.79288839175109
 31
0.0
  0
LINE
  5
61AB
330
619A
100
AcDbEntity
  8
18
100
AcDbLine
 10
51.00000000000003
 20
0.0
 30
0.0
 11
51.00000000000003
 21
-33.45146422575911
 31
0.0
  0
ARC
  5
61AC
330
619A
100
AcDbEntity
  8
18
100
AcDbCircle
 10
49.00000000000003
 20
0.0
 30
0.0
 40
6.0
100
AcDbArc
 50
0.0000000002214684
 51
90.0
  0
ARC
  5
61AD
330
619A
100
AcDbEntity
  8
18
100
AcDbCircle
 10
49.00000000000003
 20
0.0
 30
0.0
 40
2.0
100
AcDbArc
 50
0.0000000006644052
 51
90.0
  0
ARC
  5
61AE
330
619A
100
AcDbEntity
  8
18
100
AcDbCircle
 10
49.00000000000003
 20
0.0
 30
0.0
 40
4.0
100
AcDbArc
 50
0.0000000003322026
 51
90.0
  0
LINE
  5
61AF
330
619A
100
AcDbEntity
  8
18
100
AcDbLine
 10
49.00000000000003
 20
-38.02456426108182
 30
0.0
 11
49.00000000000003
 21
-95.99999999999996
 31
0.0
  0
LINE
  5
61B0
330
619A
100
AcDbEntity
  8
18
100
AcDbLine
 10
51.00000000000003
 20
-37.45146422575919
 30
0.0
 11
51.00000000000003
 21
-96.0
 31
0.0
  0
LINE
  5
61B1
330
619A
100
AcDbEntity
  8
18
100
AcDbLine
 10
53.00000000000003
 20
-38.47735581906585
 30
0.0
 11
53.00000000000003
 21
-95.99999999999996
 31
0.0
  0
LINE
  5
61B2
330
619A
100
AcDbEntity
  8
18
100
AcDbLine
 10
55.00000000000003
 20
-37.79288839175104
 30
0.0
 11
55.00000000000003
 21
-95.99999999999996
 31
0.0
  0
LINE
  5
61B3
330
619A
100
AcDbEntity
  8
18
100
AcDbLine
 10
55.50000000000003
 20
-96.0
 30
0.0
 11
55.50000000000003
 21
-111.0
 31
0.0
  0
LINE
  5
61B4
330
619A
100
AcDbEntity
  8
18
100
AcDbLine
 10
48.50000000000003
 20
-96.0
 30
0.0
 11
48.50000000000003
 21
-111.0
 31
0.0
  0
LINE
  5
61B5
330
619A
100
AcDbEntity
  8
18
100
AcDbLine
 10
48.50000000000003
 20
-96.0
 30
0.0
 11
55.50000000000003
 21
-96.0
 31
0.0
  0
LINE
  5
61B6
330
619A
100
AcDbEntity
  8
18
100
AcDbLine
 10
53.00000000000003
 20
-111.0
 30
0.0
 11
53.00000000000003
 21
-143.5
 31
0.0
  0
LINE
  5
61B7
330
619A
100
AcDbEntity
  8
18
100
AcDbLine
 10
49.00000000000003
 20
-111.0
 30
0.0
 11
49.00000000000003
 21
-143.5
 31
0.0
  0
LINE
  5
61B8
330
619A
100
AcDbEntity
  8
18
100
AcDbLine
 10
51.00000000000003
 20
-111.0
 30
0.0
 11
51.00000000000003
 21
-143.5
 31
0.0
  0
LINE
  5
61B9
330
619A
100
AcDbEntity
  8
18
100
AcDbLine
 10
55.00000000000003
 20
-111.0
 30
0.0
 11
55.00000000000003
 21
-143.5
 31
0.0
  0
LINE
  5
61BA
330
619A
100
AcDbEntity
  8
18
100
AcDbLine
 10
51.50000000000003
 20
-148.5
 30
0.0
 11
52.50000000000003
 21
-148.5
 31
0.0
  0
LINE
  5
61BB
330
619A
100
AcDbEntity
  8
18
100
AcDbLine
 10
51.50000000000003
 20
-143.5
 30
0.0
 11
51.50000000000003
 21
-148.5
 31
0.0
  0
LINE
  5
61BC
330
619A
100
AcDbEntity
  8
18
100
AcDbLine
 10
52.50000000000003
 20
-143.5
 30
0.0
 11
52.50000000000003
 21
-148.5
 31
0.0
  0
LINE
  5
61BD
330
619A
100
AcDbEntity
  8
18
100
AcDbLine
 10
53.00000000000003
 20
-143.5
 30
0.0
 11
55.00000000000003
 21
-143.5
 31
0.0
  0
LINE
  5
61BE
330
619A
100
AcDbEntity
  8
18
100
AcDbLine
 10
53.50000000000003
 20
-143.5
 30
0.0
 11
53.50000000000003
 21
-148.5
 31
0.0
  0
LINE
  5
61BF
330
619A
100
AcDbEntity
  8
18
100
AcDbLine
 10
51.00000000000003
 20
-143.5
 30
0.0
 11
53.00000000000003
 21
-143.5
 31
0.0
  0
LINE
  5
61C0
330
619A
100
AcDbEntity
  8
18
100
AcDbLine
 10
54.50000000000002
 20
-143.5
 30
0.0
 11
54.50000000000002
 21
-148.5
 31
0.0
  0
LINE
  5
61C1
330
619A
100
AcDbEntity
  8
18
100
AcDbLine
 10
53.50000000000003
 20
-148.5
 30
0.0
 11
54.50000000000002
 21
-148.5
 31
0.0
  0
LINE
  5
61C2
330
619A
100
AcDbEntity
  8
18
100
AcDbLine
 10
50.50000000000003
 20
-143.5
 30
0.0
 11
50.50000000000003
 21
-148.5
 31
0.0
  0
LINE
  5
61C3
330
619A
100
AcDbEntity
  8
18
100
AcDbLine
 10
49.50000000000002
 20
-148.5
 30
0.0
 11
50.50000000000003
 21
-148.5
 31
0.0
  0
LINE
  5
61C4
330
619A
100
AcDbEntity
  8
18
100
AcDbLine
 10
49.50000000000002
 20
-143.5
 30
0.0
 11
49.50000000000002
 21
-148.5
 31
0.0
  0
LINE
  5
61C5
330
619A
100
AcDbEntity
  8
18
100
AcDbLine
 10
49.00000000000003
 20
-143.5
 30
0.0
 11
51.00000000000003
 21
-143.5
 31
0.0
  0
ENDBLK
  5
61C7
330
619A
100
AcDbEntity
  8
0
100
AcDbBlockEnd
  0
BLOCK
  5
6260
330
6256
100
AcDbEntity
  8
0
100
AcDbBlockBegin
  2
*D20
 70
     1
 10
0.0
 20
0.0
 30
0.0
  3
*D20
  1

  0
LINE
  5
626E
330
6256
100
AcDbEntity
  8
30
  6
Continuous
 62
     0
100
AcDbLine
 10
-10.99999999999999
 20
-26.0
 30
0.0
 11
-10.99999999999999
 21
-40.95444641199117
 31
0.0
  0
LINE
  5
626F
330
6256
100
AcDbEntity
  8
30
  6
Continuous
 62
     0
100
AcDbLine
 10
10.99999999999999
 20
-26.0
 30
0.0
 11
10.99999999999998
 21
-40.95444641199117
 31
0.0
  0
LINE
  5
6270
330
6256
100
AcDbEntity
  8
30
  6
Continuous
 62
     0
100
AcDbLine
 10
-8.999999999999991
 20
-40.45444641199117
 30
0.0
 11
8.999999999999987
 21
-40.45444641199117
 31
0.0
  0
INSERT
  5
6271
330
6256
100
AcDbEntity
  8
30
  6
Continuous
 62
     0
100
AcDbBlockReference
  2
_OPEN
 10
-10.99999999999999
 20
-40.45444641199117
 30
0.0
 41
2.0
 42
2.0
 43
2.0
 50
180.0
  0
INSERT
  5
6272
330
6256
100
AcDbEntity
  8
30
  6
Continuous
 62
     0
100
AcDbBlockReference
  2
_OPEN
 10
10.99999999999998
 20
-40.45444641199117
 30
0.0
 41
2.0
 42
2.0
 43
2.0
  0
MTEXT
  5
6273
330
6256
100
AcDbEntity
  8
30
  6
Continuous
 62
     0
100
AcDbMText
 10
-0.0000000000000016
 20
-37.45444641199117
 30
0.0
 40
4.0
 41
0.0
 71
     5
 72
     1
  1
\A1;22
 73
     1
 44
1.0
1001
ACAD
1000
MTEXTBEGIN
1070
    73
1070
     1
1070
    44
1040
1.0
1070
    74
1070
     0
1000
MTEXTEND
  0
POINT
  5
6274
330
6256
100
AcDbEntity
  8
DEFPOINTS
  6
Continuous
 62
     0
100
AcDbPoint
 10
-10.99999999999999
 20
-25.0
 30
0.0
  0
POINT
  5
6275
330
6256
100
AcDbEntity
  8
DEFPOINTS
  6
Continuous
 62
     0
100
AcDbPoint
 10
10.99999999999999
 20
-25.0
 30
0.0
  0
POINT
  5
6276
330
6256
100
AcDbEntity
  8
DEFPOINTS
  6
Continuous
 62
     0
100
AcDbPoint
 10
10.99999999999998
 20
-40.45444641199117
 30
0.0
  0
ENDBLK
  5
6261
330
6256
100
AcDbEntity
  8
0
100
AcDbBlockEnd
  0
BLOCK
  5
626C
330
6262
100
AcDbEntity
  8
0
100
AcDbBlockBegin
  2
*D21
 70
     1
 10
0.0
 20
0.0
 30
0.0
  3
*D21
  1

  0
LINE
  5
6277
330
6262
100
AcDbEntity
  8
30
  6
Continuous
 62
     0
100
AcDbLine
 10
-48.99999999999998
 20
26.0
 30
0.0
 11
-48.99999999999998
 21
35.71319198619852
 31
0.0
  0
LINE
  5
6278
330
6262
100
AcDbEntity
  8
30
  6
Continuous
 62
     0
100
AcDbLine
 10
49.00000000000003
 20
26.0
 30
0.0
 11
49.00000000000003
 21
35.71319198619852
 31
0.0
  0
LINE
  5
6279
330
6262
100
AcDbEntity
  8
30
  6
Continuous
 62
     0
100
AcDbLine
 10
-46.99999999999998
 20
35.21319198619853
 30
0.0
 11
47.00000000000001
 21
35.21319198619853
 31
0.0
  0
INSERT
  5
627A
330
6262
100
AcDbEntity
  8
30
  6
Continuous
 62
     0
100
AcDbBlockReference
  2
_OPEN
 10
-48.99999999999998
 20
35.21319198619853
 30
0.0
 41
2.0
 42
2.0
 43
2.0
 50
180.0
  0
INSERT
  5
627B
330
6262
100
AcDbEntity
  8
30
  6
Continuous
 62
     0
100
AcDbBlockReference
  2
_OPEN
 10
49.00000000000003
 20
35.21319198619853
 30
0.0
 41
2.0
 42
2.0
 43
2.0
  0
MTEXT
  5
627C
330
6262
100
AcDbEntity
  8
30
  6
Continuous
 62
     0
100
AcDbMText
 10
0.0000000000000251
 20
38.21319198619852
 30
0.0
 40
4.0
 41
0.0
 71
     5
 72
     1
  1
\A1;98
 73
     1
 44
1.0
1001
ACAD
1000
MTEXTBEGIN
1070
    73
1070
     1
1070
    44
1040
1.0
1070
    74
1070
     0
1000
MTEXTEND
  0
POINT
  5
627D
330
6262
100
AcDbEntity
  8
DEFPOINTS
  6
Continuous
 62
     0
100
AcDbPoint
 10
-48.99999999999998
 20
25.0
 30
0.0
  0
POINT
  5
627E
330
6262
100
AcDbEntity
  8
DEFPOINTS
  6
Continuous
 62
     0
100
AcDbPoint
 10
49.00000000000003
 20
25.0
 30
0.0
  0
POINT
  5
627F
330
6262
100
AcDbEntity
  8
DEFPOINTS
  6
Continuous
 62
     0
100
AcDbPoint
 10
49.00000000000003
 20
35.21319198619853
 30
0.0
  0
ENDBLK
  5
626D
330
6262
100
AcDbEntity
  8
0
100
AcDbBlockEnd
  0
BLOCK
  5
6508
330
6507
100
AcDbEntity
  8
TOP
  6
Continuous
 62
     4
100
AcDbBlockBegin
  2
*U23
 70
     1
 10
0.0
 20
0.0
 30
0.0
  3
*U23
  1

  0
LINE
  5
6509
330
6507
100
AcDbEntity
  8
1
  6
ByBlock
 62
     0
100
AcDbLine
 10
327.8511961722488
 20
79.86472320362056
 30
0.0
 11
333.0330054314933
 21
79.86472320362056
 31
0.0
  0
LINE
  5
650A
330
6507
100
AcDbEntity
  8
1
  6
ByBlock
 62
     0
100
AcDbLine
 10
325.6511961722488
 20
137.4647232036204
 30
0.0
 11
333.0330054314933
 21
137.4647232036204
 31
0.0
  0
TEXT
  5
650B
330
6507
100
AcDbEntity
  8
TOP
  6
ByBlock
 62
     0
100
AcDbText
 10
330.7830054229933
 20
107.7988377856377
 30
0.0
 40
2.500000003799998
  1
 
 50
89.99999999999404
 41
1.189062499999995
  7
UGMTXT
100
AcDbText
  0
ENDBLK
  5
650C
330
6507
100
AcDbEntity
  8
0
100
AcDbBlockEnd
  0
BLOCK
  5
650E
330
650D
100
AcDbEntity
  8
TOP
  6
Continuous
 62
     4
100
AcDbBlockBegin
  2
*U24
 70
     1
 10
0.0
 20
0.0
 30
0.0
  3
*U24
  1

  0
LINE
  5
650F
330
650D
100
AcDbEntity
  8
1
  6
ByBlock
 62
     0
100
AcDbLine
 10
294.8511961722488
 20
82.86472321022058
 30
0.0
 11
294.8511961722488
 21
94.7500000047
 31
0.0
  0
LINE
  5
6510
330
650D
100
AcDbEntity
  8
1
  6
ByBlock
 62
     0
100
AcDbLine
 10
303.6511961722486
 20
80.86472321022059
 30
0.0
 11
303.6511961722486
 21
94.7500000047
 31
0.0
  0
LINE
  5
6511
330
650D
100
AcDbEntity
  8
1
  6
ByBlock
 62
     0
100
AcDbLine
 10
294.8511961722488
 20
93.74999999809999
 30
0.0
 11
303.6511961722486
 21
93.74999999809999
 31
0.0
  0
SOLID
  5
6512
330
650D
100
AcDbEntity
  8
1
  6
ByBlock
 62
     0
100
AcDbTrace
 10
294.8511961722488
 20
93.74999999809999
 30
0.0
 11
296.8511961854486
 21
94.08333333363335
 31
0.0
 12
296.8511961854486
 22
93.41666666256669
 32
0.0
 13
296.8511961854486
 23
93.41666666256669
 33
0.0
  0
SOLID
  5
6513
330
650D
100
AcDbEntity
  8
1
  6
ByBlock
 62
     0
100
AcDbTrace
 10
303.6511961722486
 20
93.74999999809999
 30
0.0
 11
301.6511961590488
 21
93.41666666256669
 31
0.0
 12
301.6511961590488
 22
94.08333333363335
 32
0.0
 13
301.6511961590488
 23
94.08333333363335
 33
0.0
  0
TEXT
  5
6514
330
650D
100
AcDbEntity
  8
TOP
  6
ByBlock
 62
     0
100
AcDbText
 10
297.3944253360932
 20
95.0
 30
0.0
 40
2.500000003799998
  1
22
 41
0.8912499999999965
  7
UGMTXT
100
AcDbText
  0
ENDBLK
  5
6515
330
650D
100
AcDbEntity
  8
0
100
AcDbBlockEnd
  0
BLOCK
  5
6517
330
6516
100
AcDbEntity
  8
0
100
AcDbBlockBegin
  2
*D25
 70
     1
 10
0.0
 20
0.0
 30
0.0
  3
*D25
  1

  0
LINE
  5
6518
330
6516
100
AcDbEntity
  8
30
  6
Continuous
 62
     0
370
    -2
100
AcDbLine
 10
198.1436111629232
 20
-105.8476821548368
 30
0.0
 11
198.1436111629232
 21
-184.802128566828
 31
0.0
  0
LINE
  5
6519
330
6516
100
AcDbEntity
  8
30
  6
Continuous
 62
     0
370
    -2
100
AcDbLine
 10
359.1436111629229
 20
-71.84768215483697
 30
0.0
 11
359.1436111629229
 21
-184.802128566828
 31
0.0
  0
LINE
  5
651A
330
6516
100
AcDbEntity
  8
30
  6
Continuous
 62
     0
370
    -2
100
AcDbLine
 10
200.1436111629232
 20
-184.302128566828
 30
0.0
 11
357.1436111629229
 21
-184.302128566828
 31
0.0
  0
INSERT
  5
651B
330
6516
100
AcDbEntity
  8
30
  6
Continuous
 62
     0
370
    -2
100
AcDbBlockReference
  2
_OPEN
 10
198.1436111629232
 20
-184.302128566828
 30
0.0
 41
2.0
 42
2.0
 43
2.0
 50
180.0
  0
INSERT
  5
651C
330
6516
100
AcDbEntity
  8
30
  6
Continuous
 62
     0
370
    -2
100
AcDbBlockReference
  2
_OPEN
 10
359.1436111629229
 20
-184.302128566828
 30
0.0
 41
2.0
 42
2.0
 43
2.0
  0
MTEXT
  5
651D
330
6516
100
AcDbEntity
  8
30
  6
Continuous
 62
     0
100
AcDbMText
 10
278.6436111629231
 20
-181.3021285668279
 30
0.0
 40
4.0
 41
0.0
 71
     5
 72
     1
  1
\A1;161
 73
     1
 44
1.0
1001
ACAD
1000
MTEXTBEGIN
1070
    73
1070
     1
1070
    44
1040
1.0
1070
    74
1070
     0
1000
MTEXTEND
  0
POINT
  5
651E
330
6516
100
AcDbEntity
  8
DEFPOINTS
  6
Continuous
 62
     0
100
AcDbPoint
 10
198.1436111629232
 20
-104.8476821548368
 30
0.0
  0
POINT
  5
651F
330
6516
100
AcDbEntity
  8
DEFPOINTS
  6
Continuous
 62
     0
100
AcDbPoint
 10
359.1436111629229
 20
-70.84768215483697
 30
0.0
  0
POINT
  5
6520
330
6516
100
AcDbEntity
  8
DEFPOINTS
  6
Continuous
 62
     0
100
AcDbPoint
 10
359.1436111629229
 20
-184.302128566828
 30
0.0
  0
ENDBLK
  5
6521
330
6516
100
AcDbEntity
  8
0
100
AcDbBlockEnd
  0
BLOCK
  5
6523
330
6522
100
AcDbEntity
  8
0
100
AcDbBlockBegin
  2
*D26
 70
     1
 10
0.0
 20
0.0
 30
0.0
  3
*D26
  1

  0
LINE
  5
6524
330
6522
100
AcDbEntity
  8
30
  6
Continuous
 62
     0
370
    -2
100
AcDbLine
 10
198.1436111629232
 20
-105.8476821548368
 30
0.0
 11
198.1436111629232
 21
-159.802128566828
 31
0.0
  0
LINE
  5
6525
330
6522
100
AcDbEntity
  8
30
  6
Continuous
 62
     0
370
    -2
100
AcDbLine
 10
324.143611162923
 20
-71.84768215483697
 30
0.0
 11
324.143611162923
 21
-159.802128566828
 31
0.0
  0
LINE
  5
6526
330
6522
100
AcDbEntity
  8
30
  6
Continuous
 62
     0
370
    -2
100
AcDbLine
 10
200.1436111629232
 20
-159.3021285668279
 30
0.0
 11
322.143611162923
 21
-159.3021285668279
 31
0.0
  0
INSERT
  5
6527
330
6522
100
AcDbEntity
  8
30
  6
Continuous
 62
     0
370
    -2
100
AcDbBlockReference
  2
_OPEN
 10
198.1436111629232
 20
-159.3021285668279
 30
0.0
 41
2.0
 42
2.0
 43
2.0
 50
180.0
  0
INSERT
  5
6528
330
6522
100
AcDbEntity
  8
30
  6
Continuous
 62
     0
370
    -2
100
AcDbBlockReference
  2
_OPEN
 10
324.143611162923
 20
-159.3021285668279
 30
0.0
 41
2.0
 42
2.0
 43
2.0
  0
MTEXT
  5
6529
330
6522
100
AcDbEntity
  8
30
  6
Continuous
 62
     0
100
AcDbMText
 10
261.1436111629231
 20
-156.3021285668279
 30
0.0
 40
4.0
 41
0.0
 71
     5
 72
     1
  1
\A1;126
 73
     1
 44
1.0
1001
ACAD
1000
MTEXTBEGIN
1070
    73
1070
     1
1070
    44
1040
1.0
1070
    74
1070
     0
1000
MTEXTEND
  0
POINT
  5
652A
330
6522
100
AcDbEntity
  8
DEFPOINTS
  6
Continuous
 62
     0
100
AcDbPoint
 10
198.1436111629232
 20
-104.8476821548368
 30
0.0
  0
POINT
  5
652B
330
6522
100
AcDbEntity
  8
DEFPOINTS
  6
Continuous
 62
     0
100
AcDbPoint
 10
324.143611162923
 20
-70.84768215483697
 30
0.0
  0
POINT
  5
652C
330
6522
100
AcDbEntity
  8
DEFPOINTS
  6
Continuous
 62
     0
100
AcDbPoint
 10
324.143611162923
 20
-159.3021285668279
 30
0.0
  0
ENDBLK
  5
652D
330
6522
100
AcDbEntity
  8
0
100
AcDbBlockEnd
  0
BLOCK
  5
652F
330
652E
100
AcDbEntity
  8
0
100
AcDbBlockBegin
  2
*D27
 70
     1
 10
0.0
 20
0.0
 30
0.0
  3
*D27
  1

  0
LINE
  5
6530
330
652E
100
AcDbEntity
  8
30
  6
Continuous
 62
     0
370
    -2
100
AcDbLine
 10
183.1436111629232
 20
-95.84768215483697
 30
0.0
 11
183.1436111629232
 21
-159.802128566828
 31
0.0
  0
LINE
  5
6531
330
652E
100
AcDbEntity
  8
30
  6
Continuous
 62
     0
370
    -2
100
AcDbLine
 10
198.1436111629232
 20
-105.8476821548368
 30
0.0
 11
198.1436111629232
 21
-159.802128566828
 31
0.0
  0
LINE
  5
6532
330
652E
100
AcDbEntity
  8
30
  6
Continuous
 62
     0
370
    -2
100
AcDbLine
 10
185.1436111629232
 20
-159.3021285668279
 30
0.0
 11
196.1436111629232
 21
-159.3021285668279
 31
0.0
  0
INSERT
  5
6533
330
652E
100
AcDbEntity
  8
30
  6
Continuous
 62
     0
370
    -2
100
AcDbBlockReference
  2
_OPEN
 10
183.1436111629232
 20
-159.3021285668279
 30
0.0
 41
2.0
 42
2.0
 43
2.0
 50
180.0
  0
INSERT
  5
6534
330
652E
100
AcDbEntity
  8
30
  6
Continuous
 62
     0
370
    -2
100
AcDbBlockReference
  2
_OPEN
 10
198.1436111629232
 20
-159.3021285668279
 30
0.0
 41
2.0
 42
2.0
 43
2.0
  0
MTEXT
  5
6535
330
652E
100
AcDbEntity
  8
30
  6
Continuous
 62
     0
100
AcDbMText
 10
190.6436111629232
 20
-156.3021285668279
 30
0.0
 40
4.0
 41
0.0
 71
     5
 72
     1
  1
\A1;15
 73
     1
 44
1.0
1001
ACAD
1000
MTEXTBEGIN
1070
    73
1070
     1
1070
    44
1040
1.0
1070
    74
1070
     0
1000
MTEXTEND
  0
POINT
  5
6536
330
652E
100
AcDbEntity
  8
DEFPOINTS
  6
Continuous
 62
     0
100
AcDbPoint
 10
183.1436111629232
 20
-94.84768215483695
 30
0.0
  0
POINT
  5
6537
330
652E
100
AcDbEntity
  8
DEFPOINTS
  6
Continuous
 62
     0
100
AcDbPoint
 10
198.1436111629232
 20
-104.8476821548368
 30
0.0
  0
POINT
  5
6538
330
652E
100
AcDbEntity
  8
DEFPOINTS
  6
Continuous
 62
     0
100
AcDbPoint
 10
198.1436111629232
 20
-159.3021285668279
 30
0.0
  0
ENDBLK
  5
6539
330
652E
100
AcDbEntity
  8
0
100
AcDbBlockEnd
  0
BLOCK
  5
653B
330
653A
100
AcDbEntity
  8
0
100
AcDbBlockBegin
  2
*D28
 70
     1
 10
0.0
 20
0.0
 30
0.0
  3
*D28
  1

  0
LINE
  5
653C
330
653A
100
AcDbEntity
  8
30
  6
Continuous
 62
     0
370
    -2
100
AcDbLine
 10
161.1436111629231
 20
-2.34768217133697
 30
0.0
 11
161.1436111629231
 21
-184.802128566828
 31
0.0
  0
LINE
  5
653D
330
653A
100
AcDbEntity
  8
30
  6
Continuous
 62
     0
370
    -2
100
AcDbLine
 10
198.1436111629232
 20
-105.8476821548368
 30
0.0
 11
198.1436111629232
 21
-184.802128566828
 31
0.0
  0
LINE
  5
653E
330
653A
100
AcDbEntity
  8
30
  6
Continuous
 62
     0
370
    -2
100
AcDbLine
 10
163.1436111629231
 20
-184.302128566828
 30
0.0
 11
196.1436111629232
 21
-184.302128566828
 31
0.0
  0
INSERT
  5
653F
330
653A
100
AcDbEntity
  8
30
  6
Continuous
 62
     0
370
    -2
100
AcDbBlockReference
  2
_OPEN
 10
161.1436111629231
 20
-184.302128566828
 30
0.0
 41
2.0
 42
2.0
 43
2.0
 50
180.0
  0
INSERT
  5
6540
330
653A
100
AcDbEntity
  8
30
  6
Continuous
 62
     0
370
    -2
100
AcDbBlockReference
  2
_OPEN
 10
198.1436111629232
 20
-184.302128566828
 30
0.0
 41
2.0
 42
2.0
 43
2.0
  0
MTEXT
  5
6541
330
653A
100
AcDbEntity
  8
30
  6
Continuous
 62
     0
100
AcDbMText
 10
179.6436111629231
 20
-181.3021285668279
 30
0.0
 40
4.0
 41
0.0
 71
     5
 72
     1
  1
\A1;37
 73
     1
 44
1.0
1001
ACAD
1000
MTEXTBEGIN
1070
    73
1070
     1
1070
    44
1040
1.0
1070
    74
1070
     0
1000
MTEXTEND
  0
POINT
  5
6542
330
653A
100
AcDbEntity
  8
DEFPOINTS
  6
Continuous
 62
     0
100
AcDbPoint
 10
161.1436111629231
 20
-1.34768217133697
 30
0.0
  0
POINT
  5
6543
330
653A
100
AcDbEntity
  8
DEFPOINTS
  6
Continuous
 62
     0
100
AcDbPoint
 10
198.1436111629232
 20
-104.8476821548368
 30
0.0
  0
POINT
  5
6544
330
653A
100
AcDbEntity
  8
DEFPOINTS
  6
Continuous
 62
     0
100
AcDbPoint
 10
198.1436111629232
 20
-184.302128566828
 30
0.0
  0
ENDBLK
  5
6545
330
653A
100
AcDbEntity
  8
0
100
AcDbBlockEnd
  0
BLOCK
  5
6547
330
6546
100
AcDbEntity
  8
0
100
AcDbBlockBegin
  2
*D29
 70
     1
 10
0.0
 20
0.0
 30
0.0
  3
*D29
  1

  0
LINE
  5
6548
330
6546
100
AcDbEntity
  8
30
  6
Continuous
 62
     0
370
    -2
100
AcDbLine
 10
360.1436111629229
 20
70.15231784516308
 30
0.0
 11
394.890620737051
 21
70.15231784516308
 31
0.0
  0
LINE
  5
6549
330
6546
100
AcDbEntity
  8
30
  6
Continuous
 62
     0
370
    -2
100
AcDbLine
 10
360.1436111629229
 20
76.15231784516308
 30
0.0
 11
394.890620737051
 21
76.15231784516308
 31
0.0
  0
LINE
  5
654A
330
6546
100
AcDbEntity
  8
30
  6
Continuous
 62
     0
370
    -2
100
AcDbLine
 10
394.390620737051
 20
68.15231784516308
 30
0.0
 11
394.390620737051
 21
66.15231784516308
 31
0.0
  0
LINE
  5
654B
330
6546
100
AcDbEntity
  8
30
  6
Continuous
 62
     0
370
    -2
100
AcDbLine
 10
394.390620737051
 20
78.15231784516308
 30
0.0
 11
394.390620737051
 21
80.15231784516306
 31
0.0
  0
INSERT
  5
654C
330
6546
100
AcDbEntity
  8
30
  6
Continuous
 62
     0
370
    -2
100
AcDbBlockReference
  2
_OPEN
 10
394.390620737051
 20
70.15231784516308
 30
0.0
 41
2.0
 42
2.0
 43
2.0
 50
90.0
  0
INSERT
  5
654D
330
6546
100
AcDbEntity
  8
30
  6
Continuous
 62
     0
370
    -2
100
AcDbBlockReference
  2
_OPEN
 10
394.390620737051
 20
76.15231784516308
 30
0.0
 41
2.0
 42
2.0
 43
2.0
 50
270.0
  0
MTEXT
  5
654E
330
6546
100
AcDbEntity
  8
30
  6
Continuous
 62
     0
100
AcDbMText
 10
391.390620737051
 20
73.15231784516313
 30
0.0
 40
4.0
 41
0.0
 71
     5
 72
     1
  1
\A1;6
 11
0.0000000000000001
 21
1.0
 31
0.0
 73
     1
 44
1.0
1001
ACAD
1000
MTEXTBEGIN
1070
    73
1070
     1
1070
    44
1040
1.0
1070
    74
1070
     0
1000
MTEXTEND
  0
POINT
  5
654F
330
6546
100
AcDbEntity
  8
DEFPOINTS
  6
Continuous
 62
     0
100
AcDbPoint
 10
359.1436111629229
 20
70.15231784516308
 30
0.0
  0
POINT
  5
6550
330
6546
100
AcDbEntity
  8
DEFPOINTS
  6
Continuous
 62
     0
100
AcDbPoint
 10
359.1436111629229
 20
76.15231784516308
 30
0.0
  0
POINT
  5
6551
330
6546
100
AcDbEntity
  8
DEFPOINTS
  6
Continuous
 62
     0
100
AcDbPoint
 10
394.390620737051
 20
76.15231784516308
 30
0.0
  0
ENDBLK
  5
6552
330
6546
100
AcDbEntity
  8
0
100
AcDbBlockEnd
  0
BLOCK
  5
6554
330
6553
100
AcDbEntity
  8
0
100
AcDbBlockBegin
  2
*D30
 70
     1
 10
0.0
 20
0.0
 30
0.0
  3
*D30
  1

  0
LINE
  5
6555
330
6553
100
AcDbEntity
  8
30
  6
Continuous
 62
     0
370
    -2
100
AcDbLine
 10
357.4641192386118
 20
-80.84768215483697
 30
0.0
 11
394.890620737051
 21
-80.84768215483697
 31
0.0
  0
LINE
  5
6556
330
6553
100
AcDbEntity
  8
30
  6
Continuous
 62
     0
370
    -2
100
AcDbLine
 10
357.4641192386118
 20
-60.84768215483697
 30
0.0
 11
394.890620737051
 21
-60.84768215483698
 31
0.0
  0
LINE
  5
6557
330
6553
100
AcDbEntity
  8
30
  6
Continuous
 62
     0
370
    -2
100
AcDbLine
 10
394.390620737051
 20
-78.84768215483697
 30
0.0
 11
394.390620737051
 21
-62.84768215483698
 31
0.0
  0
INSERT
  5
6558
330
6553
100
AcDbEntity
  8
30
  6
Continuous
 62
     0
370
    -2
100
AcDbBlockReference
  2
_OPEN
 10
394.390620737051
 20
-80.84768215483697
 30
0.0
 41
2.0
 42
2.0
 43
2.0
 50
270.0
  0
INSERT
  5
6559
330
6553
100
AcDbEntity
  8
30
  6
Continuous
 62
     0
370
    -2
100
AcDbBlockReference
  2
_OPEN
 10
394.390620737051
 20
-60.84768215483698
 30
0.0
 41
2.0
 42
2.0
 43
2.0
 50
90.0
  0
MTEXT
  5
655A
330
6553
100
AcDbEntity
  8
30
  6
Continuous
 62
     0
100
AcDbMText
 10
391.390620737051
 20
-70.8476821548369
 30
0.0
 40
4.0
 41
0.0
 71
     5
 72
     1
  1
\A1;20
 11
0.0000000000000001
 21
1.0
 31
0.0
 73
     1
 44
1.0
1001
ACAD
1000
MTEXTBEGIN
1070
    73
1070
     1
1070
    44
1040
1.0
1070
    74
1070
     0
1000
MTEXTEND
  0
POINT
  5
655B
330
6553
100
AcDbEntity
  8
DEFPOINTS
  6
Continuous
 62
     0
100
AcDbPoint
 10
356.4641192386118
 20
-80.84768215483697
 30
0.0
  0
POINT
  5
655C
330
6553
100
AcDbEntity
  8
DEFPOINTS
  6
Continuous
 62
     0
100
AcDbPoint
 10
356.4641192386118
 20
-60.84768215483697
 30
0.0
  0
POINT
  5
655D
330
6553
100
AcDbEntity
  8
DEFPOINTS
  6
Continuous
 62
     0
100
AcDbPoint
 10
394.390620737051
 20
-60.84768215483698
 30
0.0
  0
ENDBLK
  5
655E
330
6553
100
AcDbEntity
  8
0
100
AcDbBlockEnd
  0
BLOCK
  5
6560
330
655F
100
AcDbEntity
  8
0
100
AcDbBlockBegin
  2
*D31
 70
     1
 10
0.0
 20
0.0
 30
0.0
  3
*D31
  1

  0
LINE
  5
6561
330
655F
100
AcDbEntity
  8
30
  6
Continuous
 62
     0
370
    -2
100
AcDbLine
 10
309.1436111629228
 20
-74.34768217133694
 30
0.0
 11
309.1436111629228
 21
-134.802128566828
 31
0.0
  0
LINE
  5
6562
330
655F
100
AcDbEntity
  8
30
  6
Continuous
 62
     0
370
    -2
100
AcDbLine
 10
324.143611162923
 20
-82.15544625489766
 30
0.0
 11
324.143611162923
 21
-134.802128566828
 31
0.0
  0
LINE
  5
6563
330
655F
100
AcDbEntity
  8
30
  6
Continuous
 62
     0
370
    -2
100
AcDbLine
 10
311.1436111629228
 20
-134.302128566828
 30
0.0
 11
322.143611162923
 21
-134.302128566828
 31
0.0
  0
INSERT
  5
6564
330
655F
100
AcDbEntity
  8
30
  6
Continuous
 62
     0
370
    -2
100
AcDbBlockReference
  2
_OPEN
 10
309.1436111629228
 20
-134.302128566828
 30
0.0
 41
2.0
 42
2.0
 43
2.0
 50
180.0
  0
INSERT
  5
6565
330
655F
100
AcDbEntity
  8
30
  6
Continuous
 62
     0
370
    -2
100
AcDbBlockReference
  2
_OPEN
 10
324.143611162923
 20
-134.302128566828
 30
0.0
 41
2.0
 42
2.0
 43
2.0
  0
MTEXT
  5
6566
330
655F
100
AcDbEntity
  8
30
  6
Continuous
 62
     0
100
AcDbMText
 10
316.6436111629228
 20
-131.302128566828
 30
0.0
 40
4.0
 41
0.0
 71
     5
 72
     1
  1
\A1;15
 73
     1
 44
1.0
1001
ACAD
1000
MTEXTBEGIN
1070
    73
1070
     1
1070
    44
1040
1.0
1070
    74
1070
     0
1000
MTEXTEND
  0
POINT
  5
6567
330
655F
100
AcDbEntity
  8
DEFPOINTS
  6
Continuous
 62
     0
100
AcDbPoint
 10
309.1436111629228
 20
-73.34768217133694
 30
0.0
  0
POINT
  5
6568
330
655F
100
AcDbEntity
  8
DEFPOINTS
  6
Continuous
 62
     0
100
AcDbPoint
 10
324.143611162923
 20
-81.15544625489766
 30
0.0
  0
POINT
  5
6569
330
655F
100
AcDbEntity
  8
DEFPOINTS
  6
Continuous
 62
     0
100
AcDbPoint
 10
324.143611162923
 20
-134.302128566828
 30
0.0
  0
ENDBLK
  5
656A
330
655F
100
AcDbEntity
  8
0
100
AcDbBlockEnd
  0
BLOCK
  5
656C
330
656B
100
AcDbEntity
  8
0
100
AcDbBlockBegin
  2
*D32
 70
     1
 10
0.0
 20
0.0
 30
0.0
  3
*D32
  1

  0
LINE
  5
656D
330
656B
100
AcDbEntity
  8
30
  6
Continuous
 62
     0
370
    -2
100
AcDbLine
 10
344.1436111629229
 20
-74.34768217133694
 30
0.0
 11
344.1436111629229
 21
-134.802128566828
 31
0.0
  0
LINE
  5
656E
330
656B
100
AcDbEntity
  8
30
  6
Continuous
 62
     0
370
    -2
100
AcDbLine
 10
359.1436111629229
 20
-82.15544625489766
 30
0.0
 11
359.1436111629229
 21
-134.802128566828
 31
0.0
  0
LINE
  5
656F
330
656B
100
AcDbEntity
  8
30
  6
Continuous
 62
     0
370
    -2
100
AcDbLine
 10
346.1436111629229
 20
-134.302128566828
 30
0.0
 11
357.1436111629229
 21
-134.302128566828
 31
0.0
  0
INSERT
  5
6570
330
656B
100
AcDbEntity
  8
30
  6
Continuous
 62
     0
370
    -2
100
AcDbBlockReference
  2
_OPEN
 10
344.1436111629229
 20
-134.302128566828
 30
0.0
 41
2.0
 42
2.0
 43
2.0
 50
180.0
  0
INSERT
  5
6571
330
656B
100
AcDbEntity
  8
30
  6
Continuous
 62
     0
370
    -2
100
AcDbBlockReference
  2
_OPEN
 10
359.1436111629229
 20
-134.302128566828
 30
0.0
 41
2.0
 42
2.0
 43
2.0
  0
MTEXT
  5
6572
330
656B
100
AcDbEntity
  8
30
  6
Continuous
 62
     0
100
AcDbMText
 10
351.6436111629229
 20
-131.302128566828
 30
0.0
 40
4.0
 41
0.0
 71
     5
 72
     1
  1
\A1;15
 73
     1
 44
1.0
1001
ACAD
1000
MTEXTBEGIN
1070
    73
1070
     1
1070
    44
1040
1.0
1070
    74
1070
     0
1000
MTEXTEND
  0
POINT
  5
6573
330
656B
100
AcDbEntity
  8
DEFPOINTS
  6
Continuous
 62
     0
100
AcDbPoint
 10
344.1436111629229
 20
-73.34768217133694
 30
0.0
  0
POINT
  5
6574
330
656B
100
AcDbEntity
  8
DEFPOINTS
  6
Continuous
 62
     0
100
AcDbPoint
 10
359.1436111629229
 20
-81.15544625489766
 30
0.0
  0
POINT
  5
6575
330
656B
100
AcDbEntity
  8
DEFPOINTS
  6
Continuous
 62
     0
100
AcDbPoint
 10
359.1436111629229
 20
-134.302128566828
 30
0.0
  0
ENDBLK
  5
6576
330
656B
100
AcDbEntity
  8
0
100
AcDbBlockEnd
  0
BLOCK
  5
6578
330
6577
100
AcDbEntity
  8
0
100
AcDbBlockBegin
  2
*D33
 70
     1
 10
0.0
 20
0.0
 30
0.0
  3
*D33
  1

  0
LINE
  5
6579
330
6577
100
AcDbEntity
  8
30
  6
Continuous
 62
     0
370
    -2
100
AcDbLine
 10
399.6012667399285
 20
73.15231784516308
 30
0.0
 11
406.9859088947586
 21
73.15231784516308
 31
0.0
  0
LINE
  5
657A
330
6577
100
AcDbEntity
  8
30
  6
Continuous
 62
     0
370
    -2
100
AcDbLine
 10
395.390620737051
 20
-70.84768215483697
 30
0.0
 11
406.9859088947586
 21
-70.84768215483697
 31
0.0
  0
LINE
  5
657B
330
6577
100
AcDbEntity
  8
30
  6
Continuous
 62
     0
370
    -2
100
AcDbLine
 10
406.4859088947586
 20
71.15231784516308
 30
0.0
 11
406.4859088947586
 21
-68.84768215483697
 31
0.0
  0
INSERT
  5
657C
330
6577
100
AcDbEntity
  8
30
  6
Continuous
 62
     0
370
    -2
100
AcDbBlockReference
  2
_OPEN
 10
406.4859088947586
 20
73.15231784516308
 30
0.0
 41
2.0
 42
2.0
 43
2.0
 50
90.0
  0
INSERT
  5
657D
330
6577
100
AcDbEntity
  8
30
  6
Continuous
 62
     0
370
    -2
100
AcDbBlockReference
  2
_OPEN
 10
406.4859088947586
 20
-70.84768215483697
 30
0.0
 41
2.0
 42
2.0
 43
2.0
 50
270.0
  0
MTEXT
  5
657E
330
6577
100
AcDbEntity
  8
30
  6
Continuous
 62
     0
100
AcDbMText
 10
403.4859088947586
 20
1.152317845163114
 30
0.0
 40
4.0
 41
0.0
 71
     5
 72
     1
  1
\A1;144
 11
0.0000000000000001
 21
1.0
 31
0.0
 73
     1
 44
1.0
1001
ACAD
1000
MTEXTBEGIN
1070
    73
1070
     1
1070
    44
1040
1.0
1070
    74
1070
     0
1000
MTEXTEND
  0
POINT
  5
657F
330
6577
100
AcDbEntity
  8
DEFPOINTS
  6
Continuous
 62
     0
100
AcDbPoint
 10
398.6012667399285
 20
73.15231784516308
 30
0.0
  0
POINT
  5
6580
330
6577
100
AcDbEntity
  8
DEFPOINTS
  6
Continuous
 62
     0
100
AcDbPoint
 10
394.390620737051
 20
-70.84768215483697
 30
0.0
  0
POINT
  5
6581
330
6577
100
AcDbEntity
  8
DEFPOINTS
  6
Continuous
 62
     0
100
AcDbPoint
 10
406.4859088947586
 20
-70.84768215483697
 30
0.0
  0
ENDBLK
  5
6582
330
6577
100
AcDbEntity
  8
0
100
AcDbBlockEnd
  0
BLOCK
  5
66B2
330
66B1
100
AcDbEntity
  8
0
100
AcDbBlockBegin
  2
*D35
 70
     1
 10
0.0
 20
0.0
 30
0.0
  3
*D35
  1

  0
LINE
  5
671E
330
66B1
100
AcDbEntity
  8
30
  6
Continuous
 62
     0
370
    -2
100
AcDbLine
 10
434.8671757186886
 20
72.0
 30
0.0
 11
442.2518178735186
 21
72.0
 31
0.0
  0
LINE
  5
671F
330
66B1
100
AcDbEntity
  8
30
  6
Continuous
 62
     0
370
    -2
100
AcDbLine
 10
430.656529715811
 20
-72.00000000000006
 30
0.0
 11
442.2518178735186
 21
-72.00000000000006
 31
0.0
  0
LINE
  5
6720
330
66B1
100
AcDbEntity
  8
30
  6
Continuous
 62
     0
370
    -2
100
AcDbLine
 10
441.7518178735186
 20
70.0
 30
0.0
 11
441.7518178735186
 21
-70.00000000000006
 31
0.0
  0
INSERT
  5
6721
330
66B1
100
AcDbEntity
  8
30
  6
Continuous
 62
     0
370
    -2
100
AcDbBlockReference
  2
_OPEN
 10
441.7518178735186
 20
72.0
 30
0.0
 41
2.0
 42
2.0
 43
2.0
 50
90.0
  0
INSERT
  5
6722
330
66B1
100
AcDbEntity
  8
30
  6
Continuous
 62
     0
370
    -2
100
AcDbBlockReference
  2
_OPEN
 10
441.7518178735186
 20
-72.00000000000006
 30
0.0
 41
2.0
 42
2.0
 43
2.0
 50
270.0
  0
MTEXT
  5
6723
330
66B1
100
AcDbEntity
  8
30
  6
Continuous
 62
     0
100
AcDbMText
 10
438.7518178735186
 20
0.0000000000000444
 30
0.0
 40
4.0
 41
0.0
 71
     5
 72
     1
  1
\A1;144
 11
0.0000000000000001
 21
1.0
 31
0.0
 73
     1
 44
1.0
1001
ACAD
1000
MTEXTBEGIN
1070
    73
1070
     1
1070
    44
1040
1.0
1070
    74
1070
     0
1000
MTEXTEND
  0
POINT
  5
6724
330
66B1
100
AcDbEntity
  8
DEFPOINTS
  6
Continuous
 62
     0
100
AcDbPoint
 10
433.8671757186886
 20
72.0
 30
0.0
  0
POINT
  5
6725
330
66B1
100
AcDbEntity
  8
DEFPOINTS
  6
Continuous
 62
     0
100
AcDbPoint
 10
429.656529715811
 20
-72.00000000000006
 30
0.0
  0
POINT
  5
6726
330
66B1
100
AcDbEntity
  8
DEFPOINTS
  6
Continuous
 62
     0
100
AcDbPoint
 10
441.7518178735186
 20
-72.00000000000006
 30
0.0
  0
ENDBLK
  5
66B3
330
66B1
100
AcDbEntity
  8
0
100
AcDbBlockEnd
  0
BLOCK
  5
66BE
330
66BD
100
AcDbEntity
  8
0
100
AcDbBlockBegin
  2
*D36
 70
     1
 10
0.0
 20
0.0
 30
0.0
  3
*D36
  1

  0
LINE
  5
6727
330
66BD
100
AcDbEntity
  8
30
  6
Continuous
 62
     0
370
    -2
100
AcDbLine
 10
233.4095201416833
 20
-106.9999999999999
 30
0.0
 11
233.4095201416833
 21
-185.954446411991
 31
0.0
  0
LINE
  5
6728
330
66BD
100
AcDbEntity
  8
30
  6
Continuous
 62
     0
370
    -2
100
AcDbLine
 10
394.4095201416831
 20
-73.00000000000006
 30
0.0
 11
394.4095201416831
 21
-185.954446411991
 31
0.0
  0
LINE
  5
6729
330
66BD
100
AcDbEntity
  8
30
  6
Continuous
 62
     0
370
    -2
100
AcDbLine
 10
235.4095201416833
 20
-185.454446411991
 30
0.0
 11
392.4095201416831
 21
-185.454446411991
 31
0.0
  0
INSERT
  5
672A
330
66BD
100
AcDbEntity
  8
30
  6
Continuous
 62
     0
370
    -2
100
AcDbBlockReference
  2
_OPEN
 10
233.4095201416833
 20
-185.454446411991
 30
0.0
 41
2.0
 42
2.0
 43
2.0
 50
180.0
  0
INSERT
  5
672B
330
66BD
100
AcDbEntity
  8
30
  6
Continuous
 62
     0
370
    -2
100
AcDbBlockReference
  2
_OPEN
 10
394.4095201416831
 20
-185.454446411991
 30
0.0
 41
2.0
 42
2.0
 43
2.0
  0
MTEXT
  5
672C
330
66BD
100
AcDbEntity
  8
30
  6
Continuous
 62
     0
100
AcDbMText
 10
313.9095201416832
 20
-182.454446411991
 30
0.0
 40
4.0
 41
0.0
 71
     5
 72
     1
  1
\A1;161
 73
     1
 44
1.0
1001
ACAD
1000
MTEXTBEGIN
1070
    73
1070
     1
1070
    44
1040
1.0
1070
    74
1070
     0
1000
MTEXTEND
  0
POINT
  5
672D
330
66BD
100
AcDbEntity
  8
DEFPOINTS
  6
Continuous
 62
     0
100
AcDbPoint
 10
233.4095201416833
 20
-105.9999999999999
 30
0.0
  0
POINT
  5
672E
330
66BD
100
AcDbEntity
  8
DEFPOINTS
  6
Continuous
 62
     0
100
AcDbPoint
 10
394.4095201416831
 20
-72.00000000000006
 30
0.0
  0
POINT
  5
672F
330
66BD
100
AcDbEntity
  8
DEFPOINTS
  6
Continuous
 62
     0
100
AcDbPoint
 10
394.4095201416831
 20
-185.454446411991
 30
0.0
  0
ENDBLK
  5
66BF
330
66BD
100
AcDbEntity
  8
0
100
AcDbBlockEnd
  0
BLOCK
  5
66CA
330
66C9
100
AcDbEntity
  8
0
100
AcDbBlockBegin
  2
*D37
 70
     1
 10
0.0
 20
0.0
 30
0.0
  3
*D37
  1

  0
LINE
  5
6730
330
66C9
100
AcDbEntity
  8
30
  6
Continuous
 62
     0
370
    -2
100
AcDbLine
 10
233.4095201416833
 20
-106.9999999999999
 30
0.0
 11
233.4095201416833
 21
-160.954446411991
 31
0.0
  0
LINE
  5
6731
330
66C9
100
AcDbEntity
  8
30
  6
Continuous
 62
     0
370
    -2
100
AcDbLine
 10
359.4095201416832
 20
-73.00000000000006
 30
0.0
 11
359.4095201416832
 21
-160.954446411991
 31
0.0
  0
LINE
  5
6732
330
66C9
100
AcDbEntity
  8
30
  6
Continuous
 62
     0
370
    -2
100
AcDbLine
 10
235.4095201416833
 20
-160.454446411991
 30
0.0
 11
357.4095201416832
 21
-160.454446411991
 31
0.0
  0
INSERT
  5
6733
330
66C9
100
AcDbEntity
  8
30
  6
Continuous
 62
     0
370
    -2
100
AcDbBlockReference
  2
_OPEN
 10
233.4095201416833
 20
-160.454446411991
 30
0.0
 41
2.0
 42
2.0
 43
2.0
 50
180.0
  0
INSERT
  5
6734
330
66C9
100
AcDbEntity
  8
30
  6
Continuous
 62
     0
370
    -2
100
AcDbBlockReference
  2
_OPEN
 10
359.4095201416832
 20
-160.454446411991
 30
0.0
 41
2.0
 42
2.0
 43
2.0
  0
MTEXT
  5
6735
330
66C9
100
AcDbEntity
  8
30
  6
Continuous
 62
     0
100
AcDbMText
 10
296.4095201416832
 20
-157.454446411991
 30
0.0
 40
4.0
 41
0.0
 71
     5
 72
     1
  1
\A1;126
 73
     1
 44
1.0
1001
ACAD
1000
MTEXTBEGIN
1070
    73
1070
     1
1070
    44
1040
1.0
1070
    74
1070
     0
1000
MTEXTEND
  0
POINT
  5
6736
330
66C9
100
AcDbEntity
  8
DEFPOINTS
  6
Continuous
 62
     0
100
AcDbPoint
 10
233.4095201416833
 20
-105.9999999999999
 30
0.0
  0
POINT
  5
6737
330
66C9
100
AcDbEntity
  8
DEFPOINTS
  6
Continuous
 62
     0
100
AcDbPoint
 10
359.4095201416832
 20
-72.00000000000006
 30
0.0
  0
POINT
  5
6738
330
66C9
100
AcDbEntity
  8
DEFPOINTS
  6
Continuous
 62
     0
100
AcDbPoint
 10
359.4095201416832
 20
-160.454446411991
 30
0.0
  0
ENDBLK
  5
66CB
330
66C9
100
AcDbEntity
  8
0
100
AcDbBlockEnd
  0
BLOCK
  5
66D6
330
66D5
100
AcDbEntity
  8
0
100
AcDbBlockBegin
  2
*D38
 70
     1
 10
0.0
 20
0.0
 30
0.0
  3
*D38
  1

  0
LINE
  5
6739
330
66D5
100
AcDbEntity
  8
30
  6
Continuous
 62
     0
370
    -2
100
AcDbLine
 10
218.4095201416833
 20
-97.00000000000006
 30
0.0
 11
218.4095201416833
 21
-160.954446411991
 31
0.0
  0
LINE
  5
673A
330
66D5
100
AcDbEntity
  8
30
  6
Continuous
 62
     0
370
    -2
100
AcDbLine
 10
233.4095201416833
 20
-106.9999999999999
 30
0.0
 11
233.4095201416833
 21
-160.954446411991
 31
0.0
  0
LINE
  5
673B
330
66D5
100
AcDbEntity
  8
30
  6
Continuous
 62
     0
370
    -2
100
AcDbLine
 10
220.4095201416833
 20
-160.454446411991
 30
0.0
 11
231.4095201416833
 21
-160.454446411991
 31
0.0
  0
INSERT
  5
673C
330
66D5
100
AcDbEntity
  8
30
  6
Continuous
 62
     0
370
    -2
100
AcDbBlockReference
  2
_OPEN
 10
218.4095201416833
 20
-160.454446411991
 30
0.0
 41
2.0
 42
2.0
 43
2.0
 50
180.0
  0
INSERT
  5
673D
330
66D5
100
AcDbEntity
  8
30
  6
Continuous
 62
     0
370
    -2
100
AcDbBlockReference
  2
_OPEN
 10
233.4095201416833
 20
-160.454446411991
 30
0.0
 41
2.0
 42
2.0
 43
2.0
  0
MTEXT
  5
673E
330
66D5
100
AcDbEntity
  8
30
  6
Continuous
 62
     0
100
AcDbMText
 10
225.9095201416833
 20
-157.454446411991
 30
0.0
 40
4.0
 41
0.0
 71
     5
 72
     1
  1
\A1;15
 73
     1
 44
1.0
1001
ACAD
1000
MTEXTBEGIN
1070
    73
1070
     1
1070
    44
1040
1.0
1070
    74
1070
     0
1000
MTEXTEND
  0
POINT
  5
673F
330
66D5
100
AcDbEntity
  8
DEFPOINTS
  6
Continuous
 62
     0
100
AcDbPoint
 10
218.4095201416833
 20
-96.00000000000006
 30
0.0
  0
POINT
  5
6740
330
66D5
100
AcDbEntity
  8
DEFPOINTS
  6
Continuous
 62
     0
100
AcDbPoint
 10
233.4095201416833
 20
-105.9999999999999
 30
0.0
  0
POINT
  5
6741
330
66D5
100
AcDbEntity
  8
DEFPOINTS
  6
Continuous
 62
     0
100
AcDbPoint
 10
233.4095201416833
 20
-160.454446411991
 30
0.0
  0
ENDBLK
  5
66D7
330
66D5
100
AcDbEntity
  8
0
100
AcDbBlockEnd
  0
BLOCK
  5
66E2
330
66E1
100
AcDbEntity
  8
0
100
AcDbBlockBegin
  2
*D39
 70
     1
 10
0.0
 20
0.0
 30
0.0
  3
*D39
  1

  0
LINE
  5
6742
330
66E1
100
AcDbEntity
  8
30
  6
Continuous
 62
     0
370
    -2
100
AcDbLine
 10
196.4095201416832
 20
-3.500000016500052
 30
0.0
 11
196.4095201416832
 21
-185.954446411991
 31
0.0
  0
LINE
  5
6743
330
66E1
100
AcDbEntity
  8
30
  6
Continuous
 62
     0
370
    -2
100
AcDbLine
 10
233.4095201416833
 20
-106.9999999999999
 30
0.0
 11
233.4095201416833
 21
-185.954446411991
 31
0.0
  0
LINE
  5
6744
330
66E1
100
AcDbEntity
  8
30
  6
Continuous
 62
     0
370
    -2
100
AcDbLine
 10
198.4095201416832
 20
-185.454446411991
 30
0.0
 11
231.4095201416833
 21
-185.454446411991
 31
0.0
  0
INSERT
  5
6745
330
66E1
100
AcDbEntity
  8
30
  6
Continuous
 62
     0
370
    -2
100
AcDbBlockReference
  2
_OPEN
 10
196.4095201416832
 20
-185.454446411991
 30
0.0
 41
2.0
 42
2.0
 43
2.0
 50
180.0
  0
INSERT
  5
6746
330
66E1
100
AcDbEntity
  8
30
  6
Continuous
 62
     0
370
    -2
100
AcDbBlockReference
  2
_OPEN
 10
233.4095201416833
 20
-185.454446411991
 30
0.0
 41
2.0
 42
2.0
 43
2.0
  0
MTEXT
  5
6747
330
66E1
100
AcDbEntity
  8
30
  6
Continuous
 62
     0
100
AcDbMText
 10
214.9095201416832
 20
-182.454446411991
 30
0.0
 40
4.0
 41
0.0
 71
     5
 72
     1
  1
\A1;37
 73
     1
 44
1.0
1001
ACAD
1000
MTEXTBEGIN
1070
    73
1070
     1
1070
    44
1040
1.0
1070
    74
1070
     0
1000
MTEXTEND
  0
POINT
  5
6748
330
66E1
100
AcDbEntity
  8
DEFPOINTS
  6
Continuous
 62
     0
100
AcDbPoint
 10
196.4095201416832
 20
-2.500000016500052
 30
0.0
  0
POINT
  5
6749
330
66E1
100
AcDbEntity
  8
DEFPOINTS
  6
Continuous
 62
     0
100
AcDbPoint
 10
233.4095201416833
 20
-105.9999999999999
 30
0.0
  0
POINT
  5
674A
330
66E1
100
AcDbEntity
  8
DEFPOINTS
  6
Continuous
 62
     0
100
AcDbPoint
 10
233.4095201416833
 20
-185.454446411991
 30
0.0
  0
ENDBLK
  5
66E3
330
66E1
100
AcDbEntity
  8
0
100
AcDbBlockEnd
  0
BLOCK
  5
66EE
330
66ED
100
AcDbEntity
  8
0
100
AcDbBlockBegin
  2
*D40
 70
     1
 10
0.0
 20
0.0
 30
0.0
  3
*D40
  1

  0
LINE
  5
674B
330
66ED
100
AcDbEntity
  8
30
  6
Continuous
 62
     0
370
    -2
100
AcDbLine
 10
395.4095201416831
 20
69.0
 30
0.0
 11
430.156529715811
 21
68.99999999999998
 31
0.0
  0
LINE
  5
674C
330
66ED
100
AcDbEntity
  8
30
  6
Continuous
 62
     0
370
    -2
100
AcDbLine
 10
395.4095201416831
 20
75.0
 30
0.0
 11
430.156529715811
 21
74.99999999999999
 31
0.0
  0
LINE
  5
674D
330
66ED
100
AcDbEntity
  8
30
  6
Continuous
 62
     0
370
    -2
100
AcDbLine
 10
429.656529715811
 20
66.99999999999999
 30
0.0
 11
429.656529715811
 21
64.99999999999999
 31
0.0
  0
LINE
  5
674E
330
66ED
100
AcDbEntity
  8
30
  6
Continuous
 62
     0
370
    -2
100
AcDbLine
 10
429.656529715811
 20
76.99999999999999
 30
0.0
 11
429.656529715811
 21
78.99999999999998
 31
0.0
  0
INSERT
  5
674F
330
66ED
100
AcDbEntity
  8
30
  6
Continuous
 62
     0
370
    -2
100
AcDbBlockReference
  2
_OPEN
 10
429.656529715811
 20
68.99999999999998
 30
0.0
 41
2.0
 42
2.0
 43
2.0
 50
90.0
  0
INSERT
  5
6750
330
66ED
100
AcDbEntity
  8
30
  6
Continuous
 62
     0
370
    -2
100
AcDbBlockReference
  2
_OPEN
 10
429.656529715811
 20
74.99999999999999
 30
0.0
 41
2.0
 42
2.0
 43
2.0
 50
270.0
  0
MTEXT
  5
6751
330
66ED
100
AcDbEntity
  8
30
  6
Continuous
 62
     0
100
AcDbMText
 10
426.656529715811
 20
72.00000000000006
 30
0.0
 40
4.0
 41
0.0
 71
     5
 72
     1
  1
\A1;6
 11
0.0000000000000001
 21
1.0
 31
0.0
 73
     1
 44
1.0
1001
ACAD
1000
MTEXTBEGIN
1070
    73
1070
     1
1070
    44
1040
1.0
1070
    74
1070
     0
1000
MTEXTEND
  0
POINT
  5
6752
330
66ED
100
AcDbEntity
  8
DEFPOINTS
  6
Continuous
 62
     0
100
AcDbPoint
 10
394.4095201416831
 20
69.0
 30
0.0
  0
POINT
  5
6753
330
66ED
100
AcDbEntity
  8
DEFPOINTS
  6
Continuous
 62
     0
100
AcDbPoint
 10
394.4095201416831
 20
75.0
 30
0.0
  0
POINT
  5
6754
330
66ED
100
AcDbEntity
  8
DEFPOINTS
  6
Continuous
 62
     0
100
AcDbPoint
 10
429.656529715811
 20
74.99999999999999
 30
0.0
  0
ENDBLK
  5
66EF
330
66ED
100
AcDbEntity
  8
0
100
AcDbBlockEnd
  0
BLOCK
  5
66FB
330
66FA
100
AcDbEntity
  8
0
100
AcDbBlockBegin
  2
*D41
 70
     1
 10
0.0
 20
0.0
 30
0.0
  3
*D41
  1

  0
LINE
  5
6755
330
66FA
100
AcDbEntity
  8
30
  6
Continuous
 62
     0
370
    -2
100
AcDbLine
 10
392.7300282173719
 20
-82.00000000000006
 30
0.0
 11
430.156529715811
 21
-82.00000000000008
 31
0.0
  0
LINE
  5
6756
330
66FA
100
AcDbEntity
  8
30
  6
Continuous
 62
     0
370
    -2
100
AcDbLine
 10
392.7300282173719
 20
-62.00000000000006
 30
0.0
 11
430.156529715811
 21
-62.00000000000006
 31
0.0
  0
LINE
  5
6757
330
66FA
100
AcDbEntity
  8
30
  6
Continuous
 62
     0
370
    -2
100
AcDbLine
 10
429.656529715811
 20
-80.00000000000007
 30
0.0
 11
429.656529715811
 21
-64.00000000000007
 31
0.0
  0
INSERT
  5
6758
330
66FA
100
AcDbEntity
  8
30
  6
Continuous
 62
     0
370
    -2
100
AcDbBlockReference
  2
_OPEN
 10
429.656529715811
 20
-82.00000000000008
 30
0.0
 41
2.0
 42
2.0
 43
2.0
 50
270.0
  0
INSERT
  5
6759
330
66FA
100
AcDbEntity
  8
30
  6
Continuous
 62
     0
370
    -2
100
AcDbBlockReference
  2
_OPEN
 10
429.656529715811
 20
-62.00000000000006
 30
0.0
 41
2.0
 42
2.0
 43
2.0
 50
90.0
  0
MTEXT
  5
675A
330
66FA
100
AcDbEntity
  8
30
  6
Continuous
 62
     0
100
AcDbMText
 10
426.656529715811
 20
-72.0
 30
0.0
 40
4.0
 41
0.0
 71
     5
 72
     1
  1
\A1;20
 11
0.0000000000000001
 21
1.0
 31
0.0
 73
     1
 44
1.0
1001
ACAD
1000
MTEXTBEGIN
1070
    73
1070
     1
1070
    44
1040
1.0
1070
    74
1070
     0
1000
MTEXTEND
  0
POINT
  5
675B
330
66FA
100
AcDbEntity
  8
DEFPOINTS
  6
Continuous
 62
     0
100
AcDbPoint
 10
391.7300282173719
 20
-82.00000000000006
 30
0.0
  0
POINT
  5
675C
330
66FA
100
AcDbEntity
  8
DEFPOINTS
  6
Continuous
 62
     0
100
AcDbPoint
 10
391.7300282173719
 20
-62.00000000000006
 30
0.0
  0
POINT
  5
675D
330
66FA
100
AcDbEntity
  8
DEFPOINTS
  6
Continuous
 62
     0
100
AcDbPoint
 10
429.656529715811
 20
-62.00000000000006
 30
0.0
  0
ENDBLK
  5
66FC
330
66FA
100
AcDbEntity
  8
0
100
AcDbBlockEnd
  0
BLOCK
  5
6707
330
6706
100
AcDbEntity
  8
0
100
AcDbBlockBegin
  2
*D42
 70
     1
 10
0.0
 20
0.0
 30
0.0
  3
*D42
  1

  0
LINE
  5
675E
330
6706
100
AcDbEntity
  8
30
  6
Continuous
 62
     0
370
    -2
100
AcDbLine
 10
344.4095201416829
 20
-75.50000001650002
 30
0.0
 11
344.4095201416829
 21
-135.9544464119911
 31
0.0
  0
LINE
  5
675F
330
6706
100
AcDbEntity
  8
30
  6
Continuous
 62
     0
370
    -2
100
AcDbLine
 10
359.4095201416832
 20
-83.30776410006075
 30
0.0
 11
359.4095201416832
 21
-135.9544464119911
 31
0.0
  0
LINE
  5
6760
330
6706
100
AcDbEntity
  8
30
  6
Continuous
 62
     0
370
    -2
100
AcDbLine
 10
346.4095201416829
 20
-135.4544464119911
 30
0.0
 11
357.4095201416832
 21
-135.4544464119911
 31
0.0
  0
INSERT
  5
6761
330
6706
100
AcDbEntity
  8
30
  6
Continuous
 62
     0
370
    -2
100
AcDbBlockReference
  2
_OPEN
 10
344.4095201416829
 20
-135.4544464119911
 30
0.0
 41
2.0
 42
2.0
 43
2.0
 50
180.0
  0
INSERT
  5
6762
330
6706
100
AcDbEntity
  8
30
  6
Continuous
 62
     0
370
    -2
100
AcDbBlockReference
  2
_OPEN
 10
359.4095201416832
 20
-135.4544464119911
 30
0.0
 41
2.0
 42
2.0
 43
2.0
  0
MTEXT
  5
6763
330
6706
100
AcDbEntity
  8
30
  6
Continuous
 62
     0
100
AcDbMText
 10
351.9095201416831
 20
-132.4544464119911
 30
0.0
 40
4.0
 41
0.0
 71
     5
 72
     1
  1
\A1;15
 73
     1
 44
1.0
1001
ACAD
1000
MTEXTBEGIN
1070
    73
1070
     1
1070
    44
1040
1.0
1070
    74
1070
     0
1000
MTEXTEND
  0
POINT
  5
6764
330
6706
100
AcDbEntity
  8
DEFPOINTS
  6
Continuous
 62
     0
100
AcDbPoint
 10
344.4095201416829
 20
-74.50000001650002
 30
0.0
  0
POINT
  5
6765
330
6706
100
AcDbEntity
  8
DEFPOINTS
  6
Continuous
 62
     0
100
AcDbPoint
 10
359.4095201416832
 20
-82.30776410006075
 30
0.0
  0
POINT
  5
6766
330
6706
100
AcDbEntity
  8
DEFPOINTS
  6
Continuous
 62
     0
100
AcDbPoint
 10
359.4095201416832
 20
-135.4544464119911
 30
0.0
  0
ENDBLK
  5
6708
330
6706
100
AcDbEntity
  8
0
100
AcDbBlockEnd
  0
BLOCK
  5
6713
330
6712
100
AcDbEntity
  8
0
100
AcDbBlockBegin
  2
*D43
 70
     1
 10
0.0
 20
0.0
 30
0.0
  3
*D43
  1

  0
LINE
  5
6767
330
6712
100
AcDbEntity
  8
30
  6
Continuous
 62
     0
370
    -2
100
AcDbLine
 10
379.4095201416831
 20
-75.50000001650002
 30
0.0
 11
379.4095201416831
 21
-135.9544464119911
 31
0.0
  0
LINE
  5
6768
330
6712
100
AcDbEntity
  8
30
  6
Continuous
 62
     0
370
    -2
100
AcDbLine
 10
394.4095201416831
 20
-83.30776410006075
 30
0.0
 11
394.4095201416831
 21
-135.9544464119911
 31
0.0
  0
LINE
  5
6769
330
6712
100
AcDbEntity
  8
30
  6
Continuous
 62
     0
370
    -2
100
AcDbLine
 10
381.4095201416831
 20
-135.4544464119911
 30
0.0
 11
392.4095201416831
 21
-135.4544464119911
 31
0.0
  0
INSERT
  5
676A
330
6712
100
AcDbEntity
  8
30
  6
Continuous
 62
     0
370
    -2
100
AcDbBlockReference
  2
_OPEN
 10
379.4095201416831
 20
-135.4544464119911
 30
0.0
 41
2.0
 42
2.0
 43
2.0
 50
180.0
  0
INSERT
  5
676B
330
6712
100
AcDbEntity
  8
30
  6
Continuous
 62
     0
370
    -2
100
AcDbBlockReference
  2
_OPEN
 10
394.4095201416831
 20
-135.4544464119911
 30
0.0
 41
2.0
 42
2.0
 43
2.0
  0
MTEXT
  5
676C
330
6712
100
AcDbEntity
  8
30
  6
Continuous
 62
     0
100
AcDbMText
 10
386.9095201416831
 20
-132.4544464119911
 30
0.0
 40
4.0
 41
0.0
 71
     5
 72
     1
  1
\A1;15
 73
     1
 44
1.0
1001
ACAD
1000
MTEXTBEGIN
1070
    73
1070
     1
1070
    44
1040
1.0
1070
    74
1070
     0
1000
MTEXTEND
  0
POINT
  5
676D
330
6712
100
AcDbEntity
  8
DEFPOINTS
  6
Continuous
 62
     0
100
AcDbPoint
 10
379.4095201416831
 20
-74.50000001650002
 30
0.0
  0
POINT
  5
676E
330
6712
100
AcDbEntity
  8
DEFPOINTS
  6
Continuous
 62
     0
100
AcDbPoint
 10
394.4095201416831
 20
-82.30776410006075
 30
0.0
  0
POINT
  5
676F
330
6712
100
AcDbEntity
  8
DEFPOINTS
  6
Continuous
 62
     0
100
AcDbPoint
 10
394.4095201416831
 20
-135.4544464119911
 30
0.0
  0
ENDBLK
  5
6714
330
6712
100
AcDbEntity
  8
0
100
AcDbBlockEnd
  0
ENDSEC
  0
SECTION
  2
ENTITIES
  0
LINE
  5
B4
330
1E
100
AcDbEntity
  8
16
100
AcDbLine
 10
0.0
 20
-101.8246001220914
 30
0.0
 11
0.0
 21
105.6073578546832
 31
0.0
  0
LINE
  5
B5
330
1E
100
AcDbEntity
  8
16
100
AcDbLine
 10
71.77465564206305
 20
-0.0000000000000007
 30
0.0
 11
-83.90588178115756
 21
-0.0000000000000007
 31
0.0
  0
MTEXT
  5
BF3
330
1E
100
AcDbEntity
  8
24
  6
Continuous
100
AcDbMText
 10
140.9820964648285
 20
176.3476821548369
 30
0.0
 40
3.0
 41
0.0
 71
     1
 72
     1
  1
\A1;
 73
     1
 44
1.0
1001
ACAD
1000
MTEXTBEGIN
1070
    73
1070
     1
1070
    44
1040
1.0
1070
    74
1070
     0
1000
MTEXTEND
  0
LINE
  5
2260
330
1E
100
AcDbEntity
  8
16
100
AcDbLine
 10
68.52380301423583
 20
-252.6631237443548
 30
0.0
 11
-80.93000773675209
 21
-252.6631237443548
 31
0.0
  0
LINE
  5
2261
330
1E
100
AcDbEntity
  8
16
100
AcDbLine
 10
-0.3800945351711884
 20
-350.4150635072006
 30
0.0
 11
-0.3800945351711884
 21
-151.2797245348689
 31
0.0
  0
DIMENSION
  5
57FE
330
1E
100
AcDbEntity
  8
30
  6
Continuous
100
AcDbDimension
  2
*D1
 10
78.5
 20
-117.6551789019862
 30
0.0
 11
0.0000000000000002
 21
-114.6551789019861
 31
0.0
 70
    32
 71
     5
 42
-1.0
  3
STANDARD
100
AcDbAlignedDimension
 13
-78.5
 23
-95.04528757673485
 33
0.0
 14
78.5
 24
-95.04528757673485
 34
0.0
 50
180.0
100
AcDbRotatedDimension
1001
ACAD
1000
DSTYLE
1002
{
1070
    79
1070
     3
1002
}
  0
LINE
  5
5805
330
1E
100
AcDbEntity
  8
10
  6
DASHED
100
AcDbLine
 10
-52.5
 20
-82.5
 30
0.0
 11
52.5
 21
-82.5
 31
0.0
  0
LINE
  5
5806
330
1E
100
AcDbEntity
  8
10
  6
DASHED
100
AcDbLine
 10
52.5
 20
82.50000000000001
 30
0.0
 11
-52.5
 21
82.50000000000001
 31
0.0
  0
LINE
  5
5807
330
1E
100
AcDbEntity
  8
10
  6
CONTINOUS
100
AcDbLine
 10
-73.5
 20
-96.00000000000004
 30
0.0
 11
73.5
 21
-96.00000000000004
 31
0.0
  0
LINE
  5
5808
330
1E
100
AcDbEntity
  8
10
  6
CONTINOUS
100
AcDbLine
 10
73.5
 20
96.0
 30
0.0
 11
-73.5
 21
96.0
 31
0.0
  0
LINE
  5
580C
330
1E
100
AcDbEntity
  8
10
  6
DASHED
100
AcDbLine
 10
-52.5
 20
82.50000000000001
 30
0.0
 11
-52.5
 21
-82.5
 31
0.0
  0
LINE
  5
580D
330
1E
100
AcDbEntity
  8
10
  6
CONTINOUS
100
AcDbLine
 10
-78.5
 20
91.0
 30
0.0
 11
-78.5
 21
-91.00000000000004
 31
0.0
  0
ARC
  5
580E
330
1E
100
AcDbEntity
  8
10
  6
CONTINOUS
100
AcDbCircle
 10
-73.5
 20
-91.00000000000004
 30
0.0
 40
5.0
100
AcDbArc
 50
180.0
 51
270.0
  0
CIRCLE
  5
580F
330
1E
100
AcDbEntity
  8
12
  6
DASHED
100
AcDbCircle
 10
-68.0
 20
-33.0
 30
0.0
 40
2.5
  0
LINE
  5
5810
330
1E
100
AcDbEntity
  8
12
  6
DASHED
100
AcDbLine
 10
-71.5
 20
-33.0
 30
0.0
 11
-64.5
 21
-33.0
 31
0.0
  0
LINE
  5
5811
330
1E
100
AcDbEntity
  8
12
  6
DASHED
100
AcDbLine
 10
-68.0
 20
-36.5000000000007
 30
0.0
 11
-68.0
 21
-29.50000000000068
 31
0.0
  0
ARC
  5
5815
330
1E
100
AcDbEntity
  8
10
  6
CONTINOUS
100
AcDbCircle
 10
-73.5
 20
91.0
 30
0.0
 40
5.0
100
AcDbArc
 50
90.0
 51
180.0
  0
CIRCLE
  5
5816
330
1E
100
AcDbEntity
  8
12
  6
DASHED
100
AcDbCircle
 10
-68.0
 20
32.99999999999999
 30
0.0
 40
2.5
  0
LINE
  5
5817
330
1E
100
AcDbEntity
  8
12
  6
DASHED
100
AcDbLine
 10
-71.5
 20
32.99999999999999
 30
0.0
 11
-64.5
 21
32.99999999999999
 31
0.0
  0
LINE
  5
5818
330
1E
100
AcDbEntity
  8
12
  6
DASHED
100
AcDbLine
 10
-68.0
 20
29.4999999999993
 30
0.0
 11
-68.0
 21
36.49999999999931
 31
0.0
  0
LINE
  5
581C
330
1E
100
AcDbEntity
  8
10
  6
DASHED
100
AcDbLine
 10
52.5
 20
-82.5
 30
0.0
 11
52.5
 21
82.50000000000001
 31
0.0
  0
LINE
  5
581D
330
1E
100
AcDbEntity
  8
10
  6
CONTINOUS
100
AcDbLine
 10
78.5
 20
-91.00000000000004
 30
0.0
 11
78.5
 21
91.0
 31
0.0
  0
ARC
  5
581E
330
1E
100
AcDbEntity
  8
10
  6
CONTINOUS
100
AcDbCircle
 10
73.5
 20
-91.00000000000004
 30
0.0
 40
5.0
100
AcDbArc
 50
270.0
 51
0.0
  0
CIRCLE
  5
581F
330
1E
100
AcDbEntity
  8
12
  6
DASHED
100
AcDbCircle
 10
68.0
 20
-33.0
 30
0.0
 40
2.5
  0
LINE
  5
5820
330
1E
100
AcDbEntity
  8
12
  6
DASHED
100
AcDbLine
 10
67.99999999999977
 20
-36.5000000000007
 30
0.0
 11
67.99999999999977
 21
-29.50000000000068
 31
0.0
  0
LINE
  5
5821
330
1E
100
AcDbEntity
  8
12
  6
DASHED
100
AcDbLine
 10
64.5
 20
-33.0
 30
0.0
 11
71.5
 21
-33.0
 31
0.0
  0
ARC
  5
5825
330
1E
100
AcDbEntity
  8
10
  6
CONTINOUS
100
AcDbCircle
 10
73.5
 20
91.0
 30
0.0
 40
5.0
100
AcDbArc
 50
0.0
 51
90.0
  0
CIRCLE
  5
5826
330
1E
100
AcDbEntity
  8
12
  6
DASHED
100
AcDbCircle
 10
68.0
 20
32.99999999999999
 30
0.0
 40
2.5
  0
LINE
  5
5827
330
1E
100
AcDbEntity
  8
12
  6
DASHED
100
AcDbLine
 10
64.5
 20
32.99999999999999
 30
0.0
 11
71.5
 21
32.99999999999999
 31
0.0
  0
LINE
  5
5828
330
1E
100
AcDbEntity
  8
12
  6
DASHED
100
AcDbLine
 10
67.99999999999977
 20
29.4999999999993
 30
0.0
 11
67.99999999999977
 21
36.49999999999931
 31
0.0
  0
LINE
  5
5BAB
330
1E
100
AcDbEntity
  8
18
  6
DIVIDE
100
AcDbLine
 10
73.11990546482869
 20
-156.663123744355
 30
0.0
 11
-73.88009453517131
 21
-156.663123744355
 31
0.0
  0
LINE
  5
5BAD
330
1E
100
AcDbEntity
  8
18
  6
DIVIDE
100
AcDbLine
 10
-73.88009453517131
 20
-348.663123744355
 30
0.0
 11
73.11990546482869
 21
-348.663123744355
 31
0.0
  0
LINE
  5
5BAE
330
1E
100
AcDbEntity
  8
11
 48
2.0
100
AcDbLine
 10
62.61990546482891
 20
-162.1631237443549
 30
0.0
 11
-63.38009453517108
 21
-162.1631237443549
 31
0.0
  0
LINE
  5
5BAF
330
1E
100
AcDbEntity
  8
11
 48
2.0
100
AcDbLine
 10
-63.3800945351712
 20
-343.163123744355
 30
0.0
 11
62.61990546482891
 21
-343.163123744355
 31
0.0
  0
LINE
  5
5BB0
330
1E
100
AcDbEntity
  8
18
  6
DIVIDE
100
AcDbLine
 10
-78.88009453517131
 20
-161.663123744355
 30
0.0
 11
-78.88009453517131
 21
-343.6631237443549
 31
0.0
  0
LINE
  5
5BB1
330
1E
100
AcDbEntity
  8
11
 48
2.0
100
AcDbLine
 10
-63.38009453517108
 20
-343.163123744355
 30
0.0
 11
-63.38009453517108
 21
-162.1631237443549
 31
0.0
  0
ARC
  5
5BB2
330
1E
100
AcDbEntity
  8
18
  6
DIVIDE
100
AcDbCircle
 10
-73.88009453517131
 20
-343.6631237443549
 30
0.0
 40
5.0
100
AcDbArc
 50
180.0
 51
270.0
  0
CIRCLE
  5
5BB3
330
1E
100
AcDbEntity
  8
12
  6
Continuous
 62
     3
100
AcDbCircle
 10
-68.38009453517121
 20
-219.6631237443548
 30
0.0
 40
3.0
  0
LINE
  5
5BB4
330
1E
100
AcDbEntity
  8
12
  6
Continuous
 62
     3
100
AcDbLine
 10
-68.38009453517121
 20
-224.6631237443557
 30
0.0
 11
-68.38009453517121
 21
-214.6631237443556
 31
0.0
  0
CIRCLE
  5
5BB5
330
1E
100
AcDbEntity
  8
12
  6
Continuous
 62
     3
100
AcDbCircle
 10
-68.38009453517121
 20
-285.663123744355
 30
0.0
 40
3.0
  0
LINE
  5
5BB6
330
1E
100
AcDbEntity
  8
12
  6
Continuous
 62
     3
100
AcDbLine
 10
-73.38009453517121
 20
-285.663123744355
 30
0.0
 11
-63.3800945351712
 21
-285.663123744355
 31
0.0
  0
LINE
  5
5BB7
330
1E
100
AcDbEntity
  8
12
  6
Continuous
 62
     3
100
AcDbLine
 10
-68.38009453517121
 20
-290.6631237443558
 30
0.0
 11
-68.38009453517121
 21
-280.6631237443557
 31
0.0
  0
LINE
  5
5BBB
330
1E
100
AcDbEntity
  8
12
  6
Continuous
 62
     3
100
AcDbLine
 10
-73.38009453517121
 20
-219.6631237443548
 30
0.0
 11
-63.3800945351712
 21
-219.6631237443548
 31
0.0
  0
ARC
  5
5BBC
330
1E
100
AcDbEntity
  8
18
  6
DIVIDE
100
AcDbCircle
 10
-73.88009453517131
 20
-161.663123744355
 30
0.0
 40
5.0
100
AcDbArc
 50
90.0
 51
180.0
  0
LINE
  5
5BBD
330
1E
100
AcDbEntity
  8
18
  6
DIVIDE
100
AcDbLine
 10
78.11990546482869
 20
-343.6631237443549
 30
0.0
 11
78.11990546482869
 21
-161.663123744355
 31
0.0
  0
LINE
  5
5BBE
330
1E
100
AcDbEntity
  8
11
 48
2.0
100
AcDbLine
 10
62.61990546482891
 20
-343.163123744355
 30
0.0
 11
62.61990546482891
 21
-162.1631237443549
 31
0.0
  0
ARC
  5
5BBF
330
1E
100
AcDbEntity
  8
18
  6
DIVIDE
100
AcDbCircle
 10
73.11990546482869
 20
-343.6631237443549
 30
0.0
 40
5.0
100
AcDbArc
 50
270.0
 51
0.0
  0
CIRCLE
  5
5BC0
330
1E
100
AcDbEntity
  8
12
  6
Continuous
 62
     3
100
AcDbCircle
 10
67.61990546482874
 20
-219.6631237443548
 30
0.0
 40
3.0
  0
LINE
  5
5BC1
330
1E
100
AcDbEntity
  8
12
  6
Continuous
 62
     3
100
AcDbLine
 10
67.61990546482874
 20
-224.6631237443557
 30
0.0
 11
67.61990546482874
 21
-214.6631237443556
 31
0.0
  0
CIRCLE
  5
5BC3
330
1E
100
AcDbEntity
  8
12
  6
Continuous
 62
     3
100
AcDbCircle
 10
67.6199054648289
 20
-285.663123744355
 30
0.0
 40
3.0
  0
LINE
  5
5BC5
330
1E
100
AcDbEntity
  8
12
  6
Continuous
 62
     3
100
AcDbLine
 10
62.61990546482891
 20
-285.663123744355
 30
0.0
 11
72.61990546482891
 21
-285.663123744355
 31
0.0
  0
LINE
  5
5BC6
330
1E
100
AcDbEntity
  8
12
  6
Continuous
 62
     3
100
AcDbLine
 10
67.61990546482874
 20
-290.6631237443558
 30
0.0
 11
67.61990546482874
 21
-280.6631237443557
 31
0.0
  0
LINE
  5
5BC8
330
1E
100
AcDbEntity
  8
12
  6
Continuous
 62
     3
100
AcDbLine
 10
62.61990546482874
 20
-219.6631237443548
 30
0.0
 11
72.61990546482874
 21
-219.6631237443548
 31
0.0
  0
ARC
  5
5BC9
330
1E
100
AcDbEntity
  8
18
  6
DIVIDE
100
AcDbCircle
 10
73.11990546482869
 20
-161.663123744355
 30
0.0
 40
5.0
100
AcDbArc
 50
0.0
 51
90.0
  0
DIMENSION
  5
5BDE
330
1E
100
AcDbEntity
  8
30
  6
Continuous
100
AcDbDimension
  2
*D11
 10
105.8363287888389
 20
-96.00000000000006
 30
0.0
 11
102.8363287888389
 21
-0.0000000000000132
 31
0.0
 70
    32
 71
     5
 42
-1.0
  3
STANDARD
100
AcDbAlignedDimension
 13
76.73785085275267
 23
96.0
 33
0.0
 14
76.73785085275267
 24
-96.00000000000004
 34
0.0
 50
90.0
100
AcDbRotatedDimension
1001
ACAD
1000
DSTYLE
1002
{
1070
    79
1070
     3
1002
}
  0
DIMENSION
  5
5C0F
330
1E
100
AcDbEntity
  8
30
  6
Continuous
100
AcDbDimension
  2
*D12
 10
62.61990546482891
 20
-365.6895617182887
 30
0.0
 11
-0.3800945351710821
 21
-362.6895617182886
 31
0.0
 70
    32
 71
     5
 42
-1.0
  3
STANDARD
100
AcDbAlignedDimension
 13
-63.38009453517108
 23
-343.163123744355
 33
0.0
 14
62.61990546482891
 24
-343.163123744355
 34
0.0
100
AcDbRotatedDimension
1001
ACAD
1000
DSTYLE
1002
{
1070
    79
1070
     3
1002
}
  0
DIMENSION
  5
5C1C
330
1E
100
AcDbEntity
  8
30
  6
Continuous
100
AcDbDimension
  2
*D13
 10
67.61990546482874
 20
-377.0163681745015
 30
0.0
 11
-0.3800945351712384
 21
-374.0163681745015
 31
0.0
 70
    32
 71
     5
 42
-1.0
  3
STANDARD
100
AcDbAlignedDimension
 13
-68.38009453517121
 23
-290.6631237443558
 33
0.0
 14
67.61990546482874
 24
-290.6631237443558
 34
0.0
100
AcDbRotatedDimension
1001
ACAD
1000
DSTYLE
1002
{
1070
    79
1070
     3
1002
}
  0
DIMENSION
  5
5C29
330
1E
100
AcDbEntity
  8
30
  6
Continuous
100
AcDbDimension
  2
*D14
 10
64.92600446482876
 20
-217.8933127443548
 30
0.0
 11
99.05001446482874
 21
-203.2939227443548
 31
0.0
 70
   163
 71
     5
 42
-1.0
  3
STANDARD
100
AcDbDiametricDimension
 15
70.31380646482881
 25
-215.252934744355
 35
0.0
 40
0.0
1001
ACAD
1000
DSTYLE
1002
{
1070
   288
1070
     1
1002
}
  0
LINE
  5
6221
330
1E
100
AcDbEntity
  8
10
  6
CONTINOUS
100
AcDbLine
 10
49.00000000000003
 20
25.0
 30
0.0
 11
49.00000000000003
 21
-25.0
 31
0.0
  0
LINE
  5
6222
330
1E
100
AcDbEntity
  8
10
  6
CONTINOUS
100
AcDbLine
 10
-10.99999999999999
 20
25.0
 30
0.0
 11
-10.99999999999999
 21
-25.0
 31
0.0
  0
LINE
  5
6223
330
1E
100
AcDbEntity
  8
10
  6
CONTINOUS
100
AcDbLine
 10
10.99999999999999
 20
25.0
 30
0.0
 11
10.99999999999999
 21
-25.0
 31
0.0
  0
LINE
  5
6224
330
1E
100
AcDbEntity
  8
10
  6
CONTINOUS
100
AcDbLine
 10
-48.99999999999998
 20
25.0
 30
0.0
 11
-48.99999999999998
 21
-25.0
 31
0.0
  0
LINE
  5
6225
330
1E
100
AcDbEntity
  8
10
  6
CONTINOUS
100
AcDbLine
 10
-48.99999999999998
 20
-25.0
 30
0.0
 11
49.00000000000003
 21
-25.0
 31
0.0
  0
DIMENSION
  5
6226
330
1E
100
AcDbEntity
  8
30
  6
Continuous
100
AcDbDimension
  2
*D20
 10
10.99999999999998
 20
-40.45444641199117
 30
0.0
 11
-0.0000000000000016
 21
-37.45444641199117
 31
0.0
 70
    32
 71
     5
 42
-1.0
  3
STANDARD
100
AcDbAlignedDimension
 13
-10.99999999999999
 23
-25.0
 33
0.0
 14
10.99999999999999
 24
-25.0
 34
0.0
 50
180.0
100
AcDbRotatedDimension
1001
ACAD
1000
DSTYLE
1002
{
1070
    79
1070
     3
1002
}
  0
LINE
  5
6227
330
1E
100
AcDbEntity
  8
10
  6
CONTINOUS
100
AcDbLine
 10
-48.99999999999998
 20
25.0
 30
0.0
 11
49.00000000000003
 21
25.0
 31
0.0
  0
DIMENSION
  5
6228
330
1E
100
AcDbEntity
  8
30
  6
Continuous
100
AcDbDimension
  2
*D21
 10
49.00000000000003
 20
35.21319198619853
 30
0.0
 11
0.0000000000000251
 21
38.21319198619852
 31
0.0
 70
    32
 71
     5
 42
-1.0
  3
STANDARD
100
AcDbAlignedDimension
 13
-48.99999999999998
 23
25.0
 33
0.0
 14
49.00000000000003
 24
25.0
 34
0.0
100
AcDbRotatedDimension
1001
ACAD
1000
DSTYLE
1002
{
1070
    79
1070
     3
1002
}
  0
LINE
  5
6229
330
1E
100
AcDbEntity
  8
10
  6
CONTINOUS
100
AcDbLine
 10
7.000000000000013
 20
-18.49999999999998
 30
0.0
 11
7.000000000000082
 21
20.1548687058103
 31
0.0
  0
LINE
  5
622A
330
1E
100
AcDbEntity
  8
10
  6
CONTINOUS
100
AcDbLine
 10
-6.999999999999997
 20
-18.49999999999998
 30
0.0
 11
-6.999999999999912
 21
20.1548687058103
 31
0.0
  0
LINE
  5
622B
330
1E
100
AcDbEntity
  8
10
  6
CONTINOUS
100
AcDbLine
 10
7.000000000000013
 20
6.840789306861548
 30
0.0
 11
-6.999999999999087
 21
6.840789306861548
 31
0.0
  0
LINE
  5
622C
330
1E
100
AcDbEntity
  8
10
  6
CONTINOUS
100
AcDbLine
 10
-6.999999999999997
 20
-18.49999999999998
 30
0.0
 11
7.000000000000013
 21
-18.49999999999998
 31
0.0
  0
LINE
  5
622D
330
1E
100
AcDbEntity
  8
10
  6
CONTINOUS
100
AcDbLine
 10
7.000000000000013
 20
15.23995644007664
 30
0.0
 11
-6.999999999999997
 21
15.23995644007664
 31
0.0
  0
LINE
  5
622E
330
1E
100
AcDbEntity
  8
10
  6
CONTINOUS
100
AcDbLine
 10
7.000000000000013
 20
20.1548687058103
 30
0.0
 11
-7.000000000000892
 21
20.1548687058103
 31
0.0
  0
CIRCLE
  5
6393
330
1E
100
AcDbEntity
  8
10
  6
CONTINOUS
100
AcDbCircle
 10
26.19999999999996
 20
5.800000000000013
 30
0.0
 40
3.0
  0
LINE
  5
6394
330
1E
100
AcDbEntity
  8
10
  6
CONTINOUS
100
AcDbLine
 10
22.69999999999996
 20
-15.5
 30
0.0
 11
30.69999999999996
 21
-15.5
 31
0.0
  0
LINE
  5
6395
330
1E
100
AcDbEntity
  8
10
  6
CONTINOUS
100
AcDbLine
 10
22.69999999999996
 20
-10.5
 30
0.0
 11
30.69999999999996
 21
-10.5
 31
0.0
  0
LINE
  5
6396
330
1E
100
AcDbEntity
  8
10
  6
CONTINOUS
100
AcDbLine
 10
22.69999999999996
 20
-12.5
 30
0.0
 11
30.69999999999996
 21
-12.5
 31
0.0
  0
LINE
  5
6397
330
1E
100
AcDbEntity
  8
10
  6
CONTINOUS
100
AcDbLine
 10
22.69999999999996
 20
-7.5
 30
0.0
 11
30.69999999999996
 21
-7.5
 31
0.0
  0
LINE
  5
6398
330
1E
100
AcDbEntity
  8
10
  6
CONTINOUS
100
AcDbLine
 10
22.69999999999996
 20
-10.5
 30
0.0
 11
22.69999999999996
 21
-7.5
 31
0.0
  0
LINE
  5
6399
330
1E
100
AcDbEntity
  8
10
  6
CONTINOUS
100
AcDbLine
 10
22.69999999999996
 20
-15.5
 30
0.0
 11
22.69999999999996
 21
-12.5
 31
0.0
  0
LINE
  5
639A
330
1E
100
AcDbEntity
  8
10
  6
CONTINOUS
100
AcDbLine
 10
30.69999999999996
 20
-10.5
 30
0.0
 11
30.69999999999996
 21
-7.5
 31
0.0
  0
LINE
  5
639B
330
1E
100
AcDbEntity
  8
10
  6
CONTINOUS
100
AcDbLine
 10
30.69999999999996
 20
-15.5
 30
0.0
 11
30.69999999999996
 21
-12.5
 31
0.0
  0
CIRCLE
  5
639C
330
1E
100
AcDbEntity
  8
10
  6
CONTINOUS
100
AcDbCircle
 10
26.19999999999996
 20
-1.900000000000004
 30
0.0
 40
2.6
  0
CIRCLE
  5
639D
330
1E
100
AcDbEntity
  8
10
  6
CONTINOUS
100
AcDbCircle
 10
26.19999999999996
 20
-1.900000000000004
 30
0.0
 40
3.6
  0
MTEXT
  5
63DD
330
1E
100
AcDbEntity
  8
30
  6
Continuous
100
AcDbMText
 10
246.1529255247382
 20
239.0638766826709
 30
0.0
 40
5.0
 41
165.0
 71
     1
 72
     5
  1
ZE225-NF 3P FP\PZS225-NF 3P FP\PZS225-GF 3P FP\PZS225-NM 3P FP\PZE250-NF 3P FP\PZS250-NF 3P FP\PZS250-GF 3P FP
  7
STANDARD1
 73
     1
 44
1.0
1001
ACAD
1000
MTEXTBEGIN
1070
    73
1070
     1
1070
    44
1040
1.0
1070
    74
1070
     0
1000
MTEXTEND
  0
LINE
  5
661D
330
1E
100
AcDbEntity
  8
16
100
AcDbLine
 10
307.6420106438392
 20
0.0
 30
0.0
 11
175.4767630316693
 21
0.0
 31
0.0
  0
DIMENSION
  5
661E
330
1E
100
AcDbEntity
  8
30
  6
Continuous
100
AcDbDimension
  2
*D36
 10
394.4095201416831
 20
-185.454446411991
 30
0.0
 11
313.9095201416832
 21
-182.454446411991
 31
0.0
 70
    32
 71
     5
 42
160.9999999999997
  3
STANDARD
100
AcDbAlignedDimension
 13
233.4095201416833
 23
-105.9999999999999
 33
0.0
 14
394.4095201416831
 24
-72.00000000000006
 34
0.0
 50
180.0
100
AcDbRotatedDimension
  0
DIMENSION
  5
661F
330
1E
100
AcDbEntity
  8
30
  6
Continuous
100
AcDbDimension
  2
*D37
 10
359.4095201416832
 20
-160.454446411991
 30
0.0
 11
296.4095201416832
 21
-157.454446411991
 31
0.0
 70
    32
 71
     5
 42
125.9999999999998
  3
STANDARD
100
AcDbAlignedDimension
 13
233.4095201416833
 23
-105.9999999999999
 33
0.0
 14
359.4095201416832
 24
-72.00000000000006
 34
0.0
 50
180.0
100
AcDbRotatedDimension
  0
DIMENSION
  5
6620
330
1E
100
AcDbEntity
  8
30
  6
Continuous
100
AcDbDimension
  2
*D38
 10
233.4095201416833
 20
-160.454446411991
 30
0.0
 11
225.9095201416833
 21
-157.454446411991
 31
0.0
 70
    32
 71
     5
 42
15.0
  3
STANDARD
100
AcDbAlignedDimension
 13
218.4095201416833
 23
-96.00000000000006
 33
0.0
 14
233.4095201416833
 24
-105.9999999999999
 34
0.0
 50
180.0
100
AcDbRotatedDimension
  0
DIMENSION
  5
6621
330
1E
100
AcDbEntity
  8
30
  6
Continuous
100
AcDbDimension
  2
*D39
 10
233.4095201416833
 20
-185.454446411991
 30
0.0
 11
214.9095201416832
 21
-182.454446411991
 31
0.0
 70
    32
 71
     5
 42
37.00000000000012
  3
STANDARD
100
AcDbAlignedDimension
 13
196.4095201416832
 23
-2.500000016500052
 33
0.0
 14
233.4095201416833
 24
-105.9999999999999
 34
0.0
 50
180.0
100
AcDbRotatedDimension
  0
ARC
  5
6622
330
1E
100
AcDbEntity
  8
30
  6
Continuous
100
AcDbCircle
 10
227.4095201416831
 20
0.0
 30
0.0
 40
31.0
100
AcDbArc
 50
150.5534441956564
 51
180.0
  0
DIMENSION
  5
6623
330
1E
100
AcDbEntity
  8
30
  6
Continuous
100
AcDbDimension
  2
*D40
 10
429.656529715811
 20
74.99999999999999
 30
0.0
 11
426.656529715811
 21
72.00000000000006
 31
0.0
 70
    32
 71
     5
 42
6.0
  3
STANDARD
100
AcDbAlignedDimension
 13
394.4095201416831
 23
69.0
 33
0.0
 14
394.4095201416831
 24
75.0
 34
0.0
 50
270.0
100
AcDbRotatedDimension
  0
INSERT
  5
6624
330
1E
100
AcDbEntity
  8
0
100
AcDbBlockReference
  2
*U23
 10
-414.7184702889388
 20
-271.6618080090515
 30
0.0
 41
2.5
 42
2.5
 43
2.5
  0
DIMENSION
  5
6625
330
1E
100
AcDbEntity
  8
30
  6
Continuous
100
AcDbDimension
  2
*D41
 10
429.656529715811
 20
-62.00000000000006
 30
0.0
 11
426.656529715811
 21
-72.0
 31
0.0
 70
    32
 71
     5
 42
20.0
  3
STANDARD
100
AcDbAlignedDimension
 13
391.7300282173719
 23
-82.00000000000006
 33
0.0
 14
391.7300282173719
 24
-62.00000000000006
 34
0.0
 50
270.0
100
AcDbRotatedDimension
  0
LINE
  5
6626
330
1E
100
AcDbEntity
  8
10
  6
CONTINOUS
100
AcDbLine
 10
233.4095201416833
 20
96.0
 30
0.0
 11
233.4095201416833
 21
-96.00000000000006
 31
0.0
  0
LINE
  5
6627
330
1E
100
AcDbEntity
  8
10
  6
CONTINOUS
100
AcDbLine
 10
216.4095201416831
 20
24.99999999999997
 30
0.0
 11
216.4095201416831
 21
-25.00000000000003
 31
0.0
  0
LINE
  5
6628
330
1E
100
AcDbEntity
  8
10
  6
CONTINOUS
100
AcDbLine
 10
212.4095201416831
 20
14.16543683943001
 30
0.0
 11
203.8557249601942
 21
20.15486870581054
 31
0.0
  0
LINE
  5
6629
330
1E
100
AcDbEntity
  8
10
  6
CONTINOUS
100
AcDbLine
 10
200.4142663420881
 20
15.23995644007664
 30
0.0
 11
203.8557249601942
 21
20.15486870581054
 31
0.0
  0
LINE
  5
662A
330
1E
100
AcDbEntity
  8
18
100
AcDbLine
 10
237.4095201416831
 20
100.9999999999999
 30
0.0
 11
237.4095201416831
 21
-110.9999999999999
 31
0.0
  0
LINE
  5
662B
330
1E
100
AcDbEntity
  8
10
  6
CONTINOUS
100
AcDbLine
 10
218.4095201416833
 20
96.0
 30
0.0
 11
218.4095201416833
 21
-96.00000000000006
 31
0.0
  0
LINE
  5
662C
330
1E
100
AcDbEntity
  8
10
  6
CONTINOUS
100
AcDbLine
 10
212.4095201416831
 20
24.99999999999997
 30
0.0
 11
212.4095201416831
 21
-25.00000000000003
 31
0.0
  0
LINE
  5
662D
330
1E
100
AcDbEntity
  8
0
  6
Continuous
100
AcDbLine
 10
288.4095201416833
 20
-82.00000000000006
 30
0.0
 11
356.7300282173719
 21
-82.00000000000006
 31
0.0
  0
LINE
  5
662E
330
1E
100
AcDbEntity
  8
0
  6
Continuous
100
AcDbLine
 10
298.0595201416836
 20
-62.00000000000006
 30
0.0
 11
356.7300282173719
 21
-62.00000000000006
 31
0.0
  0
LINE
  5
662F
330
1E
100
AcDbEntity
  8
0
  6
Continuous
100
AcDbLine
 10
283.4095201416829
 20
-72.00000000000006
 30
0.0
 11
404.9095201416832
 21
-72.00000000000006
 31
0.0
  0
LINE
  5
6630
330
1E
100
AcDbEntity
  8
0
  6
PHANTOM
100
AcDbLine
 10
233.4095201416833
 20
-96.00000000000006
 30
0.0
 11
233.4095201416833
 21
-105.9999999999999
 31
0.0
  0
LINE
  5
6631
330
1E
100
AcDbEntity
  8
18
100
AcDbLine
 10
233.4095201416833
 20
-105.9999999999999
 30
0.0
 11
237.4095201416831
 21
-110.9999999999999
 31
0.0
  0
LINE
  5
6632
330
1E
100
AcDbEntity
  8
10
  6
CONTINOUS
100
AcDbLine
 10
218.4095201416833
 20
-96.00000000000006
 30
0.0
 11
233.4095201416833
 21
-96.00000000000006
 31
0.0
  0
LINE
  5
6633
330
1E
100
AcDbEntity
  8
10
  6
CONTINOUS
100
AcDbLine
 10
212.4095201416831
 20
-25.00000000000003
 30
0.0
 11
218.4095201416833
 21
-25.00000000000003
 31
0.0
  0
LINE
  5
6634
330
1E
100
AcDbEntity
  8
10
  6
CONTINOUS
100
AcDbLine
 10
212.4095201416831
 20
6.840789306861267
 30
0.0
 11
200.4142663420881
 21
15.23995644007664
 31
0.0
  0
INSERT
  5
6635
330
1E
100
AcDbEntity
  8
30
  6
Continuous
100
AcDbBlockReference
  2
*U24
 10
-414.7184702889388
 20
-271.6618080090515
 30
0.0
 41
2.5
 42
2.5
 43
2.5
  0
LINE
  5
6636
330
1E
100
AcDbEntity
  8
0
  6
Continuous
100
AcDbLine
 10
379.4095201416831
 20
-59.00000000000003
 30
0.0
 11
379.4095201416831
 21
-85.0
 31
0.0
  0
LINE
  5
6637
330
1E
100
AcDbEntity
  8
0
  6
Continuous
100
AcDbLine
 10
344.4095201416829
 20
-59.00000000000003
 30
0.0
 11
344.4095201416829
 21
-85.0
 31
0.0
  0
LINE
  5
6638
330
1E
100
AcDbEntity
  8
0
  6
Continuous
100
AcDbLine
 10
359.4539287970314
 20
-62.00000000000006
 30
0.0
 11
391.7300282173719
 21
-62.00000000000006
 31
0.0
  0
LINE
  5
6639
330
1E
100
AcDbEntity
  8
0
  6
Continuous
100
AcDbLine
 10
359.4539287970314
 20
-82.00000000000006
 30
0.0
 11
391.7300282173719
 21
-82.00000000000006
 31
0.0
  0
DIMENSION
  5
663A
330
1E
100
AcDbEntity
  8
30
  6
Continuous
100
AcDbDimension
  2
*D42
 10
359.4095201416832
 20
-135.4544464119911
 30
0.0
 11
351.9095201416831
 21
-132.4544464119911
 31
0.0
 70
    32
 71
     5
 42
15.00000000000023
  3
STANDARD
100
AcDbAlignedDimension
 13
344.4095201416829
 23
-74.50000001650002
 33
0.0
 14
359.4095201416832
 24
-82.30776410006075
 34
0.0
 50
180.0
100
AcDbRotatedDimension
  0
ARC
  5
663B
330
1E
100
AcDbEntity
  8
0
  6
Continuous
100
AcDbCircle
 10
-341.7744368727202
 20
-72.00000000000006
 30
0.0
 40
20.0
210
0.0
220
0.0
230
-1.0
100
AcDbArc
 50
330.0000000000003
 51
345.5224878140701
  0
LINE
  5
663C
330
1E
100
AcDbEntity
  8
0
  6
Continuous
100
AcDbLine
 10
315.9095201416832
 20
-62.00000000000006
 30
0.0
 11
315.9095201416832
 21
-82.00000000000006
 31
0.0
  0
LINE
  5
663D
330
1E
100
AcDbEntity
  8
0
  6
Continuous
100
AcDbLine
 10
315.9095201416832
 20
-77.00000000000006
 30
0.0
 11
322.4095201416832
 21
-77.00000000000006
 31
0.0
  0
LINE
  5
663E
330
1E
100
AcDbEntity
  8
0
  6
Continuous
100
AcDbLine
 10
315.9095201416832
 20
-67.00000000000006
 30
0.0
 11
322.4095201416832
 21
-67.00000000000006
 31
0.0
  0
ARC
  5
663F
330
1E
100
AcDbEntity
  8
0
  6
Continuous
100
AcDbCircle
 10
-341.7744368727202
 20
-72.00000000000006
 30
0.0
 40
20.0
210
0.0
220
0.0
230
-1.0
100
AcDbArc
 50
14.47751218592986
 51
29.99999999999973
  0
ARC
  5
6640
330
1E
100
AcDbEntity
  8
0
  6
Continuous
100
AcDbCircle
 10
-376.7744368727203
 20
-72.00000000000006
 30
0.0
 40
20.0
210
0.0
220
0.0
230
-1.0
100
AcDbArc
 50
330.0000000000003
 51
339.0869051817073
  0
ARC
  5
6641
330
1E
100
AcDbEntity
  8
0
  6
Continuous
100
AcDbCircle
 10
339.4095201416829
 20
-72.00000000000006
 30
0.0
 40
20.0
100
AcDbArc
 50
330.0000000000003
 51
29.99999999999973
  0
CIRCLE
  5
6642
330
1E
100
AcDbEntity
  8
0
  6
Continuous
100
AcDbCircle
 10
344.4095201416829
 20
-72.00000000000006
 30
0.0
 40
4.5
  0
ARC
  5
6643
330
1E
100
AcDbEntity
  8
0
  6
Continuous
100
AcDbCircle
 10
-376.7744368727203
 20
-72.00000000000006
 30
0.0
 40
20.0
210
0.0
220
0.0
230
-1.0
100
AcDbArc
 50
20.9130948182927
 51
29.99999999999973
  0
DIMENSION
  5
6644
330
1E
100
AcDbEntity
  8
30
  6
Continuous
100
AcDbDimension
  2
*D43
 10
394.4095201416831
 20
-135.4544464119911
 30
0.0
 11
386.9095201416831
 21
-132.4544464119911
 31
0.0
 70
    32
 71
     5
 42
15.0
  3
STANDARD
100
AcDbAlignedDimension
 13
379.4095201416831
 23
-74.50000001650002
 33
0.0
 14
394.4095201416831
 24
-82.30776410006075
 34
0.0
 50
180.0
100
AcDbRotatedDimension
  0
CIRCLE
  5
6645
330
1E
100
AcDbEntity
  8
0
  6
Continuous
100
AcDbCircle
 10
379.4095201416831
 20
-72.00000000000006
 30
0.0
 40
4.5
  0
ARC
  5
6646
330
1E
100
AcDbEntity
  8
0
  6
Continuous
100
AcDbCircle
 10
374.409520141683
 20
-72.00000000000006
 30
0.0
 40
20.0
100
AcDbArc
 50
330.0000000000003
 51
29.99999999999973
  0
LINE
  5
6647
330
1E
100
AcDbEntity
  8
0
  6
Continuous
100
AcDbLine
 10
298.0595201416836
 20
61.99999999999999
 30
0.0
 11
350.909520141683
 21
61.99999999999999
 31
0.0
  0
LINE
  5
6648
330
1E
100
AcDbEntity
  8
0
  6
Continuous
100
AcDbLine
 10
288.4095201416833
 20
82.0
 30
0.0
 11
350.909520141683
 21
82.0
 31
0.0
  0
LINE
  5
6649
330
1E
100
AcDbEntity
  8
0
  6
Continuous
100
AcDbLine
 10
283.4095201416833
 20
72.0
 30
0.0
 11
399.4095201416831
 21
72.0
 31
0.0
  0
LINE
  5
664A
330
1E
100
AcDbEntity
  8
10
  6
CONTINOUS
100
AcDbLine
 10
212.4095201416831
 20
24.99999999999997
 30
0.0
 11
218.4095201416833
 21
24.99999999999997
 31
0.0
  0
LINE
  5
664B
330
1E
100
AcDbEntity
  8
10
  6
CONTINOUS
100
AcDbLine
 10
218.4095201416833
 20
96.0
 30
0.0
 11
233.4095201416833
 21
96.0
 31
0.0
  0
LINE
  5
664C
330
1E
100
AcDbEntity
  8
18
100
AcDbLine
 10
233.4095201416833
 20
105.9999999999998
 30
0.0
 11
237.4095201416831
 21
100.9999999999999
 31
0.0
  0
LINE
  5
664D
330
1E
100
AcDbEntity
  8
18
100
AcDbLine
 10
233.4095201416833
 20
105.9999999999998
 30
0.0
 11
233.4095201416833
 21
96.0
 31
0.0
  0
LINE
  5
664E
330
1E
100
AcDbEntity
  8
0
  6
Continuous
100
AcDbLine
 10
350.909520141683
 20
67.0
 30
0.0
 11
357.4095201416833
 21
67.0
 31
0.0
  0
LINE
  5
664F
330
1E
100
AcDbEntity
  8
0
  6
Continuous
100
AcDbLine
 10
350.909520141683
 20
77.0
 30
0.0
 11
357.4095201416833
 21
77.0
 31
0.0
  0
LINE
  5
6650
330
1E
100
AcDbEntity
  8
0
  6
Continuous
100
AcDbLine
 10
322.4095201416832
 20
69.0
 30
0.0
 11
359.4095201416832
 21
69.0
 31
0.0
  0
LINE
  5
6651
330
1E
100
AcDbEntity
  8
0
  6
Continuous
100
AcDbLine
 10
322.4095201416832
 20
75.0
 30
0.0
 11
359.4095201416832
 21
75.0
 31
0.0
  0
LINE
  5
6652
330
1E
100
AcDbEntity
  8
0
  6
Continuous
100
AcDbLine
 10
322.4095201416832
 20
77.0
 30
0.0
 11
322.4095201416832
 21
75.0
 31
0.0
  0
LINE
  5
6653
330
1E
100
AcDbEntity
  8
0
  6
Continuous
100
AcDbLine
 10
315.9095201416832
 20
82.0
 30
0.0
 11
315.9095201416832
 21
61.99999999999999
 31
0.0
  0
LINE
  5
6654
330
1E
100
AcDbEntity
  8
0
  6
Continuous
100
AcDbLine
 10
315.9095201416832
 20
67.0
 30
0.0
 11
322.4095201416832
 21
67.0
 31
0.0
  0
LINE
  5
6655
330
1E
100
AcDbEntity
  8
0
  6
Continuous
100
AcDbLine
 10
322.4095201416832
 20
69.0
 30
0.0
 11
322.4095201416832
 21
67.0
 31
0.0
  0
LINE
  5
6656
330
1E
100
AcDbEntity
  8
0
  6
Continuous
100
AcDbLine
 10
315.9095201416832
 20
77.0
 30
0.0
 11
322.4095201416832
 21
77.0
 31
0.0
  0
LINE
  5
6657
330
1E
100
AcDbEntity
  8
0
  6
Continuous
100
AcDbLine
 10
350.909520141683
 20
82.0
 30
0.0
 11
350.909520141683
 21
75.0
 31
0.0
  0
LINE
  5
6658
330
1E
100
AcDbEntity
  8
0
  6
Continuous
100
AcDbLine
 10
344.4095201416829
 20
85.00000000000001
 30
0.0
 11
344.4095201416829
 21
58.99999999999999
 31
0.0
  0
LINE
  5
6659
330
1E
100
AcDbEntity
  8
0
  6
Continuous
100
AcDbLine
 10
350.909520141683
 20
69.0
 30
0.0
 11
350.909520141683
 21
61.99999999999999
 31
0.0
  0
LINE
  5
665A
330
1E
100
AcDbEntity
  8
0
  6
Continuous
100
AcDbLine
 10
359.4095201416832
 20
69.0
 30
0.0
 11
359.4095201416832
 21
75.0
 31
0.0
  0
LINE
  5
665B
330
1E
100
AcDbEntity
  8
0
  6
Continuous
100
AcDbLine
 10
357.4095201416828
 20
75.0
 30
0.0
 11
394.4095201416831
 21
75.0
 31
0.0
  0
LINE
  5
665C
330
1E
100
AcDbEntity
  8
0
  6
Continuous
100
AcDbLine
 10
357.4095201416828
 20
69.0
 30
0.0
 11
394.4095201416831
 21
69.0
 31
0.0
  0
LINE
  5
665D
330
1E
100
AcDbEntity
  8
0
  6
Continuous
100
AcDbLine
 10
357.4095201416833
 20
77.0
 30
0.0
 11
357.4095201416833
 21
75.0
 31
0.0
  0
LINE
  5
665E
330
1E
100
AcDbEntity
  8
0
  6
Continuous
100
AcDbLine
 10
379.4095201416831
 20
85.00000000000001
 30
0.0
 11
379.4095201416831
 21
58.99999999999999
 31
0.0
  0
LINE
  5
665F
330
1E
100
AcDbEntity
  8
0
  6
Continuous
100
AcDbLine
 10
357.4095201416833
 20
69.0
 30
0.0
 11
357.4095201416833
 21
67.0
 31
0.0
  0
LINE
  5
6660
330
1E
100
AcDbEntity
  8
0
  6
Continuous
100
AcDbLine
 10
394.4095201416831
 20
69.0
 30
0.0
 11
394.4095201416831
 21
75.0
 31
0.0
  0
DIMENSION
  5
6661
330
1E
100
AcDbEntity
  8
30
  6
Continuous
100
AcDbDimension
  2
*D35
 10
441.7518178735186
 20
-72.00000000000006
 30
0.0
 11
438.7518178735186
 21
0.0000000000000444
 31
0.0
 70
    32
 71
     5
 42
144.0
  3
STANDARD
100
AcDbAlignedDimension
 13
433.8671757186886
 23
72.0
 33
0.0
 14
429.656529715811
 24
-72.00000000000006
 34
0.0
 50
90.0
100
AcDbRotatedDimension
1001
ACAD
1000
DSTYLE
1002
{
1070
    79
1070
     3
1002
}
  0
LINE
  5
6662
330
1E
100
AcDbEntity
  8
10
  6
CONTINOUS
100
AcDbLine
 10
233.4095201416833
 20
-75.0
 30
0.0
 11
245.2095201416835
 21
-75.0
 31
0.0
  0
LINE
  5
6663
330
1E
100
AcDbEntity
  8
10
  6
CONTINOUS
100
AcDbLine
 10
245.2095201416835
 20
-50.0
 30
0.0
 11
245.2095201416835
 21
-75.0
 31
0.0
  0
LINE
  5
6664
330
1E
100
AcDbEntity
  8
10
  6
CONTINOUS
100
AcDbLine
 10
245.2095201416835
 20
-50.0
 30
0.0
 11
292.6095201416836
 21
-50.0
 31
0.0
  0
LINE
  5
6665
330
1E
100
AcDbEntity
  8
10
  6
CONTINOUS
100
AcDbLine
 10
245.2095201416835
 20
50.00000000000003
 30
0.0
 11
292.6095201416836
 21
50.00000000000003
 31
0.0
  0
LINE
  5
6666
330
1E
100
AcDbEntity
  8
10
  6
CONTINOUS
100
AcDbLine
 10
245.2095201416835
 20
75.00000000000004
 30
0.0
 11
245.2095201416835
 21
50.00000000000003
 31
0.0
  0
LINE
  5
6667
330
1E
100
AcDbEntity
  8
10
  6
CONTINOUS
100
AcDbLine
 10
245.2095201416835
 20
75.00000000000004
 30
0.0
 11
233.4095201416833
 21
75.00000000000004
 31
0.0
  0
LINE
  5
6668
330
1E
100
AcDbEntity
  8
10
  6
CONTINOUS
100
AcDbLine
 10
292.6095201416836
 20
75.00000000000004
 30
0.0
 11
291.0095201416834
 21
75.00000000000004
 31
0.0
  0
LINE
  5
6669
330
1E
100
AcDbEntity
  8
10
  6
CONTINOUS
100
AcDbLine
 10
292.6095201416836
 20
-75.0
 30
0.0
 11
291.0095201416834
 21
-75.0
 31
0.0
  0
LINE
  5
666A
330
1E
100
AcDbEntity
  8
10
  6
CONTINOUS
100
AcDbLine
 10
288.4095201416833
 20
-76.5
 30
0.0
 11
291.0095201416834
 21
-76.5
 31
0.0
  0
LINE
  5
666B
330
1E
100
AcDbEntity
  8
10
  6
CONTINOUS
100
AcDbLine
 10
293.6095201416833
 20
-50.0
 30
0.0
 11
292.6095201416836
 21
-50.0
 31
0.0
  0
LINE
  5
666C
330
1E
100
AcDbEntity
  8
10
  6
CONTINOUS
100
AcDbLine
 10
293.6095201416833
 20
-50.0
 30
0.0
 11
293.6095201416833
 21
50.00000000000003
 31
0.0
  0
LINE
  5
666D
330
1E
100
AcDbEntity
  8
10
  6
CONTINOUS
100
AcDbLine
 10
293.6095201416833
 20
50.00000000000003
 30
0.0
 11
292.6095201416836
 21
50.00000000000003
 31
0.0
  0
LINE
  5
666E
330
1E
100
AcDbEntity
  8
10
  6
CONTINOUS
100
AcDbLine
 10
288.4095201416833
 20
76.50000000000003
 30
0.0
 11
291.0095201416834
 21
76.50000000000003
 31
0.0
  0
LINE
  5
666F
330
1E
100
AcDbEntity
  8
10
  6
CONTINOUS
100
AcDbLine
 10
288.4095201416833
 20
-76.5
 30
0.0
 11
288.4095201416833
 21
-50.0
 31
0.0
  0
LINE
  5
6670
330
1E
100
AcDbEntity
  8
10
  6
CONTINOUS
100
AcDbLine
 10
291.0095201416834
 20
-76.5
 30
0.0
 11
291.0095201416834
 21
-50.0
 31
0.0
  0
LINE
  5
6671
330
1E
100
AcDbEntity
  8
10
  6
CONTINOUS
100
AcDbLine
 10
288.4095201416833
 20
50.00000000000003
 30
0.0
 11
288.4095201416833
 21
76.50000000000003
 31
0.0
  0
LINE
  5
6672
330
1E
100
AcDbEntity
  8
10
  6
CONTINOUS
100
AcDbLine
 10
291.0095201416834
 20
50.00000000000003
 30
0.0
 11
291.0095201416834
 21
76.50000000000003
 31
0.0
  0
LINE
  5
6673
330
1E
100
AcDbEntity
  8
10
  6
CONTINOUS
100
AcDbLine
 10
292.6095201416836
 20
50.00000000000003
 30
0.0
 11
292.6095201416836
 21
75.00000000000004
 31
0.0
  0
LINE
  5
6674
330
1E
100
AcDbEntity
  8
10
  6
CONTINOUS
100
AcDbLine
 10
291.0095201416834
 20
50.00000000000003
 30
0.0
 11
291.0095201416834
 21
75.00000000000004
 31
0.0
  0
LINE
  5
6675
330
1E
100
AcDbEntity
  8
10
  6
CONTINOUS
100
AcDbLine
 10
291.0095201416834
 20
-75.0
 30
0.0
 11
291.0095201416834
 21
-50.0
 31
0.0
  0
LINE
  5
6676
330
1E
100
AcDbEntity
  8
10
  6
CONTINOUS
100
AcDbLine
 10
292.6095201416836
 20
-75.0
 30
0.0
 11
292.6095201416836
 21
50.00000000000003
 31
0.0
  0
LINE
  5
6677
330
1E
100
AcDbEntity
  8
10
  6
CONTINOUS
100
AcDbLine
 10
276.8095201416836
 20
20.00000000000004
 30
0.0
 11
243.8095201416834
 21
20.00000000000004
 31
0.0
  0
LINE
  5
6678
330
1E
100
AcDbEntity
  8
10
  6
CONTINOUS
100
AcDbLine
 10
241.8095201416836
 20
-18.0
 30
0.0
 11
241.8095201416836
 21
18.0
 31
0.0
  0
LINE
  5
6679
330
1E
100
AcDbEntity
  8
10
  6
CONTINOUS
100
AcDbLine
 10
276.8095201416836
 20
-20.0
 30
0.0
 11
243.8095201416834
 21
-20.0
 31
0.0
  0
LINE
  5
667A
330
1E
100
AcDbEntity
  8
10
  6
CONTINOUS
100
AcDbLine
 10
278.8095201416834
 20
-18.0
 30
0.0
 11
278.8095201416834
 21
18.0
 31
0.0
  0
LINE
  5
667B
330
1E
100
AcDbEntity
  8
10
  6
CONTINOUS
100
AcDbLine
 10
297.0595201416834
 20
64.40000000000002
 30
0.0
 11
294.8095201416834
 21
64.40000000000002
 31
0.0
  0
LINE
  5
667C
330
1E
100
AcDbEntity
  8
10
  6
CONTINOUS
100
AcDbLine
 10
297.0595201416834
 20
55.59999999999999
 30
0.0
 11
294.8095201416834
 21
55.59999999999999
 31
0.0
  0
LINE
  5
667D
330
1E
100
AcDbEntity
  8
10
  6
CONTINOUS
100
AcDbLine
 10
294.6095201416834
 20
64.40000000000002
 30
0.0
 11
293.7095201416834
 21
64.40000000000002
 31
0.0
  0
LINE
  5
667E
330
1E
100
AcDbEntity
  8
10
  6
CONTINOUS
100
AcDbLine
 10
294.6095201416834
 20
55.59999999999999
 30
0.0
 11
293.7095201416834
 21
55.59999999999999
 31
0.0
  0
LINE
  5
667F
330
1E
100
AcDbEntity
  8
10
  6
CONTINOUS
100
AcDbLine
 10
294.8095201416834
 20
64.19999999999999
 30
0.0
 11
294.8095201416834
 21
55.80000000000002
 31
0.0
  0
LINE
  5
6680
330
1E
100
AcDbEntity
  8
10
  6
CONTINOUS
100
AcDbLine
 10
293.3095201416834
 20
64.74999999999998
 30
0.0
 11
292.6095201416836
 21
64.74999999999998
 31
0.0
  0
LINE
  5
6681
330
1E
100
AcDbEntity
  8
10
  6
CONTINOUS
100
AcDbLine
 10
293.3095201416834
 20
55.25000000000002
 30
0.0
 11
292.6095201416836
 21
55.25000000000002
 31
0.0
  0
LINE
  5
6682
330
1E
100
AcDbEntity
  8
10
  6
CONTINOUS
100
AcDbLine
 10
293.7095201416834
 20
55.65000000000001
 30
0.0
 11
293.7095201416834
 21
64.34999999999999
 31
0.0
  0
LINE
  5
6683
330
1E
100
AcDbEntity
  8
10
  6
CONTINOUS
100
AcDbLine
 10
298.0595201416836
 20
63.40000000000002
 30
0.0
 11
298.0595201416836
 21
56.60000000000001
 31
0.0
  0
LINE
  5
6684
330
1E
100
AcDbEntity
  8
10
  6
CONTINOUS
100
AcDbLine
 10
294.8095201416834
 20
64.40000000000002
 30
0.0
 11
294.8095201416834
 21
55.59999999999999
 31
0.0
  0
LINE
  5
6685
330
1E
100
AcDbEntity
  8
10
  6
CONTINOUS
100
AcDbLine
 10
293.7095201416834
 20
60.64182500000006
 30
0.0
 11
294.8095201416834
 21
60.54558750000002
 31
0.0
  0
LINE
  5
6686
330
1E
100
AcDbEntity
  8
10
  6
CONTINOUS
100
AcDbLine
 10
294.8095201416834
 20
59.74444000000002
 30
0.0
 11
293.7095201416834
 21
59.84067749999998
 31
0.0
  0
LINE
  5
6687
330
1E
100
AcDbEntity
  8
10
  6
CONTINOUS
100
AcDbLine
 10
293.3095201416834
 20
-55.25
 30
0.0
 11
292.6095201416836
 21
-55.25
 31
0.0
  0
LINE
  5
6688
330
1E
100
AcDbEntity
  8
10
  6
CONTINOUS
100
AcDbLine
 10
293.7095201416834
 20
-64.34999999999999
 30
0.0
 11
293.7095201416834
 21
-55.64999999999997
 31
0.0
  0
LINE
  5
6689
330
1E
100
AcDbEntity
  8
10
  6
CONTINOUS
100
AcDbLine
 10
297.0595201416834
 20
-55.59999999999999
 30
0.0
 11
294.8095201416834
 21
-55.59999999999999
 31
0.0
  0
LINE
  5
668A
330
1E
100
AcDbEntity
  8
10
  6
CONTINOUS
100
AcDbLine
 10
298.0595201416836
 20
-56.6
 30
0.0
 11
298.0595201416836
 21
-63.40000000000003
 31
0.0
  0
LINE
  5
668B
330
1E
100
AcDbEntity
  8
10
  6
CONTINOUS
100
AcDbLine
 10
294.8095201416834
 20
-55.59999999999999
 30
0.0
 11
294.8095201416834
 21
-64.39999999999997
 31
0.0
  0
LINE
  5
668C
330
1E
100
AcDbEntity
  8
10
  6
CONTINOUS
100
AcDbLine
 10
294.6095201416834
 20
-55.59999999999999
 30
0.0
 11
293.7095201416834
 21
-55.59999999999999
 31
0.0
  0
LINE
  5
668D
330
1E
100
AcDbEntity
  8
10
  6
CONTINOUS
100
AcDbLine
 10
294.8095201416834
 20
-55.79999999999998
 30
0.0
 11
294.8095201416834
 21
-64.19999999999999
 31
0.0
  0
LINE
  5
668E
330
1E
100
AcDbEntity
  8
10
  6
CONTINOUS
100
AcDbLine
 10
297.0595201416834
 20
-64.39999999999997
 30
0.0
 11
294.8095201416834
 21
-64.39999999999997
 31
0.0
  0
LINE
  5
668F
330
1E
100
AcDbEntity
  8
10
  6
CONTINOUS
100
AcDbLine
 10
294.6095201416834
 20
-64.39999999999997
 30
0.0
 11
293.7095201416834
 21
-64.39999999999997
 31
0.0
  0
LINE
  5
6690
330
1E
100
AcDbEntity
  8
10
  6
CONTINOUS
100
AcDbLine
 10
293.7095201416834
 20
-59.35817500000002
 30
0.0
 11
294.8095201416834
 21
-59.45441249999999
 31
0.0
  0
LINE
  5
6691
330
1E
100
AcDbEntity
  8
10
  6
CONTINOUS
100
AcDbLine
 10
294.8095201416834
 20
-60.25556
 30
0.0
 11
293.7095201416834
 21
-60.15932249999995
 31
0.0
  0
LINE
  5
6692
330
1E
100
AcDbEntity
  8
10
  6
CONTINOUS
100
AcDbLine
 10
293.3095201416834
 20
-64.75
 30
0.0
 11
292.6095201416836
 21
-64.75
 31
0.0
  0
LINE
  5
6693
330
1E
100
AcDbEntity
  8
10
  6
CONTINOUS
100
AcDbLine
 10
286.8095201416836
 20
62.12432500000002
 30
0.0
 11
286.8095201416836
 21
57.87567499999998
 31
0.0
  0
LINE
  5
6694
330
1E
100
AcDbEntity
  8
10
  6
CONTINOUS
100
AcDbLine
 10
287.3095201416834
 20
62.41299999999999
 30
0.0
 11
288.4095201416833
 21
62.41299999999999
 31
0.0
  0
LINE
  5
6695
330
1E
100
AcDbEntity
  8
10
  6
CONTINOUS
100
AcDbLine
 10
287.3095201416834
 20
57.58700000000001
 30
0.0
 11
288.4095201416833
 21
57.58700000000001
 31
0.0
  0
LINE
  5
6696
330
1E
100
AcDbEntity
  8
10
  6
CONTINOUS
100
AcDbLine
 10
287.3095201416834
 20
62.41299999999999
 30
0.0
 11
286.8095201416836
 21
62.12432500000002
 31
0.0
  0
LINE
  5
6697
330
1E
100
AcDbEntity
  8
10
  6
CONTINOUS
100
AcDbLine
 10
286.8095201416836
 20
57.87567499999998
 30
0.0
 11
287.3095201416834
 21
57.58700000000001
 31
0.0
  0
LINE
  5
6698
330
1E
100
AcDbEntity
  8
10
  6
CONTINOUS
100
AcDbLine
 10
286.8095201416836
 20
-62.17432499999998
 30
0.0
 11
287.3095201416834
 21
-62.46299999999994
 31
0.0
  0
LINE
  5
6699
330
1E
100
AcDbEntity
  8
10
  6
CONTINOUS
100
AcDbLine
 10
286.8095201416836
 20
-57.92567499999993
 30
0.0
 11
286.8095201416836
 21
-62.17432499999998
 31
0.0
  0
LINE
  5
669A
330
1E
100
AcDbEntity
  8
10
  6
CONTINOUS
100
AcDbLine
 10
287.3095201416834
 20
-57.637
 30
0.0
 11
288.4095201416833
 21
-57.637
 31
0.0
  0
LINE
  5
669B
330
1E
100
AcDbEntity
  8
10
  6
CONTINOUS
100
AcDbLine
 10
287.3095201416834
 20
-57.637
 30
0.0
 11
286.8095201416836
 21
-57.92567499999993
 31
0.0
  0
LINE
  5
669C
330
1E
100
AcDbEntity
  8
10
  6
CONTINOUS
100
AcDbLine
 10
287.3095201416834
 20
-62.46299999999994
 30
0.0
 11
288.4095201416833
 21
-62.46299999999994
 31
0.0
  0
LINE
  5
669D
330
1E
100
AcDbEntity
  8
10
  6
CONTINOUS
100
AcDbLine
 10
288.4095201416833
 20
-50.0
 30
0.0
 11
288.4095201416833
 21
-82.5
 31
0.0
  0
LINE
  5
669E
330
1E
100
AcDbEntity
  8
10
  6
CONTINOUS
100
AcDbLine
 10
288.4095201416833
 20
82.50000000000005
 30
0.0
 11
233.4095201416833
 21
82.50000000000005
 31
0.0
  0
LINE
  5
669F
330
1E
100
AcDbEntity
  8
10
  6
CONTINOUS
100
AcDbLine
 10
233.4095201416833
 20
-82.5
 30
0.0
 11
288.4095201416833
 21
-82.5
 31
0.0
  0
LINE
  5
66A0
330
1E
100
AcDbEntity
  8
10
  6
CONTINOUS
100
AcDbLine
 10
288.4095201416833
 20
82.50000000000005
 30
0.0
 11
288.4095201416833
 21
50.00000000000003
 31
0.0
  0
ARC
  5
66A1
330
1E
100
AcDbEntity
  8
10
  6
CONTINOUS
100
AcDbCircle
 10
243.8095201416834
 20
18.0
 30
0.0
 40
2.0
100
AcDbArc
 50
90.0
 51
180.0
  0
ARC
  5
66A2
330
1E
100
AcDbEntity
  8
10
  6
CONTINOUS
100
AcDbCircle
 10
243.8095201416834
 20
-18.0
 30
0.0
 40
2.0
100
AcDbArc
 50
180.0
 51
270.0
  0
ARC
  5
66A3
330
1E
100
AcDbEntity
  8
10
  6
CONTINOUS
100
AcDbCircle
 10
276.8095201416836
 20
-18.0
 30
0.0
 40
2.0
100
AcDbArc
 50
270.0
 51
0.0
  0
ARC
  5
66A4
330
1E
100
AcDbEntity
  8
10
  6
CONTINOUS
100
AcDbCircle
 10
276.8095201416836
 20
18.0
 30
0.0
 40
2.0
100
AcDbArc
 50
0.0
 51
90.0
  0
ARC
  5
66A5
330
1E
100
AcDbEntity
  8
10
  6
CONTINOUS
100
AcDbCircle
 10
297.0595201416834
 20
63.40000000000002
 30
0.0
 40
1.0
100
AcDbArc
 50
0.0
 51
90.0
  0
ARC
  5
66A6
330
1E
100
AcDbEntity
  8
10
  6
CONTINOUS
100
AcDbCircle
 10
297.0595201416834
 20
56.60000000000001
 30
0.0
 40
1.0
100
AcDbArc
 50
270.0
 51
0.0
  0
ARC
  5
66A7
330
1E
100
AcDbEntity
  8
10
  6
CONTINOUS
100
AcDbCircle
 10
294.6095201416834
 20
64.19999999999999
 30
0.0
 40
0.2
100
AcDbArc
 50
0.0
 51
90.0
  0
ARC
  5
66A8
330
1E
100
AcDbEntity
  8
10
  6
CONTINOUS
100
AcDbCircle
 10
294.6095201416834
 20
55.80000000000002
 30
0.0
 40
0.2
100
AcDbArc
 50
270.0
 51
0.0
  0
ARC
  5
66A9
330
1E
100
AcDbEntity
  8
10
  6
CONTINOUS
100
AcDbCircle
 10
293.3095201416834
 20
55.65000000000001
 30
0.0
 40
0.4
100
AcDbArc
 50
270.0
 51
0.0
  0
ARC
  5
66AA
330
1E
100
AcDbEntity
  8
10
  6
CONTINOUS
100
AcDbCircle
 10
293.3095201416834
 20
64.34999999999999
 30
0.0
 40
0.4
100
AcDbArc
 50
0.0
 51
90.0
  0
ARC
  5
66AB
330
1E
100
AcDbEntity
  8
10
  6
CONTINOUS
100
AcDbCircle
 10
293.3095201416834
 20
-55.64999999999997
 30
0.0
 40
0.4
100
AcDbArc
 50
0.0
 51
90.0
  0
ARC
  5
66AC
330
1E
100
AcDbEntity
  8
10
  6
CONTINOUS
100
AcDbCircle
 10
297.0595201416834
 20
-56.6
 30
0.0
 40
1.0
100
AcDbArc
 50
0.0
 51
90.0
  0
ARC
  5
66AD
330
1E
100
AcDbEntity
  8
10
  6
CONTINOUS
100
AcDbCircle
 10
294.6095201416834
 20
-55.79999999999998
 30
0.0
 40
0.2
100
AcDbArc
 50
0.0
 51
90.0
  0
ARC
  5
66AE
330
1E
100
AcDbEntity
  8
10
  6
CONTINOUS
100
AcDbCircle
 10
297.0595201416834
 20
-63.40000000000003
 30
0.0
 40
1.0
100
AcDbArc
 50
270.0
 51
0.0
  0
ARC
  5
66AF
330
1E
100
AcDbEntity
  8
10
  6
CONTINOUS
100
AcDbCircle
 10
294.6095201416834
 20
-64.19999999999999
 30
0.0
 40
0.2
100
AcDbArc
 50
270.0
 51
0.0
  0
ARC
  5
66B0
330
1E
100
AcDbEntity
  8
10
  6
CONTINOUS
100
AcDbCircle
 10
293.3095201416834
 20
-64.34999999999999
 30
0.0
 40
0.4
100
AcDbArc
 50
270.0
 51
0.0
  0
LINE
  5
67ED
330
1E
100
AcDbEntity
  8
16
100
AcDbLine
 10
0.0000000000001137
 20
118.3138729996613
 30
0.0
 11
0.0000000000001137
 21
260.8138729996611
 31
0.0
  0
LINE
  5
67EE
330
1E
100
AcDbEntity
  8
18
100
AcDbLine
 10
78.5
 20
177.0106271080801
 30
0.0
 11
-88.49999999999999
 21
177.0106271080801
 31
0.0
  0
LINE
  5
67EF
330
1E
100
AcDbEntity
  8
10
  6
CONTINOUS
100
AcDbLine
 10
78.5
 20
158.0106271080802
 30
0.0
 11
-78.5
 21
158.0106271080802
 31
0.0
  0
LINE
  5
67F0
330
1E
100
AcDbEntity
  8
10
  6
CONTINOUS
100
AcDbLine
 10
78.5
 20
173.01062710808
 30
0.0
 11
-78.5
 21
173.01062710808
 31
0.0
  0
LINE
  5
67F1
330
1E
100
AcDbEntity
  8
12
  6
DASHDOT
 62
     3
100
AcDbLine
 10
13.00000000000006
 20
319.0106271080802
 30
0.0
 11
-12.99999999999988
 21
319.0106271080802
 31
0.0
  0
LINE
  5
67F2
330
1E
100
AcDbEntity
  8
10
  6
CONTINOUS
100
AcDbLine
 10
52.50000000000011
 20
228.01062710808
 30
0.0
 11
-52.49999999999988
 21
228.01062710808
 31
0.0
  0
LINE
  5
67F3
330
1E
100
AcDbEntity
  8
10
  6
CONTINOUS
100
AcDbLine
 10
48.99999999999998
 20
156.0106271080802
 30
0.0
 11
-48.99999999999998
 21
156.0106271080802
 31
0.0
  0
LINE
  5
67F4
330
1E
100
AcDbEntity
  8
10
  6
CONTINOUS
100
AcDbLine
 10
-52.49999999999988
 20
173.01062710808
 30
0.0
 11
-52.49999999999988
 21
228.01062710808
 31
0.0
  0
LINE
  5
67F5
330
1E
100
AcDbEntity
  8
21
  6
Continuous
100
AcDbLine
 10
-37.99999999999987
 20
262.0106271080802
 30
0.0
 11
-37.99999999999987
 21
299.0106271080802
 31
0.0
  0
LINE
  5
67F6
330
1E
100
AcDbEntity
  8
21
  6
Continuous
100
AcDbLine
 10
-31.99999999999994
 20
262.0106271080802
 30
0.0
 11
-31.99999999999994
 21
299.0106271080802
 31
0.0
  0
LINE
  5
67F7
330
1E
100
AcDbEntity
  8
21
  6
Continuous
100
AcDbLine
 10
-9.999999999999886
 20
228.01062710808
 30
0.0
 11
-9.999999999999886
 21
290.5106271080802
 31
0.0
  0
LINE
  5
67F8
330
1E
100
AcDbEntity
  8
21
  6
Continuous
100
AcDbLine
 10
10.00000000000008
 20
228.01062710808
 30
0.0
 11
10.00000000000008
 21
290.5106271080802
 31
0.0
  0
LINE
  5
67F9
330
1E
100
AcDbEntity
  8
21
  6
Continuous
100
AcDbLine
 10
3.000000000000056
 20
297.0106271080797
 30
0.0
 11
3.000000000000056
 21
334.0106271080802
 31
0.0
  0
LINE
  5
67FA
330
1E
100
AcDbEntity
  8
21
  6
Continuous
100
AcDbLine
 10
-2.999999999999886
 20
297.0106271080797
 30
0.0
 11
-2.999999999999886
 21
334.0106271080802
 31
0.0
  0
LINE
  5
67FB
330
1E
100
AcDbEntity
  8
21
  6
Continuous
100
AcDbLine
 10
-2.999999999999886
 20
334.0106271080802
 30
0.0
 11
3.000000000000056
 21
334.0106271080802
 31
0.0
  0
LINE
  5
67FC
330
1E
100
AcDbEntity
  8
21
  6
Continuous
100
AcDbLine
 10
-37.99999999999987
 20
299.0106271080802
 30
0.0
 11
-31.99999999999994
 21
299.0106271080802
 31
0.0
  0
LINE
  5
67FD
330
1E
100
AcDbEntity
  8
21
  6
Continuous
100
AcDbLine
 10
10.00000000000008
 20
290.5106271080802
 30
0.0
 11
-9.999999999999886
 21
290.5106271080802
 31
0.0
  0
LINE
  5
67FE
330
1E
100
AcDbEntity
  8
21
  6
Continuous
100
AcDbLine
 10
-4.999999999999886
 20
290.5106271080802
 30
0.0
 11
-4.999999999999886
 21
297.0106271080802
 31
0.0
  0
LINE
  5
67FF
330
1E
100
AcDbEntity
  8
21
  6
Continuous
100
AcDbLine
 10
-2.999999999999886
 20
297.0106271080802
 30
0.0
 11
-4.999999999999886
 21
297.0106271080802
 31
0.0
  0
LINE
  5
6800
330
1E
100
AcDbEntity
  8
21
  6
Continuous
100
AcDbLine
 10
5.000000000000113
 20
290.5106271080802
 30
0.0
 11
5.000000000000113
 21
297.0106271080802
 31
0.0
  0
LINE
  5
6801
330
1E
100
AcDbEntity
  8
21
  6
Continuous
100
AcDbLine
 10
5.000000000000113
 20
297.0106271080802
 30
0.0
 11
3.000000000000056
 21
297.0106271080802
 31
0.0
  0
LINE
  5
6802
330
1E
100
AcDbEntity
  8
12
  6
DASHDOT
 62
     3
100
AcDbLine
 10
-21.99999999999994
 20
284.0106271080802
 30
0.0
 11
-47.99999999999986
 21
284.0106271080802
 31
0.0
  0
LINE
  5
6803
330
1E
100
AcDbEntity
  8
21
  6
Continuous
100
AcDbLine
 10
-24.99999999999988
 20
255.5106271080802
 30
0.0
 11
-44.99999999999988
 21
255.5106271080802
 31
0.0
  0
LINE
  5
6804
330
1E
100
AcDbEntity
  8
21
  6
Continuous
100
AcDbLine
 10
-44.99999999999988
 20
228.01062710808
 30
0.0
 11
-44.99999999999988
 21
255.5106271080802
 31
0.0
  0
LINE
  5
6805
330
1E
100
AcDbEntity
  8
21
  6
Continuous
100
AcDbLine
 10
-24.99999999999988
 20
228.01062710808
 30
0.0
 11
-24.99999999999988
 21
255.5106271080802
 31
0.0
  0
LINE
  5
6806
330
1E
100
AcDbEntity
  8
21
  6
Continuous
100
AcDbLine
 10
-39.99999999999988
 20
255.5106271080802
 30
0.0
 11
-39.99999999999988
 21
262.0106271080802
 31
0.0
  0
LINE
  5
6807
330
1E
100
AcDbEntity
  8
21
  6
Continuous
100
AcDbLine
 10
-29.99999999999987
 20
255.5106271080802
 30
0.0
 11
-29.99999999999987
 21
262.0106271080802
 31
0.0
  0
LINE
  5
6808
330
1E
100
AcDbEntity
  8
21
  6
Continuous
100
AcDbLine
 10
-39.99999999999988
 20
262.0106271080802
 30
0.0
 11
-37.99999999999987
 21
262.0106271080802
 31
0.0
  0
LINE
  5
6809
330
1E
100
AcDbEntity
  8
21
  6
Continuous
100
AcDbLine
 10
-31.99999999999994
 20
262.0106271080802
 30
0.0
 11
-29.99999999999987
 21
262.0106271080802
 31
0.0
  0
LINE
  5
680A
330
1E
100
AcDbEntity
  8
10
  6
CONTINOUS
100
AcDbLine
 10
-78.5
 20
158.0106271080802
 30
0.0
 11
-78.5
 21
173.01062710808
 31
0.0
  0
LINE
  5
680B
330
1E
100
AcDbEntity
  8
18
100
AcDbLine
 10
-78.5
 20
173.01062710808
 30
0.0
 11
-83.49999999999999
 21
173.01062710808
 31
0.0
  0
LINE
  5
680C
330
1E
100
AcDbEntity
  8
10
  6
CONTINOUS
100
AcDbLine
 10
-48.99999999999998
 20
156.0106271080802
 30
0.0
 11
-48.99999999999998
 21
158.0106271080802
 31
0.0
  0
LINE
  5
680D
330
1E
100
AcDbEntity
  8
10
  6
CONTINOUS
100
AcDbLine
 10
10.99999999999998
 20
152.0106271080804
 30
0.0
 11
10.99999999999998
 21
156.0106271080802
 31
0.0
  0
LINE
  5
680E
330
1E
100
AcDbEntity
  8
10
  6
CONTINOUS
100
AcDbLine
 10
-10.99999999999998
 20
152.0106271080804
 30
0.0
 11
-10.99999999999998
 21
156.0106271080802
 31
0.0
  0
LINE
  5
680F
330
1E
100
AcDbEntity
  8
10
  6
CONTINOUS
100
AcDbLine
 10
-6.999999999999943
 20
140.0153733084849
 30
0.0
 11
7.000000000000113
 21
140.0153733084849
 31
0.0
  0
LINE
  5
6810
330
1E
100
AcDbEntity
  8
10
  6
CONTINOUS
100
AcDbLine
 10
10.99999999999998
 20
152.0106271080802
 30
0.0
 11
-10.99999999999998
 21
152.0106271080802
 31
0.0
  0
LINE
  5
6811
330
1E
100
AcDbEntity
  8
10
  6
CONTINOUS
100
AcDbLine
 10
-6.999999999999943
 20
152.0106271080802
 30
0.0
 11
-6.999999999999943
 21
140.0153733084849
 31
0.0
  0
LINE
  5
6812
330
1E
100
AcDbEntity
  8
10
  6
CONTINOUS
100
AcDbLine
 10
7.000000000000113
 20
152.0106271080802
 30
0.0
 11
7.000000000000113
 21
140.0153733084849
 31
0.0
  0
LINE
  5
6813
330
1E
100
AcDbEntity
  8
10
  6
CONTINOUS
100
AcDbLine
 10
52.50000000000011
 20
228.01062710808
 30
0.0
 11
52.50000000000011
 21
173.01062710808
 31
0.0
  0
LINE
  5
6814
330
1E
100
AcDbEntity
  8
21
  6
Continuous
100
AcDbLine
 10
32.0000000000001
 20
262.0106271080802
 30
0.0
 11
32.0000000000001
 21
299.0106271080802
 31
0.0
  0
LINE
  5
6815
330
1E
100
AcDbEntity
  8
21
  6
Continuous
100
AcDbLine
 10
38.00000000000006
 20
262.0106271080802
 30
0.0
 11
38.00000000000006
 21
299.0106271080802
 31
0.0
  0
LINE
  5
6816
330
1E
100
AcDbEntity
  8
21
  6
Continuous
100
AcDbLine
 10
32.0000000000001
 20
299.0106271080802
 30
0.0
 11
38.00000000000006
 21
299.0106271080802
 31
0.0
  0
LINE
  5
6817
330
1E
100
AcDbEntity
  8
21
  6
Continuous
100
AcDbLine
 10
25.00000000000011
 20
228.01062710808
 30
0.0
 11
25.00000000000011
 21
255.5106271080802
 31
0.0
  0
LINE
  5
6818
330
1E
100
AcDbEntity
  8
21
  6
Continuous
100
AcDbLine
 10
45.00000000000011
 20
228.01062710808
 30
0.0
 11
45.00000000000011
 21
255.5106271080802
 31
0.0
  0
LINE
  5
6819
330
1E
100
AcDbEntity
  8
12
  6
DASHDOT
 62
     3
100
AcDbLine
 10
47.99999999999989
 20
284.0106271080802
 30
0.0
 11
21.99999999999953
 21
284.0106271080802
 31
0.0
  0
LINE
  5
681A
330
1E
100
AcDbEntity
  8
21
  6
Continuous
100
AcDbLine
 10
38.00000000000006
 20
262.0106271080802
 30
0.0
 11
40.00000000000011
 21
262.0106271080802
 31
0.0
  0
LINE
  5
681B
330
1E
100
AcDbEntity
  8
21
  6
Continuous
100
AcDbLine
 10
45.00000000000011
 20
255.5106271080802
 30
0.0
 11
25.00000000000011
 21
255.5106271080802
 31
0.0
  0
LINE
  5
681C
330
1E
100
AcDbEntity
  8
21
  6
Continuous
100
AcDbLine
 10
30.00000000000011
 20
255.5106271080802
 30
0.0
 11
30.00000000000011
 21
262.0106271080802
 31
0.0
  0
LINE
  5
681D
330
1E
100
AcDbEntity
  8
21
  6
Continuous
100
AcDbLine
 10
30.00000000000011
 20
262.0106271080802
 30
0.0
 11
32.0000000000001
 21
262.0106271080802
 31
0.0
  0
LINE
  5
681E
330
1E
100
AcDbEntity
  8
21
  6
Continuous
100
AcDbLine
 10
40.00000000000011
 20
255.5106271080802
 30
0.0
 11
40.00000000000011
 21
262.0106271080802
 31
0.0
  0
LINE
  5
681F
330
1E
100
AcDbEntity
  8
10
  6
CONTINOUS
100
AcDbLine
 10
48.99999999999998
 20
156.0106271080802
 30
0.0
 11
48.99999999999998
 21
158.0106271080802
 31
0.0
  0
LINE
  5
6820
330
1E
100
AcDbEntity
  8
18
100
AcDbLine
 10
83.49999999999999
 20
173.01062710808
 30
0.0
 11
78.5
 21
173.01062710808
 31
0.0
  0
LINE
  5
6821
330
1E
100
AcDbEntity
  8
10
  6
CONTINOUS
100
AcDbLine
 10
78.5
 20
158.0106271080802
 30
0.0
 11
78.5
 21
173.01062710808
 31
0.0
  0
LINE
  5
6822
330
1E
100
AcDbEntity
  8
10
  6
CONTINOUS
100
AcDbLine
 10
-60.99999999999966
 20
228.01062710808
 30
0.0
 11
-60.99999999999966
 21
230.6106271080799
 31
0.0
  0
LINE
  5
6823
330
1E
100
AcDbEntity
  8
10
  6
CONTINOUS
100
AcDbLine
 10
-24.99999999999989
 20
233.2106271080799
 30
0.0
 11
-9.999999999999886
 21
233.2106271080799
 31
0.0
  0
LINE
  5
6824
330
1E
100
AcDbEntity
  8
10
  6
CONTINOUS
100
AcDbLine
 10
10.00000000000011
 20
233.2106271080799
 30
0.0
 11
25.00000000000011
 21
233.2106271080799
 31
0.0
  0
LINE
  5
6825
330
1E
100
AcDbEntity
  8
10
  6
CONTINOUS
100
AcDbLine
 10
61.00000000000012
 20
228.01062710808
 30
0.0
 11
61.00000000000012
 21
230.6106271080799
 31
0.0
  0
LINE
  5
6826
330
1E
100
AcDbEntity
  8
10
  6
CONTINOUS
100
AcDbLine
 10
61.00000000000012
 20
232.21062710808
 30
0.0
 11
61.00000000000012
 21
230.6106271080799
 31
0.0
  0
LINE
  5
6827
330
1E
100
AcDbEntity
  8
10
  6
CONTINOUS
100
AcDbLine
 10
61.00000000000012
 20
232.21062710808
 30
0.0
 11
45.00000000000011
 21
232.21062710808
 31
0.0
  0
LINE
  5
6828
330
1E
100
AcDbEntity
  8
10
  6
CONTINOUS
100
AcDbLine
 10
61.00000000000012
 20
228.01062710808
 30
0.0
 11
-60.99999999999966
 21
228.01062710808
 31
0.0
  0
LINE
  5
6829
330
1E
100
AcDbEntity
  8
10
  6
CONTINOUS
100
AcDbLine
 10
61.00000000000012
 20
230.6106271080799
 30
0.0
 11
45.00000000000011
 21
230.6106271080799
 31
0.0
  0
LINE
  5
682A
330
1E
100
AcDbEntity
  8
10
  6
CONTINOUS
100
AcDbLine
 10
60.10000000000025
 20
173.0106271080799
 30
0.0
 11
60.10000000000025
 21
228.01062710808
 31
0.0
  0
LINE
  5
682B
330
1E
100
AcDbEntity
  8
10
  6
CONTINOUS
100
AcDbLine
 10
58.50000000000012
 20
173.0106271080799
 30
0.0
 11
58.50000000000012
 21
228.01062710808
 31
0.0
  0
LINE
  5
682C
330
1E
100
AcDbEntity
  8
10
  6
CONTINOUS
100
AcDbLine
 10
-60.99999999999966
 20
230.6106271080799
 30
0.0
 11
-60.99999999999966
 21
232.21062710808
 31
0.0
  0
LINE
  5
682D
330
1E
100
AcDbEntity
  8
10
  6
CONTINOUS
100
AcDbLine
 10
-44.99999999999988
 20
232.21062710808
 30
0.0
 11
-60.99999999999966
 21
232.21062710808
 31
0.0
  0
LINE
  5
682E
330
1E
100
AcDbEntity
  8
10
  6
CONTINOUS
100
AcDbLine
 10
-60.0999999999998
 20
173.0106271080799
 30
0.0
 11
-60.0999999999998
 21
228.01062710808
 31
0.0
  0
LINE
  5
682F
330
1E
100
AcDbEntity
  8
10
  6
CONTINOUS
100
AcDbLine
 10
-58.49999999999966
 20
228.01062710808
 30
0.0
 11
-58.49999999999966
 21
173.0106271080799
 31
0.0
  0
LINE
  5
6830
330
1E
100
AcDbEntity
  8
10
  6
CONTINOUS
100
AcDbLine
 10
-44.99999999999988
 20
230.6106271080799
 30
0.0
 11
-60.99999999999966
 21
230.6106271080799
 31
0.0
  0
LINE
  5
6831
330
1E
100
AcDbEntity
  8
10
  6
CONTINOUS
100
AcDbLine
 10
-9.999999999999886
 20
230.6106271080799
 30
0.0
 11
-24.99999999999989
 21
230.6106271080799
 31
0.0
  0
LINE
  5
6832
330
1E
100
AcDbEntity
  8
10
  6
CONTINOUS
100
AcDbLine
 10
25.00000000000011
 20
230.6106271080799
 30
0.0
 11
10.00000000000011
 21
230.6106271080799
 31
0.0
  0
LINE
  5
6833
330
1E
100
AcDbEntity
  8
10
  6
CONTINOUS
100
AcDbLine
 10
-59.84999999999979
 20
233.31062710808
 30
0.0
 11
-51.14999999999973
 21
233.31062710808
 31
0.0
  0
LINE
  5
6834
330
1E
100
AcDbEntity
  8
10
  6
CONTINOUS
100
AcDbLine
 10
-59.89999999999973
 20
236.66062710808
 30
0.0
 11
-59.89999999999973
 21
234.41062710808
 31
0.0
  0
LINE
  5
6835
330
1E
100
AcDbEntity
  8
10
  6
CONTINOUS
100
AcDbLine
 10
-55.75555999999971
 20
234.41062710808
 30
0.0
 11
-55.65932250000003
 21
233.31062710808
 31
0.0
  0
LINE
  5
6836
330
1E
100
AcDbEntity
  8
10
  6
CONTINOUS
100
AcDbLine
 10
-51.09999999999979
 20
236.66062710808
 30
0.0
 11
-51.09999999999979
 21
234.41062710808
 31
0.0
  0
LINE
  5
6837
330
1E
100
AcDbEntity
  8
10
  6
CONTINOUS
100
AcDbLine
 10
-54.85817499999996
 20
233.31062710808
 30
0.0
 11
-54.9544125000001
 21
234.41062710808
 31
0.0
  0
LINE
  5
6838
330
1E
100
AcDbEntity
  8
10
  6
CONTINOUS
100
AcDbLine
 10
-59.89999999999973
 20
234.21062710808
 30
0.0
 11
-59.89999999999973
 21
233.31062710808
 31
0.0
  0
LINE
  5
6839
330
1E
100
AcDbEntity
  8
10
  6
CONTINOUS
100
AcDbLine
 10
-51.09999999999979
 20
234.41062710808
 30
0.0
 11
-59.89999999999973
 21
234.41062710808
 31
0.0
  0
LINE
  5
683A
330
1E
100
AcDbEntity
  8
10
  6
CONTINOUS
100
AcDbLine
 10
-51.09999999999979
 20
234.21062710808
 30
0.0
 11
-51.09999999999979
 21
233.31062710808
 31
0.0
  0
LINE
  5
683B
330
1E
100
AcDbEntity
  8
10
  6
CONTINOUS
100
AcDbLine
 10
-51.30000000000006
 20
234.41062710808
 30
0.0
 11
-59.6999999999997
 21
234.41062710808
 31
0.0
  0
LINE
  5
683C
330
1E
100
AcDbEntity
  8
10
  6
CONTINOUS
100
AcDbLine
 10
-60.24999999999989
 20
232.91062710808
 30
0.0
 11
-60.24999999999989
 21
232.21062710808
 31
0.0
  0
LINE
  5
683D
330
1E
100
AcDbEntity
  8
10
  6
CONTINOUS
100
AcDbLine
 10
-50.74999999999989
 20
232.91062710808
 30
0.0
 11
-50.74999999999989
 21
232.21062710808
 31
0.0
  0
LINE
  5
683E
330
1E
100
AcDbEntity
  8
10
  6
CONTINOUS
100
AcDbLine
 10
-52.0999999999998
 20
237.66062710808
 30
0.0
 11
-58.89999999999997
 21
237.66062710808
 31
0.0
  0
LINE
  5
683F
330
1E
100
AcDbEntity
  8
10
  6
CONTINOUS
100
AcDbLine
 10
51.1500000000002
 20
233.31062710808
 30
0.0
 11
59.85000000000002
 21
233.31062710808
 31
0.0
  0
LINE
  5
6840
330
1E
100
AcDbEntity
  8
10
  6
CONTINOUS
100
AcDbLine
 10
55.24444000000006
 20
234.41062710808
 30
0.0
 11
55.34067750000019
 21
233.31062710808
 31
0.0
  0
LINE
  5
6841
330
1E
100
AcDbEntity
  8
10
  6
CONTINOUS
100
AcDbLine
 10
56.14182500000026
 20
233.31062710808
 30
0.0
 11
56.04558750000035
 21
234.41062710808
 31
0.0
  0
LINE
  5
6842
330
1E
100
AcDbEntity
  8
10
  6
CONTINOUS
100
AcDbLine
 10
51.10000000000002
 20
234.21062710808
 30
0.0
 11
51.10000000000002
 21
233.31062710808
 31
0.0
  0
LINE
  5
6843
330
1E
100
AcDbEntity
  8
10
  6
CONTINOUS
100
AcDbLine
 10
59.9000000000002
 20
234.21062710808
 30
0.0
 11
59.9000000000002
 21
233.31062710808
 31
0.0
  0
LINE
  5
6844
330
1E
100
AcDbEntity
  8
10
  6
CONTINOUS
100
AcDbLine
 10
50.75000000000011
 20
232.91062710808
 30
0.0
 11
50.75000000000011
 21
232.21062710808
 31
0.0
  0
LINE
  5
6845
330
1E
100
AcDbEntity
  8
10
  6
CONTINOUS
100
AcDbLine
 10
60.25000000000034
 20
232.91062710808
 30
0.0
 11
60.25000000000034
 21
232.21062710808
 31
0.0
  0
LINE
  5
6846
330
1E
100
AcDbEntity
  8
10
  6
CONTINOUS
100
AcDbLine
 10
51.10000000000002
 20
236.66062710808
 30
0.0
 11
51.10000000000002
 21
234.41062710808
 31
0.0
  0
LINE
  5
6847
330
1E
100
AcDbEntity
  8
10
  6
CONTINOUS
100
AcDbLine
 10
59.9000000000002
 20
236.66062710808
 30
0.0
 11
59.9000000000002
 21
234.41062710808
 31
0.0
  0
LINE
  5
6848
330
1E
100
AcDbEntity
  8
10
  6
CONTINOUS
100
AcDbLine
 10
59.9000000000002
 20
234.41062710808
 30
0.0
 11
51.10000000000002
 21
234.41062710808
 31
0.0
  0
LINE
  5
6849
330
1E
100
AcDbEntity
  8
10
  6
CONTINOUS
100
AcDbLine
 10
59.70000000000038
 20
234.41062710808
 30
0.0
 11
51.29999999999984
 21
234.41062710808
 31
0.0
  0
LINE
  5
684A
330
1E
100
AcDbEntity
  8
10
  6
CONTINOUS
100
AcDbLine
 10
58.9000000000002
 20
237.66062710808
 30
0.0
 11
52.10000000000002
 21
237.66062710808
 31
0.0
  0
LINE
  5
684B
330
1E
100
AcDbEntity
  8
10
  6
CONTINOUS
100
AcDbLine
 10
-57.62432499999988
 20
226.41062710808
 30
0.0
 11
-57.9129999999999
 21
226.91062710808
 31
0.0
  0
LINE
  5
684C
330
1E
100
AcDbEntity
  8
10
  6
CONTINOUS
100
AcDbLine
 10
-53.37567499999966
 20
226.41062710808
 30
0.0
 11
-57.62432499999988
 21
226.41062710808
 31
0.0
  0
LINE
  5
684D
330
1E
100
AcDbEntity
  8
10
  6
CONTINOUS
100
AcDbLine
 10
-53.08699999999988
 20
226.91062710808
 30
0.0
 11
-53.08699999999988
 21
228.01062710808
 31
0.0
  0
LINE
  5
684E
330
1E
100
AcDbEntity
  8
10
  6
CONTINOUS
100
AcDbLine
 10
-53.08699999999988
 20
226.91062710808
 30
0.0
 11
-53.37567499999966
 21
226.41062710808
 31
0.0
  0
LINE
  5
684F
330
1E
100
AcDbEntity
  8
10
  6
CONTINOUS
100
AcDbLine
 10
-57.9129999999999
 20
226.91062710808
 30
0.0
 11
-57.9129999999999
 21
228.01062710808
 31
0.0
  0
LINE
  5
6850
330
1E
100
AcDbEntity
  8
10
  6
CONTINOUS
100
AcDbLine
 10
53.37567500000034
 20
226.41062710808
 30
0.0
 11
53.0870000000001
 21
226.91062710808
 31
0.0
  0
LINE
  5
6851
330
1E
100
AcDbEntity
  8
10
  6
CONTINOUS
100
AcDbLine
 10
57.62432500000011
 20
226.41062710808
 30
0.0
 11
53.37567500000034
 21
226.41062710808
 31
0.0
  0
LINE
  5
6852
330
1E
100
AcDbEntity
  8
10
  6
CONTINOUS
100
AcDbLine
 10
57.91300000000035
 20
226.91062710808
 30
0.0
 11
57.91300000000035
 21
228.01062710808
 31
0.0
  0
LINE
  5
6853
330
1E
100
AcDbEntity
  8
10
  6
CONTINOUS
100
AcDbLine
 10
57.91300000000035
 20
226.91062710808
 30
0.0
 11
57.62432500000011
 21
226.41062710808
 31
0.0
  0
LINE
  5
6854
330
1E
100
AcDbEntity
  8
10
  6
CONTINOUS
100
AcDbLine
 10
53.0870000000001
 20
226.91062710808
 30
0.0
 11
53.0870000000001
 21
228.01062710808
 31
0.0
  0
LINE
  5
6855
330
1E
100
AcDbEntity
  8
10
  6
CONTINOUS
100
AcDbLine
 10
52.50000000000011
 20
228.01062710808
 30
0.0
 11
-52.49999999999988
 21
228.01062710808
 31
0.0
  0
ARC
  5
6856
330
1E
100
AcDbEntity
  8
10
  6
CONTINOUS
100
AcDbCircle
 10
-51.14999999999973
 20
232.91062710808
 30
0.0
 40
0.4
100
AcDbArc
 50
0.0
 51
90.0
  0
ARC
  5
6857
330
1E
100
AcDbEntity
  8
10
  6
CONTINOUS
100
AcDbCircle
 10
-51.30000000000006
 20
234.21062710808
 30
0.0
 40
0.2
100
AcDbArc
 50
0.0
 51
90.0
  0
ARC
  5
6858
330
1E
100
AcDbEntity
  8
10
  6
CONTINOUS
100
AcDbCircle
 10
-59.84999999999979
 20
232.91062710808
 30
0.0
 40
0.4
100
AcDbArc
 50
90.0
 51
180.0
  0
ARC
  5
6859
330
1E
100
AcDbEntity
  8
10
  6
CONTINOUS
100
AcDbCircle
 10
-59.6999999999997
 20
234.21062710808
 30
0.0
 40
0.2
100
AcDbArc
 50
90.0
 51
180.0
  0
ARC
  5
685A
330
1E
100
AcDbEntity
  8
10
  6
CONTINOUS
100
AcDbCircle
 10
-52.0999999999998
 20
236.66062710808
 30
0.0
 40
1.0
100
AcDbArc
 50
0.0
 51
90.0
  0
ARC
  5
685B
330
1E
100
AcDbEntity
  8
10
  6
CONTINOUS
100
AcDbCircle
 10
-58.89999999999997
 20
236.66062710808
 30
0.0
 40
1.0
100
AcDbArc
 50
90.0
 51
180.0
  0
ARC
  5
685C
330
1E
100
AcDbEntity
  8
10
  6
CONTINOUS
100
AcDbCircle
 10
59.85000000000002
 20
232.91062710808
 30
0.0
 40
0.4
100
AcDbArc
 50
0.0
 51
90.0
  0
ARC
  5
685D
330
1E
100
AcDbEntity
  8
10
  6
CONTINOUS
100
AcDbCircle
 10
51.1500000000002
 20
232.91062710808
 30
0.0
 40
0.4
100
AcDbArc
 50
90.0
 51
180.0
  0
ARC
  5
685E
330
1E
100
AcDbEntity
  8
10
  6
CONTINOUS
100
AcDbCircle
 10
59.70000000000038
 20
234.21062710808
 30
0.0
 40
0.2
100
AcDbArc
 50
0.0
 51
90.0
  0
ARC
  5
685F
330
1E
100
AcDbEntity
  8
10
  6
CONTINOUS
100
AcDbCircle
 10
51.29999999999984
 20
234.21062710808
 30
0.0
 40
0.2
100
AcDbArc
 50
90.0
 51
180.0
  0
ARC
  5
6860
330
1E
100
AcDbEntity
  8
10
  6
CONTINOUS
100
AcDbCircle
 10
58.9000000000002
 20
236.66062710808
 30
0.0
 40
1.0
100
AcDbArc
 50
0.0
 51
90.0
  0
ARC
  5
6861
330
1E
100
AcDbEntity
  8
10
  6
CONTINOUS
100
AcDbCircle
 10
52.10000000000002
 20
236.66062710808
 30
0.0
 40
1.0
100
AcDbArc
 50
90.0
 51
180.0
  0
VIEWPORT
  5
9AC
102
{ACAD_XDICTIONARY
360
6869
102
}
330
1A
100
AcDbEntity
 67
     1
  8
0
  6
Continuous
100
AcDbViewport
 10
171.999535
 20
144.1384739999999
 30
0.0
 40
488.867686
 41
292.351491
 68
    -1
 69
     1
 12
171.999535
 22
144.1384739999999
 13
0.0
 23
0.0
 14
10.0
 24
10.0
 15
10.0
 25
10.0
 16
0.0
 26
0.0
 36
1.0
 17
0.0
 27
0.0
 37
0.0
 42
50.0
 43
0.0
 44
0.0
 45
292.351491
 50
0.0
 51
0.0
 72
   100
 90
    32800
  1

281
     0
 71
     1
 74
     0
110
0.0
120
0.0
130
0.0
111
1.0
121
0.0
131
0.0
112
0.0
122
1.0
132
0.0
 79
     0
146
0.0
  0
ENDSEC
  0
SECTION
  2
OBJECTS
  0
DICTIONARY
  5
C
330
0
100
AcDbDictionary
281
     1
  3
ACAD_CIP_PREVIOUS_PRODUCT_INFO
350
64AF
  3
ACAD_COLOR
350
6413
  3
ACAD_DETAILVIEWSTYLE
350
64AB
  3
ACAD_GROUP
350
D
  3
ACAD_LAYOUT
350
19
  3
ACAD_MATERIAL
350
63E6
  3
ACAD_MLEADERSTYLE
350
6438
  3
ACAD_MLINESTYLE
350
16
  3
ACAD_PLOTSETTINGS
350
18
  3
ACAD_PLOTSTYLENAME
350
E
  3
ACAD_SCALELIST
350
6416
  3
ACAD_SECTIONVIEWSTYLE
350
64A9
  3
ACAD_TABLESTYLE
350
6414
  3
ACAD_VISUALSTYLE
350
63FF
  3
ACDB_RECOMPOSE_DATA
350
6867
  3
ACDBVARIABLEDICTIONARY
350
5D91
  3
AEC_PROPERTY_SET_DEFS
350
661B
  3
ASE_INDEX_DICTIONARY
350
645C
  3
DWGPROPS
350
6868
  0
DICTIONARY
  5
6443
330
10
100
AcDbDictionary
280
     1
281
     1
  3
ADSK_XREC_LAYER_RECONCILED
360
6444
  0
DICTIONARY
  5
6445
330
2F
100
AcDbDictionary
280
     1
281
     1
  3
ADSK_XREC_LAYER_RECONCILED
360
6446
  0
DICTIONARY
  5
6447
330
31
100
AcDbDictionary
280
     1
281
     1
  3
ADSK_XREC_LAYER_RECONCILED
360
6448
  0
DICTIONARY
  5
6449
330
35
100
AcDbDictionary
280
     1
281
     1
  3
ADSK_XREC_LAYER_RECONCILED
360
644A
  0
DICTIONARY
  5
644B
330
38
100
AcDbDictionary
280
     1
281
     1
  3
ADSK_XREC_LAYER_RECONCILED
360
644C
  0
DICTIONARY
  5
644D
330
3C
100
AcDbDictionary
280
     1
281
     1
  3
ADSK_XREC_LAYER_RECONCILED
360
644E
  0
DICTIONARY
  5
644F
330
3D
100
AcDbDictionary
280
     1
281
     1
  3
ADSK_XREC_LAYER_RECONCILED
360
6450
  0
DICTIONARY
  5
6451
330
3A2
100
AcDbDictionary
280
     1
281
     1
  3
ADSK_XREC_LAYER_RECONCILED
360
6452
  0
DICTIONARY
  5
6453
330
3BBA
100
AcDbDictionary
280
     1
281
     1
  3
ADSK_XREC_LAYER_RECONCILED
360
6454
  0
DICTIONARY
  5
6455
330
3BBB
100
AcDbDictionary
280
     1
281
     1
  3
ADSK_XREC_LAYER_RECONCILED
360
6456
  0
DICTIONARY
  5
6457
330
5116
100
AcDbDictionary
280
     1
281
     1
  3
ADSK_XREC_LAYER_RECONCILED
360
6458
  0
DICTIONARY
  5
6459
330
5117
100
AcDbDictionary
280
     1
281
     1
  3
ADSK_XREC_LAYER_RECONCILED
360
645A
  0
DICTIONARY
  5
178
330
1E
100
AcDbDictionary
280
     1
281
     1
  3
ACAD_LAYOUTSELFREF
360
63C9
  0
DICTIONARY
  5
17A
330
1A
100
AcDbDictionary
280
     1
281
     1
  3
ACAD_LAYOUTSELFREF
360
63C8
  0
DICTIONARY
  5
646B
330
62E8
100
AcDbDictionary
280
     1
281
     1
  3
ACAD_MTEXT_RT
360
686B
  0
DICTIONARY
  5
6869
330
9AC
100
AcDbDictionary
280
     1
281
     1
  3
ACAD_XREC_ROUNDTRIP
360
686A
  0
XRECORD
  5
64AF
102
{ACAD_REACTORS
330
C
102
}
330
C
100
AcDbXrecord
280
     1
300
ACDLT
300
2015
300
ACDLT_F_S
  0
DICTIONARY
  5
6413
102
{ACAD_REACTORS
330
C
102
}
330
C
100
AcDbDictionary
281
     1
  0
DICTIONARY
  5
64AB
102
{ACAD_REACTORS
330
C
102
}
330
C
100
AcDbDictionary
281
     1
  3
Imperial24
350
64AC
  0
DICTIONARY
  5
D
102
{ACAD_REACTORS
330
C
102
}
330
C
100
AcDbDictionary
281
     1
  0
DICTIONARY
  5
19
102
{ACAD_REACTORS
330
C
102
}
330
C
100
AcDbDictionary
281
     1
  3
Model
350
63DA
  3
ﾚｲｱｳﾄ1
350
63DB
  0
DICTIONARY
  5
63E6
102
{ACAD_REACTORS
330
C
102
}
330
C
100
AcDbDictionary
281
     1
  3
ByBlock
350
63EF
  3
ByLayer
350
63E7
  3
Global
350
63F7
  0
DICTIONARY
  5
6438
102
{ACAD_REACTORS
330
C
102
}
330
C
100
AcDbDictionary
281
     1
  3
Standard
350
6439
  0
DICTIONARY
  5
16
102
{ACAD_REACTORS
330
C
102
}
330
C
100
AcDbDictionary
281
     1
  3
STANDARD
350
17
  0
DICTIONARY
  5
18
102
{ACAD_REACTORS
330
C
102
}
330
C
100
AcDbDictionary
281
     1
  0
ACDBDICTIONARYWDFLT
  5
E
102
{ACAD_REACTORS
330
C
102
}
330
C
100
AcDbDictionary
281
     1
  3
Normal
350
F
100
AcDbDictionaryWithDefault
340
F
  0
DICTIONARY
  5
6416
102
{ACAD_REACTORS
330
C
102
}
330
C
100
AcDbDictionary
281
     1
  3
A0
350
6417
  3
A1
350
6418
  3
A2
350
6419
  3
A3
350
641A
  3
A4
350
641B
  3
A5
350
641C
  3
A6
350
641D
  3
A7
350
641E
  3
A8
350
641F
  3
A9
350
6420
  3
B0
350
6421
  3
B1
350
6422
  3
B2
350
6423
  3
B3
350
6424
  3
B4
350
6425
  3
B5
350
6426
  3
B6
350
6427
  3
B7
350
6428
  3
B8
350
6429
  3
B9
350
642A
  3
C0
350
642B
  3
C1
350
642C
  3
C2
350
642D
  3
C3
350
642E
  3
C4
350
642F
  3
C5
350
6430
  3
C6
350
6431
  3
C7
350
6432
  3
C8
350
6433
  3
C9
350
6434
  3
D0
350
6435
  3
D1
350
6436
  3
D2
350
6437
  0
DICTIONARY
  5
64A9
102
{ACAD_REACTORS
330
C
102
}
330
C
100
AcDbDictionary
281
     1
  3
Imperial24
350
64AA
  0
DICTIONARY
  5
6414
102
{ACAD_REACTORS
330
C
102
}
330
C
100
AcDbDictionary
281
     1
  3
Standard
350
6415
  0
DICTIONARY
  5
63FF
102
{ACAD_REACTORS
330
C
102
}
330
C
100
AcDbDictionary
281
     1
  3
2dWireframe
350
6405
  3
3D Hidden
350
6407
  3
3dWireframe
350
6406
  3
Basic
350
6404
  3
Brighten
350
640B
  3
ColorChange
350
640F
  3
Conceptual
350
6408
  3
Dim
350
640A
  3
EdgeColorOff
350
6412
  3
Facepattern
350
640E
  3
Flat
350
6400
  3
FlatWithEdges
350
6401
  3
Gouraud
350
6402
  3
GouraudWithEdges
350
6403
  3
Hidden
350
64A3
  3
JitterOff
350
6410
  3
Linepattern
350
640D
  3
OverhangOff
350
6411
  3
Realistic
350
6409
  3
Shaded
350
64A8
  3
Shaded with edges
350
64A7
  3
Shades of Gray
350
64A4
  3
Sketchy
350
64A5
  3
Thicken
350
640C
  3
Wireframe
350
64A2
  3
X-Ray
350
64A6
  0
XRECORD
  5
6867
102
{ACAD_REACTORS
330
C
102
}
330
C
100
AcDbXrecord
280
     1
 90
        1
330
6415
  0
DICTIONARY
  5
5D91
102
{ACAD_REACTORS
330
C
102
}
330
C
100
AcDbDictionary
281
     1
  3
CANNOSCALE
350
6461
  3
CMLEADERSTYLE
350
6460
  3
CTABLESTYLE
350
645F
  3
CVIEWDETAILSTYLE
350
64B6
  3
CVIEWSECTIONSTYLE
350
64B7
  3
DIMASSOC
350
5D92
  3
INDEXCTL
350
6463
  3
LAYEREVAL
350
64BA
  3
LAYERNOTIFY
350
64BB
  3
LIGHTINGUNITS
350
64B9
  3
LOFTANG1
350
6862
  3
LOFTANG2
350
6863
  3
LONGITUDE
350
6864
  3
MSLTSCALE
350
64B8
  3
SORTENTS
350
6462
  3
XCLIPFRAME
350
6865
  0
DICTIONARY
  5
661B
102
{ACAD_REACTORS
330
C
102
}
330
C
100
AcDbDictionary
281
     1
  0
DICTIONARY
  5
645C
102
{ACAD_REACTORS
330
C
102
}
330
C
100
AcDbDictionary
281
     1
  3
ASEBlockHierarchyIndexRecord
350
645E
1001
DCO15
1040
1846671021.609
  0
XRECORD
  5
6868
102
{ACAD_REACTORS
330
C
102
}
330
C
100
AcDbXrecord
280
     1
  1
DWGPROPS COOKIE
  2

  3

  4

  6

  7

  8
ktomoto
  9

300
=
301
=
302
=
303
=
304
=
305
=
306
=
307
=
308
=
309
=
 40
1.216611041666666
 41
2452286.555658658
 42
2457450.503441528
  1

 90
        0
  0
XRECORD
  5
6444
102
{ACAD_REACTORS
330
6443
102
}
330
6443
100
AcDbXrecord
280
     1
290
     1
  0
XRECORD
  5
6446
102
{ACAD_REACTORS
330
6445
102
}
330
6445
100
AcDbXrecord
280
     1
290
     1
  0
XRECORD
  5
6448
102
{ACAD_REACTORS
330
6447
102
}
330
6447
100
AcDbXrecord
280
     1
290
     1
  0
XRECORD
  5
644A
102
{ACAD_REACTORS
330
6449
102
}
330
6449
100
AcDbXrecord
280
     1
290
     1
  0
XRECORD
  5
644C
102
{ACAD_REACTORS
330
644B
102
}
330
644B
100
AcDbXrecord
280
     1
290
     1
  0
XRECORD
  5
644E
102
{ACAD_REACTORS
330
644D
102
}
330
644D
100
AcDbXrecord
280
     1
290
     1
  0
XRECORD
  5
6450
102
{ACAD_REACTORS
330
644F
102
}
330
644F
100
AcDbXrecord
280
     1
290
     1
  0
XRECORD
  5
6452
102
{ACAD_REACTORS
330
6451
102
}
330
6451
100
AcDbXrecord
280
     1
290
     1
  0
XRECORD
  5
6454
102
{ACAD_REACTORS
330
6453
102
}
330
6453
100
AcDbXrecord
280
     1
290
     1
  0
XRECORD
  5
6456
102
{ACAD_REACTORS
330
6455
102
}
330
6455
100
AcDbXrecord
280
     1
290
     1
  0
XRECORD
  5
6458
102
{ACAD_REACTORS
330
6457
102
}
330
6457
100
AcDbXrecord
280
     1
290
     1
  0
XRECORD
  5
645A
102
{ACAD_REACTORS
330
6459
102
}
330
6459
100
AcDbXrecord
280
     1
290
     1
  0
XRECORD
  5
63C9
102
{ACAD_REACTORS
330
178
102
}
330
178
100
AcDbXrecord
280
     1
340
1E
  0
XRECORD
  5
63C8
102
{ACAD_REACTORS
330
17A
102
}
330
17A
100
AcDbXrecord
280
     1
340
1A
  0
XRECORD
  5
686B
102
{ACAD_REACTORS
330
646B
102
}
330
646B
100
AcDbXrecord
280
     1
 40
4437.0
  1
\A1;\U+22056
  0
XRECORD
  5
686A
102
{ACAD_REACTORS
330
6869
102
}
330
6869
100
AcDbXrecord
280
     1
102
SHADEPLOT
 70
     0
  0
ACDBDETAILVIEWSTYLE
  5
64AC
102
{ACAD_XDICTIONARY
360
68A7
102
}
102
{ACAD_REACTORS
330
64AB
102
}
330
64AB
100
AcDbModelDocViewStyle
 70
     0
  3
Imperial24
290
     0
100
AcDbDetailViewStyle
 70
     0
 71
     0
 90
        3
 71
     1
340
11
 40
0.24
340
0
 40
0.24
300

 40
0.36
280
     3
 71
     2
340
15
 90
       25
 71
     3
340
11
 40
0.24
 90
        1
 40
0.75
 90
        1
300
%<\AcVar ViewType \f "%tc1">% %<\AcVar ViewDetailId>%\PSCALE %<\AcVar ViewScale \f "%sn">%
 71
     4
340
15
 90
       25
340
15
 90
       25
280
     0
  0
LAYOUT
  5
63DA
102
{ACAD_XDICTIONARY
360
686C
102
}
102
{ACAD_REACTORS
330
19
102
}
330
19
100
AcDbPlotSettings
  1

  2
Canon LBP3800 LIPSLX
  4

  6

 40
0.0
 41
0.0
 42
0.0
 43
0.0
 44
0.0
 45
0.0
 46
0.0
 47
0.0
 48
0.0
 49
0.0
140
0.0
141
0.0
142
1.0
143
1.0
 70
  1712
 72
     0
 73
     0
 74
     0
  7
monochrome.ctb
 75
     0
147
1.0
148
0.0
149
0.0
100
AcDbLayout
  1
Model
 70
     1
 71
     0
 10
0.0
 20
0.0
 11
12.0
 21
9.0
 12
0.0
 22
0.0
 32
0.0
 14
0.0
 24
0.0
 34
0.0
 15
0.0
 25
0.0
 35
0.0
146
0.0
 13
0.0
 23
0.0
 33
0.0
 16
1.0
 26
0.0
 36
0.0
 17
0.0
 27
1.0
 37
0.0
 76
     0
330
1E
331
63DF
  0
LAYOUT
  5
63DB
102
{ACAD_XDICTIONARY
360
686E
102
}
102
{ACAD_REACTORS
330
19
102
}
330
19
100
AcDbPlotSettings
  1

  2
Canon LBP3800 LIPSLX
  4

  6

 40
0.0
 41
0.0
 42
0.0
 43
0.0
 44
0.0
 45
0.0
 46
0.0
 47
0.0
 48
0.0
 49
0.0
140
0.0
141
0.0
142
1.0
143
1.0
 70
   688
 72
     0
 73
     0
 74
     5
  7
monochrome.ctb
 75
    16
147
1.0
148
0.0
149
0.0
100
AcDbLayout
  1
ﾚｲｱｳﾄ1
 70
     1
 71
     1
 10
-5.873749
 20
-5.87375
 11
204.099579
 21
291.1369009999999
 12
0.0
 22
0.0
 32
0.0
 14
4.273573
 24
5.205245999999998
 34
0.0
 15
194.610095
 25
283.0697009999996
 35
0.0
146
0.0
 13
0.0
 23
0.0
 33
0.0
 16
1.0
 26
0.0
 36
0.0
 17
0.0
 27
1.0
 37
0.0
 76
     0
330
1A
  0
MATERIAL
  5
63EF
102
{ACAD_XDICTIONARY
360
63F0
102
}
102
{ACAD_REACTORS
330
63E6
102
}
330
63E6
100
AcDbMaterial
  1
ByBlock
 72
     0
 43
0.0208333333333333
 43
0.0
 43
0.0
 43
0.0
 43
0.0
 43
0.0208333333333333
 43
0.0
 43
0.0
 43
0.0
 43
0.0
 43
1.0
 43
0.0
 43
0.0
 43
0.0
 43
0.0
 43
1.0
 77
     0
 47
0.0208333333333333
 47
0.0
 47
0.0
 47
0.0
 47
0.0
 47
0.0208333333333333
 47
0.0
 47
0.0
 47
0.0
 47
0.0
 47
1.0
 47
0.0
 47
0.0
 47
0.0
 47
0.0
 47
1.0
171
     0
 49
0.0208333333333333
 49
0.0
 49
0.0
 49
0.0
 49
0.0
 49
0.0208333333333333
 49
0.0
 49
0.0
 49
0.0
 49
0.0
 49
1.0
 49
0.0
 49
0.0
 49
0.0
 49
0.0
 49
1.0
175
     0
142
0.0208333333333333
142
0.0
142
0.0
142
0.0
142
0.0
142
0.0208333333333333
142
0.0
142
0.0
142
0.0
142
0.0
142
1.0
142
0.0
142
0.0
142
0.0
142
0.0
142
1.0
179
     0
144
0.0208333333333333
144
0.0
144
0.0
144
0.0
144
0.0
144
0.0208333333333333
144
0.0
144
0.0
144
0.0
144
0.0
144
1.0
144
0.0
144
0.0
144
0.0
144
0.0
144
1.0
147
0.0208333333333333
147
0.0
147
0.0
147
0.0
147
0.0
147
0.0208333333333333
147
0.0
147
0.0
147
0.0
147
0.0
147
1.0
147
0.0
147
0.0
147
0.0
147
0.0
147
1.0
  0
MATERIAL
  5
63E7
102
{ACAD_XDICTIONARY
360
63E8
102
}
102
{ACAD_REACTORS
330
63E6
102
}
330
63E6
100
AcDbMaterial
  1
ByLayer
 72
     0
 43
0.0208333333333333
 43
0.0
 43
0.0
 43
0.0
 43
0.0
 43
0.0208333333333333
 43
0.0
 43
0.0
 43
0.0
 43
0.0
 43
1.0
 43
0.0
 43
0.0
 43
0.0
 43
0.0
 43
1.0
 77
     0
 47
0.0208333333333333
 47
0.0
 47
0.0
 47
0.0
 47
0.0
 47
0.0208333333333333
 47
0.0
 47
0.0
 47
0.0
 47
0.0
 47
1.0
 47
0.0
 47
0.0
 47
0.0
 47
0.0
 47
1.0
171
     0
 49
0.0208333333333333
 49
0.0
 49
0.0
 49
0.0
 49
0.0
 49
0.0208333333333333
 49
0.0
 49
0.0
 49
0.0
 49
0.0
 49
1.0
 49
0.0
 49
0.0
 49
0.0
 49
0.0
 49
1.0
175
     0
142
0.0208333333333333
142
0.0
142
0.0
142
0.0
142
0.0
142
0.0208333333333333
142
0.0
142
0.0
142
0.0
142
0.0
142
1.0
142
0.0
142
0.0
142
0.0
142
0.0
142
1.0
179
     0
144
0.0208333333333333
144
0.0
144
0.0
144
0.0
144
0.0
144
0.0208333333333333
144
0.0
144
0.0
144
0.0
144
0.0
144
1.0
144
0.0
144
0.0
144
0.0
144
0.0
144
1.0
147
0.0208333333333333
147
0.0
147
0.0
147
0.0
147
0.0
147
0.0208333333333333
147
0.0
147
0.0
147
0.0
147
0.0
147
1.0
147
0.0
147
0.0
147
0.0
147
0.0
147
1.0
  0
MATERIAL
  5
63F7
102
{ACAD_XDICTIONARY
360
63F8
102
}
102
{ACAD_REACTORS
330
63E6
102
}
330
63E6
100
AcDbMaterial
  1
Global
 72
     0
 43
0.0208333333333333
 43
0.0
 43
0.0
 43
0.0
 43
0.0
 43
0.0208333333333333
 43
0.0
 43
0.0
 43
0.0
 43
0.0
 43
1.0
 43
0.0
 43
0.0
 43
0.0
 43
0.0
 43
1.0
 77
     0
 47
0.0208333333333333
 47
0.0
 47
0.0
 47
0.0
 47
0.0
 47
0.0208333333333333
 47
0.0
 47
0.0
 47
0.0
 47
0.0
 47
1.0
 47
0.0
 47
0.0
 47
0.0
 47
0.0
 47
1.0
171
     0
 49
0.0208333333333333
 49
0.0
 49
0.0
 49
0.0
 49
0.0
 49
0.0208333333333333
 49
0.0
 49
0.0
 49
0.0
 49
0.0
 49
1.0
 49
0.0
 49
0.0
 49
0.0
 49
0.0
 49
1.0
175
     0
142
0.0208333333333333
142
0.0
142
0.0
142
0.0
142
0.0
142
0.0208333333333333
142
0.0
142
0.0
142
0.0
142
0.0
142
1.0
142
0.0
142
0.0
142
0.0
142
0.0
142
1.0
179
     0
144
0.0208333333333333
144
0.0
144
0.0
144
0.0
144
0.0
144
0.0208333333333333
144
0.0
144
0.0
144
0.0
144
0.0
144
1.0
144
0.0
144
0.0
144
0.0
144
0.0
144
1.0
147
0.0208333333333333
147
0.0
147
0.0
147
0.0
147
0.0
147
0.0208333333333333
147
0.0
147
0.0
147
0.0
147
0.0
147
1.0
147
0.0
147
0.0
147
0.0
147
0.0
147
1.0
  0
MLEADERSTYLE
  5
6439
102
{ACAD_REACTORS
330
6438
102
}
330
6438
100
AcDbMLeaderStyle
170
     2
171
     1
172
     0
 90
        2
 40
0.0
 41
0.0
173
     1
 91
-1056964608
340
13
 92
       -2
290
     1
 42
0.09
291
     1
 43
0.36
  3
Standard
 44
0.18
300

342
11
174
     1
178
     6
175
     1
176
     0
 93
-1056964608
 45
0.18
292
     0
297
     0
 46
0.18
 94
-1056964608
 47
1.0
 49
1.0
140
1.0
293
     1
141
0.0
294
     1
177
     0
142
1.0
295
     0
296
     0
143
0.125
1001
ACAD_MLEADERVER
1070
     2
  0
MLINESTYLE
  5
17
102
{ACAD_REACTORS
330
16
102
}
330
16
100
AcDbMlineStyle
  2
STANDARD
 70
     0
  3

 62
   256
 51
90.0
 52
90.0
 71
     2
 49
0.5
 62
   256
  6
BYLAYER
 49
-0.5
 62
   256
  6
BYLAYER
  0
ACDBPLACEHOLDER
  5
F
102
{ACAD_REACTORS
330
E
102
}
330
E
  0
SCALE
  5
6417
102
{ACAD_REACTORS
330
6416
102
}
330
6416
100
AcDbScale
 70
     0
300
1:1
140
1.0
141
1.0
290
     1
  0
SCALE
  5
6418
102
{ACAD_REACTORS
330
6416
102
}
330
6416
100
AcDbScale
 70
     0
300
1:2
140
1.0
141
2.0
290
     0
  0
SCALE
  5
6419
102
{ACAD_REACTORS
330
6416
102
}
330
6416
100
AcDbScale
 70
     0
300
1:4
140
1.0
141
4.0
290
     0
  0
SCALE
  5
641A
102
{ACAD_REACTORS
330
6416
102
}
330
6416
100
AcDbScale
 70
     0
300
1:5
140
1.0
141
5.0
290
     0
  0
SCALE
  5
641B
102
{ACAD_REACTORS
330
6416
102
}
330
6416
100
AcDbScale
 70
     0
300
1:8
140
1.0
141
8.0
290
     0
  0
SCALE
  5
641C
102
{ACAD_REACTORS
330
6416
102
}
330
6416
100
AcDbScale
 70
     0
300
1:10
140
1.0
141
10.0
290
     0
  0
SCALE
  5
641D
102
{ACAD_REACTORS
330
6416
102
}
330
6416
100
AcDbScale
 70
     0
300
1:16
140
1.0
141
16.0
290
     0
  0
SCALE
  5
641E
102
{ACAD_REACTORS
330
6416
102
}
330
6416
100
AcDbScale
 70
     0
300
1:20
140
1.0
141
20.0
290
     0
  0
SCALE
  5
641F
102
{ACAD_REACTORS
330
6416
102
}
330
6416
100
AcDbScale
 70
     0
300
1:30
140
1.0
141
30.0
290
     0
  0
SCALE
  5
6420
102
{ACAD_REACTORS
330
6416
102
}
330
6416
100
AcDbScale
 70
     0
300
1:40
140
1.0
141
40.0
290
     0
  0
SCALE
  5
6421
102
{ACAD_REACTORS
330
6416
102
}
330
6416
100
AcDbScale
 70
     0
300
1:50
140
1.0
141
50.0
290
     0
  0
SCALE
  5
6422
102
{ACAD_REACTORS
330
6416
102
}
330
6416
100
AcDbScale
 70
     0
300
1:100
140
1.0
141
100.0
290
     0
  0
SCALE
  5
6423
102
{ACAD_REACTORS
330
6416
102
}
330
6416
100
AcDbScale
 70
     0
300
2:1
140
2.0
141
1.0
290
     0
  0
SCALE
  5
6424
102
{ACAD_REACTORS
330
6416
102
}
330
6416
100
AcDbScale
 70
     0
300
4:1
140
4.0
141
1.0
290
     0
  0
SCALE
  5
6425
102
{ACAD_REACTORS
330
6416
102
}
330
6416
100
AcDbScale
 70
     0
300
8:1
140
8.0
141
1.0
290
     0
  0
SCALE
  5
6426
102
{ACAD_REACTORS
330
6416
102
}
330
6416
100
AcDbScale
 70
     0
300
10:1
140
10.0
141
1.0
290
     0
  0
SCALE
  5
6427
102
{ACAD_REACTORS
330
6416
102
}
330
6416
100
AcDbScale
 70
     0
300
100:1
140
100.0
141
1.0
290
     0
  0
SCALE
  5
6428
102
{ACAD_REACTORS
330
6416
102
}
330
6416
100
AcDbScale
 70
     0
300
1/128" = 1'-0"
140
0.0078125
141
12.0
290
     0
  0
SCALE
  5
6429
102
{ACAD_REACTORS
330
6416
102
}
330
6416
100
AcDbScale
 70
     0
300
1/64" = 1'-0"
140
0.015625
141
12.0
290
     0
  0
SCALE
  5
642A
102
{ACAD_REACTORS
330
6416
102
}
330
6416
100
AcDbScale
 70
     0
300
1/32" = 1'-0"
140
0.03125
141
12.0
290
     0
  0
SCALE
  5
642B
102
{ACAD_REACTORS
330
6416
102
}
330
6416
100
AcDbScale
 70
     0
300
1/16" = 1'-0"
140
0.0625
141
12.0
290
     0
  0
SCALE
  5
642C
102
{ACAD_REACTORS
330
6416
102
}
330
6416
100
AcDbScale
 70
     0
300
3/32" = 1'-0"
140
0.09375
141
12.0
290
     0
  0
SCALE
  5
642D
102
{ACAD_REACTORS
330
6416
102
}
330
6416
100
AcDbScale
 70
     0
300
1/8" = 1'-0"
140
0.125
141
12.0
290
     0
  0
SCALE
  5
642E
102
{ACAD_REACTORS
330
6416
102
}
330
6416
100
AcDbScale
 70
     0
300
3/16" = 1'-0"
140
0.1875
141
12.0
290
     0
  0
SCALE
  5
642F
102
{ACAD_REACTORS
330
6416
102
}
330
6416
100
AcDbScale
 70
     0
300
1/4" = 1'-0"
140
0.25
141
12.0
290
     0
  0
SCALE
  5
6430
102
{ACAD_REACTORS
330
6416
102
}
330
6416
100
AcDbScale
 70
     0
300
3/8" = 1'-0"
140
0.375
141
12.0
290
     0
  0
SCALE
  5
6431
102
{ACAD_REACTORS
330
6416
102
}
330
6416
100
AcDbScale
 70
     0
300
1/2" = 1'-0"
140
0.5
141
12.0
290
     0
  0
SCALE
  5
6432
102
{ACAD_REACTORS
330
6416
102
}
330
6416
100
AcDbScale
 70
     0
300
3/4" = 1'-0"
140
0.75
141
12.0
290
     0
  0
SCALE
  5
6433
102
{ACAD_REACTORS
330
6416
102
}
330
6416
100
AcDbScale
 70
     0
300
1" = 1'-0"
140
1.0
141
12.0
290
     0
  0
SCALE
  5
6434
102
{ACAD_REACTORS
330
6416
102
}
330
6416
100
AcDbScale
 70
     0
300
1-1/2" = 1'-0"
140
1.5
141
12.0
290
     0
  0
SCALE
  5
6435
102
{ACAD_REACTORS
330
6416
102
}
330
6416
100
AcDbScale
 70
     0
300
3" = 1'-0"
140
3.0
141
12.0
290
     0
  0
SCALE
  5
6436
102
{ACAD_REACTORS
330
6416
102
}
330
6416
100
AcDbScale
 70
     0
300
6" = 1'-0"
140
6.0
141
12.0
290
     0
  0
SCALE
  5
6437
102
{ACAD_REACTORS
330
6416
102
}
330
6416
100
AcDbScale
 70
     0
300
1'-0" = 1'-0"
140
12.0
141
12.0
290
     0
  0
ACDBSECTIONVIEWSTYLE
  5
64AA
102
{ACAD_XDICTIONARY
360
68A5
102
}
102
{ACAD_REACTORS
330
64A9
102
}
330
64A9
100
AcDbModelDocViewStyle
 70
     0
  3
Imperial24
290
     0
100
AcDbSectionViewStyle
 70
     0
 71
     0
 90
       78
 71
     1
340
11
 40
0.24
340
0
340
0
 40
0.24
300
I, O, Q, S, X, Z
 40
0.48
 90
        3
 40
0.18
 90
        1
 71
     2
340
15
 90
       25
340
15
 90
       50
 40
0.24
 40
0.0
 40
0.24
 71
     3
340
11
 40
0.24
 90
        1
 40
0.75
 90
        1
300
%<\AcVar ViewType \f "%tc1">% %<\AcVar ViewSectionStartId>%-%<\AcVar ViewSectionEndId>%\PSCALE %<\AcVar ViewScale \f "%sn">%
 71
     4
300
ANSI31
 40
1.0
 90
        0
290
     0
290
     0
 90
        6
 40
0.0
 40
1.570796326794896
 40
0.2617993877991494
 40
1.308996938995747
 40
-0.2617993877991494
 40
1.832595714594045
  0
TABLESTYLE
  5
6415
102
{ACAD_XDICTIONARY
360
6465
102
}
102
{ACAD_REACTORS
330
6414
102
}
330
6414
100
AcDbTableStyle
  3
Standard
 70
     0
 71
     0
 40
0.06
 41
0.06
280
     0
281
     0
  7
STANDARD
140
0.18
170
     2
 62
     0
 63
     7
283
     0
274
    -2
284
     1
 64
     0
275
    -2
285
     1
 65
     0
276
    -2
286
     1
 66
     0
277
    -2
287
     1
 67
     0
278
    -2
288
     1
 68
     0
279
    -2
289
     1
 69
     0
  7
STANDARD
140
0.25
170
     5
 62
     0
 63
     7
283
     0
274
    -2
284
     1
 64
     0
275
    -2
285
     1
 65
     0
276
    -2
286
     1
 66
     0
277
    -2
287
     1
 67
     0
278
    -2
288
     1
 68
     0
279
    -2
289
     1
 69
     0
  7
STANDARD
140
0.18
170
     5
 62
     0
 63
     7
283
     0
274
    -2
284
     1
 64
     0
275
    -2
285
     1
 65
     0
276
    -2
286
     1
 66
     0
277
    -2
287
     1
 67
     0
278
    -2
288
     1
 68
     0
279
    -2
289
     1
 69
     0
  0
VISUALSTYLE
  5
6405
102
{ACAD_XDICTIONARY
360
687A
102
}
102
{ACAD_REACTORS
330
63FF
102
}
330
63FF
100
AcDbVisualStyle
  2

 70
     4
 71
     0
 72
     2
 73
     0
 90
        0
 40
-0.6
 41
-30.0
 62
     5
 63
     7
 74
     1
 91
        4
 64
     7
 65
   257
 75
     1
175
     1
 42
1.0
 92
        0
 66
   257
 43
1.0
 76
     1
 77
     6
 78
     2
 67
     7
 79
     5
170
     0
171
     0
290
     0
174
     0
 93
        1
 44
0.0
173
     0
291
     0
 45
0.0
1001
ACAD
1000
AcDbSavedByObjectVersion
1070
     0
  0
VISUALSTYLE
  5
6407
102
{ACAD_XDICTIONARY
360
687E
102
}
102
{ACAD_REACTORS
330
63FF
102
}
330
63FF
100
AcDbVisualStyle
  2

 70
     6
 71
     1
 72
     2
 73
     2
 90
        0
 40
-0.6
 41
-30.0
 62
     5
 63
     7
 74
     2
 91
        2
 64
     7
 65
   257
 75
     2
175
     1
 42
179.0
 92
        0
 66
   257
 43
1.0
 76
     1
 77
     6
 78
     2
 67
     7
 79
     3
170
     0
171
     0
290
     0
174
     0
 93
        1
 44
0.0
173
     0
291
     0
 45
0.0
1001
ACAD
1000
AcDbSavedByObjectVersion
1070
     0
  0
VISUALSTYLE
  5
6406
102
{ACAD_XDICTIONARY
360
687C
102
}
102
{ACAD_REACTORS
330
63FF
102
}
330
63FF
100
AcDbVisualStyle
  2

 70
     5
 71
     0
 72
     2
 73
     0
 90
        0
 40
-0.6
 41
-30.0
 62
     5
 63
     7
 74
     1
 91
        4
 64
     7
 65
   257
 75
     1
175
     1
 42
1.0
 92
        0
 66
   257
 43
1.0
 76
     1
 77
     6
 78
     2
 67
     7
 79
     5
170
     0
171
     0
290
     0
174
     0
 93
        1
 44
0.0
173
     0
291
     0
 45
0.0
1001
ACAD
1000
AcDbSavedByObjectVersion
1070
     0
  0
VISUALSTYLE
  5
6404
102
{ACAD_XDICTIONARY
360
6878
102
}
102
{ACAD_REACTORS
330
63FF
102
}
330
63FF
100
AcDbVisualStyle
  2

 70
     7
 71
     1
 72
     0
 73
     1
 90
        0
 40
-0.6
 41
-30.0
 62
     5
 63
     7
 74
     0
 91
        4
 64
     7
 65
   257
 75
     1
175
     1
 42
1.0
 92
        8
 66
     7
 43
1.0
 76
     1
 77
     6
 78
     2
 67
     7
 79
     5
170
     0
171
     0
290
     0
174
     0
 93
        1
 44
0.0
173
     0
291
     1
 45
0.0
1001
ACAD
1000
AcDbSavedByObjectVersion
1070
     0
  0
VISUALSTYLE
  5
640B
102
{ACAD_XDICTIONARY
360
6886
102
}
102
{ACAD_REACTORS
330
63FF
102
}
330
63FF
100
AcDbVisualStyle
  2

 70
    12
 71
     2
 72
     2
 73
     0
 90
        0
 40
-0.6
 41
-30.0
 62
     5
 63
     7
 74
     1
 91
        4
 64
     7
 65
   257
 75
     1
175
     1
 42
1.0
 92
        8
 66
     7
 43
1.0
 76
     1
 77
     6
 78
     2
 67
     7
 79
     5
170
     0
171
     0
290
     0
174
     0
 93
        1
 44
50.0
173
     0
291
     1
 45
0.0
1001
ACAD
1000
AcDbSavedByObjectVersion
1070
     0
  0
VISUALSTYLE
  5
640F
102
{ACAD_XDICTIONARY
360
688E
102
}
102
{ACAD_REACTORS
330
63FF
102
}
330
63FF
100
AcDbVisualStyle
  2

 70
    16
 71
     2
 72
     2
 73
     3
 90
        0
 40
-0.6
 41
-30.0
 62
     5
 63
     8
 74
     1
 91
        4
 64
     7
 65
   257
 75
     1
175
     1
 42
1.0
 92
        8
 66
     8
 43
1.0
 76
     1
 77
     6
 78
     2
 67
     7
 79
     5
170
     0
171
     0
290
     0
174
     0
 93
        1
 44
0.0
173
     0
291
     1
 45
0.0
1001
ACAD
1000
AcDbSavedByObjectVersion
1070
     0
  0
VISUALSTYLE
  5
6408
102
{ACAD_XDICTIONARY
360
6880
102
}
102
{ACAD_REACTORS
330
63FF
102
}
330
63FF
100
AcDbVisualStyle
  2

 70
     9
 71
     3
 72
     2
 73
     0
 90
        0
 40
-0.6
 41
-30.0
 62
     5
 63
     7
 74
     2
 91
        2
 64
     7
 65
   257
 75
     1
175
     1
 42
179.0
 92
        8
 66
     7
 43
1.0
 76
     1
 77
     6
 78
     2
 67
     7
 79
     3
170
     0
171
     0
290
     0
174
     0
 93
        1
 44
0.0
173
     0
291
     0
 45
0.0
1001
ACAD
1000
AcDbSavedByObjectVersion
1070
     0
  0
VISUALSTYLE
  5
640A
102
{ACAD_XDICTIONARY
360
6884
102
}
102
{ACAD_REACTORS
330
63FF
102
}
330
63FF
100
AcDbVisualStyle
  2

 70
    11
 71
     2
 72
     2
 73
     0
 90
        0
 40
-0.6
 41
-30.0
 62
     5
 63
     7
 74
     1
 91
        4
 64
     7
 65
   257
 75
     1
175
     1
 42
1.0
 92
        8
 66
     7
 43
1.0
 76
     1
 77
     6
 78
     2
 67
     7
 79
     5
170
     0
171
     0
290
     0
174
     0
 93
        1
 44
-50.0
173
     0
291
     1
 45
0.0
1001
ACAD
1000
AcDbSavedByObjectVersion
1070
     0
  0
VISUALSTYLE
  5
6412
102
{ACAD_XDICTIONARY
360
6894
102
}
102
{ACAD_REACTORS
330
63FF
102
}
330
63FF
100
AcDbVisualStyle
  2

 70
    22
 71
     2
 72
     2
 73
     0
 90
        0
 40
-0.6
 41
-30.0
 62
     5
 63
     7
 74
     1
 91
        4
 64
     7
 65
   257
 75
     1
175
     1
 42
1.0
 92
        8
 66
     7
 43
1.0
 76
     1
 77
     6
 78
     2
 67
     7
 79
     5
170
     0
171
     0
290
     0
174
     0
 93
        1
 44
0.0
173
     0
291
     1
 45
0.0
1001
ACAD
1000
AcDbSavedByObjectVersion
1070
     0
  0
VISUALSTYLE
  5
640E
102
{ACAD_XDICTIONARY
360
688C
102
}
102
{ACAD_REACTORS
330
63FF
102
}
330
63FF
100
AcDbVisualStyle
  2

 70
    15
 71
     2
 72
     2
 73
     0
 90
        0
 40
-0.6
 41
-30.0
 62
     5
 63
     7
 74
     1
 91
        4
 64
     7
 65
   257
 75
     1
175
     1
 42
1.0
 92
        8
 66
     7
 43
1.0
 76
     1
 77
     6
 78
     2
 67
     7
 79
     5
170
     0
171
     0
290
     0
174
     0
 93
        1
 44
0.0
173
     0
291
     1
 45
0.0
1001
ACAD
1000
AcDbSavedByObjectVersion
1070
     0
  0
VISUALSTYLE
  5
6400
102
{ACAD_XDICTIONARY
360
6870
102
}
102
{ACAD_REACTORS
330
63FF
102
}
330
63FF
100
AcDbVisualStyle
  2

 70
     0
 71
     2
 72
     1
 73
     1
 90
        2
 40
-0.6
 41
30.0
 62
     5
 63
     7
 74
     0
 91
        4
 64
     7
 65
   257
 75
     1
175
     1
 42
1.0
 92
        8
 66
     7
 43
1.0
 76
     1
 77
     6
 78
     2
 67
     7
 79
     5
170
     0
171
     0
290
     0
174
     0
 93
       13
 44
0.0
173
     0
291
     1
 45
0.0
1001
ACAD
1000
AcDbSavedByObjectVersion
1070
     0
  0
VISUALSTYLE
  5
6401
102
{ACAD_XDICTIONARY
360
6872
102
}
102
{ACAD_REACTORS
330
63FF
102
}
330
63FF
100
AcDbVisualStyle
  2

 70
     1
 71
     2
 72
     1
 73
     1
 90
        2
 40
-0.6
 41
30.0
 62
     5
 63
     7
 74
     1
 91
        4
 64
     7
 65
   257
 75
     1
175
     1
 42
1.0
 92
        0
 66
   257
 43
1.0
 76
     1
 77
     6
 78
     2
 67
     7
 79
     5
170
     0
171
     0
290
     0
174
     0
 93
       13
 44
0.0
173
     0
291
     1
 45
0.0
1001
ACAD
1000
AcDbSavedByObjectVersion
1070
     0
  0
VISUALSTYLE
  5
6402
102
{ACAD_XDICTIONARY
360
6874
102
}
102
{ACAD_REACTORS
330
63FF
102
}
330
63FF
100
AcDbVisualStyle
  2

 70
     2
 71
     2
 72
     2
 73
     1
 90
        2
 40
-0.6
 41
30.0
 62
     5
 63
     7
 74
     0
 91
        4
 64
     7
 65
   257
 75
     1
175
     1
 42
1.0
 92
        0
 66
     7
 43
1.0
 76
     1
 77
     6
 78
     2
 67
     7
 79
     5
170
     0
171
     0
290
     0
174
     0
 93
       13
 44
0.0
173
     0
291
     1
 45
0.0
1001
ACAD
1000
AcDbSavedByObjectVersion
1070
     0
  0
VISUALSTYLE
  5
6403
102
{ACAD_XDICTIONARY
360
6876
102
}
102
{ACAD_REACTORS
330
63FF
102
}
330
63FF
100
AcDbVisualStyle
  2

 70
     3
 71
     2
 72
     2
 73
     1
 90
        2
 40
-0.6
 41
30.0
 62
     5
 63
     7
 74
     1
 91
        4
 64
     7
 65
   257
 75
     1
175
     1
 42
1.0
 92
        0
 66
   257
 43
1.0
 76
     1
 77
     6
 78
     2
 67
     7
 79
     5
170
     0
171
     0
290
     0
174
     0
 93
       13
 44
0.0
173
     0
291
     1
 45
0.0
1001
ACAD
1000
AcDbSavedByObjectVersion
1070
     0
  0
VISUALSTYLE
  5
64A3
102
{ACAD_XDICTIONARY
360
6899
102
}
102
{ACAD_REACTORS
330
63FF
102
}
330
63FF
100
AcDbVisualStyle
  2
Hidden
 70
     6
 71
     1
 72
     2
 73
     2
 90
        0
 40
-0.6
 41
-30.0
 62
     5
 63
     7
 74
     2
 91
        2
 64
     7
 65
   257
 75
     2
175
     1
 42
40.0
 92
        0
 66
   257
 43
1.0
 76
     1
 77
     6
 78
     2
 67
     7
 79
     3
170
     0
171
     0
290
     0
174
     0
 93
        1
 44
0.0
173
     0
291
     0
 45
0.0
1001
ACAD
1000
AcDbSavedByObjectVersion
1070
     0
  0
VISUALSTYLE
  5
6410
102
{ACAD_XDICTIONARY
360
6890
102
}
102
{ACAD_REACTORS
330
63FF
102
}
330
63FF
100
AcDbVisualStyle
  2

 70
    20
 71
     2
 72
     2
 73
     0
 90
        0
 40
-0.6
 41
-30.0
 62
     5
 63
     7
 74
     1
 91
        4
 64
     7
 65
   257
 75
     1
175
     1
 42
1.0
 92
       10
 66
     7
 43
1.0
 76
     1
 77
     6
 78
     2
 67
     7
 79
     5
170
     0
171
     0
290
     0
174
     0
 93
        1
 44
0.0
173
     0
291
     1
 45
0.0
1001
ACAD
1000
AcDbSavedByObjectVersion
1070
     0
  0
VISUALSTYLE
  5
640D
102
{ACAD_XDICTIONARY
360
688A
102
}
102
{ACAD_REACTORS
330
63FF
102
}
330
63FF
100
AcDbVisualStyle
  2

 70
    14
 71
     2
 72
     2
 73
     0
 90
        0
 40
-0.6
 41
-30.0
 62
     5
 63
     7
 74
     1
 91
        4
 64
     7
 65
   257
 75
     7
175
     7
 42
1.0
 92
        8
 66
     7
 43
1.0
 76
     1
 77
     6
 78
     2
 67
     7
 79
     5
170
     0
171
     0
290
     0
174
     0
 93
        1
 44
0.0
173
     0
291
     1
 45
0.0
1001
ACAD
1000
AcDbSavedByObjectVersion
1070
     0
  0
VISUALSTYLE
  5
6411
102
{ACAD_XDICTIONARY
360
6892
102
}
102
{ACAD_REACTORS
330
63FF
102
}
330
63FF
100
AcDbVisualStyle
  2

 70
    21
 71
     2
 72
     2
 73
     0
 90
        0
 40
-0.6
 41
-30.0
 62
     5
 63
     7
 74
     1
 91
        4
 64
     7
 65
   257
 75
     1
175
     1
 42
1.0
 92
        9
 66
     7
 43
1.0
 76
     1
 77
     6
 78
     2
 67
     7
 79
     5
170
     0
171
     0
290
     0
174
     0
 93
        1
 44
0.0
173
     0
291
     1
 45
0.0
1001
ACAD
1000
AcDbSavedByObjectVersion
1070
     0
  0
VISUALSTYLE
  5
6409
102
{ACAD_XDICTIONARY
360
6882
102
}
102
{ACAD_REACTORS
330
63FF
102
}
330
63FF
100
AcDbVisualStyle
  2

 70
     8
 71
     2
 72
     2
 73
     0
 90
        0
 40
-0.6
 41
-30.0
 62
     5
 63
     7
 74
     1
 91
        0
 64
     7
 65
   257
 75
     1
175
     1
 42
1.0
 92
        8
 66
     8
 43
1.0
 76
     1
 77
     6
 78
     2
 67
     7
 79
     5
170
     0
171
     0
290
     0
174
     0
 93
       13
 44
0.0
173
     0
291
     0
 45
0.0
1001
ACAD
1000
AcDbSavedByObjectVersion
1070
     0
  0
VISUALSTYLE
  5
64A8
102
{ACAD_XDICTIONARY
360
68A3
102
}
102
{ACAD_REACTORS
330
63FF
102
}
330
63FF
100
AcDbVisualStyle
  2
Shaded
 70
    27
 71
     2
 72
     2
 73
     1
 90
        2
 40
-0.6
 41
30.0
 62
     5
 63
     7
 74
     0
 91
        4
 64
     7
 65
   257
 75
     1
175
     1
 42
1.0
 92
        8
 66
   257
 43
1.0
 76
     1
 77
     6
 78
     2
 67
     8
 79
     3
170
     0
171
     0
290
     0
174
     0
 93
        5
 44
0.0
173
     0
291
     0
 45
0.0
1001
ACAD
1000
AcDbSavedByObjectVersion
1070
     0
  0
VISUALSTYLE
  5
64A7
102
{ACAD_XDICTIONARY
360
68A1
102
}
102
{ACAD_REACTORS
330
63FF
102
}
330
63FF
100
AcDbVisualStyle
  2
Shaded with edges
 70
    26
 71
     2
 72
     2
 73
     1
 90
        2
 40
-0.6
 41
30.0
 62
     5
 63
     7
 74
     1
 91
       10
 64
     7
 65
   257
 75
     2
175
     1
 42
1.0
 92
        8
 66
   257
 43
1.0
 76
     1
 77
     6
 78
     2
 67
     7
 79
     3
170
     0
171
     0
290
     0
174
     0
 93
        5
 44
0.0
173
     0
291
     0
 45
0.0
1001
ACAD
1000
AcDbSavedByObjectVersion
1070
     0
  0
VISUALSTYLE
  5
64A4
102
{ACAD_XDICTIONARY
360
689B
102
}
102
{ACAD_REACTORS
330
63FF
102
}
330
63FF
100
AcDbVisualStyle
  2
Shades of Gray
 70
    23
 71
     2
 72
     2
 73
     3
 90
        0
 40
-0.6
 41
-30.0
 62
     5
 63
     7
 74
     2
 91
        2
 64
     7
 65
     7
 75
     1
175
     1
 42
40.0
 92
        8
 66
     7
 43
1.0
 76
     1
 77
     6
 78
     2
 67
     7
 79
     3
170
     0
171
     0
290
     0
174
     0
 93
        1
 44
0.0
173
     0
291
     0
 45
0.0
1001
ACAD
1000
AcDbSavedByObjectVersion
1070
     0
  0
VISUALSTYLE
  5
64A5
102
{ACAD_XDICTIONARY
360
689D
102
}
102
{ACAD_REACTORS
330
63FF
102
}
330
63FF
100
AcDbVisualStyle
  2
Sketchy
 70
    24
 71
     1
 72
     2
 73
     2
 90
        0
 40
-0.6
 41
-30.0
 62
     5
 63
     7
 74
     2
 91
        2
 64
     7
 65
     7
 75
     1
175
     1
 42
40.0
 92
       11
 66
     7
 43
1.0
 76
     1
 77
     6
 78
     2
 67
     7
 79
     6
170
     0
171
     0
290
     0
174
     0
 93
        1
 44
0.0
173
     0
291
     0
 45
0.0
1001
ACAD
1000
AcDbSavedByObjectVersion
1070
     0
  0
VISUALSTYLE
  5
640C
102
{ACAD_XDICTIONARY
360
6888
102
}
102
{ACAD_REACTORS
330
63FF
102
}
330
63FF
100
AcDbVisualStyle
  2

 70
    13
 71
     2
 72
     2
 73
     0
 90
        0
 40
-0.6
 41
-30.0
 62
     5
 63
     7
 74
     1
 91
        4
 64
     7
 65
   257
 75
     1
175
     1
 42
1.0
 92
       12
 66
     7
 43
1.0
 76
     1
 77
     6
 78
     2
 67
     7
 79
     5
170
     0
171
     0
290
     0
174
     0
 93
        1
 44
0.0
173
     0
291
     1
 45
0.0
1001
ACAD
1000
AcDbSavedByObjectVersion
1070
     0
  0
VISUALSTYLE
  5
64A2
102
{ACAD_XDICTIONARY
360
6897
102
}
102
{ACAD_REACTORS
330
63FF
102
}
330
63FF
100
AcDbVisualStyle
  2
Wireframe
 70
     5
 71
     0
 72
     2
 73
     0
 90
        0
 40
-0.6
 41
-30.0
 62
     5
 63
     7
 74
     1
 91
        4
 64
     7
 65
   257
 75
     1
175
     1
 42
1.0
 92
        0
 66
   257
 43
1.0
 76
     1
 77
     6
 78
     2
 67
     7
 79
     3
170
     0
171
     0
290
     0
174
     0
 93
        1
 44
0.0
173
     0
291
     0
 45
0.0
1001
ACAD
1000
AcDbSavedByObjectVersion
1070
     0
  0
VISUALSTYLE
  5
64A6
102
{ACAD_XDICTIONARY
360
689F
102
}
102
{ACAD_REACTORS
330
63FF
102
}
330
63FF
100
AcDbVisualStyle
  2
X-Ray
 70
    25
 71
     2
 72
     2
 73
     1
 90
        1
 40
0.5
 41
-30.0
 62
     5
 63
     7
 74
     1
 91
        0
 64
     7
 65
   257
 75
     1
175
     1
 42
1.0
 92
        8
 66
     7
 43
1.0
 76
     1
 77
     6
 78
     2
 67
     7
 79
     3
170
     0
171
     0
290
     0
174
     0
 93
       13
 44
0.0
173
     0
291
     0
 45
0.0
1001
ACAD
1000
AcDbSavedByObjectVersion
1070
     0
  0
DICTIONARYVAR
  5
6461
102
{ACAD_REACTORS
330
5D91
102
}
330
5D91
100
DictionaryVariables
280
     0
  1
1:1
  0
DICTIONARYVAR
  5
6460
102
{ACAD_REACTORS
330
5D91
102
}
330
5D91
100
DictionaryVariables
280
     0
  1
STANDARD
  0
DICTIONARYVAR
  5
645F
102
{ACAD_REACTORS
330
5D91
102
}
330
5D91
100
DictionaryVariables
280
     0
  1
STANDARD
  0
DICTIONARYVAR
  5
64B6
102
{ACAD_REACTORS
330
5D91
102
}
330
5D91
100
DictionaryVariables
280
     0
  1
Imperial24
  0
DICTIONARYVAR
  5
64B7
102
{ACAD_REACTORS
330
5D91
102
}
330
5D91
100
DictionaryVariables
280
     0
  1
Imperial24
  0
DICTIONARYVAR
  5
5D92
102
{ACAD_REACTORS
330
5D91
102
}
330
5D91
100
DictionaryVariables
280
     0
  1
1
  0
DICTIONARYVAR
  5
6463
102
{ACAD_REACTORS
330
5D91
102
}
330
5D91
100
DictionaryVariables
280
     0
  1
0
  0
DICTIONARYVAR
  5
64BA
102
{ACAD_REACTORS
330
5D91
102
}
330
5D91
100
DictionaryVariables
280
     0
  1
1
  0
DICTIONARYVAR
  5
64BB
102
{ACAD_REACTORS
330
5D91
102
}
330
5D91
100
DictionaryVariables
280
     0
  1
15
  0
DICTIONARYVAR
  5
64B9
102
{ACAD_REACTORS
330
5D91
102
}
330
5D91
100
DictionaryVariables
280
     0
  1
0
  0
DICTIONARYVAR
  5
6862
102
{ACAD_REACTORS
330
5D91
102
}
330
5D91
100
DictionaryVariables
280
     0
  1
1.570796
  0
DICTIONARYVAR
  5
6863
102
{ACAD_REACTORS
330
5D91
102
}
330
5D91
100
DictionaryVariables
280
     0
  1
1.570796
  0
DICTIONARYVAR
  5
6864
102
{ACAD_REACTORS
330
5D91
102
}
330
5D91
100
DictionaryVariables
280
     0
  1
-122.394000
  0
DICTIONARYVAR
  5
64B8
102
{ACAD_REACTORS
330
5D91
102
}
330
5D91
100
DictionaryVariables
280
     0
  1
0
  0
DICTIONARYVAR
  5
6462
102
{ACAD_REACTORS
330
5D91
102
}
330
5D91
100
DictionaryVariables
280
     0
  1
127
  0
DICTIONARYVAR
  5
6865
102
{ACAD_REACTORS
330
5D91
102
}
330
5D91
100
DictionaryVariables
280
     0
  1
2
  0
XRECORD
  5
645E
102
{ACAD_REACTORS
330
645C
102
}
330
645C
100
AcDbXrecord
280
     1
330
59AE
330
62CE
330
62CF
330
613E
330
613F
330
611A
330
611B
330
612C
330
612D
330
6135
330
6136
330
60B6
330
60B7
330
60AC
330
60AD
330
6108
330
6109
330
60FF
330
6100
330
62C5
330
62C6
330
62E0
330
62E1
330
62D7
330
62D8
330
62E9
330
6076
330
6077
330
60D2
330
60D3
330
6149
330
614A
330
63CD
330
63CE
330
6271
330
6272
330
627A
330
627B
  0
DICTIONARY
  5
68A7
330
64AC
100
AcDbDictionary
280
     1
281
     1
  3
ACAD_XREC_ROUNDTRIP
360
68A8
  0
DICTIONARY
  5
686C
330
63DA
100
AcDbDictionary
280
     1
281
     1
  3
ACAD_XREC_ROUNDTRIP
360
686D
  0
DICTIONARY
  5
686E
330
63DB
100
AcDbDictionary
280
     1
281
     1
  3
ACAD_XREC_ROUNDTRIP
360
686F
  0
DICTIONARY
  5
63F0
330
63EF
100
AcDbDictionary
280
     1
281
     1
  3
ACAD_XREC_ROUNDTRIP
360
6472
  3
BUMPTILE
360
63F2
  3
DIFFUSETILE
360
63F1
  3
OPACITYTILE
360
63F5
  3
REFLECTIONTILE
360
63F4
  3
REFRACTIONTILE
360
63F6
  3
SPECULARTILE
360
63F3
  0
DICTIONARY
  5
63E8
330
63E7
100
AcDbDictionary
280
     1
281
     1
  3
ACAD_XREC_ROUNDTRIP
360
6471
  3
BUMPTILE
360
63EA
  3
DIFFUSETILE
360
63E9
  3
OPACITYTILE
360
63ED
  3
REFLECTIONTILE
360
63EC
  3
REFRACTIONTILE
360
63EE
  3
SPECULARTILE
360
63EB
  0
DICTIONARY
  5
63F8
330
63F7
100
AcDbDictionary
280
     1
281
     1
  3
ACAD_XREC_ROUNDTRIP
360
6473
  3
BUMPTILE
360
63FA
  3
DIFFUSETILE
360
63F9
  3
OPACITYTILE
360
63FD
  3
REFLECTIONTILE
360
63FC
  3
REFRACTIONTILE
360
63FE
  3
SPECULARTILE
360
63FB
  0
DICTIONARY
  5
68A5
330
64AA
100
AcDbDictionary
280
     1
281
     1
  3
ACAD_XREC_ROUNDTRIP
360
68A6
  0
DICTIONARY
  5
6465
330
6415
100
AcDbDictionary
280
     1
281
     1
  3
ACAD_ROUNDTRIP_2008_TABLESTYLE_CELLSTYLEMAP
360
6866
  3
ACAD_XREC_ROUNDTRIP
360
6896
  0
DICTIONARY
  5
687A
330
6405
100
AcDbDictionary
280
     1
281
     1
  3
ACAD_XREC_ROUNDTRIP
360
687B
  0
DICTIONARY
  5
687E
330
6407
100
AcDbDictionary
280
     1
281
     1
  3
ACAD_XREC_ROUNDTRIP
360
687F
  0
DICTIONARY
  5
687C
330
6406
100
AcDbDictionary
280
     1
281
     1
  3
ACAD_XREC_ROUNDTRIP
360
687D
  0
DICTIONARY
  5
6878
330
6404
100
AcDbDictionary
280
     1
281
     1
  3
ACAD_XREC_ROUNDTRIP
360
6879
  0
DICTIONARY
  5
6886
330
640B
100
AcDbDictionary
280
     1
281
     1
  3
ACAD_XREC_ROUNDTRIP
360
6887
  0
DICTIONARY
  5
688E
330
640F
100
AcDbDictionary
280
     1
281
     1
  3
ACAD_XREC_ROUNDTRIP
360
688F
  0
DICTIONARY
  5
6880
330
6408
100
AcDbDictionary
280
     1
281
     1
  3
ACAD_XREC_ROUNDTRIP
360
6881
  0
DICTIONARY
  5
6884
330
640A
100
AcDbDictionary
280
     1
281
     1
  3
ACAD_XREC_ROUNDTRIP
360
6885
  0
DICTIONARY
  5
6894
330
6412
100
AcDbDictionary
280
     1
281
     1
  3
ACAD_XREC_ROUNDTRIP
360
6895
  0
DICTIONARY
  5
688C
330
640E
100
AcDbDictionary
280
     1
281
     1
  3
ACAD_XREC_ROUNDTRIP
360
688D
  0
DICTIONARY
  5
6870
330
6400
100
AcDbDictionary
280
     1
281
     1
  3
ACAD_XREC_ROUNDTRIP
360
6871
  0
DICTIONARY
  5
6872
330
6401
100
AcDbDictionary
280
     1
281
     1
  3
ACAD_XREC_ROUNDTRIP
360
6873
  0
DICTIONARY
  5
6874
330
6402
100
AcDbDictionary
280
     1
281
     1
  3
ACAD_XREC_ROUNDTRIP
360
6875
  0
DICTIONARY
  5
6876
330
6403
100
AcDbDictionary
280
     1
281
     1
  3
ACAD_XREC_ROUNDTRIP
360
6877
  0
DICTIONARY
  5
6899
330
64A3
100
AcDbDictionary
280
     1
281
     1
  3
ACAD_XREC_ROUNDTRIP
360
689A
  0
DICTIONARY
  5
6890
330
6410
100
AcDbDictionary
280
     1
281
     1
  3
ACAD_XREC_ROUNDTRIP
360
6891
  0
DICTIONARY
  5
688A
330
640D
100
AcDbDictionary
280
     1
281
     1
  3
ACAD_XREC_ROUNDTRIP
360
688B
  0
DICTIONARY
  5
6892
330
6411
100
AcDbDictionary
280
     1
281
     1
  3
ACAD_XREC_ROUNDTRIP
360
6893
  0
DICTIONARY
  5
6882
330
6409
100
AcDbDictionary
280
     1
281
     1
  3
ACAD_XREC_ROUNDTRIP
360
6883
  0
DICTIONARY
  5
68A3
330
64A8
100
AcDbDictionary
280
     1
281
     1
  3
ACAD_XREC_ROUNDTRIP
360
68A4
  0
DICTIONARY
  5
68A1
330
64A7
100
AcDbDictionary
280
     1
281
     1
  3
ACAD_XREC_ROUNDTRIP
360
68A2
  0
DICTIONARY
  5
689B
330
64A4
100
AcDbDictionary
280
     1
281
     1
  3
ACAD_XREC_ROUNDTRIP
360
689C
  0
DICTIONARY
  5
689D
330
64A5
100
AcDbDictionary
280
     1
281
     1
  3
ACAD_XREC_ROUNDTRIP
360
689E
  0
DICTIONARY
  5
6888
330
640C
100
AcDbDictionary
280
     1
281
     1
  3
ACAD_XREC_ROUNDTRIP
360
6889
  0
DICTIONARY
  5
6897
330
64A2
100
AcDbDictionary
280
     1
281
     1
  3
ACAD_XREC_ROUNDTRIP
360
6898
  0
DICTIONARY
  5
689F
330
64A6
100
AcDbDictionary
280
     1
281
     1
  3
ACAD_XREC_ROUNDTRIP
360
68A0
  0
XRECORD
  5
68A8
102
{ACAD_REACTORS
330
68A7
102
}
330
68A7
100
AcDbXrecord
280
     1
102
DISPLAYNAME
  1
Imperial24
102
FLAGS
 90
        0
  0
XRECORD
  5
686D
102
{ACAD_REACTORS
330
686C
102
}
330
686C
100
AcDbXrecord
280
     1
102
SHADEPLOT
 70
     0
102
SHADEPLOTRESLEVEL
 70
     2
102
SHADEPLOTCUSTOMDPI
 70
   300
  0
XRECORD
  5
686F
102
{ACAD_REACTORS
330
686E
102
}
330
686E
100
AcDbXrecord
280
     1
102
SHADEPLOT
 70
     0
102
SHADEPLOTRESLEVEL
 70
     2
102
SHADEPLOTCUSTOMDPI
 70
   300
  0
XRECORD
  5
6472
102
{ACAD_REACTORS
330
63F0
102
}
330
63F0
100
AcDbXrecord
280
     1
102
MATERIAL
148
0.0
149
0.0
149
0.0
 93
        0
 94
      127
282
     0
 72
     0
 77
     0
171
     0
175
     0
179
     0
273
     0
  0
XRECORD
  5
63F2
102
{ACAD_REACTORS
330
63F0
102
}
330
63F0
100
AcDbXrecord
280
     1
270
     1
271
     1
  0
XRECORD
  5
63F1
102
{ACAD_REACTORS
330
63F0
102
}
330
63F0
100
AcDbXrecord
280
     1
270
     1
271
     1
  0
XRECORD
  5
63F5
102
{ACAD_REACTORS
330
63F0
102
}
330
63F0
100
AcDbXrecord
280
     1
270
     1
271
     1
  0
XRECORD
  5
63F4
102
{ACAD_REACTORS
330
63F0
102
}
330
63F0
100
AcDbXrecord
280
     1
270
     1
271
     1
  0
XRECORD
  5
63F6
102
{ACAD_REACTORS
330
63F0
102
}
330
63F0
100
AcDbXrecord
280
     1
270
     1
271
     1
  0
XRECORD
  5
63F3
102
{ACAD_REACTORS
330
63F0
102
}
330
63F0
100
AcDbXrecord
280
     1
270
     1
271
     1
  0
XRECORD
  5
6471
102
{ACAD_REACTORS
330
63E8
102
}
330
63E8
100
AcDbXrecord
280
     1
102
MATERIAL
148
0.0
149
0.0
149
0.0
 93
        0
 94
      127
282
     0
 72
     0
 77
     0
171
     0
175
     0
179
     0
273
     0
  0
XRECORD
  5
63EA
102
{ACAD_REACTORS
330
63E8
102
}
330
63E8
100
AcDbXrecord
280
     1
270
     1
271
     1
  0
XRECORD
  5
63E9
102
{ACAD_REACTORS
330
63E8
102
}
330
63E8
100
AcDbXrecord
280
     1
270
     1
271
     1
  0
XRECORD
  5
63ED
102
{ACAD_REACTORS
330
63E8
102
}
330
63E8
100
AcDbXrecord
280
     1
270
     1
271
     1
  0
XRECORD
  5
63EC
102
{ACAD_REACTORS
330
63E8
102
}
330
63E8
100
AcDbXrecord
280
     1
270
     1
271
     1
  0
XRECORD
  5
63EE
102
{ACAD_REACTORS
330
63E8
102
}
330
63E8
100
AcDbXrecord
280
     1
270
     1
271
     1
  0
XRECORD
  5
63EB
102
{ACAD_REACTORS
330
63E8
102
}
330
63E8
100
AcDbXrecord
280
     1
270
     1
271
     1
  0
XRECORD
  5
6473
102
{ACAD_REACTORS
330
63F8
102
}
330
63F8
100
AcDbXrecord
280
     1
102
MATERIAL
148
0.0
149
0.0
149
0.0
 93
        0
 94
      127
282
     0
 72
     0
 77
     0
171
     0
175
     0
179
     0
273
     0
  0
XRECORD
  5
63FA
102
{ACAD_REACTORS
330
63F8
102
}
330
63F8
100
AcDbXrecord
280
     1
270
     1
271
     1
  0
XRECORD
  5
63F9
102
{ACAD_REACTORS
330
63F8
102
}
330
63F8
100
AcDbXrecord
280
     1
270
     1
271
     1
  0
XRECORD
  5
63FD
102
{ACAD_REACTORS
330
63F8
102
}
330
63F8
100
AcDbXrecord
280
     1
270
     1
271
     1
  0
XRECORD
  5
63FC
102
{ACAD_REACTORS
330
63F8
102
}
330
63F8
100
AcDbXrecord
280
     1
270
     1
271
     1
  0
XRECORD
  5
63FE
102
{ACAD_REACTORS
330
63F8
102
}
330
63F8
100
AcDbXrecord
280
     1
270
     1
271
     1
  0
XRECORD
  5
63FB
102
{ACAD_REACTORS
330
63F8
102
}
330
63F8
100
AcDbXrecord
280
     1
270
     1
271
     1
  0
XRECORD
  5
68A6
102
{ACAD_REACTORS
330
68A5
102
}
330
68A5
100
AcDbXrecord
280
     1
102
DISPLAYNAME
  1
Imperial24
102
FLAGS
 90
        0
  0
CELLSTYLEMAP
  5
6866
102
{ACAD_REACTORS
330
6465
102
}
330
6465
100
AcDbCellStyleMap
 90
        3
300
CELLSTYLE
  1
TABLEFORMAT_BEGIN
 90
        5
170
     1
 91
        0
 92
    32768
 62
   257
 93
        1
300
CONTENTFORMAT
  1
CONTENTFORMAT_BEGIN
 90
        0
 91
        0
 92
      512
 93
        0
300

 40
0.0
140
1.0
 94
        5
 62
     0
340
11
144
0.25
309
CONTENTFORMAT_END
171
     1
301
MARGIN
  1
CELLMARGIN_BEGIN
 40
0.06
 40
0.06
 40
0.06
 40
0.06
 40
0.18
 40
0.18
309
CELLMARGIN_END
 94
        6
 95
        1
302
GRIDFORMAT
  1
GRIDFORMAT_BEGIN
 90
        0
 91
        1
 62
     0
 92
       -2
340
0
 93
        0
 40
0.045
309
GRIDFORMAT_END
 95
        2
302
GRIDFORMAT
  1
GRIDFORMAT_BEGIN
 90
        0
 91
        1
 62
     0
 92
       -2
340
0
 93
        0
 40
0.045
309
GRIDFORMAT_END
 95
        4
302
GRIDFORMAT
  1
GRIDFORMAT_BEGIN
 90
        0
 91
        1
 62
     0
 92
       -2
340
0
 93
        0
 40
0.045
309
GRIDFORMAT_END
 95
        8
302
GRIDFORMAT
  1
GRIDFORMAT_BEGIN
 90
        0
 91
        1
 62
     0
 92
       -2
340
0
 93
        0
 40
0.045
309
GRIDFORMAT_END
 95
       16
302
GRIDFORMAT
  1
GRIDFORMAT_BEGIN
 90
        0
 91
        1
 62
     0
 92
       -2
340
0
 93
        0
 40
0.045
309
GRIDFORMAT_END
 95
       32
302
GRIDFORMAT
  1
GRIDFORMAT_BEGIN
 90
        0
 91
        1
 62
     0
 92
       -2
340
0
 93
        0
 40
0.045
309
GRIDFORMAT_END
309
TABLEFORMAT_END
  1
CELLSTYLE_BEGIN
 90
        1
 91
        1
300
_TITLE
309
CELLSTYLE_END
300
CELLSTYLE
  1
TABLEFORMAT_BEGIN
 90
        5
170
     1
 91
        0
 92
        0
 62
   257
 93
        1
300
CONTENTFORMAT
  1
CONTENTFORMAT_BEGIN
 90
        0
 91
        0
 92
      512
 93
        0
300

 40
0.0
140
1.0
 94
        5
 62
     0
340
11
144
0.18
309
CONTENTFORMAT_END
171
     1
301
MARGIN
  1
CELLMARGIN_BEGIN
 40
0.06
 40
0.06
 40
0.06
 40
0.06
 40
0.18
 40
0.18
309
CELLMARGIN_END
 94
        6
 95
        1
302
GRIDFORMAT
  1
GRIDFORMAT_BEGIN
 90
        0
 91
        1
 62
     0
 92
       -2
340
0
 93
        0
 40
0.045
309
GRIDFORMAT_END
 95
        2
302
GRIDFORMAT
  1
GRIDFORMAT_BEGIN
 90
        0
 91
        1
 62
     0
 92
       -2
340
0
 93
        0
 40
0.045
309
GRIDFORMAT_END
 95
        4
302
GRIDFORMAT
  1
GRIDFORMAT_BEGIN
 90
        0
 91
        1
 62
     0
 92
       -2
340
0
 93
        0
 40
0.045
309
GRIDFORMAT_END
 95
        8
302
GRIDFORMAT
  1
GRIDFORMAT_BEGIN
 90
        0
 91
        1
 62
     0
 92
       -2
340
0
 93
        0
 40
0.045
309
GRIDFORMAT_END
 95
       16
302
GRIDFORMAT
  1
GRIDFORMAT_BEGIN
 90
        0
 91
        1
 62
     0
 92
       -2
340
0
 93
        0
 40
0.045
309
GRIDFORMAT_END
 95
       32
302
GRIDFORMAT
  1
GRIDFORMAT_BEGIN
 90
        0
 91
        1
 62
     0
 92
       -2
340
0
 93
        0
 40
0.045
309
GRIDFORMAT_END
309
TABLEFORMAT_END
  1
CELLSTYLE_BEGIN
 90
        2
 91
        1
300
_HEADER
309
CELLSTYLE_END
300
CELLSTYLE
  1
TABLEFORMAT_BEGIN
 90
        5
170
     1
 91
        0
 92
        0
 62
   257
 93
        1
300
CONTENTFORMAT
  1
CONTENTFORMAT_BEGIN
 90
        0
 91
        0
 92
      512
 93
        0
300

 40
0.0
140
1.0
 94
        2
 62
     0
340
11
144
0.18
309
CONTENTFORMAT_END
171
     1
301
MARGIN
  1
CELLMARGIN_BEGIN
 40
0.06
 40
0.06
 40
0.06
 40
0.06
 40
0.18
 40
0.18
309
CELLMARGIN_END
 94
        6
 95
        1
302
GRIDFORMAT
  1
GRIDFORMAT_BEGIN
 90
        0
 91
        1
 62
     0
 92
       -2
340
0
 93
        0
 40
0.045
309
GRIDFORMAT_END
 95
        2
302
GRIDFORMAT
  1
GRIDFORMAT_BEGIN
 90
        0
 91
        1
 62
     0
 92
       -2
340
0
 93
        0
 40
0.045
309
GRIDFORMAT_END
 95
        4
302
GRIDFORMAT
  1
GRIDFORMAT_BEGIN
 90
        0
 91
        1
 62
     0
 92
       -2
340
0
 93
        0
 40
0.045
309
GRIDFORMAT_END
 95
        8
302
GRIDFORMAT
  1
GRIDFORMAT_BEGIN
 90
        0
 91
        1
 62
     0
 92
       -2
340
0
 93
        0
 40
0.045
309
GRIDFORMAT_END
 95
       16
302
GRIDFORMAT
  1
GRIDFORMAT_BEGIN
 90
        0
 91
        1
 62
     0
 92
       -2
340
0
 93
        0
 40
0.045
309
GRIDFORMAT_END
 95
       32
302
GRIDFORMAT
  1
GRIDFORMAT_BEGIN
 90
        0
 91
        1
 62
     0
 92
       -2
340
0
 93
        0
 40
0.045
309
GRIDFORMAT_END
309
TABLEFORMAT_END
  1
CELLSTYLE_BEGIN
 90
        3
 91
        2
300
_DATA
309
CELLSTYLE_END
  0
XRECORD
  5
6896
102
{ACAD_REACTORS
330
6465
102
}
330
6465
100
AcDbXrecord
280
     1
102
ACAD_ROUNDTRIP_PRE2007_TABLESTYLE
 90
      512
 91
        0
  1

 92
      512
 93
        0
  2

 94
      512
 95
        0
  3

  0
XRECORD
  5
687B
102
{ACAD_REACTORS
330
687A
102
}
330
687A
100
AcDbXrecord
280
     1
102
RTVSPost2010Prop28
280
     1
102
RTVSPost2010PropOp28
 70
     1
102
RTVSPost2010Prop29
280
     1
102
RTVSPost2010PropOp29
 70
     1
102
RTVSPost2010Prop30
280
     0
102
RTVSPost2010PropOp30
 70
     1
102
RTVSPost2010Prop31
280
     0
102
RTVSPost2010PropOp31
 70
     1
102
RTVSPost2010Prop32
280
     0
102
RTVSPost2010PropOp32
 70
     1
102
RTVSPost2010Prop33
280
     0
102
RTVSPost2010PropOp33
 70
     1
102
RTVSPost2010Prop34
280
     0
102
RTVSPost2010PropOp34
 70
     1
102
RTVSPost2010Prop35
280
     0
102
RTVSPost2010PropOp35
 70
     1
102
RTVSPost2010Prop36
280
     0
102
RTVSPost2010PropOp36
 70
     1
102
RTVSPost2010Prop37
 90
       50
102
RTVSPost2010PropOp37
 70
     1
102
RTVSPost2010Prop38
140
0.0
102
RTVSPost2010PropOp38
 70
     1
102
RTVSPost2010Prop39
140
1.0
102
RTVSPost2010PropOp39
 70
     1
102
RTVSPost2010Prop40
 90
        0
102
RTVSPost2010PropOp40
 70
     1
102
RTVSPost2010Prop41ColorIndex
 90
       18
102
RTVSPost2010Prop41ColorRGB
 90
        0
102
RTVSPost2010PropOp41
 70
     1
102
RTVSPost2010Prop42
 90
       50
102
RTVSPost2010PropOp42
 70
     1
102
RTVSPost2010Prop43
 90
        3
102
RTVSPost2010PropOp43
 70
     1
102
RTVSPost2010Prop44ColorIndex
 90
        5
102
RTVSPost2010Prop44ColorRGB
 90
      255
102
RTVSPost2010PropOp44
 70
     1
102
RTVSPost2010Prop45
280
     0
102
RTVSPost2010PropOp45
 70
     1
102
RTVSPost2010Prop46
 90
       50
102
RTVSPost2010PropOp46
 70
     1
102
RTVSPost2010Prop47
 90
       50
102
RTVSPost2010PropOp47
 70
     1
102
RTVSPost2010Prop48
 90
       50
102
RTVSPost2010PropOp48
 70
     1
102
RTVSPost2010Prop49
280
     0
102
RTVSPost2010PropOp49
 70
     1
102
RTVSPost2010Prop50
 90
       50
102
RTVSPost2010PropOp50
 70
     1
102
RTVSPost2010Prop51ColorIndex
 90
      256
102
RTVSPost2010Prop51ColorRGB
 90
-16777216
102
RTVSPost2010PropOp51
 70
     0
102
RTVSPost2010Prop52
140
1.0
102
RTVSPost2010PropOp52
 70
     0
102
RTVSPost2010Prop53
 90
        2
102
RTVSPost2010PropOp53
 70
     1
102
RTVSPost2010Prop54
  1
strokes_ogs.tif
102
RTVSPost2010PropOp54
 70
     1
102
RTVSPost2010Prop55
280
     0
102
RTVSPost2010PropOp55
 70
     1
102
RTVSPost2010Prop56
140
1.0
102
RTVSPost2010PropOp56
 70
     1
102
RTVSPost2010Prop57
140
1.0
102
RTVSPost2010PropOp57
 70
     1
102
RTVSPropertyOp0
 70
     1
102
RTVSPropertyOp1
 70
     1
102
RTVSPropertyOp2
 70
     1
102
RTVSPropertyOp3
 70
     1
102
RTVSPropertyOp4
 70
     1
102
RTVSPropertyOp5
 70
     1
102
RTVSPropertyOp6
 70
     1
102
RTVSPropertyOp7
 70
     1
102
RTVSPropertyOp8
 70
     1
102
RTVSPropertyOp9
 70
     1
102
RTVSPropertyOp10
 70
     1
102
RTVSPropertyOp11
 70
     1
102
RTVSPropertyOp12
 70
     1
102
RTVSPropertyOp13
 70
     1
102
RTVSPropertyOp14
 70
     1
102
RTVSPropertyOp15
 70
     1
102
RTVSPropertyOp16
 70
     1
102
RTVSPropertyOp17
 70
     1
102
RTVSPropertyOp18
 70
     1
102
RTVSPropertyOp19
 70
     1
102
RTVSPropertyOp20
 70
     1
102
RTVSPropertyOp21
 70
     1
102
RTVSPropertyOp22
 70
     1
102
RTVSPropertyOp23
 70
     1
102
RTVSPropertyOp24
 70
     1
102
RTVSPropertyOp25
 70
     1
102
RTVSPropertyOp26
 70
     1
102
RTVSPropertyOp27
 70
     1
102
RTVSPropertyOp28
 70
     1
102
RTVSPropertyOp29
 70
     1
102
RTVSPropertyOp30
 70
     1
102
RTVSPropertyOp31
 70
     1
102
RTVSPropertyOp32
 70
     1
102
RTVSPropertyOp33
 70
     1
102
RTVSPropertyOp34
 70
     1
102
RTVSPropertyOp35
 70
     1
102
RTVSPropertyOp36
 70
     1
102
RTVSPropertyOp37
 70
     1
102
RTVSPropertyOp38
 70
     1
102
RTVSPropertyOp39
 70
     1
102
RTVSPropertyOp40
 70
     1
102
RTVSPropertyOp41
 70
     1
102
RTVSPropertyOp42
 70
     1
102
RTVSPropertyOp43
 70
     1
102
RTVSPropertyOp44
 70
     1
102
RTVSPropertyOp45
 70
     1
102
RTVSPropertyOp46
 70
     1
102
RTVSPropertyOp47
 70
     1
102
RTVSPropertyOp48
 70
     1
102
RTVSPropertyOp49
 70
     1
102
RTVSPropertyOp50
 70
     1
102
RTVSPropertyOp51
 70
     0
102
RTVSPropertyOp52
 70
     0
102
RTVSPropertyOp53
 70
     1
102
RTVSPropertyOp54
 70
     1
102
RTVSPropertyOp55
 70
     1
102
RTVSPropertyOp56
 70
     1
102
RTVSPropertyOp57
 70
     1
102
RTVSPropertyOp58
 70
     1
102
RTVSPropertyOp59
 70
     1
102
RTVSPropertyOp60
 70
     1
102
RTVSPropertyOp61
 70
     1
102
RTVSPropertyOp62
 70
     1
  0
XRECORD
  5
687F
102
{ACAD_REACTORS
330
687E
102
}
330
687E
100
AcDbXrecord
280
     1
102
RTVSPost2010Prop28
280
     0
102
RTVSPost2010PropOp28
 70
     1
102
RTVSPost2010Prop29
280
     1
102
RTVSPost2010PropOp29
 70
     1
102
RTVSPost2010Prop30
280
     1
102
RTVSPost2010PropOp30
 70
     1
102
RTVSPost2010Prop31
280
     0
102
RTVSPost2010PropOp31
 70
     1
102
RTVSPost2010Prop32
280
     0
102
RTVSPost2010PropOp32
 70
     1
102
RTVSPost2010Prop33
280
     0
102
RTVSPost2010PropOp33
 70
     1
102
RTVSPost2010Prop34
280
     0
102
RTVSPost2010PropOp34
 70
     1
102
RTVSPost2010Prop35
280
     0
102
RTVSPost2010PropOp35
 70
     1
102
RTVSPost2010Prop36
280
     0
102
RTVSPost2010PropOp36
 70
     1
102
RTVSPost2010Prop37
 90
       50
102
RTVSPost2010PropOp37
 70
     1
102
RTVSPost2010Prop38
140
0.0
102
RTVSPost2010PropOp38
 70
     1
102
RTVSPost2010Prop39
140
1.0
102
RTVSPost2010PropOp39
 70
     1
102
RTVSPost2010Prop40
 90
        0
102
RTVSPost2010PropOp40
 70
     1
102
RTVSPost2010Prop41ColorIndex
 90
       18
102
RTVSPost2010Prop41ColorRGB
 90
        0
102
RTVSPost2010PropOp41
 70
     1
102
RTVSPost2010Prop42
 90
       50
102
RTVSPost2010PropOp42
 70
     1
102
RTVSPost2010Prop43
 90
        3
102
RTVSPost2010PropOp43
 70
     1
102
RTVSPost2010Prop44ColorIndex
 90
        5
102
RTVSPost2010Prop44ColorRGB
 90
      255
102
RTVSPost2010PropOp44
 70
     1
102
RTVSPost2010Prop45
280
     0
102
RTVSPost2010PropOp45
 70
     1
102
RTVSPost2010Prop46
 90
       50
102
RTVSPost2010PropOp46
 70
     1
102
RTVSPost2010Prop47
 90
       50
102
RTVSPost2010PropOp47
 70
     1
102
RTVSPost2010Prop48
 90
       50
102
RTVSPost2010PropOp48
 70
     1
102
RTVSPost2010Prop49
280
     0
102
RTVSPost2010PropOp49
 70
     1
102
RTVSPost2010Prop50
 90
       50
102
RTVSPost2010PropOp50
 70
     1
102
RTVSPost2010Prop51ColorIndex
 90
      256
102
RTVSPost2010Prop51ColorRGB
 90
-16777216
102
RTVSPost2010PropOp51
 70
     0
102
RTVSPost2010Prop52
140
1.0
102
RTVSPost2010PropOp52
 70
     0
102
RTVSPost2010Prop53
 90
        2
102
RTVSPost2010PropOp53
 70
     1
102
RTVSPost2010Prop54
  1
strokes_ogs.tif
102
RTVSPost2010PropOp54
 70
     1
102
RTVSPost2010Prop55
280
     0
102
RTVSPost2010PropOp55
 70
     1
102
RTVSPost2010Prop56
140
1.0
102
RTVSPost2010PropOp56
 70
     1
102
RTVSPost2010Prop57
140
1.0
102
RTVSPost2010PropOp57
 70
     1
102
RTVSPropertyOp0
 70
     1
102
RTVSPropertyOp1
 70
     1
102
RTVSPropertyOp2
 70
     1
102
RTVSPropertyOp3
 70
     1
102
RTVSPropertyOp4
 70
     1
102
RTVSPropertyOp5
 70
     1
102
RTVSPropertyOp6
 70
     1
102
RTVSPropertyOp7
 70
     1
102
RTVSPropertyOp8
 70
     1
102
RTVSPropertyOp9
 70
     1
102
RTVSPropertyOp10
 70
     1
102
RTVSPropertyOp11
 70
     1
102
RTVSPropertyOp12
 70
     1
102
RTVSPropertyOp13
 70
     1
102
RTVSPropertyOp14
 70
     1
102
RTVSPropertyOp15
 70
     1
102
RTVSPropertyOp16
 70
     1
102
RTVSPropertyOp17
 70
     1
102
RTVSPropertyOp18
 70
     1
102
RTVSPropertyOp19
 70
     1
102
RTVSPropertyOp20
 70
     1
102
RTVSPropertyOp21
 70
     1
102
RTVSPropertyOp22
 70
     1
102
RTVSPropertyOp23
 70
     1
102
RTVSPropertyOp24
 70
     1
102
RTVSPropertyOp25
 70
     1
102
RTVSPropertyOp26
 70
     1
102
RTVSPropertyOp27
 70
     1
102
RTVSPropertyOp28
 70
     1
102
RTVSPropertyOp29
 70
     1
102
RTVSPropertyOp30
 70
     1
102
RTVSPropertyOp31
 70
     1
102
RTVSPropertyOp32
 70
     1
102
RTVSPropertyOp33
 70
     1
102
RTVSPropertyOp34
 70
     1
102
RTVSPropertyOp35
 70
     1
102
RTVSPropertyOp36
 70
     1
102
RTVSPropertyOp37
 70
     1
102
RTVSPropertyOp38
 70
     1
102
RTVSPropertyOp39
 70
     1
102
RTVSPropertyOp40
 70
     1
102
RTVSPropertyOp41
 70
     1
102
RTVSPropertyOp42
 70
     1
102
RTVSPropertyOp43
 70
     1
102
RTVSPropertyOp44
 70
     1
102
RTVSPropertyOp45
 70
     1
102
RTVSPropertyOp46
 70
     1
102
RTVSPropertyOp47
 70
     1
102
RTVSPropertyOp48
 70
     1
102
RTVSPropertyOp49
 70
     1
102
RTVSPropertyOp50
 70
     1
102
RTVSPropertyOp51
 70
     0
102
RTVSPropertyOp52
 70
     0
102
RTVSPropertyOp53
 70
     1
102
RTVSPropertyOp54
 70
     1
102
RTVSPropertyOp55
 70
     1
102
RTVSPropertyOp56
 70
     1
102
RTVSPropertyOp57
 70
     1
102
RTVSPropertyOp58
 70
     1
102
RTVSPropertyOp59
 70
     1
102
RTVSPropertyOp60
 70
     1
102
RTVSPropertyOp61
 70
     1
102
RTVSPropertyOp62
 70
     1
  0
XRECORD
  5
687D
102
{ACAD_REACTORS
330
687C
102
}
330
687C
100
AcDbXrecord
280
     1
102
RTVSPost2010Prop28
280
     0
102
RTVSPost2010PropOp28
 70
     1
102
RTVSPost2010Prop29
280
     1
102
RTVSPost2010PropOp29
 70
     1
102
RTVSPost2010Prop30
280
     1
102
RTVSPost2010PropOp30
 70
     1
102
RTVSPost2010Prop31
280
     0
102
RTVSPost2010PropOp31
 70
     1
102
RTVSPost2010Prop32
280
     0
102
RTVSPost2010PropOp32
 70
     1
102
RTVSPost2010Prop33
280
     0
102
RTVSPost2010PropOp33
 70
     1
102
RTVSPost2010Prop34
280
     0
102
RTVSPost2010PropOp34
 70
     1
102
RTVSPost2010Prop35
280
     0
102
RTVSPost2010PropOp35
 70
     1
102
RTVSPost2010Prop36
280
     0
102
RTVSPost2010PropOp36
 70
     1
102
RTVSPost2010Prop37
 90
       50
102
RTVSPost2010PropOp37
 70
     1
102
RTVSPost2010Prop38
140
0.0
102
RTVSPost2010PropOp38
 70
     1
102
RTVSPost2010Prop39
140
1.0
102
RTVSPost2010PropOp39
 70
     1
102
RTVSPost2010Prop40
 90
        0
102
RTVSPost2010PropOp40
 70
     1
102
RTVSPost2010Prop41ColorIndex
 90
       18
102
RTVSPost2010Prop41ColorRGB
 90
        0
102
RTVSPost2010PropOp41
 70
     1
102
RTVSPost2010Prop42
 90
       50
102
RTVSPost2010PropOp42
 70
     1
102
RTVSPost2010Prop43
 90
        3
102
RTVSPost2010PropOp43
 70
     1
102
RTVSPost2010Prop44ColorIndex
 90
        5
102
RTVSPost2010Prop44ColorRGB
 90
      255
102
RTVSPost2010PropOp44
 70
     1
102
RTVSPost2010Prop45
280
     0
102
RTVSPost2010PropOp45
 70
     1
102
RTVSPost2010Prop46
 90
       50
102
RTVSPost2010PropOp46
 70
     1
102
RTVSPost2010Prop47
 90
       50
102
RTVSPost2010PropOp47
 70
     1
102
RTVSPost2010Prop48
 90
       50
102
RTVSPost2010PropOp48
 70
     1
102
RTVSPost2010Prop49
280
     0
102
RTVSPost2010PropOp49
 70
     1
102
RTVSPost2010Prop50
 90
       50
102
RTVSPost2010PropOp50
 70
     1
102
RTVSPost2010Prop51ColorIndex
 90
      256
102
RTVSPost2010Prop51ColorRGB
 90
-16777216
102
RTVSPost2010PropOp51
 70
     0
102
RTVSPost2010Prop52
140
1.0
102
RTVSPost2010PropOp52
 70
     0
102
RTVSPost2010Prop53
 90
        2
102
RTVSPost2010PropOp53
 70
     1
102
RTVSPost2010Prop54
  1
strokes_ogs.tif
102
RTVSPost2010PropOp54
 70
     1
102
RTVSPost2010Prop55
280
     0
102
RTVSPost2010PropOp55
 70
     1
102
RTVSPost2010Prop56
140
1.0
102
RTVSPost2010PropOp56
 70
     1
102
RTVSPost2010Prop57
140
1.0
102
RTVSPost2010PropOp57
 70
     1
102
RTVSPropertyOp0
 70
     1
102
RTVSPropertyOp1
 70
     1
102
RTVSPropertyOp2
 70
     1
102
RTVSPropertyOp3
 70
     1
102
RTVSPropertyOp4
 70
     1
102
RTVSPropertyOp5
 70
     1
102
RTVSPropertyOp6
 70
     1
102
RTVSPropertyOp7
 70
     1
102
RTVSPropertyOp8
 70
     1
102
RTVSPropertyOp9
 70
     1
102
RTVSPropertyOp10
 70
     1
102
RTVSPropertyOp11
 70
     1
102
RTVSPropertyOp12
 70
     1
102
RTVSPropertyOp13
 70
     1
102
RTVSPropertyOp14
 70
     1
102
RTVSPropertyOp15
 70
     1
102
RTVSPropertyOp16
 70
     1
102
RTVSPropertyOp17
 70
     1
102
RTVSPropertyOp18
 70
     1
102
RTVSPropertyOp19
 70
     1
102
RTVSPropertyOp20
 70
     1
102
RTVSPropertyOp21
 70
     1
102
RTVSPropertyOp22
 70
     1
102
RTVSPropertyOp23
 70
     1
102
RTVSPropertyOp24
 70
     1
102
RTVSPropertyOp25
 70
     1
102
RTVSPropertyOp26
 70
     1
102
RTVSPropertyOp27
 70
     1
102
RTVSPropertyOp28
 70
     1
102
RTVSPropertyOp29
 70
     1
102
RTVSPropertyOp30
 70
     1
102
RTVSPropertyOp31
 70
     1
102
RTVSPropertyOp32
 70
     1
102
RTVSPropertyOp33
 70
     1
102
RTVSPropertyOp34
 70
     1
102
RTVSPropertyOp35
 70
     1
102
RTVSPropertyOp36
 70
     1
102
RTVSPropertyOp37
 70
     1
102
RTVSPropertyOp38
 70
     1
102
RTVSPropertyOp39
 70
     1
102
RTVSPropertyOp40
 70
     1
102
RTVSPropertyOp41
 70
     1
102
RTVSPropertyOp42
 70
     1
102
RTVSPropertyOp43
 70
     1
102
RTVSPropertyOp44
 70
     1
102
RTVSPropertyOp45
 70
     1
102
RTVSPropertyOp46
 70
     1
102
RTVSPropertyOp47
 70
     1
102
RTVSPropertyOp48
 70
     1
102
RTVSPropertyOp49
 70
     1
102
RTVSPropertyOp50
 70
     1
102
RTVSPropertyOp51
 70
     0
102
RTVSPropertyOp52
 70
     0
102
RTVSPropertyOp53
 70
     1
102
RTVSPropertyOp54
 70
     1
102
RTVSPropertyOp55
 70
     1
102
RTVSPropertyOp56
 70
     1
102
RTVSPropertyOp57
 70
     1
102
RTVSPropertyOp58
 70
     1
102
RTVSPropertyOp59
 70
     1
102
RTVSPropertyOp60
 70
     1
102
RTVSPropertyOp61
 70
     1
102
RTVSPropertyOp62
 70
     1
  0
XRECORD
  5
6879
102
{ACAD_REACTORS
330
6878
102
}
330
6878
100
AcDbXrecord
280
     1
102
RTVSPost2010Prop28
280
     0
102
RTVSPost2010PropOp28
 70
     1
102
RTVSPost2010Prop29
280
     1
102
RTVSPost2010PropOp29
 70
     1
102
RTVSPost2010Prop30
280
     1
102
RTVSPost2010PropOp30
 70
     1
102
RTVSPost2010Prop31
280
     0
102
RTVSPost2010PropOp31
 70
     1
102
RTVSPost2010Prop32
280
     0
102
RTVSPost2010PropOp32
 70
     1
102
RTVSPost2010Prop33
280
     0
102
RTVSPost2010PropOp33
 70
     1
102
RTVSPost2010Prop34
280
     0
102
RTVSPost2010PropOp34
 70
     1
102
RTVSPost2010Prop35
280
     0
102
RTVSPost2010PropOp35
 70
     1
102
RTVSPost2010Prop36
280
     0
102
RTVSPost2010PropOp36
 70
     1
102
RTVSPost2010Prop37
 90
       50
102
RTVSPost2010PropOp37
 70
     1
102
RTVSPost2010Prop38
140
0.0
102
RTVSPost2010PropOp38
 70
     1
102
RTVSPost2010Prop39
140
1.0
102
RTVSPost2010PropOp39
 70
     1
102
RTVSPost2010Prop40
 90
        0
102
RTVSPost2010PropOp40
 70
     1
102
RTVSPost2010Prop41ColorIndex
 90
       18
102
RTVSPost2010Prop41ColorRGB
 90
        0
102
RTVSPost2010PropOp41
 70
     1
102
RTVSPost2010Prop42
 90
       50
102
RTVSPost2010PropOp42
 70
     1
102
RTVSPost2010Prop43
 90
        3
102
RTVSPost2010PropOp43
 70
     1
102
RTVSPost2010Prop44ColorIndex
 90
        5
102
RTVSPost2010Prop44ColorRGB
 90
      255
102
RTVSPost2010PropOp44
 70
     1
102
RTVSPost2010Prop45
280
     0
102
RTVSPost2010PropOp45
 70
     1
102
RTVSPost2010Prop46
 90
       50
102
RTVSPost2010PropOp46
 70
     1
102
RTVSPost2010Prop47
 90
       50
102
RTVSPost2010PropOp47
 70
     1
102
RTVSPost2010Prop48
 90
       50
102
RTVSPost2010PropOp48
 70
     1
102
RTVSPost2010Prop49
280
     0
102
RTVSPost2010PropOp49
 70
     1
102
RTVSPost2010Prop50
 90
       50
102
RTVSPost2010PropOp50
 70
     1
102
RTVSPost2010Prop51ColorIndex
 90
      256
102
RTVSPost2010Prop51ColorRGB
 90
-16777216
102
RTVSPost2010PropOp51
 70
     0
102
RTVSPost2010Prop52
140
1.0
102
RTVSPost2010PropOp52
 70
     0
102
RTVSPost2010Prop53
 90
        2
102
RTVSPost2010PropOp53
 70
     1
102
RTVSPost2010Prop54
  1
strokes_ogs.tif
102
RTVSPost2010PropOp54
 70
     1
102
RTVSPost2010Prop55
280
     0
102
RTVSPost2010PropOp55
 70
     1
102
RTVSPost2010Prop56
140
1.0
102
RTVSPost2010PropOp56
 70
     1
102
RTVSPost2010Prop57
140
1.0
102
RTVSPost2010PropOp57
 70
     1
102
RTVSPropertyOp0
 70
     1
102
RTVSPropertyOp1
 70
     1
102
RTVSPropertyOp2
 70
     1
102
RTVSPropertyOp3
 70
     1
102
RTVSPropertyOp4
 70
     1
102
RTVSPropertyOp5
 70
     1
102
RTVSPropertyOp6
 70
     1
102
RTVSPropertyOp7
 70
     1
102
RTVSPropertyOp8
 70
     1
102
RTVSPropertyOp9
 70
     1
102
RTVSPropertyOp10
 70
     1
102
RTVSPropertyOp11
 70
     1
102
RTVSPropertyOp12
 70
     1
102
RTVSPropertyOp13
 70
     1
102
RTVSPropertyOp14
 70
     1
102
RTVSPropertyOp15
 70
     1
102
RTVSPropertyOp16
 70
     1
102
RTVSPropertyOp17
 70
     1
102
RTVSPropertyOp18
 70
     1
102
RTVSPropertyOp19
 70
     1
102
RTVSPropertyOp20
 70
     1
102
RTVSPropertyOp21
 70
     1
102
RTVSPropertyOp22
 70
     1
102
RTVSPropertyOp23
 70
     1
102
RTVSPropertyOp24
 70
     1
102
RTVSPropertyOp25
 70
     1
102
RTVSPropertyOp26
 70
     1
102
RTVSPropertyOp27
 70
     1
102
RTVSPropertyOp28
 70
     1
102
RTVSPropertyOp29
 70
     1
102
RTVSPropertyOp30
 70
     1
102
RTVSPropertyOp31
 70
     1
102
RTVSPropertyOp32
 70
     1
102
RTVSPropertyOp33
 70
     1
102
RTVSPropertyOp34
 70
     1
102
RTVSPropertyOp35
 70
     1
102
RTVSPropertyOp36
 70
     1
102
RTVSPropertyOp37
 70
     1
102
RTVSPropertyOp38
 70
     1
102
RTVSPropertyOp39
 70
     1
102
RTVSPropertyOp40
 70
     1
102
RTVSPropertyOp41
 70
     1
102
RTVSPropertyOp42
 70
     1
102
RTVSPropertyOp43
 70
     1
102
RTVSPropertyOp44
 70
     1
102
RTVSPropertyOp45
 70
     1
102
RTVSPropertyOp46
 70
     1
102
RTVSPropertyOp47
 70
     1
102
RTVSPropertyOp48
 70
     1
102
RTVSPropertyOp49
 70
     1
102
RTVSPropertyOp50
 70
     1
102
RTVSPropertyOp51
 70
     0
102
RTVSPropertyOp52
 70
     0
102
RTVSPropertyOp53
 70
     1
102
RTVSPropertyOp54
 70
     1
102
RTVSPropertyOp55
 70
     1
102
RTVSPropertyOp56
 70
     1
102
RTVSPropertyOp57
 70
     1
102
RTVSPropertyOp58
 70
     1
102
RTVSPropertyOp59
 70
     1
102
RTVSPropertyOp60
 70
     1
102
RTVSPropertyOp61
 70
     1
102
RTVSPropertyOp62
 70
     1
  0
XRECORD
  5
6887
102
{ACAD_REACTORS
330
6886
102
}
330
6886
100
AcDbXrecord
280
     1
102
RTVSPost2010Prop28
280
     0
102
RTVSPost2010PropOp28
 70
     1
102
RTVSPost2010Prop29
280
     1
102
RTVSPost2010PropOp29
 70
     1
102
RTVSPost2010Prop30
280
     1
102
RTVSPost2010PropOp30
 70
     1
102
RTVSPost2010Prop31
280
     0
102
RTVSPost2010PropOp31
 70
     1
102
RTVSPost2010Prop32
280
     0
102
RTVSPost2010PropOp32
 70
     1
102
RTVSPost2010Prop33
280
     0
102
RTVSPost2010PropOp33
 70
     1
102
RTVSPost2010Prop34
280
     0
102
RTVSPost2010PropOp34
 70
     1
102
RTVSPost2010Prop35
280
     0
102
RTVSPost2010PropOp35
 70
     1
102
RTVSPost2010Prop36
280
     0
102
RTVSPost2010PropOp36
 70
     1
102
RTVSPost2010Prop37
 90
       50
102
RTVSPost2010PropOp37
 70
     1
102
RTVSPost2010Prop38
140
0.0
102
RTVSPost2010PropOp38
 70
     1
102
RTVSPost2010Prop39
140
1.0
102
RTVSPost2010PropOp39
 70
     1
102
RTVSPost2010Prop40
 90
        0
102
RTVSPost2010PropOp40
 70
     1
102
RTVSPost2010Prop41ColorIndex
 90
       18
102
RTVSPost2010Prop41ColorRGB
 90
        0
102
RTVSPost2010PropOp41
 70
     1
102
RTVSPost2010Prop42
 90
       50
102
RTVSPost2010PropOp42
 70
     1
102
RTVSPost2010Prop43
 90
        3
102
RTVSPost2010PropOp43
 70
     1
102
RTVSPost2010Prop44ColorIndex
 90
        5
102
RTVSPost2010Prop44ColorRGB
 90
      255
102
RTVSPost2010PropOp44
 70
     1
102
RTVSPost2010Prop45
280
     0
102
RTVSPost2010PropOp45
 70
     1
102
RTVSPost2010Prop46
 90
       50
102
RTVSPost2010PropOp46
 70
     1
102
RTVSPost2010Prop47
 90
       50
102
RTVSPost2010PropOp47
 70
     1
102
RTVSPost2010Prop48
 90
       50
102
RTVSPost2010PropOp48
 70
     1
102
RTVSPost2010Prop49
280
     0
102
RTVSPost2010PropOp49
 70
     1
102
RTVSPost2010Prop50
 90
       50
102
RTVSPost2010PropOp50
 70
     1
102
RTVSPost2010Prop51ColorIndex
 90
      256
102
RTVSPost2010Prop51ColorRGB
 90
-16777216
102
RTVSPost2010PropOp51
 70
     0
102
RTVSPost2010Prop52
140
1.0
102
RTVSPost2010PropOp52
 70
     0
102
RTVSPost2010Prop53
 90
        2
102
RTVSPost2010PropOp53
 70
     1
102
RTVSPost2010Prop54
  1
strokes_ogs.tif
102
RTVSPost2010PropOp54
 70
     1
102
RTVSPost2010Prop55
280
     0
102
RTVSPost2010PropOp55
 70
     1
102
RTVSPost2010Prop56
140
1.0
102
RTVSPost2010PropOp56
 70
     1
102
RTVSPost2010Prop57
140
1.0
102
RTVSPost2010PropOp57
 70
     1
102
RTVSPropertyOp0
 70
     1
102
RTVSPropertyOp1
 70
     1
102
RTVSPropertyOp2
 70
     1
102
RTVSPropertyOp3
 70
     1
102
RTVSPropertyOp4
 70
     1
102
RTVSPropertyOp5
 70
     1
102
RTVSPropertyOp6
 70
     1
102
RTVSPropertyOp7
 70
     1
102
RTVSPropertyOp8
 70
     1
102
RTVSPropertyOp9
 70
     1
102
RTVSPropertyOp10
 70
     1
102
RTVSPropertyOp11
 70
     1
102
RTVSPropertyOp12
 70
     1
102
RTVSPropertyOp13
 70
     1
102
RTVSPropertyOp14
 70
     1
102
RTVSPropertyOp15
 70
     1
102
RTVSPropertyOp16
 70
     1
102
RTVSPropertyOp17
 70
     1
102
RTVSPropertyOp18
 70
     1
102
RTVSPropertyOp19
 70
     1
102
RTVSPropertyOp20
 70
     1
102
RTVSPropertyOp21
 70
     1
102
RTVSPropertyOp22
 70
     1
102
RTVSPropertyOp23
 70
     1
102
RTVSPropertyOp24
 70
     1
102
RTVSPropertyOp25
 70
     1
102
RTVSPropertyOp26
 70
     1
102
RTVSPropertyOp27
 70
     1
102
RTVSPropertyOp28
 70
     1
102
RTVSPropertyOp29
 70
     1
102
RTVSPropertyOp30
 70
     1
102
RTVSPropertyOp31
 70
     1
102
RTVSPropertyOp32
 70
     1
102
RTVSPropertyOp33
 70
     1
102
RTVSPropertyOp34
 70
     1
102
RTVSPropertyOp35
 70
     1
102
RTVSPropertyOp36
 70
     1
102
RTVSPropertyOp37
 70
     1
102
RTVSPropertyOp38
 70
     1
102
RTVSPropertyOp39
 70
     1
102
RTVSPropertyOp40
 70
     1
102
RTVSPropertyOp41
 70
     1
102
RTVSPropertyOp42
 70
     1
102
RTVSPropertyOp43
 70
     1
102
RTVSPropertyOp44
 70
     1
102
RTVSPropertyOp45
 70
     1
102
RTVSPropertyOp46
 70
     1
102
RTVSPropertyOp47
 70
     1
102
RTVSPropertyOp48
 70
     1
102
RTVSPropertyOp49
 70
     1
102
RTVSPropertyOp50
 70
     1
102
RTVSPropertyOp51
 70
     0
102
RTVSPropertyOp52
 70
     0
102
RTVSPropertyOp53
 70
     1
102
RTVSPropertyOp54
 70
     1
102
RTVSPropertyOp55
 70
     1
102
RTVSPropertyOp56
 70
     1
102
RTVSPropertyOp57
 70
     1
102
RTVSPropertyOp58
 70
     1
102
RTVSPropertyOp59
 70
     1
102
RTVSPropertyOp60
 70
     1
102
RTVSPropertyOp61
 70
     1
102
RTVSPropertyOp62
 70
     1
  0
XRECORD
  5
688F
102
{ACAD_REACTORS
330
688E
102
}
330
688E
100
AcDbXrecord
280
     1
102
RTVSPost2010Prop28
280
     0
102
RTVSPost2010PropOp28
 70
     1
102
RTVSPost2010Prop29
280
     1
102
RTVSPost2010PropOp29
 70
     1
102
RTVSPost2010Prop30
280
     1
102
RTVSPost2010PropOp30
 70
     1
102
RTVSPost2010Prop31
280
     0
102
RTVSPost2010PropOp31
 70
     1
102
RTVSPost2010Prop32
280
     0
102
RTVSPost2010PropOp32
 70
     1
102
RTVSPost2010Prop33
280
     0
102
RTVSPost2010PropOp33
 70
     1
102
RTVSPost2010Prop34
280
     0
102
RTVSPost2010PropOp34
 70
     1
102
RTVSPost2010Prop35
280
     0
102
RTVSPost2010PropOp35
 70
     1
102
RTVSPost2010Prop36
280
     0
102
RTVSPost2010PropOp36
 70
     1
102
RTVSPost2010Prop37
 90
       50
102
RTVSPost2010PropOp37
 70
     1
102
RTVSPost2010Prop38
140
0.0
102
RTVSPost2010PropOp38
 70
     1
102
RTVSPost2010Prop39
140
1.0
102
RTVSPost2010PropOp39
 70
     1
102
RTVSPost2010Prop40
 90
        0
102
RTVSPost2010PropOp40
 70
     1
102
RTVSPost2010Prop41ColorIndex
 90
       18
102
RTVSPost2010Prop41ColorRGB
 90
        0
102
RTVSPost2010PropOp41
 70
     1
102
RTVSPost2010Prop42
 90
       50
102
RTVSPost2010PropOp42
 70
     1
102
RTVSPost2010Prop43
 90
        3
102
RTVSPost2010PropOp43
 70
     1
102
RTVSPost2010Prop44ColorIndex
 90
        5
102
RTVSPost2010Prop44ColorRGB
 90
      255
102
RTVSPost2010PropOp44
 70
     1
102
RTVSPost2010Prop45
280
     0
102
RTVSPost2010PropOp45
 70
     1
102
RTVSPost2010Prop46
 90
       50
102
RTVSPost2010PropOp46
 70
     1
102
RTVSPost2010Prop47
 90
       50
102
RTVSPost2010PropOp47
 70
     1
102
RTVSPost2010Prop48
 90
       50
102
RTVSPost2010PropOp48
 70
     1
102
RTVSPost2010Prop49
280
     0
102
RTVSPost2010PropOp49
 70
     1
102
RTVSPost2010Prop50
 90
       50
102
RTVSPost2010PropOp50
 70
     1
102
RTVSPost2010Prop51ColorIndex
 90
      256
102
RTVSPost2010Prop51ColorRGB
 90
-16777216
102
RTVSPost2010PropOp51
 70
     0
102
RTVSPost2010Prop52
140
1.0
102
RTVSPost2010PropOp52
 70
     0
102
RTVSPost2010Prop53
 90
        2
102
RTVSPost2010PropOp53
 70
     1
102
RTVSPost2010Prop54
  1
strokes_ogs.tif
102
RTVSPost2010PropOp54
 70
     1
102
RTVSPost2010Prop55
280
     0
102
RTVSPost2010PropOp55
 70
     1
102
RTVSPost2010Prop56
140
1.0
102
RTVSPost2010PropOp56
 70
     1
102
RTVSPost2010Prop57
140
1.0
102
RTVSPost2010PropOp57
 70
     1
102
RTVSPropertyOp0
 70
     1
102
RTVSPropertyOp1
 70
     1
102
RTVSPropertyOp2
 70
     1
102
RTVSPropertyOp3
 70
     1
102
RTVSPropertyOp4
 70
     1
102
RTVSPropertyOp5
 70
     1
102
RTVSPropertyOp6
 70
     1
102
RTVSPropertyOp7
 70
     1
102
RTVSPropertyOp8
 70
     1
102
RTVSPropertyOp9
 70
     1
102
RTVSPropertyOp10
 70
     1
102
RTVSPropertyOp11
 70
     1
102
RTVSPropertyOp12
 70
     1
102
RTVSPropertyOp13
 70
     1
102
RTVSPropertyOp14
 70
     1
102
RTVSPropertyOp15
 70
     1
102
RTVSPropertyOp16
 70
     1
102
RTVSPropertyOp17
 70
     1
102
RTVSPropertyOp18
 70
     1
102
RTVSPropertyOp19
 70
     1
102
RTVSPropertyOp20
 70
     1
102
RTVSPropertyOp21
 70
     1
102
RTVSPropertyOp22
 70
     1
102
RTVSPropertyOp23
 70
     1
102
RTVSPropertyOp24
 70
     1
102
RTVSPropertyOp25
 70
     1
102
RTVSPropertyOp26
 70
     1
102
RTVSPropertyOp27
 70
     1
102
RTVSPropertyOp28
 70
     1
102
RTVSPropertyOp29
 70
     1
102
RTVSPropertyOp30
 70
     1
102
RTVSPropertyOp31
 70
     1
102
RTVSPropertyOp32
 70
     1
102
RTVSPropertyOp33
 70
     1
102
RTVSPropertyOp34
 70
     1
102
RTVSPropertyOp35
 70
     1
102
RTVSPropertyOp36
 70
     1
102
RTVSPropertyOp37
 70
     1
102
RTVSPropertyOp38
 70
     1
102
RTVSPropertyOp39
 70
     1
102
RTVSPropertyOp40
 70
     1
102
RTVSPropertyOp41
 70
     1
102
RTVSPropertyOp42
 70
     1
102
RTVSPropertyOp43
 70
     1
102
RTVSPropertyOp44
 70
     1
102
RTVSPropertyOp45
 70
     1
102
RTVSPropertyOp46
 70
     1
102
RTVSPropertyOp47
 70
     1
102
RTVSPropertyOp48
 70
     1
102
RTVSPropertyOp49
 70
     1
102
RTVSPropertyOp50
 70
     1
102
RTVSPropertyOp51
 70
     0
102
RTVSPropertyOp52
 70
     0
102
RTVSPropertyOp53
 70
     1
102
RTVSPropertyOp54
 70
     1
102
RTVSPropertyOp55
 70
     1
102
RTVSPropertyOp56
 70
     1
102
RTVSPropertyOp57
 70
     1
102
RTVSPropertyOp58
 70
     1
102
RTVSPropertyOp59
 70
     1
102
RTVSPropertyOp60
 70
     1
102
RTVSPropertyOp61
 70
     1
102
RTVSPropertyOp62
 70
     1
  0
XRECORD
  5
6881
102
{ACAD_REACTORS
330
6880
102
}
330
6880
100
AcDbXrecord
280
     1
102
RTVSPost2010Prop28
280
     0
102
RTVSPost2010PropOp28
 70
     1
102
RTVSPost2010Prop29
280
     1
102
RTVSPost2010PropOp29
 70
     1
102
RTVSPost2010Prop30
280
     1
102
RTVSPost2010PropOp30
 70
     1
102
RTVSPost2010Prop31
280
     0
102
RTVSPost2010PropOp31
 70
     1
102
RTVSPost2010Prop32
280
     0
102
RTVSPost2010PropOp32
 70
     1
102
RTVSPost2010Prop33
280
     0
102
RTVSPost2010PropOp33
 70
     1
102
RTVSPost2010Prop34
280
     0
102
RTVSPost2010PropOp34
 70
     1
102
RTVSPost2010Prop35
280
     0
102
RTVSPost2010PropOp35
 70
     1
102
RTVSPost2010Prop36
280
     0
102
RTVSPost2010PropOp36
 70
     1
102
RTVSPost2010Prop37
 90
       50
102
RTVSPost2010PropOp37
 70
     1
102
RTVSPost2010Prop38
140
0.0
102
RTVSPost2010PropOp38
 70
     1
102
RTVSPost2010Prop39
140
1.0
102
RTVSPost2010PropOp39
 70
     1
102
RTVSPost2010Prop40
 90
        0
102
RTVSPost2010PropOp40
 70
     1
102
RTVSPost2010Prop41ColorIndex
 90
       18
102
RTVSPost2010Prop41ColorRGB
 90
        0
102
RTVSPost2010PropOp41
 70
     1
102
RTVSPost2010Prop42
 90
       50
102
RTVSPost2010PropOp42
 70
     1
102
RTVSPost2010Prop43
 90
        3
102
RTVSPost2010PropOp43
 70
     1
102
RTVSPost2010Prop44ColorIndex
 90
        5
102
RTVSPost2010Prop44ColorRGB
 90
      255
102
RTVSPost2010PropOp44
 70
     1
102
RTVSPost2010Prop45
280
     0
102
RTVSPost2010PropOp45
 70
     1
102
RTVSPost2010Prop46
 90
       50
102
RTVSPost2010PropOp46
 70
     1
102
RTVSPost2010Prop47
 90
       50
102
RTVSPost2010PropOp47
 70
     1
102
RTVSPost2010Prop48
 90
       50
102
RTVSPost2010PropOp48
 70
     1
102
RTVSPost2010Prop49
280
     0
102
RTVSPost2010PropOp49
 70
     1
102
RTVSPost2010Prop50
 90
       50
102
RTVSPost2010PropOp50
 70
     1
102
RTVSPost2010Prop51ColorIndex
 90
      256
102
RTVSPost2010Prop51ColorRGB
 90
-16777216
102
RTVSPost2010PropOp51
 70
     0
102
RTVSPost2010Prop52
140
1.0
102
RTVSPost2010PropOp52
 70
     0
102
RTVSPost2010Prop53
 90
        2
102
RTVSPost2010PropOp53
 70
     1
102
RTVSPost2010Prop54
  1
strokes_ogs.tif
102
RTVSPost2010PropOp54
 70
     1
102
RTVSPost2010Prop55
280
     0
102
RTVSPost2010PropOp55
 70
     1
102
RTVSPost2010Prop56
140
1.0
102
RTVSPost2010PropOp56
 70
     1
102
RTVSPost2010Prop57
140
1.0
102
RTVSPost2010PropOp57
 70
     1
102
RTVSPropertyOp0
 70
     1
102
RTVSPropertyOp1
 70
     1
102
RTVSPropertyOp2
 70
     1
102
RTVSPropertyOp3
 70
     1
102
RTVSPropertyOp4
 70
     1
102
RTVSPropertyOp5
 70
     1
102
RTVSPropertyOp6
 70
     1
102
RTVSPropertyOp7
 70
     1
102
RTVSPropertyOp8
 70
     1
102
RTVSPropertyOp9
 70
     1
102
RTVSPropertyOp10
 70
     1
102
RTVSPropertyOp11
 70
     1
102
RTVSPropertyOp12
 70
     1
102
RTVSPropertyOp13
 70
     1
102
RTVSPropertyOp14
 70
     1
102
RTVSPropertyOp15
 70
     1
102
RTVSPropertyOp16
 70
     1
102
RTVSPropertyOp17
 70
     1
102
RTVSPropertyOp18
 70
     1
102
RTVSPropertyOp19
 70
     1
102
RTVSPropertyOp20
 70
     1
102
RTVSPropertyOp21
 70
     1
102
RTVSPropertyOp22
 70
     1
102
RTVSPropertyOp23
 70
     1
102
RTVSPropertyOp24
 70
     1
102
RTVSPropertyOp25
 70
     1
102
RTVSPropertyOp26
 70
     1
102
RTVSPropertyOp27
 70
     1
102
RTVSPropertyOp28
 70
     1
102
RTVSPropertyOp29
 70
     1
102
RTVSPropertyOp30
 70
     1
102
RTVSPropertyOp31
 70
     1
102
RTVSPropertyOp32
 70
     1
102
RTVSPropertyOp33
 70
     1
102
RTVSPropertyOp34
 70
     1
102
RTVSPropertyOp35
 70
     1
102
RTVSPropertyOp36
 70
     1
102
RTVSPropertyOp37
 70
     1
102
RTVSPropertyOp38
 70
     1
102
RTVSPropertyOp39
 70
     1
102
RTVSPropertyOp40
 70
     1
102
RTVSPropertyOp41
 70
     1
102
RTVSPropertyOp42
 70
     1
102
RTVSPropertyOp43
 70
     1
102
RTVSPropertyOp44
 70
     1
102
RTVSPropertyOp45
 70
     1
102
RTVSPropertyOp46
 70
     1
102
RTVSPropertyOp47
 70
     1
102
RTVSPropertyOp48
 70
     1
102
RTVSPropertyOp49
 70
     1
102
RTVSPropertyOp50
 70
     1
102
RTVSPropertyOp51
 70
     0
102
RTVSPropertyOp52
 70
     0
102
RTVSPropertyOp53
 70
     1
102
RTVSPropertyOp54
 70
     1
102
RTVSPropertyOp55
 70
     1
102
RTVSPropertyOp56
 70
     1
102
RTVSPropertyOp57
 70
     1
102
RTVSPropertyOp58
 70
     1
102
RTVSPropertyOp59
 70
     1
102
RTVSPropertyOp60
 70
     1
102
RTVSPropertyOp61
 70
     1
102
RTVSPropertyOp62
 70
     1
  0
XRECORD
  5
6885
102
{ACAD_REACTORS
330
6884
102
}
330
6884
100
AcDbXrecord
280
     1
102
RTVSPost2010Prop28
280
     0
102
RTVSPost2010PropOp28
 70
     1
102
RTVSPost2010Prop29
280
     1
102
RTVSPost2010PropOp29
 70
     1
102
RTVSPost2010Prop30
280
     1
102
RTVSPost2010PropOp30
 70
     1
102
RTVSPost2010Prop31
280
     0
102
RTVSPost2010PropOp31
 70
     1
102
RTVSPost2010Prop32
280
     0
102
RTVSPost2010PropOp32
 70
     1
102
RTVSPost2010Prop33
280
     0
102
RTVSPost2010PropOp33
 70
     1
102
RTVSPost2010Prop34
280
     0
102
RTVSPost2010PropOp34
 70
     1
102
RTVSPost2010Prop35
280
     0
102
RTVSPost2010PropOp35
 70
     1
102
RTVSPost2010Prop36
280
     0
102
RTVSPost2010PropOp36
 70
     1
102
RTVSPost2010Prop37
 90
       50
102
RTVSPost2010PropOp37
 70
     1
102
RTVSPost2010Prop38
140
0.0
102
RTVSPost2010PropOp38
 70
     1
102
RTVSPost2010Prop39
140
1.0
102
RTVSPost2010PropOp39
 70
     1
102
RTVSPost2010Prop40
 90
        0
102
RTVSPost2010PropOp40
 70
     1
102
RTVSPost2010Prop41ColorIndex
 90
       18
102
RTVSPost2010Prop41ColorRGB
 90
        0
102
RTVSPost2010PropOp41
 70
     1
102
RTVSPost2010Prop42
 90
       50
102
RTVSPost2010PropOp42
 70
     1
102
RTVSPost2010Prop43
 90
        3
102
RTVSPost2010PropOp43
 70
     1
102
RTVSPost2010Prop44ColorIndex
 90
        5
102
RTVSPost2010Prop44ColorRGB
 90
      255
102
RTVSPost2010PropOp44
 70
     1
102
RTVSPost2010Prop45
280
     0
102
RTVSPost2010PropOp45
 70
     1
102
RTVSPost2010Prop46
 90
       50
102
RTVSPost2010PropOp46
 70
     1
102
RTVSPost2010Prop47
 90
       50
102
RTVSPost2010PropOp47
 70
     1
102
RTVSPost2010Prop48
 90
       50
102
RTVSPost2010PropOp48
 70
     1
102
RTVSPost2010Prop49
280
     0
102
RTVSPost2010PropOp49
 70
     1
102
RTVSPost2010Prop50
 90
       50
102
RTVSPost2010PropOp50
 70
     1
102
RTVSPost2010Prop51ColorIndex
 90
      256
102
RTVSPost2010Prop51ColorRGB
 90
-16777216
102
RTVSPost2010PropOp51
 70
     0
102
RTVSPost2010Prop52
140
1.0
102
RTVSPost2010PropOp52
 70
     0
102
RTVSPost2010Prop53
 90
        2
102
RTVSPost2010PropOp53
 70
     1
102
RTVSPost2010Prop54
  1
strokes_ogs.tif
102
RTVSPost2010PropOp54
 70
     1
102
RTVSPost2010Prop55
280
     0
102
RTVSPost2010PropOp55
 70
     1
102
RTVSPost2010Prop56
140
1.0
102
RTVSPost2010PropOp56
 70
     1
102
RTVSPost2010Prop57
140
1.0
102
RTVSPost2010PropOp57
 70
     1
102
RTVSPropertyOp0
 70
     1
102
RTVSPropertyOp1
 70
     1
102
RTVSPropertyOp2
 70
     1
102
RTVSPropertyOp3
 70
     1
102
RTVSPropertyOp4
 70
     1
102
RTVSPropertyOp5
 70
     1
102
RTVSPropertyOp6
 70
     1
102
RTVSPropertyOp7
 70
     1
102
RTVSPropertyOp8
 70
     1
102
RTVSPropertyOp9
 70
     1
102
RTVSPropertyOp10
 70
     1
102
RTVSPropertyOp11
 70
     1
102
RTVSPropertyOp12
 70
     1
102
RTVSPropertyOp13
 70
     1
102
RTVSPropertyOp14
 70
     1
102
RTVSPropertyOp15
 70
     1
102
RTVSPropertyOp16
 70
     1
102
RTVSPropertyOp17
 70
     1
102
RTVSPropertyOp18
 70
     1
102
RTVSPropertyOp19
 70
     1
102
RTVSPropertyOp20
 70
     1
102
RTVSPropertyOp21
 70
     1
102
RTVSPropertyOp22
 70
     1
102
RTVSPropertyOp23
 70
     1
102
RTVSPropertyOp24
 70
     1
102
RTVSPropertyOp25
 70
     1
102
RTVSPropertyOp26
 70
     1
102
RTVSPropertyOp27
 70
     1
102
RTVSPropertyOp28
 70
     1
102
RTVSPropertyOp29
 70
     1
102
RTVSPropertyOp30
 70
     1
102
RTVSPropertyOp31
 70
     1
102
RTVSPropertyOp32
 70
     1
102
RTVSPropertyOp33
 70
     1
102
RTVSPropertyOp34
 70
     1
102
RTVSPropertyOp35
 70
     1
102
RTVSPropertyOp36
 70
     1
102
RTVSPropertyOp37
 70
     1
102
RTVSPropertyOp38
 70
     1
102
RTVSPropertyOp39
 70
     1
102
RTVSPropertyOp40
 70
     1
102
RTVSPropertyOp41
 70
     1
102
RTVSPropertyOp42
 70
     1
102
RTVSPropertyOp43
 70
     1
102
RTVSPropertyOp44
 70
     1
102
RTVSPropertyOp45
 70
     1
102
RTVSPropertyOp46
 70
     1
102
RTVSPropertyOp47
 70
     1
102
RTVSPropertyOp48
 70
     1
102
RTVSPropertyOp49
 70
     1
102
RTVSPropertyOp50
 70
     1
102
RTVSPropertyOp51
 70
     0
102
RTVSPropertyOp52
 70
     0
102
RTVSPropertyOp53
 70
     1
102
RTVSPropertyOp54
 70
     1
102
RTVSPropertyOp55
 70
     1
102
RTVSPropertyOp56
 70
     1
102
RTVSPropertyOp57
 70
     1
102
RTVSPropertyOp58
 70
     1
102
RTVSPropertyOp59
 70
     1
102
RTVSPropertyOp60
 70
     1
102
RTVSPropertyOp61
 70
     1
102
RTVSPropertyOp62
 70
     1
  0
XRECORD
  5
6895
102
{ACAD_REACTORS
330
6894
102
}
330
6894
100
AcDbXrecord
280
     1
102
RTVSPost2010Prop28
280
     0
102
RTVSPost2010PropOp28
 70
     1
102
RTVSPost2010Prop29
280
     1
102
RTVSPost2010PropOp29
 70
     1
102
RTVSPost2010Prop30
280
     1
102
RTVSPost2010PropOp30
 70
     1
102
RTVSPost2010Prop31
280
     0
102
RTVSPost2010PropOp31
 70
     1
102
RTVSPost2010Prop32
280
     0
102
RTVSPost2010PropOp32
 70
     1
102
RTVSPost2010Prop33
280
     0
102
RTVSPost2010PropOp33
 70
     1
102
RTVSPost2010Prop34
280
     0
102
RTVSPost2010PropOp34
 70
     1
102
RTVSPost2010Prop35
280
     0
102
RTVSPost2010PropOp35
 70
     1
102
RTVSPost2010Prop36
280
     0
102
RTVSPost2010PropOp36
 70
     1
102
RTVSPost2010Prop37
 90
       50
102
RTVSPost2010PropOp37
 70
     1
102
RTVSPost2010Prop38
140
0.0
102
RTVSPost2010PropOp38
 70
     1
102
RTVSPost2010Prop39
140
1.0
102
RTVSPost2010PropOp39
 70
     1
102
RTVSPost2010Prop40
 90
        0
102
RTVSPost2010PropOp40
 70
     1
102
RTVSPost2010Prop41ColorIndex
 90
       18
102
RTVSPost2010Prop41ColorRGB
 90
        0
102
RTVSPost2010PropOp41
 70
     1
102
RTVSPost2010Prop42
 90
       50
102
RTVSPost2010PropOp42
 70
     1
102
RTVSPost2010Prop43
 90
        3
102
RTVSPost2010PropOp43
 70
     1
102
RTVSPost2010Prop44ColorIndex
 90
        5
102
RTVSPost2010Prop44ColorRGB
 90
      255
102
RTVSPost2010PropOp44
 70
     1
102
RTVSPost2010Prop45
280
     0
102
RTVSPost2010PropOp45
 70
     1
102
RTVSPost2010Prop46
 90
       50
102
RTVSPost2010PropOp46
 70
     1
102
RTVSPost2010Prop47
 90
       50
102
RTVSPost2010PropOp47
 70
     1
102
RTVSPost2010Prop48
 90
       50
102
RTVSPost2010PropOp48
 70
     1
102
RTVSPost2010Prop49
280
     0
102
RTVSPost2010PropOp49
 70
     1
102
RTVSPost2010Prop50
 90
       50
102
RTVSPost2010PropOp50
 70
     1
102
RTVSPost2010Prop51ColorIndex
 90
      256
102
RTVSPost2010Prop51ColorRGB
 90
-16777216
102
RTVSPost2010PropOp51
 70
     0
102
RTVSPost2010Prop52
140
1.0
102
RTVSPost2010PropOp52
 70
     0
102
RTVSPost2010Prop53
 90
        2
102
RTVSPost2010PropOp53
 70
     1
102
RTVSPost2010Prop54
  1
strokes_ogs.tif
102
RTVSPost2010PropOp54
 70
     1
102
RTVSPost2010Prop55
280
     0
102
RTVSPost2010PropOp55
 70
     1
102
RTVSPost2010Prop56
140
1.0
102
RTVSPost2010PropOp56
 70
     1
102
RTVSPost2010Prop57
140
1.0
102
RTVSPost2010PropOp57
 70
     1
102
RTVSPropertyOp0
 70
     0
102
RTVSPropertyOp1
 70
     0
102
RTVSPropertyOp2
 70
     0
102
RTVSPropertyOp3
 70
     0
102
RTVSPropertyOp4
 70
     0
102
RTVSPropertyOp5
 70
     0
102
RTVSPropertyOp6
 70
     0
102
RTVSPropertyOp7
 70
     0
102
RTVSPropertyOp8
 70
     0
102
RTVSPropertyOp9
 70
     0
102
RTVSPropertyOp10
 70
     0
102
RTVSPropertyOp11
 70
     0
102
RTVSPropertyOp12
 70
     0
102
RTVSPropertyOp13
 70
     0
102
RTVSPropertyOp14
 70
     2
102
RTVSPropertyOp15
 70
     0
102
RTVSPropertyOp16
 70
     0
102
RTVSPropertyOp17
 70
     0
102
RTVSPropertyOp18
 70
     0
102
RTVSPropertyOp19
 70
     0
102
RTVSPropertyOp20
 70
     0
102
RTVSPropertyOp21
 70
     0
102
RTVSPropertyOp22
 70
     0
102
RTVSPropertyOp23
 70
     0
102
RTVSPropertyOp24
 70
     0
102
RTVSPropertyOp25
 70
     0
102
RTVSPropertyOp26
 70
     0
102
RTVSPropertyOp27
 70
     0
102
RTVSPropertyOp28
 70
     1
102
RTVSPropertyOp29
 70
     1
102
RTVSPropertyOp30
 70
     1
102
RTVSPropertyOp31
 70
     1
102
RTVSPropertyOp32
 70
     1
102
RTVSPropertyOp33
 70
     1
102
RTVSPropertyOp34
 70
     1
102
RTVSPropertyOp35
 70
     1
102
RTVSPropertyOp36
 70
     1
102
RTVSPropertyOp37
 70
     1
102
RTVSPropertyOp38
 70
     1
102
RTVSPropertyOp39
 70
     1
102
RTVSPropertyOp40
 70
     1
102
RTVSPropertyOp41
 70
     1
102
RTVSPropertyOp42
 70
     1
102
RTVSPropertyOp43
 70
     1
102
RTVSPropertyOp44
 70
     1
102
RTVSPropertyOp45
 70
     1
102
RTVSPropertyOp46
 70
     1
102
RTVSPropertyOp47
 70
     1
102
RTVSPropertyOp48
 70
     1
102
RTVSPropertyOp49
 70
     1
102
RTVSPropertyOp50
 70
     1
102
RTVSPropertyOp51
 70
     0
102
RTVSPropertyOp52
 70
     0
102
RTVSPropertyOp53
 70
     1
102
RTVSPropertyOp54
 70
     1
102
RTVSPropertyOp55
 70
     1
102
RTVSPropertyOp56
 70
     1
102
RTVSPropertyOp57
 70
     1
102
RTVSPropertyOp58
 70
     1
102
RTVSPropertyOp59
 70
     1
102
RTVSPropertyOp60
 70
     1
102
RTVSPropertyOp61
 70
     1
102
RTVSPropertyOp62
 70
     1
  0
XRECORD
  5
688D
102
{ACAD_REACTORS
330
688C
102
}
330
688C
100
AcDbXrecord
280
     1
102
RTVSPost2010Prop28
280
     0
102
RTVSPost2010PropOp28
 70
     1
102
RTVSPost2010Prop29
280
     1
102
RTVSPost2010PropOp29
 70
     1
102
RTVSPost2010Prop30
280
     1
102
RTVSPost2010PropOp30
 70
     1
102
RTVSPost2010Prop31
280
     0
102
RTVSPost2010PropOp31
 70
     1
102
RTVSPost2010Prop32
280
     0
102
RTVSPost2010PropOp32
 70
     1
102
RTVSPost2010Prop33
280
     0
102
RTVSPost2010PropOp33
 70
     1
102
RTVSPost2010Prop34
280
     0
102
RTVSPost2010PropOp34
 70
     1
102
RTVSPost2010Prop35
280
     0
102
RTVSPost2010PropOp35
 70
     1
102
RTVSPost2010Prop36
280
     0
102
RTVSPost2010PropOp36
 70
     1
102
RTVSPost2010Prop37
 90
       50
102
RTVSPost2010PropOp37
 70
     1
102
RTVSPost2010Prop38
140
0.0
102
RTVSPost2010PropOp38
 70
     1
102
RTVSPost2010Prop39
140
1.0
102
RTVSPost2010PropOp39
 70
     1
102
RTVSPost2010Prop40
 90
        0
102
RTVSPost2010PropOp40
 70
     1
102
RTVSPost2010Prop41ColorIndex
 90
       18
102
RTVSPost2010Prop41ColorRGB
 90
        0
102
RTVSPost2010PropOp41
 70
     1
102
RTVSPost2010Prop42
 90
       50
102
RTVSPost2010PropOp42
 70
     1
102
RTVSPost2010Prop43
 90
        3
102
RTVSPost2010PropOp43
 70
     1
102
RTVSPost2010Prop44ColorIndex
 90
        5
102
RTVSPost2010Prop44ColorRGB
 90
      255
102
RTVSPost2010PropOp44
 70
     1
102
RTVSPost2010Prop45
280
     0
102
RTVSPost2010PropOp45
 70
     1
102
RTVSPost2010Prop46
 90
       50
102
RTVSPost2010PropOp46
 70
     1
102
RTVSPost2010Prop47
 90
       50
102
RTVSPost2010PropOp47
 70
     1
102
RTVSPost2010Prop48
 90
       50
102
RTVSPost2010PropOp48
 70
     1
102
RTVSPost2010Prop49
280
     0
102
RTVSPost2010PropOp49
 70
     1
102
RTVSPost2010Prop50
 90
       50
102
RTVSPost2010PropOp50
 70
     1
102
RTVSPost2010Prop51ColorIndex
 90
      256
102
RTVSPost2010Prop51ColorRGB
 90
-16777216
102
RTVSPost2010PropOp51
 70
     0
102
RTVSPost2010Prop52
140
1.0
102
RTVSPost2010PropOp52
 70
     0
102
RTVSPost2010Prop53
 90
        2
102
RTVSPost2010PropOp53
 70
     1
102
RTVSPost2010Prop54
  1
strokes_ogs.tif
102
RTVSPost2010PropOp54
 70
     1
102
RTVSPost2010Prop55
280
     0
102
RTVSPost2010PropOp55
 70
     1
102
RTVSPost2010Prop56
140
1.0
102
RTVSPost2010PropOp56
 70
     1
102
RTVSPost2010Prop57
140
1.0
102
RTVSPost2010PropOp57
 70
     1
102
RTVSPropertyOp0
 70
     1
102
RTVSPropertyOp1
 70
     1
102
RTVSPropertyOp2
 70
     1
102
RTVSPropertyOp3
 70
     1
102
RTVSPropertyOp4
 70
     1
102
RTVSPropertyOp5
 70
     1
102
RTVSPropertyOp6
 70
     1
102
RTVSPropertyOp7
 70
     1
102
RTVSPropertyOp8
 70
     1
102
RTVSPropertyOp9
 70
     1
102
RTVSPropertyOp10
 70
     1
102
RTVSPropertyOp11
 70
     1
102
RTVSPropertyOp12
 70
     1
102
RTVSPropertyOp13
 70
     1
102
RTVSPropertyOp14
 70
     1
102
RTVSPropertyOp15
 70
     1
102
RTVSPropertyOp16
 70
     1
102
RTVSPropertyOp17
 70
     1
102
RTVSPropertyOp18
 70
     1
102
RTVSPropertyOp19
 70
     1
102
RTVSPropertyOp20
 70
     1
102
RTVSPropertyOp21
 70
     1
102
RTVSPropertyOp22
 70
     1
102
RTVSPropertyOp23
 70
     1
102
RTVSPropertyOp24
 70
     1
102
RTVSPropertyOp25
 70
     1
102
RTVSPropertyOp26
 70
     1
102
RTVSPropertyOp27
 70
     1
102
RTVSPropertyOp28
 70
     1
102
RTVSPropertyOp29
 70
     1
102
RTVSPropertyOp30
 70
     1
102
RTVSPropertyOp31
 70
     1
102
RTVSPropertyOp32
 70
     1
102
RTVSPropertyOp33
 70
     1
102
RTVSPropertyOp34
 70
     1
102
RTVSPropertyOp35
 70
     1
102
RTVSPropertyOp36
 70
     1
102
RTVSPropertyOp37
 70
     1
102
RTVSPropertyOp38
 70
     1
102
RTVSPropertyOp39
 70
     1
102
RTVSPropertyOp40
 70
     1
102
RTVSPropertyOp41
 70
     1
102
RTVSPropertyOp42
 70
     1
102
RTVSPropertyOp43
 70
     1
102
RTVSPropertyOp44
 70
     1
102
RTVSPropertyOp45
 70
     1
102
RTVSPropertyOp46
 70
     1
102
RTVSPropertyOp47
 70
     1
102
RTVSPropertyOp48
 70
     1
102
RTVSPropertyOp49
 70
     1
102
RTVSPropertyOp50
 70
     1
102
RTVSPropertyOp51
 70
     0
102
RTVSPropertyOp52
 70
     0
102
RTVSPropertyOp53
 70
     1
102
RTVSPropertyOp54
 70
     1
102
RTVSPropertyOp55
 70
     1
102
RTVSPropertyOp56
 70
     1
102
RTVSPropertyOp57
 70
     1
102
RTVSPropertyOp58
 70
     1
102
RTVSPropertyOp59
 70
     1
102
RTVSPropertyOp60
 70
     1
102
RTVSPropertyOp61
 70
     1
102
RTVSPropertyOp62
 70
     1
  0
XRECORD
  5
6871
102
{ACAD_REACTORS
330
6870
102
}
330
6870
100
AcDbXrecord
280
     1
102
RTVSPost2010Prop28
280
     0
102
RTVSPost2010PropOp28
 70
     1
102
RTVSPost2010Prop29
280
     1
102
RTVSPost2010PropOp29
 70
     1
102
RTVSPost2010Prop30
280
     1
102
RTVSPost2010PropOp30
 70
     1
102
RTVSPost2010Prop31
280
     0
102
RTVSPost2010PropOp31
 70
     1
102
RTVSPost2010Prop32
280
     0
102
RTVSPost2010PropOp32
 70
     1
102
RTVSPost2010Prop33
280
     0
102
RTVSPost2010PropOp33
 70
     1
102
RTVSPost2010Prop34
280
     0
102
RTVSPost2010PropOp34
 70
     1
102
RTVSPost2010Prop35
280
     0
102
RTVSPost2010PropOp35
 70
     1
102
RTVSPost2010Prop36
280
     0
102
RTVSPost2010PropOp36
 70
     1
102
RTVSPost2010Prop37
 90
       50
102
RTVSPost2010PropOp37
 70
     1
102
RTVSPost2010Prop38
140
0.0
102
RTVSPost2010PropOp38
 70
     1
102
RTVSPost2010Prop39
140
1.0
102
RTVSPost2010PropOp39
 70
     1
102
RTVSPost2010Prop40
 90
        0
102
RTVSPost2010PropOp40
 70
     1
102
RTVSPost2010Prop41ColorIndex
 90
       18
102
RTVSPost2010Prop41ColorRGB
 90
        0
102
RTVSPost2010PropOp41
 70
     1
102
RTVSPost2010Prop42
 90
       50
102
RTVSPost2010PropOp42
 70
     1
102
RTVSPost2010Prop43
 90
        3
102
RTVSPost2010PropOp43
 70
     1
102
RTVSPost2010Prop44ColorIndex
 90
        5
102
RTVSPost2010Prop44ColorRGB
 90
      255
102
RTVSPost2010PropOp44
 70
     1
102
RTVSPost2010Prop45
280
     0
102
RTVSPost2010PropOp45
 70
     1
102
RTVSPost2010Prop46
 90
       50
102
RTVSPost2010PropOp46
 70
     1
102
RTVSPost2010Prop47
 90
       50
102
RTVSPost2010PropOp47
 70
     1
102
RTVSPost2010Prop48
 90
       50
102
RTVSPost2010PropOp48
 70
     1
102
RTVSPost2010Prop49
280
     0
102
RTVSPost2010PropOp49
 70
     1
102
RTVSPost2010Prop50
 90
       50
102
RTVSPost2010PropOp50
 70
     1
102
RTVSPost2010Prop51ColorIndex
 90
      256
102
RTVSPost2010Prop51ColorRGB
 90
-16777216
102
RTVSPost2010PropOp51
 70
     0
102
RTVSPost2010Prop52
140
1.0
102
RTVSPost2010PropOp52
 70
     0
102
RTVSPost2010Prop53
 90
        2
102
RTVSPost2010PropOp53
 70
     1
102
RTVSPost2010Prop54
  1
strokes_ogs.tif
102
RTVSPost2010PropOp54
 70
     1
102
RTVSPost2010Prop55
280
     0
102
RTVSPost2010PropOp55
 70
     1
102
RTVSPost2010Prop56
140
1.0
102
RTVSPost2010PropOp56
 70
     1
102
RTVSPost2010Prop57
140
1.0
102
RTVSPost2010PropOp57
 70
     1
102
RTVSPropertyOp0
 70
     1
102
RTVSPropertyOp1
 70
     1
102
RTVSPropertyOp2
 70
     1
102
RTVSPropertyOp3
 70
     1
102
RTVSPropertyOp4
 70
     1
102
RTVSPropertyOp5
 70
     1
102
RTVSPropertyOp6
 70
     1
102
RTVSPropertyOp7
 70
     1
102
RTVSPropertyOp8
 70
     1
102
RTVSPropertyOp9
 70
     1
102
RTVSPropertyOp10
 70
     1
102
RTVSPropertyOp11
 70
     1
102
RTVSPropertyOp12
 70
     1
102
RTVSPropertyOp13
 70
     1
102
RTVSPropertyOp14
 70
     1
102
RTVSPropertyOp15
 70
     1
102
RTVSPropertyOp16
 70
     1
102
RTVSPropertyOp17
 70
     1
102
RTVSPropertyOp18
 70
     1
102
RTVSPropertyOp19
 70
     1
102
RTVSPropertyOp20
 70
     1
102
RTVSPropertyOp21
 70
     1
102
RTVSPropertyOp22
 70
     1
102
RTVSPropertyOp23
 70
     1
102
RTVSPropertyOp24
 70
     1
102
RTVSPropertyOp25
 70
     1
102
RTVSPropertyOp26
 70
     1
102
RTVSPropertyOp27
 70
     1
102
RTVSPropertyOp28
 70
     1
102
RTVSPropertyOp29
 70
     1
102
RTVSPropertyOp30
 70
     1
102
RTVSPropertyOp31
 70
     1
102
RTVSPropertyOp32
 70
     1
102
RTVSPropertyOp33
 70
     1
102
RTVSPropertyOp34
 70
     1
102
RTVSPropertyOp35
 70
     1
102
RTVSPropertyOp36
 70
     1
102
RTVSPropertyOp37
 70
     1
102
RTVSPropertyOp38
 70
     1
102
RTVSPropertyOp39
 70
     1
102
RTVSPropertyOp40
 70
     1
102
RTVSPropertyOp41
 70
     1
102
RTVSPropertyOp42
 70
     1
102
RTVSPropertyOp43
 70
     1
102
RTVSPropertyOp44
 70
     1
102
RTVSPropertyOp45
 70
     1
102
RTVSPropertyOp46
 70
     1
102
RTVSPropertyOp47
 70
     1
102
RTVSPropertyOp48
 70
     1
102
RTVSPropertyOp49
 70
     1
102
RTVSPropertyOp50
 70
     1
102
RTVSPropertyOp51
 70
     0
102
RTVSPropertyOp52
 70
     0
102
RTVSPropertyOp53
 70
     1
102
RTVSPropertyOp54
 70
     1
102
RTVSPropertyOp55
 70
     1
102
RTVSPropertyOp56
 70
     1
102
RTVSPropertyOp57
 70
     1
102
RTVSPropertyOp58
 70
     1
102
RTVSPropertyOp59
 70
     1
102
RTVSPropertyOp60
 70
     1
102
RTVSPropertyOp61
 70
     1
102
RTVSPropertyOp62
 70
     1
  0
XRECORD
  5
6873
102
{ACAD_REACTORS
330
6872
102
}
330
6872
100
AcDbXrecord
280
     1
102
RTVSPost2010Prop28
280
     0
102
RTVSPost2010PropOp28
 70
     1
102
RTVSPost2010Prop29
280
     1
102
RTVSPost2010PropOp29
 70
     1
102
RTVSPost2010Prop30
280
     1
102
RTVSPost2010PropOp30
 70
     1
102
RTVSPost2010Prop31
280
     0
102
RTVSPost2010PropOp31
 70
     1
102
RTVSPost2010Prop32
280
     0
102
RTVSPost2010PropOp32
 70
     1
102
RTVSPost2010Prop33
280
     0
102
RTVSPost2010PropOp33
 70
     1
102
RTVSPost2010Prop34
280
     0
102
RTVSPost2010PropOp34
 70
     1
102
RTVSPost2010Prop35
280
     0
102
RTVSPost2010PropOp35
 70
     1
102
RTVSPost2010Prop36
280
     0
102
RTVSPost2010PropOp36
 70
     1
102
RTVSPost2010Prop37
 90
       50
102
RTVSPost2010PropOp37
 70
     1
102
RTVSPost2010Prop38
140
0.0
102
RTVSPost2010PropOp38
 70
     1
102
RTVSPost2010Prop39
140
1.0
102
RTVSPost2010PropOp39
 70
     1
102
RTVSPost2010Prop40
 90
        0
102
RTVSPost2010PropOp40
 70
     1
102
RTVSPost2010Prop41ColorIndex
 90
       18
102
RTVSPost2010Prop41ColorRGB
 90
        0
102
RTVSPost2010PropOp41
 70
     1
102
RTVSPost2010Prop42
 90
       50
102
RTVSPost2010PropOp42
 70
     1
102
RTVSPost2010Prop43
 90
        3
102
RTVSPost2010PropOp43
 70
     1
102
RTVSPost2010Prop44ColorIndex
 90
        5
102
RTVSPost2010Prop44ColorRGB
 90
      255
102
RTVSPost2010PropOp44
 70
     1
102
RTVSPost2010Prop45
280
     0
102
RTVSPost2010PropOp45
 70
     1
102
RTVSPost2010Prop46
 90
       50
102
RTVSPost2010PropOp46
 70
     1
102
RTVSPost2010Prop47
 90
       50
102
RTVSPost2010PropOp47
 70
     1
102
RTVSPost2010Prop48
 90
       50
102
RTVSPost2010PropOp48
 70
     1
102
RTVSPost2010Prop49
280
     0
102
RTVSPost2010PropOp49
 70
     1
102
RTVSPost2010Prop50
 90
       50
102
RTVSPost2010PropOp50
 70
     1
102
RTVSPost2010Prop51ColorIndex
 90
      256
102
RTVSPost2010Prop51ColorRGB
 90
-16777216
102
RTVSPost2010PropOp51
 70
     0
102
RTVSPost2010Prop52
140
1.0
102
RTVSPost2010PropOp52
 70
     0
102
RTVSPost2010Prop53
 90
        2
102
RTVSPost2010PropOp53
 70
     1
102
RTVSPost2010Prop54
  1
strokes_ogs.tif
102
RTVSPost2010PropOp54
 70
     1
102
RTVSPost2010Prop55
280
     0
102
RTVSPost2010PropOp55
 70
     1
102
RTVSPost2010Prop56
140
1.0
102
RTVSPost2010PropOp56
 70
     1
102
RTVSPost2010Prop57
140
1.0
102
RTVSPost2010PropOp57
 70
     1
102
RTVSPropertyOp0
 70
     1
102
RTVSPropertyOp1
 70
     1
102
RTVSPropertyOp2
 70
     1
102
RTVSPropertyOp3
 70
     1
102
RTVSPropertyOp4
 70
     1
102
RTVSPropertyOp5
 70
     1
102
RTVSPropertyOp6
 70
     1
102
RTVSPropertyOp7
 70
     1
102
RTVSPropertyOp8
 70
     1
102
RTVSPropertyOp9
 70
     1
102
RTVSPropertyOp10
 70
     1
102
RTVSPropertyOp11
 70
     1
102
RTVSPropertyOp12
 70
     1
102
RTVSPropertyOp13
 70
     1
102
RTVSPropertyOp14
 70
     1
102
RTVSPropertyOp15
 70
     1
102
RTVSPropertyOp16
 70
     1
102
RTVSPropertyOp17
 70
     1
102
RTVSPropertyOp18
 70
     1
102
RTVSPropertyOp19
 70
     1
102
RTVSPropertyOp20
 70
     1
102
RTVSPropertyOp21
 70
     1
102
RTVSPropertyOp22
 70
     1
102
RTVSPropertyOp23
 70
     1
102
RTVSPropertyOp24
 70
     1
102
RTVSPropertyOp25
 70
     1
102
RTVSPropertyOp26
 70
     1
102
RTVSPropertyOp27
 70
     1
102
RTVSPropertyOp28
 70
     1
102
RTVSPropertyOp29
 70
     1
102
RTVSPropertyOp30
 70
     1
102
RTVSPropertyOp31
 70
     1
102
RTVSPropertyOp32
 70
     1
102
RTVSPropertyOp33
 70
     1
102
RTVSPropertyOp34
 70
     1
102
RTVSPropertyOp35
 70
     1
102
RTVSPropertyOp36
 70
     1
102
RTVSPropertyOp37
 70
     1
102
RTVSPropertyOp38
 70
     1
102
RTVSPropertyOp39
 70
     1
102
RTVSPropertyOp40
 70
     1
102
RTVSPropertyOp41
 70
     1
102
RTVSPropertyOp42
 70
     1
102
RTVSPropertyOp43
 70
     1
102
RTVSPropertyOp44
 70
     1
102
RTVSPropertyOp45
 70
     1
102
RTVSPropertyOp46
 70
     1
102
RTVSPropertyOp47
 70
     1
102
RTVSPropertyOp48
 70
     1
102
RTVSPropertyOp49
 70
     1
102
RTVSPropertyOp50
 70
     1
102
RTVSPropertyOp51
 70
     0
102
RTVSPropertyOp52
 70
     0
102
RTVSPropertyOp53
 70
     1
102
RTVSPropertyOp54
 70
     1
102
RTVSPropertyOp55
 70
     1
102
RTVSPropertyOp56
 70
     1
102
RTVSPropertyOp57
 70
     1
102
RTVSPropertyOp58
 70
     1
102
RTVSPropertyOp59
 70
     1
102
RTVSPropertyOp60
 70
     1
102
RTVSPropertyOp61
 70
     1
102
RTVSPropertyOp62
 70
     1
  0
XRECORD
  5
6875
102
{ACAD_REACTORS
330
6874
102
}
330
6874
100
AcDbXrecord
280
     1
102
RTVSPost2010Prop28
280
     0
102
RTVSPost2010PropOp28
 70
     1
102
RTVSPost2010Prop29
280
     1
102
RTVSPost2010PropOp29
 70
     1
102
RTVSPost2010Prop30
280
     1
102
RTVSPost2010PropOp30
 70
     1
102
RTVSPost2010Prop31
280
     0
102
RTVSPost2010PropOp31
 70
     1
102
RTVSPost2010Prop32
280
     0
102
RTVSPost2010PropOp32
 70
     1
102
RTVSPost2010Prop33
280
     0
102
RTVSPost2010PropOp33
 70
     1
102
RTVSPost2010Prop34
280
     0
102
RTVSPost2010PropOp34
 70
     1
102
RTVSPost2010Prop35
280
     0
102
RTVSPost2010PropOp35
 70
     1
102
RTVSPost2010Prop36
280
     0
102
RTVSPost2010PropOp36
 70
     1
102
RTVSPost2010Prop37
 90
       50
102
RTVSPost2010PropOp37
 70
     1
102
RTVSPost2010Prop38
140
0.0
102
RTVSPost2010PropOp38
 70
     1
102
RTVSPost2010Prop39
140
1.0
102
RTVSPost2010PropOp39
 70
     1
102
RTVSPost2010Prop40
 90
        0
102
RTVSPost2010PropOp40
 70
     1
102
RTVSPost2010Prop41ColorIndex
 90
       18
102
RTVSPost2010Prop41ColorRGB
 90
        0
102
RTVSPost2010PropOp41
 70
     1
102
RTVSPost2010Prop42
 90
       50
102
RTVSPost2010PropOp42
 70
     1
102
RTVSPost2010Prop43
 90
        3
102
RTVSPost2010PropOp43
 70
     1
102
RTVSPost2010Prop44ColorIndex
 90
        5
102
RTVSPost2010Prop44ColorRGB
 90
      255
102
RTVSPost2010PropOp44
 70
     1
102
RTVSPost2010Prop45
280
     0
102
RTVSPost2010PropOp45
 70
     1
102
RTVSPost2010Prop46
 90
       50
102
RTVSPost2010PropOp46
 70
     1
102
RTVSPost2010Prop47
 90
       50
102
RTVSPost2010PropOp47
 70
     1
102
RTVSPost2010Prop48
 90
       50
102
RTVSPost2010PropOp48
 70
     1
102
RTVSPost2010Prop49
280
     0
102
RTVSPost2010PropOp49
 70
     1
102
RTVSPost2010Prop50
 90
       50
102
RTVSPost2010PropOp50
 70
     1
102
RTVSPost2010Prop51ColorIndex
 90
      256
102
RTVSPost2010Prop51ColorRGB
 90
-16777216
102
RTVSPost2010PropOp51
 70
     0
102
RTVSPost2010Prop52
140
1.0
102
RTVSPost2010PropOp52
 70
     0
102
RTVSPost2010Prop53
 90
        2
102
RTVSPost2010PropOp53
 70
     1
102
RTVSPost2010Prop54
  1
strokes_ogs.tif
102
RTVSPost2010PropOp54
 70
     1
102
RTVSPost2010Prop55
280
     0
102
RTVSPost2010PropOp55
 70
     1
102
RTVSPost2010Prop56
140
1.0
102
RTVSPost2010PropOp56
 70
     1
102
RTVSPost2010Prop57
140
1.0
102
RTVSPost2010PropOp57
 70
     1
102
RTVSPropertyOp0
 70
     1
102
RTVSPropertyOp1
 70
     1
102
RTVSPropertyOp2
 70
     1
102
RTVSPropertyOp3
 70
     1
102
RTVSPropertyOp4
 70
     1
102
RTVSPropertyOp5
 70
     1
102
RTVSPropertyOp6
 70
     1
102
RTVSPropertyOp7
 70
     1
102
RTVSPropertyOp8
 70
     1
102
RTVSPropertyOp9
 70
     1
102
RTVSPropertyOp10
 70
     1
102
RTVSPropertyOp11
 70
     1
102
RTVSPropertyOp12
 70
     1
102
RTVSPropertyOp13
 70
     1
102
RTVSPropertyOp14
 70
     1
102
RTVSPropertyOp15
 70
     1
102
RTVSPropertyOp16
 70
     1
102
RTVSPropertyOp17
 70
     1
102
RTVSPropertyOp18
 70
     1
102
RTVSPropertyOp19
 70
     1
102
RTVSPropertyOp20
 70
     1
102
RTVSPropertyOp21
 70
     1
102
RTVSPropertyOp22
 70
     1
102
RTVSPropertyOp23
 70
     1
102
RTVSPropertyOp24
 70
     1
102
RTVSPropertyOp25
 70
     1
102
RTVSPropertyOp26
 70
     1
102
RTVSPropertyOp27
 70
     1
102
RTVSPropertyOp28
 70
     1
102
RTVSPropertyOp29
 70
     1
102
RTVSPropertyOp30
 70
     1
102
RTVSPropertyOp31
 70
     1
102
RTVSPropertyOp32
 70
     1
102
RTVSPropertyOp33
 70
     1
102
RTVSPropertyOp34
 70
     1
102
RTVSPropertyOp35
 70
     1
102
RTVSPropertyOp36
 70
     1
102
RTVSPropertyOp37
 70
     1
102
RTVSPropertyOp38
 70
     1
102
RTVSPropertyOp39
 70
     1
102
RTVSPropertyOp40
 70
     1
102
RTVSPropertyOp41
 70
     1
102
RTVSPropertyOp42
 70
     1
102
RTVSPropertyOp43
 70
     1
102
RTVSPropertyOp44
 70
     1
102
RTVSPropertyOp45
 70
     1
102
RTVSPropertyOp46
 70
     1
102
RTVSPropertyOp47
 70
     1
102
RTVSPropertyOp48
 70
     1
102
RTVSPropertyOp49
 70
     1
102
RTVSPropertyOp50
 70
     1
102
RTVSPropertyOp51
 70
     0
102
RTVSPropertyOp52
 70
     0
102
RTVSPropertyOp53
 70
     1
102
RTVSPropertyOp54
 70
     1
102
RTVSPropertyOp55
 70
     1
102
RTVSPropertyOp56
 70
     1
102
RTVSPropertyOp57
 70
     1
102
RTVSPropertyOp58
 70
     1
102
RTVSPropertyOp59
 70
     1
102
RTVSPropertyOp60
 70
     1
102
RTVSPropertyOp61
 70
     1
102
RTVSPropertyOp62
 70
     1
  0
XRECORD
  5
6877
102
{ACAD_REACTORS
330
6876
102
}
330
6876
100
AcDbXrecord
280
     1
102
RTVSPost2010Prop28
280
     0
102
RTVSPost2010PropOp28
 70
     1
102
RTVSPost2010Prop29
280
     1
102
RTVSPost2010PropOp29
 70
     1
102
RTVSPost2010Prop30
280
     1
102
RTVSPost2010PropOp30
 70
     1
102
RTVSPost2010Prop31
280
     0
102
RTVSPost2010PropOp31
 70
     1
102
RTVSPost2010Prop32
280
     0
102
RTVSPost2010PropOp32
 70
     1
102
RTVSPost2010Prop33
280
     0
102
RTVSPost2010PropOp33
 70
     1
102
RTVSPost2010Prop34
280
     0
102
RTVSPost2010PropOp34
 70
     1
102
RTVSPost2010Prop35
280
     0
102
RTVSPost2010PropOp35
 70
     1
102
RTVSPost2010Prop36
280
     0
102
RTVSPost2010PropOp36
 70
     1
102
RTVSPost2010Prop37
 90
       50
102
RTVSPost2010PropOp37
 70
     1
102
RTVSPost2010Prop38
140
0.0
102
RTVSPost2010PropOp38
 70
     1
102
RTVSPost2010Prop39
140
1.0
102
RTVSPost2010PropOp39
 70
     1
102
RTVSPost2010Prop40
 90
        0
102
RTVSPost2010PropOp40
 70
     1
102
RTVSPost2010Prop41ColorIndex
 90
       18
102
RTVSPost2010Prop41ColorRGB
 90
        0
102
RTVSPost2010PropOp41
 70
     1
102
RTVSPost2010Prop42
 90
       50
102
RTVSPost2010PropOp42
 70
     1
102
RTVSPost2010Prop43
 90
        3
102
RTVSPost2010PropOp43
 70
     1
102
RTVSPost2010Prop44ColorIndex
 90
        5
102
RTVSPost2010Prop44ColorRGB
 90
      255
102
RTVSPost2010PropOp44
 70
     1
102
RTVSPost2010Prop45
280
     0
102
RTVSPost2010PropOp45
 70
     1
102
RTVSPost2010Prop46
 90
       50
102
RTVSPost2010PropOp46
 70
     1
102
RTVSPost2010Prop47
 90
       50
102
RTVSPost2010PropOp47
 70
     1
102
RTVSPost2010Prop48
 90
       50
102
RTVSPost2010PropOp48
 70
     1
102
RTVSPost2010Prop49
280
     0
102
RTVSPost2010PropOp49
 70
     1
102
RTVSPost2010Prop50
 90
       50
102
RTVSPost2010PropOp50
 70
     1
102
RTVSPost2010Prop51ColorIndex
 90
      256
102
RTVSPost2010Prop51ColorRGB
 90
-16777216
102
RTVSPost2010PropOp51
 70
     0
102
RTVSPost2010Prop52
140
1.0
102
RTVSPost2010PropOp52
 70
     0
102
RTVSPost2010Prop53
 90
        2
102
RTVSPost2010PropOp53
 70
     1
102
RTVSPost2010Prop54
  1
strokes_ogs.tif
102
RTVSPost2010PropOp54
 70
     1
102
RTVSPost2010Prop55
280
     0
102
RTVSPost2010PropOp55
 70
     1
102
RTVSPost2010Prop56
140
1.0
102
RTVSPost2010PropOp56
 70
     1
102
RTVSPost2010Prop57
140
1.0
102
RTVSPost2010PropOp57
 70
     1
102
RTVSPropertyOp0
 70
     1
102
RTVSPropertyOp1
 70
     1
102
RTVSPropertyOp2
 70
     1
102
RTVSPropertyOp3
 70
     1
102
RTVSPropertyOp4
 70
     1
102
RTVSPropertyOp5
 70
     1
102
RTVSPropertyOp6
 70
     1
102
RTVSPropertyOp7
 70
     1
102
RTVSPropertyOp8
 70
     1
102
RTVSPropertyOp9
 70
     1
102
RTVSPropertyOp10
 70
     1
102
RTVSPropertyOp11
 70
     1
102
RTVSPropertyOp12
 70
     1
102
RTVSPropertyOp13
 70
     1
102
RTVSPropertyOp14
 70
     1
102
RTVSPropertyOp15
 70
     1
102
RTVSPropertyOp16
 70
     1
102
RTVSPropertyOp17
 70
     1
102
RTVSPropertyOp18
 70
     1
102
RTVSPropertyOp19
 70
     1
102
RTVSPropertyOp20
 70
     1
102
RTVSPropertyOp21
 70
     1
102
RTVSPropertyOp22
 70
     1
102
RTVSPropertyOp23
 70
     1
102
RTVSPropertyOp24
 70
     1
102
RTVSPropertyOp25
 70
     1
102
RTVSPropertyOp26
 70
     1
102
RTVSPropertyOp27
 70
     1
102
RTVSPropertyOp28
 70
     1
102
RTVSPropertyOp29
 70
     1
102
RTVSPropertyOp30
 70
     1
102
RTVSPropertyOp31
 70
     1
102
RTVSPropertyOp32
 70
     1
102
RTVSPropertyOp33
 70
     1
102
RTVSPropertyOp34
 70
     1
102
RTVSPropertyOp35
 70
     1
102
RTVSPropertyOp36
 70
     1
102
RTVSPropertyOp37
 70
     1
102
RTVSPropertyOp38
 70
     1
102
RTVSPropertyOp39
 70
     1
102
RTVSPropertyOp40
 70
     1
102
RTVSPropertyOp41
 70
     1
102
RTVSPropertyOp42
 70
     1
102
RTVSPropertyOp43
 70
     1
102
RTVSPropertyOp44
 70
     1
102
RTVSPropertyOp45
 70
     1
102
RTVSPropertyOp46
 70
     1
102
RTVSPropertyOp47
 70
     1
102
RTVSPropertyOp48
 70
     1
102
RTVSPropertyOp49
 70
     1
102
RTVSPropertyOp50
 70
     1
102
RTVSPropertyOp51
 70
     0
102
RTVSPropertyOp52
 70
     0
102
RTVSPropertyOp53
 70
     1
102
RTVSPropertyOp54
 70
     1
102
RTVSPropertyOp55
 70
     1
102
RTVSPropertyOp56
 70
     1
102
RTVSPropertyOp57
 70
     1
102
RTVSPropertyOp58
 70
     1
102
RTVSPropertyOp59
 70
     1
102
RTVSPropertyOp60
 70
     1
102
RTVSPropertyOp61
 70
     1
102
RTVSPropertyOp62
 70
     1
  0
XRECORD
  5
689A
102
{ACAD_REACTORS
330
6899
102
}
330
6899
100
AcDbXrecord
280
     1
102
RTVSPost2010Prop28
280
     0
102
RTVSPost2010PropOp28
 70
     1
102
RTVSPost2010Prop29
280
     1
102
RTVSPost2010PropOp29
 70
     1
102
RTVSPost2010Prop30
280
     1
102
RTVSPost2010PropOp30
 70
     1
102
RTVSPost2010Prop31
280
     0
102
RTVSPost2010PropOp31
 70
     1
102
RTVSPost2010Prop32
280
     0
102
RTVSPost2010PropOp32
 70
     1
102
RTVSPost2010Prop33
280
     0
102
RTVSPost2010PropOp33
 70
     1
102
RTVSPost2010Prop34
280
     0
102
RTVSPost2010PropOp34
 70
     1
102
RTVSPost2010Prop35
280
     0
102
RTVSPost2010PropOp35
 70
     1
102
RTVSPost2010Prop36
280
     0
102
RTVSPost2010PropOp36
 70
     1
102
RTVSPost2010Prop37
 90
       50
102
RTVSPost2010PropOp37
 70
     1
102
RTVSPost2010Prop38
140
0.0
102
RTVSPost2010PropOp38
 70
     1
102
RTVSPost2010Prop39
140
1.0
102
RTVSPost2010PropOp39
 70
     1
102
RTVSPost2010Prop40
 90
        0
102
RTVSPost2010PropOp40
 70
     1
102
RTVSPost2010Prop41ColorIndex
 90
       18
102
RTVSPost2010Prop41ColorRGB
 90
        0
102
RTVSPost2010PropOp41
 70
     1
102
RTVSPost2010Prop42
 90
       50
102
RTVSPost2010PropOp42
 70
     1
102
RTVSPost2010Prop43
 90
        3
102
RTVSPost2010PropOp43
 70
     1
102
RTVSPost2010Prop44ColorIndex
 90
        5
102
RTVSPost2010Prop44ColorRGB
 90
      255
102
RTVSPost2010PropOp44
 70
     1
102
RTVSPost2010Prop45
280
     0
102
RTVSPost2010PropOp45
 70
     1
102
RTVSPost2010Prop46
 90
       50
102
RTVSPost2010PropOp46
 70
     1
102
RTVSPost2010Prop47
 90
       50
102
RTVSPost2010PropOp47
 70
     1
102
RTVSPost2010Prop48
 90
       50
102
RTVSPost2010PropOp48
 70
     1
102
RTVSPost2010Prop49
280
     0
102
RTVSPost2010PropOp49
 70
     1
102
RTVSPost2010Prop50
 90
       50
102
RTVSPost2010PropOp50
 70
     1
102
RTVSPost2010Prop51ColorIndex
 90
      256
102
RTVSPost2010Prop51ColorRGB
 90
-16777216
102
RTVSPost2010PropOp51
 70
     0
102
RTVSPost2010Prop52
140
1.0
102
RTVSPost2010PropOp52
 70
     0
102
RTVSPost2010Prop53
 90
        2
102
RTVSPost2010PropOp53
 70
     1
102
RTVSPost2010Prop54
  1
strokes_ogs.tif
102
RTVSPost2010PropOp54
 70
     1
102
RTVSPost2010Prop55
280
     0
102
RTVSPost2010PropOp55
 70
     1
102
RTVSPost2010Prop56
140
1.0
102
RTVSPost2010PropOp56
 70
     1
102
RTVSPost2010Prop57
140
1.0
102
RTVSPost2010PropOp57
 70
     1
102
RTVSPropertyOp0
 70
     1
102
RTVSPropertyOp1
 70
     1
102
RTVSPropertyOp2
 70
     1
102
RTVSPropertyOp3
 70
     1
102
RTVSPropertyOp4
 70
     1
102
RTVSPropertyOp5
 70
     1
102
RTVSPropertyOp6
 70
     1
102
RTVSPropertyOp7
 70
     1
102
RTVSPropertyOp8
 70
     1
102
RTVSPropertyOp9
 70
     1
102
RTVSPropertyOp10
 70
     1
102
RTVSPropertyOp11
 70
     1
102
RTVSPropertyOp12
 70
     1
102
RTVSPropertyOp13
 70
     1
102
RTVSPropertyOp14
 70
     1
102
RTVSPropertyOp15
 70
     1
102
RTVSPropertyOp16
 70
     1
102
RTVSPropertyOp17
 70
     1
102
RTVSPropertyOp18
 70
     1
102
RTVSPropertyOp19
 70
     1
102
RTVSPropertyOp20
 70
     1
102
RTVSPropertyOp21
 70
     1
102
RTVSPropertyOp22
 70
     1
102
RTVSPropertyOp23
 70
     1
102
RTVSPropertyOp24
 70
     1
102
RTVSPropertyOp25
 70
     1
102
RTVSPropertyOp26
 70
     1
102
RTVSPropertyOp27
 70
     1
102
RTVSPropertyOp28
 70
     1
102
RTVSPropertyOp29
 70
     1
102
RTVSPropertyOp30
 70
     1
102
RTVSPropertyOp31
 70
     1
102
RTVSPropertyOp32
 70
     1
102
RTVSPropertyOp33
 70
     1
102
RTVSPropertyOp34
 70
     1
102
RTVSPropertyOp35
 70
     1
102
RTVSPropertyOp36
 70
     1
102
RTVSPropertyOp37
 70
     1
102
RTVSPropertyOp38
 70
     1
102
RTVSPropertyOp39
 70
     1
102
RTVSPropertyOp40
 70
     1
102
RTVSPropertyOp41
 70
     1
102
RTVSPropertyOp42
 70
     1
102
RTVSPropertyOp43
 70
     1
102
RTVSPropertyOp44
 70
     1
102
RTVSPropertyOp45
 70
     1
102
RTVSPropertyOp46
 70
     1
102
RTVSPropertyOp47
 70
     1
102
RTVSPropertyOp48
 70
     1
102
RTVSPropertyOp49
 70
     1
102
RTVSPropertyOp50
 70
     1
102
RTVSPropertyOp51
 70
     0
102
RTVSPropertyOp52
 70
     0
102
RTVSPropertyOp53
 70
     1
102
RTVSPropertyOp54
 70
     1
102
RTVSPropertyOp55
 70
     1
102
RTVSPropertyOp56
 70
     1
102
RTVSPropertyOp57
 70
     1
102
RTVSPropertyOp58
 70
     1
102
RTVSPropertyOp59
 70
     1
102
RTVSPropertyOp60
 70
     1
102
RTVSPropertyOp61
 70
     1
102
RTVSPropertyOp62
 70
     1
  0
XRECORD
  5
6891
102
{ACAD_REACTORS
330
6890
102
}
330
6890
100
AcDbXrecord
280
     1
102
RTVSPost2010Prop28
280
     0
102
RTVSPost2010PropOp28
 70
     1
102
RTVSPost2010Prop29
280
     1
102
RTVSPost2010PropOp29
 70
     1
102
RTVSPost2010Prop30
280
     1
102
RTVSPost2010PropOp30
 70
     1
102
RTVSPost2010Prop31
280
     0
102
RTVSPost2010PropOp31
 70
     1
102
RTVSPost2010Prop32
280
     0
102
RTVSPost2010PropOp32
 70
     1
102
RTVSPost2010Prop33
280
     0
102
RTVSPost2010PropOp33
 70
     1
102
RTVSPost2010Prop34
280
     0
102
RTVSPost2010PropOp34
 70
     1
102
RTVSPost2010Prop35
280
     0
102
RTVSPost2010PropOp35
 70
     1
102
RTVSPost2010Prop36
280
     0
102
RTVSPost2010PropOp36
 70
     1
102
RTVSPost2010Prop37
 90
       50
102
RTVSPost2010PropOp37
 70
     1
102
RTVSPost2010Prop38
140
0.0
102
RTVSPost2010PropOp38
 70
     1
102
RTVSPost2010Prop39
140
1.0
102
RTVSPost2010PropOp39
 70
     1
102
RTVSPost2010Prop40
 90
        0
102
RTVSPost2010PropOp40
 70
     1
102
RTVSPost2010Prop41ColorIndex
 90
       18
102
RTVSPost2010Prop41ColorRGB
 90
        0
102
RTVSPost2010PropOp41
 70
     1
102
RTVSPost2010Prop42
 90
       50
102
RTVSPost2010PropOp42
 70
     1
102
RTVSPost2010Prop43
 90
        3
102
RTVSPost2010PropOp43
 70
     1
102
RTVSPost2010Prop44ColorIndex
 90
        5
102
RTVSPost2010Prop44ColorRGB
 90
      255
102
RTVSPost2010PropOp44
 70
     1
102
RTVSPost2010Prop45
280
     0
102
RTVSPost2010PropOp45
 70
     1
102
RTVSPost2010Prop46
 90
       50
102
RTVSPost2010PropOp46
 70
     1
102
RTVSPost2010Prop47
 90
       50
102
RTVSPost2010PropOp47
 70
     1
102
RTVSPost2010Prop48
 90
       50
102
RTVSPost2010PropOp48
 70
     1
102
RTVSPost2010Prop49
280
     0
102
RTVSPost2010PropOp49
 70
     1
102
RTVSPost2010Prop50
 90
       50
102
RTVSPost2010PropOp50
 70
     1
102
RTVSPost2010Prop51ColorIndex
 90
      256
102
RTVSPost2010Prop51ColorRGB
 90
-16777216
102
RTVSPost2010PropOp51
 70
     0
102
RTVSPost2010Prop52
140
1.0
102
RTVSPost2010PropOp52
 70
     0
102
RTVSPost2010Prop53
 90
        2
102
RTVSPost2010PropOp53
 70
     1
102
RTVSPost2010Prop54
  1
strokes_ogs.tif
102
RTVSPost2010PropOp54
 70
     1
102
RTVSPost2010Prop55
280
     0
102
RTVSPost2010PropOp55
 70
     1
102
RTVSPost2010Prop56
140
1.0
102
RTVSPost2010PropOp56
 70
     1
102
RTVSPost2010Prop57
140
1.0
102
RTVSPost2010PropOp57
 70
     1
102
RTVSPropertyOp0
 70
     0
102
RTVSPropertyOp1
 70
     0
102
RTVSPropertyOp2
 70
     0
102
RTVSPropertyOp3
 70
     0
102
RTVSPropertyOp4
 70
     0
102
RTVSPropertyOp5
 70
     0
102
RTVSPropertyOp6
 70
     0
102
RTVSPropertyOp7
 70
     0
102
RTVSPropertyOp8
 70
     0
102
RTVSPropertyOp9
 70
     0
102
RTVSPropertyOp10
 70
     0
102
RTVSPropertyOp11
 70
     0
102
RTVSPropertyOp12
 70
     0
102
RTVSPropertyOp13
 70
     0
102
RTVSPropertyOp14
 70
     2
102
RTVSPropertyOp15
 70
     0
102
RTVSPropertyOp16
 70
     0
102
RTVSPropertyOp17
 70
     0
102
RTVSPropertyOp18
 70
     0
102
RTVSPropertyOp19
 70
     0
102
RTVSPropertyOp20
 70
     0
102
RTVSPropertyOp21
 70
     0
102
RTVSPropertyOp22
 70
     0
102
RTVSPropertyOp23
 70
     0
102
RTVSPropertyOp24
 70
     0
102
RTVSPropertyOp25
 70
     0
102
RTVSPropertyOp26
 70
     0
102
RTVSPropertyOp27
 70
     0
102
RTVSPropertyOp28
 70
     1
102
RTVSPropertyOp29
 70
     1
102
RTVSPropertyOp30
 70
     1
102
RTVSPropertyOp31
 70
     1
102
RTVSPropertyOp32
 70
     1
102
RTVSPropertyOp33
 70
     1
102
RTVSPropertyOp34
 70
     1
102
RTVSPropertyOp35
 70
     1
102
RTVSPropertyOp36
 70
     1
102
RTVSPropertyOp37
 70
     1
102
RTVSPropertyOp38
 70
     1
102
RTVSPropertyOp39
 70
     1
102
RTVSPropertyOp40
 70
     1
102
RTVSPropertyOp41
 70
     1
102
RTVSPropertyOp42
 70
     1
102
RTVSPropertyOp43
 70
     1
102
RTVSPropertyOp44
 70
     1
102
RTVSPropertyOp45
 70
     1
102
RTVSPropertyOp46
 70
     1
102
RTVSPropertyOp47
 70
     1
102
RTVSPropertyOp48
 70
     1
102
RTVSPropertyOp49
 70
     1
102
RTVSPropertyOp50
 70
     1
102
RTVSPropertyOp51
 70
     0
102
RTVSPropertyOp52
 70
     0
102
RTVSPropertyOp53
 70
     1
102
RTVSPropertyOp54
 70
     1
102
RTVSPropertyOp55
 70
     1
102
RTVSPropertyOp56
 70
     1
102
RTVSPropertyOp57
 70
     1
102
RTVSPropertyOp58
 70
     1
102
RTVSPropertyOp59
 70
     1
102
RTVSPropertyOp60
 70
     1
102
RTVSPropertyOp61
 70
     1
102
RTVSPropertyOp62
 70
     1
  0
XRECORD
  5
688B
102
{ACAD_REACTORS
330
688A
102
}
330
688A
100
AcDbXrecord
280
     1
102
RTVSPost2010Prop28
280
     0
102
RTVSPost2010PropOp28
 70
     1
102
RTVSPost2010Prop29
280
     1
102
RTVSPost2010PropOp29
 70
     1
102
RTVSPost2010Prop30
280
     1
102
RTVSPost2010PropOp30
 70
     1
102
RTVSPost2010Prop31
280
     0
102
RTVSPost2010PropOp31
 70
     1
102
RTVSPost2010Prop32
280
     0
102
RTVSPost2010PropOp32
 70
     1
102
RTVSPost2010Prop33
280
     0
102
RTVSPost2010PropOp33
 70
     1
102
RTVSPost2010Prop34
280
     0
102
RTVSPost2010PropOp34
 70
     1
102
RTVSPost2010Prop35
280
     0
102
RTVSPost2010PropOp35
 70
     1
102
RTVSPost2010Prop36
280
     0
102
RTVSPost2010PropOp36
 70
     1
102
RTVSPost2010Prop37
 90
       50
102
RTVSPost2010PropOp37
 70
     1
102
RTVSPost2010Prop38
140
0.0
102
RTVSPost2010PropOp38
 70
     1
102
RTVSPost2010Prop39
140
1.0
102
RTVSPost2010PropOp39
 70
     1
102
RTVSPost2010Prop40
 90
        0
102
RTVSPost2010PropOp40
 70
     1
102
RTVSPost2010Prop41ColorIndex
 90
       18
102
RTVSPost2010Prop41ColorRGB
 90
        0
102
RTVSPost2010PropOp41
 70
     1
102
RTVSPost2010Prop42
 90
       50
102
RTVSPost2010PropOp42
 70
     1
102
RTVSPost2010Prop43
 90
        3
102
RTVSPost2010PropOp43
 70
     1
102
RTVSPost2010Prop44ColorIndex
 90
        5
102
RTVSPost2010Prop44ColorRGB
 90
      255
102
RTVSPost2010PropOp44
 70
     1
102
RTVSPost2010Prop45
280
     0
102
RTVSPost2010PropOp45
 70
     1
102
RTVSPost2010Prop46
 90
       50
102
RTVSPost2010PropOp46
 70
     1
102
RTVSPost2010Prop47
 90
       50
102
RTVSPost2010PropOp47
 70
     1
102
RTVSPost2010Prop48
 90
       50
102
RTVSPost2010PropOp48
 70
     1
102
RTVSPost2010Prop49
280
     0
102
RTVSPost2010PropOp49
 70
     1
102
RTVSPost2010Prop50
 90
       50
102
RTVSPost2010PropOp50
 70
     1
102
RTVSPost2010Prop51ColorIndex
 90
      256
102
RTVSPost2010Prop51ColorRGB
 90
-16777216
102
RTVSPost2010PropOp51
 70
     0
102
RTVSPost2010Prop52
140
1.0
102
RTVSPost2010PropOp52
 70
     0
102
RTVSPost2010Prop53
 90
        2
102
RTVSPost2010PropOp53
 70
     1
102
RTVSPost2010Prop54
  1
strokes_ogs.tif
102
RTVSPost2010PropOp54
 70
     1
102
RTVSPost2010Prop55
280
     0
102
RTVSPost2010PropOp55
 70
     1
102
RTVSPost2010Prop56
140
1.0
102
RTVSPost2010PropOp56
 70
     1
102
RTVSPost2010Prop57
140
1.0
102
RTVSPost2010PropOp57
 70
     1
102
RTVSPropertyOp0
 70
     1
102
RTVSPropertyOp1
 70
     1
102
RTVSPropertyOp2
 70
     1
102
RTVSPropertyOp3
 70
     1
102
RTVSPropertyOp4
 70
     1
102
RTVSPropertyOp5
 70
     1
102
RTVSPropertyOp6
 70
     1
102
RTVSPropertyOp7
 70
     1
102
RTVSPropertyOp8
 70
     1
102
RTVSPropertyOp9
 70
     1
102
RTVSPropertyOp10
 70
     1
102
RTVSPropertyOp11
 70
     1
102
RTVSPropertyOp12
 70
     1
102
RTVSPropertyOp13
 70
     1
102
RTVSPropertyOp14
 70
     1
102
RTVSPropertyOp15
 70
     1
102
RTVSPropertyOp16
 70
     1
102
RTVSPropertyOp17
 70
     1
102
RTVSPropertyOp18
 70
     1
102
RTVSPropertyOp19
 70
     1
102
RTVSPropertyOp20
 70
     1
102
RTVSPropertyOp21
 70
     1
102
RTVSPropertyOp22
 70
     1
102
RTVSPropertyOp23
 70
     1
102
RTVSPropertyOp24
 70
     1
102
RTVSPropertyOp25
 70
     1
102
RTVSPropertyOp26
 70
     1
102
RTVSPropertyOp27
 70
     1
102
RTVSPropertyOp28
 70
     1
102
RTVSPropertyOp29
 70
     1
102
RTVSPropertyOp30
 70
     1
102
RTVSPropertyOp31
 70
     1
102
RTVSPropertyOp32
 70
     1
102
RTVSPropertyOp33
 70
     1
102
RTVSPropertyOp34
 70
     1
102
RTVSPropertyOp35
 70
     1
102
RTVSPropertyOp36
 70
     1
102
RTVSPropertyOp37
 70
     1
102
RTVSPropertyOp38
 70
     1
102
RTVSPropertyOp39
 70
     1
102
RTVSPropertyOp40
 70
     1
102
RTVSPropertyOp41
 70
     1
102
RTVSPropertyOp42
 70
     1
102
RTVSPropertyOp43
 70
     1
102
RTVSPropertyOp44
 70
     1
102
RTVSPropertyOp45
 70
     1
102
RTVSPropertyOp46
 70
     1
102
RTVSPropertyOp47
 70
     1
102
RTVSPropertyOp48
 70
     1
102
RTVSPropertyOp49
 70
     1
102
RTVSPropertyOp50
 70
     1
102
RTVSPropertyOp51
 70
     0
102
RTVSPropertyOp52
 70
     0
102
RTVSPropertyOp53
 70
     1
102
RTVSPropertyOp54
 70
     1
102
RTVSPropertyOp55
 70
     1
102
RTVSPropertyOp56
 70
     1
102
RTVSPropertyOp57
 70
     1
102
RTVSPropertyOp58
 70
     1
102
RTVSPropertyOp59
 70
     1
102
RTVSPropertyOp60
 70
     1
102
RTVSPropertyOp61
 70
     1
102
RTVSPropertyOp62
 70
     1
  0
XRECORD
  5
6893
102
{ACAD_REACTORS
330
6892
102
}
330
6892
100
AcDbXrecord
280
     1
102
RTVSPost2010Prop28
280
     0
102
RTVSPost2010PropOp28
 70
     1
102
RTVSPost2010Prop29
280
     1
102
RTVSPost2010PropOp29
 70
     1
102
RTVSPost2010Prop30
280
     1
102
RTVSPost2010PropOp30
 70
     1
102
RTVSPost2010Prop31
280
     0
102
RTVSPost2010PropOp31
 70
     1
102
RTVSPost2010Prop32
280
     0
102
RTVSPost2010PropOp32
 70
     1
102
RTVSPost2010Prop33
280
     0
102
RTVSPost2010PropOp33
 70
     1
102
RTVSPost2010Prop34
280
     0
102
RTVSPost2010PropOp34
 70
     1
102
RTVSPost2010Prop35
280
     0
102
RTVSPost2010PropOp35
 70
     1
102
RTVSPost2010Prop36
280
     0
102
RTVSPost2010PropOp36
 70
     1
102
RTVSPost2010Prop37
 90
       50
102
RTVSPost2010PropOp37
 70
     1
102
RTVSPost2010Prop38
140
0.0
102
RTVSPost2010PropOp38
 70
     1
102
RTVSPost2010Prop39
140
1.0
102
RTVSPost2010PropOp39
 70
     1
102
RTVSPost2010Prop40
 90
        0
102
RTVSPost2010PropOp40
 70
     1
102
RTVSPost2010Prop41ColorIndex
 90
       18
102
RTVSPost2010Prop41ColorRGB
 90
        0
102
RTVSPost2010PropOp41
 70
     1
102
RTVSPost2010Prop42
 90
       50
102
RTVSPost2010PropOp42
 70
     1
102
RTVSPost2010Prop43
 90
        3
102
RTVSPost2010PropOp43
 70
     1
102
RTVSPost2010Prop44ColorIndex
 90
        5
102
RTVSPost2010Prop44ColorRGB
 90
      255
102
RTVSPost2010PropOp44
 70
     1
102
RTVSPost2010Prop45
280
     0
102
RTVSPost2010PropOp45
 70
     1
102
RTVSPost2010Prop46
 90
       50
102
RTVSPost2010PropOp46
 70
     1
102
RTVSPost2010Prop47
 90
       50
102
RTVSPost2010PropOp47
 70
     1
102
RTVSPost2010Prop48
 90
       50
102
RTVSPost2010PropOp48
 70
     1
102
RTVSPost2010Prop49
280
     0
102
RTVSPost2010PropOp49
 70
     1
102
RTVSPost2010Prop50
 90
       50
102
RTVSPost2010PropOp50
 70
     1
102
RTVSPost2010Prop51ColorIndex
 90
      256
102
RTVSPost2010Prop51ColorRGB
 90
-16777216
102
RTVSPost2010PropOp51
 70
     0
102
RTVSPost2010Prop52
140
1.0
102
RTVSPost2010PropOp52
 70
     0
102
RTVSPost2010Prop53
 90
        2
102
RTVSPost2010PropOp53
 70
     1
102
RTVSPost2010Prop54
  1
strokes_ogs.tif
102
RTVSPost2010PropOp54
 70
     1
102
RTVSPost2010Prop55
280
     0
102
RTVSPost2010PropOp55
 70
     1
102
RTVSPost2010Prop56
140
1.0
102
RTVSPost2010PropOp56
 70
     1
102
RTVSPost2010Prop57
140
1.0
102
RTVSPost2010PropOp57
 70
     1
102
RTVSPropertyOp0
 70
     0
102
RTVSPropertyOp1
 70
     0
102
RTVSPropertyOp2
 70
     0
102
RTVSPropertyOp3
 70
     0
102
RTVSPropertyOp4
 70
     0
102
RTVSPropertyOp5
 70
     0
102
RTVSPropertyOp6
 70
     0
102
RTVSPropertyOp7
 70
     0
102
RTVSPropertyOp8
 70
     0
102
RTVSPropertyOp9
 70
     0
102
RTVSPropertyOp10
 70
     0
102
RTVSPropertyOp11
 70
     0
102
RTVSPropertyOp12
 70
     0
102
RTVSPropertyOp13
 70
     0
102
RTVSPropertyOp14
 70
     2
102
RTVSPropertyOp15
 70
     0
102
RTVSPropertyOp16
 70
     0
102
RTVSPropertyOp17
 70
     0
102
RTVSPropertyOp18
 70
     0
102
RTVSPropertyOp19
 70
     0
102
RTVSPropertyOp20
 70
     0
102
RTVSPropertyOp21
 70
     0
102
RTVSPropertyOp22
 70
     0
102
RTVSPropertyOp23
 70
     0
102
RTVSPropertyOp24
 70
     0
102
RTVSPropertyOp25
 70
     0
102
RTVSPropertyOp26
 70
     0
102
RTVSPropertyOp27
 70
     0
102
RTVSPropertyOp28
 70
     1
102
RTVSPropertyOp29
 70
     1
102
RTVSPropertyOp30
 70
     1
102
RTVSPropertyOp31
 70
     1
102
RTVSPropertyOp32
 70
     1
102
RTVSPropertyOp33
 70
     1
102
RTVSPropertyOp34
 70
     1
102
RTVSPropertyOp35
 70
     1
102
RTVSPropertyOp36
 70
     1
102
RTVSPropertyOp37
 70
     1
102
RTVSPropertyOp38
 70
     1
102
RTVSPropertyOp39
 70
     1
102
RTVSPropertyOp40
 70
     1
102
RTVSPropertyOp41
 70
     1
102
RTVSPropertyOp42
 70
     1
102
RTVSPropertyOp43
 70
     1
102
RTVSPropertyOp44
 70
     1
102
RTVSPropertyOp45
 70
     1
102
RTVSPropertyOp46
 70
     1
102
RTVSPropertyOp47
 70
     1
102
RTVSPropertyOp48
 70
     1
102
RTVSPropertyOp49
 70
     1
102
RTVSPropertyOp50
 70
     1
102
RTVSPropertyOp51
 70
     0
102
RTVSPropertyOp52
 70
     0
102
RTVSPropertyOp53
 70
     1
102
RTVSPropertyOp54
 70
     1
102
RTVSPropertyOp55
 70
     1
102
RTVSPropertyOp56
 70
     1
102
RTVSPropertyOp57
 70
     1
102
RTVSPropertyOp58
 70
     1
102
RTVSPropertyOp59
 70
     1
102
RTVSPropertyOp60
 70
     1
102
RTVSPropertyOp61
 70
     1
102
RTVSPropertyOp62
 70
     1
  0
XRECORD
  5
6883
102
{ACAD_REACTORS
330
6882
102
}
330
6882
100
AcDbXrecord
280
     1
102
RTVSPost2010Prop28
280
     0
102
RTVSPost2010PropOp28
 70
     1
102
RTVSPost2010Prop29
280
     1
102
RTVSPost2010PropOp29
 70
     1
102
RTVSPost2010Prop30
280
     1
102
RTVSPost2010PropOp30
 70
     1
102
RTVSPost2010Prop31
280
     0
102
RTVSPost2010PropOp31
 70
     1
102
RTVSPost2010Prop32
280
     0
102
RTVSPost2010PropOp32
 70
     1
102
RTVSPost2010Prop33
280
     0
102
RTVSPost2010PropOp33
 70
     1
102
RTVSPost2010Prop34
280
     0
102
RTVSPost2010PropOp34
 70
     1
102
RTVSPost2010Prop35
280
     0
102
RTVSPost2010PropOp35
 70
     1
102
RTVSPost2010Prop36
280
     0
102
RTVSPost2010PropOp36
 70
     1
102
RTVSPost2010Prop37
 90
       50
102
RTVSPost2010PropOp37
 70
     1
102
RTVSPost2010Prop38
140
0.0
102
RTVSPost2010PropOp38
 70
     1
102
RTVSPost2010Prop39
140
1.0
102
RTVSPost2010PropOp39
 70
     1
102
RTVSPost2010Prop40
 90
        0
102
RTVSPost2010PropOp40
 70
     1
102
RTVSPost2010Prop41ColorIndex
 90
       18
102
RTVSPost2010Prop41ColorRGB
 90
        0
102
RTVSPost2010PropOp41
 70
     1
102
RTVSPost2010Prop42
 90
       50
102
RTVSPost2010PropOp42
 70
     1
102
RTVSPost2010Prop43
 90
        3
102
RTVSPost2010PropOp43
 70
     1
102
RTVSPost2010Prop44ColorIndex
 90
        5
102
RTVSPost2010Prop44ColorRGB
 90
      255
102
RTVSPost2010PropOp44
 70
     1
102
RTVSPost2010Prop45
280
     0
102
RTVSPost2010PropOp45
 70
     1
102
RTVSPost2010Prop46
 90
       50
102
RTVSPost2010PropOp46
 70
     1
102
RTVSPost2010Prop47
 90
       50
102
RTVSPost2010PropOp47
 70
     1
102
RTVSPost2010Prop48
 90
       50
102
RTVSPost2010PropOp48
 70
     1
102
RTVSPost2010Prop49
280
     0
102
RTVSPost2010PropOp49
 70
     1
102
RTVSPost2010Prop50
 90
       50
102
RTVSPost2010PropOp50
 70
     1
102
RTVSPost2010Prop51ColorIndex
 90
      256
102
RTVSPost2010Prop51ColorRGB
 90
-16777216
102
RTVSPost2010PropOp51
 70
     0
102
RTVSPost2010Prop52
140
1.0
102
RTVSPost2010PropOp52
 70
     0
102
RTVSPost2010Prop53
 90
        2
102
RTVSPost2010PropOp53
 70
     1
102
RTVSPost2010Prop54
  1
strokes_ogs.tif
102
RTVSPost2010PropOp54
 70
     1
102
RTVSPost2010Prop55
280
     0
102
RTVSPost2010PropOp55
 70
     1
102
RTVSPost2010Prop56
140
1.0
102
RTVSPost2010PropOp56
 70
     1
102
RTVSPost2010Prop57
140
1.0
102
RTVSPost2010PropOp57
 70
     1
102
RTVSPropertyOp0
 70
     1
102
RTVSPropertyOp1
 70
     1
102
RTVSPropertyOp2
 70
     1
102
RTVSPropertyOp3
 70
     1
102
RTVSPropertyOp4
 70
     1
102
RTVSPropertyOp5
 70
     1
102
RTVSPropertyOp6
 70
     1
102
RTVSPropertyOp7
 70
     1
102
RTVSPropertyOp8
 70
     1
102
RTVSPropertyOp9
 70
     1
102
RTVSPropertyOp10
 70
     1
102
RTVSPropertyOp11
 70
     1
102
RTVSPropertyOp12
 70
     1
102
RTVSPropertyOp13
 70
     1
102
RTVSPropertyOp14
 70
     1
102
RTVSPropertyOp15
 70
     1
102
RTVSPropertyOp16
 70
     1
102
RTVSPropertyOp17
 70
     1
102
RTVSPropertyOp18
 70
     1
102
RTVSPropertyOp19
 70
     1
102
RTVSPropertyOp20
 70
     1
102
RTVSPropertyOp21
 70
     1
102
RTVSPropertyOp22
 70
     1
102
RTVSPropertyOp23
 70
     1
102
RTVSPropertyOp24
 70
     1
102
RTVSPropertyOp25
 70
     1
102
RTVSPropertyOp26
 70
     1
102
RTVSPropertyOp27
 70
     1
102
RTVSPropertyOp28
 70
     1
102
RTVSPropertyOp29
 70
     1
102
RTVSPropertyOp30
 70
     1
102
RTVSPropertyOp31
 70
     1
102
RTVSPropertyOp32
 70
     1
102
RTVSPropertyOp33
 70
     1
102
RTVSPropertyOp34
 70
     1
102
RTVSPropertyOp35
 70
     1
102
RTVSPropertyOp36
 70
     1
102
RTVSPropertyOp37
 70
     1
102
RTVSPropertyOp38
 70
     1
102
RTVSPropertyOp39
 70
     1
102
RTVSPropertyOp40
 70
     1
102
RTVSPropertyOp41
 70
     1
102
RTVSPropertyOp42
 70
     1
102
RTVSPropertyOp43
 70
     1
102
RTVSPropertyOp44
 70
     1
102
RTVSPropertyOp45
 70
     1
102
RTVSPropertyOp46
 70
     1
102
RTVSPropertyOp47
 70
     1
102
RTVSPropertyOp48
 70
     1
102
RTVSPropertyOp49
 70
     1
102
RTVSPropertyOp50
 70
     1
102
RTVSPropertyOp51
 70
     0
102
RTVSPropertyOp52
 70
     0
102
RTVSPropertyOp53
 70
     1
102
RTVSPropertyOp54
 70
     1
102
RTVSPropertyOp55
 70
     1
102
RTVSPropertyOp56
 70
     1
102
RTVSPropertyOp57
 70
     1
102
RTVSPropertyOp58
 70
     1
102
RTVSPropertyOp59
 70
     1
102
RTVSPropertyOp60
 70
     1
102
RTVSPropertyOp61
 70
     1
102
RTVSPropertyOp62
 70
     1
  0
XRECORD
  5
68A4
102
{ACAD_REACTORS
330
68A3
102
}
330
68A3
100
AcDbXrecord
280
     1
102
RTVSPost2010Prop28
280
     0
102
RTVSPost2010PropOp28
 70
     1
102
RTVSPost2010Prop29
280
     1
102
RTVSPost2010PropOp29
 70
     1
102
RTVSPost2010Prop30
280
     1
102
RTVSPost2010PropOp30
 70
     1
102
RTVSPost2010Prop31
280
     0
102
RTVSPost2010PropOp31
 70
     1
102
RTVSPost2010Prop32
280
     0
102
RTVSPost2010PropOp32
 70
     1
102
RTVSPost2010Prop33
280
     0
102
RTVSPost2010PropOp33
 70
     1
102
RTVSPost2010Prop34
280
     0
102
RTVSPost2010PropOp34
 70
     1
102
RTVSPost2010Prop35
280
     0
102
RTVSPost2010PropOp35
 70
     1
102
RTVSPost2010Prop36
280
     0
102
RTVSPost2010PropOp36
 70
     1
102
RTVSPost2010Prop37
 90
       50
102
RTVSPost2010PropOp37
 70
     1
102
RTVSPost2010Prop38
140
0.0
102
RTVSPost2010PropOp38
 70
     1
102
RTVSPost2010Prop39
140
1.0
102
RTVSPost2010PropOp39
 70
     1
102
RTVSPost2010Prop40
 90
        0
102
RTVSPost2010PropOp40
 70
     1
102
RTVSPost2010Prop41ColorIndex
 90
       18
102
RTVSPost2010Prop41ColorRGB
 90
        0
102
RTVSPost2010PropOp41
 70
     1
102
RTVSPost2010Prop42
 90
       50
102
RTVSPost2010PropOp42
 70
     1
102
RTVSPost2010Prop43
 90
        3
102
RTVSPost2010PropOp43
 70
     1
102
RTVSPost2010Prop44ColorIndex
 90
        5
102
RTVSPost2010Prop44ColorRGB
 90
      255
102
RTVSPost2010PropOp44
 70
     1
102
RTVSPost2010Prop45
280
     0
102
RTVSPost2010PropOp45
 70
     1
102
RTVSPost2010Prop46
 90
       50
102
RTVSPost2010PropOp46
 70
     1
102
RTVSPost2010Prop47
 90
       50
102
RTVSPost2010PropOp47
 70
     1
102
RTVSPost2010Prop48
 90
       50
102
RTVSPost2010PropOp48
 70
     1
102
RTVSPost2010Prop49
280
     0
102
RTVSPost2010PropOp49
 70
     1
102
RTVSPost2010Prop50
 90
       50
102
RTVSPost2010PropOp50
 70
     1
102
RTVSPost2010Prop51ColorIndex
 90
      256
102
RTVSPost2010Prop51ColorRGB
 90
-16777216
102
RTVSPost2010PropOp51
 70
     0
102
RTVSPost2010Prop52
140
1.0
102
RTVSPost2010PropOp52
 70
     0
102
RTVSPost2010Prop53
 90
        2
102
RTVSPost2010PropOp53
 70
     1
102
RTVSPost2010Prop54
  1
strokes_ogs.tif
102
RTVSPost2010PropOp54
 70
     1
102
RTVSPost2010Prop55
280
     0
102
RTVSPost2010PropOp55
 70
     1
102
RTVSPost2010Prop56
140
1.0
102
RTVSPost2010PropOp56
 70
     1
102
RTVSPost2010Prop57
140
1.0
102
RTVSPost2010PropOp57
 70
     1
102
RTVSPropertyOp0
 70
     1
102
RTVSPropertyOp1
 70
     1
102
RTVSPropertyOp2
 70
     1
102
RTVSPropertyOp3
 70
     1
102
RTVSPropertyOp4
 70
     1
102
RTVSPropertyOp5
 70
     1
102
RTVSPropertyOp6
 70
     1
102
RTVSPropertyOp7
 70
     1
102
RTVSPropertyOp8
 70
     1
102
RTVSPropertyOp9
 70
     1
102
RTVSPropertyOp10
 70
     1
102
RTVSPropertyOp11
 70
     1
102
RTVSPropertyOp12
 70
     1
102
RTVSPropertyOp13
 70
     1
102
RTVSPropertyOp14
 70
     1
102
RTVSPropertyOp15
 70
     1
102
RTVSPropertyOp16
 70
     1
102
RTVSPropertyOp17
 70
     1
102
RTVSPropertyOp18
 70
     1
102
RTVSPropertyOp19
 70
     1
102
RTVSPropertyOp20
 70
     1
102
RTVSPropertyOp21
 70
     1
102
RTVSPropertyOp22
 70
     1
102
RTVSPropertyOp23
 70
     1
102
RTVSPropertyOp24
 70
     1
102
RTVSPropertyOp25
 70
     1
102
RTVSPropertyOp26
 70
     1
102
RTVSPropertyOp27
 70
     1
102
RTVSPropertyOp28
 70
     1
102
RTVSPropertyOp29
 70
     1
102
RTVSPropertyOp30
 70
     1
102
RTVSPropertyOp31
 70
     1
102
RTVSPropertyOp32
 70
     1
102
RTVSPropertyOp33
 70
     1
102
RTVSPropertyOp34
 70
     1
102
RTVSPropertyOp35
 70
     1
102
RTVSPropertyOp36
 70
     1
102
RTVSPropertyOp37
 70
     1
102
RTVSPropertyOp38
 70
     1
102
RTVSPropertyOp39
 70
     1
102
RTVSPropertyOp40
 70
     1
102
RTVSPropertyOp41
 70
     1
102
RTVSPropertyOp42
 70
     1
102
RTVSPropertyOp43
 70
     1
102
RTVSPropertyOp44
 70
     1
102
RTVSPropertyOp45
 70
     1
102
RTVSPropertyOp46
 70
     1
102
RTVSPropertyOp47
 70
     1
102
RTVSPropertyOp48
 70
     1
102
RTVSPropertyOp49
 70
     1
102
RTVSPropertyOp50
 70
     1
102
RTVSPropertyOp51
 70
     0
102
RTVSPropertyOp52
 70
     0
102
RTVSPropertyOp53
 70
     1
102
RTVSPropertyOp54
 70
     1
102
RTVSPropertyOp55
 70
     1
102
RTVSPropertyOp56
 70
     1
102
RTVSPropertyOp57
 70
     1
102
RTVSPropertyOp58
 70
     1
102
RTVSPropertyOp59
 70
     1
102
RTVSPropertyOp60
 70
     1
102
RTVSPropertyOp61
 70
     1
102
RTVSPropertyOp62
 70
     1
  0
XRECORD
  5
68A2
102
{ACAD_REACTORS
330
68A1
102
}
330
68A1
100
AcDbXrecord
280
     1
102
RTVSPost2010Prop28
280
     0
102
RTVSPost2010PropOp28
 70
     1
102
RTVSPost2010Prop29
280
     1
102
RTVSPost2010PropOp29
 70
     1
102
RTVSPost2010Prop30
280
     1
102
RTVSPost2010PropOp30
 70
     1
102
RTVSPost2010Prop31
280
     0
102
RTVSPost2010PropOp31
 70
     1
102
RTVSPost2010Prop32
280
     0
102
RTVSPost2010PropOp32
 70
     1
102
RTVSPost2010Prop33
280
     0
102
RTVSPost2010PropOp33
 70
     1
102
RTVSPost2010Prop34
280
     0
102
RTVSPost2010PropOp34
 70
     1
102
RTVSPost2010Prop35
280
     0
102
RTVSPost2010PropOp35
 70
     1
102
RTVSPost2010Prop36
280
     0
102
RTVSPost2010PropOp36
 70
     1
102
RTVSPost2010Prop37
 90
       50
102
RTVSPost2010PropOp37
 70
     1
102
RTVSPost2010Prop38
140
0.0
102
RTVSPost2010PropOp38
 70
     1
102
RTVSPost2010Prop39
140
1.0
102
RTVSPost2010PropOp39
 70
     1
102
RTVSPost2010Prop40
 90
        0
102
RTVSPost2010PropOp40
 70
     1
102
RTVSPost2010Prop41ColorIndex
 90
       18
102
RTVSPost2010Prop41ColorRGB
 90
        0
102
RTVSPost2010PropOp41
 70
     1
102
RTVSPost2010Prop42
 90
       50
102
RTVSPost2010PropOp42
 70
     1
102
RTVSPost2010Prop43
 90
        3
102
RTVSPost2010PropOp43
 70
     1
102
RTVSPost2010Prop44ColorIndex
 90
        5
102
RTVSPost2010Prop44ColorRGB
 90
      255
102
RTVSPost2010PropOp44
 70
     1
102
RTVSPost2010Prop45
280
     0
102
RTVSPost2010PropOp45
 70
     1
102
RTVSPost2010Prop46
 90
       50
102
RTVSPost2010PropOp46
 70
     1
102
RTVSPost2010Prop47
 90
       50
102
RTVSPost2010PropOp47
 70
     1
102
RTVSPost2010Prop48
 90
       50
102
RTVSPost2010PropOp48
 70
     1
102
RTVSPost2010Prop49
280
     0
102
RTVSPost2010PropOp49
 70
     1
102
RTVSPost2010Prop50
 90
       50
102
RTVSPost2010PropOp50
 70
     1
102
RTVSPost2010Prop51ColorIndex
 90
      256
102
RTVSPost2010Prop51ColorRGB
 90
-16777216
102
RTVSPost2010PropOp51
 70
     0
102
RTVSPost2010Prop52
140
1.0
102
RTVSPost2010PropOp52
 70
     0
102
RTVSPost2010Prop53
 90
        2
102
RTVSPost2010PropOp53
 70
     1
102
RTVSPost2010Prop54
  1
strokes_ogs.tif
102
RTVSPost2010PropOp54
 70
     1
102
RTVSPost2010Prop55
280
     0
102
RTVSPost2010PropOp55
 70
     1
102
RTVSPost2010Prop56
140
1.0
102
RTVSPost2010PropOp56
 70
     1
102
RTVSPost2010Prop57
140
1.0
102
RTVSPost2010PropOp57
 70
     1
102
RTVSPropertyOp0
 70
     1
102
RTVSPropertyOp1
 70
     1
102
RTVSPropertyOp2
 70
     1
102
RTVSPropertyOp3
 70
     1
102
RTVSPropertyOp4
 70
     1
102
RTVSPropertyOp5
 70
     1
102
RTVSPropertyOp6
 70
     1
102
RTVSPropertyOp7
 70
     1
102
RTVSPropertyOp8
 70
     1
102
RTVSPropertyOp9
 70
     1
102
RTVSPropertyOp10
 70
     1
102
RTVSPropertyOp11
 70
     1
102
RTVSPropertyOp12
 70
     1
102
RTVSPropertyOp13
 70
     1
102
RTVSPropertyOp14
 70
     1
102
RTVSPropertyOp15
 70
     1
102
RTVSPropertyOp16
 70
     1
102
RTVSPropertyOp17
 70
     1
102
RTVSPropertyOp18
 70
     1
102
RTVSPropertyOp19
 70
     1
102
RTVSPropertyOp20
 70
     1
102
RTVSPropertyOp21
 70
     1
102
RTVSPropertyOp22
 70
     1
102
RTVSPropertyOp23
 70
     1
102
RTVSPropertyOp24
 70
     1
102
RTVSPropertyOp25
 70
     1
102
RTVSPropertyOp26
 70
     1
102
RTVSPropertyOp27
 70
     1
102
RTVSPropertyOp28
 70
     1
102
RTVSPropertyOp29
 70
     1
102
RTVSPropertyOp30
 70
     1
102
RTVSPropertyOp31
 70
     1
102
RTVSPropertyOp32
 70
     1
102
RTVSPropertyOp33
 70
     1
102
RTVSPropertyOp34
 70
     1
102
RTVSPropertyOp35
 70
     1
102
RTVSPropertyOp36
 70
     1
102
RTVSPropertyOp37
 70
     1
102
RTVSPropertyOp38
 70
     1
102
RTVSPropertyOp39
 70
     1
102
RTVSPropertyOp40
 70
     1
102
RTVSPropertyOp41
 70
     1
102
RTVSPropertyOp42
 70
     1
102
RTVSPropertyOp43
 70
     1
102
RTVSPropertyOp44
 70
     1
102
RTVSPropertyOp45
 70
     1
102
RTVSPropertyOp46
 70
     1
102
RTVSPropertyOp47
 70
     1
102
RTVSPropertyOp48
 70
     1
102
RTVSPropertyOp49
 70
     1
102
RTVSPropertyOp50
 70
     1
102
RTVSPropertyOp51
 70
     0
102
RTVSPropertyOp52
 70
     0
102
RTVSPropertyOp53
 70
     1
102
RTVSPropertyOp54
 70
     1
102
RTVSPropertyOp55
 70
     1
102
RTVSPropertyOp56
 70
     1
102
RTVSPropertyOp57
 70
     1
102
RTVSPropertyOp58
 70
     1
102
RTVSPropertyOp59
 70
     1
102
RTVSPropertyOp60
 70
     1
102
RTVSPropertyOp61
 70
     1
102
RTVSPropertyOp62
 70
     1
  0
XRECORD
  5
689C
102
{ACAD_REACTORS
330
689B
102
}
330
689B
100
AcDbXrecord
280
     1
102
RTVSPost2010Prop28
280
     0
102
RTVSPost2010PropOp28
 70
     1
102
RTVSPost2010Prop29
280
     1
102
RTVSPost2010PropOp29
 70
     1
102
RTVSPost2010Prop30
280
     1
102
RTVSPost2010PropOp30
 70
     1
102
RTVSPost2010Prop31
280
     0
102
RTVSPost2010PropOp31
 70
     1
102
RTVSPost2010Prop32
280
     0
102
RTVSPost2010PropOp32
 70
     1
102
RTVSPost2010Prop33
280
     0
102
RTVSPost2010PropOp33
 70
     1
102
RTVSPost2010Prop34
280
     0
102
RTVSPost2010PropOp34
 70
     1
102
RTVSPost2010Prop35
280
     0
102
RTVSPost2010PropOp35
 70
     1
102
RTVSPost2010Prop36
280
     0
102
RTVSPost2010PropOp36
 70
     1
102
RTVSPost2010Prop37
 90
       50
102
RTVSPost2010PropOp37
 70
     1
102
RTVSPost2010Prop38
140
0.0
102
RTVSPost2010PropOp38
 70
     1
102
RTVSPost2010Prop39
140
1.0
102
RTVSPost2010PropOp39
 70
     1
102
RTVSPost2010Prop40
 90
        0
102
RTVSPost2010PropOp40
 70
     1
102
RTVSPost2010Prop41ColorIndex
 90
       18
102
RTVSPost2010Prop41ColorRGB
 90
        0
102
RTVSPost2010PropOp41
 70
     1
102
RTVSPost2010Prop42
 90
       50
102
RTVSPost2010PropOp42
 70
     1
102
RTVSPost2010Prop43
 90
        3
102
RTVSPost2010PropOp43
 70
     1
102
RTVSPost2010Prop44ColorIndex
 90
        5
102
RTVSPost2010Prop44ColorRGB
 90
      255
102
RTVSPost2010PropOp44
 70
     1
102
RTVSPost2010Prop45
280
     0
102
RTVSPost2010PropOp45
 70
     1
102
RTVSPost2010Prop46
 90
       50
102
RTVSPost2010PropOp46
 70
     1
102
RTVSPost2010Prop47
 90
       50
102
RTVSPost2010PropOp47
 70
     1
102
RTVSPost2010Prop48
 90
       50
102
RTVSPost2010PropOp48
 70
     1
102
RTVSPost2010Prop49
280
     0
102
RTVSPost2010PropOp49
 70
     1
102
RTVSPost2010Prop50
 90
       50
102
RTVSPost2010PropOp50
 70
     1
102
RTVSPost2010Prop51ColorIndex
 90
      256
102
RTVSPost2010Prop51ColorRGB
 90
-16777216
102
RTVSPost2010PropOp51
 70
     0
102
RTVSPost2010Prop52
140
1.0
102
RTVSPost2010PropOp52
 70
     0
102
RTVSPost2010Prop53
 90
        2
102
RTVSPost2010PropOp53
 70
     1
102
RTVSPost2010Prop54
  1
strokes_ogs.tif
102
RTVSPost2010PropOp54
 70
     1
102
RTVSPost2010Prop55
280
     0
102
RTVSPost2010PropOp55
 70
     1
102
RTVSPost2010Prop56
140
1.0
102
RTVSPost2010PropOp56
 70
     1
102
RTVSPost2010Prop57
140
1.0
102
RTVSPost2010PropOp57
 70
     1
102
RTVSPropertyOp0
 70
     1
102
RTVSPropertyOp1
 70
     1
102
RTVSPropertyOp2
 70
     1
102
RTVSPropertyOp3
 70
     1
102
RTVSPropertyOp4
 70
     1
102
RTVSPropertyOp5
 70
     1
102
RTVSPropertyOp6
 70
     1
102
RTVSPropertyOp7
 70
     1
102
RTVSPropertyOp8
 70
     1
102
RTVSPropertyOp9
 70
     1
102
RTVSPropertyOp10
 70
     1
102
RTVSPropertyOp11
 70
     1
102
RTVSPropertyOp12
 70
     1
102
RTVSPropertyOp13
 70
     1
102
RTVSPropertyOp14
 70
     1
102
RTVSPropertyOp15
 70
     1
102
RTVSPropertyOp16
 70
     1
102
RTVSPropertyOp17
 70
     1
102
RTVSPropertyOp18
 70
     1
102
RTVSPropertyOp19
 70
     1
102
RTVSPropertyOp20
 70
     1
102
RTVSPropertyOp21
 70
     1
102
RTVSPropertyOp22
 70
     1
102
RTVSPropertyOp23
 70
     1
102
RTVSPropertyOp24
 70
     1
102
RTVSPropertyOp25
 70
     1
102
RTVSPropertyOp26
 70
     1
102
RTVSPropertyOp27
 70
     1
102
RTVSPropertyOp28
 70
     1
102
RTVSPropertyOp29
 70
     1
102
RTVSPropertyOp30
 70
     1
102
RTVSPropertyOp31
 70
     1
102
RTVSPropertyOp32
 70
     1
102
RTVSPropertyOp33
 70
     1
102
RTVSPropertyOp34
 70
     1
102
RTVSPropertyOp35
 70
     1
102
RTVSPropertyOp36
 70
     1
102
RTVSPropertyOp37
 70
     1
102
RTVSPropertyOp38
 70
     1
102
RTVSPropertyOp39
 70
     1
102
RTVSPropertyOp40
 70
     1
102
RTVSPropertyOp41
 70
     1
102
RTVSPropertyOp42
 70
     1
102
RTVSPropertyOp43
 70
     1
102
RTVSPropertyOp44
 70
     1
102
RTVSPropertyOp45
 70
     1
102
RTVSPropertyOp46
 70
     1
102
RTVSPropertyOp47
 70
     1
102
RTVSPropertyOp48
 70
     1
102
RTVSPropertyOp49
 70
     1
102
RTVSPropertyOp50
 70
     1
102
RTVSPropertyOp51
 70
     0
102
RTVSPropertyOp52
 70
     0
102
RTVSPropertyOp53
 70
     1
102
RTVSPropertyOp54
 70
     1
102
RTVSPropertyOp55
 70
     1
102
RTVSPropertyOp56
 70
     1
102
RTVSPropertyOp57
 70
     1
102
RTVSPropertyOp58
 70
     1
102
RTVSPropertyOp59
 70
     1
102
RTVSPropertyOp60
 70
     1
102
RTVSPropertyOp61
 70
     1
102
RTVSPropertyOp62
 70
     1
  0
XRECORD
  5
689E
102
{ACAD_REACTORS
330
689D
102
}
330
689D
100
AcDbXrecord
280
     1
102
RTVSPost2010Prop28
280
     0
102
RTVSPost2010PropOp28
 70
     1
102
RTVSPost2010Prop29
280
     1
102
RTVSPost2010PropOp29
 70
     1
102
RTVSPost2010Prop30
280
     1
102
RTVSPost2010PropOp30
 70
     1
102
RTVSPost2010Prop31
280
     0
102
RTVSPost2010PropOp31
 70
     1
102
RTVSPost2010Prop32
280
     0
102
RTVSPost2010PropOp32
 70
     1
102
RTVSPost2010Prop33
280
     0
102
RTVSPost2010PropOp33
 70
     1
102
RTVSPost2010Prop34
280
     0
102
RTVSPost2010PropOp34
 70
     1
102
RTVSPost2010Prop35
280
     0
102
RTVSPost2010PropOp35
 70
     1
102
RTVSPost2010Prop36
280
     0
102
RTVSPost2010PropOp36
 70
     1
102
RTVSPost2010Prop37
 90
       50
102
RTVSPost2010PropOp37
 70
     1
102
RTVSPost2010Prop38
140
0.0
102
RTVSPost2010PropOp38
 70
     1
102
RTVSPost2010Prop39
140
1.0
102
RTVSPost2010PropOp39
 70
     1
102
RTVSPost2010Prop40
 90
        0
102
RTVSPost2010PropOp40
 70
     1
102
RTVSPost2010Prop41ColorIndex
 90
       18
102
RTVSPost2010Prop41ColorRGB
 90
        0
102
RTVSPost2010PropOp41
 70
     1
102
RTVSPost2010Prop42
 90
       50
102
RTVSPost2010PropOp42
 70
     1
102
RTVSPost2010Prop43
 90
        3
102
RTVSPost2010PropOp43
 70
     1
102
RTVSPost2010Prop44ColorIndex
 90
        5
102
RTVSPost2010Prop44ColorRGB
 90
      255
102
RTVSPost2010PropOp44
 70
     1
102
RTVSPost2010Prop45
280
     0
102
RTVSPost2010PropOp45
 70
     1
102
RTVSPost2010Prop46
 90
       50
102
RTVSPost2010PropOp46
 70
     1
102
RTVSPost2010Prop47
 90
       50
102
RTVSPost2010PropOp47
 70
     1
102
RTVSPost2010Prop48
 90
       50
102
RTVSPost2010PropOp48
 70
     1
102
RTVSPost2010Prop49
280
     0
102
RTVSPost2010PropOp49
 70
     1
102
RTVSPost2010Prop50
 90
       50
102
RTVSPost2010PropOp50
 70
     1
102
RTVSPost2010Prop51ColorIndex
 90
      256
102
RTVSPost2010Prop51ColorRGB
 90
-16777216
102
RTVSPost2010PropOp51
 70
     0
102
RTVSPost2010Prop52
140
1.0
102
RTVSPost2010PropOp52
 70
     0
102
RTVSPost2010Prop53
 90
        2
102
RTVSPost2010PropOp53
 70
     1
102
RTVSPost2010Prop54
  1
strokes_ogs.tif
102
RTVSPost2010PropOp54
 70
     1
102
RTVSPost2010Prop55
280
     0
102
RTVSPost2010PropOp55
 70
     1
102
RTVSPost2010Prop56
140
1.0
102
RTVSPost2010PropOp56
 70
     1
102
RTVSPost2010Prop57
140
1.0
102
RTVSPost2010PropOp57
 70
     1
102
RTVSPropertyOp0
 70
     1
102
RTVSPropertyOp1
 70
     1
102
RTVSPropertyOp2
 70
     1
102
RTVSPropertyOp3
 70
     1
102
RTVSPropertyOp4
 70
     1
102
RTVSPropertyOp5
 70
     1
102
RTVSPropertyOp6
 70
     1
102
RTVSPropertyOp7
 70
     1
102
RTVSPropertyOp8
 70
     1
102
RTVSPropertyOp9
 70
     1
102
RTVSPropertyOp10
 70
     1
102
RTVSPropertyOp11
 70
     1
102
RTVSPropertyOp12
 70
     1
102
RTVSPropertyOp13
 70
     1
102
RTVSPropertyOp14
 70
     1
102
RTVSPropertyOp15
 70
     1
102
RTVSPropertyOp16
 70
     1
102
RTVSPropertyOp17
 70
     1
102
RTVSPropertyOp18
 70
     1
102
RTVSPropertyOp19
 70
     1
102
RTVSPropertyOp20
 70
     1
102
RTVSPropertyOp21
 70
     1
102
RTVSPropertyOp22
 70
     1
102
RTVSPropertyOp23
 70
     1
102
RTVSPropertyOp24
 70
     1
102
RTVSPropertyOp25
 70
     1
102
RTVSPropertyOp26
 70
     1
102
RTVSPropertyOp27
 70
     1
102
RTVSPropertyOp28
 70
     1
102
RTVSPropertyOp29
 70
     1
102
RTVSPropertyOp30
 70
     1
102
RTVSPropertyOp31
 70
     1
102
RTVSPropertyOp32
 70
     1
102
RTVSPropertyOp33
 70
     1
102
RTVSPropertyOp34
 70
     1
102
RTVSPropertyOp35
 70
     1
102
RTVSPropertyOp36
 70
     1
102
RTVSPropertyOp37
 70
     1
102
RTVSPropertyOp38
 70
     1
102
RTVSPropertyOp39
 70
     1
102
RTVSPropertyOp40
 70
     1
102
RTVSPropertyOp41
 70
     1
102
RTVSPropertyOp42
 70
     1
102
RTVSPropertyOp43
 70
     1
102
RTVSPropertyOp44
 70
     1
102
RTVSPropertyOp45
 70
     1
102
RTVSPropertyOp46
 70
     1
102
RTVSPropertyOp47
 70
     1
102
RTVSPropertyOp48
 70
     1
102
RTVSPropertyOp49
 70
     1
102
RTVSPropertyOp50
 70
     1
102
RTVSPropertyOp51
 70
     0
102
RTVSPropertyOp52
 70
     0
102
RTVSPropertyOp53
 70
     1
102
RTVSPropertyOp54
 70
     1
102
RTVSPropertyOp55
 70
     1
102
RTVSPropertyOp56
 70
     1
102
RTVSPropertyOp57
 70
     1
102
RTVSPropertyOp58
 70
     1
102
RTVSPropertyOp59
 70
     1
102
RTVSPropertyOp60
 70
     1
102
RTVSPropertyOp61
 70
     1
102
RTVSPropertyOp62
 70
     1
  0
XRECORD
  5
6889
102
{ACAD_REACTORS
330
6888
102
}
330
6888
100
AcDbXrecord
280
     1
102
RTVSPost2010Prop28
280
     0
102
RTVSPost2010PropOp28
 70
     1
102
RTVSPost2010Prop29
280
     1
102
RTVSPost2010PropOp29
 70
     1
102
RTVSPost2010Prop30
280
     1
102
RTVSPost2010PropOp30
 70
     1
102
RTVSPost2010Prop31
280
     0
102
RTVSPost2010PropOp31
 70
     1
102
RTVSPost2010Prop32
280
     0
102
RTVSPost2010PropOp32
 70
     1
102
RTVSPost2010Prop33
280
     0
102
RTVSPost2010PropOp33
 70
     1
102
RTVSPost2010Prop34
280
     0
102
RTVSPost2010PropOp34
 70
     1
102
RTVSPost2010Prop35
280
     0
102
RTVSPost2010PropOp35
 70
     1
102
RTVSPost2010Prop36
280
     0
102
RTVSPost2010PropOp36
 70
     1
102
RTVSPost2010Prop37
 90
       50
102
RTVSPost2010PropOp37
 70
     1
102
RTVSPost2010Prop38
140
0.0
102
RTVSPost2010PropOp38
 70
     1
102
RTVSPost2010Prop39
140
1.0
102
RTVSPost2010PropOp39
 70
     1
102
RTVSPost2010Prop40
 90
        0
102
RTVSPost2010PropOp40
 70
     1
102
RTVSPost2010Prop41ColorIndex
 90
       18
102
RTVSPost2010Prop41ColorRGB
 90
        0
102
RTVSPost2010PropOp41
 70
     1
102
RTVSPost2010Prop42
 90
       50
102
RTVSPost2010PropOp42
 70
     1
102
RTVSPost2010Prop43
 90
        3
102
RTVSPost2010PropOp43
 70
     1
102
RTVSPost2010Prop44ColorIndex
 90
        5
102
RTVSPost2010Prop44ColorRGB
 90
      255
102
RTVSPost2010PropOp44
 70
     1
102
RTVSPost2010Prop45
280
     0
102
RTVSPost2010PropOp45
 70
     1
102
RTVSPost2010Prop46
 90
       50
102
RTVSPost2010PropOp46
 70
     1
102
RTVSPost2010Prop47
 90
       50
102
RTVSPost2010PropOp47
 70
     1
102
RTVSPost2010Prop48
 90
       50
102
RTVSPost2010PropOp48
 70
     1
102
RTVSPost2010Prop49
280
     0
102
RTVSPost2010PropOp49
 70
     1
102
RTVSPost2010Prop50
 90
       50
102
RTVSPost2010PropOp50
 70
     1
102
RTVSPost2010Prop51ColorIndex
 90
      256
102
RTVSPost2010Prop51ColorRGB
 90
-16777216
102
RTVSPost2010PropOp51
 70
     0
102
RTVSPost2010Prop52
140
1.0
102
RTVSPost2010PropOp52
 70
     0
102
RTVSPost2010Prop53
 90
        2
102
RTVSPost2010PropOp53
 70
     1
102
RTVSPost2010Prop54
  1
strokes_ogs.tif
102
RTVSPost2010PropOp54
 70
     1
102
RTVSPost2010Prop55
280
     0
102
RTVSPost2010PropOp55
 70
     1
102
RTVSPost2010Prop56
140
1.0
102
RTVSPost2010PropOp56
 70
     1
102
RTVSPost2010Prop57
140
1.0
102
RTVSPost2010PropOp57
 70
     1
102
RTVSPropertyOp0
 70
     1
102
RTVSPropertyOp1
 70
     1
102
RTVSPropertyOp2
 70
     1
102
RTVSPropertyOp3
 70
     1
102
RTVSPropertyOp4
 70
     1
102
RTVSPropertyOp5
 70
     1
102
RTVSPropertyOp6
 70
     1
102
RTVSPropertyOp7
 70
     1
102
RTVSPropertyOp8
 70
     1
102
RTVSPropertyOp9
 70
     1
102
RTVSPropertyOp10
 70
     1
102
RTVSPropertyOp11
 70
     1
102
RTVSPropertyOp12
 70
     1
102
RTVSPropertyOp13
 70
     1
102
RTVSPropertyOp14
 70
     1
102
RTVSPropertyOp15
 70
     1
102
RTVSPropertyOp16
 70
     1
102
RTVSPropertyOp17
 70
     1
102
RTVSPropertyOp18
 70
     1
102
RTVSPropertyOp19
 70
     1
102
RTVSPropertyOp20
 70
     1
102
RTVSPropertyOp21
 70
     1
102
RTVSPropertyOp22
 70
     1
102
RTVSPropertyOp23
 70
     1
102
RTVSPropertyOp24
 70
     1
102
RTVSPropertyOp25
 70
     1
102
RTVSPropertyOp26
 70
     1
102
RTVSPropertyOp27
 70
     1
102
RTVSPropertyOp28
 70
     1
102
RTVSPropertyOp29
 70
     1
102
RTVSPropertyOp30
 70
     1
102
RTVSPropertyOp31
 70
     1
102
RTVSPropertyOp32
 70
     1
102
RTVSPropertyOp33
 70
     1
102
RTVSPropertyOp34
 70
     1
102
RTVSPropertyOp35
 70
     1
102
RTVSPropertyOp36
 70
     1
102
RTVSPropertyOp37
 70
     1
102
RTVSPropertyOp38
 70
     1
102
RTVSPropertyOp39
 70
     1
102
RTVSPropertyOp40
 70
     1
102
RTVSPropertyOp41
 70
     1
102
RTVSPropertyOp42
 70
     1
102
RTVSPropertyOp43
 70
     1
102
RTVSPropertyOp44
 70
     1
102
RTVSPropertyOp45
 70
     1
102
RTVSPropertyOp46
 70
     1
102
RTVSPropertyOp47
 70
     1
102
RTVSPropertyOp48
 70
     1
102
RTVSPropertyOp49
 70
     1
102
RTVSPropertyOp50
 70
     1
102
RTVSPropertyOp51
 70
     0
102
RTVSPropertyOp52
 70
     0
102
RTVSPropertyOp53
 70
     1
102
RTVSPropertyOp54
 70
     1
102
RTVSPropertyOp55
 70
     1
102
RTVSPropertyOp56
 70
     1
102
RTVSPropertyOp57
 70
     1
102
RTVSPropertyOp58
 70
     1
102
RTVSPropertyOp59
 70
     1
102
RTVSPropertyOp60
 70
     1
102
RTVSPropertyOp61
 70
     1
102
RTVSPropertyOp62
 70
     1
  0
XRECORD
  5
6898
102
{ACAD_REACTORS
330
6897
102
}
330
6897
100
AcDbXrecord
280
     1
102
RTVSPost2010Prop28
280
     0
102
RTVSPost2010PropOp28
 70
     1
102
RTVSPost2010Prop29
280
     1
102
RTVSPost2010PropOp29
 70
     1
102
RTVSPost2010Prop30
280
     1
102
RTVSPost2010PropOp30
 70
     1
102
RTVSPost2010Prop31
280
     0
102
RTVSPost2010PropOp31
 70
     1
102
RTVSPost2010Prop32
280
     0
102
RTVSPost2010PropOp32
 70
     1
102
RTVSPost2010Prop33
280
     0
102
RTVSPost2010PropOp33
 70
     1
102
RTVSPost2010Prop34
280
     0
102
RTVSPost2010PropOp34
 70
     1
102
RTVSPost2010Prop35
280
     0
102
RTVSPost2010PropOp35
 70
     1
102
RTVSPost2010Prop36
280
     0
102
RTVSPost2010PropOp36
 70
     1
102
RTVSPost2010Prop37
 90
       50
102
RTVSPost2010PropOp37
 70
     1
102
RTVSPost2010Prop38
140
0.0
102
RTVSPost2010PropOp38
 70
     1
102
RTVSPost2010Prop39
140
1.0
102
RTVSPost2010PropOp39
 70
     1
102
RTVSPost2010Prop40
 90
        0
102
RTVSPost2010PropOp40
 70
     1
102
RTVSPost2010Prop41ColorIndex
 90
       18
102
RTVSPost2010Prop41ColorRGB
 90
        0
102
RTVSPost2010PropOp41
 70
     1
102
RTVSPost2010Prop42
 90
       50
102
RTVSPost2010PropOp42
 70
     1
102
RTVSPost2010Prop43
 90
        3
102
RTVSPost2010PropOp43
 70
     1
102
RTVSPost2010Prop44ColorIndex
 90
        5
102
RTVSPost2010Prop44ColorRGB
 90
      255
102
RTVSPost2010PropOp44
 70
     1
102
RTVSPost2010Prop45
280
     0
102
RTVSPost2010PropOp45
 70
     1
102
RTVSPost2010Prop46
 90
       50
102
RTVSPost2010PropOp46
 70
     1
102
RTVSPost2010Prop47
 90
       50
102
RTVSPost2010PropOp47
 70
     1
102
RTVSPost2010Prop48
 90
       50
102
RTVSPost2010PropOp48
 70
     1
102
RTVSPost2010Prop49
280
     0
102
RTVSPost2010PropOp49
 70
     1
102
RTVSPost2010Prop50
 90
       50
102
RTVSPost2010PropOp50
 70
     1
102
RTVSPost2010Prop51ColorIndex
 90
      256
102
RTVSPost2010Prop51ColorRGB
 90
-16777216
102
RTVSPost2010PropOp51
 70
     0
102
RTVSPost2010Prop52
140
1.0
102
RTVSPost2010PropOp52
 70
     0
102
RTVSPost2010Prop53
 90
        2
102
RTVSPost2010PropOp53
 70
     1
102
RTVSPost2010Prop54
  1
strokes_ogs.tif
102
RTVSPost2010PropOp54
 70
     1
102
RTVSPost2010Prop55
280
     0
102
RTVSPost2010PropOp55
 70
     1
102
RTVSPost2010Prop56
140
1.0
102
RTVSPost2010PropOp56
 70
     1
102
RTVSPost2010Prop57
140
1.0
102
RTVSPost2010PropOp57
 70
     1
102
RTVSPropertyOp0
 70
     1
102
RTVSPropertyOp1
 70
     1
102
RTVSPropertyOp2
 70
     1
102
RTVSPropertyOp3
 70
     1
102
RTVSPropertyOp4
 70
     1
102
RTVSPropertyOp5
 70
     1
102
RTVSPropertyOp6
 70
     1
102
RTVSPropertyOp7
 70
     1
102
RTVSPropertyOp8
 70
     1
102
RTVSPropertyOp9
 70
     1
102
RTVSPropertyOp10
 70
     1
102
RTVSPropertyOp11
 70
     1
102
RTVSPropertyOp12
 70
     1
102
RTVSPropertyOp13
 70
     1
102
RTVSPropertyOp14
 70
     1
102
RTVSPropertyOp15
 70
     1
102
RTVSPropertyOp16
 70
     1
102
RTVSPropertyOp17
 70
     1
102
RTVSPropertyOp18
 70
     1
102
RTVSPropertyOp19
 70
     1
102
RTVSPropertyOp20
 70
     1
102
RTVSPropertyOp21
 70
     1
102
RTVSPropertyOp22
 70
     1
102
RTVSPropertyOp23
 70
     1
102
RTVSPropertyOp24
 70
     1
102
RTVSPropertyOp25
 70
     1
102
RTVSPropertyOp26
 70
     1
102
RTVSPropertyOp27
 70
     1
102
RTVSPropertyOp28
 70
     1
102
RTVSPropertyOp29
 70
     1
102
RTVSPropertyOp30
 70
     1
102
RTVSPropertyOp31
 70
     1
102
RTVSPropertyOp32
 70
     1
102
RTVSPropertyOp33
 70
     1
102
RTVSPropertyOp34
 70
     1
102
RTVSPropertyOp35
 70
     1
102
RTVSPropertyOp36
 70
     1
102
RTVSPropertyOp37
 70
     1
102
RTVSPropertyOp38
 70
     1
102
RTVSPropertyOp39
 70
     1
102
RTVSPropertyOp40
 70
     1
102
RTVSPropertyOp41
 70
     1
102
RTVSPropertyOp42
 70
     1
102
RTVSPropertyOp43
 70
     1
102
RTVSPropertyOp44
 70
     1
102
RTVSPropertyOp45
 70
     1
102
RTVSPropertyOp46
 70
     1
102
RTVSPropertyOp47
 70
     1
102
RTVSPropertyOp48
 70
     1
102
RTVSPropertyOp49
 70
     1
102
RTVSPropertyOp50
 70
     1
102
RTVSPropertyOp51
 70
     0
102
RTVSPropertyOp52
 70
     0
102
RTVSPropertyOp53
 70
     1
102
RTVSPropertyOp54
 70
     1
102
RTVSPropertyOp55
 70
     1
102
RTVSPropertyOp56
 70
     1
102
RTVSPropertyOp57
 70
     1
102
RTVSPropertyOp58
 70
     1
102
RTVSPropertyOp59
 70
     1
102
RTVSPropertyOp60
 70
     1
102
RTVSPropertyOp61
 70
     1
102
RTVSPropertyOp62
 70
     1
  0
XRECORD
  5
68A0
102
{ACAD_REACTORS
330
689F
102
}
330
689F
100
AcDbXrecord
280
     1
102
RTVSPost2010Prop28
280
     0
102
RTVSPost2010PropOp28
 70
     1
102
RTVSPost2010Prop29
280
     1
102
RTVSPost2010PropOp29
 70
     1
102
RTVSPost2010Prop30
280
     1
102
RTVSPost2010PropOp30
 70
     1
102
RTVSPost2010Prop31
280
     0
102
RTVSPost2010PropOp31
 70
     1
102
RTVSPost2010Prop32
280
     0
102
RTVSPost2010PropOp32
 70
     1
102
RTVSPost2010Prop33
280
     0
102
RTVSPost2010PropOp33
 70
     1
102
RTVSPost2010Prop34
280
     0
102
RTVSPost2010PropOp34
 70
     1
102
RTVSPost2010Prop35
280
     0
102
RTVSPost2010PropOp35
 70
     1
102
RTVSPost2010Prop36
280
     0
102
RTVSPost2010PropOp36
 70
     1
102
RTVSPost2010Prop37
 90
       50
102
RTVSPost2010PropOp37
 70
     1
102
RTVSPost2010Prop38
140
0.0
102
RTVSPost2010PropOp38
 70
     1
102
RTVSPost2010Prop39
140
1.0
102
RTVSPost2010PropOp39
 70
     1
102
RTVSPost2010Prop40
 90
        0
102
RTVSPost2010PropOp40
 70
     1
102
RTVSPost2010Prop41ColorIndex
 90
       18
102
RTVSPost2010Prop41ColorRGB
 90
        0
102
RTVSPost2010PropOp41
 70
     1
102
RTVSPost2010Prop42
 90
       50
102
RTVSPost2010PropOp42
 70
     1
102
RTVSPost2010Prop43
 90
        3
102
RTVSPost2010PropOp43
 70
     1
102
RTVSPost2010Prop44ColorIndex
 90
        5
102
RTVSPost2010Prop44ColorRGB
 90
      255
102
RTVSPost2010PropOp44
 70
     1
102
RTVSPost2010Prop45
280
     0
102
RTVSPost2010PropOp45
 70
     1
102
RTVSPost2010Prop46
 90
       50
102
RTVSPost2010PropOp46
 70
     1
102
RTVSPost2010Prop47
 90
       50
102
RTVSPost2010PropOp47
 70
     1
102
RTVSPost2010Prop48
 90
       50
102
RTVSPost2010PropOp48
 70
     1
102
RTVSPost2010Prop49
280
     0
102
RTVSPost2010PropOp49
 70
     1
102
RTVSPost2010Prop50
 90
       50
102
RTVSPost2010PropOp50
 70
     1
102
RTVSPost2010Prop51ColorIndex
 90
      256
102
RTVSPost2010Prop51ColorRGB
 90
-16777216
102
RTVSPost2010PropOp51
 70
     0
102
RTVSPost2010Prop52
140
1.0
102
RTVSPost2010PropOp52
 70
     0
102
RTVSPost2010Prop53
 90
        2
102
RTVSPost2010PropOp53
 70
     1
102
RTVSPost2010Prop54
  1
strokes_ogs.tif
102
RTVSPost2010PropOp54
 70
     1
102
RTVSPost2010Prop55
280
     0
102
RTVSPost2010PropOp55
 70
     1
102
RTVSPost2010Prop56
140
1.0
102
RTVSPost2010PropOp56
 70
     1
102
RTVSPost2010Prop57
140
1.0
102
RTVSPost2010PropOp57
 70
     1
102
RTVSPropertyOp0
 70
     1
102
RTVSPropertyOp1
 70
     1
102
RTVSPropertyOp2
 70
     1
102
RTVSPropertyOp3
 70
     1
102
RTVSPropertyOp4
 70
     1
102
RTVSPropertyOp5
 70
     1
102
RTVSPropertyOp6
 70
     1
102
RTVSPropertyOp7
 70
     1
102
RTVSPropertyOp8
 70
     1
102
RTVSPropertyOp9
 70
     1
102
RTVSPropertyOp10
 70
     1
102
RTVSPropertyOp11
 70
     1
102
RTVSPropertyOp12
 70
     1
102
RTVSPropertyOp13
 70
     1
102
RTVSPropertyOp14
 70
     1
102
RTVSPropertyOp15
 70
     1
102
RTVSPropertyOp16
 70
     1
102
RTVSPropertyOp17
 70
     1
102
RTVSPropertyOp18
 70
     1
102
RTVSPropertyOp19
 70
     1
102
RTVSPropertyOp20
 70
     1
102
RTVSPropertyOp21
 70
     1
102
RTVSPropertyOp22
 70
     1
102
RTVSPropertyOp23
 70
     1
102
RTVSPropertyOp24
 70
     1
102
RTVSPropertyOp25
 70
     1
102
RTVSPropertyOp26
 70
     1
102
RTVSPropertyOp27
 70
     1
102
RTVSPropertyOp28
 70
     1
102
RTVSPropertyOp29
 70
     1
102
RTVSPropertyOp30
 70
     1
102
RTVSPropertyOp31
 70
     1
102
RTVSPropertyOp32
 70
     1
102
RTVSPropertyOp33
 70
     1
102
RTVSPropertyOp34
 70
     1
102
RTVSPropertyOp35
 70
     1
102
RTVSPropertyOp36
 70
     1
102
RTVSPropertyOp37
 70
     1
102
RTVSPropertyOp38
 70
     1
102
RTVSPropertyOp39
 70
     1
102
RTVSPropertyOp40
 70
     1
102
RTVSPropertyOp41
 70
     1
102
RTVSPropertyOp42
 70
     1
102
RTVSPropertyOp43
 70
     1
102
RTVSPropertyOp44
 70
     1
102
RTVSPropertyOp45
 70
     1
102
RTVSPropertyOp46
 70
     1
102
RTVSPropertyOp47
 70
     1
102
RTVSPropertyOp48
 70
     1
102
RTVSPropertyOp49
 70
     1
102
RTVSPropertyOp50
 70
     1
102
RTVSPropertyOp51
 70
     0
102
RTVSPropertyOp52
 70
     0
102
RTVSPropertyOp53
 70
     1
102
RTVSPropertyOp54
 70
     1
102
RTVSPropertyOp55
 70
     1
102
RTVSPropertyOp56
 70
     1
102
RTVSPropertyOp57
 70
     1
102
RTVSPropertyOp58
 70
     1
102
RTVSPropertyOp59
 70
     1
102
RTVSPropertyOp60
 70
     1
102
RTVSPropertyOp61
 70
     1
102
RTVSPropertyOp62
 70
     1
  0
ENDSEC
  0
EOF
