  0
SECTION
  2
HEADER
  9
$ACADVER
  1
AC1015
  9
$ACADMAINTVER
 70
    20
  9
$DWGCODEPAGE
  3
ANSI_932
  9
$INSBASE
 10
0.0
 20
0.0
 30
0.0
  9
$EXTMIN
 10
-82.77135887147279
 20
-358.5599184401094
 30
-0.0015258207003583
  9
$EXTMAX
 10
252.3232547581197
 20
281.4286666848964
 30
0.0000000349246037
  9
$LIMMIN
 10
-296.316999476111
 20
-370.7034300441653
  9
$LIMMAX
 10
623.3128432133979
 20
328.6261559379898
  9
$ORTHOMODE
 70
     1
  9
$REGENMODE
 70
     1
  9
$FILLMODE
 70
     1
  9
$QTEXTMODE
 70
     0
  9
$MIRRTEXT
 70
     1
  9
$LTSCALE
 40
10.0
  9
$ATTMODE
 70
     1
  9
$TEXTSIZE
 40
5.0
  9
$TRACEWID
 40
0.05
  9
$TEXTSTYLE
  7
STANDARD1
  9
$CLAYER
  8
30
  9
$CELTYPE
  6
CONTINUOUS
  9
$CECOLOR
 62
   256
  9
$CELTSCALE
 40
1.0
  9
$DISPSILH
 70
     0
  9
$DIMSCALE
 40
1.0
  9
$DIMASZ
 40
2.0
  9
$DIMEXO
 40
1.0
  9
$DIMDLI
 40
0.5
  9
$DIMRND
 40
0.0
  9
$DIMDLE
 40
0.0
  9
$DIMEXE
 40
0.5
  9
$DIMTP
 40
0.0
  9
$DIMTM
 40
0.0
  9
$DIMTXT
 40
4.0
  9
$DIMCEN
 40
0.09
  9
$DIMTSZ
 40
0.0
  9
$DIMTOL
 70
     0
  9
$DIMLIM
 70
     0
  9
$DIMTIH
 70
     0
  9
$DIMTOH
 70
     1
  9
$DIMSE1
 70
     0
  9
$DIMSE2
 70
     0
  9
$DIMTAD
 70
     3
  9
$DIMZIN
 70
    12
  9
$DIMBLK
  1
OPEN
  9
$DIMASO
 70
     1
  9
$DIMSHO
 70
     1
  9
$DIMPOST
  1

  9
$DIMAPOST
  1

  9
$DIMALT
 70
     0
  9
$DIMALTD
 70
     2
  9
$DIMALTF
 40
25.4
  9
$DIMLFAC
 40
1.0
  9
$DIMTOFL
 70
     0
  9
$DIMTVP
 40
0.0
  9
$DIMTIX
 70
     0
  9
$DIMSOXD
 70
     0
  9
$DIMSAH
 70
     0
  9
$DIMBLK1
  1

  9
$DIMBLK2
  1

  9
$DIMSTYLE
  2
STANDARD
  9
$DIMCLRD
 70
     0
  9
$DIMCLRE
 70
     0
  9
$DIMCLRT
 70
     0
  9
$DIMTFAC
 40
1.0
  9
$DIMGAP
 40
1.0
  9
$DIMJUST
 70
     0
  9
$DIMSD1
 70
     0
  9
$DIMSD2
 70
     0
  9
$DIMTOLJ
 70
     1
  9
$DIMTZIN
 70
     0
  9
$DIMALTZ
 70
     0
  9
$DIMALTTZ
 70
     0
  9
$DIMUPT
 70
     0
  9
$DIMDEC
 70
     1
  9
$DIMTDEC
 70
     1
  9
$DIMALTU
 70
     2
  9
$DIMALTTD
 70
     2
  9
$DIMTXSTY
  7
STANDARD
  9
$DIMAUNIT
 70
     0
  9
$DIMADEC
 70
     0
  9
$DIMALTRND
 40
0.0
  9
$DIMAZIN
 70
     3
  9
$DIMDSEP
 70
    46
  9
$DIMATFIT
 70
     3
  9
$DIMFRAC
 70
     0
  9
$DIMLDRBLK
  1
OPEN
  9
$DIMLUNIT
 70
     2
  9
$DIMLWD
 70
    -2
  9
$DIMLWE
 70
    -2
  9
$DIMTMOVE
 70
     0
  9
$LUNITS
 70
     2
  9
$LUPREC
 70
     4
  9
$SKETCHINC
 40
0.1
  9
$FILLETRAD
 40
0.0
  9
$AUNITS
 70
     0
  9
$AUPREC
 70
     0
  9
$MENU
  1
.
  9
$ELEVATION
 40
0.0
  9
$PELEVATION
 40
0.0
  9
$THICKNESS
 40
0.0
  9
$LIMCHECK
 70
     0
  9
$CHAMFERA
 40
0.0
  9
$CHAMFERB
 40
0.0
  9
$CHAMFERC
 40
0.0
  9
$CHAMFERD
 40
0.0
  9
$SKPOLY
 70
     0
  9
$TDCREATE
 40
2452286.555658658
  9
$TDUCREATE
 40
2452286.180658658
  9
$TDUPDATE
 40
2457458.639415417
  9
$TDUUPDATE
 40
2457458.264415417
  9
$TDINDWG
 40
1.2440129514
  9
$TDUSRTIMER
 40
1.2440120255
  9
$USRTIMER
 70
     1
  9
$ANGBASE
 50
0.0
  9
$ANGDIR
 70
     0
  9
$PDMODE
 70
     0
  9
$PDSIZE
 40
0.0
  9
$PLINEWID
 40
0.0
  9
$SPLFRAME
 70
     0
  9
$SPLINETYPE
 70
     6
  9
$SPLINESEGS
 70
     8
  9
$HANDSEED
  5
66C1
  9
$SURFTAB1
 70
     6
  9
$SURFTAB2
 70
     6
  9
$SURFTYPE
 70
     6
  9
$SURFU
 70
     6
  9
$SURFV
 70
     6
  9
$UCSBASE
  2

  9
$UCSNAME
  2

  9
$UCSORG
 10
0.0
 20
0.0
 30
0.0
  9
$UCSXDIR
 10
1.0
 20
0.0
 30
0.0
  9
$UCSYDIR
 10
0.0
 20
1.0
 30
0.0
  9
$UCSORTHOREF
  2

  9
$UCSORTHOVIEW
 70
     0
  9
$UCSORGTOP
 10
0.0
 20
0.0
 30
0.0
  9
$UCSORGBOTTOM
 10
0.0
 20
0.0
 30
0.0
  9
$UCSORGLEFT
 10
0.0
 20
0.0
 30
0.0
  9
$UCSORGRIGHT
 10
0.0
 20
0.0
 30
0.0
  9
$UCSORGFRONT
 10
0.0
 20
0.0
 30
0.0
  9
$UCSORGBACK
 10
0.0
 20
0.0
 30
0.0
  9
$PUCSBASE
  2

  9
$PUCSNAME
  2

  9
$PUCSORG
 10
0.0
 20
0.0
 30
0.0
  9
$PUCSXDIR
 10
1.0
 20
0.0
 30
0.0
  9
$PUCSYDIR
 10
0.0
 20
1.0
 30
0.0
  9
$PUCSORTHOREF
  2

  9
$PUCSORTHOVIEW
 70
     0
  9
$PUCSORGTOP
 10
0.0
 20
0.0
 30
0.0
  9
$PUCSORGBOTTOM
 10
0.0
 20
0.0
 30
0.0
  9
$PUCSORGLEFT
 10
0.0
 20
0.0
 30
0.0
  9
$PUCSORGRIGHT
 10
0.0
 20
0.0
 30
0.0
  9
$PUCSORGFRONT
 10
0.0
 20
0.0
 30
0.0
  9
$PUCSORGBACK
 10
0.0
 20
0.0
 30
0.0
  9
$USERI1
 70
     0
  9
$USERI2
 70
     0
  9
$USERI3
 70
     0
  9
$USERI4
 70
     0
  9
$USERI5
 70
     0
  9
$USERR1
 40
0.0
  9
$USERR2
 40
0.0
  9
$USERR3
 40
0.0
  9
$USERR4
 40
0.0
  9
$USERR5
 40
0.0
  9
$WORLDVIEW
 70
     1
  9
$SHADEDGE
 70
     3
  9
$SHADEDIF
 70
    70
  9
$TILEMODE
 70
     1
  9
$MAXACTVP
 70
    48
  9
$PINSBASE
 10
0.0
 20
0.0
 30
0.0
  9
$PLIMCHECK
 70
     0
  9
$PEXTMIN
 10
4.273573
 20
5.205245999999998
 30
0.0
  9
$PEXTMAX
 10
194.610095
 20
283.0697009999996
 30
0.0
  9
$PLIMMIN
 10
-5.873749
 20
-5.87375
  9
$PLIMMAX
 10
204.099579
 20
291.1369009999999
  9
$UNITMODE
 70
     0
  9
$VISRETAIN
 70
     1
  9
$PLINEGEN
 70
     0
  9
$PSLTSCALE
 70
     1
  9
$TREEDEPTH
 70
  3020
  9
$CMLSTYLE
  2
STANDARD
  9
$CMLJUST
 70
     0
  9
$CMLSCALE
 40
1.0
  9
$PROXYGRAPHICS
 70
     1
  9
$MEASUREMENT
 70
     0
  9
$CELWEIGHT
370
    -1
  9
$ENDCAPS
280
     0
  9
$JOINSTYLE
280
     0
  9
$LWDISPLAY
290
     0
  9
$INSUNITS
 70
     0
  9
$HYPERLINKBASE
  1

  9
$STYLESHEET
  1
monochrome.ctb
  9
$XEDIT
290
     1
  9
$CEPSNTYPE
380
     0
  9
$PSTYLEMODE
290
     1
  9
$FINGERPRINTGUID
  2

  9
$VERSIONGUID
  2
{1B9DEDC2-230A-4DA1-84C9-237FADDFDAD5}
  9
$EXTNAMES
290
     1
  9
$PSVPSCALE
 40
0.0
  9
$OLESTARTUP
290
     0
  0
ENDSEC
  0
SECTION
  2
CLASSES
  0
CLASS
  1
ACDBDICTIONARYWDFLT
  2
AcDbDictionaryWithDefault
  3
ObjectDBX Classes
 90
        0
280
     0
281
     0
  0
CLASS
  1
ACDBPLACEHOLDER
  2
AcDbPlaceHolder
  3
ObjectDBX Classes
 90
        0
280
     0
281
     0
  0
CLASS
  1
LAYOUT
  2
AcDbLayout
  3
ObjectDBX Classes
 90
        0
280
     0
281
     0
  0
CLASS
  1
DICTIONARYVAR
  2
AcDbDictionaryVar
  3
ObjectDBX Classes
 90
        0
280
     0
281
     0
  0
CLASS
  1
MATERIAL
  2
AcDbMaterial
  3
ObjectDBX Classes
 90
     1153
280
     0
281
     0
  0
CLASS
  1
VISUALSTYLE
  2
AcDbVisualStyle
  3
ObjectDBX Classes
 90
     4095
280
     0
281
     0
  0
CLASS
  1
TABLESTYLE
  2
AcDbTableStyle
  3
ObjectDBX Classes
 90
     4095
280
     0
281
     0
  0
CLASS
  1
SCALE
  2
AcDbScale
  3
ObjectDBX Classes
 90
     1153
280
     0
281
     0
  0
CLASS
  1
MLEADERSTYLE
  2
AcDbMLeaderStyle
  3
ACDB_MLEADERSTYLE_CLASS
 90
     4095
280
     0
281
     0
  0
CLASS
  1
ACDBSECTIONVIEWSTYLE
  2
AcDbSectionViewStyle
  3
ObjectDBX Classes
 90
     1025
280
     0
281
     0
  0
CLASS
  1
ACDBDETAILVIEWSTYLE
  2
AcDbDetailViewStyle
  3
ObjectDBX Classes
 90
     1025
280
     0
281
     0
  0
CLASS
  1
CELLSTYLEMAP
  2
AcDbCellStyleMap
  3
ObjectDBX Classes
 90
     1152
280
     0
281
     0
  0
ENDSEC
  0
SECTION
  2
TABLES
  0
TABLE
  2
VPORT
  5
8
330
0
100
AcDbSymbolTable
 70
     1
  0
VPORT
  5
6475
330
8
100
AcDbSymbolTableRecord
100
AcDbViewportTableRecord
  2
*Active
 70
     0
 10
0.0
 20
0.0
 11
1.0
 21
1.0
 12
268.416457583327
 22
74.20177883469455
 13
0.0
 23
0.0
 14
1.0
 24
1.0
 15
10.0
 25
10.0
 16
0.0
 26
0.0
 36
1.0
 17
0.0
 27
0.0
 37
0.0
 40
552.1161177754707
 41
2.108991825613078
 42
50.0
 43
0.0
 44
0.0
 50
0.0
 51
0.0
 71
     0
 72
   100
 73
     1
 74
     1
 75
     0
 76
     0
 77
     0
 78
     0
281
     0
 65
     1
110
0.0
120
0.0
130
0.0
111
1.0
121
0.0
131
0.0
112
0.0
122
1.0
132
0.0
 79
     0
146
0.0
1001
ACAD_NAV_VCDISPLAY
1070
     3
  0
ENDTAB
  0
TABLE
  2
LTYPE
  5
5
330
0
100
AcDbSymbolTable
 70
     6
  0
LTYPE
  5
13
330
5
100
AcDbSymbolTableRecord
100
AcDbLinetypeTableRecord
  2
BYBLOCK
 70
     0
  3

 72
    65
 73
     0
 40
0.0
  0
LTYPE
  5
14
330
5
100
AcDbSymbolTableRecord
100
AcDbLinetypeTableRecord
  2
BYLAYER
 70
     0
  3

 72
    65
 73
     0
 40
0.0
  0
LTYPE
  5
15
330
5
100
AcDbSymbolTableRecord
100
AcDbLinetypeTableRecord
  2
CONTINUOUS
 70
     0
  3
Solid line
 72
    65
 73
     0
 40
0.0
  0
LTYPE
  5
22
330
5
100
AcDbSymbolTableRecord
100
AcDbLinetypeTableRecord
  2
CONTINOUS
 70
     0
  3
Solid line
 72
    65
 73
     0
 40
0.0
  0
LTYPE
  5
23
330
5
100
AcDbSymbolTableRecord
100
AcDbLinetypeTableRecord
  2
DASHED
 70
     0
  3
__ __ __ __ __ __ __ __ __ __ __ __ __ __ __
 72
    65
 73
     2
 40
0.75
 49
0.5
 74
     0
 49
-0.25
 74
     0
  0
LTYPE
  5
24
330
5
100
AcDbSymbolTableRecord
100
AcDbLinetypeTableRecord
  2
DASHDOT
 70
     0
  3
__ . __ . __ . __ . __ . __ . __ . __ . __ . __
 72
    65
 73
     4
 40
1.0
 49
0.5
 74
     0
 49
-0.25
 74
     0
 49
0.0
 74
     0
 49
-0.25
 74
     0
  0
LTYPE
  5
4C47
330
5
100
AcDbSymbolTableRecord
100
AcDbLinetypeTableRecord
  2
DIVIDE
 70
     0
  3
Divide ____ . . ____ . . ____ . . ____ . . ____
 72
    65
 73
     6
 40
1.25
 49
0.5
 74
     0
 49
-0.25
 74
     0
 49
0.0
 74
     0
 49
-0.25
 74
     0
 49
0.0
 74
     0
 49
-0.25
 74
     0
  0
ENDTAB
  0
TABLE
  2
LAYER
  5
2
330
0
100
AcDbSymbolTable
 70
    13
  0
LAYER
  5
10
102
{ACAD_XDICTIONARY
360
6612
102
}
330
2
100
AcDbSymbolTableRecord
100
AcDbLayerTableRecord
  2
0
 70
     0
 62
     7
  6
CONTINOUS
370
    -3
390
F
  0
LAYER
  5
2F
102
{ACAD_XDICTIONARY
360
6614
102
}
330
2
100
AcDbSymbolTableRecord
100
AcDbLayerTableRecord
  2
10
 70
     0
 62
     4
  6
CONTINOUS
370
    -3
390
F
  0
LAYER
  5
31
102
{ACAD_XDICTIONARY
360
6616
102
}
330
2
100
AcDbSymbolTableRecord
100
AcDbLayerTableRecord
  2
12
 70
     0
 62
     3
  6
CONTINOUS
370
    -3
390
F
  0
LAYER
  5
35
102
{ACAD_XDICTIONARY
360
6618
102
}
330
2
100
AcDbSymbolTableRecord
100
AcDbLayerTableRecord
  2
16
 70
     0
 62
     6
  6
DASHDOT
370
    -3
390
F
  0
LAYER
  5
38
102
{ACAD_XDICTIONARY
360
661A
102
}
330
2
100
AcDbSymbolTableRecord
100
AcDbLayerTableRecord
  2
19
 70
     0
 62
     7
  6
CONTINOUS
370
    -3
390
F
  0
LAYER
  5
3C
102
{ACAD_XDICTIONARY
360
661C
102
}
330
2
100
AcDbSymbolTableRecord
100
AcDbLayerTableRecord
  2
11
 70
     0
 62
     1
  6
CONTINOUS
370
    -3
390
F
  0
LAYER
  5
3D
102
{ACAD_XDICTIONARY
360
661E
102
}
330
2
100
AcDbSymbolTableRecord
100
AcDbLayerTableRecord
  2
24
 70
     0
 62
     2
  6
CONTINOUS
370
    -3
390
F
  0
LAYER
  5
3A2
102
{ACAD_XDICTIONARY
360
6620
102
}
330
2
100
AcDbSymbolTableRecord
100
AcDbLayerTableRecord
  2
30
 70
     0
 62
     9
  6
CONTINUOUS
370
    -3
390
F
  0
LAYER
  5
3A4
330
2
100
AcDbSymbolTableRecord
100
AcDbLayerTableRecord
  2
DEFPOINTS
 70
     0
 62
     7
  6
CONTINUOUS
290
     0
370
    -3
390
F
  0
LAYER
  5
3BBA
102
{ACAD_XDICTIONARY
360
6622
102
}
330
2
100
AcDbSymbolTableRecord
100
AcDbLayerTableRecord
  2
18
 70
     0
 62
     5
  6
DIVIDE
370
    -3
390
F
  0
LAYER
  5
5116
102
{ACAD_XDICTIONARY
360
6624
102
}
330
2
100
AcDbSymbolTableRecord
100
AcDbLayerTableRecord
  2
1
 70
     0
 62
     7
  6
CONTINUOUS
370
    -3
390
F
  0
LAYER
  5
5117
102
{ACAD_XDICTIONARY
360
6626
102
}
330
2
100
AcDbSymbolTableRecord
100
AcDbLayerTableRecord
  2
TOP
 70
     0
 62
     7
  6
CONTINUOUS
370
    -3
390
F
  0
LAYER
  5
5C47
102
{ACAD_XDICTIONARY
360
6628
102
}
330
2
100
AcDbSymbolTableRecord
100
AcDbLayerTableRecord
  2
17
 70
     0
 62
     2
  6
DASHDOT
370
    -3
390
F
  0
ENDTAB
  0
TABLE
  2
STYLE
  5
3
330
0
100
AcDbSymbolTable
 70
     4
  0
STYLE
  5
11
330
3
100
AcDbSymbolTableRecord
100
AcDbTextStyleTableRecord
  2
STANDARD
 70
     0
 40
0.0
 41
1.0
 50
0.0
 71
     0
 42
2.0
  3
txt.shx
  4
bigfont.shx
  0
STYLE
  5
42
330
3
100
AcDbSymbolTableRecord
100
AcDbTextStyleTableRecord
  2
STANDARD1
 70
     0
 40
0.0
 41
1.0
 50
0.0
 71
     0
 42
5.0
  3
MONOTXT
  4
BIGFONT
  0
STYLE
  5
5016
330
3
100
AcDbSymbolTableRecord
100
AcDbTextStyleTableRecord
  2
UGMTXT
 70
     0
 40
0.0
 41
1.0
 50
0.0
 71
     0
 42
0.2
  3
ugmtxt
  4
bigfont
  0
ENDTAB
  0
TABLE
  2
VIEW
  5
6
330
0
100
AcDbSymbolTable
 70
     3
  0
VIEW
  5
230C
330
6
100
AcDbSymbolTableRecord
100
AcDbViewTableRecord
  2
OLE1
 70
     0
 40
148.912488
 10
429.497628
 20
2.560627
 41
103.145806
 11
0.0
 21
0.0
 31
1.0
 12
0.0
 22
0.0
 32
0.0
 42
50.0
 43
0.0
 44
0.0
 50
0.0
 71
     0
281
     0
 72
     0
  0
VIEW
  5
230E
330
6
100
AcDbSymbolTableRecord
100
AcDbViewTableRecord
  2
OLE2
 70
     0
 40
170.778692
 10
322.66497
 20
-5.978304
 41
102.467215
 11
0.0
 21
0.0
 31
1.0
 12
0.0
 22
0.0
 32
0.0
 42
50.0
 43
0.0
 44
0.0
 50
0.0
 71
     0
281
     0
 72
     0
  0
VIEW
  5
23AA
330
6
100
AcDbSymbolTableRecord
100
AcDbViewTableRecord
  2
OLE3
 70
     0
 40
591.7897389999998
 10
84.79698199999999
 20
-46.09335999999998
 41
388.792096
 11
0.0
 21
0.0
 31
1.0
 12
0.0
 22
0.0
 32
0.0
 42
50.0
 43
0.0
 44
0.0
 50
0.0
 71
     0
281
     0
 72
     0
  0
ENDTAB
  0
TABLE
  2
UCS
  5
7
330
0
100
AcDbSymbolTable
 70
     0
  0
ENDTAB
  0
TABLE
  2
APPID
  5
9
330
0
100
AcDbSymbolTable
 70
     6
  0
APPID
  5
12
330
9
100
AcDbSymbolTableRecord
100
AcDbRegAppTableRecord
  2
ACAD
 70
     0
  0
APPID
  5
ECD
330
9
100
AcDbSymbolTableRecord
100
AcDbRegAppTableRecord
  2
CONTENTBLOCKICON
 70
     0
  0
APPID
  5
6514
330
9
100
AcDbSymbolTableRecord
100
AcDbRegAppTableRecord
  2
ACAD_PSEXT
 70
     0
  0
APPID
  5
6515
330
9
100
AcDbSymbolTableRecord
100
AcDbRegAppTableRecord
  2
ACAD_NAV_VCDISPLAY
 70
     0
  0
APPID
  5
6609
330
9
100
AcDbSymbolTableRecord
100
AcDbRegAppTableRecord
  2
ACAD_EXEMPT_FROM_CAD_STANDARDS
 70
     0
  0
APPID
  5
66BC
330
9
100
AcDbSymbolTableRecord
100
AcDbRegAppTableRecord
  2
ACAD_MLEADERVER
 70
     0
  0
ENDTAB
  0
TABLE
  2
DIMSTYLE
  5
A
330
0
100
AcDbSymbolTable
 70
     3
100
AcDbDimStyleTable
 71
     1
340
175
  0
DIMSTYLE
105
175
102
{ACAD_REACTORS
330
59D1
330
59D0
330
59B9
330
59D2
330
59C6
330
59BE
330
59FD
330
59F0
330
5C77
330
59BB
330
59BA
330
5E29
330
5E42
330
5E41
330
5E2A
330
5EF0
330
619F
330
61AC
330
6234
330
62BA
330
62D3
330
62C1
330
6157
330
6582
330
6583
330
6584
330
6585
330
6586
330
6587
102
}
330
A
100
AcDbSymbolTableRecord
100
AcDbDimStyleTableRecord
  2
STANDARD
 70
     0
 41
2.0
 42
1.0
 43
0.5
 44
0.5
 73
     0
 77
     3
 78
    12
140
4.0
147
1.0
271
     1
272
     1
340
11
341
3B2
342
3B2
  0
ENDTAB
  0
TABLE
  2
BLOCK_RECORD
  5
1
330
0
100
AcDbSymbolTable
 70
    43
  0
BLOCK_RECORD
  5
1E
102
{ACAD_XDICTIONARY
360
178
102
}
330
1
100
AcDbSymbolTableRecord
100
AcDbBlockTableRecord
  2
*MODEL_SPACE
340
6470
  0
BLOCK_RECORD
  5
1A
102
{ACAD_XDICTIONARY
360
17A
102
}
330
1
100
AcDbSymbolTableRecord
100
AcDbBlockTableRecord
  2
*PAPER_SPACE
340
6471
  0
BLOCK_RECORD
  5
3B2
330
1
100
AcDbSymbolTableRecord
100
AcDbBlockTableRecord
  2
_OPEN
340
0
102
{BLKREFS
331
65E0
331
65E8
331
65E9
331
65F1
331
65F2
331
65FA
331
65FB
331
6603
331
6604
331
65D6
331
65D7
331
65DF
331
5FC7
331
5FC8
331
6005
331
6006
331
5F91
331
5F92
331
5F88
331
5F89
331
615C
331
615D
331
61A4
331
61A5
331
6463
331
6464
331
6239
331
623A
331
63A7
331
63A8
331
63B0
331
639E
331
639F
331
633E
331
633F
331
62AA
331
62AB
331
6297
331
6298
331
5BC9
331
5BCA
331
5BC0
331
5BC1
331
6272
331
6273
331
6244
331
6245
331
622E
331
622F
331
63B8
331
63B9
331
63C3
331
63C4
331
5FBE
331
5FBF
331
5FEB
331
5FEC
331
5FE2
331
5FE3
331
64DD
331
64DE
331
64E9
331
64EA
331
64F5
331
64F6
331
6501
331
6502
331
650D
331
650E
331
64D1
331
64D2
102
}
  0
BLOCK_RECORD
  5
58CA
330
1
100
AcDbSymbolTableRecord
100
AcDbBlockTableRecord
  2
*U1
340
0
102
{BLKREFS
331
59F3
102
}
  0
BLOCK_RECORD
  5
58CE
330
1
100
AcDbSymbolTableRecord
100
AcDbBlockTableRecord
  2
*U2
340
0
102
{BLKREFS
331
59F2
102
}
  0
BLOCK_RECORD
  5
58DE
330
1
100
AcDbSymbolTableRecord
100
AcDbBlockTableRecord
  2
*U3
340
0
102
{BLKREFS
331
59F1
102
}
  0
BLOCK_RECORD
  5
5A00
330
1
100
AcDbSymbolTableRecord
100
AcDbBlockTableRecord
  2
*D4
340
0
  0
BLOCK_RECORD
  5
5A0C
330
1
100
AcDbSymbolTableRecord
100
AcDbBlockTableRecord
  2
*D5
340
0
  0
BLOCK_RECORD
  5
5A19
330
1
100
AcDbSymbolTableRecord
100
AcDbBlockTableRecord
  2
*D6
340
0
  0
BLOCK_RECORD
  5
5A25
330
1
100
AcDbSymbolTableRecord
100
AcDbBlockTableRecord
  2
*D7
340
0
  0
BLOCK_RECORD
  5
5A31
330
1
100
AcDbSymbolTableRecord
100
AcDbBlockTableRecord
  2
*D8
340
0
  0
BLOCK_RECORD
  5
5A3D
330
1
100
AcDbSymbolTableRecord
100
AcDbBlockTableRecord
  2
*D9
340
0
  0
BLOCK_RECORD
  5
5A49
330
1
100
AcDbSymbolTableRecord
100
AcDbBlockTableRecord
  2
*D10
340
0
  0
BLOCK_RECORD
  5
5A55
330
1
100
AcDbSymbolTableRecord
100
AcDbBlockTableRecord
  2
*D11
340
0
  0
BLOCK_RECORD
  5
5A61
330
1
100
AcDbSymbolTableRecord
100
AcDbBlockTableRecord
  2
*D12
340
0
  0
BLOCK_RECORD
  5
5A6D
330
1
100
AcDbSymbolTableRecord
100
AcDbBlockTableRecord
  2
*D13
340
0
  0
BLOCK_RECORD
  5
5E7C
330
1
100
AcDbSymbolTableRecord
100
AcDbBlockTableRecord
  2
*D14
340
0
  0
BLOCK_RECORD
  5
5E88
330
1
100
AcDbSymbolTableRecord
100
AcDbBlockTableRecord
  2
*D15
340
0
  0
BLOCK_RECORD
  5
5E94
330
1
100
AcDbSymbolTableRecord
100
AcDbBlockTableRecord
  2
*D16
340
0
  0
BLOCK_RECORD
  5
5EA0
330
1
100
AcDbSymbolTableRecord
100
AcDbBlockTableRecord
  2
*D17
340
0
  0
BLOCK_RECORD
  5
5EF9
330
1
100
AcDbSymbolTableRecord
100
AcDbBlockTableRecord
  2
*D18
340
0
  0
BLOCK_RECORD
  5
5F6C
330
1
100
AcDbSymbolTableRecord
100
AcDbBlockTableRecord
  2
*D19
340
0
  0
BLOCK_RECORD
  5
5F79
330
1
100
AcDbSymbolTableRecord
100
AcDbBlockTableRecord
  2
*D20
340
0
  0
BLOCK_RECORD
  5
6158
330
1
100
AcDbSymbolTableRecord
100
AcDbBlockTableRecord
  2
*D21
340
0
  0
BLOCK_RECORD
  5
61A0
330
1
100
AcDbSymbolTableRecord
100
AcDbBlockTableRecord
  2
*D22
340
0
  0
BLOCK_RECORD
  5
61AD
330
1
100
AcDbSymbolTableRecord
100
AcDbBlockTableRecord
  2
*D23
340
0
  0
BLOCK_RECORD
  5
6235
330
1
100
AcDbSymbolTableRecord
100
AcDbBlockTableRecord
  2
*D24
340
0
  0
BLOCK_RECORD
  5
62D4
330
1
100
AcDbSymbolTableRecord
100
AcDbBlockTableRecord
  2
*D25
340
0
  0
BLOCK_RECORD
  5
62F8
330
1
100
AcDbSymbolTableRecord
100
AcDbBlockTableRecord
  2
*D26
340
0
  0
BLOCK_RECORD
  5
6303
330
1
100
AcDbSymbolTableRecord
100
AcDbBlockTableRecord
  2
*D27
340
0
  0
BLOCK_RECORD
  5
64CC
330
1
100
AcDbSymbolTableRecord
100
AcDbBlockTableRecord
  2
*D28
340
0
  0
BLOCK_RECORD
  5
64D8
330
1
100
AcDbSymbolTableRecord
100
AcDbBlockTableRecord
  2
*D29
340
0
  0
BLOCK_RECORD
  5
64E4
330
1
100
AcDbSymbolTableRecord
100
AcDbBlockTableRecord
  2
*D30
340
0
  0
BLOCK_RECORD
  5
64F0
330
1
100
AcDbSymbolTableRecord
100
AcDbBlockTableRecord
  2
*D31
340
0
  0
BLOCK_RECORD
  5
64FC
330
1
100
AcDbSymbolTableRecord
100
AcDbBlockTableRecord
  2
*D32
340
0
  0
BLOCK_RECORD
  5
6508
330
1
100
AcDbSymbolTableRecord
100
AcDbBlockTableRecord
  2
*D33
340
0
  0
BLOCK_RECORD
  5
658B
330
1
100
AcDbSymbolTableRecord
100
AcDbBlockTableRecord
  2
*D35
340
0
  0
BLOCK_RECORD
  5
6597
330
1
100
AcDbSymbolTableRecord
100
AcDbBlockTableRecord
  2
*D36
340
0
  0
BLOCK_RECORD
  5
65A3
330
1
100
AcDbSymbolTableRecord
100
AcDbBlockTableRecord
  2
*D37
340
0
  0
BLOCK_RECORD
  5
65AF
330
1
100
AcDbSymbolTableRecord
100
AcDbBlockTableRecord
  2
*D38
340
0
  0
BLOCK_RECORD
  5
65BB
330
1
100
AcDbSymbolTableRecord
100
AcDbBlockTableRecord
  2
*D39
340
0
  0
BLOCK_RECORD
  5
65C7
330
1
100
AcDbSymbolTableRecord
100
AcDbBlockTableRecord
  2
*D40
340
0
  0
ENDTAB
  0
ENDSEC
  0
SECTION
  2
BLOCKS
  0
BLOCK
  5
1F
330
1E
100
AcDbEntity
  8
0
100
AcDbBlockBegin
  2
*MODEL_SPACE
 70
     0
 10
0.0
 20
0.0
 30
0.0
  3
*MODEL_SPACE
  1

  0
ENDBLK
  5
20
330
1E
100
AcDbEntity
  8
0
100
AcDbBlockEnd
  0
BLOCK
  5
1B
330
1A
100
AcDbEntity
 67
     1
  8
0
100
AcDbBlockBegin
  2
*PAPER_SPACE
 70
     0
 10
0.0
 20
0.0
 30
0.0
  3
*PAPER_SPACE
  1

  0
ENDBLK
  5
1C
330
1A
100
AcDbEntity
 67
     1
  8
0
100
AcDbBlockEnd
  0
BLOCK
  5
3B6
330
3B2
100
AcDbEntity
  8
0
100
AcDbBlockBegin
  2
_OPEN
 70
     0
 10
0.0
 20
0.0
 30
0.0
  3
_OPEN
  1

  0
LINE
  5
3B3
330
3B2
100
AcDbEntity
  8
30
  6
Continuous
 62
     0
100
AcDbLine
 10
-1.0
 20
0.166667
 30
0.0
 11
0.0
 21
0.0
 31
0.0
  0
LINE
  5
3B4
330
3B2
100
AcDbEntity
  8
30
  6
Continuous
 62
     0
100
AcDbLine
 10
-1.0
 20
-0.166667
 30
0.0
 11
0.0
 21
0.0
 31
0.0
  0
LINE
  5
3B5
330
3B2
100
AcDbEntity
  8
30
  6
Continuous
 62
     0
100
AcDbLine
 10
0.0
 20
0.0
 30
0.0
 11
-1.0
 21
0.0
 31
0.0
  0
ENDBLK
  5
3B7
330
3B2
100
AcDbEntity
  8
0
100
AcDbBlockEnd
  0
BLOCK
  5
58CC
330
58CA
100
AcDbEntity
  8
TOP
  6
Continuous
 62
     4
100
AcDbBlockBegin
  2
*U1
 70
     1
 10
0.0
 20
0.0
 30
0.0
  3
*U1
  1

  0
TEXT
  5
58CB
330
58CA
100
AcDbEntity
  8
TOP
  6
ByBlock
 62
     0
100
AcDbText
 10
249.4949984839538
 20
103.4999999999999
 30
0.0
 40
2.500000003799998
  1
17
 41
0.78325
  7
UGMTXT
100
AcDbText
  0
ENDBLK
  5
58CD
330
58CA
100
AcDbEntity
  8
0
100
AcDbBlockEnd
  0
BLOCK
  5
58D0
330
58CE
100
AcDbEntity
  8
TOP
  6
Continuous
 62
     4
100
AcDbBlockBegin
  2
*U2
 70
     1
 10
0.0
 20
0.0
 30
0.0
  3
*U2
  1

  0
TEXT
  5
58CF
330
58CE
100
AcDbEntity
  8
TOP
  6
ByBlock
 62
     0
100
AcDbText
 10
252.6153110179847
 20
103.4999999999999
 30
0.0
 40
2.500000003799998
  1
(max.)
 41
0.7263970588235275
  7
UGMTXT
100
AcDbText
  0
ENDBLK
  5
58D1
330
58CE
100
AcDbEntity
  8
0
100
AcDbBlockEnd
  0
BLOCK
  5
58E0
330
58DE
100
AcDbEntity
  8
TOP
  6
Continuous
 62
     4
100
AcDbBlockBegin
  2
*U3
 70
     1
 10
0.0
 20
0.0
 30
0.0
  3
*U3
  1

  0
TEXT
  5
58DF
330
58DE
100
AcDbEntity
  8
TOP
  6
ByBlock
 62
     0
100
AcDbText
 10
250.6153110179847
 20
99.29999999999997
 30
0.0
 40
2.500000003799998
  1
max.t5
 41
0.7263970588235275
  7
UGMTXT
100
AcDbText
  0
ENDBLK
  5
58E1
330
58DE
100
AcDbEntity
  8
0
100
AcDbBlockEnd
  0
BLOCK
  5
5A0A
330
5A00
100
AcDbEntity
  8
0
100
AcDbBlockBegin
  2
*D4
 70
     1
 10
0.0
 20
0.0
 30
0.0
  3
*D4
  1

  0
LINE
  5
633B
330
5A00
100
AcDbEntity
  8
30
  6
Continuous
 62
     0
100
AcDbLine
 10
124.2108540529093
 20
-3.069659559241358
 30
0.0
 11
124.2108540529091
 21
-147.0929984150681
 31
0.0
  0
LINE
  5
633C
330
5A00
100
AcDbEntity
  8
30
  6
Continuous
 62
     0
100
AcDbLine
 10
216.2108540529092
 20
-80.56965955924139
 30
0.0
 11
216.2108540529092
 21
-147.0929984150681
 31
0.0
  0
LINE
  5
633D
330
5A00
100
AcDbEntity
  8
30
  6
Continuous
 62
     0
100
AcDbLine
 10
126.2108540529091
 20
-146.592998415068
 30
0.0
 11
214.2108540529092
 21
-146.592998415068
 31
0.0
  0
INSERT
  5
633E
330
5A00
100
AcDbEntity
  8
30
  6
Continuous
 62
     0
100
AcDbBlockReference
  2
_OPEN
 10
124.2108540529091
 20
-146.592998415068
 30
0.0
 41
2.0
 42
2.0
 43
2.0
 50
180.0
  0
INSERT
  5
633F
330
5A00
100
AcDbEntity
  8
30
  6
Continuous
 62
     0
100
AcDbBlockReference
  2
_OPEN
 10
216.2108540529092
 20
-146.592998415068
 30
0.0
 41
2.0
 42
2.0
 43
2.0
  0
MTEXT
  5
6340
330
5A00
100
AcDbEntity
  8
30
  6
Continuous
 62
     0
100
AcDbMText
 10
170.2108540529091
 20
-143.5929984150682
 30
0.0
 40
4.0
 41
0.0
 71
     5
 72
     1
  1
\A1;92
 73
     1
 44
1.0
1001
ACAD
1000
MTEXTBEGIN
1070
    73
1070
     1
1070
    44
1040
1.0
1070
    74
1070
     0
1000
MTEXTEND
  0
POINT
  5
6341
330
5A00
100
AcDbEntity
  8
DEFPOINTS
  6
Continuous
 62
     0
100
AcDbPoint
 10
124.2108540529093
 20
-2.069659559241358
 30
0.0
  0
POINT
  5
6342
330
5A00
100
AcDbEntity
  8
DEFPOINTS
  6
Continuous
 62
     0
100
AcDbPoint
 10
216.2108540529092
 20
-79.56965955924139
 30
0.0
  0
POINT
  5
6343
330
5A00
100
AcDbEntity
  8
DEFPOINTS
  6
Continuous
 62
     0
100
AcDbPoint
 10
216.2108540529092
 20
-146.592998415068
 30
0.0
  0
ENDBLK
  5
5A0B
330
5A00
100
AcDbEntity
  8
0
100
AcDbBlockEnd
  0
BLOCK
  5
5A17
330
5A0C
100
AcDbEntity
  8
0
100
AcDbBlockBegin
  2
*D5
 70
     1
 10
0.0
 20
0.0
 30
0.0
  3
*D5
  1

  0
LINE
  5
62A6
330
5A0C
100
AcDbEntity
  8
30
  6
Continuous
 62
     0
100
AcDbLine
 10
140.2108540529092
 20
-28.06965955924136
 30
0.0
 11
140.2108540529092
 21
-133.8573183489766
 31
0.0
  0
LINE
  5
62A7
330
5A0C
100
AcDbEntity
  8
30
  6
Continuous
 62
     0
100
AcDbLine
 10
144.210854052909
 20
-28.06965955924136
 30
0.0
 11
144.210854052909
 21
-133.8573183489766
 31
0.0
  0
LINE
  5
62A8
330
5A0C
100
AcDbEntity
  8
30
  6
Continuous
 62
     0
100
AcDbLine
 10
138.2108540529092
 20
-133.3573183489766
 30
0.0
 11
136.2108540529092
 21
-133.3573183489766
 31
0.0
  0
LINE
  5
62A9
330
5A0C
100
AcDbEntity
  8
30
  6
Continuous
 62
     0
100
AcDbLine
 10
146.2108540529091
 20
-133.3573183489766
 30
0.0
 11
152.8775207195758
 21
-133.3573183489766
 31
0.0
  0
INSERT
  5
62AA
330
5A0C
100
AcDbEntity
  8
30
  6
Continuous
 62
     0
100
AcDbBlockReference
  2
_OPEN
 10
140.2108540529092
 20
-133.3573183489766
 30
0.0
 41
2.0
 42
2.0
 43
2.0
  0
INSERT
  5
62AB
330
5A0C
100
AcDbEntity
  8
30
  6
Continuous
 62
     0
100
AcDbBlockReference
  2
_OPEN
 10
144.210854052909
 20
-133.3573183489766
 30
0.0
 41
2.0
 42
2.0
 43
2.0
 50
180.0
  0
MTEXT
  5
62AC
330
5A0C
100
AcDbEntity
  8
30
  6
Continuous
 62
     0
100
AcDbMText
 10
150.5441873862425
 20
-130.3573183489766
 30
0.0
 40
4.0
 41
0.0
 71
     5
 72
     1
  1
\A1;4
 73
     1
 44
1.0
1001
ACAD
1000
MTEXTBEGIN
1070
    73
1070
     1
1070
    44
1040
1.0
1070
    74
1070
     0
1000
MTEXTEND
  0
POINT
  5
62AD
330
5A0C
100
AcDbEntity
  8
DEFPOINTS
  6
Continuous
 62
     0
100
AcDbPoint
 10
140.2108540529092
 20
-27.06965955924137
 30
0.0
  0
POINT
  5
62AE
330
5A0C
100
AcDbEntity
  8
DEFPOINTS
  6
Continuous
 62
     0
100
AcDbPoint
 10
144.210854052909
 20
-27.06965955924137
 30
0.0
  0
POINT
  5
62AF
330
5A0C
100
AcDbEntity
  8
DEFPOINTS
  6
Continuous
 62
     0
100
AcDbPoint
 10
144.210854052909
 20
-133.3573183489766
 30
0.0
  0
ENDBLK
  5
5A18
330
5A0C
100
AcDbEntity
  8
0
100
AcDbBlockEnd
  0
BLOCK
  5
5A23
330
5A19
100
AcDbEntity
  8
0
100
AcDbBlockBegin
  2
*D6
 70
     1
 10
0.0
 20
0.0
 30
0.0
  3
*D6
  1

  0
LINE
  5
6294
330
5A19
100
AcDbEntity
  8
30
  6
Continuous
 62
     0
100
AcDbLine
 10
144.210854052909
 20
-28.06965955924136
 30
0.0
 11
144.210854052909
 21
-133.8573183489766
 31
0.0
  0
LINE
  5
6295
330
5A19
100
AcDbEntity
  8
30
  6
Continuous
 62
     0
100
AcDbLine
 10
216.2108540529092
 20
-80.56965955924139
 30
0.0
 11
216.2108540529092
 21
-133.8573183489766
 31
0.0
  0
LINE
  5
6296
330
5A19
100
AcDbEntity
  8
30
  6
Continuous
 62
     0
100
AcDbLine
 10
146.2108540529091
 20
-133.3573183489766
 30
0.0
 11
214.2108540529092
 21
-133.3573183489766
 31
0.0
  0
INSERT
  5
6297
330
5A19
100
AcDbEntity
  8
30
  6
Continuous
 62
     0
100
AcDbBlockReference
  2
_OPEN
 10
144.210854052909
 20
-133.3573183489766
 30
0.0
 41
2.0
 42
2.0
 43
2.0
 50
180.0
  0
INSERT
  5
6298
330
5A19
100
AcDbEntity
  8
30
  6
Continuous
 62
     0
100
AcDbBlockReference
  2
_OPEN
 10
216.2108540529092
 20
-133.3573183489766
 30
0.0
 41
2.0
 42
2.0
 43
2.0
  0
MTEXT
  5
6299
330
5A19
100
AcDbEntity
  8
30
  6
Continuous
 62
     0
100
AcDbMText
 10
180.2108540529092
 20
-130.3573183489766
 30
0.0
 40
4.0
 41
0.0
 71
     5
 72
     1
  1
\A1;72
 73
     1
 44
1.0
1001
ACAD
1000
MTEXTBEGIN
1070
    73
1070
     1
1070
    44
1040
1.0
1070
    74
1070
     0
1000
MTEXTEND
  0
POINT
  5
629A
330
5A19
100
AcDbEntity
  8
DEFPOINTS
  6
Continuous
 62
     0
100
AcDbPoint
 10
144.210854052909
 20
-27.06965955924137
 30
0.0
  0
POINT
  5
629B
330
5A19
100
AcDbEntity
  8
DEFPOINTS
  6
Continuous
 62
     0
100
AcDbPoint
 10
216.2108540529092
 20
-79.56965955924139
 30
0.0
  0
POINT
  5
629C
330
5A19
100
AcDbEntity
  8
DEFPOINTS
  6
Continuous
 62
     0
100
AcDbPoint
 10
216.2108540529092
 20
-133.3573183489766
 30
0.0
  0
ENDBLK
  5
5A24
330
5A19
100
AcDbEntity
  8
0
100
AcDbBlockEnd
  0
BLOCK
  5
5A2F
330
5A25
100
AcDbEntity
  8
0
100
AcDbBlockBegin
  2
*D7
 70
     1
 10
0.0
 20
0.0
 30
0.0
  3
*D7
  1

  0
LINE
  5
5BC6
330
5A25
100
AcDbEntity
  8
30
  6
Continuous
 62
     0
100
AcDbLine
 10
139.2108540529092
 20
-27.06965955924137
 30
0.0
 11
99.25523204808976
 21
-27.06965955924133
 31
0.0
  0
LINE
  5
5BC7
330
5A25
100
AcDbEntity
  8
30
  6
Continuous
 62
     0
100
AcDbLine
 10
139.2108540529092
 20
22.93034044075861
 30
0.0
 11
99.25523204808976
 21
22.93034044075862
 31
0.0
  0
LINE
  5
5BC8
330
5A25
100
AcDbEntity
  8
30
  6
Continuous
 62
     0
100
AcDbLine
 10
99.75523204808977
 20
-25.06965955924132
 30
0.0
 11
99.75523204808977
 21
20.93034044075861
 31
0.0
  0
INSERT
  5
5BC9
330
5A25
100
AcDbEntity
  8
30
  6
Continuous
 62
     0
100
AcDbBlockReference
  2
_OPEN
 10
99.75523204808977
 20
-27.06965955924133
 30
0.0
 41
2.0
 42
2.0
 43
2.0
 50
270.0
  0
INSERT
  5
5BCA
330
5A25
100
AcDbEntity
  8
30
  6
Continuous
 62
     0
100
AcDbBlockReference
  2
_OPEN
 10
99.75523204808977
 20
22.93034044075862
 30
0.0
 41
2.0
 42
2.0
 43
2.0
 50
90.0
  0
MTEXT
  5
5BCB
330
5A25
100
AcDbEntity
  8
30
  6
Continuous
 62
     0
100
AcDbMText
 10
96.75523204808976
 20
-2.069659559241343
 30
0.0
 40
4.0
 41
0.0
 71
     5
 72
     1
  1
\A1;50
 11
0.0000000000000001
 21
1.0
 31
0.0
 73
     1
 44
1.0
1001
ACAD
1000
MTEXTBEGIN
1070
    73
1070
     1
1070
    44
1040
1.0
1070
    74
1070
     0
1000
MTEXTEND
  0
POINT
  5
5BCC
330
5A25
100
AcDbEntity
  8
DEFPOINTS
  6
Continuous
 62
     0
100
AcDbPoint
 10
140.2108540529092
 20
-27.06965955924137
 30
0.0
  0
POINT
  5
5BCD
330
5A25
100
AcDbEntity
  8
DEFPOINTS
  6
Continuous
 62
     0
100
AcDbPoint
 10
140.2108540529092
 20
22.93034044075861
 30
0.0
  0
POINT
  5
5BCE
330
5A25
100
AcDbEntity
  8
DEFPOINTS
  6
Continuous
 62
     0
100
AcDbPoint
 10
99.75523204808977
 20
22.93034044075862
 30
0.0
  0
ENDBLK
  5
5A30
330
5A25
100
AcDbEntity
  8
0
100
AcDbBlockEnd
  0
BLOCK
  5
5A3B
330
5A31
100
AcDbEntity
  8
0
100
AcDbBlockBegin
  2
*D8
 70
     1
 10
0.0
 20
0.0
 30
0.0
  3
*D8
  1

  0
LINE
  5
5BBD
330
5A31
100
AcDbEntity
  8
30
  6
Continuous
 62
     0
100
AcDbLine
 10
192.2108540529092
 20
76.43034044075867
 30
0.0
 11
192.2108540529092
 21
106.6809222968069
 31
0.0
  0
LINE
  5
5BBE
330
5A31
100
AcDbEntity
  8
30
  6
Continuous
 62
     0
100
AcDbLine
 10
216.2108540529092
 20
76.4303404407587
 30
0.0
 11
216.2108540529092
 21
106.6809222968069
 31
0.0
  0
LINE
  5
5BBF
330
5A31
100
AcDbEntity
  8
30
  6
Continuous
 62
     0
100
AcDbLine
 10
194.2108540529092
 20
106.180922296807
 30
0.0
 11
214.2108540529092
 21
106.180922296807
 31
0.0
  0
INSERT
  5
5BC0
330
5A31
100
AcDbEntity
  8
30
  6
Continuous
 62
     0
100
AcDbBlockReference
  2
_OPEN
 10
192.2108540529092
 20
106.180922296807
 30
0.0
 41
2.0
 42
2.0
 43
2.0
 50
180.0
  0
INSERT
  5
5BC1
330
5A31
100
AcDbEntity
  8
30
  6
Continuous
 62
     0
100
AcDbBlockReference
  2
_OPEN
 10
216.2108540529092
 20
106.180922296807
 30
0.0
 41
2.0
 42
2.0
 43
2.0
  0
MTEXT
  5
5BC2
330
5A31
100
AcDbEntity
  8
30
  6
Continuous
 62
     0
100
AcDbMText
 10
204.2108540529091
 20
109.180922296807
 30
0.0
 40
4.0
 41
0.0
 71
     5
 72
     1
  1
\A1;24
 73
     1
 44
1.0
1001
ACAD
1000
MTEXTBEGIN
1070
    73
1070
     1
1070
    44
1040
1.0
1070
    74
1070
     0
1000
MTEXTEND
  0
POINT
  5
5BC3
330
5A31
100
AcDbEntity
  8
DEFPOINTS
  6
Continuous
 62
     0
100
AcDbPoint
 10
192.2108540529092
 20
75.43034044075866
 30
0.0
  0
POINT
  5
5BC4
330
5A31
100
AcDbEntity
  8
DEFPOINTS
  6
Continuous
 62
     0
100
AcDbPoint
 10
216.2108540529092
 20
75.43034044075874
 30
0.0
  0
POINT
  5
5BC5
330
5A31
100
AcDbEntity
  8
DEFPOINTS
  6
Continuous
 62
     0
100
AcDbPoint
 10
216.2108540529092
 20
106.180922296807
 30
0.0
  0
ENDBLK
  5
5A3C
330
5A31
100
AcDbEntity
  8
0
100
AcDbBlockEnd
  0
BLOCK
  5
5A47
330
5A3D
100
AcDbEntity
  8
0
100
AcDbBlockBegin
  2
*D9
 70
     1
 10
0.0
 20
0.0
 30
0.0
  3
*D9
  1

  0
LINE
  5
626F
330
5A3D
100
AcDbEntity
  8
30
  6
Continuous
 62
     0
100
AcDbLine
 10
148.2108540529091
 20
-54.06965955924146
 30
0.0
 11
148.2108540529091
 21
-119.0171095191456
 31
0.0
  0
LINE
  5
6270
330
5A3D
100
AcDbEntity
  8
30
  6
Continuous
 62
     0
100
AcDbLine
 10
216.2108540529092
 20
-80.56965955924139
 30
0.0
 11
216.2108540529092
 21
-119.0171095191456
 31
0.0
  0
LINE
  5
6271
330
5A3D
100
AcDbEntity
  8
30
  6
Continuous
 62
     0
100
AcDbLine
 10
150.2108540529091
 20
-118.5171095191456
 30
0.0
 11
214.2108540529092
 21
-118.5171095191456
 31
0.0
  0
INSERT
  5
6272
330
5A3D
100
AcDbEntity
  8
30
  6
Continuous
 62
     0
100
AcDbBlockReference
  2
_OPEN
 10
148.2108540529091
 20
-118.5171095191456
 30
0.0
 41
2.0
 42
2.0
 43
2.0
 50
180.0
  0
INSERT
  5
6273
330
5A3D
100
AcDbEntity
  8
30
  6
Continuous
 62
     0
100
AcDbBlockReference
  2
_OPEN
 10
216.2108540529092
 20
-118.5171095191456
 30
0.0
 41
2.0
 42
2.0
 43
2.0
  0
MTEXT
  5
6274
330
5A3D
100
AcDbEntity
  8
30
  6
Continuous
 62
     0
100
AcDbMText
 10
182.2108540529092
 20
-115.5171095191455
 30
0.0
 40
4.0
 41
0.0
 71
     5
 72
     1
  1
\A1;68
 73
     1
 44
1.0
1001
ACAD
1000
MTEXTBEGIN
1070
    73
1070
     1
1070
    44
1040
1.0
1070
    74
1070
     0
1000
MTEXTEND
  0
POINT
  5
6275
330
5A3D
100
AcDbEntity
  8
DEFPOINTS
  6
Continuous
 62
     0
100
AcDbPoint
 10
148.2108540529091
 20
-53.06965955924145
 30
0.0
  0
POINT
  5
6276
330
5A3D
100
AcDbEntity
  8
DEFPOINTS
  6
Continuous
 62
     0
100
AcDbPoint
 10
216.2108540529092
 20
-79.56965955924139
 30
0.0
  0
POINT
  5
6277
330
5A3D
100
AcDbEntity
  8
DEFPOINTS
  6
Continuous
 62
     0
100
AcDbPoint
 10
216.2108540529092
 20
-118.5171095191456
 30
0.0
  0
ENDBLK
  5
5A48
330
5A3D
100
AcDbEntity
  8
0
100
AcDbBlockEnd
  0
BLOCK
  5
5A53
330
5A49
100
AcDbEntity
  8
0
100
AcDbBlockBegin
  2
*D10
 70
     1
 10
0.0
 20
0.0
 30
0.0
  3
*D10
  1

  0
LINE
  5
6241
330
5A49
100
AcDbEntity
  8
30
  6
Continuous
 62
     0
100
AcDbLine
 10
155.2108540529092
 20
-80.56965955924139
 30
0.0
 11
155.2108540529092
 21
-105.3235197541029
 31
0.0
  0
LINE
  5
6242
330
5A49
100
AcDbEntity
  8
30
  6
Continuous
 62
     0
100
AcDbLine
 10
216.2108540529092
 20
-80.56965955924139
 30
0.0
 11
216.2108540529092
 21
-105.3235197541029
 31
0.0
  0
LINE
  5
6243
330
5A49
100
AcDbEntity
  8
30
  6
Continuous
 62
     0
100
AcDbLine
 10
157.2108540529091
 20
-104.823519754103
 30
0.0
 11
214.2108540529092
 21
-104.823519754103
 31
0.0
  0
INSERT
  5
6244
330
5A49
100
AcDbEntity
  8
30
  6
Continuous
 62
     0
100
AcDbBlockReference
  2
_OPEN
 10
155.2108540529092
 20
-104.823519754103
 30
0.0
 41
2.0
 42
2.0
 43
2.0
 50
180.0
  0
INSERT
  5
6245
330
5A49
100
AcDbEntity
  8
30
  6
Continuous
 62
     0
100
AcDbBlockReference
  2
_OPEN
 10
216.2108540529092
 20
-104.823519754103
 30
0.0
 41
2.0
 42
2.0
 43
2.0
  0
MTEXT
  5
6246
330
5A49
100
AcDbEntity
  8
30
  6
Continuous
 62
     0
100
AcDbMText
 10
185.7108540529092
 20
-101.8235197541029
 30
0.0
 40
4.0
 41
0.0
 71
     5
 72
     1
  1
\A1;61
 73
     1
 44
1.0
1001
ACAD
1000
MTEXTBEGIN
1070
    73
1070
     1
1070
    44
1040
1.0
1070
    74
1070
     0
1000
MTEXTEND
  0
POINT
  5
6247
330
5A49
100
AcDbEntity
  8
DEFPOINTS
  6
Continuous
 62
     0
100
AcDbPoint
 10
155.2108540529092
 20
-79.56965955924139
 30
0.0
  0
POINT
  5
6248
330
5A49
100
AcDbEntity
  8
DEFPOINTS
  6
Continuous
 62
     0
100
AcDbPoint
 10
216.2108540529092
 20
-79.56965955924139
 30
0.0
  0
POINT
  5
6249
330
5A49
100
AcDbEntity
  8
DEFPOINTS
  6
Continuous
 62
     0
100
AcDbPoint
 10
216.2108540529092
 20
-104.823519754103
 30
0.0
  0
ENDBLK
  5
5A54
330
5A49
100
AcDbEntity
  8
0
100
AcDbBlockEnd
  0
BLOCK
  5
5A5F
330
5A55
100
AcDbEntity
  8
0
100
AcDbBlockBegin
  2
*D11
 70
     1
 10
0.0
 20
0.0
 30
0.0
  3
*D11
  1

  0
LINE
  5
622B
330
5A55
100
AcDbEntity
  8
30
  6
Continuous
 62
     0
100
AcDbLine
 10
171.2108540529091
 20
-73.31965955924137
 30
0.0
 11
171.2108540529091
 21
-93.92316965538617
 31
0.0
  0
LINE
  5
622C
330
5A55
100
AcDbEntity
  8
30
  6
Continuous
 62
     0
100
AcDbLine
 10
216.2108540529092
 20
-80.56965955924139
 30
0.0
 11
216.2108540529092
 21
-93.92316965538617
 31
0.0
  0
LINE
  5
622D
330
5A55
100
AcDbEntity
  8
30
  6
Continuous
 62
     0
100
AcDbLine
 10
173.2108540529091
 20
-93.42316965538616
 30
0.0
 11
214.2108540529092
 21
-93.42316965538616
 31
0.0
  0
INSERT
  5
622E
330
5A55
100
AcDbEntity
  8
30
  6
Continuous
 62
     0
100
AcDbBlockReference
  2
_OPEN
 10
171.2108540529091
 20
-93.42316965538616
 30
0.0
 41
2.0
 42
2.0
 43
2.0
 50
180.0
  0
INSERT
  5
622F
330
5A55
100
AcDbEntity
  8
30
  6
Continuous
 62
     0
100
AcDbBlockReference
  2
_OPEN
 10
216.2108540529092
 20
-93.42316965538616
 30
0.0
 41
2.0
 42
2.0
 43
2.0
  0
MTEXT
  5
6230
330
5A55
100
AcDbEntity
  8
30
  6
Continuous
 62
     0
100
AcDbMText
 10
193.7108540529092
 20
-90.42316965538615
 30
0.0
 40
4.0
 41
0.0
 71
     5
 72
     1
  1
\A1;45
 73
     1
 44
1.0
1001
ACAD
1000
MTEXTBEGIN
1070
    73
1070
     1
1070
    44
1040
1.0
1070
    74
1070
     0
1000
MTEXTEND
  0
POINT
  5
6231
330
5A55
100
AcDbEntity
  8
DEFPOINTS
  6
Continuous
 62
     0
100
AcDbPoint
 10
171.2108540529091
 20
-72.31965955924137
 30
0.0
  0
POINT
  5
6232
330
5A55
100
AcDbEntity
  8
DEFPOINTS
  6
Continuous
 62
     0
100
AcDbPoint
 10
216.2108540529092
 20
-79.56965955924139
 30
0.0
  0
POINT
  5
6233
330
5A55
100
AcDbEntity
  8
DEFPOINTS
  6
Continuous
 62
     0
100
AcDbPoint
 10
216.2108540529092
 20
-93.42316965538616
 30
0.0
  0
ENDBLK
  5
5A60
330
5A55
100
AcDbEntity
  8
0
100
AcDbBlockEnd
  0
BLOCK
  5
5A6B
330
5A61
100
AcDbEntity
  8
0
100
AcDbBlockBegin
  2
*D12
 70
     1
 10
0.0
 20
0.0
 30
0.0
  3
*D12
  1

  0
LINE
  5
63B5
330
5A61
100
AcDbEntity
  8
30
  6
Continuous
 62
     0
100
AcDbLine
 10
161.2589441000691
 20
169.0147490376534
 30
0.0
 11
161.2589441000691
 21
154.1142574383336
 31
0.0
  0
LINE
  5
63B6
330
5A61
100
AcDbEntity
  8
30
  6
Continuous
 62
     0
100
AcDbLine
 10
178.258944100069
 20
169.0147490376534
 30
0.0
 11
178.258944100069
 21
154.1142574383336
 31
0.0
  0
LINE
  5
63B7
330
5A61
100
AcDbEntity
  8
30
  6
Continuous
 62
     0
100
AcDbLine
 10
163.2589441000691
 20
154.6142574383336
 30
0.0
 11
176.258944100069
 21
154.6142574383336
 31
0.0
  0
INSERT
  5
63B8
330
5A61
100
AcDbEntity
  8
30
  6
Continuous
 62
     0
100
AcDbBlockReference
  2
_OPEN
 10
161.2589441000691
 20
154.6142574383336
 30
0.0
 41
2.0
 42
2.0
 43
2.0
 50
180.0
  0
INSERT
  5
63B9
330
5A61
100
AcDbEntity
  8
30
  6
Continuous
 62
     0
100
AcDbBlockReference
  2
_OPEN
 10
178.258944100069
 20
154.6142574383336
 30
0.0
 41
2.0
 42
2.0
 43
2.0
  0
MTEXT
  5
63BA
330
5A61
100
AcDbEntity
  8
30
  6
Continuous
 62
     0
100
AcDbMText
 10
169.758944100069
 20
157.6142574383336
 30
0.0
 40
4.0
 41
0.0
 71
     5
 72
     1
  1
\A1;17
 73
     1
 44
1.0
1001
ACAD
1000
MTEXTBEGIN
1070
    73
1070
     1
1070
    44
1040
1.0
1070
    74
1070
     0
1000
MTEXTEND
  0
POINT
  5
63BB
330
5A61
100
AcDbEntity
  8
DEFPOINTS
  6
Continuous
 62
     0
100
AcDbPoint
 10
161.2589441000691
 20
170.0147490376535
 30
0.0
  0
POINT
  5
63BC
330
5A61
100
AcDbEntity
  8
DEFPOINTS
  6
Continuous
 62
     0
100
AcDbPoint
 10
178.258944100069
 20
170.0147490376535
 30
0.0
  0
POINT
  5
63BD
330
5A61
100
AcDbEntity
  8
DEFPOINTS
  6
Continuous
 62
     0
100
AcDbPoint
 10
178.258944100069
 20
154.6142574383336
 30
0.0
  0
ENDBLK
  5
5A6C
330
5A61
100
AcDbEntity
  8
0
100
AcDbBlockEnd
  0
BLOCK
  5
5A79
330
5A6D
100
AcDbEntity
  8
0
100
AcDbBlockBegin
  2
*D13
 70
     1
 10
0.0
 20
0.0
 30
0.0
  3
*D13
  1

  0
LINE
  5
63BE
330
5A6D
100
AcDbEntity
  8
30
  6
Continuous
 62
     0
100
AcDbLine
 10
179.258944100069
 20
170.0147490376535
 30
0.0
 11
193.345666592857
 21
170.0147490376535
 31
0.0
  0
LINE
  5
63BF
330
5A6D
100
AcDbEntity
  8
30
  6
Continuous
 62
     0
100
AcDbLine
 10
173.2589441165688
 20
178.5147490376535
 30
0.0
 11
193.345666592857
 21
178.5147490376535
 31
0.0
  0
LINE
  5
63C0
330
5A6D
100
AcDbEntity
  8
30
  6
Continuous
 62
     0
100
AcDbLine
 10
192.8456665928571
 20
172.0147490376534
 30
0.0
 11
192.8456665928571
 21
176.5147490376534
 31
0.0
  0
LINE
  5
63C1
330
5A6D
100
AcDbEntity
  8
30
  6
Continuous
 62
     0
100
AcDbLine
 10
192.8456665928571
 20
178.5147490376535
 30
0.0
 11
192.8456665928571
 21
180.5147490376534
 31
0.0
  0
LINE
  5
63C2
330
5A6D
100
AcDbEntity
  8
30
  6
Continuous
 62
     0
100
AcDbLine
 10
192.8456665928571
 20
180.5147490376534
 30
0.0
 11
201.845666592857
 21
180.5147490376534
 31
0.0
  0
INSERT
  5
63C3
330
5A6D
100
AcDbEntity
  8
30
  6
Continuous
 62
     0
100
AcDbBlockReference
  2
_OPEN
 10
192.8456665928571
 20
170.0147490376535
 30
0.0
 41
2.0
 42
2.0
 43
2.0
 50
270.0
  0
INSERT
  5
63C4
330
5A6D
100
AcDbEntity
  8
30
  6
Continuous
 62
     0
100
AcDbBlockReference
  2
_OPEN
 10
192.8456665928571
 20
178.5147490376535
 30
0.0
 41
2.0
 42
2.0
 43
2.0
 50
90.0
  0
MTEXT
  5
63C5
330
5A6D
100
AcDbEntity
  8
30
  6
Continuous
 62
     0
100
AcDbMText
 10
197.845666592857
 20
183.5147490376535
 30
0.0
 40
4.0
 41
0.0
 71
     5
 72
     1
  1
\A1;8.5
 73
     1
 44
1.0
1001
ACAD
1000
MTEXTBEGIN
1070
    73
1070
     1
1070
    44
1040
1.0
1070
    74
1070
     0
1000
MTEXTEND
  0
POINT
  5
63C6
330
5A6D
100
AcDbEntity
  8
DEFPOINTS
  6
Continuous
 62
     0
100
AcDbPoint
 10
178.258944100069
 20
170.0147490376535
 30
0.0
  0
POINT
  5
63C7
330
5A6D
100
AcDbEntity
  8
DEFPOINTS
  6
Continuous
 62
     0
100
AcDbPoint
 10
172.2589441165689
 20
178.5147490376535
 30
0.0
  0
POINT
  5
63C8
330
5A6D
100
AcDbEntity
  8
DEFPOINTS
  6
Continuous
 62
     0
100
AcDbPoint
 10
192.8456665928571
 20
178.5147490376535
 30
0.0
  0
ENDBLK
  5
5A7A
330
5A6D
100
AcDbEntity
  8
0
100
AcDbBlockEnd
  0
BLOCK
  5
5E86
330
5E7C
100
AcDbEntity
  8
0
100
AcDbBlockBegin
  2
*D14
 70
     1
 10
0.0
 20
0.0
 30
0.0
  3
*D14
  1

  0
LINE
  5
5FBB
330
5E7C
100
AcDbEntity
  8
30
  6
Continuous
 62
     0
100
AcDbLine
 10
-40.86390546482869
 20
27.15231784516305
 30
0.0
 11
-40.86390546482869
 21
34.25182624584321
 31
0.0
  0
LINE
  5
5FBC
330
5E7C
100
AcDbEntity
  8
30
  6
Continuous
 62
     0
100
AcDbLine
 10
43.1360945351713
 20
27.15231784516305
 30
0.0
 11
43.1360945351713
 21
34.25182624584321
 31
0.0
  0
LINE
  5
5FBD
330
5E7C
100
AcDbEntity
  8
30
  6
Continuous
 62
     0
100
AcDbLine
 10
-38.86390546482869
 20
33.75182624584322
 30
0.0
 11
41.13609453517129
 21
33.75182624584322
 31
0.0
  0
INSERT
  5
5FBE
330
5E7C
100
AcDbEntity
  8
30
  6
Continuous
 62
     0
100
AcDbBlockReference
  2
_OPEN
 10
-40.86390546482869
 20
33.75182624584322
 30
0.0
 41
2.0
 42
2.0
 43
2.0
 50
180.0
  0
INSERT
  5
5FBF
330
5E7C
100
AcDbEntity
  8
30
  6
Continuous
 62
     0
100
AcDbBlockReference
  2
_OPEN
 10
43.1360945351713
 20
33.75182624584322
 30
0.0
 41
2.0
 42
2.0
 43
2.0
  0
MTEXT
  5
5FC0
330
5E7C
100
AcDbEntity
  8
30
  6
Continuous
 62
     0
100
AcDbMText
 10
1.13609453517131
 20
36.75182624584321
 30
0.0
 40
4.0
 41
0.0
 71
     5
 72
     1
  1
\A1;84
 73
     1
 44
1.0
1001
ACAD
1000
MTEXTBEGIN
1070
    73
1070
     1
1070
    44
1040
1.0
1070
    74
1070
     0
1000
MTEXTEND
  0
POINT
  5
5FC1
330
5E7C
100
AcDbEntity
  8
DEFPOINTS
  6
Continuous
 62
     0
100
AcDbPoint
 10
-40.86390546482869
 20
26.15231784516305
 30
0.0
  0
POINT
  5
5FC2
330
5E7C
100
AcDbEntity
  8
DEFPOINTS
  6
Continuous
 62
     0
100
AcDbPoint
 10
43.1360945351713
 20
26.15231784516305
 30
0.0
  0
POINT
  5
5FC3
330
5E7C
100
AcDbEntity
  8
DEFPOINTS
  6
Continuous
 62
     0
100
AcDbPoint
 10
43.1360945351713
 20
33.75182624584322
 30
0.0
  0
ENDBLK
  5
5E87
330
5E7C
100
AcDbEntity
  8
0
100
AcDbBlockEnd
  0
BLOCK
  5
5E92
330
5E88
100
AcDbEntity
  8
0
100
AcDbBlockBegin
  2
*D15
 70
     1
 10
0.0
 20
0.0
 30
0.0
  3
*D15
  1

  0
LINE
  5
5FE8
330
5E88
100
AcDbEntity
  8
30
  6
Continuous
 62
     0
100
AcDbLine
 10
-43.86390546482869
 20
-77.34768215483694
 30
0.0
 11
-43.86390546482869
 21
-121.0971002987884
 31
0.0
  0
LINE
  5
5FE9
330
5E88
100
AcDbEntity
  8
30
  6
Continuous
 62
     0
100
AcDbLine
 10
46.13609453517129
 20
-77.34768215483694
 30
0.0
 11
46.13609453517129
 21
-121.0971002987884
 31
0.0
  0
LINE
  5
5FEA
330
5E88
100
AcDbEntity
  8
30
  6
Continuous
 62
     0
100
AcDbLine
 10
-41.86390546482869
 20
-120.5971002987884
 30
0.0
 11
44.13609453517131
 21
-120.5971002987884
 31
0.0
  0
INSERT
  5
5FEB
330
5E88
100
AcDbEntity
  8
30
  6
Continuous
 62
     0
100
AcDbBlockReference
  2
_OPEN
 10
-43.86390546482869
 20
-120.5971002987884
 30
0.0
 41
2.0
 42
2.0
 43
2.0
 50
180.0
  0
INSERT
  5
5FEC
330
5E88
100
AcDbEntity
  8
30
  6
Continuous
 62
     0
100
AcDbBlockReference
  2
_OPEN
 10
46.13609453517129
 20
-120.5971002987884
 30
0.0
 41
2.0
 42
2.0
 43
2.0
  0
MTEXT
  5
5FED
330
5E88
100
AcDbEntity
  8
30
  6
Continuous
 62
     0
100
AcDbMText
 10
1.13609453517131
 20
-117.5971002987884
 30
0.0
 40
4.0
 41
0.0
 71
     5
 72
     1
  1
\A1;90
 73
     1
 44
1.0
1001
ACAD
1000
MTEXTBEGIN
1070
    73
1070
     1
1070
    44
1040
1.0
1070
    74
1070
     0
1000
MTEXTEND
  0
POINT
  5
5FEE
330
5E88
100
AcDbEntity
  8
DEFPOINTS
  6
Continuous
 62
     0
100
AcDbPoint
 10
-43.86390546482869
 20
-76.34768215483695
 30
0.0
  0
POINT
  5
5FEF
330
5E88
100
AcDbEntity
  8
DEFPOINTS
  6
Continuous
 62
     0
100
AcDbPoint
 10
46.13609453517129
 20
-76.34768215483695
 30
0.0
  0
POINT
  5
5FF0
330
5E88
100
AcDbEntity
  8
DEFPOINTS
  6
Continuous
 62
     0
100
AcDbPoint
 10
46.13609453517129
 20
-120.5971002987884
 30
0.0
  0
ENDBLK
  5
5E93
330
5E88
100
AcDbEntity
  8
0
100
AcDbBlockEnd
  0
BLOCK
  5
5E9E
330
5E94
100
AcDbEntity
  8
0
100
AcDbBlockBegin
  2
*D16
 70
     1
 10
0.0
 20
0.0
 30
0.0
  3
*D16
  1

  0
LINE
  5
5FDF
330
5E94
100
AcDbEntity
  8
30
  6
Continuous
 62
     0
100
AcDbLine
 10
-28.86390546482866
 20
-69.34768217133697
 30
0.0
 11
-28.86390546482866
 21
-101.0971002987884
 31
0.0
  0
LINE
  5
5FE0
330
5E94
100
AcDbEntity
  8
30
  6
Continuous
 62
     0
100
AcDbLine
 10
31.13609453517131
 20
-69.34768217133697
 30
0.0
 11
31.13609453517129
 21
-101.0971002987884
 31
0.0
  0
LINE
  5
5FE1
330
5E94
100
AcDbEntity
  8
30
  6
Continuous
 62
     0
100
AcDbLine
 10
-26.86390546482865
 20
-100.5971002987884
 30
0.0
 11
29.1360945351713
 21
-100.5971002987884
 31
0.0
  0
INSERT
  5
5FE2
330
5E94
100
AcDbEntity
  8
30
  6
Continuous
 62
     0
100
AcDbBlockReference
  2
_OPEN
 10
-28.86390546482866
 20
-100.5971002987884
 30
0.0
 41
2.0
 42
2.0
 43
2.0
 50
180.0
  0
INSERT
  5
5FE3
330
5E94
100
AcDbEntity
  8
30
  6
Continuous
 62
     0
100
AcDbBlockReference
  2
_OPEN
 10
31.13609453517129
 20
-100.5971002987884
 30
0.0
 41
2.0
 42
2.0
 43
2.0
  0
MTEXT
  5
5FE4
330
5E94
100
AcDbEntity
  8
30
  6
Continuous
 62
     0
100
AcDbMText
 10
1.13609453517132
 20
-97.59710029878846
 30
0.0
 40
4.0
 41
0.0
 71
     5
 72
     1
  1
\A1;60
 73
     1
 44
1.0
1001
ACAD
1000
MTEXTBEGIN
1070
    73
1070
     1
1070
    44
1040
1.0
1070
    74
1070
     0
1000
MTEXTEND
  0
POINT
  5
5FE5
330
5E94
100
AcDbEntity
  8
DEFPOINTS
  6
Continuous
 62
     0
100
AcDbPoint
 10
-28.86390546482866
 20
-68.34768217133697
 30
0.0
  0
POINT
  5
5FE6
330
5E94
100
AcDbEntity
  8
DEFPOINTS
  6
Continuous
 62
     0
100
AcDbPoint
 10
31.13609453517131
 20
-68.34768217133697
 30
0.0
  0
POINT
  5
5FE7
330
5E94
100
AcDbEntity
  8
DEFPOINTS
  6
Continuous
 62
     0
100
AcDbPoint
 10
31.13609453517129
 20
-100.5971002987884
 30
0.0
  0
ENDBLK
  5
5E9F
330
5E94
100
AcDbEntity
  8
0
100
AcDbBlockEnd
  0
BLOCK
  5
5EAA
330
5EA0
100
AcDbEntity
  8
0
100
AcDbBlockBegin
  2
*D17
 70
     1
 10
0.0
 20
0.0
 30
0.0
  3
*D17
  1

  0
LINE
  5
5FC4
330
5EA0
100
AcDbEntity
  8
30
  6
Continuous
 62
     0
100
AcDbLine
 10
-9.863905464828716
 20
-24.84768215483692
 30
0.0
 11
-9.863905464828722
 21
-41.09710029878843
 31
0.0
  0
LINE
  5
5FC5
330
5EA0
100
AcDbEntity
  8
30
  6
Continuous
 62
     0
100
AcDbLine
 10
12.13609453517134
 20
-24.84768215483692
 30
0.0
 11
12.13609453517133
 21
-41.09710029878843
 31
0.0
  0
LINE
  5
5FC6
330
5EA0
100
AcDbEntity
  8
30
  6
Continuous
 62
     0
100
AcDbLine
 10
-7.86390546482872
 20
-40.59710029878842
 30
0.0
 11
10.13609453517132
 21
-40.59710029878842
 31
0.0
  0
INSERT
  5
5FC7
330
5EA0
100
AcDbEntity
  8
30
  6
Continuous
 62
     0
100
AcDbBlockReference
  2
_OPEN
 10
-9.863905464828722
 20
-40.59710029878842
 30
0.0
 41
2.0
 42
2.0
 43
2.0
 50
180.0
  0
INSERT
  5
5FC8
330
5EA0
100
AcDbEntity
  8
30
  6
Continuous
 62
     0
100
AcDbBlockReference
  2
_OPEN
 10
12.13609453517133
 20
-40.59710029878842
 30
0.0
 41
2.0
 42
2.0
 43
2.0
  0
MTEXT
  5
5FC9
330
5EA0
100
AcDbEntity
  8
30
  6
Continuous
 62
     0
100
AcDbMText
 10
1.136094535171307
 20
-37.59710029878843
 30
0.0
 40
4.0
 41
0.0
 71
     5
 72
     1
  1
\A1;22
 73
     1
 44
1.0
1001
ACAD
1000
MTEXTBEGIN
1070
    73
1070
     1
1070
    44
1040
1.0
1070
    74
1070
     0
1000
MTEXTEND
  0
POINT
  5
5FCA
330
5EA0
100
AcDbEntity
  8
DEFPOINTS
  6
Continuous
 62
     0
100
AcDbPoint
 10
-9.863905464828716
 20
-23.84768215483691
 30
0.0
  0
POINT
  5
5FCB
330
5EA0
100
AcDbEntity
  8
DEFPOINTS
  6
Continuous
 62
     0
100
AcDbPoint
 10
12.13609453517134
 20
-23.84768215483691
 30
0.0
  0
POINT
  5
5FCC
330
5EA0
100
AcDbEntity
  8
DEFPOINTS
  6
Continuous
 62
     0
100
AcDbPoint
 10
12.13609453517133
 20
-40.59710029878842
 30
0.0
  0
ENDBLK
  5
5EAB
330
5EA0
100
AcDbEntity
  8
0
100
AcDbBlockEnd
  0
BLOCK
  5
5F03
330
5EF9
100
AcDbEntity
  8
0
100
AcDbBlockBegin
  2
*D18
 70
     1
 10
0.0
 20
0.0
 30
0.0
  3
*D18
  1

  0
LINE
  5
6002
330
5EF9
100
AcDbEntity
  8
30
  6
Continuous
 62
     0
100
AcDbLine
 10
-14.2439999999999
 20
-189.0108059156919
 30
0.0
 11
-14.24399999999991
 21
-353.7602240431434
 31
0.0
  0
LINE
  5
6003
330
5EF9
100
AcDbEntity
  8
30
  6
Continuous
 62
     0
100
AcDbLine
 10
15.75600000000009
 20
-321.0108059156917
 30
0.0
 11
15.75600000000009
 21
-353.7602240431434
 31
0.0
  0
LINE
  5
6004
330
5EF9
100
AcDbEntity
  8
30
  6
Continuous
 62
     0
100
AcDbLine
 10
-12.24399999999991
 20
-353.2602240431434
 30
0.0
 11
13.75600000000009
 21
-353.2602240431434
 31
0.0
  0
INSERT
  5
6005
330
5EF9
100
AcDbEntity
  8
30
  6
Continuous
 62
     0
100
AcDbBlockReference
  2
_OPEN
 10
-14.24399999999991
 20
-353.2602240431434
 30
0.0
 41
2.0
 42
2.0
 43
2.0
 50
180.0
  0
INSERT
  5
6006
330
5EF9
100
AcDbEntity
  8
30
  6
Continuous
 62
     0
100
AcDbBlockReference
  2
_OPEN
 10
15.75600000000009
 20
-353.2602240431434
 30
0.0
 41
2.0
 42
2.0
 43
2.0
  0
MTEXT
  5
6007
330
5EF9
100
AcDbEntity
  8
30
  6
Continuous
 62
     0
100
AcDbMText
 10
0.7560000000000866
 20
-350.2602240431434
 30
0.0
 40
4.0
 41
0.0
 71
     5
 72
     1
  1
\A1;30
 73
     1
 44
1.0
1001
ACAD
1000
MTEXTBEGIN
1070
    73
1070
     1
1070
    44
1040
1.0
1070
    74
1070
     0
1000
MTEXTEND
  0
POINT
  5
6008
330
5EF9
100
AcDbEntity
  8
DEFPOINTS
  6
Continuous
 62
     0
100
AcDbPoint
 10
-14.2439999999999
 20
-188.0108059156921
 30
0.0
  0
POINT
  5
6009
330
5EF9
100
AcDbEntity
  8
DEFPOINTS
  6
Continuous
 62
     0
100
AcDbPoint
 10
15.75600000000009
 20
-320.0108059156919
 30
0.0
  0
POINT
  5
600A
330
5EF9
100
AcDbEntity
  8
DEFPOINTS
  6
Continuous
 62
     0
100
AcDbPoint
 10
15.75600000000009
 20
-353.2602240431434
 30
0.0
  0
ENDBLK
  5
5F04
330
5EF9
100
AcDbEntity
  8
0
100
AcDbBlockEnd
  0
BLOCK
  5
5F76
330
5F6C
100
AcDbEntity
  8
0
100
AcDbBlockBegin
  2
*D19
 70
     1
 10
0.0
 20
0.0
 30
0.0
  3
*D19
  1

  0
LINE
  5
5F8E
330
5F6C
100
AcDbEntity
  8
30
  6
Continuous
 62
     0
100
AcDbLine
 10
-29.88180899999996
 20
218.287231257776
 30
0.0
 11
-29.88180899999996
 21
258.634515317005
 31
0.0
  0
LINE
  5
5F8F
330
5F6C
100
AcDbEntity
  8
30
  6
Continuous
 62
     0
100
AcDbLine
 10
0.1181910000000208
 20
218.287231257776
 30
0.0
 11
0.1181910000000233
 21
258.634515317005
 31
0.0
  0
LINE
  5
5F90
330
5F6C
100
AcDbEntity
  8
30
  6
Continuous
 62
     0
100
AcDbLine
 10
-27.88180899999996
 20
258.134515317005
 30
0.0
 11
-1.881808999999974
 21
258.134515317005
 31
0.0
  0
INSERT
  5
5F91
330
5F6C
100
AcDbEntity
  8
30
  6
Continuous
 62
     0
100
AcDbBlockReference
  2
_OPEN
 10
-29.88180899999996
 20
258.134515317005
 30
0.0
 41
2.0
 42
2.0
 43
2.0
 50
180.0
  0
INSERT
  5
5F92
330
5F6C
100
AcDbEntity
  8
30
  6
Continuous
 62
     0
100
AcDbBlockReference
  2
_OPEN
 10
0.1181910000000233
 20
258.134515317005
 30
0.0
 41
2.0
 42
2.0
 43
2.0
  0
MTEXT
  5
5F93
330
5F6C
100
AcDbEntity
  8
30
  6
Continuous
 62
     0
100
AcDbMText
 10
-14.88180899999997
 20
261.134515317005
 30
0.0
 40
4.0
 41
0.0
 71
     5
 72
     1
  1
\A1;30
 73
     1
 44
1.0
1001
ACAD
1000
MTEXTBEGIN
1070
    73
1070
     1
1070
    44
1040
1.0
1070
    74
1070
     0
1000
MTEXTEND
  0
POINT
  5
5F94
330
5F6C
100
AcDbEntity
  8
DEFPOINTS
  6
Continuous
 62
     0
100
AcDbPoint
 10
-29.88180899999996
 20
217.287231257776
 30
0.0
  0
POINT
  5
5F95
330
5F6C
100
AcDbEntity
  8
DEFPOINTS
  6
Continuous
 62
     0
100
AcDbPoint
 10
0.1181910000000208
 20
217.287231257776
 30
0.0
  0
POINT
  5
5F96
330
5F6C
100
AcDbEntity
  8
DEFPOINTS
  6
Continuous
 62
     0
100
AcDbPoint
 10
0.1181910000000233
 20
258.134515317005
 30
0.0
  0
ENDBLK
  5
5F77
330
5F6C
100
AcDbEntity
  8
0
100
AcDbBlockEnd
  0
BLOCK
  5
5F83
330
5F79
100
AcDbEntity
  8
0
100
AcDbBlockBegin
  2
*D20
 70
     1
 10
0.0
 20
0.0
 30
0.0
  3
*D20
  1

  0
LINE
  5
5F85
330
5F79
100
AcDbEntity
  8
30
  6
Continuous
 62
     0
100
AcDbLine
 10
0.1181910000000209
 20
219.287231257776
 30
0.0
 11
0.1181910000000233
 21
258.634515317005
 31
0.0
  0
LINE
  5
5F86
330
5F79
100
AcDbEntity
  8
30
  6
Continuous
 62
     0
100
AcDbLine
 10
30.11819100000002
 20
218.287231257776
 30
0.0
 11
30.11819100000002
 21
258.634515317005
 31
0.0
  0
LINE
  5
5F87
330
5F79
100
AcDbEntity
  8
30
  6
Continuous
 62
     0
100
AcDbLine
 10
2.118191000000023
 20
258.134515317005
 30
0.0
 11
28.11819100000002
 21
258.134515317005
 31
0.0
  0
INSERT
  5
5F88
330
5F79
100
AcDbEntity
  8
30
  6
Continuous
 62
     0
100
AcDbBlockReference
  2
_OPEN
 10
0.1181910000000233
 20
258.134515317005
 30
0.0
 41
2.0
 42
2.0
 43
2.0
 50
180.0
  0
INSERT
  5
5F89
330
5F79
100
AcDbEntity
  8
30
  6
Continuous
 62
     0
100
AcDbBlockReference
  2
_OPEN
 10
30.11819100000002
 20
258.134515317005
 30
0.0
 41
2.0
 42
2.0
 43
2.0
  0
MTEXT
  5
5F8A
330
5F79
100
AcDbEntity
  8
30
  6
Continuous
 62
     0
100
AcDbMText
 10
15.11819100000002
 20
261.134515317005
 30
0.0
 40
4.0
 41
0.0
 71
     5
 72
     1
  1
\A1;30
 73
     1
 44
1.0
1001
ACAD
1000
MTEXTBEGIN
1070
    73
1070
     1
1070
    44
1040
1.0
1070
    74
1070
     0
1000
MTEXTEND
  0
POINT
  5
5F8B
330
5F79
100
AcDbEntity
  8
DEFPOINTS
  6
Continuous
 62
     0
100
AcDbPoint
 10
0.1181910000000208
 20
218.287231257776
 30
0.0
  0
POINT
  5
5F8C
330
5F79
100
AcDbEntity
  8
DEFPOINTS
  6
Continuous
 62
     0
100
AcDbPoint
 10
30.11819100000002
 20
217.287231257776
 30
0.0
  0
POINT
  5
5F8D
330
5F79
100
AcDbEntity
  8
DEFPOINTS
  6
Continuous
 62
     0
100
AcDbPoint
 10
30.11819100000002
 20
258.134515317005
 30
0.0
  0
ENDBLK
  5
5F84
330
5F79
100
AcDbEntity
  8
0
100
AcDbBlockEnd
  0
BLOCK
  5
6162
330
6158
100
AcDbEntity
  8
0
100
AcDbBlockBegin
  2
*D21
 70
     1
 10
0.0
 20
0.0
 30
0.0
  3
*D21
  1

  0
LINE
  5
6159
330
6158
100
AcDbEntity
  8
30
  6
Continuous
 62
     0
100
AcDbLine
 10
-7.743999999999907
 20
-185.510805899192
 30
0.0
 11
89.17168416193048
 21
-185.510805899192
 31
0.0
  0
LINE
  5
615A
330
6158
100
AcDbEntity
  8
30
  6
Continuous
 62
     0
100
AcDbLine
 10
22.25600000000007
 20
-317.5108058991918
 30
0.0
 11
89.17168416193044
 21
-317.5108058991918
 31
0.0
  0
LINE
  5
615B
330
6158
100
AcDbEntity
  8
30
  6
Continuous
 62
     0
100
AcDbLine
 10
88.67168416193047
 20
-187.510805899192
 30
0.0
 11
88.67168416193043
 21
-315.5108058991918
 31
0.0
  0
INSERT
  5
615C
330
6158
100
AcDbEntity
  8
30
  6
Continuous
 62
     0
100
AcDbBlockReference
  2
_OPEN
 10
88.67168416193047
 20
-185.510805899192
 30
0.0
 41
2.0
 42
2.0
 43
2.0
 50
90.0
  0
INSERT
  5
615D
330
6158
100
AcDbEntity
  8
30
  6
Continuous
 62
     0
100
AcDbBlockReference
  2
_OPEN
 10
88.67168416193043
 20
-317.5108058991918
 30
0.0
 41
2.0
 42
2.0
 43
2.0
 50
270.0
  0
MTEXT
  5
615E
330
6158
100
AcDbEntity
  8
30
  6
Continuous
 62
     0
100
AcDbMText
 10
85.6716841619305
 20
-251.5108058991919
 30
0.0
 40
4.0
 41
0.0
 71
     5
 72
     1
  1
\A1;132
 11
0.0000000000000001
 21
1.0
 31
0.0
 73
     1
 44
1.0
1001
ACAD
1000
MTEXTBEGIN
1070
    73
1070
     1
1070
    44
1040
1.0
1070
    74
1070
     0
1000
MTEXTEND
  0
POINT
  5
615F
330
6158
100
AcDbEntity
  8
DEFPOINTS
  6
Continuous
 62
     0
100
AcDbPoint
 10
-8.743999999999907
 20
-185.510805899192
 30
0.0
  0
POINT
  5
6160
330
6158
100
AcDbEntity
  8
DEFPOINTS
  6
Continuous
 62
     0
100
AcDbPoint
 10
21.25600000000007
 20
-317.5108058991918
 30
0.0
  0
POINT
  5
6161
330
6158
100
AcDbEntity
  8
DEFPOINTS
  6
Continuous
 62
     0
100
AcDbPoint
 10
88.67168416193043
 20
-317.5108058991918
 30
0.0
  0
ENDBLK
  5
6163
330
6158
100
AcDbEntity
  8
0
100
AcDbBlockEnd
  0
BLOCK
  5
61AA
330
61A0
100
AcDbEntity
  8
0
100
AcDbBlockBegin
  2
*D22
 70
     1
 10
0.0
 20
0.0
 30
0.0
  3
*D22
  1

  0
LINE
  5
61A1
330
61A0
100
AcDbEntity
  8
30
  6
Continuous
 62
     0
100
AcDbLine
 10
-16.36390546482871
 20
125.6523178451627
 30
0.0
 11
-67.55386383529955
 21
125.6523178451627
 31
0.0
  0
LINE
  5
61A2
330
61A0
100
AcDbEntity
  8
30
  6
Continuous
 62
     0
100
AcDbLine
 10
-44.86390546482868
 20
78.65231784516305
 30
0.0
 11
-67.55386383529958
 21
78.65231784516305
 31
0.0
  0
LINE
  5
61A3
330
61A0
100
AcDbEntity
  8
30
  6
Continuous
 62
     0
100
AcDbLine
 10
-67.05386383529955
 20
123.6523178451627
 30
0.0
 11
-67.05386383529958
 21
80.65231784516305
 31
0.0
  0
INSERT
  5
61A4
330
61A0
100
AcDbEntity
  8
30
  6
Continuous
 62
     0
100
AcDbBlockReference
  2
_OPEN
 10
-67.05386383529955
 20
125.6523178451627
 30
0.0
 41
2.0
 42
2.0
 43
2.0
 50
90.0
  0
INSERT
  5
61A5
330
61A0
100
AcDbEntity
  8
30
  6
Continuous
 62
     0
100
AcDbBlockReference
  2
_OPEN
 10
-67.05386383529958
 20
78.65231784516305
 30
0.0
 41
2.0
 42
2.0
 43
2.0
 50
270.0
  0
MTEXT
  5
61A6
330
61A0
100
AcDbEntity
  8
30
  6
Continuous
 62
     0
100
AcDbMText
 10
-70.05386383529959
 20
102.1523178451629
 30
0.0
 40
4.0
 41
0.0
 71
     5
 72
     1
  1
\A1;47
 11
0.0000000000000001
 21
1.0
 31
0.0
 73
     1
 44
1.0
1001
ACAD
1000
MTEXTBEGIN
1070
    73
1070
     1
1070
    44
1040
1.0
1070
    74
1070
     0
1000
MTEXTEND
  0
POINT
  5
61A7
330
61A0
100
AcDbEntity
  8
DEFPOINTS
  6
Continuous
 62
     0
100
AcDbPoint
 10
-15.36390546482872
 20
125.6523178451627
 30
0.0
  0
POINT
  5
61A8
330
61A0
100
AcDbEntity
  8
DEFPOINTS
  6
Continuous
 62
     0
100
AcDbPoint
 10
-43.86390546482869
 20
78.65231784516305
 30
0.0
  0
POINT
  5
61A9
330
61A0
100
AcDbEntity
  8
DEFPOINTS
  6
Continuous
 62
     0
100
AcDbPoint
 10
-67.05386383529958
 20
78.65231784516305
 30
0.0
  0
ENDBLK
  5
61AB
330
61A0
100
AcDbEntity
  8
0
100
AcDbBlockEnd
  0
BLOCK
  5
61B7
330
61AD
100
AcDbEntity
  8
0
100
AcDbBlockBegin
  2
*D23
 70
     1
 10
0.0
 20
0.0
 30
0.0
  3
*D23
  1

  0
LINE
  5
6460
330
61AD
100
AcDbEntity
  8
30
  6
Continuous
 62
     0
100
AcDbLine
 10
-44.86390546482868
 20
78.65231784516305
 30
0.0
 11
-67.55386383529958
 21
78.65231784516305
 31
0.0
  0
LINE
  5
6461
330
61AD
100
AcDbEntity
  8
30
  6
Continuous
 62
     0
100
AcDbLine
 10
-44.86390546482868
 20
-76.34768215483695
 30
0.0
 11
-67.55386383529961
 21
-76.34768215483695
 31
0.0
  0
LINE
  5
6462
330
61AD
100
AcDbEntity
  8
30
  6
Continuous
 62
     0
100
AcDbLine
 10
-67.05386383529958
 20
76.65231784516305
 30
0.0
 11
-67.05386383529961
 21
-74.34768215483694
 31
0.0
  0
INSERT
  5
6463
330
61AD
100
AcDbEntity
  8
30
  6
Continuous
 62
     0
100
AcDbBlockReference
  2
_OPEN
 10
-67.05386383529958
 20
78.65231784516305
 30
0.0
 41
2.0
 42
2.0
 43
2.0
 50
90.0
  0
INSERT
  5
6464
330
61AD
100
AcDbEntity
  8
30
  6
Continuous
 62
     0
100
AcDbBlockReference
  2
_OPEN
 10
-67.05386383529961
 20
-76.34768215483695
 30
0.0
 41
2.0
 42
2.0
 43
2.0
 50
270.0
  0
MTEXT
  5
6465
330
61AD
100
AcDbEntity
  8
30
  6
Continuous
 62
     0
100
AcDbMText
 10
-70.05386383529959
 20
1.152317845163042
 30
0.0
 40
4.0
 41
0.0
 71
     5
 72
     1
  1
\A1;155
 11
0.0000000000000001
 21
1.0
 31
0.0
 73
     1
 44
1.0
1001
ACAD
1000
MTEXTBEGIN
1070
    73
1070
     1
1070
    44
1040
1.0
1070
    74
1070
     0
1000
MTEXTEND
  0
POINT
  5
6466
330
61AD
100
AcDbEntity
  8
DEFPOINTS
  6
Continuous
 62
     0
100
AcDbPoint
 10
-43.86390546482869
 20
78.65231784516305
 30
0.0
  0
POINT
  5
6467
330
61AD
100
AcDbEntity
  8
DEFPOINTS
  6
Continuous
 62
     0
100
AcDbPoint
 10
-43.86390546482869
 20
-76.34768215483695
 30
0.0
  0
POINT
  5
6468
330
61AD
100
AcDbEntity
  8
DEFPOINTS
  6
Continuous
 62
     0
100
AcDbPoint
 10
-67.05386383529961
 20
-76.34768215483695
 30
0.0
  0
ENDBLK
  5
61B8
330
61AD
100
AcDbEntity
  8
0
100
AcDbBlockEnd
  0
BLOCK
  5
623F
330
6235
100
AcDbEntity
  8
0
100
AcDbBlockBegin
  2
*D24
 70
     1
 10
0.0
 20
0.0
 30
0.0
  3
*D24
  1

  0
LINE
  5
6236
330
6235
100
AcDbEntity
  8
30
  6
Continuous
 62
     0
100
AcDbLine
 10
224.2108540529092
 20
-71.31965955924139
 30
0.0
 11
224.2108540529092
 21
-93.92316965538617
 31
0.0
  0
LINE
  5
6237
330
6235
100
AcDbEntity
  8
30
  6
Continuous
 62
     0
100
AcDbLine
 10
216.2108540529092
 20
-80.56965955924139
 30
0.0
 11
216.2108540529092
 21
-93.92316965538617
 31
0.0
  0
LINE
  5
6238
330
6235
100
AcDbEntity
  8
30
  6
Continuous
 62
     0
100
AcDbLine
 10
222.2108540529092
 20
-93.42316965538616
 30
0.0
 11
218.2108540529092
 21
-93.42316965538616
 31
0.0
  0
INSERT
  5
6239
330
6235
100
AcDbEntity
  8
30
  6
Continuous
 62
     0
100
AcDbBlockReference
  2
_OPEN
 10
224.2108540529092
 20
-93.42316965538616
 30
0.0
 41
2.0
 42
2.0
 43
2.0
  0
INSERT
  5
623A
330
6235
100
AcDbEntity
  8
30
  6
Continuous
 62
     0
100
AcDbBlockReference
  2
_OPEN
 10
216.2108540529092
 20
-93.42316965538616
 30
0.0
 41
2.0
 42
2.0
 43
2.0
 50
180.0
  0
MTEXT
  5
623B
330
6235
100
AcDbEntity
  8
30
  6
Continuous
 62
     0
100
AcDbMText
 10
220.2108540529092
 20
-90.42316965538615
 30
0.0
 40
4.0
 41
0.0
 71
     5
 72
     1
  1
\A1;8
 73
     1
 44
1.0
1001
ACAD
1000
MTEXTBEGIN
1070
    73
1070
     1
1070
    44
1040
1.0
1070
    74
1070
     0
1000
MTEXTEND
  0
POINT
  5
623C
330
6235
100
AcDbEntity
  8
DEFPOINTS
  6
Continuous
 62
     0
100
AcDbPoint
 10
224.2108540529092
 20
-70.31965955924139
 30
0.0
  0
POINT
  5
623D
330
6235
100
AcDbEntity
  8
DEFPOINTS
  6
Continuous
 62
     0
100
AcDbPoint
 10
216.2108540529092
 20
-79.56965955924139
 30
0.0
  0
POINT
  5
623E
330
6235
100
AcDbEntity
  8
DEFPOINTS
  6
Continuous
 62
     0
100
AcDbPoint
 10
216.2108540529092
 20
-93.42316965538616
 30
0.0
  0
ENDBLK
  5
6240
330
6235
100
AcDbEntity
  8
0
100
AcDbBlockEnd
  0
BLOCK
  5
62DE
330
62D4
100
AcDbEntity
  8
0
100
AcDbBlockBegin
  2
*D25
 70
     1
 10
0.0
 20
0.0
 30
0.0
  3
*D25
  1

  0
LINE
  5
63A4
330
62D4
100
AcDbEntity
  8
30
  6
Continuous
 62
     0
100
AcDbLine
 10
218.7559999999999
 20
-225.5108058991918
 30
0.0
 11
252.2738303542169
 21
-225.5108058991918
 31
0.0
  0
LINE
  5
63A5
330
62D4
100
AcDbEntity
  8
30
  6
Continuous
 62
     0
100
AcDbLine
 10
218.7559999999999
 20
-277.5108058991918
 30
0.0
 11
252.2738303542169
 21
-277.5108058991918
 31
0.0
  0
LINE
  5
63A6
330
62D4
100
AcDbEntity
  8
30
  6
Continuous
 62
     0
100
AcDbLine
 10
251.7738303542169
 20
-227.5108058991917
 30
0.0
 11
251.7738303542169
 21
-275.5108058991918
 31
0.0
  0
INSERT
  5
63A7
330
62D4
100
AcDbEntity
  8
30
  6
Continuous
 62
     0
100
AcDbBlockReference
  2
_OPEN
 10
251.7738303542169
 20
-225.5108058991918
 30
0.0
 41
2.0
 42
2.0
 43
2.0
 50
90.0
  0
INSERT
  5
63A8
330
62D4
100
AcDbEntity
  8
30
  6
Continuous
 62
     0
100
AcDbBlockReference
  2
_OPEN
 10
251.7738303542169
 20
-277.5108058991918
 30
0.0
 41
2.0
 42
2.0
 43
2.0
 50
270.0
  0
MTEXT
  5
63A9
330
62D4
100
AcDbEntity
  8
30
  6
Continuous
 62
     0
100
AcDbMText
 10
248.7738303542169
 20
-251.5108058991918
 30
0.0
 40
4.0
 41
0.0
 71
     5
 72
     1
  1
\A1;52
 11
0.0000000000000001
 21
1.0
 31
0.0
 73
     1
 44
1.0
1001
ACAD
1000
MTEXTBEGIN
1070
    73
1070
     1
1070
    44
1040
1.0
1070
    74
1070
     0
1000
MTEXTEND
  0
POINT
  5
63AA
330
62D4
100
AcDbEntity
  8
DEFPOINTS
  6
Continuous
 62
     0
100
AcDbPoint
 10
217.7560000000001
 20
-225.5108058991918
 30
0.0
  0
POINT
  5
63AB
330
62D4
100
AcDbEntity
  8
DEFPOINTS
  6
Continuous
 62
     0
100
AcDbPoint
 10
217.7560000000001
 20
-277.5108058991918
 30
0.0
  0
POINT
  5
63AC
330
62D4
100
AcDbEntity
  8
DEFPOINTS
  6
Continuous
 62
     0
100
AcDbPoint
 10
251.7738303542169
 20
-277.5108058991918
 30
0.0
  0
ENDBLK
  5
62DF
330
62D4
100
AcDbEntity
  8
0
100
AcDbBlockEnd
  0
BLOCK
  5
6301
330
62F8
100
AcDbEntity
  8
0
100
AcDbBlockBegin
  2
*D26
 70
     1
 10
0.0
 20
0.0
 30
0.0
  3
*D26
  1

  0
LINE
  5
63AD
330
62F8
100
AcDbEntity
  8
30
  6
Continuous
 62
     0
100
AcDbLine
 10
228.055699910704
 20
-223.4664773732405
 30
0.0
 11
221.7223665773706
 21
-223.4664773732405
 31
0.0
  0
LINE
  5
63AE
330
62F8
100
AcDbEntity
  8
30
  6
Continuous
 62
     0
100
AcDbLine
 10
221.7223665773706
 20
-223.4664773732405
 30
0.0
 11
220.1358199464225
 21
-224.6842087836209
 31
0.0
  0
MTEXT
  5
63AF
330
62F8
100
AcDbEntity
  8
30
  6
Continuous
 62
     0
100
AcDbMText
 10
225.3890332440374
 20
-220.4664773732404
 30
0.0
 40
4.0
 41
0.0
 71
     5
 72
     1
  1
\A1;R1
 73
     1
 44
1.0
1001
ACAD
1000
MTEXTBEGIN
1070
    73
1070
     1
1070
    44
1040
1.0
1070
    74
1070
     0
1000
MTEXTEND
  0
INSERT
  5
63B0
330
62F8
100
AcDbEntity
  8
30
  6
Continuous
 62
     0
100
AcDbBlockReference
  2
_OPEN
 10
218.5492733154744
 20
-225.9019401940014
 30
0.0
 41
2.0
 42
2.0
 43
2.0
 50
217.5075311795315
  0
LINE
  5
63B1
330
62F8
100
AcDbEntity
  8
30
  6
Continuous
 62
     0
100
AcDbLine
 10
217.6660000000004
 20
-226.5108058991918
 30
0.0
 11
217.8460000000004
 21
-226.5108058991918
 31
0.0
  0
LINE
  5
63B2
330
62F8
100
AcDbEntity
  8
30
  6
Continuous
 62
     0
100
AcDbLine
 10
217.7560000000004
 20
-226.6008058991918
 30
0.0
 11
217.7560000000005
 21
-226.4208058991918
 31
0.0
  0
POINT
  5
63B3
330
62F8
100
AcDbEntity
  8
DEFPOINTS
  6
Continuous
 62
     0
100
AcDbPoint
 10
218.5492733154744
 20
-225.9019401940014
 30
0.0
  0
POINT
  5
63B4
330
62F8
100
AcDbEntity
  8
DEFPOINTS
  6
Continuous
 62
     0
100
AcDbPoint
 10
217.7560000000004
 20
-226.5108058991916
 30
0.0
  0
ENDBLK
  5
6302
330
62F8
100
AcDbEntity
  8
0
100
AcDbBlockEnd
  0
BLOCK
  5
630D
330
6303
100
AcDbEntity
  8
0
100
AcDbBlockBegin
  2
*D27
 70
     1
 10
0.0
 20
0.0
 30
0.0
  3
*D27
  1

  0
LINE
  5
639B
330
6303
100
AcDbEntity
  8
30
  6
Continuous
 62
     0
100
AcDbLine
 10
132.756
 20
-277.5108058991918
 30
0.0
 11
132.756
 21
-358.5166240557366
 31
0.0
  0
LINE
  5
639C
330
6303
100
AcDbEntity
  8
30
  6
Continuous
 62
     0
100
AcDbLine
 10
218.7560000000003
 20
-277.5108058991918
 30
0.0
 11
218.7560000000003
 21
-358.5166240557366
 31
0.0
  0
LINE
  5
639D
330
6303
100
AcDbEntity
  8
30
  6
Continuous
 62
     0
100
AcDbLine
 10
134.756
 20
-358.0166240557366
 30
0.0
 11
216.7560000000003
 21
-358.0166240557366
 31
0.0
  0
INSERT
  5
639E
330
6303
100
AcDbEntity
  8
30
  6
Continuous
 62
     0
100
AcDbBlockReference
  2
_OPEN
 10
132.756
 20
-358.0166240557366
 30
0.0
 41
2.0
 42
2.0
 43
2.0
 50
180.0
  0
INSERT
  5
639F
330
6303
100
AcDbEntity
  8
30
  6
Continuous
 62
     0
100
AcDbBlockReference
  2
_OPEN
 10
218.7560000000003
 20
-358.0166240557366
 30
0.0
 41
2.0
 42
2.0
 43
2.0
  0
MTEXT
  5
63A0
330
6303
100
AcDbEntity
  8
30
  6
Continuous
 62
     0
100
AcDbMText
 10
175.7560000000002
 20
-355.0166240557365
 30
0.0
 40
4.0
 41
0.0
 71
     5
 72
     1
  1
\A1;86
 73
     1
 44
1.0
1001
ACAD
1000
MTEXTBEGIN
1070
    73
1070
     1
1070
    44
1040
1.0
1070
    74
1070
     0
1000
MTEXTEND
  0
POINT
  5
63A1
330
6303
100
AcDbEntity
  8
DEFPOINTS
  6
Continuous
 62
     0
100
AcDbPoint
 10
132.756
 20
-276.5108058991919
 30
0.0
  0
POINT
  5
63A2
330
6303
100
AcDbEntity
  8
DEFPOINTS
  6
Continuous
 62
     0
100
AcDbPoint
 10
218.7560000000003
 20
-276.5108058991919
 30
0.0
  0
POINT
  5
63A3
330
6303
100
AcDbEntity
  8
DEFPOINTS
  6
Continuous
 62
     0
100
AcDbPoint
 10
218.7560000000003
 20
-358.0166240557366
 30
0.0
  0
ENDBLK
  5
630E
330
6303
100
AcDbEntity
  8
0
100
AcDbBlockEnd
  0
BLOCK
  5
64CD
330
64CC
100
AcDbEntity
  8
0
100
AcDbBlockBegin
  2
*D28
 70
     1
 10
0.0
 20
0.0
 30
0.0
  3
*D28
  1

  0
LINE
  5
64CE
330
64CC
100
AcDbEntity
  8
30
  6
Continuous
 62
     0
370
    -2
100
AcDbLine
 10
-30.01790353517123
 20
219.0
 30
0.0
 11
-30.01790353517123
 21
256.1073578546832
 31
0.0
  0
LINE
  5
64CF
330
64CC
100
AcDbEntity
  8
30
  6
Continuous
 62
     0
370
    -2
100
AcDbLine
 10
0.0000000000000001
 20
256.6073578546832
 30
0.0
 11
0.0
 21
256.1073578546832
 31
0.0
  0
LINE
  5
64D0
330
64CC
100
AcDbEntity
  8
30
  6
Continuous
 62
     0
370
    -2
100
AcDbLine
 10
-28.01790353517123
 20
255.6073578546832
 30
0.0
 11
-2.0
 21
255.6073578546832
 31
0.0
  0
INSERT
  5
64D1
330
64CC
100
AcDbEntity
  8
30
  6
Continuous
 62
     0
370
    -2
100
AcDbBlockReference
  2
_OPEN
 10
-30.01790353517123
 20
255.6073578546832
 30
0.0
 41
2.0
 42
2.0
 43
2.0
 50
180.0
  0
INSERT
  5
64D2
330
64CC
100
AcDbEntity
  8
30
  6
Continuous
 62
     0
370
    -2
100
AcDbBlockReference
  2
_OPEN
 10
0.0
 20
255.6073578546832
 30
0.0
 41
2.0
 42
2.0
 43
2.0
  0
MTEXT
  5
64D3
330
64CC
100
AcDbEntity
  8
30
  6
Continuous
 62
     0
100
AcDbMText
 10
-15.00895176758561
 20
258.6073578546832
 30
0.0
 40
4.0
 41
0.0
 71
     5
 72
     1
  1
\A1;30
 73
     1
 44
1.0
1001
ACAD
1000
MTEXTBEGIN
1070
    73
1070
     1
1070
    44
1040
1.0
1070
    74
1070
     0
1000
MTEXTEND
  0
POINT
  5
64D4
330
64CC
100
AcDbEntity
  8
DEFPOINTS
  6
Continuous
 62
     0
100
AcDbPoint
 10
-30.01790353517123
 20
218.0
 30
0.0
  0
POINT
  5
64D5
330
64CC
100
AcDbEntity
  8
DEFPOINTS
  6
Continuous
 62
     0
100
AcDbPoint
 10
0.0
 20
255.6073578546832
 30
0.0
  0
POINT
  5
64D6
330
64CC
100
AcDbEntity
  8
DEFPOINTS
  6
Continuous
 62
     0
100
AcDbPoint
 10
0.0
 20
255.6073578546832
 30
0.0
  0
ENDBLK
  5
64D7
330
64CC
100
AcDbEntity
  8
0
100
AcDbBlockEnd
  0
BLOCK
  5
64D9
330
64D8
100
AcDbEntity
  8
0
100
AcDbBlockBegin
  2
*D29
 70
     1
 10
0.0
 20
0.0
 30
0.0
  3
*D29
  1

  0
LINE
  5
64DA
330
64D8
100
AcDbEntity
  8
30
  6
Continuous
 62
     0
370
    -2
100
AcDbLine
 10
29.98209646482873
 20
219.0
 30
0.0
 11
29.98209646482873
 21
256.5
 31
0.0
  0
LINE
  5
64DB
330
64D8
100
AcDbEntity
  8
30
  6
Continuous
 62
     0
370
    -2
100
AcDbLine
 10
0.0000000000000001
 20
256.6073578546832
 30
0.0
 11
0.0000000000000001
 21
256.5
 31
0.0
  0
LINE
  5
64DC
330
64D8
100
AcDbEntity
  8
30
  6
Continuous
 62
     0
370
    -2
100
AcDbLine
 10
27.98209646482873
 20
256.0
 30
0.0
 11
2.0
 21
256.0
 31
0.0
  0
INSERT
  5
64DD
330
64D8
100
AcDbEntity
  8
30
  6
Continuous
 62
     0
370
    -2
100
AcDbBlockReference
  2
_OPEN
 10
29.98209646482873
 20
256.0
 30
0.0
 41
2.0
 42
2.0
 43
2.0
  0
INSERT
  5
64DE
330
64D8
100
AcDbEntity
  8
30
  6
Continuous
 62
     0
370
    -2
100
AcDbBlockReference
  2
_OPEN
 10
0.0
 20
256.0
 30
0.0
 41
2.0
 42
2.0
 43
2.0
 50
180.0
  0
MTEXT
  5
64DF
330
64D8
100
AcDbEntity
  8
30
  6
Continuous
 62
     0
100
AcDbMText
 10
14.99104823241436
 20
259.0
 30
0.0
 40
4.0
 41
0.0
 71
     5
 72
     1
  1
\A1;30
 73
     1
 44
1.0
1001
ACAD
1000
MTEXTBEGIN
1070
    73
1070
     1
1070
    44
1040
1.0
1070
    74
1070
     0
1000
MTEXTEND
  0
POINT
  5
64E0
330
64D8
100
AcDbEntity
  8
DEFPOINTS
  6
Continuous
 62
     0
100
AcDbPoint
 10
29.98209646482873
 20
218.0
 30
0.0
  0
POINT
  5
64E1
330
64D8
100
AcDbEntity
  8
DEFPOINTS
  6
Continuous
 62
     0
100
AcDbPoint
 10
0.0
 20
255.6073578546832
 30
0.0
  0
POINT
  5
64E2
330
64D8
100
AcDbEntity
  8
DEFPOINTS
  6
Continuous
 62
     0
100
AcDbPoint
 10
0.0
 20
256.0
 30
0.0
  0
ENDBLK
  5
64E3
330
64D8
100
AcDbEntity
  8
0
100
AcDbBlockEnd
  0
BLOCK
  5
64E5
330
64E4
100
AcDbEntity
  8
0
100
AcDbBlockBegin
  2
*D30
 70
     1
 10
0.0
 20
0.0
 30
0.0
  3
*D30
  1

  0
LINE
  5
64E6
330
64E4
100
AcDbEntity
  8
30
  6
Continuous
 62
     0
370
    -2
100
AcDbLine
 10
46.0
 20
235.1349134126127
 30
0.0
 11
54.50000000000001
 21
235.1349134126127
 31
0.0
  0
LINE
  5
64E7
330
64E4
100
AcDbEntity
  8
30
  6
Continuous
 62
     0
370
    -2
100
AcDbLine
 10
46.0
 20
174.134913412613
 30
0.0
 11
54.49999999999999
 21
174.134913412613
 31
0.0
  0
LINE
  5
64E8
330
64E4
100
AcDbEntity
  8
30
  6
Continuous
 62
     0
370
    -2
100
AcDbLine
 10
54.00000000000001
 20
233.1349134126127
 30
0.0
 11
54.0
 21
176.134913412613
 31
0.0
  0
INSERT
  5
64E9
330
64E4
100
AcDbEntity
  8
30
  6
Continuous
 62
     0
370
    -2
100
AcDbBlockReference
  2
_OPEN
 10
54.00000000000001
 20
235.1349134126127
 30
0.0
 41
2.0
 42
2.0
 43
2.0
 50
90.0
  0
INSERT
  5
64EA
330
64E4
100
AcDbEntity
  8
30
  6
Continuous
 62
     0
370
    -2
100
AcDbBlockReference
  2
_OPEN
 10
53.99999999999999
 20
174.134913412613
 30
0.0
 41
2.0
 42
2.0
 43
2.0
 50
270.0
  0
MTEXT
  5
64EB
330
64E4
100
AcDbEntity
  8
30
  6
Continuous
 62
     0
100
AcDbMText
 10
50.99999999999997
 20
204.6349134126128
 30
0.0
 40
4.0
 41
0.0
 71
     5
 72
     1
  1
\A1;61
 11
0.0000000000000001
 21
1.0
 31
0.0
 73
     1
 44
1.0
1001
ACAD
1000
MTEXTBEGIN
1070
    73
1070
     1
1070
    44
1040
1.0
1070
    74
1070
     0
1000
MTEXTEND
  0
POINT
  5
64EC
330
64E4
100
AcDbEntity
  8
DEFPOINTS
  6
Continuous
 62
     0
100
AcDbPoint
 10
45.0
 20
235.1349134126127
 30
0.0
  0
POINT
  5
64ED
330
64E4
100
AcDbEntity
  8
DEFPOINTS
  6
Continuous
 62
     0
100
AcDbPoint
 10
45.0
 20
174.134913412613
 30
0.0
  0
POINT
  5
64EE
330
64E4
100
AcDbEntity
  8
DEFPOINTS
  6
Continuous
 62
     0
100
AcDbPoint
 10
53.99999999999999
 20
174.134913412613
 30
0.0
  0
ENDBLK
  5
64EF
330
64E4
100
AcDbEntity
  8
0
100
AcDbBlockEnd
  0
BLOCK
  5
64F1
330
64F0
100
AcDbEntity
  8
0
100
AcDbBlockBegin
  2
*D31
 70
     1
 10
0.0
 20
0.0
 30
0.0
  3
*D31
  1

  0
LINE
  5
64F2
330
64F0
100
AcDbEntity
  8
30
  6
Continuous
 62
     0
370
    -2
100
AcDbLine
 10
46.0
 20
235.1349134126127
 30
0.0
 11
61.50000000000002
 21
235.1349134126127
 31
0.0
  0
LINE
  5
64F3
330
64F0
100
AcDbEntity
  8
30
  6
Continuous
 62
     0
370
    -2
100
AcDbLine
 10
46.0
 20
167.1349134126126
 30
0.0
 11
61.5
 21
167.1349134126126
 31
0.0
  0
LINE
  5
64F4
330
64F0
100
AcDbEntity
  8
30
  6
Continuous
 62
     0
370
    -2
100
AcDbLine
 10
61.00000000000001
 20
233.1349134126127
 30
0.0
 11
61.0
 21
169.1349134126126
 31
0.0
  0
INSERT
  5
64F5
330
64F0
100
AcDbEntity
  8
30
  6
Continuous
 62
     0
370
    -2
100
AcDbBlockReference
  2
_OPEN
 10
61.00000000000001
 20
235.1349134126127
 30
0.0
 41
2.0
 42
2.0
 43
2.0
 50
90.0
  0
INSERT
  5
64F6
330
64F0
100
AcDbEntity
  8
30
  6
Continuous
 62
     0
370
    -2
100
AcDbBlockReference
  2
_OPEN
 10
61.0
 20
167.1349134126126
 30
0.0
 41
2.0
 42
2.0
 43
2.0
 50
270.0
  0
MTEXT
  5
64F7
330
64F0
100
AcDbEntity
  8
30
  6
Continuous
 62
     0
100
AcDbMText
 10
57.99999999999998
 20
201.1349134126127
 30
0.0
 40
4.0
 41
0.0
 71
     5
 72
     1
  1
\A1;68
 11
0.0000000000000001
 21
1.0
 31
0.0
 73
     1
 44
1.0
1001
ACAD
1000
MTEXTBEGIN
1070
    73
1070
     1
1070
    44
1040
1.0
1070
    74
1070
     0
1000
MTEXTEND
  0
POINT
  5
64F8
330
64F0
100
AcDbEntity
  8
DEFPOINTS
  6
Continuous
 62
     0
100
AcDbPoint
 10
45.0
 20
235.1349134126127
 30
0.0
  0
POINT
  5
64F9
330
64F0
100
AcDbEntity
  8
DEFPOINTS
  6
Continuous
 62
     0
100
AcDbPoint
 10
45.0
 20
167.1349134126126
 30
0.0
  0
POINT
  5
64FA
330
64F0
100
AcDbEntity
  8
DEFPOINTS
  6
Continuous
 62
     0
100
AcDbPoint
 10
61.0
 20
167.1349134126126
 30
0.0
  0
ENDBLK
  5
64FB
330
64F0
100
AcDbEntity
  8
0
100
AcDbBlockEnd
  0
BLOCK
  5
64FD
330
64FC
100
AcDbEntity
  8
0
100
AcDbBlockBegin
  2
*D32
 70
     1
 10
0.0
 20
0.0
 30
0.0
  3
*D32
  1

  0
LINE
  5
64FE
330
64FC
100
AcDbEntity
  8
30
  6
Continuous
 62
     0
370
    -2
100
AcDbLine
 10
46.0
 20
235.1349134126127
 30
0.0
 11
69.50000000000001
 21
235.1349134126127
 31
0.0
  0
LINE
  5
64FF
330
64FC
100
AcDbEntity
  8
30
  6
Continuous
 62
     0
370
    -2
100
AcDbLine
 10
42.98209646482869
 20
163.1698268252254
 30
0.0
 11
69.5
 21
163.1698268252254
 31
0.0
  0
LINE
  5
6500
330
64FC
100
AcDbEntity
  8
30
  6
Continuous
 62
     0
370
    -2
100
AcDbLine
 10
69.00000000000002
 20
233.1349134126126
 30
0.0
 11
69.0
 21
165.1698268252254
 31
0.0
  0
INSERT
  5
6501
330
64FC
100
AcDbEntity
  8
30
  6
Continuous
 62
     0
370
    -2
100
AcDbBlockReference
  2
_OPEN
 10
69.00000000000002
 20
235.1349134126127
 30
0.0
 41
2.0
 42
2.0
 43
2.0
 50
90.0
  0
INSERT
  5
6502
330
64FC
100
AcDbEntity
  8
30
  6
Continuous
 62
     0
370
    -2
100
AcDbBlockReference
  2
_OPEN
 10
69.0
 20
163.1698268252254
 30
0.0
 41
2.0
 42
2.0
 43
2.0
 50
270.0
  0
MTEXT
  5
6503
330
64FC
100
AcDbEntity
  8
30
  6
Continuous
 62
     0
100
AcDbMText
 10
65.99999999999997
 20
199.152370118919
 30
0.0
 40
4.0
 41
0.0
 71
     5
 72
     1
  1
\A1;72
 11
0.0000000000000001
 21
1.0
 31
0.0
 73
     1
 44
1.0
1001
ACAD
1000
MTEXTBEGIN
1070
    73
1070
     1
1070
    44
1040
1.0
1070
    74
1070
     0
1000
MTEXTEND
  0
POINT
  5
6504
330
64FC
100
AcDbEntity
  8
DEFPOINTS
  6
Continuous
 62
     0
100
AcDbPoint
 10
45.0
 20
235.1349134126127
 30
0.0
  0
POINT
  5
6505
330
64FC
100
AcDbEntity
  8
DEFPOINTS
  6
Continuous
 62
     0
100
AcDbPoint
 10
41.98209646482871
 20
163.1698268252254
 30
0.0
  0
POINT
  5
6506
330
64FC
100
AcDbEntity
  8
DEFPOINTS
  6
Continuous
 62
     0
100
AcDbPoint
 10
69.0
 20
163.1698268252254
 30
0.0
  0
ENDBLK
  5
6507
330
64FC
100
AcDbEntity
  8
0
100
AcDbBlockEnd
  0
BLOCK
  5
6509
330
6508
100
AcDbEntity
  8
0
100
AcDbBlockBegin
  2
*D33
 70
     1
 10
0.0
 20
0.0
 30
0.0
  3
*D33
  1

  0
LINE
  5
650A
330
6508
100
AcDbEntity
  8
30
  6
Continuous
 62
     0
370
    -2
100
AcDbLine
 10
46.0
 20
235.1349134126127
 30
0.0
 11
77.50000000000001
 21
235.1349134126127
 31
0.0
  0
LINE
  5
650B
330
6508
100
AcDbEntity
  8
30
  6
Continuous
 62
     0
370
    -2
100
AcDbLine
 10
11.98209646482871
 20
159.1349134126128
 30
0.0
 11
77.49999999999999
 21
159.1349134126128
 31
0.0
  0
LINE
  5
650C
330
6508
100
AcDbEntity
  8
30
  6
Continuous
 62
     0
370
    -2
100
AcDbLine
 10
77.00000000000001
 20
233.1349134126126
 30
0.0
 11
77.0
 21
161.1349134126128
 31
0.0
  0
INSERT
  5
650D
330
6508
100
AcDbEntity
  8
30
  6
Continuous
 62
     0
370
    -2
100
AcDbBlockReference
  2
_OPEN
 10
77.00000000000001
 20
235.1349134126127
 30
0.0
 41
2.0
 42
2.0
 43
2.0
 50
90.0
  0
INSERT
  5
650E
330
6508
100
AcDbEntity
  8
30
  6
Continuous
 62
     0
370
    -2
100
AcDbBlockReference
  2
_OPEN
 10
76.99999999999999
 20
159.1349134126128
 30
0.0
 41
2.0
 42
2.0
 43
2.0
 50
270.0
  0
MTEXT
  5
650F
330
6508
100
AcDbEntity
  8
30
  6
Continuous
 62
     0
100
AcDbMText
 10
73.99999999999997
 20
197.1349134126127
 30
0.0
 40
4.0
 41
0.0
 71
     5
 72
     1
  1
\A1;76
 11
0.0000000000000001
 21
1.0
 31
0.0
 73
     1
 44
1.0
1001
ACAD
1000
MTEXTBEGIN
1070
    73
1070
     1
1070
    44
1040
1.0
1070
    74
1070
     0
1000
MTEXTEND
  0
POINT
  5
6510
330
6508
100
AcDbEntity
  8
DEFPOINTS
  6
Continuous
 62
     0
100
AcDbPoint
 10
45.0
 20
235.1349134126127
 30
0.0
  0
POINT
  5
6511
330
6508
100
AcDbEntity
  8
DEFPOINTS
  6
Continuous
 62
     0
100
AcDbPoint
 10
10.98209646482871
 20
159.1349134126128
 30
0.0
  0
POINT
  5
6512
330
6508
100
AcDbEntity
  8
DEFPOINTS
  6
Continuous
 62
     0
100
AcDbPoint
 10
76.99999999999999
 20
159.1349134126128
 30
0.0
  0
ENDBLK
  5
6513
330
6508
100
AcDbEntity
  8
0
100
AcDbBlockEnd
  0
BLOCK
  5
658C
330
658B
100
AcDbEntity
  8
0
100
AcDbBlockBegin
  2
*D35
 70
     1
 10
0.0
 20
0.0
 30
0.0
  3
*D35
  1

  0
LINE
  5
65D3
330
658B
100
AcDbEntity
  8
30
  6
Continuous
 62
     0
370
    -2
100
AcDbLine
 10
-28.88180899999995
 20
220.1523178451631
 30
0.0
 11
-28.88180899999995
 21
257.2596756998463
 31
0.0
  0
LINE
  5
65D4
330
658B
100
AcDbEntity
  8
30
  6
Continuous
 62
     0
370
    -2
100
AcDbLine
 10
1.136094535171281
 20
257.7596756998463
 30
0.0
 11
1.136094535171281
 21
257.2596756998463
 31
0.0
  0
LINE
  5
65D5
330
658B
100
AcDbEntity
  8
30
  6
Continuous
 62
     0
370
    -2
100
AcDbLine
 10
-26.88180899999995
 20
256.7596756998463
 30
0.0
 11
-0.8639054648287189
 21
256.7596756998463
 31
0.0
  0
INSERT
  5
65D6
330
658B
100
AcDbEntity
  8
30
  6
Continuous
 62
     0
370
    -2
100
AcDbBlockReference
  2
_OPEN
 10
-28.88180899999995
 20
256.7596756998463
 30
0.0
 41
2.0
 42
2.0
 43
2.0
 50
180.0
  0
INSERT
  5
65D7
330
658B
100
AcDbEntity
  8
30
  6
Continuous
 62
     0
370
    -2
100
AcDbBlockReference
  2
_OPEN
 10
1.136094535171281
 20
256.7596756998463
 30
0.0
 41
2.0
 42
2.0
 43
2.0
  0
MTEXT
  5
65D8
330
658B
100
AcDbEntity
  8
30
  6
Continuous
 62
     0
100
AcDbMText
 10
-13.87285723241433
 20
259.7596756998463
 30
0.0
 40
4.0
 41
0.0
 71
     5
 72
     1
  1
\A1;30
 73
     1
 44
1.0
1001
ACAD
1000
MTEXTBEGIN
1070
    73
1070
     1
1070
    44
1040
1.0
1070
    74
1070
     0
1000
MTEXTEND
  0
POINT
  5
65D9
330
658B
100
AcDbEntity
  8
DEFPOINTS
  6
Continuous
 62
     0
100
AcDbPoint
 10
-28.88180899999995
 20
219.1523178451631
 30
0.0
  0
POINT
  5
65DA
330
658B
100
AcDbEntity
  8
DEFPOINTS
  6
Continuous
 62
     0
100
AcDbPoint
 10
1.136094535171281
 20
256.7596756998463
 30
0.0
  0
POINT
  5
65DB
330
658B
100
AcDbEntity
  8
DEFPOINTS
  6
Continuous
 62
     0
100
AcDbPoint
 10
1.136094535171281
 20
256.7596756998463
 30
0.0
  0
ENDBLK
  5
658D
330
658B
100
AcDbEntity
  8
0
100
AcDbBlockEnd
  0
BLOCK
  5
6598
330
6597
100
AcDbEntity
  8
0
100
AcDbBlockBegin
  2
*D36
 70
     1
 10
0.0
 20
0.0
 30
0.0
  3
*D36
  1

  0
LINE
  5
65DC
330
6597
100
AcDbEntity
  8
30
  6
Continuous
 62
     0
370
    -2
100
AcDbLine
 10
31.11819100000001
 20
220.1523178451631
 30
0.0
 11
31.11819100000002
 21
257.6523178451631
 31
0.0
  0
LINE
  5
65DD
330
6597
100
AcDbEntity
  8
30
  6
Continuous
 62
     0
370
    -2
100
AcDbLine
 10
1.136094535171281
 20
257.7596756998463
 30
0.0
 11
1.136094535171281
 21
257.6523178451631
 31
0.0
  0
LINE
  5
65DE
330
6597
100
AcDbEntity
  8
30
  6
Continuous
 62
     0
370
    -2
100
AcDbLine
 10
29.11819100000002
 20
257.1523178451631
 30
0.0
 11
3.136094535171281
 21
257.1523178451631
 31
0.0
  0
INSERT
  5
65DF
330
6597
100
AcDbEntity
  8
30
  6
Continuous
 62
     0
370
    -2
100
AcDbBlockReference
  2
_OPEN
 10
31.11819100000002
 20
257.1523178451631
 30
0.0
 41
2.0
 42
2.0
 43
2.0
  0
INSERT
  5
65E0
330
6597
100
AcDbEntity
  8
30
  6
Continuous
 62
     0
370
    -2
100
AcDbBlockReference
  2
_OPEN
 10
1.136094535171281
 20
257.1523178451631
 30
0.0
 41
2.0
 42
2.0
 43
2.0
 50
180.0
  0
MTEXT
  5
65E1
330
6597
100
AcDbEntity
  8
30
  6
Continuous
 62
     0
100
AcDbMText
 10
16.12714276758564
 20
260.1523178451631
 30
0.0
 40
4.0
 41
0.0
 71
     5
 72
     1
  1
\A1;30
 73
     1
 44
1.0
1001
ACAD
1000
MTEXTBEGIN
1070
    73
1070
     1
1070
    44
1040
1.0
1070
    74
1070
     0
1000
MTEXTEND
  0
POINT
  5
65E2
330
6597
100
AcDbEntity
  8
DEFPOINTS
  6
Continuous
 62
     0
100
AcDbPoint
 10
31.11819100000001
 20
219.1523178451631
 30
0.0
  0
POINT
  5
65E3
330
6597
100
AcDbEntity
  8
DEFPOINTS
  6
Continuous
 62
     0
100
AcDbPoint
 10
1.136094535171281
 20
256.7596756998463
 30
0.0
  0
POINT
  5
65E4
330
6597
100
AcDbEntity
  8
DEFPOINTS
  6
Continuous
 62
     0
100
AcDbPoint
 10
1.136094535171281
 20
257.1523178451631
 30
0.0
  0
ENDBLK
  5
6599
330
6597
100
AcDbEntity
  8
0
100
AcDbBlockEnd
  0
BLOCK
  5
65A4
330
65A3
100
AcDbEntity
  8
0
100
AcDbBlockBegin
  2
*D37
 70
     1
 10
0.0
 20
0.0
 30
0.0
  3
*D37
  1

  0
LINE
  5
65E5
330
65A3
100
AcDbEntity
  8
30
  6
Continuous
 62
     0
370
    -2
100
AcDbLine
 10
47.13609453517128
 20
236.2872312577758
 30
0.0
 11
55.63609453517129
 21
236.2872312577758
 31
0.0
  0
LINE
  5
65E6
330
65A3
100
AcDbEntity
  8
30
  6
Continuous
 62
     0
370
    -2
100
AcDbLine
 10
47.13609453517128
 20
175.2872312577761
 30
0.0
 11
55.63609453517127
 21
175.2872312577761
 31
0.0
  0
LINE
  5
65E7
330
65A3
100
AcDbEntity
  8
30
  6
Continuous
 62
     0
370
    -2
100
AcDbLine
 10
55.13609453517129
 20
234.2872312577758
 30
0.0
 11
55.13609453517128
 21
177.2872312577761
 31
0.0
  0
INSERT
  5
65E8
330
65A3
100
AcDbEntity
  8
30
  6
Continuous
 62
     0
370
    -2
100
AcDbBlockReference
  2
_OPEN
 10
55.13609453517129
 20
236.2872312577758
 30
0.0
 41
2.0
 42
2.0
 43
2.0
 50
90.0
  0
INSERT
  5
65E9
330
65A3
100
AcDbEntity
  8
30
  6
Continuous
 62
     0
370
    -2
100
AcDbBlockReference
  2
_OPEN
 10
55.13609453517127
 20
175.2872312577761
 30
0.0
 41
2.0
 42
2.0
 43
2.0
 50
270.0
  0
MTEXT
  5
65EA
330
65A3
100
AcDbEntity
  8
30
  6
Continuous
 62
     0
100
AcDbMText
 10
52.13609453517126
 20
205.7872312577759
 30
0.0
 40
4.0
 41
0.0
 71
     5
 72
     1
  1
\A1;61
 11
0.0000000000000001
 21
1.0
 31
0.0
 73
     1
 44
1.0
1001
ACAD
1000
MTEXTBEGIN
1070
    73
1070
     1
1070
    44
1040
1.0
1070
    74
1070
     0
1000
MTEXTEND
  0
POINT
  5
65EB
330
65A3
100
AcDbEntity
  8
DEFPOINTS
  6
Continuous
 62
     0
100
AcDbPoint
 10
46.13609453517128
 20
236.2872312577758
 30
0.0
  0
POINT
  5
65EC
330
65A3
100
AcDbEntity
  8
DEFPOINTS
  6
Continuous
 62
     0
100
AcDbPoint
 10
46.13609453517128
 20
175.2872312577761
 30
0.0
  0
POINT
  5
65ED
330
65A3
100
AcDbEntity
  8
DEFPOINTS
  6
Continuous
 62
     0
100
AcDbPoint
 10
55.13609453517127
 20
175.2872312577761
 30
0.0
  0
ENDBLK
  5
65A5
330
65A3
100
AcDbEntity
  8
0
100
AcDbBlockEnd
  0
BLOCK
  5
65B0
330
65AF
100
AcDbEntity
  8
0
100
AcDbBlockBegin
  2
*D38
 70
     1
 10
0.0
 20
0.0
 30
0.0
  3
*D38
  1

  0
LINE
  5
65EE
330
65AF
100
AcDbEntity
  8
30
  6
Continuous
 62
     0
370
    -2
100
AcDbLine
 10
47.13609453517128
 20
236.2872312577758
 30
0.0
 11
62.6360945351713
 21
236.2872312577758
 31
0.0
  0
LINE
  5
65EF
330
65AF
100
AcDbEntity
  8
30
  6
Continuous
 62
     0
370
    -2
100
AcDbLine
 10
47.13609453517128
 20
168.2872312577757
 30
0.0
 11
62.63609453517128
 21
168.2872312577757
 31
0.0
  0
LINE
  5
65F0
330
65AF
100
AcDbEntity
  8
30
  6
Continuous
 62
     0
370
    -2
100
AcDbLine
 10
62.13609453517129
 20
234.2872312577758
 30
0.0
 11
62.13609453517128
 21
170.2872312577757
 31
0.0
  0
INSERT
  5
65F1
330
65AF
100
AcDbEntity
  8
30
  6
Continuous
 62
     0
370
    -2
100
AcDbBlockReference
  2
_OPEN
 10
62.13609453517129
 20
236.2872312577758
 30
0.0
 41
2.0
 42
2.0
 43
2.0
 50
90.0
  0
INSERT
  5
65F2
330
65AF
100
AcDbEntity
  8
30
  6
Continuous
 62
     0
370
    -2
100
AcDbBlockReference
  2
_OPEN
 10
62.13609453517128
 20
168.2872312577757
 30
0.0
 41
2.0
 42
2.0
 43
2.0
 50
270.0
  0
MTEXT
  5
65F3
330
65AF
100
AcDbEntity
  8
30
  6
Continuous
 62
     0
100
AcDbMText
 10
59.13609453517126
 20
202.2872312577757
 30
0.0
 40
4.0
 41
0.0
 71
     5
 72
     1
  1
\A1;68
 11
0.0000000000000001
 21
1.0
 31
0.0
 73
     1
 44
1.0
1001
ACAD
1000
MTEXTBEGIN
1070
    73
1070
     1
1070
    44
1040
1.0
1070
    74
1070
     0
1000
MTEXTEND
  0
POINT
  5
65F4
330
65AF
100
AcDbEntity
  8
DEFPOINTS
  6
Continuous
 62
     0
100
AcDbPoint
 10
46.13609453517128
 20
236.2872312577758
 30
0.0
  0
POINT
  5
65F5
330
65AF
100
AcDbEntity
  8
DEFPOINTS
  6
Continuous
 62
     0
100
AcDbPoint
 10
46.13609453517128
 20
168.2872312577757
 30
0.0
  0
POINT
  5
65F6
330
65AF
100
AcDbEntity
  8
DEFPOINTS
  6
Continuous
 62
     0
100
AcDbPoint
 10
62.13609453517128
 20
168.2872312577757
 30
0.0
  0
ENDBLK
  5
65B1
330
65AF
100
AcDbEntity
  8
0
100
AcDbBlockEnd
  0
BLOCK
  5
65BC
330
65BB
100
AcDbEntity
  8
0
100
AcDbBlockBegin
  2
*D39
 70
     1
 10
0.0
 20
0.0
 30
0.0
  3
*D39
  1

  0
LINE
  5
65F7
330
65BB
100
AcDbEntity
  8
30
  6
Continuous
 62
     0
370
    -2
100
AcDbLine
 10
47.13609453517128
 20
236.2872312577758
 30
0.0
 11
70.6360945351713
 21
236.2872312577757
 31
0.0
  0
LINE
  5
65F8
330
65BB
100
AcDbEntity
  8
30
  6
Continuous
 62
     0
370
    -2
100
AcDbLine
 10
44.11819099999998
 20
164.3221446703885
 30
0.0
 11
70.63609453517128
 21
164.3221446703885
 31
0.0
  0
LINE
  5
65F9
330
65BB
100
AcDbEntity
  8
30
  6
Continuous
 62
     0
370
    -2
100
AcDbLine
 10
70.1360945351713
 20
234.2872312577757
 30
0.0
 11
70.13609453517128
 21
166.3221446703885
 31
0.0
  0
INSERT
  5
65FA
330
65BB
100
AcDbEntity
  8
30
  6
Continuous
 62
     0
370
    -2
100
AcDbBlockReference
  2
_OPEN
 10
70.1360945351713
 20
236.2872312577757
 30
0.0
 41
2.0
 42
2.0
 43
2.0
 50
90.0
  0
INSERT
  5
65FB
330
65BB
100
AcDbEntity
  8
30
  6
Continuous
 62
     0
370
    -2
100
AcDbBlockReference
  2
_OPEN
 10
70.13609453517128
 20
164.3221446703885
 30
0.0
 41
2.0
 42
2.0
 43
2.0
 50
270.0
  0
MTEXT
  5
65FC
330
65BB
100
AcDbEntity
  8
30
  6
Continuous
 62
     0
100
AcDbMText
 10
67.13609453517126
 20
200.3046879640821
 30
0.0
 40
4.0
 41
0.0
 71
     5
 72
     1
  1
\A1;72
 11
0.0000000000000001
 21
1.0
 31
0.0
 73
     1
 44
1.0
1001
ACAD
1000
MTEXTBEGIN
1070
    73
1070
     1
1070
    44
1040
1.0
1070
    74
1070
     0
1000
MTEXTEND
  0
POINT
  5
65FD
330
65BB
100
AcDbEntity
  8
DEFPOINTS
  6
Continuous
 62
     0
100
AcDbPoint
 10
46.13609453517128
 20
236.2872312577758
 30
0.0
  0
POINT
  5
65FE
330
65BB
100
AcDbEntity
  8
DEFPOINTS
  6
Continuous
 62
     0
100
AcDbPoint
 10
43.11819099999999
 20
164.3221446703885
 30
0.0
  0
POINT
  5
65FF
330
65BB
100
AcDbEntity
  8
DEFPOINTS
  6
Continuous
 62
     0
100
AcDbPoint
 10
70.13609453517128
 20
164.3221446703885
 30
0.0
  0
ENDBLK
  5
65BD
330
65BB
100
AcDbEntity
  8
0
100
AcDbBlockEnd
  0
BLOCK
  5
65C8
330
65C7
100
AcDbEntity
  8
0
100
AcDbBlockBegin
  2
*D40
 70
     1
 10
0.0
 20
0.0
 30
0.0
  3
*D40
  1

  0
LINE
  5
6600
330
65C7
100
AcDbEntity
  8
30
  6
Continuous
 62
     0
370
    -2
100
AcDbLine
 10
47.13609453517128
 20
236.2872312577758
 30
0.0
 11
78.63609453517128
 21
236.2872312577757
 31
0.0
  0
LINE
  5
6601
330
65C7
100
AcDbEntity
  8
30
  6
Continuous
 62
     0
370
    -2
100
AcDbLine
 10
13.11819099999999
 20
160.2872312577759
 30
0.0
 11
78.63609453517127
 21
160.2872312577759
 31
0.0
  0
LINE
  5
6602
330
65C7
100
AcDbEntity
  8
30
  6
Continuous
 62
     0
370
    -2
100
AcDbLine
 10
78.13609453517128
 20
234.2872312577757
 30
0.0
 11
78.13609453517127
 21
162.2872312577759
 31
0.0
  0
INSERT
  5
6603
330
65C7
100
AcDbEntity
  8
30
  6
Continuous
 62
     0
370
    -2
100
AcDbBlockReference
  2
_OPEN
 10
78.13609453517128
 20
236.2872312577757
 30
0.0
 41
2.0
 42
2.0
 43
2.0
 50
90.0
  0
INSERT
  5
6604
330
65C7
100
AcDbEntity
  8
30
  6
Continuous
 62
     0
370
    -2
100
AcDbBlockReference
  2
_OPEN
 10
78.13609453517127
 20
160.2872312577759
 30
0.0
 41
2.0
 42
2.0
 43
2.0
 50
270.0
  0
MTEXT
  5
6605
330
65C7
100
AcDbEntity
  8
30
  6
Continuous
 62
     0
100
AcDbMText
 10
75.13609453517124
 20
198.2872312577758
 30
0.0
 40
4.0
 41
0.0
 71
     5
 72
     1
  1
\A1;76
 11
0.0000000000000001
 21
1.0
 31
0.0
 73
     1
 44
1.0
1001
ACAD
1000
MTEXTBEGIN
1070
    73
1070
     1
1070
    44
1040
1.0
1070
    74
1070
     0
1000
MTEXTEND
  0
POINT
  5
6606
330
65C7
100
AcDbEntity
  8
DEFPOINTS
  6
Continuous
 62
     0
100
AcDbPoint
 10
46.13609453517128
 20
236.2872312577758
 30
0.0
  0
POINT
  5
6607
330
65C7
100
AcDbEntity
  8
DEFPOINTS
  6
Continuous
 62
     0
100
AcDbPoint
 10
12.11819099999999
 20
160.2872312577759
 30
0.0
  0
POINT
  5
6608
330
65C7
100
AcDbEntity
  8
DEFPOINTS
  6
Continuous
 62
     0
100
AcDbPoint
 10
78.13609453517127
 20
160.2872312577759
 30
0.0
  0
ENDBLK
  5
65C9
330
65C7
100
AcDbEntity
  8
0
100
AcDbBlockEnd
  0
ENDSEC
  0
SECTION
  2
ENTITIES
  0
LINE
  5
B4
330
1E
100
AcDbEntity
  8
16
100
AcDbLine
 10
1.136094535171281
 20
-100.6722822769285
 30
0.0
 11
1.136094535171281
 21
106.7596756998463
 31
0.0
  0
LINE
  5
B5
330
1E
100
AcDbEntity
  8
16
100
AcDbLine
 10
72.91075017723432
 20
1.15231784516308
 30
0.0
 11
-82.76978724598629
 21
1.15231784516308
 31
0.0
  0
MTEXT
  5
BF3
330
1E
100
AcDbEntity
  8
24
  6
Continuous
100
AcDbMText
 10
142.118191
 20
177.5
 30
0.0
 40
3.0
 41
0.0
 71
     1
 72
     1
  1
\A1;
 73
     1
 44
1.0
1001
ACAD
1000
MTEXTBEGIN
1070
    73
1070
     1
1070
    44
1040
1.0
1070
    74
1070
     0
1000
MTEXTEND
  0
LINE
  5
1C9B
330
1E
100
AcDbEntity
  8
16
100
AcDbLine
 10
250.4790002996908
 20
-2.069659559241358
 30
0.0
 11
118.3137526875211
 21
-2.069659559241358
 31
0.0
  0
LINE
  5
2260
330
1E
100
AcDbEntity
  8
16
100
AcDbLine
 10
69.65989754940711
 20
-251.5108058991919
 30
0.0
 11
-79.79391320158081
 21
-251.5108058991919
 31
0.0
  0
LINE
  5
2261
330
1E
100
AcDbEntity
  8
16
100
AcDbLine
 10
0.7560000000000926
 20
-349.2627456620377
 30
0.0
 11
0.7560000000000926
 21
-150.1274066897059
 31
0.0
  0
LINE
  5
4C5A
330
1E
100
AcDbEntity
  8
16
100
AcDbLine
 10
89.63051261991314
 20
1.15231784516308
 30
0.0
 11
-82.76978724598629
 21
1.15231784516308
 31
0.0
  0
DIMENSION
  5
59B9
330
1E
100
AcDbEntity
  8
30
  6
Continuous
100
AcDbDimension
  2
*D4
 10
216.2108540529092
 20
-146.592998415068
 30
0.0
 11
170.2108540529091
 21
-143.5929984150682
 31
0.0
 70
    32
 71
     5
 42
-1.0
  3
STANDARD
100
AcDbAlignedDimension
 13
124.2108540529093
 23
-2.069659559241358
 33
0.0
 14
216.2108540529092
 24
-79.56965955924139
 34
0.0
 50
180.0
100
AcDbRotatedDimension
1001
ACAD
1000
DSTYLE
1002
{
1070
    79
1070
     3
1002
}
  0
DIMENSION
  5
59BA
330
1E
100
AcDbEntity
  8
30
  6
Continuous
100
AcDbDimension
  2
*D5
 10
144.210854052909
 20
-133.3573183489766
 30
0.0
 11
150.5441873862425
 21
-130.3573183489766
 31
0.0
 70
    32
 71
     5
 42
-1.0
  3
STANDARD
100
AcDbAlignedDimension
 13
140.2108540529092
 23
-27.06965955924137
 33
0.0
 14
144.210854052909
 24
-27.06965955924137
 34
0.0
 50
180.0
100
AcDbRotatedDimension
1001
ACAD
1000
DSTYLE
1002
{
1070
    79
1070
     3
1002
}
  0
DIMENSION
  5
59BB
330
1E
100
AcDbEntity
  8
30
  6
Continuous
100
AcDbDimension
  2
*D6
 10
216.2108540529092
 20
-133.3573183489766
 30
0.0
 11
180.2108540529092
 21
-130.3573183489766
 31
0.0
 70
    32
 71
     5
 42
-1.0
  3
STANDARD
100
AcDbAlignedDimension
 13
144.210854052909
 23
-27.06965955924137
 33
0.0
 14
216.2108540529092
 24
-79.56965955924139
 34
0.0
 50
180.0
100
AcDbRotatedDimension
1001
ACAD
1000
DSTYLE
1002
{
1070
    79
1070
     3
1002
}
  0
DIMENSION
  5
59BE
330
1E
100
AcDbEntity
  8
30
  6
Continuous
100
AcDbDimension
  2
*D7
 10
99.75523204808977
 20
22.93034044075862
 30
0.0
 11
96.75523204808976
 21
-2.069659559241343
 31
0.0
 70
    32
 71
     5
 42
-1.0
  3
STANDARD
100
AcDbAlignedDimension
 13
140.2108540529092
 23
-27.06965955924137
 33
0.0
 14
140.2108540529092
 24
22.93034044075861
 34
0.0
 50
90.0
100
AcDbRotatedDimension
1001
ACAD
1000
DSTYLE
1002
{
1070
    79
1070
     3
1002
}
  0
LINE
  5
59BF
330
1E
100
AcDbEntity
  8
10
  6
CONTINOUS
100
AcDbLine
 10
140.2108540529092
 20
12.09577728018857
 30
0.0
 11
131.6570588714201
 21
18.08520914656915
 31
0.0
  0
LINE
  5
59C0
330
1E
100
AcDbEntity
  8
10
  6
CONTINOUS
100
AcDbLine
 10
140.2108540529092
 20
4.771129747619879
 30
0.0
 11
128.2156002533139
 21
13.17029688083525
 31
0.0
  0
ARC
  5
59C2
330
1E
100
AcDbEntity
  8
30
  6
Continuous
100
AcDbCircle
 10
155.2108540529093
 20
-2.069659559241358
 30
0.0
 40
31.0
100
AcDbArc
 50
150.5534441956585
 51
180.0
  0
LINE
  5
59C5
330
1E
100
AcDbEntity
  8
10
  6
CONTINOUS
100
AcDbLine
 10
128.2156002533139
 20
13.17029688083525
 30
0.0
 11
131.6570588714201
 21
18.08520914656915
 31
0.0
  0
DIMENSION
  5
59C6
330
1E
100
AcDbEntity
  8
30
  6
Continuous
100
AcDbDimension
  2
*D8
 10
216.2108540529092
 20
106.180922296807
 30
0.0
 11
204.2108540529091
 21
109.180922296807
 31
0.0
 70
    32
 71
     5
 42
-1.0
  3
STANDARD
100
AcDbAlignedDimension
 13
192.2108540529092
 23
75.43034044075866
 33
0.0
 14
216.2108540529092
 24
75.43034044075874
 34
0.0
100
AcDbRotatedDimension
1001
ACAD
1000
DSTYLE
1002
{
1070
    79
1070
     3
1002
}
  0
LINE
  5
59C7
330
1E
100
AcDbEntity
  8
10
  6
CONTINOUS
100
AcDbLine
 10
148.2108540529091
 20
48.93034044075854
 30
0.0
 11
148.2108540529091
 21
-53.06965955924145
 31
0.0
  0
LINE
  5
59C8
330
1E
100
AcDbEntity
  8
10
  6
CONTINOUS
100
AcDbLine
 10
144.210854052909
 20
22.93034044075862
 30
0.0
 11
144.210854052909
 21
-27.06965955924137
 31
0.0
  0
LINE
  5
59C9
330
1E
100
AcDbEntity
  8
10
  6
CONTINOUS
100
AcDbLine
 10
216.2108540529092
 20
75.43034044075874
 30
0.0
 11
216.2108540529092
 21
-79.56965955924139
 31
0.0
  0
LINE
  5
59CA
330
1E
100
AcDbEntity
  8
10
  6
CONTINOUS
100
AcDbLine
 10
140.2108540529092
 20
22.93034044075862
 30
0.0
 11
140.2108540529092
 21
-27.06965955924137
 31
0.0
  0
LINE
  5
59CD
330
1E
100
AcDbEntity
  8
12
  6
DASHED
100
AcDbLine
 10
216.2108540529092
 20
-65.81965955924139
 30
0.0
 11
224.2108540529092
 21
-65.81965955924139
 31
0.0
  0
LINE
  5
59CE
330
1E
100
AcDbEntity
  8
12
  6
DASHED
100
AcDbLine
 10
145.2108540529096
 20
-68.06965955924141
 30
0.0
 11
234.2108540529092
 21
-68.06965955924141
 31
0.0
  0
LINE
  5
59CF
330
1E
100
AcDbEntity
  8
12
  6
DASHED
100
AcDbLine
 10
216.2108540529092
 20
-70.31965955924139
 30
0.0
 11
224.2108540529092
 21
-70.31965955924139
 31
0.0
  0
DIMENSION
  5
59D0
330
1E
100
AcDbEntity
  8
30
  6
Continuous
100
AcDbDimension
  2
*D9
 10
216.2108540529092
 20
-118.5171095191456
 30
0.0
 11
182.2108540529092
 21
-115.5171095191455
 31
0.0
 70
    32
 71
     5
 42
-1.0
  3
STANDARD
100
AcDbAlignedDimension
 13
148.2108540529091
 23
-53.06965955924145
 33
0.0
 14
216.2108540529092
 24
-79.56965955924139
 34
0.0
 50
180.0
100
AcDbRotatedDimension
1001
ACAD
1000
DSTYLE
1002
{
1070
    79
1070
     3
1002
}
  0
DIMENSION
  5
59D1
330
1E
100
AcDbEntity
  8
30
  6
Continuous
100
AcDbDimension
  2
*D10
 10
216.2108540529092
 20
-104.823519754103
 30
0.0
 11
185.7108540529092
 21
-101.8235197541029
 31
0.0
 70
    32
 71
     5
 42
-1.0
  3
STANDARD
100
AcDbAlignedDimension
 13
155.2108540529092
 23
-79.56965955924139
 33
0.0
 14
216.2108540529092
 24
-79.56965955924139
 34
0.0
 50
180.0
100
AcDbRotatedDimension
1001
ACAD
1000
DSTYLE
1002
{
1070
    79
1070
     3
1002
}
  0
DIMENSION
  5
59D2
330
1E
100
AcDbEntity
  8
30
  6
Continuous
100
AcDbDimension
  2
*D11
 10
216.2108540529092
 20
-93.42316965538616
 30
0.0
 11
193.7108540529092
 21
-90.42316965538615
 31
0.0
 70
    32
 71
     5
 42
-1.0
  3
STANDARD
100
AcDbAlignedDimension
 13
171.2108540529091
 23
-72.31965955924137
 33
0.0
 14
216.2108540529092
 24
-79.56965955924139
 34
0.0
 50
180.0
100
AcDbRotatedDimension
1001
ACAD
1000
DSTYLE
1002
{
1070
    79
1070
     3
1002
}
  0
LINE
  5
59D3
330
1E
100
AcDbEntity
  8
12
  6
DASHED
100
AcDbLine
 10
171.2108540529091
 20
-70.31965955924139
 30
0.0
 11
216.2108540529092
 21
-70.31965955924139
 31
0.0
  0
LINE
  5
59D4
330
1E
100
AcDbEntity
  8
12
  6
DASHED
100
AcDbLine
 10
171.2108540529091
 20
-65.81965955924139
 30
0.0
 11
216.2108540529092
 21
-65.81965955924139
 31
0.0
  0
LINE
  5
59D5
330
1E
100
AcDbEntity
  8
10
  6
CONTINOUS
100
AcDbLine
 10
155.2108540529093
 20
-79.56965955924139
 30
0.0
 11
216.2108540529092
 21
-79.56965955924139
 31
0.0
  0
LINE
  5
59D6
330
1E
100
AcDbEntity
  8
10
  6
CONTINOUS
100
AcDbLine
 10
155.2108540529093
 20
-53.06965955924132
 30
0.0
 11
155.2108540529093
 21
-79.56965955924139
 31
0.0
  0
LINE
  5
59D7
330
1E
100
AcDbEntity
  8
12
  6
DASHED
100
AcDbLine
 10
155.2108540529093
 20
-72.31965955924137
 30
0.0
 11
171.2108540529091
 21
-72.31965955924137
 31
0.0
  0
LINE
  5
59D8
330
1E
100
AcDbEntity
  8
12
  6
DASHED
100
AcDbLine
 10
155.2108540529093
 20
-63.81965955924132
 30
0.0
 11
171.2108540529091
 21
-63.81965955924132
 31
0.0
  0
LINE
  5
59D9
330
1E
100
AcDbEntity
  8
12
  6
DASHED
100
AcDbLine
 10
171.2108540529091
 20
-63.81965955924132
 30
0.0
 11
171.2108540529091
 21
-72.31965955924137
 31
0.0
  0
LINE
  5
59DA
330
1E
100
AcDbEntity
  8
12
  6
DASHED
100
AcDbLine
 10
165.210854052909
 20
-63.81965955924132
 30
0.0
 11
165.210854052909
 21
-72.31965955924137
 31
0.0
  0
LINE
  5
59DB
330
1E
100
AcDbEntity
  8
12
  6
DASHED
100
AcDbLine
 10
171.2108540529091
 20
-70.31965955924135
 30
0.0
 11
171.2108540529091
 21
-72.31965955924137
 31
0.0
  0
LINE
  5
59DC
330
1E
100
AcDbEntity
  8
12
  6
DASHED
100
AcDbLine
 10
171.2108540529091
 20
-63.81965955924132
 30
0.0
 11
171.2108540529091
 21
-65.81965955924139
 31
0.0
  0
LINE
  5
59DD
330
1E
100
AcDbEntity
  8
10
  6
CONTINOUS
100
AcDbLine
 10
148.2108540529091
 20
-53.06965955924145
 30
0.0
 11
155.2108540529093
 21
-53.06965955924145
 31
0.0
  0
LINE
  5
59DE
330
1E
100
AcDbEntity
  8
10
  6
CONTINOUS
100
AcDbLine
 10
140.2108540529092
 20
-27.06965955924137
 30
0.0
 11
148.2108540529091
 21
-27.06965955924137
 31
0.0
  0
LINE
  5
59DF
330
1E
100
AcDbEntity
  8
12
  6
DASHED
100
AcDbLine
 10
224.2108540529092
 20
-65.81965955924136
 30
0.0
 11
224.2108540529092
 21
-70.31965955924135
 31
0.0
  0
LINE
  5
59E0
330
1E
100
AcDbEntity
  8
10
  6
CONTINOUS
100
AcDbLine
 10
140.2108540529092
 20
22.93034044075862
 30
0.0
 11
148.2108540529091
 21
22.93034044075862
 31
0.0
  0
LINE
  5
59E1
330
1E
100
AcDbEntity
  8
10
  6
CONTINOUS
100
AcDbLine
 10
155.2108540529093
 20
75.43034044075866
 30
0.0
 11
216.2108540529092
 21
75.43034044075874
 31
0.0
  0
LINE
  5
59E2
330
1E
100
AcDbEntity
  8
10
  6
CONTINOUS
100
AcDbLine
 10
155.2108540529093
 20
75.43034044075866
 30
0.0
 11
155.2108540529093
 21
48.93034044075861
 31
0.0
  0
LINE
  5
59E3
330
1E
100
AcDbEntity
  8
10
  6
CONTINOUS
100
AcDbLine
 10
148.2108540529091
 20
48.93034044075861
 30
0.0
 11
155.2108540529093
 21
48.93034044075861
 31
0.0
  0
LINE
  5
59E4
330
1E
100
AcDbEntity
  8
24
  6
CONTINOUS
100
AcDbLine
 10
194.2108540529092
 20
75.43034044075866
 30
0.0
 11
194.2108540529092
 21
54.43034044075854
 31
0.0
  0
LINE
  5
59E5
330
1E
100
AcDbEntity
  8
24
  6
CONTINOUS
100
AcDbLine
 10
185.0108540529092
 20
69.93034044075861
 30
0.0
 11
185.0108540529092
 21
59.93034044075861
 31
0.0
  0
LINE
  5
59E6
330
1E
100
AcDbEntity
  8
24
  6
CONTINOUS
100
AcDbLine
 10
190.2108540529092
 20
72.63034044075858
 30
0.0
 11
190.2108540529092
 21
57.23034044075863
 31
0.0
  0
LINE
  5
59E7
330
1E
100
AcDbEntity
  8
24
  6
CONTINOUS
100
AcDbLine
 10
192.2108540529092
 20
75.43034044075866
 30
0.0
 11
192.2108540529092
 21
54.43034044075854
 31
0.0
  0
LINE
  5
59E8
330
1E
100
AcDbEntity
  8
24
  6
CONTINOUS
100
AcDbLine
 10
187.0108540529093
 20
57.93034044075861
 30
0.0
 11
190.2108540529092
 21
57.93034044075861
 31
0.0
  0
LINE
  5
59E9
330
1E
100
AcDbEntity
  8
24
  6
CONTINOUS
100
AcDbLine
 10
180.010854052909
 20
64.93034044075861
 30
0.0
 11
197.2108540529092
 21
64.93034044075861
 31
0.0
  0
ARC
  5
59EA
330
1E
100
AcDbEntity
  8
24
  6
CONTINOUS
100
AcDbCircle
 10
187.0108540529093
 20
59.93034044075861
 30
0.0
 40
2.0
100
AcDbArc
 50
180.0
 51
270.0
  0
LINE
  5
59EB
330
1E
100
AcDbEntity
  8
24
  6
CONTINOUS
100
AcDbLine
 10
192.2108540529092
 20
54.43034044075854
 30
0.0
 11
194.2108540529092
 21
54.43034044075854
 31
0.0
  0
LINE
  5
59EC
330
1E
100
AcDbEntity
  8
24
  6
CONTINOUS
100
AcDbLine
 10
190.2108540529092
 20
57.23034044075863
 30
0.0
 11
192.2108540529092
 21
57.23034044075863
 31
0.0
  0
LINE
  5
59ED
330
1E
100
AcDbEntity
  8
24
  6
CONTINOUS
100
AcDbLine
 10
187.0108540529093
 20
71.93034044075861
 30
0.0
 11
190.2108540529092
 21
71.93034044075861
 31
0.0
  0
ARC
  5
59EE
330
1E
100
AcDbEntity
  8
24
  6
CONTINOUS
100
AcDbCircle
 10
187.0108540529093
 20
69.93034044075861
 30
0.0
 40
2.0
100
AcDbArc
 50
90.0
 51
180.0
  0
LINE
  5
59EF
330
1E
100
AcDbEntity
  8
24
  6
CONTINOUS
100
AcDbLine
 10
190.2108540529092
 20
72.63034044075858
 30
0.0
 11
192.2108540529092
 21
72.63034044075858
 31
0.0
  0
DIMENSION
  5
59F0
330
1E
100
AcDbEntity
  8
30
  6
Continuous
100
AcDbDimension
  2
*D12
 10
178.258944100069
 20
154.6142574383336
 30
0.0
 11
169.758944100069
 21
157.6142574383336
 31
0.0
 70
    32
 71
     5
 42
-1.0
  3
STANDARD
100
AcDbAlignedDimension
 13
161.2589441000691
 23
170.0147490376535
 33
0.0
 14
178.258944100069
 24
170.0147490376535
 34
0.0
 50
180.0
100
AcDbRotatedDimension
1001
ACAD
1000
DSTYLE
1002
{
1070
    79
1070
     3
1002
}
  0
INSERT
  5
59F1
330
1E
100
AcDbEntity
  8
30
  6
Continuous
100
AcDbBlockReference
  2
*U3
 10
-467.7793334118923
 20
-117.260742556916
 30
0.0
 41
2.5
 42
2.5
 43
2.5
  0
INSERT
  5
59F2
330
1E
100
AcDbEntity
  8
30
  6
Continuous
100
AcDbBlockReference
  2
*U2
 10
-467.7793334118923
 20
-117.260742556916
 30
0.0
 41
2.5
 42
2.5
 43
2.5
  0
INSERT
  5
59F3
330
1E
100
AcDbEntity
  8
30
  6
Continuous
100
AcDbBlockReference
  2
*U1
 10
-467.7793334118923
 20
-117.260742556916
 30
0.0
 41
2.5
 42
2.5
 43
2.5
  0
ARC
  5
59F4
330
1E
100
AcDbEntity
  8
24
  6
Continuous
100
AcDbCircle
 10
165.3839441000691
 20
195.6602341022259
 30
0.0
 40
8.0
100
AcDbArc
 50
58.9607599896022
 51
121.0392400103977
  0
CIRCLE
  5
59F5
330
1E
100
AcDbEntity
  8
17
  6
DASHDOT
100
AcDbCircle
 10
169.7589441000691
 20
178.5147490376535
 30
0.0
 40
4.5
  0
LINE
  5
59F6
330
1E
100
AcDbEntity
  8
24
  6
Continuous
100
AcDbLine
 10
169.0835001299304
 20
202.7534199296181
 30
0.0
 11
173.5543860686061
 21
200.4215632102613
 31
0.0
  0
LINE
  5
59F7
330
1E
100
AcDbEntity
  8
17
  6
DASHDOT
100
AcDbLine
 10
163.5089441000691
 20
178.5147490376535
 30
0.0
 11
176.008944100069
 21
178.5147490376535
 31
0.0
  0
LINE
  5
59F8
330
1E
100
AcDbEntity
  8
24
  6
Continuous
100
AcDbLine
 10
161.2589441000691
 20
170.0147490376535
 30
0.0
 11
178.258944100069
 21
170.0147490376535
 31
0.0
  0
LINE
  5
59FA
330
1E
100
AcDbEntity
  8
24
  6
Continuous
100
AcDbLine
 10
161.2589441000691
 20
202.5147490376535
 30
0.0
 11
161.2589441000691
 21
170.0147490376535
 31
0.0
  0
LINE
  5
59FC
330
1E
100
AcDbEntity
  8
24
  6
Continuous
100
AcDbLine
 10
178.258944100069
 20
199.5781268986841
 30
0.0
 11
178.258944100069
 21
170.0147490376535
 31
0.0
  0
DIMENSION
  5
59FD
330
1E
100
AcDbEntity
  8
30
  6
Continuous
100
AcDbDimension
  2
*D13
 10
192.8456665928571
 20
178.5147490376535
 30
0.0
 11
197.845666592857
 21
183.5147490376535
 31
0.0
 70
    32
 71
     5
 42
-1.0
  3
STANDARD
100
AcDbAlignedDimension
 13
178.258944100069
 23
170.0147490376535
 33
0.0
 14
172.2589441165689
 24
178.5147490376535
 34
0.0
 50
270.0
100
AcDbRotatedDimension
1001
ACAD
1000
DSTYLE
1002
{
1070
    79
1070
     3
1002
}
  0
LINE
  5
59FE
330
1E
100
AcDbEntity
  8
17
  6
DASHDOT
100
AcDbLine
 10
169.7589441000691
 20
184.7647490376535
 30
0.0
 11
169.7589441000693
 21
172.2647490376535
 31
0.0
  0
ARC
  5
59FF
330
1E
100
AcDbEntity
  8
24
  6
Continuous
100
AcDbCircle
 10
177.2539420984674
 20
207.5147490376536
 30
0.0
 40
8.0
100
AcDbArc
 50
242.4550403035893
 51
277.2168646146247
  0
TEXT
  5
5C38
330
1E
100
AcDbEntity
  8
30
  6
Continuous
100
AcDbText
 10
166.824921223946
 20
92.97015811760365
 30
0.0
 40
5.0
  1
M8
  7
STANDARD1
100
AcDbText
  0
TEXT
  5
5C39
330
1E
100
AcDbEntity
  8
30
  6
Continuous
100
AcDbText
 10
144.2971267246751
 20
203.1312451115791
 30
0.0
 40
5.0
  1
%%c9
  7
STANDARD1
100
AcDbText
  0
LEADER
  5
5C77
330
1E
100
AcDbEntity
  8
30
  6
Continuous
100
AcDbLeader
  3
STANDARD
 76
     3
 10
187.1390005471321
 20
72.59890259042276
 30
0.0
 10
177.8030029185746
 20
91.70590872622325
 30
0.0
 10
164.4658593933072
 20
91.15025714526428
 30
0.0
213
0.0
223
2.0
233
0.0
1001
ACAD
1000
DSTYLE
1002
{
1070
     5
1000
OPEN
1070
    79
1070
     3
1070
   342
1005
3B2
1002
}
  0
MTEXT
  5
5C78
330
1E
100
AcDbEntity
  8
30
  6
Continuous
100
AcDbMText
 10
163.4658593933072
 20
90.15025714526428
 30
0.0
 40
4.0
 41
0.0
 71
     9
 72
     1
  1

 73
     1
 44
1.0
1001
ACAD
1000
MTEXTBEGIN
1070
    73
1070
     1
1070
    44
1040
1.0
1070
    74
1070
     0
1000
MTEXTEND
  0
LEADER
  5
5C79
330
1E
100
AcDbEntity
  8
30
  6
Continuous
100
AcDbLeader
  3
STANDARD
 76
     3
 10
165.5968147514708
 20
182.1319566324762
 30
0.0
 10
156.2608171229134
 20
201.2389627682765
 30
0.0
 10
142.9236735976459
 20
201.6833111873177
 30
0.0
213
0.0
223
2.0
233
0.0
1001
ACAD
1000
DSTYLE
1002
{
1070
     5
1000
OPEN
1070
    77
1070
     0
1070
    79
1070
     3
1070
   147
1040
1.0
1070
   342
1005
3B2
1002
}
  0
DIMENSION
  5
5E29
330
1E
100
AcDbEntity
  8
30
  6
Continuous
100
AcDbDimension
  2
*D14
 10
43.1360945351713
 20
33.75182624584322
 30
0.0
 11
1.13609453517131
 21
36.75182624584321
 31
0.0
 70
    32
 71
     5
 42
-1.0
  3
STANDARD
100
AcDbAlignedDimension
 13
-40.86390546482869
 23
26.15231784516305
 33
0.0
 14
43.1360945351713
 24
26.15231784516305
 34
0.0
100
AcDbRotatedDimension
1001
ACAD
1000
DSTYLE
1002
{
1070
    79
1070
     3
1002
}
  0
DIMENSION
  5
5E2A
330
1E
100
AcDbEntity
  8
30
  6
Continuous
100
AcDbDimension
  2
*D15
 10
46.13609453517129
 20
-120.5971002987884
 30
0.0
 11
1.13609453517131
 21
-117.5971002987884
 31
0.0
 70
    32
 71
     5
 42
-1.0
  3
STANDARD
100
AcDbAlignedDimension
 13
-43.86390546482869
 23
-76.34768215483695
 33
0.0
 14
46.13609453517129
 24
-76.34768215483695
 34
0.0
 50
180.0
100
AcDbRotatedDimension
1001
ACAD
1000
DSTYLE
1002
{
1070
    79
1070
     3
1002
}
  0
ARC
  5
5E2B
330
1E
100
AcDbEntity
  8
10
  6
CONTINOUS
100
AcDbCircle
 10
-32.61390546482864
 20
-64.84768215483697
 30
0.0
 40
5.0
100
AcDbArc
 50
90.0
 51
180.0
  0
ARC
  5
5E2C
330
1E
100
AcDbEntity
  8
10
  6
CONTINOUS
100
AcDbCircle
 10
32.61390546482864
 20
67.15231784516305
 30
0.0
 40
5.0
210
0.0
220
0.0
230
-1.0
100
AcDbArc
 50
270.0
 51
0.0
  0
LINE
  5
5E2D
330
1E
100
AcDbEntity
  8
10
  6
CONTINOUS
100
AcDbLine
 10
-40.86390546482869
 20
-23.84768215483691
 30
0.0
 11
43.1360945351713
 21
-23.84768215483691
 31
0.0
  0
LINE
  5
5E2E
330
1E
100
AcDbEntity
  8
10
  6
CONTINOUS
100
AcDbLine
 10
-43.86390546482869
 20
-49.847682154837
 30
0.0
 11
46.13609453517129
 21
-49.847682154837
 31
0.0
  0
LINE
  5
5E2F
330
1E
100
AcDbEntity
  8
10
  6
CONTINOUS
100
AcDbLine
 10
-43.86390546482869
 20
52.15231784516305
 30
0.0
 11
46.13609453517129
 21
52.15231784516305
 31
0.0
  0
LINE
  5
5E30
330
1E
100
AcDbEntity
  8
10
  6
CONTINOUS
100
AcDbLine
 10
46.13609453517129
 20
78.65231784516305
 30
0.0
 11
-43.86390546482869
 21
78.65231784516305
 31
0.0
  0
LINE
  5
5E31
330
1E
100
AcDbEntity
  8
10
  6
CONTINOUS
100
AcDbLine
 10
-43.86390546482869
 20
-76.34768215483695
 30
0.0
 11
46.13609453517129
 21
-76.34768215483695
 31
0.0
  0
LINE
  5
5E32
330
1E
100
AcDbEntity
  8
10
  6
CONTINOUS
100
AcDbLine
 10
-40.86390546482869
 20
26.15231784516308
 30
0.0
 11
43.1360945351713
 21
26.15231784516308
 31
0.0
  0
LINE
  5
5E33
330
1E
100
AcDbEntity
  8
10
  6
CONTINOUS
100
AcDbLine
 10
-40.86390546482869
 20
26.15231784516308
 30
0.0
 11
-40.86390546482869
 21
-23.84768215483691
 31
0.0
  0
LINE
  5
5E34
330
1E
100
AcDbEntity
  8
10
  6
CONTINOUS
100
AcDbLine
 10
-43.86390546482869
 20
78.65231784516305
 30
0.0
 11
-43.86390546482869
 21
-76.34768215483695
 31
0.0
  0
LINE
  5
5E35
330
1E
100
AcDbEntity
  8
10
  6
CONTINOUS
100
AcDbLine
 10
-37.61390546482869
 20
-64.84768215483697
 30
0.0
 11
-37.61390546482869
 21
-76.34768215483695
 31
0.0
  0
LINE
  5
5E36
330
1E
100
AcDbEntity
  8
10
  6
CONTINOUS
100
AcDbLine
 10
-37.61390546482869
 20
67.15231784516305
 30
0.0
 11
-37.61390546482869
 21
78.65231784516305
 31
0.0
  0
LINE
  5
5E38
330
1E
100
AcDbEntity
  8
18
100
AcDbLine
 10
14.63609453517134
 20
125.6523178451627
 30
0.0
 11
14.63609453517134
 21
78.65231784516281
 31
0.0
  0
LINE
  5
5E39
330
1E
100
AcDbEntity
  8
18
100
AcDbLine
 10
17.63609453517128
 20
125.6523178451627
 30
0.0
 11
17.63609453517128
 21
78.65231784516281
 31
0.0
  0
LINE
  5
5E3A
330
1E
100
AcDbEntity
  8
18
100
AcDbLine
 10
-12.36390546482871
 20
125.6523178451627
 30
0.0
 11
-12.36390546482871
 21
78.65231784516281
 31
0.0
  0
LINE
  5
5E3B
330
1E
100
AcDbEntity
  8
18
100
AcDbLine
 10
-15.36390546482872
 20
125.6523178451627
 30
0.0
 11
-15.36390546482872
 21
78.65231784516281
 31
0.0
  0
LINE
  5
5E3C
330
1E
100
AcDbEntity
  8
10
  6
CONTINOUS
100
AcDbLine
 10
43.1360945351713
 20
26.15231784516308
 30
0.0
 11
43.1360945351713
 21
-23.84768215483691
 31
0.0
  0
LINE
  5
5E3E
330
1E
100
AcDbEntity
  8
10
  6
CONTINOUS
100
AcDbLine
 10
12.13609453517134
 20
26.15231784516308
 30
0.0
 11
12.13609453517134
 21
-23.84768215483691
 31
0.0
  0
LINE
  5
5E3F
330
1E
100
AcDbEntity
  8
10
  6
CONTINOUS
100
AcDbLine
 10
-9.863905464828716
 20
26.15231784516308
 30
0.0
 11
-9.863905464828716
 21
-23.84768215483691
 31
0.0
  0
LINE
  5
5E40
330
1E
100
AcDbEntity
  8
10
  6
CONTINOUS
100
AcDbLine
 10
46.13609453517129
 20
-76.34768215483695
 30
0.0
 11
46.13609453517129
 21
78.65231784516305
 31
0.0
  0
DIMENSION
  5
5E41
330
1E
100
AcDbEntity
  8
30
  6
Continuous
100
AcDbDimension
  2
*D16
 10
31.13609453517129
 20
-100.5971002987884
 30
0.0
 11
1.13609453517132
 21
-97.59710029878846
 31
0.0
 70
    32
 71
     5
 42
-1.0
  3
STANDARD
100
AcDbAlignedDimension
 13
-28.86390546482866
 23
-68.34768217133697
 33
0.0
 14
31.13609453517131
 24
-68.34768217133697
 34
0.0
 50
180.0
100
AcDbRotatedDimension
1001
ACAD
1000
DSTYLE
1002
{
1070
    79
1070
     3
1002
}
  0
DIMENSION
  5
5E42
330
1E
100
AcDbEntity
  8
30
  6
Continuous
100
AcDbDimension
  2
*D17
 10
12.13609453517133
 20
-40.59710029878842
 30
0.0
 11
1.136094535171307
 21
-37.59710029878843
 31
0.0
 70
    32
 71
     5
 42
-1.0
  3
STANDARD
100
AcDbAlignedDimension
 13
-9.863905464828716
 23
-23.84768215483691
 33
0.0
 14
12.13609453517134
 24
-23.84768215483691
 34
0.0
 50
180.0
100
AcDbRotatedDimension
1001
ACAD
1000
DSTYLE
1002
{
1070
    79
1070
     3
1002
}
  0
ARC
  5
5E43
330
1E
100
AcDbEntity
  8
10
  6
CONTINOUS
100
AcDbCircle
 10
-4.886094535171281
 20
-64.84768215483697
 30
0.0
 40
5.0
210
0.0
220
0.0
230
-1.0
100
AcDbArc
 50
90.0
 51
180.0
  0
CIRCLE
  5
5E44
330
1E
100
AcDbEntity
  8
24
  6
CONTINOUS
100
AcDbCircle
 10
1.136094535171281
 20
-65.84768215483695
 30
0.0
 40
5.0
  0
LINE
  5
5E45
330
1E
100
AcDbEntity
  8
24
  6
CONTINOUS
100
AcDbLine
 10
-5.863905464828717
 20
-65.84768215483695
 30
0.0
 11
8.136094535171308
 21
-65.84768215483695
 31
0.0
  0
CIRCLE
  5
5E46
330
1E
100
AcDbEntity
  8
24
  6
CONTINOUS
100
AcDbCircle
 10
-28.86390546482866
 20
-65.847682154837
 30
0.0
 40
5.0
  0
LINE
  5
5E47
330
1E
100
AcDbEntity
  8
10
  6
CONTINOUS
100
AcDbLine
 10
-20.11390546482871
 20
-64.84768215483697
 30
0.0
 11
-20.11390546482871
 21
-76.34768215483695
 31
0.0
  0
LINE
  5
5E48
330
1E
100
AcDbEntity
  8
24
  6
CONTINOUS
100
AcDbLine
 10
-28.86390546482866
 20
-72.84768215483694
 30
0.0
 11
-28.86390546482866
 21
-58.84768215483695
 31
0.0
  0
LINE
  5
5E49
330
1E
100
AcDbEntity
  8
10
  6
CONTINOUS
100
AcDbLine
 10
-32.61390546482864
 20
-59.847682154837
 30
0.0
 11
-25.11390546482871
 21
-59.847682154837
 31
0.0
  0
LINE
  5
5E4A
330
1E
100
AcDbEntity
  8
24
  6
CONTINOUS
100
AcDbLine
 10
-21.86390546482869
 20
-65.84768215483695
 30
0.0
 11
-35.86390546482869
 21
-65.84768215483695
 31
0.0
  0
ARC
  5
5E4B
330
1E
100
AcDbEntity
  8
10
  6
CONTINOUS
100
AcDbCircle
 10
-25.11390546482871
 20
-64.84768215483697
 30
0.0
 40
5.0
100
AcDbArc
 50
0.0
 51
90.0
  0
LINE
  5
5E4C
330
1E
100
AcDbEntity
  8
10
  6
CONTINOUS
100
AcDbLine
 10
-7.613905464828717
 20
-64.84768215483697
 30
0.0
 11
-7.613905464828717
 21
-76.34768215483695
 31
0.0
  0
ARC
  5
5E4D
330
1E
100
AcDbEntity
  8
10
  6
CONTINOUS
100
AcDbCircle
 10
2.613905464828718
 20
-64.84768215483697
 30
0.0
 40
5.0
210
0.0
220
0.0
230
-1.0
100
AcDbArc
 50
0.0
 51
90.0
  0
LINE
  5
5E4E
330
1E
100
AcDbEntity
  8
10
  6
CONTINOUS
100
AcDbLine
 10
4.886094535171281
 20
-59.847682154837
 30
0.0
 11
-2.613905464828718
 21
-59.847682154837
 31
0.0
  0
ARC
  5
5E4F
330
1E
100
AcDbEntity
  8
10
  6
CONTINOUS
100
AcDbCircle
 10
-27.38609453517131
 20
-64.84768215483697
 30
0.0
 40
5.0
210
0.0
220
0.0
230
-1.0
100
AcDbArc
 50
0.0
 51
90.0
  0
CIRCLE
  5
5E50
330
1E
100
AcDbEntity
  8
24
  6
CONTINOUS
100
AcDbCircle
 10
31.13609453517131
 20
-65.84768215483695
 30
0.0
 40
5.0
  0
LINE
  5
5E51
330
1E
100
AcDbEntity
  8
24
  6
CONTINOUS
100
AcDbLine
 10
24.13609453517131
 20
-65.84768215483695
 30
0.0
 11
38.13609453517129
 21
-65.84768215483695
 31
0.0
  0
CIRCLE
  5
5E52
330
1E
100
AcDbEntity
  8
12
  6
DASHED
100
AcDbCircle
 10
16.13609453517133
 20
-64.84768215483697
 30
0.0
 40
4.0
  0
LINE
  5
5E53
330
1E
100
AcDbEntity
  8
12
  6
DASHED
100
AcDbLine
 10
16.13609453517133
 20
-70.34768215483694
 30
0.0
 11
16.13609453517133
 21
-59.34768215483689
 31
0.0
  0
LINE
  5
5E54
330
1E
100
AcDbEntity
  8
10
  6
CONTINOUS
100
AcDbLine
 10
22.38609453517131
 20
-64.84768215483697
 30
0.0
 11
22.38609453517131
 21
-76.34768215483695
 31
0.0
  0
LINE
  5
5E55
330
1E
100
AcDbEntity
  8
10
  6
CONTINOUS
100
AcDbLine
 10
9.886094535171306
 20
-64.84768215483697
 30
0.0
 11
9.886094535171306
 21
-76.34768215483695
 31
0.0
  0
LINE
  5
5E56
330
1E
100
AcDbEntity
  8
12
  6
DASHED
100
AcDbLine
 10
10.63609453517136
 20
-64.84768215483697
 30
0.0
 11
21.63609453517143
 21
-64.84768215483697
 31
0.0
  0
LINE
  5
5E57
330
1E
100
AcDbEntity
  8
24
  6
CONTINOUS
100
AcDbLine
 10
31.13609453517131
 20
-72.84768215483694
 30
0.0
 11
31.13609453517131
 21
-58.84768215483695
 31
0.0
  0
LINE
  5
5E58
330
1E
100
AcDbEntity
  8
10
  6
CONTINOUS
100
AcDbLine
 10
39.88609453517131
 20
-64.84768215483697
 30
0.0
 11
39.88609453517131
 21
-76.34768215483695
 31
0.0
  0
ARC
  5
5E59
330
1E
100
AcDbEntity
  8
10
  6
CONTINOUS
100
AcDbCircle
 10
-34.88609453517131
 20
-64.84768215483697
 30
0.0
 40
5.0
210
0.0
220
0.0
230
-1.0
100
AcDbArc
 50
90.0
 51
180.0
  0
LINE
  5
5E5A
330
1E
100
AcDbEntity
  8
10
  6
CONTINOUS
100
AcDbLine
 10
34.88609453517131
 20
-59.847682154837
 30
0.0
 11
27.38609453517131
 21
-59.847682154837
 31
0.0
  0
LINE
  5
5E5B
330
1E
100
AcDbEntity
  8
10
  6
CONTINOUS
100
AcDbLine
 10
8.136094535171308
 20
21.30718655097337
 30
0.0
 11
-5.863905464829628
 21
21.30718655097337
 31
0.0
  0
LINE
  5
5E5C
330
1E
100
AcDbEntity
  8
10
  6
CONTINOUS
100
AcDbLine
 10
8.136094535171308
 20
16.39227428523969
 30
0.0
 11
-5.863905464828717
 21
16.39227428523969
 31
0.0
  0
LINE
  5
5E5D
330
1E
100
AcDbEntity
  8
10
  6
CONTINOUS
100
AcDbLine
 10
8.136094535171308
 20
7.993107152024516
 30
0.0
 11
-5.863905464827753
 21
7.993107152024605
 31
0.0
  0
LINE
  5
5E5E
330
1E
100
AcDbEntity
  8
10
  6
CONTINOUS
100
AcDbLine
 10
-5.863905464828717
 20
-17.34768215483692
 30
0.0
 11
8.136094535171308
 21
-17.34768215483692
 31
0.0
  0
LINE
  5
5E5F
330
1E
100
AcDbEntity
  8
10
  6
CONTINOUS
100
AcDbLine
 10
-5.863905464828717
 20
-17.34768215483692
 30
0.0
 11
-5.863905464828574
 21
21.30718655097337
 31
0.0
  0
LINE
  5
5E60
330
1E
100
AcDbEntity
  8
10
  6
CONTINOUS
100
AcDbLine
 10
8.136094535171308
 20
-17.34768215483692
 30
0.0
 11
8.136094535171361
 21
21.30718655097337
 31
0.0
  0
ARC
  5
5E62
330
1E
100
AcDbEntity
  8
10
  6
CONTINOUS
100
AcDbCircle
 10
4.886094535171281
 20
67.15231784516305
 30
0.0
 40
5.0
100
AcDbArc
 50
270.0
 51
0.0
  0
CIRCLE
  5
5E63
330
1E
100
AcDbEntity
  8
24
  6
CONTINOUS
100
AcDbCircle
 10
1.136094535171281
 20
68.15231784516305
 30
0.0
 40
5.0
  0
LINE
  5
5E64
330
1E
100
AcDbEntity
  8
24
  6
CONTINOUS
100
AcDbLine
 10
-5.863905464828717
 20
68.15231784516305
 30
0.0
 11
8.136094535171308
 21
68.15231784516305
 31
0.0
  0
CIRCLE
  5
5E65
330
1E
100
AcDbEntity
  8
24
  6
CONTINOUS
100
AcDbCircle
 10
-28.86390546482866
 20
68.15231784516305
 30
0.0
 40
5.0
  0
LINE
  5
5E66
330
1E
100
AcDbEntity
  8
10
  6
CONTINOUS
100
AcDbLine
 10
-20.11390546482871
 20
67.15231784516305
 30
0.0
 11
-20.11390546482871
 21
78.65231784516305
 31
0.0
  0
LINE
  5
5E67
330
1E
100
AcDbEntity
  8
24
  6
CONTINOUS
100
AcDbLine
 10
-28.86390546482866
 20
75.15231784516306
 30
0.0
 11
-28.86390546482866
 21
61.15231784516304
 31
0.0
  0
LINE
  5
5E68
330
1E
100
AcDbEntity
  8
10
  6
CONTINOUS
100
AcDbLine
 10
-7.613905464828717
 20
67.15231784516305
 30
0.0
 11
-7.613905464828717
 21
78.65231784516305
 31
0.0
  0
CIRCLE
  5
5E69
330
1E
100
AcDbEntity
  8
12
  6
DASHED
100
AcDbCircle
 10
-13.8639054648287
 20
67.15231784516283
 30
0.0
 40
4.0
  0
LINE
  5
5E6A
330
1E
100
AcDbEntity
  8
12
  6
DASHED
100
AcDbLine
 10
-19.36390546482869
 20
67.15231784516283
 30
0.0
 11
-8.363905464828718
 21
67.15231784516283
 31
0.0
  0
LINE
  5
5E6B
330
1E
100
AcDbEntity
  8
10
  6
CONTINOUS
100
AcDbLine
 10
-32.61390546482864
 20
62.15231784516305
 30
0.0
 11
-25.11390546482871
 21
62.15231784516305
 31
0.0
  0
LINE
  5
5E6C
330
1E
100
AcDbEntity
  8
24
  6
CONTINOUS
100
AcDbLine
 10
-21.86390546482869
 20
68.15231784516305
 30
0.0
 11
-35.86390546482869
 21
68.15231784516305
 31
0.0
  0
ARC
  5
5E6D
330
1E
100
AcDbEntity
  8
10
  6
CONTINOUS
100
AcDbCircle
 10
25.11390546482871
 20
67.15231784516305
 30
0.0
 40
5.0
210
0.0
220
0.0
230
-1.0
100
AcDbArc
 50
180.0
 51
270.0
  0
ARC
  5
5E6E
330
1E
100
AcDbEntity
  8
10
  6
CONTINOUS
100
AcDbCircle
 10
-2.613905464828718
 20
67.15231784516305
 30
0.0
 40
5.0
100
AcDbArc
 50
180.0
 51
270.0
  0
LINE
  5
5E6F
330
1E
100
AcDbEntity
  8
12
  6
DASHED
100
AcDbLine
 10
-13.8639054648287
 20
61.65231784516283
 30
0.0
 11
-13.8639054648287
 21
72.65231784516283
 31
0.0
  0
LINE
  5
5E70
330
1E
100
AcDbEntity
  8
10
  6
CONTINOUS
100
AcDbLine
 10
4.886094535171281
 20
62.15231784516305
 30
0.0
 11
-2.613905464828718
 21
62.15231784516305
 31
0.0
  0
CIRCLE
  5
5E71
330
1E
100
AcDbEntity
  8
24
  6
CONTINOUS
100
AcDbCircle
 10
31.13609453517131
 20
68.15231784516305
 30
0.0
 40
5.0
  0
LINE
  5
5E72
330
1E
100
AcDbEntity
  8
10
  6
CONTINOUS
100
AcDbLine
 10
39.88609453517131
 20
67.15231784516305
 30
0.0
 11
39.88609453517131
 21
78.65231784516305
 31
0.0
  0
LINE
  5
5E73
330
1E
100
AcDbEntity
  8
10
  6
CONTINOUS
100
AcDbLine
 10
22.38609453517131
 20
67.15231784516305
 30
0.0
 11
22.38609453517131
 21
78.65231784516305
 31
0.0
  0
LINE
  5
5E74
330
1E
100
AcDbEntity
  8
24
  6
CONTINOUS
100
AcDbLine
 10
31.13609453517131
 20
75.15231784516306
 30
0.0
 11
31.13609453517131
 21
61.15231784516304
 31
0.0
  0
LINE
  5
5E75
330
1E
100
AcDbEntity
  8
10
  6
CONTINOUS
100
AcDbLine
 10
9.886094535171306
 20
67.15231784516305
 30
0.0
 11
9.886094535171306
 21
78.65231784516305
 31
0.0
  0
ARC
  5
5E76
330
1E
100
AcDbEntity
  8
10
  6
CONTINOUS
100
AcDbCircle
 10
27.38609453517131
 20
67.15231784516305
 30
0.0
 40
5.0
100
AcDbArc
 50
180.0
 51
270.0
  0
LINE
  5
5E77
330
1E
100
AcDbEntity
  8
24
  6
CONTINOUS
100
AcDbLine
 10
24.13609453517131
 20
68.15231784516305
 30
0.0
 11
38.13609453517129
 21
68.15231784516305
 31
0.0
  0
ARC
  5
5E78
330
1E
100
AcDbEntity
  8
10
  6
CONTINOUS
100
AcDbCircle
 10
34.88609453517131
 20
67.15231784516305
 30
0.0
 40
5.0
100
AcDbArc
 50
270.0
 51
0.0
  0
LINE
  5
5E79
330
1E
100
AcDbEntity
  8
10
  6
CONTINOUS
100
AcDbLine
 10
34.88609453517131
 20
62.15231784516305
 30
0.0
 11
27.38609453517131
 21
62.15231784516305
 31
0.0
  0
LINE
  5
5E7A
330
1E
100
AcDbEntity
  8
18
100
AcDbLine
 10
-12.36390546482871
 20
125.6523178451627
 30
0.0
 11
-15.36390546482872
 21
125.6523178451627
 31
0.0
  0
LINE
  5
5E7B
330
1E
100
AcDbEntity
  8
18
100
AcDbLine
 10
14.63609453517134
 20
125.6523178451627
 30
0.0
 11
17.63609453517128
 21
125.6523178451627
 31
0.0
  0
LINE
  5
5EEE
330
1E
100
AcDbEntity
  8
18
  6
DIVIDE
100
AcDbLine
 10
45.75600000000009
 20
-174.0108058991918
 30
0.0
 11
-44.24399999999989
 21
-174.0108058991918
 31
0.0
  0
LINE
  5
5EEF
330
1E
100
AcDbEntity
  8
18
  6
DIVIDE
100
AcDbLine
 10
-44.24399999999989
 20
-329.0108058991918
 30
0.0
 11
45.75600000000009
 21
-329.0108058991918
 31
0.0
  0
DIMENSION
  5
5EF0
330
1E
100
AcDbEntity
  8
30
  6
Continuous
100
AcDbDimension
  2
*D18
 10
15.75600000000009
 20
-353.2602240431434
 30
0.0
 11
0.7560000000000866
 21
-350.2602240431434
 31
0.0
 70
    32
 71
     5
 42
-1.0
  3
STANDARD
100
AcDbAlignedDimension
 13
-14.2439999999999
 23
-188.0108059156921
 33
0.0
 14
15.75600000000009
 24
-320.0108059156919
 34
0.0
 50
180.0
100
AcDbRotatedDimension
1001
ACAD
1000
DSTYLE
1002
{
1070
    79
1070
     3
1002
}
  0
LINE
  5
5EF1
330
1E
100
AcDbEntity
  8
18
  6
DIVIDE
100
AcDbLine
 10
-44.24399999999989
 20
-174.0108058991918
 30
0.0
 11
-44.24399999999989
 21
-329.0108058991918
 31
0.0
  0
LINE
  5
5EF2
330
1E
100
AcDbEntity
  8
12
  6
Continuous
 62
     3
100
AcDbLine
 10
10.25600000000008
 20
-317.5108058991918
 30
0.0
 11
21.25600000000007
 21
-317.5108058991918
 31
0.0
  0
LINE
  5
5EF3
330
1E
100
AcDbEntity
  8
12
  6
Continuous
 62
     3
100
AcDbLine
 10
15.75600000000009
 20
-323.0108058991918
 30
0.0
 11
15.75600000000009
 21
-312.0108058991919
 31
0.0
  0
CIRCLE
  5
5EF4
330
1E
100
AcDbEntity
  8
12
  6
Continuous
 62
     3
100
AcDbCircle
 10
15.75600000000009
 20
-317.5108058991918
 30
0.0
 40
2.0
  0
CIRCLE
  5
5EF5
330
1E
100
AcDbEntity
  8
12
  6
Continuous
 62
     3
100
AcDbCircle
 10
-14.2439999999999
 20
-185.510805899192
 30
0.0
 40
2.0
  0
LINE
  5
5EF6
330
1E
100
AcDbEntity
  8
12
  6
Continuous
 62
     3
100
AcDbLine
 10
-19.74399999999988
 20
-185.510805899192
 30
0.0
 11
-8.743999999999907
 21
-185.510805899192
 31
0.0
  0
LINE
  5
5EF7
330
1E
100
AcDbEntity
  8
12
  6
Continuous
 62
     3
100
AcDbLine
 10
-14.2439999999999
 20
-191.010805899192
 30
0.0
 11
-14.2439999999999
 21
-180.010805899192
 31
0.0
  0
LINE
  5
5EF8
330
1E
100
AcDbEntity
  8
18
  6
DIVIDE
100
AcDbLine
 10
45.75600000000009
 20
-329.0108058991918
 30
0.0
 11
45.75600000000009
 21
-174.0108058991918
 31
0.0
  0
LEADER
  5
6067
330
1E
100
AcDbEntity
  8
30
  6
Continuous
100
AcDbLeader
  3
STANDARD
 73
     0
 40
4.0
 76
     3
 10
-14.2439999999999
 20
-185.510805899192
 30
0.0
 10
-23.38702787963848
 20
-161.8791775077268
 30
0.0
 10
-45.69205975577688
 20
-161.8102369714588
 30
0.0
340
6068
213
-13.70487600562546
223
1.946142598938591
233
0.0
1001
ACAD
1000
DSTYLE
1002
{
1070
     5
1000
OPEN
1070
    77
1070
     0
1070
    79
1070
     3
1070
   147
1040
1.0
1070
   342
1005
3B2
1002
}
  0
MTEXT
  5
6068
102
{ACAD_REACTORS
330
6067
102
}
330
1E
100
AcDbEntity
  8
30
  6
Continuous
100
AcDbMText
 10
-32.98718375015141
 20
-163.7563795703974
 30
0.0
 40
4.0
 41
0.0
 71
     9
 72
     1
  1

 73
     1
 44
1.0
1001
ACAD
1000
MTEXTBEGIN
1070
    73
1070
     1
1070
    44
1040
1.0
1070
    74
1070
     0
1000
MTEXTEND
  0
MTEXT
  5
606B
330
1E
100
AcDbEntity
  8
30
  6
Continuous
100
AcDbMText
 10
-33.72132122394452
 20
-158.7823383816405
 30
0.0
 40
4.0
 41
0.0
 71
     5
 72
     1
  1
M4X0.7
 73
     1
 44
1.0
1001
ACAD
1000
MTEXTBEGIN
1070
    73
1070
     1
1070
    44
1040
1.0
1070
    74
1070
     0
1000
MTEXTEND
  0
DIMENSION
  5
6157
330
1E
100
AcDbEntity
  8
30
  6
Continuous
100
AcDbDimension
  2
*D21
 10
88.67168416193043
 20
-317.5108058991918
 30
0.0
 11
85.6716841619305
 21
-251.5108058991919
 31
0.0
 70
    32
 71
     5
 42
-1.0
  3
STANDARD
100
AcDbAlignedDimension
 13
-8.743999999999907
 23
-185.510805899192
 33
0.0
 14
21.25600000000007
 24
-317.5108058991918
 34
0.0
 50
90.0
100
AcDbRotatedDimension
1001
ACAD
1000
DSTYLE
1002
{
1070
    79
1070
     3
1002
}
  0
DIMENSION
  5
619F
330
1E
100
AcDbEntity
  8
30
  6
Continuous
100
AcDbDimension
  2
*D22
 10
-67.05386383529958
 20
78.65231784516305
 30
0.0
 11
-70.05386383529959
 21
102.1523178451629
 31
0.0
 70
    32
 71
     5
 42
-1.0
  3
STANDARD
100
AcDbAlignedDimension
 13
-15.36390546482872
 23
125.6523178451627
 33
0.0
 14
-43.86390546482869
 24
78.65231784516305
 34
0.0
 50
90.0
100
AcDbRotatedDimension
1001
ACAD
1000
DSTYLE
1002
{
1070
    79
1070
     3
1002
}
  0
DIMENSION
  5
61AC
330
1E
100
AcDbEntity
  8
30
  6
Continuous
100
AcDbDimension
  2
*D23
 10
-67.05386383529961
 20
-76.34768215483695
 30
0.0
 11
-70.05386383529959
 21
1.152317845163042
 31
0.0
 70
    32
 71
     5
 42
-1.0
  3
STANDARD
100
AcDbAlignedDimension
 13
-43.86390546482869
 23
78.65231784516305
 33
0.0
 14
-43.86390546482869
 24
-76.34768215483695
 34
0.0
 50
90.0
100
AcDbRotatedDimension
1001
ACAD
1000
DSTYLE
1002
{
1070
   287
1070
     4
1070
   287
1070
     4
1070
   279
1070
     1
1070
    79
1070
     3
1002
}
  0
DIMENSION
  5
6234
330
1E
100
AcDbEntity
  8
30
  6
Continuous
100
AcDbDimension
  2
*D24
 10
216.2108540529092
 20
-93.42316965538616
 30
0.0
 11
220.2108540529092
 21
-90.42316965538615
 31
0.0
 70
    32
 71
     5
 42
-1.0
  3
STANDARD
100
AcDbAlignedDimension
 13
224.2108540529092
 23
-70.31965955924139
 33
0.0
 14
216.2108540529092
 24
-79.56965955924139
 34
0.0
100
AcDbRotatedDimension
1001
ACAD
1000
DSTYLE
1002
{
1070
    79
1070
     3
1002
}
  0
DIMENSION
  5
62BA
330
1E
100
AcDbEntity
  8
30
  6
Continuous
100
AcDbDimension
  2
*D25
 10
251.7738303542169
 20
-277.5108058991918
 30
0.0
 11
248.7738303542169
 21
-251.5108058991918
 31
0.0
 70
    32
 71
     5
 42
-1.0
  3
STANDARD
100
AcDbAlignedDimension
 13
217.7560000000001
 23
-225.5108058991918
 33
0.0
 14
217.7560000000001
 24
-277.5108058991918
 34
0.0
 50
90.0
100
AcDbRotatedDimension
1001
ACAD
1000
DSTYLE
1002
{
1070
    79
1070
     3
1002
}
  0
LINE
  5
62BB
330
1E
100
AcDbEntity
  8
11
 48
2.0
100
AcDbLine
 10
218.7560000000003
 20
-226.5108058991919
 30
0.0
 11
218.7560000000003
 21
-276.5108058991919
 31
0.0
  0
LINE
  5
62BC
330
1E
100
AcDbEntity
  8
11
 48
2.0
100
AcDbLine
 10
132.756
 20
-226.5108058991919
 30
0.0
 11
132.756
 21
-276.5108058991919
 31
0.0
  0
LINE
  5
62BD
330
1E
100
AcDbEntity
  8
18
  6
DIVIDE
100
AcDbLine
 10
220.7559999999999
 20
-329.0108058991918
 30
0.0
 11
220.7559999999999
 21
-174.0108058991918
 31
0.0
  0
LINE
  5
62BE
330
1E
100
AcDbEntity
  8
18
  6
DIVIDE
100
AcDbLine
 10
130.756
 20
-174.0108058991918
 30
0.0
 11
130.756
 21
-329.0108058991918
 31
0.0
  0
LINE
  5
62C0
330
1E
100
AcDbEntity
  8
16
100
AcDbLine
 10
175.7559999999999
 20
-349.2627456620377
 30
0.0
 11
175.7559999999999
 21
-150.1274066897059
 31
0.0
  0
DIMENSION
  5
62C1
330
1E
100
AcDbEntity
  8
30
  6
Continuous
100
AcDbDimension
  2
*D27
 10
218.7560000000003
 20
-358.0166240557366
 30
0.0
 11
175.7560000000002
 21
-355.0166240557365
 31
0.0
 70
    32
 71
     5
 42
-1.0
  3
STANDARD
100
AcDbAlignedDimension
 13
132.756
 23
-276.5108058991919
 33
0.0
 14
218.7560000000003
 24
-276.5108058991919
 34
0.0
100
AcDbRotatedDimension
1001
ACAD
1000
DSTYLE
1002
{
1070
    79
1070
     3
1002
}
  0
LINE
  5
62C2
330
1E
100
AcDbEntity
  8
11
 48
2.0
100
AcDbLine
 10
133.756
 20
-277.5108058991918
 30
0.0
 11
217.7560000000001
 21
-277.5108058991918
 31
0.0
  0
LINE
  5
62C4
330
1E
100
AcDbEntity
  8
18
  6
DIVIDE
100
AcDbLine
 10
130.756
 20
-329.0108058991918
 30
0.0
 11
220.7559999999999
 21
-329.0108058991918
 31
0.0
  0
LINE
  5
62C5
330
1E
100
AcDbEntity
  8
16
100
AcDbLine
 10
244.659897549407
 20
-251.5108058991919
 30
0.0
 11
95.20608679841918
 21
-251.5108058991919
 31
0.0
  0
ARC
  5
62C8
330
1E
100
AcDbEntity
  8
11
 48
2.0
100
AcDbCircle
 10
133.756
 20
-276.5108058991919
 30
0.0
 40
1.0
100
AcDbArc
 50
180.0
 51
270.0
  0
ARC
  5
62C9
330
1E
100
AcDbEntity
  8
11
 48
2.0
100
AcDbCircle
 10
217.7560000000001
 20
-276.5108058991919
 30
0.0
 40
1.0
100
AcDbArc
 50
270.0
 51
0.0
  0
LINE
  5
62CA
330
1E
100
AcDbEntity
  8
11
 48
2.0
100
AcDbLine
 10
133.756
 20
-225.5108058991918
 30
0.0
 11
217.7560000000001
 21
-225.5108058991918
 31
0.0
  0
LINE
  5
62CB
330
1E
100
AcDbEntity
  8
18
  6
DIVIDE
100
AcDbLine
 10
220.7559999999999
 20
-174.0108058991918
 30
0.0
 11
130.756
 21
-174.0108058991918
 31
0.0
  0
ARC
  5
62D0
330
1E
100
AcDbEntity
  8
11
 48
2.0
100
AcDbCircle
 10
133.756
 20
-226.5108058991919
 30
0.0
 40
1.0
100
AcDbArc
 50
90.0
 51
180.0
  0
ARC
  5
62D2
330
1E
100
AcDbEntity
  8
11
 48
2.0
100
AcDbCircle
 10
217.7560000000001
 20
-226.5108058991919
 30
0.0
 40
1.0
100
AcDbArc
 50
0.0
 51
90.0
  0
DIMENSION
  5
62D3
330
1E
100
AcDbEntity
  8
30
  6
Continuous
100
AcDbDimension
  2
*D26
 10
217.7560000000004
 20
-226.5108058991916
 30
0.0
 11
225.3890332440374
 21
-220.4664773732404
 31
0.0
 70
    36
 71
     5
 42
-1.0
  3
STANDARD
100
AcDbRadialDimension
 15
218.5492733154744
 25
-225.9019401940014
 35
0.0
 40
0.0
1001
ACAD
1000
DSTYLE
1002
{
1070
   288
1070
     1
1002
}
  0
CIRCLE
  5
63D8
330
1E
100
AcDbEntity
  8
10
  6
CONTINOUS
100
AcDbCircle
 10
27.33609453517126
 20
-0.7476821548369195
 30
0.0
 40
3.6
  0
CIRCLE
  5
63D9
330
1E
100
AcDbEntity
  8
10
  6
CONTINOUS
100
AcDbCircle
 10
27.33609453517126
 20
-0.7476821548369195
 30
0.0
 40
2.6
  0
LINE
  5
63DA
330
1E
100
AcDbEntity
  8
10
  6
CONTINOUS
100
AcDbLine
 10
23.83609453517125
 20
-6.347682154836912
 30
0.0
 11
31.83609453517125
 21
-6.347682154836912
 31
0.0
  0
LINE
  5
63DC
330
1E
100
AcDbEntity
  8
10
  6
CONTINOUS
100
AcDbLine
 10
23.83609453517125
 20
-9.347682154836912
 30
0.0
 11
31.83609453517125
 21
-9.347682154836912
 31
0.0
  0
LINE
  5
63DF
330
1E
100
AcDbEntity
  8
10
  6
CONTINOUS
100
AcDbLine
 10
23.83609453517125
 20
-9.347682154836912
 30
0.0
 11
23.83609453517125
 21
-6.347682154836912
 31
0.0
  0
LINE
  5
63E0
330
1E
100
AcDbEntity
  8
10
  6
CONTINOUS
100
AcDbLine
 10
31.83609453517125
 20
-9.347682154836912
 30
0.0
 11
31.83609453517125
 21
-6.347682154836912
 31
0.0
  0
CIRCLE
  5
63E2
330
1E
100
AcDbEntity
  8
10
  6
CONTINOUS
100
AcDbCircle
 10
27.33609453517126
 20
6.952317845163097
 30
0.0
 40
3.0
  0
LINE
  5
6401
330
1E
100
AcDbEntity
  8
18
  6
DIVIDE
100
AcDbLine
 10
43.1360945351713
 20
-23.84768215483691
 30
0.0
 11
43.1360945351713
 21
-130.3578701160712
 31
0.0
  0
LINE
  5
6402
330
1E
100
AcDbEntity
  8
18
  6
DIVIDE
100
AcDbLine
 10
41.13609453517129
 20
-23.84768215483691
 30
0.0
 11
41.13609453517129
 21
-130.3691518090075
 31
0.0
  0
LINE
  5
6403
330
1E
100
AcDbEntity
  8
18
  6
DIVIDE
100
AcDbLine
 10
41.13609453517129
 20
-133.3691518090075
 30
0.0
 11
41.13609453517129
 21
-152.6936430974529
 31
0.0
  0
LINE
  5
6404
330
1E
100
AcDbEntity
  8
18
  6
DIVIDE
100
AcDbLine
 10
43.1360945351713
 20
-133.357870116071
 30
0.0
 11
43.1360945351713
 21
-152.6936430974529
 31
0.0
  0
SPLINE
  5
6405
330
1E
100
AcDbEntity
  8
18
  6
DIVIDE
100
AcDbSpline
210
0.0
220
0.0
230
1.0
 70
     8
 71
     3
 72
    12
 73
     8
 74
     0
 42
0.000000001
 43
0.0000000001
 40
0.0
 40
0.0
 40
0.0
 40
0.0
 40
0.25
 40
0.5
 40
0.75
 40
0.9027560157721172
 40
1.0
 40
1.0
 40
1.0
 40
1.0
 10
43.1360945351713
 20
-152.6936430974529
 30
0.0
 10
43.29302173423996
 20
-153.8821971874062
 30
0.0
 10
43.51199052070909
 20
-154.7684605642108
 30
0.0
 10
43.9029671779172
 20
-155.8795017209408
 30
0.0
 10
44.49047940976969
 20
-157.2794736280413
 30
0.0
 10
44.79308536124952
 20
-158.0503931566244
 30
0.0
 10
45.05352566478578
 20
-158.7292315908342
 30
0.0
 10
45.23884316298652
 20
-159.2697409605865
 30
0.0
  0
ARC
  5
6406
330
1E
100
AcDbEntity
  8
18
  6
DIVIDE
100
AcDbCircle
 10
42.13609453517128
 20
-160.3936430974528
 30
0.0
 40
3.299999999999998
100
AcDbArc
 50
160.0881997351805
 51
19.91180026481935
  0
CIRCLE
  5
6407
330
1E
100
AcDbEntity
  8
18
  6
DIVIDE
100
AcDbCircle
 10
42.13609453517128
 20
-160.3936430974528
 30
0.0
 40
2.149999999999999
  0
SPLINE
  5
6408
330
1E
100
AcDbEntity
  8
18
  6
DIVIDE
100
AcDbSpline
210
0.0
220
0.0
230
1.0
 70
     8
 71
     3
 72
    12
 73
     8
 74
     0
 42
0.000000001
 43
0.0000000001
 40
0.0
 40
0.0
 40
0.0
 40
0.0
 40
0.25
 40
0.5
 40
0.75
 40
0.9027560157721172
 40
1.0
 40
1.0
 40
1.0
 40
1.0
 10
41.13609453517129
 20
-152.6936430974529
 30
0.0
 10
40.97916733610263
 20
-153.8821971874062
 30
0.0
 10
40.7601985496335
 20
-154.7684605642108
 30
0.0
 10
40.36922189242538
 20
-155.8795017209408
 30
0.0
 10
39.78170966057295
 20
-157.2794736280413
 30
0.0
 10
39.47910370909304
 20
-158.0503931566244
 30
0.0
 10
39.21866340555679
 20
-158.7292315908342
 30
0.0
 10
39.03334590735612
 20
-159.2697409605865
 30
0.0
  0
LINE
  5
6409
330
1E
100
AcDbEntity
  8
18
  6
DIVIDE
100
AcDbLine
 10
42.13609453517128
 20
-148.6936430974528
 30
0.0
 11
42.13609453517128
 21
-152.6936430974529
 31
0.0
  0
LINE
  5
640A
330
1E
100
AcDbEntity
  8
18
  6
DIVIDE
100
AcDbLine
 10
41.13609453517129
 20
-152.6936430974529
 30
0.0
 11
43.1360945351713
 21
-152.6936430974529
 31
0.0
  0
LINE
  5
640B
330
1E
100
AcDbEntity
  8
18
  6
DIVIDE
100
AcDbLine
 10
41.13609453517129
 20
-148.6936430974528
 30
0.0
 11
43.1360945351713
 21
-148.6936430974528
 31
0.0
  0
SPLINE
  5
640C
330
1E
100
AcDbEntity
  8
18
  6
DIVIDE
100
AcDbSpline
210
0.0
220
0.0
230
1.0
 70
     8
 71
     3
 72
     8
 73
     4
 74
     0
 42
0.000000001
 43
0.0000000001
 40
0.0
 40
0.0
 40
0.0
 40
0.0
 40
1.0
 40
1.0
 40
1.0
 40
1.0
 10
41.13609453590389
 20
-133.3691518090077
 30
0.0
 10
41.68242120519692
 20
-132.4096160841965
 30
0.0
 10
42.62362152082504
 20
-134.6664685343602
 30
0.0
 10
43.13609453633806
 20
-133.3578701160712
 30
0.0
  0
SPLINE
  5
640D
330
1E
100
AcDbEntity
  8
18
  6
DIVIDE
100
AcDbSpline
210
0.0
220
0.0
230
1.0
 70
     8
 71
     3
 72
     8
 73
     4
 74
     0
 42
0.000000001
 43
0.0000000001
 40
0.0
 40
0.0
 40
0.0
 40
0.0
 40
1.0
 40
1.0
 40
1.0
 40
1.0
 10
41.13609453590389
 20
-130.3691518090075
 30
0.0
 10
41.68242120519692
 20
-129.4096160841965
 30
0.0
 10
42.62362152082504
 20
-131.6664685343602
 30
0.0
 10
43.13609453633806
 20
-130.3578701160712
 30
0.0
  0
MTEXT
  5
6473
330
1E
100
AcDbEntity
  8
30
  6
Continuous
100
AcDbMText
 10
142.8081801492899
 20
246.1507282366762
 30
0.0
 40
5.0
 41
139.5915999999999
 71
     1
 72
     5
  1
ZNS100-NF 3P FC\PZNS125-NF 3P FC
  7
STANDARD1
 73
     1
 44
1.0
1001
ACAD
1000
MTEXTBEGIN
1070
    73
1070
     1
1070
    44
1040
1.0
1070
    74
1070
     0
1000
MTEXTEND
  0
LINE
  5
6553
330
1E
100
AcDbEntity
  8
16
100
AcDbLine
 10
1.118191000000025
 20
138.8907962873183
 30
0.0
 11
1.118191000000025
 21
281.3907962873182
 31
0.0
  0
LINE
  5
6554
330
1E
100
AcDbEntity
  8
10
  6
CONTINOUS
100
AcDbLine
 10
-43.86390546482856
 20
175.287231257776
 30
0.0
 11
-43.86390546482869
 21
236.2872312577758
 31
0.0
  0
LINE
  5
6555
330
1E
100
AcDbEntity
  8
10
  6
CONTINOUS
100
AcDbLine
 10
46.13609453517128
 20
175.2872312577761
 30
0.0
 11
46.13609453517128
 21
236.2872312577758
 31
0.0
  0
LINE
  5
6556
330
1E
100
AcDbEntity
  8
10
  6
CONTINOUS
100
AcDbLine
 10
-43.86390546482846
 20
168.2872312577755
 30
0.0
 11
46.13609453517128
 21
168.2872312577757
 31
0.0
  0
LINE
  5
6557
330
1E
100
AcDbEntity
  8
10
  6
CONTINOUS
100
AcDbLine
 10
-43.86390546482856
 20
175.2872312577755
 30
0.0
 11
46.13609453517128
 21
175.287231257776
 31
0.0
  0
LINE
  5
6558
330
1E
100
AcDbEntity
  8
10
  6
CONTINOUS
100
AcDbLine
 10
46.13609453517128
 20
168.2872312577757
 30
0.0
 11
46.13609453517128
 21
175.287231257776
 31
0.0
  0
LINE
  5
6559
330
1E
100
AcDbEntity
  8
10
  6
CONTINOUS
100
AcDbLine
 10
-9.899712535171246
 20
160.2872312577759
 30
0.0
 11
12.11819099999999
 21
160.2872312577759
 31
0.0
  0
LINE
  5
655A
330
1E
100
AcDbEntity
  8
10
  6
CONTINOUS
100
AcDbLine
 10
12.11819099999999
 20
160.2872312577759
 30
0.0
 11
12.11819099999999
 21
164.2872312577758
 31
0.0
  0
LINE
  5
655B
330
1E
100
AcDbEntity
  8
10
  6
CONTINOUS
100
AcDbLine
 10
-9.899712535171246
 20
160.2872312577759
 30
0.0
 11
-9.899712535171246
 21
164.2872312577758
 31
0.0
  0
LINE
  5
655C
330
1E
100
AcDbEntity
  8
10
  6
CONTINOUS
100
AcDbLine
 10
-43.86390546482856
 20
168.2872312577755
 30
0.0
 11
-43.86390546482856
 21
175.2872312577755
 31
0.0
  0
LINE
  5
655D
330
1E
100
AcDbEntity
  8
10
  6
CONTINOUS
100
AcDbLine
 10
-43.86390546482869
 20
236.2872312577758
 30
0.0
 11
46.13609453517128
 21
236.2872312577758
 31
0.0
  0
LINE
  5
655E
330
1E
100
AcDbEntity
  8
24
  6
CONTINOUS
100
AcDbLine
 10
31.11819100000001
 20
200.0872312577757
 30
0.0
 11
31.11819100000001
 21
217.287231257776
 31
0.0
  0
LINE
  5
655F
330
1E
100
AcDbEntity
  8
24
  6
CONTINOUS
100
AcDbLine
 10
20.61819100000002
 20
212.287231257776
 30
0.0
 11
41.61819100000013
 21
212.287231257776
 31
0.0
  0
LINE
  5
6560
330
1E
100
AcDbEntity
  8
24
  6
CONTINOUS
100
AcDbLine
 10
23.41819100000009
 20
210.2872312577759
 30
0.0
 11
38.81819100000006
 21
210.2872312577759
 31
0.0
  0
LINE
  5
6561
330
1E
100
AcDbEntity
  8
24
  6
CONTINOUS
100
AcDbLine
 10
26.11819100000001
 20
205.0872312577759
 30
0.0
 11
36.11819100000001
 21
205.0872312577759
 31
0.0
  0
LINE
  5
6562
330
1E
100
AcDbEntity
  8
24
  6
CONTINOUS
100
AcDbLine
 10
20.61819100000002
 20
214.287231257776
 30
0.0
 11
41.61819100000013
 21
214.287231257776
 31
0.0
  0
LINE
  5
6563
330
1E
100
AcDbEntity
  8
24
  6
CONTINOUS
100
AcDbLine
 10
38.81819100000006
 20
210.2872312577759
 30
0.0
 11
38.81819100000006
 21
212.287231257776
 31
0.0
  0
ARC
  5
6564
330
1E
100
AcDbEntity
  8
24
  6
CONTINOUS
100
AcDbCircle
 10
36.11819100000005
 20
207.0872312577759
 30
0.0
 40
2.0
100
AcDbArc
 50
270.0
 51
0.0
  0
LINE
  5
6565
330
1E
100
AcDbEntity
  8
24
  6
CONTINOUS
100
AcDbLine
 10
38.11819100000003
 20
207.0872312577759
 30
0.0
 11
38.11819100000003
 21
210.2872312577759
 31
0.0
  0
LINE
  5
6566
330
1E
100
AcDbEntity
  8
24
  6
CONTINOUS
100
AcDbLine
 10
23.41819100000009
 20
210.2872312577759
 30
0.0
 11
23.41819100000009
 21
212.287231257776
 31
0.0
  0
ARC
  5
6567
330
1E
100
AcDbEntity
  8
24
  6
CONTINOUS
100
AcDbCircle
 10
26.11819100000005
 20
207.0872312577759
 30
0.0
 40
2.0
100
AcDbArc
 50
180.0
 51
270.0
  0
LINE
  5
6568
330
1E
100
AcDbEntity
  8
24
  6
CONTINOUS
100
AcDbLine
 10
24.11819100000002
 20
207.0872312577759
 30
0.0
 11
24.11819100000002
 21
210.2872312577759
 31
0.0
  0
LINE
  5
6569
330
1E
100
AcDbEntity
  8
24
  6
CONTINOUS
100
AcDbLine
 10
-9.381808999999948
 20
214.287231257776
 30
0.0
 11
11.61819100000012
 21
214.287231257776
 31
0.0
  0
LINE
  5
656A
330
1E
100
AcDbEntity
  8
24
  6
CONTINOUS
100
AcDbLine
 10
-6.581808999999912
 20
210.2872312577759
 30
0.0
 11
8.818191000000066
 21
210.2872312577759
 31
0.0
  0
LINE
  5
656B
330
1E
100
AcDbEntity
  8
24
  6
CONTINOUS
100
AcDbLine
 10
-9.381808999999948
 20
212.287231257776
 30
0.0
 11
11.61819100000012
 21
212.287231257776
 31
0.0
  0
ARC
  5
656C
330
1E
100
AcDbEntity
  8
24
  6
CONTINOUS
100
AcDbCircle
 10
6.118191000000047
 20
207.0872312577759
 30
0.0
 40
2.0
100
AcDbArc
 50
270.0
 51
0.0
  0
LINE
  5
656D
330
1E
100
AcDbEntity
  8
24
  6
CONTINOUS
100
AcDbLine
 10
-5.881808999999975
 20
207.0872312577759
 30
0.0
 11
-5.881808999999975
 21
210.2872312577759
 31
0.0
  0
LINE
  5
656E
330
1E
100
AcDbEntity
  8
24
  6
CONTINOUS
100
AcDbLine
 10
1.118191000000021
 20
200.0872312577757
 30
0.0
 11
1.118191000000021
 21
217.287231257776
 31
0.0
  0
LINE
  5
656F
330
1E
100
AcDbEntity
  8
24
  6
CONTINOUS
100
AcDbLine
 10
-3.881808999999975
 20
205.0872312577759
 30
0.0
 11
6.118191000000022
 21
205.0872312577759
 31
0.0
  0
ARC
  5
6570
330
1E
100
AcDbEntity
  8
24
  6
CONTINOUS
100
AcDbCircle
 10
-3.88180899999995
 20
207.0872312577759
 30
0.0
 40
2.0
100
AcDbArc
 50
180.0
 51
270.0
  0
LINE
  5
6571
330
1E
100
AcDbEntity
  8
24
  6
CONTINOUS
100
AcDbLine
 10
-6.581808999999912
 20
210.2872312577759
 30
0.0
 11
-6.581808999999912
 21
212.287231257776
 31
0.0
  0
LINE
  5
6572
330
1E
100
AcDbEntity
  8
24
  6
CONTINOUS
100
AcDbLine
 10
8.118191000000022
 20
207.0872312577759
 30
0.0
 11
8.118191000000022
 21
210.2872312577759
 31
0.0
  0
LINE
  5
6573
330
1E
100
AcDbEntity
  8
24
  6
CONTINOUS
100
AcDbLine
 10
8.818191000000066
 20
210.2872312577759
 30
0.0
 11
8.818191000000066
 21
212.287231257776
 31
0.0
  0
LINE
  5
6574
330
1E
100
AcDbEntity
  8
24
  6
CONTINOUS
100
AcDbLine
 10
-33.88180899999997
 20
205.0872312577759
 30
0.0
 11
-23.88180899999995
 21
205.0872312577759
 31
0.0
  0
LINE
  5
6575
330
1E
100
AcDbEntity
  8
24
  6
CONTINOUS
100
AcDbLine
 10
-39.38180899999996
 20
212.287231257776
 30
0.0
 11
-18.38180899999984
 21
212.287231257776
 31
0.0
  0
LINE
  5
6576
330
1E
100
AcDbEntity
  8
24
  6
CONTINOUS
100
AcDbLine
 10
-36.5818089999999
 20
210.2872312577759
 30
0.0
 11
-21.1818089999999
 21
210.2872312577759
 31
0.0
  0
LINE
  5
6577
330
1E
100
AcDbEntity
  8
24
  6
CONTINOUS
100
AcDbLine
 10
-39.38180899999996
 20
214.287231257776
 30
0.0
 11
-18.38180899999984
 21
214.287231257776
 31
0.0
  0
LINE
  5
6578
330
1E
100
AcDbEntity
  8
24
  6
CONTINOUS
100
AcDbLine
 10
-28.88180899999995
 20
200.0872312577757
 30
0.0
 11
-28.88180899999995
 21
217.287231257776
 31
0.0
  0
LINE
  5
6579
330
1E
100
AcDbEntity
  8
24
  6
CONTINOUS
100
AcDbLine
 10
-35.88180899999997
 20
207.0872312577759
 30
0.0
 11
-35.88180899999997
 21
210.2872312577759
 31
0.0
  0
ARC
  5
657A
330
1E
100
AcDbEntity
  8
24
  6
CONTINOUS
100
AcDbCircle
 10
-33.88180899999993
 20
207.0872312577759
 30
0.0
 40
2.0
100
AcDbArc
 50
180.0
 51
270.0
  0
LINE
  5
657B
330
1E
100
AcDbEntity
  8
24
  6
CONTINOUS
100
AcDbLine
 10
-36.5818089999999
 20
210.2872312577759
 30
0.0
 11
-36.5818089999999
 21
212.287231257776
 31
0.0
  0
LINE
  5
657C
330
1E
100
AcDbEntity
  8
24
  6
CONTINOUS
100
AcDbLine
 10
-21.88180899999995
 20
207.0872312577759
 30
0.0
 11
-21.88180899999995
 21
210.2872312577759
 31
0.0
  0
ARC
  5
657D
330
1E
100
AcDbEntity
  8
24
  6
CONTINOUS
100
AcDbCircle
 10
-23.88180899999994
 20
207.0872312577759
 30
0.0
 40
2.0
100
AcDbArc
 50
270.0
 51
0.0
  0
LINE
  5
657E
330
1E
100
AcDbEntity
  8
24
  6
CONTINOUS
100
AcDbLine
 10
-21.1818089999999
 20
210.2872312577759
 30
0.0
 11
-21.1818089999999
 21
212.287231257776
 31
0.0
  0
LINE
  5
657F
330
1E
100
AcDbEntity
  8
10
  6
CONTINOUS
100
AcDbLine
 10
-40.86390546482856
 20
164.3221446703885
 30
0.0
 11
43.11819099999999
 21
164.3221446703885
 31
0.0
  0
LINE
  5
6580
330
1E
100
AcDbEntity
  8
10
  6
CONTINOUS
100
AcDbLine
 10
43.11819099999998
 20
164.3221446703885
 30
0.0
 11
43.11819099999998
 21
168.2872312577757
 31
0.0
  0
LINE
  5
6581
330
1E
100
AcDbEntity
  8
10
  6
CONTINOUS
100
AcDbLine
 10
-40.86390546482856
 20
164.3221446703885
 30
0.0
 11
-40.86390546482856
 21
168.2872312577755
 31
0.0
  0
DIMENSION
  5
6582
330
1E
100
AcDbEntity
  8
30
  6
Continuous
100
AcDbDimension
  2
*D35
 10
1.136094535171281
 20
256.7596756998463
 30
0.0
 11
-13.87285723241433
 21
259.7596756998463
 31
0.0
 70
    32
 71
     5
 42
30.01790353517123
  3
STANDARD
100
AcDbAlignedDimension
 13
-28.88180899999995
 23
219.1523178451631
 33
0.0
 14
1.136094535171281
 24
256.7596756998463
 34
0.0
100
AcDbRotatedDimension
1001
ACAD
1000
DSTYLE
1002
{
1070
    79
1070
     3
1002
}
  0
DIMENSION
  5
6583
330
1E
100
AcDbEntity
  8
30
  6
Continuous
100
AcDbDimension
  2
*D36
 10
1.136094535171281
 20
257.1523178451631
 30
0.0
 11
16.12714276758564
 21
260.1523178451631
 31
0.0
 70
    32
 71
     5
 42
29.98209646482873
  3
STANDARD
100
AcDbAlignedDimension
 13
31.11819100000001
 23
219.1523178451631
 33
0.0
 14
1.136094535171281
 24
256.7596756998463
 34
0.0
100
AcDbRotatedDimension
1001
ACAD
1000
DSTYLE
1002
{
1070
    79
1070
     3
1002
}
  0
DIMENSION
  5
6584
330
1E
100
AcDbEntity
  8
30
  6
Continuous
100
AcDbDimension
  2
*D37
 10
55.13609453517127
 20
175.2872312577761
 30
0.0
 11
52.13609453517126
 21
205.7872312577759
 31
0.0
 70
    32
 71
     5
 42
60.99999999999965
  3
STANDARD
100
AcDbAlignedDimension
 13
46.13609453517128
 23
236.2872312577758
 33
0.0
 14
46.13609453517128
 24
175.2872312577761
 34
0.0
 50
90.0
100
AcDbRotatedDimension
1001
ACAD
1000
DSTYLE
1002
{
1070
    79
1070
     3
1002
}
  0
DIMENSION
  5
6585
330
1E
100
AcDbEntity
  8
30
  6
Continuous
100
AcDbDimension
  2
*D38
 10
62.13609453517128
 20
168.2872312577757
 30
0.0
 11
59.13609453517126
 21
202.2872312577757
 31
0.0
 70
    32
 71
     5
 42
68.00000000000006
  3
STANDARD
100
AcDbAlignedDimension
 13
46.13609453517128
 23
236.2872312577758
 33
0.0
 14
46.13609453517128
 24
168.2872312577757
 34
0.0
 50
90.0
100
AcDbRotatedDimension
1001
ACAD
1000
DSTYLE
1002
{
1070
    79
1070
     3
1002
}
  0
DIMENSION
  5
6586
330
1E
100
AcDbEntity
  8
30
  6
Continuous
100
AcDbDimension
  2
*D39
 10
70.13609453517128
 20
164.3221446703885
 30
0.0
 11
67.13609453517126
 21
200.3046879640821
 31
0.0
 70
    32
 71
     5
 42
71.96508658738725
  3
STANDARD
100
AcDbAlignedDimension
 13
46.13609453517128
 23
236.2872312577758
 33
0.0
 14
43.11819099999999
 24
164.3221446703885
 34
0.0
 50
90.0
100
AcDbRotatedDimension
1001
ACAD
1000
DSTYLE
1002
{
1070
    79
1070
     3
1002
}
  0
DIMENSION
  5
6587
330
1E
100
AcDbEntity
  8
30
  6
Continuous
100
AcDbDimension
  2
*D40
 10
78.13609453517127
 20
160.2872312577759
 30
0.0
 11
75.13609453517124
 21
198.2872312577758
 31
0.0
 70
    32
 71
     5
 42
75.99999999999983
  3
STANDARD
100
AcDbAlignedDimension
 13
46.13609453517128
 23
236.2872312577758
 33
0.0
 14
12.11819099999999
 24
160.2872312577759
 34
0.0
 50
90.0
100
AcDbRotatedDimension
1001
ACAD
1000
DSTYLE
1002
{
1070
    79
1070
     3
1002
}
  0
LINE
  5
6588
330
1E
100
AcDbEntity
  8
10
  6
CONTINOUS
100
AcDbLine
 10
-5.881808999999954
 20
160.2872312577759
 30
0.0
 11
-5.881808999999954
 21
148.2872312577759
 31
0.0
  0
LINE
  5
6589
330
1E
100
AcDbEntity
  8
10
  6
CONTINOUS
100
AcDbLine
 10
-5.881808999999954
 20
148.2872312577759
 30
0.0
 11
8.118191000000043
 21
148.2872312577759
 31
0.0
  0
LINE
  5
658A
330
1E
100
AcDbEntity
  8
10
  6
CONTINOUS
100
AcDbLine
 10
8.118191000000043
 20
148.2872312577759
 30
0.0
 11
8.118191000000043
 21
160.2872312577759
 31
0.0
  0
VIEWPORT
  5
9AC
102
{ACAD_XDICTIONARY
360
6682
102
}
330
1A
100
AcDbEntity
 67
     1
  8
0
  6
Continuous
100
AcDbViewport
 10
171.999535
 20
144.1384739999999
 30
0.0
 40
488.867686
 41
292.351491
 68
    -1
 69
     1
 12
171.999535
 22
144.1384739999999
 13
0.0
 23
0.0
 14
10.0
 24
10.0
 15
10.0
 25
10.0
 16
0.0
 26
0.0
 36
1.0
 17
0.0
 27
0.0
 37
0.0
 42
50.0
 43
0.0
 44
0.0
 45
292.351491
 50
0.0
 51
0.0
 72
   100
 90
    32800
  1

281
     0
 71
     1
 74
     0
110
0.0
120
0.0
130
0.0
111
1.0
121
0.0
131
0.0
112
0.0
122
1.0
132
0.0
 79
     0
146
0.0
  0
ENDSEC
  0
SECTION
  2
OBJECTS
  0
DICTIONARY
  5
C
330
0
100
AcDbDictionary
281
     1
  3
ACAD_CIP_PREVIOUS_PRODUCT_INFO
350
64CB
  3
ACAD_COLOR
350
64AF
  3
ACAD_DETAILVIEWSTYLE
350
64C8
  3
ACAD_GROUP
350
D
  3
ACAD_LAYOUT
350
19
  3
ACAD_MATERIAL
350
647D
  3
ACAD_MLEADERSTYLE
350
64C4
  3
ACAD_MLINESTYLE
350
16
  3
ACAD_PLOTSETTINGS
350
18
  3
ACAD_PLOTSTYLENAME
350
E
  3
ACAD_SCALELIST
350
64B2
  3
ACAD_SECTIONVIEWSTYLE
350
64C6
  3
ACAD_TABLESTYLE
350
64B0
  3
ACAD_VISUALSTYLE
350
6496
  3
ACADDIM
350
5C76
  3
ACDB_RECOMPOSE_DATA
350
6680
  3
ACDBVARIABLEDICTIONARY
350
5697
  3
DWGPROPS
350
6681
  0
DICTIONARY
  5
6612
330
10
100
AcDbDictionary
280
     1
281
     1
  3
ADSK_XREC_LAYER_RECONCILED
360
6613
  0
DICTIONARY
  5
6614
330
2F
100
AcDbDictionary
280
     1
281
     1
  3
ADSK_XREC_LAYER_RECONCILED
360
6615
  0
DICTIONARY
  5
6616
330
31
100
AcDbDictionary
280
     1
281
     1
  3
ADSK_XREC_LAYER_RECONCILED
360
6617
  0
DICTIONARY
  5
6618
330
35
100
AcDbDictionary
280
     1
281
     1
  3
ADSK_XREC_LAYER_RECONCILED
360
6619
  0
DICTIONARY
  5
661A
330
38
100
AcDbDictionary
280
     1
281
     1
  3
ADSK_XREC_LAYER_RECONCILED
360
661B
  0
DICTIONARY
  5
661C
330
3C
100
AcDbDictionary
280
     1
281
     1
  3
ADSK_XREC_LAYER_RECONCILED
360
661D
  0
DICTIONARY
  5
661E
330
3D
100
AcDbDictionary
280
     1
281
     1
  3
ADSK_XREC_LAYER_RECONCILED
360
661F
  0
DICTIONARY
  5
6620
330
3A2
100
AcDbDictionary
280
     1
281
     1
  3
ADSK_XREC_LAYER_RECONCILED
360
6621
  0
DICTIONARY
  5
6622
330
3BBA
100
AcDbDictionary
280
     1
281
     1
  3
ADSK_XREC_LAYER_RECONCILED
360
6623
  0
DICTIONARY
  5
6624
330
5116
100
AcDbDictionary
280
     1
281
     1
  3
ADSK_XREC_LAYER_RECONCILED
360
6625
  0
DICTIONARY
  5
6626
330
5117
100
AcDbDictionary
280
     1
281
     1
  3
ADSK_XREC_LAYER_RECONCILED
360
6627
  0
DICTIONARY
  5
6628
330
5C47
100
AcDbDictionary
280
     1
281
     1
  3
ADSK_XREC_LAYER_RECONCILED
360
6629
  0
DICTIONARY
  5
178
330
1E
100
AcDbDictionary
280
     1
281
     1
  3
ACAD_LAYOUTSELFREF
360
645F
  0
DICTIONARY
  5
17A
330
1A
100
AcDbDictionary
280
     1
281
     1
  3
ACAD_LAYOUTSELFREF
360
645E
  0
DICTIONARY
  5
6682
330
9AC
100
AcDbDictionary
280
     1
281
     1
  3
ACAD_XREC_ROUNDTRIP
360
6683
  0
XRECORD
  5
64CB
102
{ACAD_REACTORS
330
C
102
}
330
C
100
AcDbXrecord
280
     1
300
ACDLT
300
2015
300
ACDLT_F_S
  0
DICTIONARY
  5
64AF
102
{ACAD_REACTORS
330
C
102
}
330
C
100
AcDbDictionary
281
     1
  0
DICTIONARY
  5
64C8
102
{ACAD_REACTORS
330
C
102
}
330
C
100
AcDbDictionary
281
     1
  3
Imperial24
350
64C9
  0
DICTIONARY
  5
D
102
{ACAD_REACTORS
330
C
102
}
330
C
100
AcDbDictionary
281
     1
  0
DICTIONARY
  5
19
102
{ACAD_REACTORS
330
C
102
}
330
C
100
AcDbDictionary
281
     1
  3
Model
350
6470
  3
ﾚｲｱｳﾄ1
350
6471
  0
DICTIONARY
  5
647D
102
{ACAD_REACTORS
330
C
102
}
330
C
100
AcDbDictionary
281
     1
  3
ByBlock
350
6486
  3
ByLayer
350
647E
  3
Global
350
648E
  0
DICTIONARY
  5
64C4
102
{ACAD_REACTORS
330
C
102
}
330
C
100
AcDbDictionary
281
     1
  3
Standard
350
64C5
  0
DICTIONARY
  5
16
102
{ACAD_REACTORS
330
C
102
}
330
C
100
AcDbDictionary
281
     1
  3
STANDARD
350
17
  0
DICTIONARY
  5
18
102
{ACAD_REACTORS
330
C
102
}
330
C
100
AcDbDictionary
281
     1
  0
ACDBDICTIONARYWDFLT
  5
E
102
{ACAD_REACTORS
330
C
102
}
330
C
100
AcDbDictionary
281
     1
  3
Normal
350
F
100
AcDbDictionaryWithDefault
340
F
  0
DICTIONARY
  5
64B2
102
{ACAD_REACTORS
330
C
102
}
330
C
100
AcDbDictionary
281
     1
  3
A0
350
64B3
  3
A1
350
64B4
  3
A2
350
64B5
  3
A3
350
64B6
  3
A4
350
64B7
  3
A5
350
64B8
  3
A6
350
64B9
  3
A7
350
64BA
  3
A8
350
64BB
  3
A9
350
64BC
  3
B0
350
64BD
  3
B1
350
64BE
  3
B2
350
64BF
  3
B3
350
64C0
  3
B4
350
64C1
  3
B5
350
64C2
  3
B6
350
64C3
  0
DICTIONARY
  5
64C6
102
{ACAD_REACTORS
330
C
102
}
330
C
100
AcDbDictionary
281
     1
  3
Imperial24
350
64C7
  0
DICTIONARY
  5
64B0
102
{ACAD_REACTORS
330
C
102
}
330
C
100
AcDbDictionary
281
     1
  3
Standard
350
64B1
  0
DICTIONARY
  5
6496
102
{ACAD_REACTORS
330
C
102
}
330
C
100
AcDbDictionary
281
     1
  3
2dWireframe
350
649C
  3
Basic
350
649B
  3
Brighten
350
64A2
  3
ColorChange
350
64A6
  3
Conceptual
350
649F
  3
Dim
350
64A1
  3
EdgeColorOff
350
64AE
  3
Facepattern
350
64A5
  3
Flat
350
6497
  3
FlatWithEdges
350
6498
  3
Gouraud
350
6499
  3
GouraudWithEdges
350
649A
  3
Hidden
350
649E
  3
JitterOff
350
64AC
  3
Linepattern
350
64A4
  3
OverhangOff
350
64AD
  3
Realistic
350
64A0
  3
Shaded
350
64AB
  3
Shaded with edges
350
64AA
  3
Shades of Gray
350
64A7
  3
Sketchy
350
64A8
  3
Thicken
350
64A3
  3
Wireframe
350
649D
  3
X-Ray
350
64A9
  0
XRECORD
  5
5C76
102
{ACAD_REACTORS
330
C
102
}
330
C
100
AcDbXrecord
280
     1
 90
   990106
  3

 60
     0
 61
     0
 62
     1
 63
     3
 64
     0
 65
     0
 66
     0
 67
     3
 68
     1
 69
     0
 70
     0
 71
     0
 72
     0
 40
0.0
170
     0
340
6068
  0
XRECORD
  5
6680
102
{ACAD_REACTORS
330
C
102
}
330
C
100
AcDbXrecord
280
     1
 90
        1
330
64B1
  0
DICTIONARY
  5
5697
102
{ACAD_REACTORS
330
C
102
}
330
C
100
AcDbDictionary
281
     1
  3
CANNOSCALE
350
662E
  3
CMLEADERSTYLE
350
662B
  3
CTABLESTYLE
350
662A
  3
CVIEWDETAILSTYLE
350
662C
  3
CVIEWSECTIONSTYLE
350
662D
  3
DIMASSOC
350
5698
  3
INDEXCTL
350
6630
  3
SORTENTS
350
662F
  3
XCLIPFRAME
350
6631
  0
XRECORD
  5
6681
102
{ACAD_REACTORS
330
C
102
}
330
C
100
AcDbXrecord
280
     1
  1
DWGPROPS COOKIE
  2

  3

  4

  6

  7

  8
ktomoto
  9

300
=
301
=
302
=
303
=
304
=
305
=
306
=
307
=
308
=
309
=
 40
1.244011863425925
 41
2452286.555658658
 42
2457458.639415417
  1

 90
        0
  0
XRECORD
  5
6613
102
{ACAD_REACTORS
330
6612
102
}
330
6612
100
AcDbXrecord
280
     1
290
     1
  0
XRECORD
  5
6615
102
{ACAD_REACTORS
330
6614
102
}
330
6614
100
AcDbXrecord
280
     1
290
     1
  0
XRECORD
  5
6617
102
{ACAD_REACTORS
330
6616
102
}
330
6616
100
AcDbXrecord
280
     1
290
     1
  0
XRECORD
  5
6619
102
{ACAD_REACTORS
330
6618
102
}
330
6618
100
AcDbXrecord
280
     1
290
     1
  0
XRECORD
  5
661B
102
{ACAD_REACTORS
330
661A
102
}
330
661A
100
AcDbXrecord
280
     1
290
     1
  0
XRECORD
  5
661D
102
{ACAD_REACTORS
330
661C
102
}
330
661C
100
AcDbXrecord
280
     1
290
     1
  0
XRECORD
  5
661F
102
{ACAD_REACTORS
330
661E
102
}
330
661E
100
AcDbXrecord
280
     1
290
     1
  0
XRECORD
  5
6621
102
{ACAD_REACTORS
330
6620
102
}
330
6620
100
AcDbXrecord
280
     1
290
     1
  0
XRECORD
  5
6623
102
{ACAD_REACTORS
330
6622
102
}
330
6622
100
AcDbXrecord
280
     1
290
     1
  0
XRECORD
  5
6625
102
{ACAD_REACTORS
330
6624
102
}
330
6624
100
AcDbXrecord
280
     1
290
     1
  0
XRECORD
  5
6627
102
{ACAD_REACTORS
330
6626
102
}
330
6626
100
AcDbXrecord
280
     1
290
     1
  0
XRECORD
  5
6629
102
{ACAD_REACTORS
330
6628
102
}
330
6628
100
AcDbXrecord
280
     1
290
     1
  0
XRECORD
  5
645F
102
{ACAD_REACTORS
330
178
102
}
330
178
100
AcDbXrecord
280
     1
340
1E
  0
XRECORD
  5
645E
102
{ACAD_REACTORS
330
17A
102
}
330
17A
100
AcDbXrecord
280
     1
340
1A
  0
XRECORD
  5
6683
102
{ACAD_REACTORS
330
6682
102
}
330
6682
100
AcDbXrecord
280
     1
102
SHADEPLOT
 70
     0
  0
ACDBDETAILVIEWSTYLE
  5
64C9
102
{ACAD_XDICTIONARY
360
66BF
102
}
102
{ACAD_REACTORS
330
64C8
102
}
330
64C8
100
AcDbModelDocViewStyle
 70
     0
  3
Imperial24
290
     0
100
AcDbDetailViewStyle
 70
     0
 71
     0
 90
        3
 71
     1
340
11
 40
0.24
340
0
 40
0.24
300

 40
0.36
280
     3
 71
     2
340
15
 90
       25
 71
     3
340
11
 40
0.24
 90
        1
 40
0.75
 90
        1
300
%<\AcVar ViewType \f "%tc1">% %<\AcVar ViewDetailId>%\PSCALE %<\AcVar ViewScale \f "%sn">%
 71
     4
340
15
 90
       25
340
15
 90
       25
280
     0
  0
LAYOUT
  5
6470
102
{ACAD_XDICTIONARY
360
6684
102
}
102
{ACAD_REACTORS
330
19
102
}
330
19
100
AcDbPlotSettings
  1

  2
none_device
  4
Letter_(8.50_x_11.00_Inches)
  6

 40
6.349999904632568
 41
6.349999904632568
 42
6.350006103515625
 43
6.350006103515625
 44
215.8999938964844
 45
279.3999938964844
 46
0.0
 47
0.0
 48
0.0
 49
0.0
140
0.0
141
0.0
142
1.0
143
110.8960411482903
 70
 11952
 72
     0
 73
     1
 74
     0
  7
monochrome.ctb
 75
     0
147
0.0090174544523442
148
7970.208392940229
149
5127.149513347236
100
AcDbLayout
  1
Model
 70
     1
 71
     0
 10
0.0
 20
0.0
 11
12.0
 21
9.0
 12
0.0
 22
0.0
 32
0.0
 14
0.0
 24
0.0
 34
0.0
 15
0.0
 25
0.0
 35
0.0
146
0.0
 13
0.0
 23
0.0
 33
0.0
 16
1.0
 26
0.0
 36
0.0
 17
0.0
 27
1.0
 37
0.0
 76
     0
330
1E
331
6475
1001
ACAD_PSEXT
1000
なし
1000
なし
1000
適切ではありません
1000
新しいプロッタ環境設定名を選択しない限り、レイアウトは印刷されません。
1070
     0
  0
LAYOUT
  5
6471
102
{ACAD_XDICTIONARY
360
6686
102
}
102
{ACAD_REACTORS
330
19
102
}
330
19
100
AcDbPlotSettings
  1

  2
Canon LBP3800 LIPSLX
  4

  6

 40
0.0
 41
0.0
 42
0.0
 43
0.0
 44
0.0
 45
0.0
 46
0.0
 47
0.0
 48
0.0
 49
0.0
140
0.0
141
0.0
142
1.0
143
1.0
 70
   688
 72
     0
 73
     0
 74
     5
  7
monochrome.ctb
 75
    16
147
1.0
148
0.0
149
0.0
100
AcDbLayout
  1
ﾚｲｱｳﾄ1
 70
     1
 71
     1
 10
-5.873749
 20
-5.87375
 11
204.099579
 21
291.1369009999999
 12
0.0
 22
0.0
 32
0.0
 14
4.273573
 24
5.205245999999998
 34
0.0
 15
194.610095
 25
283.0697009999996
 35
0.0
146
0.0
 13
0.0
 23
0.0
 33
0.0
 16
1.0
 26
0.0
 36
0.0
 17
0.0
 27
1.0
 37
0.0
 76
     0
330
1A
  0
MATERIAL
  5
6486
102
{ACAD_XDICTIONARY
360
6487
102
}
102
{ACAD_REACTORS
330
647D
102
}
330
647D
100
AcDbMaterial
  1
ByBlock
 72
     0
 43
0.0208333333333333
 43
0.0
 43
0.0
 43
0.0
 43
0.0
 43
0.0208333333333333
 43
0.0
 43
0.0
 43
0.0
 43
0.0
 43
1.0
 43
0.0
 43
0.0
 43
0.0
 43
0.0
 43
1.0
 77
     0
 47
0.0208333333333333
 47
0.0
 47
0.0
 47
0.0
 47
0.0
 47
0.0208333333333333
 47
0.0
 47
0.0
 47
0.0
 47
0.0
 47
1.0
 47
0.0
 47
0.0
 47
0.0
 47
0.0
 47
1.0
171
     0
 49
0.0208333333333333
 49
0.0
 49
0.0
 49
0.0
 49
0.0
 49
0.0208333333333333
 49
0.0
 49
0.0
 49
0.0
 49
0.0
 49
1.0
 49
0.0
 49
0.0
 49
0.0
 49
0.0
 49
1.0
175
     0
142
0.0208333333333333
142
0.0
142
0.0
142
0.0
142
0.0
142
0.0208333333333333
142
0.0
142
0.0
142
0.0
142
0.0
142
1.0
142
0.0
142
0.0
142
0.0
142
0.0
142
1.0
179
     0
144
0.0208333333333333
144
0.0
144
0.0
144
0.0
144
0.0
144
0.0208333333333333
144
0.0
144
0.0
144
0.0
144
0.0
144
1.0
144
0.0
144
0.0
144
0.0
144
0.0
144
1.0
147
0.0208333333333333
147
0.0
147
0.0
147
0.0
147
0.0
147
0.0208333333333333
147
0.0
147
0.0
147
0.0
147
0.0
147
1.0
147
0.0
147
0.0
147
0.0
147
0.0
147
1.0
  0
MATERIAL
  5
647E
102
{ACAD_XDICTIONARY
360
647F
102
}
102
{ACAD_REACTORS
330
647D
102
}
330
647D
100
AcDbMaterial
  1
ByLayer
 72
     0
 43
0.0208333333333333
 43
0.0
 43
0.0
 43
0.0
 43
0.0
 43
0.0208333333333333
 43
0.0
 43
0.0
 43
0.0
 43
0.0
 43
1.0
 43
0.0
 43
0.0
 43
0.0
 43
0.0
 43
1.0
 77
     0
 47
0.0208333333333333
 47
0.0
 47
0.0
 47
0.0
 47
0.0
 47
0.0208333333333333
 47
0.0
 47
0.0
 47
0.0
 47
0.0
 47
1.0
 47
0.0
 47
0.0
 47
0.0
 47
0.0
 47
1.0
171
     0
 49
0.0208333333333333
 49
0.0
 49
0.0
 49
0.0
 49
0.0
 49
0.0208333333333333
 49
0.0
 49
0.0
 49
0.0
 49
0.0
 49
1.0
 49
0.0
 49
0.0
 49
0.0
 49
0.0
 49
1.0
175
     0
142
0.0208333333333333
142
0.0
142
0.0
142
0.0
142
0.0
142
0.0208333333333333
142
0.0
142
0.0
142
0.0
142
0.0
142
1.0
142
0.0
142
0.0
142
0.0
142
0.0
142
1.0
179
     0
144
0.0208333333333333
144
0.0
144
0.0
144
0.0
144
0.0
144
0.0208333333333333
144
0.0
144
0.0
144
0.0
144
0.0
144
1.0
144
0.0
144
0.0
144
0.0
144
0.0
144
1.0
147
0.0208333333333333
147
0.0
147
0.0
147
0.0
147
0.0
147
0.0208333333333333
147
0.0
147
0.0
147
0.0
147
0.0
147
1.0
147
0.0
147
0.0
147
0.0
147
0.0
147
1.0
  0
MATERIAL
  5
648E
102
{ACAD_XDICTIONARY
360
648F
102
}
102
{ACAD_REACTORS
330
647D
102
}
330
647D
100
AcDbMaterial
  1
Global
 72
     0
 43
0.0208333333333333
 43
0.0
 43
0.0
 43
0.0
 43
0.0
 43
0.0208333333333333
 43
0.0
 43
0.0
 43
0.0
 43
0.0
 43
1.0
 43
0.0
 43
0.0
 43
0.0
 43
0.0
 43
1.0
 77
     0
 47
0.0208333333333333
 47
0.0
 47
0.0
 47
0.0
 47
0.0
 47
0.0208333333333333
 47
0.0
 47
0.0
 47
0.0
 47
0.0
 47
1.0
 47
0.0
 47
0.0
 47
0.0
 47
0.0
 47
1.0
171
     0
 49
0.0208333333333333
 49
0.0
 49
0.0
 49
0.0
 49
0.0
 49
0.0208333333333333
 49
0.0
 49
0.0
 49
0.0
 49
0.0
 49
1.0
 49
0.0
 49
0.0
 49
0.0
 49
0.0
 49
1.0
175
     0
142
0.0208333333333333
142
0.0
142
0.0
142
0.0
142
0.0
142
0.0208333333333333
142
0.0
142
0.0
142
0.0
142
0.0
142
1.0
142
0.0
142
0.0
142
0.0
142
0.0
142
1.0
179
     0
144
0.0208333333333333
144
0.0
144
0.0
144
0.0
144
0.0
144
0.0208333333333333
144
0.0
144
0.0
144
0.0
144
0.0
144
1.0
144
0.0
144
0.0
144
0.0
144
0.0
144
1.0
147
0.0208333333333333
147
0.0
147
0.0
147
0.0
147
0.0
147
0.0208333333333333
147
0.0
147
0.0
147
0.0
147
0.0
147
1.0
147
0.0
147
0.0
147
0.0
147
0.0
147
1.0
  0
MLEADERSTYLE
  5
64C5
102
{ACAD_REACTORS
330
64C4
102
}
330
64C4
100
AcDbMLeaderStyle
170
     2
171
     1
172
     0
 90
        2
 40
0.0
 41
0.0
173
     1
 91
-1056964608
340
13
 92
       -2
290
     1
 42
0.09
291
     1
 43
0.36
  3
Standard
 44
0.18
300

342
11
174
     1
178
     6
175
     1
176
     0
 93
-1056964608
 45
0.18
292
     0
297
     0
 46
0.18
 94
-1056964608
 47
1.0
 49
1.0
140
1.0
293
     1
141
0.0
294
     1
177
     0
142
1.0
295
     0
296
     0
143
0.125
1001
ACAD_MLEADERVER
1070
     2
  0
MLINESTYLE
  5
17
102
{ACAD_REACTORS
330
16
102
}
330
16
100
AcDbMlineStyle
  2
STANDARD
 70
     0
  3

 62
   256
 51
90.0
 52
90.0
 71
     2
 49
0.5
 62
   256
  6
BYLAYER
 49
-0.5
 62
   256
  6
BYLAYER
  0
ACDBPLACEHOLDER
  5
F
102
{ACAD_REACTORS
330
E
102
}
330
E
  0
SCALE
  5
64B3
102
{ACAD_REACTORS
330
64B2
102
}
330
64B2
100
AcDbScale
 70
     0
300
1:1
140
1.0
141
1.0
290
     1
  0
SCALE
  5
64B4
102
{ACAD_REACTORS
330
64B2
102
}
330
64B2
100
AcDbScale
 70
     0
300
1/128" = 1'-0"
140
0.0078125
141
12.0
290
     0
  0
SCALE
  5
64B5
102
{ACAD_REACTORS
330
64B2
102
}
330
64B2
100
AcDbScale
 70
     0
300
1/64" = 1'-0"
140
0.015625
141
12.0
290
     0
  0
SCALE
  5
64B6
102
{ACAD_REACTORS
330
64B2
102
}
330
64B2
100
AcDbScale
 70
     0
300
1/32" = 1'-0"
140
0.03125
141
12.0
290
     0
  0
SCALE
  5
64B7
102
{ACAD_REACTORS
330
64B2
102
}
330
64B2
100
AcDbScale
 70
     0
300
1/16" = 1'-0"
140
0.0625
141
12.0
290
     0
  0
SCALE
  5
64B8
102
{ACAD_REACTORS
330
64B2
102
}
330
64B2
100
AcDbScale
 70
     0
300
3/32" = 1'-0"
140
0.09375
141
12.0
290
     0
  0
SCALE
  5
64B9
102
{ACAD_REACTORS
330
64B2
102
}
330
64B2
100
AcDbScale
 70
     0
300
1/8" = 1'-0"
140
0.125
141
12.0
290
     0
  0
SCALE
  5
64BA
102
{ACAD_REACTORS
330
64B2
102
}
330
64B2
100
AcDbScale
 70
     0
300
3/16" = 1'-0"
140
0.1875
141
12.0
290
     0
  0
SCALE
  5
64BB
102
{ACAD_REACTORS
330
64B2
102
}
330
64B2
100
AcDbScale
 70
     0
300
1/4" = 1'-0"
140
0.25
141
12.0
290
     0
  0
SCALE
  5
64BC
102
{ACAD_REACTORS
330
64B2
102
}
330
64B2
100
AcDbScale
 70
     0
300
3/8" = 1'-0"
140
0.375
141
12.0
290
     0
  0
SCALE
  5
64BD
102
{ACAD_REACTORS
330
64B2
102
}
330
64B2
100
AcDbScale
 70
     0
300
1/2" = 1'-0"
140
0.5
141
12.0
290
     0
  0
SCALE
  5
64BE
102
{ACAD_REACTORS
330
64B2
102
}
330
64B2
100
AcDbScale
 70
     0
300
3/4" = 1'-0"
140
0.75
141
12.0
290
     0
  0
SCALE
  5
64BF
102
{ACAD_REACTORS
330
64B2
102
}
330
64B2
100
AcDbScale
 70
     0
300
1" = 1'-0"
140
1.0
141
12.0
290
     0
  0
SCALE
  5
64C0
102
{ACAD_REACTORS
330
64B2
102
}
330
64B2
100
AcDbScale
 70
     0
300
1-1/2" = 1'-0"
140
1.5
141
12.0
290
     0
  0
SCALE
  5
64C1
102
{ACAD_REACTORS
330
64B2
102
}
330
64B2
100
AcDbScale
 70
     0
300
3" = 1'-0"
140
3.0
141
12.0
290
     0
  0
SCALE
  5
64C2
102
{ACAD_REACTORS
330
64B2
102
}
330
64B2
100
AcDbScale
 70
     0
300
6" = 1'-0"
140
6.0
141
12.0
290
     0
  0
SCALE
  5
64C3
102
{ACAD_REACTORS
330
64B2
102
}
330
64B2
100
AcDbScale
 70
     0
300
1'-0" = 1'-0"
140
12.0
141
12.0
290
     0
  0
ACDBSECTIONVIEWSTYLE
  5
64C7
102
{ACAD_XDICTIONARY
360
66BD
102
}
102
{ACAD_REACTORS
330
64C6
102
}
330
64C6
100
AcDbModelDocViewStyle
 70
     0
  3
Imperial24
290
     0
100
AcDbSectionViewStyle
 70
     0
 71
     0
 90
       78
 71
     1
340
11
 40
0.24
340
0
340
0
 40
0.24
300
I, O, Q, S, X, Z
 40
0.48
 90
        3
 40
0.18
 90
        1
 71
     2
340
15
 90
       25
340
15
 90
       50
 40
0.24
 40
0.0
 40
0.24
 71
     3
340
11
 40
0.24
 90
        1
 40
0.75
 90
        1
300
%<\AcVar ViewType \f "%tc1">% %<\AcVar ViewSectionStartId>%-%<\AcVar ViewSectionEndId>%\PSCALE %<\AcVar ViewScale \f "%sn">%
 71
     4
300
ANSI31
 40
1.0
 90
        0
290
     0
290
     0
 90
        6
 40
0.0
 40
1.570796326794896
 40
0.2617993877991494
 40
1.308996938995747
 40
-0.2617993877991494
 40
1.832595714594046
  0
TABLESTYLE
  5
64B1
102
{ACAD_XDICTIONARY
360
667E
102
}
102
{ACAD_REACTORS
330
64B0
102
}
330
64B0
100
AcDbTableStyle
  3
Standard
 70
     0
 71
     0
 40
0.06
 41
0.06
280
     0
281
     0
  7
STANDARD
140
0.18
170
     2
 62
     0
 63
     7
283
     0
274
    -2
284
     1
 64
     0
275
    -2
285
     1
 65
     0
276
    -2
286
     1
 66
     0
277
    -2
287
     1
 67
     0
278
    -2
288
     1
 68
     0
279
    -2
289
     1
 69
     0
  7
STANDARD
140
0.25
170
     5
 62
     0
 63
     7
283
     0
274
    -2
284
     1
 64
     0
275
    -2
285
     1
 65
     0
276
    -2
286
     1
 66
     0
277
    -2
287
     1
 67
     0
278
    -2
288
     1
 68
     0
279
    -2
289
     1
 69
     0
  7
STANDARD
140
0.18
170
     5
 62
     0
 63
     7
283
     0
274
    -2
284
     1
 64
     0
275
    -2
285
     1
 65
     0
276
    -2
286
     1
 66
     0
277
    -2
287
     1
 67
     0
278
    -2
288
     1
 68
     0
279
    -2
289
     1
 69
     0
  0
VISUALSTYLE
  5
649C
102
{ACAD_XDICTIONARY
360
6695
102
}
102
{ACAD_REACTORS
330
6496
102
}
330
6496
100
AcDbVisualStyle
  2
2dWireframe
 70
     4
 71
     0
 72
     2
 73
     0
 90
        0
 40
-0.6
 41
-30.0
 62
     5
 63
     7
 74
     1
 91
        4
 64
     7
 65
   257
 75
     1
175
     1
 42
1.0
 92
        0
 66
   257
 43
1.0
 76
     1
 77
     6
 78
     2
 67
     7
 79
     5
170
     0
171
     0
290
     0
174
     0
 93
        1
 44
0.0
173
     0
291
     0
 45
0.0
1001
ACAD
1000
AcDbSavedByObjectVersion
1070
     0
  0
VISUALSTYLE
  5
649B
102
{ACAD_XDICTIONARY
360
6693
102
}
102
{ACAD_REACTORS
330
6496
102
}
330
6496
100
AcDbVisualStyle
  2
Basic
 70
     7
 71
     1
 72
     0
 73
     1
 90
        0
 40
-0.6
 41
-30.0
 62
     5
 63
     7
 74
     0
 91
        4
 64
     7
 65
   257
 75
     1
175
     1
 42
1.0
 92
        8
 66
     7
 43
1.0
 76
     1
 77
     6
 78
     2
 67
     7
 79
     5
170
     0
171
     0
290
     0
174
     0
 93
        1
 44
0.0
173
     0
291
     1
 45
0.0
1001
ACAD
1000
AcDbSavedByObjectVersion
1070
     0
  0
VISUALSTYLE
  5
64A2
102
{ACAD_XDICTIONARY
360
66A1
102
}
102
{ACAD_REACTORS
330
6496
102
}
330
6496
100
AcDbVisualStyle
  2
Brighten
 70
    12
 71
     2
 72
     2
 73
     0
 90
        0
 40
-0.6
 41
-30.0
 62
     5
 63
     7
 74
     1
 91
        4
 64
     7
 65
   257
 75
     1
175
     1
 42
1.0
 92
        8
 66
     7
 43
1.0
 76
     1
 77
     6
 78
     2
 67
     7
 79
     5
170
     0
171
     0
290
     0
174
     0
 93
        1
 44
50.0
173
     0
291
     1
 45
0.0
1001
ACAD
1000
AcDbSavedByObjectVersion
1070
     0
  0
VISUALSTYLE
  5
64A6
102
{ACAD_XDICTIONARY
360
66A9
102
}
102
{ACAD_REACTORS
330
6496
102
}
330
6496
100
AcDbVisualStyle
  2
ColorChange
 70
    16
 71
     2
 72
     2
 73
     3
 90
        0
 40
-0.6
 41
-30.0
 62
     5
 63
     8
 74
     1
 91
        4
 64
     7
 65
   257
 75
     1
175
     1
 42
1.0
 92
        8
 66
     8
 43
1.0
 76
     1
 77
     6
 78
     2
 67
     7
 79
     5
170
     0
171
     0
290
     0
174
     0
 93
        1
 44
0.0
173
     0
291
     1
 45
0.0
1001
ACAD
1000
AcDbSavedByObjectVersion
1070
     0
  0
VISUALSTYLE
  5
649F
102
{ACAD_XDICTIONARY
360
669B
102
}
102
{ACAD_REACTORS
330
6496
102
}
330
6496
100
AcDbVisualStyle
  2
Conceptual
 70
     9
 71
     3
 72
     2
 73
     0
 90
        0
 40
-0.6
 41
-30.0
 62
     5
 63
     7
 74
     2
 91
        2
 64
     7
 65
   257
 75
     1
175
     1
 42
179.0
 92
        8
 66
     7
 43
1.0
 76
     1
 77
     6
 78
     2
 67
     7
 79
     3
170
     0
171
     0
290
     0
174
     0
 93
        1
 44
0.0
173
     0
291
     0
 45
0.0
1001
ACAD
1000
AcDbSavedByObjectVersion
1070
     0
  0
VISUALSTYLE
  5
64A1
102
{ACAD_XDICTIONARY
360
669F
102
}
102
{ACAD_REACTORS
330
6496
102
}
330
6496
100
AcDbVisualStyle
  2
Dim
 70
    11
 71
     2
 72
     2
 73
     0
 90
        0
 40
-0.6
 41
-30.0
 62
     5
 63
     7
 74
     1
 91
        4
 64
     7
 65
   257
 75
     1
175
     1
 42
1.0
 92
        8
 66
     7
 43
1.0
 76
     1
 77
     6
 78
     2
 67
     7
 79
     5
170
     0
171
     0
290
     0
174
     0
 93
        1
 44
-50.0
173
     0
291
     1
 45
0.0
1001
ACAD
1000
AcDbSavedByObjectVersion
1070
     0
  0
VISUALSTYLE
  5
64AE
102
{ACAD_XDICTIONARY
360
66B9
102
}
102
{ACAD_REACTORS
330
6496
102
}
330
6496
100
AcDbVisualStyle
  2
EdgeColorOff
 70
    22
 71
     2
 72
     2
 73
     0
 90
        0
 40
-0.6
 41
-30.0
 62
     5
 63
     7
 74
     1
 91
        4
 64
     7
 65
   257
 75
     1
175
     1
 42
1.0
 92
        8
 66
     7
 43
1.0
 76
     1
 77
     6
 78
     2
 67
     7
 79
     5
170
     0
171
     0
290
     0
174
     0
 93
        1
 44
0.0
173
     0
291
     1
 45
0.0
1001
ACAD
1000
AcDbSavedByObjectVersion
1070
     0
  0
VISUALSTYLE
  5
64A5
102
{ACAD_XDICTIONARY
360
66A7
102
}
102
{ACAD_REACTORS
330
6496
102
}
330
6496
100
AcDbVisualStyle
  2
Facepattern
 70
    15
 71
     2
 72
     2
 73
     0
 90
        0
 40
-0.6
 41
-30.0
 62
     5
 63
     7
 74
     1
 91
        4
 64
     7
 65
   257
 75
     1
175
     1
 42
1.0
 92
        8
 66
     7
 43
1.0
 76
     1
 77
     6
 78
     2
 67
     7
 79
     5
170
     0
171
     0
290
     0
174
     0
 93
        1
 44
0.0
173
     0
291
     1
 45
0.0
1001
ACAD
1000
AcDbSavedByObjectVersion
1070
     0
  0
VISUALSTYLE
  5
6497
102
{ACAD_XDICTIONARY
360
668B
102
}
102
{ACAD_REACTORS
330
6496
102
}
330
6496
100
AcDbVisualStyle
  2
Flat
 70
     0
 71
     2
 72
     1
 73
     1
 90
        2
 40
-0.6
 41
30.0
 62
     5
 63
     7
 74
     0
 91
        0
 64
     7
 65
   257
 75
     1
175
     1
 42
1.0
 92
        8
 66
     7
 43
1.0
 76
     1
 77
     6
 78
     2
 67
     7
 79
     5
170
     0
171
     0
290
     0
174
     0
 93
       13
 44
0.0
173
     0
291
     1
 45
0.0
1001
ACAD
1000
AcDbSavedByObjectVersion
1070
     0
  0
VISUALSTYLE
  5
6498
102
{ACAD_XDICTIONARY
360
668D
102
}
102
{ACAD_REACTORS
330
6496
102
}
330
6496
100
AcDbVisualStyle
  2
FlatWithEdges
 70
     1
 71
     2
 72
     1
 73
     1
 90
        2
 40
-0.6
 41
30.0
 62
     5
 63
     7
 74
     1
 91
        0
 64
     7
 65
   257
 75
     1
175
     1
 42
1.0
 92
        0
 66
   257
 43
1.0
 76
     1
 77
     6
 78
     2
 67
     7
 79
     5
170
     0
171
     0
290
     0
174
     0
 93
       13
 44
0.0
173
     0
291
     1
 45
0.0
1001
ACAD
1000
AcDbSavedByObjectVersion
1070
     0
  0
VISUALSTYLE
  5
6499
102
{ACAD_XDICTIONARY
360
668F
102
}
102
{ACAD_REACTORS
330
6496
102
}
330
6496
100
AcDbVisualStyle
  2
Gouraud
 70
     2
 71
     2
 72
     2
 73
     1
 90
        2
 40
-0.6
 41
30.0
 62
     5
 63
     7
 74
     0
 91
        0
 64
     7
 65
   257
 75
     1
175
     1
 42
1.0
 92
        0
 66
     7
 43
1.0
 76
     1
 77
     6
 78
     2
 67
     7
 79
     5
170
     0
171
     0
290
     0
174
     0
 93
       13
 44
0.0
173
     0
291
     1
 45
0.0
1001
ACAD
1000
AcDbSavedByObjectVersion
1070
     0
  0
VISUALSTYLE
  5
649A
102
{ACAD_XDICTIONARY
360
6691
102
}
102
{ACAD_REACTORS
330
6496
102
}
330
6496
100
AcDbVisualStyle
  2
GouraudWithEdges
 70
     3
 71
     2
 72
     2
 73
     1
 90
        2
 40
-0.6
 41
30.0
 62
     5
 63
     7
 74
     1
 91
        0
 64
     7
 65
   257
 75
     1
175
     1
 42
1.0
 92
        0
 66
   257
 43
1.0
 76
     1
 77
     6
 78
     2
 67
     7
 79
     5
170
     0
171
     0
290
     0
174
     0
 93
       13
 44
0.0
173
     0
291
     1
 45
0.0
1001
ACAD
1000
AcDbSavedByObjectVersion
1070
     0
  0
VISUALSTYLE
  5
649E
102
{ACAD_XDICTIONARY
360
6699
102
}
102
{ACAD_REACTORS
330
6496
102
}
330
6496
100
AcDbVisualStyle
  2
Hidden
 70
     6
 71
     1
 72
     2
 73
     2
 90
        0
 40
-0.6
 41
-30.0
 62
     5
 63
     7
 74
     2
 91
        2
 64
     7
 65
   257
 75
     2
175
     1
 42
40.0
 92
        0
 66
   257
 43
1.0
 76
     1
 77
     6
 78
     2
 67
     7
 79
     3
170
     0
171
     0
290
     0
174
     0
 93
        1
 44
0.0
173
     0
291
     0
 45
0.0
1001
ACAD
1000
AcDbSavedByObjectVersion
1070
     0
  0
VISUALSTYLE
  5
64AC
102
{ACAD_XDICTIONARY
360
66B5
102
}
102
{ACAD_REACTORS
330
6496
102
}
330
6496
100
AcDbVisualStyle
  2
JitterOff
 70
    20
 71
     2
 72
     2
 73
     0
 90
        0
 40
-0.6
 41
-30.0
 62
     5
 63
     7
 74
     1
 91
        4
 64
     7
 65
   257
 75
     1
175
     1
 42
1.0
 92
       10
 66
     7
 43
1.0
 76
     1
 77
     6
 78
     2
 67
     7
 79
     5
170
     0
171
     0
290
     0
174
     0
 93
        1
 44
0.0
173
     0
291
     1
 45
0.0
1001
ACAD
1000
AcDbSavedByObjectVersion
1070
     0
  0
VISUALSTYLE
  5
64A4
102
{ACAD_XDICTIONARY
360
66A5
102
}
102
{ACAD_REACTORS
330
6496
102
}
330
6496
100
AcDbVisualStyle
  2
Linepattern
 70
    14
 71
     2
 72
     2
 73
     0
 90
        0
 40
-0.6
 41
-30.0
 62
     5
 63
     7
 74
     1
 91
        4
 64
     7
 65
   257
 75
     7
175
     7
 42
1.0
 92
        8
 66
     7
 43
1.0
 76
     1
 77
     6
 78
     2
 67
     7
 79
     5
170
     0
171
     0
290
     0
174
     0
 93
        1
 44
0.0
173
     0
291
     1
 45
0.0
1001
ACAD
1000
AcDbSavedByObjectVersion
1070
     0
  0
VISUALSTYLE
  5
64AD
102
{ACAD_XDICTIONARY
360
66B7
102
}
102
{ACAD_REACTORS
330
6496
102
}
330
6496
100
AcDbVisualStyle
  2
OverhangOff
 70
    21
 71
     2
 72
     2
 73
     0
 90
        0
 40
-0.6
 41
-30.0
 62
     5
 63
     7
 74
     1
 91
        4
 64
     7
 65
   257
 75
     1
175
     1
 42
1.0
 92
        9
 66
     7
 43
1.0
 76
     1
 77
     6
 78
     2
 67
     7
 79
     5
170
     0
171
     0
290
     0
174
     0
 93
        1
 44
0.0
173
     0
291
     1
 45
0.0
1001
ACAD
1000
AcDbSavedByObjectVersion
1070
     0
  0
VISUALSTYLE
  5
64A0
102
{ACAD_XDICTIONARY
360
669D
102
}
102
{ACAD_REACTORS
330
6496
102
}
330
6496
100
AcDbVisualStyle
  2
Realistic
 70
     8
 71
     2
 72
     3
 73
     0
 90
        2
 40
-0.6
 41
30.0
 62
     5
 63
     7
 74
     0
 91
        0
 64
     7
 65
   257
 75
     1
175
     1
 42
1.0
 92
        8
 66
   257
 43
1.0
 76
     1
 77
     6
 78
     2
 67
     7
 79
     3
170
     0
171
     0
290
     0
174
     0
 93
       13
 44
0.0
173
     0
291
     0
 45
0.0
1001
ACAD
1000
AcDbSavedByObjectVersion
1070
     0
  0
VISUALSTYLE
  5
64AB
102
{ACAD_XDICTIONARY
360
66B3
102
}
102
{ACAD_REACTORS
330
6496
102
}
330
6496
100
AcDbVisualStyle
  2
Shaded
 70
    27
 71
     2
 72
     2
 73
     1
 90
        2
 40
-0.6
 41
30.0
 62
     5
 63
     7
 74
     0
 91
        4
 64
     7
 65
   257
 75
     1
175
     1
 42
1.0
 92
        8
 66
   257
 43
1.0
 76
     1
 77
     6
 78
     2
 67
     8
 79
     3
170
     0
171
     0
290
     0
174
     0
 93
        5
 44
0.0
173
     0
291
     0
 45
0.0
1001
ACAD
1000
AcDbSavedByObjectVersion
1070
     0
  0
VISUALSTYLE
  5
64AA
102
{ACAD_XDICTIONARY
360
66B1
102
}
102
{ACAD_REACTORS
330
6496
102
}
330
6496
100
AcDbVisualStyle
  2
Shaded with edges
 70
    26
 71
     2
 72
     2
 73
     1
 90
        2
 40
-0.6
 41
30.0
 62
     5
 63
     7
 74
     1
 91
       10
 64
     7
 65
   257
 75
     2
175
     1
 42
1.0
 92
        8
 66
   257
 43
1.0
 76
     1
 77
     6
 78
     2
 67
     7
 79
     3
170
     0
171
     0
290
     0
174
     0
 93
        5
 44
0.0
173
     0
291
     0
 45
0.0
1001
ACAD
1000
AcDbSavedByObjectVersion
1070
     0
  0
VISUALSTYLE
  5
64A7
102
{ACAD_XDICTIONARY
360
66AB
102
}
102
{ACAD_REACTORS
330
6496
102
}
330
6496
100
AcDbVisualStyle
  2
Shades of Gray
 70
    23
 71
     2
 72
     2
 73
     3
 90
        0
 40
-0.6
 41
-30.0
 62
     5
 63
     7
 74
     2
 91
        2
 64
     7
 65
     7
 75
     1
175
     1
 42
40.0
 92
        8
 66
     7
 43
1.0
 76
     1
 77
     6
 78
     2
 67
     7
 79
     3
170
     0
171
     0
290
     0
174
     0
 93
        1
 44
0.0
173
     0
291
     0
 45
0.0
1001
ACAD
1000
AcDbSavedByObjectVersion
1070
     0
  0
VISUALSTYLE
  5
64A8
102
{ACAD_XDICTIONARY
360
66AD
102
}
102
{ACAD_REACTORS
330
6496
102
}
330
6496
100
AcDbVisualStyle
  2
Sketchy
 70
    24
 71
     1
 72
     2
 73
     2
 90
        0
 40
-0.6
 41
-30.0
 62
     5
 63
     7
 74
     2
 91
        2
 64
     7
 65
     7
 75
     1
175
     1
 42
40.0
 92
       11
 66
     7
 43
1.0
 76
     1
 77
     6
 78
     2
 67
     7
 79
     6
170
     0
171
     0
290
     0
174
     0
 93
        1
 44
0.0
173
     0
291
     0
 45
0.0
1001
ACAD
1000
AcDbSavedByObjectVersion
1070
     0
  0
VISUALSTYLE
  5
64A3
102
{ACAD_XDICTIONARY
360
66A3
102
}
102
{ACAD_REACTORS
330
6496
102
}
330
6496
100
AcDbVisualStyle
  2
Thicken
 70
    13
 71
     2
 72
     2
 73
     0
 90
        0
 40
-0.6
 41
-30.0
 62
     5
 63
     7
 74
     1
 91
        4
 64
     7
 65
   257
 75
     1
175
     1
 42
1.0
 92
       12
 66
     7
 43
1.0
 76
     1
 77
     6
 78
     2
 67
     7
 79
     5
170
     0
171
     0
290
     0
174
     0
 93
        1
 44
0.0
173
     0
291
     1
 45
0.0
1001
ACAD
1000
AcDbSavedByObjectVersion
1070
     0
  0
VISUALSTYLE
  5
649D
102
{ACAD_XDICTIONARY
360
6697
102
}
102
{ACAD_REACTORS
330
6496
102
}
330
6496
100
AcDbVisualStyle
  2
Wireframe
 70
     5
 71
     0
 72
     2
 73
     0
 90
        0
 40
-0.6
 41
-30.0
 62
     5
 63
     7
 74
     1
 91
        4
 64
     7
 65
   257
 75
     1
175
     1
 42
1.0
 92
        0
 66
   257
 43
1.0
 76
     1
 77
     6
 78
     2
 67
     7
 79
     3
170
     0
171
     0
290
     0
174
     0
 93
        1
 44
0.0
173
     0
291
     0
 45
0.0
1001
ACAD
1000
AcDbSavedByObjectVersion
1070
     0
  0
VISUALSTYLE
  5
64A9
102
{ACAD_XDICTIONARY
360
66AF
102
}
102
{ACAD_REACTORS
330
6496
102
}
330
6496
100
AcDbVisualStyle
  2
X-Ray
 70
    25
 71
     2
 72
     2
 73
     1
 90
        1
 40
0.5
 41
-30.0
 62
     5
 63
     7
 74
     1
 91
        0
 64
     7
 65
   257
 75
     1
175
     1
 42
1.0
 92
        8
 66
     7
 43
1.0
 76
     1
 77
     6
 78
     2
 67
     7
 79
     3
170
     0
171
     0
290
     0
174
     0
 93
       13
 44
0.0
173
     0
291
     0
 45
0.0
1001
ACAD
1000
AcDbSavedByObjectVersion
1070
     0
  0
DICTIONARYVAR
  5
662E
102
{ACAD_REACTORS
330
5697
102
}
330
5697
100
DictionaryVariables
280
     0
  1
1:1
  0
DICTIONARYVAR
  5
662B
102
{ACAD_REACTORS
330
5697
102
}
330
5697
100
DictionaryVariables
280
     0
  1
STANDARD
  0
DICTIONARYVAR
  5
662A
102
{ACAD_REACTORS
330
5697
102
}
330
5697
100
DictionaryVariables
280
     0
  1
STANDARD
  0
DICTIONARYVAR
  5
662C
102
{ACAD_REACTORS
330
5697
102
}
330
5697
100
DictionaryVariables
280
     0
  1
Imperial24
  0
DICTIONARYVAR
  5
662D
102
{ACAD_REACTORS
330
5697
102
}
330
5697
100
DictionaryVariables
280
     0
  1
Imperial24
  0
DICTIONARYVAR
  5
5698
102
{ACAD_REACTORS
330
5697
102
}
330
5697
100
DictionaryVariables
280
     0
  1
1
  0
DICTIONARYVAR
  5
6630
102
{ACAD_REACTORS
330
5697
102
}
330
5697
100
DictionaryVariables
280
     0
  1
0
  0
DICTIONARYVAR
  5
662F
102
{ACAD_REACTORS
330
5697
102
}
330
5697
100
DictionaryVariables
280
     0
  1
127
  0
DICTIONARYVAR
  5
6631
102
{ACAD_REACTORS
330
5697
102
}
330
5697
100
DictionaryVariables
280
     0
  1
2
  0
DICTIONARY
  5
66BF
330
64C9
100
AcDbDictionary
280
     1
281
     1
  3
ACAD_XREC_ROUNDTRIP
360
66C0
  0
DICTIONARY
  5
6684
330
6470
100
AcDbDictionary
280
     1
281
     1
  3
ACAD_XREC_ROUNDTRIP
360
6685
  0
DICTIONARY
  5
6686
330
6471
100
AcDbDictionary
280
     1
281
     1
  3
ACAD_XREC_ROUNDTRIP
360
6687
  0
DICTIONARY
  5
6487
330
6486
100
AcDbDictionary
280
     1
281
     1
  3
ACAD_XREC_ROUNDTRIP
360
6689
  3
BUMPTILE
360
6489
  3
DIFFUSETILE
360
6488
  3
OPACITYTILE
360
648C
  3
REFLECTIONTILE
360
648B
  3
REFRACTIONTILE
360
648D
  3
SPECULARTILE
360
648A
  0
DICTIONARY
  5
647F
330
647E
100
AcDbDictionary
280
     1
281
     1
  3
ACAD_XREC_ROUNDTRIP
360
6688
  3
BUMPTILE
360
6481
  3
DIFFUSETILE
360
6480
  3
OPACITYTILE
360
6484
  3
REFLECTIONTILE
360
6483
  3
REFRACTIONTILE
360
6485
  3
SPECULARTILE
360
6482
  0
DICTIONARY
  5
648F
330
648E
100
AcDbDictionary
280
     1
281
     1
  3
ACAD_XREC_ROUNDTRIP
360
668A
  3
BUMPTILE
360
6491
  3
DIFFUSETILE
360
6490
  3
FBXASSET
360
667D
  3
OPACITYTILE
360
6494
  3
REFLECTIONTILE
360
6493
  3
REFRACTIONTILE
360
6495
  3
SPECULARTILE
360
6492
  0
DICTIONARY
  5
66BD
330
64C7
100
AcDbDictionary
280
     1
281
     1
  3
ACAD_XREC_ROUNDTRIP
360
66BE
  0
DICTIONARY
  5
667E
330
64B1
100
AcDbDictionary
280
     1
281
     1
  3
ACAD_ROUNDTRIP_2008_TABLESTYLE_CELLSTYLEMAP
360
667F
  3
ACAD_XREC_ROUNDTRIP
360
66BB
  0
DICTIONARY
  5
6695
330
649C
100
AcDbDictionary
280
     1
281
     1
  3
ACAD_XREC_ROUNDTRIP
360
6696
  0
DICTIONARY
  5
6693
330
649B
100
AcDbDictionary
280
     1
281
     1
  3
ACAD_XREC_ROUNDTRIP
360
6694
  0
DICTIONARY
  5
66A1
330
64A2
100
AcDbDictionary
280
     1
281
     1
  3
ACAD_XREC_ROUNDTRIP
360
66A2
  0
DICTIONARY
  5
66A9
330
64A6
100
AcDbDictionary
280
     1
281
     1
  3
ACAD_XREC_ROUNDTRIP
360
66AA
  0
DICTIONARY
  5
669B
330
649F
100
AcDbDictionary
280
     1
281
     1
  3
ACAD_XREC_ROUNDTRIP
360
669C
  0
DICTIONARY
  5
669F
330
64A1
100
AcDbDictionary
280
     1
281
     1
  3
ACAD_XREC_ROUNDTRIP
360
66A0
  0
DICTIONARY
  5
66B9
330
64AE
100
AcDbDictionary
280
     1
281
     1
  3
ACAD_XREC_ROUNDTRIP
360
66BA
  0
DICTIONARY
  5
66A7
330
64A5
100
AcDbDictionary
280
     1
281
     1
  3
ACAD_XREC_ROUNDTRIP
360
66A8
  0
DICTIONARY
  5
668B
330
6497
100
AcDbDictionary
280
     1
281
     1
  3
ACAD_XREC_ROUNDTRIP
360
668C
  0
DICTIONARY
  5
668D
330
6498
100
AcDbDictionary
280
     1
281
     1
  3
ACAD_XREC_ROUNDTRIP
360
668E
  0
DICTIONARY
  5
668F
330
6499
100
AcDbDictionary
280
     1
281
     1
  3
ACAD_XREC_ROUNDTRIP
360
6690
  0
DICTIONARY
  5
6691
330
649A
100
AcDbDictionary
280
     1
281
     1
  3
ACAD_XREC_ROUNDTRIP
360
6692
  0
DICTIONARY
  5
6699
330
649E
100
AcDbDictionary
280
     1
281
     1
  3
ACAD_XREC_ROUNDTRIP
360
669A
  0
DICTIONARY
  5
66B5
330
64AC
100
AcDbDictionary
280
     1
281
     1
  3
ACAD_XREC_ROUNDTRIP
360
66B6
  0
DICTIONARY
  5
66A5
330
64A4
100
AcDbDictionary
280
     1
281
     1
  3
ACAD_XREC_ROUNDTRIP
360
66A6
  0
DICTIONARY
  5
66B7
330
64AD
100
AcDbDictionary
280
     1
281
     1
  3
ACAD_XREC_ROUNDTRIP
360
66B8
  0
DICTIONARY
  5
669D
330
64A0
100
AcDbDictionary
280
     1
281
     1
  3
ACAD_XREC_ROUNDTRIP
360
669E
  0
DICTIONARY
  5
66B3
330
64AB
100
AcDbDictionary
280
     1
281
     1
  3
ACAD_XREC_ROUNDTRIP
360
66B4
  0
DICTIONARY
  5
66B1
330
64AA
100
AcDbDictionary
280
     1
281
     1
  3
ACAD_XREC_ROUNDTRIP
360
66B2
  0
DICTIONARY
  5
66AB
330
64A7
100
AcDbDictionary
280
     1
281
     1
  3
ACAD_XREC_ROUNDTRIP
360
66AC
  0
DICTIONARY
  5
66AD
330
64A8
100
AcDbDictionary
280
     1
281
     1
  3
ACAD_XREC_ROUNDTRIP
360
66AE
  0
DICTIONARY
  5
66A3
330
64A3
100
AcDbDictionary
280
     1
281
     1
  3
ACAD_XREC_ROUNDTRIP
360
66A4
  0
DICTIONARY
  5
6697
330
649D
100
AcDbDictionary
280
     1
281
     1
  3
ACAD_XREC_ROUNDTRIP
360
6698
  0
DICTIONARY
  5
66AF
330
64A9
100
AcDbDictionary
280
     1
281
     1
  3
ACAD_XREC_ROUNDTRIP
360
66B0
  0
XRECORD
  5
66C0
102
{ACAD_REACTORS
330
66BF
102
}
330
66BF
100
AcDbXrecord
280
     1
102
DISPLAYNAME
  1
Imperial24
102
FLAGS
 90
        0
  0
XRECORD
  5
6685
102
{ACAD_REACTORS
330
6684
102
}
330
6684
100
AcDbXrecord
280
     1
102
SHADEPLOT
 70
     0
102
SHADEPLOTRESLEVEL
 70
     2
102
SHADEPLOTCUSTOMDPI
 70
   300
  0
XRECORD
  5
6687
102
{ACAD_REACTORS
330
6686
102
}
330
6686
100
AcDbXrecord
280
     1
102
SHADEPLOT
 70
     0
102
SHADEPLOTRESLEVEL
 70
     2
102
SHADEPLOTCUSTOMDPI
 70
   300
  0
XRECORD
  5
6689
102
{ACAD_REACTORS
330
6487
102
}
330
6487
100
AcDbXrecord
280
     1
102
MATERIAL
148
0.0
149
0.0
149
0.0
 93
        0
 94
      127
282
     0
 72
     0
 77
     0
171
     0
175
     0
179
     0
273
     0
  0
XRECORD
  5
6489
102
{ACAD_REACTORS
330
6487
102
}
330
6487
100
AcDbXrecord
280
     1
270
     1
271
     1
  0
XRECORD
  5
6488
102
{ACAD_REACTORS
330
6487
102
}
330
6487
100
AcDbXrecord
280
     1
270
     1
271
     1
  0
XRECORD
  5
648C
102
{ACAD_REACTORS
330
6487
102
}
330
6487
100
AcDbXrecord
280
     1
270
     1
271
     1
  0
XRECORD
  5
648B
102
{ACAD_REACTORS
330
6487
102
}
330
6487
100
AcDbXrecord
280
     1
270
     1
271
     1
  0
XRECORD
  5
648D
102
{ACAD_REACTORS
330
6487
102
}
330
6487
100
AcDbXrecord
280
     1
270
     1
271
     1
  0
XRECORD
  5
648A
102
{ACAD_REACTORS
330
6487
102
}
330
6487
100
AcDbXrecord
280
     1
270
     1
271
     1
  0
XRECORD
  5
6688
102
{ACAD_REACTORS
330
647F
102
}
330
647F
100
AcDbXrecord
280
     1
102
MATERIAL
148
0.0
149
0.0
149
0.0
 93
        0
 94
      127
282
     0
 72
     0
 77
     0
171
     0
175
     0
179
     0
273
     0
  0
XRECORD
  5
6481
102
{ACAD_REACTORS
330
647F
102
}
330
647F
100
AcDbXrecord
280
     1
270
     1
271
     1
  0
XRECORD
  5
6480
102
{ACAD_REACTORS
330
647F
102
}
330
647F
100
AcDbXrecord
280
     1
270
     1
271
     1
  0
XRECORD
  5
6484
102
{ACAD_REACTORS
330
647F
102
}
330
647F
100
AcDbXrecord
280
     1
270
     1
271
     1
  0
XRECORD
  5
6483
102
{ACAD_REACTORS
330
647F
102
}
330
647F
100
AcDbXrecord
280
     1
270
     1
271
     1
  0
XRECORD
  5
6485
102
{ACAD_REACTORS
330
647F
102
}
330
647F
100
AcDbXrecord
280
     1
270
     1
271
     1
  0
XRECORD
  5
6482
102
{ACAD_REACTORS
330
647F
102
}
330
647F
100
AcDbXrecord
280
     1
270
     1
271
     1
  0
XRECORD
  5
668A
102
{ACAD_REACTORS
330
648F
102
}
330
648F
100
AcDbXrecord
280
     1
102
MATERIAL
148
0.0
149
0.0
149
0.0
 93
        0
 94
      127
282
     0
 72
     0
 77
     0
171
     0
175
     0
179
     0
273
     0
  0
XRECORD
  5
6491
102
{ACAD_REACTORS
330
648F
102
}
330
648F
100
AcDbXrecord
280
     1
270
     1
271
     1
  0
XRECORD
  5
6490
102
{ACAD_REACTORS
330
648F
102
}
330
648F
100
AcDbXrecord
280
     1
270
     1
271
     1
  0
XRECORD
  5
667D
102
{ACAD_REACTORS
330
648F
102
}
330
648F
100
AcDbXrecord
280
     1
 70
     1
 90
1959938040
 71
     1
  1
34DF94CB-96AA-4683-901F-EB4D7EE028F4
311
504B03041400060808008B7A6A48EBC12A3EDB000000200100004F00000036464444383431302D334543442D343335372D384230432D3936363941463041443638342F4173736574446174612F446566696E6974696F6E4974657261746F7250726F706572746965732E62696E454E3D4FC33010350C200606FE41D5DDF8A3
311
21B4515BD4B40D132C30B15457F71A22394E653B122323FF9A9E45514F7AF7EEF3DDFD30C67E4F4621BB207C93BF257E4687BE316FE6135B6057A962BB2DD8EB73EF92C294AE700FBD8D69EBA50906AD05875D1FEECEA3831622C981BD4F4B3784FF42480AF5DFB174FF95905E4A0CBB43F10421609C89FDF64BAC17A55E3D
311
56259FA86AC1B35C2B3ECE976B9E8DABA59C48A555560A8FA1EBBDC120B4909B93F2E6E06A9C0D8D47FA63379C6BA9722E475CC977F5506859E8D1C754C4A6C5F93444DFB87AE0A03D02504B03041400060808008B7A6A481B2379B503010000300200004500000036464444383431302D334543442D343335372D38423043
311
2D3936363941463041443638342F4173736574446174612F496E7374616E636550726F706572746965732E62696EEB606060F80F0540260323103700495E20ED9E9A975A94991C9C9C919A9BA8021430367171B3347176D2B5347374D43531B330D6B5343074D3757532713177753530B27033614768046B313471713532B5
311
D435353131066A3132D475727372D13534373670367376B67474B504EA00DBCBA019D37FE8ABC6157B20CD04146B0062181F4C03F940F0C11EA29A8141C08141002C0426541C106CAC2CA046088033B02A030AC2157C6006F21A8018AAF50194E6010A610250382264E08660284CD9E98021862280A91564B406929A0FF62C
311
401E28B6F88038B83CB1243943D7A928312F2535052403033A40862310D7F1CA3270F069C284516890D9300164F52C58D40300504B03041400060808008B7A6A4828BB58AF800100009E0500003D00000036464444383431302D334543442D343335372D384230432D3936363941463041443638342F536368656D61732F43
311
6F6D6D6F6E536368656D612E786D6CBD544D4FC23018BEFB2B96DE15493C78601010A34B880709DEDFB52FD0D8B54BD70DF6EFED3AC0B12E6442E2716BFB3CEFF3D18E26FB440405EA8C2B1992E1C323095052C5B8DC842437EBFB673219DF8DA659866649B798C078B48AE6410122242F2A4994AC7F93815DF85C049C8564
311
CA0A901499DD886B2EB9B1E02448F358701A9235880C49A0119892A20C89D1B9FD768815CAD268CB5E0355B40B1E47F3E37A2020464BED06AA57CE8FCC20C3C3446D46761A2632A8C1283D07031EFF2AE7CCB1BFEEE916E406DFAC8E36FFD99A9D60A6944090EEDC3B670C7DC13DE86B6B2C5C240D6E503BB85ACD579D513F
311
1B9F9A69DC9CC22AFA80C426D40AF0B21EA168559156B6276F0F726A6BFF04DCD513A87A62CAD41FB24FCB2858B3952E3D852084DA25B9303C15687973CC8E8AAE11DF2836C38C6A9E765E8C1BA1BFB1DC29CDFE518C8B5A7655A4ED7E77291ABEB80DBD82EC866ADE1B8D05AF9E35CF09D7A061F38A986D9EC412B8F0F65E
311
5D81534D9B231D1E5A8FE577A241F3A5FD01504B03041400060808008B7A6A482CCEBD668A040000E01200003E00000036464444383431302D334543442D343335372D384230432D3936363941463041443638342F536368656D61732F47656E65726963536368656D612E786D6CD5586D6FDB380CFE7EBF42F0F7A649B70E
311
1B90744856B4970F450FCD7A5F05459613EDE4174872DADCAF3F522F8ED3B88D2F1D06AC4050DBA2493EE4438AF2F8EB73AEC8466823CB62928C06C384888297A92C5693A4B6D9D9E7E4EBD51FE3A931C22EF85AE4EC6AFC38BF261BA626C9AD288496DC3F4FCEAFC63366845F7A10452AF41DB320C0D44EC26EAB20918735
311
565582695670811A6A49643A49A6E9069FA4604A64B29016DC4B48552F95E4932463CA888468C1D2B250DB4962750DF7CE273069CE8363F1FF4EDB00E0A21999574AE4A2B00C353B93F3BD4777B8A61ED8F604ABFEDD79CE56A2B7BDFBDBC50996E0ADDE16FED26223C5D30956C29BDF4A55EA686E5E58B112DA45CE67F76F
311
4FA27EFA3FB672FD7372FC388FAECDCA5209E693CAD167BADCD272F943701B3812F8A3D852008B1D2E32DB927B2F833C6EA95879925356D254582695095A3CE982924720BE5774A3CB9CDCDB350427D2DF20DA1B5532EBE2D5D6288D75D4F7E4FD9890A0EF8E3D93EBB8F8BA4758158EF6FB90A6F9520281C93DE7AAC6D246
311
07DA296BB96018123F821A7D6A5C5884050C475DA4865442732C8B95684A50165CBB3A32F25F783A4A480ED59AD7F924B968AEA50131F46303223E6A397B0E52976030DC1DCA81D7E7C1EDEEA42C19FF27635C505E2BD5198A599020DF50A2330FCB3AAF28CB0124108429553EF1B228802E2265D8F7CC2401042B155BCC70
311
70F1E5C55F13B4A9577362CCCE46C32174E010C3C378C44841A4BDA00FE3A12006CE11EE6AEC59894D3526DDE1CD59D503ECC324017F8061B7F162162FA62EDD81AE3308617770796DCBDAD2B2625C5AE8A63DE20B2C8AA5E95E76E5730823955956E33E705425A2187C185D36489A1B44D3DCEC2172F6BA2105C3546287A7
311
194B2331768EBBE64F6E70A9930ABE0ADEA89E9E2C38523B810287AD67A54A039C1606EAFE68F8304610BB9093DBDDABC0B2AE4E290DCDA15376D7E39F72B556F0B32EAB5D3D498B4C41ABADEC3A1434C422D87E8025A84BDCB2B1417ED750FAE4DA8976863974C577C7F902D3F156AD354DEA3540DE6BEAE2BEA52F7A2EB4
311
CA43802ECE5BF2CE2EDC9347179FFB023CE412E60BE16DA0BE29B374988A553F561DC04615DD35F7D2C8979F60E5955CE93DF29DED8AFA1EE6642D53418086C03C47C377910F75F7E8F5EF665F70B60FFB22AEDF897D119E8423C773E819A3C1E55E550599EE6EDCA34D0C86FD72057DF2CD46F16A470682471C164E4346D5
311
306BF12D7D12D82CFF673D41636C347443FEB51B50D72EA171A8E4A58623A4A16E0FA2B8B10A0D23268D87C33896EE8FB73305A74BF224EDBADFA0BD674AB354D63DB7BD5D83426761C077DE767728235446A552754EB93B755891C3C4CC6CADE37CF0E912A7BB38DBA010F9DE1282EDF470CA69A9CDA482E334C4A6EA4107
311
987980B17E72F31730EBF88BBD39E7C629F56797A3C0009C2C5AE7951D9A05A02773440F02EEB4DE396A3B6A570C72CCFBCD823B0B8ED3F1D5CEDDFED772FA70236C83FB7D86C385D570B87107535572A60A96035F8F7C6A7192F13007246BBE0521855E6AC46F3E27689CEE7D186A6FD679D98CDCAD13333E04EBE7ED6F55
311
FF01504B03041400060808008B7A6A486180134D5F0100006B0300004500000036464444383431302D334543442D343335372D384230432D3936363941463041443638342F536368656D61732F52656E6465724D6174657269616C536368656D612E786D6CA5934D6FC2300C86EFFB1551EEE343DBA41D1A103009551ADAD4
311
0EAE28A4A68D9426284961FCFBE5A340113B2071746D3F765EBF4DC6BFB5407BD0862B49F0B037C0082453059725C18DDD3EBFE3F1E829991803366715D474942CD30FB4A782E00C64017A412D684E454CE3FE28995203B162A6EA5AC94B66997D225E109CD63B0135484BAD1B3C07E9080CA35DB3119C11BCA5C200461A68
311
A1A438126C75E3E230D40FF81FB3F03C91D1E3A3A0AF79FE28E25BC39EC3E17E4C2A2D94A0833A51AF55BCCA7D88572FCBAC529C4140B020FC3AAFA886621DCED7EAD7664CC86024E806DC297DA1BB393E4156543457A4537DB8817349A70F8ACBF09B3EEE2CB2F33E91B65D60786E4E3B39B77E3FEEEF5650424525DA657F
311
B8B46BE6BF064646F0A0F7327C0BC1BC1B4CBBC1C419FA3CCB23500007872A2580CAAE5461865565294E4EDB4617B62FF579DF9A5B2F54E834076A597573A020912FED777F9B3F504B03041400060808008B7A6A48FAD9806351000000570000004700000036464444383431302D334543442D343335372D384230432D3936
311
363941463041443638342F4173736574446174612F41737365745461626C654F66436F6E74656E74732E62696E5361606030367171B3347176D2B5347374D43531B330D6B5343074D3757532713177753530B270331102AACB4D2C492DCA4CCC492C28484D2C4ACC4B4E050A82012F90744FCD03CA26072767A4E626020050
311
4B03041400060808008B7A6A48F865834058000000680000004500000036464444383431302D334543442D343335372D384230432D3936363941463041443638342F4173736574446174612F53747265616D56657273696F6E5461626C652E696E66558CBD0A80300C06F73E4B117FB66E451741D041DC5BF98480A492E4FD
311
D18EAEC7DD4555D89EF28DF51A0B1BD8340C4DE7DD848B988C0ACF0649566493F2408C508DDEBB99D5129FF8F1AF8CF5B9503E20FAE5A16B5AF702504B03041400060808008B7A6A488EA32F57340100009A0400003600000036464444383431302D334543442D343335372D384230432D3936363941463041443638342F41
311
73736574446174612F636E782E786D6CCD94314FC3301085FF4AE43D76D20A842AC71582A51348540C6C57E752AC3A76645F10FC7BEC3603A8882943D6F3BBF3F327BF93DBCFDE161F18A2F1AE6135AF58814EFBD6B863C346EACA3B566C950CDED30F192B1CF4D8B05C664A1E831F87A9D46207A3CD556BDC692ADEC788B4
311
8783C5A7EEC13B42479115DA428C0D8BFA1D7BE030926F319E780B04BCE601A31F83C634894C8FD3241D10085BA656557D5B56EBB2AEF6F5CD66556D56EB3729B252C983F776D29B7459F043A12FB7325549918F951C839934F92D4CFDE5911F8C932229958C141293A983BE86D401C3608D064AE884D784542611422FC545
311
ACA4C80C7E9178C4CE38935B76C918900FCFC91E0632B83822FF799D9FCCCE4502A771B93CAE1DCE4FE1E5FC835E2F813C27666939B976C88DEB66488938AF91149ABC55D437504B03041400060808008B7A6A48F1397044080100004F0300003400000036464444383431302D334543442D343335372D384230432D393636
311
3941463041443638342F536368656D61732F636E782E786D6CCD93BD4E042114855F6542BFC0CC4663360C5B5858D9A8951DC2DD952C7027FC187D7B61A4D84DECB4D80E0E5FC839878BD87F7A377C404C16C34C46CAC90041A3B1E13893920F9B3B32ECA58888F90C2343501E66D26422C5316259BA64E0A08A6BAAB3E1D4
311
C57BF41EC3B37E07AFC8A09D4A692669DD5255321A48276A545674A4111296A8A1DE90AD877E838EA0321822273EDE6EF87633F297F16637F1DDB47D15AC9152BC21BACEDB9021E23268AC8B50ED70C1DAB11425DACEB40C449E7BA3B50DC12A2145CAB176D0C9FCB554522D8BB35AE55A155BC11F460AD6A25E047E8000D1
311
EAEB4C7C61EEDF223F4130101FEB2B45ABDC7526FFCDE3DF0A60EBECD711685F417E03504B03041400060808008B7A6A48410A3D5871000000A40000002C00000036464444383431302D334543442D343335372D384230432D3936363941463041443638342F636E782E786D6C55CC4D0E82301086E1AB34B31774E7A22D31
311
F1069E60020334B633A63FC6E34B0909B07DDE2F9FEE7EC1AB2FC5E4840DDC9A2B28E25E06C7938192C7CB1D54677514C9871928C640062A83D55394F2D968A0118BAFEA1DBF377CA444F98919176EAB9FEAAB9F2960DA5BBB1E2ED3FA6FFF504B03041400060808008B7A6A48FBC4B9FA7E000000A300000007000000636E
311
782E786D6C4D8CD10E822018465F85FDF7144E22DC006792EFE1121D13A191B41E3F685E74F56D67DF39A2FD6C0EBD4D7CD9E025542702C8F84798AC5F24A47DC61C50AB440C61FFBB01F2E36624140C4A2C31A4E78126338FC915EAAC5F0FC806AD39AD08AEEFBDC6B4BE5C31BF911E378C35DD403ACD38CDC6B928797EBD
311
BC25AFBE504B03041400060808008B7A6A4816E99B5DA600000035010000130000005B436F6E74656E745F54797065735D2E786D6C9590410E82301045AFD2740F4517C6180A0BF5065E60AC53688469D30E066F6F91AD9AB89CF9FFFD3F99BA9DC7413C3026E749CB4D59498164FCCD51A7E5C4B6D84BD136F5E5193089EC
311
A5A465CF1C0E4A25D3E308A9F401292BD6C711388FB15301CC1D3A54DBAADA29E38991B8E0254336F5092D4C038BF39CD76B6FC6A538AEBEA54A4B08617006389FA516557DE4AE8E7E70DE30729138228C5F021CD93F02D4FB0DCD0B504B03041400060808008B7A6A483DEE336E64000000790000001B0000006175746F64
311
65736B2D64657369676E2D7061636B6167652E786D6C35CBC10E83200C00D05F21DCA56CA76D41FC96062B120735B69A7DBE268BB7777961F8D5AF396893C2ADB70FE7ADA196782C2DF776D7A97B5933C430F15651E5469C55D70F80A4992A3ADC954792C525AE70A1E4D6AD9816CC044FEFDF01FE3FDE907802504B030414
311
00060808008B7A6A483C4A3DDEF8000000960100003700000036464444383431302D334543442D343335372D384230432D3936363941463041443638342F4173736574446174612F636F72652E786D6C8550CB6EC32010FC156BEFD880ED34893091D5245FD0536F08888B1283C5A3EAE71762576A4F3DED6A76667677D8E9
311
6B7E549FDA07E3EC00A4C650692B9D32761A20C51BDA4375E2CC3B177FD1A0B262D6031418389BBC4BCB064967A3B605B54EE90D1421E808957CE46680203FF42C6A916266847BBD08791793AE49BDF2384BC9A84D6A54763337A33DF0C3A1DB5FCE578C08DE8DA86B478C0ED7578A28A65DDFE2974BD753D6143167D1CC3F
311
DBA5D7226A059C62B243B8CDF237D21F293ED2F69D3585C959883EFFBC2D2DDF011FCBD56711056BD6E91FD7B4A8FF5D93B1B1A59BEBAA08C0493EF239E0AC2929E5F28C30D79228FF06504B03041400060808008B7A6A483F6460D8F7000000940100003500000036464444383431302D334543442D343335372D38423043
311
2D3936363941463041443638342F536368656D61732F636F72652E786D6C8550CB6EC32010FC156BEFD880ED34893051D4263FD09E7A43405C94182C1E553FBF60BB527BEA6957B333B3BBC34E5FD3A3FAD43E1867072035864A5BE994B1E30029DED01EAA1367DEB9F88B069515931EA0C0C0D9E85D9A37483A1BB52DA875
311
4A6FA0084147A8E423370304F9A127518B143323DCEB59C8BB18754DEA95C7594A466D52A3B29BB919ED811F0EDDFEF272C588E0DD1975ED19A3C3F599228A69D7B7F8E9D2F5943545CC5934D3CF76E9B5885A01A798EC106EB3FC8DF4478A8FB47D674D617216A2CF3F6F4BCB77C05F973B036BD6D91FCF34ABFF3D93B1B1
311
A59BE7AA08C0493E711970D6948C725902CCB5E4C9BF01504B03041400060808008B7A6A487BF9F8E202010000D70100002D00000036464444383431302D334543442D343335372D384230432D3936363941463041443638342F636F72652E786D6C95914D6EC3201085AF62CD1E1BFC5727C24469DC9CA0ABEEA899382831
311
5806573D7EA176D576D7AE408FEFCDF066F8E17DBC276F383B6D4D0B2CA590A0E9ADD2666861F117D24072107CB6D6FFC0203172C416A20C820FB35DA64DEAADF168A26AACC24D94CEA187A4BF874B0BAEBFE22853B9F840B85B3AC9FE26074C59BA72827B3D7E59FB19A5470522A7AC26B4208C3EB36A9FD37D5EBCF02C92
311
822FDAF822DF9AE1F88A2AB1930F9140543C5B5F03B568B5315A853FEA8BC619447DEEBAA66494144FA78E9445F5409A477A22BBBADE1DCFF4D8D54D198A04B3E0CECF61325B913883BFDA57E3AF64CBA4FE996C753810EC3B5416C72C78F6B98370C695880F504B03041400060808008B7A6A48A31A3CFF06010000B20100
311
0008000000636F72652E786D6C8D50CB6EC32010FC15B4776C8CED348E3051D4265FD0536FD41017C506CB40D4FE7D21A6527BEB69D13C768665C7CF794277B53A6D4D0F554100293358A9CDD843F057BC0774E46CB5D6FF92013262563D2418381B571B960C0DD67865126AAC541914CE290F6898E2A307377CA8591422F8
311
A870B76211C34D8CAAA88A4DC799D7F38F755895F04A02A7A4DA6152E38ABC56ED819203ADDF5899949C85A0658ED232A6EBAB562BF0AE6BF6E7970B899EDD0937F589E0EEF24C3125B4696BF2746E5ACACA64E6CCF935FE392F893D3D72E29E7259B9519CBD5B3B65412C259135D31770C2CA44FC291D16F98FD2DAF89AE6
311
859BC301AF62A1071183D305E3789C37CE746DFE0D504B010214001400060808008B7A6A48EBC12A3EDB000000200100004F000000000000000000000000000000000036464444383431302D334543442D343335372D384230432D3936363941463041443638342F4173736574446174612F446566696E6974696F6E497465
311
7261746F7250726F706572746965732E62696E504B010214001400060808008B7A6A481B2379B5030100003002000045000000000000000000000000004801000036464444383431302D334543442D343335372D384230432D3936363941463041443638342F4173736574446174612F496E7374616E636550726F70657274
311
6965732E62696E504B010214001400060808008B7A6A4828BB58AF800100009E0500003D00000000000000000000000000AE02000036464444383431302D334543442D343335372D384230432D3936363941463041443638342F536368656D61732F436F6D6D6F6E536368656D612E786D6C504B010214001400060808008B
311
7A6A482CCEBD668A040000E01200003E000000000000000000000000008904000036464444383431302D334543442D343335372D384230432D3936363941463041443638342F536368656D61732F47656E65726963536368656D612E786D6C504B010214001400060808008B7A6A486180134D5F0100006B03000045000000
311
000000000000000000006F09000036464444383431302D334543442D343335372D384230432D3936363941463041443638342F536368656D61732F52656E6465724D6174657269616C536368656D612E786D6C504B010214001400060808008B7A6A48FAD9806351000000570000004700000000000000000000000000310B
311
000036464444383431302D334543442D343335372D384230432D3936363941463041443638342F4173736574446174612F41737365745461626C654F66436F6E74656E74732E62696E504B010214001400060808008B7A6A48F865834058000000680000004500000000000000000000000000E70B00003646444438343130
311
2D334543442D343335372D384230432D3936363941463041443638342F4173736574446174612F53747265616D56657273696F6E5461626C652E696E66504B010214001400060808008B7A6A488EA32F57340100009A0400003600000000000000000000000000A20C000036464444383431302D334543442D343335372D38
311
4230432D3936363941463041443638342F4173736574446174612F636E782E786D6C504B010214001400060808008B7A6A48F1397044080100004F03000034000000000000000000000000002A0E000036464444383431302D334543442D343335372D384230432D3936363941463041443638342F536368656D61732F636E
311
782E786D6C504B010214001400060808008B7A6A48410A3D5871000000A40000002C00000000000000000000000000840F000036464444383431302D334543442D343335372D384230432D3936363941463041443638342F636E782E786D6C504B010214001400060808008B7A6A48FBC4B9FA7E000000A300000007000000
311
000000000000000000003F100000636E782E786D6C504B010214001400060808008B7A6A4816E99B5DA6000000350100001300000000000000000000000000E21000005B436F6E74656E745F54797065735D2E786D6C504B010214001400060808008B7A6A483DEE336E64000000790000001B000000000000000000000000
311
00B91100006175746F6465736B2D64657369676E2D7061636B6167652E786D6C504B010214001400060808008B7A6A483C4A3DDEF80000009601000037000000000000000000000000005612000036464444383431302D334543442D343335372D384230432D3936363941463041443638342F4173736574446174612F636F
311
72652E786D6C504B010214001400060808008B7A6A483F6460D8F7000000940100003500000000000000000000000000A313000036464444383431302D334543442D343335372D384230432D3936363941463041443638342F536368656D61732F636F72652E786D6C504B010214001400060808008B7A6A487BF9F8E20201
311
0000D70100002D00000000000000000000000000ED14000036464444383431302D334543442D343335372D384230432D3936363941463041443638342F636F72652E786D6C504B010214001400060808008B7A6A48A31A3CFF06010000B201000008000000000000000000000000003A160000636F72652E786D6C504B0506
311
00000000110011005A060000661700000000
310
504B03041400060808008B7A6A48000000000000000000000000370000006662782F37363436363933452D443734302D343042392D423738442D3333344638413941343738412F617474726962757465732E62696E504B03041400060808008B7A6A48000000000000000000000000350000006662782F3736343636393345
310
2D443734302D343042392D423738442D3333344638413941343738412F76657274696365732E62696E504B03041400060808008B7A6A48F270F1330600000004000000360000006662782F37363436363933452D443734302D343042392D423738442D3333344638413941343738412F747269616E676C65732E62696E6366
310
60600000504B03041400060808008B7A6A4851464CB48900000043010000360000006662782F37363436363933452D443734302D343042392D423738442D3333344638413941343738412F6469726563746F72792E786D6C9D8F310EC2300C45AF127987122606C71DD918B841D4B851A43646695A717C52A85029031293A5
310
A76FBF6FACEF7DA7264E43906840EF0FA03836E242F406C6DCEE4EA06AC22492573150D1F66C60C640E8938CB705396EEDD86DE9B5042FE27813D640EA63BB001C722AF6E55CB61E4863F58284D5D3F53DD715CE1C3985E63FD7F1B7EBDD617E9F1E504B03041400060808008B7A6A48446E51082A0700001A1C0000340000
310
006662782F37363436363933452D443734302D343042392D423738442D3333344638413941343738412F6F626A656374732E786D6CDD59DB6EDB3810FD1542FB6C5D7C49EC427111DB716114698B1A5DEC9B404B94C38D6E20A55CF6EB774891B224CBB6926D816253A071686A387366E6CC70E47E7C8923F44418A7697263
310
38A66D2092F8694093FD8D51E4E1606AA08F73E4B234CD6BFB0C94E098DC1862D998BB7B9616995A0A48888BA8BDBA5EFC85B84F1262203FC29CDF18DC7F2031367191A701E18F6680736CEEC317D331CB8D4DB17B86B387D651196624C94155584F408AD2C069FE09265973D7121B1ADB86FDB68DCE6CB3A4E14D4569C273
310
9CF8475AB5E40CFB693572C6ABBBE16436988CC7A3C1F86AE80C16EBC56AE05C8FECE5D57239BBBD9B1968EEEED234AA1C909124002FBE1A73C7B5C43795F90A852EBDFD344988AFD0ECDA1010259712DEC6A401AC234DAB39A4B4B5B630EA69FC896DBD4069A8D4405B1BA77FD7A337DDFD0D20F03E51CA381151CE7306BE
310
56D897F960BB56B9DAF00BE528C63961144728A23B86193808B6960E6A8811D92244218199F4A29657D71502FB722E756919165124F2D798CB4CF3201F49CEA566F41FC20EDAD74F039DC0DA8226F954199BBF662062E65A72B1FC6E34545F9640A230C27B881630536C1A0D5B782D05176C56C6FCF37AF7B215FCD07D78C6
310
D28CB05C449E4C669577DA83B5D082E0EB014A896BD3770754BE03F45F00F94A17E482E7187D19BF8CB5ED0C273C4C590CDE41361AD8F09F8DC4C7A34FAE553D3C47A8C195A73085B4FD499836CC689C5D8374EE3E41D0A76CA48CDBFA388298BEA789C873081414A5B0047C1FEE5E8CF906C81416E1291C81F5F0CFB5C447
310
04BF4A39C0372D0F75D16F0F47E98469E7D9C1579F206618F52B57356C3C85EFE4A7E07BBBDA7EDE162CC43EB95789BD22214D680EC5B45BA106E88D94FFB1F92233F2C89EC62E1FCED9A782383AFCB2557E41D231A08AA8C3A56BE4CA3D85748F229C90B4E06ABD8BA8FC344A99B77BF5CA1CEE3CEB4F1D04E56190DF2202
310
3AC90CAABBCF68264031E6CABC8A09CD034E82075500EE4BA77A3BEC3F0A783D1F18EB3D7A40D462D6165AC49987E3B448047D1F8777DB347364CB1FC7990DEDD9703ABBD2C672295E678FA6864A79714E8CB313872C1BDE52ACA12597793406B6ECB2C0879EA9C8BD34C33ECDBB63A16584CA5000FBACCA010DC38203A977
310
C2D2D2D81C391364D7FEAF0E39AFBD3AC4A331DE132FC4A2C2759ED700A812AE2DE844661FA59CD38470D9A11C31570B15DB042228E3564BED0842CABD98E4F83DF1274B5E2BFC1809230F7AA95C74B397A34F2BA8AAE72989A2734B134FDAFFEA711C6751D9A55DC2C019B64EE8C455282D8E788278F370EED901914DF725
310
E9152F687C7B499FBD5BFC097818FEE5F0E82328B4DE50232F7BD63127CE4CFC4C8154AE26CEE85A3BE21256FAA85CF42051015D93FFEA3D13BA7FE84768BDCEE1240A3D1A4545EC95F5202731B460382F58AF7CBD9AD847CE57BCD04A88DA49218DA041EE4D9AB2F7D0DD0758259B8F53A4593B068CA209DCD17A19726445
310
67084B5FC8FBA8B8765DF6FEDBA5FE67BEACDF531EC9EB73CA824E4D9B6D84EEC074C320E85255B82A8EA4E4B95B4FBE585E5C2EE330D64214BF95B70415218C3C5131989037A0CEFB037FC6B90F44BA95BF070BC8888004879EA2214E8D398C391CAAA5E93EB57ED301B213E5A3D1786D04A1C6306DC08267EFC587E83B06
310
5743E7C72DD5D558E5FA46143613062B073DCEC8FAFA69DB92022BBD9FFE263022CF2D096A75291AB933A27E6C0EFD6A4B82B2E8C7E6CCE3F94311EF124C456514618183ECC3477997BCB1E0A260DDDD2E86ABEBF5623073D6B7E5EC627AB5BC1B8CA7EBA53DB39DA1335E588CF0B4603EE1D6D0B23DDD3B65C95E0746095D
310
9F1B054C152E5FFD743CB71DFC3FBE5144E90E9F8AC5DFF54251B57BA2216BE562DF0B452751EFDED6FD3B4744DD5DC4DED43997B3021DE0E7CB169091AEF7FD5B0B2D5A7712DD3AD72AE21B0BEFC9DBCA2FAF310D42EFAC0F8D1D5D94DFE462983D7554297DBB95BC361AAFD6B3F11278ECEA56F0D8743400F65A0FEE16E3
310
D5F5DD9D3D9CAEAB32D666AB4B75E5B7E0505D046B63349806F334A230942701DA93146E403075E8C1AF2C265CDE6CA00150655CBF11E8F1F4533953CDF12ED24FFB0F1806D391AAC8850F4351B875DC186A1DFD016350318994C329F3110A8F8A7603158CDE1810023985FA62EE609C258787527A6B5C09818B93BDB83395
310
4F557F1F1E13E840AC1CECAAF6F4C14559D6884E180E64F23D01B09D6E48DE6FBA5607E11C3EEE8ABC32E6B070B04681A05F0894C6C1D4EF51C1FB02C473DE2EC7947B1A90F49ACC9F8D8352EA20C76C2FC7EB35BC6F57DF2C3119DF7C455954EC853BCFD5FB86A481E833A2A21C42B91018CACC0C8B7BF8F283F58DA5F08A
310
29466B0A41602DD3384E13F5C7AD7A4585B60FF0C229B0F4B00F5A16DB9958B2E351037D98587162E2803FC20238955131152DC16DB8BE22A69AEBB52F8417E0B1C6FECD0A29FAAF35AF757211C0C8693E8214126F7144C2D437D4468F9005A095FCF2F0412FB81683F1F7FC5F504B03041400060808008B7A6A4820D06950
310
3E01000046050000300000006662782F37363436363933452D443734302D343042392D423738442D3333344638413941343738412F636E782E786D6CCD94C14A033110865F25E4BEC96E8B22259B82079FC08378CB66A76B6C36599289D8B737A9DBAA48C543A1BD85C93FF07F333F23D6EFA3256F10A2F1AEA50DAB2901A7
310
7D6FDCD0D2849BEA8E92B514C17BFC26A3C4A9115A5ACA548A21F834CDA51E362AD952B5C66DE7A2420CA64B0891126D558C2D8DFA0546C55442DF43DCB25EA1620D0B107D0A1A723F9A11E67E1D4021F4542EEAE6B6AA9755533F3637AB45BD5A2C9F052F4A293AEFEDAC370E21F889689F1F2E9BA9052FDF52A460664D21
310
A0F2CB19EB8C133CFF4B11B35B37CC3ADC4D45374DD66885794CDC6B04ACB208D428F8A7580A5E787F503FDC3F1D1C90DE04D0E8C3EE4203684E0DE0688CE524FC8F7F2FFC1BDB77AF19F752DB3E093BDB3A1BEA21AD31C7F5F7FE738A941BECF585FE68ECFC99CFA7048DBE3EE483AF3311F3FDC9CB4B2F17507E00504B03
310
041400060808008B7A6A48CEBA01867E000000A30000000B0000006662782F636E782E786D6C4D8CDF0AC2201C465F457EF796A1F807D4E158BDC7686E489B86CDE8F1D3D845571F1CBE7374F7D956F4F6F9155234703911403EDED314E262A0EC3396803AAB734AFBDF0D501C376FA061B07AC9A93C0F34F9792C6BA36B88
310
8F030ACE3857F48A07C10866A457B81772C094B29B74CA31215D35CE4DA9F3EBD56D79FB05504B03041400060808008B7A6A48A6D797065F0000008200000007000000636E782E786D6C4DCB3B0E80201045D1AD90E9FD7516806B51190811670C8A61F982B1B0BAC9C97B72CA7B1037C6D3332918DA1E04D2CAC69353902E
310
DB8C20262D23F3F59B81A079470595414B17391D1F19B4730A5583A7ED43BBE4025D9592775E5ADFFA01504B03041400060808008B7A6A484FEB6A7CA0000000F4000000130000005B436F6E74656E745F54797065735D2E786D6C7D8F4B0EC2300C44AF1279DFA6B0400835ED02B8011730C16D239A8F121795DB93D02D62
310
69CFBC19BBED573B8B17C564BC53B0AB1B10E4B47F18372A5878A88E20FAAEBDBD032591BD2E299898C349CAA427B2986A1FC86565F0D122E7318E32A07EE24872DF3407A9BD63725C71C980AEBDD080CBCCE2BAE6F5D69B7110E7CD57AA146008B3D1C8F92C5954F993BB1BF787F39A89ABC491D09600F9FDA2FB00504B03
310
041400060808008B7A6A483DEE336E64000000790000001B0000006175746F6465736B2D64657369676E2D7061636B6167652E786D6C35CBC10E83200C00D05F21DCA56CA76D41FC96062B120735B69A7DBE268BB7777961F8D5AF396893C2ADB70FE7ADA196782C2DF776D7A97B5933C430F15651E5469C55D70F80A4992A
310
3ADC954792C525AE70A1E4D6AD9816CC044FEFDF01FE3FDE907802504B03041400060808008B7A6A487C0568A4F8000000960100003B0000006662782F37363436363933452D443734302D343042392D423738442D3333344638413941343738412F7265736F75726365732F636F72652E786D6C8550CB6EC32010FC156BEF
310
D880D3C48A30919DF40F7AEA0DE18D8B1283C5A3EAE71712576A4F3DED6A76667677C4E96BB9579FE88371B6075653A8D06A37193BF790E29574509DA4F0CEC55F34A8AC5AB087028314B37769DD20ED6C445B50EB26DC40150246A8F43D373D04FD818BAA558A99116EF5AAF44DCD58B3FAC9932225336D523365377335E8
310
4176673674E7CB488603E764C7761732B46C24FB713833CA5F2F1D3D88A688A58866F9D9AE3DAA8813484ED99ED09630FAC65E8E9C1E79FB2E9AC29422449F7FDE9696EF407A0C2E798D4134CFE91FD7B44EFFBB266363CB37D7A7228064F9C8C7408AA6A494CB23C25C4BA2F21B504B03041400060808008B7A6A484619BB
310
42F3000000B1010000310000006662782F37363436363933452D443734302D343042392D423738442D3333344638413941343738412F636F72652E786D6C8D50CB6EC32010FC156BEFD8605CDB893091A3B45FD0536F08131725068B47D5CF2FC4AED4DE725A343BC3CC0E3B7D2FF7E24B39AFAD198094180A65A49DB49907
310
88E18A7A284E9C396BC31F1A14462C6A800C0367B3B371DD21694D5026A3C64E6A0785F72A4021EFE93180979F6A11A5882131FCAD5C85BC895995A4DC789C05BDFC4AA55322A809788D498B304504BF9397638D8F35FD6055667216A39E762B3D25777DD5CA01EFDAA66D0FF4155DBA06A3069F0FE8DCF5174469F3D68F87
310
B1E9FA915559CC990F2EDDBC7F92AF7B56BE09FF658EEBF444666D02AD77C34DE1819394E7B1E0ACCA05A6F16837CD5C36FF01504B03041400060808008B7A6A48A4A9156653010000DD0200000C0000006662782F636F72652E786D6C8D525D6F832014FD2B867754B06B4D8334B6DD3FD8D3DE285247AA60104C7FFEC08F
310
381FD62D2648CEBDF79C7B4E20A767DB448330BDD4AA00284E412414D7955475019CBDC31C44274A8CD6F6471B88146B4501020C28A98D76DD0C71ADAC500155BA1233C8FA5E5810F1C65F0AD0F32FD1B29839EB3BFA47DC31FE60B588513CF551E29CACE6515979367997C2009A5F50995FAE67581E30863BB4BBC2324367
310
B83F971794E2F76B9E1E48128629B1B25DD4B911CC8A0A509CA23D4C3388D20FF476C4E911679F24099D94F4D678CFB3687007E8FDF624C9846FF85C57FDCDE7A4B2199EF9A6891E50E4D71B0B9424211FFF1BC3DB66E8857D7E96DD9AC5C2C34383E0569B9DAF54DAADA581354E78EA341A3F924C55CF3C12FCC6835FF0BC
310
E6F0413155FBD598F5D79BB3417DBB53270C1CEC3352DAB4AC59979B565CCF5568636919E7BAD1E63FD38BD525CC243C4CFA0D504B03041400060808008B7A6A4845F69D8906010000B201000008000000636F72652E786D6C8D50CB6EC32010FC15B4776CC069624598C88FFE414FBD51431C141B2C83A3F6EF0BB12BB5B7
310
9E16CDCCEE0CC32F9FD3881E7AF1C6D90A68460069DB3B65EC50C11AAEB80474117C712EFC9201B272D2152418041F16B7CE3BD43B1BB44DA8754AEFA0F45E0740FD181F15F8FEA62799C9354485BF67B3ECEF72D019CD369DE0C14C3FABFDA265D00A0423F48849812979A32F6746CEAC78E779520ABEAE46ED5646457773
310
357A0151B6B42EDBAEC1F589317CA0870ED7056DF0B1A95B4AD86B579213CFD3B2E03E2CF1CFFB919833202F1FC997E71B25F88773E32E88A1147276FC0241789E883FA1D759FD23B4B1A160FBC16DC383A031D09388C6A9C1389EF5C699DA16DF504B010214001400060808008B7A6A480000000000000000000000003700
310
000000000000000000000000000000006662782F37363436363933452D443734302D343042392D423738442D3333344638413941343738412F617474726962757465732E62696E504B010214001400060808008B7A6A480000000000000000000000003500000000000000000000000000550000006662782F373634363639
310
33452D443734302D343042392D423738442D3333344638413941343738412F76657274696365732E62696E504B010214001400060808008B7A6A48F270F13306000000040000003600000000000000000000000000A80000006662782F37363436363933452D443734302D343042392D423738442D33333446384139413437
310
38412F747269616E676C65732E62696E504B010214001400060808008B7A6A4851464CB489000000430100003600000000000000000000000000020100006662782F37363436363933452D443734302D343042392D423738442D3333344638413941343738412F6469726563746F72792E786D6C504B010214001400060808
310
008B7A6A48446E51082A0700001A1C00003400000000000000000000000000DF0100006662782F37363436363933452D443734302D343042392D423738442D3333344638413941343738412F6F626A656374732E786D6C504B010214001400060808008B7A6A4820D069503E01000046050000300000000000000000000000
310
00005B0900006662782F37363436363933452D443734302D343042392D423738442D3333344638413941343738412F636E782E786D6C504B010214001400060808008B7A6A48CEBA01867E000000A30000000B00000000000000000000000000E70A00006662782F636E782E786D6C504B010214001400060808008B7A6A48
310
A6D797065F0000008200000007000000000000000000000000008E0B0000636E782E786D6C504B010214001400060808008B7A6A484FEB6A7CA0000000F40000001300000000000000000000000000120C00005B436F6E74656E745F54797065735D2E786D6C504B010214001400060808008B7A6A483DEE336E6400000079
310
0000001B00000000000000000000000000E30C00006175746F6465736B2D64657369676E2D7061636B6167652E786D6C504B010214001400060808008B7A6A487C0568A4F8000000960100003B00000000000000000000000000800D00006662782F37363436363933452D443734302D343042392D423738442D3333344638
310
413941343738412F7265736F75726365732F636F72652E786D6C504B010214001400060808008B7A6A484619BB42F3000000B10100003100000000000000000000000000D10E00006662782F37363436363933452D443734302D343042392D423738442D3333344638413941343738412F636F72652E786D6C504B01021400
310
1400060808008B7A6A48A4A9156653010000DD0200000C00000000000000000000000000131000006662782F636F72652E786D6C504B010214001400060808008B7A6A4845F69D8906010000B2010000080000000000000000000000000090110000636F72652E786D6C504B0506000000000E000E0080040000BC12000000
310
00
  0
XRECORD
  5
6494
102
{ACAD_REACTORS
330
648F
102
}
330
648F
100
AcDbXrecord
280
     1
270
     1
271
     1
  0
XRECORD
  5
6493
102
{ACAD_REACTORS
330
648F
102
}
330
648F
100
AcDbXrecord
280
     1
270
     1
271
     1
  0
XRECORD
  5
6495
102
{ACAD_REACTORS
330
648F
102
}
330
648F
100
AcDbXrecord
280
     1
270
     1
271
     1
  0
XRECORD
  5
6492
102
{ACAD_REACTORS
330
648F
102
}
330
648F
100
AcDbXrecord
280
     1
270
     1
271
     1
  0
XRECORD
  5
66BE
102
{ACAD_REACTORS
330
66BD
102
}
330
66BD
100
AcDbXrecord
280
     1
102
DISPLAYNAME
  1
Imperial24
102
FLAGS
 90
        0
  0
CELLSTYLEMAP
  5
667F
102
{ACAD_REACTORS
330
667E
102
}
330
667E
100
AcDbCellStyleMap
 90
        3
300
CELLSTYLE
  1
TABLEFORMAT_BEGIN
 90
        5
170
     1
 91
        0
 92
    32768
 62
   257
 93
        1
300
CONTENTFORMAT
  1
CONTENTFORMAT_BEGIN
 90
        0
 91
        0
 92
      512
 93
        0
300

 40
0.0
140
1.0
 94
        5
 62
     0
340
11
144
0.25
309
CONTENTFORMAT_END
171
     0
 94
        0
309
TABLEFORMAT_END
  1
CELLSTYLE_BEGIN
 90
        1
 91
        1
300
_TITLE
309
CELLSTYLE_END
300
CELLSTYLE
  1
TABLEFORMAT_BEGIN
 90
        5
170
     1
 91
        0
 92
        0
 62
   257
 93
        1
300
CONTENTFORMAT
  1
CONTENTFORMAT_BEGIN
 90
        0
 91
        0
 92
      512
 93
        0
300

 40
0.0
140
1.0
 94
        5
 62
     0
340
11
144
0.18
309
CONTENTFORMAT_END
171
     0
 94
        0
309
TABLEFORMAT_END
  1
CELLSTYLE_BEGIN
 90
        2
 91
        1
300
_HEADER
309
CELLSTYLE_END
300
CELLSTYLE
  1
TABLEFORMAT_BEGIN
 90
        5
170
     1
 91
        0
 92
        0
 62
   257
 93
        1
300
CONTENTFORMAT
  1
CONTENTFORMAT_BEGIN
 90
        0
 91
        0
 92
      512
 93
        0
300

 40
0.0
140
1.0
 94
        2
 62
     0
340
11
144
0.18
309
CONTENTFORMAT_END
171
     0
 94
        0
309
TABLEFORMAT_END
  1
CELLSTYLE_BEGIN
 90
        3
 91
        2
300
_DATA
309
CELLSTYLE_END
  0
XRECORD
  5
66BB
102
{ACAD_REACTORS
330
667E
102
}
330
667E
100
AcDbXrecord
280
     1
102
ACAD_ROUNDTRIP_PRE2007_TABLESTYLE
 90
      512
 91
        0
  1

 92
      512
 93
        0
  2

 94
      512
 95
        0
  3

  0
XRECORD
  5
6696
102
{ACAD_REACTORS
330
6695
102
}
330
6695
100
AcDbXrecord
280
     1
102
RTVSPost2010Prop28
280
     1
102
RTVSPost2010PropOp28
 70
     1
102
RTVSPost2010Prop29
280
     1
102
RTVSPost2010PropOp29
 70
     1
102
RTVSPost2010Prop30
280
     0
102
RTVSPost2010PropOp30
 70
     1
102
RTVSPost2010Prop31
280
     0
102
RTVSPost2010PropOp31
 70
     1
102
RTVSPost2010Prop32
280
     0
102
RTVSPost2010PropOp32
 70
     1
102
RTVSPost2010Prop33
280
     0
102
RTVSPost2010PropOp33
 70
     1
102
RTVSPost2010Prop34
280
     0
102
RTVSPost2010PropOp34
 70
     1
102
RTVSPost2010Prop35
280
     0
102
RTVSPost2010PropOp35
 70
     1
102
RTVSPost2010Prop36
280
     0
102
RTVSPost2010PropOp36
 70
     1
102
RTVSPost2010Prop37
 90
       50
102
RTVSPost2010PropOp37
 70
     1
102
RTVSPost2010Prop38
140
0.0
102
RTVSPost2010PropOp38
 70
     1
102
RTVSPost2010Prop39
140
1.0
102
RTVSPost2010PropOp39
 70
     1
102
RTVSPost2010Prop40
 90
        0
102
RTVSPost2010PropOp40
 70
     1
102
RTVSPost2010Prop41ColorIndex
 90
       18
102
RTVSPost2010Prop41ColorRGB
 90
        0
102
RTVSPost2010PropOp41
 70
     1
102
RTVSPost2010Prop42
 90
       50
102
RTVSPost2010PropOp42
 70
     1
102
RTVSPost2010Prop43
 90
        3
102
RTVSPost2010PropOp43
 70
     1
102
RTVSPost2010Prop44ColorIndex
 90
        5
102
RTVSPost2010Prop44ColorRGB
 90
      255
102
RTVSPost2010PropOp44
 70
     1
102
RTVSPost2010Prop45
280
     0
102
RTVSPost2010PropOp45
 70
     1
102
RTVSPost2010Prop46
 90
       50
102
RTVSPost2010PropOp46
 70
     1
102
RTVSPost2010Prop47
 90
       50
102
RTVSPost2010PropOp47
 70
     1
102
RTVSPost2010Prop48
 90
       50
102
RTVSPost2010PropOp48
 70
     1
102
RTVSPost2010Prop49
280
     0
102
RTVSPost2010PropOp49
 70
     1
102
RTVSPost2010Prop50
 90
       50
102
RTVSPost2010PropOp50
 70
     1
102
RTVSPost2010Prop51ColorIndex
 90
      256
102
RTVSPost2010Prop51ColorRGB
 90
-16777216
102
RTVSPost2010PropOp51
 70
     0
102
RTVSPost2010Prop52
140
1.0
102
RTVSPost2010PropOp52
 70
     0
102
RTVSPost2010Prop53
 90
        2
102
RTVSPost2010PropOp53
 70
     1
102
RTVSPost2010Prop54
  1
strokes_ogs.tif
102
RTVSPost2010PropOp54
 70
     1
102
RTVSPost2010Prop55
280
     0
102
RTVSPost2010PropOp55
 70
     1
102
RTVSPost2010Prop56
140
1.0
102
RTVSPost2010PropOp56
 70
     1
102
RTVSPost2010Prop57
140
1.0
102
RTVSPost2010PropOp57
 70
     1
102
RTVSPropertyOp0
 70
     1
102
RTVSPropertyOp1
 70
     1
102
RTVSPropertyOp2
 70
     1
102
RTVSPropertyOp3
 70
     1
102
RTVSPropertyOp4
 70
     1
102
RTVSPropertyOp5
 70
     1
102
RTVSPropertyOp6
 70
     1
102
RTVSPropertyOp7
 70
     1
102
RTVSPropertyOp8
 70
     1
102
RTVSPropertyOp9
 70
     1
102
RTVSPropertyOp10
 70
     1
102
RTVSPropertyOp11
 70
     1
102
RTVSPropertyOp12
 70
     1
102
RTVSPropertyOp13
 70
     1
102
RTVSPropertyOp14
 70
     1
102
RTVSPropertyOp15
 70
     1
102
RTVSPropertyOp16
 70
     1
102
RTVSPropertyOp17
 70
     1
102
RTVSPropertyOp18
 70
     1
102
RTVSPropertyOp19
 70
     1
102
RTVSPropertyOp20
 70
     1
102
RTVSPropertyOp21
 70
     1
102
RTVSPropertyOp22
 70
     1
102
RTVSPropertyOp23
 70
     1
102
RTVSPropertyOp24
 70
     1
102
RTVSPropertyOp25
 70
     1
102
RTVSPropertyOp26
 70
     1
102
RTVSPropertyOp27
 70
     1
102
RTVSPropertyOp28
 70
     1
102
RTVSPropertyOp29
 70
     1
102
RTVSPropertyOp30
 70
     1
102
RTVSPropertyOp31
 70
     1
102
RTVSPropertyOp32
 70
     1
102
RTVSPropertyOp33
 70
     1
102
RTVSPropertyOp34
 70
     1
102
RTVSPropertyOp35
 70
     1
102
RTVSPropertyOp36
 70
     1
102
RTVSPropertyOp37
 70
     1
102
RTVSPropertyOp38
 70
     1
102
RTVSPropertyOp39
 70
     1
102
RTVSPropertyOp40
 70
     1
102
RTVSPropertyOp41
 70
     1
102
RTVSPropertyOp42
 70
     1
102
RTVSPropertyOp43
 70
     1
102
RTVSPropertyOp44
 70
     1
102
RTVSPropertyOp45
 70
     1
102
RTVSPropertyOp46
 70
     1
102
RTVSPropertyOp47
 70
     1
102
RTVSPropertyOp48
 70
     1
102
RTVSPropertyOp49
 70
     1
102
RTVSPropertyOp50
 70
     1
102
RTVSPropertyOp51
 70
     0
102
RTVSPropertyOp52
 70
     0
102
RTVSPropertyOp53
 70
     1
102
RTVSPropertyOp54
 70
     1
102
RTVSPropertyOp55
 70
     1
102
RTVSPropertyOp56
 70
     1
102
RTVSPropertyOp57
 70
     1
102
RTVSPropertyOp58
 70
     1
102
RTVSPropertyOp59
 70
     1
102
RTVSPropertyOp60
 70
     1
102
RTVSPropertyOp61
 70
     1
102
RTVSPropertyOp62
 70
     1
  0
XRECORD
  5
6694
102
{ACAD_REACTORS
330
6693
102
}
330
6693
100
AcDbXrecord
280
     1
102
RTVSPost2010Prop28
280
     0
102
RTVSPost2010PropOp28
 70
     1
102
RTVSPost2010Prop29
280
     1
102
RTVSPost2010PropOp29
 70
     1
102
RTVSPost2010Prop30
280
     1
102
RTVSPost2010PropOp30
 70
     1
102
RTVSPost2010Prop31
280
     0
102
RTVSPost2010PropOp31
 70
     1
102
RTVSPost2010Prop32
280
     0
102
RTVSPost2010PropOp32
 70
     1
102
RTVSPost2010Prop33
280
     0
102
RTVSPost2010PropOp33
 70
     1
102
RTVSPost2010Prop34
280
     0
102
RTVSPost2010PropOp34
 70
     1
102
RTVSPost2010Prop35
280
     0
102
RTVSPost2010PropOp35
 70
     1
102
RTVSPost2010Prop36
280
     0
102
RTVSPost2010PropOp36
 70
     1
102
RTVSPost2010Prop37
 90
       50
102
RTVSPost2010PropOp37
 70
     1
102
RTVSPost2010Prop38
140
0.0
102
RTVSPost2010PropOp38
 70
     1
102
RTVSPost2010Prop39
140
1.0
102
RTVSPost2010PropOp39
 70
     1
102
RTVSPost2010Prop40
 90
        0
102
RTVSPost2010PropOp40
 70
     1
102
RTVSPost2010Prop41ColorIndex
 90
       18
102
RTVSPost2010Prop41ColorRGB
 90
        0
102
RTVSPost2010PropOp41
 70
     1
102
RTVSPost2010Prop42
 90
       50
102
RTVSPost2010PropOp42
 70
     1
102
RTVSPost2010Prop43
 90
        3
102
RTVSPost2010PropOp43
 70
     1
102
RTVSPost2010Prop44ColorIndex
 90
        5
102
RTVSPost2010Prop44ColorRGB
 90
      255
102
RTVSPost2010PropOp44
 70
     1
102
RTVSPost2010Prop45
280
     0
102
RTVSPost2010PropOp45
 70
     1
102
RTVSPost2010Prop46
 90
       50
102
RTVSPost2010PropOp46
 70
     1
102
RTVSPost2010Prop47
 90
       50
102
RTVSPost2010PropOp47
 70
     1
102
RTVSPost2010Prop48
 90
       50
102
RTVSPost2010PropOp48
 70
     1
102
RTVSPost2010Prop49
280
     0
102
RTVSPost2010PropOp49
 70
     1
102
RTVSPost2010Prop50
 90
       50
102
RTVSPost2010PropOp50
 70
     1
102
RTVSPost2010Prop51ColorIndex
 90
      256
102
RTVSPost2010Prop51ColorRGB
 90
-16777216
102
RTVSPost2010PropOp51
 70
     0
102
RTVSPost2010Prop52
140
1.0
102
RTVSPost2010PropOp52
 70
     0
102
RTVSPost2010Prop53
 90
        2
102
RTVSPost2010PropOp53
 70
     1
102
RTVSPost2010Prop54
  1
strokes_ogs.tif
102
RTVSPost2010PropOp54
 70
     1
102
RTVSPost2010Prop55
280
     0
102
RTVSPost2010PropOp55
 70
     1
102
RTVSPost2010Prop56
140
1.0
102
RTVSPost2010PropOp56
 70
     1
102
RTVSPost2010Prop57
140
1.0
102
RTVSPost2010PropOp57
 70
     1
102
RTVSPropertyOp0
 70
     1
102
RTVSPropertyOp1
 70
     1
102
RTVSPropertyOp2
 70
     1
102
RTVSPropertyOp3
 70
     1
102
RTVSPropertyOp4
 70
     1
102
RTVSPropertyOp5
 70
     1
102
RTVSPropertyOp6
 70
     1
102
RTVSPropertyOp7
 70
     1
102
RTVSPropertyOp8
 70
     1
102
RTVSPropertyOp9
 70
     1
102
RTVSPropertyOp10
 70
     1
102
RTVSPropertyOp11
 70
     1
102
RTVSPropertyOp12
 70
     1
102
RTVSPropertyOp13
 70
     1
102
RTVSPropertyOp14
 70
     1
102
RTVSPropertyOp15
 70
     1
102
RTVSPropertyOp16
 70
     1
102
RTVSPropertyOp17
 70
     1
102
RTVSPropertyOp18
 70
     1
102
RTVSPropertyOp19
 70
     1
102
RTVSPropertyOp20
 70
     1
102
RTVSPropertyOp21
 70
     1
102
RTVSPropertyOp22
 70
     1
102
RTVSPropertyOp23
 70
     1
102
RTVSPropertyOp24
 70
     1
102
RTVSPropertyOp25
 70
     1
102
RTVSPropertyOp26
 70
     1
102
RTVSPropertyOp27
 70
     1
102
RTVSPropertyOp28
 70
     1
102
RTVSPropertyOp29
 70
     1
102
RTVSPropertyOp30
 70
     1
102
RTVSPropertyOp31
 70
     1
102
RTVSPropertyOp32
 70
     1
102
RTVSPropertyOp33
 70
     1
102
RTVSPropertyOp34
 70
     1
102
RTVSPropertyOp35
 70
     1
102
RTVSPropertyOp36
 70
     1
102
RTVSPropertyOp37
 70
     1
102
RTVSPropertyOp38
 70
     1
102
RTVSPropertyOp39
 70
     1
102
RTVSPropertyOp40
 70
     1
102
RTVSPropertyOp41
 70
     1
102
RTVSPropertyOp42
 70
     1
102
RTVSPropertyOp43
 70
     1
102
RTVSPropertyOp44
 70
     1
102
RTVSPropertyOp45
 70
     1
102
RTVSPropertyOp46
 70
     1
102
RTVSPropertyOp47
 70
     1
102
RTVSPropertyOp48
 70
     1
102
RTVSPropertyOp49
 70
     1
102
RTVSPropertyOp50
 70
     1
102
RTVSPropertyOp51
 70
     0
102
RTVSPropertyOp52
 70
     0
102
RTVSPropertyOp53
 70
     1
102
RTVSPropertyOp54
 70
     1
102
RTVSPropertyOp55
 70
     1
102
RTVSPropertyOp56
 70
     1
102
RTVSPropertyOp57
 70
     1
102
RTVSPropertyOp58
 70
     1
102
RTVSPropertyOp59
 70
     1
102
RTVSPropertyOp60
 70
     1
102
RTVSPropertyOp61
 70
     1
102
RTVSPropertyOp62
 70
     1
  0
XRECORD
  5
66A2
102
{ACAD_REACTORS
330
66A1
102
}
330
66A1
100
AcDbXrecord
280
     1
102
RTVSPost2010Prop28
280
     0
102
RTVSPost2010PropOp28
 70
     1
102
RTVSPost2010Prop29
280
     1
102
RTVSPost2010PropOp29
 70
     1
102
RTVSPost2010Prop30
280
     1
102
RTVSPost2010PropOp30
 70
     1
102
RTVSPost2010Prop31
280
     0
102
RTVSPost2010PropOp31
 70
     1
102
RTVSPost2010Prop32
280
     0
102
RTVSPost2010PropOp32
 70
     1
102
RTVSPost2010Prop33
280
     0
102
RTVSPost2010PropOp33
 70
     1
102
RTVSPost2010Prop34
280
     0
102
RTVSPost2010PropOp34
 70
     1
102
RTVSPost2010Prop35
280
     0
102
RTVSPost2010PropOp35
 70
     1
102
RTVSPost2010Prop36
280
     0
102
RTVSPost2010PropOp36
 70
     1
102
RTVSPost2010Prop37
 90
       50
102
RTVSPost2010PropOp37
 70
     1
102
RTVSPost2010Prop38
140
0.0
102
RTVSPost2010PropOp38
 70
     1
102
RTVSPost2010Prop39
140
1.0
102
RTVSPost2010PropOp39
 70
     1
102
RTVSPost2010Prop40
 90
        0
102
RTVSPost2010PropOp40
 70
     1
102
RTVSPost2010Prop41ColorIndex
 90
       18
102
RTVSPost2010Prop41ColorRGB
 90
        0
102
RTVSPost2010PropOp41
 70
     1
102
RTVSPost2010Prop42
 90
       50
102
RTVSPost2010PropOp42
 70
     1
102
RTVSPost2010Prop43
 90
        3
102
RTVSPost2010PropOp43
 70
     1
102
RTVSPost2010Prop44ColorIndex
 90
        5
102
RTVSPost2010Prop44ColorRGB
 90
      255
102
RTVSPost2010PropOp44
 70
     1
102
RTVSPost2010Prop45
280
     0
102
RTVSPost2010PropOp45
 70
     1
102
RTVSPost2010Prop46
 90
       50
102
RTVSPost2010PropOp46
 70
     1
102
RTVSPost2010Prop47
 90
       50
102
RTVSPost2010PropOp47
 70
     1
102
RTVSPost2010Prop48
 90
       50
102
RTVSPost2010PropOp48
 70
     1
102
RTVSPost2010Prop49
280
     0
102
RTVSPost2010PropOp49
 70
     1
102
RTVSPost2010Prop50
 90
       50
102
RTVSPost2010PropOp50
 70
     1
102
RTVSPost2010Prop51ColorIndex
 90
      256
102
RTVSPost2010Prop51ColorRGB
 90
-16777216
102
RTVSPost2010PropOp51
 70
     0
102
RTVSPost2010Prop52
140
1.0
102
RTVSPost2010PropOp52
 70
     0
102
RTVSPost2010Prop53
 90
        2
102
RTVSPost2010PropOp53
 70
     1
102
RTVSPost2010Prop54
  1
strokes_ogs.tif
102
RTVSPost2010PropOp54
 70
     1
102
RTVSPost2010Prop55
280
     0
102
RTVSPost2010PropOp55
 70
     1
102
RTVSPost2010Prop56
140
1.0
102
RTVSPost2010PropOp56
 70
     1
102
RTVSPost2010Prop57
140
1.0
102
RTVSPost2010PropOp57
 70
     1
102
RTVSPropertyOp0
 70
     1
102
RTVSPropertyOp1
 70
     1
102
RTVSPropertyOp2
 70
     1
102
RTVSPropertyOp3
 70
     1
102
RTVSPropertyOp4
 70
     1
102
RTVSPropertyOp5
 70
     1
102
RTVSPropertyOp6
 70
     1
102
RTVSPropertyOp7
 70
     1
102
RTVSPropertyOp8
 70
     1
102
RTVSPropertyOp9
 70
     1
102
RTVSPropertyOp10
 70
     1
102
RTVSPropertyOp11
 70
     1
102
RTVSPropertyOp12
 70
     1
102
RTVSPropertyOp13
 70
     1
102
RTVSPropertyOp14
 70
     1
102
RTVSPropertyOp15
 70
     1
102
RTVSPropertyOp16
 70
     1
102
RTVSPropertyOp17
 70
     1
102
RTVSPropertyOp18
 70
     1
102
RTVSPropertyOp19
 70
     1
102
RTVSPropertyOp20
 70
     1
102
RTVSPropertyOp21
 70
     1
102
RTVSPropertyOp22
 70
     1
102
RTVSPropertyOp23
 70
     1
102
RTVSPropertyOp24
 70
     1
102
RTVSPropertyOp25
 70
     1
102
RTVSPropertyOp26
 70
     1
102
RTVSPropertyOp27
 70
     1
102
RTVSPropertyOp28
 70
     1
102
RTVSPropertyOp29
 70
     1
102
RTVSPropertyOp30
 70
     1
102
RTVSPropertyOp31
 70
     1
102
RTVSPropertyOp32
 70
     1
102
RTVSPropertyOp33
 70
     1
102
RTVSPropertyOp34
 70
     1
102
RTVSPropertyOp35
 70
     1
102
RTVSPropertyOp36
 70
     1
102
RTVSPropertyOp37
 70
     1
102
RTVSPropertyOp38
 70
     1
102
RTVSPropertyOp39
 70
     1
102
RTVSPropertyOp40
 70
     1
102
RTVSPropertyOp41
 70
     1
102
RTVSPropertyOp42
 70
     1
102
RTVSPropertyOp43
 70
     1
102
RTVSPropertyOp44
 70
     1
102
RTVSPropertyOp45
 70
     1
102
RTVSPropertyOp46
 70
     1
102
RTVSPropertyOp47
 70
     1
102
RTVSPropertyOp48
 70
     1
102
RTVSPropertyOp49
 70
     1
102
RTVSPropertyOp50
 70
     1
102
RTVSPropertyOp51
 70
     0
102
RTVSPropertyOp52
 70
     0
102
RTVSPropertyOp53
 70
     1
102
RTVSPropertyOp54
 70
     1
102
RTVSPropertyOp55
 70
     1
102
RTVSPropertyOp56
 70
     1
102
RTVSPropertyOp57
 70
     1
102
RTVSPropertyOp58
 70
     1
102
RTVSPropertyOp59
 70
     1
102
RTVSPropertyOp60
 70
     1
102
RTVSPropertyOp61
 70
     1
102
RTVSPropertyOp62
 70
     1
  0
XRECORD
  5
66AA
102
{ACAD_REACTORS
330
66A9
102
}
330
66A9
100
AcDbXrecord
280
     1
102
RTVSPost2010Prop28
280
     0
102
RTVSPost2010PropOp28
 70
     1
102
RTVSPost2010Prop29
280
     1
102
RTVSPost2010PropOp29
 70
     1
102
RTVSPost2010Prop30
280
     1
102
RTVSPost2010PropOp30
 70
     1
102
RTVSPost2010Prop31
280
     0
102
RTVSPost2010PropOp31
 70
     1
102
RTVSPost2010Prop32
280
     0
102
RTVSPost2010PropOp32
 70
     1
102
RTVSPost2010Prop33
280
     0
102
RTVSPost2010PropOp33
 70
     1
102
RTVSPost2010Prop34
280
     0
102
RTVSPost2010PropOp34
 70
     1
102
RTVSPost2010Prop35
280
     0
102
RTVSPost2010PropOp35
 70
     1
102
RTVSPost2010Prop36
280
     0
102
RTVSPost2010PropOp36
 70
     1
102
RTVSPost2010Prop37
 90
       50
102
RTVSPost2010PropOp37
 70
     1
102
RTVSPost2010Prop38
140
0.0
102
RTVSPost2010PropOp38
 70
     1
102
RTVSPost2010Prop39
140
1.0
102
RTVSPost2010PropOp39
 70
     1
102
RTVSPost2010Prop40
 90
        0
102
RTVSPost2010PropOp40
 70
     1
102
RTVSPost2010Prop41ColorIndex
 90
       18
102
RTVSPost2010Prop41ColorRGB
 90
        0
102
RTVSPost2010PropOp41
 70
     1
102
RTVSPost2010Prop42
 90
       50
102
RTVSPost2010PropOp42
 70
     1
102
RTVSPost2010Prop43
 90
        3
102
RTVSPost2010PropOp43
 70
     1
102
RTVSPost2010Prop44ColorIndex
 90
        5
102
RTVSPost2010Prop44ColorRGB
 90
      255
102
RTVSPost2010PropOp44
 70
     1
102
RTVSPost2010Prop45
280
     0
102
RTVSPost2010PropOp45
 70
     1
102
RTVSPost2010Prop46
 90
       50
102
RTVSPost2010PropOp46
 70
     1
102
RTVSPost2010Prop47
 90
       50
102
RTVSPost2010PropOp47
 70
     1
102
RTVSPost2010Prop48
 90
       50
102
RTVSPost2010PropOp48
 70
     1
102
RTVSPost2010Prop49
280
     0
102
RTVSPost2010PropOp49
 70
     1
102
RTVSPost2010Prop50
 90
       50
102
RTVSPost2010PropOp50
 70
     1
102
RTVSPost2010Prop51ColorIndex
 90
      256
102
RTVSPost2010Prop51ColorRGB
 90
-16777216
102
RTVSPost2010PropOp51
 70
     0
102
RTVSPost2010Prop52
140
1.0
102
RTVSPost2010PropOp52
 70
     0
102
RTVSPost2010Prop53
 90
        2
102
RTVSPost2010PropOp53
 70
     1
102
RTVSPost2010Prop54
  1
strokes_ogs.tif
102
RTVSPost2010PropOp54
 70
     1
102
RTVSPost2010Prop55
280
     0
102
RTVSPost2010PropOp55
 70
     1
102
RTVSPost2010Prop56
140
1.0
102
RTVSPost2010PropOp56
 70
     1
102
RTVSPost2010Prop57
140
1.0
102
RTVSPost2010PropOp57
 70
     1
102
RTVSPropertyOp0
 70
     1
102
RTVSPropertyOp1
 70
     1
102
RTVSPropertyOp2
 70
     1
102
RTVSPropertyOp3
 70
     1
102
RTVSPropertyOp4
 70
     1
102
RTVSPropertyOp5
 70
     1
102
RTVSPropertyOp6
 70
     1
102
RTVSPropertyOp7
 70
     1
102
RTVSPropertyOp8
 70
     1
102
RTVSPropertyOp9
 70
     1
102
RTVSPropertyOp10
 70
     1
102
RTVSPropertyOp11
 70
     1
102
RTVSPropertyOp12
 70
     1
102
RTVSPropertyOp13
 70
     1
102
RTVSPropertyOp14
 70
     1
102
RTVSPropertyOp15
 70
     1
102
RTVSPropertyOp16
 70
     1
102
RTVSPropertyOp17
 70
     1
102
RTVSPropertyOp18
 70
     1
102
RTVSPropertyOp19
 70
     1
102
RTVSPropertyOp20
 70
     1
102
RTVSPropertyOp21
 70
     1
102
RTVSPropertyOp22
 70
     1
102
RTVSPropertyOp23
 70
     1
102
RTVSPropertyOp24
 70
     1
102
RTVSPropertyOp25
 70
     1
102
RTVSPropertyOp26
 70
     1
102
RTVSPropertyOp27
 70
     1
102
RTVSPropertyOp28
 70
     1
102
RTVSPropertyOp29
 70
     1
102
RTVSPropertyOp30
 70
     1
102
RTVSPropertyOp31
 70
     1
102
RTVSPropertyOp32
 70
     1
102
RTVSPropertyOp33
 70
     1
102
RTVSPropertyOp34
 70
     1
102
RTVSPropertyOp35
 70
     1
102
RTVSPropertyOp36
 70
     1
102
RTVSPropertyOp37
 70
     1
102
RTVSPropertyOp38
 70
     1
102
RTVSPropertyOp39
 70
     1
102
RTVSPropertyOp40
 70
     1
102
RTVSPropertyOp41
 70
     1
102
RTVSPropertyOp42
 70
     1
102
RTVSPropertyOp43
 70
     1
102
RTVSPropertyOp44
 70
     1
102
RTVSPropertyOp45
 70
     1
102
RTVSPropertyOp46
 70
     1
102
RTVSPropertyOp47
 70
     1
102
RTVSPropertyOp48
 70
     1
102
RTVSPropertyOp49
 70
     1
102
RTVSPropertyOp50
 70
     1
102
RTVSPropertyOp51
 70
     0
102
RTVSPropertyOp52
 70
     0
102
RTVSPropertyOp53
 70
     1
102
RTVSPropertyOp54
 70
     1
102
RTVSPropertyOp55
 70
     1
102
RTVSPropertyOp56
 70
     1
102
RTVSPropertyOp57
 70
     1
102
RTVSPropertyOp58
 70
     1
102
RTVSPropertyOp59
 70
     1
102
RTVSPropertyOp60
 70
     1
102
RTVSPropertyOp61
 70
     1
102
RTVSPropertyOp62
 70
     1
  0
XRECORD
  5
669C
102
{ACAD_REACTORS
330
669B
102
}
330
669B
100
AcDbXrecord
280
     1
102
RTVSPost2010Prop28
280
     0
102
RTVSPost2010PropOp28
 70
     1
102
RTVSPost2010Prop29
280
     1
102
RTVSPost2010PropOp29
 70
     1
102
RTVSPost2010Prop30
280
     1
102
RTVSPost2010PropOp30
 70
     1
102
RTVSPost2010Prop31
280
     0
102
RTVSPost2010PropOp31
 70
     1
102
RTVSPost2010Prop32
280
     0
102
RTVSPost2010PropOp32
 70
     1
102
RTVSPost2010Prop33
280
     0
102
RTVSPost2010PropOp33
 70
     1
102
RTVSPost2010Prop34
280
     0
102
RTVSPost2010PropOp34
 70
     1
102
RTVSPost2010Prop35
280
     0
102
RTVSPost2010PropOp35
 70
     1
102
RTVSPost2010Prop36
280
     0
102
RTVSPost2010PropOp36
 70
     1
102
RTVSPost2010Prop37
 90
       50
102
RTVSPost2010PropOp37
 70
     1
102
RTVSPost2010Prop38
140
0.0
102
RTVSPost2010PropOp38
 70
     1
102
RTVSPost2010Prop39
140
1.0
102
RTVSPost2010PropOp39
 70
     1
102
RTVSPost2010Prop40
 90
        0
102
RTVSPost2010PropOp40
 70
     1
102
RTVSPost2010Prop41ColorIndex
 90
       18
102
RTVSPost2010Prop41ColorRGB
 90
        0
102
RTVSPost2010PropOp41
 70
     1
102
RTVSPost2010Prop42
 90
       50
102
RTVSPost2010PropOp42
 70
     1
102
RTVSPost2010Prop43
 90
        3
102
RTVSPost2010PropOp43
 70
     1
102
RTVSPost2010Prop44ColorIndex
 90
        5
102
RTVSPost2010Prop44ColorRGB
 90
      255
102
RTVSPost2010PropOp44
 70
     1
102
RTVSPost2010Prop45
280
     0
102
RTVSPost2010PropOp45
 70
     1
102
RTVSPost2010Prop46
 90
       50
102
RTVSPost2010PropOp46
 70
     1
102
RTVSPost2010Prop47
 90
       50
102
RTVSPost2010PropOp47
 70
     1
102
RTVSPost2010Prop48
 90
       50
102
RTVSPost2010PropOp48
 70
     1
102
RTVSPost2010Prop49
280
     0
102
RTVSPost2010PropOp49
 70
     1
102
RTVSPost2010Prop50
 90
       50
102
RTVSPost2010PropOp50
 70
     1
102
RTVSPost2010Prop51ColorIndex
 90
      256
102
RTVSPost2010Prop51ColorRGB
 90
-16777216
102
RTVSPost2010PropOp51
 70
     0
102
RTVSPost2010Prop52
140
1.0
102
RTVSPost2010PropOp52
 70
     0
102
RTVSPost2010Prop53
 90
        2
102
RTVSPost2010PropOp53
 70
     1
102
RTVSPost2010Prop54
  1
strokes_ogs.tif
102
RTVSPost2010PropOp54
 70
     1
102
RTVSPost2010Prop55
280
     0
102
RTVSPost2010PropOp55
 70
     1
102
RTVSPost2010Prop56
140
1.0
102
RTVSPost2010PropOp56
 70
     1
102
RTVSPost2010Prop57
140
1.0
102
RTVSPost2010PropOp57
 70
     1
102
RTVSPropertyOp0
 70
     1
102
RTVSPropertyOp1
 70
     1
102
RTVSPropertyOp2
 70
     1
102
RTVSPropertyOp3
 70
     1
102
RTVSPropertyOp4
 70
     1
102
RTVSPropertyOp5
 70
     1
102
RTVSPropertyOp6
 70
     1
102
RTVSPropertyOp7
 70
     1
102
RTVSPropertyOp8
 70
     1
102
RTVSPropertyOp9
 70
     1
102
RTVSPropertyOp10
 70
     1
102
RTVSPropertyOp11
 70
     1
102
RTVSPropertyOp12
 70
     1
102
RTVSPropertyOp13
 70
     1
102
RTVSPropertyOp14
 70
     1
102
RTVSPropertyOp15
 70
     1
102
RTVSPropertyOp16
 70
     1
102
RTVSPropertyOp17
 70
     1
102
RTVSPropertyOp18
 70
     1
102
RTVSPropertyOp19
 70
     1
102
RTVSPropertyOp20
 70
     1
102
RTVSPropertyOp21
 70
     1
102
RTVSPropertyOp22
 70
     1
102
RTVSPropertyOp23
 70
     1
102
RTVSPropertyOp24
 70
     1
102
RTVSPropertyOp25
 70
     1
102
RTVSPropertyOp26
 70
     1
102
RTVSPropertyOp27
 70
     1
102
RTVSPropertyOp28
 70
     1
102
RTVSPropertyOp29
 70
     1
102
RTVSPropertyOp30
 70
     1
102
RTVSPropertyOp31
 70
     1
102
RTVSPropertyOp32
 70
     1
102
RTVSPropertyOp33
 70
     1
102
RTVSPropertyOp34
 70
     1
102
RTVSPropertyOp35
 70
     1
102
RTVSPropertyOp36
 70
     1
102
RTVSPropertyOp37
 70
     1
102
RTVSPropertyOp38
 70
     1
102
RTVSPropertyOp39
 70
     1
102
RTVSPropertyOp40
 70
     1
102
RTVSPropertyOp41
 70
     1
102
RTVSPropertyOp42
 70
     1
102
RTVSPropertyOp43
 70
     1
102
RTVSPropertyOp44
 70
     1
102
RTVSPropertyOp45
 70
     1
102
RTVSPropertyOp46
 70
     1
102
RTVSPropertyOp47
 70
     1
102
RTVSPropertyOp48
 70
     1
102
RTVSPropertyOp49
 70
     1
102
RTVSPropertyOp50
 70
     1
102
RTVSPropertyOp51
 70
     0
102
RTVSPropertyOp52
 70
     0
102
RTVSPropertyOp53
 70
     1
102
RTVSPropertyOp54
 70
     1
102
RTVSPropertyOp55
 70
     1
102
RTVSPropertyOp56
 70
     1
102
RTVSPropertyOp57
 70
     1
102
RTVSPropertyOp58
 70
     1
102
RTVSPropertyOp59
 70
     1
102
RTVSPropertyOp60
 70
     1
102
RTVSPropertyOp61
 70
     1
102
RTVSPropertyOp62
 70
     1
  0
XRECORD
  5
66A0
102
{ACAD_REACTORS
330
669F
102
}
330
669F
100
AcDbXrecord
280
     1
102
RTVSPost2010Prop28
280
     0
102
RTVSPost2010PropOp28
 70
     1
102
RTVSPost2010Prop29
280
     1
102
RTVSPost2010PropOp29
 70
     1
102
RTVSPost2010Prop30
280
     1
102
RTVSPost2010PropOp30
 70
     1
102
RTVSPost2010Prop31
280
     0
102
RTVSPost2010PropOp31
 70
     1
102
RTVSPost2010Prop32
280
     0
102
RTVSPost2010PropOp32
 70
     1
102
RTVSPost2010Prop33
280
     0
102
RTVSPost2010PropOp33
 70
     1
102
RTVSPost2010Prop34
280
     0
102
RTVSPost2010PropOp34
 70
     1
102
RTVSPost2010Prop35
280
     0
102
RTVSPost2010PropOp35
 70
     1
102
RTVSPost2010Prop36
280
     0
102
RTVSPost2010PropOp36
 70
     1
102
RTVSPost2010Prop37
 90
       50
102
RTVSPost2010PropOp37
 70
     1
102
RTVSPost2010Prop38
140
0.0
102
RTVSPost2010PropOp38
 70
     1
102
RTVSPost2010Prop39
140
1.0
102
RTVSPost2010PropOp39
 70
     1
102
RTVSPost2010Prop40
 90
        0
102
RTVSPost2010PropOp40
 70
     1
102
RTVSPost2010Prop41ColorIndex
 90
       18
102
RTVSPost2010Prop41ColorRGB
 90
        0
102
RTVSPost2010PropOp41
 70
     1
102
RTVSPost2010Prop42
 90
       50
102
RTVSPost2010PropOp42
 70
     1
102
RTVSPost2010Prop43
 90
        3
102
RTVSPost2010PropOp43
 70
     1
102
RTVSPost2010Prop44ColorIndex
 90
        5
102
RTVSPost2010Prop44ColorRGB
 90
      255
102
RTVSPost2010PropOp44
 70
     1
102
RTVSPost2010Prop45
280
     0
102
RTVSPost2010PropOp45
 70
     1
102
RTVSPost2010Prop46
 90
       50
102
RTVSPost2010PropOp46
 70
     1
102
RTVSPost2010Prop47
 90
       50
102
RTVSPost2010PropOp47
 70
     1
102
RTVSPost2010Prop48
 90
       50
102
RTVSPost2010PropOp48
 70
     1
102
RTVSPost2010Prop49
280
     0
102
RTVSPost2010PropOp49
 70
     1
102
RTVSPost2010Prop50
 90
       50
102
RTVSPost2010PropOp50
 70
     1
102
RTVSPost2010Prop51ColorIndex
 90
      256
102
RTVSPost2010Prop51ColorRGB
 90
-16777216
102
RTVSPost2010PropOp51
 70
     0
102
RTVSPost2010Prop52
140
1.0
102
RTVSPost2010PropOp52
 70
     0
102
RTVSPost2010Prop53
 90
        2
102
RTVSPost2010PropOp53
 70
     1
102
RTVSPost2010Prop54
  1
strokes_ogs.tif
102
RTVSPost2010PropOp54
 70
     1
102
RTVSPost2010Prop55
280
     0
102
RTVSPost2010PropOp55
 70
     1
102
RTVSPost2010Prop56
140
1.0
102
RTVSPost2010PropOp56
 70
     1
102
RTVSPost2010Prop57
140
1.0
102
RTVSPost2010PropOp57
 70
     1
102
RTVSPropertyOp0
 70
     1
102
RTVSPropertyOp1
 70
     1
102
RTVSPropertyOp2
 70
     1
102
RTVSPropertyOp3
 70
     1
102
RTVSPropertyOp4
 70
     1
102
RTVSPropertyOp5
 70
     1
102
RTVSPropertyOp6
 70
     1
102
RTVSPropertyOp7
 70
     1
102
RTVSPropertyOp8
 70
     1
102
RTVSPropertyOp9
 70
     1
102
RTVSPropertyOp10
 70
     1
102
RTVSPropertyOp11
 70
     1
102
RTVSPropertyOp12
 70
     1
102
RTVSPropertyOp13
 70
     1
102
RTVSPropertyOp14
 70
     1
102
RTVSPropertyOp15
 70
     1
102
RTVSPropertyOp16
 70
     1
102
RTVSPropertyOp17
 70
     1
102
RTVSPropertyOp18
 70
     1
102
RTVSPropertyOp19
 70
     1
102
RTVSPropertyOp20
 70
     1
102
RTVSPropertyOp21
 70
     1
102
RTVSPropertyOp22
 70
     1
102
RTVSPropertyOp23
 70
     1
102
RTVSPropertyOp24
 70
     1
102
RTVSPropertyOp25
 70
     1
102
RTVSPropertyOp26
 70
     1
102
RTVSPropertyOp27
 70
     1
102
RTVSPropertyOp28
 70
     1
102
RTVSPropertyOp29
 70
     1
102
RTVSPropertyOp30
 70
     1
102
RTVSPropertyOp31
 70
     1
102
RTVSPropertyOp32
 70
     1
102
RTVSPropertyOp33
 70
     1
102
RTVSPropertyOp34
 70
     1
102
RTVSPropertyOp35
 70
     1
102
RTVSPropertyOp36
 70
     1
102
RTVSPropertyOp37
 70
     1
102
RTVSPropertyOp38
 70
     1
102
RTVSPropertyOp39
 70
     1
102
RTVSPropertyOp40
 70
     1
102
RTVSPropertyOp41
 70
     1
102
RTVSPropertyOp42
 70
     1
102
RTVSPropertyOp43
 70
     1
102
RTVSPropertyOp44
 70
     1
102
RTVSPropertyOp45
 70
     1
102
RTVSPropertyOp46
 70
     1
102
RTVSPropertyOp47
 70
     1
102
RTVSPropertyOp48
 70
     1
102
RTVSPropertyOp49
 70
     1
102
RTVSPropertyOp50
 70
     1
102
RTVSPropertyOp51
 70
     0
102
RTVSPropertyOp52
 70
     0
102
RTVSPropertyOp53
 70
     1
102
RTVSPropertyOp54
 70
     1
102
RTVSPropertyOp55
 70
     1
102
RTVSPropertyOp56
 70
     1
102
RTVSPropertyOp57
 70
     1
102
RTVSPropertyOp58
 70
     1
102
RTVSPropertyOp59
 70
     1
102
RTVSPropertyOp60
 70
     1
102
RTVSPropertyOp61
 70
     1
102
RTVSPropertyOp62
 70
     1
  0
XRECORD
  5
66BA
102
{ACAD_REACTORS
330
66B9
102
}
330
66B9
100
AcDbXrecord
280
     1
102
RTVSPost2010Prop28
280
     0
102
RTVSPost2010PropOp28
 70
     1
102
RTVSPost2010Prop29
280
     1
102
RTVSPost2010PropOp29
 70
     1
102
RTVSPost2010Prop30
280
     1
102
RTVSPost2010PropOp30
 70
     1
102
RTVSPost2010Prop31
280
     0
102
RTVSPost2010PropOp31
 70
     1
102
RTVSPost2010Prop32
280
     0
102
RTVSPost2010PropOp32
 70
     1
102
RTVSPost2010Prop33
280
     0
102
RTVSPost2010PropOp33
 70
     1
102
RTVSPost2010Prop34
280
     0
102
RTVSPost2010PropOp34
 70
     1
102
RTVSPost2010Prop35
280
     0
102
RTVSPost2010PropOp35
 70
     1
102
RTVSPost2010Prop36
280
     0
102
RTVSPost2010PropOp36
 70
     1
102
RTVSPost2010Prop37
 90
       50
102
RTVSPost2010PropOp37
 70
     0
102
RTVSPost2010Prop38
140
0.0
102
RTVSPost2010PropOp38
 70
     0
102
RTVSPost2010Prop39
140
1.0
102
RTVSPost2010PropOp39
 70
     0
102
RTVSPost2010Prop40
 90
        0
102
RTVSPost2010PropOp40
 70
     0
102
RTVSPost2010Prop41ColorIndex
 90
       18
102
RTVSPost2010Prop41ColorRGB
 90
        0
102
RTVSPost2010PropOp41
 70
     0
102
RTVSPost2010Prop42
 90
       50
102
RTVSPost2010PropOp42
 70
     0
102
RTVSPost2010Prop43
 90
        3
102
RTVSPost2010PropOp43
 70
     0
102
RTVSPost2010Prop44ColorIndex
 90
        5
102
RTVSPost2010Prop44ColorRGB
 90
      255
102
RTVSPost2010PropOp44
 70
     0
102
RTVSPost2010Prop45
280
     0
102
RTVSPost2010PropOp45
 70
     1
102
RTVSPost2010Prop46
 90
       50
102
RTVSPost2010PropOp46
 70
     0
102
RTVSPost2010Prop47
 90
       50
102
RTVSPost2010PropOp47
 70
     0
102
RTVSPost2010Prop48
 90
       50
102
RTVSPost2010PropOp48
 70
     0
102
RTVSPost2010Prop49
280
     0
102
RTVSPost2010PropOp49
 70
     1
102
RTVSPost2010Prop50
 90
       50
102
RTVSPost2010PropOp50
 70
     0
102
RTVSPost2010Prop51ColorIndex
 90
      256
102
RTVSPost2010Prop51ColorRGB
 90
-16777216
102
RTVSPost2010PropOp51
 70
     0
102
RTVSPost2010Prop52
140
1.0
102
RTVSPost2010PropOp52
 70
     0
102
RTVSPost2010Prop53
 90
        2
102
RTVSPost2010PropOp53
 70
     0
102
RTVSPost2010Prop54
  1
strokes_ogs.tif
102
RTVSPost2010PropOp54
 70
     0
102
RTVSPost2010Prop55
280
     0
102
RTVSPost2010PropOp55
 70
     1
102
RTVSPost2010Prop56
140
1.0
102
RTVSPost2010PropOp56
 70
     0
102
RTVSPost2010Prop57
140
1.0
102
RTVSPost2010PropOp57
 70
     0
102
RTVSPropertyOp0
 70
     0
102
RTVSPropertyOp1
 70
     0
102
RTVSPropertyOp2
 70
     0
102
RTVSPropertyOp3
 70
     0
102
RTVSPropertyOp4
 70
     0
102
RTVSPropertyOp5
 70
     0
102
RTVSPropertyOp6
 70
     0
102
RTVSPropertyOp7
 70
     0
102
RTVSPropertyOp8
 70
     0
102
RTVSPropertyOp9
 70
     0
102
RTVSPropertyOp10
 70
     0
102
RTVSPropertyOp11
 70
     0
102
RTVSPropertyOp12
 70
     0
102
RTVSPropertyOp13
 70
     0
102
RTVSPropertyOp14
 70
     2
102
RTVSPropertyOp15
 70
     0
102
RTVSPropertyOp16
 70
     0
102
RTVSPropertyOp17
 70
     0
102
RTVSPropertyOp18
 70
     0
102
RTVSPropertyOp19
 70
     0
102
RTVSPropertyOp20
 70
     0
102
RTVSPropertyOp21
 70
     0
102
RTVSPropertyOp22
 70
     0
102
RTVSPropertyOp23
 70
     0
102
RTVSPropertyOp24
 70
     0
102
RTVSPropertyOp25
 70
     0
102
RTVSPropertyOp26
 70
     0
102
RTVSPropertyOp27
 70
     0
102
RTVSPropertyOp28
 70
     1
102
RTVSPropertyOp29
 70
     1
102
RTVSPropertyOp30
 70
     1
102
RTVSPropertyOp31
 70
     1
102
RTVSPropertyOp32
 70
     1
102
RTVSPropertyOp33
 70
     1
102
RTVSPropertyOp34
 70
     1
102
RTVSPropertyOp35
 70
     1
102
RTVSPropertyOp36
 70
     1
102
RTVSPropertyOp37
 70
     0
102
RTVSPropertyOp38
 70
     0
102
RTVSPropertyOp39
 70
     0
102
RTVSPropertyOp40
 70
     0
102
RTVSPropertyOp41
 70
     0
102
RTVSPropertyOp42
 70
     0
102
RTVSPropertyOp43
 70
     0
102
RTVSPropertyOp44
 70
     0
102
RTVSPropertyOp45
 70
     1
102
RTVSPropertyOp46
 70
     0
102
RTVSPropertyOp47
 70
     0
102
RTVSPropertyOp48
 70
     0
102
RTVSPropertyOp49
 70
     1
102
RTVSPropertyOp50
 70
     0
102
RTVSPropertyOp51
 70
     0
102
RTVSPropertyOp52
 70
     0
102
RTVSPropertyOp53
 70
     0
102
RTVSPropertyOp54
 70
     0
102
RTVSPropertyOp55
 70
     1
102
RTVSPropertyOp56
 70
     0
102
RTVSPropertyOp57
 70
     0
102
RTVSPropertyOp58
 70
     0
102
RTVSPropertyOp59
 70
     0
102
RTVSPropertyOp60
 70
     0
102
RTVSPropertyOp61
 70
     0
102
RTVSPropertyOp62
 70
     0
  0
XRECORD
  5
66A8
102
{ACAD_REACTORS
330
66A7
102
}
330
66A7
100
AcDbXrecord
280
     1
102
RTVSPost2010Prop28
280
     0
102
RTVSPost2010PropOp28
 70
     1
102
RTVSPost2010Prop29
280
     1
102
RTVSPost2010PropOp29
 70
     1
102
RTVSPost2010Prop30
280
     1
102
RTVSPost2010PropOp30
 70
     1
102
RTVSPost2010Prop31
280
     0
102
RTVSPost2010PropOp31
 70
     1
102
RTVSPost2010Prop32
280
     0
102
RTVSPost2010PropOp32
 70
     1
102
RTVSPost2010Prop33
280
     0
102
RTVSPost2010PropOp33
 70
     1
102
RTVSPost2010Prop34
280
     0
102
RTVSPost2010PropOp34
 70
     1
102
RTVSPost2010Prop35
280
     0
102
RTVSPost2010PropOp35
 70
     1
102
RTVSPost2010Prop36
280
     0
102
RTVSPost2010PropOp36
 70
     1
102
RTVSPost2010Prop37
 90
       50
102
RTVSPost2010PropOp37
 70
     1
102
RTVSPost2010Prop38
140
0.0
102
RTVSPost2010PropOp38
 70
     1
102
RTVSPost2010Prop39
140
1.0
102
RTVSPost2010PropOp39
 70
     1
102
RTVSPost2010Prop40
 90
        0
102
RTVSPost2010PropOp40
 70
     1
102
RTVSPost2010Prop41ColorIndex
 90
       18
102
RTVSPost2010Prop41ColorRGB
 90
        0
102
RTVSPost2010PropOp41
 70
     1
102
RTVSPost2010Prop42
 90
       50
102
RTVSPost2010PropOp42
 70
     1
102
RTVSPost2010Prop43
 90
        3
102
RTVSPost2010PropOp43
 70
     1
102
RTVSPost2010Prop44ColorIndex
 90
        5
102
RTVSPost2010Prop44ColorRGB
 90
      255
102
RTVSPost2010PropOp44
 70
     1
102
RTVSPost2010Prop45
280
     0
102
RTVSPost2010PropOp45
 70
     1
102
RTVSPost2010Prop46
 90
       50
102
RTVSPost2010PropOp46
 70
     1
102
RTVSPost2010Prop47
 90
       50
102
RTVSPost2010PropOp47
 70
     1
102
RTVSPost2010Prop48
 90
       50
102
RTVSPost2010PropOp48
 70
     1
102
RTVSPost2010Prop49
280
     0
102
RTVSPost2010PropOp49
 70
     1
102
RTVSPost2010Prop50
 90
       50
102
RTVSPost2010PropOp50
 70
     1
102
RTVSPost2010Prop51ColorIndex
 90
      256
102
RTVSPost2010Prop51ColorRGB
 90
-16777216
102
RTVSPost2010PropOp51
 70
     0
102
RTVSPost2010Prop52
140
1.0
102
RTVSPost2010PropOp52
 70
     0
102
RTVSPost2010Prop53
 90
        2
102
RTVSPost2010PropOp53
 70
     1
102
RTVSPost2010Prop54
  1
strokes_ogs.tif
102
RTVSPost2010PropOp54
 70
     1
102
RTVSPost2010Prop55
280
     0
102
RTVSPost2010PropOp55
 70
     1
102
RTVSPost2010Prop56
140
1.0
102
RTVSPost2010PropOp56
 70
     1
102
RTVSPost2010Prop57
140
1.0
102
RTVSPost2010PropOp57
 70
     1
102
RTVSPropertyOp0
 70
     1
102
RTVSPropertyOp1
 70
     1
102
RTVSPropertyOp2
 70
     1
102
RTVSPropertyOp3
 70
     1
102
RTVSPropertyOp4
 70
     1
102
RTVSPropertyOp5
 70
     1
102
RTVSPropertyOp6
 70
     1
102
RTVSPropertyOp7
 70
     1
102
RTVSPropertyOp8
 70
     1
102
RTVSPropertyOp9
 70
     1
102
RTVSPropertyOp10
 70
     1
102
RTVSPropertyOp11
 70
     1
102
RTVSPropertyOp12
 70
     1
102
RTVSPropertyOp13
 70
     1
102
RTVSPropertyOp14
 70
     1
102
RTVSPropertyOp15
 70
     1
102
RTVSPropertyOp16
 70
     1
102
RTVSPropertyOp17
 70
     1
102
RTVSPropertyOp18
 70
     1
102
RTVSPropertyOp19
 70
     1
102
RTVSPropertyOp20
 70
     1
102
RTVSPropertyOp21
 70
     1
102
RTVSPropertyOp22
 70
     1
102
RTVSPropertyOp23
 70
     1
102
RTVSPropertyOp24
 70
     1
102
RTVSPropertyOp25
 70
     1
102
RTVSPropertyOp26
 70
     1
102
RTVSPropertyOp27
 70
     1
102
RTVSPropertyOp28
 70
     1
102
RTVSPropertyOp29
 70
     1
102
RTVSPropertyOp30
 70
     1
102
RTVSPropertyOp31
 70
     1
102
RTVSPropertyOp32
 70
     1
102
RTVSPropertyOp33
 70
     1
102
RTVSPropertyOp34
 70
     1
102
RTVSPropertyOp35
 70
     1
102
RTVSPropertyOp36
 70
     1
102
RTVSPropertyOp37
 70
     1
102
RTVSPropertyOp38
 70
     1
102
RTVSPropertyOp39
 70
     1
102
RTVSPropertyOp40
 70
     1
102
RTVSPropertyOp41
 70
     1
102
RTVSPropertyOp42
 70
     1
102
RTVSPropertyOp43
 70
     1
102
RTVSPropertyOp44
 70
     1
102
RTVSPropertyOp45
 70
     1
102
RTVSPropertyOp46
 70
     1
102
RTVSPropertyOp47
 70
     1
102
RTVSPropertyOp48
 70
     1
102
RTVSPropertyOp49
 70
     1
102
RTVSPropertyOp50
 70
     1
102
RTVSPropertyOp51
 70
     0
102
RTVSPropertyOp52
 70
     0
102
RTVSPropertyOp53
 70
     1
102
RTVSPropertyOp54
 70
     1
102
RTVSPropertyOp55
 70
     1
102
RTVSPropertyOp56
 70
     1
102
RTVSPropertyOp57
 70
     1
102
RTVSPropertyOp58
 70
     1
102
RTVSPropertyOp59
 70
     1
102
RTVSPropertyOp60
 70
     1
102
RTVSPropertyOp61
 70
     1
102
RTVSPropertyOp62
 70
     1
  0
XRECORD
  5
668C
102
{ACAD_REACTORS
330
668B
102
}
330
668B
100
AcDbXrecord
280
     1
102
RTVSPost2010Prop28
280
     0
102
RTVSPost2010PropOp28
 70
     1
102
RTVSPost2010Prop29
280
     1
102
RTVSPost2010PropOp29
 70
     1
102
RTVSPost2010Prop30
280
     1
102
RTVSPost2010PropOp30
 70
     1
102
RTVSPost2010Prop31
280
     0
102
RTVSPost2010PropOp31
 70
     1
102
RTVSPost2010Prop32
280
     0
102
RTVSPost2010PropOp32
 70
     1
102
RTVSPost2010Prop33
280
     0
102
RTVSPost2010PropOp33
 70
     1
102
RTVSPost2010Prop34
280
     0
102
RTVSPost2010PropOp34
 70
     1
102
RTVSPost2010Prop35
280
     0
102
RTVSPost2010PropOp35
 70
     1
102
RTVSPost2010Prop36
280
     0
102
RTVSPost2010PropOp36
 70
     1
102
RTVSPost2010Prop37
 90
       50
102
RTVSPost2010PropOp37
 70
     1
102
RTVSPost2010Prop38
140
0.0
102
RTVSPost2010PropOp38
 70
     1
102
RTVSPost2010Prop39
140
1.0
102
RTVSPost2010PropOp39
 70
     1
102
RTVSPost2010Prop40
 90
        0
102
RTVSPost2010PropOp40
 70
     1
102
RTVSPost2010Prop41ColorIndex
 90
       18
102
RTVSPost2010Prop41ColorRGB
 90
        0
102
RTVSPost2010PropOp41
 70
     1
102
RTVSPost2010Prop42
 90
       50
102
RTVSPost2010PropOp42
 70
     1
102
RTVSPost2010Prop43
 90
        3
102
RTVSPost2010PropOp43
 70
     1
102
RTVSPost2010Prop44ColorIndex
 90
        5
102
RTVSPost2010Prop44ColorRGB
 90
      255
102
RTVSPost2010PropOp44
 70
     1
102
RTVSPost2010Prop45
280
     0
102
RTVSPost2010PropOp45
 70
     1
102
RTVSPost2010Prop46
 90
       50
102
RTVSPost2010PropOp46
 70
     1
102
RTVSPost2010Prop47
 90
       50
102
RTVSPost2010PropOp47
 70
     1
102
RTVSPost2010Prop48
 90
       50
102
RTVSPost2010PropOp48
 70
     1
102
RTVSPost2010Prop49
280
     0
102
RTVSPost2010PropOp49
 70
     1
102
RTVSPost2010Prop50
 90
       50
102
RTVSPost2010PropOp50
 70
     1
102
RTVSPost2010Prop51ColorIndex
 90
      256
102
RTVSPost2010Prop51ColorRGB
 90
-16777216
102
RTVSPost2010PropOp51
 70
     0
102
RTVSPost2010Prop52
140
1.0
102
RTVSPost2010PropOp52
 70
     0
102
RTVSPost2010Prop53
 90
        2
102
RTVSPost2010PropOp53
 70
     1
102
RTVSPost2010Prop54
  1
strokes_ogs.tif
102
RTVSPost2010PropOp54
 70
     1
102
RTVSPost2010Prop55
280
     0
102
RTVSPost2010PropOp55
 70
     1
102
RTVSPost2010Prop56
140
1.0
102
RTVSPost2010PropOp56
 70
     1
102
RTVSPost2010Prop57
140
1.0
102
RTVSPost2010PropOp57
 70
     1
102
RTVSPropertyOp0
 70
     1
102
RTVSPropertyOp1
 70
     1
102
RTVSPropertyOp2
 70
     1
102
RTVSPropertyOp3
 70
     1
102
RTVSPropertyOp4
 70
     1
102
RTVSPropertyOp5
 70
     1
102
RTVSPropertyOp6
 70
     1
102
RTVSPropertyOp7
 70
     1
102
RTVSPropertyOp8
 70
     1
102
RTVSPropertyOp9
 70
     1
102
RTVSPropertyOp10
 70
     1
102
RTVSPropertyOp11
 70
     1
102
RTVSPropertyOp12
 70
     1
102
RTVSPropertyOp13
 70
     1
102
RTVSPropertyOp14
 70
     1
102
RTVSPropertyOp15
 70
     1
102
RTVSPropertyOp16
 70
     1
102
RTVSPropertyOp17
 70
     1
102
RTVSPropertyOp18
 70
     1
102
RTVSPropertyOp19
 70
     1
102
RTVSPropertyOp20
 70
     1
102
RTVSPropertyOp21
 70
     1
102
RTVSPropertyOp22
 70
     1
102
RTVSPropertyOp23
 70
     1
102
RTVSPropertyOp24
 70
     1
102
RTVSPropertyOp25
 70
     1
102
RTVSPropertyOp26
 70
     1
102
RTVSPropertyOp27
 70
     1
102
RTVSPropertyOp28
 70
     1
102
RTVSPropertyOp29
 70
     1
102
RTVSPropertyOp30
 70
     1
102
RTVSPropertyOp31
 70
     1
102
RTVSPropertyOp32
 70
     1
102
RTVSPropertyOp33
 70
     1
102
RTVSPropertyOp34
 70
     1
102
RTVSPropertyOp35
 70
     1
102
RTVSPropertyOp36
 70
     1
102
RTVSPropertyOp37
 70
     1
102
RTVSPropertyOp38
 70
     1
102
RTVSPropertyOp39
 70
     1
102
RTVSPropertyOp40
 70
     1
102
RTVSPropertyOp41
 70
     1
102
RTVSPropertyOp42
 70
     1
102
RTVSPropertyOp43
 70
     1
102
RTVSPropertyOp44
 70
     1
102
RTVSPropertyOp45
 70
     1
102
RTVSPropertyOp46
 70
     1
102
RTVSPropertyOp47
 70
     1
102
RTVSPropertyOp48
 70
     1
102
RTVSPropertyOp49
 70
     1
102
RTVSPropertyOp50
 70
     1
102
RTVSPropertyOp51
 70
     0
102
RTVSPropertyOp52
 70
     0
102
RTVSPropertyOp53
 70
     1
102
RTVSPropertyOp54
 70
     1
102
RTVSPropertyOp55
 70
     1
102
RTVSPropertyOp56
 70
     1
102
RTVSPropertyOp57
 70
     1
102
RTVSPropertyOp58
 70
     1
102
RTVSPropertyOp59
 70
     1
102
RTVSPropertyOp60
 70
     1
102
RTVSPropertyOp61
 70
     1
102
RTVSPropertyOp62
 70
     1
  0
XRECORD
  5
668E
102
{ACAD_REACTORS
330
668D
102
}
330
668D
100
AcDbXrecord
280
     1
102
RTVSPost2010Prop28
280
     0
102
RTVSPost2010PropOp28
 70
     1
102
RTVSPost2010Prop29
280
     1
102
RTVSPost2010PropOp29
 70
     1
102
RTVSPost2010Prop30
280
     1
102
RTVSPost2010PropOp30
 70
     1
102
RTVSPost2010Prop31
280
     0
102
RTVSPost2010PropOp31
 70
     1
102
RTVSPost2010Prop32
280
     0
102
RTVSPost2010PropOp32
 70
     1
102
RTVSPost2010Prop33
280
     0
102
RTVSPost2010PropOp33
 70
     1
102
RTVSPost2010Prop34
280
     0
102
RTVSPost2010PropOp34
 70
     1
102
RTVSPost2010Prop35
280
     0
102
RTVSPost2010PropOp35
 70
     1
102
RTVSPost2010Prop36
280
     0
102
RTVSPost2010PropOp36
 70
     1
102
RTVSPost2010Prop37
 90
       50
102
RTVSPost2010PropOp37
 70
     1
102
RTVSPost2010Prop38
140
0.0
102
RTVSPost2010PropOp38
 70
     1
102
RTVSPost2010Prop39
140
1.0
102
RTVSPost2010PropOp39
 70
     1
102
RTVSPost2010Prop40
 90
        0
102
RTVSPost2010PropOp40
 70
     1
102
RTVSPost2010Prop41ColorIndex
 90
       18
102
RTVSPost2010Prop41ColorRGB
 90
        0
102
RTVSPost2010PropOp41
 70
     1
102
RTVSPost2010Prop42
 90
       50
102
RTVSPost2010PropOp42
 70
     1
102
RTVSPost2010Prop43
 90
        3
102
RTVSPost2010PropOp43
 70
     1
102
RTVSPost2010Prop44ColorIndex
 90
        5
102
RTVSPost2010Prop44ColorRGB
 90
      255
102
RTVSPost2010PropOp44
 70
     1
102
RTVSPost2010Prop45
280
     0
102
RTVSPost2010PropOp45
 70
     1
102
RTVSPost2010Prop46
 90
       50
102
RTVSPost2010PropOp46
 70
     1
102
RTVSPost2010Prop47
 90
       50
102
RTVSPost2010PropOp47
 70
     1
102
RTVSPost2010Prop48
 90
       50
102
RTVSPost2010PropOp48
 70
     1
102
RTVSPost2010Prop49
280
     0
102
RTVSPost2010PropOp49
 70
     1
102
RTVSPost2010Prop50
 90
       50
102
RTVSPost2010PropOp50
 70
     1
102
RTVSPost2010Prop51ColorIndex
 90
      256
102
RTVSPost2010Prop51ColorRGB
 90
-16777216
102
RTVSPost2010PropOp51
 70
     0
102
RTVSPost2010Prop52
140
1.0
102
RTVSPost2010PropOp52
 70
     0
102
RTVSPost2010Prop53
 90
        2
102
RTVSPost2010PropOp53
 70
     1
102
RTVSPost2010Prop54
  1
strokes_ogs.tif
102
RTVSPost2010PropOp54
 70
     1
102
RTVSPost2010Prop55
280
     0
102
RTVSPost2010PropOp55
 70
     1
102
RTVSPost2010Prop56
140
1.0
102
RTVSPost2010PropOp56
 70
     1
102
RTVSPost2010Prop57
140
1.0
102
RTVSPost2010PropOp57
 70
     1
102
RTVSPropertyOp0
 70
     1
102
RTVSPropertyOp1
 70
     1
102
RTVSPropertyOp2
 70
     1
102
RTVSPropertyOp3
 70
     1
102
RTVSPropertyOp4
 70
     1
102
RTVSPropertyOp5
 70
     1
102
RTVSPropertyOp6
 70
     1
102
RTVSPropertyOp7
 70
     1
102
RTVSPropertyOp8
 70
     1
102
RTVSPropertyOp9
 70
     1
102
RTVSPropertyOp10
 70
     1
102
RTVSPropertyOp11
 70
     1
102
RTVSPropertyOp12
 70
     1
102
RTVSPropertyOp13
 70
     1
102
RTVSPropertyOp14
 70
     1
102
RTVSPropertyOp15
 70
     1
102
RTVSPropertyOp16
 70
     1
102
RTVSPropertyOp17
 70
     1
102
RTVSPropertyOp18
 70
     1
102
RTVSPropertyOp19
 70
     1
102
RTVSPropertyOp20
 70
     1
102
RTVSPropertyOp21
 70
     1
102
RTVSPropertyOp22
 70
     1
102
RTVSPropertyOp23
 70
     1
102
RTVSPropertyOp24
 70
     1
102
RTVSPropertyOp25
 70
     1
102
RTVSPropertyOp26
 70
     1
102
RTVSPropertyOp27
 70
     1
102
RTVSPropertyOp28
 70
     1
102
RTVSPropertyOp29
 70
     1
102
RTVSPropertyOp30
 70
     1
102
RTVSPropertyOp31
 70
     1
102
RTVSPropertyOp32
 70
     1
102
RTVSPropertyOp33
 70
     1
102
RTVSPropertyOp34
 70
     1
102
RTVSPropertyOp35
 70
     1
102
RTVSPropertyOp36
 70
     1
102
RTVSPropertyOp37
 70
     1
102
RTVSPropertyOp38
 70
     1
102
RTVSPropertyOp39
 70
     1
102
RTVSPropertyOp40
 70
     1
102
RTVSPropertyOp41
 70
     1
102
RTVSPropertyOp42
 70
     1
102
RTVSPropertyOp43
 70
     1
102
RTVSPropertyOp44
 70
     1
102
RTVSPropertyOp45
 70
     1
102
RTVSPropertyOp46
 70
     1
102
RTVSPropertyOp47
 70
     1
102
RTVSPropertyOp48
 70
     1
102
RTVSPropertyOp49
 70
     1
102
RTVSPropertyOp50
 70
     1
102
RTVSPropertyOp51
 70
     0
102
RTVSPropertyOp52
 70
     0
102
RTVSPropertyOp53
 70
     1
102
RTVSPropertyOp54
 70
     1
102
RTVSPropertyOp55
 70
     1
102
RTVSPropertyOp56
 70
     1
102
RTVSPropertyOp57
 70
     1
102
RTVSPropertyOp58
 70
     1
102
RTVSPropertyOp59
 70
     1
102
RTVSPropertyOp60
 70
     1
102
RTVSPropertyOp61
 70
     1
102
RTVSPropertyOp62
 70
     1
  0
XRECORD
  5
6690
102
{ACAD_REACTORS
330
668F
102
}
330
668F
100
AcDbXrecord
280
     1
102
RTVSPost2010Prop28
280
     0
102
RTVSPost2010PropOp28
 70
     1
102
RTVSPost2010Prop29
280
     1
102
RTVSPost2010PropOp29
 70
     1
102
RTVSPost2010Prop30
280
     1
102
RTVSPost2010PropOp30
 70
     1
102
RTVSPost2010Prop31
280
     0
102
RTVSPost2010PropOp31
 70
     1
102
RTVSPost2010Prop32
280
     0
102
RTVSPost2010PropOp32
 70
     1
102
RTVSPost2010Prop33
280
     0
102
RTVSPost2010PropOp33
 70
     1
102
RTVSPost2010Prop34
280
     0
102
RTVSPost2010PropOp34
 70
     1
102
RTVSPost2010Prop35
280
     0
102
RTVSPost2010PropOp35
 70
     1
102
RTVSPost2010Prop36
280
     0
102
RTVSPost2010PropOp36
 70
     1
102
RTVSPost2010Prop37
 90
       50
102
RTVSPost2010PropOp37
 70
     1
102
RTVSPost2010Prop38
140
0.0
102
RTVSPost2010PropOp38
 70
     1
102
RTVSPost2010Prop39
140
1.0
102
RTVSPost2010PropOp39
 70
     1
102
RTVSPost2010Prop40
 90
        0
102
RTVSPost2010PropOp40
 70
     1
102
RTVSPost2010Prop41ColorIndex
 90
       18
102
RTVSPost2010Prop41ColorRGB
 90
        0
102
RTVSPost2010PropOp41
 70
     1
102
RTVSPost2010Prop42
 90
       50
102
RTVSPost2010PropOp42
 70
     1
102
RTVSPost2010Prop43
 90
        3
102
RTVSPost2010PropOp43
 70
     1
102
RTVSPost2010Prop44ColorIndex
 90
        5
102
RTVSPost2010Prop44ColorRGB
 90
      255
102
RTVSPost2010PropOp44
 70
     1
102
RTVSPost2010Prop45
280
     0
102
RTVSPost2010PropOp45
 70
     1
102
RTVSPost2010Prop46
 90
       50
102
RTVSPost2010PropOp46
 70
     1
102
RTVSPost2010Prop47
 90
       50
102
RTVSPost2010PropOp47
 70
     1
102
RTVSPost2010Prop48
 90
       50
102
RTVSPost2010PropOp48
 70
     1
102
RTVSPost2010Prop49
280
     0
102
RTVSPost2010PropOp49
 70
     1
102
RTVSPost2010Prop50
 90
       50
102
RTVSPost2010PropOp50
 70
     1
102
RTVSPost2010Prop51ColorIndex
 90
      256
102
RTVSPost2010Prop51ColorRGB
 90
-16777216
102
RTVSPost2010PropOp51
 70
     0
102
RTVSPost2010Prop52
140
1.0
102
RTVSPost2010PropOp52
 70
     0
102
RTVSPost2010Prop53
 90
        2
102
RTVSPost2010PropOp53
 70
     1
102
RTVSPost2010Prop54
  1
strokes_ogs.tif
102
RTVSPost2010PropOp54
 70
     1
102
RTVSPost2010Prop55
280
     0
102
RTVSPost2010PropOp55
 70
     1
102
RTVSPost2010Prop56
140
1.0
102
RTVSPost2010PropOp56
 70
     1
102
RTVSPost2010Prop57
140
1.0
102
RTVSPost2010PropOp57
 70
     1
102
RTVSPropertyOp0
 70
     1
102
RTVSPropertyOp1
 70
     1
102
RTVSPropertyOp2
 70
     1
102
RTVSPropertyOp3
 70
     1
102
RTVSPropertyOp4
 70
     1
102
RTVSPropertyOp5
 70
     1
102
RTVSPropertyOp6
 70
     1
102
RTVSPropertyOp7
 70
     1
102
RTVSPropertyOp8
 70
     1
102
RTVSPropertyOp9
 70
     1
102
RTVSPropertyOp10
 70
     1
102
RTVSPropertyOp11
 70
     1
102
RTVSPropertyOp12
 70
     1
102
RTVSPropertyOp13
 70
     1
102
RTVSPropertyOp14
 70
     1
102
RTVSPropertyOp15
 70
     1
102
RTVSPropertyOp16
 70
     1
102
RTVSPropertyOp17
 70
     1
102
RTVSPropertyOp18
 70
     1
102
RTVSPropertyOp19
 70
     1
102
RTVSPropertyOp20
 70
     1
102
RTVSPropertyOp21
 70
     1
102
RTVSPropertyOp22
 70
     1
102
RTVSPropertyOp23
 70
     1
102
RTVSPropertyOp24
 70
     1
102
RTVSPropertyOp25
 70
     1
102
RTVSPropertyOp26
 70
     1
102
RTVSPropertyOp27
 70
     1
102
RTVSPropertyOp28
 70
     1
102
RTVSPropertyOp29
 70
     1
102
RTVSPropertyOp30
 70
     1
102
RTVSPropertyOp31
 70
     1
102
RTVSPropertyOp32
 70
     1
102
RTVSPropertyOp33
 70
     1
102
RTVSPropertyOp34
 70
     1
102
RTVSPropertyOp35
 70
     1
102
RTVSPropertyOp36
 70
     1
102
RTVSPropertyOp37
 70
     1
102
RTVSPropertyOp38
 70
     1
102
RTVSPropertyOp39
 70
     1
102
RTVSPropertyOp40
 70
     1
102
RTVSPropertyOp41
 70
     1
102
RTVSPropertyOp42
 70
     1
102
RTVSPropertyOp43
 70
     1
102
RTVSPropertyOp44
 70
     1
102
RTVSPropertyOp45
 70
     1
102
RTVSPropertyOp46
 70
     1
102
RTVSPropertyOp47
 70
     1
102
RTVSPropertyOp48
 70
     1
102
RTVSPropertyOp49
 70
     1
102
RTVSPropertyOp50
 70
     1
102
RTVSPropertyOp51
 70
     0
102
RTVSPropertyOp52
 70
     0
102
RTVSPropertyOp53
 70
     1
102
RTVSPropertyOp54
 70
     1
102
RTVSPropertyOp55
 70
     1
102
RTVSPropertyOp56
 70
     1
102
RTVSPropertyOp57
 70
     1
102
RTVSPropertyOp58
 70
     1
102
RTVSPropertyOp59
 70
     1
102
RTVSPropertyOp60
 70
     1
102
RTVSPropertyOp61
 70
     1
102
RTVSPropertyOp62
 70
     1
  0
XRECORD
  5
6692
102
{ACAD_REACTORS
330
6691
102
}
330
6691
100
AcDbXrecord
280
     1
102
RTVSPost2010Prop28
280
     0
102
RTVSPost2010PropOp28
 70
     1
102
RTVSPost2010Prop29
280
     1
102
RTVSPost2010PropOp29
 70
     1
102
RTVSPost2010Prop30
280
     1
102
RTVSPost2010PropOp30
 70
     1
102
RTVSPost2010Prop31
280
     0
102
RTVSPost2010PropOp31
 70
     1
102
RTVSPost2010Prop32
280
     0
102
RTVSPost2010PropOp32
 70
     1
102
RTVSPost2010Prop33
280
     0
102
RTVSPost2010PropOp33
 70
     1
102
RTVSPost2010Prop34
280
     0
102
RTVSPost2010PropOp34
 70
     1
102
RTVSPost2010Prop35
280
     0
102
RTVSPost2010PropOp35
 70
     1
102
RTVSPost2010Prop36
280
     0
102
RTVSPost2010PropOp36
 70
     1
102
RTVSPost2010Prop37
 90
       50
102
RTVSPost2010PropOp37
 70
     1
102
RTVSPost2010Prop38
140
0.0
102
RTVSPost2010PropOp38
 70
     1
102
RTVSPost2010Prop39
140
1.0
102
RTVSPost2010PropOp39
 70
     1
102
RTVSPost2010Prop40
 90
        0
102
RTVSPost2010PropOp40
 70
     1
102
RTVSPost2010Prop41ColorIndex
 90
       18
102
RTVSPost2010Prop41ColorRGB
 90
        0
102
RTVSPost2010PropOp41
 70
     1
102
RTVSPost2010Prop42
 90
       50
102
RTVSPost2010PropOp42
 70
     1
102
RTVSPost2010Prop43
 90
        3
102
RTVSPost2010PropOp43
 70
     1
102
RTVSPost2010Prop44ColorIndex
 90
        5
102
RTVSPost2010Prop44ColorRGB
 90
      255
102
RTVSPost2010PropOp44
 70
     1
102
RTVSPost2010Prop45
280
     0
102
RTVSPost2010PropOp45
 70
     1
102
RTVSPost2010Prop46
 90
       50
102
RTVSPost2010PropOp46
 70
     1
102
RTVSPost2010Prop47
 90
       50
102
RTVSPost2010PropOp47
 70
     1
102
RTVSPost2010Prop48
 90
       50
102
RTVSPost2010PropOp48
 70
     1
102
RTVSPost2010Prop49
280
     0
102
RTVSPost2010PropOp49
 70
     1
102
RTVSPost2010Prop50
 90
       50
102
RTVSPost2010PropOp50
 70
     1
102
RTVSPost2010Prop51ColorIndex
 90
      256
102
RTVSPost2010Prop51ColorRGB
 90
-16777216
102
RTVSPost2010PropOp51
 70
     0
102
RTVSPost2010Prop52
140
1.0
102
RTVSPost2010PropOp52
 70
     0
102
RTVSPost2010Prop53
 90
        2
102
RTVSPost2010PropOp53
 70
     1
102
RTVSPost2010Prop54
  1
strokes_ogs.tif
102
RTVSPost2010PropOp54
 70
     1
102
RTVSPost2010Prop55
280
     0
102
RTVSPost2010PropOp55
 70
     1
102
RTVSPost2010Prop56
140
1.0
102
RTVSPost2010PropOp56
 70
     1
102
RTVSPost2010Prop57
140
1.0
102
RTVSPost2010PropOp57
 70
     1
102
RTVSPropertyOp0
 70
     1
102
RTVSPropertyOp1
 70
     1
102
RTVSPropertyOp2
 70
     1
102
RTVSPropertyOp3
 70
     1
102
RTVSPropertyOp4
 70
     1
102
RTVSPropertyOp5
 70
     1
102
RTVSPropertyOp6
 70
     1
102
RTVSPropertyOp7
 70
     1
102
RTVSPropertyOp8
 70
     1
102
RTVSPropertyOp9
 70
     1
102
RTVSPropertyOp10
 70
     1
102
RTVSPropertyOp11
 70
     1
102
RTVSPropertyOp12
 70
     1
102
RTVSPropertyOp13
 70
     1
102
RTVSPropertyOp14
 70
     1
102
RTVSPropertyOp15
 70
     1
102
RTVSPropertyOp16
 70
     1
102
RTVSPropertyOp17
 70
     1
102
RTVSPropertyOp18
 70
     1
102
RTVSPropertyOp19
 70
     1
102
RTVSPropertyOp20
 70
     1
102
RTVSPropertyOp21
 70
     1
102
RTVSPropertyOp22
 70
     1
102
RTVSPropertyOp23
 70
     1
102
RTVSPropertyOp24
 70
     1
102
RTVSPropertyOp25
 70
     1
102
RTVSPropertyOp26
 70
     1
102
RTVSPropertyOp27
 70
     1
102
RTVSPropertyOp28
 70
     1
102
RTVSPropertyOp29
 70
     1
102
RTVSPropertyOp30
 70
     1
102
RTVSPropertyOp31
 70
     1
102
RTVSPropertyOp32
 70
     1
102
RTVSPropertyOp33
 70
     1
102
RTVSPropertyOp34
 70
     1
102
RTVSPropertyOp35
 70
     1
102
RTVSPropertyOp36
 70
     1
102
RTVSPropertyOp37
 70
     1
102
RTVSPropertyOp38
 70
     1
102
RTVSPropertyOp39
 70
     1
102
RTVSPropertyOp40
 70
     1
102
RTVSPropertyOp41
 70
     1
102
RTVSPropertyOp42
 70
     1
102
RTVSPropertyOp43
 70
     1
102
RTVSPropertyOp44
 70
     1
102
RTVSPropertyOp45
 70
     1
102
RTVSPropertyOp46
 70
     1
102
RTVSPropertyOp47
 70
     1
102
RTVSPropertyOp48
 70
     1
102
RTVSPropertyOp49
 70
     1
102
RTVSPropertyOp50
 70
     1
102
RTVSPropertyOp51
 70
     0
102
RTVSPropertyOp52
 70
     0
102
RTVSPropertyOp53
 70
     1
102
RTVSPropertyOp54
 70
     1
102
RTVSPropertyOp55
 70
     1
102
RTVSPropertyOp56
 70
     1
102
RTVSPropertyOp57
 70
     1
102
RTVSPropertyOp58
 70
     1
102
RTVSPropertyOp59
 70
     1
102
RTVSPropertyOp60
 70
     1
102
RTVSPropertyOp61
 70
     1
102
RTVSPropertyOp62
 70
     1
  0
XRECORD
  5
669A
102
{ACAD_REACTORS
330
6699
102
}
330
6699
100
AcDbXrecord
280
     1
102
RTVSPost2010Prop28
280
     0
102
RTVSPost2010PropOp28
 70
     1
102
RTVSPost2010Prop29
280
     1
102
RTVSPost2010PropOp29
 70
     1
102
RTVSPost2010Prop30
280
     1
102
RTVSPost2010PropOp30
 70
     1
102
RTVSPost2010Prop31
280
     0
102
RTVSPost2010PropOp31
 70
     1
102
RTVSPost2010Prop32
280
     0
102
RTVSPost2010PropOp32
 70
     1
102
RTVSPost2010Prop33
280
     0
102
RTVSPost2010PropOp33
 70
     1
102
RTVSPost2010Prop34
280
     0
102
RTVSPost2010PropOp34
 70
     1
102
RTVSPost2010Prop35
280
     0
102
RTVSPost2010PropOp35
 70
     1
102
RTVSPost2010Prop36
280
     0
102
RTVSPost2010PropOp36
 70
     1
102
RTVSPost2010Prop37
 90
       50
102
RTVSPost2010PropOp37
 70
     1
102
RTVSPost2010Prop38
140
0.0
102
RTVSPost2010PropOp38
 70
     1
102
RTVSPost2010Prop39
140
1.0
102
RTVSPost2010PropOp39
 70
     1
102
RTVSPost2010Prop40
 90
        0
102
RTVSPost2010PropOp40
 70
     1
102
RTVSPost2010Prop41ColorIndex
 90
       18
102
RTVSPost2010Prop41ColorRGB
 90
        0
102
RTVSPost2010PropOp41
 70
     1
102
RTVSPost2010Prop42
 90
       50
102
RTVSPost2010PropOp42
 70
     1
102
RTVSPost2010Prop43
 90
        3
102
RTVSPost2010PropOp43
 70
     1
102
RTVSPost2010Prop44ColorIndex
 90
        5
102
RTVSPost2010Prop44ColorRGB
 90
      255
102
RTVSPost2010PropOp44
 70
     1
102
RTVSPost2010Prop45
280
     0
102
RTVSPost2010PropOp45
 70
     1
102
RTVSPost2010Prop46
 90
       50
102
RTVSPost2010PropOp46
 70
     1
102
RTVSPost2010Prop47
 90
       50
102
RTVSPost2010PropOp47
 70
     1
102
RTVSPost2010Prop48
 90
       50
102
RTVSPost2010PropOp48
 70
     1
102
RTVSPost2010Prop49
280
     0
102
RTVSPost2010PropOp49
 70
     1
102
RTVSPost2010Prop50
 90
       50
102
RTVSPost2010PropOp50
 70
     1
102
RTVSPost2010Prop51ColorIndex
 90
      256
102
RTVSPost2010Prop51ColorRGB
 90
-16777216
102
RTVSPost2010PropOp51
 70
     0
102
RTVSPost2010Prop52
140
1.0
102
RTVSPost2010PropOp52
 70
     0
102
RTVSPost2010Prop53
 90
        2
102
RTVSPost2010PropOp53
 70
     1
102
RTVSPost2010Prop54
  1
strokes_ogs.tif
102
RTVSPost2010PropOp54
 70
     1
102
RTVSPost2010Prop55
280
     0
102
RTVSPost2010PropOp55
 70
     1
102
RTVSPost2010Prop56
140
1.0
102
RTVSPost2010PropOp56
 70
     1
102
RTVSPost2010Prop57
140
1.0
102
RTVSPost2010PropOp57
 70
     1
102
RTVSPropertyOp0
 70
     1
102
RTVSPropertyOp1
 70
     1
102
RTVSPropertyOp2
 70
     1
102
RTVSPropertyOp3
 70
     1
102
RTVSPropertyOp4
 70
     1
102
RTVSPropertyOp5
 70
     1
102
RTVSPropertyOp6
 70
     1
102
RTVSPropertyOp7
 70
     1
102
RTVSPropertyOp8
 70
     1
102
RTVSPropertyOp9
 70
     1
102
RTVSPropertyOp10
 70
     1
102
RTVSPropertyOp11
 70
     1
102
RTVSPropertyOp12
 70
     1
102
RTVSPropertyOp13
 70
     1
102
RTVSPropertyOp14
 70
     1
102
RTVSPropertyOp15
 70
     1
102
RTVSPropertyOp16
 70
     1
102
RTVSPropertyOp17
 70
     1
102
RTVSPropertyOp18
 70
     1
102
RTVSPropertyOp19
 70
     1
102
RTVSPropertyOp20
 70
     1
102
RTVSPropertyOp21
 70
     1
102
RTVSPropertyOp22
 70
     1
102
RTVSPropertyOp23
 70
     1
102
RTVSPropertyOp24
 70
     1
102
RTVSPropertyOp25
 70
     1
102
RTVSPropertyOp26
 70
     1
102
RTVSPropertyOp27
 70
     1
102
RTVSPropertyOp28
 70
     1
102
RTVSPropertyOp29
 70
     1
102
RTVSPropertyOp30
 70
     1
102
RTVSPropertyOp31
 70
     1
102
RTVSPropertyOp32
 70
     1
102
RTVSPropertyOp33
 70
     1
102
RTVSPropertyOp34
 70
     1
102
RTVSPropertyOp35
 70
     1
102
RTVSPropertyOp36
 70
     1
102
RTVSPropertyOp37
 70
     1
102
RTVSPropertyOp38
 70
     1
102
RTVSPropertyOp39
 70
     1
102
RTVSPropertyOp40
 70
     1
102
RTVSPropertyOp41
 70
     1
102
RTVSPropertyOp42
 70
     1
102
RTVSPropertyOp43
 70
     1
102
RTVSPropertyOp44
 70
     1
102
RTVSPropertyOp45
 70
     1
102
RTVSPropertyOp46
 70
     1
102
RTVSPropertyOp47
 70
     1
102
RTVSPropertyOp48
 70
     1
102
RTVSPropertyOp49
 70
     1
102
RTVSPropertyOp50
 70
     1
102
RTVSPropertyOp51
 70
     0
102
RTVSPropertyOp52
 70
     0
102
RTVSPropertyOp53
 70
     1
102
RTVSPropertyOp54
 70
     1
102
RTVSPropertyOp55
 70
     1
102
RTVSPropertyOp56
 70
     1
102
RTVSPropertyOp57
 70
     1
102
RTVSPropertyOp58
 70
     1
102
RTVSPropertyOp59
 70
     1
102
RTVSPropertyOp60
 70
     1
102
RTVSPropertyOp61
 70
     1
102
RTVSPropertyOp62
 70
     1
  0
XRECORD
  5
66B6
102
{ACAD_REACTORS
330
66B5
102
}
330
66B5
100
AcDbXrecord
280
     1
102
RTVSPost2010Prop28
280
     0
102
RTVSPost2010PropOp28
 70
     1
102
RTVSPost2010Prop29
280
     1
102
RTVSPost2010PropOp29
 70
     1
102
RTVSPost2010Prop30
280
     1
102
RTVSPost2010PropOp30
 70
     1
102
RTVSPost2010Prop31
280
     0
102
RTVSPost2010PropOp31
 70
     1
102
RTVSPost2010Prop32
280
     0
102
RTVSPost2010PropOp32
 70
     1
102
RTVSPost2010Prop33
280
     0
102
RTVSPost2010PropOp33
 70
     1
102
RTVSPost2010Prop34
280
     0
102
RTVSPost2010PropOp34
 70
     1
102
RTVSPost2010Prop35
280
     0
102
RTVSPost2010PropOp35
 70
     1
102
RTVSPost2010Prop36
280
     0
102
RTVSPost2010PropOp36
 70
     1
102
RTVSPost2010Prop37
 90
       50
102
RTVSPost2010PropOp37
 70
     0
102
RTVSPost2010Prop38
140
0.0
102
RTVSPost2010PropOp38
 70
     0
102
RTVSPost2010Prop39
140
1.0
102
RTVSPost2010PropOp39
 70
     0
102
RTVSPost2010Prop40
 90
        0
102
RTVSPost2010PropOp40
 70
     0
102
RTVSPost2010Prop41ColorIndex
 90
       18
102
RTVSPost2010Prop41ColorRGB
 90
        0
102
RTVSPost2010PropOp41
 70
     0
102
RTVSPost2010Prop42
 90
       50
102
RTVSPost2010PropOp42
 70
     0
102
RTVSPost2010Prop43
 90
        3
102
RTVSPost2010PropOp43
 70
     0
102
RTVSPost2010Prop44ColorIndex
 90
        5
102
RTVSPost2010Prop44ColorRGB
 90
      255
102
RTVSPost2010PropOp44
 70
     0
102
RTVSPost2010Prop45
280
     0
102
RTVSPost2010PropOp45
 70
     1
102
RTVSPost2010Prop46
 90
       50
102
RTVSPost2010PropOp46
 70
     0
102
RTVSPost2010Prop47
 90
       50
102
RTVSPost2010PropOp47
 70
     0
102
RTVSPost2010Prop48
 90
       50
102
RTVSPost2010PropOp48
 70
     0
102
RTVSPost2010Prop49
280
     0
102
RTVSPost2010PropOp49
 70
     1
102
RTVSPost2010Prop50
 90
       50
102
RTVSPost2010PropOp50
 70
     0
102
RTVSPost2010Prop51ColorIndex
 90
      256
102
RTVSPost2010Prop51ColorRGB
 90
-16777216
102
RTVSPost2010PropOp51
 70
     0
102
RTVSPost2010Prop52
140
1.0
102
RTVSPost2010PropOp52
 70
     0
102
RTVSPost2010Prop53
 90
        2
102
RTVSPost2010PropOp53
 70
     0
102
RTVSPost2010Prop54
  1
strokes_ogs.tif
102
RTVSPost2010PropOp54
 70
     0
102
RTVSPost2010Prop55
280
     0
102
RTVSPost2010PropOp55
 70
     1
102
RTVSPost2010Prop56
140
1.0
102
RTVSPost2010PropOp56
 70
     0
102
RTVSPost2010Prop57
140
1.0
102
RTVSPost2010PropOp57
 70
     0
102
RTVSPropertyOp0
 70
     0
102
RTVSPropertyOp1
 70
     0
102
RTVSPropertyOp2
 70
     0
102
RTVSPropertyOp3
 70
     0
102
RTVSPropertyOp4
 70
     0
102
RTVSPropertyOp5
 70
     0
102
RTVSPropertyOp6
 70
     0
102
RTVSPropertyOp7
 70
     0
102
RTVSPropertyOp8
 70
     0
102
RTVSPropertyOp9
 70
     0
102
RTVSPropertyOp10
 70
     0
102
RTVSPropertyOp11
 70
     0
102
RTVSPropertyOp12
 70
     0
102
RTVSPropertyOp13
 70
     0
102
RTVSPropertyOp14
 70
     2
102
RTVSPropertyOp15
 70
     0
102
RTVSPropertyOp16
 70
     0
102
RTVSPropertyOp17
 70
     0
102
RTVSPropertyOp18
 70
     0
102
RTVSPropertyOp19
 70
     0
102
RTVSPropertyOp20
 70
     0
102
RTVSPropertyOp21
 70
     0
102
RTVSPropertyOp22
 70
     0
102
RTVSPropertyOp23
 70
     0
102
RTVSPropertyOp24
 70
     0
102
RTVSPropertyOp25
 70
     0
102
RTVSPropertyOp26
 70
     0
102
RTVSPropertyOp27
 70
     0
102
RTVSPropertyOp28
 70
     1
102
RTVSPropertyOp29
 70
     1
102
RTVSPropertyOp30
 70
     1
102
RTVSPropertyOp31
 70
     1
102
RTVSPropertyOp32
 70
     1
102
RTVSPropertyOp33
 70
     1
102
RTVSPropertyOp34
 70
     1
102
RTVSPropertyOp35
 70
     1
102
RTVSPropertyOp36
 70
     1
102
RTVSPropertyOp37
 70
     0
102
RTVSPropertyOp38
 70
     0
102
RTVSPropertyOp39
 70
     0
102
RTVSPropertyOp40
 70
     0
102
RTVSPropertyOp41
 70
     0
102
RTVSPropertyOp42
 70
     0
102
RTVSPropertyOp43
 70
     0
102
RTVSPropertyOp44
 70
     0
102
RTVSPropertyOp45
 70
     1
102
RTVSPropertyOp46
 70
     0
102
RTVSPropertyOp47
 70
     0
102
RTVSPropertyOp48
 70
     0
102
RTVSPropertyOp49
 70
     1
102
RTVSPropertyOp50
 70
     0
102
RTVSPropertyOp51
 70
     0
102
RTVSPropertyOp52
 70
     0
102
RTVSPropertyOp53
 70
     0
102
RTVSPropertyOp54
 70
     0
102
RTVSPropertyOp55
 70
     1
102
RTVSPropertyOp56
 70
     0
102
RTVSPropertyOp57
 70
     0
102
RTVSPropertyOp58
 70
     0
102
RTVSPropertyOp59
 70
     0
102
RTVSPropertyOp60
 70
     0
102
RTVSPropertyOp61
 70
     0
102
RTVSPropertyOp62
 70
     0
  0
XRECORD
  5
66A6
102
{ACAD_REACTORS
330
66A5
102
}
330
66A5
100
AcDbXrecord
280
     1
102
RTVSPost2010Prop28
280
     0
102
RTVSPost2010PropOp28
 70
     1
102
RTVSPost2010Prop29
280
     1
102
RTVSPost2010PropOp29
 70
     1
102
RTVSPost2010Prop30
280
     1
102
RTVSPost2010PropOp30
 70
     1
102
RTVSPost2010Prop31
280
     0
102
RTVSPost2010PropOp31
 70
     1
102
RTVSPost2010Prop32
280
     0
102
RTVSPost2010PropOp32
 70
     1
102
RTVSPost2010Prop33
280
     0
102
RTVSPost2010PropOp33
 70
     1
102
RTVSPost2010Prop34
280
     0
102
RTVSPost2010PropOp34
 70
     1
102
RTVSPost2010Prop35
280
     0
102
RTVSPost2010PropOp35
 70
     1
102
RTVSPost2010Prop36
280
     0
102
RTVSPost2010PropOp36
 70
     1
102
RTVSPost2010Prop37
 90
       50
102
RTVSPost2010PropOp37
 70
     1
102
RTVSPost2010Prop38
140
0.0
102
RTVSPost2010PropOp38
 70
     1
102
RTVSPost2010Prop39
140
1.0
102
RTVSPost2010PropOp39
 70
     1
102
RTVSPost2010Prop40
 90
        0
102
RTVSPost2010PropOp40
 70
     1
102
RTVSPost2010Prop41ColorIndex
 90
       18
102
RTVSPost2010Prop41ColorRGB
 90
        0
102
RTVSPost2010PropOp41
 70
     1
102
RTVSPost2010Prop42
 90
       50
102
RTVSPost2010PropOp42
 70
     1
102
RTVSPost2010Prop43
 90
        3
102
RTVSPost2010PropOp43
 70
     1
102
RTVSPost2010Prop44ColorIndex
 90
        5
102
RTVSPost2010Prop44ColorRGB
 90
      255
102
RTVSPost2010PropOp44
 70
     1
102
RTVSPost2010Prop45
280
     0
102
RTVSPost2010PropOp45
 70
     1
102
RTVSPost2010Prop46
 90
       50
102
RTVSPost2010PropOp46
 70
     1
102
RTVSPost2010Prop47
 90
       50
102
RTVSPost2010PropOp47
 70
     1
102
RTVSPost2010Prop48
 90
       50
102
RTVSPost2010PropOp48
 70
     1
102
RTVSPost2010Prop49
280
     0
102
RTVSPost2010PropOp49
 70
     1
102
RTVSPost2010Prop50
 90
       50
102
RTVSPost2010PropOp50
 70
     1
102
RTVSPost2010Prop51ColorIndex
 90
      256
102
RTVSPost2010Prop51ColorRGB
 90
-16777216
102
RTVSPost2010PropOp51
 70
     0
102
RTVSPost2010Prop52
140
1.0
102
RTVSPost2010PropOp52
 70
     0
102
RTVSPost2010Prop53
 90
        2
102
RTVSPost2010PropOp53
 70
     1
102
RTVSPost2010Prop54
  1
strokes_ogs.tif
102
RTVSPost2010PropOp54
 70
     1
102
RTVSPost2010Prop55
280
     0
102
RTVSPost2010PropOp55
 70
     1
102
RTVSPost2010Prop56
140
1.0
102
RTVSPost2010PropOp56
 70
     1
102
RTVSPost2010Prop57
140
1.0
102
RTVSPost2010PropOp57
 70
     1
102
RTVSPropertyOp0
 70
     1
102
RTVSPropertyOp1
 70
     1
102
RTVSPropertyOp2
 70
     1
102
RTVSPropertyOp3
 70
     1
102
RTVSPropertyOp4
 70
     1
102
RTVSPropertyOp5
 70
     1
102
RTVSPropertyOp6
 70
     1
102
RTVSPropertyOp7
 70
     1
102
RTVSPropertyOp8
 70
     1
102
RTVSPropertyOp9
 70
     1
102
RTVSPropertyOp10
 70
     1
102
RTVSPropertyOp11
 70
     1
102
RTVSPropertyOp12
 70
     1
102
RTVSPropertyOp13
 70
     1
102
RTVSPropertyOp14
 70
     1
102
RTVSPropertyOp15
 70
     1
102
RTVSPropertyOp16
 70
     1
102
RTVSPropertyOp17
 70
     1
102
RTVSPropertyOp18
 70
     1
102
RTVSPropertyOp19
 70
     1
102
RTVSPropertyOp20
 70
     1
102
RTVSPropertyOp21
 70
     1
102
RTVSPropertyOp22
 70
     1
102
RTVSPropertyOp23
 70
     1
102
RTVSPropertyOp24
 70
     1
102
RTVSPropertyOp25
 70
     1
102
RTVSPropertyOp26
 70
     1
102
RTVSPropertyOp27
 70
     1
102
RTVSPropertyOp28
 70
     1
102
RTVSPropertyOp29
 70
     1
102
RTVSPropertyOp30
 70
     1
102
RTVSPropertyOp31
 70
     1
102
RTVSPropertyOp32
 70
     1
102
RTVSPropertyOp33
 70
     1
102
RTVSPropertyOp34
 70
     1
102
RTVSPropertyOp35
 70
     1
102
RTVSPropertyOp36
 70
     1
102
RTVSPropertyOp37
 70
     1
102
RTVSPropertyOp38
 70
     1
102
RTVSPropertyOp39
 70
     1
102
RTVSPropertyOp40
 70
     1
102
RTVSPropertyOp41
 70
     1
102
RTVSPropertyOp42
 70
     1
102
RTVSPropertyOp43
 70
     1
102
RTVSPropertyOp44
 70
     1
102
RTVSPropertyOp45
 70
     1
102
RTVSPropertyOp46
 70
     1
102
RTVSPropertyOp47
 70
     1
102
RTVSPropertyOp48
 70
     1
102
RTVSPropertyOp49
 70
     1
102
RTVSPropertyOp50
 70
     1
102
RTVSPropertyOp51
 70
     0
102
RTVSPropertyOp52
 70
     0
102
RTVSPropertyOp53
 70
     1
102
RTVSPropertyOp54
 70
     1
102
RTVSPropertyOp55
 70
     1
102
RTVSPropertyOp56
 70
     1
102
RTVSPropertyOp57
 70
     1
102
RTVSPropertyOp58
 70
     1
102
RTVSPropertyOp59
 70
     1
102
RTVSPropertyOp60
 70
     1
102
RTVSPropertyOp61
 70
     1
102
RTVSPropertyOp62
 70
     1
  0
XRECORD
  5
66B8
102
{ACAD_REACTORS
330
66B7
102
}
330
66B7
100
AcDbXrecord
280
     1
102
RTVSPost2010Prop28
280
     0
102
RTVSPost2010PropOp28
 70
     1
102
RTVSPost2010Prop29
280
     1
102
RTVSPost2010PropOp29
 70
     1
102
RTVSPost2010Prop30
280
     1
102
RTVSPost2010PropOp30
 70
     1
102
RTVSPost2010Prop31
280
     0
102
RTVSPost2010PropOp31
 70
     1
102
RTVSPost2010Prop32
280
     0
102
RTVSPost2010PropOp32
 70
     1
102
RTVSPost2010Prop33
280
     0
102
RTVSPost2010PropOp33
 70
     1
102
RTVSPost2010Prop34
280
     0
102
RTVSPost2010PropOp34
 70
     1
102
RTVSPost2010Prop35
280
     0
102
RTVSPost2010PropOp35
 70
     1
102
RTVSPost2010Prop36
280
     0
102
RTVSPost2010PropOp36
 70
     1
102
RTVSPost2010Prop37
 90
       50
102
RTVSPost2010PropOp37
 70
     0
102
RTVSPost2010Prop38
140
0.0
102
RTVSPost2010PropOp38
 70
     0
102
RTVSPost2010Prop39
140
1.0
102
RTVSPost2010PropOp39
 70
     0
102
RTVSPost2010Prop40
 90
        0
102
RTVSPost2010PropOp40
 70
     0
102
RTVSPost2010Prop41ColorIndex
 90
       18
102
RTVSPost2010Prop41ColorRGB
 90
        0
102
RTVSPost2010PropOp41
 70
     0
102
RTVSPost2010Prop42
 90
       50
102
RTVSPost2010PropOp42
 70
     0
102
RTVSPost2010Prop43
 90
        3
102
RTVSPost2010PropOp43
 70
     0
102
RTVSPost2010Prop44ColorIndex
 90
        5
102
RTVSPost2010Prop44ColorRGB
 90
      255
102
RTVSPost2010PropOp44
 70
     0
102
RTVSPost2010Prop45
280
     0
102
RTVSPost2010PropOp45
 70
     1
102
RTVSPost2010Prop46
 90
       50
102
RTVSPost2010PropOp46
 70
     0
102
RTVSPost2010Prop47
 90
       50
102
RTVSPost2010PropOp47
 70
     0
102
RTVSPost2010Prop48
 90
       50
102
RTVSPost2010PropOp48
 70
     0
102
RTVSPost2010Prop49
280
     0
102
RTVSPost2010PropOp49
 70
     1
102
RTVSPost2010Prop50
 90
       50
102
RTVSPost2010PropOp50
 70
     0
102
RTVSPost2010Prop51ColorIndex
 90
      256
102
RTVSPost2010Prop51ColorRGB
 90
-16777216
102
RTVSPost2010PropOp51
 70
     0
102
RTVSPost2010Prop52
140
1.0
102
RTVSPost2010PropOp52
 70
     0
102
RTVSPost2010Prop53
 90
        2
102
RTVSPost2010PropOp53
 70
     0
102
RTVSPost2010Prop54
  1
strokes_ogs.tif
102
RTVSPost2010PropOp54
 70
     0
102
RTVSPost2010Prop55
280
     0
102
RTVSPost2010PropOp55
 70
     1
102
RTVSPost2010Prop56
140
1.0
102
RTVSPost2010PropOp56
 70
     0
102
RTVSPost2010Prop57
140
1.0
102
RTVSPost2010PropOp57
 70
     0
102
RTVSPropertyOp0
 70
     0
102
RTVSPropertyOp1
 70
     0
102
RTVSPropertyOp2
 70
     0
102
RTVSPropertyOp3
 70
     0
102
RTVSPropertyOp4
 70
     0
102
RTVSPropertyOp5
 70
     0
102
RTVSPropertyOp6
 70
     0
102
RTVSPropertyOp7
 70
     0
102
RTVSPropertyOp8
 70
     0
102
RTVSPropertyOp9
 70
     0
102
RTVSPropertyOp10
 70
     0
102
RTVSPropertyOp11
 70
     0
102
RTVSPropertyOp12
 70
     0
102
RTVSPropertyOp13
 70
     0
102
RTVSPropertyOp14
 70
     2
102
RTVSPropertyOp15
 70
     0
102
RTVSPropertyOp16
 70
     0
102
RTVSPropertyOp17
 70
     0
102
RTVSPropertyOp18
 70
     0
102
RTVSPropertyOp19
 70
     0
102
RTVSPropertyOp20
 70
     0
102
RTVSPropertyOp21
 70
     0
102
RTVSPropertyOp22
 70
     0
102
RTVSPropertyOp23
 70
     0
102
RTVSPropertyOp24
 70
     0
102
RTVSPropertyOp25
 70
     0
102
RTVSPropertyOp26
 70
     0
102
RTVSPropertyOp27
 70
     0
102
RTVSPropertyOp28
 70
     1
102
RTVSPropertyOp29
 70
     1
102
RTVSPropertyOp30
 70
     1
102
RTVSPropertyOp31
 70
     1
102
RTVSPropertyOp32
 70
     1
102
RTVSPropertyOp33
 70
     1
102
RTVSPropertyOp34
 70
     1
102
RTVSPropertyOp35
 70
     1
102
RTVSPropertyOp36
 70
     1
102
RTVSPropertyOp37
 70
     0
102
RTVSPropertyOp38
 70
     0
102
RTVSPropertyOp39
 70
     0
102
RTVSPropertyOp40
 70
     0
102
RTVSPropertyOp41
 70
     0
102
RTVSPropertyOp42
 70
     0
102
RTVSPropertyOp43
 70
     0
102
RTVSPropertyOp44
 70
     0
102
RTVSPropertyOp45
 70
     1
102
RTVSPropertyOp46
 70
     0
102
RTVSPropertyOp47
 70
     0
102
RTVSPropertyOp48
 70
     0
102
RTVSPropertyOp49
 70
     1
102
RTVSPropertyOp50
 70
     0
102
RTVSPropertyOp51
 70
     0
102
RTVSPropertyOp52
 70
     0
102
RTVSPropertyOp53
 70
     0
102
RTVSPropertyOp54
 70
     0
102
RTVSPropertyOp55
 70
     1
102
RTVSPropertyOp56
 70
     0
102
RTVSPropertyOp57
 70
     0
102
RTVSPropertyOp58
 70
     0
102
RTVSPropertyOp59
 70
     0
102
RTVSPropertyOp60
 70
     0
102
RTVSPropertyOp61
 70
     0
102
RTVSPropertyOp62
 70
     0
  0
XRECORD
  5
669E
102
{ACAD_REACTORS
330
669D
102
}
330
669D
100
AcDbXrecord
280
     1
102
RTVSPost2010Prop28
280
     0
102
RTVSPost2010PropOp28
 70
     1
102
RTVSPost2010Prop29
280
     1
102
RTVSPost2010PropOp29
 70
     1
102
RTVSPost2010Prop30
280
     1
102
RTVSPost2010PropOp30
 70
     1
102
RTVSPost2010Prop31
280
     0
102
RTVSPost2010PropOp31
 70
     1
102
RTVSPost2010Prop32
280
     0
102
RTVSPost2010PropOp32
 70
     1
102
RTVSPost2010Prop33
280
     0
102
RTVSPost2010PropOp33
 70
     1
102
RTVSPost2010Prop34
280
     0
102
RTVSPost2010PropOp34
 70
     1
102
RTVSPost2010Prop35
280
     0
102
RTVSPost2010PropOp35
 70
     1
102
RTVSPost2010Prop36
280
     0
102
RTVSPost2010PropOp36
 70
     1
102
RTVSPost2010Prop37
 90
       50
102
RTVSPost2010PropOp37
 70
     1
102
RTVSPost2010Prop38
140
0.0
102
RTVSPost2010PropOp38
 70
     1
102
RTVSPost2010Prop39
140
1.0
102
RTVSPost2010PropOp39
 70
     1
102
RTVSPost2010Prop40
 90
        0
102
RTVSPost2010PropOp40
 70
     1
102
RTVSPost2010Prop41ColorIndex
 90
       18
102
RTVSPost2010Prop41ColorRGB
 90
        0
102
RTVSPost2010PropOp41
 70
     1
102
RTVSPost2010Prop42
 90
       50
102
RTVSPost2010PropOp42
 70
     1
102
RTVSPost2010Prop43
 90
        3
102
RTVSPost2010PropOp43
 70
     1
102
RTVSPost2010Prop44ColorIndex
 90
        5
102
RTVSPost2010Prop44ColorRGB
 90
      255
102
RTVSPost2010PropOp44
 70
     1
102
RTVSPost2010Prop45
280
     0
102
RTVSPost2010PropOp45
 70
     1
102
RTVSPost2010Prop46
 90
       50
102
RTVSPost2010PropOp46
 70
     1
102
RTVSPost2010Prop47
 90
       50
102
RTVSPost2010PropOp47
 70
     1
102
RTVSPost2010Prop48
 90
       50
102
RTVSPost2010PropOp48
 70
     1
102
RTVSPost2010Prop49
280
     0
102
RTVSPost2010PropOp49
 70
     1
102
RTVSPost2010Prop50
 90
       50
102
RTVSPost2010PropOp50
 70
     1
102
RTVSPost2010Prop51ColorIndex
 90
      256
102
RTVSPost2010Prop51ColorRGB
 90
-16777216
102
RTVSPost2010PropOp51
 70
     0
102
RTVSPost2010Prop52
140
1.0
102
RTVSPost2010PropOp52
 70
     0
102
RTVSPost2010Prop53
 90
        2
102
RTVSPost2010PropOp53
 70
     1
102
RTVSPost2010Prop54
  1
strokes_ogs.tif
102
RTVSPost2010PropOp54
 70
     1
102
RTVSPost2010Prop55
280
     0
102
RTVSPost2010PropOp55
 70
     1
102
RTVSPost2010Prop56
140
1.0
102
RTVSPost2010PropOp56
 70
     1
102
RTVSPost2010Prop57
140
1.0
102
RTVSPost2010PropOp57
 70
     1
102
RTVSPropertyOp0
 70
     1
102
RTVSPropertyOp1
 70
     1
102
RTVSPropertyOp2
 70
     1
102
RTVSPropertyOp3
 70
     1
102
RTVSPropertyOp4
 70
     1
102
RTVSPropertyOp5
 70
     1
102
RTVSPropertyOp6
 70
     1
102
RTVSPropertyOp7
 70
     1
102
RTVSPropertyOp8
 70
     1
102
RTVSPropertyOp9
 70
     1
102
RTVSPropertyOp10
 70
     1
102
RTVSPropertyOp11
 70
     1
102
RTVSPropertyOp12
 70
     1
102
RTVSPropertyOp13
 70
     1
102
RTVSPropertyOp14
 70
     1
102
RTVSPropertyOp15
 70
     1
102
RTVSPropertyOp16
 70
     1
102
RTVSPropertyOp17
 70
     1
102
RTVSPropertyOp18
 70
     1
102
RTVSPropertyOp19
 70
     1
102
RTVSPropertyOp20
 70
     1
102
RTVSPropertyOp21
 70
     1
102
RTVSPropertyOp22
 70
     1
102
RTVSPropertyOp23
 70
     1
102
RTVSPropertyOp24
 70
     1
102
RTVSPropertyOp25
 70
     1
102
RTVSPropertyOp26
 70
     1
102
RTVSPropertyOp27
 70
     1
102
RTVSPropertyOp28
 70
     1
102
RTVSPropertyOp29
 70
     1
102
RTVSPropertyOp30
 70
     1
102
RTVSPropertyOp31
 70
     1
102
RTVSPropertyOp32
 70
     1
102
RTVSPropertyOp33
 70
     1
102
RTVSPropertyOp34
 70
     1
102
RTVSPropertyOp35
 70
     1
102
RTVSPropertyOp36
 70
     1
102
RTVSPropertyOp37
 70
     1
102
RTVSPropertyOp38
 70
     1
102
RTVSPropertyOp39
 70
     1
102
RTVSPropertyOp40
 70
     1
102
RTVSPropertyOp41
 70
     1
102
RTVSPropertyOp42
 70
     1
102
RTVSPropertyOp43
 70
     1
102
RTVSPropertyOp44
 70
     1
102
RTVSPropertyOp45
 70
     1
102
RTVSPropertyOp46
 70
     1
102
RTVSPropertyOp47
 70
     1
102
RTVSPropertyOp48
 70
     1
102
RTVSPropertyOp49
 70
     1
102
RTVSPropertyOp50
 70
     1
102
RTVSPropertyOp51
 70
     0
102
RTVSPropertyOp52
 70
     0
102
RTVSPropertyOp53
 70
     1
102
RTVSPropertyOp54
 70
     1
102
RTVSPropertyOp55
 70
     1
102
RTVSPropertyOp56
 70
     1
102
RTVSPropertyOp57
 70
     1
102
RTVSPropertyOp58
 70
     1
102
RTVSPropertyOp59
 70
     1
102
RTVSPropertyOp60
 70
     1
102
RTVSPropertyOp61
 70
     1
102
RTVSPropertyOp62
 70
     1
  0
XRECORD
  5
66B4
102
{ACAD_REACTORS
330
66B3
102
}
330
66B3
100
AcDbXrecord
280
     1
102
RTVSPost2010Prop28
280
     0
102
RTVSPost2010PropOp28
 70
     1
102
RTVSPost2010Prop29
280
     1
102
RTVSPost2010PropOp29
 70
     1
102
RTVSPost2010Prop30
280
     1
102
RTVSPost2010PropOp30
 70
     1
102
RTVSPost2010Prop31
280
     0
102
RTVSPost2010PropOp31
 70
     1
102
RTVSPost2010Prop32
280
     0
102
RTVSPost2010PropOp32
 70
     1
102
RTVSPost2010Prop33
280
     0
102
RTVSPost2010PropOp33
 70
     1
102
RTVSPost2010Prop34
280
     0
102
RTVSPost2010PropOp34
 70
     1
102
RTVSPost2010Prop35
280
     0
102
RTVSPost2010PropOp35
 70
     1
102
RTVSPost2010Prop36
280
     0
102
RTVSPost2010PropOp36
 70
     1
102
RTVSPost2010Prop37
 90
       50
102
RTVSPost2010PropOp37
 70
     1
102
RTVSPost2010Prop38
140
0.0
102
RTVSPost2010PropOp38
 70
     1
102
RTVSPost2010Prop39
140
1.0
102
RTVSPost2010PropOp39
 70
     1
102
RTVSPost2010Prop40
 90
        0
102
RTVSPost2010PropOp40
 70
     1
102
RTVSPost2010Prop41ColorIndex
 90
       18
102
RTVSPost2010Prop41ColorRGB
 90
        0
102
RTVSPost2010PropOp41
 70
     1
102
RTVSPost2010Prop42
 90
       50
102
RTVSPost2010PropOp42
 70
     1
102
RTVSPost2010Prop43
 90
        3
102
RTVSPost2010PropOp43
 70
     1
102
RTVSPost2010Prop44ColorIndex
 90
        5
102
RTVSPost2010Prop44ColorRGB
 90
      255
102
RTVSPost2010PropOp44
 70
     1
102
RTVSPost2010Prop45
280
     0
102
RTVSPost2010PropOp45
 70
     1
102
RTVSPost2010Prop46
 90
       50
102
RTVSPost2010PropOp46
 70
     1
102
RTVSPost2010Prop47
 90
       50
102
RTVSPost2010PropOp47
 70
     1
102
RTVSPost2010Prop48
 90
       50
102
RTVSPost2010PropOp48
 70
     1
102
RTVSPost2010Prop49
280
     0
102
RTVSPost2010PropOp49
 70
     1
102
RTVSPost2010Prop50
 90
       50
102
RTVSPost2010PropOp50
 70
     1
102
RTVSPost2010Prop51ColorIndex
 90
      256
102
RTVSPost2010Prop51ColorRGB
 90
-16777216
102
RTVSPost2010PropOp51
 70
     0
102
RTVSPost2010Prop52
140
1.0
102
RTVSPost2010PropOp52
 70
     0
102
RTVSPost2010Prop53
 90
        2
102
RTVSPost2010PropOp53
 70
     1
102
RTVSPost2010Prop54
  1
strokes_ogs.tif
102
RTVSPost2010PropOp54
 70
     1
102
RTVSPost2010Prop55
280
     0
102
RTVSPost2010PropOp55
 70
     1
102
RTVSPost2010Prop56
140
1.0
102
RTVSPost2010PropOp56
 70
     1
102
RTVSPost2010Prop57
140
1.0
102
RTVSPost2010PropOp57
 70
     1
102
RTVSPropertyOp0
 70
     1
102
RTVSPropertyOp1
 70
     1
102
RTVSPropertyOp2
 70
     1
102
RTVSPropertyOp3
 70
     1
102
RTVSPropertyOp4
 70
     1
102
RTVSPropertyOp5
 70
     1
102
RTVSPropertyOp6
 70
     1
102
RTVSPropertyOp7
 70
     1
102
RTVSPropertyOp8
 70
     1
102
RTVSPropertyOp9
 70
     1
102
RTVSPropertyOp10
 70
     1
102
RTVSPropertyOp11
 70
     1
102
RTVSPropertyOp12
 70
     1
102
RTVSPropertyOp13
 70
     1
102
RTVSPropertyOp14
 70
     1
102
RTVSPropertyOp15
 70
     1
102
RTVSPropertyOp16
 70
     1
102
RTVSPropertyOp17
 70
     1
102
RTVSPropertyOp18
 70
     1
102
RTVSPropertyOp19
 70
     1
102
RTVSPropertyOp20
 70
     1
102
RTVSPropertyOp21
 70
     1
102
RTVSPropertyOp22
 70
     1
102
RTVSPropertyOp23
 70
     1
102
RTVSPropertyOp24
 70
     1
102
RTVSPropertyOp25
 70
     1
102
RTVSPropertyOp26
 70
     1
102
RTVSPropertyOp27
 70
     1
102
RTVSPropertyOp28
 70
     1
102
RTVSPropertyOp29
 70
     1
102
RTVSPropertyOp30
 70
     1
102
RTVSPropertyOp31
 70
     1
102
RTVSPropertyOp32
 70
     1
102
RTVSPropertyOp33
 70
     1
102
RTVSPropertyOp34
 70
     1
102
RTVSPropertyOp35
 70
     1
102
RTVSPropertyOp36
 70
     1
102
RTVSPropertyOp37
 70
     1
102
RTVSPropertyOp38
 70
     1
102
RTVSPropertyOp39
 70
     1
102
RTVSPropertyOp40
 70
     1
102
RTVSPropertyOp41
 70
     1
102
RTVSPropertyOp42
 70
     1
102
RTVSPropertyOp43
 70
     1
102
RTVSPropertyOp44
 70
     1
102
RTVSPropertyOp45
 70
     1
102
RTVSPropertyOp46
 70
     1
102
RTVSPropertyOp47
 70
     1
102
RTVSPropertyOp48
 70
     1
102
RTVSPropertyOp49
 70
     1
102
RTVSPropertyOp50
 70
     1
102
RTVSPropertyOp51
 70
     0
102
RTVSPropertyOp52
 70
     0
102
RTVSPropertyOp53
 70
     1
102
RTVSPropertyOp54
 70
     1
102
RTVSPropertyOp55
 70
     1
102
RTVSPropertyOp56
 70
     1
102
RTVSPropertyOp57
 70
     1
102
RTVSPropertyOp58
 70
     1
102
RTVSPropertyOp59
 70
     1
102
RTVSPropertyOp60
 70
     1
102
RTVSPropertyOp61
 70
     1
102
RTVSPropertyOp62
 70
     1
  0
XRECORD
  5
66B2
102
{ACAD_REACTORS
330
66B1
102
}
330
66B1
100
AcDbXrecord
280
     1
102
RTVSPost2010Prop28
280
     0
102
RTVSPost2010PropOp28
 70
     1
102
RTVSPost2010Prop29
280
     1
102
RTVSPost2010PropOp29
 70
     1
102
RTVSPost2010Prop30
280
     1
102
RTVSPost2010PropOp30
 70
     1
102
RTVSPost2010Prop31
280
     0
102
RTVSPost2010PropOp31
 70
     1
102
RTVSPost2010Prop32
280
     0
102
RTVSPost2010PropOp32
 70
     1
102
RTVSPost2010Prop33
280
     0
102
RTVSPost2010PropOp33
 70
     1
102
RTVSPost2010Prop34
280
     0
102
RTVSPost2010PropOp34
 70
     1
102
RTVSPost2010Prop35
280
     0
102
RTVSPost2010PropOp35
 70
     1
102
RTVSPost2010Prop36
280
     0
102
RTVSPost2010PropOp36
 70
     1
102
RTVSPost2010Prop37
 90
       50
102
RTVSPost2010PropOp37
 70
     1
102
RTVSPost2010Prop38
140
0.0
102
RTVSPost2010PropOp38
 70
     1
102
RTVSPost2010Prop39
140
1.0
102
RTVSPost2010PropOp39
 70
     1
102
RTVSPost2010Prop40
 90
        0
102
RTVSPost2010PropOp40
 70
     1
102
RTVSPost2010Prop41ColorIndex
 90
       18
102
RTVSPost2010Prop41ColorRGB
 90
        0
102
RTVSPost2010PropOp41
 70
     1
102
RTVSPost2010Prop42
 90
       50
102
RTVSPost2010PropOp42
 70
     1
102
RTVSPost2010Prop43
 90
        3
102
RTVSPost2010PropOp43
 70
     1
102
RTVSPost2010Prop44ColorIndex
 90
        5
102
RTVSPost2010Prop44ColorRGB
 90
      255
102
RTVSPost2010PropOp44
 70
     1
102
RTVSPost2010Prop45
280
     0
102
RTVSPost2010PropOp45
 70
     1
102
RTVSPost2010Prop46
 90
       50
102
RTVSPost2010PropOp46
 70
     1
102
RTVSPost2010Prop47
 90
       50
102
RTVSPost2010PropOp47
 70
     1
102
RTVSPost2010Prop48
 90
       50
102
RTVSPost2010PropOp48
 70
     1
102
RTVSPost2010Prop49
280
     0
102
RTVSPost2010PropOp49
 70
     1
102
RTVSPost2010Prop50
 90
       50
102
RTVSPost2010PropOp50
 70
     1
102
RTVSPost2010Prop51ColorIndex
 90
      256
102
RTVSPost2010Prop51ColorRGB
 90
-16777216
102
RTVSPost2010PropOp51
 70
     0
102
RTVSPost2010Prop52
140
1.0
102
RTVSPost2010PropOp52
 70
     0
102
RTVSPost2010Prop53
 90
        2
102
RTVSPost2010PropOp53
 70
     1
102
RTVSPost2010Prop54
  1
strokes_ogs.tif
102
RTVSPost2010PropOp54
 70
     1
102
RTVSPost2010Prop55
280
     0
102
RTVSPost2010PropOp55
 70
     1
102
RTVSPost2010Prop56
140
1.0
102
RTVSPost2010PropOp56
 70
     1
102
RTVSPost2010Prop57
140
1.0
102
RTVSPost2010PropOp57
 70
     1
102
RTVSPropertyOp0
 70
     1
102
RTVSPropertyOp1
 70
     1
102
RTVSPropertyOp2
 70
     1
102
RTVSPropertyOp3
 70
     1
102
RTVSPropertyOp4
 70
     1
102
RTVSPropertyOp5
 70
     1
102
RTVSPropertyOp6
 70
     1
102
RTVSPropertyOp7
 70
     1
102
RTVSPropertyOp8
 70
     1
102
RTVSPropertyOp9
 70
     1
102
RTVSPropertyOp10
 70
     1
102
RTVSPropertyOp11
 70
     1
102
RTVSPropertyOp12
 70
     1
102
RTVSPropertyOp13
 70
     1
102
RTVSPropertyOp14
 70
     1
102
RTVSPropertyOp15
 70
     1
102
RTVSPropertyOp16
 70
     1
102
RTVSPropertyOp17
 70
     1
102
RTVSPropertyOp18
 70
     1
102
RTVSPropertyOp19
 70
     1
102
RTVSPropertyOp20
 70
     1
102
RTVSPropertyOp21
 70
     1
102
RTVSPropertyOp22
 70
     1
102
RTVSPropertyOp23
 70
     1
102
RTVSPropertyOp24
 70
     1
102
RTVSPropertyOp25
 70
     1
102
RTVSPropertyOp26
 70
     1
102
RTVSPropertyOp27
 70
     1
102
RTVSPropertyOp28
 70
     1
102
RTVSPropertyOp29
 70
     1
102
RTVSPropertyOp30
 70
     1
102
RTVSPropertyOp31
 70
     1
102
RTVSPropertyOp32
 70
     1
102
RTVSPropertyOp33
 70
     1
102
RTVSPropertyOp34
 70
     1
102
RTVSPropertyOp35
 70
     1
102
RTVSPropertyOp36
 70
     1
102
RTVSPropertyOp37
 70
     1
102
RTVSPropertyOp38
 70
     1
102
RTVSPropertyOp39
 70
     1
102
RTVSPropertyOp40
 70
     1
102
RTVSPropertyOp41
 70
     1
102
RTVSPropertyOp42
 70
     1
102
RTVSPropertyOp43
 70
     1
102
RTVSPropertyOp44
 70
     1
102
RTVSPropertyOp45
 70
     1
102
RTVSPropertyOp46
 70
     1
102
RTVSPropertyOp47
 70
     1
102
RTVSPropertyOp48
 70
     1
102
RTVSPropertyOp49
 70
     1
102
RTVSPropertyOp50
 70
     1
102
RTVSPropertyOp51
 70
     0
102
RTVSPropertyOp52
 70
     0
102
RTVSPropertyOp53
 70
     1
102
RTVSPropertyOp54
 70
     1
102
RTVSPropertyOp55
 70
     1
102
RTVSPropertyOp56
 70
     1
102
RTVSPropertyOp57
 70
     1
102
RTVSPropertyOp58
 70
     1
102
RTVSPropertyOp59
 70
     1
102
RTVSPropertyOp60
 70
     1
102
RTVSPropertyOp61
 70
     1
102
RTVSPropertyOp62
 70
     1
  0
XRECORD
  5
66AC
102
{ACAD_REACTORS
330
66AB
102
}
330
66AB
100
AcDbXrecord
280
     1
102
RTVSPost2010Prop28
280
     0
102
RTVSPost2010PropOp28
 70
     1
102
RTVSPost2010Prop29
280
     1
102
RTVSPost2010PropOp29
 70
     1
102
RTVSPost2010Prop30
280
     1
102
RTVSPost2010PropOp30
 70
     1
102
RTVSPost2010Prop31
280
     0
102
RTVSPost2010PropOp31
 70
     1
102
RTVSPost2010Prop32
280
     0
102
RTVSPost2010PropOp32
 70
     1
102
RTVSPost2010Prop33
280
     0
102
RTVSPost2010PropOp33
 70
     1
102
RTVSPost2010Prop34
280
     0
102
RTVSPost2010PropOp34
 70
     1
102
RTVSPost2010Prop35
280
     0
102
RTVSPost2010PropOp35
 70
     1
102
RTVSPost2010Prop36
280
     0
102
RTVSPost2010PropOp36
 70
     1
102
RTVSPost2010Prop37
 90
       50
102
RTVSPost2010PropOp37
 70
     1
102
RTVSPost2010Prop38
140
0.0
102
RTVSPost2010PropOp38
 70
     1
102
RTVSPost2010Prop39
140
1.0
102
RTVSPost2010PropOp39
 70
     1
102
RTVSPost2010Prop40
 90
        0
102
RTVSPost2010PropOp40
 70
     1
102
RTVSPost2010Prop41ColorIndex
 90
       18
102
RTVSPost2010Prop41ColorRGB
 90
        0
102
RTVSPost2010PropOp41
 70
     1
102
RTVSPost2010Prop42
 90
       50
102
RTVSPost2010PropOp42
 70
     1
102
RTVSPost2010Prop43
 90
        3
102
RTVSPost2010PropOp43
 70
     1
102
RTVSPost2010Prop44ColorIndex
 90
        5
102
RTVSPost2010Prop44ColorRGB
 90
      255
102
RTVSPost2010PropOp44
 70
     1
102
RTVSPost2010Prop45
280
     0
102
RTVSPost2010PropOp45
 70
     1
102
RTVSPost2010Prop46
 90
       50
102
RTVSPost2010PropOp46
 70
     1
102
RTVSPost2010Prop47
 90
       50
102
RTVSPost2010PropOp47
 70
     1
102
RTVSPost2010Prop48
 90
       50
102
RTVSPost2010PropOp48
 70
     1
102
RTVSPost2010Prop49
280
     0
102
RTVSPost2010PropOp49
 70
     1
102
RTVSPost2010Prop50
 90
       50
102
RTVSPost2010PropOp50
 70
     1
102
RTVSPost2010Prop51ColorIndex
 90
      256
102
RTVSPost2010Prop51ColorRGB
 90
-16777216
102
RTVSPost2010PropOp51
 70
     0
102
RTVSPost2010Prop52
140
1.0
102
RTVSPost2010PropOp52
 70
     0
102
RTVSPost2010Prop53
 90
        2
102
RTVSPost2010PropOp53
 70
     1
102
RTVSPost2010Prop54
  1
strokes_ogs.tif
102
RTVSPost2010PropOp54
 70
     1
102
RTVSPost2010Prop55
280
     0
102
RTVSPost2010PropOp55
 70
     1
102
RTVSPost2010Prop56
140
1.0
102
RTVSPost2010PropOp56
 70
     1
102
RTVSPost2010Prop57
140
1.0
102
RTVSPost2010PropOp57
 70
     1
102
RTVSPropertyOp0
 70
     1
102
RTVSPropertyOp1
 70
     1
102
RTVSPropertyOp2
 70
     1
102
RTVSPropertyOp3
 70
     1
102
RTVSPropertyOp4
 70
     1
102
RTVSPropertyOp5
 70
     1
102
RTVSPropertyOp6
 70
     1
102
RTVSPropertyOp7
 70
     1
102
RTVSPropertyOp8
 70
     1
102
RTVSPropertyOp9
 70
     1
102
RTVSPropertyOp10
 70
     1
102
RTVSPropertyOp11
 70
     1
102
RTVSPropertyOp12
 70
     1
102
RTVSPropertyOp13
 70
     1
102
RTVSPropertyOp14
 70
     1
102
RTVSPropertyOp15
 70
     1
102
RTVSPropertyOp16
 70
     1
102
RTVSPropertyOp17
 70
     1
102
RTVSPropertyOp18
 70
     1
102
RTVSPropertyOp19
 70
     1
102
RTVSPropertyOp20
 70
     1
102
RTVSPropertyOp21
 70
     1
102
RTVSPropertyOp22
 70
     1
102
RTVSPropertyOp23
 70
     1
102
RTVSPropertyOp24
 70
     1
102
RTVSPropertyOp25
 70
     1
102
RTVSPropertyOp26
 70
     1
102
RTVSPropertyOp27
 70
     1
102
RTVSPropertyOp28
 70
     1
102
RTVSPropertyOp29
 70
     1
102
RTVSPropertyOp30
 70
     1
102
RTVSPropertyOp31
 70
     1
102
RTVSPropertyOp32
 70
     1
102
RTVSPropertyOp33
 70
     1
102
RTVSPropertyOp34
 70
     1
102
RTVSPropertyOp35
 70
     1
102
RTVSPropertyOp36
 70
     1
102
RTVSPropertyOp37
 70
     1
102
RTVSPropertyOp38
 70
     1
102
RTVSPropertyOp39
 70
     1
102
RTVSPropertyOp40
 70
     1
102
RTVSPropertyOp41
 70
     1
102
RTVSPropertyOp42
 70
     1
102
RTVSPropertyOp43
 70
     1
102
RTVSPropertyOp44
 70
     1
102
RTVSPropertyOp45
 70
     1
102
RTVSPropertyOp46
 70
     1
102
RTVSPropertyOp47
 70
     1
102
RTVSPropertyOp48
 70
     1
102
RTVSPropertyOp49
 70
     1
102
RTVSPropertyOp50
 70
     1
102
RTVSPropertyOp51
 70
     0
102
RTVSPropertyOp52
 70
     0
102
RTVSPropertyOp53
 70
     1
102
RTVSPropertyOp54
 70
     1
102
RTVSPropertyOp55
 70
     1
102
RTVSPropertyOp56
 70
     1
102
RTVSPropertyOp57
 70
     1
102
RTVSPropertyOp58
 70
     1
102
RTVSPropertyOp59
 70
     1
102
RTVSPropertyOp60
 70
     1
102
RTVSPropertyOp61
 70
     1
102
RTVSPropertyOp62
 70
     1
  0
XRECORD
  5
66AE
102
{ACAD_REACTORS
330
66AD
102
}
330
66AD
100
AcDbXrecord
280
     1
102
RTVSPost2010Prop28
280
     0
102
RTVSPost2010PropOp28
 70
     1
102
RTVSPost2010Prop29
280
     1
102
RTVSPost2010PropOp29
 70
     1
102
RTVSPost2010Prop30
280
     1
102
RTVSPost2010PropOp30
 70
     1
102
RTVSPost2010Prop31
280
     0
102
RTVSPost2010PropOp31
 70
     1
102
RTVSPost2010Prop32
280
     0
102
RTVSPost2010PropOp32
 70
     1
102
RTVSPost2010Prop33
280
     0
102
RTVSPost2010PropOp33
 70
     1
102
RTVSPost2010Prop34
280
     0
102
RTVSPost2010PropOp34
 70
     1
102
RTVSPost2010Prop35
280
     0
102
RTVSPost2010PropOp35
 70
     1
102
RTVSPost2010Prop36
280
     0
102
RTVSPost2010PropOp36
 70
     1
102
RTVSPost2010Prop37
 90
       50
102
RTVSPost2010PropOp37
 70
     1
102
RTVSPost2010Prop38
140
0.0
102
RTVSPost2010PropOp38
 70
     1
102
RTVSPost2010Prop39
140
1.0
102
RTVSPost2010PropOp39
 70
     1
102
RTVSPost2010Prop40
 90
        0
102
RTVSPost2010PropOp40
 70
     1
102
RTVSPost2010Prop41ColorIndex
 90
       18
102
RTVSPost2010Prop41ColorRGB
 90
        0
102
RTVSPost2010PropOp41
 70
     1
102
RTVSPost2010Prop42
 90
       50
102
RTVSPost2010PropOp42
 70
     1
102
RTVSPost2010Prop43
 90
        3
102
RTVSPost2010PropOp43
 70
     1
102
RTVSPost2010Prop44ColorIndex
 90
        5
102
RTVSPost2010Prop44ColorRGB
 90
      255
102
RTVSPost2010PropOp44
 70
     1
102
RTVSPost2010Prop45
280
     0
102
RTVSPost2010PropOp45
 70
     1
102
RTVSPost2010Prop46
 90
       50
102
RTVSPost2010PropOp46
 70
     1
102
RTVSPost2010Prop47
 90
       50
102
RTVSPost2010PropOp47
 70
     1
102
RTVSPost2010Prop48
 90
       50
102
RTVSPost2010PropOp48
 70
     1
102
RTVSPost2010Prop49
280
     0
102
RTVSPost2010PropOp49
 70
     1
102
RTVSPost2010Prop50
 90
       50
102
RTVSPost2010PropOp50
 70
     1
102
RTVSPost2010Prop51ColorIndex
 90
      256
102
RTVSPost2010Prop51ColorRGB
 90
-16777216
102
RTVSPost2010PropOp51
 70
     0
102
RTVSPost2010Prop52
140
1.0
102
RTVSPost2010PropOp52
 70
     0
102
RTVSPost2010Prop53
 90
        2
102
RTVSPost2010PropOp53
 70
     1
102
RTVSPost2010Prop54
  1
strokes_ogs.tif
102
RTVSPost2010PropOp54
 70
     1
102
RTVSPost2010Prop55
280
     0
102
RTVSPost2010PropOp55
 70
     1
102
RTVSPost2010Prop56
140
1.0
102
RTVSPost2010PropOp56
 70
     1
102
RTVSPost2010Prop57
140
1.0
102
RTVSPost2010PropOp57
 70
     1
102
RTVSPropertyOp0
 70
     1
102
RTVSPropertyOp1
 70
     1
102
RTVSPropertyOp2
 70
     1
102
RTVSPropertyOp3
 70
     1
102
RTVSPropertyOp4
 70
     1
102
RTVSPropertyOp5
 70
     1
102
RTVSPropertyOp6
 70
     1
102
RTVSPropertyOp7
 70
     1
102
RTVSPropertyOp8
 70
     1
102
RTVSPropertyOp9
 70
     1
102
RTVSPropertyOp10
 70
     1
102
RTVSPropertyOp11
 70
     1
102
RTVSPropertyOp12
 70
     1
102
RTVSPropertyOp13
 70
     1
102
RTVSPropertyOp14
 70
     1
102
RTVSPropertyOp15
 70
     1
102
RTVSPropertyOp16
 70
     1
102
RTVSPropertyOp17
 70
     1
102
RTVSPropertyOp18
 70
     1
102
RTVSPropertyOp19
 70
     1
102
RTVSPropertyOp20
 70
     1
102
RTVSPropertyOp21
 70
     1
102
RTVSPropertyOp22
 70
     1
102
RTVSPropertyOp23
 70
     1
102
RTVSPropertyOp24
 70
     1
102
RTVSPropertyOp25
 70
     1
102
RTVSPropertyOp26
 70
     1
102
RTVSPropertyOp27
 70
     1
102
RTVSPropertyOp28
 70
     1
102
RTVSPropertyOp29
 70
     1
102
RTVSPropertyOp30
 70
     1
102
RTVSPropertyOp31
 70
     1
102
RTVSPropertyOp32
 70
     1
102
RTVSPropertyOp33
 70
     1
102
RTVSPropertyOp34
 70
     1
102
RTVSPropertyOp35
 70
     1
102
RTVSPropertyOp36
 70
     1
102
RTVSPropertyOp37
 70
     1
102
RTVSPropertyOp38
 70
     1
102
RTVSPropertyOp39
 70
     1
102
RTVSPropertyOp40
 70
     1
102
RTVSPropertyOp41
 70
     1
102
RTVSPropertyOp42
 70
     1
102
RTVSPropertyOp43
 70
     1
102
RTVSPropertyOp44
 70
     1
102
RTVSPropertyOp45
 70
     1
102
RTVSPropertyOp46
 70
     1
102
RTVSPropertyOp47
 70
     1
102
RTVSPropertyOp48
 70
     1
102
RTVSPropertyOp49
 70
     1
102
RTVSPropertyOp50
 70
     1
102
RTVSPropertyOp51
 70
     0
102
RTVSPropertyOp52
 70
     0
102
RTVSPropertyOp53
 70
     1
102
RTVSPropertyOp54
 70
     1
102
RTVSPropertyOp55
 70
     1
102
RTVSPropertyOp56
 70
     1
102
RTVSPropertyOp57
 70
     1
102
RTVSPropertyOp58
 70
     1
102
RTVSPropertyOp59
 70
     1
102
RTVSPropertyOp60
 70
     1
102
RTVSPropertyOp61
 70
     1
102
RTVSPropertyOp62
 70
     1
  0
XRECORD
  5
66A4
102
{ACAD_REACTORS
330
66A3
102
}
330
66A3
100
AcDbXrecord
280
     1
102
RTVSPost2010Prop28
280
     0
102
RTVSPost2010PropOp28
 70
     1
102
RTVSPost2010Prop29
280
     1
102
RTVSPost2010PropOp29
 70
     1
102
RTVSPost2010Prop30
280
     1
102
RTVSPost2010PropOp30
 70
     1
102
RTVSPost2010Prop31
280
     0
102
RTVSPost2010PropOp31
 70
     1
102
RTVSPost2010Prop32
280
     0
102
RTVSPost2010PropOp32
 70
     1
102
RTVSPost2010Prop33
280
     0
102
RTVSPost2010PropOp33
 70
     1
102
RTVSPost2010Prop34
280
     0
102
RTVSPost2010PropOp34
 70
     1
102
RTVSPost2010Prop35
280
     0
102
RTVSPost2010PropOp35
 70
     1
102
RTVSPost2010Prop36
280
     0
102
RTVSPost2010PropOp36
 70
     1
102
RTVSPost2010Prop37
 90
       50
102
RTVSPost2010PropOp37
 70
     1
102
RTVSPost2010Prop38
140
0.0
102
RTVSPost2010PropOp38
 70
     1
102
RTVSPost2010Prop39
140
1.0
102
RTVSPost2010PropOp39
 70
     1
102
RTVSPost2010Prop40
 90
        0
102
RTVSPost2010PropOp40
 70
     1
102
RTVSPost2010Prop41ColorIndex
 90
       18
102
RTVSPost2010Prop41ColorRGB
 90
        0
102
RTVSPost2010PropOp41
 70
     1
102
RTVSPost2010Prop42
 90
       50
102
RTVSPost2010PropOp42
 70
     1
102
RTVSPost2010Prop43
 90
        3
102
RTVSPost2010PropOp43
 70
     1
102
RTVSPost2010Prop44ColorIndex
 90
        5
102
RTVSPost2010Prop44ColorRGB
 90
      255
102
RTVSPost2010PropOp44
 70
     1
102
RTVSPost2010Prop45
280
     0
102
RTVSPost2010PropOp45
 70
     1
102
RTVSPost2010Prop46
 90
       50
102
RTVSPost2010PropOp46
 70
     1
102
RTVSPost2010Prop47
 90
       50
102
RTVSPost2010PropOp47
 70
     1
102
RTVSPost2010Prop48
 90
       50
102
RTVSPost2010PropOp48
 70
     1
102
RTVSPost2010Prop49
280
     0
102
RTVSPost2010PropOp49
 70
     1
102
RTVSPost2010Prop50
 90
       50
102
RTVSPost2010PropOp50
 70
     1
102
RTVSPost2010Prop51ColorIndex
 90
      256
102
RTVSPost2010Prop51ColorRGB
 90
-16777216
102
RTVSPost2010PropOp51
 70
     0
102
RTVSPost2010Prop52
140
1.0
102
RTVSPost2010PropOp52
 70
     0
102
RTVSPost2010Prop53
 90
        2
102
RTVSPost2010PropOp53
 70
     1
102
RTVSPost2010Prop54
  1
strokes_ogs.tif
102
RTVSPost2010PropOp54
 70
     1
102
RTVSPost2010Prop55
280
     0
102
RTVSPost2010PropOp55
 70
     1
102
RTVSPost2010Prop56
140
1.0
102
RTVSPost2010PropOp56
 70
     1
102
RTVSPost2010Prop57
140
1.0
102
RTVSPost2010PropOp57
 70
     1
102
RTVSPropertyOp0
 70
     1
102
RTVSPropertyOp1
 70
     1
102
RTVSPropertyOp2
 70
     1
102
RTVSPropertyOp3
 70
     1
102
RTVSPropertyOp4
 70
     1
102
RTVSPropertyOp5
 70
     1
102
RTVSPropertyOp6
 70
     1
102
RTVSPropertyOp7
 70
     1
102
RTVSPropertyOp8
 70
     1
102
RTVSPropertyOp9
 70
     1
102
RTVSPropertyOp10
 70
     1
102
RTVSPropertyOp11
 70
     1
102
RTVSPropertyOp12
 70
     1
102
RTVSPropertyOp13
 70
     1
102
RTVSPropertyOp14
 70
     1
102
RTVSPropertyOp15
 70
     1
102
RTVSPropertyOp16
 70
     1
102
RTVSPropertyOp17
 70
     1
102
RTVSPropertyOp18
 70
     1
102
RTVSPropertyOp19
 70
     1
102
RTVSPropertyOp20
 70
     1
102
RTVSPropertyOp21
 70
     1
102
RTVSPropertyOp22
 70
     1
102
RTVSPropertyOp23
 70
     1
102
RTVSPropertyOp24
 70
     1
102
RTVSPropertyOp25
 70
     1
102
RTVSPropertyOp26
 70
     1
102
RTVSPropertyOp27
 70
     1
102
RTVSPropertyOp28
 70
     1
102
RTVSPropertyOp29
 70
     1
102
RTVSPropertyOp30
 70
     1
102
RTVSPropertyOp31
 70
     1
102
RTVSPropertyOp32
 70
     1
102
RTVSPropertyOp33
 70
     1
102
RTVSPropertyOp34
 70
     1
102
RTVSPropertyOp35
 70
     1
102
RTVSPropertyOp36
 70
     1
102
RTVSPropertyOp37
 70
     1
102
RTVSPropertyOp38
 70
     1
102
RTVSPropertyOp39
 70
     1
102
RTVSPropertyOp40
 70
     1
102
RTVSPropertyOp41
 70
     1
102
RTVSPropertyOp42
 70
     1
102
RTVSPropertyOp43
 70
     1
102
RTVSPropertyOp44
 70
     1
102
RTVSPropertyOp45
 70
     1
102
RTVSPropertyOp46
 70
     1
102
RTVSPropertyOp47
 70
     1
102
RTVSPropertyOp48
 70
     1
102
RTVSPropertyOp49
 70
     1
102
RTVSPropertyOp50
 70
     1
102
RTVSPropertyOp51
 70
     0
102
RTVSPropertyOp52
 70
     0
102
RTVSPropertyOp53
 70
     1
102
RTVSPropertyOp54
 70
     1
102
RTVSPropertyOp55
 70
     1
102
RTVSPropertyOp56
 70
     1
102
RTVSPropertyOp57
 70
     1
102
RTVSPropertyOp58
 70
     1
102
RTVSPropertyOp59
 70
     1
102
RTVSPropertyOp60
 70
     1
102
RTVSPropertyOp61
 70
     1
102
RTVSPropertyOp62
 70
     1
  0
XRECORD
  5
6698
102
{ACAD_REACTORS
330
6697
102
}
330
6697
100
AcDbXrecord
280
     1
102
RTVSPost2010Prop28
280
     0
102
RTVSPost2010PropOp28
 70
     1
102
RTVSPost2010Prop29
280
     1
102
RTVSPost2010PropOp29
 70
     1
102
RTVSPost2010Prop30
280
     1
102
RTVSPost2010PropOp30
 70
     1
102
RTVSPost2010Prop31
280
     0
102
RTVSPost2010PropOp31
 70
     1
102
RTVSPost2010Prop32
280
     0
102
RTVSPost2010PropOp32
 70
     1
102
RTVSPost2010Prop33
280
     0
102
RTVSPost2010PropOp33
 70
     1
102
RTVSPost2010Prop34
280
     0
102
RTVSPost2010PropOp34
 70
     1
102
RTVSPost2010Prop35
280
     0
102
RTVSPost2010PropOp35
 70
     1
102
RTVSPost2010Prop36
280
     0
102
RTVSPost2010PropOp36
 70
     1
102
RTVSPost2010Prop37
 90
       50
102
RTVSPost2010PropOp37
 70
     1
102
RTVSPost2010Prop38
140
0.0
102
RTVSPost2010PropOp38
 70
     1
102
RTVSPost2010Prop39
140
1.0
102
RTVSPost2010PropOp39
 70
     1
102
RTVSPost2010Prop40
 90
        0
102
RTVSPost2010PropOp40
 70
     1
102
RTVSPost2010Prop41ColorIndex
 90
       18
102
RTVSPost2010Prop41ColorRGB
 90
        0
102
RTVSPost2010PropOp41
 70
     1
102
RTVSPost2010Prop42
 90
       50
102
RTVSPost2010PropOp42
 70
     1
102
RTVSPost2010Prop43
 90
        3
102
RTVSPost2010PropOp43
 70
     1
102
RTVSPost2010Prop44ColorIndex
 90
        5
102
RTVSPost2010Prop44ColorRGB
 90
      255
102
RTVSPost2010PropOp44
 70
     1
102
RTVSPost2010Prop45
280
     0
102
RTVSPost2010PropOp45
 70
     1
102
RTVSPost2010Prop46
 90
       50
102
RTVSPost2010PropOp46
 70
     1
102
RTVSPost2010Prop47
 90
       50
102
RTVSPost2010PropOp47
 70
     1
102
RTVSPost2010Prop48
 90
       50
102
RTVSPost2010PropOp48
 70
     1
102
RTVSPost2010Prop49
280
     0
102
RTVSPost2010PropOp49
 70
     1
102
RTVSPost2010Prop50
 90
       50
102
RTVSPost2010PropOp50
 70
     1
102
RTVSPost2010Prop51ColorIndex
 90
      256
102
RTVSPost2010Prop51ColorRGB
 90
-16777216
102
RTVSPost2010PropOp51
 70
     0
102
RTVSPost2010Prop52
140
1.0
102
RTVSPost2010PropOp52
 70
     0
102
RTVSPost2010Prop53
 90
        2
102
RTVSPost2010PropOp53
 70
     1
102
RTVSPost2010Prop54
  1
strokes_ogs.tif
102
RTVSPost2010PropOp54
 70
     1
102
RTVSPost2010Prop55
280
     0
102
RTVSPost2010PropOp55
 70
     1
102
RTVSPost2010Prop56
140
1.0
102
RTVSPost2010PropOp56
 70
     1
102
RTVSPost2010Prop57
140
1.0
102
RTVSPost2010PropOp57
 70
     1
102
RTVSPropertyOp0
 70
     1
102
RTVSPropertyOp1
 70
     1
102
RTVSPropertyOp2
 70
     1
102
RTVSPropertyOp3
 70
     1
102
RTVSPropertyOp4
 70
     1
102
RTVSPropertyOp5
 70
     1
102
RTVSPropertyOp6
 70
     1
102
RTVSPropertyOp7
 70
     1
102
RTVSPropertyOp8
 70
     1
102
RTVSPropertyOp9
 70
     1
102
RTVSPropertyOp10
 70
     1
102
RTVSPropertyOp11
 70
     1
102
RTVSPropertyOp12
 70
     1
102
RTVSPropertyOp13
 70
     1
102
RTVSPropertyOp14
 70
     1
102
RTVSPropertyOp15
 70
     1
102
RTVSPropertyOp16
 70
     1
102
RTVSPropertyOp17
 70
     1
102
RTVSPropertyOp18
 70
     1
102
RTVSPropertyOp19
 70
     1
102
RTVSPropertyOp20
 70
     1
102
RTVSPropertyOp21
 70
     1
102
RTVSPropertyOp22
 70
     1
102
RTVSPropertyOp23
 70
     1
102
RTVSPropertyOp24
 70
     1
102
RTVSPropertyOp25
 70
     1
102
RTVSPropertyOp26
 70
     1
102
RTVSPropertyOp27
 70
     1
102
RTVSPropertyOp28
 70
     1
102
RTVSPropertyOp29
 70
     1
102
RTVSPropertyOp30
 70
     1
102
RTVSPropertyOp31
 70
     1
102
RTVSPropertyOp32
 70
     1
102
RTVSPropertyOp33
 70
     1
102
RTVSPropertyOp34
 70
     1
102
RTVSPropertyOp35
 70
     1
102
RTVSPropertyOp36
 70
     1
102
RTVSPropertyOp37
 70
     1
102
RTVSPropertyOp38
 70
     1
102
RTVSPropertyOp39
 70
     1
102
RTVSPropertyOp40
 70
     1
102
RTVSPropertyOp41
 70
     1
102
RTVSPropertyOp42
 70
     1
102
RTVSPropertyOp43
 70
     1
102
RTVSPropertyOp44
 70
     1
102
RTVSPropertyOp45
 70
     1
102
RTVSPropertyOp46
 70
     1
102
RTVSPropertyOp47
 70
     1
102
RTVSPropertyOp48
 70
     1
102
RTVSPropertyOp49
 70
     1
102
RTVSPropertyOp50
 70
     1
102
RTVSPropertyOp51
 70
     0
102
RTVSPropertyOp52
 70
     0
102
RTVSPropertyOp53
 70
     1
102
RTVSPropertyOp54
 70
     1
102
RTVSPropertyOp55
 70
     1
102
RTVSPropertyOp56
 70
     1
102
RTVSPropertyOp57
 70
     1
102
RTVSPropertyOp58
 70
     1
102
RTVSPropertyOp59
 70
     1
102
RTVSPropertyOp60
 70
     1
102
RTVSPropertyOp61
 70
     1
102
RTVSPropertyOp62
 70
     1
  0
XRECORD
  5
66B0
102
{ACAD_REACTORS
330
66AF
102
}
330
66AF
100
AcDbXrecord
280
     1
102
RTVSPost2010Prop28
280
     0
102
RTVSPost2010PropOp28
 70
     1
102
RTVSPost2010Prop29
280
     1
102
RTVSPost2010PropOp29
 70
     1
102
RTVSPost2010Prop30
280
     1
102
RTVSPost2010PropOp30
 70
     1
102
RTVSPost2010Prop31
280
     0
102
RTVSPost2010PropOp31
 70
     1
102
RTVSPost2010Prop32
280
     0
102
RTVSPost2010PropOp32
 70
     1
102
RTVSPost2010Prop33
280
     0
102
RTVSPost2010PropOp33
 70
     1
102
RTVSPost2010Prop34
280
     0
102
RTVSPost2010PropOp34
 70
     1
102
RTVSPost2010Prop35
280
     0
102
RTVSPost2010PropOp35
 70
     1
102
RTVSPost2010Prop36
280
     0
102
RTVSPost2010PropOp36
 70
     1
102
RTVSPost2010Prop37
 90
       50
102
RTVSPost2010PropOp37
 70
     1
102
RTVSPost2010Prop38
140
0.0
102
RTVSPost2010PropOp38
 70
     1
102
RTVSPost2010Prop39
140
1.0
102
RTVSPost2010PropOp39
 70
     1
102
RTVSPost2010Prop40
 90
        0
102
RTVSPost2010PropOp40
 70
     1
102
RTVSPost2010Prop41ColorIndex
 90
       18
102
RTVSPost2010Prop41ColorRGB
 90
        0
102
RTVSPost2010PropOp41
 70
     1
102
RTVSPost2010Prop42
 90
       50
102
RTVSPost2010PropOp42
 70
     1
102
RTVSPost2010Prop43
 90
        3
102
RTVSPost2010PropOp43
 70
     1
102
RTVSPost2010Prop44ColorIndex
 90
        5
102
RTVSPost2010Prop44ColorRGB
 90
      255
102
RTVSPost2010PropOp44
 70
     1
102
RTVSPost2010Prop45
280
     0
102
RTVSPost2010PropOp45
 70
     1
102
RTVSPost2010Prop46
 90
       50
102
RTVSPost2010PropOp46
 70
     1
102
RTVSPost2010Prop47
 90
       50
102
RTVSPost2010PropOp47
 70
     1
102
RTVSPost2010Prop48
 90
       50
102
RTVSPost2010PropOp48
 70
     1
102
RTVSPost2010Prop49
280
     0
102
RTVSPost2010PropOp49
 70
     1
102
RTVSPost2010Prop50
 90
       50
102
RTVSPost2010PropOp50
 70
     1
102
RTVSPost2010Prop51ColorIndex
 90
      256
102
RTVSPost2010Prop51ColorRGB
 90
-16777216
102
RTVSPost2010PropOp51
 70
     0
102
RTVSPost2010Prop52
140
1.0
102
RTVSPost2010PropOp52
 70
     0
102
RTVSPost2010Prop53
 90
        2
102
RTVSPost2010PropOp53
 70
     1
102
RTVSPost2010Prop54
  1
strokes_ogs.tif
102
RTVSPost2010PropOp54
 70
     1
102
RTVSPost2010Prop55
280
     0
102
RTVSPost2010PropOp55
 70
     1
102
RTVSPost2010Prop56
140
1.0
102
RTVSPost2010PropOp56
 70
     1
102
RTVSPost2010Prop57
140
1.0
102
RTVSPost2010PropOp57
 70
     1
102
RTVSPropertyOp0
 70
     1
102
RTVSPropertyOp1
 70
     1
102
RTVSPropertyOp2
 70
     1
102
RTVSPropertyOp3
 70
     1
102
RTVSPropertyOp4
 70
     1
102
RTVSPropertyOp5
 70
     1
102
RTVSPropertyOp6
 70
     1
102
RTVSPropertyOp7
 70
     1
102
RTVSPropertyOp8
 70
     1
102
RTVSPropertyOp9
 70
     1
102
RTVSPropertyOp10
 70
     1
102
RTVSPropertyOp11
 70
     1
102
RTVSPropertyOp12
 70
     1
102
RTVSPropertyOp13
 70
     1
102
RTVSPropertyOp14
 70
     1
102
RTVSPropertyOp15
 70
     1
102
RTVSPropertyOp16
 70
     1
102
RTVSPropertyOp17
 70
     1
102
RTVSPropertyOp18
 70
     1
102
RTVSPropertyOp19
 70
     1
102
RTVSPropertyOp20
 70
     1
102
RTVSPropertyOp21
 70
     1
102
RTVSPropertyOp22
 70
     1
102
RTVSPropertyOp23
 70
     1
102
RTVSPropertyOp24
 70
     1
102
RTVSPropertyOp25
 70
     1
102
RTVSPropertyOp26
 70
     1
102
RTVSPropertyOp27
 70
     1
102
RTVSPropertyOp28
 70
     1
102
RTVSPropertyOp29
 70
     1
102
RTVSPropertyOp30
 70
     1
102
RTVSPropertyOp31
 70
     1
102
RTVSPropertyOp32
 70
     1
102
RTVSPropertyOp33
 70
     1
102
RTVSPropertyOp34
 70
     1
102
RTVSPropertyOp35
 70
     1
102
RTVSPropertyOp36
 70
     1
102
RTVSPropertyOp37
 70
     1
102
RTVSPropertyOp38
 70
     1
102
RTVSPropertyOp39
 70
     1
102
RTVSPropertyOp40
 70
     1
102
RTVSPropertyOp41
 70
     1
102
RTVSPropertyOp42
 70
     1
102
RTVSPropertyOp43
 70
     1
102
RTVSPropertyOp44
 70
     1
102
RTVSPropertyOp45
 70
     1
102
RTVSPropertyOp46
 70
     1
102
RTVSPropertyOp47
 70
     1
102
RTVSPropertyOp48
 70
     1
102
RTVSPropertyOp49
 70
     1
102
RTVSPropertyOp50
 70
     1
102
RTVSPropertyOp51
 70
     0
102
RTVSPropertyOp52
 70
     0
102
RTVSPropertyOp53
 70
     1
102
RTVSPropertyOp54
 70
     1
102
RTVSPropertyOp55
 70
     1
102
RTVSPropertyOp56
 70
     1
102
RTVSPropertyOp57
 70
     1
102
RTVSPropertyOp58
 70
     1
102
RTVSPropertyOp59
 70
     1
102
RTVSPropertyOp60
 70
     1
102
RTVSPropertyOp61
 70
     1
102
RTVSPropertyOp62
 70
     1
  0
ENDSEC
  0
EOF
